  0
SECTION
  2
HEADER
  9
$ACADVER
  1
AC1018
  9
$ACADMAINTVER
 70
     0
  9
$DWGCODEPAGE
  3
ANSI_932
  9
$LASTSAVEDBY
  1
shinwa
  9
$INSBASE
 10
0.0
 20
0.0
 30
0.0
  9
$EXTMIN
 10
21622.79736487872
 20
19554.06125142023
 30
0.0
  9
$EXTMAX
 10
40772.79736487872
 20
33404.06125142024
 30
0.0
  9
$LIMMIN
 10
0.0
 20
0.0
  9
$LIMMAX
 10
84100.0
 20
59400.0
  9
$ORTHOMODE
 70
     1
  9
$REGENMODE
 70
     1
  9
$FILLMODE
 70
     1
  9
$QTEXTMODE
 70
     0
  9
$MIRRTEXT
 70
     1
  9
$LTSCALE
 40
1000.0
  9
$ATTMODE
 70
     1
  9
$TEXTSIZE
 40
175.0
  9
$TRACEWID
 40
0.05
  9
$TEXTSTYLE
  7
ＭＳ ゴシック
  9
$CLAYER
  8
D-STR-TXT
  9
$CELTYPE
  6
BYLAYER
  9
$CECOLOR
 62
   256
  9
$CELTSCALE
 40
1.0
  9
$DISPSILH
 70
     0
  9
$DIMSCALE
 40
50.0
  9
$DIMASZ
 40
1.7
  9
$DIMEXO
 40
1.5
  9
$DIMDLI
 40
0.38
  9
$DIMRND
 40
0.0
  9
$DIMDLE
 40
0.0
  9
$DIMEXE
 40
0.5
  9
$DIMTP
 40
0.0
  9
$DIMTM
 40
0.0
  9
$DIMTXT
 40
3.0
  9
$DIMCEN
 40
0.09
  9
$DIMTSZ
 40
0.0
  9
$DIMTOL
 70
     0
  9
$DIMLIM
 70
     0
  9
$DIMTIH
 70
     0
  9
$DIMTOH
 70
     0
  9
$DIMSE1
 70
     0
  9
$DIMSE2
 70
     0
  9
$DIMTAD
 70
     1
  9
$DIMZIN
 70
     0
  9
$DIMBLK
  1
Open30
  9
$DIMASO
 70
     1
  9
$DIMSHO
 70
     1
  9
$DIMPOST
  1

  9
$DIMAPOST
  1

  9
$DIMALT
 70
     0
  9
$DIMALTD
 70
     2
  9
$DIMALTF
 40
25.4
  9
$DIMLFAC
 40
1.0
  9
$DIMTOFL
 70
     0
  9
$DIMTVP
 40
0.0
  9
$DIMTIX
 70
     1
  9
$DIMSOXD
 70
     0
  9
$DIMSAH
 70
     0
  9
$DIMBLK1
  1

  9
$DIMBLK2
  1

  9
$DIMSTYLE
  2
S-50
  9
$DIMCLRD
 70
     0
  9
$DIMCLRE
 70
     0
  9
$DIMCLRT
 70
     0
  9
$DIMTFAC
 40
1.0
  9
$DIMGAP
 40
0.8
  9
$DIMJUST
 70
     0
  9
$DIMSD1
 70
     0
  9
$DIMSD2
 70
     0
  9
$DIMTOLJ
 70
     1
  9
$DIMTZIN
 70
     0
  9
$DIMALTZ
 70
     0
  9
$DIMALTTZ
 70
     0
  9
$DIMUPT
 70
     0
  9
$DIMDEC
 70
     0
  9
$DIMTDEC
 70
     0
  9
$DIMALTU
 70
     2
  9
$DIMALTTD
 70
     2
  9
$DIMTXSTY
  7
ＭＳ ゴシック
  9
$DIMAUNIT
 70
     0
  9
$DIMADEC
 70
     4
  9
$DIMALTRND
 40
0.0
  9
$DIMAZIN
 70
     0
  9
$DIMDSEP
 70
    46
  9
$DIMATFIT
 70
     3
  9
$DIMFRAC
 70
     0
  9
$DIMLDRBLK
  1
Open30
  9
$DIMLUNIT
 70
     2
  9
$DIMLWD
 70
    -2
  9
$DIMLWE
 70
    -2
  9
$DIMTMOVE
 70
     2
  9
$LUNITS
 70
     2
  9
$LUPREC
 70
     3
  9
$SKETCHINC
 40
0.1
  9
$FILLETRAD
 40
0.0
  9
$AUNITS
 70
     0
  9
$AUPREC
 70
     5
  9
$MENU
  1
acad
  9
$ELEVATION
 40
0.0
  9
$PELEVATION
 40
0.0
  9
$THICKNESS
 40
0.0
  9
$LIMCHECK
 70
     0
  9
$CHAMFERA
 40
0.0
  9
$CHAMFERB
 40
0.0
  9
$CHAMFERC
 40
0.0
  9
$CHAMFERD
 40
0.0
  9
$SKPOLY
 70
     0
  9
$TDCREATE
 40
2450010.607337963
  9
$TDUCREATE
 40
2450010.232337963
  9
$TDUPDATE
 40
2457658.41220529
  9
$TDUUPDATE
 40
2457658.03720529
  9
$TDINDWG
 40
0.4559245486
  9
$TDUSRTIMER
 40
0.4559245486
  9
$USRTIMER
 70
     1
  9
$ANGBASE
 50
0.0
  9
$ANGDIR
 70
     0
  9
$PDMODE
 70
     0
  9
$PDSIZE
 40
100.0
  9
$PLINEWID
 40
0.0
  9
$SPLFRAME
 70
     0
  9
$SPLINETYPE
 70
     6
  9
$SPLINESEGS
 70
     8
  9
$HANDSEED
  5
7BC2
  9
$SURFTAB1
 70
     6
  9
$SURFTAB2
 70
     6
  9
$SURFTYPE
 70
     6
  9
$SURFU
 70
     6
  9
$SURFV
 70
     6
  9
$UCSBASE
  2

  9
$UCSNAME
  2

  9
$UCSORG
 10
0.0
 20
0.0
 30
0.0
  9
$UCSXDIR
 10
1.0
 20
0.0
 30
0.0
  9
$UCSYDIR
 10
0.0
 20
1.0
 30
0.0
  9
$UCSORTHOREF
  2

  9
$UCSORTHOVIEW
 70
     0
  9
$UCSORGTOP
 10
0.0
 20
0.0
 30
0.0
  9
$UCSORGBOTTOM
 10
0.0
 20
0.0
 30
0.0
  9
$UCSORGLEFT
 10
0.0
 20
0.0
 30
0.0
  9
$UCSORGRIGHT
 10
0.0
 20
0.0
 30
0.0
  9
$UCSORGFRONT
 10
0.0
 20
0.0
 30
0.0
  9
$UCSORGBACK
 10
0.0
 20
0.0
 30
0.0
  9
$PUCSBASE
  2

  9
$PUCSNAME
  2

  9
$PUCSORG
 10
0.0
 20
0.0
 30
0.0
  9
$PUCSXDIR
 10
1.0
 20
0.0
 30
0.0
  9
$PUCSYDIR
 10
0.0
 20
1.0
 30
0.0
  9
$PUCSORTHOREF
  2

  9
$PUCSORTHOVIEW
 70
     0
  9
$PUCSORGTOP
 10
0.0
 20
0.0
 30
0.0
  9
$PUCSORGBOTTOM
 10
0.0
 20
0.0
 30
0.0
  9
$PUCSORGLEFT
 10
0.0
 20
0.0
 30
0.0
  9
$PUCSORGRIGHT
 10
0.0
 20
0.0
 30
0.0
  9
$PUCSORGFRONT
 10
0.0
 20
0.0
 30
0.0
  9
$PUCSORGBACK
 10
0.0
 20
0.0
 30
0.0
  9
$USERI1
 70
     0
  9
$USERI2
 70
     0
  9
$USERI3
 70
     0
  9
$USERI4
 70
     0
  9
$USERI5
 70
     0
  9
$USERR1
 40
0.0
  9
$USERR2
 40
0.0
  9
$USERR3
 40
0.0
  9
$USERR4
 40
0.0
  9
$USERR5
 40
0.0
  9
$WORLDVIEW
 70
     1
  9
$SHADEDGE
 70
     3
  9
$SHADEDIF
 70
    70
  9
$TILEMODE
 70
     1
  9
$MAXACTVP
 70
    48
  9
$PINSBASE
 10
0.0
 20
0.0
 30
0.0
  9
$PLIMCHECK
 70
     0
  9
$PEXTMIN
 10
1.000000000000000E+20
 20
1.000000000000000E+20
 30
1.000000000000000E+20
  9
$PEXTMAX
 10
-1.000000000000000E+20
 20
-1.000000000000000E+20
 30
-1.000000000000000E+20
  9
$PLIMMIN
 10
0.0
 20
0.0
  9
$PLIMMAX
 10
12.0
 20
9.0
  9
$UNITMODE
 70
     0
  9
$VISRETAIN
 70
     0
  9
$PLINEGEN
 70
     0
  9
$PSLTSCALE
 70
     0
  9
$TREEDEPTH
 70
  3020
  9
$CMLSTYLE
  2
STANDARD
  9
$CMLJUST
 70
     0
  9
$CMLSCALE
 40
1.0
  9
$PROXYGRAPHICS
 70
     1
  9
$MEASUREMENT
 70
     0
  9
$CELWEIGHT
370
    -1
  9
$ENDCAPS
280
     0
  9
$JOINSTYLE
280
     0
  9
$LWDISPLAY
290
     0
  9
$INSUNITS
 70
     0
  9
$HYPERLINKBASE
  1

  9
$STYLESHEET
  1
acad.ctb
  9
$XEDIT
290
     1
  9
$CEPSNTYPE
380
     0
  9
$PSTYLEMODE
290
     1
  9
$FINGERPRINTGUID
  2
{D393076B-73A3-11D6-A1CB-0050FC45377D}
  9
$VERSIONGUID
  2
{58CF29A4-1D9D-4A6E-B3CF-678D29C7517A}
  9
$EXTNAMES
290
     1
  9
$PSVPSCALE
 40
0.0
  9
$OLESTARTUP
290
     0
  9
$SORTENTS
280
   127
  9
$INDEXCTL
280
     0
  9
$HIDETEXT
280
     0
  9
$XCLIPFRAME
290
     0
  9
$HALOGAP
280
     0
  9
$OBSCOLOR
 70
   257
  9
$OBSLTYPE
280
     0
  9
$INTERSECTIONDISPLAY
280
     0
  9
$INTERSECTIONCOLOR
 70
   257
  9
$DIMASSOC
280
     1
  9
$PROJECTNAME
  1

  0
ENDSEC
  0
SECTION
  2
CLASSES
  0
CLASS
  1
LWPOLYLINE
  2
AcDbPolyline
  3
AutoCAD 2000
 90
        0
 91
        1
280
     0
281
     1
  0
CLASS
  1
ACDBDICTIONARYWDFLT
  2
AcDbDictionaryWithDefault
  3
ObjectDBX Classes
 90
        0
 91
        4
280
     0
281
     0
  0
CLASS
  1
ACDBPLACEHOLDER
  2
AcDbPlaceHolder
  3
ObjectDBX Classes
 90
        0
 91
        1
280
     0
281
     0
  0
CLASS
  1
LAYOUT
  2
AcDbLayout
  3
ObjectDBX Classes
 90
        0
 91
        1
280
     0
281
     0
  0
CLASS
  1
DICTIONARYVAR
  2
AcDbDictionaryVar
  3
ObjectDBX Classes
 90
        0
 91
        4
280
     0
281
     0
  0
CLASS
  1
DUMMY
  2
AcDbLongTransaction
  3
DUMMY
 90
        0
 91
        1
280
     0
281
     0
  0
CLASS
  1
LWPOLYLINE
  2
AcDbPolyline
  3
AutoCAD 2000
 90
        0
 91
        1
280
     0
281
     1
  0
CLASS
  1
HATCH
  2
AcDbHatch
  3
AutoCAD 2000
 90
        0
 91
        1
280
     0
281
     1
  0
CLASS
  1
XRECORD
  2
AcDbXrecord
  3
AutoCAD 2000
 90
        0
 91
        1
280
     0
281
     0
  0
CLASS
  1
DUMMY
  2
AcDbLongTransaction
  3
DUMMY
 90
        0
 91
        1
280
     0
281
     0
  0
CLASS
  1
LWPOLYLINE
  2
AcDbPolyline
  3
AutoCAD 2000
 90
        0
 91
        1
280
     0
281
     1
  0
CLASS
  1
HATCH
  2
AcDbHatch
  3
AutoCAD 2000
 90
        0
 91
        1
280
     0
281
     1
  0
CLASS
  1
XRECORD
  2
AcDbXrecord
  3
AutoCAD 2000
 90
        0
 91
        1
280
     0
281
     0
  0
CLASS
  1
DUMMY
  2
AcDbLongTransaction
  3
DUMMY
 90
        0
 91
        1
280
     0
281
     0
  0
CLASS
  1
LWPOLYLINE
  2
AcDbPolyline
  3
AutoCAD 2000
 90
        0
 91
        1
280
     0
281
     1
  0
CLASS
  1
HATCH
  2
AcDbHatch
  3
AutoCAD 2000
 90
        0
 91
        1
280
     0
281
     1
  0
CLASS
  1
XRECORD
  2
AcDbXrecord
  3
AutoCAD 2000
 90
        0
 91
        1
280
     0
281
     0
  0
CLASS
  1
DUMMY
  2
AcDbLongTransaction
  3
DUMMY
 90
        0
 91
        1
280
     0
281
     0
  0
CLASS
  1
LWPOLYLINE
  2
AcDbPolyline
  3
AutoCAD 2000
 90
        0
 91
        1
280
     0
281
     1
  0
CLASS
  1
HATCH
  2
AcDbHatch
  3
AutoCAD 2000
 90
        0
 91
        1
280
     0
281
     1
  0
CLASS
  1
XRECORD
  2
AcDbXrecord
  3
AutoCAD 2000
 90
        0
 91
        1
280
     0
281
     0
  0
CLASS
  1
DUMMY
  2
AcDbLongTransaction
  3
DUMMY
 90
        0
 91
        1
280
     0
281
     0
  0
CLASS
  1
LWPOLYLINE
  2
AcDbPolyline
  3
AutoCAD 2000
 90
        0
 91
        1
280
     0
281
     1
  0
CLASS
  1
HATCH
  2
AcDbHatch
  3
AutoCAD 2000
 90
        0
 91
        1
280
     0
281
     1
  0
CLASS
  1
XRECORD
  2
AcDbXrecord
  3
AutoCAD 2000
 90
        0
 91
        1
280
     0
281
     0
  0
CLASS
  1
DUMMY
  2
AcDbLongTransaction
  3
DUMMY
 90
        0
 91
        1
280
     0
281
     0
  0
CLASS
  1
LWPOLYLINE
  2
AcDbPolyline
  3
AutoCAD 2000
 90
        0
 91
        1
280
     0
281
     1
  0
CLASS
  1
HATCH
  2
AcDbHatch
  3
AutoCAD 2000
 90
        0
 91
        1
280
     0
281
     1
  0
CLASS
  1
XRECORD
  2
AcDbXrecord
  3
AutoCAD 2000
 90
        0
 91
        1
280
     0
281
     0
  0
CLASS
  1
DUMMY
  2
AcDbLongTransaction
  3
DUMMY
 90
        0
 91
        1
280
     0
281
     0
  0
CLASS
  1
LWPOLYLINE
  2
AcDbPolyline
  3
AutoCAD 2000
 90
        0
 91
        1
280
     0
281
     1
  0
CLASS
  1
HATCH
  2
AcDbHatch
  3
AutoCAD 2000
 90
        0
 91
        1
280
     0
281
     1
  0
CLASS
  1
XRECORD
  2
AcDbXrecord
  3
AutoCAD 2000
 90
        0
 91
        1
280
     0
281
     0
  0
CLASS
  1
DUMMY
  2
AcDbLongTransaction
  3
DUMMY
 90
        0
 91
        1
280
     0
281
     0
  0
CLASS
  1
LWPOLYLINE
  2
AcDbPolyline
  3
AutoCAD 2000
 90
        0
 91
        1
280
     0
281
     1
  0
CLASS
  1
HATCH
  2
AcDbHatch
  3
AutoCAD 2000
 90
        0
 91
        1
280
     0
281
     1
  0
CLASS
  1
XRECORD
  2
AcDbXrecord
  3
AutoCAD 2000
 90
        0
 91
        1
280
     0
281
     0
  0
CLASS
  1
DUMMY
  2
AcDbLongTransaction
  3
DUMMY
 90
        0
 91
        1
280
     0
281
     0
  0
CLASS
  1
LWPOLYLINE
  2
AcDbPolyline
  3
AutoCAD 2000
 90
        0
 91
        1
280
     0
281
     1
  0
CLASS
  1
HATCH
  2
AcDbHatch
  3
AutoCAD 2000
 90
        0
 91
        1
280
     0
281
     1
  0
CLASS
  1
XRECORD
  2
AcDbXrecord
  3
AutoCAD 2000
 90
        0
 91
        1
280
     0
281
     0
  0
CLASS
  1
SORTENTSTABLE
  2
AcDbSortentsTable
  3
ObjectDBX Classes
 90
        0
 91
        4
280
     0
281
     0
  0
CLASS
  1
DUMMY
  2
AcDbLongTransaction
  3
DUMMY
 90
        0
 91
        1
280
     0
281
     0
  0
CLASS
  1
LWPOLYLINE
  2
AcDbPolyline
  3
AutoCAD 2000
 90
        0
 91
        1
280
     0
281
     1
  0
CLASS
  1
HATCH
  2
AcDbHatch
  3
AutoCAD 2000
 90
        0
 91
        1
280
     0
281
     1
  0
CLASS
  1
XRECORD
  2
AcDbXrecord
  3
AutoCAD 2000
 90
        0
 91
        1
280
     0
281
     0
  0
CLASS
  1
DUMMY
  2
AcDbLongTransaction
  3
DUMMY
 90
        0
 91
        1
280
     0
281
     0
  0
CLASS
  1
LWPOLYLINE
  2
AcDbPolyline
  3
AutoCAD 2000
 90
        0
 91
        1
280
     0
281
     1
  0
CLASS
  1
HATCH
  2
AcDbHatch
  3
AutoCAD 2000
 90
        0
 91
        1
280
     0
281
     1
  0
CLASS
  1
XRECORD
  2
AcDbXrecord
  3
AutoCAD 2000
 90
        0
 91
        1
280
     0
281
     0
  0
CLASS
  1
TABLESTYLE
  2
AcDbTableStyle
  3
ObjectDBX Classes
 90
     4095
 91
        4
280
     0
281
     0
  0
CLASS
  1
MATERIAL
  2
AcDbMaterial
  3
ObjectDBX Classes
 90
     1153
 91
        4
280
     0
281
     0
  0
CLASS
  1
VISUALSTYLE
  2
AcDbVisualStyle
  3
ObjectDBX Classes
 90
     4095
 91
        4
280
     0
281
     0
  0
CLASS
  1
SCALE
  2
AcDbScale
  3
ObjectDBX Classes
 90
     1153
 91
        4
280
     0
281
     0
  0
CLASS
  1
MLEADERSTYLE
  2
AcDbMLeaderStyle
  3
ACDB_MLEADERSTYLE_CLASS
 90
     4095
 91
        4
280
     0
281
     0
  0
CLASS
  1
ACDBSECTIONVIEWSTYLE
  2
AcDbSectionViewStyle
  3
ObjectDBX Classes
 90
     1025
 91
        2
280
     1
281
     0
  0
CLASS
  1
ACDBDETAILVIEWSTYLE
  2
AcDbDetailViewStyle
  3
ObjectDBX Classes
 90
     1025
 91
        2
280
     1
281
     0
  0
CLASS
  1
CELLSTYLEMAP
  2
AcDbCellStyleMap
  3
ObjectDBX Classes
 90
     1152
 91
        4
280
     0
281
     0
  0
ENDSEC
  0
SECTION
  2
TABLES
  0
TABLE
  2
VPORT
  5
8
102
{ACAD_XDICTIONARY
360
7B86
102
}
330
0
100
AcDbSymbolTable
 70
     1
  0
VPORT
  5
7AB6
330
8
100
AcDbSymbolTableRecord
100
AcDbViewportTableRecord
  2
*Active
 70
     0
 10
0.0
 20
0.0
 11
1.0
 21
1.0
 12
30811.09525776437
 22
25730.20941291036
 13
0.0
 23
0.0
 14
1.0
 24
1.0
 15
1000.0
 25
1000.0
 16
0.0
 26
0.0
 36
1.0
 17
0.0
 27
0.0
 37
0.0
 40
17590.03816585085
 41
1.560747663551402
 42
50.0
 43
0.0
 44
0.0
 50
0.0
 51
0.0
 71
     0
 72
   100
 73
     1
 74
     1
 75
     0
 76
     0
 77
     0
 78
     0
281
     0
 65
     1
110
0.0
120
0.0
130
0.0
111
1.0
121
0.0
131
0.0
112
0.0
122
1.0
132
0.0
 79
     0
146
0.0
1001
ACAD_NAV_VCDISPLAY
1070
     3
  0
ENDTAB
  0
TABLE
  2
LTYPE
  5
5
330
0
100
AcDbSymbolTable
 70
     9
  0
LTYPE
  5
11
330
5
100
AcDbSymbolTableRecord
100
AcDbLinetypeTableRecord
  2
BYBLOCK
 70
     0
  3

 72
    65
 73
     0
 40
0.0
  0
LTYPE
  5
12
330
5
100
AcDbSymbolTableRecord
100
AcDbLinetypeTableRecord
  2
BYLAYER
 70
     0
  3

 72
    65
 73
     0
 40
0.0
  0
LTYPE
  5
13
330
5
100
AcDbSymbolTableRecord
100
AcDbLinetypeTableRecord
  2
CONTINUOUS
 70
     0
  3
実線
 72
    65
 73
     0
 40
0.0
  0
LTYPE
  5
1E
330
5
100
AcDbSymbolTableRecord
100
AcDbLinetypeTableRecord
  2
HIDDEN
 70
     0
  3
_ _ _ _ _ _ _ _ _ _ _ _ _ _ _ _ _ _ _ _ _ _ _
 72
    65
 73
     2
 40
0.375
 49
0.25
 74
     0
 49
-0.125
 74
     0
  0
LTYPE
  5
1F
330
5
100
AcDbSymbolTableRecord
100
AcDbLinetypeTableRecord
  2
CENTER
 70
     0
  3
____ _ ____ _ ____ _ ____ _ ____ _ ____ _ ____
 72
    65
 73
     4
 40
2.0
 49
1.25
 74
     0
 49
-0.25
 74
     0
 49
0.25
 74
     0
 49
-0.25
 74
     0
  0
LTYPE
  5
20
330
5
100
AcDbSymbolTableRecord
100
AcDbLinetypeTableRecord
  2
PHANTOM
 70
     0
  3
_____ _ _ _____ _ _ _____ _ _ _____ _ _ ____
 72
    65
 73
     6
 40
2.5
 49
1.25
 74
     0
 49
-0.25
 74
     0
 49
0.25
 74
     0
 49
-0.25
 74
     0
 49
0.25
 74
     0
 49
-0.25
 74
     0
  0
LTYPE
  5
B5C
330
5
100
AcDbSymbolTableRecord
100
AcDbLinetypeTableRecord
  2
HASEN1
 70
     0
  3
破線
 72
    65
 73
     2
 40
2.0
 49
1.0
 74
     0
 49
-1.0
 74
     0
  0
LTYPE
  5
B5D
330
5
100
AcDbSymbolTableRecord
100
AcDbLinetypeTableRecord
  2
TENSEN1
 70
     0
  3
点線
 72
    65
 73
     2
 40
1.0
 49
0.5
 74
     0
 49
-0.5
 74
     0
  0
LTYPE
  5
B5E
330
5
100
AcDbSymbolTableRecord
100
AcDbLinetypeTableRecord
  2
TEN1SEN1
 70
     0
  3
一点鎖線
 72
    65
 73
     4
 40
18.0
 49
15.0
 74
     0
 49
-1.0
 74
     0
 49
1.0
 74
     0
 49
-1.0
 74
     0
  0
LTYPE
  5
3A3D
330
5
100
AcDbSymbolTableRecord
100
AcDbLinetypeTableRecord
  2
ACAD_ISO07W100
 70
     0
  3
ISO dot . . . . . . . . . . . . . . . . . . . .
 72
    65
 73
     2
 40
3.0
 49
0.0
 74
     0
 49
-3.0
 74
     0
  0
LTYPE
  5
3A3E
330
5
100
AcDbSymbolTableRecord
100
AcDbLinetypeTableRecord
  2
DOT2
 70
     0
  3
Dot (.5x) .....................................
 72
    65
 73
     2
 40
0.125
 49
0.0
 74
     0
 49
-0.125
 74
     0
  0
ENDTAB
  0
TABLE
  2
LAYER
  5
2
102
{ACAD_XDICTIONARY
360
3B1C
102
}
330
0
100
AcDbSymbolTable
 70
    18
  0
LAYER
  5
E
102
{ACAD_XDICTIONARY
360
7B0E
102
}
330
2
100
AcDbSymbolTableRecord
100
AcDbLayerTableRecord
  2
0
 70
     0
 62
     7
  6
CONTINUOUS
370
    -3
390
3A32
  0
LAYER
  5
23
102
{ACAD_XDICTIONARY
360
7B10
102
}
330
2
100
AcDbSymbolTableRecord
100
AcDbLayerTableRecord
  2
D-TTL
 70
     0
 62
     2
  6
CONTINUOUS
370
    50
390
3A32
1001
AcAecLayerStandard
1000

1000
外枠
  0
LAYER
  5
25
102
{ACAD_XDICTIONARY
360
7B12
102
}
330
2
100
AcDbSymbolTableRecord
100
AcDbLayerTableRecord
  2
D-STR
 70
     0
 62
     1
  6
CONTINUOUS
370
    25
390
3A32
1001
AcAecLayerStandard
1000

1000
構造物外形線
  0
LAYER
  5
A9
330
2
100
AcDbSymbolTableRecord
100
AcDbLayerTableRecord
  2
DEFPOINTS
 70
     0
 62
     7
  6
CONTINUOUS
290
     0
370
    -3
390
3A32
  0
LAYER
  5
67C7
102
{ACAD_XDICTIONARY
360
7B14
102
}
330
2
100
AcDbSymbolTableRecord
100
AcDbLayerTableRecord
  2
D-TTL-TXT
 70
     0
 62
     7
  6
CONTINUOUS
370
    13
390
3A32
1001
AcAecLayerStandard
1000

1000
枠タイトル
  0
LAYER
  5
67C9
102
{ACAD_XDICTIONARY
360
7B16
102
}
330
2
100
AcDbSymbolTableRecord
100
AcDbLayerTableRecord
  2
D-BGD
 70
     0
 62
     7
  6
CONTINUOUS
370
    13
390
3A32
1001
AcAecLayerStandard
1000

1000
既設構造物等(基礎材)
  0
LAYER
  5
67CA
102
{ACAD_XDICTIONARY
360
7B18
102
}
330
2
100
AcDbSymbolTableRecord
100
AcDbLayerTableRecord
  2
D-BGD-DIM
 70
     0
 62
     7
  6
CONTINUOUS
370
    13
390
3A32
1001
AcAecLayerStandard
1000

1000
既-寸法線
  0
LAYER
  5
67CB
102
{ACAD_XDICTIONARY
360
7B1A
102
}
330
2
100
AcDbSymbolTableRecord
100
AcDbLayerTableRecord
  2
D-BGD-TXT
 70
     0
 62
     7
  6
CONTINUOUS
370
    13
390
3A32
1001
AcAecLayerStandard
1000

1000
既-文字
  0
LAYER
  5
67CC
102
{ACAD_XDICTIONARY
360
7B1C
102
}
330
2
100
AcDbSymbolTableRecord
100
AcDbLayerTableRecord
  2
D-BGD-HTXT
 70
     0
 62
     7
  6
CONTINUOUS
370
    13
390
3A32
1001
AcAecLayerStandard
1000

1000
既-旗上げ
  0
LAYER
  5
69E8
102
{ACAD_XDICTIONARY
360
7B1E
102
}
330
2
100
AcDbSymbolTableRecord
100
AcDbLayerTableRecord
  2
D-BMK
 70
     0
 62
     2
  6
CENTER
370
    13
390
3A32
1001
AcAecLayerStandard
1000

1000
構造物中心線
  0
LAYER
  5
69E9
102
{ACAD_XDICTIONARY
360
7B20
102
}
330
2
100
AcDbSymbolTableRecord
100
AcDbLayerTableRecord
  2
D-BMK-HTXT
 70
     0
 62
     7
  6
CONTINUOUS
370
    13
390
3A32
1001
AcAecLayerStandard
1000

1000
旗上げ
  0
LAYER
  5
69EA
102
{ACAD_XDICTIONARY
360
7B22
102
}
330
2
100
AcDbSymbolTableRecord
100
AcDbLayerTableRecord
  2
D-STR-DIM
 70
     0
 62
     7
  6
CONTINUOUS
370
    13
390
3A32
1001
AcAecLayerStandard
1000

1000
構-寸法線
  0
LAYER
  5
69EB
102
{ACAD_XDICTIONARY
360
7B24
102
}
330
2
100
AcDbSymbolTableRecord
100
AcDbLayerTableRecord
  2
D-STR-TXT
 70
     0
 62
     7
  6
CONTINUOUS
370
    13
390
3A32
1001
AcAecLayerStandard
1000

1000
構-文字
  0
LAYER
  5
69EC
102
{ACAD_XDICTIONARY
360
7B26
102
}
330
2
100
AcDbSymbolTableRecord
100
AcDbLayerTableRecord
  2
D-STR-HTXT
 70
     0
 62
     7
  6
CONTINUOUS
370
    13
390
3A32
1001
AcAecLayerStandard
1000

1000
構-旗上げ
  0
LAYER
  5
69ED
102
{ACAD_XDICTIONARY
360
7B28
102
}
330
2
100
AcDbSymbolTableRecord
100
AcDbLayerTableRecord
  2
D-MTR
 70
     0
 62
     7
  6
CONTINUOUS
370
    13
390
3A32
1001
AcAecLayerStandard
1000

1000
材料表
  0
LAYER
  5
69EE
102
{ACAD_XDICTIONARY
360
7B2A
102
}
330
2
100
AcDbSymbolTableRecord
100
AcDbLayerTableRecord
  2
D-MTR-TXT
 70
     0
 62
     7
  6
CONTINUOUS
370
    13
390
3A32
1001
AcAecLayerStandard
1000

1000
材-文字
  0
LAYER
  5
6BF9
102
{ACAD_XDICTIONARY
360
7B2C
102
}
330
2
100
AcDbSymbolTableRecord
100
AcDbLayerTableRecord
  2
SUNPOU
 70
     0
 62
     1
  6
CONTINUOUS
370
    -3
390
3A32
  0
LAYER
  5
7435
102
{ACAD_XDICTIONARY
360
7B2E
102
}
330
2
100
AcDbSymbolTableRecord
100
AcDbLayerTableRecord
  2
D-STR-STR2
 70
     0
 62
     6
  6
CONTINUOUS
370
    13
390
3A32
1001
AcAecLayerStandard
1000

1000

  0
ENDTAB
  0
TABLE
  2
STYLE
  5
3
330
0
100
AcDbSymbolTable
 70
     4
  0
STYLE
  5
F
330
3
100
AcDbSymbolTableRecord
100
AcDbTextStyleTableRecord
  2
STANDARD
 70
     0
 40
0.0
 41
0.8
 50
0.0
 71
     0
 42
800.0
  3
TXT.shx
  4
BIGFONT.shx
  0
STYLE
  5
3A3C
330
3
100
AcDbSymbolTableRecord
100
AcDbTextStyleTableRecord
  2

 70
     1
 40
0.0
 41
1.0
 50
0.0
 71
     0
 42
300.0
  3
ltypeshp.shx
  4

  0
STYLE
  5
3B35
330
3
100
AcDbSymbolTableRecord
100
AcDbTextStyleTableRecord
  2
STANDARD-FC
 70
     0
 40
0.0
 41
1.0
 50
0.0
 71
     0
 42
0.0
  3
txt
  4
bigfont
  0
STYLE
  5
3B36
330
3
100
AcDbSymbolTableRecord
100
AcDbTextStyleTableRecord
  2
ＭＳ ゴシック
 70
     0
 40
0.0
 41
1.0
 50
0.0
 71
     0
 42
175.0
  3

  4

1001
ACAD
1000
MS Gothic
1071
    32817
  0
ENDTAB
  0
TABLE
  2
VIEW
  5
6
330
0
100
AcDbSymbolTable
 70
     0
  0
ENDTAB
  0
TABLE
  2
UCS
  5
7
330
0
100
AcDbSymbolTable
 70
     0
  0
ENDTAB
  0
TABLE
  2
APPID
  5
9
330
0
100
AcDbSymbolTable
 70
    13
  0
APPID
  5
10
330
9
100
AcDbSymbolTableRecord
100
AcDbRegAppTableRecord
  2
ACAD
 70
     0
  0
APPID
  5
5FF5
330
9
100
AcDbSymbolTableRecord
100
AcDbRegAppTableRecord
  2
ACAD_DSTYLE_DIMTEXT_FILL
 70
     0
  0
APPID
  5
5FF6
330
9
100
AcDbSymbolTableRecord
100
AcDbRegAppTableRecord
  2
ACAD_DSTYLE_DIMEXT_LENGTH
 70
     0
  0
APPID
  5
5FF7
330
9
100
AcDbSymbolTableRecord
100
AcDbRegAppTableRecord
  2
ACAD_DSTYLE_DIMEXT_ENABLED
 70
     0
  0
APPID
  5
5FF8
330
9
100
AcDbSymbolTableRecord
100
AcDbRegAppTableRecord
  2
ACAD_DSTYLE_DIM_LINETYPE
 70
     0
  0
APPID
  5
5FF9
330
9
100
AcDbSymbolTableRecord
100
AcDbRegAppTableRecord
  2
ACAD_DSTYLE_DIM_EXT1_LINETYPE
 70
     0
  0
APPID
  5
5FFA
330
9
100
AcDbSymbolTableRecord
100
AcDbRegAppTableRecord
  2
ACAD_DSTYLE_DIM_EXT2_LINETYPE
 70
     0
  0
APPID
  5
6146
330
9
100
AcDbSymbolTableRecord
100
AcDbRegAppTableRecord
  2
ACAD_DSTYLE_DIMJOGGED_JOGANGLE_SYMBOL
 70
     0
  0
APPID
  5
6727
330
9
100
AcDbSymbolTableRecord
100
AcDbRegAppTableRecord
  2
ACAD_DSTYLE_DIMARC_LENGTH_SYMBOL
 70
     0
  0
APPID
  5
67C8
330
9
100
AcDbSymbolTableRecord
100
AcDbRegAppTableRecord
  2
AcAecLayerStandard
 70
     0
  0
APPID
  5
7AB0
330
9
100
AcDbSymbolTableRecord
100
AcDbRegAppTableRecord
  2
ACAD_EXEMPT_FROM_CAD_STANDARDS
 70
     0
  0
APPID
  5
7B38
330
9
100
AcDbSymbolTableRecord
100
AcDbRegAppTableRecord
  2
ACAD_NAV_VCDISPLAY
 70
     0
  0
APPID
  5
7B76
330
9
100
AcDbSymbolTableRecord
100
AcDbRegAppTableRecord
  2
ACAD_MLEADERVER
 70
     0
  0
ENDTAB
  0
TABLE
  2
DIMSTYLE
  5
A
330
0
100
AcDbSymbolTable
 70
     3
100
AcDbDimStyleTable
  0
DIMSTYLE
105
75
330
A
100
AcDbSymbolTableRecord
100
AcDbDimStyleTableRecord
  2
STANDARD
 70
     0
178
     0
340
F
  0
DIMSTYLE
105
6F2C
102
{ACAD_REACTORS
330
772F
330
7742
330
7751
330
79FC
330
79FD
330
7A13
330
78BE
102
}
330
A
100
AcDbSymbolTableRecord
100
AcDbDimStyleTableRecord
  2
S-50
 70
     0
 40
50.0
 41
1.7
 42
1.5
 44
0.5
 73
     0
 74
     0
 77
     1
140
3.0
147
0.8
174
     1
178
     0
179
     4
271
     0
272
     0
279
     2
340
3B36
341
62FD
342
62FD
1001
ACAD_DSTYLE_DIMJOGGED_JOGANGLE_SYMBOL
1070
   384
1040
0.7853981633974483
  0
DIMSTYLE
105
7436
330
A
100
AcDbSymbolTableRecord
100
AcDbDimStyleTableRecord
  2
S-100
 70
     0
 40
100.0
 41
2.0
 42
2.0
 44
0.5
 73
     0
 74
     0
 77
     1
140
3.5
147
0.8
174
     1
178
     0
179
     4
271
     0
272
     0
279
     2
340
3B36
342
62FD
1001
ACAD_DSTYLE_DIMJOGGED_JOGANGLE_SYMBOL
1070
   384
1040
0.7853981633974483
  0
ENDTAB
  0
TABLE
  2
BLOCK_RECORD
  5
1
330
0
100
AcDbSymbolTable
 70
    16
  0
BLOCK_RECORD
  5
17
102
{ACAD_XDICTIONARY
360
3A7C
102
}
330
1
100
AcDbSymbolTableRecord
100
AcDbBlockTableRecord
  2
*MODEL_SPACE
340
3A35
  0
BLOCK_RECORD
  5
14
330
1
100
AcDbSymbolTableRecord
100
AcDbBlockTableRecord
  2
*PAPER_SPACE
340
3A36
  0
BLOCK_RECORD
  5
6297
330
1
100
AcDbSymbolTableRecord
100
AcDbBlockTableRecord
  2
_Open
340
0
  0
BLOCK_RECORD
  5
62FD
330
1
100
AcDbSymbolTableRecord
100
AcDbBlockTableRecord
  2
_Open30
340
0
102
{BLKREFS
331
7A6E
331
7A6F
331
7A77
331
7A78
331
7A81
331
7A82
331
7A8A
331
7A8B
331
7A93
331
7A94
331
7A9E
331
7A9F
331
7AA7
331
7AA8
102
}
  0
BLOCK_RECORD
  5
7A14
330
1
100
AcDbSymbolTableRecord
100
AcDbBlockTableRecord
  2
*D9
340
0
  0
BLOCK_RECORD
  5
7A20
330
1
100
AcDbSymbolTableRecord
100
AcDbBlockTableRecord
  2
*D10
340
0
  0
BLOCK_RECORD
  5
7A2C
330
1
100
AcDbSymbolTableRecord
100
AcDbBlockTableRecord
  2
*D11
340
0
  0
BLOCK_RECORD
  5
7A39
330
1
100
AcDbSymbolTableRecord
100
AcDbBlockTableRecord
  2
*D12
340
0
  0
BLOCK_RECORD
  5
7A45
330
1
100
AcDbSymbolTableRecord
100
AcDbBlockTableRecord
  2
*D13
340
0
  0
BLOCK_RECORD
  5
7A51
330
1
100
AcDbSymbolTableRecord
100
AcDbBlockTableRecord
  2
*D14
340
0
  0
BLOCK_RECORD
  5
7A5E
330
1
100
AcDbSymbolTableRecord
100
AcDbBlockTableRecord
  2
*D15
340
0
  0
ENDTAB
  0
ENDSEC
  0
SECTION
  2
BLOCKS
  0
BLOCK
  5
2D
330
17
100
AcDbEntity
  8
0
100
AcDbBlockBegin
  2
*MODEL_SPACE
 70
     0
 10
0.0
 20
0.0
 30
0.0
  3
*MODEL_SPACE
  1

  0
ENDBLK
  5
2E
330
17
100
AcDbEntity
  8
0
100
AcDbBlockEnd
  0
BLOCK
  5
2B
330
14
100
AcDbEntity
 67
     1
  8
0
100
AcDbBlockBegin
  2
*PAPER_SPACE
 70
     0
 10
0.0
 20
0.0
 30
0.0
  3
*PAPER_SPACE
  1

  0
ENDBLK
  5
2C
330
14
100
AcDbEntity
 67
     1
  8
0
100
AcDbBlockEnd
  0
BLOCK
  5
629B
330
6297
100
AcDbEntity
  8
0
100
AcDbBlockBegin
  2
_Open
 70
     0
 10
0.0
 20
0.0
 30
0.0
  3
_Open
  1

  0
LINE
  5
6298
330
6297
100
AcDbEntity
  8
0
  6
ByBlock
 62
     0
370
    -2
100
AcDbLine
 10
-1.0
 20
0.1666666666666667
 30
0.0
 11
0.0
 21
0.0
 31
0.0
  0
LINE
  5
6299
330
6297
100
AcDbEntity
  8
0
  6
ByBlock
 62
     0
370
    -2
100
AcDbLine
 10
-1.0
 20
-0.1666666666666667
 30
0.0
 11
0.0
 21
0.0
 31
0.0
  0
LINE
  5
629A
330
6297
100
AcDbEntity
  8
0
  6
ByBlock
 62
     0
370
    -2
100
AcDbLine
 10
0.0
 20
0.0
 30
0.0
 11
-1.0
 21
0.0
 31
0.0
  0
ENDBLK
  5
629C
330
6297
100
AcDbEntity
  8
0
100
AcDbBlockEnd
  0
BLOCK
  5
6301
330
62FD
100
AcDbEntity
  8
0
100
AcDbBlockBegin
  2
_Open30
 70
     0
 10
0.0
 20
0.0
 30
0.0
  3
_Open30
  1

  0
LINE
  5
62FE
330
62FD
100
AcDbEntity
  8
0
  6
ByBlock
 62
     0
370
    -2
100
AcDbLine
 10
-1.0
 20
0.26794919
 30
0.0
 11
0.0
 21
0.0
 31
0.0
  0
LINE
  5
62FF
330
62FD
100
AcDbEntity
  8
0
  6
ByBlock
 62
     0
370
    -2
100
AcDbLine
 10
0.0
 20
0.0
 30
0.0
 11
-1.0
 21
-0.26794919
 31
0.0
  0
LINE
  5
6300
330
62FD
100
AcDbEntity
  8
0
  6
ByBlock
 62
     0
370
    -2
100
AcDbLine
 10
0.0
 20
0.0
 30
0.0
 11
-1.0
 21
0.0
 31
0.0
  0
ENDBLK
  5
6302
330
62FD
100
AcDbEntity
  8
0
100
AcDbBlockEnd
  0
BLOCK
  5
7A1E
330
7A14
100
AcDbEntity
  8
0
100
AcDbBlockBegin
  2
*D9
 70
     1
 10
0.0
 20
0.0
 30
0.0
  3
*D9
  1

  0
LINE
  5
7A6B
330
7A14
100
AcDbEntity
  8
D-STR-DIM
 62
     0
440
 16777216
370
    -2
100
AcDbLine
 10
26326.89203615766
 20
28082.78935959892
 30
0.0
 11
26075.8877411523
 21
28082.78935959892
 31
0.0
  0
LINE
  5
7A6C
330
7A14
100
AcDbEntity
  8
D-STR-DIM
 62
     0
440
 16777216
370
    -2
100
AcDbLine
 10
26326.89203615766
 20
29082.78935959892
 30
0.0
 11
26075.8877411523
 21
29082.78935959892
 31
0.0
  0
LINE
  5
7A6D
330
7A14
100
AcDbEntity
  8
D-STR-DIM
 62
     0
440
 16777216
370
    -2
100
AcDbLine
 10
26100.8877411523
 20
28167.78935959892
 30
0.0
 11
26100.8877411523
 21
28997.78935959892
 31
0.0
  0
INSERT
  5
7A6E
330
7A14
100
AcDbEntity
  8
D-STR-DIM
 62
     0
440
 16777216
370
    -2
100
AcDbBlockReference
  2
_Open30
 10
26100.8877411523
 20
28082.78935959892
 30
0.0
 41
85.0
 42
85.0
 43
85.0
 50
270.0
  0
INSERT
  5
7A6F
330
7A14
100
AcDbEntity
  8
D-STR-DIM
 62
     0
440
 16777216
370
    -2
100
AcDbBlockReference
  2
_Open30
 10
26100.8877411523
 20
29082.78935959892
 30
0.0
 41
85.0
 42
85.0
 43
85.0
 50
90.0
  0
MTEXT
  5
7A70
330
7A14
100
AcDbEntity
  8
D-STR-DIM
 62
     0
440
 16777216
100
AcDbMText
 10
25985.88774115229
 20
28582.78935959893
 30
0.0
 40
150.0
 41
0.0
 71
     5
 72
     1
  1
\A1;1000
  7
ＭＳ ゴシック
 11
6.123031769111886E-17
 21
1.0
 31
0.0
 73
     1
 44
1.0
  0
POINT
  5
7A71
330
7A14
100
AcDbEntity
  8
DEFPOINTS
 62
     0
440
 16777216
100
AcDbPoint
 10
26401.89203615766
 20
28082.78935959892
 30
0.0
  0
POINT
  5
7A72
330
7A14
100
AcDbEntity
  8
DEFPOINTS
 62
     0
440
 16777216
100
AcDbPoint
 10
26401.89203615766
 20
29082.78935959892
 30
0.0
  0
POINT
  5
7A73
330
7A14
100
AcDbEntity
  8
DEFPOINTS
 62
     0
440
 16777216
100
AcDbPoint
 10
26100.8877411523
 20
29082.78935959892
 30
0.0
  0
ENDBLK
  5
7A1F
330
7A14
100
AcDbEntity
  8
0
100
AcDbBlockEnd
  0
BLOCK
  5
7A2A
330
7A20
100
AcDbEntity
  8
0
100
AcDbBlockBegin
  2
*D10
 70
     1
 10
0.0
 20
0.0
 30
0.0
  3
*D10
  1

  0
LINE
  5
7A74
330
7A20
100
AcDbEntity
  8
D-STR-DIM
 62
     0
440
 16777216
370
    -2
100
AcDbLine
 10
26401.89203615766
 20
29157.78935959892
 30
0.0
 11
26401.89203615766
 21
29432.808121345
 31
0.0
  0
LINE
  5
7A75
330
7A20
100
AcDbEntity
  8
D-STR-DIM
 62
     0
440
 16777216
370
    -2
100
AcDbLine
 10
27401.89203615766
 20
29157.78935959892
 30
0.0
 11
27401.89203615766
 21
29432.808121345
 31
0.0
  0
LINE
  5
7A76
330
7A20
100
AcDbEntity
  8
D-STR-DIM
 62
     0
440
 16777216
370
    -2
100
AcDbLine
 10
26486.89203615766
 20
29407.808121345
 30
0.0
 11
27316.89203615766
 21
29407.808121345
 31
0.0
  0
INSERT
  5
7A77
330
7A20
100
AcDbEntity
  8
D-STR-DIM
 62
     0
440
 16777216
370
    -2
100
AcDbBlockReference
  2
_Open30
 10
26401.89203615766
 20
29407.808121345
 30
0.0
 41
85.0
 42
85.0
 43
85.0
 50
180.0
  0
INSERT
  5
7A78
330
7A20
100
AcDbEntity
  8
D-STR-DIM
 62
     0
440
 16777216
370
    -2
100
AcDbBlockReference
  2
_Open30
 10
27401.89203615766
 20
29407.808121345
 30
0.0
 41
85.0
 42
85.0
 43
85.0
  0
MTEXT
  5
7A79
330
7A20
100
AcDbEntity
  8
D-STR-DIM
 62
     0
440
 16777216
100
AcDbMText
 10
26901.89203615766
 20
29522.808121345
 30
0.0
 40
150.0
 41
0.0
 71
     5
 72
     1
  1
\A1;1000
  7
ＭＳ ゴシック
 73
     1
 44
1.0
  0
POINT
  5
7A7A
330
7A20
100
AcDbEntity
  8
DEFPOINTS
 62
     0
440
 16777216
100
AcDbPoint
 10
26401.89203615766
 20
29082.78935959892
 30
0.0
  0
POINT
  5
7A7B
330
7A20
100
AcDbEntity
  8
DEFPOINTS
 62
     0
440
 16777216
100
AcDbPoint
 10
27401.89203615766
 20
29082.78935959892
 30
0.0
  0
POINT
  5
7A7C
330
7A20
100
AcDbEntity
  8
DEFPOINTS
 62
     0
440
 16777216
100
AcDbPoint
 10
27401.89203615766
 20
29407.808121345
 30
0.0
  0
ENDBLK
  5
7A2B
330
7A20
100
AcDbEntity
  8
0
100
AcDbBlockEnd
  0
BLOCK
  5
7A37
330
7A2C
100
AcDbEntity
  8
0
100
AcDbBlockBegin
  2
*D11
 70
     1
 10
0.0
 20
0.0
 30
0.0
  3
*D11
  1

  0
LINE
  5
7A7D
330
7A2C
100
AcDbEntity
  8
D-STR-DIM
 62
     0
440
 16777216
370
    -2
100
AcDbLine
 10
28071.0443510438
 20
29152.44935959892
 30
0.0
 11
28071.0443510438
 21
29432.808121345
 31
0.0
  0
LINE
  5
7A7E
330
7A2C
100
AcDbEntity
  8
D-STR-DIM
 62
     0
440
 16777216
370
    -2
100
AcDbLine
 10
28221.0443510438
 20
29157.78935959892
 30
0.0
 11
28221.0443510438
 21
29432.808121345
 31
0.0
  0
LINE
  5
7A7F
330
7A2C
100
AcDbEntity
  8
D-STR-DIM
 62
     0
440
 16777216
370
    -2
100
AcDbLine
 10
27986.0443510438
 20
29407.808121345
 30
0.0
 11
27901.0443510438
 21
29407.808121345
 31
0.0
  0
LINE
  5
7A80
330
7A2C
100
AcDbEntity
  8
D-STR-DIM
 62
     0
440
 16777216
370
    -2
100
AcDbLine
 10
28306.0443510438
 20
29407.808121345
 30
0.0
 11
28391.0443510438
 21
29407.808121345
 31
0.0
  0
INSERT
  5
7A81
330
7A2C
100
AcDbEntity
  8
D-STR-DIM
 62
     0
440
 16777216
370
    -2
100
AcDbBlockReference
  2
_Open30
 10
28071.0443510438
 20
29407.808121345
 30
0.0
 41
85.0
 42
85.0
 43
85.0
  0
INSERT
  5
7A82
330
7A2C
100
AcDbEntity
  8
D-STR-DIM
 62
     0
440
 16777216
370
    -2
100
AcDbBlockReference
  2
_Open30
 10
28221.0443510438
 20
29407.808121345
 30
0.0
 41
85.0
 42
85.0
 43
85.0
 50
180.0
  0
MTEXT
  5
7A83
330
7A2C
100
AcDbEntity
  8
D-STR-DIM
 62
     0
440
 16777216
100
AcDbMText
 10
28146.0443510438
 20
29522.808121345
 30
0.0
 40
150.0
 41
0.0
 71
     5
 72
     1
  1
\A1;t
  7
ＭＳ ゴシック
 73
     1
 44
1.0
  0
POINT
  5
7A84
330
7A2C
100
AcDbEntity
  8
DEFPOINTS
 62
     0
440
 16777216
100
AcDbPoint
 10
28071.0443510438
 20
29077.44935959892
 30
0.0
  0
POINT
  5
7A85
330
7A2C
100
AcDbEntity
  8
DEFPOINTS
 62
     0
440
 16777216
100
AcDbPoint
 10
28221.0443510438
 20
29082.78935959892
 30
0.0
  0
POINT
  5
7A86
330
7A2C
100
AcDbEntity
  8
DEFPOINTS
 62
     0
440
 16777216
100
AcDbPoint
 10
28221.0443510438
 20
29407.808121345
 30
0.0
  0
ENDBLK
  5
7A38
330
7A2C
100
AcDbEntity
  8
0
100
AcDbBlockEnd
  0
BLOCK
  5
7A43
330
7A39
100
AcDbEntity
  8
0
100
AcDbBlockBegin
  2
*D12
 70
     1
 10
0.0
 20
0.0
 30
0.0
  3
*D12
  1

  0
LINE
  5
7A87
330
7A39
100
AcDbEntity
  8
D-STR-DIM
 62
     0
440
 16777216
370
    -2
100
AcDbLine
 10
26401.89203615766
 20
26725.96429957705
 30
0.0
 11
26401.89203615766
 21
27000.98306132312
 31
0.0
  0
LINE
  5
7A88
330
7A39
100
AcDbEntity
  8
D-STR-DIM
 62
     0
440
 16777216
370
    -2
100
AcDbLine
 10
27400.89203615766
 20
26725.96429957705
 30
0.0
 11
27400.89203615766
 21
27000.98306132312
 31
0.0
  0
LINE
  5
7A89
330
7A39
100
AcDbEntity
  8
D-STR-DIM
 62
     0
440
 16777216
370
    -2
100
AcDbLine
 10
26486.89203615766
 20
26975.98306132312
 30
0.0
 11
27315.89203615766
 21
26975.98306132312
 31
0.0
  0
INSERT
  5
7A8A
330
7A39
100
AcDbEntity
  8
D-STR-DIM
 62
     0
440
 16777216
370
    -2
100
AcDbBlockReference
  2
_Open30
 10
26401.89203615766
 20
26975.98306132312
 30
0.0
 41
85.0
 42
85.0
 43
85.0
 50
180.0
  0
INSERT
  5
7A8B
330
7A39
100
AcDbEntity
  8
D-STR-DIM
 62
     0
440
 16777216
370
    -2
100
AcDbBlockReference
  2
_Open30
 10
27400.89203615766
 20
26975.98306132312
 30
0.0
 41
85.0
 42
85.0
 43
85.0
  0
MTEXT
  5
7A8C
330
7A39
100
AcDbEntity
  8
D-STR-DIM
 62
     0
440
 16777216
100
AcDbMText
 10
26901.39203615766
 20
27090.98306132312
 30
0.0
 40
150.0
 41
0.0
 71
     5
 72
     1
  1
\A1;1000
  7
ＭＳ ゴシック
 73
     1
 44
1.0
  0
POINT
  5
7A8D
330
7A39
100
AcDbEntity
  8
DEFPOINTS
 62
     0
440
 16777216
100
AcDbPoint
 10
26401.89203615766
 20
26650.96429957705
 30
0.0
  0
POINT
  5
7A8E
330
7A39
100
AcDbEntity
  8
DEFPOINTS
 62
     0
440
 16777216
100
AcDbPoint
 10
27400.89203615766
 20
26650.96429957705
 30
0.0
  0
POINT
  5
7A8F
330
7A39
100
AcDbEntity
  8
DEFPOINTS
 62
     0
440
 16777216
100
AcDbPoint
 10
27400.89203615766
 20
26975.98306132312
 30
0.0
  0
ENDBLK
  5
7A44
330
7A39
100
AcDbEntity
  8
0
100
AcDbBlockEnd
  0
BLOCK
  5
7A4F
330
7A45
100
AcDbEntity
  8
0
100
AcDbBlockBegin
  2
*D13
 70
     1
 10
0.0
 20
0.0
 30
0.0
  3
*D13
  1

  0
LINE
  5
7A90
330
7A45
100
AcDbEntity
  8
D-STR-DIM
 62
     0
440
 16777216
370
    -2
100
AcDbLine
 10
26326.89203615766
 20
25651.96429957704
 30
0.0
 11
26075.8877411523
 21
25651.96429957704
 31
0.0
  0
LINE
  5
7A91
330
7A45
100
AcDbEntity
  8
D-STR-DIM
 62
     0
440
 16777216
370
    -2
100
AcDbLine
 10
26326.89203615766
 20
26650.96429957705
 30
0.0
 11
26075.8877411523
 21
26650.96429957705
 31
0.0
  0
LINE
  5
7A92
330
7A45
100
AcDbEntity
  8
D-STR-DIM
 62
     0
440
 16777216
370
    -2
100
AcDbLine
 10
26100.8877411523
 20
25736.96429957704
 30
0.0
 11
26100.8877411523
 21
26565.96429957705
 31
0.0
  0
INSERT
  5
7A93
330
7A45
100
AcDbEntity
  8
D-STR-DIM
 62
     0
440
 16777216
370
    -2
100
AcDbBlockReference
  2
_Open30
 10
26100.8877411523
 20
25651.96429957704
 30
0.0
 41
85.0
 42
85.0
 43
85.0
 50
270.0
  0
INSERT
  5
7A94
330
7A45
100
AcDbEntity
  8
D-STR-DIM
 62
     0
440
 16777216
370
    -2
100
AcDbBlockReference
  2
_Open30
 10
26100.8877411523
 20
26650.96429957705
 30
0.0
 41
85.0
 42
85.0
 43
85.0
 50
90.0
  0
MTEXT
  5
7A95
330
7A45
100
AcDbEntity
  8
D-STR-DIM
 62
     0
440
 16777216
100
AcDbMText
 10
25985.88774115229
 20
26151.46429957706
 30
0.0
 40
150.0
 41
0.0
 71
     5
 72
     1
  1
\A1;1000
  7
ＭＳ ゴシック
 11
6.123031769111886E-17
 21
1.0
 31
0.0
 73
     1
 44
1.0
  0
POINT
  5
7A96
330
7A45
100
AcDbEntity
  8
DEFPOINTS
 62
     0
440
 16777216
100
AcDbPoint
 10
26401.89203615766
 20
25651.96429957704
 30
0.0
  0
POINT
  5
7A97
330
7A45
100
AcDbEntity
  8
DEFPOINTS
 62
     0
440
 16777216
100
AcDbPoint
 10
26401.89203615766
 20
26650.96429957705
 30
0.0
  0
POINT
  5
7A98
330
7A45
100
AcDbEntity
  8
DEFPOINTS
 62
     0
440
 16777216
100
AcDbPoint
 10
26100.8877411523
 20
26650.96429957705
 30
0.0
  0
ENDBLK
  5
7A50
330
7A45
100
AcDbEntity
  8
0
100
AcDbBlockEnd
  0
BLOCK
  5
7A5C
330
7A51
100
AcDbEntity
  8
0
100
AcDbBlockBegin
  2
*D14
 70
     1
 10
0.0
 20
0.0
 30
0.0
  3
*D14
  1

  0
LINE
  5
7A99
330
7A51
100
AcDbEntity
  8
D-STR-DIM
 62
     0
440
 16777216
370
    -2
100
AcDbLine
 10
35843.82573979023
 20
28348.82009294757
 30
0.0
 11
36120.6290307209
 21
28487.22173841291
 31
0.0
  0
LINE
  5
7A9A
330
7A51
100
AcDbEntity
  8
D-STR-DIM
 62
     0
440
 16777216
370
    -2
100
AcDbLine
 10
35910.90777911522
 20
28214.65601429758
 30
0.0
 11
36187.7110700459
 21
28353.05765976292
 31
0.0
  0
LINE
  5
7A9B
330
7A51
100
AcDbEntity
  8
D-STR-DIM
 62
     0
440
 16777216
370
    -2
100
AcDbLine
 10
36060.25519532841
 20
28552.06770976041
 30
0.0
 11
36022.24203971091
 21
28628.0940209954
 31
0.0
  0
LINE
  5
7A9C
330
7A51
100
AcDbEntity
  8
D-STR-DIM
 62
     0
440
 16777216
370
    -2
100
AcDbLine
 10
36203.3635458884
 20
28265.85100864043
 30
0.0
 11
36241.3767015059
 21
28189.82469740544
 31
0.0
  0
MTEXT
  5
7A9D
330
7A51
100
AcDbEntity
  8
D-STR-DIM
 62
     0
440
 16777216
100
AcDbMText
 10
36350.28569131118
 20
28301.70017136884
 30
0.0
 40
150.0
 41
0.0
 71
     5
 72
     1
  1
\A1;t
  7
ＭＳ ゴシック
 11
0.4472135954999671
 21
-0.8944271909999113
 31
0.0
 73
     1
 44
1.0
  0
INSERT
  5
7A9E
330
7A51
100
AcDbEntity
  8
D-STR-DIM
 62
     0
440
 16777216
370
    -2
100
AcDbBlockReference
  2
_Open30
 10
36098.2683509459
 20
28476.04139852541
 30
0.0
 41
85.0
 42
85.0
 43
85.0
 50
296.5650511770785
  0
INSERT
  5
7A9F
330
7A51
100
AcDbEntity
  8
D-STR-DIM
 62
     0
440
 16777216
370
    -2
100
AcDbBlockReference
  2
_Open30
 10
36165.35039027091
 20
28341.87731987542
 30
0.0
 41
85.0
 42
85.0
 43
85.0
 50
116.5650511770786
  0
POINT
  5
7AA0
330
7A51
100
AcDbEntity
  8
DEFPOINTS
 62
     0
440
 16777216
100
AcDbPoint
 10
35776.74370046525
 20
28315.27907328507
 30
0.0
  0
POINT
  5
7AA1
330
7A51
100
AcDbEntity
  8
DEFPOINTS
 62
     0
440
 16777216
100
AcDbPoint
 10
35843.82573979023
 20
28181.11499463508
 30
0.0
  0
POINT
  5
7AA2
330
7A51
100
AcDbEntity
  8
DEFPOINTS
 62
     0
440
 16777216
100
AcDbPoint
 10
36165.35039027091
 20
28341.87731987542
 30
0.0
  0
ENDBLK
  5
7A5D
330
7A51
100
AcDbEntity
  8
0
100
AcDbBlockEnd
  0
BLOCK
  5
7A69
330
7A5E
100
AcDbEntity
  8
0
100
AcDbBlockBegin
  2
*D15
 70
     1
 10
0.0
 20
0.0
 30
0.0
  3
*D15
  1

  0
LINE
  5
7AA3
330
7A5E
100
AcDbEntity
  8
0
 62
     0
440
 16777216
370
    -2
100
AcDbLine
 10
28071.04435104379
 20
26709.96429957704
 30
0.0
 11
28071.04435104379
 21
27000.98306132311
 31
0.0
  0
LINE
  5
7AA4
330
7A5E
100
AcDbEntity
  8
0
 62
     0
440
 16777216
370
    -2
100
AcDbLine
 10
28191.04435104379
 20
26713.63837365112
 30
0.0
 11
28191.04435104379
 21
27000.98306132311
 31
0.0
  0
LINE
  5
7AA5
330
7A5E
100
AcDbEntity
  8
0
 62
     0
440
 16777216
370
    -2
100
AcDbLine
 10
27986.04435104379
 20
26975.98306132311
 30
0.0
 11
27901.04435104379
 21
26975.98306132311
 31
0.0
  0
LINE
  5
7AA6
330
7A5E
100
AcDbEntity
  8
0
 62
     0
440
 16777216
370
    -2
100
AcDbLine
 10
28276.04435104379
 20
26975.98306132311
 30
0.0
 11
28361.04435104379
 21
26975.98306132311
 31
0.0
  0
INSERT
  5
7AA7
330
7A5E
100
AcDbEntity
  8
0
 62
     0
440
 16777216
370
    -2
100
AcDbBlockReference
  2
_Open30
 10
28071.04435104379
 20
26975.98306132311
 30
0.0
 41
85.0
 42
85.0
 43
85.0
  0
INSERT
  5
7AA8
330
7A5E
100
AcDbEntity
  8
0
 62
     0
440
 16777216
370
    -2
100
AcDbBlockReference
  2
_Open30
 10
28191.04435104379
 20
26975.98306132311
 30
0.0
 41
85.0
 42
85.0
 43
85.0
 50
180.0
  0
MTEXT
  5
7AA9
330
7A5E
100
AcDbEntity
  8
0
 62
     0
440
 16777216
100
AcDbMText
 10
28131.04435104379
 20
27090.98306132311
 30
0.0
 40
150.0
 41
0.0
 71
     5
 72
     1
  1
\A1;t
  7
ＭＳ ゴシック
 73
     1
 44
1.0
  0
POINT
  5
7AAA
330
7A5E
100
AcDbEntity
  8
DEFPOINTS
 62
     0
440
 16777216
100
AcDbPoint
 10
28071.04435104379
 20
26634.96429957704
 30
0.0
  0
POINT
  5
7AAB
330
7A5E
100
AcDbEntity
  8
DEFPOINTS
 62
     0
440
 16777216
100
AcDbPoint
 10
28191.04435104379
 20
26638.63837365112
 30
0.0
  0
POINT
  5
7AAC
330
7A5E
100
AcDbEntity
  8
DEFPOINTS
 62
     0
440
 16777216
100
AcDbPoint
 10
28191.04435104379
 20
26975.98306132311
 30
0.0
  0
ENDBLK
  5
7A6A
330
7A5E
100
AcDbEntity
  8
0
100
AcDbBlockEnd
  0
ENDSEC
  0
SECTION
  2
ENTITIES
  0
TEXT
  5
73
330
17
100
AcDbEntity
  8
D-STR
100
AcDbText
 10
57301.49202538158
 20
31087.05882352942
 30
0.0
 40
300.0
  1
　
100
AcDbText
  0
TEXT
  5
6C27
330
17
100
AcDbEntity
  8
0
100
AcDbText
 10
38622.79736487872
 20
19554.06125142024
 30
0.0
 40
125.0
  1
新和コンクリート工業株式会社
100
AcDbText
  0
TEXT
  5
6C28
330
17
100
AcDbEntity
  8
0
100
AcDbText
 10
39693.63069821205
 20
19866.56125142024
 30
0.0
 40
125.0
  1
製図
 72
     4
 11
39822.79736487872
 21
19929.06125142024
 31
0.0
100
AcDbText
  0
TEXT
  5
6C29
330
17
100
AcDbEntity
  8
0
100
AcDbText
 10
39689.46403154538
 20
20116.56125142024
 30
0.0
 40
125.0
  1
設計
 72
     4
 11
39822.79736487872
 21
20179.06125142024
 31
0.0
100
AcDbText
  0
TEXT
  5
6C2A
330
17
100
AcDbEntity
  8
0
100
AcDbText
 10
38576.96403154538
 20
19866.56125142024
 30
0.0
 40
125.0
  1
認
 72
     4
 11
38635.29736487872
 21
19929.06125142024
 31
0.0
100
AcDbText
  0
TEXT
  5
6C2B
330
17
100
AcDbEntity
  8
0
100
AcDbText
 10
38576.96403154538
 20
20120.7279180869
 30
0.0
 40
125.0
  1
承
 72
     4
 11
38635.29736487872
 21
20179.06125142024
 31
0.0
100
AcDbText
  0
TEXT
  5
6C2C
330
17
100
AcDbEntity
  8
0
100
AcDbText
 10
37260.29736487872
 20
20141.56125142024
 30
0.0
 40
125.0
  1
図　面　番　号
 72
     4
 11
37772.79736487872
 21
20204.06125142024
 31
0.0
100
AcDbText
  0
TEXT
  5
6C2D
330
17
100
AcDbEntity
  8
0
100
AcDbText
 10
39722.79736487872
 20
20404.06125142024
 30
0.0
 40
125.0
  1
１／
100
AcDbText
  0
TEXT
  5
6C2E
330
17
100
AcDbEntity
  8
0
100
AcDbText
 10
38989.46403154538
 20
20366.56125142024
 30
0.0
 40
125.0
  1
縮　　尺
 72
     4
 11
39272.79736487872
 21
20429.06125142024
 31
0.0
100
AcDbText
  0
TEXT
  5
6C2F
330
17
100
AcDbEntity
  8
0
100
AcDbText
 10
38989.46403154538
 20
20616.56125142024
 30
0.0
 40
125.0
  1
鉄 筋 量
 72
     4
 11
39272.79736487872
 21
20679.06125142024
 31
0.0
100
AcDbText
  0
TEXT
  5
6C30
330
17
100
AcDbEntity
  8
0
100
AcDbText
 10
38989.46403154538
 20
20866.56125142024
 30
0.0
 40
125.0
  1
製 造 数
 72
     4
 11
39272.79736487872
 21
20929.06125142024
 31
0.0
100
AcDbText
  0
TEXT
  5
6C31
330
17
100
AcDbEntity
  8
0
100
AcDbText
 10
40472.79736487872
 20
20604.06125142024
 30
0.0
 40
125.0
  1
ｋｇ
 72
     2
 11
40722.79736487872
 21
20604.06125142024
 31
0.0
100
AcDbText
  0
TEXT
  5
6C32
330
17
100
AcDbEntity
  8
0
100
AcDbText
 10
38597.79736487872
 20
20604.06125142024
 30
0.0
 40
125.0
  1
ｋｇ
 72
     2
 11
38847.79736487872
 21
20604.06125142024
 31
0.0
100
AcDbText
  0
TEXT
  5
6C33
330
17
100
AcDbEntity
  8
0
100
AcDbText
 10
37122.79736487872
 20
20366.56125142024
 30
0.0
 40
125.0
  1
年 月 日
 72
     4
 11
37397.79736487872
 21
20429.06125142024
 31
0.0
100
AcDbText
  0
TEXT
  5
6C34
330
17
100
AcDbEntity
  8
0
100
AcDbText
 10
37114.46403154538
 20
20616.56125142024
 30
0.0
 40
125.0
  1
製品質量
 72
     4
 11
37397.79736487872
 21
20679.06125142024
 31
0.0
100
AcDbText
  0
TEXT
  5
6C35
330
17
100
AcDbEntity
  8
0
100
AcDbText
 10
37118.63069821205
 20
20866.56125142024
 30
0.0
 40
125.0
  1
業 者 名
 72
     4
 11
37397.79736487872
 21
20929.06125142024
 31
0.0
100
AcDbText
  0
TEXT
  5
6C36
330
17
100
AcDbEntity
  8
0
100
AcDbText
 10
37114.46403154538
 20
21179.06125142024
 30
0.0
 40
125.0
  1
名　　称
 72
     4
 11
37397.79736487872
 21
21241.56125142024
 31
0.0
100
AcDbText
  0
LINE
  5
6C37
330
17
100
AcDbEntity
  8
0
100
AcDbLine
 10
38522.79736487872
 20
20104.06125142024
 30
0.0
 11
37022.79736487872
 21
20104.06125142024
 31
0.0
  0
LINE
  5
6C38
330
17
100
AcDbEntity
  8
0
100
AcDbLine
 10
39997.79736487872
 20
19804.06125142024
 30
0.0
 11
39997.79736487872
 21
20304.06125142024
 31
0.0
  0
LINE
  5
6C39
330
17
100
AcDbEntity
  8
0
100
AcDbLine
 10
39647.79736487872
 20
19804.06125142024
 30
0.0
 11
39647.79736487872
 21
20304.06125142024
 31
0.0
  0
LINE
  5
6C3A
330
17
100
AcDbEntity
  8
0
100
AcDbLine
 10
38747.79736487872
 20
19804.06125142024
 30
0.0
 11
38747.79736487872
 21
20304.06125142024
 31
0.0
  0
LINE
  5
6C3B
330
17
100
AcDbEntity
  8
0
100
AcDbLine
 10
38522.79736487872
 20
19804.06125142024
 30
0.0
 11
38522.79736487872
 21
20304.06125142024
 31
0.0
  0
LINE
  5
6C3C
330
17
100
AcDbEntity
  8
0
100
AcDbLine
 10
37772.79736487872
 20
20304.06125142024
 30
0.0
 11
37772.79736487872
 21
21429.06125142024
 31
0.0
  0
LINE
  5
6C3D
330
17
100
AcDbEntity
  8
0
100
AcDbLine
 10
39647.79736487872
 20
20304.06125142024
 30
0.0
 11
39647.79736487872
 21
21054.06125142024
 31
0.0
  0
LINE
  5
6C3E
330
17
100
AcDbEntity
  8
0
100
AcDbLine
 10
38897.79736487872
 20
20304.06125142024
 30
0.0
 11
38897.79736487872
 21
21054.06125142024
 31
0.0
  0
LINE
  5
6C3F
330
17
100
AcDbEntity
  8
0
100
AcDbLine
 10
40772.79736487872
 20
21054.06125142024
 30
0.0
 11
37022.79736487872
 21
21054.06125142024
 31
0.0
  0
LINE
  5
6C40
330
17
100
AcDbEntity
  8
0
100
AcDbLine
 10
40772.79736487872
 20
20804.06125142024
 30
0.0
 11
37022.79736487872
 21
20804.06125142024
 31
0.0
  0
LINE
  5
6C41
330
17
100
AcDbEntity
  8
0
100
AcDbLine
 10
40772.79736487872
 20
20554.06125142024
 30
0.0
 11
37022.79736487872
 21
20554.06125142024
 31
0.0
  0
LINE
  5
6C42
330
17
100
AcDbEntity
  8
0
100
AcDbLine
 10
40772.79736487872
 20
20304.06125142024
 30
0.0
 11
37022.79736487872
 21
20304.06125142024
 31
0.0
  0
LINE
  5
6C43
330
17
100
AcDbEntity
  8
0
100
AcDbLine
 10
37022.79736487872
 20
21429.06125142024
 30
0.0
 11
40772.79736487872
 21
21429.06125142024
 31
0.0
  0
LINE
  5
6C44
330
17
100
AcDbEntity
  8
0
100
AcDbLine
 10
37022.79736487872
 20
19804.06125142024
 30
0.0
 11
37022.79736487872
 21
21429.06125142024
 31
0.0
  0
LINE
  5
6C45
330
17
100
AcDbEntity
  8
0
100
AcDbLine
 10
21622.79736487872
 20
33404.06125142024
 30
0.0
 11
21622.79736487872
 21
33154.06125142024
 31
0.0
  0
LINE
  5
6C46
330
17
100
AcDbEntity
  8
0
100
AcDbLine
 10
22872.79736487872
 20
33404.06125142024
 30
0.0
 11
21622.79736487872
 21
33404.06125142024
 31
0.0
  0
LINE
  5
6C47
330
17
100
AcDbEntity
  8
0
100
AcDbLine
 10
22872.79736487872
 20
33154.06125142024
 30
0.0
 11
22872.79736487872
 21
33404.06125142024
 31
0.0
  0
LINE
  5
6C48
330
17
100
AcDbEntity
  8
0
100
AcDbLine
 10
21622.79736487872
 20
19804.06125142024
 30
0.0
 11
40772.79736487872
 21
19804.06125142024
 31
0.0
  0
LINE
  5
6C49
330
17
100
AcDbEntity
  8
0
100
AcDbLine
 10
21622.79736487872
 20
33154.06125142024
 30
0.0
 11
40772.79736487872
 21
33154.06125142024
 31
0.0
  0
LINE
  5
6C4A
330
17
100
AcDbEntity
  8
0
100
AcDbLine
 10
40772.79736487872
 20
33154.06125142024
 30
0.0
 11
40772.79736487872
 21
19804.06125142024
 31
0.0
  0
TEXT
  5
6C4B
330
17
100
AcDbEntity
  8
0
100
AcDbText
 10
21807.79736487872
 20
33204.06125142024
 30
0.0
 40
150.0
  1
Ｈ－２－共
 72
     4
 11
22247.79736487872
 21
33279.06125142024
 31
0.0
100
AcDbText
  0
LINE
  5
6C4C
330
17
100
AcDbEntity
  8
0
100
AcDbLine
 10
21622.79736487872
 20
19804.06125142024
 30
0.0
 11
21622.79736487872
 21
33154.06125142024
 31
0.0
  0
TEXT
  5
6C4D
330
17
100
AcDbEntity
  8
0
100
AcDbText
 10
40060.29736487872
 20
20354.06125142024
 30
0.0
 40
150.0
  1
50
 72
     1
 11
40172.79736487872
 21
20354.06125142024
 31
0.0
100
AcDbText
  0
LINE
  5
7729
330
17
100
AcDbEntity
  8
D-STR-DIM
 48
1.5
100
AcDbLine
 10
36671.17089146515
 20
28762.49266878503
 30
0.0
 11
32199.03493646557
 21
26526.42469128524
 31
0.0
  0
LINE
  5
772A
330
17
100
AcDbEntity
  8
D-STR-STR2
  6
HIDDEN
 48
0.5
100
AcDbLine
 10
34994.11990834031
 20
27644.45868003514
 30
0.0
 11
32310.83833534056
 21
26302.81789353526
 31
0.0
  0
LWPOLYLINE
  5
772B
330
17
100
AcDbEntity
  8
D-STR
 62
     5
100
AcDbPolyline
 90
        4
 70
     0
 43
0.0
 10
26470.8063945219
 20
29042.15918348258
 10
26451.38946634087
 20
29061.57611166361
 42
0.9999999999999994
 10
26423.1051950934
 20
29033.29184041614
 10
26442.52210029484
 20
29013.8749352147
  0
LWPOLYLINE
  5
772C
330
17
100
AcDbEntity
  8
D-STR
 62
     5
100
AcDbPolyline
 90
        4
 70
     0
 43
0.0
 10
27332.97767779342
 20
29042.15918348258
 10
27352.39460597445
 20
29061.57611166361
 42
-0.9999999999999994
 10
27380.67887722192
 20
29033.29184041614
 10
27361.26197202048
 20
29013.8749352147
  0
LWPOLYLINE
  5
772D
330
17
100
AcDbEntity
  8
D-STR
100
AcDbPolyline
 90
        6
 70
     0
 43
0.0
 10
26901.89203615766
 20
28082.78935959892
 10
27321.89203615766
 20
28082.78935959892
 42
-0.414213562373095
 10
27401.89203615766
 20
28162.78935959892
 10
27401.89203615766
 20
29002.78935959892
 42
-0.414213562373095
 10
27321.89203615766
 20
29082.78935959892
 10
26901.89203615766
 20
29082.78935959892
  0
LWPOLYLINE
  5
772E
330
17
100
AcDbEntity
  8
D-STR
100
AcDbPolyline
 90
        6
 70
     0
 43
0.0
 10
26901.89203615766
 20
28082.78935959892
 10
26481.89203615766
 20
28082.78935959892
 42
0.414213562373095
 10
26401.89203615766
 20
28162.78935959892
 10
26401.89203615766
 20
29002.78935959892
 42
0.414213562373095
 10
26481.89203615766
 20
29082.78935959892
 10
26901.89203615766
 20
29082.78935959892
  0
DIMENSION
  5
772F
330
17
100
AcDbEntity
  8
D-STR-DIM
100
AcDbDimension
  2
*D9
 10
26100.8877411523
 20
29082.78935959892
 30
0.0
 11
25985.88774115229
 21
28582.78935959893
 31
0.0
 70
    32
 71
     5
 42
1000.0
  3
S-50
100
AcDbAlignedDimension
 13
26401.89203615766
 23
28082.78935959892
 33
0.0
 14
26401.89203615766
 24
29082.78935959892
 34
0.0
 50
90.0
100
AcDbRotatedDimension
  0
LINE
  5
7730
330
17
100
AcDbEntity
  8
D-STR
100
AcDbLine
 10
27283.39203615766
 20
29014.28935959892
 30
0.0
 11
26901.89203615766
 21
29014.28935959893
 31
0.0
  0
LINE
  5
7731
330
17
100
AcDbEntity
  8
D-STR
100
AcDbLine
 10
27283.39203615766
 20
28301.28935959892
 30
0.0
 11
26901.89203615766
 21
28301.28935959892
 31
0.0
  0
LWPOLYLINE
  5
7732
330
17
100
AcDbEntity
  8
D-STR
100
AcDbPolyline
 90
        6
 70
     0
 43
0.0
 10
26901.89203615766
 20
29014.28935959892
 10
27283.39203615766
 20
29014.28935959892
 10
27333.39203615766
 20
28964.28935959892
 10
27333.39203615766
 20
28201.28935959892
 10
27283.39203615766
 20
28151.28935959892
 10
26901.89203615766
 20
28151.28935959892
  0
LWPOLYLINE
  5
7733
330
17
100
AcDbEntity
  8
D-STR
100
AcDbPolyline
 90
        5
 70
     0
 43
0.0
 10
26901.89203615766
 20
28964.28935959892
 10
27263.39203615766
 20
28964.28935959892
 10
27283.39203615766
 20
28944.28935959892
 10
27283.39203615766
 20
28301.28935959892
 10
26901.89203615766
 20
28301.28935959892
  0
LWPOLYLINE
  5
7734
330
17
100
AcDbEntity
  8
D-STR
100
AcDbPolyline
 90
        5
 70
     0
 43
0.0
 10
26901.89203615766
 20
28964.28935959892
 10
26540.39203615766
 20
28964.28935959892
 10
26520.39203615766
 20
28944.28935959892
 10
26520.39203615766
 20
28301.28935959892
 10
26901.89203615766
 20
28301.28935959892
  0
LWPOLYLINE
  5
7735
330
17
100
AcDbEntity
  8
D-STR
100
AcDbPolyline
 90
        6
 70
     0
 43
0.0
 10
26901.89203615766
 20
29014.28935959892
 10
26520.39203615766
 20
29014.28935959892
 10
26470.39203615766
 20
28964.28935959892
 10
26470.39203615766
 20
28201.28935959892
 10
26520.39203615766
 20
28151.28935959892
 10
26901.89203615766
 20
28151.28935959892
  0
LWPOLYLINE
  5
7736
330
17
100
AcDbEntity
  8
D-STR
100
AcDbPolyline
 90
        3
 70
     0
 43
0.0
 10
26520.39203615766
 20
28151.28935959892
 10
26520.39203615766
 20
28301.28935959892
 10
26470.39203615766
 20
28201.28935959892
  0
LWPOLYLINE
  5
7737
330
17
100
AcDbEntity
  8
D-STR
 62
     5
100
AcDbPolyline
 90
        4
 70
     0
 43
0.0
 10
26470.8063945219
 20
28123.41953571526
 10
26451.38946634087
 20
28104.00260753424
 42
-0.9999999999999994
 10
26423.1051950934
 20
28132.28687878171
 10
26442.52210029484
 20
28151.70378398315
  0
LINE
  5
7738
330
17
100
AcDbEntity
  8
D-STR
100
AcDbLine
 10
26520.39203615766
 20
28301.28935959892
 30
0.0
 11
26901.89203615766
 21
28301.28935959892
 31
0.0
  0
LINE
  5
7739
330
17
100
AcDbEntity
  8
D-STR
100
AcDbLine
 10
26470.39203615766
 20
28964.28935959892
 30
0.0
 11
26520.39203615766
 21
28944.28935959892
 31
0.0
  0
LINE
  5
773A
330
17
100
AcDbEntity
  8
D-STR
100
AcDbLine
 10
26520.39203615766
 20
29014.28935959892
 30
0.0
 11
26901.89203615766
 21
29014.28935959893
 31
0.0
  0
LINE
  5
773B
330
17
100
AcDbEntity
  8
D-STR
100
AcDbLine
 10
26520.39203615766
 20
29014.28935959892
 30
0.0
 11
26540.39203615766
 21
28964.28935959892
 31
0.0
  0
LINE
  5
773C
330
17
100
AcDbEntity
  8
D-STR
100
AcDbLine
 10
26901.89203615766
 20
29014.28935959892
 30
0.0
 11
26801.41560706423
 21
29014.28935959892
 31
0.0
  0
LINE
  5
773D
330
17
100
AcDbEntity
  8
D-STR
100
AcDbLine
 10
26901.89203615766
 20
29014.28935959892
 30
0.0
 11
27002.36846525109
 21
29014.28935959892
 31
0.0
  0
LWPOLYLINE
  5
773E
330
17
100
AcDbEntity
  8
D-STR
100
AcDbPolyline
 90
        3
 70
     0
 43
0.0
 10
27283.39203615766
 20
28151.28935959892
 10
27283.39203615766
 20
28301.28935959892
 10
27333.39203615766
 20
28201.28935959892
  0
LWPOLYLINE
  5
773F
330
17
100
AcDbEntity
  8
D-STR
 62
     5
100
AcDbPolyline
 90
        4
 70
     0
 43
0.0
 10
27332.97767779342
 20
28123.41953571526
 10
27352.39460597445
 20
28104.00260753424
 42
0.9999999999999994
 10
27380.67887722192
 20
28132.28687878171
 10
27361.26197202048
 20
28151.70378398315
  0
LINE
  5
7740
330
17
100
AcDbEntity
  8
D-STR
100
AcDbLine
 10
27283.39203615766
 20
29014.28935959892
 30
0.0
 11
27263.39203615766
 21
28964.28935959892
 31
0.0
  0
LINE
  5
7741
330
17
100
AcDbEntity
  8
D-STR
100
AcDbLine
 10
27333.39203615766
 20
28964.28935959892
 30
0.0
 11
27283.39203615766
 21
28944.28935959892
 31
0.0
  0
DIMENSION
  5
7742
330
17
100
AcDbEntity
  8
D-STR-DIM
100
AcDbDimension
  2
*D10
 10
27401.89203615766
 20
29407.808121345
 30
0.0
 11
26901.89203615766
 21
29522.808121345
 31
0.0
 70
    32
 71
     5
 42
1000.0
  3
S-50
100
AcDbAlignedDimension
 13
26401.89203615766
 23
29082.78935959892
 33
0.0
 14
27401.89203615766
 24
29082.78935959892
 34
0.0
100
AcDbRotatedDimension
  0
LINE
  5
7743
330
17
100
AcDbEntity
  8
D-STR
100
AcDbLine
 10
28071.0443510438
 20
28582.78935959892
 30
0.0
 11
28071.0443510438
 21
29076.78935959892
 31
0.0
  0
LINE
  5
7744
330
17
100
AcDbEntity
  8
D-STR
100
AcDbLine
 10
28221.0443510438
 20
28582.78935959892
 30
0.0
 11
28221.0443510438
 21
29066.28935959892
 31
0.0
  0
LINE
  5
7745
330
17
100
AcDbEntity
  8
D-STR
100
AcDbLine
 10
28221.0443510438
 20
29066.28935959892
 30
0.0
 11
28077.0443510438
 21
29082.78935959892
 31
0.0
  0
LINE
  5
7746
330
17
100
AcDbEntity
  8
D-STR
100
AcDbLine
 10
28077.0443510438
 20
29082.78935959892
 30
0.0
 11
28071.0443510438
 21
29077.44935959892
 31
0.0
  0
LINE
  5
7747
330
17
100
AcDbEntity
  8
D-STR
100
AcDbLine
 10
28071.0443510438
 20
29077.44935959892
 30
0.0
 11
28071.0443510438
 21
29014.28935959892
 31
0.0
  0
LINE
  5
7748
330
17
100
AcDbEntity
  8
D-STR
  6
HIDDEN
 62
     4
 48
0.2
100
AcDbLine
 10
28071.0443510438
 20
29014.28935959892
 30
0.0
 11
28121.0443510438
 21
28964.28935959892
 31
0.0
  0
LINE
  5
7749
330
17
100
AcDbEntity
  8
D-STR
  6
HIDDEN
 62
     4
 48
0.2
100
AcDbLine
 10
28121.0443510438
 20
28964.28935959892
 30
0.0
 11
28121.0443510438
 21
28582.78935959892
 31
0.0
  0
LINE
  5
774A
330
17
100
AcDbEntity
  8
D-STR
  6
HIDDEN
 62
     4
 48
0.2
100
AcDbLine
 10
28121.0443510438
 20
28582.78935959892
 30
0.0
 11
28121.0443510438
 21
28301.28935959892
 31
0.0
  0
LINE
  5
774B
330
17
100
AcDbEntity
  8
D-STR
  6
HIDDEN
 62
     4
 48
0.2
100
AcDbLine
 10
28121.0443510438
 20
28301.28935959892
 30
0.0
 11
28071.0443510438
 21
28151.28935959892
 31
0.0
  0
LINE
  5
774C
330
17
100
AcDbEntity
  8
D-STR
100
AcDbLine
 10
28071.0443510438
 20
28151.28935959892
 30
0.0
 11
28071.0443510438
 21
28088.78935959892
 31
0.0
  0
LINE
  5
774D
330
17
100
AcDbEntity
  8
D-STR
100
AcDbLine
 10
28071.0443510438
 20
28088.78935959892
 30
0.0
 11
28077.0443510438
 21
28082.78935959892
 31
0.0
  0
LINE
  5
774E
330
17
100
AcDbEntity
  8
D-STR
100
AcDbLine
 10
28077.0443510438
 20
28082.78935959892
 30
0.0
 11
28221.0443510438
 21
28099.28935959892
 31
0.0
  0
LINE
  5
774F
330
17
100
AcDbEntity
  8
D-STR
100
AcDbLine
 10
28221.0443510438
 20
28099.28935959892
 30
0.0
 11
28221.0443510438
 21
28582.78935959892
 31
0.0
  0
LINE
  5
7750
330
17
100
AcDbEntity
  8
D-STR
100
AcDbLine
 10
28071.0443510438
 20
28582.78935959892
 30
0.0
 11
28071.0443510438
 21
28088.78935959892
 31
0.0
  0
DIMENSION
  5
7751
330
17
100
AcDbEntity
  8
D-STR-DIM
100
AcDbDimension
  2
*D11
 10
28221.0443510438
 20
29407.808121345
 30
0.0
 11
28146.0443510438
 21
29522.808121345
 31
0.0
 70
    32
  1
t
 71
     5
 42
150.0
  3
S-50
100
AcDbAlignedDimension
 13
28071.0443510438
 23
29077.44935959892
 33
0.0
 14
28221.0443510438
 24
29082.78935959892
 34
0.0
100
AcDbRotatedDimension
  0
LINE
  5
7752
330
17
100
AcDbEntity
  8
D-STR
100
AcDbLine
 10
28191.04435104379
 20
26638.63837365112
 30
0.0
 11
28191.0443510438
 21
25664.29022550297
 31
0.0
  0
LINE
  5
7753
330
17
100
AcDbEntity
  8
D-STR
100
AcDbLine
 10
28087.04435104379
 20
25651.96429957704
 30
0.0
 11
28191.04435104379
 21
25664.29022550297
 31
0.0
  0
LINE
  5
7754
330
17
100
AcDbEntity
  8
D-STR
100
AcDbLine
 10
28087.04435104379
 20
25651.96429957704
 30
0.0
 11
28071.04435104379
 21
25667.96429957704
 31
0.0
  0
LINE
  5
7755
330
17
100
AcDbEntity
  8
D-STR
100
AcDbLine
 10
28087.04435104379
 20
26650.96429957704
 30
0.0
 11
28071.04435104379
 21
26634.96429957704
 31
0.0
  0
LINE
  5
7756
330
17
100
AcDbEntity
  8
D-STR
100
AcDbLine
 10
28087.04435104379
 20
26650.96429957704
 30
0.0
 11
28191.04435104379
 21
26638.63837365112
 31
0.0
  0
LINE
  5
7757
330
17
100
AcDbEntity
  8
D-STR
 62
     4
100
AcDbLine
 10
28087.04435104379
 20
26650.96429957704
 30
0.0
 11
28087.04435104379
 21
25651.96429957704
 31
0.0
  0
LINE
  5
7758
330
17
100
AcDbEntity
  8
D-STR
100
AcDbLine
 10
28071.04435104379
 20
26634.96429957704
 30
0.0
 11
28071.04435104379
 21
25667.96429957704
 31
0.0
  0
LWPOLYLINE
  5
7759
330
17
100
AcDbEntity
  8
D-STR
 62
     4
100
AcDbPolyline
 90
        5
 70
     0
 43
0.0
 10
28045.2149263785
 20
25921.47615456015
 42
-0.1664717013058105
 10
28044.37848673332
 20
25941.53829346464
 42
-0.0180787311261685
 10
28049.1635007214
 20
25955.76740964404
 42
0.014598621366165
 10
28055.21097810453
 20
25973.34489279701
 42
0.0022430524589953
 10
28056.73921286375
 20
25978.32616064978
 42
0.0159348974189088
  0
LWPOLYLINE
  5
775A
330
17
100
AcDbEntity
  8
D-STR
 62
     4
100
AcDbPolyline
 90
        7
 70
     0
 43
0.0
 10
28071.04435104379
 20
25698.19566084705
 42
-0.0066695143894845
 10
28068.15887159342
 20
25700.56019873623
 42
-0.0383414058164144
 10
28055.21097810453
 20
25713.27916884415
 42
-0.0228048463342918
 10
28046.2432159245
 20
25724.55045773213
 42
-0.0246210622077467
 10
28038.96224104772
 20
25735.73088601993
 42
-0.2158557860769839
 10
28036.55258591272
 20
25759.08487458094
 42
-0.0702865908311422
 10
28042.92134106567
 20
25771.8521511761
  0
LWPOLYLINE
  5
775B
330
17
100
AcDbEntity
  8
D-STR
 62
     4
100
AcDbPolyline
 90
        9
 70
     0
 43
0.0
 10
28071.04435104379
 20
25744.45552067482
 42
-0.0563654155475941
 10
28053.5358282069
 20
25758.25168583732
 42
-0.2097742950403885
 10
28033.54599536211
 20
25808.69896684124
 42
-0.1494093899281889
 10
28046.54075199724
 20
25846.28056398931
 42
0.1830569822449588
 10
28055.21097810453
 20
25877.92509479991
 42
0.107830427633635
 10
28048.52665557585
 20
25898.82747214499
 42
-0.1400484183415059
 10
28044.37848673332
 20
25915.34462342623
 42
-0.1520266637586324
 10
28050.22217701262
 20
25932.18654873455
 42
-0.1161065600892242
 10
28067.84888470426
 20
25947.15122275859
  0
LWPOLYLINE
  5
775C
330
17
100
AcDbEntity
  8
D-STR
 62
     4
100
AcDbPolyline
 90
       13
 70
     0
 43
0.0
 10
28071.04435104379
 20
25965.60899066909
 42
-0.0067072319602824
 10
28069.51871558031
 20
25966.44457166574
 42
-0.137649070704759
 10
28055.21097810453
 20
25980.82879852227
 42
-0.063037743298194
 10
28047.37613192954
 20
26000.26143987603
 42
-0.0601945205086655
 10
28044.37848673332
 20
26021.99028001121
 42
-0.1732956495341161
 10
28054.90276192396
 20
26053.08713948001
 42
0.2260893898693366
 10
28060.62722379013
 20
26078.11957295068
 42
0.0831348912737532
 10
28056.61435282799
 20
26088.00047556699
 42
-0.0553011447354909
 10
28049.79473241892
 20
26102.44226655778
 42
-0.0987017784996428
 10
28043.47577921929
 20
26149.34544198138
 42
-0.1146460831558542
 10
28055.21097810453
 20
26188.5071823983
 42
-0.1485193634659449
 10
28069.89560674788
 20
26202.36596066096
 42
-0.003746652931405
 10
28071.04435104379
 20
26202.92668308704
  0
LWPOLYLINE
  5
775D
330
17
100
AcDbEntity
  8
D-STR
 62
     4
100
AcDbPolyline
 90
        9
 70
     0
 43
0.0
 10
28045.30997131234
 20
26162.63290590644
 42
-0.008509631596544
 10
28043.1415971292
 20
26164.30955433401
 42
-0.1894210053200312
 10
28033.54599536211
 20
26181.02327667304
 42
-0.1090248081652168
 10
28035.73107146088
 20
26211.99725936804
 42
0.0974383114213299
 10
28038.96224104772
 20
26246.50745176908
 42
0.0392408507825504
 10
28036.2365905949
 20
26261.54174243322
 42
-0.0395971887258283
 10
28033.54599536211
 20
26276.44307467013
 42
-0.2009802561817344
 10
28043.2541342574
 20
26308.14175443003
 42
-0.0124709606969013
 10
28045.51575925474
 20
26310.72657619077
  0
LWPOLYLINE
  5
775E
330
17
100
AcDbEntity
  8
D-STR
 62
     4
100
AcDbPolyline
 90
       32
 70
     0
 43
0.0
 10
28071.04435104379
 20
26445.48190029398
 10
28066.55124250875
 20
26449.16002265318
 10
28060.54964735452
 20
26456.23312967957
 10
28056.11368571879
 20
26463.79407919343
 10
28053.03178550446
 20
26471.62544326962
 10
28051.09237461443
 20
26479.50979398303
 10
28050.08388095161
 20
26487.22970340853
 10
28049.79473241892
 20
26494.567743621
 10
28050.02746172572
 20
26501.35947333253
 10
28050.6410208073
 20
26507.65239780407
 10
28051.50846640538
 20
26513.54700893379
 10
28052.50285526172
 20
26519.14379861985
 10
28053.49724411806
 20
26524.54325876042
 10
28054.36468971615
 20
26529.84588125366
 10
28054.97824879772
 20
26535.15215799775
 10
28055.21097810452
 20
26540.56258089084
 10
28054.97824879772
 20
26546.15480276335
 10
28054.36468971615
 20
26551.91512017461
 10
28053.49724411806
 20
26557.80699061619
 10
28052.50285526172
 20
26563.79387157968
 10
28051.50846640538
 20
26569.83922055665
 10
28050.6410208073
 20
26575.90649503866
 10
28050.02746172572
 20
26581.95915251731
 10
28049.79473241892
 20
26587.96065048417
 10
28050.07330234676
 20
26593.86774697093
 10
28051.00774577559
 20
26599.61040216979
 10
28052.74616317338
 20
26605.11187681304
 10
28055.43665500809
 20
26610.295431633
 10
28059.22732174769
 20
26615.08432736198
 10
28064.26626386014
 20
26619.40182473229
 10
28070.70158181341
 20
26623.17118447624
 10
28071.04435104379
 20
26623.30625462104
  0
LWPOLYLINE
  5
775F
330
17
100
AcDbEntity
  8
D-STR
 62
     4
100
AcDbPolyline
 90
       11
 70
     0
 43
0.0
 10
28071.04435104379
 20
26211.97741520295
 42
-0.0324650077943073
 10
28064.33365349344
 20
26214.26144489487
 42
-0.2138848594728086
 10
28049.79473241892
 20
26229.66866388724
 42
-0.2135213813704569
 10
28052.24759083585
 20
26258.20862954446
 42
0.2059430792276795
 10
28055.21097810452
 20
26287.66893325802
 42
0.0392443123626595
 10
28050.41910800145
 20
26299.51452853134
 42
-0.0321956946286655
 10
28044.37848673332
 20
26313.86260329644
 42
-0.0983014093541282
 10
28036.69223674687
 20
26369.14914899012
 42
-0.1368906726841335
 10
28049.79473241892
 20
26407.41142486222
 42
-0.1635797797584237
 10
28064.3419376942
 20
26418.34444915758
 42
-0.0212360827911686
 10
28071.04435104379
 20
26420.25538450847
  0
LWPOLYLINE
  5
7760
330
17
100
AcDbEntity
  8
D-STR
 62
     4
100
AcDbPolyline
 90
        9
 70
     0
 43
0.0
 10
28043.75805587864
 20
26396.90207814506
 42
-0.0186649736381983
 10
28041.88520153001
 20
26400.44003811266
 42
-0.1370361919385519
 10
28038.96224104771
 20
26416.7663070188
 42
-0.1080147171740143
 10
28043.67433252737
 20
26431.45561767356
 42
0.0913619115319224
 10
28049.79473241892
 20
26448.57290635116
 42
0.1866284214784287
 10
28043.63556405457
 20
26477.77932292147
 42
-0.2053042542606889
 10
28038.96224104771
 20
26504.70219929063
 42
-0.1514265452510648
 10
28047.25663926064
 20
26518.73973165786
 42
-0.0326885010357211
 10
28053.31447541213
 20
26523.55083780123
  0
LINE
  5
7761
330
17
100
AcDbEntity
  8
D-STR
 62
     4
100
AcDbLine
 10
26417.89203615766
 20
25708.58296525223
 30
0.0
 11
26401.89203615766
 21
25701.96438857661
 31
0.0
  0
LINE
  5
7762
330
17
100
AcDbEntity
  8
D-STR
 62
     4
100
AcDbLine
 10
26458.54078967781
 20
25667.8574436163
 30
0.0
 11
26451.89203615766
 21
25651.8699599544
 31
0.0
  0
LINE
  5
7763
330
17
100
AcDbEntity
  8
D-STR
 62
     4
100
AcDbLine
 10
26417.89203615766
 20
26594.33688257907
 30
0.0
 11
26401.89203615766
 21
26600.96429957705
 31
0.0
  0
LINE
  5
7764
330
17
100
AcDbEntity
  8
D-STR
 62
     4
100
AcDbLine
 10
26451.89203615766
 20
26650.96429957705
 30
0.0
 11
26458.51945315563
 21
26634.96429957705
 31
0.0
  0
ARC
  5
7765
330
17
100
AcDbEntity
  8
D-STR
 62
     5
100
AcDbCircle
 10
26426.89203615766
 20
25676.96438857661
 30
0.0
 40
20.0
100
AcDbArc
 50
135.0000000001474
 51
315.0000000001473
  0
ARC
  5
7766
330
17
100
AcDbEntity
  8
D-STR
 62
     5
100
AcDbCircle
 10
26426.89203615766
 20
26625.96429957705
 30
0.0
 40
20.0
100
AcDbArc
 50
44.99999999985261
 51
224.9999999998526
  0
LWPOLYLINE
  5
7767
330
17
100
AcDbEntity
  8
D-STR
 62
     4
100
AcDbPolyline
 90
       29
 70
     1
 43
0.0
 10
26920.78768989542
 20
25964.68215687323
 10
26901.39203615766
 20
25963.65453746216
 10
26876.31672503148
 20
25953.04995461122
 10
26846.42158771211
 20
25937.34855230408
 10
26826.76653989209
 20
25923.34637663867
 10
26815.44743269757
 20
25910.66521265278
 10
26810.5601172547
 20
25898.92684538424
 10
26810.20044468965
 20
25887.75305987085
 10
26812.46426612855
 20
25876.76564115042
 10
26815.44743269757
 20
25865.58637426077
 10
26817.79588297532
 20
25853.84800699223
 10
26820.35590535015
 20
25841.22713814525
 10
26824.5238756629
 20
25827.41132927279
 10
26831.69616975438
 20
25812.08814192784
 10
26843.26916346541
 20
25794.94513766337
 10
26860.63923263682
 20
25775.66987803235
 10
26885.20275310942
 20
25753.94992458776
 10
26901.39203615766
 20
25741.99739197224
 10
26923.40545801263
 20
25740.46711711751
 10
26935.56424208479
 20
25742.37944671264
 10
26946.7452542741
 20
25759.14380586146
 10
26958.37338069754
 20
25776.5785500769
 10
26968.06352328008
 20
25797.88764895697
 10
26970.97052137922
 20
25818.2281888158
 10
26975.81559267049
 20
25841.47449467311
 10
26971.93953563747
 20
25871.50098048336
 10
26960.72934966522
 20
25914.65622572233
 10
26948.21749474743
 20
25938.70715416027
 10
26930.89340512113
 20
25960.83400832317
  0
LWPOLYLINE
  5
7768
330
17
100
AcDbEntity
  8
D-STR
 62
     4
100
AcDbPolyline
 90
       25
 70
     1
 43
0.0
 10
26916.59398918438
 20
26349.60815070761
 10
26901.39203615766
 20
26358.51315089026
 42
0.0931978818656118
 10
26872.37386716914
 20
26376.65099547453
 42
0.206247439895956
 10
26822.66909361171
 20
26374.95970768644
 42
0.0867248894440732
 10
26788.83451310076
 20
26351.11911568257
 42
0.0917779343779982
 10
26766.70122152715
 20
26318.83041474697
 42
0.0710167065719154
 10
26753.35066520968
 20
26271.70714153903
 42
0.0749551258460598
 10
26754.06331492741
 20
26225.28159318119
 42
0.086788629018261
 10
26765.91583610738
 20
26191.57388571979
 42
0.053792366320127
 10
26799.19869564076
 20
26144.82960663462
 42
0.14559789045578
 10
26856.48346517239
 20
26109.28068667225
 42
0.068425443147035
 10
26901.39203615766
 20
26103.42764328877
 10
26923.81379320491
 20
26110.01299726544
 10
26947.63921348608
 20
26113.62137765428
 10
26961.35686346288
 20
26125.88978204155
 10
26973.63055263559
 20
26141.76656681766
 10
26991.68012970034
 20
26182.90189573595
 10
26994.56805130855
 20
26200.2220326676
 10
26996.73397017689
 20
26220.42884426539
 10
26991.68012970034
 20
26242.07900801872
 10
27000.34389452497
 20
26274.55425364872
 10
26993.84604856868
 20
26296.92609347981
 10
26974.35255537545
 20
26317.85458115538
 10
26957.74698379044
 20
26333.00968985372
 10
26931.25241126661
 20
26341.02154008658
  0
LWPOLYLINE
  5
7769
330
17
100
AcDbEntity
  8
D-STR
 62
     4
100
AcDbPolyline
 90
       35
 70
     1
 43
0.0
 10
26920.47840055886
 20
26598.17548921866
 10
26901.39203615766
 20
26591.00104190526
 10
26898.08308607041
 20
26589.71272119338
 10
26882.77672639607
 20
26579.01307472679
 10
26871.64891563934
 20
26566.03317573453
 10
26863.91154773854
 20
26551.29923633792
 10
26858.77651663199
 20
26535.33746865826
 10
26855.45571625802
 20
26518.67408481686
 10
26853.16104055496
 20
26501.83529693502
 10
26851.10438346112
 20
26485.34731713405
 10
26848.84320667343
 20
26469.63769276252
 10
26847.31724292315
 20
26454.739312078
 10
26847.8117927001
 20
26440.58639856533
 10
26851.61215649415
 20
26427.11317570936
 10
26860.00363479514
 20
26414.25386699491
 10
26874.2715280929
 20
26401.94269590682
 10
26895.70113687729
 20
26390.11388592992
 10
26901.39203615766
 20
26387.94008531734
 10
26929.70387198879
 20
26384.42792459764
 10
26947.86705916229
 20
26384.42792459764
 10
26965.02124739514
 20
26386.445172875
 10
26989.23883029313
 20
26387.45381183614
 10
27006.39301852597
 20
26391.48836768069
 10
27015.47458977492
 20
26407.62650212414
 10
27024.55620569947
 20
26418.72150105175
 10
27025.56529399137
 20
26433.85099653406
 10
27025.56529399137
 20
26452.00643854471
 10
27034.64690991593
 20
26476.21365503235
 10
27038.68317373226
 20
26501.42951048112
 10
27039.69221734853
 20
26527.65400489104
 10
27039.69221734853
 20
26553.87852894588
 10
27033.63782162403
 20
26578.08574543351
 10
27008.41115043414
 20
26590.18935367733
 10
26985.2025664768
 20
26608.34479568798
 10
26951.90336765425
 20
26609.3534050042
  0
POLYLINE
  5
776A
330
17
100
AcDbEntity
  8
D-STR
 62
     4
100
AcDb2dPolyline
 66
     1
 10
0.0
 20
0.0
 30
0.0
 70
     5
 75
     6
  0
VERTEX
  5
776B
330
776A
100
AcDbEntity
  8
D-STR
 62
     4
100
AcDbVertex
100
AcDb2dVertex
 10
26624.07341847294
 20
25852.95728334939
 30
0.0
 70
    16
  0
VERTEX
  5
776C
330
776A
100
AcDbEntity
  8
D-STR
 62
     4
100
AcDbVertex
100
AcDb2dVertex
 10
26587.06240628799
 20
25931.53829346465
 30
0.0
 70
     8
  0
VERTEX
  5
776D
330
776A
100
AcDbEntity
  8
D-STR
 62
     4
100
AcDbVertex
100
AcDb2dVertex
 10
26581.62794189402
 20
25940.78659330499
 30
0.0
 70
     8
  0
VERTEX
  5
776E
330
776A
100
AcDbEntity
  8
D-STR
 62
     4
100
AcDbVertex
100
AcDb2dVertex
 10
26575.91490757222
 20
25949.74620732878
 30
0.0
 70
     8
  0
VERTEX
  5
776F
330
776A
100
AcDbEntity
  8
D-STR
 62
     4
100
AcDbVertex
100
AcDb2dVertex
 10
26569.89861991125
 20
25958.3038537599
 30
0.0
 70
     8
  0
VERTEX
  5
7770
330
776A
100
AcDbEntity
  8
D-STR
 62
     4
100
AcDbVertex
100
AcDb2dVertex
 10
26563.55439549978
 20
25966.34625082225
 30
0.0
 70
     8
  0
VERTEX
  5
7771
330
776A
100
AcDbEntity
  8
D-STR
 62
     4
100
AcDbVertex
100
AcDb2dVertex
 10
26556.85755092649
 20
25973.7601167397
 30
0.0
 70
     8
  0
VERTEX
  5
7772
330
776A
100
AcDbEntity
  8
D-STR
 62
     4
100
AcDbVertex
100
AcDb2dVertex
 10
26549.78340278005
 20
25980.43216973614
 30
0.0
 70
     8
  0
VERTEX
  5
7773
330
776A
100
AcDbEntity
  8
D-STR
 62
     4
100
AcDbVertex
100
AcDb2dVertex
 10
26542.30726764913
 20
25986.24912803545
 30
0.0
 70
     8
  0
VERTEX
  5
7774
330
776A
100
AcDbEntity
  8
D-STR
 62
     4
100
AcDbVertex
100
AcDb2dVertex
 10
26534.40446212241
 20
25991.09770986153
 30
0.0
 70
     8
  0
VERTEX
  5
7775
330
776A
100
AcDbEntity
  8
D-STR
 62
     4
100
AcDbVertex
100
AcDb2dVertex
 10
26526.086152505
 20
25994.83966272416
 30
0.0
 70
     8
  0
VERTEX
  5
7776
330
776A
100
AcDbEntity
  8
D-STR
 62
     4
100
AcDbVertex
100
AcDb2dVertex
 10
26517.50690396784
 20
25997.23685127678
 30
0.0
 70
     8
  0
VERTEX
  5
7777
330
776A
100
AcDbEntity
  8
D-STR
 62
     4
100
AcDbVertex
100
AcDb2dVertex
 10
26508.85713139832
 20
25998.02616945874
 30
0.0
 70
     8
  0
VERTEX
  5
7778
330
776A
100
AcDbEntity
  8
D-STR
 62
     4
100
AcDbVertex
100
AcDb2dVertex
 10
26500.32724968382
 20
25996.94451120939
 30
0.0
 70
     8
  0
VERTEX
  5
7779
330
776A
100
AcDbEntity
  8
D-STR
 62
     4
100
AcDbVertex
100
AcDb2dVertex
 10
26492.10767371173
 20
25993.72877046806
 30
0.0
 70
     8
  0
VERTEX
  5
777A
330
776A
100
AcDbEntity
  8
D-STR
 62
     4
100
AcDbVertex
100
AcDb2dVertex
 10
26484.38881836942
 20
25988.11584117412
 30
0.0
 70
     8
  0
VERTEX
  5
777B
330
776A
100
AcDbEntity
  8
D-STR
 62
     4
100
AcDbVertex
100
AcDb2dVertex
 10
26477.36109854428
 20
25979.84261726689
 30
0.0
 70
     8
  0
VERTEX
  5
777C
330
776A
100
AcDbEntity
  8
D-STR
 62
     4
100
AcDbVertex
100
AcDb2dVertex
 10
26471.21492912371
 20
25968.64599268574
 30
0.0
 70
     8
  0
VERTEX
  5
777D
330
776A
100
AcDbEntity
  8
D-STR
 62
     4
100
AcDbVertex
100
AcDb2dVertex
 10
26466.11780468455
 20
25954.41207661273
 30
0.0
 70
     8
  0
VERTEX
  5
777E
330
776A
100
AcDbEntity
  8
D-STR
 62
     4
100
AcDbVertex
100
AcDb2dVertex
 10
26462.14553856162
 20
25937.62383920088
 30
0.0
 70
     8
  0
VERTEX
  5
777F
330
776A
100
AcDbEntity
  8
D-STR
 62
     4
100
AcDbVertex
100
AcDb2dVertex
 10
26459.35102377917
 20
25918.91346584592
 30
0.0
 70
     8
  0
VERTEX
  5
7780
330
776A
100
AcDbEntity
  8
D-STR
 62
     4
100
AcDbVertex
100
AcDb2dVertex
 10
26457.78715336148
 20
25898.91314194358
 30
0.0
 70
     8
  0
VERTEX
  5
7781
330
776A
100
AcDbEntity
  8
D-STR
 62
     4
100
AcDbVertex
100
AcDb2dVertex
 10
26457.50682033283
 20
25878.25505288961
 30
0.0
 70
     8
  0
VERTEX
  5
7782
330
776A
100
AcDbEntity
  8
D-STR
 62
     4
100
AcDbVertex
100
AcDb2dVertex
 10
26458.56291771749
 20
25857.57138407975
 30
0.0
 70
     8
  0
VERTEX
  5
7783
330
776A
100
AcDbEntity
  8
D-STR
 62
     4
100
AcDbVertex
100
AcDb2dVertex
 10
26461.00833853974
 20
25837.49432090972
 30
0.0
 70
     8
  0
VERTEX
  5
7784
330
776A
100
AcDbEntity
  8
D-STR
 62
     4
100
AcDbVertex
100
AcDb2dVertex
 10
26464.89597582384
 20
25818.65604877528
 30
0.0
 70
     8
  0
VERTEX
  5
7785
330
776A
100
AcDbEntity
  8
D-STR
 62
     4
100
AcDbVertex
100
AcDb2dVertex
 10
26470.23523277411
 20
25801.56877183615
 30
0.0
 70
     8
  0
VERTEX
  5
7786
330
776A
100
AcDbEntity
  8
D-STR
 62
     4
100
AcDbVertex
100
AcDb2dVertex
 10
26476.86155331503
 20
25786.26476930812
 30
0.0
 70
     8
  0
VERTEX
  5
7787
330
776A
100
AcDbEntity
  8
D-STR
 62
     4
100
AcDbVertex
100
AcDb2dVertex
 10
26484.56689155114
 20
25772.65633917098
 30
0.0
 70
     8
  0
VERTEX
  5
7788
330
776A
100
AcDbEntity
  8
D-STR
 62
     4
100
AcDbVertex
100
AcDb2dVertex
 10
26493.14320158695
 20
25760.65577940449
 30
0.0
 70
     8
  0
VERTEX
  5
7789
330
776A
100
AcDbEntity
  8
D-STR
 62
     4
100
AcDbVertex
100
AcDb2dVertex
 10
26502.38243752698
 20
25750.17538798845
 30
0.0
 70
     8
  0
VERTEX
  5
778A
330
776A
100
AcDbEntity
  8
D-STR
 62
     4
100
AcDbVertex
100
AcDb2dVertex
 10
26512.07655347577
 20
25741.12746290264
 30
0.0
 70
     8
  0
VERTEX
  5
778B
330
776A
100
AcDbEntity
  8
D-STR
 62
     4
100
AcDbVertex
100
AcDb2dVertex
 10
26522.01750353783
 20
25733.42430212683
 30
0.0
 70
     8
  0
VERTEX
  5
778C
330
776A
100
AcDbEntity
  8
D-STR
 62
     4
100
AcDbVertex
100
AcDb2dVertex
 10
26531.99724181769
 20
25726.97820364081
 30
0.0
 70
     8
  0
VERTEX
  5
778D
330
776A
100
AcDbEntity
  8
D-STR
 62
     4
100
AcDbVertex
100
AcDb2dVertex
 10
26541.82182722635
 20
25721.72095476219
 30
0.0
 70
     8
  0
VERTEX
  5
778E
330
776A
100
AcDbEntity
  8
D-STR
 62
     4
100
AcDbVertex
100
AcDb2dVertex
 10
26551.3537379007
 20
25717.66230015989
 30
0.0
 70
     8
  0
VERTEX
  5
778F
330
776A
100
AcDbEntity
  8
D-STR
 62
     4
100
AcDbVertex
100
AcDb2dVertex
 10
26560.4695567841
 20
25714.83147384063
 30
0.0
 70
     8
  0
VERTEX
  5
7790
330
776A
100
AcDbEntity
  8
D-STR
 62
     4
100
AcDbVertex
100
AcDb2dVertex
 10
26569.04586681991
 20
25713.25770981117
 30
0.0
 70
     8
  0
VERTEX
  5
7791
330
776A
100
AcDbEntity
  8
D-STR
 62
     4
100
AcDbVertex
100
AcDb2dVertex
 10
26576.95925095149
 20
25712.97024207823
 30
0.0
 70
     8
  0
VERTEX
  5
7792
330
776A
100
AcDbEntity
  8
D-STR
 62
     4
100
AcDbVertex
100
AcDb2dVertex
 10
26584.0862921222
 20
25713.99830464856
 30
0.0
 70
     8
  0
VERTEX
  5
7793
330
776A
100
AcDbEntity
  8
D-STR
 62
     4
100
AcDbVertex
100
AcDb2dVertex
 10
26590.30357327541
 20
25716.3711315289
 30
0.0
 70
     8
  0
VERTEX
  5
7794
330
776A
100
AcDbEntity
  8
D-STR
 62
     4
100
AcDbVertex
100
AcDb2dVertex
 10
26595.48767735448
 20
25720.11795672599
 30
0.0
 70
     8
  0
VERTEX
  5
7795
330
776A
100
AcDbEntity
  8
D-STR
 62
     4
100
AcDbVertex
100
AcDb2dVertex
 10
26599.5651418257
 20
25725.22964461272
 30
0.0
 70
     8
  0
VERTEX
  5
7796
330
776A
100
AcDbEntity
  8
D-STR
 62
     4
100
AcDbVertex
100
AcDb2dVertex
 10
26602.66232224704
 20
25731.5435810266
 30
0.0
 70
     8
  0
VERTEX
  5
7797
330
776A
100
AcDbEntity
  8
D-STR
 62
     4
100
AcDbVertex
100
AcDb2dVertex
 10
26604.95552869943
 20
25738.8587821713
 30
0.0
 70
     8
  0
VERTEX
  5
7798
330
776A
100
AcDbEntity
  8
D-STR
 62
     4
100
AcDbVertex
100
AcDb2dVertex
 10
26606.62107126378
 20
25746.9742642505
 30
0.0
 70
     8
  0
VERTEX
  5
7799
330
776A
100
AcDbEntity
  8
D-STR
 62
     4
100
AcDbVertex
100
AcDb2dVertex
 10
26607.83526002099
 20
25755.68904346785
 30
0.0
 70
     8
  0
VERTEX
  5
779A
330
776A
100
AcDbEntity
  8
D-STR
 62
     4
100
AcDbVertex
100
AcDb2dVertex
 10
26608.77440505198
 20
25764.80213602702
 30
0.0
 70
     8
  0
VERTEX
  5
779B
330
776A
100
AcDbEntity
  8
D-STR
 62
     4
100
AcDbVertex
100
AcDb2dVertex
 10
26609.61481643765
 20
25774.11255813168
 30
0.0
 70
     8
  0
VERTEX
  5
779C
330
776A
100
AcDbEntity
  8
D-STR
 62
     4
100
AcDbVertex
100
AcDb2dVertex
 10
26610.53280425893
 20
25783.4193259855
 30
0.0
 70
     8
  0
VERTEX
  5
779D
330
776A
100
AcDbEntity
  8
D-STR
 62
     4
100
AcDbVertex
100
AcDb2dVertex
 10
26611.65354867326
 20
25792.56347967683
 30
0.0
 70
     8
  0
VERTEX
  5
779E
330
776A
100
AcDbEntity
  8
D-STR
 62
     4
100
AcDbVertex
100
AcDb2dVertex
 10
26612.89771014423
 20
25801.55415483278
 30
0.0
 70
     8
  0
VERTEX
  5
779F
330
776A
100
AcDbEntity
  8
D-STR
 62
     4
100
AcDbVertex
100
AcDb2dVertex
 10
26614.13481921195
 20
25810.44251096515
 30
0.0
 70
     8
  0
VERTEX
  5
77A0
330
776A
100
AcDbEntity
  8
D-STR
 62
     4
100
AcDbVertex
100
AcDb2dVertex
 10
26615.23440641657
 20
25819.27970758571
 30
0.0
 70
     8
  0
VERTEX
  5
77A1
330
776A
100
AcDbEntity
  8
D-STR
 62
     4
100
AcDbVertex
100
AcDb2dVertex
 10
26616.06600229821
 20
25828.11690420628
 30
0.0
 70
     8
  0
VERTEX
  5
77A2
330
776A
100
AcDbEntity
  8
D-STR
 62
     4
100
AcDbVertex
100
AcDb2dVertex
 10
26616.49913739698
 20
25837.00526033865
 30
0.0
 70
     8
  0
VERTEX
  5
77A3
330
776A
100
AcDbEntity
  8
D-STR
 62
     4
100
AcDbVertex
100
AcDb2dVertex
 10
26616.40334225302
 20
25845.9959354946
 30
0.0
 70
     8
  0
VERTEX
  5
77A4
330
776A
100
AcDbEntity
  8
D-STR
 62
     4
100
AcDbVertex
100
AcDb2dVertex
 10
26615.64814740645
 20
25855.14008918593
 30
0.0
 70
     8
  0
VERTEX
  5
77A5
330
776A
100
AcDbEntity
  8
D-STR
 62
     4
100
AcDbVertex
100
AcDb2dVertex
 10
26614.1359946125
 20
25864.47243679564
 30
0.0
 70
     8
  0
VERTEX
  5
77A6
330
776A
100
AcDbEntity
  8
D-STR
 62
     4
100
AcDbVertex
100
AcDb2dVertex
 10
26611.90097048681
 20
25873.96191719158
 30
0.0
 70
     8
  0
VERTEX
  5
77A7
330
776A
100
AcDbEntity
  8
D-STR
 62
     4
100
AcDbVertex
100
AcDb2dVertex
 10
26609.01007286013
 20
25883.5610251128
 30
0.0
 70
     8
  0
VERTEX
  5
77A8
330
776A
100
AcDbEntity
  8
D-STR
 62
     4
100
AcDbVertex
100
AcDb2dVertex
 10
26605.5302995632
 20
25893.22225529833
 30
0.0
 70
     8
  0
VERTEX
  5
77A9
330
776A
100
AcDbEntity
  8
D-STR
 62
     4
100
AcDbVertex
100
AcDb2dVertex
 10
26601.52864842678
 20
25902.89810248723
 30
0.0
 70
     8
  0
VERTEX
  5
77AA
330
776A
100
AcDbEntity
  8
D-STR
 62
     4
100
AcDbVertex
100
AcDb2dVertex
 10
26597.0721172816
 20
25912.54106141856
 30
0.0
 70
     8
  0
VERTEX
  5
77AB
330
776A
100
AcDbEntity
  8
D-STR
 62
     4
100
AcDbVertex
100
AcDb2dVertex
 10
26592.22770395843
 20
25922.10362683134
 30
0.0
 70
     8
  0
VERTEX
  5
77AC
330
776A
100
AcDbEntity
  8
D-STR
 62
     4
100
AcDbVertex
100
AcDb2dVertex
 10
26589.77052913079
 20
25933.40926989596
 30
0.0
 70
    16
  0
VERTEX
  5
77AD
330
776A
100
AcDbEntity
  8
D-STR
 62
     4
100
AcDbVertex
100
AcDb2dVertex
 10
26539.21890273183
 20
26002.63539785464
 30
0.0
 70
    16
  0
VERTEX
  5
77AE
330
776A
100
AcDbEntity
  8
D-STR
 62
     4
100
AcDbVertex
100
AcDb2dVertex
 10
26459.78063267632
 20
26002.63539785464
 30
0.0
 70
    16
  0
VERTEX
  5
77AF
330
776A
100
AcDbEntity
  8
D-STR
 62
     4
100
AcDbVertex
100
AcDb2dVertex
 10
26448.94814130512
 20
25798.69896684124
 30
0.0
 70
    16
  0
VERTEX
  5
77B0
330
776A
100
AcDbEntity
  8
D-STR
 62
     4
100
AcDbVertex
100
AcDb2dVertex
 10
26533.80265704623
 20
25714.50502743204
 30
0.0
 70
    16
  0
VERTEX
  5
77B1
330
776A
100
AcDbEntity
  8
D-STR
 62
     4
100
AcDbVertex
100
AcDb2dVertex
 10
26607.82468141613
 20
25705.15014527546
 30
0.0
 70
    16
  0
VERTEX
  5
77B2
330
776A
100
AcDbEntity
  8
D-STR
 62
     4
100
AcDbVertex
100
AcDb2dVertex
 10
26607.82468141613
 20
25785.60213182203
 30
0.0
 70
    16
  0
SEQEND
  5
77B3
330
776A
100
AcDbEntity
  8
D-STR
 62
     4
  0
POLYLINE
  5
77B4
330
17
100
AcDbEntity
  8
D-STR
 62
     4
100
AcDb2dPolyline
 66
     1
 10
0.0
 20
0.0
 30
0.0
 70
     5
 75
     6
  0
VERTEX
  5
77B5
330
77B4
100
AcDbEntity
  8
D-STR
 62
     4
100
AcDbVertex
100
AcDb2dVertex
 10
26743.2308235562
 20
26111.15203087094
 30
0.0
 70
    16
  0
VERTEX
  5
77B6
330
77B4
100
AcDbEntity
  8
D-STR
 62
     4
100
AcDbVertex
100
AcDb2dVertex
 10
26712.53876467112
 20
26162.91571213734
 30
0.0
 70
     8
  0
VERTEX
  5
77B7
330
77B4
100
AcDbEntity
  8
D-STR
 62
     4
100
AcDbVertex
100
AcDb2dVertex
 10
26706.58124703712
 20
26163.70015798484
 30
0.0
 70
     8
  0
VERTEX
  5
77B8
330
77B4
100
AcDbEntity
  8
D-STR
 62
     4
100
AcDbVertex
100
AcDb2dVertex
 10
26700.08422055553
 20
26162.99366948864
 30
0.0
 70
     8
  0
VERTEX
  5
77B9
330
77B4
100
AcDbEntity
  8
D-STR
 62
     4
100
AcDbVertex
100
AcDb2dVertex
 10
26693.18520708946
 20
26161.11782072287
 30
0.0
 70
     8
  0
VERTEX
  5
77BA
330
77B4
100
AcDbEntity
  8
D-STR
 62
     4
100
AcDbVertex
100
AcDb2dVertex
 10
26686.02172850202
 20
26158.39418576166
 30
0.0
 70
     8
  0
VERTEX
  5
77BB
330
77B4
100
AcDbEntity
  8
D-STR
 62
     4
100
AcDbVertex
100
AcDb2dVertex
 10
26678.73130665633
 20
26155.14433867914
 30
0.0
 70
     8
  0
VERTEX
  5
77BC
330
77B4
100
AcDbEntity
  8
D-STR
 62
     4
100
AcDbVertex
100
AcDb2dVertex
 10
26671.45146341549
 20
26151.68985354944
 30
0.0
 70
     8
  0
VERTEX
  5
77BD
330
77B4
100
AcDbEntity
  8
D-STR
 62
     4
100
AcDbVertex
100
AcDb2dVertex
 10
26664.31972064262
 20
26148.35230444671
 30
0.0
 70
     8
  0
VERTEX
  5
77BE
330
77B4
100
AcDbEntity
  8
D-STR
 62
     4
100
AcDbVertex
100
AcDb2dVertex
 10
26657.47360020082
 20
26145.45326544506
 30
0.0
 70
     8
  0
VERTEX
  5
77BF
330
77B4
100
AcDbEntity
  8
D-STR
 62
     4
100
AcDbVertex
100
AcDb2dVertex
 10
26651.01888813865
 20
26143.22173626396
 30
0.0
 70
     8
  0
VERTEX
  5
77C0
330
77B4
100
AcDbEntity
  8
D-STR
 62
     4
100
AcDbVertex
100
AcDb2dVertex
 10
26644.9344272464
 20
26141.51641920417
 30
0.0
 70
     8
  0
VERTEX
  5
77C1
330
77B4
100
AcDbEntity
  8
D-STR
 62
     4
100
AcDbVertex
100
AcDb2dVertex
 10
26639.16732449978
 20
26140.10344221177
 30
0.0
 70
     8
  0
VERTEX
  5
77C2
330
77B4
100
AcDbEntity
  8
D-STR
 62
     4
100
AcDbVertex
100
AcDb2dVertex
 10
26633.66468687453
 20
26138.74893323284
 30
0.0
 70
     8
  0
VERTEX
  5
77C3
330
77B4
100
AcDbEntity
  8
D-STR
 62
     4
100
AcDbVertex
100
AcDb2dVertex
 10
26628.37362134637
 20
26137.21902021349
 30
0.0
 70
     8
  0
VERTEX
  5
77C4
330
77B4
100
AcDbEntity
  8
D-STR
 62
     4
100
AcDbVertex
100
AcDb2dVertex
 10
26623.24123489104
 20
26135.27983109978
 30
0.0
 70
     8
  0
VERTEX
  5
77C5
330
77B4
100
AcDbEntity
  8
D-STR
 62
     4
100
AcDbVertex
100
AcDb2dVertex
 10
26618.21463448425
 20
26132.69749383781
 30
0.0
 70
     8
  0
VERTEX
  5
77C6
330
77B4
100
AcDbEntity
  8
D-STR
 62
     4
100
AcDbVertex
100
AcDb2dVertex
 10
26613.24092710173
 20
26129.23813637366
 30
0.0
 70
     8
  0
VERTEX
  5
77C7
330
77B4
100
AcDbEntity
  8
D-STR
 62
     4
100
AcDbVertex
100
AcDb2dVertex
 10
26608.30542023675
 20
26124.72574562508
 30
0.0
 70
     8
  0
VERTEX
  5
77C8
330
77B4
100
AcDbEntity
  8
D-STR
 62
     4
100
AcDbVertex
100
AcDb2dVertex
 10
26603.54622345268
 20
26119.21574439653
 30
0.0
 70
     8
  0
VERTEX
  5
77C9
330
77B4
100
AcDbEntity
  8
D-STR
 62
     4
100
AcDbVertex
100
AcDb2dVertex
 10
26599.13964683043
 20
26112.82141446412
 30
0.0
 70
     8
  0
VERTEX
  5
77CA
330
77B4
100
AcDbEntity
  8
D-STR
 62
     4
100
AcDbVertex
100
AcDb2dVertex
 10
26595.26200045092
 20
26105.65603760395
 30
0.0
 70
     8
  0
VERTEX
  5
77CB
330
77B4
100
AcDbEntity
  8
D-STR
 62
     4
100
AcDbVertex
100
AcDb2dVertex
 10
26592.08959439505
 20
26097.83289559215
 30
0.0
 70
     8
  0
VERTEX
  5
77CC
330
77B4
100
AcDbEntity
  8
D-STR
 62
     4
100
AcDbVertex
100
AcDb2dVertex
 10
26589.79873874374
 20
26089.46527020483
 30
0.0
 70
     8
  0
VERTEX
  5
77CD
330
77B4
100
AcDbEntity
  8
D-STR
 62
     4
100
AcDbVertex
100
AcDb2dVertex
 10
26588.56574357789
 20
26080.66644321811
 30
0.0
 70
     8
  0
VERTEX
  5
77CE
330
77B4
100
AcDbEntity
  8
D-STR
 62
     4
100
AcDbVertex
100
AcDb2dVertex
 10
26588.56691897843
 20
26071.5496964081
 30
0.0
 70
     8
  0
VERTEX
  5
77CF
330
77B4
100
AcDbEntity
  8
D-STR
 62
     4
100
AcDbVertex
100
AcDb2dVertex
 10
26589.94213760954
 20
26062.23866526163
 30
0.0
 70
     8
  0
VERTEX
  5
77D0
330
77B4
100
AcDbEntity
  8
D-STR
 62
     4
100
AcDbVertex
100
AcDb2dVertex
 10
26592.68552246853
 20
26052.89840010842
 30
0.0
 70
     8
  0
VERTEX
  5
77D1
330
77B4
100
AcDbEntity
  8
D-STR
 62
     4
100
AcDbVertex
100
AcDb2dVertex
 10
26596.75475913597
 20
26043.70430498891
 30
0.0
 70
     8
  0
VERTEX
  5
77D2
330
77B4
100
AcDbEntity
  8
D-STR
 62
     4
100
AcDbVertex
100
AcDb2dVertex
 10
26602.10753319244
 20
26034.83178394353
 30
0.0
 70
     8
  0
VERTEX
  5
77D3
330
77B4
100
AcDbEntity
  8
D-STR
 62
     4
100
AcDbVertex
100
AcDb2dVertex
 10
26608.70153021853
 20
26026.45624101271
 30
0.0
 70
     8
  0
VERTEX
  5
77D4
330
77B4
100
AcDbEntity
  8
D-STR
 62
     4
100
AcDbVertex
100
AcDb2dVertex
 10
26616.49443579482
 20
26018.75308023691
 30
0.0
 70
     8
  0
VERTEX
  5
77D5
330
77B4
100
AcDbEntity
  8
D-STR
 62
     4
100
AcDbVertex
100
AcDb2dVertex
 10
26625.44393550189
 20
26011.89770565654
 30
0.0
 70
     8
  0
VERTEX
  5
77D6
330
77B4
100
AcDbEntity
  8
D-STR
 62
     4
100
AcDbVertex
100
AcDb2dVertex
 10
26635.50771492032
 20
26006.06552131205
 30
0.0
 70
     8
  0
VERTEX
  5
77D7
330
77B4
100
AcDbEntity
  8
D-STR
 62
     4
100
AcDbVertex
100
AcDb2dVertex
 10
26646.5929174075
 20
26001.36676377051
 30
0.0
 70
     8
  0
VERTEX
  5
77D8
330
77B4
100
AcDbEntity
  8
D-STR
 62
     4
100
AcDbVertex
100
AcDb2dVertex
 10
26658.40451742804
 20
25997.65099970559
 30
0.0
 70
     8
  0
VERTEX
  5
77D9
330
77B4
100
AcDbEntity
  8
D-STR
 62
     4
100
AcDbVertex
100
AcDb2dVertex
 10
26670.59694722334
 20
25994.70262831757
 30
0.0
 70
     8
  0
VERTEX
  5
77DA
330
77B4
100
AcDbEntity
  8
D-STR
 62
     4
100
AcDbVertex
100
AcDb2dVertex
 10
26682.82463903482
 20
25992.30604880675
 30
0.0
 70
     8
  0
VERTEX
  5
77DB
330
77B4
100
AcDbEntity
  8
D-STR
 62
     4
100
AcDbVertex
100
AcDb2dVertex
 10
26694.74202510391
 20
25990.24566037344
 30
0.0
 70
     8
  0
VERTEX
  5
77DC
330
77B4
100
AcDbEntity
  8
D-STR
 62
     4
100
AcDbVertex
100
AcDb2dVertex
 10
26706.003537672
 20
25988.30586221792
 30
0.0
 70
     8
  0
VERTEX
  5
77DD
330
77B4
100
AcDbEntity
  8
D-STR
 62
     4
100
AcDbVertex
100
AcDb2dVertex
 10
26716.26360898051
 20
25986.27105354051
 30
0.0
 70
     8
  0
VERTEX
  5
77DE
330
77B4
100
AcDbEntity
  8
D-STR
 62
     4
100
AcDbVertex
100
AcDb2dVertex
 10
26725.17667127086
 20
25983.92563354148
 30
0.0
 70
     8
  0
VERTEX
  5
77DF
330
77B4
100
AcDbEntity
  8
D-STR
 62
     4
100
AcDbVertex
100
AcDb2dVertex
 10
26732.51998614083
 20
25981.12038697812
 30
0.0
 70
     8
  0
VERTEX
  5
77E0
330
77B4
100
AcDbEntity
  8
D-STR
 62
     4
100
AcDbVertex
100
AcDb2dVertex
 10
26738.56213261366
 20
25977.97164083558
 30
0.0
 70
     8
  0
VERTEX
  5
77E1
330
77B4
100
AcDbEntity
  8
D-STR
 62
     4
100
AcDbVertex
100
AcDb2dVertex
 10
26743.694519069
 20
25974.66210765596
 30
0.0
 70
     8
  0
VERTEX
  5
77E2
330
77B4
100
AcDbEntity
  8
D-STR
 62
     4
100
AcDbVertex
100
AcDb2dVertex
 10
26748.30855388645
 20
25971.37449998141
 30
0.0
 70
     8
  0
VERTEX
  5
77E3
330
77B4
100
AcDbEntity
  8
D-STR
 62
     4
100
AcDbVertex
100
AcDb2dVertex
 10
26752.79564544565
 20
25968.29153035402
 30
0.0
 70
     8
  0
VERTEX
  5
77E4
330
77B4
100
AcDbEntity
  8
D-STR
 62
     4
100
AcDbVertex
100
AcDb2dVertex
 10
26757.54720212622
 20
25965.59591131594
 30
0.0
 70
     8
  0
VERTEX
  5
77E5
330
77B4
100
AcDbEntity
  8
D-STR
 62
     4
100
AcDbVertex
100
AcDb2dVertex
 10
26762.95463230778
 20
25963.47035540927
 30
0.0
 70
     8
  0
VERTEX
  5
77E6
330
77B4
100
AcDbEntity
  8
D-STR
 62
     4
100
AcDbVertex
100
AcDb2dVertex
 10
26769.40934436995
 20
25962.09757517614
 30
0.0
 70
     8
  0
VERTEX
  5
77E7
330
77B4
100
AcDbEntity
  8
D-STR
 62
     4
100
AcDbVertex
100
AcDb2dVertex
 10
26777.1758034341
 20
25961.63104915192
 30
0.0
 70
     8
  0
VERTEX
  5
77E8
330
77B4
100
AcDbEntity
  8
D-STR
 62
     4
100
AcDbVertex
100
AcDb2dVertex
 10
26786.01070158858
 20
25962.10731984505
 30
0.0
 70
     8
  0
VERTEX
  5
77E9
330
77B4
100
AcDbEntity
  8
D-STR
 62
     4
100
AcDbVertex
100
AcDb2dVertex
 10
26795.54378766347
 20
25963.5336957572
 30
0.0
 70
     8
  0
VERTEX
  5
77EA
330
77B4
100
AcDbEntity
  8
D-STR
 62
     4
100
AcDbVertex
100
AcDb2dVertex
 10
26805.40481048885
 20
25965.91748539007
 30
0.0
 70
     8
  0
VERTEX
  5
77EB
330
77B4
100
AcDbEntity
  8
D-STR
 62
     4
100
AcDbVertex
100
AcDb2dVertex
 10
26815.22351889481
 20
25969.26599724534
 30
0.0
 70
     8
  0
VERTEX
  5
77EC
330
77B4
100
AcDbEntity
  8
D-STR
 62
     4
100
AcDbVertex
100
AcDb2dVertex
 10
26824.62966171145
 20
25973.58653982468
 30
0.0
 70
     8
  0
VERTEX
  5
77ED
330
77B4
100
AcDbEntity
  8
D-STR
 62
     4
100
AcDbVertex
100
AcDb2dVertex
 10
26833.25298776883
 20
25978.8864216298
 30
0.0
 70
     8
  0
VERTEX
  5
77EE
330
77B4
100
AcDbEntity
  8
D-STR
 62
     4
100
AcDbVertex
100
AcDb2dVertex
 10
26840.72324589705
 20
25985.17295116236
 30
0.0
 70
     8
  0
VERTEX
  5
77EF
330
77B4
100
AcDbEntity
  8
D-STR
 62
     4
100
AcDbVertex
100
AcDb2dVertex
 10
26846.72307795047
 20
25992.41993962467
 30
0.0
 70
     8
  0
VERTEX
  5
77F0
330
77B4
100
AcDbEntity
  8
D-STR
 62
     4
100
AcDbVertex
100
AcDb2dVertex
 10
26851.14669788054
 20
26000.46720902147
 30
0.0
 70
     8
  0
VERTEX
  5
77F1
330
77B4
100
AcDbEntity
  8
D-STR
 62
     4
100
AcDbVertex
100
AcDb2dVertex
 10
26853.94121266299
 20
26009.12108405812
 30
0.0
 70
     8
  0
VERTEX
  5
77F2
330
77B4
100
AcDbEntity
  8
D-STR
 62
     4
100
AcDbVertex
100
AcDb2dVertex
 10
26855.05372927354
 20
26018.18788943995
 30
0.0
 70
     8
  0
VERTEX
  5
77F3
330
77B4
100
AcDbEntity
  8
D-STR
 62
     4
100
AcDbVertex
100
AcDb2dVertex
 10
26854.43135468792
 20
26027.47394987233
 30
0.0
 70
     8
  0
VERTEX
  5
77F4
330
77B4
100
AcDbEntity
  8
D-STR
 62
     4
100
AcDbVertex
100
AcDb2dVertex
 10
26852.02119588187
 20
26036.7855900606
 30
0.0
 70
     8
  0
VERTEX
  5
77F5
330
77B4
100
AcDbEntity
  8
D-STR
 62
     4
100
AcDbVertex
100
AcDb2dVertex
 10
26847.77035983109
 20
26045.92913471013
 30
0.0
 70
     8
  0
VERTEX
  5
77F6
330
77B4
100
AcDbEntity
  8
D-STR
 62
     4
100
AcDbVertex
100
AcDb2dVertex
 10
26841.62595351132
 20
26054.71090852626
 30
0.0
 70
     8
  0
VERTEX
  5
77F7
330
77B4
100
AcDbEntity
  8
D-STR
 62
     4
100
AcDbVertex
100
AcDb2dVertex
 10
26833.61559883524
 20
26062.98778668432
 30
0.0
 70
     8
  0
VERTEX
  5
77F8
330
77B4
100
AcDbEntity
  8
D-STR
 62
     4
100
AcDbVertex
100
AcDb2dVertex
 10
26824.08897746332
 20
26070.81884623961
 30
0.0
 70
     8
  0
VERTEX
  5
77F9
330
77B4
100
AcDbEntity
  8
D-STR
 62
     4
100
AcDbVertex
100
AcDb2dVertex
 10
26813.47628599298
 20
26078.3137147174
 30
0.0
 70
     8
  0
VERTEX
  5
77FA
330
77B4
100
AcDbEntity
  8
D-STR
 62
     4
100
AcDbVertex
100
AcDb2dVertex
 10
26802.20772102166
 20
26085.58201964296
 30
0.0
 70
     8
  0
VERTEX
  5
77FB
330
77B4
100
AcDbEntity
  8
D-STR
 62
     4
100
AcDbVertex
100
AcDb2dVertex
 10
26790.71347914676
 20
26092.73338854156
 30
0.0
 70
     8
  0
VERTEX
  5
77FC
330
77B4
100
AcDbEntity
  8
D-STR
 62
     4
100
AcDbVertex
100
AcDb2dVertex
 10
26779.42375696572
 20
26099.87744893848
 30
0.0
 70
     8
  0
VERTEX
  5
77FD
330
77B4
100
AcDbEntity
  8
D-STR
 62
     4
100
AcDbVertex
100
AcDb2dVertex
 10
26768.76875107597
 20
26107.12382835899
 30
0.0
 70
     8
  0
VERTEX
  5
77FE
330
77B4
100
AcDbEntity
  8
D-STR
 62
     4
100
AcDbVertex
100
AcDb2dVertex
 10
26759.17865807492
 20
26114.58215432835
 30
0.0
 70
     8
  0
VERTEX
  5
77FF
330
77B4
100
AcDbEntity
  8
D-STR
 62
     4
100
AcDbVertex
100
AcDb2dVertex
 10
26750.96672220633
 20
26122.29932306572
 30
0.0
 70
     8
  0
VERTEX
  5
7800
330
77B4
100
AcDbEntity
  8
D-STR
 62
     4
100
AcDbVertex
100
AcDb2dVertex
 10
26743.97837829927
 20
26130.07130556573
 30
0.0
 70
     8
  0
VERTEX
  5
7801
330
77B4
100
AcDbEntity
  8
D-STR
 62
     4
100
AcDbVertex
100
AcDb2dVertex
 10
26737.94210882912
 20
26137.63134151687
 30
0.0
 70
     8
  0
VERTEX
  5
7802
330
77B4
100
AcDbEntity
  8
D-STR
 62
     4
100
AcDbVertex
100
AcDb2dVertex
 10
26732.5863962713
 20
26144.71267060766
 30
0.0
 70
     8
  0
VERTEX
  5
7803
330
77B4
100
AcDbEntity
  8
D-STR
 62
     4
100
AcDbVertex
100
AcDb2dVertex
 10
26727.63972310119
 20
26151.0485325266
 30
0.0
 70
     8
  0
VERTEX
  5
7804
330
77B4
100
AcDbEntity
  8
D-STR
 62
     4
100
AcDbVertex
100
AcDb2dVertex
 10
26722.83057179419
 20
26156.37216696219
 30
0.0
 70
     8
  0
VERTEX
  5
7805
330
77B4
100
AcDbEntity
  8
D-STR
 62
     4
100
AcDbVertex
100
AcDb2dVertex
 10
26717.88742482571
 20
26160.41681360294
 30
0.0
 70
     8
  0
VERTEX
  5
7806
330
77B4
100
AcDbEntity
  8
D-STR
 62
     4
100
AcDbVertex
100
AcDb2dVertex
 10
26719.76042558526
 20
26182.24913526093
 30
0.0
 70
    16
  0
VERTEX
  5
7807
330
77B4
100
AcDbEntity
  8
D-STR
 62
     4
100
AcDbVertex
100
AcDb2dVertex
 10
26652.96006212949
 20
26137.34570090936
 30
0.0
 70
    16
  0
VERTEX
  5
7808
330
77B4
100
AcDbEntity
  8
D-STR
 62
     4
100
AcDbVertex
100
AcDb2dVertex
 10
26613.24092710173
 20
26141.08765377199
 30
0.0
 70
    16
  0
VERTEX
  5
7809
330
77B4
100
AcDbEntity
  8
D-STR
 62
     4
100
AcDbVertex
100
AcDb2dVertex
 10
26573.52179207398
 20
26073.73250224463
 30
0.0
 70
    16
  0
VERTEX
  5
780A
330
77B4
100
AcDbEntity
  8
D-STR
 62
     4
100
AcDbVertex
100
AcDb2dVertex
 10
26624.07341847294
 20
25993.28051569806
 30
0.0
 70
    16
  0
VERTEX
  5
780B
330
77B4
100
AcDbEntity
  8
D-STR
 62
     4
100
AcDbVertex
100
AcDb2dVertex
 10
26743.2308235562
 20
25989.53856283543
 30
0.0
 70
    16
  0
VERTEX
  5
780C
330
77B4
100
AcDbEntity
  8
D-STR
 62
     4
100
AcDbVertex
100
AcDb2dVertex
 10
26754.06331492741
 20
25952.11903420912
 30
0.0
 70
    16
  0
VERTEX
  5
780D
330
77B4
100
AcDbEntity
  8
D-STR
 62
     4
100
AcDbVertex
100
AcDb2dVertex
 10
26856.97198295386
 20
25974.5707513849
 30
0.0
 70
    16
  0
VERTEX
  5
780E
330
77B4
100
AcDbEntity
  8
D-STR
 62
     4
100
AcDbVertex
100
AcDb2dVertex
 10
26862.38822863946
 20
26060.63566722542
 30
0.0
 70
    16
  0
SEQEND
  5
780F
330
77B4
100
AcDbEntity
  8
D-STR
 62
     4
  0
POLYLINE
  5
7810
330
17
100
AcDbEntity
  8
D-STR
 62
     4
100
AcDb2dPolyline
 66
     1
 10
0.0
 20
0.0
 30
0.0
 70
     3
  0
VERTEX
  5
7811
330
7810
100
AcDbEntity
  8
D-STR
 62
     4
100
AcDbVertex
100
AcDb2dVertex
 10
26772.11746721275
 20
25877.2799769565
 30
0.0
 42
0.3696226927398753
  0
VERTEX
  5
7812
330
7810
100
AcDbEntity
  8
D-STR
 62
     4
100
AcDbVertex
100
AcDb2dVertex
 10
26777.48079506916
 20
25927.35610229675
 30
0.0
 42
0.2502121434387681
 70
     1
  0
VERTEX
  5
7813
330
7810
100
AcDbEntity
  8
D-STR
 62
     4
100
AcDbVertex
100
AcDb2dVertex
 10
26714.34417989965
 20
25955.86098707175
 30
0.0
 42
0.2316142686187255
  0
VERTEX
  5
7814
330
7810
100
AcDbEntity
  8
D-STR
 62
     4
100
AcDbVertex
100
AcDb2dVertex
 10
26688.44287618177
 20
25943.86456172744
 30
0.0
 42
-0.2488539467108531
 70
     1
  0
VERTEX
  5
7815
330
7810
100
AcDbEntity
  8
D-STR
 62
     4
100
AcDbVertex
100
AcDb2dVertex
 10
26663.79255350069
 20
25933.40926989596
 30
0.0
 42
-0.1822158830198471
  0
VERTEX
  5
7816
330
7810
100
AcDbEntity
  8
D-STR
 62
     4
100
AcDbVertex
100
AcDb2dVertex
 10
26633.63012274204
 20
25947.87279614675
 30
0.0
 42
0.3105876008151728
 70
     1
  0
VERTEX
  5
7817
330
7810
100
AcDbEntity
  8
D-STR
 62
     4
100
AcDbVertex
100
AcDb2dVertex
 10
26613.24092710173
 20
25952.11903420912
 30
0.0
 42
0.4846243288097191
  0
VERTEX
  5
7818
330
7810
100
AcDbEntity
  8
D-STR
 62
     4
100
AcDbVertex
100
AcDb2dVertex
 10
26610.19595187304
 20
25941.17186968415
 30
0.0
 42
0.0677895224374235
 70
     1
  0
VERTEX
  5
7819
330
7810
100
AcDbEntity
  8
D-STR
 62
     4
100
AcDbVertex
100
AcDb2dVertex
 10
26658.37630781509
 20
25895.98974126965
 30
0.0
 42
0.1310012261851548
  0
VERTEX
  5
781A
330
7810
100
AcDbEntity
  8
D-STR
 62
     4
100
AcDbVertex
100
AcDb2dVertex
 10
26729.05500640722
 20
25864.12488110239
 30
0.0
 42
0.2338896327511865
 70
     1
  0
SEQEND
  5
781B
330
7810
100
AcDbEntity
  8
D-STR
 62
     4
  0
POLYLINE
  5
781C
330
17
100
AcDbEntity
  8
D-STR
 62
     4
100
AcDb2dPolyline
 66
     1
 10
0.0
 20
0.0
 30
0.0
 70
     5
 75
     6
  0
VERTEX
  5
781D
330
781C
100
AcDbEntity
  8
D-STR
 62
     4
100
AcDbVertex
100
AcDb2dVertex
 10
26642.12757075828
 20
25692.05331025625
 30
0.0
 70
    16
  0
VERTEX
  5
781E
330
781C
100
AcDbEntity
  8
D-STR
 62
     4
100
AcDbVertex
100
AcDb2dVertex
 10
26816.95194538802
 20
25712.32222159551
 30
0.0
 70
     8
  0
VERTEX
  5
781F
330
781C
100
AcDbEntity
  8
D-STR
 62
     4
100
AcDbVertex
100
AcDb2dVertex
 10
26823.83332784599
 20
25716.97712812693
 30
0.0
 70
     8
  0
VERTEX
  5
7820
330
781C
100
AcDbEntity
  8
D-STR
 62
     4
100
AcDbVertex
100
AcDb2dVertex
 10
26826.69836666081
 20
25722.25691155241
 30
0.0
 70
     8
  0
VERTEX
  5
7821
330
781C
100
AcDbEntity
  8
D-STR
 62
     4
100
AcDbVertex
100
AcDb2dVertex
 10
26826.29814277714
 20
25728.114066611
 30
0.0
 70
     8
  0
VERTEX
  5
7822
330
781C
100
AcDbEntity
  8
D-STR
 62
     4
100
AcDbVertex
100
AcDb2dVertex
 10
26823.38373713967
 20
25734.50108804173
 30
0.0
 70
     8
  0
VERTEX
  5
7823
330
781C
100
AcDbEntity
  8
D-STR
 62
     4
100
AcDbVertex
100
AcDb2dVertex
 10
26818.70623069309
 20
25741.37047058366
 30
0.0
 70
     8
  0
VERTEX
  5
7824
330
781C
100
AcDbEntity
  8
D-STR
 62
     4
100
AcDbVertex
100
AcDb2dVertex
 10
26813.01670438207
 20
25748.67470897583
 30
0.0
 70
     8
  0
VERTEX
  5
7825
330
781C
100
AcDbEntity
  8
D-STR
 62
     4
100
AcDbVertex
100
AcDb2dVertex
 10
26807.06623915131
 20
25756.36629795731
 30
0.0
 70
     8
  0
VERTEX
  5
7826
330
781C
100
AcDbEntity
  8
D-STR
 62
     4
100
AcDbVertex
100
AcDb2dVertex
 10
26801.60591594548
 20
25764.39773226712
 30
0.0
 70
     8
  0
VERTEX
  5
7827
330
781C
100
AcDbEntity
  8
D-STR
 62
     4
100
AcDbVertex
100
AcDb2dVertex
 10
26797.19698852215
 20
25772.70323539012
 30
0.0
 70
     8
  0
VERTEX
  5
7828
330
781C
100
AcDbEntity
  8
D-STR
 62
     4
100
AcDbVertex
100
AcDb2dVertex
 10
26793.64140189043
 20
25781.14394579429
 30
0.0
 70
     8
  0
VERTEX
  5
7829
330
781C
100
AcDbEntity
  8
D-STR
 62
     4
100
AcDbVertex
100
AcDb2dVertex
 10
26790.55127387232
 20
25789.5627306934
 30
0.0
 70
     8
  0
VERTEX
  5
782A
330
781C
100
AcDbEntity
  8
D-STR
 62
     4
100
AcDbVertex
100
AcDb2dVertex
 10
26787.53872228981
 20
25797.80245730124
 30
0.0
 70
     8
  0
VERTEX
  5
782B
330
781C
100
AcDbEntity
  8
D-STR
 62
     4
100
AcDbVertex
100
AcDb2dVertex
 10
26784.2158649649
 20
25805.70599283157
 30
0.0
 70
     8
  0
VERTEX
  5
782C
330
781C
100
AcDbEntity
  8
D-STR
 62
     4
100
AcDbVertex
100
AcDb2dVertex
 10
26780.19481971958
 20
25813.11620449818
 30
0.0
 70
     8
  0
VERTEX
  5
782D
330
781C
100
AcDbEntity
  8
D-STR
 62
     4
100
AcDbVertex
100
AcDb2dVertex
 10
26775.08770437584
 20
25819.87595951483
 30
0.0
 70
     8
  0
VERTEX
  5
782E
330
781C
100
AcDbEntity
  8
D-STR
 62
     4
100
AcDbVertex
100
AcDb2dVertex
 10
26768.50663675568
 20
25825.82812509532
 30
0.0
 70
     8
  0
VERTEX
  5
782F
330
781C
100
AcDbEntity
  8
D-STR
 62
     4
100
AcDbVertex
100
AcDb2dVertex
 10
26760.19714264232
 20
25830.83323066581
 30
0.0
 70
     8
  0
VERTEX
  5
7830
330
781C
100
AcDbEntity
  8
D-STR
 62
     4
100
AcDbVertex
100
AcDb2dVertex
 10
26750.43837966386
 20
25834.82245450211
 30
0.0
 70
     8
  0
VERTEX
  5
7831
330
781C
100
AcDbEntity
  8
D-STR
 62
     4
100
AcDbVertex
100
AcDb2dVertex
 10
26739.64291340965
 20
25837.74463709243
 30
0.0
 70
     8
  0
VERTEX
  5
7832
330
781C
100
AcDbEntity
  8
D-STR
 62
     4
100
AcDbVertex
100
AcDb2dVertex
 10
26728.22330946901
 20
25839.54861892496
 30
0.0
 70
     8
  0
VERTEX
  5
7833
330
781C
100
AcDbEntity
  8
D-STR
 62
     4
100
AcDbVertex
100
AcDb2dVertex
 10
26716.59213343128
 20
25840.18324048793
 30
0.0
 70
     8
  0
VERTEX
  5
7834
330
781C
100
AcDbEntity
  8
D-STR
 62
     4
100
AcDbVertex
100
AcDb2dVertex
 10
26705.16195088578
 20
25839.59734226953
 30
0.0
 70
     8
  0
VERTEX
  5
7835
330
781C
100
AcDbEntity
  8
D-STR
 62
     4
100
AcDbVertex
100
AcDb2dVertex
 10
26694.34532742186
 20
25837.73976475797
 30
0.0
 70
     8
  0
VERTEX
  5
7836
330
781C
100
AcDbEntity
  8
D-STR
 62
     4
100
AcDbVertex
100
AcDb2dVertex
 10
26684.55482862884
 20
25834.55934844146
 30
0.0
 70
     8
  0
VERTEX
  5
7837
330
781C
100
AcDbEntity
  8
D-STR
 62
     4
100
AcDbVertex
100
AcDb2dVertex
 10
26676.11310195479
 20
25830.0396491912
 30
0.0
 70
     8
  0
VERTEX
  5
7838
330
781C
100
AcDbEntity
  8
D-STR
 62
     4
100
AcDbVertex
100
AcDb2dVertex
 10
26668.98312228273
 20
25824.30308441042
 30
0.0
 70
     8
  0
VERTEX
  5
7839
330
781C
100
AcDbEntity
  8
D-STR
 62
     4
100
AcDbVertex
100
AcDb2dVertex
 10
26663.03794635439
 20
25817.50678688534
 30
0.0
 70
     8
  0
VERTEX
  5
783A
330
781C
100
AcDbEntity
  8
D-STR
 62
     4
100
AcDbVertex
100
AcDb2dVertex
 10
26658.15063091152
 20
25809.80788940218
 30
0.0
 70
     8
  0
VERTEX
  5
783B
330
781C
100
AcDbEntity
  8
D-STR
 62
     4
100
AcDbVertex
100
AcDb2dVertex
 10
26654.19423269587
 20
25801.36352474717
 30
0.0
 70
     8
  0
VERTEX
  5
783C
330
781C
100
AcDbEntity
  8
D-STR
 62
     4
100
AcDbVertex
100
AcDb2dVertex
 10
26651.04180844917
 20
25792.33082570653
 30
0.0
 70
     8
  0
VERTEX
  5
783D
330
781C
100
AcDbEntity
  8
D-STR
 62
     4
100
AcDbVertex
100
AcDb2dVertex
 10
26648.56641491317
 20
25782.86692506649
 30
0.0
 70
     8
  0
VERTEX
  5
783E
330
781C
100
AcDbEntity
  8
D-STR
 62
     4
100
AcDbVertex
100
AcDb2dVertex
 10
26646.64110882962
 20
25773.12895561326
 30
0.0
 70
     8
  0
VERTEX
  5
783F
330
781C
100
AcDbEntity
  8
D-STR
 62
     4
100
AcDbVertex
100
AcDb2dVertex
 10
26645.22475117963
 20
25763.28135863477
 30
0.0
 70
     8
  0
VERTEX
  5
7840
330
781C
100
AcDbEntity
  8
D-STR
 62
     4
100
AcDbVertex
100
AcDb2dVertex
 10
26644.61941990183
 20
25753.51780942564
 30
0.0
 70
     8
  0
VERTEX
  5
7841
330
781C
100
AcDbEntity
  8
D-STR
 62
     4
100
AcDbVertex
100
AcDb2dVertex
 10
26645.21299717424
 20
25744.03929178223
 30
0.0
 70
     8
  0
VERTEX
  5
7842
330
781C
100
AcDbEntity
  8
D-STR
 62
     4
100
AcDbVertex
100
AcDb2dVertex
 10
26647.39336517484
 20
25735.04678950086
 30
0.0
 70
     8
  0
VERTEX
  5
7843
330
781C
100
AcDbEntity
  8
D-STR
 62
     4
100
AcDbVertex
100
AcDb2dVertex
 10
26651.54840608166
 20
25726.74128637786
 30
0.0
 70
     8
  0
VERTEX
  5
7844
330
781C
100
AcDbEntity
  8
D-STR
 62
     4
100
AcDbVertex
100
AcDb2dVertex
 10
26658.06600207269
 20
25719.32376620957
 30
0.0
 70
     8
  0
VERTEX
  5
7845
330
781C
100
AcDbEntity
  8
D-STR
 62
     4
100
AcDbVertex
100
AcDb2dVertex
 10
26667.33403532594
 20
25712.99521279232
 30
0.0
 70
     8
  0
VERTEX
  5
7846
330
781C
100
AcDbEntity
  8
D-STR
 62
     4
100
AcDbVertex
100
AcDb2dVertex
 10
26679.74038801941
 20
25707.95660992244
 30
0.0
 70
     8
  0
VERTEX
  5
7847
330
781C
100
AcDbEntity
  8
D-STR
 62
     4
100
AcDbVertex
100
AcDb2dVertex
 10
26695.43551142216
 20
25704.35839092627
 30
0.0
 70
     8
  0
VERTEX
  5
7848
330
781C
100
AcDbEntity
  8
D-STR
 62
     4
100
AcDbVertex
100
AcDb2dVertex
 10
26713.62013316738
 20
25702.14878725023
 30
0.0
 70
     8
  0
VERTEX
  5
7849
330
781C
100
AcDbEntity
  8
D-STR
 62
     4
100
AcDbVertex
100
AcDb2dVertex
 10
26733.25754997931
 20
25701.22547987071
 30
0.0
 70
     8
  0
VERTEX
  5
784A
330
781C
100
AcDbEntity
  8
D-STR
 62
     4
100
AcDbVertex
100
AcDb2dVertex
 10
26753.31105858219
 20
25701.48614976414
 30
0.0
 70
     8
  0
VERTEX
  5
784B
330
781C
100
AcDbEntity
  8
D-STR
 62
     4
100
AcDbVertex
100
AcDb2dVertex
 10
26772.74395570025
 20
25702.82847790692
 30
0.0
 70
     8
  0
VERTEX
  5
784C
330
781C
100
AcDbEntity
  8
D-STR
 62
     4
100
AcDbVertex
100
AcDb2dVertex
 10
26790.51953805776
 20
25705.15014527546
 30
0.0
 70
     8
  0
VERTEX
  5
784D
330
781C
100
AcDbEntity
  8
D-STR
 62
     4
100
AcDbVertex
100
AcDb2dVertex
 10
26805.60110237893
 20
25708.34883284619
 30
0.0
 70
     8
  0
VERTEX
  5
784E
330
781C
100
AcDbEntity
  8
D-STR
 62
     4
100
AcDbVertex
100
AcDb2dVertex
 10
26867.80447432506
 20
25705.15014527546
 30
0.0
 70
    16
  0
VERTEX
  5
784F
330
781C
100
AcDbEntity
  8
D-STR
 62
     4
100
AcDbVertex
100
AcDb2dVertex
 10
26788.36620426956
 20
25761.27943821493
 30
0.0
 70
    16
  0
VERTEX
  5
7850
330
781C
100
AcDbEntity
  8
D-STR
 62
     4
100
AcDbVertex
100
AcDb2dVertex
 10
26788.36620426956
 20
25836.11849546755
 30
0.0
 70
    16
  0
VERTEX
  5
7851
330
781C
100
AcDbEntity
  8
D-STR
 62
     4
100
AcDbVertex
100
AcDb2dVertex
 10
26669.2087991863
 20
25849.21533048676
 30
0.0
 70
    16
  0
VERTEX
  5
7852
330
781C
100
AcDbEntity
  8
D-STR
 62
     4
100
AcDbVertex
100
AcDb2dVertex
 10
26642.12757075828
 20
25774.37627323414
 30
0.0
 70
    16
  0
SEQEND
  5
7853
330
781C
100
AcDbEntity
  8
D-STR
 62
     4
  0
POLYLINE
  5
7854
330
17
100
AcDbEntity
  8
D-STR
 62
     4
100
AcDb2dPolyline
 66
     1
 10
0.0
 20
0.0
 30
0.0
 70
     3
 75
     6
  0
VERTEX
  5
7855
330
7854
100
AcDbEntity
  8
D-STR
 62
     4
100
AcDbVertex
100
AcDb2dVertex
 10
26443.53189561952
 20
26041.92590291227
 30
0.0
 42
-0.0715145160321342
  0
VERTEX
  5
7856
330
7854
100
AcDbEntity
  8
D-STR
 62
     4
100
AcDbVertex
100
AcDb2dVertex
 10
26443.81403228582
 20
26096.35382554599
 30
0.0
 42
0.0313208202547029
 70
     1
  0
VERTEX
  5
7857
330
7854
100
AcDbEntity
  8
D-STR
 62
     4
100
AcDbVertex
100
AcDb2dVertex
 10
26454.36438699072
 20
26219.66866388724
 30
0.0
 42
0.0177061155744069
  0
VERTEX
  5
7858
330
7854
100
AcDbEntity
  8
D-STR
 62
     4
100
AcDbVertex
100
AcDb2dVertex
 10
26453.46230303239
 20
26290.79985323799
 30
0.0
 42
-0.0374657323779724
 70
     1
  0
VERTEX
  5
7859
330
7854
100
AcDbEntity
  8
D-STR
 62
     4
100
AcDbVertex
100
AcDb2dVertex
 10
26454.36438699072
 20
26324.44334404091
 30
0.0
 42
-0.4320431567919718
  0
VERTEX
  5
785A
330
7854
100
AcDbEntity
  8
D-STR
 62
     4
100
AcDbVertex
100
AcDb2dVertex
 10
26465.84807136954
 20
26333.23599033318
 30
0.0
 42
-0.0876663292344762
 70
     1
  0
VERTEX
  5
785B
330
7854
100
AcDbEntity
  8
D-STR
 62
     4
100
AcDbVertex
100
AcDb2dVertex
 10
26522.97016567502
 20
26313.21748545302
 30
0.0
 42
-0.1957395663305834
  0
VERTEX
  5
785C
330
7854
100
AcDbEntity
  8
D-STR
 62
     4
100
AcDbVertex
100
AcDb2dVertex
 10
26569.1857168452
 20
26255.1512673796
 30
0.0
 42
-0.1244644136922751
 70
     1
  0
VERTEX
  5
785D
330
7854
100
AcDbEntity
  8
D-STR
 62
     4
100
AcDbVertex
100
AcDb2dVertex
 10
26573.52179207398
 20
26141.08765377199
 30
0.0
 42
-0.0999310488910883
  0
VERTEX
  5
785E
330
7854
100
AcDbEntity
  8
D-STR
 62
     4
100
AcDbVertex
100
AcDb2dVertex
 10
26534.08900906032
 20
26050.07693124556
 30
0.0
 42
-0.222953305822695
 70
     1
  0
VERTEX
  5
785F
330
7854
100
AcDbEntity
  8
D-STR
 62
     4
100
AcDbVertex
100
AcDb2dVertex
 10
26494.08352201847
 20
26026.95809146174
 30
0.0
 42
-0.0935563267760015
  0
VERTEX
  5
7860
330
7854
100
AcDbEntity
  8
D-STR
 62
     4
100
AcDbVertex
100
AcDb2dVertex
 10
26452.79494745022
 20
26031.15481649747
 30
0.0
 42
-0.2944226571199708
 70
     1
  0
SEQEND
  5
7861
330
7854
100
AcDbEntity
  8
D-STR
 62
     4
  0
POLYLINE
  5
7862
330
17
100
AcDbEntity
  8
D-STR
 62
     4
100
AcDb2dPolyline
 66
     1
 10
0.0
 20
0.0
 30
0.0
 70
     5
 75
     6
  0
VERTEX
  5
7863
330
7862
100
AcDbEntity
  8
D-STR
 62
     4
100
AcDbVertex
100
AcDb2dVertex
 10
26629.48966415854
 20
26150.44253592857
 30
0.0
 70
    16
  0
VERTEX
  5
7864
330
7862
100
AcDbEntity
  8
D-STR
 62
     4
100
AcDbVertex
100
AcDb2dVertex
 10
26593.98316466404
 20
26289.51845065636
 30
0.0
 70
     8
  0
VERTEX
  5
7865
330
7862
100
AcDbEntity
  8
D-STR
 62
     4
100
AcDbVertex
100
AcDb2dVertex
 10
26595.59463880357
 20
26302.64086543147
 30
0.0
 70
     8
  0
VERTEX
  5
7866
330
7862
100
AcDbEntity
  8
D-STR
 62
     4
100
AcDbVertex
100
AcDb2dVertex
 10
26598.97626615545
 20
26314.39659039151
 30
0.0
 70
     8
  0
VERTEX
  5
7867
330
7862
100
AcDbEntity
  8
D-STR
 62
     4
100
AcDbVertex
100
AcDb2dVertex
 10
26603.97994625172
 20
26324.76370003144
 30
0.0
 70
     8
  0
VERTEX
  5
7868
330
7862
100
AcDbEntity
  8
D-STR
 62
     4
100
AcDbVertex
100
AcDb2dVertex
 10
26610.45757862441
 20
26333.72026884619
 30
0.0
 70
     8
  0
VERTEX
  5
7869
330
7862
100
AcDbEntity
  8
D-STR
 62
     4
100
AcDbVertex
100
AcDb2dVertex
 10
26618.26106280556
 20
26341.24437133072
 30
0.0
 70
     8
  0
VERTEX
  5
786A
330
7862
100
AcDbEntity
  8
D-STR
 62
     4
100
AcDbVertex
100
AcDb2dVertex
 10
26627.24229832719
 20
26347.31408197997
 30
0.0
 70
     8
  0
VERTEX
  5
786B
330
7862
100
AcDbEntity
  8
D-STR
 62
     4
100
AcDbVertex
100
AcDb2dVertex
 10
26637.25318472135
 20
26351.90747528888
 30
0.0
 70
     8
  0
VERTEX
  5
786C
330
7862
100
AcDbEntity
  8
D-STR
 62
     4
100
AcDbVertex
100
AcDb2dVertex
 10
26648.14562152006
 20
26355.00262575241
 30
0.0
 70
     8
  0
VERTEX
  5
786D
330
7862
100
AcDbEntity
  8
D-STR
 62
     4
100
AcDbVertex
100
AcDb2dVertex
 10
26659.72919383595
 20
26356.5788259491
 30
0.0
 70
     8
  0
VERTEX
  5
786E
330
7862
100
AcDbEntity
  8
D-STR
 62
     4
100
AcDbVertex
100
AcDb2dVertex
 10
26671.64422910396
 20
26356.62024079198
 30
0.0
 70
     8
  0
VERTEX
  5
786F
330
7862
100
AcDbEntity
  8
D-STR
 62
     4
100
AcDbVertex
100
AcDb2dVertex
 10
26683.48874033959
 20
26355.11225327767
 30
0.0
 70
     8
  0
VERTEX
  5
7870
330
7862
100
AcDbEntity
  8
D-STR
 62
     4
100
AcDbVertex
100
AcDb2dVertex
 10
26694.86074055839
 20
26352.04024640282
 30
0.0
 70
     8
  0
VERTEX
  5
7871
330
7862
100
AcDbEntity
  8
D-STR
 62
     4
100
AcDbVertex
100
AcDb2dVertex
 10
26705.35824277586
 20
26347.38960316404
 30
0.0
 70
     8
  0
VERTEX
  5
7872
330
7862
100
AcDbEntity
  8
D-STR
 62
     4
100
AcDbVertex
100
AcDb2dVertex
 10
26714.57926000754
 20
26341.14570655797
 30
0.0
 70
     8
  0
VERTEX
  5
7873
330
7862
100
AcDbEntity
  8
D-STR
 62
     4
100
AcDbVertex
100
AcDb2dVertex
 10
26722.12180526893
 20
26333.29393958124
 30
0.0
 70
     8
  0
VERTEX
  5
7874
330
7862
100
AcDbEntity
  8
D-STR
 62
     4
100
AcDbVertex
100
AcDb2dVertex
 10
26727.58389157557
 20
26323.81968523048
 30
0.0
 70
     8
  0
VERTEX
  5
7875
330
7862
100
AcDbEntity
  8
D-STR
 62
     4
100
AcDbVertex
100
AcDb2dVertex
 10
26730.67108109233
 20
26312.77044876663
 30
0.0
 70
     8
  0
VERTEX
  5
7876
330
7862
100
AcDbEntity
  8
D-STR
 62
     4
100
AcDbVertex
100
AcDb2dVertex
 10
26731.51913258152
 20
26300.44222450794
 30
0.0
 70
     8
  0
VERTEX
  5
7877
330
7862
100
AcDbEntity
  8
D-STR
 62
     4
100
AcDbVertex
100
AcDb2dVertex
 10
26730.37135395478
 20
26287.19312903697
 30
0.0
 70
     8
  0
VERTEX
  5
7878
330
7862
100
AcDbEntity
  8
D-STR
 62
     4
100
AcDbVertex
100
AcDb2dVertex
 10
26727.47105312379
 20
26273.38127893626
 30
0.0
 70
     8
  0
VERTEX
  5
7879
330
7862
100
AcDbEntity
  8
D-STR
 62
     4
100
AcDbVertex
100
AcDb2dVertex
 10
26723.06153800019
 20
26259.36479078838
 30
0.0
 70
     8
  0
VERTEX
  5
787A
330
7862
100
AcDbEntity
  8
D-STR
 62
     4
100
AcDbVertex
100
AcDb2dVertex
 10
26717.38611649565
 20
26245.50178117588
 30
0.0
 70
     8
  0
VERTEX
  5
787B
330
7862
100
AcDbEntity
  8
D-STR
 62
     4
100
AcDbVertex
100
AcDb2dVertex
 10
26710.68809652182
 20
26232.15036668132
 30
0.0
 70
     8
  0
VERTEX
  5
787C
330
7862
100
AcDbEntity
  8
D-STR
 62
     4
100
AcDbVertex
100
AcDb2dVertex
 10
26703.21078599036
 20
26219.66866388724
 30
0.0
 70
     8
  0
VERTEX
  5
787D
330
7862
100
AcDbEntity
  8
D-STR
 62
     4
100
AcDbVertex
100
AcDb2dVertex
 10
26695.17574790295
 20
26208.39773620562
 30
0.0
 70
     8
  0
VERTEX
  5
787E
330
7862
100
AcDbEntity
  8
D-STR
 62
     4
100
AcDbVertex
100
AcDb2dVertex
 10
26686.71756562135
 20
26198.61043436603
 30
0.0
 70
     8
  0
VERTEX
  5
787F
330
7862
100
AcDbEntity
  8
D-STR
 62
     4
100
AcDbVertex
100
AcDb2dVertex
 10
26677.94907759735
 20
26190.56255592743
 30
0.0
 70
     8
  0
VERTEX
  5
7880
330
7862
100
AcDbEntity
  8
D-STR
 62
     4
100
AcDbVertex
100
AcDb2dVertex
 10
26668.98312228273
 20
26184.50989844877
 30
0.0
 70
     8
  0
VERTEX
  5
7881
330
7862
100
AcDbEntity
  8
D-STR
 62
     4
100
AcDbVertex
100
AcDb2dVertex
 10
26659.93253812927
 20
26180.70825948905
 30
0.0
 70
     8
  0
VERTEX
  5
7882
330
7862
100
AcDbEntity
  8
D-STR
 62
     4
100
AcDbVertex
100
AcDb2dVertex
 10
26650.91016358876
 20
26179.41343660722
 30
0.0
 70
     8
  0
VERTEX
  5
7883
330
7862
100
AcDbEntity
  8
D-STR
 62
     4
100
AcDbVertex
100
AcDb2dVertex
 10
26642.02883711297
 20
26180.88122736225
 30
0.0
 70
     8
  0
VERTEX
  5
7884
330
7862
100
AcDbEntity
  8
D-STR
 62
     4
100
AcDbVertex
100
AcDb2dVertex
 10
26633.4013971537
 20
26185.36742931313
 30
0.0
 70
     8
  0
VERTEX
  5
7885
330
7862
100
AcDbEntity
  8
D-STR
 62
     4
100
AcDbVertex
100
AcDb2dVertex
 10
26625.15419926893
 20
26192.98897848678
 30
0.0
 70
     8
  0
VERTEX
  5
7886
330
7862
100
AcDbEntity
  8
D-STR
 62
     4
100
AcDbVertex
100
AcDb2dVertex
 10
26617.46766744145
 20
26203.30736478214
 30
0.0
 70
     8
  0
VERTEX
  5
7887
330
7862
100
AcDbEntity
  8
D-STR
 62
     4
100
AcDbVertex
100
AcDb2dVertex
 10
26610.53574276028
 20
26215.7452165661
 30
0.0
 70
     8
  0
VERTEX
  5
7888
330
7862
100
AcDbEntity
  8
D-STR
 62
     4
100
AcDbVertex
100
AcDb2dVertex
 10
26604.55236631441
 20
26229.72516220557
 30
0.0
 70
     8
  0
VERTEX
  5
7889
330
7862
100
AcDbEntity
  8
D-STR
 62
     4
100
AcDbVertex
100
AcDb2dVertex
 10
26599.71147919285
 20
26244.66983006743
 30
0.0
 70
     8
  0
VERTEX
  5
788A
330
7862
100
AcDbEntity
  8
D-STR
 62
     4
100
AcDbVertex
100
AcDb2dVertex
 10
26596.2070224846
 20
26260.00184851857
 30
0.0
 70
     8
  0
VERTEX
  5
788B
330
7862
100
AcDbEntity
  8
D-STR
 62
     4
100
AcDbVertex
100
AcDb2dVertex
 10
26594.23293727866
 20
26275.14384592592
 30
0.0
 70
     8
  0
VERTEX
  5
788C
330
7862
100
AcDbEntity
  8
D-STR
 62
     4
100
AcDbVertex
100
AcDb2dVertex
 10
26573.52179207398
 20
26303.86260329645
 30
0.0
 70
    16
  0
VERTEX
  5
788D
330
7862
100
AcDbEntity
  8
D-STR
 62
     4
100
AcDbVertex
100
AcDb2dVertex
 10
26640.32215552975
 20
26371.2177548238
 30
0.0
 70
    16
  0
VERTEX
  5
788E
330
7862
100
AcDbEntity
  8
D-STR
 62
     4
100
AcDbVertex
100
AcDb2dVertex
 10
26754.06331492741
 20
26341.28213192276
 30
0.0
 70
    16
  0
VERTEX
  5
788F
330
7862
100
AcDbEntity
  8
D-STR
 62
     4
100
AcDbVertex
100
AcDb2dVertex
 10
26708.92793421405
 20
26206.57182886804
 30
0.0
 70
    16
  0
SEQEND
  5
7890
330
7862
100
AcDbEntity
  8
D-STR
 62
     4
  0
POLYLINE
  5
7891
330
17
100
AcDbEntity
  8
D-STR
 62
     4
100
AcDb2dPolyline
 66
     1
 10
0.0
 20
0.0
 30
0.0
 70
     3
  0
VERTEX
  5
7892
330
7891
100
AcDbEntity
  8
D-STR
 62
     4
100
AcDbVertex
100
AcDb2dVertex
 10
26607.82468141613
 20
26406.7663070188
 30
0.0
 42
0.1230798565025885
  0
VERTEX
  5
7893
330
7891
100
AcDbEntity
  8
D-STR
 62
     4
100
AcDbVertex
100
AcDb2dVertex
 10
26601.58303585435
 20
26441.20819428925
 30
0.0
 42
-0.1217727921520663
 70
     1
  0
VERTEX
  5
7894
330
7891
100
AcDbEntity
  8
D-STR
 62
     4
100
AcDbVertex
100
AcDb2dVertex
 10
26595.18677481639
 20
26475.99243497747
 30
0.0
 42
-0.1353696037646536
  0
VERTEX
  5
7895
330
7891
100
AcDbEntity
  8
D-STR
 62
     4
100
AcDbVertex
100
AcDb2dVertex
 10
26607.2892603216
 20
26511.37135759311
 30
0.0
 42
0.1905954263729087
 70
     1
  0
VERTEX
  5
7896
330
7891
100
AcDbEntity
  8
D-STR
 62
     4
100
AcDbVertex
100
AcDb2dVertex
 10
26613.24092710173
 20
26537.73465721089
 30
0.0
 42
0.109572187307289
  0
VERTEX
  5
7897
330
7891
100
AcDbEntity
  8
D-STR
 62
     4
100
AcDbVertex
100
AcDb2dVertex
 10
26605.72815120186
 20
26556.9381974944
 30
0.0
 42
0.070090872943111
 70
     1
  0
VERTEX
  5
7898
330
7891
100
AcDbEntity
  8
D-STR
 62
     4
100
AcDbVertex
100
AcDb2dVertex
 10
26584.35428344519
 20
26580.76711513114
 30
0.0
 42
0.0768353295912466
  0
VERTEX
  5
7899
330
7891
100
AcDbEntity
  8
D-STR
 62
     4
100
AcDbVertex
100
AcDb2dVertex
 10
26552.64464461037
 20
26600.04889886565
 30
0.0
 42
0.2212820547336836
 70
     1
  0
VERTEX
  5
789A
330
7891
100
AcDbEntity
  8
D-STR
 62
     4
100
AcDbVertex
100
AcDb2dVertex
 10
26539.21890273183
 20
26599.4768794443
 30
0.0
 42
0.0568354873133306
  0
VERTEX
  5
789B
330
7891
100
AcDbEntity
  8
D-STR
 62
     4
100
AcDbVertex
100
AcDb2dVertex
 10
26525.92175846811
 20
26590.5414090879
 30
0.0
 42
0.0179772321228965
 70
     1
  0
VERTEX
  5
789C
330
7891
100
AcDbEntity
  8
D-STR
 62
     4
100
AcDbVertex
100
AcDb2dVertex
 10
26488.66727633287
 20
26556.44442152404
 30
0.0
 42
0.0120734006030472
  0
VERTEX
  5
789D
330
7891
100
AcDbEntity
  8
D-STR
 62
     4
100
AcDbVertex
100
AcDb2dVertex
 10
26460.4093443049
 20
26527.27490255162
 30
0.0
 42
0.0272762331401685
 70
     1
  0
VERTEX
  5
789E
330
7891
100
AcDbEntity
  8
D-STR
 62
     4
100
AcDbVertex
100
AcDb2dVertex
 10
26448.94814130512
 20
26513.41196360379
 30
0.0
 42
0.1604310934650595
  0
VERTEX
  5
789F
330
7891
100
AcDbEntity
  8
D-STR
 62
     4
100
AcDbVertex
100
AcDb2dVertex
 10
26440.989898443
 20
26489.24765617579
 30
0.0
 42
0.055669949528555
 70
     1
  0
VERTEX
  5
78A0
330
7891
100
AcDbEntity
  8
D-STR
 62
     4
100
AcDbVertex
100
AcDb2dVertex
 10
26448.94814130512
 20
26417.99216560669
 30
0.0
 42
0.0477607568076024
  0
VERTEX
  5
78A1
330
7891
100
AcDbEntity
  8
D-STR
 62
     4
100
AcDbVertex
100
AcDb2dVertex
 10
26461.01451514729
 20
26381.32288678602
 30
0.0
 42
0.0631954541493726
 70
     1
  0
VERTEX
  5
78A2
330
7891
100
AcDbEntity
  8
D-STR
 62
     4
100
AcDbVertex
100
AcDb2dVertex
 10
26476.02936973313
 20
26356.24994337328
 30
0.0
 42
0.1816505395641876
  0
VERTEX
  5
78A3
330
7891
100
AcDbEntity
  8
D-STR
 62
     4
100
AcDbVertex
100
AcDb2dVertex
 10
26507.94071269398
 20
26336.87674652741
 30
0.0
 42
0.1402414571117256
 70
     1
  0
VERTEX
  5
78A4
330
7891
100
AcDbEntity
  8
D-STR
 62
     4
100
AcDbVertex
100
AcDb2dVertex
 10
26555.46763978864
 20
26341.28213192276
 30
0.0
 42
0.1320708972063635
  0
VERTEX
  5
78A5
330
7891
100
AcDbEntity
  8
D-STR
 62
     4
100
AcDbVertex
100
AcDb2dVertex
 10
26593.168528767
 20
26368.98554408269
 30
0.0
 42
0.1533881919633925
 70
     1
  0
SEQEND
  5
78A6
330
7891
100
AcDbEntity
  8
D-STR
 62
     4
  0
POLYLINE
  5
78A7
330
17
100
AcDbEntity
  8
D-STR
 62
     4
100
AcDb2dPolyline
 66
     1
 10
0.0
 20
0.0
 30
0.0
 70
     3
  0
VERTEX
  5
78A8
330
78A7
100
AcDbEntity
  8
D-STR
 62
     4
100
AcDbVertex
100
AcDb2dVertex
 10
26759.47956061301
 20
26612.57371446351
 30
0.0
 42
0.1455948200813748
  0
VERTEX
  5
78A9
330
78A7
100
AcDbEntity
  8
D-STR
 62
     4
100
AcDbVertex
100
AcDb2dVertex
 10
26731.93029332296
 20
26600.77392592267
 30
0.0
 42
-0.140297370178241
 70
     1
  0
VERTEX
  5
78AA
330
78A7
100
AcDbEntity
  8
D-STR
 62
     4
100
AcDbVertex
100
AcDb2dVertex
 10
26703.51168852845
 20
26588.25102085641
 30
0.0
 42
-0.1951628762137825
  0
VERTEX
  5
78AB
330
78A7
100
AcDbEntity
  8
D-STR
 62
     4
100
AcDbVertex
100
AcDb2dVertex
 10
26674.59358206611
 20
26595.61029374811
 30
0.0
 42
0.2782074855757324
 70
     1
  0
VERTEX
  5
78AC
330
78A7
100
AcDbEntity
  8
D-STR
 62
     4
100
AcDbVertex
100
AcDb2dVertex
 10
26652.96006212949
 20
26597.60590301299
 30
0.0
 42
0.2593959627932733
  0
VERTEX
  5
78AD
330
78A7
100
AcDbEntity
  8
D-STR
 62
     4
100
AcDbVertex
100
AcDb2dVertex
 10
26640.88082717153
 20
26580.41435054833
 30
0.0
 42
0.0597843940229318
 70
     1
  0
VERTEX
  5
78AE
330
78A7
100
AcDbEntity
  8
D-STR
 62
     4
100
AcDbVertex
100
AcDb2dVertex
 10
26642.12757075828
 20
26494.70219929063
 30
0.0
 42
0.0427461602169568
  0
VERTEX
  5
78AF
330
78A7
100
AcDbEntity
  8
D-STR
 62
     4
100
AcDbVertex
100
AcDb2dVertex
 10
26654.00395756455
 20
26441.44526640668
 30
0.0
 42
0.0646549157137417
 70
     1
  0
VERTEX
  5
78B0
330
78A7
100
AcDbEntity
  8
D-STR
 62
     4
100
AcDbVertex
100
AcDb2dVertex
 10
26669.2087991863
 20
26408.63728345012
 30
0.0
 42
0.178423771045212
  0
VERTEX
  5
78B1
330
78A7
100
AcDbEntity
  8
D-STR
 62
     4
100
AcDbVertex
100
AcDb2dVertex
 10
26710.98914509125
 20
26376.57449762092
 30
0.0
 42
0.1942323257685346
 70
     1
  0
VERTEX
  5
78B2
330
78A7
100
AcDbEntity
  8
D-STR
 62
     4
100
AcDbVertex
100
AcDb2dVertex
 10
26759.47956061301
 20
26380.57263698038
 30
0.0
 42
0.1364702294367982
  0
VERTEX
  5
78B3
330
78A7
100
AcDbEntity
  8
D-STR
 62
     4
100
AcDbVertex
100
AcDb2dVertex
 10
26787.35725374076
 20
26405.88561154503
 30
0.0
 42
0.0696453932705187
 70
     1
  0
VERTEX
  5
78B4
330
78A7
100
AcDbEntity
  8
D-STR
 62
     4
100
AcDbVertex
100
AcDb2dVertex
 10
26817.25284792611
 20
26472.25048211484
 30
0.0
 42
0.0711650542622825
  0
VERTEX
  5
78B5
330
78A7
100
AcDbEntity
  8
D-STR
 62
     4
100
AcDbVertex
100
AcDb2dVertex
 10
26829.11224514587
 20
26555.15167456494
 30
0.0
 42
0.1737407607657229
 70
     1
  0
VERTEX
  5
78B6
330
78A7
100
AcDbEntity
  8
D-STR
 62
     4
100
AcDbVertex
100
AcDb2dVertex
 10
26817.25284792611
 20
26588.25102085641
 30
0.0
 42
0.121650369809534
  0
VERTEX
  5
78B7
330
78A7
100
AcDbEntity
  8
D-STR
 62
     4
100
AcDbVertex
100
AcDb2dVertex
 10
26790.5644669186
 20
26608.1462127178
 30
0.0
 42
0.1292114114178527
 70
     1
  0
SEQEND
  5
78B8
330
78A7
100
AcDbEntity
  8
D-STR
 62
     4
  0
LWPOLYLINE
  5
78B9
330
17
100
AcDbEntity
  8
D-STR
 62
     4
100
AcDbPolyline
 90
        5
 70
     0
 43
0.0
 10
26901.39203615766
 20
26634.96429957705
 10
26458.51945315563
 20
26634.96429957705
 10
26417.89203615766
 20
26594.33688257907
 10
26417.89203615766
 20
25708.58296525223
 10
26458.54078967781
 20
25667.8574436163
  0
LINE
  5
78BA
330
17
100
AcDbEntity
  8
D-STR
 62
     4
100
AcDbLine
 10
26458.54078967781
 20
25667.8574436163
 30
0.0
 11
26901.39203615766
 21
25667.8574436163
 31
0.0
  0
LWPOLYLINE
  5
78BB
330
17
100
AcDbEntity
  8
D-STR
100
AcDbPolyline
 90
        6
 70
     0
 43
0.0
 10
26901.39203615766
 20
26650.96429957705
 10
26451.89203615766
 20
26650.96429957705
 10
26401.89203615766
 20
26600.96429957705
 10
26401.89203615766
 20
25701.96438857661
 10
26451.89203615766
 20
25651.8699599544
 10
26901.39203615766
 20
25651.8699599544
  0
LINE
  5
78BC
330
17
100
AcDbEntity
  8
D-STR
 62
     4
100
AcDbLine
 10
28087.04435104379
 20
26600.96429957704
 30
0.0
 11
28191.04435104379
 21
26600.96429957704
 31
0.0
  0
LINE
  5
78BD
330
17
100
AcDbEntity
  8
D-STR
 62
     4
100
AcDbLine
 10
28071.04435104379
 20
26594.33688257907
 30
0.0
 11
28087.04435104379
 21
26600.96429957704
 31
0.0
  0
DIMENSION
  5
78BE
330
17
100
AcDbEntity
  8
0
100
AcDbDimension
  2
*D15
 10
28191.04435104379
 20
26975.98306132311
 30
0.0
 11
28131.04435104379
 21
27090.98306132311
 31
0.0
 70
    32
  1
t
 71
     5
 42
120.0
  3
S-50
100
AcDbAlignedDimension
 13
28071.04435104379
 23
26634.96429957704
 33
0.0
 14
28191.04435104379
 24
26638.63837365112
 34
0.0
100
AcDbRotatedDimension
  0
LINE
  5
78BF
330
17
100
AcDbEntity
  8
D-STR
 62
     4
100
AcDbLine
 10
27384.89203615766
 20
25708.58296525223
 30
0.0
 11
27400.89203615766
 21
25701.96438857661
 31
0.0
  0
LINE
  5
78C0
330
17
100
AcDbEntity
  8
D-STR
 62
     4
100
AcDbLine
 10
27344.24328263751
 20
25667.8574436163
 30
0.0
 11
27350.89203615766
 21
25651.8699599544
 31
0.0
  0
LINE
  5
78C1
330
17
100
AcDbEntity
  8
D-STR
 62
     4
100
AcDbLine
 10
27384.89203615766
 20
26594.33688257907
 30
0.0
 11
27400.89203615766
 21
26600.96429957705
 31
0.0
  0
LINE
  5
78C2
330
17
100
AcDbEntity
  8
D-STR
 62
     4
100
AcDbLine
 10
27350.89203615766
 20
26650.96429957705
 30
0.0
 11
27344.26461915969
 21
26634.96429957705
 31
0.0
  0
ARC
  5
78C3
330
17
100
AcDbEntity
  8
D-STR
 62
     5
100
AcDbCircle
 10
27375.89203615766
 20
25676.96438857661
 30
0.0
 40
20.0
100
AcDbArc
 50
224.9999999998526
 51
44.99999999985261
  0
ARC
  5
78C4
330
17
100
AcDbEntity
  8
D-STR
 62
     5
100
AcDbCircle
 10
27375.89203615766
 20
26625.96429957705
 30
0.0
 40
20.0
100
AcDbArc
 50
315.0000000001473
 51
135.0000000001474
  0
LWPOLYLINE
  5
78C5
330
17
100
AcDbEntity
  8
D-STR
 62
     4
100
AcDbPolyline
 90
        5
 70
     0
 43
0.0
 10
26901.39203615766
 20
26634.96429957705
 10
27344.26461915969
 20
26634.96429957705
 10
27384.89203615766
 20
26594.33688257907
 10
27384.89203615766
 20
25708.58296525223
 10
27344.24328263751
 20
25667.8574436163
  0
LINE
  5
78C6
330
17
100
AcDbEntity
  8
D-STR
 62
     4
100
AcDbLine
 10
27344.24328263751
 20
25667.8574436163
 30
0.0
 11
26901.39203615766
 21
25667.8574436163
 31
0.0
  0
LWPOLYLINE
  5
78C7
330
17
100
AcDbEntity
  8
D-STR
100
AcDbPolyline
 90
        6
 70
     0
 43
0.0
 10
26901.39203615766
 20
26650.96429957705
 10
27350.89203615766
 20
26650.96429957705
 10
27400.89203615766
 20
26600.96429957705
 10
27400.89203615766
 20
25701.96438857661
 10
27350.89203615766
 20
25651.8699599544
 10
26901.39203615766
 20
25651.8699599544
  0
POLYLINE
  5
78C8
330
17
100
AcDbEntity
  8
D-STR
 62
     4
100
AcDb2dPolyline
 66
     1
 10
0.0
 20
0.0
 30
0.0
 70
     3
 75
     6
  0
VERTEX
  5
78C9
330
78C8
100
AcDbEntity
  8
D-STR
 62
     4
100
AcDbVertex
100
AcDb2dVertex
 10
27222.24427693382
 20
25714.19035508519
 30
0.0
 42
-0.0715145160321342
  0
VERTEX
  5
78CA
330
78C8
100
AcDbEntity
  8
D-STR
 62
     4
100
AcDbVertex
100
AcDb2dVertex
 10
27222.52641360012
 20
25768.61827771891
 30
0.0
 42
0.0313208202547029
 70
     1
  0
VERTEX
  5
78CB
330
78C8
100
AcDbEntity
  8
D-STR
 62
     4
100
AcDbVertex
100
AcDb2dVertex
 10
27233.07676830503
 20
25891.93311606017
 30
0.0
 42
0.0177061155744069
  0
VERTEX
  5
78CC
330
78C8
100
AcDbEntity
  8
D-STR
 62
     4
100
AcDbVertex
100
AcDb2dVertex
 10
27232.1746843467
 20
25963.06430541091
 30
0.0
 42
-0.0374657323779724
 70
     1
  0
VERTEX
  5
78CD
330
78C8
100
AcDbEntity
  8
D-STR
 62
     4
100
AcDbVertex
100
AcDb2dVertex
 10
27233.07676830503
 20
25996.70779621384
 30
0.0
 42
-0.4320431567919718
  0
VERTEX
  5
78CE
330
78C8
100
AcDbEntity
  8
D-STR
 62
     4
100
AcDbVertex
100
AcDb2dVertex
 10
27244.56045268385
 20
26005.50044250611
 30
0.0
 42
-0.0876663292344762
 70
     1
  0
VERTEX
  5
78CF
330
78C8
100
AcDbEntity
  8
D-STR
 62
     4
100
AcDbVertex
100
AcDb2dVertex
 10
27301.68254698933
 20
25985.48193762594
 30
0.0
 42
-0.1957395663305834
  0
VERTEX
  5
78D0
330
78C8
100
AcDbEntity
  8
D-STR
 62
     4
100
AcDbVertex
100
AcDb2dVertex
 10
27347.89809815951
 20
25927.41571955252
 30
0.0
 42
-0.1244644136922751
 70
     1
  0
VERTEX
  5
78D1
330
78C8
100
AcDbEntity
  8
D-STR
 62
     4
100
AcDbVertex
100
AcDb2dVertex
 10
27352.23417338829
 20
25813.35210594491
 30
0.0
 42
-0.0999310488910883
  0
VERTEX
  5
78D2
330
78C8
100
AcDbEntity
  8
D-STR
 62
     4
100
AcDbVertex
100
AcDb2dVertex
 10
27312.80139037463
 20
25722.34138341848
 30
0.0
 42
-0.222953305822695
 70
     1
  0
VERTEX
  5
78D3
330
78C8
100
AcDbEntity
  8
D-STR
 62
     4
100
AcDbVertex
100
AcDb2dVertex
 10
27272.79590333278
 20
25699.22254363466
 30
0.0
 42
-0.0935563267760015
  0
VERTEX
  5
78D4
330
78C8
100
AcDbEntity
  8
D-STR
 62
     4
100
AcDbVertex
100
AcDb2dVertex
 10
27231.50732876453
 20
25703.41926867039
 30
0.0
 42
-0.2944226571199708
 70
     1
  0
SEQEND
  5
78D5
330
78C8
100
AcDbEntity
  8
D-STR
 62
     4
  0
POLYLINE
  5
78D6
330
17
100
AcDbEntity
  8
D-STR
 62
     4
100
AcDb2dPolyline
 66
     1
 10
0.0
 20
0.0
 30
0.0
 70
     5
 75
     6
  0
VERTEX
  5
78D7
330
78D6
100
AcDbEntity
  8
D-STR
 62
     4
100
AcDbVertex
100
AcDb2dVertex
 10
27027.3368210332
 20
26202.71961608035
 30
0.0
 70
    16
  0
VERTEX
  5
78D8
330
78D6
100
AcDbEntity
  8
D-STR
 62
     4
100
AcDbVertex
100
AcDb2dVertex
 10
27041.53838975662
 20
26345.55216492521
 30
0.0
 70
     8
  0
VERTEX
  5
78D9
330
78D6
100
AcDbEntity
  8
D-STR
 62
     4
100
AcDbVertex
100
AcDb2dVertex
 10
27047.54081029629
 20
26357.3320446401
 30
0.0
 70
     8
  0
VERTEX
  5
78DA
330
78D6
100
AcDbEntity
  8
D-STR
 62
     4
100
AcDbVertex
100
AcDb2dVertex
 10
27054.73919530083
 20
26367.22222796547
 30
0.0
 70
     8
  0
VERTEX
  5
78DB
330
78D6
100
AcDbEntity
  8
D-STR
 62
     4
100
AcDbVertex
100
AcDb2dVertex
 10
27062.98687688899
 20
26375.2527650093
 30
0.0
 70
     8
  0
VERTEX
  5
78DC
330
78D6
100
AcDbEntity
  8
D-STR
 62
     4
100
AcDbVertex
100
AcDb2dVertex
 10
27072.1371871795
 20
26381.45370587958
 30
0.0
 70
     8
  0
VERTEX
  5
78DD
330
78D6
100
AcDbEntity
  8
D-STR
 62
     4
100
AcDbVertex
100
AcDb2dVertex
 10
27082.0434582911
 20
26385.85510068425
 30
0.0
 70
     8
  0
VERTEX
  5
78DE
330
78D6
100
AcDbEntity
  8
D-STR
 62
     4
100
AcDbVertex
100
AcDb2dVertex
 10
27092.55902234252
 20
26388.48699953131
 30
0.0
 70
     8
  0
VERTEX
  5
78DF
330
78D6
100
AcDbEntity
  8
D-STR
 62
     4
100
AcDbVertex
100
AcDb2dVertex
 10
27103.5372114525
 20
26389.37945252872
 30
0.0
 70
     8
  0
VERTEX
  5
78E0
330
78D6
100
AcDbEntity
  8
D-STR
 62
     4
100
AcDbVertex
100
AcDb2dVertex
 10
27114.83135773978
 20
26388.56250978445
 30
0.0
 70
     8
  0
VERTEX
  5
78E1
330
78D6
100
AcDbEntity
  8
D-STR
 62
     4
100
AcDbVertex
100
AcDb2dVertex
 10
27126.25544738454
 20
26386.08183841446
 30
0.0
 70
     8
  0
VERTEX
  5
78E2
330
78D6
100
AcDbEntity
  8
D-STR
 62
     4
100
AcDbVertex
100
AcDb2dVertex
 10
27137.46608281279
 20
26382.04557356661
 30
0.0
 70
     8
  0
VERTEX
  5
78E3
330
78D6
100
AcDbEntity
  8
D-STR
 62
     4
100
AcDbVertex
100
AcDb2dVertex
 10
27148.08052051195
 20
26376.57746739675
 30
0.0
 70
     8
  0
VERTEX
  5
78E4
330
78D6
100
AcDbEntity
  8
D-STR
 62
     4
100
AcDbVertex
100
AcDb2dVertex
 10
27157.7160169695
 20
26369.80127206071
 30
0.0
 70
     8
  0
VERTEX
  5
78E5
330
78D6
100
AcDbEntity
  8
D-STR
 62
     4
100
AcDbVertex
100
AcDb2dVertex
 10
27165.98982867286
 20
26361.84073971434
 30
0.0
 70
     8
  0
VERTEX
  5
78E6
330
78D6
100
AcDbEntity
  8
D-STR
 62
     4
100
AcDbVertex
100
AcDb2dVertex
 10
27172.51921210948
 20
26352.81962251348
 30
0.0
 70
     8
  0
VERTEX
  5
78E7
330
78D6
100
AcDbEntity
  8
D-STR
 62
     4
100
AcDbVertex
100
AcDb2dVertex
 10
27176.92142376682
 20
26342.86167261397
 30
0.0
 70
     8
  0
VERTEX
  5
78E8
330
78D6
100
AcDbEntity
  8
D-STR
 62
     4
100
AcDbVertex
100
AcDb2dVertex
 10
27178.81372013231
 20
26332.09064217166
 30
0.0
 70
     8
  0
VERTEX
  5
78E9
330
78D6
100
AcDbEntity
  8
D-STR
 62
     4
100
AcDbVertex
100
AcDb2dVertex
 10
27177.93566790118
 20
26320.65187520027
 30
0.0
 70
     8
  0
VERTEX
  5
78EA
330
78D6
100
AcDbEntity
  8
D-STR
 62
     4
100
AcDbVertex
100
AcDb2dVertex
 10
27174.5160745997
 20
26308.77708314511
 30
0.0
 70
     8
  0
VERTEX
  5
78EB
330
78D6
100
AcDbEntity
  8
D-STR
 62
     4
100
AcDbVertex
100
AcDb2dVertex
 10
27168.90605796195
 20
26296.71956930936
 30
0.0
 70
     8
  0
VERTEX
  5
78EC
330
78D6
100
AcDbEntity
  8
D-STR
 62
     4
100
AcDbVertex
100
AcDb2dVertex
 10
27161.45673572196
 20
26284.73263699623
 30
0.0
 70
     8
  0
VERTEX
  5
78ED
330
78D6
100
AcDbEntity
  8
D-STR
 62
     4
100
AcDbVertex
100
AcDb2dVertex
 10
27152.51922561381
 20
26273.06958950891
 30
0.0
 70
     8
  0
VERTEX
  5
78EE
330
78D6
100
AcDbEntity
  8
D-STR
 62
     4
100
AcDbVertex
100
AcDb2dVertex
 10
27142.44464537155
 20
26261.98373015057
 30
0.0
 70
     8
  0
VERTEX
  5
78EF
330
78D6
100
AcDbEntity
  8
D-STR
 62
     4
100
AcDbVertex
100
AcDb2dVertex
 10
27131.58411272924
 20
26251.72836222442
 30
0.0
 70
     8
  0
VERTEX
  5
78F0
330
78D6
100
AcDbEntity
  8
D-STR
 62
     4
100
AcDbVertex
100
AcDb2dVertex
 10
27120.28874542093
 20
26242.55678903365
 30
0.0
 70
     8
  0
VERTEX
  5
78F1
330
78D6
100
AcDbEntity
  8
D-STR
 62
     4
100
AcDbVertex
100
AcDb2dVertex
 10
27108.88339512137
 20
26234.71372634011
 30
0.0
 70
     8
  0
VERTEX
  5
78F2
330
78D6
100
AcDbEntity
  8
D-STR
 62
     4
100
AcDbVertex
100
AcDb2dVertex
 10
27097.58784926814
 20
26228.40953974026
 30
0.0
 70
     8
  0
VERTEX
  5
78F3
330
78D6
100
AcDbEntity
  8
D-STR
 62
     4
100
AcDbVertex
100
AcDb2dVertex
 10
27086.5956292395
 20
26223.84600728923
 30
0.0
 70
     8
  0
VERTEX
  5
78F4
330
78D6
100
AcDbEntity
  8
D-STR
 62
     4
100
AcDbVertex
100
AcDb2dVertex
 10
27076.10025641371
 20
26221.22490704216
 30
0.0
 70
     8
  0
VERTEX
  5
78F5
330
78D6
100
AcDbEntity
  8
D-STR
 62
     4
100
AcDbVertex
100
AcDb2dVertex
 10
27066.29525216902
 20
26220.74801705417
 30
0.0
 70
     8
  0
VERTEX
  5
78F6
330
78D6
100
AcDbEntity
  8
D-STR
 62
     4
100
AcDbVertex
100
AcDb2dVertex
 10
27057.37413788371
 20
26222.61711538037
 30
0.0
 70
     8
  0
VERTEX
  5
78F7
330
78D6
100
AcDbEntity
  8
D-STR
 62
     4
100
AcDbVertex
100
AcDb2dVertex
 10
27049.53043493603
 20
26227.03398007591
 30
0.0
 70
     8
  0
VERTEX
  5
78F8
330
78D6
100
AcDbEntity
  8
D-STR
 62
     4
100
AcDbVertex
100
AcDb2dVertex
 10
27042.95766470426
 20
26234.2003891959
 30
0.0
 70
     8
  0
VERTEX
  5
78F9
330
78D6
100
AcDbEntity
  8
D-STR
 62
     4
100
AcDbVertex
100
AcDb2dVertex
 10
27037.81455705051
 20
26244.18301051592
 30
0.0
 70
     8
  0
VERTEX
  5
78FA
330
78D6
100
AcDbEntity
  8
D-STR
 62
     4
100
AcDbVertex
100
AcDb2dVertex
 10
27034.12067577243
 20
26256.5080706934
 30
0.0
 70
     8
  0
VERTEX
  5
78FB
330
78D6
100
AcDbEntity
  8
D-STR
 62
     4
100
AcDbVertex
100
AcDb2dVertex
 10
27031.8607931515
 20
26270.5666861062
 30
0.0
 70
     8
  0
VERTEX
  5
78FC
330
78D6
100
AcDbEntity
  8
D-STR
 62
     4
100
AcDbVertex
100
AcDb2dVertex
 10
27031.01968146922
 20
26285.74997313218
 30
0.0
 70
     8
  0
VERTEX
  5
78FD
330
78D6
100
AcDbEntity
  8
D-STR
 62
     4
100
AcDbVertex
100
AcDb2dVertex
 10
27031.58211300711
 20
26301.4490481492
 30
0.0
 70
     8
  0
VERTEX
  5
78FE
330
78D6
100
AcDbEntity
  8
D-STR
 62
     4
100
AcDbVertex
100
AcDb2dVertex
 10
27033.53286004663
 20
26317.05502753513
 30
0.0
 70
     8
  0
VERTEX
  5
78FF
330
78D6
100
AcDbEntity
  8
D-STR
 62
     4
100
AcDbVertex
100
AcDb2dVertex
 10
27036.8566948693
 20
26331.95902766784
 30
0.0
 70
     8
  0
VERTEX
  5
7900
330
78D6
100
AcDbEntity
  8
D-STR
 62
     4
100
AcDbVertex
100
AcDb2dVertex
 10
27027.21697806444
 20
26366.02946089842
 30
0.0
 70
    16
  0
VERTEX
  5
7901
330
78D6
100
AcDbEntity
  8
D-STR
 62
     4
100
AcDbVertex
100
AcDb2dVertex
 10
27113.02560524875
 20
26406.47552987724
 30
0.0
 70
    16
  0
VERTEX
  5
7902
330
78D6
100
AcDbEntity
  8
D-STR
 62
     4
100
AcDbVertex
100
AcDb2dVertex
 10
27209.66874737921
 20
26339.44347829928
 30
0.0
 70
    16
  0
VERTEX
  5
7903
330
78D6
100
AcDbEntity
  8
D-STR
 62
     4
100
AcDbVertex
100
AcDb2dVertex
 10
27121.18172602828
 20
26228.29440995557
 30
0.0
 70
    16
  0
SEQEND
  5
7904
330
78D6
100
AcDbEntity
  8
D-STR
 62
     4
  0
POLYLINE
  5
7905
330
17
100
AcDbEntity
  8
D-STR
 62
     4
100
AcDb2dPolyline
 66
     1
 10
0.0
 20
0.0
 30
0.0
 70
     5
 75
     6
  0
VERTEX
  5
7906
330
7905
100
AcDbEntity
  8
D-STR
 62
     4
100
AcDbVertex
100
AcDb2dVertex
 10
26992.13615771484
 20
25911.39319882264
 30
0.0
 70
    16
  0
VERTEX
  5
7907
330
7905
100
AcDbEntity
  8
D-STR
 62
     4
100
AcDbVertex
100
AcDb2dVertex
 10
26956.62965822034
 20
26050.46911355043
 30
0.0
 70
     8
  0
VERTEX
  5
7908
330
7905
100
AcDbEntity
  8
D-STR
 62
     4
100
AcDbVertex
100
AcDb2dVertex
 10
26958.24113235986
 20
26063.59152832553
 30
0.0
 70
     8
  0
VERTEX
  5
7909
330
7905
100
AcDbEntity
  8
D-STR
 62
     4
100
AcDbVertex
100
AcDb2dVertex
 10
26961.62275971175
 20
26075.34725328558
 30
0.0
 70
     8
  0
VERTEX
  5
790A
330
7905
100
AcDbEntity
  8
D-STR
 62
     4
100
AcDbVertex
100
AcDb2dVertex
 10
26966.62643980802
 20
26085.7143629255
 30
0.0
 70
     8
  0
VERTEX
  5
790B
330
7905
100
AcDbEntity
  8
D-STR
 62
     4
100
AcDbVertex
100
AcDb2dVertex
 10
26973.10407218071
 20
26094.67093174026
 30
0.0
 70
     8
  0
VERTEX
  5
790C
330
7905
100
AcDbEntity
  8
D-STR
 62
     4
100
AcDbVertex
100
AcDb2dVertex
 10
26980.90755636185
 20
26102.19503422479
 30
0.0
 70
     8
  0
VERTEX
  5
790D
330
7905
100
AcDbEntity
  8
D-STR
 62
     4
100
AcDbVertex
100
AcDb2dVertex
 10
26989.88879188349
 20
26108.26474487404
 30
0.0
 70
     8
  0
VERTEX
  5
790E
330
7905
100
AcDbEntity
  8
D-STR
 62
     4
100
AcDbVertex
100
AcDb2dVertex
 10
26999.89967827764
 20
26112.85813818295
 30
0.0
 70
     8
  0
VERTEX
  5
790F
330
7905
100
AcDbEntity
  8
D-STR
 62
     4
100
AcDbVertex
100
AcDb2dVertex
 10
27010.79211507636
 20
26115.95328864648
 30
0.0
 70
     8
  0
VERTEX
  5
7910
330
7905
100
AcDbEntity
  8
D-STR
 62
     4
100
AcDbVertex
100
AcDb2dVertex
 10
27022.37568739225
 20
26117.52948884317
 30
0.0
 70
     8
  0
VERTEX
  5
7911
330
7905
100
AcDbEntity
  8
D-STR
 62
     4
100
AcDbVertex
100
AcDb2dVertex
 10
27034.29072266025
 20
26117.57090368605
 30
0.0
 70
     8
  0
VERTEX
  5
7912
330
7905
100
AcDbEntity
  8
D-STR
 62
     4
100
AcDbVertex
100
AcDb2dVertex
 10
27046.13523389589
 20
26116.06291617175
 30
0.0
 70
     8
  0
VERTEX
  5
7913
330
7905
100
AcDbEntity
  8
D-STR
 62
     4
100
AcDbVertex
100
AcDb2dVertex
 10
27057.50723411469
 20
26112.99090929689
 30
0.0
 70
     8
  0
VERTEX
  5
7914
330
7905
100
AcDbEntity
  8
D-STR
 62
     4
100
AcDbVertex
100
AcDb2dVertex
 10
27068.00473633216
 20
26108.34026605812
 30
0.0
 70
     8
  0
VERTEX
  5
7915
330
7905
100
AcDbEntity
  8
D-STR
 62
     4
100
AcDbVertex
100
AcDb2dVertex
 10
27077.22575356383
 20
26102.09636945204
 30
0.0
 70
     8
  0
VERTEX
  5
7916
330
7905
100
AcDbEntity
  8
D-STR
 62
     4
100
AcDbVertex
100
AcDb2dVertex
 10
27084.76829882523
 20
26094.24460247531
 30
0.0
 70
     8
  0
VERTEX
  5
7917
330
7905
100
AcDbEntity
  8
D-STR
 62
     4
100
AcDbVertex
100
AcDb2dVertex
 10
27090.23038513187
 20
26084.77034812455
 30
0.0
 70
     8
  0
VERTEX
  5
7918
330
7905
100
AcDbEntity
  8
D-STR
 62
     4
100
AcDbVertex
100
AcDb2dVertex
 10
27093.31757464863
 20
26073.72111166071
 30
0.0
 70
     8
  0
VERTEX
  5
7919
330
7905
100
AcDbEntity
  8
D-STR
 62
     4
100
AcDbVertex
100
AcDb2dVertex
 10
27094.16562613782
 20
26061.39288740202
 30
0.0
 70
     8
  0
VERTEX
  5
791A
330
7905
100
AcDbEntity
  8
D-STR
 62
     4
100
AcDbVertex
100
AcDb2dVertex
 10
27093.01784751108
 20
26048.14379193104
 30
0.0
 70
     8
  0
VERTEX
  5
791B
330
7905
100
AcDbEntity
  8
D-STR
 62
     4
100
AcDbVertex
100
AcDb2dVertex
 10
27090.11754668009
 20
26034.33194183033
 30
0.0
 70
     8
  0
VERTEX
  5
791C
330
7905
100
AcDbEntity
  8
D-STR
 62
     4
100
AcDbVertex
100
AcDb2dVertex
 10
27085.70803155649
 20
26020.31545368245
 30
0.0
 70
     8
  0
VERTEX
  5
791D
330
7905
100
AcDbEntity
  8
D-STR
 62
     4
100
AcDbVertex
100
AcDb2dVertex
 10
27080.03261005195
 20
26006.45244406995
 30
0.0
 70
     8
  0
VERTEX
  5
791E
330
7905
100
AcDbEntity
  8
D-STR
 62
     4
100
AcDbVertex
100
AcDb2dVertex
 10
27073.33459007811
 20
25993.10102957538
 30
0.0
 70
     8
  0
VERTEX
  5
791F
330
7905
100
AcDbEntity
  8
D-STR
 62
     4
100
AcDbVertex
100
AcDb2dVertex
 10
27065.85727954666
 20
25980.61932678132
 30
0.0
 70
     8
  0
VERTEX
  5
7920
330
7905
100
AcDbEntity
  8
D-STR
 62
     4
100
AcDbVertex
100
AcDb2dVertex
 10
27057.82224145925
 20
25969.3483990997
 30
0.0
 70
     8
  0
VERTEX
  5
7921
330
7905
100
AcDbEntity
  8
D-STR
 62
     4
100
AcDbVertex
100
AcDb2dVertex
 10
27049.36405917765
 20
25959.5610972601
 30
0.0
 70
     8
  0
VERTEX
  5
7922
330
7905
100
AcDbEntity
  8
D-STR
 62
     4
100
AcDbVertex
100
AcDb2dVertex
 10
27040.59557115365
 20
25951.5132188215
 30
0.0
 70
     8
  0
VERTEX
  5
7923
330
7905
100
AcDbEntity
  8
D-STR
 62
     4
100
AcDbVertex
100
AcDb2dVertex
 10
27031.62961583903
 20
25945.46056134284
 30
0.0
 70
     8
  0
VERTEX
  5
7924
330
7905
100
AcDbEntity
  8
D-STR
 62
     4
100
AcDbVertex
100
AcDb2dVertex
 10
27022.57903168557
 20
25941.65892238312
 30
0.0
 70
     8
  0
VERTEX
  5
7925
330
7905
100
AcDbEntity
  8
D-STR
 62
     4
100
AcDbVertex
100
AcDb2dVertex
 10
27013.55665714505
 20
25940.36409950129
 30
0.0
 70
     8
  0
VERTEX
  5
7926
330
7905
100
AcDbEntity
  8
D-STR
 62
     4
100
AcDbVertex
100
AcDb2dVertex
 10
27004.67533066927
 20
25941.83189025633
 30
0.0
 70
     8
  0
VERTEX
  5
7927
330
7905
100
AcDbEntity
  8
D-STR
 62
     4
100
AcDbVertex
100
AcDb2dVertex
 10
26996.04789071
 20
25946.3180922072
 30
0.0
 70
     8
  0
VERTEX
  5
7928
330
7905
100
AcDbEntity
  8
D-STR
 62
     4
100
AcDbVertex
100
AcDb2dVertex
 10
26987.80069282523
 20
25953.93964138086
 30
0.0
 70
     8
  0
VERTEX
  5
7929
330
7905
100
AcDbEntity
  8
D-STR
 62
     4
100
AcDbVertex
100
AcDb2dVertex
 10
26980.11416099775
 20
25964.25802767622
 30
0.0
 70
     8
  0
VERTEX
  5
792A
330
7905
100
AcDbEntity
  8
D-STR
 62
     4
100
AcDbVertex
100
AcDb2dVertex
 10
26973.18223631658
 20
25976.69587946018
 30
0.0
 70
     8
  0
VERTEX
  5
792B
330
7905
100
AcDbEntity
  8
D-STR
 62
     4
100
AcDbVertex
100
AcDb2dVertex
 10
26967.19885987071
 20
25990.67582509964
 30
0.0
 70
     8
  0
VERTEX
  5
792C
330
7905
100
AcDbEntity
  8
D-STR
 62
     4
100
AcDbVertex
100
AcDb2dVertex
 10
26962.35797274915
 20
26005.62049296149
 30
0.0
 70
     8
  0
VERTEX
  5
792D
330
7905
100
AcDbEntity
  8
D-STR
 62
     4
100
AcDbVertex
100
AcDb2dVertex
 10
26958.8535160409
 20
26020.95251141264
 30
0.0
 70
     8
  0
VERTEX
  5
792E
330
7905
100
AcDbEntity
  8
D-STR
 62
     4
100
AcDbVertex
100
AcDb2dVertex
 10
26956.87943083496
 20
26036.09450881999
 30
0.0
 70
     8
  0
VERTEX
  5
792F
330
7905
100
AcDbEntity
  8
D-STR
 62
     4
100
AcDbVertex
100
AcDb2dVertex
 10
26936.16828563028
 20
26064.81326619051
 30
0.0
 70
    16
  0
VERTEX
  5
7930
330
7905
100
AcDbEntity
  8
D-STR
 62
     4
100
AcDbVertex
100
AcDb2dVertex
 10
27002.96864908605
 20
26132.16841771788
 30
0.0
 70
    16
  0
VERTEX
  5
7931
330
7905
100
AcDbEntity
  8
D-STR
 62
     4
100
AcDbVertex
100
AcDb2dVertex
 10
27116.70980848371
 20
26102.23279481683
 30
0.0
 70
    16
  0
VERTEX
  5
7932
330
7905
100
AcDbEntity
  8
D-STR
 62
     4
100
AcDbVertex
100
AcDb2dVertex
 10
27071.57442777035
 20
25967.52249176211
 30
0.0
 70
    16
  0
SEQEND
  5
7933
330
7905
100
AcDbEntity
  8
D-STR
 62
     4
  0
POLYLINE
  5
7934
330
17
100
AcDbEntity
  8
D-STR
 62
     4
100
AcDb2dPolyline
 66
     1
 10
0.0
 20
0.0
 30
0.0
 70
     5
 75
     6
  0
VERTEX
  5
7935
330
7934
100
AcDbEntity
  8
D-STR
 62
     4
100
AcDbVertex
100
AcDb2dVertex
 10
27216.65097667574
 20
25845.32589176903
 30
0.0
 70
    16
  0
VERTEX
  5
7936
330
7934
100
AcDbEntity
  8
D-STR
 62
     4
100
AcDbVertex
100
AcDb2dVertex
 10
27196.38206533649
 20
26020.15026639877
 30
0.0
 70
     8
  0
VERTEX
  5
7937
330
7934
100
AcDbEntity
  8
D-STR
 62
     4
100
AcDbVertex
100
AcDb2dVertex
 10
27191.72715880506
 20
26027.03164885674
 30
0.0
 70
     8
  0
VERTEX
  5
7938
330
7934
100
AcDbEntity
  8
D-STR
 62
     4
100
AcDbVertex
100
AcDb2dVertex
 10
27186.44737537958
 20
26029.89668767156
 30
0.0
 70
     8
  0
VERTEX
  5
7939
330
7934
100
AcDbEntity
  8
D-STR
 62
     4
100
AcDbVertex
100
AcDb2dVertex
 10
27180.590220321
 20
26029.49646378789
 30
0.0
 70
     8
  0
VERTEX
  5
793A
330
7934
100
AcDbEntity
  8
D-STR
 62
     4
100
AcDbVertex
100
AcDb2dVertex
 10
27174.20319889027
 20
26026.58205815042
 30
0.0
 70
     8
  0
VERTEX
  5
793B
330
7934
100
AcDbEntity
  8
D-STR
 62
     4
100
AcDbVertex
100
AcDb2dVertex
 10
27167.33381634834
 20
26021.90455170384
 30
0.0
 70
     8
  0
VERTEX
  5
793C
330
7934
100
AcDbEntity
  8
D-STR
 62
     4
100
AcDbVertex
100
AcDb2dVertex
 10
27160.02957795616
 20
26016.21502539282
 30
0.0
 70
     8
  0
VERTEX
  5
793D
330
7934
100
AcDbEntity
  8
D-STR
 62
     4
100
AcDbVertex
100
AcDb2dVertex
 10
27152.33798897469
 20
26010.26456016206
 30
0.0
 70
     8
  0
VERTEX
  5
793E
330
7934
100
AcDbEntity
  8
D-STR
 62
     4
100
AcDbVertex
100
AcDb2dVertex
 10
27144.30655466487
 20
26004.80423695623
 30
0.0
 70
     8
  0
VERTEX
  5
793F
330
7934
100
AcDbEntity
  8
D-STR
 62
     4
100
AcDbVertex
100
AcDb2dVertex
 10
27136.00105154187
 20
26000.3953095329
 30
0.0
 70
     8
  0
VERTEX
  5
7940
330
7934
100
AcDbEntity
  8
D-STR
 62
     4
100
AcDbVertex
100
AcDb2dVertex
 10
27127.56034113771
 20
25996.83972290118
 30
0.0
 70
     8
  0
VERTEX
  5
7941
330
7934
100
AcDbEntity
  8
D-STR
 62
     4
100
AcDbVertex
100
AcDb2dVertex
 10
27119.14155623859
 20
25993.74959488307
 30
0.0
 70
     8
  0
VERTEX
  5
7942
330
7934
100
AcDbEntity
  8
D-STR
 62
     4
100
AcDbVertex
100
AcDb2dVertex
 10
27110.90182963076
 20
25990.73704330056
 30
0.0
 70
     8
  0
VERTEX
  5
7943
330
7934
100
AcDbEntity
  8
D-STR
 62
     4
100
AcDbVertex
100
AcDb2dVertex
 10
27102.99829410043
 20
25987.41418597565
 30
0.0
 70
     8
  0
VERTEX
  5
7944
330
7934
100
AcDbEntity
  8
D-STR
 62
     4
100
AcDbVertex
100
AcDb2dVertex
 10
27095.58808243382
 20
25983.39314073033
 30
0.0
 70
     8
  0
VERTEX
  5
7945
330
7934
100
AcDbEntity
  8
D-STR
 62
     4
100
AcDbVertex
100
AcDb2dVertex
 10
27088.82832741716
 20
25978.28602538659
 30
0.0
 70
     8
  0
VERTEX
  5
7946
330
7934
100
AcDbEntity
  8
D-STR
 62
     4
100
AcDbVertex
100
AcDb2dVertex
 10
27082.87616183668
 20
25971.70495776643
 30
0.0
 70
     8
  0
VERTEX
  5
7947
330
7934
100
AcDbEntity
  8
D-STR
 62
     4
100
AcDbVertex
100
AcDb2dVertex
 10
27077.87105626619
 20
25963.39546365307
 30
0.0
 70
     8
  0
VERTEX
  5
7948
330
7934
100
AcDbEntity
  8
D-STR
 62
     4
100
AcDbVertex
100
AcDb2dVertex
 10
27073.88183242988
 20
25953.63670067461
 30
0.0
 70
     8
  0
VERTEX
  5
7949
330
7934
100
AcDbEntity
  8
D-STR
 62
     4
100
AcDbVertex
100
AcDb2dVertex
 10
27070.95964983957
 20
25942.8412344204
 30
0.0
 70
     8
  0
VERTEX
  5
794A
330
7934
100
AcDbEntity
  8
D-STR
 62
     4
100
AcDbVertex
100
AcDb2dVertex
 10
27069.15566800703
 20
25931.42163047976
 30
0.0
 70
     8
  0
VERTEX
  5
794B
330
7934
100
AcDbEntity
  8
D-STR
 62
     4
100
AcDbVertex
100
AcDb2dVertex
 10
27068.52104644406
 20
25919.79045444203
 30
0.0
 70
     8
  0
VERTEX
  5
794C
330
7934
100
AcDbEntity
  8
D-STR
 62
     4
100
AcDbVertex
100
AcDb2dVertex
 10
27069.10694466246
 20
25908.36027189653
 30
0.0
 70
     8
  0
VERTEX
  5
794D
330
7934
100
AcDbEntity
  8
D-STR
 62
     4
100
AcDbVertex
100
AcDb2dVertex
 10
27070.96452217402
 20
25897.54364843261
 30
0.0
 70
     8
  0
VERTEX
  5
794E
330
7934
100
AcDbEntity
  8
D-STR
 62
     4
100
AcDbVertex
100
AcDb2dVertex
 10
27074.14493849054
 20
25887.75314963959
 30
0.0
 70
     8
  0
VERTEX
  5
794F
330
7934
100
AcDbEntity
  8
D-STR
 62
     4
100
AcDbVertex
100
AcDb2dVertex
 10
27078.6646377408
 20
25879.31142296554
 30
0.0
 70
     8
  0
VERTEX
  5
7950
330
7934
100
AcDbEntity
  8
D-STR
 62
     4
100
AcDbVertex
100
AcDb2dVertex
 10
27084.40120252158
 20
25872.18144329348
 30
0.0
 70
     8
  0
VERTEX
  5
7951
330
7934
100
AcDbEntity
  8
D-STR
 62
     4
100
AcDbVertex
100
AcDb2dVertex
 10
27091.19750004666
 20
25866.23626736514
 30
0.0
 70
     8
  0
VERTEX
  5
7952
330
7934
100
AcDbEntity
  8
D-STR
 62
     4
100
AcDbVertex
100
AcDb2dVertex
 10
27098.89639752982
 20
25861.34895192227
 30
0.0
 70
     8
  0
VERTEX
  5
7953
330
7934
100
AcDbEntity
  8
D-STR
 62
     4
100
AcDbVertex
100
AcDb2dVertex
 10
27107.34076218483
 20
25857.39255370662
 30
0.0
 70
     8
  0
VERTEX
  5
7954
330
7934
100
AcDbEntity
  8
D-STR
 62
     4
100
AcDbVertex
100
AcDb2dVertex
 10
27116.37346122547
 20
25854.24012945992
 30
0.0
 70
     8
  0
VERTEX
  5
7955
330
7934
100
AcDbEntity
  8
D-STR
 62
     4
100
AcDbVertex
100
AcDb2dVertex
 10
27125.83736186551
 20
25851.76473592392
 30
0.0
 70
     8
  0
VERTEX
  5
7956
330
7934
100
AcDbEntity
  8
D-STR
 62
     4
100
AcDbVertex
100
AcDb2dVertex
 10
27135.57533131873
 20
25849.83942984037
 30
0.0
 70
     8
  0
VERTEX
  5
7957
330
7934
100
AcDbEntity
  8
D-STR
 62
     4
100
AcDbVertex
100
AcDb2dVertex
 10
27145.42292829723
 20
25848.42307219038
 30
0.0
 70
     8
  0
VERTEX
  5
7958
330
7934
100
AcDbEntity
  8
D-STR
 62
     4
100
AcDbVertex
100
AcDb2dVertex
 10
27155.18647750635
 20
25847.81774091258
 30
0.0
 70
     8
  0
VERTEX
  5
7959
330
7934
100
AcDbEntity
  8
D-STR
 62
     4
100
AcDbVertex
100
AcDb2dVertex
 10
27164.66499514976
 20
25848.41131818499
 30
0.0
 70
     8
  0
VERTEX
  5
795A
330
7934
100
AcDbEntity
  8
D-STR
 62
     4
100
AcDbVertex
100
AcDb2dVertex
 10
27173.65749743113
 20
25850.59168618559
 30
0.0
 70
     8
  0
VERTEX
  5
795B
330
7934
100
AcDbEntity
  8
D-STR
 62
     4
100
AcDbVertex
100
AcDb2dVertex
 10
27181.96300055413
 20
25854.74672709241
 30
0.0
 70
     8
  0
VERTEX
  5
795C
330
7934
100
AcDbEntity
  8
D-STR
 62
     4
100
AcDbVertex
100
AcDb2dVertex
 10
27189.38052072242
 20
25861.26432308344
 30
0.0
 70
     8
  0
VERTEX
  5
795D
330
7934
100
AcDbEntity
  8
D-STR
 62
     4
100
AcDbVertex
100
AcDb2dVertex
 10
27195.70907413968
 20
25870.53235633669
 30
0.0
 70
     8
  0
VERTEX
  5
795E
330
7934
100
AcDbEntity
  8
D-STR
 62
     4
100
AcDbVertex
100
AcDb2dVertex
 10
27200.74767700956
 20
25882.93870903016
 30
0.0
 70
     8
  0
VERTEX
  5
795F
330
7934
100
AcDbEntity
  8
D-STR
 62
     4
100
AcDbVertex
100
AcDb2dVertex
 10
27204.34589600572
 20
25898.63383243291
 30
0.0
 70
     8
  0
VERTEX
  5
7960
330
7934
100
AcDbEntity
  8
D-STR
 62
     4
100
AcDbVertex
100
AcDb2dVertex
 10
27206.55549968177
 20
25916.81845417813
 30
0.0
 70
     8
  0
VERTEX
  5
7961
330
7934
100
AcDbEntity
  8
D-STR
 62
     4
100
AcDbVertex
100
AcDb2dVertex
 10
27207.47880706128
 20
25936.45587099006
 30
0.0
 70
     8
  0
VERTEX
  5
7962
330
7934
100
AcDbEntity
  8
D-STR
 62
     4
100
AcDbVertex
100
AcDb2dVertex
 10
27207.21813716786
 20
25956.50937959294
 30
0.0
 70
     8
  0
VERTEX
  5
7963
330
7934
100
AcDbEntity
  8
D-STR
 62
     4
100
AcDbVertex
100
AcDb2dVertex
 10
27205.87580902508
 20
25975.942276711
 30
0.0
 70
     8
  0
VERTEX
  5
7964
330
7934
100
AcDbEntity
  8
D-STR
 62
     4
100
AcDbVertex
100
AcDb2dVertex
 10
27203.55414165653
 20
25993.71785906851
 30
0.0
 70
     8
  0
VERTEX
  5
7965
330
7934
100
AcDbEntity
  8
D-STR
 62
     4
100
AcDbVertex
100
AcDb2dVertex
 10
27200.35545408581
 20
26008.79942338968
 30
0.0
 70
     8
  0
VERTEX
  5
7966
330
7934
100
AcDbEntity
  8
D-STR
 62
     4
100
AcDbVertex
100
AcDb2dVertex
 10
27203.55414165653
 20
26071.00279533581
 30
0.0
 70
    16
  0
VERTEX
  5
7967
330
7934
100
AcDbEntity
  8
D-STR
 62
     4
100
AcDbVertex
100
AcDb2dVertex
 10
27147.42484871707
 20
25991.56452528031
 30
0.0
 70
    16
  0
VERTEX
  5
7968
330
7934
100
AcDbEntity
  8
D-STR
 62
     4
100
AcDbVertex
100
AcDb2dVertex
 10
27072.58579146444
 20
25991.56452528031
 30
0.0
 70
    16
  0
VERTEX
  5
7969
330
7934
100
AcDbEntity
  8
D-STR
 62
     4
100
AcDbVertex
100
AcDb2dVertex
 10
27059.48895644523
 20
25872.40712019705
 30
0.0
 70
    16
  0
VERTEX
  5
796A
330
7934
100
AcDbEntity
  8
D-STR
 62
     4
100
AcDbVertex
100
AcDb2dVertex
 10
27134.32801369786
 20
25845.32589176903
 30
0.0
 70
    16
  0
SEQEND
  5
796B
330
7934
100
AcDbEntity
  8
D-STR
 62
     4
  0
POLYLINE
  5
796C
330
17
100
AcDbEntity
  8
D-STR
 62
     4
100
AcDb2dPolyline
 66
     1
 10
0.0
 20
0.0
 30
0.0
 70
     5
 75
     6
  0
VERTEX
  5
796D
330
796C
100
AcDbEntity
  8
D-STR
 62
     4
100
AcDbVertex
100
AcDb2dVertex
 10
27210.82739762263
 20
25732.33144167047
 30
0.0
 70
    16
  0
VERTEX
  5
796E
330
796C
100
AcDbEntity
  8
D-STR
 62
     4
100
AcDbVertex
100
AcDb2dVertex
 10
27071.75148289484
 20
25696.82494217596
 30
0.0
 70
     8
  0
VERTEX
  5
796F
330
796C
100
AcDbEntity
  8
D-STR
 62
     4
100
AcDbVertex
100
AcDb2dVertex
 10
27058.62906811974
 20
25698.4364163155
 30
0.0
 70
     8
  0
VERTEX
  5
7970
330
796C
100
AcDbEntity
  8
D-STR
 62
     4
100
AcDbVertex
100
AcDb2dVertex
 10
27046.87334315969
 20
25701.81804366738
 30
0.0
 70
     8
  0
VERTEX
  5
7971
330
796C
100
AcDbEntity
  8
D-STR
 62
     4
100
AcDbVertex
100
AcDb2dVertex
 10
27036.50623351977
 20
25706.82172376365
 30
0.0
 70
     8
  0
VERTEX
  5
7972
330
796C
100
AcDbEntity
  8
D-STR
 62
     4
100
AcDbVertex
100
AcDb2dVertex
 10
27027.54966470501
 20
25713.29935613634
 30
0.0
 70
     8
  0
VERTEX
  5
7973
330
796C
100
AcDbEntity
  8
D-STR
 62
     4
100
AcDbVertex
100
AcDb2dVertex
 10
27020.02556222048
 20
25721.10284031749
 30
0.0
 70
     8
  0
VERTEX
  5
7974
330
796C
100
AcDbEntity
  8
D-STR
 62
     4
100
AcDbVertex
100
AcDb2dVertex
 10
27013.95585157123
 20
25730.08407583912
 30
0.0
 70
     8
  0
VERTEX
  5
7975
330
796C
100
AcDbEntity
  8
D-STR
 62
     4
100
AcDbVertex
100
AcDb2dVertex
 10
27009.36245826232
 20
25740.09496223328
 30
0.0
 70
     8
  0
VERTEX
  5
7976
330
796C
100
AcDbEntity
  8
D-STR
 62
     4
100
AcDbVertex
100
AcDb2dVertex
 10
27006.26730779879
 20
25750.98739903199
 30
0.0
 70
     8
  0
VERTEX
  5
7977
330
796C
100
AcDbEntity
  8
D-STR
 62
     4
100
AcDbVertex
100
AcDb2dVertex
 10
27004.6911076021
 20
25762.57097134788
 30
0.0
 70
     8
  0
VERTEX
  5
7978
330
796C
100
AcDbEntity
  8
D-STR
 62
     4
100
AcDbVertex
100
AcDb2dVertex
 10
27004.64969275922
 20
25774.48600661588
 30
0.0
 70
     8
  0
VERTEX
  5
7979
330
796C
100
AcDbEntity
  8
D-STR
 62
     4
100
AcDbVertex
100
AcDb2dVertex
 10
27006.15768027352
 20
25786.33051785152
 30
0.0
 70
     8
  0
VERTEX
  5
797A
330
796C
100
AcDbEntity
  8
D-STR
 62
     4
100
AcDbVertex
100
AcDb2dVertex
 10
27009.22968714838
 20
25797.70251807032
 30
0.0
 70
     8
  0
VERTEX
  5
797B
330
796C
100
AcDbEntity
  8
D-STR
 62
     4
100
AcDbVertex
100
AcDb2dVertex
 10
27013.88033038715
 20
25808.20002028779
 30
0.0
 70
     8
  0
VERTEX
  5
797C
330
796C
100
AcDbEntity
  8
D-STR
 62
     4
100
AcDbVertex
100
AcDb2dVertex
 10
27020.12422699323
 20
25817.42103751946
 30
0.0
 70
     8
  0
VERTEX
  5
797D
330
796C
100
AcDbEntity
  8
D-STR
 62
     4
100
AcDbVertex
100
AcDb2dVertex
 10
27027.97599396996
 20
25824.96358278086
 30
0.0
 70
     8
  0
VERTEX
  5
797E
330
796C
100
AcDbEntity
  8
D-STR
 62
     4
100
AcDbVertex
100
AcDb2dVertex
 10
27037.45024832072
 20
25830.4256690875
 30
0.0
 70
     8
  0
VERTEX
  5
797F
330
796C
100
AcDbEntity
  8
D-STR
 62
     4
100
AcDbVertex
100
AcDb2dVertex
 10
27048.49948478456
 20
25833.51285860426
 30
0.0
 70
     8
  0
VERTEX
  5
7980
330
796C
100
AcDbEntity
  8
D-STR
 62
     4
100
AcDbVertex
100
AcDb2dVertex
 10
27060.82770904325
 20
25834.36091009345
 30
0.0
 70
     8
  0
VERTEX
  5
7981
330
796C
100
AcDbEntity
  8
D-STR
 62
     4
100
AcDbVertex
100
AcDb2dVertex
 10
27074.07680451423
 20
25833.21313146671
 30
0.0
 70
     8
  0
VERTEX
  5
7982
330
796C
100
AcDbEntity
  8
D-STR
 62
     4
100
AcDbVertex
100
AcDb2dVertex
 10
27087.88865461494
 20
25830.31283063572
 30
0.0
 70
     8
  0
VERTEX
  5
7983
330
796C
100
AcDbEntity
  8
D-STR
 62
     4
100
AcDbVertex
100
AcDb2dVertex
 10
27101.90514276282
 20
25825.90331551212
 30
0.0
 70
     8
  0
VERTEX
  5
7984
330
796C
100
AcDbEntity
  8
D-STR
 62
     4
100
AcDbVertex
100
AcDb2dVertex
 10
27115.76815237532
 20
25820.22789400758
 30
0.0
 70
     8
  0
VERTEX
  5
7985
330
796C
100
AcDbEntity
  8
D-STR
 62
     4
100
AcDbVertex
100
AcDb2dVertex
 10
27129.11956686989
 20
25813.52987403375
 30
0.0
 70
     8
  0
VERTEX
  5
7986
330
796C
100
AcDbEntity
  8
D-STR
 62
     4
100
AcDbVertex
100
AcDb2dVertex
 10
27141.60126966395
 20
25806.05256350229
 30
0.0
 70
     8
  0
VERTEX
  5
7987
330
796C
100
AcDbEntity
  8
D-STR
 62
     4
100
AcDbVertex
100
AcDb2dVertex
 10
27152.87219734557
 20
25798.01752541488
 30
0.0
 70
     8
  0
VERTEX
  5
7988
330
796C
100
AcDbEntity
  8
D-STR
 62
     4
100
AcDbVertex
100
AcDb2dVertex
 10
27162.65949918517
 20
25789.55934313328
 30
0.0
 70
     8
  0
VERTEX
  5
7989
330
796C
100
AcDbEntity
  8
D-STR
 62
     4
100
AcDbVertex
100
AcDb2dVertex
 10
27170.70737762377
 20
25780.79085510928
 30
0.0
 70
     8
  0
VERTEX
  5
798A
330
796C
100
AcDbEntity
  8
D-STR
 62
     4
100
AcDbVertex
100
AcDb2dVertex
 10
27176.76003510243
 20
25771.82489979466
 30
0.0
 70
     8
  0
VERTEX
  5
798B
330
796C
100
AcDbEntity
  8
D-STR
 62
     4
100
AcDbVertex
100
AcDb2dVertex
 10
27180.56167406215
 20
25762.7743156412
 30
0.0
 70
     8
  0
VERTEX
  5
798C
330
796C
100
AcDbEntity
  8
D-STR
 62
     4
100
AcDbVertex
100
AcDb2dVertex
 10
27181.85649694398
 20
25753.75194110069
 30
0.0
 70
     8
  0
VERTEX
  5
798D
330
796C
100
AcDbEntity
  8
D-STR
 62
     4
100
AcDbVertex
100
AcDb2dVertex
 10
27180.38870618894
 20
25744.8706146249
 30
0.0
 70
     8
  0
VERTEX
  5
798E
330
796C
100
AcDbEntity
  8
D-STR
 62
     4
100
AcDbVertex
100
AcDb2dVertex
 10
27175.90250423807
 20
25736.24317466563
 30
0.0
 70
     8
  0
VERTEX
  5
798F
330
796C
100
AcDbEntity
  8
D-STR
 62
     4
100
AcDbVertex
100
AcDb2dVertex
 10
27168.28095506441
 20
25727.99597678086
 30
0.0
 70
     8
  0
VERTEX
  5
7990
330
796C
100
AcDbEntity
  8
D-STR
 62
     4
100
AcDbVertex
100
AcDb2dVertex
 10
27157.96256876905
 20
25720.30944495339
 30
0.0
 70
     8
  0
VERTEX
  5
7991
330
796C
100
AcDbEntity
  8
D-STR
 62
     4
100
AcDbVertex
100
AcDb2dVertex
 10
27145.52471698509
 20
25713.37752027221
 30
0.0
 70
     8
  0
VERTEX
  5
7992
330
796C
100
AcDbEntity
  8
D-STR
 62
     4
100
AcDbVertex
100
AcDb2dVertex
 10
27131.54477134563
 20
25707.39414382634
 30
0.0
 70
     8
  0
VERTEX
  5
7993
330
796C
100
AcDbEntity
  8
D-STR
 62
     4
100
AcDbVertex
100
AcDb2dVertex
 10
27116.60010348378
 20
25702.55325670478
 30
0.0
 70
     8
  0
VERTEX
  5
7994
330
796C
100
AcDbEntity
  8
D-STR
 62
     4
100
AcDbVertex
100
AcDb2dVertex
 10
27101.26808503263
 20
25699.04879999653
 30
0.0
 70
     8
  0
VERTEX
  5
7995
330
796C
100
AcDbEntity
  8
D-STR
 62
     4
100
AcDbVertex
100
AcDb2dVertex
 10
27086.12608762528
 20
25697.07471479059
 30
0.0
 70
     8
  0
VERTEX
  5
7996
330
796C
100
AcDbEntity
  8
D-STR
 62
     4
100
AcDbVertex
100
AcDb2dVertex
 10
27057.40733025475
 20
25676.36356958591
 30
0.0
 70
    16
  0
VERTEX
  5
7997
330
796C
100
AcDbEntity
  8
D-STR
 62
     4
100
AcDbVertex
100
AcDb2dVertex
 10
26990.05217872739
 20
25743.16393304168
 30
0.0
 70
    16
  0
VERTEX
  5
7998
330
796C
100
AcDbEntity
  8
D-STR
 62
     4
100
AcDbVertex
100
AcDb2dVertex
 10
27019.98780162844
 20
25856.90509243934
 30
0.0
 70
    16
  0
VERTEX
  5
7999
330
796C
100
AcDbEntity
  8
D-STR
 62
     4
100
AcDbVertex
100
AcDb2dVertex
 10
27154.69810468316
 20
25811.76971172598
 30
0.0
 70
    16
  0
SEQEND
  5
799A
330
796C
100
AcDbEntity
  8
D-STR
 62
     4
  0
LWPOLYLINE
  5
799B
330
17
100
AcDbEntity
  8
D-STR
 62
     4
100
AcDbPolyline
 90
       29
 70
     1
 43
0.0
 10
27070.36642379625
 20
26440.70743381613
 10
27084.38828403426
 20
26433.57304910982
 10
27106.27298380778
 20
26430.85645700154
 10
27133.60290992041
 20
26429.76315513834
 10
27153.06142535194
 20
26431.62511503718
 10
27166.1374306129
 20
26435.93646685407
 10
27174.31982621382
 20
26442.19134074506
 10
27179.09751266524
 20
26449.88386686614
 10
27181.95939047767
 20
26458.50817537337
 10
27184.39436016166
 20
26467.55839642274
 10
27187.50100664938
 20
26476.74375543057
 10
27190.81665255961
 20
26486.63385885422
 10
27193.48830493278
 20
26498.01340841136
 10
27194.6629708093
 20
26511.66710581963
 10
27193.48765722962
 20
26528.37965279667
 10
27189.10937123416
 20
26548.93575106015
 10
27180.67511986335
 20
26574.1201023277
 10
27174.15942795768
 20
26589.06123143876
 10
27159.33720140784
 20
26599.05012537819
 10
27150.03355705446
 20
26602.63297085948
 10
27135.40072871645
 20
26595.40140846631
 10
27120.1827524755
 20
26587.88066523457
 10
27104.75512061843
 20
26576.85725400136
 10
27094.47799927148
 20
26563.76609459351
 10
27081.66452199395
 20
26549.42151641906
 10
27072.22277396506
 20
26526.78871672726
 10
27062.6086273681
 20
26491.97602507487
 10
27061.64482455862
 20
26470.03746467357
 10
27064.83596101084
 20
26447.49964994808
  0
POLYLINE
  5
799C
330
17
100
AcDbEntity
  8
D-STR
 62
     4
100
AcDb2dPolyline
 66
     1
 10
0.0
 20
0.0
 30
0.0
 70
     3
  0
VERTEX
  5
799D
330
799C
100
AcDbEntity
  8
D-STR
 62
     4
100
AcDbVertex
100
AcDb2dVertex
 10
27286.42234363392
 20
26227.75056009759
 30
0.0
 42
0.1230798565025885
  0
VERTEX
  5
799E
330
799C
100
AcDbEntity
  8
D-STR
 62
     4
100
AcDbVertex
100
AcDb2dVertex
 10
27251.98045636346
 20
26221.50891453581
 30
0.0
 42
-0.1217727921520663
 70
     1
  0
VERTEX
  5
799F
330
799C
100
AcDbEntity
  8
D-STR
 62
     4
100
AcDbVertex
100
AcDb2dVertex
 10
27217.19621567524
 20
26215.11265349785
 30
0.0
 42
-0.1353696037646536
  0
VERTEX
  5
79A0
330
799C
100
AcDbEntity
  8
D-STR
 62
     4
100
AcDbVertex
100
AcDb2dVertex
 10
27181.81729305961
 20
26227.21513900306
 30
0.0
 42
0.1905954263729087
 70
     1
  0
VERTEX
  5
79A1
330
799C
100
AcDbEntity
  8
D-STR
 62
     4
100
AcDbVertex
100
AcDb2dVertex
 10
27155.45399344183
 20
26233.16680578319
 30
0.0
 42
0.109572187307289
  0
VERTEX
  5
79A2
330
799C
100
AcDbEntity
  8
D-STR
 62
     4
100
AcDbVertex
100
AcDb2dVertex
 10
27136.25045315832
 20
26225.65402988332
 30
0.0
 42
0.070090872943111
 70
     1
  0
VERTEX
  5
79A3
330
799C
100
AcDbEntity
  8
D-STR
 62
     4
100
AcDbVertex
100
AcDb2dVertex
 10
27112.42153552157
 20
26204.28016212665
 30
0.0
 42
0.0768353295912466
  0
VERTEX
  5
79A4
330
799C
100
AcDbEntity
  8
D-STR
 62
     4
100
AcDbVertex
100
AcDb2dVertex
 10
27093.13975178706
 20
26172.57052329183
 30
0.0
 42
0.2212820547336836
 70
     1
  0
VERTEX
  5
79A5
330
799C
100
AcDbEntity
  8
D-STR
 62
     4
100
AcDbVertex
100
AcDb2dVertex
 10
27093.71177120841
 20
26159.14478141329
 30
0.0
 42
0.0568354873133306
  0
VERTEX
  5
79A6
330
799C
100
AcDbEntity
  8
D-STR
 62
     4
100
AcDbVertex
100
AcDb2dVertex
 10
27102.64724156482
 20
26145.84763714957
 30
0.0
 42
0.0179772321228965
 70
     1
  0
VERTEX
  5
79A7
330
799C
100
AcDbEntity
  8
D-STR
 62
     4
100
AcDbVertex
100
AcDb2dVertex
 10
27136.74422912868
 20
26108.59315501433
 30
0.0
 42
0.0120734006030472
  0
VERTEX
  5
79A8
330
799C
100
AcDbEntity
  8
D-STR
 62
     4
100
AcDbVertex
100
AcDb2dVertex
 10
27165.9137481011
 20
26080.33522298637
 30
0.0
 42
0.0272762331401685
 70
     1
  0
VERTEX
  5
79A9
330
799C
100
AcDbEntity
  8
D-STR
 62
     4
100
AcDbVertex
100
AcDb2dVertex
 10
27179.77668704893
 20
26068.87401998658
 30
0.0
 42
0.1604310934650595
  0
VERTEX
  5
79AA
330
799C
100
AcDbEntity
  8
D-STR
 62
     4
100
AcDbVertex
100
AcDb2dVertex
 10
27203.94099447693
 20
26060.91577712446
 30
0.0
 42
0.055669949528555
 70
     1
  0
VERTEX
  5
79AB
330
799C
100
AcDbEntity
  8
D-STR
 62
     4
100
AcDbVertex
100
AcDb2dVertex
 10
27275.19648504602
 20
26068.87401998658
 30
0.0
 42
0.0477607568076024
  0
VERTEX
  5
79AC
330
799C
100
AcDbEntity
  8
D-STR
 62
     4
100
AcDbVertex
100
AcDb2dVertex
 10
27311.8657638667
 20
26080.94039382875
 30
0.0
 42
0.0631954541493726
 70
     1
  0
VERTEX
  5
79AD
330
799C
100
AcDbEntity
  8
D-STR
 62
     4
100
AcDbVertex
100
AcDb2dVertex
 10
27336.93870727944
 20
26095.95524841459
 30
0.0
 42
0.1816505395641876
  0
VERTEX
  5
79AE
330
799C
100
AcDbEntity
  8
D-STR
 62
     4
100
AcDbVertex
100
AcDb2dVertex
 10
27356.3119041253
 20
26127.86659137544
 30
0.0
 42
0.1402414571117256
 70
     1
  0
VERTEX
  5
79AF
330
799C
100
AcDbEntity
  8
D-STR
 62
     4
100
AcDbVertex
100
AcDb2dVertex
 10
27351.90651872996
 20
26175.3935184701
 30
0.0
 42
0.1320708972063635
  0
VERTEX
  5
79B0
330
799C
100
AcDbEntity
  8
D-STR
 62
     4
100
AcDbVertex
100
AcDb2dVertex
 10
27324.20310657002
 20
26213.09440744846
 30
0.0
 42
0.1533881919633925
 70
     1
  0
SEQEND
  5
79B1
330
799C
100
AcDbEntity
  8
D-STR
 62
     4
  0
POLYLINE
  5
79B2
330
17
100
AcDbEntity
  8
D-STR
 62
     4
100
AcDb2dPolyline
 66
     1
 10
0.0
 20
0.0
 30
0.0
 70
     5
 75
     6
  0
VERTEX
  5
79B3
330
79B2
100
AcDbEntity
  8
D-STR
 62
     4
100
AcDbVertex
100
AcDb2dVertex
 10
27205.05357696706
 20
26456.25339175893
 30
0.0
 70
    16
  0
VERTEX
  5
79B4
330
79B2
100
AcDbEntity
  8
D-STR
 62
     4
100
AcDbVertex
100
AcDb2dVertex
 10
27212.95626366279
 20
26369.7528847276
 30
0.0
 70
     8
  0
VERTEX
  5
79B5
330
79B2
100
AcDbEntity
  8
D-STR
 62
     4
100
AcDbVertex
100
AcDb2dVertex
 10
27214.8998849148
 20
26359.20362932189
 30
0.0
 70
     8
  0
VERTEX
  5
79B6
330
79B2
100
AcDbEntity
  8
D-STR
 62
     4
100
AcDbVertex
100
AcDb2dVertex
 10
27217.20401263674
 20
26348.83037332108
 30
0.0
 70
     8
  0
VERTEX
  5
79B7
330
79B2
100
AcDbEntity
  8
D-STR
 62
     4
100
AcDbVertex
100
AcDb2dVertex
 10
27219.93058629738
 20
26338.73112455036
 30
0.0
 70
     8
  0
VERTEX
  5
79B8
330
79B2
100
AcDbEntity
  8
D-STR
 62
     4
100
AcDbVertex
100
AcDb2dVertex
 10
27223.1415453655
 20
26329.00389083495
 30
0.0
 70
     8
  0
VERTEX
  5
79B9
330
79B2
100
AcDbEntity
  8
D-STR
 62
     4
100
AcDbVertex
100
AcDb2dVertex
 10
27226.89882930988
 20
26319.74668000004
 30
0.0
 70
     8
  0
VERTEX
  5
79BA
330
79B2
100
AcDbEntity
  8
D-STR
 62
     4
100
AcDbVertex
100
AcDb2dVertex
 10
27231.26437759932
 20
26311.05749987084
 30
0.0
 70
     8
  0
VERTEX
  5
79BB
330
79B2
100
AcDbEntity
  8
D-STR
 62
     4
100
AcDbVertex
100
AcDb2dVertex
 10
27236.3001297026
 20
26303.03435827255
 30
0.0
 70
     8
  0
VERTEX
  5
79BC
330
79B2
100
AcDbEntity
  8
D-STR
 62
     4
100
AcDbVertex
100
AcDb2dVertex
 10
27242.06802508849
 20
26295.77526303039
 30
0.0
 70
     8
  0
VERTEX
  5
79BD
330
79B2
100
AcDbEntity
  8
D-STR
 62
     4
100
AcDbVertex
100
AcDb2dVertex
 10
27248.60485599898
 20
26289.41394809048
 30
0.0
 70
     8
  0
VERTEX
  5
79BE
330
79B2
100
AcDbEntity
  8
D-STR
 62
     4
100
AcDbVertex
100
AcDb2dVertex
 10
27255.84682576889
 20
26284.22705188264
 30
0.0
 70
     8
  0
VERTEX
  5
79BF
330
79B2
100
AcDbEntity
  8
D-STR
 62
     4
100
AcDbVertex
100
AcDb2dVertex
 10
27263.70499050622
 20
26280.52693895764
 30
0.0
 70
     8
  0
VERTEX
  5
79C0
330
79B2
100
AcDbEntity
  8
D-STR
 62
     4
100
AcDbVertex
100
AcDb2dVertex
 10
27272.09040631898
 20
26278.62597386623
 30
0.0
 70
     8
  0
VERTEX
  5
79C1
330
79B2
100
AcDbEntity
  8
D-STR
 62
     4
100
AcDbVertex
100
AcDb2dVertex
 10
27280.9141293152
 20
26278.83652115915
 30
0.0
 70
     8
  0
VERTEX
  5
79C2
330
79B2
100
AcDbEntity
  8
D-STR
 62
     4
100
AcDbVertex
100
AcDb2dVertex
 10
27290.08721560287
 20
26281.47094538718
 30
0.0
 70
     8
  0
VERTEX
  5
79C3
330
79B2
100
AcDbEntity
  8
D-STR
 62
     4
100
AcDbVertex
100
AcDb2dVertex
 10
27299.52072129002
 20
26286.84161110106
 30
0.0
 70
     8
  0
VERTEX
  5
79C4
330
79B2
100
AcDbEntity
  8
D-STR
 62
     4
100
AcDbVertex
100
AcDb2dVertex
 10
27309.12570248464
 20
26295.26088285155
 30
0.0
 70
     8
  0
VERTEX
  5
79C5
330
79B2
100
AcDbEntity
  8
D-STR
 62
     4
100
AcDbVertex
100
AcDb2dVertex
 10
27318.78371872272
 20
26306.89306951901
 30
0.0
 70
     8
  0
VERTEX
  5
79C6
330
79B2
100
AcDbEntity
  8
D-STR
 62
     4
100
AcDbVertex
100
AcDb2dVertex
 10
27328.25834325203
 20
26321.31025730224
 30
0.0
 70
     8
  0
VERTEX
  5
79C7
330
79B2
100
AcDbEntity
  8
D-STR
 62
     4
100
AcDbVertex
100
AcDb2dVertex
 10
27337.28365274831
 20
26337.93647672963
 30
0.0
 70
     8
  0
VERTEX
  5
79C8
330
79B2
100
AcDbEntity
  8
D-STR
 62
     4
100
AcDbVertex
100
AcDb2dVertex
 10
27345.59372388731
 20
26356.19575832958
 30
0.0
 70
     8
  0
VERTEX
  5
79C9
330
79B2
100
AcDbEntity
  8
D-STR
 62
     4
100
AcDbVertex
100
AcDb2dVertex
 10
27352.92263334477
 20
26375.51213263049
 30
0.0
 70
     8
  0
VERTEX
  5
79CA
330
79B2
100
AcDbEntity
  8
D-STR
 62
     4
100
AcDbVertex
100
AcDb2dVertex
 10
27359.00445779642
 20
26395.30963016078
 30
0.0
 70
     8
  0
VERTEX
  5
79CB
330
79B2
100
AcDbEntity
  8
D-STR
 62
     4
100
AcDbVertex
100
AcDb2dVertex
 10
27363.57327391802
 20
26415.01228144881
 30
0.0
 70
     8
  0
VERTEX
  5
79CC
330
79B2
100
AcDbEntity
  8
D-STR
 62
     4
100
AcDbVertex
100
AcDb2dVertex
 10
27366.36315838528
 20
26434.04411702301
 30
0.0
 70
     8
  0
VERTEX
  5
79CD
330
79B2
100
AcDbEntity
  8
D-STR
 62
     4
100
AcDbVertex
100
AcDb2dVertex
 10
27367.1900909364
 20
26451.92703849942
 30
0.0
 70
     8
  0
VERTEX
  5
79CE
330
79B2
100
AcDbEntity
  8
D-STR
 62
     4
100
AcDbVertex
100
AcDb2dVertex
 10
27366.19766355922
 20
26468.57443184463
 30
0.0
 70
     8
  0
VERTEX
  5
79CF
330
79B2
100
AcDbEntity
  8
D-STR
 62
     4
100
AcDbVertex
100
AcDb2dVertex
 10
27363.61137130404
 20
26483.99755411287
 30
0.0
 70
     8
  0
VERTEX
  5
79D0
330
79B2
100
AcDbEntity
  8
D-STR
 62
     4
100
AcDbVertex
100
AcDb2dVertex
 10
27359.65670922114
 20
26498.20766235839
 30
0.0
 70
     8
  0
VERTEX
  5
79D1
330
79B2
100
AcDbEntity
  8
D-STR
 62
     4
100
AcDbVertex
100
AcDb2dVertex
 10
27354.55917236082
 20
26511.21601363542
 30
0.0
 70
     8
  0
VERTEX
  5
79D2
330
79B2
100
AcDbEntity
  8
D-STR
 62
     4
100
AcDbVertex
100
AcDb2dVertex
 10
27348.54425577335
 20
26523.0338649982
 30
0.0
 70
     8
  0
VERTEX
  5
79D3
330
79B2
100
AcDbEntity
  8
D-STR
 62
     4
100
AcDbVertex
100
AcDb2dVertex
 10
27341.83745450903
 20
26533.67247350098
 30
0.0
 70
     8
  0
VERTEX
  5
79D4
330
79B2
100
AcDbEntity
  8
D-STR
 62
     4
100
AcDbVertex
100
AcDb2dVertex
 10
27334.66426361814
 20
26543.14309619798
 30
0.0
 70
     8
  0
VERTEX
  5
79D5
330
79B2
100
AcDbEntity
  8
D-STR
 62
     4
100
AcDbVertex
100
AcDb2dVertex
 10
27327.23025822231
 20
26551.44350028443
 30
0.0
 70
     8
  0
VERTEX
  5
79D6
330
79B2
100
AcDbEntity
  8
D-STR
 62
     4
100
AcDbVertex
100
AcDb2dVertex
 10
27319.66133372843
 20
26558.51749351955
 30
0.0
 70
     8
  0
VERTEX
  5
79D7
330
79B2
100
AcDbEntity
  8
D-STR
 62
     4
100
AcDbVertex
100
AcDb2dVertex
 10
27312.06346561472
 20
26564.29539380351
 30
0.0
 70
     8
  0
VERTEX
  5
79D8
330
79B2
100
AcDbEntity
  8
D-STR
 62
     4
100
AcDbVertex
100
AcDb2dVertex
 10
27304.54262935941
 20
26568.70751903651
 30
0.0
 70
     8
  0
VERTEX
  5
79D9
330
79B2
100
AcDbEntity
  8
D-STR
 62
     4
100
AcDbVertex
100
AcDb2dVertex
 10
27297.20480044075
 20
26571.68418711874
 30
0.0
 70
     8
  0
VERTEX
  5
79DA
330
79B2
100
AcDbEntity
  8
D-STR
 62
     4
100
AcDbVertex
100
AcDb2dVertex
 10
27290.15595433693
 20
26573.15571595039
 30
0.0
 70
     8
  0
VERTEX
  5
79DB
330
79B2
100
AcDbEntity
  8
D-STR
 62
     4
100
AcDbVertex
100
AcDb2dVertex
 10
27283.50206652621
 20
26573.05242343165
 30
0.0
 70
     8
  0
VERTEX
  5
79DC
330
79B2
100
AcDbEntity
  8
D-STR
 62
     4
100
AcDbVertex
100
AcDb2dVertex
 10
27277.3491124868
 20
26571.3046274627
 30
0.0
 70
     8
  0
VERTEX
  5
79DD
330
79B2
100
AcDbEntity
  8
D-STR
 62
     4
100
AcDbVertex
100
AcDb2dVertex
 10
27271.76924898802
 20
26567.89578705864
 30
0.0
 70
     8
  0
VERTEX
  5
79DE
330
79B2
100
AcDbEntity
  8
D-STR
 62
     4
100
AcDbVertex
100
AcDb2dVertex
 10
27266.69935796362
 20
26563.02192569401
 30
0.0
 70
     8
  0
VERTEX
  5
79DF
330
79B2
100
AcDbEntity
  8
D-STR
 62
     4
100
AcDbVertex
100
AcDb2dVertex
 10
27262.0425026384
 20
26556.9322079583
 30
0.0
 70
     8
  0
VERTEX
  5
79E0
330
79B2
100
AcDbEntity
  8
D-STR
 62
     4
100
AcDbVertex
100
AcDb2dVertex
 10
27257.7017462372
 20
26549.87579844093
 30
0.0
 70
     8
  0
VERTEX
  5
79E1
330
79B2
100
AcDbEntity
  8
D-STR
 62
     4
100
AcDbVertex
100
AcDb2dVertex
 10
27253.58015198484
 20
26542.10186173137
 30
0.0
 70
     8
  0
VERTEX
  5
79E2
330
79B2
100
AcDbEntity
  8
D-STR
 62
     4
100
AcDbVertex
100
AcDb2dVertex
 10
27249.58078310614
 20
26533.85956241909
 30
0.0
 70
     8
  0
VERTEX
  5
79E3
330
79B2
100
AcDbEntity
  8
D-STR
 62
     4
100
AcDbVertex
100
AcDb2dVertex
 10
27245.60670282594
 20
26525.39806509352
 30
0.0
 70
     8
  0
VERTEX
  5
79E4
330
79B2
100
AcDbEntity
  8
D-STR
 62
     4
100
AcDbVertex
100
AcDb2dVertex
 10
27241.56097436905
 20
26516.96653434412
 30
0.0
 70
     8
  0
VERTEX
  5
79E5
330
79B2
100
AcDbEntity
  8
D-STR
 62
     4
100
AcDbVertex
100
AcDb2dVertex
 10
27237.38033435701
 20
26508.75715776226
 30
0.0
 70
     8
  0
VERTEX
  5
79E6
330
79B2
100
AcDbEntity
  8
D-STR
 62
     4
100
AcDbVertex
100
AcDb2dVertex
 10
27233.13621299825
 20
26500.73421494695
 30
0.0
 70
     8
  0
VERTEX
  5
79E7
330
79B2
100
AcDbEntity
  8
D-STR
 62
     4
100
AcDbVertex
100
AcDb2dVertex
 10
27228.93371389788
 20
26492.8050084991
 30
0.0
 70
     8
  0
VERTEX
  5
79E8
330
79B2
100
AcDbEntity
  8
D-STR
 62
     4
100
AcDbVertex
100
AcDb2dVertex
 10
27224.87794066102
 20
26484.87684101964
 30
0.0
 70
     8
  0
VERTEX
  5
79E9
330
79B2
100
AcDbEntity
  8
D-STR
 62
     4
100
AcDbVertex
100
AcDb2dVertex
 10
27221.07399689281
 20
26476.85701510948
 30
0.0
 70
     8
  0
VERTEX
  5
79EA
330
79B2
100
AcDbEntity
  8
D-STR
 62
     4
100
AcDbVertex
100
AcDb2dVertex
 10
27217.62698619837
 20
26468.65283336955
 30
0.0
 70
     8
  0
VERTEX
  5
79EB
330
79B2
100
AcDbEntity
  8
D-STR
 62
     4
100
AcDbVertex
100
AcDb2dVertex
 10
27214.64201218283
 20
26460.17159840075
 30
0.0
 70
     8
  0
VERTEX
  5
79EC
330
79B2
100
AcDbEntity
  8
D-STR
 62
     4
100
AcDbVertex
100
AcDb2dVertex
 10
27212.22417845131
 20
26451.32061280401
 30
0.0
 70
     8
  0
VERTEX
  5
79ED
330
79B2
100
AcDbEntity
  8
D-STR
 62
     4
100
AcDbVertex
100
AcDb2dVertex
 10
27210.45328640624
 20
26442.03388790524
 30
0.0
 70
     8
  0
VERTEX
  5
79EE
330
79B2
100
AcDbEntity
  8
D-STR
 62
     4
100
AcDbVertex
100
AcDb2dVertex
 10
27209.30792863932
 20
26432.35226993028
 30
0.0
 70
     8
  0
VERTEX
  5
79EF
330
79B2
100
AcDbEntity
  8
D-STR
 62
     4
100
AcDbVertex
100
AcDb2dVertex
 10
27208.74139553955
 20
26422.34331382997
 30
0.0
 70
     8
  0
VERTEX
  5
79F0
330
79B2
100
AcDbEntity
  8
D-STR
 62
     4
100
AcDbVertex
100
AcDb2dVertex
 10
27208.70697749592
 20
26412.07457455515
 30
0.0
 70
     8
  0
VERTEX
  5
79F1
330
79B2
100
AcDbEntity
  8
D-STR
 62
     4
100
AcDbVertex
100
AcDb2dVertex
 10
27209.15796489743
 20
26401.61360705666
 30
0.0
 70
     8
  0
VERTEX
  5
79F2
330
79B2
100
AcDbEntity
  8
D-STR
 62
     4
100
AcDbVertex
100
AcDb2dVertex
 10
27210.04764813308
 20
26391.02796628535
 30
0.0
 70
     8
  0
VERTEX
  5
79F3
330
79B2
100
AcDbEntity
  8
D-STR
 62
     4
100
AcDbVertex
100
AcDb2dVertex
 10
27211.32931759187
 20
26380.38520719205
 30
0.0
 70
     8
  0
VERTEX
  5
79F4
330
79B2
100
AcDbEntity
  8
D-STR
 62
     4
100
AcDbVertex
100
AcDb2dVertex
 10
27209.77154898403
 20
26368.92097454426
 30
0.0
 70
    16
  0
VERTEX
  5
79F5
330
79B2
100
AcDbEntity
  8
D-STR
 62
     4
100
AcDbVertex
100
AcDb2dVertex
 10
27233.59780907355
 20
26286.5800184296
 30
0.0
 70
    16
  0
VERTEX
  5
79F6
330
79B2
100
AcDbEntity
  8
D-STR
 62
     4
100
AcDbVertex
100
AcDb2dVertex
 10
27308.24536525271
 20
26259.41052991967
 30
0.0
 70
    16
  0
VERTEX
  5
79F7
330
79B2
100
AcDbEntity
  8
D-STR
 62
     4
100
AcDbVertex
100
AcDb2dVertex
 10
27388.17494482348
 20
26447.34315900102
 30
0.0
 70
    16
  0
VERTEX
  5
79F8
330
79B2
100
AcDbEntity
  8
D-STR
 62
     4
100
AcDbVertex
100
AcDb2dVertex
 10
27337.23380576508
 20
26555.48153621435
 30
0.0
 70
    16
  0
VERTEX
  5
79F9
330
79B2
100
AcDbEntity
  8
D-STR
 62
     4
100
AcDbVertex
100
AcDb2dVertex
 10
27270.87541382504
 20
26589.58927332945
 30
0.0
 70
    16
  0
VERTEX
  5
79FA
330
79B2
100
AcDbEntity
  8
D-STR
 62
     4
100
AcDbVertex
100
AcDb2dVertex
 10
27243.35921385555
 20
26513.98913524408
 30
0.0
 70
    16
  0
SEQEND
  5
79FB
330
79B2
100
AcDbEntity
  8
D-STR
 62
     4
  0
DIMENSION
  5
79FC
330
17
100
AcDbEntity
  8
D-STR-DIM
100
AcDbDimension
  2
*D12
 10
27400.89203615766
 20
26975.98306132312
 30
0.0
 11
26901.39203615766
 21
27090.98306132312
 31
0.0
 70
    32
  1
1000
 71
     5
 42
999.0
  3
S-50
100
AcDbAlignedDimension
 13
26401.89203615766
 23
26650.96429957705
 33
0.0
 14
27400.89203615766
 24
26650.96429957705
 34
0.0
100
AcDbRotatedDimension
  0
DIMENSION
  5
79FD
330
17
100
AcDbEntity
  8
D-STR-DIM
100
AcDbDimension
  2
*D13
 10
26100.8877411523
 20
26650.96429957705
 30
0.0
 11
25985.88774115229
 21
26151.46429957706
 31
0.0
 70
    32
  1
1000
 71
     5
 42
999.0000000000036
  3
S-50
100
AcDbAlignedDimension
 13
26401.89203615766
 23
25651.96429957704
 33
0.0
 14
26401.89203615766
 24
26650.96429957705
 34
0.0
 50
90.0
100
AcDbRotatedDimension
  0
LINE
  5
79FE
330
17
100
AcDbEntity
  8
D-STR
 62
     4
100
AcDbLine
 10
28087.04435104379
 20
25701.96429957705
 30
0.0
 11
28191.04435104379
 21
25701.96429957705
 31
0.0
  0
LINE
  5
79FF
330
17
100
AcDbEntity
  8
D-STR
 62
     4
100
AcDbLine
 10
28071.04435104379
 20
25708.59171657502
 30
0.0
 11
28087.04435104379
 21
25701.96429957705
 31
0.0
  0
TEXT
  5
7A00
330
17
100
AcDbEntity
  8
D-STR-DIM
100
AcDbText
 10
26576.29320707198
 20
29842.69812794033
 30
0.0
 40
200.0
  1
[滑面模様]
  7
ＭＳ ゴシック
100
AcDbText
  0
TEXT
  5
7A01
330
17
100
AcDbEntity
  8
D-STR-DIM
100
AcDbText
 10
26576.29320707198
 20
27384.65580004214
 30
0.0
 40
200.0
  1
[玉石模様]
  7
ＭＳ ゴシック
100
AcDbText
  0
LWPOLYLINE
  5
7A02
330
17
100
AcDbEntity
  8
D-STR
100
AcDbPolyline
 90
        4
 70
     1
 43
0.0
 10
34882.31650946532
 20
27868.06547778512
 10
35776.74370046524
 20
28315.27907328507
 10
35843.82573979023
 20
28181.11499463509
 10
34949.39854879032
 20
27733.90139913513
  0
LWPOLYLINE
  5
7A03
330
17
100
AcDbEntity
  8
D-STR
100
AcDbPolyline
 90
        4
 70
     1
 43
0.0
 10
35776.74370046524
 20
28315.27907328507
 10
36671.17089146515
 20
28762.49266878503
 10
36738.25293079015
 20
28628.32859013504
 10
35843.82573979023
 20
28181.11499463509
  0
LINE
  5
7A04
330
17
100
AcDbEntity
  8
D-STR-DIM
100
AcDbLine
 10
36671.17089146515
 20
28762.49266878503
 30
0.0
 11
38305.402276131
 21
28762.49266878503
 31
0.0
  0
LINE
  5
7A05
330
17
100
AcDbEntity
  8
D-STR-DIM
100
AcDbLine
 10
34882.31650946532
 20
27868.06547778512
 30
0.0
 11
31433.85192800721
 21
27868.06547778512
 31
0.0
  0
TEXT
  5
7A06
330
17
100
AcDbEntity
  8
D-STR-DIM
100
AcDbText
 10
33397.41886220159
 20
27894.85246625927
 30
0.0
 40
150.0
  1
H.W.L
  7
ＭＳ ゴシック
100
AcDbText
  0
LINE
  5
7A07
330
17
100
AcDbEntity
  8
D-STR-DIM
100
AcDbLine
 10
33158.08421873627
 20
27868.06547778512
 30
0.0
 11
33235.12068459934
 21
28001.49655069551
 31
0.0
  0
LINE
  5
7A08
330
17
100
AcDbEntity
  8
D-STR-DIM
100
AcDbLine
 10
33235.12068459934
 20
28001.49655069551
 30
0.0
 11
33081.04775287319
 21
28001.49655069551
 31
0.0
  0
LINE
  5
7A09
330
17
100
AcDbEntity
  8
D-STR-DIM
100
AcDbLine
 10
33158.08421873627
 20
27868.06547778512
 30
0.0
 11
33081.04775287319
 21
28001.49655069551
 31
0.0
  0
LINE
  5
7A0A
330
17
100
AcDbEntity
  8
D-STR-DIM
100
AcDbLine
 10
33472.60507072043
 20
27821.22696907432
 30
0.0
 11
32843.5633667521
 21
27821.22696907432
 31
0.0
  0
LINE
  5
7A0B
330
17
100
AcDbEntity
  8
D-STR-DIM
100
AcDbLine
 10
33306.90769804061
 20
27774.38846036351
 30
0.0
 11
33009.26073943193
 21
27774.38846036351
 31
0.0
  0
LINE
  5
7A0C
330
17
100
AcDbEntity
  8
D-STR-DIM
100
AcDbLine
 10
33202.5379823807
 20
27727.54995165271
 30
0.0
 11
33113.63045509183
 21
27727.54995165271
 31
0.0
  0
LINE
  5
7A0D
330
17
100
AcDbEntity
  8
D-STR-DIM
100
AcDbLine
 10
34882.31650946532
 20
27868.06547778512
 30
0.0
 11
34994.1199083403
 21
27644.45868003514
 31
0.0
  0
LINE
  5
7A0E
330
17
100
AcDbEntity
  8
D-STR-STR2
  6
HIDDEN
 48
0.5
100
AcDbLine
 10
33987.8893184654
 20
27420.85188228517
 30
0.0
 11
34099.69271734038
 21
27197.24508453519
 31
0.0
  0
LINE
  5
7A0F
330
17
100
AcDbEntity
  8
D-STR-STR2
  6
HIDDEN
 48
0.5
100
AcDbLine
 10
33093.46212746548
 20
26973.63828678522
 30
0.0
 11
33205.26552634046
 21
26750.03148903525
 31
0.0
  0
TEXT
  5
7A10
330
17
100
AcDbEntity
  8
D-STR-DIM
100
AcDbText
 10
33610.06812487723
 20
28746.50808324034
 30
0.0
 40
150.0
  1
大型平張ブロック
  7
ＭＳ ゴシック
100
AcDbText
  0
LINE
  5
7A11
330
17
100
AcDbEntity
  8
D-STR-DIM
100
AcDbLine
 10
33512.72320939552
 20
28694.9742356457
 30
0.0
 11
35240.08333041619
 21
28694.9742356457
 31
0.0
  0
LEADER
  5
7A12
330
17
100
AcDbEntity
  8
D-STR-DIM
100
AcDbLeader
  3
S-50
 76
     2
 10
35740.6865056505
 20
28249.10396584666
 30
0.0
 10
35240.08333041619
 20
28694.9742356457
 30
0.0
1001
ACAD
1000
DSTYLE
1002
{
1070
   147
1040
0.8
1070
    77
1070
     0
1002
}
  0
DIMENSION
  5
7A13
330
17
100
AcDbEntity
  8
D-STR-DIM
100
AcDbDimension
  2
*D14
 10
36165.35039027091
 20
28341.87731987542
 30
0.0
 11
36350.28569131118
 21
28301.70017136884
 31
0.0
 70
   161
  1
t
 71
     5
 42
150.0000000000018
  3
S-50
100
AcDbAlignedDimension
 13
35776.74370046524
 23
28315.27907328507
 33
0.0
 14
35843.82573979023
 24
28181.11499463509
 34
0.0
  0
TEXT
  5
7AAD
330
17
100
AcDbEntity
  8
D-STR-TXT
100
AcDbText
 10
38234.90246712298
 20
21165.56606907932
 30
0.0
 40
175.0
  1
大型平張ブロック
  7
ＭＳ ゴシック
100
AcDbText
  0
ENDSEC
  0
SECTION
  2
OBJECTS
  0
DICTIONARY
  5
C
330
0
100
AcDbDictionary
281
     1
  3
ACAD_CIP_PREVIOUS_PRODUCT_INFO
350
7B0D
  3
ACAD_COLOR
350
5EB0
  3
ACAD_DETAILVIEWSTYLE
350
7B05
  3
ACAD_GROUP
350
D
  3
ACAD_LAYOUT
350
3A33
  3
ACAD_MATERIAL
350
5EAF
  3
ACAD_MLEADERSTYLE
350
7B01
  3
ACAD_MLINESTYLE
350
1A
  3
ACAD_PLOTSETTINGS
350
3A34
  3
ACAD_PLOTSTYLENAME
350
3A31
  3
ACAD_SCALELIST
350
7AEF
  3
ACAD_SECTIONVIEWSTYLE
350
7B03
  3
ACAD_TABLESTYLE
350
5EB1
  3
ACAD_VISUALSTYLE
350
7AD6
  3
ACDB_RECOMPOSE_DATA
350
7B91
  3
AcDbVariableDictionary
350
3A82
  3
AcDsDecomposeData
350
7B41
  0
DICTIONARY
  5
7B86
330
8
100
AcDbDictionary
280
     1
281
     1
  3
ACAD_XREC_ROUNDTRIP
360
7B87
  0
DICTIONARY
  5
3B1C
330
2
100
AcDbDictionary
280
     1
281
     1
  3
ACAD_LAYERFILTERS
360
69F0
  3
ACAD_LAYERSTATES
360
7B33
  3
ACLYDICTIONARY
360
69EF
  0
DICTIONARY
  5
7B0E
330
E
100
AcDbDictionary
280
     1
281
     1
  3
ADSK_XREC_LAYER_RECONCILED
360
7B0F
  0
DICTIONARY
  5
7B10
330
23
100
AcDbDictionary
280
     1
281
     1
  3
ADSK_XREC_LAYER_RECONCILED
360
7B11
  0
DICTIONARY
  5
7B12
330
25
100
AcDbDictionary
280
     1
281
     1
  3
ADSK_XREC_LAYER_RECONCILED
360
7B13
  0
DICTIONARY
  5
7B14
330
67C7
100
AcDbDictionary
280
     1
281
     1
  3
ADSK_XREC_LAYER_RECONCILED
360
7B15
  0
DICTIONARY
  5
7B16
330
67C9
100
AcDbDictionary
280
     1
281
     1
  3
ADSK_XREC_LAYER_RECONCILED
360
7B17
  0
DICTIONARY
  5
7B18
330
67CA
100
AcDbDictionary
280
     1
281
     1
  3
ADSK_XREC_LAYER_RECONCILED
360
7B19
  0
DICTIONARY
  5
7B1A
330
67CB
100
AcDbDictionary
280
     1
281
     1
  3
ADSK_XREC_LAYER_RECONCILED
360
7B1B
  0
DICTIONARY
  5
7B1C
330
67CC
100
AcDbDictionary
280
     1
281
     1
  3
ADSK_XREC_LAYER_RECONCILED
360
7B1D
  0
DICTIONARY
  5
7B1E
330
69E8
100
AcDbDictionary
280
     1
281
     1
  3
ADSK_XREC_LAYER_RECONCILED
360
7B1F
  0
DICTIONARY
  5
7B20
330
69E9
100
AcDbDictionary
280
     1
281
     1
  3
ADSK_XREC_LAYER_RECONCILED
360
7B21
  0
DICTIONARY
  5
7B22
330
69EA
100
AcDbDictionary
280
     1
281
     1
  3
ADSK_XREC_LAYER_RECONCILED
360
7B23
  0
DICTIONARY
  5
7B24
330
69EB
100
AcDbDictionary
280
     1
281
     1
  3
ADSK_XREC_LAYER_RECONCILED
360
7B25
  0
DICTIONARY
  5
7B26
330
69EC
100
AcDbDictionary
280
     1
281
     1
  3
ADSK_XREC_LAYER_RECONCILED
360
7B27
  0
DICTIONARY
  5
7B28
330
69ED
100
AcDbDictionary
280
     1
281
     1
  3
ADSK_XREC_LAYER_RECONCILED
360
7B29
  0
DICTIONARY
  5
7B2A
330
69EE
100
AcDbDictionary
280
     1
281
     1
  3
ADSK_XREC_LAYER_RECONCILED
360
7B2B
  0
DICTIONARY
  5
7B2C
330
6BF9
100
AcDbDictionary
280
     1
281
     1
  3
ADSK_XREC_LAYER_RECONCILED
360
7B2D
  0
DICTIONARY
  5
7B2E
330
7435
100
AcDbDictionary
280
     1
281
     1
  3
ADSK_XREC_LAYER_RECONCILED
360
7B2F
  0
DICTIONARY
  5
3A7C
330
17
100
AcDbDictionary
280
     1
281
     1
  3
ACAD_SORTENTS
360
5350
  0
XRECORD
  5
7B0D
102
{ACAD_REACTORS
330
C
102
}
330
C
100
AcDbXrecord
280
     1
300
ACD
300
2014
300
ACD_F_S
  0
DICTIONARY
  5
5EB0
102
{ACAD_REACTORS
330
C
102
}
330
C
100
AcDbDictionary
281
     1
  0
DICTIONARY
  5
7B05
102
{ACAD_REACTORS
330
C
102
}
330
C
100
AcDbDictionary
281
     1
  3
Imperial24
350
7B06
  0
DICTIONARY
  5
D
102
{ACAD_REACTORS
330
C
102
}
330
C
100
AcDbDictionary
281
     1
  0
DICTIONARY
  5
3A33
102
{ACAD_REACTORS
330
C
102
}
330
C
100
AcDbDictionary
281
     1
  3
Model
350
3A35
  3
ﾚｲｱｳﾄ1
350
3A36
  0
DICTIONARY
  5
5EAF
102
{ACAD_REACTORS
330
C
102
}
330
C
100
AcDbDictionary
281
     1
  3
ByBlock
350
7AC6
  3
ByLayer
350
7ABE
  3
Global
350
7ACE
  0
DICTIONARY
  5
7B01
102
{ACAD_REACTORS
330
C
102
}
330
C
100
AcDbDictionary
281
     1
  3
Standard
350
7B02
  0
DICTIONARY
  5
1A
102
{ACAD_REACTORS
330
C
102
}
330
C
100
AcDbDictionary
281
     1
  3
STANDARD
350
1B
  0
DICTIONARY
  5
3A34
102
{ACAD_REACTORS
330
C
102
}
330
C
100
AcDbDictionary
281
     1
  0
ACDBDICTIONARYWDFLT
  5
3A31
102
{ACAD_REACTORS
330
C
102
}
330
C
100
AcDbDictionary
281
     1
  3
Normal
350
3A32
100
AcDbDictionaryWithDefault
340
3A32
  0
DICTIONARY
  5
7AEF
102
{ACAD_REACTORS
330
C
102
}
330
C
100
AcDbDictionary
281
     1
  3
A0
350
7AF0
  3
A1
350
7AF1
  3
A2
350
7AF2
  3
A3
350
7AF3
  3
A4
350
7AF4
  3
A5
350
7AF5
  3
A6
350
7AF6
  3
A7
350
7AF7
  3
A8
350
7AF8
  3
A9
350
7AF9
  3
B0
350
7AFA
  3
B1
350
7AFB
  3
B2
350
7AFC
  3
B3
350
7AFD
  3
B4
350
7AFE
  3
B5
350
7AFF
  3
B6
350
7B00
  0
DICTIONARY
  5
7B03
102
{ACAD_REACTORS
330
C
102
}
330
C
100
AcDbDictionary
281
     1
  3
Imperial24
350
7B04
  0
DICTIONARY
  5
5EB1
102
{ACAD_REACTORS
330
C
102
}
330
C
100
AcDbDictionary
281
     1
  3
Standard
350
5EB2
  0
DICTIONARY
  5
7AD6
102
{ACAD_REACTORS
330
C
102
}
330
C
100
AcDbDictionary
281
     1
  3
2dWireframe
350
7ADC
  3
Basic
350
7ADB
  3
Brighten
350
7AE2
  3
ColorChange
350
7AE6
  3
Conceptual
350
7ADF
  3
Dim
350
7AE1
  3
EdgeColorOff
350
7AEE
  3
Facepattern
350
7AE5
  3
Flat
350
7AD7
  3
FlatWithEdges
350
7AD8
  3
Gouraud
350
7AD9
  3
GouraudWithEdges
350
7ADA
  3
Hidden
350
7ADE
  3
JitterOff
350
7AEC
  3
Linepattern
350
7AE4
  3
OverhangOff
350
7AED
  3
Realistic
350
7AE0
  3
Shaded
350
7AEB
  3
Shaded with edges
350
7AEA
  3
Shades of Gray
350
7AE7
  3
Sketchy
350
7AE8
  3
Thicken
350
7AE3
  3
Wireframe
350
7ADD
  3
X-Ray
350
7AE9
  0
XRECORD
  5
7B91
102
{ACAD_REACTORS
330
C
102
}
330
C
100
AcDbXrecord
280
     1
 90
        1
330
5EB2
  0
DICTIONARY
  5
3A82
102
{ACAD_REACTORS
330
C
102
}
330
C
100
AcDbDictionary
281
     1
  3
CANNOSCALE
350
7B81
  3
CMLEADERSTYLE
350
7B7D
  3
CTABLESTYLE
350
5EC7
  3
CVIEWDETAILSTYLE
350
7B7E
  3
CVIEWSECTIONSTYLE
350
7B7F
  3
DIMASSOC
350
3A83
  3
LAYEREVAL
350
7B83
  3
LAYERNOTIFY
350
7B84
  3
LIGHTINGUNITS
350
7B82
  3
MSLTSCALE
350
7B80
  3
PROJECTNAME
350
5EC8
  3
SORTENTS
350
5351
  3
XCLIPFRAME
350
7B85
  0
DICTIONARY
  5
7B41
102
{ACAD_REACTORS
330
C
102
}
330
C
100
AcDbDictionary
281
     1
  3
AcDsRecords
350
7B43
  3
AcDsSchemas
350
7B42
1001
ACAD
1070
     2
  0
XRECORD
  5
7B87
102
{ACAD_REACTORS
330
7B86
102
}
330
7B86
100
AcDbXrecord
280
     1
102
VTR_0.000_0.000_1.000_1.000_VISUALSTYLE
340
7ADC
102
VTR_0.000_0.000_1.000_1.000_GRIDDISPLAY
 70
     3
102
VTR_0.000_0.000_1.000_1.000_GRIDMAJOR
 70
     5
102
VTR_0.000_0.000_1.000_1.000_DEFAULTLIGHTING
280
     1
102
VTR_0.000_0.000_1.000_1.000_DEFAULTLIGHTINGTYPE
 70
     1
102
VTR_0.000_0.000_1.000_1.000_BRIGHTNESS
141
0.0
102
VTR_0.000_0.000_1.000_1.000_CONTRAST
142
0.0
  0
DICTIONARY
  5
69F0
102
{ACAD_REACTORS
330
3B1C
102
}
330
3B1C
100
AcDbDictionary
281
     1
  3
50
350
69F2
  3
hat
350
69F4
  3
kabe
350
69F6
  3
kijun
350
69F8
  3
setubi
350
69FA
  3
siage
350
69FC
  3
tategu
350
69FE
  3
梁
350
6A00
  0
DICTIONARY
  5
7B33
102
{ACAD_REACTORS
330
3B1C
102
}
330
3B1C
100
AcDbDictionary
281
     1
  0
DICTIONARY
  5
69EF
102
{ACAD_REACTORS
330
3B1C
102
}
330
3B1C
100
AcDbDictionary
281
     1
  3
*A1
350
69F1
  3
*A2
350
69F3
  3
*A3
350
69F5
  3
*A4
350
69F7
  3
*A5
350
69F9
  3
*A6
350
69FB
  3
*A7
350
69FD
  3
*A8
350
69FF
1001
ACAD
1000
<All
  0
XRECORD
  5
7B0F
102
{ACAD_REACTORS
330
7B0E
102
}
330
7B0E
100
AcDbXrecord
280
     1
290
     1
  0
XRECORD
  5
7B11
102
{ACAD_REACTORS
330
7B10
102
}
330
7B10
100
AcDbXrecord
280
     1
290
     1
  0
XRECORD
  5
7B13
102
{ACAD_REACTORS
330
7B12
102
}
330
7B12
100
AcDbXrecord
280
     1
290
     1
  0
XRECORD
  5
7B15
102
{ACAD_REACTORS
330
7B14
102
}
330
7B14
100
AcDbXrecord
280
     1
290
     1
  0
XRECORD
  5
7B17
102
{ACAD_REACTORS
330
7B16
102
}
330
7B16
100
AcDbXrecord
280
     1
290
     1
  0
XRECORD
  5
7B19
102
{ACAD_REACTORS
330
7B18
102
}
330
7B18
100
AcDbXrecord
280
     1
290
     1
  0
XRECORD
  5
7B1B
102
{ACAD_REACTORS
330
7B1A
102
}
330
7B1A
100
AcDbXrecord
280
     1
290
     1
  0
XRECORD
  5
7B1D
102
{ACAD_REACTORS
330
7B1C
102
}
330
7B1C
100
AcDbXrecord
280
     1
290
     1
  0
XRECORD
  5
7B1F
102
{ACAD_REACTORS
330
7B1E
102
}
330
7B1E
100
AcDbXrecord
280
     1
290
     1
  0
XRECORD
  5
7B21
102
{ACAD_REACTORS
330
7B20
102
}
330
7B20
100
AcDbXrecord
280
     1
290
     1
  0
XRECORD
  5
7B23
102
{ACAD_REACTORS
330
7B22
102
}
330
7B22
100
AcDbXrecord
280
     1
290
     1
  0
XRECORD
  5
7B25
102
{ACAD_REACTORS
330
7B24
102
}
330
7B24
100
AcDbXrecord
280
     1
290
     1
  0
XRECORD
  5
7B27
102
{ACAD_REACTORS
330
7B26
102
}
330
7B26
100
AcDbXrecord
280
     1
290
     1
  0
XRECORD
  5
7B29
102
{ACAD_REACTORS
330
7B28
102
}
330
7B28
100
AcDbXrecord
280
     1
290
     1
  0
XRECORD
  5
7B2B
102
{ACAD_REACTORS
330
7B2A
102
}
330
7B2A
100
AcDbXrecord
280
     1
290
     1
  0
XRECORD
  5
7B2D
102
{ACAD_REACTORS
330
7B2C
102
}
330
7B2C
100
AcDbXrecord
280
     1
290
     1
  0
XRECORD
  5
7B2F
102
{ACAD_REACTORS
330
7B2E
102
}
330
7B2E
100
AcDbXrecord
280
     1
290
     1
  0
SORTENTSTABLE
  5
5350
102
{ACAD_REACTORS
330
3A7C
102
}
330
3A7C
100
AcDbSortentsTable
330
17
331
73
  5
51D5
  0
ACAD_PROXY_OBJECT
  5
7B06
102
{ACAD_REACTORS
330
7B05
102
}
102
{ACAD_XDICTIONARY
360
7B7B
102
}
330
7B05
100
AcDbProxyObject
 90
      499
 91
      556
 95
  3276827
 70
     0
 93
     2314
310
9207000000180005C0F42F5A8DC671F815AF46E07A15AE7E07000000180005C0F42F5A8DC671FA3300000018001000000180005C0F42F5A8DC671FA02000000000000741FA028CC00000060002330000001800000852480368038003280390034803080360019001A004AD12801E002E00208031802B003080390010002B00
310
348032803B802A003C803800328010002E0033001000110012803A003180188011001F001280100012801E002E00208031802B003080390010002B00348032803B80220032803A00308034803600248032001F0012802E00280029802180208026002280100012801E002E00208031802B003080390010002B00348032803B
310
802980318030803600328010002E0033001000110012803980370011001F0012802B0348
340
F
340
0
340
13
340
F
340
13
340
13
 94
        0
  0
LAYOUT
  5
3A35
102
{ACAD_REACTORS
330
3A33
102
}
102
{ACAD_XDICTIONARY
360
7B44
102
}
330
3A33
100
AcDbPlotSettings
  1

  2
RICOH SP9II RPDL.pc3
  4
A3
  6

 40
5.873749732971191
 41
5.873758316040039
 42
4.349761962890625
 43
8.159759521484375
 44
420.1159973144531
 45
296.9259948730469
 46
0.0
 47
0.0
 48
0.0
 49
0.0
140
0.0
141
0.0
142
1.0
143
7502.175706480581
 70
 11952
 72
     0
 73
     0
 74
     0
  7
acad.ctb
 75
     0
 76
     0
 77
     2
 78
   300
147
0.0001332946653244
148
620250.649107715
149
88199.04588441564
100
AcDbLayout
  1
Model
 70
     1
 71
     0
 10
0.0
 20
0.0
 11
12.0
 21
9.0
 12
0.0
 22
0.0
 32
0.0
 14
0.0
 24
0.0
 34
0.0
 15
0.0
 25
0.0
 35
0.0
146
0.0
 13
0.0
 23
0.0
 33
0.0
 16
1.0
 26
0.0
 36
0.0
 17
0.0
 27
1.0
 37
0.0
 76
     0
330
17
331
7AB6
  0
LAYOUT
  5
3A36
102
{ACAD_REACTORS
330
3A33
102
}
330
3A33
100
AcDbPlotSettings
  1

  2
C:\PROGRAM FILES\MDT6\plotters\RICOH SP9II RPDL.pc3
  4

  6

 40
0.0
 41
0.0
 42
0.0
 43
0.0
 44
0.0
 45
0.0
 46
0.0
 47
0.0
 48
0.0
 49
0.0
140
0.0
141
0.0
142
1.0
143
1.0
 70
   688
 72
     0
 73
     0
 74
     5
  7
acad.ctb
 75
    16
 76
     0
 77
     2
 78
   300
147
1.0
148
0.0
149
0.0
100
AcDbLayout
  1
ﾚｲｱｳﾄ1
 70
     0
 71
     1
 10
0.0
 20
0.0
 11
12.0
 21
9.0
 12
0.0
 22
0.0
 32
0.0
 14
1.000000000000000E+20
 24
1.000000000000000E+20
 34
1.000000000000000E+20
 15
-1.000000000000000E+20
 25
-1.000000000000000E+20
 35
-1.000000000000000E+20
146
0.0
 13
0.0
 23
0.0
 33
0.0
 16
1.0
 26
0.0
 36
0.0
 17
0.0
 27
1.0
 37
0.0
 76
     0
330
14
  0
MATERIAL
  5
7AC6
102
{ACAD_REACTORS
330
5EAF
102
}
102
{ACAD_XDICTIONARY
360
7B88
102
}
330
5EAF
100
AcDbMaterial
  1
ByBlock
 72
     0
 73
     2
 43
0.0208333333333333
 43
0.0
 43
0.0
 43
0.0
 43
0.0
 43
0.0208333333333333
 43
0.0
 43
0.0
 43
0.0
 43
0.0
 43
1.0
 43
0.0
 43
0.0
 43
0.0
 43
0.0
 43
1.0
 77
     0
 78
     2
 47
0.0208333333333333
 47
0.0
 47
0.0
 47
0.0
 47
0.0
 47
0.0208333333333333
 47
0.0
 47
0.0
 47
0.0
 47
0.0
 47
1.0
 47
0.0
 47
0.0
 47
0.0
 47
0.0
 47
1.0
171
     0
172
     2
 49
0.0208333333333333
 49
0.0
 49
0.0
 49
0.0
 49
0.0
 49
0.0208333333333333
 49
0.0
 49
0.0
 49
0.0
 49
0.0
 49
1.0
 49
0.0
 49
0.0
 49
0.0
 49
0.0
 49
1.0
175
     0
176
     2
142
0.0208333333333333
142
0.0
142
0.0
142
0.0
142
0.0
142
0.0208333333333333
142
0.0
142
0.0
142
0.0
142
0.0
142
1.0
142
0.0
142
0.0
142
0.0
142
0.0
142
1.0
179
     0
270
     2
144
0.0208333333333333
144
0.0
144
0.0
144
0.0
144
0.0
144
0.0208333333333333
144
0.0
144
0.0
144
0.0
144
0.0
144
1.0
144
0.0
144
0.0
144
0.0
144
0.0
144
1.0
274
     2
147
0.0208333333333333
147
0.0
147
0.0
147
0.0
147
0.0
147
0.0208333333333333
147
0.0
147
0.0
147
0.0
147
0.0
147
1.0
147
0.0
147
0.0
147
0.0
147
0.0
147
1.0
  0
MATERIAL
  5
7ABE
102
{ACAD_REACTORS
330
5EAF
102
}
102
{ACAD_XDICTIONARY
360
7B8A
102
}
330
5EAF
100
AcDbMaterial
  1
ByLayer
 72
     0
 73
     2
 43
0.0208333333333333
 43
0.0
 43
0.0
 43
0.0
 43
0.0
 43
0.0208333333333333
 43
0.0
 43
0.0
 43
0.0
 43
0.0
 43
1.0
 43
0.0
 43
0.0
 43
0.0
 43
0.0
 43
1.0
 77
     0
 78
     2
 47
0.0208333333333333
 47
0.0
 47
0.0
 47
0.0
 47
0.0
 47
0.0208333333333333
 47
0.0
 47
0.0
 47
0.0
 47
0.0
 47
1.0
 47
0.0
 47
0.0
 47
0.0
 47
0.0
 47
1.0
171
     0
172
     2
 49
0.0208333333333333
 49
0.0
 49
0.0
 49
0.0
 49
0.0
 49
0.0208333333333333
 49
0.0
 49
0.0
 49
0.0
 49
0.0
 49
1.0
 49
0.0
 49
0.0
 49
0.0
 49
0.0
 49
1.0
175
     0
176
     2
142
0.0208333333333333
142
0.0
142
0.0
142
0.0
142
0.0
142
0.0208333333333333
142
0.0
142
0.0
142
0.0
142
0.0
142
1.0
142
0.0
142
0.0
142
0.0
142
0.0
142
1.0
179
     0
270
     2
144
0.0208333333333333
144
0.0
144
0.0
144
0.0
144
0.0
144
0.0208333333333333
144
0.0
144
0.0
144
0.0
144
0.0
144
1.0
144
0.0
144
0.0
144
0.0
144
0.0
144
1.0
274
     2
147
0.0208333333333333
147
0.0
147
0.0
147
0.0
147
0.0
147
0.0208333333333333
147
0.0
147
0.0
147
0.0
147
0.0
147
1.0
147
0.0
147
0.0
147
0.0
147
0.0
147
1.0
  0
MATERIAL
  5
7ACE
102
{ACAD_REACTORS
330
5EAF
102
}
102
{ACAD_XDICTIONARY
360
7B8C
102
}
330
5EAF
100
AcDbMaterial
  1
Global
 72
     0
 73
     2
 43
0.0208333333333333
 43
0.0
 43
0.0
 43
0.0
 43
0.0
 43
0.0208333333333333
 43
0.0
 43
0.0
 43
0.0
 43
0.0
 43
1.0
 43
0.0
 43
0.0
 43
0.0
 43
0.0
 43
1.0
 77
     0
 78
     2
 47
0.0208333333333333
 47
0.0
 47
0.0
 47
0.0
 47
0.0
 47
0.0208333333333333
 47
0.0
 47
0.0
 47
0.0
 47
0.0
 47
1.0
 47
0.0
 47
0.0
 47
0.0
 47
0.0
 47
1.0
171
     0
172
     2
 49
0.0208333333333333
 49
0.0
 49
0.0
 49
0.0
 49
0.0
 49
0.0208333333333333
 49
0.0
 49
0.0
 49
0.0
 49
0.0
 49
1.0
 49
0.0
 49
0.0
 49
0.0
 49
0.0
 49
1.0
175
     0
176
     2
142
0.0208333333333333
142
0.0
142
0.0
142
0.0
142
0.0
142
0.0208333333333333
142
0.0
142
0.0
142
0.0
142
0.0
142
1.0
142
0.0
142
0.0
142
0.0
142
0.0
142
1.0
179
     0
270
     2
144
0.0208333333333333
144
0.0
144
0.0
144
0.0
144
0.0
144
0.0208333333333333
144
0.0
144
0.0
144
0.0
144
0.0
144
1.0
144
0.0
144
0.0
144
0.0
144
0.0
144
1.0
274
     2
147
0.0208333333333333
147
0.0
147
0.0
147
0.0
147
0.0
147
0.0208333333333333
147
0.0
147
0.0
147
0.0
147
0.0
147
1.0
147
0.0
147
0.0
147
0.0
147
0.0
147
1.0
  0
MLEADERSTYLE
  5
7B02
102
{ACAD_REACTORS
330
7B01
102
}
330
7B01
100
AcDbMLeaderStyle
170
     2
171
     1
172
     0
 90
        2
 40
0.0
 41
0.0
173
     1
 91
-1056964608
340
11
 92
       -2
290
     1
 42
0.09
291
     1
 43
0.36
  3
Standard
341
0
 44
0.18
300

342
F
174
     1
178
     6
175
     1
176
     0
 93
-1056964608
 45
0.18
292
     0
297
     0
 46
0.18
343
0
 94
-1056964608
 47
1.0
 49
1.0
140
1.0
293
     1
141
0.0
294
     1
177
     0
142
1.0
295
     0
296
     0
143
0.125
1001
ACAD_MLEADERVER
1070
     2
  0
MLINESTYLE
  5
1B
102
{ACAD_REACTORS
330
1A
102
}
330
1A
100
AcDbMlineStyle
  2
STANDARD
 70
     0
  3

 62
   256
 51
90.0
 52
90.0
 71
     2
 49
0.5
 62
   256
  6
BYLAYER
 49
-0.5
 62
   256
  6
BYLAYER
  0
ACDBPLACEHOLDER
  5
3A32
102
{ACAD_REACTORS
330
3A31
102
}
330
3A31
  0
SCALE
  5
7AF0
102
{ACAD_REACTORS
330
7AEF
102
}
330
7AEF
100
AcDbScale
 70
     0
300
1:1
140
1.0
141
1.0
290
     1
  0
SCALE
  5
7AF1
102
{ACAD_REACTORS
330
7AEF
102
}
330
7AEF
100
AcDbScale
 70
     0
300
1/128" = 1'-0"
140
0.0078125
141
12.0
290
     0
  0
SCALE
  5
7AF2
102
{ACAD_REACTORS
330
7AEF
102
}
330
7AEF
100
AcDbScale
 70
     0
300
1/64" = 1'-0"
140
0.015625
141
12.0
290
     0
  0
SCALE
  5
7AF3
102
{ACAD_REACTORS
330
7AEF
102
}
330
7AEF
100
AcDbScale
 70
     0
300
1/32" = 1'-0"
140
0.03125
141
12.0
290
     0
  0
SCALE
  5
7AF4
102
{ACAD_REACTORS
330
7AEF
102
}
330
7AEF
100
AcDbScale
 70
     0
300
1/16" = 1'-0"
140
0.0625
141
12.0
290
     0
  0
SCALE
  5
7AF5
102
{ACAD_REACTORS
330
7AEF
102
}
330
7AEF
100
AcDbScale
 70
     0
300
3/32" = 1'-0"
140
0.09375
141
12.0
290
     0
  0
SCALE
  5
7AF6
102
{ACAD_REACTORS
330
7AEF
102
}
330
7AEF
100
AcDbScale
 70
     0
300
1/8" = 1'-0"
140
0.125
141
12.0
290
     0
  0
SCALE
  5
7AF7
102
{ACAD_REACTORS
330
7AEF
102
}
330
7AEF
100
AcDbScale
 70
     0
300
3/16" = 1'-0"
140
0.1875
141
12.0
290
     0
  0
SCALE
  5
7AF8
102
{ACAD_REACTORS
330
7AEF
102
}
330
7AEF
100
AcDbScale
 70
     0
300
1/4" = 1'-0"
140
0.25
141
12.0
290
     0
  0
SCALE
  5
7AF9
102
{ACAD_REACTORS
330
7AEF
102
}
330
7AEF
100
AcDbScale
 70
     0
300
3/8" = 1'-0"
140
0.375
141
12.0
290
     0
  0
SCALE
  5
7AFA
102
{ACAD_REACTORS
330
7AEF
102
}
330
7AEF
100
AcDbScale
 70
     0
300
1/2" = 1'-0"
140
0.5
141
12.0
290
     0
  0
SCALE
  5
7AFB
102
{ACAD_REACTORS
330
7AEF
102
}
330
7AEF
100
AcDbScale
 70
     0
300
3/4" = 1'-0"
140
0.75
141
12.0
290
     0
  0
SCALE
  5
7AFC
102
{ACAD_REACTORS
330
7AEF
102
}
330
7AEF
100
AcDbScale
 70
     0
300
1" = 1'-0"
140
1.0
141
12.0
290
     0
  0
SCALE
  5
7AFD
102
{ACAD_REACTORS
330
7AEF
102
}
330
7AEF
100
AcDbScale
 70
     0
300
1-1/2" = 1'-0"
140
1.5
141
12.0
290
     0
  0
SCALE
  5
7AFE
102
{ACAD_REACTORS
330
7AEF
102
}
330
7AEF
100
AcDbScale
 70
     0
300
3" = 1'-0"
140
3.0
141
12.0
290
     0
  0
SCALE
  5
7AFF
102
{ACAD_REACTORS
330
7AEF
102
}
330
7AEF
100
AcDbScale
 70
     0
300
6" = 1'-0"
140
6.0
141
12.0
290
     0
  0
SCALE
  5
7B00
102
{ACAD_REACTORS
330
7AEF
102
}
330
7AEF
100
AcDbScale
 70
     0
300
1'-0" = 1'-0"
140
12.0
141
12.0
290
     0
  0
ACAD_PROXY_OBJECT
  5
7B04
102
{ACAD_REACTORS
330
7B03
102
}
102
{ACAD_XDICTIONARY
360
7B79
102
}
330
7B03
100
AcDbProxyObject
 90
      499
 91
      555
 95
  3276827
 70
     0
 93
     3814
310
929D000000180005C0F42F5A8DC671FC00000060001703D0BD6A3719C7E5C0F42F5A8DC6F1FA330000001800099400000060001703D0BD6A3719C7E5C0F42F5A8DC671FC00000060001703D0BD6A3719C7E808000000000001D07E80C0000006000400000064003081815AF46E07A158E7E80C8340C16A22A7D90FC9F8CAE6
310
5A70A583A07E1FE81C635378FA1F8CAE65A70A583A17E7944A7F127A97E9FA149200DA00E000CA00E400D200C200D80064006800882480160010002780160010002880160010002980160010002C00160010002D002F84A007800B8008200C600AC00C200E4004000AC00D200CA00EE00A800F200E000CA004000B800CC004
310
00044004A00E800C600620044007C004A0040004A007800B8008200C600AC00C200E4004000AC00D200CA00EE00A600CA00C600E800D200DE00DC00A600E800C200E400E8009200C8007C004A005A004A007800B8008200C600AC00C200E4004000AC00D200CA00EE00A600CA00C600E800D200DE00DC008A00DC00C800920
310
0C8007C004A00B800A000A6008600820098008A0040004A007800B8008200C600AC00C200E4004000AC00D200CA00EE00A600C600C200D800CA004000B800CC00400044004A00E600DC0044007C004A00832080270029802480198018807404C
340
F
340
0
340
0
340
13
340
13
340
F
 94
        0
  0
TABLESTYLE
  5
5EB2
102
{ACAD_REACTORS
330
5EB1
102
}
102
{ACAD_XDICTIONARY
360
7B8E
102
}
330
5EB1
100
AcDbTableStyle
  3
Standard
 70
     0
 71
     0
 40
0.06
 41
0.06
280
     0
281
     0
  7
STANDARD
140
0.18
170
     2
 62
     0
 63
   257
283
     0
274
    -2
284
     1
 64
     0
275
    -2
285
     1
 65
     0
276
    -2
286
     1
 66
     0
277
    -2
287
     1
 67
     0
278
    -2
288
     1
 68
     0
279
    -2
289
     1
 69
     0
  7
STANDARD
140
0.25
170
     5
 62
     0
 63
   257
283
     0
274
    -2
284
     1
 64
     0
275
    -2
285
     1
 65
     0
276
    -2
286
     1
 66
     0
277
    -2
287
     1
 67
     0
278
    -2
288
     1
 68
     0
279
    -2
289
     1
 69
     0
  7
STANDARD
140
0.18
170
     5
 62
     0
 63
   257
283
     0
274
    -2
284
     1
 64
     0
275
    -2
285
     1
 65
     0
276
    -2
286
     1
 66
     0
277
    -2
287
     1
 67
     0
278
    -2
288
     1
 68
     0
279
    -2
289
     1
 69
     0
  0
VISUALSTYLE
  5
7ADC
102
{ACAD_REACTORS
330
7AD6
102
}
102
{ACAD_XDICTIONARY
360
7B92
102
}
330
7AD6
100
AcDbVisualStyle
  2
2dWireframe
 70
     4
 71
     0
 72
     2
 73
     0
 90
        0
 40
-0.6
 41
-30.0
 62
     5
 63
     7
421
 16777215
 74
     1
 91
        4
 64
     7
 65
   257
 75
     1
175
     1
 42
1.0
 92
        0
 66
   257
 43
1.0
 76
     1
 77
     6
 78
     2
 67
     7
 79
     5
170
     0
171
     0
290
     0
174
     0
 93
        1
 44
0.0
173
     0
291
     0
 45
0.0
1001
ACAD
1000
AcDbSavedByObjectVersion
1070
     0
  0
VISUALSTYLE
  5
7ADB
102
{ACAD_REACTORS
330
7AD6
102
}
102
{ACAD_XDICTIONARY
360
7B94
102
}
330
7AD6
100
AcDbVisualStyle
  2
Basic
 70
     7
 71
     1
 72
     0
 73
     1
 90
        0
 40
-0.6
 41
-30.0
 62
     5
 63
     7
421
 16777215
 74
     0
 91
        4
 64
     7
 65
   257
 75
     1
175
     1
 42
1.0
 92
        8
 66
     7
 43
1.0
 76
     1
 77
     6
 78
     2
 67
     7
 79
     5
170
     0
171
     0
290
     0
174
     0
 93
        1
 44
0.0
173
     0
291
     1
 45
0.0
1001
ACAD
1000
AcDbSavedByObjectVersion
1070
     0
  0
VISUALSTYLE
  5
7AE2
102
{ACAD_REACTORS
330
7AD6
102
}
102
{ACAD_XDICTIONARY
360
7B96
102
}
330
7AD6
100
AcDbVisualStyle
  2
Brighten
 70
    12
 71
     2
 72
     2
 73
     0
 90
        0
 40
-0.6
 41
-30.0
 62
     5
 63
     7
421
 16777215
 74
     1
 91
        4
 64
     7
 65
   257
 75
     1
175
     1
 42
1.0
 92
        8
 66
     7
 43
1.0
 76
     1
 77
     6
 78
     2
 67
     7
 79
     5
170
     0
171
     0
290
     0
174
     0
 93
        1
 44
50.0
173
     0
291
     1
 45
0.0
1001
ACAD
1000
AcDbSavedByObjectVersion
1070
     0
  0
VISUALSTYLE
  5
7AE6
102
{ACAD_REACTORS
330
7AD6
102
}
102
{ACAD_XDICTIONARY
360
7B98
102
}
330
7AD6
100
AcDbVisualStyle
  2
ColorChange
 70
    16
 71
     2
 72
     2
 73
     3
 90
        0
 40
-0.6
 41
-30.0
 62
     5
 63
     8
421
  8421504
 74
     1
 91
        4
 64
     7
 65
   257
 75
     1
175
     1
 42
1.0
 92
        8
 66
     8
424
  8421504
 43
1.0
 76
     1
 77
     6
 78
     2
 67
     7
 79
     5
170
     0
171
     0
290
     0
174
     0
 93
        1
 44
0.0
173
     0
291
     1
 45
0.0
1001
ACAD
1000
AcDbSavedByObjectVersion
1070
     0
  0
VISUALSTYLE
  5
7ADF
102
{ACAD_REACTORS
330
7AD6
102
}
102
{ACAD_XDICTIONARY
360
7B9A
102
}
330
7AD6
100
AcDbVisualStyle
  2
Conceptual
 70
     9
 71
     3
 72
     2
 73
     0
 90
        0
 40
-0.6
 41
-30.0
 62
     5
 63
     7
421
 16777215
 74
     2
 91
        2
 64
     7
 65
   257
 75
     1
175
     1
 42
179.0
 92
        8
 66
     7
 43
1.0
 76
     1
 77
     6
 78
     2
 67
     7
 79
     3
170
     0
171
     0
290
     0
174
     0
 93
        1
 44
0.0
173
     0
291
     0
 45
0.0
1001
ACAD
1000
AcDbSavedByObjectVersion
1070
     0
  0
VISUALSTYLE
  5
7AE1
102
{ACAD_REACTORS
330
7AD6
102
}
102
{ACAD_XDICTIONARY
360
7B9C
102
}
330
7AD6
100
AcDbVisualStyle
  2
Dim
 70
    11
 71
     2
 72
     2
 73
     0
 90
        0
 40
-0.6
 41
-30.0
 62
     5
 63
     7
421
 16777215
 74
     1
 91
        4
 64
     7
 65
   257
 75
     1
175
     1
 42
1.0
 92
        8
 66
     7
 43
1.0
 76
     1
 77
     6
 78
     2
 67
     7
 79
     5
170
     0
171
     0
290
     0
174
     0
 93
        1
 44
-50.0
173
     0
291
     1
 45
0.0
1001
ACAD
1000
AcDbSavedByObjectVersion
1070
     0
  0
VISUALSTYLE
  5
7AEE
102
{ACAD_REACTORS
330
7AD6
102
}
102
{ACAD_XDICTIONARY
360
7B9E
102
}
330
7AD6
100
AcDbVisualStyle
  2
EdgeColorOff
 70
    22
 71
     2
 72
     2
 73
     0
 90
        0
 40
-0.6
 41
-30.0
 62
     5
 63
     7
421
 16777215
 74
     1
 91
        4
 64
     7
 65
   257
 75
     1
175
     1
 42
1.0
 92
        8
 66
     7
 43
1.0
 76
     1
 77
     6
 78
     2
 67
     7
 79
     5
170
     0
171
     0
290
     0
174
     0
 93
        1
 44
0.0
173
     0
291
     1
 45
0.0
1001
ACAD
1000
AcDbSavedByObjectVersion
1070
     0
  0
VISUALSTYLE
  5
7AE5
102
{ACAD_REACTORS
330
7AD6
102
}
102
{ACAD_XDICTIONARY
360
7BA0
102
}
330
7AD6
100
AcDbVisualStyle
  2
Facepattern
 70
    15
 71
     2
 72
     2
 73
     0
 90
        0
 40
-0.6
 41
-30.0
 62
     5
 63
     7
421
 16777215
 74
     1
 91
        4
 64
     7
 65
   257
 75
     1
175
     1
 42
1.0
 92
        8
 66
     7
 43
1.0
 76
     1
 77
     6
 78
     2
 67
     7
 79
     5
170
     0
171
     0
290
     0
174
     0
 93
        1
 44
0.0
173
     0
291
     1
 45
0.0
1001
ACAD
1000
AcDbSavedByObjectVersion
1070
     0
  0
VISUALSTYLE
  5
7AD7
102
{ACAD_REACTORS
330
7AD6
102
}
102
{ACAD_XDICTIONARY
360
7BA2
102
}
330
7AD6
100
AcDbVisualStyle
  2
Flat
 70
     0
 71
     2
 72
     1
 73
     1
 90
        2
 40
-0.6
 41
30.0
 62
     5
 63
     7
421
 16777215
 74
     0
 91
        0
 64
     7
 65
   257
 75
     1
175
     1
 42
1.0
 92
        8
 66
     7
 43
1.0
 76
     1
 77
     6
 78
     2
 67
     7
 79
     5
170
     0
171
     0
290
     0
174
     0
 93
       13
 44
0.0
173
     0
291
     1
 45
0.0
1001
ACAD
1000
AcDbSavedByObjectVersion
1070
     0
  0
VISUALSTYLE
  5
7AD8
102
{ACAD_REACTORS
330
7AD6
102
}
102
{ACAD_XDICTIONARY
360
7BA4
102
}
330
7AD6
100
AcDbVisualStyle
  2
FlatWithEdges
 70
     1
 71
     2
 72
     1
 73
     1
 90
        2
 40
-0.6
 41
30.0
 62
     5
 63
     7
421
 16777215
 74
     1
 91
        0
 64
     7
 65
   257
 75
     1
175
     1
 42
1.0
 92
        0
 66
   257
 43
1.0
 76
     1
 77
     6
 78
     2
 67
     7
 79
     5
170
     0
171
     0
290
     0
174
     0
 93
       13
 44
0.0
173
     0
291
     1
 45
0.0
1001
ACAD
1000
AcDbSavedByObjectVersion
1070
     0
  0
VISUALSTYLE
  5
7AD9
102
{ACAD_REACTORS
330
7AD6
102
}
102
{ACAD_XDICTIONARY
360
7BA6
102
}
330
7AD6
100
AcDbVisualStyle
  2
Gouraud
 70
     2
 71
     2
 72
     2
 73
     1
 90
        2
 40
-0.6
 41
30.0
 62
     5
 63
     7
421
 16777215
 74
     0
 91
        0
 64
     7
 65
   257
 75
     1
175
     1
 42
1.0
 92
        0
 66
     7
 43
1.0
 76
     1
 77
     6
 78
     2
 67
     7
 79
     5
170
     0
171
     0
290
     0
174
     0
 93
       13
 44
0.0
173
     0
291
     1
 45
0.0
1001
ACAD
1000
AcDbSavedByObjectVersion
1070
     0
  0
VISUALSTYLE
  5
7ADA
102
{ACAD_REACTORS
330
7AD6
102
}
102
{ACAD_XDICTIONARY
360
7BA8
102
}
330
7AD6
100
AcDbVisualStyle
  2
GouraudWithEdges
 70
     3
 71
     2
 72
     2
 73
     1
 90
        2
 40
-0.6
 41
30.0
 62
     5
 63
     7
421
 16777215
 74
     1
 91
        0
 64
     7
 65
   257
 75
     1
175
     1
 42
1.0
 92
        0
 66
   257
 43
1.0
 76
     1
 77
     6
 78
     2
 67
     7
 79
     5
170
     0
171
     0
290
     0
174
     0
 93
       13
 44
0.0
173
     0
291
     1
 45
0.0
1001
ACAD
1000
AcDbSavedByObjectVersion
1070
     0
  0
VISUALSTYLE
  5
7ADE
102
{ACAD_REACTORS
330
7AD6
102
}
102
{ACAD_XDICTIONARY
360
7BAA
102
}
330
7AD6
100
AcDbVisualStyle
  2
Hidden
 70
     6
 71
     1
 72
     2
 73
     2
 90
        0
 40
-0.6
 41
-30.0
 62
     5
 63
     7
421
 16777215
 74
     2
 91
        2
 64
     7
 65
   257
 75
     2
175
     1
 42
40.0
 92
        0
 66
   257
 43
1.0
 76
     1
 77
     6
 78
     2
 67
     7
 79
     3
170
     0
171
     0
290
     0
174
     0
 93
        1
 44
0.0
173
     0
291
     0
 45
0.0
1001
ACAD
1000
AcDbSavedByObjectVersion
1070
     0
  0
VISUALSTYLE
  5
7AEC
102
{ACAD_REACTORS
330
7AD6
102
}
102
{ACAD_XDICTIONARY
360
7BAC
102
}
330
7AD6
100
AcDbVisualStyle
  2
JitterOff
 70
    20
 71
     2
 72
     2
 73
     0
 90
        0
 40
-0.6
 41
-30.0
 62
     5
 63
     7
421
 16777215
 74
     1
 91
        4
 64
     7
 65
   257
 75
     1
175
     1
 42
1.0
 92
       10
 66
     7
 43
1.0
 76
     1
 77
     6
 78
     2
 67
     7
 79
     5
170
     0
171
     0
290
     0
174
     0
 93
        1
 44
0.0
173
     0
291
     1
 45
0.0
1001
ACAD
1000
AcDbSavedByObjectVersion
1070
     0
  0
VISUALSTYLE
  5
7AE4
102
{ACAD_REACTORS
330
7AD6
102
}
102
{ACAD_XDICTIONARY
360
7BAE
102
}
330
7AD6
100
AcDbVisualStyle
  2
Linepattern
 70
    14
 71
     2
 72
     2
 73
     0
 90
        0
 40
-0.6
 41
-30.0
 62
     5
 63
     7
421
 16777215
 74
     1
 91
        4
 64
     7
 65
   257
 75
     7
175
     7
 42
1.0
 92
        8
 66
     7
 43
1.0
 76
     1
 77
     6
 78
     2
 67
     7
 79
     5
170
     0
171
     0
290
     0
174
     0
 93
        1
 44
0.0
173
     0
291
     1
 45
0.0
1001
ACAD
1000
AcDbSavedByObjectVersion
1070
     0
  0
VISUALSTYLE
  5
7AED
102
{ACAD_REACTORS
330
7AD6
102
}
102
{ACAD_XDICTIONARY
360
7BB0
102
}
330
7AD6
100
AcDbVisualStyle
  2
OverhangOff
 70
    21
 71
     2
 72
     2
 73
     0
 90
        0
 40
-0.6
 41
-30.0
 62
     5
 63
     7
421
 16777215
 74
     1
 91
        4
 64
     7
 65
   257
 75
     1
175
     1
 42
1.0
 92
        9
 66
     7
 43
1.0
 76
     1
 77
     6
 78
     2
 67
     7
 79
     5
170
     0
171
     0
290
     0
174
     0
 93
        1
 44
0.0
173
     0
291
     1
 45
0.0
1001
ACAD
1000
AcDbSavedByObjectVersion
1070
     0
  0
VISUALSTYLE
  5
7AE0
102
{ACAD_REACTORS
330
7AD6
102
}
102
{ACAD_XDICTIONARY
360
7BB2
102
}
330
7AD6
100
AcDbVisualStyle
  2
Realistic
 70
     8
 71
     2
 72
     2
 73
     0
 90
        2
 40
-0.6
 41
30.0
 62
     5
 63
     7
421
 16777215
 74
     0
 91
        0
 64
     7
 65
   257
 75
     1
175
     1
 42
1.0
 92
        8
 66
   257
 43
1.0
 76
     1
 77
     6
 78
     2
 67
     7
 79
     3
170
     0
171
     0
290
     0
174
     0
 93
       13
 44
0.0
173
     0
291
     0
 45
0.0
1001
ACAD
1000
AcDbSavedByObjectVersion
1070
     0
  0
VISUALSTYLE
  5
7AEB
102
{ACAD_REACTORS
330
7AD6
102
}
102
{ACAD_XDICTIONARY
360
7BB4
102
}
330
7AD6
100
AcDbVisualStyle
  2
Shaded
 70
    27
 71
     2
 72
     2
 73
     1
 90
        2
 40
-0.6
 41
30.0
 62
     5
 63
     7
421
 16777215
 74
     0
 91
        4
 64
     7
 65
   257
 75
     1
175
     1
 42
1.0
 92
        8
 66
   257
 43
1.0
 76
     1
 77
     6
 78
     2
 67
     8
425
  7895160
 79
     3
170
     0
171
     0
290
     0
174
     0
 93
        5
 44
0.0
173
     0
291
     0
 45
0.0
1001
ACAD
1000
AcDbSavedByObjectVersion
1070
     0
  0
VISUALSTYLE
  5
7AEA
102
{ACAD_REACTORS
330
7AD6
102
}
102
{ACAD_XDICTIONARY
360
7BB6
102
}
330
7AD6
100
AcDbVisualStyle
  2
Shaded with edges
 70
    26
 71
     2
 72
     2
 73
     1
 90
        2
 40
-0.6
 41
30.0
 62
     5
 63
     7
421
 16777215
 74
     1
 91
       10
 64
     7
 65
   257
 75
     2
175
     1
 42
1.0
 92
        8
 66
   257
 43
1.0
 76
     1
 77
     6
 78
     2
 67
     7
 79
     3
170
     0
171
     0
290
     0
174
     0
 93
        5
 44
0.0
173
     0
291
     0
 45
0.0
1001
ACAD
1000
AcDbSavedByObjectVersion
1070
     0
  0
VISUALSTYLE
  5
7AE7
102
{ACAD_REACTORS
330
7AD6
102
}
102
{ACAD_XDICTIONARY
360
7BB8
102
}
330
7AD6
100
AcDbVisualStyle
  2
Shades of Gray
 70
    23
 71
     2
 72
     2
 73
     3
 90
        0
 40
-0.6
 41
-30.0
 62
     5
 63
     7
421
 16777215
 74
     2
 91
        2
 64
     7
 65
     7
 75
     1
175
     1
 42
40.0
 92
        8
 66
     7
 43
1.0
 76
     1
 77
     6
 78
     2
 67
     7
 79
     3
170
     0
171
     0
290
     0
174
     0
 93
        1
 44
0.0
173
     0
291
     0
 45
0.0
1001
ACAD
1000
AcDbSavedByObjectVersion
1070
     0
  0
VISUALSTYLE
  5
7AE8
102
{ACAD_REACTORS
330
7AD6
102
}
102
{ACAD_XDICTIONARY
360
7BBA
102
}
330
7AD6
100
AcDbVisualStyle
  2
Sketchy
 70
    24
 71
     1
 72
     2
 73
     2
 90
        0
 40
-0.6
 41
-30.0
 62
     5
 63
     7
421
 16777215
 74
     2
 91
        2
 64
     7
 65
     7
 75
     1
175
     1
 42
40.0
 92
       11
 66
     7
 43
1.0
 76
     1
 77
     6
 78
     2
 67
     7
 79
     6
170
     0
171
     0
290
     0
174
     0
 93
        1
 44
0.0
173
     0
291
     0
 45
0.0
1001
ACAD
1000
AcDbSavedByObjectVersion
1070
     0
  0
VISUALSTYLE
  5
7AE3
102
{ACAD_REACTORS
330
7AD6
102
}
102
{ACAD_XDICTIONARY
360
7BBC
102
}
330
7AD6
100
AcDbVisualStyle
  2
Thicken
 70
    13
 71
     2
 72
     2
 73
     0
 90
        0
 40
-0.6
 41
-30.0
 62
     5
 63
     7
421
 16777215
 74
     1
 91
        4
 64
     7
 65
   257
 75
     1
175
     1
 42
1.0
 92
       12
 66
     7
 43
1.0
 76
     1
 77
     6
 78
     2
 67
     7
 79
     5
170
     0
171
     0
290
     0
174
     0
 93
        1
 44
0.0
173
     0
291
     1
 45
0.0
1001
ACAD
1000
AcDbSavedByObjectVersion
1070
     0
  0
VISUALSTYLE
  5
7ADD
102
{ACAD_REACTORS
330
7AD6
102
}
102
{ACAD_XDICTIONARY
360
7BBE
102
}
330
7AD6
100
AcDbVisualStyle
  2
Wireframe
 70
     5
 71
     0
 72
     2
 73
     0
 90
        0
 40
-0.6
 41
-30.0
 62
     5
 63
     7
421
 16777215
 74
     1
 91
        4
 64
     7
 65
   257
 75
     1
175
     1
 42
1.0
 92
        0
 66
   257
 43
1.0
 76
     1
 77
     6
 78
     2
 67
     7
 79
     3
170
     0
171
     0
290
     0
174
     0
 93
        1
 44
0.0
173
     0
291
     0
 45
0.0
1001
ACAD
1000
AcDbSavedByObjectVersion
1070
     0
  0
VISUALSTYLE
  5
7AE9
102
{ACAD_REACTORS
330
7AD6
102
}
102
{ACAD_XDICTIONARY
360
7BC0
102
}
330
7AD6
100
AcDbVisualStyle
  2
X-Ray
 70
    25
 71
     2
 72
     2
 73
     1
 90
        1
 40
0.5
 41
-30.0
 62
     5
 63
     7
421
 16777215
 74
     1
 91
        0
 64
     7
 65
   257
 75
     1
175
     1
 42
1.0
 92
        8
 66
     7
 43
1.0
 76
     1
 77
     6
 78
     2
 67
     7
 79
     3
170
     0
171
     0
290
     0
174
     0
 93
       13
 44
0.0
173
     0
291
     0
 45
0.0
1001
ACAD
1000
AcDbSavedByObjectVersion
1070
     0
  0
DICTIONARYVAR
  5
7B81
102
{ACAD_REACTORS
330
3A82
102
}
330
3A82
100
DictionaryVariables
280
     0
  1
1:1
  0
DICTIONARYVAR
  5
7B7D
102
{ACAD_REACTORS
330
3A82
102
}
330
3A82
100
DictionaryVariables
280
     0
  1
Standard
  0
DICTIONARYVAR
  5
5EC7
102
{ACAD_REACTORS
330
3A82
102
}
330
3A82
100
DictionaryVariables
280
     0
  1
Standard
  0
DICTIONARYVAR
  5
7B7E
102
{ACAD_REACTORS
330
3A82
102
}
330
3A82
100
DictionaryVariables
280
     0
  1
Imperial24
  0
DICTIONARYVAR
  5
7B7F
102
{ACAD_REACTORS
330
3A82
102
}
330
3A82
100
DictionaryVariables
280
     0
  1
Imperial24
  0
DICTIONARYVAR
  5
3A83
102
{ACAD_REACTORS
330
3A82
102
}
330
3A82
100
DictionaryVariables
280
     0
  1
1
  0
DICTIONARYVAR
  5
7B83
102
{ACAD_REACTORS
330
3A82
102
}
330
3A82
100
DictionaryVariables
280
     0
  1
1
  0
DICTIONARYVAR
  5
7B84
102
{ACAD_REACTORS
330
3A82
102
}
330
3A82
100
DictionaryVariables
280
     0
  1
15
  0
DICTIONARYVAR
  5
7B82
102
{ACAD_REACTORS
330
3A82
102
}
330
3A82
100
DictionaryVariables
280
     0
  1
0
  0
DICTIONARYVAR
  5
7B80
102
{ACAD_REACTORS
330
3A82
102
}
330
3A82
100
DictionaryVariables
280
     0
  1
0
  0
DICTIONARYVAR
  5
5EC8
102
{ACAD_REACTORS
330
3A82
102
}
330
3A82
100
DictionaryVariables
280
     0
  1

  0
DICTIONARYVAR
  5
5351
102
{ACAD_REACTORS
330
3A82
102
}
330
3A82
100
DictionaryVariables
280
     0
  1
127
  0
DICTIONARYVAR
  5
7B85
102
{ACAD_REACTORS
330
3A82
102
}
330
3A82
100
DictionaryVariables
280
     0
  1
2
  0
DICTIONARY
  5
7B43
102
{ACAD_REACTORS
330
7B41
102
}
330
7B41
100
AcDbDictionary
281
     1
  0
DICTIONARY
  5
7B42
102
{ACAD_REACTORS
330
7B41
102
}
330
7B41
100
AcDbDictionary
281
     1
  3
2129702176
350
7B3C
  3
2129702184
350
7B3D
  3
2129702192
350
7B3E
  3
2129702200
350
7B3F
  3
2129702208
350
7B40
  0
XRECORD
  5
69F2
102
{ACAD_REACTORS
330
69F0
102
}
330
69F0
100
AcDbXrecord
280
     1
  1
50
  1
*50*
  1
*
  1
*
 70
     0
  1
*
  1
*
1001
ACAD
1000
( NAME== "*50*" )
  0
XRECORD
  5
69F4
102
{ACAD_REACTORS
330
69F0
102
}
330
69F0
100
AcDbXrecord
280
     1
  1
hat
  1
*hat*
  1
*
  1
*
 70
     0
  1
*
  1
*
1001
ACAD
1000
( NAME== "*hat*" )
  0
XRECORD
  5
69F6
102
{ACAD_REACTORS
330
69F0
102
}
330
69F0
100
AcDbXrecord
280
     1
  1
kabe
  1
*kabe*
  1
*
  1
*
 70
     0
  1
*
  1
*
1001
ACAD
1000
( NAME== "*kabe*" )
  0
XRECORD
  5
69F8
102
{ACAD_REACTORS
330
69F0
102
}
330
69F0
100
AcDbXrecord
280
     1
  1
kijun
  1
*kijun*
  1
*
  1
*
 70
     0
  1
*
  1
*
1001
ACAD
1000
( NAME== "*kijun*" )
  0
XRECORD
  5
69FA
102
{ACAD_REACTORS
330
69F0
102
}
330
69F0
100
AcDbXrecord
280
     1
  1
setubi
  1
*setubi*
  1
*
  1
*
 70
     0
  1
*
  1
*
1001
ACAD
1000
( NAME== "*setubi*" )
  0
XRECORD
  5
69FC
102
{ACAD_REACTORS
330
69F0
102
}
330
69F0
100
AcDbXrecord
280
     1
  1
siage
  1
*siage*
  1
*
  1
*
 70
     0
  1
*
  1
*
1001
ACAD
1000
( NAME== "*siage*" )
  0
XRECORD
  5
69FE
102
{ACAD_REACTORS
330
69F0
102
}
330
69F0
100
AcDbXrecord
280
     1
  1
tategu
  1
*tategu*
  1
*
  1
*
 70
     0
  1
*
  1
*
1001
ACAD
1000
( NAME== "*tategu*" )
  0
XRECORD
  5
6A00
102
{ACAD_REACTORS
330
69F0
102
}
330
69F0
100
AcDbXrecord
280
     1
  1
梁
  1
*梁*
  1
*
  1
*
 70
     0
  1
*
  1
*
1001
ACAD
1000
( NAME== "*梁*" )
  0
XRECORD
  5
69F1
102
{ACAD_REACTORS
330
69EF
102
}
330
69EF
100
AcDbXrecord
280
     1
  1
AcLyLayerFilter
 90
        1
300
50
301
( NAME== "*50*" )
  0
XRECORD
  5
69F3
102
{ACAD_REACTORS
330
69EF
102
}
330
69EF
100
AcDbXrecord
280
     1
  1
AcLyLayerFilter
 90
        1
300
hat
301
( NAME== "*hat*" )
  0
XRECORD
  5
69F5
102
{ACAD_REACTORS
330
69EF
102
}
330
69EF
100
AcDbXrecord
280
     1
  1
AcLyLayerFilter
 90
        1
300
kabe
301
( NAME== "*kabe*" )
  0
XRECORD
  5
69F7
102
{ACAD_REACTORS
330
69EF
102
}
330
69EF
100
AcDbXrecord
280
     1
  1
AcLyLayerFilter
 90
        1
300
kijun
301
( NAME== "*kijun*" )
  0
XRECORD
  5
69F9
102
{ACAD_REACTORS
330
69EF
102
}
330
69EF
100
AcDbXrecord
280
     1
  1
AcLyLayerFilter
 90
        1
300
setubi
301
( NAME== "*setubi*" )
  0
XRECORD
  5
69FB
102
{ACAD_REACTORS
330
69EF
102
}
330
69EF
100
AcDbXrecord
280
     1
  1
AcLyLayerFilter
 90
        1
300
siage
301
( NAME== "*siage*" )
  0
XRECORD
  5
69FD
102
{ACAD_REACTORS
330
69EF
102
}
330
69EF
100
AcDbXrecord
280
     1
  1
AcLyLayerFilter
 90
        1
300
tategu
301
( NAME== "*tategu*" )
  0
XRECORD
  5
69FF
102
{ACAD_REACTORS
330
69EF
102
}
330
69EF
100
AcDbXrecord
280
     1
  1
AcLyLayerFilter
 90
        1
300
梁
301
( NAME== "*梁*" )
  0
DICTIONARY
  5
7B7B
330
7B06
100
AcDbDictionary
280
     1
281
     1
  3
ACAD_XREC_ROUNDTRIP
360
7B7C
  0
DICTIONARY
  5
7B44
330
3A35
100
AcDbDictionary
280
     1
281
     1
  3
ADSK_XREC_LAYOUTTHUMBNAIL
360
7B45
  0
DICTIONARY
  5
7B88
330
7AC6
100
AcDbDictionary
280
     1
281
     1
  3
ACAD_XREC_ROUNDTRIP
360
7B89
  0
DICTIONARY
  5
7B8A
330
7ABE
100
AcDbDictionary
280
     1
281
     1
  3
ACAD_XREC_ROUNDTRIP
360
7B8B
  0
DICTIONARY
  5
7B8C
330
7ACE
100
AcDbDictionary
280
     1
281
     1
  3
ACAD_XREC_ROUNDTRIP
360
7B8D
  0
DICTIONARY
  5
7B79
330
7B04
100
AcDbDictionary
280
     1
281
     1
  3
ACAD_XREC_ROUNDTRIP
360
7B7A
  0
DICTIONARY
  5
7B8E
330
5EB2
100
AcDbDictionary
280
     1
281
     1
  3
ACAD_ROUNDTRIP_2008_TABLESTYLE_CELLSTYLEMAP
360
7B90
  3
ACAD_XREC_ROUNDTRIP
360
7B8F
  0
DICTIONARY
  5
7B92
330
7ADC
100
AcDbDictionary
280
     1
281
     1
  3
ACAD_XREC_ROUNDTRIP
360
7B93
  0
DICTIONARY
  5
7B94
330
7ADB
100
AcDbDictionary
280
     1
281
     1
  3
ACAD_XREC_ROUNDTRIP
360
7B95
  0
DICTIONARY
  5
7B96
330
7AE2
100
AcDbDictionary
280
     1
281
     1
  3
ACAD_XREC_ROUNDTRIP
360
7B97
  0
DICTIONARY
  5
7B98
330
7AE6
100
AcDbDictionary
280
     1
281
     1
  3
ACAD_XREC_ROUNDTRIP
360
7B99
  0
DICTIONARY
  5
7B9A
330
7ADF
100
AcDbDictionary
280
     1
281
     1
  3
ACAD_XREC_ROUNDTRIP
360
7B9B
  0
DICTIONARY
  5
7B9C
330
7AE1
100
AcDbDictionary
280
     1
281
     1
  3
ACAD_XREC_ROUNDTRIP
360
7B9D
  0
DICTIONARY
  5
7B9E
330
7AEE
100
AcDbDictionary
280
     1
281
     1
  3
ACAD_XREC_ROUNDTRIP
360
7B9F
  0
DICTIONARY
  5
7BA0
330
7AE5
100
AcDbDictionary
280
     1
281
     1
  3
ACAD_XREC_ROUNDTRIP
360
7BA1
  0
DICTIONARY
  5
7BA2
330
7AD7
100
AcDbDictionary
280
     1
281
     1
  3
ACAD_XREC_ROUNDTRIP
360
7BA3
  0
DICTIONARY
  5
7BA4
330
7AD8
100
AcDbDictionary
280
     1
281
     1
  3
ACAD_XREC_ROUNDTRIP
360
7BA5
  0
DICTIONARY
  5
7BA6
330
7AD9
100
AcDbDictionary
280
     1
281
     1
  3
ACAD_XREC_ROUNDTRIP
360
7BA7
  0
DICTIONARY
  5
7BA8
330
7ADA
100
AcDbDictionary
280
     1
281
     1
  3
ACAD_XREC_ROUNDTRIP
360
7BA9
  0
DICTIONARY
  5
7BAA
330
7ADE
100
AcDbDictionary
280
     1
281
     1
  3
ACAD_XREC_ROUNDTRIP
360
7BAB
  0
DICTIONARY
  5
7BAC
330
7AEC
100
AcDbDictionary
280
     1
281
     1
  3
ACAD_XREC_ROUNDTRIP
360
7BAD
  0
DICTIONARY
  5
7BAE
330
7AE4
100
AcDbDictionary
280
     1
281
     1
  3
ACAD_XREC_ROUNDTRIP
360
7BAF
  0
DICTIONARY
  5
7BB0
330
7AED
100
AcDbDictionary
280
     1
281
     1
  3
ACAD_XREC_ROUNDTRIP
360
7BB1
  0
DICTIONARY
  5
7BB2
330
7AE0
100
AcDbDictionary
280
     1
281
     1
  3
ACAD_XREC_ROUNDTRIP
360
7BB3
  0
DICTIONARY
  5
7BB4
330
7AEB
100
AcDbDictionary
280
     1
281
     1
  3
ACAD_XREC_ROUNDTRIP
360
7BB5
  0
DICTIONARY
  5
7BB6
330
7AEA
100
AcDbDictionary
280
     1
281
     1
  3
ACAD_XREC_ROUNDTRIP
360
7BB7
  0
DICTIONARY
  5
7BB8
330
7AE7
100
AcDbDictionary
280
     1
281
     1
  3
ACAD_XREC_ROUNDTRIP
360
7BB9
  0
DICTIONARY
  5
7BBA
330
7AE8
100
AcDbDictionary
280
     1
281
     1
  3
ACAD_XREC_ROUNDTRIP
360
7BBB
  0
DICTIONARY
  5
7BBC
330
7AE3
100
AcDbDictionary
280
     1
281
     1
  3
ACAD_XREC_ROUNDTRIP
360
7BBD
  0
DICTIONARY
  5
7BBE
330
7ADD
100
AcDbDictionary
280
     1
281
     1
  3
ACAD_XREC_ROUNDTRIP
360
7BBF
  0
DICTIONARY
  5
7BC0
330
7AE9
100
AcDbDictionary
280
     1
281
     1
  3
ACAD_XREC_ROUNDTRIP
360
7BC1
  0
XRECORD
  5
7B3C
102
{ACAD_REACTORS
330
7B42
102
}
330
7B42
100
AcDbXrecord
280
     1
  1
AcDb_Thumbnail_Schema
102
{ATTRRECORD
341
7B3D
  2
AcDbDs::TreatedAsObjectData
280
     1
291
     1
102
ATTRRECORD}
102
{ATTRRECORD
341
7B3E
  2
AcDbDs::Legacy
280
     1
291
     1
102
ATTRRECORD}
  2
AcDbDs::ID
280
    10
 91
        8
102
{ATTRRECORD
341
7B3F
  2
AcDs:Indexable
280
     1
291
     1
102
ATTRRECORD}
102
{ATTRRECORD
341
7B40
  2
AcDbDs::HandleAttribute
280
     7
282
     1
102
ATTRRECORD}
  2
Thumbnail_Data
280
    15
 91
        0
  0
XRECORD
  5
7B3D
102
{ACAD_REACTORS
330
7B42
102
}
330
7B42
100
AcDbXrecord
280
     1
  1
AcDbDs::TreatedAsObjectDataSchema
  2
AcDbDs::TreatedAsObjectData
280
     1
 91
        0
  0
XRECORD
  5
7B3E
102
{ACAD_REACTORS
330
7B42
102
}
330
7B42
100
AcDbXrecord
280
     1
  1
AcDbDs::LegacySchema
  2
AcDbDs::Legacy
280
     1
 91
        0
  0
XRECORD
  5
7B3F
102
{ACAD_REACTORS
330
7B42
102
}
330
7B42
100
AcDbXrecord
280
     1
  1
AcDbDs::IndexedPropertySchema
  2
AcDs:Indexable
280
     1
 91
        0
  0
XRECORD
  5
7B40
102
{ACAD_REACTORS
330
7B42
102
}
330
7B42
100
AcDbXrecord
280
     1
  1
AcDbDs::HandleAttributeSchema
  2
AcDbDs::HandleAttribute
280
     7
 91
        1
284
     1
  0
XRECORD
  5
7B7C
102
{ACAD_REACTORS
330
7B7B
102
}
330
7B7B
100
AcDbXrecord
280
     1
102
DISPLAYNAME
  1
Imperial24
102
FLAGS
 90
        0
  0
XRECORD
  5
7B45
102
{ACAD_REACTORS
330
7B44
102
}
330
7B44
100
AcDbXrecord
280
     1
310
2800000000010000A4000000010008000000000000A4000001000000010000000001000000000000302821FF000000FFC8C8C8FF000000FF000000FF000000FF000000FF000000FF000000FF000000FF000000FF330000FF660000FF990000FFCC0000FFFF0000FF003300FF333300FF663300FF993300FFCC3300FFFF3300
310
FF006600FF336600FF666600FF996600FFCC6600FFFF6600FF009900FF339900FF669900FF999900FFCC9900FFFF9900FF00CC00FF33CC00FF66CC00FF99CC00FFCCCC00FFFFCC00FF00FF00FF33FF00FF66FF00FF99FF00FFCCFF00FFFFFF00FF000033FF330033FF660033FF990033FFCC0033FFFF0033FF003333FF3333
310
33FF663333FF993333FFCC3333FFFF3333FF006633FF336633FF666633FF996633FFCC6633FFFF6633FF009933FF339933FF669933FF999933FFCC9933FFFF9933FF00CC33FF33CC33FF66CC33FF99CC33FFCCCC33FFFFCC33FF00FF33FF33FF33FF66FF33FF99FF33FFCCFF33FFFFFF33FF000066FF330066FF660066FF99
310
0066FFCC0066FFFF0066FF003366FF333366FF663366FF993366FFCC3366FFFF3366FF006666FF336666FF666666FF996666FFCC6666FFFF6666FF009966FF339966FF669966FF999966FFCC9966FFFF9966FF00CC66FF33CC66FF66CC66FF99CC66FFCCCC66FFFFCC66FF00FF66FF33FF66FF66FF66FF99FF66FFCCFF66FF
310
FFFF66FF000099FF330099FF660099FF990099FFCC0099FFFF0099FF003399FF333399FF663399FF993399FFCC3399FFFF3399FF006699FF336699FF666699FF996699FFCC6699FFFF6699FF009999FF339999FF669999FF999999FFCC9999FFFF9999FF00CC99FF33CC99FF66CC99FF99CC99FFCCCC99FFFFCC99FF00FF99
310
FF33FF99FF66FF99FF99FF99FFCCFF99FFFFFF99FF0000CCFF3300CCFF6600CCFF9900CCFFCC00CCFFFF00CCFF0033CCFF3333CCFF6633CCFF9933CCFFCC33CCFFFF33CCFF0066CCFF3366CCFF6666CCFF9966CCFFCC66CCFFFF66CCFF0099CCFF3399CCFF6699CCFF9999CCFFCC99CCFFFF99CCFF00CCCCFF33CCCCFF66CC
310
CCFF99CCCCFFCCCCCCFFFFCCCCFF00FFCCFF33FFCCFF66FFCCFF99FFCCFFCCFFCCFFFFFFCCFF0000FFFF3300FFFF6600FFFF9900FFFFCC00FFFFFF00FFFF0033FFFF3333FFFF6633FFFF9933FFFFCC33FFFFFF33FFFF0066FFFF3366FFFF6666FFFF9966FFFFCC66FFFFFF66FFFF0099FFFF3399FFFF6699FFFF9999FFFFCC
310
99FFFFFF99FFFF00CCFFFF33CCFFFF66CCFFFF99CCFFFFCCCCFFFFFFCCFFFF00FFFFFF33FFFFFF66FFFFFF99FFFFFFCCFFFFFFFFFFFFFF000000FF0D0D0DFF1A1A1AFF282828FF353535FF434343FF505050FF5D5D5DFF6B6B6BFF787878FF868686FF939393FFA1A1A1FFAEAEAEFFBBBBBBFFC9C9C9FFD6D6D6FFE4E4E4FF
310
F1F1F1FFFFFFFFFF000000FF000000FF000000FF000000FF000000FF000000FF000000FF000000FF000000FF0000000000000000000000000000000000000000000000000000000000000000000000000000000000000000000000000000000000000000000000000000000000000000000000000000000000000000000000
310
00000000000000000000000000000000000000000000000000000000000000000000000000000000000000000000000000000000000000000000000000000000000000000000000000000000000000000000000000000000000000000000000000000000000000000000000000000000000000000000000000000000000000
310
00000000000000000000000000000000000000000000000000000000000000000000000000000000000000000000000000000000000000000000000000000000000000000000000000000000000000000000000000000000000000000000000000000000000000000000000000000000000000000000000000000000000000
310
00000000000000000000000000000000000000000000000000000000000000000000000000000000000000000000000000000000000000000000000000000000000000000000000000000000000000000000000000000000000000000000000000000000000000000000000000000000000000000000000000000000000000
310
00000000000000000000000000000000000000000000000000000000000000000000000000000000000000000000000000000000000000000000000000000000000000000000000000000000000000000000000000000000000000000000000000000000000000000000000000000000000000000000000000000000000000
310
00000000000000000000000000000000000000000000000000000000000000000000000000000000000000000000000000000000000000000000000000000000000000000000000000000000000000000000000000000000000000000000000000000000000000000000000000000000000000000000000000000000000000
310
00000000000000000000000000000000000000000000000000000000000000000000000000000000000000000000000000000000000000000000000000000000000000000000000000000000000000000000000000000000000000000000000000000000000000000000000000000000000000000000000000000000000000
310
00000000000000000000000000000000000000000000000000000000000000000000000000000000000000000000000000000000000000000000000000000000000000000000000000000000000000000000000000000000000000000000000000000000000000000000000000000000000000000000000000000000000000
310
00000000000000000000000000000000000000000000000000000000000000000000000000000000000000000000000000000000000000000000000000000000000000000000000000000000000000000000000000000000000000000000000000000000000000000000000000000000000000000000000000000000000000
310
00000000000000000000000000000000000000000000000000000000000000000000000000000000000000000000000000000000000000000000000000000000000000000000000000000000000000000000000000000000000000000000000000000000000000000000000000000000000000000000000000000000000000
310
00000000000000000000000000000000000000000000000000000000000000000000000000000000000000000000000000000000000000000000000000000000000000000000000000000000000000000000000000000000000000000000000000000000000000000000000000000000000000000000000000000000000000
310
00000000000000000000000000000000000000000000000000000000000000000000000000000000000000000000000000000000000000000000000000000000000000000000000000000000000000000000000000000000000000000000000000000000000000000000000000000000000000000000000000000000000000
310
00000000000000000000000000000000000000000000000000000000000000000000000000000000000000000000000000000000000000000000000000000000000000000000000000000000000000000000000000000000000000000000000000000000000000000000000000000000000000000000000000000000000000
310
00000000000000000000000000000000000000000000000000000000000000000000000000000000000000000000000000000000000000000000000000000000000000000000000000000000000000000000000000000000000000000000000000000000000000000000000000000000000000000000000000000000000000
310
00000000000000000000000000000000000000000000000000000000000000000000000000000000000000000000000000000000000000000000000000000000000000000000000000000000000000000000000000000000000000000000000000000000000000000000000000000000000000000000000000000000000000
310
00000000000000000000000000000000000000000000000000000000000000000000000000000000000000000000000000000000000000000000000000000000000000000000000000000000000000000000000000000000000000000000000000000000000000000000000000000000000000000000000000000000000000
310
00000000000000000000000000000000000000000000000000000000000000000000000000000000000000000000000000000000000000000000000000000000000000000000000000000000000000000000000000000000000000000000000000000000000000000000000000000000000000000000000000000000000000
310
00000000000000000000000000000000000000000000000000000000000000000000000000000000000000000000000000000000000000000000000000000000000000000000000000000000000000000000000000000000000000000000000000000000000000000000000000000000000000000000000000000000000000
310
00000000000000000000000000000000000000000000000000000000000000000000000000000000000000000000000000000000000000000000000000000000000000000000000000000000000000000000000000000000000000000000000000000000000000000000000000000000000000000000000000000000000000
310
00000000000000000000000000000000000000000000000000000000000000000000000000000000000000000000000000000000000000000000000000000000000000000000000000000000000000000000000000000000000000000000000000000000000000000000000000000000000000000000000000000000000000
310
00000000000000000000000000000000000000000000000000000000000000000000000000000000000000000000000000000000000000000000000000000000000000000000000000000000000000000000000000000000000000000000000000000000000000000000000000000000000000000000000000000000000000
310
00000000000000000000000000000000000000000000000000000000000000000000000000000000000000000000000000000000000000000000000000000000000000000000000000000000000000000000000000000000000000000000000000000000000000000000000000000000000000000000000000000000000000
310
00000000000000000000000000000000000000000000000000000000000000000000000000000000000000000000000000000000000000000000000000000000000000000000000000000000000000000000000000000000000000000000000000000000000000000000000000000000000000000000000000000000000000
310
00000000000000000000000000000000000000000000000000000000000000000000000000000000000000000000000000000000000000000000000000000000000000000000000000000000000000000000000000000000000000000000000000000000000000000000000000000000000000000000000000000000000000
310
00000000000000000000000000000000000000000000000000000000000000000000000000000000000000000000000000000000000000000000000000000000000000000000000000000000000000000000000000000000000000000000000000000000000000000000000000000000000000000000000000000000000000
310
00000000000000000000000000000000000000000000000000000000000000000000000000000000000000000000000000000000000000000000000000000000000000000000000000000000000000000000000000000000000000000000000000000000000000000000000000000000000000000000000000000000000000
310
00000000000000000000000000000000000000000000000000000000000000000000000000000000000000000000000000000000000000000000000000000000000000000000000000000000000000000000000000000000000000000000000000000000000000000000000000000000000000000000000000000000000000
310
00000000000000000000000000000000000000000000000000000000000000000000000000000000000000000000000000000000000000000000000000000000000000000000000000000000000000000000000000000000000000000000000000000000000000000000000000000000000000000000000000000000000000
310
00000000000000000000000000000000000000000000000000000000000000000000000000000000000000000000000000000000000000000000000000000000000000000000000000000000000000000000000000000000000000000000000000000000000000000000000000000000000000000000000000000000000000
310
00000000000000000000000000000000000000000000000000000000000000000000000000000000000000000000000000000000000000000000000000000000000000000000000000000000000000000000000000000000000000000000000000000000000000000000000000000000000000000000000000000000000000
310
00000000000000000000000000000000000000000000000000000000000000000000000000000000000000000000000000000000000000000000000000000000000000000000000000000000000000000000000000000000000000000000000000000000000000000000000000000000000000000000000000000000000000
310
00000000000000000000000000000000000000000000000000000000000000000000000000000000000000000000000000000000000000000000000000000000000000000000000000000000000000000000000000000000000000000000000000000000000000000000000000000000000000000000000000000000000000
310
00000000000000000000000000000000000000000000000000000000000000000000000000000000000000000000000000000000000000000000000000000000000000000000000000000000000000000000000000000000000000000000000000000000000000000000000000000000000000000000000000000000000000
310
00000000000000000000000000000000000000000000000000000000000000000000000000000000000000000000000000000000000000000000000000000000000000000000000000000000000000000000000000000000000000000000000000000000000000000000000000000000000000000000000000000000000000
310
00000000000000000000000000000000000000000000000000000000000000000000000000000000000000000000000000000000000000000000000000000000000000000000000000000000000000000000000000000000000000000000000000000000000000000000000000000000000000000000000000000000000000
310
00000000000000000000000000000000000000000000000000000000000000000000000000000000000000000000000000000000000000000000000000000000000000000000000000000000000000000000000000000000000000000000000000000000000000000000000000000000000000000000000000000000000000
310
00000000000000000000000000000000000000000000000000000000000000000000000000000000000000000000000000000000000000000000000000000000000000000000000000000000000000000000000000000000000000000000000000000000000000000000000000000000000000000000000000000000000000
310
00000000000000000000000000000000000000000000000000000000000000000000000000000000000000000000000000000000000000000000000000000000000000000000000000000000000000000000000000000000000000000000000000000000000000000000000000000000000000000000000000000000000000
310
00000000000000000000000000000000000000000000000000000000000000000000000000000000000000000000000000000000000000000000000000000000000000000000000000000000000000000000000000000000000000000000000000000000000000000000000000000000000000000000000000000000000000
310
00000000000000000000000000000000000000000000000000000000000000000000000000000000000000000000000000000000000000000000000000000000000000000000000000000000000000000000000000000000000000000000000000000000000000000000000000000000000000000000000000000000000000
310
00000000000000000000000000000000000000000000000000000000000000000000000000000000000000000000000000000000000000000000000000000000000000000000000000000000000000000000000000000000000000000000000000000000000000000000000000000000000000000000000000000000000000
310
00000000000000000000000000000000000000000000000000000000000000000000000000000000000000000000000000000000000000000000000000000000000000000000000000000000000000000000000000000000000000000000000000000000000000000000000000000000000000000000000000000000000000
310
00000000000000000000000000000000000000000000000000000000000000000000000000000000000000000000000000000000000000000000000000000000000000000000000000000000000000000000000000000000000000000000000000000000000000000000000000000000000000000000000000000000000000
310
00000000000000000000000000000000000000000000000000000000000000000000000000000000000000000000000000000000000000000000000000000000000000000000000000000000000000000000000000000000000000000000000000000000000000000000000000000000000000000000000000000000000000
310
00000000000000000000000000000000000000000000000000000000000000000000000000000000000000000000000000000000000000000000000000000000000000000000000000000000000000000000000000000000000000000000000000000000000000000000000000000000000000000000000000000000000000
310
00000000000000000000000000000000000000000000000000000000000000000000000000000000000000000000000000000000000000000000000000000000000000000000000000000000000000000000000000000000000000000000000000000000000000000000000000000000000000000000000000000000000000
310
00000000000000000000000000000000000000000000000000000000000000000000000000000000000000000000000000000000000000000000000000000000000000000000000000000000000000000000000000000000000000000000000000000000000000000000000000000000000000000000000000000000000000
310
00000000000000000000000000000000000000000000000000000000000000000000000000000000000000000000000000000000000000000000000000000000000000000000000000000000000000000000000000000000000000000000000000000000000000000000000000000000000000000000000000000000000000
310
00000000000000000000000000000000000000000000000000000000000000000000000000000000000000000000000000000000000000000000000000000000000000000000000000000000000000000000000000000000000000000000000000000000000000000000000000000000000000000000000000000000000000
310
00000000000000000000000000000000000000000000000000000000000000000000000000000000000000000000000000000000000000000000000000000000000000000000000000000000000000000000000000000000000000000000000000000000000000000000000000000000000000000000000000000000000000
310
000000000000000000000000000000000000000000000000000000000000000000000000000000000000F5F5F5F5F5F5F5F5F500F5F5F5F5F5F5F5F5F5F50000000000000000000000000000000000000000000000000000000000000000000000000000000000000000000000000000000000000000000000000000000000
310
00000000000000000000000000000000000000000000000000000000000000000000000000000000000000000000000000000000000000000000000000000000000000000000000000000000000000000000000000000000000000000000000000000000000000000000000000000000000000000000000000000000000000
310
0000000000000000000000000000000000000000000000000000000000000000000000000000000000000000F5F5F5F5F5F5F5F5F5F5F5F5F5F5F5F5F5F5F5F5000000000000000000000000000000000000000000000000000000000000000000000000000000000000000000000000000000000000000000000000000000
310
00000000000000000000000000000000000000000000000000000000000000000000000000000000000000000000000000000000000000000000000000000000000000000000000000000000000000000000000000000000000000000000000000000000000000000000000000000000000000000000000000000000000000
310
00000000000000000000000000000000000000000000000000000000000000000000000000000000000000000000000000000000000000000000000000000000000000000000000000000000000000000000000000000000000000000000000000000000000000000000000000000000000000000000000000000000000000
310
0000000000000000000000000000000000F5F5F5F5F5F5F5F5F5F5F5F5F5F5F5F5F5F5F5F5F5F5F5F5F5F5F5F5F5F5F5F5F5F5F5F5F5F5F5F5F5F5F5F5F5F5F5F5F5F5F5F5F5F5F5F5F5F5F5F5F5F5F5F5F5F5F5F5F5F5F5F5F5F5F5F5F5F5F5F5F5F5F5F5F5F5F5F5F5F5F5F5F5F5F5F5F5F5F5F5F5F5F5F5F5F5F5F5F5F5
310
F5F5F5F5F5F5F5F5F5F5F5F5F5F5F5F5F5F5F5F5F5F5F5F5F5F5F5F5F5F5F5F5F5F5F5F5F5F5F5F5F5F5F5F5F5F5F5F5F5F5F5F5F5F5F5F5F5F5F5F5F5F5F5F5F5F5F5F5F500000000000000000000000000000000000000000000000000000000000000000000000000000000000000000000000000000000000000000000
310
00000000000000000000000000000000000000F50000000000000000000000000000000000000000000000000000000000000000000000000000000000000000000000000000000000000000000000000000000000000000000000000000000000000000000000000000000000000000000000000000000000000000000000
310
0000000000000000000000000000000000000000000000000000000000000000000000F500000000000000000000000000F5F5F50000000000000000F5F5F5F5000000000000F50000000000000000000000000000000000000000000000000000000000000000000000000000000000000000000000000000000000000000
310
000000000000000000000000000000000000000000F5000000000000000000000000000000000000000000000000000000000000000000000000000000000000000000000000000000000000000000000000000000000000000000000000000000000000000000000000000000000000000000000000000000000000000000
310
00000000000000000000000000000000000000000000000000000000000000000000000000F5F5F5F5F5F5F5F5F5F5F5F5F5F5F500F50000000000000000F5F5F5F5000000000000F5000000000000000000000000000000000000000000000000000000000000000000000000000000000000000000000000000000000000
310
0000000000000000000000000000000000000000000000F500000000000000000000000000000000000000000000000000000000000000000000000000000000000000000000000000000000000000000000000000000000000000000000000000000000000000000000000000000000000000000000000000000000000000
310
000000000000000000000000000000000000000000000000000000000000000000000000000000F500F5F500F5F500F5F500F5F500F5F5F50000000000000000F5F5F5F5000000000000F500000000000000000000000000000000000000000000000000000000000000000000000000000000000000000000000000000000
310
00000000000000000000000000000000000000000000000000F50000000000000000000000000000000000000000000000000000000000000000000000000000000000000000000000000000000000000000000000000000000000000000000000000000000000000000000000000000000000000000000000000000000000
310
0000000000000000000000000000000000000000000000000000000000000000000000000000000000F5F5F5F5F5F5F5F5F5F5F5F5F5F5F5F5F5F5F5F5F5F5F5F5F5F5F5F5F5F5F5F5F5F5F5F50000000000000000000000000000000000000000000000000000000000000000000000000000000000000000000000000000
310
000000000000000000000000000000000000000000000000000000F5000000000000000000000000000000000000000000000000000000000000000000000000000000000000000000000000000000000000000000000000000000000000000000000000000000000000000000000000000000000000000000000000000000
310
00000000000000000000000000000000000000000000000000000000000000000000000000000000000000F5F5F5F5F5F5F5F500000000000000000000F5F5F50000F5F5F5F5F5F5F5F5F5000000F5000000000000000000000000000000000000000000000000000000000000000000000000000000000000000000000000
310
0000000000000000000000000000000000000000000000000000000000F500000000000000000000000000000000000000000000000000000000000000000000000000000000000000000000000000000000000000000000000000000000000000000000000000000000000000000000000000000000000000000000000000
310
000000000000000000000000000000000000000000000000000000000000000000000000000000000000000000F5F5F5F5F5F5F5F500000000000000000000F5F5F50000F5F5F5F500F5F5F5F5000000F500000000000000000000000000000000000000000000000000000000000000000000000000000000000000000000
310
00000000000000000000000000000000000000000000000000000000000000F50000000000000000000000000000000000000000000000000000000000000000000000000000000000000000000000000000000000000000000000000000000000000000000000000000000000000000000000000000000000000000000000
310
0000000000000000000000000000000000000000000000000000000000000000000000000000000000000000000000F5F5F5F5F5F5F5F5F5F5F5F5F5F5F5F5F5F5F5F5F5F5F5F5F5F5F5F5F5F5F5F5F5F5F5F50000000000000000000000000000000000000000000000000000000000000000000000000000000000000000
310
000000000000000000000000000000000000000000000000000000000000000000F5000000000000000000000000000000000000000000000000000000000000000000000000000000000000000000000000000000000000000000000000000000000000000000000000000000000000000000000000000000000000000000
310
00000000000000000000000000000000000000000000000000000000000000000000000000000000000000000000000000F5F5F5F5F5F5F5F500000000000000F5F5F5F5F5F5F5F5F5F5F5000000000000F5F5F5F5000000000000000000000000000000000000000000000000000000000000000000000000000000000000
310
0000000000000000000000000000000000000000000000000000000000000000000000F500000000000000000000000000000000000000000000000000000000000000000000000000000000000000000000000000000000000000000000000000000000000000000000000000000000000000000000000000000000000000
310
000000000000000000000000000000000000000000000000000000000000000000000000000000000000000000000000000000F5F5F5F5F5F5F5F5F5F5F5F5F5F5F5F5F5F5F5F5F5F5F5F5F5F5F5F5F5F5F5F5F5F5F5F500000000000000000000000000000000000000000000000000000000000000000000000000000000
310
00000000000000000000000000000000000000000000000000000000000000000000000000F50000000000000000000000000000000000000000000000000000000000000000000000000000000000000000000000000000000000000000000000000000000000000000000000000000000000000000000000000000000000
310
0000000000000000000000000000000000000000000000000000000000000000000000000000000000000000000000000000000000F5F5F5F5F5F5F5F500000000000000000000F5F5F5F5F5F5F5F5000000000000000000F50000000000000000000000000000000000000000000000000000000000000000000000000000
310
000000000000000000000000000000000000000000000000000000000000000000000000000000F5000000000000000000000000000000000000000000000000000000000000000000000000000000000000000000000000000000000000000000000000000000000000000000000000000000000000000000000000000000
310
00000000000000000000000000000000000000000000000000000000000000000000000000000000000000000000000000000000000000F5F5F5F5F5F5F5F5F5F5F5F5F5F5F5F5F5F5F5F5F5F5F5F5F5F5F5F5F5F5F5F5F5F5F5F5000000000000000000000000000000000000000000000000000000000000000000000000
310
0000000000000000000000000000000000000000000000000000000000000000000000000000000000F500000000000000000000000000000000000000000000000000000000000000000000000000000000000000000000000000000000000000000000000000000000000000000000000000000000000000000000000000
310
000000000000000000000000000000000000000000000000000000000000000000000000000000000000000000000000000000000000000000F5F5F50000F5F5F5000000F5F5F5F5F5F5F5F5F5F5F5F5F5F5F5F5F500000000000000F500000000000000000000000000000000000000000000000000000000000000000000
310
00000000000000000000000000000000000000000000000000000000000000000000000000000000000000F50000000000000000000000000000000000000000000000000000000000000000000000000000000000000000000000000000000000000000000000000000000000000000000000000000000000000000000000
310
0000000000000000000000000000000000000000000000000000000000000000000000000000000000000000000000000000000000000000000000F5F5F50000F5F5F5000000F5F5F5F5F5F5F5F5F5F5F5F5F5F5F5F5F500000000000000F50000000000000000000000000000000000000000000000000000000000000000
310
000000000000000000000000000000000000000000000000000000000000000000000000000000000000000000F5000000000000000000000000000000000000000000000000000000000000000000000000000000000000000000000000000000000000000000000000000000000000000000000000000000000000000000
310
00000000000000000000000000000000000000000000000000000000000000000000000000000000000000000000000000000000000000000000000000F5000000000000F5000000000000000000000000000000000000000000000000000000F5000000000000000000000000000000000000000000000000000000000000
310
0000000000000000000000000000000000000000000000000000000000000000000000000000000000000000000000F500000000000000000000000000000000000000000000000000000000000000000000000000000000000000000000000000000000000000000000000000000000000000000000000000000000000000
310
000000000000000000000000000000000000000000000000000000000000000000000000000000000000000000000000000000000000000000000000000000F5F5F5F5F5F5F5F5F5F5F5F5F5F5F5F5F5F5F5F5F5F5F5F5F5F5F5F5F5F5F5F5F5F5F5F500000000000000000000000000000000000000000000000000000000
310
00000000000000000000000000000000000000000000000000000000000000000000000000000000000000000000000000F50000000000000000000000000000000000000000000000000000000000000000000000000000000000000000000000000000000000000000000000000000000000000000000000000000000000
310
00000000000000000000000000000000000000000000000000000000000000000000000000000000000000000000000000000000000000000000000000000000000000000000000000000000000000000000000000000000000000000000000000000000F50000000000000000000000000000000000000000000000000000
310
000000000000000000000000000000000000000000000000000000000000000000000000000000000000000000000000000000F5000000000000000000000000000000000000000000000000000000000000000000000000000000000000000000000000000000000000000000000000000000000000000000000000000000
310
000000000000000000000000000000000000000000000000000000000000000000000000000000000000000000000000000000000000000000000000000000000000000000000000000000000000000000000000000000000000000000000000000000000000F5000000000000000000000000000000000000000000000000
310
0000000000000000000000000000000000000000000000000000000000000000000000000000000000000000000000000000000000F500000000000000000000000000000000000000000000000000000000000000000000000000000000000000000000000000000000000000000000000000000000000000000000000000
310
0000000000000000000000000000000000000000000000000000000000000000000000000000000000000000000000000000000000000000000000000000000000000000000000000000000000000000000000000000000000000000000000000000000000000000F500000000000000000000000000000000000000000000
310
00000000000000000000000000000000000000000000000000000000000000000000000000000000000000000000000000000000000000F50000000000000000000000000000000000000000000000000000000000000000000000000000000000000000000000000000000000000000000000000000000000000000000000
310
00000000000000000000000000000000000000000000000000000000000000000000000000000000000000000000000000000000000000000000000000000000000000000000000000000000000000000000000000000000000000000000000000000000000000000000F50000000000000000000000000000000000000000
310
000000000000000000000000000000000000000000000000000000000000000000000000000000000000000000000000000000000000000000F5000000000000000000000000000000000000000000000000000000000000000000000000000000000000000000000000000000000000000000000000000000000000000000
310
000000000000000000000000000000000000000000000000000000000000000000000000000000000000000000000000000000000000000000000000000000000000000000000000000000000000000000000000000000000000000000000000000000000000000000000000F5000000000000000000000000000000000000
310
0000000000000000000000000000000000000000000000000000000000000000000000000000000000000000000000000000000000000000000000F500000000000000000000000000000000000000000000000000000000000000000000000000000000000000000000000000000000000000000000000000000000000000
310
0000000000000000000000000000000000000000000000000000000000000000000000000000000000000000000000000000000000000000000000000000000000000000000000000000000000000000000000000000000000000000000000000000000000000000000000000000F500000000000000000000000000000000
310
00000000000000000000000000000000000000000000000000000000000000000000000000000000000000000000000000000000000000000000000000F50000000000000000000000000000000000000000000000000000000000000000000000000000000000000000000000000000000000000000000000000000000000
310
00000000000000000000000000000000000000000000000000000000000000000000000000000000000000000000000000000000000000000000000000000000000000000000000000000000000000000000000000000000000000000000000000000000000000000000000000000000F50000000000000000000000000000
310
000000000000000000000000000000000000000000000000000000000000000000000000000000000000000000000000000000000000000000000000000000F5000000000000000000000000000000000000000000000000000000000000000000000000000000000000000000000000000000000000000000000000000000
310
000000000000000000000000000000000000000000000000000000000000000000000000000000000000000000000000000000000000000000000000000000000000000000000000000000000000000000000000000000000000000000000000000000000000000000000000000000000000F5000000000000000000000000
310
0000000000000000000000000000000000000000000000000000000000000000000000000000000000000000000000000000000000000000000000000000000000F500000000000000000000000000000000000000000000000000000000000000000000000000000000000000000000000000000000000000000000000000
310
0000000000000000000000000000000000000000000000000000000000000000000000000000000000000000000000000000000000000000000000000000000000000000000000000000000000000000000000000000000000000000000000000000000000000000000000000000000000000000F500000000000000000000
310
00000000000000000000000000000000000000000000000000000000000000000000000000000000000000000000000000000000000000000000000000000000000000F50000000000000000000000000000000000000000000000000000000000000000000000000000000000000000000000000000000000000000000000
310
00000000000000000000000000000000000000000000000000000000000000000000000000000000000000000000000000000000000000000000000000000000000000000000000000000000000000000000000000000000000000000000000000000000000000000000000000000000000000000000F50000000000000000
310
000000000000000000000000000000000000000000000000000000000000000000000000000000000000000000000000000000000000000000000000000000000000000000F5000000000000000000000000000000000000000000000000000000000000000000000000000000000000000000000000000000000000000000
310
000000000000000000000000000000000000000000000000000000000000000000000000000000000000000000000000000000000000000000000000000000000000000000000000000000000000000000000000000000000000000000000000000000000000000000000000000000000000000000000000F5000000000000
310
0000000000000000000000000000000000000000000000000000000000000000000000000000000000000000000000000000000000000000000000000000000000000000000000F500000000000000000000000000000000000000000000000000000000000000000000000000000000000000000000000000000000000000
310
0000000000000000000000000000000000000000000000000000000000000000000000000000000000000000000000000000000000000000000000000000000000000000000000000000000000000000000000000000000000000000000000000000000000000000000000000000000000000000000000000000F500000000
310
00000000000000000000000000000000000000000000000000000000000000000000000000000000000000000000000000000000000000000000000000000000000000000000000000F50000000000000000000000000000000000000000000000000000000000000000000000000000000000000000000000000000000000
310
00000000000000000000000000000000000000000000000000000000000000000000000000000000000000000000000000000000000000000000000000000000000000000000000000000000000000000000000000000000000000000000000000000000000000000000000000000000000000000000000000000000F50000
310
000000000000000000000000000000000000000000000000000000000000000000000000000000000000000000000000000000000000000000000000000000000000000000000000000000F5000000000000000000000000000000000000000000000000000000000000000000000000000000000000000000000000000000
310
000000000000000000000000000000000000000000000000000000000000000000000000000000000000000000000000000000000000000000000000000000000000000000000000000000000000000000000000000000000000000000000000000000000000000000000000000000000000000000000000000000000000F5
310
0000000000000000000000000000000000000000000000000000000000000000000000000000000000000000000000000000000000000000000000000000000000000000000000000000000000F500000000000000000000000000000000000000000000000000000000000000000000000000000000000000000000000000
310
00000000000000000000000000000000000000000000000000000000000000000000000000000000000000000000000000000000000000000000000000000000000000000000000000000000000000000000000000000000000000000000000000000000000000000000000000000000000000000000000000000000000000
310
00F50000000000000000000000000000000000000000000000000000000000000000000000000000000000000000000000000000000000000000000000000000000000000000000000000000000000F50000000000000000000000000000000000000000000000000000000000000000000000000000000000000000000000
310
00000000000000000000000000000000000000000000000000000000000000000000000000000000000000000000000000000000000000000000000000000000000000000000000000000000000000000000000000000000000000000000000000000000000000000000000000000000000000000000000000000000000000
310
000000F50000000000000000000000000000000000000000000000000000000000000000000000000000000000000000000000000000000000000000000000000000000000000000000000000000000000F5000000000000000000000000000000000000000000000000000000000000000000000000000000000000000000
310
00000000000000000000000000000000000000000000000000000000000000000000000000000000000000000000000000000000000000000000000000000000000000000000000000000000000000000000000000000000000000000000000000000000000000000000000000000000000000000000000000000000000000
310
0000000000F50000000000000000000000000000000000000000000000000000000000000000000000000000000000000000000000000000000000000000000000000000000000000000000000000000000000F500000000000000000000000000000000000000000000000000000000000000000000000000000000000000
310
00000000000000000000000000000000000000000000000000000000000000000000000000000000000000000000000000000000000000000000000000000000000000000000000000000000000000000000000000000000000000000000000000000000000000000000000000000000000000000000000000000000000000
310
00000000000000F50000000000000000000000000000000000000000000000000000000000000000000000000000000000000000000000000000000000000000000000000000000000000000000000000000000000F50000000000000000000000000000000000000000000000000000000000000000000000000000000000
310
00000000000000000000000000000000000000000000000000000000000000000000000000000000000000000000000000000000000000000000000000000000000000000000000000000000000000000000000000000000000000000000000000000000000000000000000000000000000000000000000000000000000000
310
000000000000000000F50000000000000000000000000000000000000000000000000000000000000000000000000000000000000000000000000000000000000000000000000000000000000000000000000000000000F5000000000000000000000000000000000000000000000000000000000000000000000000000000
310
00000000000000000000000000000000000000000000000000000000000000000000000000000000000000000000000000000000000000000000000000000000000000000000000000000000000000000000000000000000000000000000000000000000000000000000000000000000000000000000000000000000000000
310
0000000000000000000000F50000000000000000000000000000000000000000000000000000000000000000000000000000000000000000000000000000000000000000000000000000000000000000000000000000000000F500000000000000000000000000000000000000000000000000000000000000000000000000
310
00000000000000000000000000000000000000000000000000000000000000000000000000000000000000000000000000000000000000000000000000000000000000000000000000000000000000000000000000000000000000000000000000000000000000000000000000000000000000000000000000000000000000
310
00000000000000000000000000F50000000000000000000000000000000000000000000000000000000000000000000000000000000000000000000000000000000000000000000000000000000000000000000000000000000000F50000000000000000000000000000000000000000000000000000000000000000000000
310
00000000000000000000000000000000000000000000000000000000000000000000000000000000000000000000000000000000000000000000000000000000000000000000000000000000000000000000000000000000000000000000000000000000000000000000000000000000000000000000000000000000000000
310
000000000000000000000000000000F50000000000000000000000000000000000000000000000000000000000000000000000000000000000000000000000000000000000000000000000000000000000000000000000000000000000F5000000000000000000000000000000000000000000000000000000000000000000
310
00000000000000000000000000000000000000000000000000000000000000000000000000000000000000000000000000000000000000000000000000000000000000000000000000000000000000000000000000000000000000000000000000000000000000000000000000000000000000000000000000000000000000
310
0000000000000000000000000000000000F50000000000000000000000000000000000000000000000000000000000000000000000000000000000000000000000000000000000000000000000000000000000000000000000000000000000F500000000000000000000000000000000000000000000000000000000000000
310
00000000000000000000000000000000000000000000000000000000000000000000000000000000000000000000000000000000000000000000000000000000000000000000000000000000000000000000000000000000000000000000000000000000000000000000000000000000000000000000000000000000000000
310
00000000000000000000000000000000000000F50000000000000000000000000000000000000000000000000000000000000000000000000000000000000000000000000000000000000000000000000000000000000000000000000000000000F50000000000000000000000000000000000000000000000000000000000
310
00000000000000000000000000000000000000000000000000000000000000000000000000000000000000000000000000000000000000000000000000000000000000000000000000000000000000000000000000000000000000000000000000000000000000000000000000000000000000000000000000000000000000
310
000000000000000000000000000000000000000000F50000000000000000000000000000000000000000000000000000000000000000000000000000000000000000000000000000000000000000000000000000000000000000000000000000000000F5000000000000000000000000000000000000000000000000000000
310
00000000000000000000000000000000000000000000000000000000000000000000000000000000000000000000000000000000000000000000000000000000000000000000000000000000000000000000000000000000000000000000000000000000000000000000000000000000000000000000000000000000000000
310
0000000000000000000000000000000000000000000000F50000000000000000000000000000000000000000000000000000000000000000000000000000000000000000000000000000000000000000000000000000000000000000000000000000000000F500000000000000000000000000000000000000000000000000
310
00000000000000000000000000000000000000000000000000000000000000000000000000000000000000000000000000000000000000000000000000000000000000000000000000000000000000000000000000000000000000000000000000000000000000000000000000000000000000000000000000000000000000
310
00000000000000000000000000000000000000000000000000F50000000000000000000000000000000000000000000000000000000000000000000000000000000000000000000000000000000000000000000000000000000000000000000000000000000000F50000000000000000000000000000000000000000000000
310
00000000000000000000000000000000000000000000000000000000000000000000000000000000000000000000000000000000000000000000000000000000000000000000000000000000000000000000000000000000000000000000000000000000000000000000000000000000000000000000000000000000000000
310
000000000000000000000000000000000000000000000000000000F50000000000000000000000000000000000000000000000000000000000000000000000000000000000000000000000000000000000000000000000000000000000000000000000000000000000F5000000000000000000000000000000000000000000
310
00000000000000000000000000000000000000000000000000000000000000000000000000000000000000000000000000000000000000000000000000000000000000000000000000000000000000000000000000000000000000000000000000000000000000000000000000000000000000000000000000000000000000
310
0000000000000000000000000000000000000000000000000000000000F50000000000000000000000000000000000000000000000000000000000000000000000000000000000000000000000000000000000000000000000000000000000000000000000000000000000F500000000000000000000000000000000000000
310
00000000000000000000000000000000000000000000000000000000000000000000000000000000000000000000000000000000000000000000000000000000000000000000000000000000000000000000000000000000000000000000000000000000000000000000000000000000000000000000000000000000000000
310
00000000000000000000000000000000000000000000000000000000000000F50000000000000000000000000000000000000000000000000000000000000000000000000000000000000000000000000000000000000000000000000000000000000000000000000000000000F50000000000000000000000000000000000
310
00000000000000000000000000000000000000000000000000000000000000000000000000000000000000000000000000000000000000000000000000000000000000000000000000000000000000000000000000000000000000000000000000000000000000000000000000000000000000000000000000000000000000
310
000000000000000000000000000000000000000000000000000000000000000000F50000000000000000000000000000000000000000000000000000000000000000000000000000000000000000000000000000000000000000000000000000000000000000000000000000000000F5000000000000000000000000000000
310
00000000000000000000000000000000000000000000000000000000000000000000000000000000000000000000000000000000000000000000000000000000000000000000000000000000000000000000000000000000000000000000000000000000000000000000000000000000000000000000000000000000000000
310
0000000000000000000000000000000000000000000000000000000000000000000000F50000000000000000000000000000000000000000000000000000000000000000000000000000000000000000000000000000000000000000000000000000000000000000000000000000000000F500000000000000000000000000
310
00000000000000000000000000000000000000000000000000000000000000000000000000000000000000000000000000000000000000000000000000000000000000000000000000000000000000000000000000000000000000000000000000000000000000000000000000000000000000000000000000000000000000
310
00000000000000000000000000000000000000000000000000000000000000000000000000F50000000000000000000000000000000000000000000000000000000000000000000000000000000000000000000000000000000000000000000000000000000000000000000000000000000000F50000000000000000000000
310
00000000000000000000000000000000000000000000000000000000000000000000000000000000000000000000000000000000000000000000000000000000000000000000000000000000000000000000000000000000000000000000000000000000000000000000000000000000000000000000000000000000000000
310
000000000000000000000000000000000000000000000000000000000000000000000000000000F50000000000000000000000000000000000000000000000000000000000000000000000000000000000000000000000000000000000000000000000000000000000000000000000000000000000F5000000000000000000
310
00000000000000000000000000000000000000000000000000000000000000000000000000000000000000000000000000000000000000000000000000000000000000000000000000000000000000000000000000000000000000000000000000000000000000000000000000000000000000000000000000000000000000
310
0000000000000000000000000000000000000000000000000000000000000000000000000000000000F50000000000000000000000000000000000000000000000000000000000000000000000000000000000000000000000000000000000000000000000000000000000000000000000000000000000F500000000000000
310
00000000000000000000000000000000000000000000000000000000000000000000000000000000000000000000000000000000000000000000000000000000000000000000000000000000000000000000000000000000000000000000000000000000000000000000000000000000000000000000000000000000000000
310
00000000000000000000000000000000000000000000000000000000000000000000000000000000000000F50000000000000000000000000000000000000000000000000000000000000000000000000000000000000000000000000000000000000000000000000000000000000000000000000000000000F50000000000
310
00000000000000000000000000000000000000000000000000000000000000000000000000000000000000000000000000000000000000000000000000000000000000000000000000000000000000000000000000000000000000000000000000000000000000000000000000000000000000000000000000000000000000
310
000000000000000000000000000000000000000000000000000000000000000000000000000000000000000000F50000000000000000000000000000000000000000000000000000000000000000000000000000000000000000000000000000000000000000000000000000000000000000000000000000000000F5000000
310
00000000000000000000000000000000000000000000000000000000000000000000000000000000000000000000000000000000000000000000000000000000000000000000000000000000000000000000000000000000000000000000000000000000000000000000000000000000000000000000000000000000000000
310
0000000000000000000000000000000000000000000000000000000000000000000000000000000000000000000000F50000000000000000000000000000000000000000000000000000000000000000000000000000000000000000000000000000000000000000000000000000000000000000000000000000000000F500
310
00000000000000000000000000000000000000000000000000000000000000000000000000000000F5F5F5F5BEBEBEBE2D2D2D2DBE00000000002D2D00000000000000000000000000000000000000000000000000000000000000000000000000000000000000000000000000000000000000000000000000000000000000
310
00000000000000000000000000000000000000000000000000000000000000000000000000000000000000000000000000F50000000000000000000000000000000000000000000000000000000000000000000000000000000000000000000000000000000000000000000000000000000000000000000000000000000000
310
F50000000000000000000000000000000000000000000000000000000000000000000000000000000000F50000BE2D2D2D2D2D2D2D2DBE00000000002DBE0000000000000000000000000000000000000000000000000000000000000000000000000000000000000000000000000000000000000000000000000000000000
310
000000000000000000000000000000000000000000000000000000000000000000000000000000000000000000000000000000F5000000000000000000000000000000000000000000000000000000000000000000000000000000000000000000000000000000000000000000000000000000000000000000000000000000
310
0000F50000000000000000000000000000000000000000000000000000000000000000000000000000000000F50000BE2D2D2D2D2D2D2D2DBE00000000002DBE000000000000000000000000000000000000000000000000000000000000000000000000000000000000000000000000000000000000000000000000000000
310
0000000000000000000000000000000000000000000000000000000000000000000000000000000000000000000000000000000000F500000000000000000000000000000000000000000000000000000000000000000000000000000000000000000000000000000000000000000000000000000000000000000000000000
310
00000000F5000000000000000000000000000000000000000000000000000000000000000000000000000000F5F5F50000BE2D2D2D2D2D2D2D2DBE00000000002DBE00000000000000000000000000000000000000000000000000000000000000000000000000000000000000000000000000000000000000000000000000
310
00000000000000000000000000000000000000000000000000000000000000000000000000000000000000000000000000000000000000F50000000000000000000000000000000000000000000000000000000000000000000000000000000000000000000000000000000000000000000000000000000000000000000000
310
000000000000F5000000000000000000000000000000000000000000000000000000000000000000000000000000F5F5F50000BE2D2D2D2D2D2D2D2DBE00000000002DBE0000000000000000000000000000000000000000000000000000000000000000000000000000000000000000000000000000000000000000000000
310
000000000000000000000000000000000000000000000000000000000000000000000000000000000000000000000000000000000000000000F5000000000000000000000000000000000000000000000000000000000000000000000000000000000000000000000000000000000000000000000000000000000000000000
310
0000000000000000F5000000000000000000000000000000000000000000000000000000000000000000000000000000F5F5F50000BE2D2D2D002D2D2D2DBE00000000002DBE000000000000000000000000000000000000000000000000000000000000000000000000000000000000000000000000000000000000000000
310
0000000000000000000000000000000000000000000000000000000000000000000000000000000000000000000000000000000000000000000000F500000000000000000000000000000000000000000000000000000000000000000000000000000000000000000000000000000000000000000000000000000000000000
310
00000000000000000000F50000000000000000000000000000000000000000000000000000000000000000000000000000000000F50000BE2D2D2D2D2D2D2D2DBE00000000002DBE00000000000000000000000000000000000000000000000000000000000000000000000000C3C300000000000000000000000000000000
310
00000000000000000000000000000000000000000000000000000000000000000000000000000000000000000000000000000000000000000000000000F50000000000000000000000000000000000000000000000000000000000000000000000000000000000000000000000000000000000000000000000000000000000
310
000000000000000000000000F50000000000000000000000000000000000000000000000000000000000000000000000000000000000F50000BE2D2D2D2D2D2D2D2D2D00000000002DBE000000000000000000000000000000000000000000000000000000000000000000000000000000C3C3000000000000000000000000
310
000000000000000000000000000000000000000000000000000000000000000000000000000000000000000000000000000000000000000000000000000000F5000000000000000000000000000000000000000000000000000000000000000000000000000000000000000000000000000000000000000000000000000000
310
0000000000000000000000000000F50000000000000000000000000000000000000000000000000000000000000000000000000000000000F50000BE2D2D2D2D2D2D2D2DBE00000000002DBE000000000000000000000000000000000000000000000000000000000000000000000000F500000000C3C3C300000000000000
310
0000000000000000000000000000000000000000000000000000000000000000000000000000000000000000000000000000000000000000000000000000000000F500000000000000000000000000000000000000000000000000000000000000000000000000000000000000000000000000000000000000000000000000
310
00000000000000000000000000000000F50000000000000000000000000000000000000000000000000000000000000000000000000000000000F5F5F5F5BEBEBEBEBE2D2DBEF50000000000F5F500000000000000000000000000000000000000000000000000000000000000000000000000F5F500000000C3C3C3000000
310
00000000000000000000000000000000000000000000000000000000000000000000000000000000000000000000000000000000000000000000000000000000000000F50000000000000000000000000000000000000000000000000000000000000000000000000000000000000000000000000000000000000000000000
310
000000000000000000000000000000000000F50000000000000000000000000000000000000000000000000000000000000000000000000000000000000000F50000000000000000F50000000000F5F5000000000000000000000000000000000000000000000000000000000000000000000000000000F5F50000000000C3
310
000000000000000000000000000000000000000000000000000000000000000000000000000000000000000000000000000000000000000000000000000000000000000000F5000000000000000000000000000000000000000000000000000000000000000000000000000000000000000000000000000000000000000000
310
0000000000000000000000000000000000000000F50000000000000000000000000000000000000000000000000000000000000000000000000000000000000000F50000000000000000F50000000000F5F50000000000000000000000000000000000000000000000000000000000000000000000000000000000F5F50000
310
C300C3C300000000000000000000000000000000000000000000000000000000000000000000000000000000000000000000000000000000000000000000000000000000000000F500000000000000000000000000000000000000000000000000000000000000000000000000000000000000000000000000000000000000
310
00000000000000000000000000000000000000000000F50000000000000000000000000000000000000000000000000000000000000000000000000000000000000000F5F5F5F5F5F5F5F5F5F5000000F5F5F5F5F5F50000000000000000000000000000000000000000000000000000000000000000000000000000000000
310
F5F5C3000000C3C30000000000000000000000000000000000000000000000000000000000000000000000000000000000000000000000000000000000000000000000000000000000F50000000000000000000000000000000000000000000000000000000000000000000000000000000000000000000000000000000000
310
000000000000000000000000000000000000000000000000F500000000000000000000000000000000000000000000000000000000000000000000000000000000000000000000F5F5F5F5000000000000000000F5F50000000000000000000000000000000000000000000000000000000000000000000000000000000000
310
00000000F5F500000000C3C3000000000000000000000000000000000000000000000000000000000000000000000000000000000000000000000000000000000000000000000000000000F5000000000000000000000000000000000000000000000000000000000000000000000000000000000000000000000000000000
310
0000000000000000000000000000000000000000000000000000F500000000000000000000000000000000000000000000000000000000000000000000000000000000000000000000000000000000000000000000000000000000000000000000000000000000000000000000000000000000000000000000000000000000
310
0000000000000000F5F500000000C3C300000000000000000000000000000000000000000000000000000000000000000000000000000000000000000000000000000000000000000000000000F500000000000000000000000000000000000000000000000000000000000000000000000000000000000000000000000000
310
00000000000000000000000000000000000000000000000000000000F5000000000000000000000000000000000000000000000000000000000000000000000000000000000000000000F5F5F5F5F5F5F5F5F5F5F5F50000000000000000000000000000000000000000000000000000000000000000000000000000000000
310
000000000000000000000000F5F50000C3C3C3C3C300000000000000000000000000000000000000000000000000000000000000000000000000000000000000000000000000000000000000000000F50000000000000000000000000000000000000000000000000000000000000000000000000000000000000000000000
310
000000000000000000000000000000000000000000000000000000000000F5000000000000000000000000000000000000000000000000000000000000000000000000000000000000000000F5F5F5F5F5F5F5F5F5F5F5F5000000000000000000000000000000000000000000000000000000000000000000000000000000
310
00000000000000000000000000000000F5F5C3000000C3C3C30000000000000000000000000000000000000000000000000000000000000000000000000000000000000000000000000000000000000000F5000000000000000000000000000000000000000000000000000000000000000000000000000000000000000000
310
0000000000000000000000000000000000000000000000000000000000000000F5000000000000000000000000000000000000000000000000000000000000000000000000000000000000000000F5F5F5F5F5F5F5F5F5F5F5F500000000000000000000000000000000000000000000000000000000000000000000000000
310
0000000000000000000000000000000000000000F5F50000000000C300000000000000000000000000000000000000000000000000000000000000000000000000000000000000000000000000000000000000F500000000000000000000000000000000000000000000000000000000000000000000000000000000000000
310
00000000000000000000000000000000000000000000000000000000000000000000F50000000000000000000000000000000000000000000000000000000000000000000000000000000000000000000000000000000000000000000000000000000000000000000000000000000000000000000000000000000000000000
310
000000000000000000000000000000000000000000000000F5F500000000C3F50000000000000000000000000000000000000000000000000000000000000000000000000000000000000000000000000000000000F50000000000000000000000000000000000000000000000000000000000000000000000000000000000
310
000000000000000000000000000000000000000000000000000000000000000000000000F5000000000000000000000000000000000000000000000000000000000000000000000000000000000000000000000000000000000000000000000000000000000000000000000000000000000000000000000000000000000000
310
000000000000000000000000000000F5F5F5F5000000000000000000F5F5000000F50000000000000000000000000000000000000000000000000000000000000000000000000000000000000000000000000000000000F5000000000000000000000000000000000000000000000000000000000000000000000000000000
310
0000000000000000000000000000000000000000000000000000000000000000000000000000F500000000000000000000000000000000000000000000000000000000000000000000000000000000000000000000000000000000000000000000000000000000000000000000000000000000000000000000000000000000
310
0000F5F5F5F5F5F5F5F5F5F5F5F5F5F5F5F5F5F5F5F5F5F5F5F5F5F5F5F5F5F5F5F5F5BEBEBE000000000000000000000000000000000000000000000000000000000000000000000000000000000000000000000000000000F500000000000000000000000000000000000000000000000000000000000000000000000000
310
00000000000000000000000000000000000000000000000000000000000000000000000000000000F50000000000000000000000000000000000000000000000000000000000000000000000000000000000000000000000000000000000000000000000000000000000000000000000000000000000000000000000000000
310
0000000000000000000000000000000000000000F5F500F5F5F5F5000000000000000000F5F5BEBEBEBE00000000000000000000000000000000000000000000000000000000000000000000000000000000000000000000000000F50000000000000000000000000000000000000000000000000000000000000000000000
310
000000000000000000000000000000000000000000000000000000000000000000000000000000000000F50000000000000000000000000000000000000000000000000000000000000000000000000000000000F5F5F50FBEBEBEBEBEBEBE0F0F0000000000BEBE0000000000000000000000000000000000000000000000
310
00000000000000000000000000000000000000000000F5F500000000000000000000000000000000F5F5BEBEBEBE0000000000000000000000000000000000000000000000000000000000000000000000000000000000000000000000F5000000000000000000000000000000000000000000000000000000000000000000
310
0000000000000000000000000000000000000000000000000000000000000000000000000000000000000000F50000000000000000000000000000000000000000000000000000000000000000000000000000000000F500000FBEBEBEBEBEBEBE0F0F0000000000BEBE000000000000000000000000000000000000000000
310
0000000000000000000000000000000000000000000000000000000000000000000000000000000000000000F5F5BEBEBEF5BE0000F5F5F5000000000000000000000000000000000000000000000000000000000000000000000000000000F500000000000000000000000000000000000000000000000000000000000000
310
00000000000000000000000000000000000000000000000000000000000000000000000000000000000000000000F50000000000000000000000000000000000000000000000000000000000000000000000000000000000F50000BEBEBEBEBEBEBEBEBEBE0000000000BEBE00000000000000000000000000000000000000
310
000000000000000000000000000000000000000000000000000000000000000000000000000000000000000000000000F5F5F5F5F5BEF5F5F500000000000000000000000000000000000000000000000000000000000000000000000000000000F50000000000000000000000000000000000000000000000000000000000
310
000000000000000000000000000000000000000000000000000000000000000000000000000000000000000000000000F5000000000000000000000000000000000000000000000000000000000000000000000000000000F5F5F50000BEBE000000000000BEBE0000000000BEBE0000000000000000000000000000000000
310
000000000000000000000000000000000000000000000000000000000000000000000000000000000000000000000000000000F5F5F5F5F5F5BEBE00000000000000000000000000000000000000000000000000000000000000000000000000000000F5000000000000000000000000000000000000000000000000000000
310
0000000000000000000000000000000000000000000000000000000000000000000000000000000000000000000000000000F5000000000000000000000000000000000000000000000000000000000000000000000000000000F5F5F50000BEBE000000000000BEBE0000000000BEBE000000000000000000000000000000
310
00000000000000000000000000000000000000000000000000000000000000000000000000000000000000000000000000000000F5000000F5F5F50000BEBE0000000000000000000000000000000000000000000000000000000000000000000000000000F500000000000000000000000000000000000000000000000000
310
00000000000000000000000000000000000000000000000000000000000000000000000000000000000000000000000000000000F5000000000000000000000000000000000000000000000000000000000000000000000000000000F5F5F50000BEBE000000000000BEBE0000000000BEBE00000000000000000000000000
310
0000000000000000000000000000000000000000000000000000000000000000000000000000000000000000000000000000000000F50000000000F5F5BEBE0000BEBE000000000000000000000000000000000000000000000000000000000000000000000000F50000000000000000000000000000000000000000000000
310
000000000000000000000000000000000000000000000000000000000000000000000000000000000000000000000000000000000000F5000000000000000000000000000000000000000000000000000000000000000000000000000000F5F5F50000BEBE000000000000BEBE0000000000BE2D0000000000000000000000
310
0000000000000000000000000000000000000000000000000000000000000000000000000000F5F5F5F5F5F5F5F5F5F5F5F5F5F5F5F5F5000000000000000000F5BEBE00BE000000000000000000000000000000000000000000000000000000000000000000000000F5000000000000000000000000000000000000000000
310
0000000000000000000000000000000000000000000000000000000000000000000000000000000000000000000000000000000000000000F50000000000000000000000000000000000000000000000000000000000000000000000000000000000F50000BEBE000000000000BEBE0000000000BE2D000000000000000000
310
00000000000000000000000000000000000000000000000000000000000000000000000000000000F5F5F5F5F5F5F5F5F5F5F5F5F5F5F500000000000000000000000000F5F5F5F5F5F5F5F5F5F5F5F5F5F5F5F5F500000000000000000000000000000000000000000000F500000000000000000000000000000000000000
310
00000000000000000000000000000000000000000000000000000000000000000000000000000000000000000000000000000000000000000000F50000000000000000000000000000000000000000000000000000000000000000000000000000000000F50000BEBEBEBEBEBEBEBEBEBE0000000000BE2D00000000000000
310
00000000000000000000000000000000000000000000000000000000000000000000000000000000000000000000000000000000000000000000000000000000000000000000000000000000000000000000000000000000000000000000000000000000000000000000000000F50000000000000000000000000000000000
310
000000000000000000000000000000000000000000000000000000000000000000000000000000000000000000000000000000000000000000000000F50000000000000000000000000000000000000000000000000000000000000000000000000000000000F50000BEBEBEBEBEBEBEBEBEBE00000000002DBE0000000000
310
000000000000000000000000000000000000000000000000000000000000000000000000000000000000000000000000000000000000000000000000000000000000000000000000000000000000000000000000000000000000000000000000000000000000000000000000000000F5000000000000000000000000000000
310
0000000000000000000000000000000000000000000000000000000000000000000000000000000000000000000000000000000000000000000000000000F50000000000000000000000000000000000000000000000000000000000000000000000000000000000F5F5F5F5BEBEBEBEBEBEBEBEF50000000000F5F5000000
310
0000000000000000000000000000000000000000000000000000000000000000000000000000000000000000000000000000000000000000000000000000000000000000000000000000000000000000000000000000000000000000000000000000000000000000000000000000000000F500000000000000000000000000
310
00000000000000000000000000000000000000000000000000000000000000000000000000000000000000000000000000000000000000000000000000000000F50000000000000000000000000000000000000000000000000000000000000000000000000000000000000000F50000000000000000F50000000000F5F500
310
00000000000000000000000000000000000000000000000000000000000000000000000000000000000000000000000000000000000000000000000000000000000000000000000000000000000000000000000000000000000000000000000000000000000000000000000000000000000000F50000000000000000000000
310
000000000000000000000000000000000000000000000000000000000000000000000000000000000000000000000000000000000000000000000000000000000000F50000000000000000000000000000000000000000000000000000000000000000000000000000000000000000F500000000000000F5F500000000F5F5
310
F5F500000000000000000000000000000000000000000000000000000000000000000000000000000000000000000000000000000000000000000000000000000000000000000000000000000000000000000000000000000000000000000000000000000000000000000000000000000000000000F5000000000000000000
310
0000000000000000000000000000000000000000000000000000000000000000000000000000000000000000000000000000000000000000000000000000000000000000F50000000000000000000000000000000000000000000000000000000000000000000000000000000000000000F5F5F5F5F5F5F5F5F5F5000000F5
310
F5F5F5F5F5000000000000000000000000000000000000000000000000000000000000000000000000000000000000000000000000000000000000000000000000000000000000000000000000000000000000000000000000000000000000000000000000000000000000000000000000000000000000F500000000000000
310
00000000000000000000000000000000000000000000000000000000000000000000000000000000000000000000000000000000000000000000000000000000000000000000F500000000000000000000000000000000000000000000000000000000000000000000000000000000000000000000F5F5F5F5000000000000
310
00000000000000000000000000000000000000000000000000000000000000000000000000000000000000000000000000000000000000000000000000000000000000000000000000000000000000000000000000000000000000000000000000000000000000000000000000000000000000000000000000F50000000000
310
000000000000000000000000000000000000000000000000000000000000000000000000000000000000000000000000000000000000000000000000000000000000000000000000F5000000000000000000000000000000000000000000000000000000000000000000000000000000000000000000000000000000000000
310
000000000000000000000000000000000000000000000000000000000000000000000000000000000000000000000000000000000000000000000000000000000000000000000000000000000000000000000000000000000000000000000000000000000000000000000000000000000000000000000000000000F5000000
310
0000000000000000000000000000000000000000000000000000000000000000000000000000000000000000000000000000000000000000000000000000000000000000000000000000F5000000000000000000000000000000000000000000000000000000000000000000000000000000000000000000F5F5F5F5F5F5F5
310
F5F5F5F5F5000000000000000000000000000000000000000000000000000000000000000000000000000000000000000000000000000000000000000000000000000000000000000000000000000000000000000000000000000000000000000000000000000000000000000000000000000000000000000000000000F500
310
00000000000000000000000000000000000000000000000000000000000000000000000000000000000000000000000000000000000000000000000000000000000000000000000000000000F5000000000000000000000000000000000000000000000000000000000000000000000000000000000000000000F5F5F5F5F5
310
F5F5F5F5F5F5F5000000000000000000000000000000000000000000000000000000000000000000000000000000000000000000000000000000000000000000000000000000000000000000000000000000000000000000000000000000000000000000000000000000000000000000000000000000000000000000000000
310
F50000000000000000000000000000000000000000000000000000000000000000000000000000000000000000000000000000000000000000000000000000000000000000000000000000000000F5000000000000000000000000000000000000000000000000000000000000000000000000000000000000000000F5F5F5
310
F5F5F5F5F5F5F5F5F500000000000000000000000000000000000000000000000000000000000000000000000000000000000000000000000000000000000000000000000000000000000000000000000000000000000000000000000000000000000000000000000000000000000000000000000000000000000000000000
310
0000F50000000000000000000000000000000000000000000000000000000000000000000000000000000000000000000000000000000000000000000000000000000000000000000000000000000000F500000000000000000000000000000000000000000000000000000000000000000000000000000000000000000000
310
00000000000000000000000000000000000000000000000000000000000000000000000000000000000000000000000000000000000000000000000000000000000000000000000000000000000000000000000000000000000000000000000000000000000000000000000000000000000000000000000000000000000000
310
00000000F50000000000000000000000000000000000000000000000000000000000000000000000000000000000000000000000000000000000000000000000000000000000000000000000000000000000F50000000000000000000000000000000000000000000000000000000000000000000000000000000000000000
310
00000000000000000000000000000000000000000000000000000000000000000000000000000000000000000000000000000000000000000000000000000000000000000000000000000000000000000000000000000000000000000000000000000000000000000000000000000000000000000000000000000000000000
310
000000000000F50000000000000000000000000000000000000000000000000000000000000000000000000000000000000000000000000000000000000000000000000000000000000000000000000000000000F5000000000000000000000000000000000000000000000000000000000000000000000000000000000000
310
00000000000000000000000000000000000000000000000000000000000000000000000000000000000000000000000000000000000000000000000000000000000000000000000000000000000000000000000000000000000000000000000000000000000000000000000000000000000000000000000000000000000000
310
0000000000000000F50000000000000000000000000000000000000000000000000000000000000000000000000000000000000000000000000000000000000000000000000000000000000000000000000000000000F500000000000000000000000000000000000000000000000000000000000000000000000000000000
310
00000000000000000000000000000000000000000000000000000000000000000000000000000000000000000000000000000000000000000000000000000000000000000000000000000000000000000000000000000000000000000000000000000000000000000000000000000000000000000000000000000000000000
310
00000000000000000000F50000000000000000000000000000000000000000000000000000000000000000000000000000000000000000000000000000000000000000000000000000000000000000000000000000000000F50000000000000000000000000000000000000000000000000000000000000000000000000000
310
00000000000000000000000000000000000000000000000000000000000000000000000000000000000000000000000000000000000000000000000000000000000000000000000000000000000000000000000000000000000000000000000000000000000000000000000000000000000000000000000000000000000000
310
000000000000000000000000F50000000000000000000000000000000000000000000000000000000000000000000000000000000000000000000000000000000000000000000000000000000000000000000000000000000000F5000000000000000000000000000000000000000000000000000000000000000000000000
310
00000000000000000000000000000000000000000000000000000000000000000000000000000000000000000000000000000000000000000000000000000000000000000000000000000000000000000000000000000000000000000000000000000000000000000000000000000000000000000000000000000000000000
310
0000000000000000000000000000F50000000000000000000000000000000000000000000000000000000000000000000000000000000000000000000000000000000000000000000000000000000000000000000000000000000000F500000000000000000000000000000000000000000000000000000000000000000000
310
00000000000000000000000000000000000000000000000000000000000000000000000000000000000000000000000000000000000000000000000000000000000000000000000000000000000000000000000000000000000000000000000000000000000000000000000000000000000000000000000000000000000000
310
00000000000000000000000000000000F50000000000000000000000000000000000000000000000000000000000000000000000000000000000000000000000000000000000000000000000000000000000000000000000000000000000F50000000000000000000000000000000000000000000000000000000000000000
310
00000000000000000000000000000000000000000000000000000000000000000000000000000000000000000000000000000000000000000000000000000000000000000000000000000000000000000000000000000000000000000000000000000000000000000000000000000000000000000000000000000000000000
310
000000000000000000000000000000000000F50000000000000000000000000000000000000000000000000000000000000000000000000000000000000000000000000000000000000000000000000000000000000000000000000000000000F5000000000000000000000000000000000000000000000000000000000000
310
00000000000000000000000000000000000000000000000000000000000000000000000000000000000000000000000000000000000000000000000000000000000000000000000000000000000000000000000000000000000000000000000000000000000000000000000000000000000000000000000000000000000000
310
0000000000000000000000000000000000000000F50000000000000000000000000000000000000000000000000000000000000000000000000000000000000000000000000000000000000000000000000000000000000000000000000000000000F500000000000000000000000000000000000000000000000000000000
310
00000000000000000000000000000000000000000000000000000000000000000000000000000000000000000000000000000000000000000000000000000000000000000000000000000000000000000000000000000000000000000000000000000000000000000000000000000000000000000000000000000000000000
310
00000000000000000000000000000000000000000000F50000000000000000000000000000000000000000000000000000000000000000000000000000000000000000000000000000000000000000000000000000000000000000000000000000000000F50000000000000000000000000000000000000000000000000000
310
00000000000000000000000000000000000000000000000000000000000000000000000000000000000000000000000000000000000000000000000000000000000000000000000000000000000000000000000000000000000000000000000000000000000000000000000000000000000000000000000000000000000000
310
000000000000000000000000000000000000000000000000F50000000000000000000000000000000000000000000000000000000000000000000000000000000000000000000000000000000000000000000000000000000000000000000000000000000000F5000000000000000000000000000000000000000000000000
310
00000000000000000000000000000000000000000000000000000000000000000000000000000000000000000000000000000000000000000000000000000000000000000000000000000000000000000000000000000000000000000000000000000000000000000000000000000000000000000000000000000000000000
310
0000000000000000000000000000000000000000000000000000F50000000000000000000000000000000000000000000000000000000000000000000000000000000000000000000000000000000000000000000000000000000000000000000000000000000000F500000000000000000000000000000000000000000000
310
00000000000000000000000000000000000000000000000000000000000000000000000000000000000000000000000000000000000000000000000000000000000000000000000000000000000000000000000000000000000000000000000000000000000000000000000000000000000000000000000000000000000000
310
00000000000000000000000000000000000000000000000000000000F50000000000000000000000000000000000000000000000000000000000000000000000000000000000000000000000000000000000000000000000000000000000000000000000000000000000F50000000000000000000000000000000000000000
310
00000000000000000000000000000000000000000000000000000000000000000000000000000000000000000000000000000000000000000000000000000000000000000000000000000000000000000000000000000000000000000000000000000000000000000000000000000000000000000000000000000000000000
310
000000000000000000000000000000000000000000000000000000000000F50000000000000000000000000000000000000000000000000000000000000000000000000000000000000000000000000000000000000000000000000000000000000000000000000000000000F5000000000000000000000000000000000000
310
00000000000000000000000000000000000000000000000000000000000000000000000000000000000000000000000000000000000000000000000000000000000000000000000000000000000000000000000000000000000000000000000000000000000000000000000000000000000000000000000000000000000000
310
0000000000000000000000000000000000000000000000000000000000000000F50000000000000000000000000000000000000000000000000000000000000000000000000000000000000000000000000000000000000000000000000000000000000000000000000000000000F500000000000000000000000000000000
310
00000000000000000000000000000000000000000000000000000000000000000000000000000000000000000000000000000000000000000000000000000000000000000000000000000000000000000000000000000000000000000000000000000000000000000000000000000000000000000000000000000000000000
310
00000000000000000000000000000000000000000000000000000000000000000000F50000000000000000000000000000000000000000000000000000000000000000000000000000000000000000000000000000000000000000000000000000000000000000000000000000000000F50000000000000000000000000000
310
00000000000000000000000000000000000000000000000000000000000000000000000000000000000000000000000000000000000000000000000000000000000000000000000000000000000000000000000000000000000000000000000000000000000000000000000000000000000000000000000000000000000000
310
000000000000000000000000000000000000000000000000000000000000000000000000F50000000000000000000000000000000000000000000000000000000000000000000000000000000000000000000000000000000000000000000000000000000000000000000000000000000000F5000000000000000000000000
310
00000000000000000000000000000000000000000000000000000000000000000000000000000000000000000000000000000000000000000000000000000000000000000000000000000000000000000000000000000000000000000000000000000000000000000000000000000000000000000000000000000000000000
310
0000000000000000000000000000000000000000000000000000000000000000000000000000F50000000000000000000000000000000000000000000000000000000000000000000000000000000000000000000000000000000000000000000000000000000000000000000000000000000000F500000000000000000000
310
00000000000000000000000000000000000000000000000000000000000000000000000000000000000000000000000000000000000000000000000000000000000000000000000000000000000000000000000000000000000000000000000000000000000000000000000000000000000000000000000000000000000000
310
00000000000000000000000000000000000000000000000000000000000000000000000000000000F50000000000000000000000000000000000000000000000000000000000000000000000000000000000000000000000000000000000000000000000000000000000000000000000000000000000F50000000000000000
310
00000000000000000000000000000000000000000000000000000000000000000000000000000000000000000000000000000000000000000000000000000000000000000000000000000000000000000000000000000000000000000000000000000000000000000000000000000000000000000000000000000000000000
310
000000000000000000000000000000000000000000000000000000000000000000000000000000000000F50000000000000000000000000000000000000000000000000000000000000000000000000000000000000000000000000000000000000000000000000000000000000000000000000000000000F5000000000000
310
00000000000000000000000000000000000000000000000000000000000000000000000000000000000000000000000000000000000000000000000000000000000000000000000000000000000000000000000000000000000000000000000000000000000000000000000000000000000000000000000000000000000000
310
0000000000000000000000000000000000000000000000000000000000000000000000000000000000000000F50000000000000000000000000000000000000000000000000000000000000000000000000000000000000000000000000000000000000000000000000000000000000000000000000000000000F500000000
310
00000000000000000000000000000000000000000000000000000000000000000000000000000000000000000000000000000000000000000000000000000000000000000000000000000000000000000000000000000000000000000000000000000000000000000000000000000000000000000000000000000000000000
310
00000000000000000000000000000000000000000000000000000000000000000000000000000000000000000000F50000000000000000000000000000000000000000000000000000000000000000000000000000000000000000000000000000000000000000000000000000000000000000000000000000000000F50000
310
00000000000000000000000000000000000000000000000000000000000000000000000000000000000000000000000000000000000000000000000000000000000000000000000000000000000000000000000000000000000000000000000000000000000000000000000000000000000000000000000000000000000000
310
000000000000000000000000000000000000000000000000000000000000000000000000000000000000000000000000F50000000000000000000000000000000000000000000000000000000000000000000000000000000000000000000000000000000000000000000000000000000000000000000000000000000000F5
310
00000000000000000000000000000000000000000000000000000000000000000000000000000000000000000000000000000000000000000000000000000000000000000000000000000000000000000000000000000000000000000000000000000000000000000000000000000000000000000000000000000000000000
310
0000000000000000000000000000000000000000000000000000000000000000000000000000000000000000000000000000F500000000000000000000000000000000000000000000000000000000000000000000000000000000000000000000000000000000000000000000000000000000000000000000000000000000
310
00F50000000000000000000000000000000000000000000000000000000000000000000000000000000000000000000000000000000000000000000000000000000000000000000000000000000000000000000000000000000000000000000000000000000000000000000000000000000000000000000000000000000000
310
00000000000000000000000000000000000000000000000000000000000000000000000000000000000000000000000000000000F50000000000000000000000000000000000000000000000000000000000000000000000000000000000000000000000000000000000000000000000000000000000000000000000000000
310
000000F5000000000000000000000000000000000000000000000000000000000000000000000000000000000000000000000000000000000000000000000000000000000000000000000000000000000000000000000000000000000000000000000000000000000000000000000000000000000000000000000000000000
310
000000000000000000000000000000000000000000000000000000000000000000000000000000000000000000000000000000000000F5000000000000000000000000000000000000000000000000000000000000000000000000000000000000000000000000000000000000000000000000000000000000000000000000
310
0000000000F500000000000000000000000000000000000000000000000000000000000000000000000000000000000000000000000000000000000000000000000000000000000000000000000000000000000000000000000000000000000000000000000000000000000000000000000000000000000000000000000000
310
0000000000000000000000000000000000000000000000000000000000000000000000000000000000000000000000000000000000000000F500000000000000000000000000000000000000000000000000000000000000000000000000000000000000000000000000000000000000000000000000000000000000000000
310
00000000000000F50000000000000000000000000000000000000000000000000000000000000000000000000000000000000000000000000000000000000000000000000000000000000000000000000000000000000000000000000000000000000000000000000000000000000000000000000000000000000000000000
310
00000000000000000000000000000000000000000000000000000000000000000000000000000000000000000000000000000000000000000000F50000000000000000000000000000000000000000000000000000000000000000000000000000000000000000000000000000000000000000000000000000000000000000
310
000000000000000000F5F5F5F5F5F5F5F5F5F5F5F5F5F5F5F5F5F5F5F5F5F5F5F5F5F5F5F5F5F5F5F5F5F5F5F5F5F5F5F5F5F5F5F5F5F5F5F5F5F5F5F5F5F5F5F5F5F5F5F5F5F5F5F5F5F5F5F5F5F5F5F5F5F5F5F5F5F5F5F5F5F5F5F5F5F5F5F5F5F5F5F5F5F5F5F5F5F5F5F5F5F5F5F5F5F5F5F5F5F5F5F5F5F5F5F5F5F5
310
F5F5F5F5F5F5F5F5F5F5F5F5F5F5F5F5F5F5F5F5F5F5F5F5F5F5F5F5F5F5F5F5F5F5F5F5F5F5F5F5F5F5F5F5F5F5F5F5F5F5F5F5F5F5F5F5F5F5F5F5F5000000000000000000000000000000000000000000000000000000000000000000000000000000000000000000000000000000000000000000000000000000000000
310
0000000000000000000000F500F5F5F5F5F5F5F5F5F500F500000000000000000000000000000000000000000000000000000000000000000000000000000000000000000000000000000000000000000000000000000000000000000000000000000000000000000000000000000000000000000000000000000000000000
310
00000000000000000000000000000000000000000000000000000000000000000000000000000000000000000000000000000000000000000000000000000000000000000000000000000000000000000000000000000000000000000000000000000000000000000000000000000000000000000000000000000000000000
310
00000000000000000000000000F500F5F500F5F50000F5F500F50000000000000000000000000000000000000000000000000000000000000000000000000000000000000000000000000000000000000000000000000000000000000000000000000000000000000000000000000000000000000000000000000000000000
310
00000000000000000000000000000000000000000000000000000000000000000000000000000000000000000000000000000000000000000000000000000000000000000000000000000000000000000000000000000000000000000000000000000000000000000000000000000000000000000000000000000000000000
310
000000000000000000000000000000F5F5F5F5F5F5F5F5F5F5F5F5F5000000000000000000000000000000000000000000000000000000000000000000000000000000000000000000000000000000000000000000000000000000000000000000000000000000000000000000000000000000000000000000000000000000
310
00000000000000000000000000000000000000000000000000000000000000000000000000000000000000000000000000000000000000000000000000000000000000000000000000000000000000000000000000000000000000000000000000000000000000000000000000000000000000000000000000000000000000
310
00000000000000000000000000000000000000000000000000000000000000000000000000000000000000000000000000000000000000000000000000000000000000000000000000000000000000000000000000000000000000000000000000000000000000000000000000000000000000000000000000000000000000
310
00000000000000000000000000000000000000000000000000000000000000000000000000000000000000000000000000000000000000000000000000000000000000000000000000000000000000000000000000000000000000000000000000000000000000000000000000000000000000000000000000000000000000
310
00000000000000000000000000000000000000000000000000000000000000000000000000000000000000000000000000000000000000000000000000000000000000000000000000000000000000000000000000000000000000000000000000000000000000000000000000000000000000000000000000000000000000
310
00000000000000000000000000000000000000000000000000000000000000000000000000000000000000000000000000000000000000000000000000000000000000000000000000000000000000000000000000000000000000000000000000000000000000000000000000000000000000000000000000000000000000
310
00000000000000000000000000000000000000000000000000000000000000000000000000000000000000000000000000000000000000000000000000000000000000000000000000000000000000000000000000000000000000000000000000000000000000000000000000000000000000000000000000000000000000
310
00000000000000000000000000000000000000000000000000000000000000000000000000000000000000000000000000000000000000000000000000000000000000000000000000000000000000000000000000000000000000000000000000000000000000000000000000000000000000000000000000000000000000
310
00000000000000000000000000000000000000000000000000000000000000000000000000000000000000000000000000000000000000000000000000000000000000000000000000000000000000000000000000000000000000000000000000000000000000000000000000000000000000000000000000000000000000
310
00000000000000000000000000000000000000000000000000000000000000000000000000000000000000000000000000000000000000000000000000000000000000000000000000000000000000000000000000000000000000000000000000000000000000000000000000000000000000000000000000000000000000
310
00000000000000000000000000000000000000000000000000000000000000000000000000000000000000000000000000000000000000000000000000000000000000000000000000000000000000000000000000000000000000000000000000000000000000000000000000000000000000000000000000000000000000
310
00000000000000000000000000000000000000000000000000000000000000000000000000000000000000000000000000000000000000000000000000000000000000000000000000000000000000000000000000000000000000000000000000000000000000000000000000000000000000000000000000000000000000
310
00000000000000000000000000000000000000000000000000000000000000000000000000000000000000000000000000000000000000000000000000000000000000000000000000000000000000000000000000000000000000000000000000000000000000000000000000000000000000000000000000000000000000
310
00000000000000000000000000000000000000000000000000000000000000000000000000000000000000000000000000000000000000000000000000000000000000000000000000000000000000000000000000000000000000000000000000000000000000000000000000000000000000000000000000000000000000
310
00000000000000000000000000000000000000000000000000000000000000000000000000000000000000000000000000000000000000000000000000000000000000000000000000000000000000000000000000000000000000000000000000000000000000000000000000000000000000000000000000000000000000
310
00000000000000000000000000000000000000000000000000000000000000000000000000000000000000000000000000000000000000000000000000000000000000000000000000000000000000000000000000000000000000000000000000000000000000000000000000000000000000000000000000000000000000
310
00000000000000000000000000000000000000000000000000000000000000000000000000000000000000000000000000000000000000000000000000000000000000000000000000000000000000000000000000000000000000000000000000000000000000000000000000000000000000000000000000000000000000
310
00000000000000000000000000000000000000000000000000000000000000000000000000000000000000000000000000000000000000000000000000000000000000000000000000000000000000000000000000000000000000000000000000000000000000000000000000000000000000000000000000000000000000
310
00000000000000000000000000000000000000000000000000000000000000000000000000000000000000000000000000000000000000000000000000000000000000000000000000000000000000000000000000000000000000000000000000000000000000000000000000000000000000000000000000000000000000
310
00000000000000000000000000000000000000000000000000000000000000000000000000000000000000000000000000000000000000000000000000000000000000000000000000000000000000000000000000000000000000000000000000000000000000000000000000000000000000000000000000000000000000
310
00000000000000000000000000000000000000000000000000000000000000000000000000000000000000000000000000000000000000000000000000000000000000000000000000000000000000000000000000000000000000000000000000000000000000000000000000000000000000000000000000000000000000
310
0000000000000000000000000000000000000000000000000000000000000000000000000000000000000000000000000000000000000000000000000000000000000000000000000000000000000000000000000000000000000000000000000000000000000000000000000000000000000000000000000000
  0
XRECORD
  5
7B89
102
{ACAD_REACTORS
330
7B88
102
}
330
7B88
100
AcDbXrecord
280
     1
102
MATERIAL
148
0.0
149
0.0
149
0.0
 93
        0
 94
      127
282
     0
 72
     0
 77
     0
171
     0
175
     0
179
     0
273
     0
  0
XRECORD
  5
7B8B
102
{ACAD_REACTORS
330
7B8A
102
}
330
7B8A
100
AcDbXrecord
280
     1
102
MATERIAL
148
0.0
149
0.0
149
0.0
 93
        0
 94
      127
282
     0
 72
     0
 77
     0
171
     0
175
     0
179
     0
273
     0
  0
XRECORD
  5
7B8D
102
{ACAD_REACTORS
330
7B8C
102
}
330
7B8C
100
AcDbXrecord
280
     1
102
MATERIAL
148
0.0
149
0.0
149
0.0
 93
        0
 94
      127
282
     0
 72
     0
 77
     0
171
     0
175
     0
179
     0
273
     0
  0
XRECORD
  5
7B7A
102
{ACAD_REACTORS
330
7B79
102
}
330
7B79
100
AcDbXrecord
280
     1
102
DISPLAYNAME
  1
Imperial24
102
FLAGS
 90
        0
  0
CELLSTYLEMAP
  5
7B90
102
{ACAD_REACTORS
330
7B8E
102
}
330
7B8E
100
AcDbCellStyleMap
 90
        3
300
CELLSTYLE
  1
TABLEFORMAT_BEGIN
 90
        5
170
     1
 91
        0
 92
    32768
 62
   257
 93
        1
300
CONTENTFORMAT
  1
CONTENTFORMAT_BEGIN
 90
        0
 91
        0
 92
        4
 93
        0
300

 40
0.0
140
1.0
 94
        5
 62
     0
340
F
144
0.25
309
CONTENTFORMAT_END
171
     0
 94
        6
 95
        1
302
GRIDFORMAT
  1
GRIDFORMAT_BEGIN
 90
        0
 91
        1
 62
     0
 92
       -2
340
0
 93
        0
 40
0.045
309
GRIDFORMAT_END
 95
        2
302
GRIDFORMAT
  1
GRIDFORMAT_BEGIN
 90
        0
 91
        1
 62
     0
 92
       -2
340
0
 93
        0
 40
0.045
309
GRIDFORMAT_END
 95
        4
302
GRIDFORMAT
  1
GRIDFORMAT_BEGIN
 90
        0
 91
        1
 62
     0
 92
       -2
340
0
 93
        0
 40
0.045
309
GRIDFORMAT_END
 95
        8
302
GRIDFORMAT
  1
GRIDFORMAT_BEGIN
 90
        0
 91
        1
 62
     0
 92
       -2
340
0
 93
        0
 40
0.045
309
GRIDFORMAT_END
 95
       16
302
GRIDFORMAT
  1
GRIDFORMAT_BEGIN
 90
        0
 91
        1
 62
     0
 92
       -2
340
0
 93
        0
 40
0.045
309
GRIDFORMAT_END
 95
       32
302
GRIDFORMAT
  1
GRIDFORMAT_BEGIN
 90
        0
 91
        1
 62
     0
 92
       -2
340
0
 93
        0
 40
0.045
309
GRIDFORMAT_END
309
TABLEFORMAT_END
  1
CELLSTYLE_BEGIN
 90
        1
 91
        1
300
_TITLE
309
CELLSTYLE_END
300
CELLSTYLE
  1
TABLEFORMAT_BEGIN
 90
        5
170
     1
 91
        0
 92
        0
 62
   257
 93
        1
300
CONTENTFORMAT
  1
CONTENTFORMAT_BEGIN
 90
        0
 91
        0
 92
        4
 93
        0
300

 40
0.0
140
1.0
 94
        5
 62
     0
340
F
144
0.18
309
CONTENTFORMAT_END
171
     0
 94
        6
 95
        1
302
GRIDFORMAT
  1
GRIDFORMAT_BEGIN
 90
        0
 91
        1
 62
     0
 92
       -2
340
0
 93
        0
 40
0.045
309
GRIDFORMAT_END
 95
        2
302
GRIDFORMAT
  1
GRIDFORMAT_BEGIN
 90
        0
 91
        1
 62
     0
 92
       -2
340
0
 93
        0
 40
0.045
309
GRIDFORMAT_END
 95
        4
302
GRIDFORMAT
  1
GRIDFORMAT_BEGIN
 90
        0
 91
        1
 62
     0
 92
       -2
340
0
 93
        0
 40
0.045
309
GRIDFORMAT_END
 95
        8
302
GRIDFORMAT
  1
GRIDFORMAT_BEGIN
 90
        0
 91
        1
 62
     0
 92
       -2
340
0
 93
        0
 40
0.045
309
GRIDFORMAT_END
 95
       16
302
GRIDFORMAT
  1
GRIDFORMAT_BEGIN
 90
        0
 91
        1
 62
     0
 92
       -2
340
0
 93
        0
 40
0.045
309
GRIDFORMAT_END
 95
       32
302
GRIDFORMAT
  1
GRIDFORMAT_BEGIN
 90
        0
 91
        1
 62
     0
 92
       -2
340
0
 93
        0
 40
0.045
309
GRIDFORMAT_END
309
TABLEFORMAT_END
  1
CELLSTYLE_BEGIN
 90
        2
 91
        1
300
_HEADER
309
CELLSTYLE_END
300
CELLSTYLE
  1
TABLEFORMAT_BEGIN
 90
        5
170
     1
 91
        0
 92
        0
 62
   257
 93
        1
300
CONTENTFORMAT
  1
CONTENTFORMAT_BEGIN
 90
        0
 91
        0
 92
        4
 93
        0
300

 40
0.0
140
1.0
 94
        2
 62
     0
340
F
144
0.18
309
CONTENTFORMAT_END
171
     0
 94
        6
 95
        1
302
GRIDFORMAT
  1
GRIDFORMAT_BEGIN
 90
        0
 91
        1
 62
     0
 92
       -2
340
0
 93
        0
 40
0.045
309
GRIDFORMAT_END
 95
        2
302
GRIDFORMAT
  1
GRIDFORMAT_BEGIN
 90
        0
 91
        1
 62
     0
 92
       -2
340
0
 93
        0
 40
0.045
309
GRIDFORMAT_END
 95
        4
302
GRIDFORMAT
  1
GRIDFORMAT_BEGIN
 90
        0
 91
        1
 62
     0
 92
       -2
340
0
 93
        0
 40
0.045
309
GRIDFORMAT_END
 95
        8
302
GRIDFORMAT
  1
GRIDFORMAT_BEGIN
 90
        0
 91
        1
 62
     0
 92
       -2
340
0
 93
        0
 40
0.045
309
GRIDFORMAT_END
 95
       16
302
GRIDFORMAT
  1
GRIDFORMAT_BEGIN
 90
        0
 91
        1
 62
     0
 92
       -2
340
0
 93
        0
 40
0.045
309
GRIDFORMAT_END
 95
       32
302
GRIDFORMAT
  1
GRIDFORMAT_BEGIN
 90
        0
 91
        1
 62
     0
 92
       -2
340
0
 93
        0
 40
0.045
309
GRIDFORMAT_END
309
TABLEFORMAT_END
  1
CELLSTYLE_BEGIN
 90
        3
 91
        2
300
_DATA
309
CELLSTYLE_END
  0
XRECORD
  5
7B8F
102
{ACAD_REACTORS
330
7B8E
102
}
330
7B8E
100
AcDbXrecord
280
     1
102
ACAD_ROUNDTRIP_PRE2007_TABLESTYLE
 90
        4
 91
        0
  1

 92
        4
 93
        0
  2

 94
        4
 95
        0
  3

  0
XRECORD
  5
7B93
102
{ACAD_REACTORS
330
7B92
102
}
330
7B92
100
AcDbXrecord
280
     1
102
RTVSPropertyOp0
 70
     1
102
RTVSPropertyOp1
 70
     1
102
RTVSPropertyOp2
 70
     1
102
RTVSPropertyOp3
 70
     1
102
RTVSPropertyOp4
 70
     1
102
RTVSPropertyOp5
 70
     1
102
RTVSPropertyOp6
 70
     1
102
RTVSPropertyOp7
 70
     1
102
RTVSPropertyOp8
 70
     1
102
RTVSPropertyOp9
 70
     1
102
RTVSPropertyOp10
 70
     1
102
RTVSPropertyOp11
 70
     1
102
RTVSPropertyOp12
 70
     1
102
RTVSPropertyOp13
 70
     1
102
RTVSPropertyOp14
 70
     1
102
RTVSPropertyOp15
 70
     1
102
RTVSPropertyOp16
 70
     1
102
RTVSPropertyOp17
 70
     1
102
RTVSPropertyOp18
 70
     1
102
RTVSPropertyOp19
 70
     1
102
RTVSPropertyOp20
 70
     1
102
RTVSPropertyOp21
 70
     1
102
RTVSPropertyOp22
 70
     1
102
RTVSPropertyOp23
 70
     1
102
RTVSPropertyOp24
 70
     1
102
RTVSPropertyOp25
 70
     1
102
RTVSPropertyOp26
 70
     1
102
RTVSPropertyOp27
 70
     1
  0
XRECORD
  5
7B95
102
{ACAD_REACTORS
330
7B94
102
}
330
7B94
100
AcDbXrecord
280
     1
102
RTVSPropertyOp0
 70
     1
102
RTVSPropertyOp1
 70
     1
102
RTVSPropertyOp2
 70
     1
102
RTVSPropertyOp3
 70
     1
102
RTVSPropertyOp4
 70
     1
102
RTVSPropertyOp5
 70
     1
102
RTVSPropertyOp6
 70
     1
102
RTVSPropertyOp7
 70
     1
102
RTVSPropertyOp8
 70
     1
102
RTVSPropertyOp9
 70
     1
102
RTVSPropertyOp10
 70
     1
102
RTVSPropertyOp11
 70
     1
102
RTVSPropertyOp12
 70
     1
102
RTVSPropertyOp13
 70
     1
102
RTVSPropertyOp14
 70
     1
102
RTVSPropertyOp15
 70
     1
102
RTVSPropertyOp16
 70
     1
102
RTVSPropertyOp17
 70
     1
102
RTVSPropertyOp18
 70
     1
102
RTVSPropertyOp19
 70
     1
102
RTVSPropertyOp20
 70
     1
102
RTVSPropertyOp21
 70
     1
102
RTVSPropertyOp22
 70
     1
102
RTVSPropertyOp23
 70
     1
102
RTVSPropertyOp24
 70
     1
102
RTVSPropertyOp25
 70
     1
102
RTVSPropertyOp26
 70
     1
102
RTVSPropertyOp27
 70
     1
  0
XRECORD
  5
7B97
102
{ACAD_REACTORS
330
7B96
102
}
330
7B96
100
AcDbXrecord
280
     1
102
RTVSPropertyOp0
 70
     1
102
RTVSPropertyOp1
 70
     1
102
RTVSPropertyOp2
 70
     1
102
RTVSPropertyOp3
 70
     1
102
RTVSPropertyOp4
 70
     1
102
RTVSPropertyOp5
 70
     1
102
RTVSPropertyOp6
 70
     1
102
RTVSPropertyOp7
 70
     1
102
RTVSPropertyOp8
 70
     1
102
RTVSPropertyOp9
 70
     1
102
RTVSPropertyOp10
 70
     1
102
RTVSPropertyOp11
 70
     1
102
RTVSPropertyOp12
 70
     1
102
RTVSPropertyOp13
 70
     1
102
RTVSPropertyOp14
 70
     1
102
RTVSPropertyOp15
 70
     1
102
RTVSPropertyOp16
 70
     1
102
RTVSPropertyOp17
 70
     1
102
RTVSPropertyOp18
 70
     1
102
RTVSPropertyOp19
 70
     1
102
RTVSPropertyOp20
 70
     1
102
RTVSPropertyOp21
 70
     1
102
RTVSPropertyOp22
 70
     1
102
RTVSPropertyOp23
 70
     1
102
RTVSPropertyOp24
 70
     1
102
RTVSPropertyOp25
 70
     1
102
RTVSPropertyOp26
 70
     1
102
RTVSPropertyOp27
 70
     1
  0
XRECORD
  5
7B99
102
{ACAD_REACTORS
330
7B98
102
}
330
7B98
100
AcDbXrecord
280
     1
102
RTVSPropertyOp0
 70
     1
102
RTVSPropertyOp1
 70
     1
102
RTVSPropertyOp2
 70
     1
102
RTVSPropertyOp3
 70
     1
102
RTVSPropertyOp4
 70
     1
102
RTVSPropertyOp5
 70
     1
102
RTVSPropertyOp6
 70
     1
102
RTVSPropertyOp7
 70
     1
102
RTVSPropertyOp8
 70
     1
102
RTVSPropertyOp9
 70
     1
102
RTVSPropertyOp10
 70
     1
102
RTVSPropertyOp11
 70
     1
102
RTVSPropertyOp12
 70
     1
102
RTVSPropertyOp13
 70
     1
102
RTVSPropertyOp14
 70
     1
102
RTVSPropertyOp15
 70
     1
102
RTVSPropertyOp16
 70
     1
102
RTVSPropertyOp17
 70
     1
102
RTVSPropertyOp18
 70
     1
102
RTVSPropertyOp19
 70
     1
102
RTVSPropertyOp20
 70
     1
102
RTVSPropertyOp21
 70
     1
102
RTVSPropertyOp22
 70
     1
102
RTVSPropertyOp23
 70
     1
102
RTVSPropertyOp24
 70
     1
102
RTVSPropertyOp25
 70
     1
102
RTVSPropertyOp26
 70
     1
102
RTVSPropertyOp27
 70
     1
  0
XRECORD
  5
7B9B
102
{ACAD_REACTORS
330
7B9A
102
}
330
7B9A
100
AcDbXrecord
280
     1
102
RTVSPropertyOp0
 70
     1
102
RTVSPropertyOp1
 70
     1
102
RTVSPropertyOp2
 70
     1
102
RTVSPropertyOp3
 70
     1
102
RTVSPropertyOp4
 70
     1
102
RTVSPropertyOp5
 70
     1
102
RTVSPropertyOp6
 70
     1
102
RTVSPropertyOp7
 70
     1
102
RTVSPropertyOp8
 70
     1
102
RTVSPropertyOp9
 70
     1
102
RTVSPropertyOp10
 70
     1
102
RTVSPropertyOp11
 70
     1
102
RTVSPropertyOp12
 70
     1
102
RTVSPropertyOp13
 70
     1
102
RTVSPropertyOp14
 70
     1
102
RTVSPropertyOp15
 70
     1
102
RTVSPropertyOp16
 70
     1
102
RTVSPropertyOp17
 70
     1
102
RTVSPropertyOp18
 70
     1
102
RTVSPropertyOp19
 70
     1
102
RTVSPropertyOp20
 70
     1
102
RTVSPropertyOp21
 70
     1
102
RTVSPropertyOp22
 70
     1
102
RTVSPropertyOp23
 70
     1
102
RTVSPropertyOp24
 70
     1
102
RTVSPropertyOp25
 70
     1
102
RTVSPropertyOp26
 70
     1
102
RTVSPropertyOp27
 70
     1
  0
XRECORD
  5
7B9D
102
{ACAD_REACTORS
330
7B9C
102
}
330
7B9C
100
AcDbXrecord
280
     1
102
RTVSPropertyOp0
 70
     1
102
RTVSPropertyOp1
 70
     1
102
RTVSPropertyOp2
 70
     1
102
RTVSPropertyOp3
 70
     1
102
RTVSPropertyOp4
 70
     1
102
RTVSPropertyOp5
 70
     1
102
RTVSPropertyOp6
 70
     1
102
RTVSPropertyOp7
 70
     1
102
RTVSPropertyOp8
 70
     1
102
RTVSPropertyOp9
 70
     1
102
RTVSPropertyOp10
 70
     1
102
RTVSPropertyOp11
 70
     1
102
RTVSPropertyOp12
 70
     1
102
RTVSPropertyOp13
 70
     1
102
RTVSPropertyOp14
 70
     1
102
RTVSPropertyOp15
 70
     1
102
RTVSPropertyOp16
 70
     1
102
RTVSPropertyOp17
 70
     1
102
RTVSPropertyOp18
 70
     1
102
RTVSPropertyOp19
 70
     1
102
RTVSPropertyOp20
 70
     1
102
RTVSPropertyOp21
 70
     1
102
RTVSPropertyOp22
 70
     1
102
RTVSPropertyOp23
 70
     1
102
RTVSPropertyOp24
 70
     1
102
RTVSPropertyOp25
 70
     1
102
RTVSPropertyOp26
 70
     1
102
RTVSPropertyOp27
 70
     1
  0
XRECORD
  5
7B9F
102
{ACAD_REACTORS
330
7B9E
102
}
330
7B9E
100
AcDbXrecord
280
     1
102
RTVSPropertyOp0
 70
     1
102
RTVSPropertyOp1
 70
     1
102
RTVSPropertyOp2
 70
     1
102
RTVSPropertyOp3
 70
     1
102
RTVSPropertyOp4
 70
     1
102
RTVSPropertyOp5
 70
     1
102
RTVSPropertyOp6
 70
     1
102
RTVSPropertyOp7
 70
     1
102
RTVSPropertyOp8
 70
     1
102
RTVSPropertyOp9
 70
     1
102
RTVSPropertyOp10
 70
     1
102
RTVSPropertyOp11
 70
     1
102
RTVSPropertyOp12
 70
     1
102
RTVSPropertyOp13
 70
     1
102
RTVSPropertyOp14
 70
     1
102
RTVSPropertyOp15
 70
     1
102
RTVSPropertyOp16
 70
     1
102
RTVSPropertyOp17
 70
     1
102
RTVSPropertyOp18
 70
     1
102
RTVSPropertyOp19
 70
     1
102
RTVSPropertyOp20
 70
     1
102
RTVSPropertyOp21
 70
     1
102
RTVSPropertyOp22
 70
     1
102
RTVSPropertyOp23
 70
     1
102
RTVSPropertyOp24
 70
     1
102
RTVSPropertyOp25
 70
     1
102
RTVSPropertyOp26
 70
     1
102
RTVSPropertyOp27
 70
     1
  0
XRECORD
  5
7BA1
102
{ACAD_REACTORS
330
7BA0
102
}
330
7BA0
100
AcDbXrecord
280
     1
102
RTVSPropertyOp0
 70
     1
102
RTVSPropertyOp1
 70
     1
102
RTVSPropertyOp2
 70
     1
102
RTVSPropertyOp3
 70
     1
102
RTVSPropertyOp4
 70
     1
102
RTVSPropertyOp5
 70
     1
102
RTVSPropertyOp6
 70
     1
102
RTVSPropertyOp7
 70
     1
102
RTVSPropertyOp8
 70
     1
102
RTVSPropertyOp9
 70
     1
102
RTVSPropertyOp10
 70
     1
102
RTVSPropertyOp11
 70
     1
102
RTVSPropertyOp12
 70
     1
102
RTVSPropertyOp13
 70
     1
102
RTVSPropertyOp14
 70
     1
102
RTVSPropertyOp15
 70
     1
102
RTVSPropertyOp16
 70
     1
102
RTVSPropertyOp17
 70
     1
102
RTVSPropertyOp18
 70
     1
102
RTVSPropertyOp19
 70
     1
102
RTVSPropertyOp20
 70
     1
102
RTVSPropertyOp21
 70
     1
102
RTVSPropertyOp22
 70
     1
102
RTVSPropertyOp23
 70
     1
102
RTVSPropertyOp24
 70
     1
102
RTVSPropertyOp25
 70
     1
102
RTVSPropertyOp26
 70
     1
102
RTVSPropertyOp27
 70
     1
  0
XRECORD
  5
7BA3
102
{ACAD_REACTORS
330
7BA2
102
}
330
7BA2
100
AcDbXrecord
280
     1
102
RTVSPropertyOp0
 70
     1
102
RTVSPropertyOp1
 70
     1
102
RTVSPropertyOp2
 70
     1
102
RTVSPropertyOp3
 70
     1
102
RTVSPropertyOp4
 70
     1
102
RTVSPropertyOp5
 70
     1
102
RTVSPropertyOp6
 70
     1
102
RTVSPropertyOp7
 70
     1
102
RTVSPropertyOp8
 70
     1
102
RTVSPropertyOp9
 70
     1
102
RTVSPropertyOp10
 70
     1
102
RTVSPropertyOp11
 70
     1
102
RTVSPropertyOp12
 70
     1
102
RTVSPropertyOp13
 70
     1
102
RTVSPropertyOp14
 70
     1
102
RTVSPropertyOp15
 70
     1
102
RTVSPropertyOp16
 70
     1
102
RTVSPropertyOp17
 70
     1
102
RTVSPropertyOp18
 70
     1
102
RTVSPropertyOp19
 70
     1
102
RTVSPropertyOp20
 70
     1
102
RTVSPropertyOp21
 70
     1
102
RTVSPropertyOp22
 70
     1
102
RTVSPropertyOp23
 70
     1
102
RTVSPropertyOp24
 70
     1
102
RTVSPropertyOp25
 70
     1
102
RTVSPropertyOp26
 70
     1
102
RTVSPropertyOp27
 70
     1
  0
XRECORD
  5
7BA5
102
{ACAD_REACTORS
330
7BA4
102
}
330
7BA4
100
AcDbXrecord
280
     1
102
RTVSPropertyOp0
 70
     1
102
RTVSPropertyOp1
 70
     1
102
RTVSPropertyOp2
 70
     1
102
RTVSPropertyOp3
 70
     1
102
RTVSPropertyOp4
 70
     1
102
RTVSPropertyOp5
 70
     1
102
RTVSPropertyOp6
 70
     1
102
RTVSPropertyOp7
 70
     1
102
RTVSPropertyOp8
 70
     1
102
RTVSPropertyOp9
 70
     1
102
RTVSPropertyOp10
 70
     1
102
RTVSPropertyOp11
 70
     1
102
RTVSPropertyOp12
 70
     1
102
RTVSPropertyOp13
 70
     1
102
RTVSPropertyOp14
 70
     1
102
RTVSPropertyOp15
 70
     1
102
RTVSPropertyOp16
 70
     1
102
RTVSPropertyOp17
 70
     1
102
RTVSPropertyOp18
 70
     1
102
RTVSPropertyOp19
 70
     1
102
RTVSPropertyOp20
 70
     1
102
RTVSPropertyOp21
 70
     1
102
RTVSPropertyOp22
 70
     1
102
RTVSPropertyOp23
 70
     1
102
RTVSPropertyOp24
 70
     1
102
RTVSPropertyOp25
 70
     1
102
RTVSPropertyOp26
 70
     1
102
RTVSPropertyOp27
 70
     1
  0
XRECORD
  5
7BA7
102
{ACAD_REACTORS
330
7BA6
102
}
330
7BA6
100
AcDbXrecord
280
     1
102
RTVSPropertyOp0
 70
     1
102
RTVSPropertyOp1
 70
     1
102
RTVSPropertyOp2
 70
     1
102
RTVSPropertyOp3
 70
     1
102
RTVSPropertyOp4
 70
     1
102
RTVSPropertyOp5
 70
     1
102
RTVSPropertyOp6
 70
     1
102
RTVSPropertyOp7
 70
     1
102
RTVSPropertyOp8
 70
     1
102
RTVSPropertyOp9
 70
     1
102
RTVSPropertyOp10
 70
     1
102
RTVSPropertyOp11
 70
     1
102
RTVSPropertyOp12
 70
     1
102
RTVSPropertyOp13
 70
     1
102
RTVSPropertyOp14
 70
     1
102
RTVSPropertyOp15
 70
     1
102
RTVSPropertyOp16
 70
     1
102
RTVSPropertyOp17
 70
     1
102
RTVSPropertyOp18
 70
     1
102
RTVSPropertyOp19
 70
     1
102
RTVSPropertyOp20
 70
     1
102
RTVSPropertyOp21
 70
     1
102
RTVSPropertyOp22
 70
     1
102
RTVSPropertyOp23
 70
     1
102
RTVSPropertyOp24
 70
     1
102
RTVSPropertyOp25
 70
     1
102
RTVSPropertyOp26
 70
     1
102
RTVSPropertyOp27
 70
     1
  0
XRECORD
  5
7BA9
102
{ACAD_REACTORS
330
7BA8
102
}
330
7BA8
100
AcDbXrecord
280
     1
102
RTVSPropertyOp0
 70
     1
102
RTVSPropertyOp1
 70
     1
102
RTVSPropertyOp2
 70
     1
102
RTVSPropertyOp3
 70
     1
102
RTVSPropertyOp4
 70
     1
102
RTVSPropertyOp5
 70
     1
102
RTVSPropertyOp6
 70
     1
102
RTVSPropertyOp7
 70
     1
102
RTVSPropertyOp8
 70
     1
102
RTVSPropertyOp9
 70
     1
102
RTVSPropertyOp10
 70
     1
102
RTVSPropertyOp11
 70
     1
102
RTVSPropertyOp12
 70
     1
102
RTVSPropertyOp13
 70
     1
102
RTVSPropertyOp14
 70
     1
102
RTVSPropertyOp15
 70
     1
102
RTVSPropertyOp16
 70
     1
102
RTVSPropertyOp17
 70
     1
102
RTVSPropertyOp18
 70
     1
102
RTVSPropertyOp19
 70
     1
102
RTVSPropertyOp20
 70
     1
102
RTVSPropertyOp21
 70
     1
102
RTVSPropertyOp22
 70
     1
102
RTVSPropertyOp23
 70
     1
102
RTVSPropertyOp24
 70
     1
102
RTVSPropertyOp25
 70
     1
102
RTVSPropertyOp26
 70
     1
102
RTVSPropertyOp27
 70
     1
  0
XRECORD
  5
7BAB
102
{ACAD_REACTORS
330
7BAA
102
}
330
7BAA
100
AcDbXrecord
280
     1
102
RTVSPropertyOp0
 70
     1
102
RTVSPropertyOp1
 70
     1
102
RTVSPropertyOp2
 70
     1
102
RTVSPropertyOp3
 70
     1
102
RTVSPropertyOp4
 70
     1
102
RTVSPropertyOp5
 70
     1
102
RTVSPropertyOp6
 70
     1
102
RTVSPropertyOp7
 70
     1
102
RTVSPropertyOp8
 70
     1
102
RTVSPropertyOp9
 70
     1
102
RTVSPropertyOp10
 70
     1
102
RTVSPropertyOp11
 70
     1
102
RTVSPropertyOp12
 70
     1
102
RTVSPropertyOp13
 70
     1
102
RTVSPropertyOp14
 70
     1
102
RTVSPropertyOp15
 70
     1
102
RTVSPropertyOp16
 70
     1
102
RTVSPropertyOp17
 70
     1
102
RTVSPropertyOp18
 70
     1
102
RTVSPropertyOp19
 70
     1
102
RTVSPropertyOp20
 70
     1
102
RTVSPropertyOp21
 70
     1
102
RTVSPropertyOp22
 70
     1
102
RTVSPropertyOp23
 70
     1
102
RTVSPropertyOp24
 70
     1
102
RTVSPropertyOp25
 70
     1
102
RTVSPropertyOp26
 70
     1
102
RTVSPropertyOp27
 70
     1
  0
XRECORD
  5
7BAD
102
{ACAD_REACTORS
330
7BAC
102
}
330
7BAC
100
AcDbXrecord
280
     1
102
RTVSPropertyOp0
 70
     1
102
RTVSPropertyOp1
 70
     1
102
RTVSPropertyOp2
 70
     1
102
RTVSPropertyOp3
 70
     1
102
RTVSPropertyOp4
 70
     1
102
RTVSPropertyOp5
 70
     1
102
RTVSPropertyOp6
 70
     1
102
RTVSPropertyOp7
 70
     1
102
RTVSPropertyOp8
 70
     1
102
RTVSPropertyOp9
 70
     1
102
RTVSPropertyOp10
 70
     1
102
RTVSPropertyOp11
 70
     1
102
RTVSPropertyOp12
 70
     1
102
RTVSPropertyOp13
 70
     1
102
RTVSPropertyOp14
 70
     1
102
RTVSPropertyOp15
 70
     1
102
RTVSPropertyOp16
 70
     1
102
RTVSPropertyOp17
 70
     1
102
RTVSPropertyOp18
 70
     1
102
RTVSPropertyOp19
 70
     1
102
RTVSPropertyOp20
 70
     1
102
RTVSPropertyOp21
 70
     1
102
RTVSPropertyOp22
 70
     1
102
RTVSPropertyOp23
 70
     1
102
RTVSPropertyOp24
 70
     1
102
RTVSPropertyOp25
 70
     1
102
RTVSPropertyOp26
 70
     1
102
RTVSPropertyOp27
 70
     1
  0
XRECORD
  5
7BAF
102
{ACAD_REACTORS
330
7BAE
102
}
330
7BAE
100
AcDbXrecord
280
     1
102
RTVSPropertyOp0
 70
     1
102
RTVSPropertyOp1
 70
     1
102
RTVSPropertyOp2
 70
     1
102
RTVSPropertyOp3
 70
     1
102
RTVSPropertyOp4
 70
     1
102
RTVSPropertyOp5
 70
     1
102
RTVSPropertyOp6
 70
     1
102
RTVSPropertyOp7
 70
     1
102
RTVSPropertyOp8
 70
     1
102
RTVSPropertyOp9
 70
     1
102
RTVSPropertyOp10
 70
     1
102
RTVSPropertyOp11
 70
     1
102
RTVSPropertyOp12
 70
     1
102
RTVSPropertyOp13
 70
     1
102
RTVSPropertyOp14
 70
     1
102
RTVSPropertyOp15
 70
     1
102
RTVSPropertyOp16
 70
     1
102
RTVSPropertyOp17
 70
     1
102
RTVSPropertyOp18
 70
     1
102
RTVSPropertyOp19
 70
     1
102
RTVSPropertyOp20
 70
     1
102
RTVSPropertyOp21
 70
     1
102
RTVSPropertyOp22
 70
     1
102
RTVSPropertyOp23
 70
     1
102
RTVSPropertyOp24
 70
     1
102
RTVSPropertyOp25
 70
     1
102
RTVSPropertyOp26
 70
     1
102
RTVSPropertyOp27
 70
     1
  0
XRECORD
  5
7BB1
102
{ACAD_REACTORS
330
7BB0
102
}
330
7BB0
100
AcDbXrecord
280
     1
102
RTVSPropertyOp0
 70
     1
102
RTVSPropertyOp1
 70
     1
102
RTVSPropertyOp2
 70
     1
102
RTVSPropertyOp3
 70
     1
102
RTVSPropertyOp4
 70
     1
102
RTVSPropertyOp5
 70
     1
102
RTVSPropertyOp6
 70
     1
102
RTVSPropertyOp7
 70
     1
102
RTVSPropertyOp8
 70
     1
102
RTVSPropertyOp9
 70
     1
102
RTVSPropertyOp10
 70
     1
102
RTVSPropertyOp11
 70
     1
102
RTVSPropertyOp12
 70
     1
102
RTVSPropertyOp13
 70
     1
102
RTVSPropertyOp14
 70
     1
102
RTVSPropertyOp15
 70
     1
102
RTVSPropertyOp16
 70
     1
102
RTVSPropertyOp17
 70
     1
102
RTVSPropertyOp18
 70
     1
102
RTVSPropertyOp19
 70
     1
102
RTVSPropertyOp20
 70
     1
102
RTVSPropertyOp21
 70
     1
102
RTVSPropertyOp22
 70
     1
102
RTVSPropertyOp23
 70
     1
102
RTVSPropertyOp24
 70
     1
102
RTVSPropertyOp25
 70
     1
102
RTVSPropertyOp26
 70
     1
102
RTVSPropertyOp27
 70
     1
  0
XRECORD
  5
7BB3
102
{ACAD_REACTORS
330
7BB2
102
}
330
7BB2
100
AcDbXrecord
280
     1
102
RTVSPropertyOp0
 70
     1
102
RTVSPropertyOp1
 70
     1
102
RTVSPropertyOp2
 70
     1
102
RTVSPropertyOp3
 70
     1
102
RTVSPropertyOp4
 70
     1
102
RTVSPropertyOp5
 70
     1
102
RTVSPropertyOp6
 70
     1
102
RTVSPropertyOp7
 70
     1
102
RTVSPropertyOp8
 70
     1
102
RTVSPropertyOp9
 70
     1
102
RTVSPropertyOp10
 70
     1
102
RTVSPropertyOp11
 70
     1
102
RTVSPropertyOp12
 70
     1
102
RTVSPropertyOp13
 70
     1
102
RTVSPropertyOp14
 70
     1
102
RTVSPropertyOp15
 70
     1
102
RTVSPropertyOp16
 70
     1
102
RTVSPropertyOp17
 70
     1
102
RTVSPropertyOp18
 70
     1
102
RTVSPropertyOp19
 70
     1
102
RTVSPropertyOp20
 70
     1
102
RTVSPropertyOp21
 70
     1
102
RTVSPropertyOp22
 70
     1
102
RTVSPropertyOp23
 70
     1
102
RTVSPropertyOp24
 70
     1
102
RTVSPropertyOp25
 70
     1
102
RTVSPropertyOp26
 70
     1
102
RTVSPropertyOp27
 70
     1
  0
XRECORD
  5
7BB5
102
{ACAD_REACTORS
330
7BB4
102
}
330
7BB4
100
AcDbXrecord
280
     1
102
RTVSPropertyOp0
 70
     1
102
RTVSPropertyOp1
 70
     1
102
RTVSPropertyOp2
 70
     1
102
RTVSPropertyOp3
 70
     1
102
RTVSPropertyOp4
 70
     1
102
RTVSPropertyOp5
 70
     1
102
RTVSPropertyOp6
 70
     1
102
RTVSPropertyOp7
 70
     1
102
RTVSPropertyOp8
 70
     1
102
RTVSPropertyOp9
 70
     1
102
RTVSPropertyOp10
 70
     1
102
RTVSPropertyOp11
 70
     1
102
RTVSPropertyOp12
 70
     1
102
RTVSPropertyOp13
 70
     1
102
RTVSPropertyOp14
 70
     1
102
RTVSPropertyOp15
 70
     1
102
RTVSPropertyOp16
 70
     1
102
RTVSPropertyOp17
 70
     1
102
RTVSPropertyOp18
 70
     1
102
RTVSPropertyOp19
 70
     1
102
RTVSPropertyOp20
 70
     1
102
RTVSPropertyOp21
 70
     1
102
RTVSPropertyOp22
 70
     1
102
RTVSPropertyOp23
 70
     1
102
RTVSPropertyOp24
 70
     1
102
RTVSPropertyOp25
 70
     1
102
RTVSPropertyOp26
 70
     1
102
RTVSPropertyOp27
 70
     1
  0
XRECORD
  5
7BB7
102
{ACAD_REACTORS
330
7BB6
102
}
330
7BB6
100
AcDbXrecord
280
     1
102
RTVSPropertyOp0
 70
     1
102
RTVSPropertyOp1
 70
     1
102
RTVSPropertyOp2
 70
     1
102
RTVSPropertyOp3
 70
     1
102
RTVSPropertyOp4
 70
     1
102
RTVSPropertyOp5
 70
     1
102
RTVSPropertyOp6
 70
     1
102
RTVSPropertyOp7
 70
     1
102
RTVSPropertyOp8
 70
     1
102
RTVSPropertyOp9
 70
     1
102
RTVSPropertyOp10
 70
     1
102
RTVSPropertyOp11
 70
     1
102
RTVSPropertyOp12
 70
     1
102
RTVSPropertyOp13
 70
     1
102
RTVSPropertyOp14
 70
     1
102
RTVSPropertyOp15
 70
     1
102
RTVSPropertyOp16
 70
     1
102
RTVSPropertyOp17
 70
     1
102
RTVSPropertyOp18
 70
     1
102
RTVSPropertyOp19
 70
     1
102
RTVSPropertyOp20
 70
     1
102
RTVSPropertyOp21
 70
     1
102
RTVSPropertyOp22
 70
     1
102
RTVSPropertyOp23
 70
     1
102
RTVSPropertyOp24
 70
     1
102
RTVSPropertyOp25
 70
     1
102
RTVSPropertyOp26
 70
     1
102
RTVSPropertyOp27
 70
     1
  0
XRECORD
  5
7BB9
102
{ACAD_REACTORS
330
7BB8
102
}
330
7BB8
100
AcDbXrecord
280
     1
102
RTVSPropertyOp0
 70
     1
102
RTVSPropertyOp1
 70
     1
102
RTVSPropertyOp2
 70
     1
102
RTVSPropertyOp3
 70
     1
102
RTVSPropertyOp4
 70
     1
102
RTVSPropertyOp5
 70
     1
102
RTVSPropertyOp6
 70
     1
102
RTVSPropertyOp7
 70
     1
102
RTVSPropertyOp8
 70
     1
102
RTVSPropertyOp9
 70
     1
102
RTVSPropertyOp10
 70
     1
102
RTVSPropertyOp11
 70
     1
102
RTVSPropertyOp12
 70
     1
102
RTVSPropertyOp13
 70
     1
102
RTVSPropertyOp14
 70
     1
102
RTVSPropertyOp15
 70
     1
102
RTVSPropertyOp16
 70
     1
102
RTVSPropertyOp17
 70
     1
102
RTVSPropertyOp18
 70
     1
102
RTVSPropertyOp19
 70
     1
102
RTVSPropertyOp20
 70
     1
102
RTVSPropertyOp21
 70
     1
102
RTVSPropertyOp22
 70
     1
102
RTVSPropertyOp23
 70
     1
102
RTVSPropertyOp24
 70
     1
102
RTVSPropertyOp25
 70
     1
102
RTVSPropertyOp26
 70
     1
102
RTVSPropertyOp27
 70
     1
  0
XRECORD
  5
7BBB
102
{ACAD_REACTORS
330
7BBA
102
}
330
7BBA
100
AcDbXrecord
280
     1
102
RTVSPropertyOp0
 70
     1
102
RTVSPropertyOp1
 70
     1
102
RTVSPropertyOp2
 70
     1
102
RTVSPropertyOp3
 70
     1
102
RTVSPropertyOp4
 70
     1
102
RTVSPropertyOp5
 70
     1
102
RTVSPropertyOp6
 70
     1
102
RTVSPropertyOp7
 70
     1
102
RTVSPropertyOp8
 70
     1
102
RTVSPropertyOp9
 70
     1
102
RTVSPropertyOp10
 70
     1
102
RTVSPropertyOp11
 70
     1
102
RTVSPropertyOp12
 70
     1
102
RTVSPropertyOp13
 70
     1
102
RTVSPropertyOp14
 70
     1
102
RTVSPropertyOp15
 70
     1
102
RTVSPropertyOp16
 70
     1
102
RTVSPropertyOp17
 70
     1
102
RTVSPropertyOp18
 70
     1
102
RTVSPropertyOp19
 70
     1
102
RTVSPropertyOp20
 70
     1
102
RTVSPropertyOp21
 70
     1
102
RTVSPropertyOp22
 70
     1
102
RTVSPropertyOp23
 70
     1
102
RTVSPropertyOp24
 70
     1
102
RTVSPropertyOp25
 70
     1
102
RTVSPropertyOp26
 70
     1
102
RTVSPropertyOp27
 70
     1
  0
XRECORD
  5
7BBD
102
{ACAD_REACTORS
330
7BBC
102
}
330
7BBC
100
AcDbXrecord
280
     1
102
RTVSPropertyOp0
 70
     1
102
RTVSPropertyOp1
 70
     1
102
RTVSPropertyOp2
 70
     1
102
RTVSPropertyOp3
 70
     1
102
RTVSPropertyOp4
 70
     1
102
RTVSPropertyOp5
 70
     1
102
RTVSPropertyOp6
 70
     1
102
RTVSPropertyOp7
 70
     1
102
RTVSPropertyOp8
 70
     1
102
RTVSPropertyOp9
 70
     1
102
RTVSPropertyOp10
 70
     1
102
RTVSPropertyOp11
 70
     1
102
RTVSPropertyOp12
 70
     1
102
RTVSPropertyOp13
 70
     1
102
RTVSPropertyOp14
 70
     1
102
RTVSPropertyOp15
 70
     1
102
RTVSPropertyOp16
 70
     1
102
RTVSPropertyOp17
 70
     1
102
RTVSPropertyOp18
 70
     1
102
RTVSPropertyOp19
 70
     1
102
RTVSPropertyOp20
 70
     1
102
RTVSPropertyOp21
 70
     1
102
RTVSPropertyOp22
 70
     1
102
RTVSPropertyOp23
 70
     1
102
RTVSPropertyOp24
 70
     1
102
RTVSPropertyOp25
 70
     1
102
RTVSPropertyOp26
 70
     1
102
RTVSPropertyOp27
 70
     1
  0
XRECORD
  5
7BBF
102
{ACAD_REACTORS
330
7BBE
102
}
330
7BBE
100
AcDbXrecord
280
     1
102
RTVSPropertyOp0
 70
     1
102
RTVSPropertyOp1
 70
     1
102
RTVSPropertyOp2
 70
     1
102
RTVSPropertyOp3
 70
     1
102
RTVSPropertyOp4
 70
     1
102
RTVSPropertyOp5
 70
     1
102
RTVSPropertyOp6
 70
     1
102
RTVSPropertyOp7
 70
     1
102
RTVSPropertyOp8
 70
     1
102
RTVSPropertyOp9
 70
     1
102
RTVSPropertyOp10
 70
     1
102
RTVSPropertyOp11
 70
     1
102
RTVSPropertyOp12
 70
     1
102
RTVSPropertyOp13
 70
     1
102
RTVSPropertyOp14
 70
     1
102
RTVSPropertyOp15
 70
     1
102
RTVSPropertyOp16
 70
     1
102
RTVSPropertyOp17
 70
     1
102
RTVSPropertyOp18
 70
     1
102
RTVSPropertyOp19
 70
     1
102
RTVSPropertyOp20
 70
     1
102
RTVSPropertyOp21
 70
     1
102
RTVSPropertyOp22
 70
     1
102
RTVSPropertyOp23
 70
     1
102
RTVSPropertyOp24
 70
     1
102
RTVSPropertyOp25
 70
     1
102
RTVSPropertyOp26
 70
     1
102
RTVSPropertyOp27
 70
     1
  0
XRECORD
  5
7BC1
102
{ACAD_REACTORS
330
7BC0
102
}
330
7BC0
100
AcDbXrecord
280
     1
102
RTVSPropertyOp0
 70
     1
102
RTVSPropertyOp1
 70
     1
102
RTVSPropertyOp2
 70
     1
102
RTVSPropertyOp3
 70
     1
102
RTVSPropertyOp4
 70
     1
102
RTVSPropertyOp5
 70
     1
102
RTVSPropertyOp6
 70
     1
102
RTVSPropertyOp7
 70
     1
102
RTVSPropertyOp8
 70
     1
102
RTVSPropertyOp9
 70
     1
102
RTVSPropertyOp10
 70
     1
102
RTVSPropertyOp11
 70
     1
102
RTVSPropertyOp12
 70
     1
102
RTVSPropertyOp13
 70
     1
102
RTVSPropertyOp14
 70
     1
102
RTVSPropertyOp15
 70
     1
102
RTVSPropertyOp16
 70
     1
102
RTVSPropertyOp17
 70
     1
102
RTVSPropertyOp18
 70
     1
102
RTVSPropertyOp19
 70
     1
102
RTVSPropertyOp20
 70
     1
102
RTVSPropertyOp21
 70
     1
102
RTVSPropertyOp22
 70
     1
102
RTVSPropertyOp23
 70
     1
102
RTVSPropertyOp24
 70
     1
102
RTVSPropertyOp25
 70
     1
102
RTVSPropertyOp26
 70
     1
102
RTVSPropertyOp27
 70
     1
  0
ENDSEC
  0
EOF
