  0
SECTION
  2
HEADER
  9
$ACADVER
  1
AC1018
  9
$ACADMAINTVER
 70
     0
  9
$DWGCODEPAGE
  3
ANSI_932
  9
$LASTSAVEDBY
  1
imai
  9
$INSBASE
 10
0.0
 20
0.0
 30
0.0
  9
$EXTMIN
 10
21622.79736487872
 20
19554.06125142023
 30
0.0
  9
$EXTMAX
 10
40772.79736487872
 20
33404.06125142024
 30
0.0
  9
$LIMMIN
 10
0.0
 20
0.0
  9
$LIMMAX
 10
84100.0
 20
59400.0
  9
$ORTHOMODE
 70
     1
  9
$REGENMODE
 70
     1
  9
$FILLMODE
 70
     1
  9
$QTEXTMODE
 70
     0
  9
$MIRRTEXT
 70
     1
  9
$LTSCALE
 40
1000.0
  9
$ATTMODE
 70
     1
  9
$TEXTSIZE
 40
150.0
  9
$TRACEWID
 40
0.05
  9
$TEXTSTYLE
  7
ＭＳ ゴシック
  9
$CLAYER
  8
D-STR-DIM
  9
$CELTYPE
  6
BYLAYER
  9
$CECOLOR
 62
   256
  9
$CELTSCALE
 40
1.0
  9
$DISPSILH
 70
     0
  9
$DIMSCALE
 40
50.0
  9
$DIMASZ
 40
1.7
  9
$DIMEXO
 40
1.5
  9
$DIMDLI
 40
0.38
  9
$DIMRND
 40
0.0
  9
$DIMDLE
 40
0.0
  9
$DIMEXE
 40
0.5
  9
$DIMTP
 40
0.0
  9
$DIMTM
 40
0.0
  9
$DIMTXT
 40
3.0
  9
$DIMCEN
 40
0.09
  9
$DIMTSZ
 40
0.0
  9
$DIMTOL
 70
     0
  9
$DIMLIM
 70
     0
  9
$DIMTIH
 70
     0
  9
$DIMTOH
 70
     0
  9
$DIMSE1
 70
     0
  9
$DIMSE2
 70
     0
  9
$DIMTAD
 70
     1
  9
$DIMZIN
 70
     0
  9
$DIMBLK
  1
Open30
  9
$DIMASO
 70
     1
  9
$DIMSHO
 70
     1
  9
$DIMPOST
  1

  9
$DIMAPOST
  1

  9
$DIMALT
 70
     0
  9
$DIMALTD
 70
     2
  9
$DIMALTF
 40
25.4
  9
$DIMLFAC
 40
1.0
  9
$DIMTOFL
 70
     0
  9
$DIMTVP
 40
0.0
  9
$DIMTIX
 70
     1
  9
$DIMSOXD
 70
     0
  9
$DIMSAH
 70
     0
  9
$DIMBLK1
  1

  9
$DIMBLK2
  1

  9
$DIMSTYLE
  2
S-50
  9
$DIMCLRD
 70
     0
  9
$DIMCLRE
 70
     0
  9
$DIMCLRT
 70
     0
  9
$DIMTFAC
 40
1.0
  9
$DIMGAP
 40
0.8
  9
$DIMJUST
 70
     0
  9
$DIMSD1
 70
     0
  9
$DIMSD2
 70
     0
  9
$DIMTOLJ
 70
     1
  9
$DIMTZIN
 70
     0
  9
$DIMALTZ
 70
     0
  9
$DIMALTTZ
 70
     0
  9
$DIMUPT
 70
     0
  9
$DIMDEC
 70
     0
  9
$DIMTDEC
 70
     0
  9
$DIMALTU
 70
     2
  9
$DIMALTTD
 70
     2
  9
$DIMTXSTY
  7
ＭＳ ゴシック
  9
$DIMAUNIT
 70
     0
  9
$DIMADEC
 70
     4
  9
$DIMALTRND
 40
0.0
  9
$DIMAZIN
 70
     0
  9
$DIMDSEP
 70
    46
  9
$DIMATFIT
 70
     3
  9
$DIMFRAC
 70
     0
  9
$DIMLDRBLK
  1
Open30
  9
$DIMLUNIT
 70
     2
  9
$DIMLWD
 70
    -2
  9
$DIMLWE
 70
    -2
  9
$DIMTMOVE
 70
     2
  9
$LUNITS
 70
     2
  9
$LUPREC
 70
     3
  9
$SKETCHINC
 40
0.1
  9
$FILLETRAD
 40
0.0
  9
$AUNITS
 70
     0
  9
$AUPREC
 70
     5
  9
$MENU
  1
acad
  9
$ELEVATION
 40
0.0
  9
$PELEVATION
 40
0.0
  9
$THICKNESS
 40
0.0
  9
$LIMCHECK
 70
     0
  9
$CHAMFERA
 40
0.0
  9
$CHAMFERB
 40
0.0
  9
$CHAMFERC
 40
0.0
  9
$CHAMFERD
 40
0.0
  9
$SKPOLY
 70
     0
  9
$TDCREATE
 40
2450010.607337963
  9
$TDUCREATE
 40
2450010.232337963
  9
$TDUPDATE
 40
2455836.487675231
  9
$TDUUPDATE
 40
2455836.112675231
  9
$TDINDWG
 40
0.4589532639
  9
$TDUSRTIMER
 40
0.4589532639
  9
$USRTIMER
 70
     1
  9
$ANGBASE
 50
0.0
  9
$ANGDIR
 70
     0
  9
$PDMODE
 70
     0
  9
$PDSIZE
 40
100.0
  9
$PLINEWID
 40
0.0
  9
$SPLFRAME
 70
     0
  9
$SPLINETYPE
 70
     6
  9
$SPLINESEGS
 70
     8
  9
$HANDSEED
  5
78A7
  9
$SURFTAB1
 70
     6
  9
$SURFTAB2
 70
     6
  9
$SURFTYPE
 70
     6
  9
$SURFU
 70
     6
  9
$SURFV
 70
     6
  9
$UCSBASE
  2

  9
$UCSNAME
  2

  9
$UCSORG
 10
0.0
 20
0.0
 30
0.0
  9
$UCSXDIR
 10
1.0
 20
0.0
 30
0.0
  9
$UCSYDIR
 10
0.0
 20
1.0
 30
0.0
  9
$UCSORTHOREF
  2

  9
$UCSORTHOVIEW
 70
     0
  9
$UCSORGTOP
 10
0.0
 20
0.0
 30
0.0
  9
$UCSORGBOTTOM
 10
0.0
 20
0.0
 30
0.0
  9
$UCSORGLEFT
 10
0.0
 20
0.0
 30
0.0
  9
$UCSORGRIGHT
 10
0.0
 20
0.0
 30
0.0
  9
$UCSORGFRONT
 10
0.0
 20
0.0
 30
0.0
  9
$UCSORGBACK
 10
0.0
 20
0.0
 30
0.0
  9
$PUCSBASE
  2

  9
$PUCSNAME
  2

  9
$PUCSORG
 10
0.0
 20
0.0
 30
0.0
  9
$PUCSXDIR
 10
1.0
 20
0.0
 30
0.0
  9
$PUCSYDIR
 10
0.0
 20
1.0
 30
0.0
  9
$PUCSORTHOREF
  2

  9
$PUCSORTHOVIEW
 70
     0
  9
$PUCSORGTOP
 10
0.0
 20
0.0
 30
0.0
  9
$PUCSORGBOTTOM
 10
0.0
 20
0.0
 30
0.0
  9
$PUCSORGLEFT
 10
0.0
 20
0.0
 30
0.0
  9
$PUCSORGRIGHT
 10
0.0
 20
0.0
 30
0.0
  9
$PUCSORGFRONT
 10
0.0
 20
0.0
 30
0.0
  9
$PUCSORGBACK
 10
0.0
 20
0.0
 30
0.0
  9
$USERI1
 70
     0
  9
$USERI2
 70
     0
  9
$USERI3
 70
     0
  9
$USERI4
 70
     0
  9
$USERI5
 70
     0
  9
$USERR1
 40
0.0
  9
$USERR2
 40
0.0
  9
$USERR3
 40
0.0
  9
$USERR4
 40
0.0
  9
$USERR5
 40
0.0
  9
$WORLDVIEW
 70
     1
  9
$SHADEDGE
 70
     3
  9
$SHADEDIF
 70
    70
  9
$TILEMODE
 70
     1
  9
$MAXACTVP
 70
    48
  9
$PINSBASE
 10
0.0
 20
0.0
 30
0.0
  9
$PLIMCHECK
 70
     0
  9
$PEXTMIN
 10
1.000000000000000E+20
 20
1.000000000000000E+20
 30
1.000000000000000E+20
  9
$PEXTMAX
 10
-1.000000000000000E+20
 20
-1.000000000000000E+20
 30
-1.000000000000000E+20
  9
$PLIMMIN
 10
0.0
 20
0.0
  9
$PLIMMAX
 10
12.0
 20
9.0
  9
$UNITMODE
 70
     0
  9
$VISRETAIN
 70
     0
  9
$PLINEGEN
 70
     0
  9
$PSLTSCALE
 70
     0
  9
$TREEDEPTH
 70
  3020
  9
$CMLSTYLE
  2
STANDARD
  9
$CMLJUST
 70
     0
  9
$CMLSCALE
 40
1.0
  9
$PROXYGRAPHICS
 70
     1
  9
$MEASUREMENT
 70
     0
  9
$CELWEIGHT
370
    -1
  9
$ENDCAPS
280
     0
  9
$JOINSTYLE
280
     0
  9
$LWDISPLAY
290
     0
  9
$INSUNITS
 70
     0
  9
$HYPERLINKBASE
  1

  9
$STYLESHEET
  1
acad.ctb
  9
$XEDIT
290
     1
  9
$CEPSNTYPE
380
     0
  9
$PSTYLEMODE
290
     1
  9
$FINGERPRINTGUID
  2
{D393076B-73A3-11D6-A1CB-0050FC45377D}
  9
$VERSIONGUID
  2
{6FE93283-35F9-4B1B-A8E5-F22E80438148}
  9
$EXTNAMES
290
     1
  9
$PSVPSCALE
 40
0.0
  9
$OLESTARTUP
290
     0
  9
$SORTENTS
280
   127
  9
$INDEXCTL
280
     0
  9
$HIDETEXT
280
     1
  9
$XCLIPFRAME
290
     0
  9
$HALOGAP
280
     0
  9
$OBSCOLOR
 70
   257
  9
$OBSLTYPE
280
     0
  9
$INTERSECTIONDISPLAY
280
     0
  9
$INTERSECTIONCOLOR
 70
   257
  9
$DIMASSOC
280
     1
  9
$PROJECTNAME
  1

  0
ENDSEC
  0
SECTION
  2
CLASSES
  0
CLASS
  1
LWPOLYLINE
  2
AcDbPolyline
  3
AutoCAD 2000
 90
        0
 91
        1
280
     0
281
     1
  0
CLASS
  1
ACDBDICTIONARYWDFLT
  2
AcDbDictionaryWithDefault
  3
ObjectDBX Classes
 90
        0
 91
        4
280
     0
281
     0
  0
CLASS
  1
ACDBPLACEHOLDER
  2
AcDbPlaceHolder
  3
ObjectDBX Classes
 90
        0
 91
        1
280
     0
281
     0
  0
CLASS
  1
LAYOUT
  2
AcDbLayout
  3
ObjectDBX Classes
 90
        0
 91
        1
280
     0
281
     0
  0
CLASS
  1
DICTIONARYVAR
  2
AcDbDictionaryVar
  3
ObjectDBX Classes
 90
        0
 91
        4
280
     0
281
     0
  0
CLASS
  1
DUMMY
  2
AcDbLongTransaction
  3
DUMMY
 90
        0
 91
        1
280
     0
281
     0
  0
CLASS
  1
LWPOLYLINE
  2
AcDbPolyline
  3
AutoCAD 2000
 90
        0
 91
        1
280
     0
281
     1
  0
CLASS
  1
HATCH
  2
AcDbHatch
  3
AutoCAD 2000
 90
        0
 91
        1
280
     0
281
     1
  0
CLASS
  1
XRECORD
  2
AcDbXrecord
  3
AutoCAD 2000
 90
        0
 91
        1
280
     0
281
     0
  0
CLASS
  1
DUMMY
  2
AcDbLongTransaction
  3
DUMMY
 90
        0
 91
        1
280
     0
281
     0
  0
CLASS
  1
LWPOLYLINE
  2
AcDbPolyline
  3
AutoCAD 2000
 90
        0
 91
        1
280
     0
281
     1
  0
CLASS
  1
HATCH
  2
AcDbHatch
  3
AutoCAD 2000
 90
        0
 91
        1
280
     0
281
     1
  0
CLASS
  1
XRECORD
  2
AcDbXrecord
  3
AutoCAD 2000
 90
        0
 91
        1
280
     0
281
     0
  0
CLASS
  1
DUMMY
  2
AcDbLongTransaction
  3
DUMMY
 90
        0
 91
        1
280
     0
281
     0
  0
CLASS
  1
LWPOLYLINE
  2
AcDbPolyline
  3
AutoCAD 2000
 90
        0
 91
        1
280
     0
281
     1
  0
CLASS
  1
HATCH
  2
AcDbHatch
  3
AutoCAD 2000
 90
        0
 91
        1
280
     0
281
     1
  0
CLASS
  1
XRECORD
  2
AcDbXrecord
  3
AutoCAD 2000
 90
        0
 91
        1
280
     0
281
     0
  0
CLASS
  1
DUMMY
  2
AcDbLongTransaction
  3
DUMMY
 90
        0
 91
        1
280
     0
281
     0
  0
CLASS
  1
LWPOLYLINE
  2
AcDbPolyline
  3
AutoCAD 2000
 90
        0
 91
        1
280
     0
281
     1
  0
CLASS
  1
HATCH
  2
AcDbHatch
  3
AutoCAD 2000
 90
        0
 91
        1
280
     0
281
     1
  0
CLASS
  1
XRECORD
  2
AcDbXrecord
  3
AutoCAD 2000
 90
        0
 91
        1
280
     0
281
     0
  0
CLASS
  1
DUMMY
  2
AcDbLongTransaction
  3
DUMMY
 90
        0
 91
        1
280
     0
281
     0
  0
CLASS
  1
LWPOLYLINE
  2
AcDbPolyline
  3
AutoCAD 2000
 90
        0
 91
        1
280
     0
281
     1
  0
CLASS
  1
HATCH
  2
AcDbHatch
  3
AutoCAD 2000
 90
        0
 91
        1
280
     0
281
     1
  0
CLASS
  1
XRECORD
  2
AcDbXrecord
  3
AutoCAD 2000
 90
        0
 91
        1
280
     0
281
     0
  0
CLASS
  1
DUMMY
  2
AcDbLongTransaction
  3
DUMMY
 90
        0
 91
        1
280
     0
281
     0
  0
CLASS
  1
LWPOLYLINE
  2
AcDbPolyline
  3
AutoCAD 2000
 90
        0
 91
        1
280
     0
281
     1
  0
CLASS
  1
HATCH
  2
AcDbHatch
  3
AutoCAD 2000
 90
        0
 91
        1
280
     0
281
     1
  0
CLASS
  1
XRECORD
  2
AcDbXrecord
  3
AutoCAD 2000
 90
        0
 91
        1
280
     0
281
     0
  0
CLASS
  1
DUMMY
  2
AcDbLongTransaction
  3
DUMMY
 90
        0
 91
        1
280
     0
281
     0
  0
CLASS
  1
LWPOLYLINE
  2
AcDbPolyline
  3
AutoCAD 2000
 90
        0
 91
        1
280
     0
281
     1
  0
CLASS
  1
HATCH
  2
AcDbHatch
  3
AutoCAD 2000
 90
        0
 91
        1
280
     0
281
     1
  0
CLASS
  1
XRECORD
  2
AcDbXrecord
  3
AutoCAD 2000
 90
        0
 91
        1
280
     0
281
     0
  0
CLASS
  1
DUMMY
  2
AcDbLongTransaction
  3
DUMMY
 90
        0
 91
        1
280
     0
281
     0
  0
CLASS
  1
LWPOLYLINE
  2
AcDbPolyline
  3
AutoCAD 2000
 90
        0
 91
        1
280
     0
281
     1
  0
CLASS
  1
HATCH
  2
AcDbHatch
  3
AutoCAD 2000
 90
        0
 91
        1
280
     0
281
     1
  0
CLASS
  1
XRECORD
  2
AcDbXrecord
  3
AutoCAD 2000
 90
        0
 91
        1
280
     0
281
     0
  0
CLASS
  1
DUMMY
  2
AcDbLongTransaction
  3
DUMMY
 90
        0
 91
        1
280
     0
281
     0
  0
CLASS
  1
LWPOLYLINE
  2
AcDbPolyline
  3
AutoCAD 2000
 90
        0
 91
        1
280
     0
281
     1
  0
CLASS
  1
HATCH
  2
AcDbHatch
  3
AutoCAD 2000
 90
        0
 91
        1
280
     0
281
     1
  0
CLASS
  1
XRECORD
  2
AcDbXrecord
  3
AutoCAD 2000
 90
        0
 91
        1
280
     0
281
     0
  0
CLASS
  1
SORTENTSTABLE
  2
AcDbSortentsTable
  3
ObjectDBX Classes
 90
        0
 91
        4
280
     0
281
     0
  0
CLASS
  1
DUMMY
  2
AcDbLongTransaction
  3
DUMMY
 90
        0
 91
        1
280
     0
281
     0
  0
CLASS
  1
LWPOLYLINE
  2
AcDbPolyline
  3
AutoCAD 2000
 90
        0
 91
        1
280
     0
281
     1
  0
CLASS
  1
HATCH
  2
AcDbHatch
  3
AutoCAD 2000
 90
        0
 91
        1
280
     0
281
     1
  0
CLASS
  1
XRECORD
  2
AcDbXrecord
  3
AutoCAD 2000
 90
        0
 91
        1
280
     0
281
     0
  0
CLASS
  1
DUMMY
  2
AcDbLongTransaction
  3
DUMMY
 90
        0
 91
        1
280
     0
281
     0
  0
CLASS
  1
LWPOLYLINE
  2
AcDbPolyline
  3
AutoCAD 2000
 90
        0
 91
        1
280
     0
281
     1
  0
CLASS
  1
HATCH
  2
AcDbHatch
  3
AutoCAD 2000
 90
        0
 91
        1
280
     0
281
     1
  0
CLASS
  1
XRECORD
  2
AcDbXrecord
  3
AutoCAD 2000
 90
        0
 91
        1
280
     0
281
     0
  0
CLASS
  1
TABLESTYLE
  2
AcDbTableStyle
  3
ObjectDBX Classes
 90
     4095
 91
        4
280
     0
281
     0
  0
CLASS
  1
SCALE
  2
AcDbScale
  3
ObjectDBX Classes
 90
     1153
 91
        4
280
     0
281
     0
  0
CLASS
  1
CELLSTYLEMAP
  2
AcDbCellStyleMap
  3
ObjectDBX Classes
 90
     1152
 91
        4
280
     0
281
     0
  0
ENDSEC
  0
SECTION
  2
TABLES
  0
TABLE
  2
VPORT
  5
8
330
0
100
AcDbSymbolTable
 70
     4
  0
VPORT
  5
7878
330
8
100
AcDbSymbolTableRecord
100
AcDbViewportTableRecord
  2
*Active
 70
     0
 10
0.0
 20
0.0
 11
1.0
 21
1.0
 12
31506.28546892844
 22
26353.55154724761
 13
0.0
 23
0.0
 14
1.0
 24
1.0
 15
1000.0
 25
1000.0
 16
0.0
 26
0.0
 36
1.0
 17
0.0
 27
0.0
 37
0.0
 40
16431.42950668134
 41
1.507024265644955
 42
50.0
 43
0.0
 44
0.0
 50
0.0
 51
0.0
 71
     0
 72
   100
 73
     1
 74
     1
 75
     0
 76
     0
 77
     0
 78
     0
281
     0
 65
     1
110
0.0
120
0.0
130
0.0
111
1.0
121
0.0
131
0.0
112
0.0
122
1.0
132
0.0
 79
     0
146
0.0
  0
ENDTAB
  0
TABLE
  2
LTYPE
  5
5
330
0
100
AcDbSymbolTable
 70
     9
  0
LTYPE
  5
11
330
5
100
AcDbSymbolTableRecord
100
AcDbLinetypeTableRecord
  2
BYBLOCK
 70
     0
  3

 72
    65
 73
     0
 40
0.0
  0
LTYPE
  5
12
330
5
100
AcDbSymbolTableRecord
100
AcDbLinetypeTableRecord
  2
BYLAYER
 70
     0
  3

 72
    65
 73
     0
 40
0.0
  0
LTYPE
  5
13
330
5
100
AcDbSymbolTableRecord
100
AcDbLinetypeTableRecord
  2
CONTINUOUS
 70
     0
  3
実線
 72
    65
 73
     0
 40
0.0
  0
LTYPE
  5
1E
330
5
100
AcDbSymbolTableRecord
100
AcDbLinetypeTableRecord
  2
HIDDEN
 70
     0
  3
_ _ _ _ _ _ _ _ _ _ _ _ _ _ _ _ _ _ _ _ _ _ _
 72
    65
 73
     2
 40
0.375
 49
0.25
 74
     0
 49
-0.125
 74
     0
  0
LTYPE
  5
1F
330
5
100
AcDbSymbolTableRecord
100
AcDbLinetypeTableRecord
  2
CENTER
 70
     0
  3
____ _ ____ _ ____ _ ____ _ ____ _ ____ _ ____
 72
    65
 73
     4
 40
2.0
 49
1.25
 74
     0
 49
-0.25
 74
     0
 49
0.25
 74
     0
 49
-0.25
 74
     0
  0
LTYPE
  5
20
330
5
100
AcDbSymbolTableRecord
100
AcDbLinetypeTableRecord
  2
PHANTOM
 70
     0
  3
_____ _ _ _____ _ _ _____ _ _ _____ _ _ ____
 72
    65
 73
     6
 40
2.5
 49
1.25
 74
     0
 49
-0.25
 74
     0
 49
0.25
 74
     0
 49
-0.25
 74
     0
 49
0.25
 74
     0
 49
-0.25
 74
     0
  0
LTYPE
  5
B5C
330
5
100
AcDbSymbolTableRecord
100
AcDbLinetypeTableRecord
  2
HASEN1
 70
     0
  3
破線
 72
    65
 73
     2
 40
2.0
 49
1.0
 74
     0
 49
-1.0
 74
     0
  0
LTYPE
  5
B5D
330
5
100
AcDbSymbolTableRecord
100
AcDbLinetypeTableRecord
  2
TENSEN1
 70
     0
  3
点線
 72
    65
 73
     2
 40
1.0
 49
0.5
 74
     0
 49
-0.5
 74
     0
  0
LTYPE
  5
B5E
330
5
100
AcDbSymbolTableRecord
100
AcDbLinetypeTableRecord
  2
TEN1SEN1
 70
     0
  3
一点鎖線
 72
    65
 73
     4
 40
18.0
 49
15.0
 74
     0
 49
-1.0
 74
     0
 49
1.0
 74
     0
 49
-1.0
 74
     0
  0
LTYPE
  5
3A3D
330
5
100
AcDbSymbolTableRecord
100
AcDbLinetypeTableRecord
  2
ACAD_ISO07W100
 70
     0
  3
ISO dot . . . . . . . . . . . . . . . . . . . .
 72
    65
 73
     2
 40
3.0
 49
0.0
 74
     0
 49
-3.0
 74
     0
  0
LTYPE
  5
3A3E
330
5
100
AcDbSymbolTableRecord
100
AcDbLinetypeTableRecord
  2
DOT2
 70
     0
  3
Dot (.5x) .....................................
 72
    65
 73
     2
 40
0.125
 49
0.0
 74
     0
 49
-0.125
 74
     0
  0
ENDTAB
  0
TABLE
  2
LAYER
  5
2
102
{ACAD_XDICTIONARY
360
3B1C
102
}
330
0
100
AcDbSymbolTable
 70
    18
  0
LAYER
  5
E
330
2
100
AcDbSymbolTableRecord
100
AcDbLayerTableRecord
  2
0
 70
     0
 62
     7
  6
CONTINUOUS
370
    -3
390
3A32
  0
LAYER
  5
23
330
2
100
AcDbSymbolTableRecord
100
AcDbLayerTableRecord
  2
D-TTL
 70
     0
 62
     2
  6
CONTINUOUS
370
    50
390
3A32
1001
AcAecLayerStandard
1000

1000
外枠
  0
LAYER
  5
25
330
2
100
AcDbSymbolTableRecord
100
AcDbLayerTableRecord
  2
D-STR
 70
     0
 62
     1
  6
CONTINUOUS
370
    25
390
3A32
1001
AcAecLayerStandard
1000

1000
構造物外形線
  0
LAYER
  5
A9
330
2
100
AcDbSymbolTableRecord
100
AcDbLayerTableRecord
  2
DEFPOINTS
 70
     0
 62
     7
  6
CONTINUOUS
290
     0
370
    -3
390
3A32
  0
LAYER
  5
67C7
330
2
100
AcDbSymbolTableRecord
100
AcDbLayerTableRecord
  2
D-TTL-TXT
 70
     0
 62
     7
  6
CONTINUOUS
370
    13
390
3A32
1001
AcAecLayerStandard
1000

1000
枠タイトル
  0
LAYER
  5
67C9
330
2
100
AcDbSymbolTableRecord
100
AcDbLayerTableRecord
  2
D-BGD
 70
     0
 62
     7
  6
CONTINUOUS
370
    13
390
3A32
1001
AcAecLayerStandard
1000

1000
既設構造物等(基礎材)
  0
LAYER
  5
67CA
330
2
100
AcDbSymbolTableRecord
100
AcDbLayerTableRecord
  2
D-BGD-DIM
 70
     0
 62
     7
  6
CONTINUOUS
370
    13
390
3A32
1001
AcAecLayerStandard
1000

1000
既-寸法線
  0
LAYER
  5
67CB
330
2
100
AcDbSymbolTableRecord
100
AcDbLayerTableRecord
  2
D-BGD-TXT
 70
     0
 62
     7
  6
CONTINUOUS
370
    13
390
3A32
1001
AcAecLayerStandard
1000

1000
既-文字
  0
LAYER
  5
67CC
330
2
100
AcDbSymbolTableRecord
100
AcDbLayerTableRecord
  2
D-BGD-HTXT
 70
     0
 62
     7
  6
CONTINUOUS
370
    13
390
3A32
1001
AcAecLayerStandard
1000

1000
既-旗上げ
  0
LAYER
  5
69E8
330
2
100
AcDbSymbolTableRecord
100
AcDbLayerTableRecord
  2
D-BMK
 70
     0
 62
     2
  6
CENTER
370
    13
390
3A32
1001
AcAecLayerStandard
1000

1000
構造物中心線
  0
LAYER
  5
69E9
330
2
100
AcDbSymbolTableRecord
100
AcDbLayerTableRecord
  2
D-BMK-HTXT
 70
     0
 62
     7
  6
CONTINUOUS
370
    13
390
3A32
1001
AcAecLayerStandard
1000

1000
旗上げ
  0
LAYER
  5
69EA
330
2
100
AcDbSymbolTableRecord
100
AcDbLayerTableRecord
  2
D-STR-DIM
 70
     0
 62
     7
  6
CONTINUOUS
370
    13
390
3A32
1001
AcAecLayerStandard
1000

1000
構-寸法線
  0
LAYER
  5
69EB
330
2
100
AcDbSymbolTableRecord
100
AcDbLayerTableRecord
  2
D-STR-TXT
 70
     0
 62
     7
  6
CONTINUOUS
370
    13
390
3A32
1001
AcAecLayerStandard
1000

1000
構-文字
  0
LAYER
  5
69EC
330
2
100
AcDbSymbolTableRecord
100
AcDbLayerTableRecord
  2
D-STR-HTXT
 70
     0
 62
     7
  6
CONTINUOUS
370
    13
390
3A32
1001
AcAecLayerStandard
1000

1000
構-旗上げ
  0
LAYER
  5
69ED
330
2
100
AcDbSymbolTableRecord
100
AcDbLayerTableRecord
  2
D-MTR
 70
     0
 62
     7
  6
CONTINUOUS
370
    13
390
3A32
1001
AcAecLayerStandard
1000

1000
材料表
  0
LAYER
  5
69EE
330
2
100
AcDbSymbolTableRecord
100
AcDbLayerTableRecord
  2
D-MTR-TXT
 70
     0
 62
     7
  6
CONTINUOUS
370
    13
390
3A32
1001
AcAecLayerStandard
1000

1000
材-文字
  0
LAYER
  5
6BF9
330
2
100
AcDbSymbolTableRecord
100
AcDbLayerTableRecord
  2
SUNPOU
 70
     0
 62
     1
  6
CONTINUOUS
370
    -3
390
3A32
  0
LAYER
  5
7452
330
2
100
AcDbSymbolTableRecord
100
AcDbLayerTableRecord
  2
D-STR-STR1
 70
     0
 62
     4
  6
CONTINUOUS
370
    13
390
3A32
1001
AcAecLayerStandard
1000

1000

  0
ENDTAB
  0
TABLE
  2
STYLE
  5
3
330
0
100
AcDbSymbolTable
 70
     4
  0
STYLE
  5
F
330
3
100
AcDbSymbolTableRecord
100
AcDbTextStyleTableRecord
  2
STANDARD
 70
     0
 40
0.0
 41
0.8
 50
0.0
 71
     0
 42
800.0
  3
TXT.shx
  4
BIGFONT.shx
  0
STYLE
  5
3A3C
330
3
100
AcDbSymbolTableRecord
100
AcDbTextStyleTableRecord
  2

 70
     1
 40
0.0
 41
1.0
 50
0.0
 71
     0
 42
300.0
  3
ltypeshp.shx
  4

  0
STYLE
  5
3B35
330
3
100
AcDbSymbolTableRecord
100
AcDbTextStyleTableRecord
  2
STANDARD-FC
 70
     0
 40
0.0
 41
1.0
 50
0.0
 71
     0
 42
0.0
  3
txt
  4
bigfont
  0
STYLE
  5
3B36
330
3
100
AcDbSymbolTableRecord
100
AcDbTextStyleTableRecord
  2
ＭＳ ゴシック
 70
     0
 40
0.0
 41
1.0
 50
0.0
 71
     0
 42
150.0
  3
MS Gothic.ttf
  4

1001
ACAD
1000
MS Gothic
1071
    32817
  0
ENDTAB
  0
TABLE
  2
VIEW
  5
6
330
0
100
AcDbSymbolTable
 70
     0
  0
ENDTAB
  0
TABLE
  2
UCS
  5
7
330
0
100
AcDbSymbolTable
 70
     0
  0
ENDTAB
  0
TABLE
  2
APPID
  5
9
330
0
100
AcDbSymbolTable
 70
    13
  0
APPID
  5
10
330
9
100
AcDbSymbolTableRecord
100
AcDbRegAppTableRecord
  2
ACAD
 70
     0
  0
APPID
  5
5FF5
330
9
100
AcDbSymbolTableRecord
100
AcDbRegAppTableRecord
  2
ACAD_DSTYLE_DIMTEXT_FILL
 70
     0
  0
APPID
  5
5FF6
330
9
100
AcDbSymbolTableRecord
100
AcDbRegAppTableRecord
  2
ACAD_DSTYLE_DIMEXT_LENGTH
 70
     0
  0
APPID
  5
5FF7
330
9
100
AcDbSymbolTableRecord
100
AcDbRegAppTableRecord
  2
ACAD_DSTYLE_DIMEXT_ENABLED
 70
     0
  0
APPID
  5
5FF8
330
9
100
AcDbSymbolTableRecord
100
AcDbRegAppTableRecord
  2
ACAD_DSTYLE_DIM_LINETYPE
 70
     0
  0
APPID
  5
5FF9
330
9
100
AcDbSymbolTableRecord
100
AcDbRegAppTableRecord
  2
ACAD_DSTYLE_DIM_EXT1_LINETYPE
 70
     0
  0
APPID
  5
5FFA
330
9
100
AcDbSymbolTableRecord
100
AcDbRegAppTableRecord
  2
ACAD_DSTYLE_DIM_EXT2_LINETYPE
 70
     0
  0
APPID
  5
6146
330
9
100
AcDbSymbolTableRecord
100
AcDbRegAppTableRecord
  2
ACAD_DSTYLE_DIMJOGGED_JOGANGLE_SYMBOL
 70
     0
  0
APPID
  5
6727
330
9
100
AcDbSymbolTableRecord
100
AcDbRegAppTableRecord
  2
ACAD_DSTYLE_DIMARC_LENGTH_SYMBOL
 70
     0
  0
APPID
  5
67C8
330
9
100
AcDbSymbolTableRecord
100
AcDbRegAppTableRecord
  2
AcAecLayerStandard
 70
     0
  0
APPID
  5
7454
330
9
100
AcDbSymbolTableRecord
100
AcDbRegAppTableRecord
  2
AcDbDynamicBlockGUID
 70
     0
  0
APPID
  5
7455
330
9
100
AcDbSymbolTableRecord
100
AcDbRegAppTableRecord
  2
AcDbBlockRepETag
 70
     0
  0
APPID
  5
781C
330
9
100
AcDbSymbolTableRecord
100
AcDbRegAppTableRecord
  2
ACAD_EXEMPT_FROM_CAD_STANDARDS
 70
     0
  0
ENDTAB
  0
TABLE
  2
DIMSTYLE
  5
A
330
0
100
AcDbSymbolTable
 70
     3
100
AcDbDimStyleTable
  0
DIMSTYLE
105
75
330
A
100
AcDbSymbolTableRecord
100
AcDbDimStyleTableRecord
  2
STANDARD
 70
     0
178
     0
340
F
  0
DIMSTYLE
105
6F2C
102
{ACAD_REACTORS
330
7619
330
761A
330
761B
330
761C
330
761D
330
761E
330
775F
330
7760
330
7825
102
}
330
A
100
AcDbSymbolTableRecord
100
AcDbDimStyleTableRecord
  2
S-50
 70
     0
 40
50.0
 41
1.7
 42
1.5
 44
0.5
 73
     0
 74
     0
 77
     1
140
3.0
147
0.8
174
     1
178
     0
179
     4
271
     0
272
     0
279
     2
340
3B36
341
62FD
342
62FD
  0
DIMSTYLE
105
7453
330
A
100
AcDbSymbolTableRecord
100
AcDbDimStyleTableRecord
  2
S-100
 70
     0
 40
100.0
 41
2.0
 42
2.0
 44
0.5
 73
     0
 74
     0
 77
     1
140
3.5
147
0.8
174
     1
178
     0
179
     4
271
     0
272
     0
279
     2
340
3B36
342
62FD
  0
ENDTAB
  0
TABLE
  2
BLOCK_RECORD
  5
1
330
0
100
AcDbSymbolTable
 70
    22
  0
BLOCK_RECORD
  5
17
102
{ACAD_XDICTIONARY
360
3A7C
102
}
330
1
100
AcDbSymbolTableRecord
100
AcDbBlockTableRecord
  2
*MODEL_SPACE
340
3A35
  0
BLOCK_RECORD
  5
14
330
1
100
AcDbSymbolTableRecord
100
AcDbBlockTableRecord
  2
*PAPER_SPACE
340
3A36
  0
BLOCK_RECORD
  5
6297
330
1
100
AcDbSymbolTableRecord
100
AcDbBlockTableRecord
  2
_Open
340
0
  0
BLOCK_RECORD
  5
62FD
330
1
100
AcDbSymbolTableRecord
100
AcDbBlockTableRecord
  2
_Open30
340
0
102
{BLKREFS
331
73E3
331
73E4
331
73EF
331
73F0
331
73FD
331
73FE
331
740A
331
740B
331
7416
331
7417
331
7422
331
7423
331
743F
331
7440
331
744B
331
744C
331
77D1
331
77D2
331
77DA
331
77DB
331
77E5
331
77E6
331
77EF
331
77F0
331
77F8
331
77F9
331
7801
331
7802
331
780A
331
780B
331
7813
331
7814
331
7872
331
7873
102
}
  0
BLOCK_RECORD
  5
7429
330
1
100
AcDbSymbolTableRecord
100
AcDbBlockTableRecord
  2
ブロック
340
0
310
28000000200000002000000001000800000000000004000000000000000000000000000000000000000000004000000080000000FF000000002000004020000080200000FF200000004000004040000080400000FF400000006000004060000080600000FF600000008000004080000080800000FF80000000A0000040A000
310
0080A00000FFA0000000C0000040C0000080C00000FFC0000000FF000040FF000080FF0000FFFF0000000020004000200080002000FF002000002020004020200080202000FF202000004020004040200080402000FF402000006020004060200080602000FF602000008020004080200080802000FF80200000A0200040A0
310
200080A02000FFA0200000C0200040C0200080C02000FFC0200000FF200040FF200080FF2000FFFF2000000040004000400080004000FF004000002040004020400080204000FF204000004040004040400080404000FF404000006040004060400080604000FF604000008040004080400080804000FF80400000A0400040
310
A0400080A04000FFA0400000C0400040C0400080C04000FFC0400000FF400040FF400080FF4000FFFF4000000060004000600080006000FF006000002060004020600080206000FF206000004060004040600080406000FF406000006060004060600080606000FF606000008060004080600080806000FF80600000A06000
310
40A0600080A06000FFA0600000C0600040C0600080C06000FFC0600000FF600040FF600080FF6000FFFF6000000080004000800080008000FF008000002080004020800080208000FF208000004080004040800080408000FF408000006080004060800080608000FF608000008080004080800080808000FF80800000A080
310
0040A0800080A08000FFA0800000C0800040C0800080C08000FFC0800000FF800040FF800080FF8000FFFF80000000A0004000A0008000A000FF00A0000020A0004020A0008020A000FF20A0000040A0004040A0008040A000FF40A0000060A0004060A0008060A000FF60A0000080A0004080A0008080A000FF80A00000A0
310
A00040A0A00080A0A000FFA0A00000C0A00040C0A00080C0A000FFC0A00000FFA00040FFA00080FFA000FFFFA0000000C0004000C0008000C000FF00C0000020C0004020C0008020C000FF20C0000040C0004040C0008040C000FF40C0000060C0004060C0008060C000FF60C0000080C0004080C0008080C000FF80C00000
310
A0C00040A0C00080A0C000FFA0C00000C0C00040C0C00080C0C000FFC0C00000FFC00040FFC00080FFC000FFFFC0000000FF004000FF008000FF00FF00FF000020FF004020FF008020FF00FF20FF000040FF004040FF008040FF00FF40FF000060FF004060FF008060FF00FF60FF000080FF004080FF008080FF00FF80FF00
310
00A0FF0040A0FF0080A0FF00FFA0FF0000C0FF0040C0FF0080C0FF00FFC0FF0000FFFF0040FFFF0080FFFF00FFFFFF0000000000000000000000000000000000000000000000000000000000000000000000000000000000000000000000000000000000000000000000000000000000000000000000000000000000000000
310
00000000000000000000000000000000000000000000000000000000000000000000000000000000000000000000000000000000000000000000000000000000000000000000000000000000000000000000000000000000000000000000000000000000000000000000000000000000000000000000000000000000000000
310
000000000000000000000000000000000000000000001C0000000000000000000000000000000000000000000000000000000000001C001C1C000000000000000000000000000000000000000000000000000000001CE0E0001C1C1F0000000000000000000000000000000000000000000000001CE0E00000001F1C1C0000
310
00000000000000000000000000000000000000001C0000E00000001F00001C1C0000000000000000000000000000000000000000001C1C0000001F00000000001C1C000000000000000000000000000000000000001C1C1C1C001F0000000000001F1C1C0000000000000000000000000000000000001C1C001C1C00000000
310
00001F00001C1C1F000000000000000000000000000000001C1C00001C1C0000001F000000001F1C1C00000000000000000000000000000000001C1C1C1C1C1C001F000000001F00001C1C0000000000000000000000000000000000001C1C1C1C1C0000001F00000000001C1C00000000000000000000000000000000001C
310
1C1C001C1C001F0000000000001F1C1C00000000000000000000000000000000001C1C00001C1C0000000000001F00001C1C00000000000000000000000000000000001C0000001C1C0000001F000000E0001C1C000000000000000000000000000000001C1C1C1C001C1C001F000000E0E01C000000000000000000000000
310
00000000000000001C1C1C001C1C0000E0E0E01C000000000000000000000000000000000000000000001C1C00001C1C00001C0000000000000000000000000000000000000000000000001C1C1C1C1C1C1C000000000000000000000000000000000000000000000000000000000000000000000000000000000000000000
310
00000000000000000000000000000000000000000000000000000000000000000000000000000000000000000000000000000000000000000000000000000000000000000000000000000000000000000000000000000000000000000000000000000000000000000000000000000000000000000000000000000000000000
310
0000000000000000000000000000000000000000000000000000000000000000000000000000000000000000000000000000000000000000
102
{BLKREFS
331
7745
331
7746
331
7747
331
7748
331
7749
102
}
1001
AcDbDynamicBlockGUID
1000
{BBB873DD-692E-48FC-9909-D0D55428BD19}
1001
AcDbBlockRepETag
1070
     1
1071
       13
  0
BLOCK_RECORD
  5
776B
330
1
100
AcDbSymbolTableRecord
100
AcDbBlockTableRecord
  2
*D12
340
0
  0
BLOCK_RECORD
  5
7777
330
1
100
AcDbSymbolTableRecord
100
AcDbBlockTableRecord
  2
*D13
340
0
  0
BLOCK_RECORD
  5
7783
330
1
100
AcDbSymbolTableRecord
100
AcDbBlockTableRecord
  2
*D14
340
0
  0
BLOCK_RECORD
  5
7790
330
1
100
AcDbSymbolTableRecord
100
AcDbBlockTableRecord
  2
*D15
340
0
  0
BLOCK_RECORD
  5
779D
330
1
100
AcDbSymbolTableRecord
100
AcDbBlockTableRecord
  2
*D16
340
0
  0
BLOCK_RECORD
  5
77AA
330
1
100
AcDbSymbolTableRecord
100
AcDbBlockTableRecord
  2
*D17
340
0
  0
BLOCK_RECORD
  5
77B6
330
1
100
AcDbSymbolTableRecord
100
AcDbBlockTableRecord
  2
*D18
340
0
  0
BLOCK_RECORD
  5
77C2
330
1
100
AcDbSymbolTableRecord
100
AcDbBlockTableRecord
  2
*D19
340
0
  0
BLOCK_RECORD
  5
7826
330
1
100
AcDbSymbolTableRecord
100
AcDbBlockTableRecord
  2
*D21
340
0
  0
ENDTAB
  0
ENDSEC
  0
SECTION
  2
BLOCKS
  0
BLOCK
  5
2D
330
17
100
AcDbEntity
  8
0
100
AcDbBlockBegin
  2
*MODEL_SPACE
 70
     0
 10
0.0
 20
0.0
 30
0.0
  3
*MODEL_SPACE
  1

  0
ENDBLK
  5
2E
330
17
100
AcDbEntity
  8
0
100
AcDbBlockEnd
  0
BLOCK
  5
2B
330
14
100
AcDbEntity
 67
     1
  8
0
100
AcDbBlockBegin
  2
*PAPER_SPACE
 70
     0
 10
0.0
 20
0.0
 30
0.0
  3
*PAPER_SPACE
  1

  0
ENDBLK
  5
2C
330
14
100
AcDbEntity
 67
     1
  8
0
100
AcDbBlockEnd
  0
BLOCK
  5
629B
330
6297
100
AcDbEntity
  8
0
100
AcDbBlockBegin
  2
_Open
 70
     0
 10
0.0
 20
0.0
 30
0.0
  3
_Open
  1

  0
LINE
  5
6298
330
6297
100
AcDbEntity
  8
0
  6
ByBlock
 62
     0
370
    -2
100
AcDbLine
 10
-1.0
 20
0.1666666666666667
 30
0.0
 11
0.0
 21
0.0
 31
0.0
  0
LINE
  5
6299
330
6297
100
AcDbEntity
  8
0
  6
ByBlock
 62
     0
370
    -2
100
AcDbLine
 10
-1.0
 20
-0.1666666666666667
 30
0.0
 11
0.0
 21
0.0
 31
0.0
  0
LINE
  5
629A
330
6297
100
AcDbEntity
  8
0
  6
ByBlock
 62
     0
370
    -2
100
AcDbLine
 10
0.0
 20
0.0
 30
0.0
 11
-1.0
 21
0.0
 31
0.0
  0
ENDBLK
  5
629C
330
6297
100
AcDbEntity
  8
0
100
AcDbBlockEnd
  0
BLOCK
  5
6301
330
62FD
100
AcDbEntity
  8
0
100
AcDbBlockBegin
  2
_Open30
 70
     0
 10
0.0
 20
0.0
 30
0.0
  3
_Open30
  1

  0
LINE
  5
62FE
330
62FD
100
AcDbEntity
  8
0
  6
ByBlock
 62
     0
370
    -2
100
AcDbLine
 10
-1.0
 20
0.26794919
 30
0.0
 11
0.0
 21
0.0
 31
0.0
  0
LINE
  5
62FF
330
62FD
100
AcDbEntity
  8
0
  6
ByBlock
 62
     0
370
    -2
100
AcDbLine
 10
0.0
 20
0.0
 30
0.0
 11
-1.0
 21
-0.26794919
 31
0.0
  0
LINE
  5
6300
330
62FD
100
AcDbEntity
  8
0
  6
ByBlock
 62
     0
370
    -2
100
AcDbLine
 10
0.0
 20
0.0
 30
0.0
 11
-1.0
 21
0.0
 31
0.0
  0
ENDBLK
  5
6302
330
62FD
100
AcDbEntity
  8
0
100
AcDbBlockEnd
  0
BLOCK
  5
742B
330
7429
100
AcDbEntity
  8
0
100
AcDbBlockBegin
  2
ブロック
 70
     0
 10
0.0
 20
0.0
 30
0.0
  3
ブロック
  1

  0
LWPOLYLINE
  5
742C
330
7429
100
AcDbEntity
  8
D-STR
 62
     3
100
AcDbPolyline
 90
        7
 70
     0
 43
0.0
 10
15478.70214401716
 20
2899.488059356038
 10
15461.00793176589
 20
2903.043873980828
 10
15435.07115155274
 20
2898.885199599955
 10
15414.25901963068
 20
2889.280019964625
 10
15395.04796592528
 20
2879.674493111922
 10
15384.80376877193
 20
2866.543565135243
 10
15383.84463713845
 20
2861.281555994522
1001
AcDbBlockRepETag
1070
     1
1071
        0
1005
742C
  0
LINE
  5
742D
330
7429
100
AcDbEntity
  8
D-STR
100
AcDbLine
 10
14829.60459458817
 20
2526.466851788023
 30
0.0
 11
15722.24257629738
 21
2972.785842642626
 31
0.0
1001
AcDbBlockRepETag
1070
     1
1071
        1
1005
742D
  0
LINE
  5
742E
330
7429
100
AcDbEntity
  8
D-STR
100
AcDbLine
 10
15804.97709146487
 20
2807.31681230764
 30
0.0
 11
14912.33910975567
 21
2360.997821453039
 31
0.0
1001
AcDbBlockRepETag
1070
     1
1071
        2
1005
742E
  0
LWPOLYLINE
  5
742F
330
7429
100
AcDbEntity
  8
D-STR
 62
     3
100
AcDbPolyline
 90
        7
 70
     0
 43
0.0
 10
15076.79113538232
 20
2692.487259879102
 10
15081.14772644047
 20
2708.883412213358
 10
15091.76049369466
 20
2720.827181469796
 10
15107.68069144938
 20
2733.765302640689
 10
15129.90429038956
 20
2744.047437371349
 10
15148.14792469662
 20
2750.680226449634
 10
15160.7766980301
 20
2751.29641948343
1001
AcDbBlockRepETag
1070
     1
1071
        3
1005
742F
  0
LWPOLYLINE
  5
7430
330
7429
100
AcDbEntity
  8
D-STR
 62
     3
100
AcDbPolyline
 90
       20
 70
     0
 43
0.0
 10
14870.23836078592
 20
2546.783734886897
 10
14866.4455336658
 20
2567.814239732662
 10
14868.85165380292
 20
2583.077891039599
 10
14877.20101835618
 20
2597.697580081088
 10
14882.1778936739
 20
2609.425818394639
 10
14896.63168802994
 20
2620.670012844927
 10
14909.47924436904
 20
2631.914581598158
 10
14920.72073548406
 20
2642.356083882388
 10
14933.08689255539
 20
2651.35128743712
 10
14950.43264182249
 20
2659.220702616219
 10
14966.52909530743
 20
2666.557594685136
 10
14984.11849098745
 20
2676.869456640165
 10
15005.34865761709
 20
2681.921604866578
 10
15024.35344494847
 20
2692.435441275612
 10
15049.04502093156
 20
2697.076367630088
 10
15059.48056047532
 20
2700.384266438846
 10
15076.79113538232
 20
2692.487259879102
 10
15089.77481202751
 20
2683.063450414124
 10
15100.46145875225
 20
2674.158174854049
 10
15106.88531914055
 20
2665.107214064211
1001
AcDbBlockRepETag
1070
     1
1071
        4
1005
7430
  0
LINE
  5
7431
330
7429
100
AcDbEntity
  8
D-STR
  6
HIDDEN
 62
     4
 48
0.5
100
AcDbLine
 10
14986.12891630908
 20
2604.730104408668
 30
0.0
 11
15100.16838316157
 21
2454.913549916181
 31
0.0
1001
AcDbBlockRepETag
1070
     1
1071
        5
1005
7431
  0
LINE
  5
7432
330
7429
100
AcDbEntity
  8
D-STR
100
AcDbLine
 10
14912.33954645974
 20
2360.996948044886
 30
0.0
 11
14829.60459458817
 21
2526.466851788023
 31
0.0
1001
AcDbBlockRepETag
1070
     1
1071
        6
1005
7432
  0
LINE
  5
7433
330
7429
100
AcDbEntity
  8
D-STR
  6
HIDDEN
 62
     4
 48
0.5
100
AcDbLine
 10
15320.64435820381
 20
2771.987825356032
 30
0.0
 11
15434.6838250563
 21
2622.171270863547
 31
0.0
1001
AcDbBlockRepETag
1070
     1
1071
        7
1005
7433
  0
LINE
  5
7434
330
7429
100
AcDbEntity
  8
D-STR
  6
HIDDEN
 62
     4
 48
0.5
100
AcDbLine
 10
15282.63120258632
 20
2546.144959628554
 30
0.0
 11
15231.20163910382
 21
2727.266465806038
 31
0.0
1001
AcDbBlockRepETag
1070
     1
1071
        8
1005
7434
  0
LWPOLYLINE
  5
7435
330
7429
100
AcDbEntity
  8
D-STR
 62
     3
100
AcDbPolyline
 90
       21
 70
     0
 43
0.0
 10
15126.86697448444
 20
2675.098041736154
 10
15125.28929389575
 20
2698.374086040537
 10
15132.65438415989
 20
2710.4324699901
 10
15138.00961334171
 20
2724.83630632523
 10
15146.71446778866
 20
2735.889431688262
 10
15160.7766980301
 20
2751.29641948343
 10
15171.15672701194
 20
2758.999195776684
 10
15183.88024157567
 20
2770.386442806263
 10
15203.63591862306
 20
2784.452217667179
 10
15219.03934939813
 20
2792.153933054714
 10
15241.81034060832
 20
2800.18907959003
 10
15260.89665924577
 20
2812.24500071109
 10
15278.97965787265
 20
2817.936150954748
 10
15327.00437521652
 20
2845.169965259899
 10
15359.12698698467
 20
2855.492246020488
 10
15381.04053565756
 20
2861.792673015015
 10
15396.42728743487
 20
2858.988056000589
 10
15408.38855869868
 20
2856.283874222389
 10
15418.80791216934
 20
2847.018821417253
 10
15431.54281670301
 20
2835.051614009039
 10
15435.18904635086
 20
2829.259077669364
1001
AcDbBlockRepETag
1070
     1
1071
        9
1005
7435
  0
LINE
  5
7436
330
7429
100
AcDbEntity
  8
D-STR
  6
HIDDEN
 62
     4
 48
0.5
100
AcDbLine
 10
15617.14697202029
 20
2713.402844345538
 30
0.0
 11
15565.71743581782
 21
2894.524364163038
 31
0.0
1001
AcDbBlockRepETag
1070
     1
1071
       10
1005
7436
  0
LINE
  5
7437
330
7429
100
AcDbEntity
  8
D-STR
100
AcDbLine
 10
15804.97752816895
 20
2807.315938899489
 30
0.0
 11
15722.24301300146
 21
2972.784969234473
 31
0.0
1001
AcDbBlockRepETag
1070
     1
1071
       11
1005
7437
  0
LWPOLYLINE
  5
7438
330
7429
100
AcDbEntity
  8
D-STR
 62
     3
100
AcDbPolyline
 90
       18
 70
     0
 43
0.0
 10
15670.19626537524
 20
2946.762687181555
 10
15655.66338714454
 20
2961.108568532735
 10
15639.72280864367
 20
2970.782663311261
 10
15627.70323031486
 20
2972.614788747213
 10
15611.50347607136
 20
2972.356860082778
 10
15592.69138899834
 20
2969.485784879685
 10
15579.36537038053
 20
2971.318197161568
 10
15558.46404797441
 20
2963.481530063263
 10
15535.99518907215
 20
2954.861060859935
 10
15519.79763593879
 20
2944.148324045454
 10
15503.91637711149
 20
2939.304488948122
 10
15489.99867381785
 20
2927.703442167548
 10
15482.21251053093
 20
2917.634106653607
 10
15478.4153719989
 20
2908.133973327339
 10
15478.98891603542
 20
2890.842145384736
 10
15479.94132790912
 20
2878.490728898382
 10
15478.08974361525
 20
2864.007798468604
 10
15482.62321125338
 20
2852.976160120627
1001
AcDbBlockRepETag
1070
     1
1071
       12
1005
7438
  0
ENDBLK
  5
7439
330
7429
100
AcDbEntity
  8
0
100
AcDbBlockEnd
  0
BLOCK
  5
7775
330
776B
100
AcDbEntity
  8
0
100
AcDbBlockBegin
  2
*D12
 70
     1
 10
0.0
 20
0.0
 30
0.0
  3
*D12
  1

  0
LINE
  5
77CE
330
776B
100
AcDbEntity
  8
0
 62
     0
370
    -2
100
AcDbLine
 10
25108.31454172068
 20
26468.69427691927
 30
0.0
 11
24742.01801044834
 21
26468.69427691927
 31
0.0
  0
LINE
  5
77CF
330
776B
100
AcDbEntity
  8
0
 62
     0
370
    -2
100
AcDbLine
 10
25108.31454172068
 20
27466.69530007028
 30
0.0
 11
24742.01801044834
 21
27466.69530007028
 31
0.0
  0
LINE
  5
77D0
330
776B
100
AcDbEntity
  8
0
 62
     0
370
    -2
100
AcDbLine
 10
24767.01801044834
 20
26553.69427691927
 30
0.0
 11
24767.01801044834
 21
27381.69530007028
 31
0.0
  0
INSERT
  5
77D1
330
776B
100
AcDbEntity
  8
0
 62
     0
370
    -2
100
AcDbBlockReference
  2
_Open30
 10
24767.01801044834
 20
26468.69427691927
 30
0.0
 41
85.0
 42
85.0
 43
85.0
 50
270.0
  0
INSERT
  5
77D2
330
776B
100
AcDbEntity
  8
0
 62
     0
370
    -2
100
AcDbBlockReference
  2
_Open30
 10
24767.01801044834
 20
27466.69530007028
 30
0.0
 41
85.0
 42
85.0
 43
85.0
 50
90.0
  0
MTEXT
  5
77D3
330
776B
100
AcDbEntity
  8
0
 62
     0
100
AcDbMText
 10
24652.01801044833
 20
26967.69478849478
 30
0.0
 40
150.0
 41
0.0
 71
     5
 72
     1
  1
\A1;998
  7
ＭＳ ゴシック
 11
6.123031769111886E-17
 21
1.0
 31
0.0
 73
     1
 44
1.0
  0
POINT
  5
77D4
330
776B
100
AcDbEntity
  8
DEFPOINTS
 62
     0
100
AcDbPoint
 10
25183.31454172068
 20
26468.69427691927
 30
0.0
  0
POINT
  5
77D5
330
776B
100
AcDbEntity
  8
DEFPOINTS
 62
     0
100
AcDbPoint
 10
25183.31454172068
 20
27466.69530007028
 30
0.0
  0
POINT
  5
77D6
330
776B
100
AcDbEntity
  8
DEFPOINTS
 62
     0
100
AcDbPoint
 10
24767.01801044834
 20
27466.69530007028
 30
0.0
  0
ENDBLK
  5
7776
330
776B
100
AcDbEntity
  8
0
100
AcDbBlockEnd
  0
BLOCK
  5
7781
330
7777
100
AcDbEntity
  8
0
100
AcDbBlockBegin
  2
*D13
 70
     1
 10
0.0
 20
0.0
 30
0.0
  3
*D13
  1

  0
LINE
  5
77D7
330
7777
100
AcDbEntity
  8
0
 62
     0
370
    -2
100
AcDbLine
 10
25183.31454172068
 20
26393.69427691927
 30
0.0
 11
25183.31454172068
 21
25924.47172705548
 31
0.0
  0
LINE
  5
77D8
330
7777
100
AcDbEntity
  8
0
 62
     0
370
    -2
100
AcDbLine
 10
26181.31472472068
 20
26393.69427691927
 30
0.0
 11
26181.31472472068
 21
25924.47172705548
 31
0.0
  0
LINE
  5
77D9
330
7777
100
AcDbEntity
  8
0
 62
     0
370
    -2
100
AcDbLine
 10
25268.31454172068
 20
25949.47172705548
 30
0.0
 11
26096.31472472068
 21
25949.47172705548
 31
0.0
  0
INSERT
  5
77DA
330
7777
100
AcDbEntity
  8
0
 62
     0
370
    -2
100
AcDbBlockReference
  2
_Open30
 10
25183.31454172068
 20
25949.47172705548
 30
0.0
 41
85.0
 42
85.0
 43
85.0
 50
180.0
  0
INSERT
  5
77DB
330
7777
100
AcDbEntity
  8
0
 62
     0
370
    -2
100
AcDbBlockReference
  2
_Open30
 10
26181.31472472068
 20
25949.47172705548
 30
0.0
 41
85.0
 42
85.0
 43
85.0
  0
MTEXT
  5
77DC
330
7777
100
AcDbEntity
  8
0
 62
     0
100
AcDbMText
 10
25682.31463322068
 20
26064.47172705548
 30
0.0
 40
150.0
 41
0.0
 71
     5
 72
     1
  1
\A1;998
  7
ＭＳ ゴシック
 73
     1
 44
1.0
  0
POINT
  5
77DD
330
7777
100
AcDbEntity
  8
DEFPOINTS
 62
     0
100
AcDbPoint
 10
25183.31454172068
 20
26468.69427691927
 30
0.0
  0
POINT
  5
77DE
330
7777
100
AcDbEntity
  8
DEFPOINTS
 62
     0
100
AcDbPoint
 10
26181.31472472068
 20
26468.69427691927
 30
0.0
  0
POINT
  5
77DF
330
7777
100
AcDbEntity
  8
DEFPOINTS
 62
     0
100
AcDbPoint
 10
26181.31472472068
 20
25949.47172705548
 30
0.0
  0
ENDBLK
  5
7782
330
7777
100
AcDbEntity
  8
0
100
AcDbBlockEnd
  0
BLOCK
  5
778E
330
7783
100
AcDbEntity
  8
0
100
AcDbBlockBegin
  2
*D14
 70
     1
 10
0.0
 20
0.0
 30
0.0
  3
*D14
  1

  0
LINE
  5
77E0
330
7783
100
AcDbEntity
  8
0
 62
     0
370
    -2
100
AcDbLine
 10
26697.39574676667
 20
26466.19482329478
 30
0.0
 11
26697.39574676667
 21
25962.48708585344
 31
0.0
  0
LINE
  5
77E1
330
7783
100
AcDbEntity
  8
0
 62
     0
370
    -2
100
AcDbLine
 10
26762.31267021667
 20
26393.69515469477
 30
0.0
 11
26762.31267021667
 21
25962.48708585344
 31
0.0
  0
LINE
  5
77E2
330
7783
100
AcDbEntity
  8
0
 62
     0
370
    -2
100
AcDbLine
 10
26612.39574676667
 20
25987.48708585344
 30
0.0
 11
26527.39574676667
 21
25987.48708585344
 31
0.0
  0
LINE
  5
77E3
330
7783
100
AcDbEntity
  8
0
 62
     0
370
    -2
100
AcDbLine
 10
26847.31267021667
 20
25987.48708585344
 30
0.0
 11
26932.31267021667
 21
25987.48708585344
 31
0.0
  0
MTEXT
  5
77E4
330
7783
100
AcDbEntity
  8
0
 62
     0
100
AcDbMText
 10
26575.20153549963
 20
26102.48708585344
 30
0.0
 40
150.0
 41
0.0
 71
     5
 72
     1
  1
\A1;65
  7
ＭＳ ゴシック
 73
     1
 44
1.0
  0
INSERT
  5
77E5
330
7783
100
AcDbEntity
  8
0
 62
     0
370
    -2
100
AcDbBlockReference
  2
_Open30
 10
26697.39574676667
 20
25987.48708585344
 30
0.0
 41
85.0
 42
85.0
 43
85.0
  0
INSERT
  5
77E6
330
7783
100
AcDbEntity
  8
0
 62
     0
370
    -2
100
AcDbBlockReference
  2
_Open30
 10
26762.31267021667
 20
25987.48708585344
 30
0.0
 41
85.0
 42
85.0
 43
85.0
 50
180.0
  0
POINT
  5
77E7
330
7783
100
AcDbEntity
  8
DEFPOINTS
 62
     0
100
AcDbPoint
 10
26697.39574676667
 20
26541.19482329478
 30
0.0
  0
POINT
  5
77E8
330
7783
100
AcDbEntity
  8
DEFPOINTS
 62
     0
100
AcDbPoint
 10
26762.31267021667
 20
26468.69515469477
 30
0.0
  0
POINT
  5
77E9
330
7783
100
AcDbEntity
  8
DEFPOINTS
 62
     0
100
AcDbPoint
 10
26762.31267021667
 20
25987.48708585344
 30
0.0
  0
ENDBLK
  5
778F
330
7783
100
AcDbEntity
  8
0
100
AcDbBlockEnd
  0
BLOCK
  5
779B
330
7790
100
AcDbEntity
  8
0
100
AcDbBlockBegin
  2
*D15
 70
     1
 10
0.0
 20
0.0
 30
0.0
  3
*D15
  1

  0
LINE
  5
77EA
330
7790
100
AcDbEntity
  8
0
 62
     0
370
    -2
100
AcDbLine
 10
26762.31267021667
 20
26393.69515469477
 30
0.0
 11
26762.31267021667
 21
25962.48708585344
 31
0.0
  0
LINE
  5
77EB
330
7790
100
AcDbEntity
  8
0
 62
     0
370
    -2
100
AcDbLine
 10
26947.31267021667
 20
26393.69515469477
 30
0.0
 11
26947.31267021667
 21
25962.48708585344
 31
0.0
  0
LINE
  5
77EC
330
7790
100
AcDbEntity
  8
0
 62
     0
370
    -2
100
AcDbLine
 10
26677.31267021667
 20
25987.48708585344
 30
0.0
 11
26592.31267021667
 21
25987.48708585344
 31
0.0
  0
LINE
  5
77ED
330
7790
100
AcDbEntity
  8
0
 62
     0
370
    -2
100
AcDbLine
 10
27032.31267021667
 20
25987.48708585344
 30
0.0
 11
27117.31267021667
 21
25987.48708585344
 31
0.0
  0
MTEXT
  5
77EE
330
7790
100
AcDbEntity
  8
0
 62
     0
100
AcDbMText
 10
26905.79329059463
 20
26102.48708585344
 30
0.0
 40
150.0
 41
0.0
 71
     5
 72
     1
  1
\A1;185
  7
ＭＳ ゴシック
 73
     1
 44
1.0
  0
INSERT
  5
77EF
330
7790
100
AcDbEntity
  8
0
 62
     0
370
    -2
100
AcDbBlockReference
  2
_Open30
 10
26762.31267021667
 20
25987.48708585344
 30
0.0
 41
85.0
 42
85.0
 43
85.0
  0
INSERT
  5
77F0
330
7790
100
AcDbEntity
  8
0
 62
     0
370
    -2
100
AcDbBlockReference
  2
_Open30
 10
26947.31267021667
 20
25987.48708585344
 30
0.0
 41
85.0
 42
85.0
 43
85.0
 50
180.0
  0
POINT
  5
77F1
330
7790
100
AcDbEntity
  8
DEFPOINTS
 62
     0
100
AcDbPoint
 10
26762.31267021667
 20
26468.69515469477
 30
0.0
  0
POINT
  5
77F2
330
7790
100
AcDbEntity
  8
DEFPOINTS
 62
     0
100
AcDbPoint
 10
26947.31267021667
 20
26468.69515469477
 30
0.0
  0
POINT
  5
77F3
330
7790
100
AcDbEntity
  8
DEFPOINTS
 62
     0
100
AcDbPoint
 10
26947.31267021667
 20
25987.48708585344
 30
0.0
  0
ENDBLK
  5
779C
330
7790
100
AcDbEntity
  8
0
100
AcDbBlockEnd
  0
BLOCK
  5
77A8
330
779D
100
AcDbEntity
  8
0
100
AcDbBlockBegin
  2
*D16
 70
     1
 10
0.0
 20
0.0
 30
0.0
  3
*D16
  1

  0
LINE
  5
77F4
330
779D
100
AcDbEntity
  8
0
 62
     0
370
    -2
100
AcDbLine
 10
26697.47882331667
 20
27467.54545739478
 30
0.0
 11
26697.47882331667
 21
27823.13177448587
 31
0.0
  0
LINE
  5
77F5
330
779D
100
AcDbEntity
  8
0
 62
     0
370
    -2
100
AcDbLine
 10
26947.31267021667
 20
27541.69481899478
 30
0.0
 11
26947.31267021667
 21
27823.13177448587
 31
0.0
  0
LINE
  5
77F6
330
779D
100
AcDbEntity
  8
0
 62
     0
370
    -2
100
AcDbLine
 10
26612.47882331667
 20
27798.13177448587
 30
0.0
 11
26527.47882331667
 21
27798.13177448587
 31
0.0
  0
LINE
  5
77F7
330
779D
100
AcDbEntity
  8
0
 62
     0
370
    -2
100
AcDbLine
 10
27032.31267021667
 20
27798.13177448587
 30
0.0
 11
27117.31267021667
 21
27798.13177448587
 31
0.0
  0
INSERT
  5
77F8
330
779D
100
AcDbEntity
  8
0
 62
     0
370
    -2
100
AcDbBlockReference
  2
_Open30
 10
26697.47882331667
 20
27798.13177448587
 30
0.0
 41
85.0
 42
85.0
 43
85.0
  0
INSERT
  5
77F9
330
779D
100
AcDbEntity
  8
0
 62
     0
370
    -2
100
AcDbBlockReference
  2
_Open30
 10
26947.31267021667
 20
27798.13177448587
 30
0.0
 41
85.0
 42
85.0
 43
85.0
 50
180.0
  0
MTEXT
  5
77FA
330
779D
100
AcDbEntity
  8
0
 62
     0
100
AcDbMText
 10
26822.39574676667
 20
27913.13177448587
 30
0.0
 40
150.0
 41
0.0
 71
     5
 72
     1
  1
\A1;250
  7
ＭＳ ゴシック
 73
     1
 44
1.0
  0
POINT
  5
77FB
330
779D
100
AcDbEntity
  8
DEFPOINTS
 62
     0
100
AcDbPoint
 10
26697.47882331667
 20
27392.54545739478
 30
0.0
  0
POINT
  5
77FC
330
779D
100
AcDbEntity
  8
DEFPOINTS
 62
     0
100
AcDbPoint
 10
26947.31267021667
 20
27466.69481899478
 30
0.0
  0
POINT
  5
77FD
330
779D
100
AcDbEntity
  8
DEFPOINTS
 62
     0
100
AcDbPoint
 10
26947.31267021667
 20
27798.13177448587
 30
0.0
  0
ENDBLK
  5
77A9
330
779D
100
AcDbEntity
  8
0
100
AcDbBlockEnd
  0
BLOCK
  5
77B4
330
77AA
100
AcDbEntity
  8
0
100
AcDbBlockBegin
  2
*D17
 70
     1
 10
0.0
 20
0.0
 30
0.0
  3
*D17
  1

  0
LINE
  5
77FE
330
77AA
100
AcDbEntity
  8
0
 62
     0
370
    -2
100
AcDbLine
 10
27022.31267021667
 20
26468.69515469477
 30
0.0
 11
27386.5788101209
 21
26468.69515469477
 31
0.0
  0
LINE
  5
77FF
330
77AA
100
AcDbEntity
  8
0
 62
     0
370
    -2
100
AcDbLine
 10
27022.31267021667
 20
27466.69481899478
 30
0.0
 11
27386.5788101209
 21
27466.69481899478
 31
0.0
  0
LINE
  5
7800
330
77AA
100
AcDbEntity
  8
0
 62
     0
370
    -2
100
AcDbLine
 10
27361.5788101209
 20
26553.69515469477
 30
0.0
 11
27361.5788101209
 21
27381.69481899478
 31
0.0
  0
INSERT
  5
7801
330
77AA
100
AcDbEntity
  8
0
 62
     0
370
    -2
100
AcDbBlockReference
  2
_Open30
 10
27361.5788101209
 20
26468.69515469477
 30
0.0
 41
85.0
 42
85.0
 43
85.0
 50
270.0
  0
INSERT
  5
7802
330
77AA
100
AcDbEntity
  8
0
 62
     0
370
    -2
100
AcDbBlockReference
  2
_Open30
 10
27361.5788101209
 20
27466.69481899478
 30
0.0
 41
85.0
 42
85.0
 43
85.0
 50
90.0
  0
MTEXT
  5
7803
330
77AA
100
AcDbEntity
  8
0
 62
     0
100
AcDbMText
 10
27246.5788101209
 20
26967.69498684478
 30
0.0
 40
150.0
 41
0.0
 71
     5
 72
     1
  1
\A1;998
  7
ＭＳ ゴシック
 11
6.123031769111886E-17
 21
1.0
 31
0.0
 73
     1
 44
1.0
  0
POINT
  5
7804
330
77AA
100
AcDbEntity
  8
DEFPOINTS
 62
     0
100
AcDbPoint
 10
26947.31267021667
 20
26468.69515469477
 30
0.0
  0
POINT
  5
7805
330
77AA
100
AcDbEntity
  8
DEFPOINTS
 62
     0
100
AcDbPoint
 10
26947.31267021667
 20
27466.69481899478
 30
0.0
  0
POINT
  5
7806
330
77AA
100
AcDbEntity
  8
DEFPOINTS
 62
     0
100
AcDbPoint
 10
27361.5788101209
 20
27466.69481899478
 30
0.0
  0
ENDBLK
  5
77B5
330
77AA
100
AcDbEntity
  8
0
100
AcDbBlockEnd
  0
BLOCK
  5
77C0
330
77B6
100
AcDbEntity
  8
0
100
AcDbBlockBegin
  2
*D18
 70
     1
 10
0.0
 20
0.0
 30
0.0
  3
*D18
  1

  0
LINE
  5
7807
330
77B6
100
AcDbEntity
  8
D-STR-DIM
 62
     0
370
    -2
100
AcDbLine
 10
32498.87189628435
 20
26927.33265802432
 30
0.0
 11
32279.35017205458
 21
27366.37503252277
 31
0.0
  0
LINE
  5
7808
330
77B6
100
AcDbEntity
  8
D-STR-DIM
 62
     0
370
    -2
100
AcDbLine
 10
33391.50944128947
 20
27373.65252228708
 30
0.0
 11
33171.9877170597
 21
27812.69489678554
 31
0.0
  0
LINE
  5
7809
330
77B6
100
AcDbEntity
  8
D-STR-DIM
 62
     0
370
    -2
100
AcDbLine
 10
32366.55680786175
 20
27382.02759369324
 30
0.0
 11
33107.14180478546
 21
27752.32099794406
 31
0.0
  0
INSERT
  5
780A
330
77B6
100
AcDbEntity
  8
D-STR-DIM
 62
     0
370
    -2
100
AcDbBlockReference
  2
_Open30
 10
32290.53053382105
 20
27344.01436368727
 30
0.0
 41
85.0
 42
85.0
 43
85.0
 50
206.5651072385527
  0
INSERT
  5
780B
330
77B6
100
AcDbEntity
  8
D-STR-DIM
 62
     0
370
    -2
100
AcDbBlockReference
  2
_Open30
 10
33183.16807882617
 20
27790.33422795004
 30
0.0
 41
85.0
 42
85.0
 43
85.0
 50
26.56510723855265
  0
MTEXT
  5
780C
330
77B6
100
AcDbEntity
  8
D-STR-DIM
 62
     0
100
AcDbMText
 10
32685.41964219786
 20
27670.03337246196
 30
0.0
 40
150.0
 41
0.0
 71
     5
 72
     1
  1
\A1;1000
  7
ＭＳ ゴシック
 11
0.8944267534200733
 21
0.4472144706585728
 31
0.0
 73
     1
 44
1.0
  0
POINT
  5
780D
330
77B6
100
AcDbEntity
  8
DEFPOINTS
 62
     0
100
AcDbPoint
 10
32532.41298158374
 20
26860.25065151781
 30
0.0
  0
POINT
  5
780E
330
77B6
100
AcDbEntity
  8
DEFPOINTS
 62
     0
100
AcDbPoint
 10
33425.05052658886
 20
27306.57051578057
 30
0.0
  0
POINT
  5
780F
330
77B6
100
AcDbEntity
  8
DEFPOINTS
 62
     0
100
AcDbPoint
 10
33183.16807882617
 20
27790.33422795004
 30
0.0
  0
ENDBLK
  5
77C1
330
77B6
100
AcDbEntity
  8
0
100
AcDbBlockEnd
  0
BLOCK
  5
77CC
330
77C2
100
AcDbEntity
  8
0
100
AcDbBlockBegin
  2
*D19
 70
     1
 10
0.0
 20
0.0
 30
0.0
  3
*D19
  1

  0
LINE
  5
7810
330
77C2
100
AcDbEntity
  8
D-STR-DIM
 62
     0
370
    -2
100
AcDbLine
 10
33391.50944128947
 20
27373.65252228708
 30
0.0
 11
33171.9877170597
 21
27812.69489678554
 31
0.0
  0
LINE
  5
7811
330
77C2
100
AcDbEntity
  8
D-STR-DIM
 62
     0
370
    -2
100
AcDbLine
 10
34284.1469862946
 20
27819.97238654985
 30
0.0
 11
34064.62526206483
 21
28259.0147610483
 31
0.0
  0
LINE
  5
7812
330
77C2
100
AcDbEntity
  8
D-STR-DIM
 62
     0
370
    -2
100
AcDbLine
 10
33259.19435286687
 20
27828.34745795602
 30
0.0
 11
33999.77934979059
 21
28198.64086220682
 31
0.0
  0
INSERT
  5
7813
330
77C2
100
AcDbEntity
  8
D-STR-DIM
 62
     0
370
    -2
100
AcDbBlockReference
  2
_Open30
 10
33183.16807882617
 20
27790.33422795004
 30
0.0
 41
85.0
 42
85.0
 43
85.0
 50
206.5651072385525
  0
INSERT
  5
7814
330
77C2
100
AcDbEntity
  8
D-STR-DIM
 62
     0
370
    -2
100
AcDbBlockReference
  2
_Open30
 10
34075.80562383129
 20
28236.6540922128
 30
0.0
 41
85.0
 42
85.0
 43
85.0
 50
26.56510723855245
  0
MTEXT
  5
7815
330
77C2
100
AcDbEntity
  8
D-STR-DIM
 62
     0
100
AcDbMText
 10
33578.05718720298
 20
28116.35323672472
 30
0.0
 40
150.0
 41
0.0
 71
     5
 72
     1
  1
\A1;1000
  7
ＭＳ ゴシック
 11
0.8944267534200748
 21
0.4472144706585696
 31
0.0
 73
     1
 44
1.0
  0
POINT
  5
7816
330
77C2
100
AcDbEntity
  8
DEFPOINTS
 62
     0
100
AcDbPoint
 10
33425.05052658886
 20
27306.57051578057
 30
0.0
  0
POINT
  5
7817
330
77C2
100
AcDbEntity
  8
DEFPOINTS
 62
     0
100
AcDbPoint
 10
34317.68807159399
 20
27752.89038004334
 30
0.0
  0
POINT
  5
7818
330
77C2
100
AcDbEntity
  8
DEFPOINTS
 62
     0
100
AcDbPoint
 10
34075.80562383129
 20
28236.6540922128
 30
0.0
  0
ENDBLK
  5
77CD
330
77C2
100
AcDbEntity
  8
0
100
AcDbBlockEnd
  0
BLOCK
  5
7831
330
7826
100
AcDbEntity
  8
0
100
AcDbBlockBegin
  2
*D21
 70
     1
 10
0.0
 20
0.0
 30
0.0
  3
*D21
  1

  0
LINE
  5
786F
330
7826
100
AcDbEntity
  8
D-STR-TXT
 62
     0
370
    -2
100
AcDbLine
 10
34467.50549949465
 20
27620.96062255454
 30
0.0
 11
34743.94301441294
 21
27759.17938001368
 31
0.0
  0
LINE
  5
7870
330
7826
100
AcDbEntity
  8
D-STR-TXT
 62
     0
370
    -2
100
AcDbLine
 10
34571.76578014545
 20
28047.63214911116
 30
0.0
 11
34533.75262452796
 21
28123.65846034615
 31
0.0
  0
LINE
  5
7871
330
7826
100
AcDbEntity
  8
D-STR-TXT
 62
     0
370
    -2
100
AcDbLine
 10
34759.59549025544
 20
27671.97272889119
 30
0.0
 11
34797.60864587293
 21
27595.9464176562
 31
0.0
  0
INSERT
  5
7872
330
7826
100
AcDbEntity
  8
D-STR-TXT
 62
     0
370
    -2
100
AcDbBlockReference
  2
_Open30
 10
34609.77893576294
 20
27971.60583787617
 30
0.0
 41
85.0
 42
85.0
 43
85.0
 50
296.565051177078
  0
INSERT
  5
7873
330
7826
100
AcDbEntity
  8
D-STR-TXT
 62
     0
370
    -2
100
AcDbBlockReference
  2
_Open30
 10
34721.58233463794
 20
27747.99904012619
 30
0.0
 41
85.0
 42
85.0
 43
85.0
 50
116.565051177078
  0
MTEXT
  5
7874
330
7826
100
AcDbEntity
  8
D-STR-TXT
 62
     0
100
AcDbMText
 10
34768.53976216543
 20
27911.23200248367
 30
0.0
 40
150.0
 41
0.0
 71
     5
 72
     1
  1
\A1;250
  7
ＭＳ ゴシック
 11
0.447213595499958
 21
-0.8944271909999159
 31
0.0
 73
     1
 44
1.0
  0
POINT
  5
7875
330
7826
100
AcDbEntity
  8
DEFPOINTS
 62
     0
100
AcDbPoint
 10
34288.62006129465
 20
27811.02640064202
 30
0.0
  0
POINT
  5
7876
330
7826
100
AcDbEntity
  8
DEFPOINTS
 62
     0
100
AcDbPoint
 10
34400.42346016965
 20
27587.41960289204
 30
0.0
  0
POINT
  5
7877
330
7826
100
AcDbEntity
  8
DEFPOINTS
 62
     0
100
AcDbPoint
 10
34721.58233463794
 20
27747.99904012619
 30
0.0
  0
ENDBLK
  5
7832
330
7826
100
AcDbEntity
  8
0
100
AcDbBlockEnd
  0
ENDSEC
  0
SECTION
  2
ENTITIES
  0
TEXT
  5
73
330
17
100
AcDbEntity
  8
D-STR
100
AcDbText
 10
57301.49202538158
 20
31087.05882352942
 30
0.0
 40
300.0
  1
　
100
AcDbText
  0
TEXT
  5
6C27
330
17
100
AcDbEntity
  8
0
100
AcDbText
 10
38622.79736487872
 20
19554.06125142024
 30
0.0
 40
125.0
  1
新和コンクリート工業株式会社
100
AcDbText
  0
TEXT
  5
6C28
330
17
100
AcDbEntity
  8
0
100
AcDbText
 10
39693.63069821205
 20
19866.56125142024
 30
0.0
 40
125.0
  1
製図
 72
     4
 11
39822.79736487872
 21
19929.06125142024
 31
0.0
100
AcDbText
  0
TEXT
  5
6C29
330
17
100
AcDbEntity
  8
0
100
AcDbText
 10
39689.46403154538
 20
20116.56125142024
 30
0.0
 40
125.0
  1
設計
 72
     4
 11
39822.79736487872
 21
20179.06125142024
 31
0.0
100
AcDbText
  0
TEXT
  5
6C2A
330
17
100
AcDbEntity
  8
0
100
AcDbText
 10
38576.96403154538
 20
19866.56125142024
 30
0.0
 40
125.0
  1
認
 72
     4
 11
38635.29736487872
 21
19929.06125142024
 31
0.0
100
AcDbText
  0
TEXT
  5
6C2B
330
17
100
AcDbEntity
  8
0
100
AcDbText
 10
38576.96403154538
 20
20120.7279180869
 30
0.0
 40
125.0
  1
承
 72
     4
 11
38635.29736487872
 21
20179.06125142024
 31
0.0
100
AcDbText
  0
TEXT
  5
6C2C
330
17
100
AcDbEntity
  8
0
100
AcDbText
 10
37260.29736487872
 20
20141.56125142024
 30
0.0
 40
125.0
  1
図　面　番　号
 72
     4
 11
37772.79736487872
 21
20204.06125142024
 31
0.0
100
AcDbText
  0
TEXT
  5
6C2D
330
17
100
AcDbEntity
  8
0
100
AcDbText
 10
39722.79736487872
 20
20404.06125142024
 30
0.0
 40
125.0
  1
１／
100
AcDbText
  0
TEXT
  5
6C2E
330
17
100
AcDbEntity
  8
0
100
AcDbText
 10
38989.46403154538
 20
20366.56125142024
 30
0.0
 40
125.0
  1
縮　　尺
 72
     4
 11
39272.79736487872
 21
20429.06125142024
 31
0.0
100
AcDbText
  0
TEXT
  5
6C2F
330
17
100
AcDbEntity
  8
0
100
AcDbText
 10
38989.46403154538
 20
20616.56125142024
 30
0.0
 40
125.0
  1
鉄 筋 量
 72
     4
 11
39272.79736487872
 21
20679.06125142024
 31
0.0
100
AcDbText
  0
TEXT
  5
6C30
330
17
100
AcDbEntity
  8
0
100
AcDbText
 10
38989.46403154538
 20
20866.56125142024
 30
0.0
 40
125.0
  1
製 造 数
 72
     4
 11
39272.79736487872
 21
20929.06125142024
 31
0.0
100
AcDbText
  0
TEXT
  5
6C31
330
17
100
AcDbEntity
  8
0
100
AcDbText
 10
40472.79736487872
 20
20604.06125142024
 30
0.0
 40
125.0
  1
ｋｇ
 72
     2
 11
40722.79736487872
 21
20604.06125142024
 31
0.0
100
AcDbText
  0
TEXT
  5
6C32
330
17
100
AcDbEntity
  8
0
100
AcDbText
 10
38597.79736487872
 20
20604.06125142024
 30
0.0
 40
125.0
  1
ｋｇ
 72
     2
 11
38847.79736487872
 21
20604.06125142024
 31
0.0
100
AcDbText
  0
TEXT
  5
6C33
330
17
100
AcDbEntity
  8
0
100
AcDbText
 10
37122.79736487872
 20
20366.56125142024
 30
0.0
 40
125.0
  1
年 月 日
 72
     4
 11
37397.79736487872
 21
20429.06125142024
 31
0.0
100
AcDbText
  0
TEXT
  5
6C34
330
17
100
AcDbEntity
  8
0
100
AcDbText
 10
37114.46403154538
 20
20616.56125142024
 30
0.0
 40
125.0
  1
製品質量
 72
     4
 11
37397.79736487872
 21
20679.06125142024
 31
0.0
100
AcDbText
  0
TEXT
  5
6C35
330
17
100
AcDbEntity
  8
0
100
AcDbText
 10
37118.63069821205
 20
20866.56125142024
 30
0.0
 40
125.0
  1
業 者 名
 72
     4
 11
37397.79736487872
 21
20929.06125142024
 31
0.0
100
AcDbText
  0
TEXT
  5
6C36
330
17
100
AcDbEntity
  8
0
100
AcDbText
 10
37114.46403154538
 20
21179.06125142024
 30
0.0
 40
125.0
  1
名　　称
 72
     4
 11
37397.79736487872
 21
21241.56125142024
 31
0.0
100
AcDbText
  0
LINE
  5
6C37
330
17
100
AcDbEntity
  8
0
100
AcDbLine
 10
38522.79736487872
 20
20104.06125142024
 30
0.0
 11
37022.79736487872
 21
20104.06125142024
 31
0.0
  0
LINE
  5
6C38
330
17
100
AcDbEntity
  8
0
100
AcDbLine
 10
39997.79736487872
 20
19804.06125142024
 30
0.0
 11
39997.79736487872
 21
20304.06125142024
 31
0.0
  0
LINE
  5
6C39
330
17
100
AcDbEntity
  8
0
100
AcDbLine
 10
39647.79736487872
 20
19804.06125142024
 30
0.0
 11
39647.79736487872
 21
20304.06125142024
 31
0.0
  0
LINE
  5
6C3A
330
17
100
AcDbEntity
  8
0
100
AcDbLine
 10
38747.79736487872
 20
19804.06125142024
 30
0.0
 11
38747.79736487872
 21
20304.06125142024
 31
0.0
  0
LINE
  5
6C3B
330
17
100
AcDbEntity
  8
0
100
AcDbLine
 10
38522.79736487872
 20
19804.06125142024
 30
0.0
 11
38522.79736487872
 21
20304.06125142024
 31
0.0
  0
LINE
  5
6C3C
330
17
100
AcDbEntity
  8
0
100
AcDbLine
 10
37772.79736487872
 20
20304.06125142024
 30
0.0
 11
37772.79736487872
 21
21429.06125142024
 31
0.0
  0
LINE
  5
6C3D
330
17
100
AcDbEntity
  8
0
100
AcDbLine
 10
39647.79736487872
 20
20304.06125142024
 30
0.0
 11
39647.79736487872
 21
21054.06125142024
 31
0.0
  0
LINE
  5
6C3E
330
17
100
AcDbEntity
  8
0
100
AcDbLine
 10
38897.79736487872
 20
20304.06125142024
 30
0.0
 11
38897.79736487872
 21
21054.06125142024
 31
0.0
  0
LINE
  5
6C3F
330
17
100
AcDbEntity
  8
0
100
AcDbLine
 10
40772.79736487872
 20
21054.06125142024
 30
0.0
 11
37022.79736487872
 21
21054.06125142024
 31
0.0
  0
LINE
  5
6C40
330
17
100
AcDbEntity
  8
0
100
AcDbLine
 10
40772.79736487872
 20
20804.06125142024
 30
0.0
 11
37022.79736487872
 21
20804.06125142024
 31
0.0
  0
LINE
  5
6C41
330
17
100
AcDbEntity
  8
0
100
AcDbLine
 10
40772.79736487872
 20
20554.06125142024
 30
0.0
 11
37022.79736487872
 21
20554.06125142024
 31
0.0
  0
LINE
  5
6C42
330
17
100
AcDbEntity
  8
0
100
AcDbLine
 10
40772.79736487872
 20
20304.06125142024
 30
0.0
 11
37022.79736487872
 21
20304.06125142024
 31
0.0
  0
LINE
  5
6C43
330
17
100
AcDbEntity
  8
0
100
AcDbLine
 10
37022.79736487872
 20
21429.06125142024
 30
0.0
 11
40772.79736487872
 21
21429.06125142024
 31
0.0
  0
LINE
  5
6C44
330
17
100
AcDbEntity
  8
0
100
AcDbLine
 10
37022.79736487872
 20
19804.06125142024
 30
0.0
 11
37022.79736487872
 21
21429.06125142024
 31
0.0
  0
LINE
  5
6C45
330
17
100
AcDbEntity
  8
0
100
AcDbLine
 10
21622.79736487872
 20
33404.06125142024
 30
0.0
 11
21622.79736487872
 21
33154.06125142024
 31
0.0
  0
LINE
  5
6C46
330
17
100
AcDbEntity
  8
0
100
AcDbLine
 10
22872.79736487872
 20
33404.06125142024
 30
0.0
 11
21622.79736487872
 21
33404.06125142024
 31
0.0
  0
LINE
  5
6C47
330
17
100
AcDbEntity
  8
0
100
AcDbLine
 10
22872.79736487872
 20
33154.06125142024
 30
0.0
 11
22872.79736487872
 21
33404.06125142024
 31
0.0
  0
LINE
  5
6C48
330
17
100
AcDbEntity
  8
0
100
AcDbLine
 10
21622.79736487872
 20
19804.06125142024
 30
0.0
 11
40772.79736487872
 21
19804.06125142024
 31
0.0
  0
LINE
  5
6C49
330
17
100
AcDbEntity
  8
0
100
AcDbLine
 10
21622.79736487872
 20
33154.06125142024
 30
0.0
 11
40772.79736487872
 21
33154.06125142024
 31
0.0
  0
LINE
  5
6C4A
330
17
100
AcDbEntity
  8
0
100
AcDbLine
 10
40772.79736487872
 20
33154.06125142024
 30
0.0
 11
40772.79736487872
 21
19804.06125142024
 31
0.0
  0
TEXT
  5
6C4B
330
17
100
AcDbEntity
  8
0
100
AcDbText
 10
21807.79736487872
 20
33204.06125142024
 30
0.0
 40
150.0
  1
Ｈ－２－共
 72
     4
 11
22247.79736487872
 21
33279.06125142024
 31
0.0
100
AcDbText
  0
LINE
  5
6C4C
330
17
100
AcDbEntity
  8
0
100
AcDbLine
 10
21622.79736487872
 20
19804.06125142024
 30
0.0
 11
21622.79736487872
 21
33154.06125142024
 31
0.0
  0
TEXT
  5
6C4D
330
17
100
AcDbEntity
  8
0
100
AcDbText
 10
40060.29736487872
 20
20354.06125142024
 30
0.0
 40
150.0
  1
50
 72
     1
 11
40172.79736487872
 21
20354.06125142024
 31
0.0
100
AcDbText
  0
TEXT
  5
75E4
330
17
100
AcDbEntity
  8
D-STR-DIM
100
AcDbText
 10
34181.61531158783
 20
26626.89232039973
 30
0.0
 40
150.0
  1
吸出防止材
  7
ＭＳ ゴシック
100
AcDbText
  0
LEADER
  5
75E5
330
17
100
AcDbEntity
  8
D-STR-DIM
100
AcDbLeader
  3
S-50
 76
     2
 10
33514.14301779187
 20
27101.03935474568
 30
0.0
 10
34110.01249230769
 20
26574.73691831835
 30
0.0
1001
ACAD
1000
DSTYLE
1002
{
1070
   147
1040
0.8
1070
    77
1070
     0
1002
}
  0
LINE
  5
75E6
330
17
100
AcDbEntity
  8
D-STR
100
AcDbLine
 10
26947.31267021667
 20
27466.69481899478
 30
0.0
 11
26947.31267021667
 21
26468.69515469477
 31
0.0
  0
LINE
  5
75E7
330
17
100
AcDbEntity
  8
D-STR
100
AcDbLine
 10
26762.31267021667
 20
26468.69515469477
 30
0.0
 11
26947.31267021667
 21
26468.69515469477
 31
0.0
  0
LINE
  5
75E8
330
17
100
AcDbEntity
  8
D-STR
100
AcDbLine
 10
26762.31267021667
 20
26518.69515469477
 30
0.0
 11
26947.31267021667
 21
26518.69515469477
 31
0.0
  0
LINE
  5
75E9
330
17
100
AcDbEntity
  8
D-STR
100
AcDbLine
 10
26762.31267021667
 20
27416.69481899478
 30
0.0
 11
26947.31267021667
 21
27416.69481899478
 31
0.0
  0
LINE
  5
75EA
330
17
100
AcDbEntity
  8
D-STR
100
AcDbLine
 10
26762.31267021667
 20
27466.69481899478
 30
0.0
 11
26947.31267021667
 21
27466.69481899478
 31
0.0
  0
LINE
  5
75EB
330
17
100
AcDbEntity
  8
D-STR
100
AcDbLine
 10
25413.31463322068
 20
27466.69481899478
 30
0.0
 11
25313.31454172068
 21
27466.69481899478
 31
0.0
  0
LINE
  5
75EC
330
17
100
AcDbEntity
  8
D-STR
100
AcDbLine
 10
25183.31454172068
 20
27336.69481899478
 30
0.0
 11
25183.31454172068
 21
27236.69481899478
 31
0.0
  0
LINE
  5
75ED
330
17
100
AcDbEntity
  8
D-STR
100
AcDbLine
 10
25233.31454172068
 20
27042.69478849478
 30
0.0
 11
25233.31454172068
 21
26892.69478849478
 31
0.0
  0
LINE
  5
75EE
330
17
100
AcDbEntity
  8
D-STR
100
AcDbLine
 10
25607.31463322068
 20
27416.69481899478
 30
0.0
 11
25757.31463322068
 21
27416.69481899478
 31
0.0
  0
LINE
  5
75EF
330
17
100
AcDbEntity
  8
D-STR
 62
     5
100
AcDbLine
 10
25197.40307214273
 20
27458.26355002272
 30
0.0
 11
25251.14293658811
 21
27404.5232138622
 31
0.0
  0
ARC
  5
75F0
330
17
100
AcDbEntity
  8
D-STR
 62
     5
100
AcDbCircle
 10
25194.57441128416
 20
27455.43491929868
 30
0.0
 40
4.0
100
AcDbArc
 50
224.9996948001234
 51
44.99969480012344
  0
ARC
  5
75F1
330
17
100
AcDbEntity
  8
D-STR
 62
     5
100
AcDbCircle
 10
25194.57441128416
 20
27455.43491929868
 30
0.0
 40
4.0
100
AcDbArc
 50
44.99969480012344
 51
224.9996948001234
  0
LINE
  5
75F2
330
17
100
AcDbEntity
  8
D-STR
 62
     5
100
AcDbLine
 10
25191.71063834914
 20
27452.64228531323
 30
0.0
 11
25245.4860084879
 21
27398.86628576199
 31
0.0
  0
LINE
  5
75F3
330
17
100
AcDbEntity
  8
D-STR
  6
HIDDEN
 62
     4
 48
0.3
100
AcDbLine
 10
26762.31267021667
 20
26643.69515469477
 30
0.0
 11
26947.31267021667
 21
26678.69515469477
 31
0.0
  0
LINE
  5
75F4
330
17
100
AcDbEntity
  8
D-STR
  6
HIDDEN
 62
     4
 48
0.3
100
AcDbLine
 10
26947.31267021667
 20
26882.69478849478
 30
0.0
 11
26762.31267021667
 21
26917.69478849478
 31
0.0
  0
LINE
  5
75F5
330
17
100
AcDbEntity
  8
D-STR
100
AcDbLine
 10
26762.31267021667
 20
27466.69481899478
 30
0.0
 11
26762.31267021667
 21
26832.27718599478
 31
0.0
  0
LINE
  5
75F6
330
17
100
AcDbEntity
  8
D-STR
100
AcDbLine
 10
26762.31267021667
 20
26832.27718599478
 30
0.0
 11
26762.31267021667
 21
26468.69515469477
 31
0.0
  0
LINE
  5
75F7
330
17
100
AcDbEntity
  8
D-STR
  6
HIDDEN
 62
     4
 48
0.3
100
AcDbLine
 10
26762.31267021667
 20
27017.69478849478
 30
0.0
 11
26947.31267021667
 21
27052.69478849478
 31
0.0
  0
LINE
  5
75F8
330
17
100
AcDbEntity
  8
D-STR
  6
HIDDEN
 62
     4
 48
0.3
100
AcDbLine
 10
26947.31267021667
 20
27256.69478849478
 30
0.0
 11
26762.31267021667
 21
27291.69481899478
 31
0.0
  0
LINE
  5
75F9
330
17
100
AcDbEntity
  8
D-STR
100
AcDbLine
 10
25183.31454172068
 20
27336.69481899478
 30
0.0
 11
25313.31454172068
 21
27466.69481899478
 31
0.0
  0
LINE
  5
75FA
330
17
100
AcDbEntity
  8
D-STR
100
AcDbLine
 10
25413.31463322068
 20
27466.69481899478
 30
0.0
 11
25607.31463322068
 21
27416.69481899478
 31
0.0
  0
LINE
  5
75FB
330
17
100
AcDbEntity
  8
D-STR
100
AcDbLine
 10
25233.31454172068
 20
27042.69478849478
 30
0.0
 11
25183.31454172068
 21
27236.69481899478
 31
0.0
  0
LINE
  5
75FC
330
17
100
AcDbEntity
  8
D-STR
100
AcDbLine
 10
25951.31463322068
 20
27466.69481899478
 30
0.0
 11
25757.31463322068
 21
27416.69481899478
 31
0.0
  0
LINE
  5
75FD
330
17
100
AcDbEntity
  8
D-STR
100
AcDbLine
 10
26181.31472472068
 20
27336.69481899478
 30
0.0
 11
26051.31472472068
 21
27466.69481899478
 31
0.0
  0
LINE
  5
75FE
330
17
100
AcDbEntity
  8
D-STR
100
AcDbLine
 10
25951.31463322068
 20
27466.69481899478
 30
0.0
 11
26051.31472472068
 21
27466.69481899478
 31
0.0
  0
LINE
  5
75FF
330
17
100
AcDbEntity
  8
D-STR
 62
     5
100
AcDbLine
 10
26167.22619429864
 20
27458.26355002272
 30
0.0
 11
26113.48632985326
 21
27404.5232138622
 31
0.0
  0
LINE
  5
7600
330
17
100
AcDbEntity
  8
D-STR
 62
     5
100
AcDbLine
 10
26172.91862809222
 20
27452.64228531323
 30
0.0
 11
26119.14325795347
 21
27398.86628576199
 31
0.0
  0
ARC
  5
7601
330
17
100
AcDbEntity
  8
D-STR
 62
     5
100
AcDbCircle
 10
26170.05485515721
 20
27455.43491929868
 30
0.0
 40
4.0
100
AcDbArc
 50
315.0003051998765
 51
135.0003051998766
  0
ARC
  5
7602
330
17
100
AcDbEntity
  8
D-STR
 62
     5
100
AcDbCircle
 10
26170.05485515721
 20
27455.43491929868
 30
0.0
 40
4.0
100
AcDbArc
 50
135.0003051998766
 51
315.0003051998765
  0
LINE
  5
7603
330
17
100
AcDbEntity
  8
D-STR
100
AcDbLine
 10
26181.31472472068
 20
27336.69481899478
 30
0.0
 11
26181.31472472068
 21
27236.69481899478
 31
0.0
  0
LINE
  5
7604
330
17
100
AcDbEntity
  8
D-STR
100
AcDbLine
 10
26131.31472472068
 20
27042.69478849478
 30
0.0
 11
26181.31472472068
 21
27236.69481899478
 31
0.0
  0
LINE
  5
7605
330
17
100
AcDbEntity
  8
D-STR
100
AcDbLine
 10
26131.31472472068
 20
27042.69478849478
 30
0.0
 11
26131.31472472068
 21
26892.69478849478
 31
0.0
  0
LINE
  5
7606
330
17
100
AcDbEntity
  8
D-STR
 62
     5
100
AcDbLine
 10
26172.91862809222
 20
26482.74729167632
 30
0.0
 11
26119.14325795347
 21
26536.52329122756
 31
0.0
  0
LINE
  5
7607
330
17
100
AcDbEntity
  8
D-STR
 62
     5
100
AcDbLine
 10
26167.22619429864
 20
26477.12602696683
 30
0.0
 11
26113.48632985326
 21
26530.86636312735
 31
0.0
  0
LINE
  5
7608
330
17
100
AcDbEntity
  8
D-STR
100
AcDbLine
 10
26181.31472472068
 20
26598.69475799478
 30
0.0
 11
26051.31472472068
 21
26468.69475799478
 31
0.0
  0
ARC
  5
7609
330
17
100
AcDbEntity
  8
D-STR
 62
     5
100
AcDbCircle
 10
26170.05485515721
 20
26479.95465769087
 30
0.0
 40
4.0
100
AcDbArc
 50
44.99969480012344
 51
224.9996948001234
  0
ARC
  5
760A
330
17
100
AcDbEntity
  8
D-STR
 62
     5
100
AcDbCircle
 10
26170.05485515721
 20
26479.95465769087
 30
0.0
 40
4.0
100
AcDbArc
 50
224.9996948001234
 51
44.99969480012344
  0
LINE
  5
760B
330
17
100
AcDbEntity
  8
D-STR
100
AcDbLine
 10
26131.31472472068
 20
26892.69478849478
 30
0.0
 11
26181.31472472068
 21
26698.69475799478
 31
0.0
  0
LINE
  5
760C
330
17
100
AcDbEntity
  8
D-STR
100
AcDbLine
 10
26181.31472472068
 20
26598.69475799478
 30
0.0
 11
26181.31472472068
 21
26698.69475799478
 31
0.0
  0
LINE
  5
760D
330
17
100
AcDbEntity
  8
D-STR
100
AcDbLine
 10
25951.31463322068
 20
26468.69475799478
 30
0.0
 11
26051.31472472068
 21
26468.69475799478
 31
0.0
  0
LINE
  5
760E
330
17
100
AcDbEntity
  8
D-STR
100
AcDbLine
 10
25951.31463322068
 20
26468.69475799478
 30
0.0
 11
25757.31463322068
 21
26518.69475799478
 31
0.0
  0
LINE
  5
760F
330
17
100
AcDbEntity
  8
D-STR
100
AcDbLine
 10
25607.31463322068
 20
26518.69475799478
 30
0.0
 11
25757.31463322068
 21
26518.69475799478
 31
0.0
  0
LINE
  5
7610
330
17
100
AcDbEntity
  8
D-STR
100
AcDbLine
 10
25413.31463322068
 20
26468.69475799478
 30
0.0
 11
25607.31463322068
 21
26518.69475799478
 31
0.0
  0
LINE
  5
7611
330
17
100
AcDbEntity
  8
D-STR
100
AcDbLine
 10
25413.31463322068
 20
26468.69475799478
 30
0.0
 11
25313.31454172068
 21
26468.69475799478
 31
0.0
  0
LINE
  5
7612
330
17
100
AcDbEntity
  8
D-STR
100
AcDbLine
 10
25183.31454172068
 20
26598.69475799478
 30
0.0
 11
25313.31454172068
 21
26468.69475799478
 31
0.0
  0
LINE
  5
7613
330
17
100
AcDbEntity
  8
D-STR
 62
     5
100
AcDbLine
 10
25197.40307214273
 20
26477.12602696683
 30
0.0
 11
25251.14293658811
 21
26530.86636312735
 31
0.0
  0
LINE
  5
7614
330
17
100
AcDbEntity
  8
D-STR
 62
     5
100
AcDbLine
 10
25191.71063834914
 20
26482.74729167632
 30
0.0
 11
25245.4860084879
 21
26536.52329122756
 31
0.0
  0
ARC
  5
7615
330
17
100
AcDbEntity
  8
D-STR
 62
     5
100
AcDbCircle
 10
25194.57441128416
 20
26479.95465769087
 30
0.0
 40
4.0
100
AcDbArc
 50
135.0003051998766
 51
315.0003051998765
  0
ARC
  5
7616
330
17
100
AcDbEntity
  8
D-STR
 62
     5
100
AcDbCircle
 10
25194.57441128416
 20
26479.95465769087
 30
0.0
 40
4.0
100
AcDbArc
 50
315.0003051998765
 51
135.0003051998766
  0
LINE
  5
7617
330
17
100
AcDbEntity
  8
D-STR
100
AcDbLine
 10
25183.31454172068
 20
26598.69475799478
 30
0.0
 11
25183.31454172068
 21
26698.69475799478
 31
0.0
  0
LINE
  5
7618
330
17
100
AcDbEntity
  8
D-STR
100
AcDbLine
 10
25233.31454172068
 20
26892.69478849478
 30
0.0
 11
25183.31454172068
 21
26698.69475799478
 31
0.0
  0
DIMENSION
  5
7619
330
17
100
AcDbEntity
  8
0
100
AcDbDimension
  2
*D12
 10
24767.01801044834
 20
27466.69530007028
 30
0.0
 11
24652.01801044833
 21
26967.69478849478
 31
0.0
 70
    32
 71
     5
 42
998.0010231510059
  3
S-50
100
AcDbAlignedDimension
 13
25183.31454172068
 23
26468.69427691927
 33
0.0
 14
25183.31454172068
 24
27466.69530007028
 34
0.0
 50
90.0
100
AcDbRotatedDimension
1001
ACAD
1000
DSTYLE
1002
{
1070
    41
1040
1.7
1070
   140
1040
3.0
1002
}
  0
DIMENSION
  5
761A
330
17
100
AcDbEntity
  8
0
100
AcDbDimension
  2
*D13
 10
26181.31472472068
 20
25949.47172705548
 30
0.0
 11
25682.31463322068
 21
26064.47172705548
 31
0.0
 70
    32
 71
     5
 42
998.0001830000001
  3
S-50
100
AcDbAlignedDimension
 13
25183.31454172068
 23
26468.69427691927
 33
0.0
 14
26181.31472472068
 24
26468.69427691927
 34
0.0
100
AcDbRotatedDimension
1001
ACAD
1000
DSTYLE
1002
{
1070
    41
1040
1.7
1070
   140
1040
3.0
1002
}
  0
DIMENSION
  5
761B
330
17
100
AcDbEntity
  8
0
100
AcDbDimension
  2
*D14
 10
26762.31267021667
 20
25987.48708585344
 30
0.0
 11
26575.20153549963
 21
26102.48708585344
 31
0.0
 70
   160
 71
     5
 42
64.91692345000047
  3
S-50
100
AcDbAlignedDimension
 13
26697.39574676667
 23
26541.19482329478
 33
0.0
 14
26762.31267021667
 24
26468.69515469477
 34
0.0
100
AcDbRotatedDimension
1001
ACAD
1000
DSTYLE
1002
{
1070
    41
1040
1.7
1070
   140
1040
3.0
1002
}
  0
DIMENSION
  5
761C
330
17
100
AcDbEntity
  8
0
100
AcDbDimension
  2
*D15
 10
26947.31267021667
 20
25987.48708585344
 30
0.0
 11
26905.79329059463
 21
26102.48708585344
 31
0.0
 70
   160
 71
     5
 42
185.0
  3
S-50
100
AcDbAlignedDimension
 13
26762.31267021667
 23
26468.69515469477
 33
0.0
 14
26947.31267021667
 24
26468.69515469477
 34
0.0
100
AcDbRotatedDimension
1001
ACAD
1000
DSTYLE
1002
{
1070
    41
1040
1.7
1070
   140
1040
3.0
1002
}
  0
DIMENSION
  5
761D
330
17
100
AcDbEntity
  8
0
100
AcDbDimension
  2
*D16
 10
26947.31267021667
 20
27798.13177448587
 30
0.0
 11
26822.39574676667
 21
27913.13177448587
 31
0.0
 70
    32
 71
     5
 42
249.8338469000009
  3
S-50
100
AcDbAlignedDimension
 13
26697.47882331667
 23
27392.54545739478
 33
0.0
 14
26947.31267021667
 24
27466.69481899478
 34
0.0
100
AcDbRotatedDimension
1001
ACAD
1000
DSTYLE
1002
{
1070
    41
1040
1.7
1070
   140
1040
3.0
1002
}
  0
DIMENSION
  5
761E
330
17
100
AcDbEntity
  8
0
100
AcDbDimension
  2
*D17
 10
27361.5788101209
 20
27466.69481899478
 30
0.0
 11
27246.5788101209
 21
26967.69498684478
 31
0.0
 70
    32
 71
     5
 42
997.9996643000013
  3
S-50
100
AcDbAlignedDimension
 13
26947.31267021667
 23
26468.69515469477
 33
0.0
 14
26947.31267021667
 24
27466.69481899478
 34
0.0
 50
90.0
100
AcDbRotatedDimension
1001
ACAD
1000
DSTYLE
1002
{
1070
    41
1040
1.7
1070
   140
1040
3.0
1002
}
  0
ARC
  5
761F
330
17
100
AcDbEntity
  8
D-STR
  6
Continuous
 62
     6
100
AcDbCircle
 10
25668.48893322069
 20
26992.39665849477
 30
0.0
 40
364.4081699999999
100
AcDbArc
 50
42.02519800012264
 51
52.1465989998024
  0
ARC
  5
7620
330
17
100
AcDbEntity
  8
D-STR
  6
Continuous
 62
     6
100
AcDbCircle
 10
25668.48893322069
 20
26992.39665849477
 30
0.0
 40
366.40817
100
AcDbArc
 50
42.03648800005581
 51
52.12755500011921
  0
ARC
  5
7621
330
17
100
AcDbEntity
  8
D-STR
 62
     6
100
AcDbCircle
 10
25668.48893322069
 20
26992.39665849477
 30
0.0
 40
367.40817
100
AcDbArc
 50
42.03648800005581
 51
52.12755500011921
  0
ARC
  5
7622
330
17
100
AcDbEntity
  8
D-STR
  6
Continuous
 62
     6
100
AcDbCircle
 10
26028.31628322068
 20
27236.92992849478
 30
0.0
 40
258.68917
100
AcDbArc
 50
163.7627630000711
 51
182.1139400000895
  0
ARC
  5
7623
330
17
100
AcDbEntity
  8
D-STR
  6
Continuous
 62
     6
100
AcDbCircle
 10
26028.31628322068
 20
27236.92992849478
 30
0.0
 40
295.88917
100
AcDbArc
 50
161.5954139999285
 51
181.8128209999886
  0
ARC
  5
7624
330
17
100
AcDbEntity
  8
D-STR
  6
Continuous
 62
     6
100
AcDbCircle
 10
26028.31628322068
 20
27236.92992849478
 30
0.0
 40
293.88917
100
AcDbArc
 50
161.5888129999463
 51
181.8245290000488
  0
ARC
  5
7625
330
17
100
AcDbEntity
  8
D-STR
  6
Continuous
 62
     6
100
AcDbCircle
 10
25706.93818322069
 20
27093.83605849477
 30
0.0
 40
227.4621
100
AcDbArc
 50
44.63870899987822
 51
71.27867900002718
  0
ARC
  5
7626
330
17
100
AcDbEntity
  8
D-STR
  6
Continuous
 62
     6
100
AcDbCircle
 10
25911.07368322069
 20
27103.00706849478
 30
0.0
 40
80.70914
100
AcDbArc
 50
245.7400239999826
 51
263.4543970000141
  0
ARC
  5
7627
330
17
100
AcDbEntity
  8
D-STR
  6
Continuous
 62
     6
100
AcDbCircle
 10
25911.07368322069
 20
27103.00706849478
 30
0.0
 40
78.70914
100
AcDbArc
 50
245.9370679999343
 51
263.5462619999246
  0
ARC
  5
7628
330
17
100
AcDbEntity
  8
D-STR
  6
Continuous
 62
     6
100
AcDbCircle
 10
25668.48893322069
 20
26992.39665849477
 30
0.0
 40
329.20817
100
AcDbArc
 50
41.79125499995502
 51
52.52390300007094
  0
ARC
  5
7629
330
17
100
AcDbEntity
  8
D-STR
  6
Continuous
 62
     6
100
AcDbCircle
 10
25730.28325322068
 20
27048.77234849477
 30
0.0
 40
172.07856
100
AcDbArc
 50
24.53550600007271
 51
51.82563600000042
  0
ARC
  5
762A
330
17
100
AcDbEntity
  8
D-STR
  6
Continuous
 62
     6
100
AcDbCircle
 10
25730.28325322068
 20
27048.77234849477
 30
0.0
 40
134.87856
100
AcDbArc
 50
24.81918200001833
 51
50.98271199995294
  0
ARC
  5
762B
330
17
100
AcDbEntity
  8
D-STR
 62
     6
100
AcDbCircle
 10
25730.28325322068
 20
27048.77234849477
 30
0.0
 40
133.87856
100
AcDbArc
 50
24.81918200001833
 51
50.98271199995294
  0
ARC
  5
762C
330
17
100
AcDbEntity
  8
D-STR
  6
Continuous
 62
     6
100
AcDbCircle
 10
25730.28325322068
 20
27048.77234849477
 30
0.0
 40
136.87856
100
AcDbArc
 50
24.79904400001627
 51
51.0387119998803
  0
ARC
  5
762D
330
17
100
AcDbEntity
  8
D-STR
  6
Continuous
 62
     6
100
AcDbCircle
 10
25791.98779322069
 20
27080.79261849477
 30
0.0
 40
65.50889
100
AcDbArc
 50
356.5053399999522
 51
22.05259799997829
  0
ARC
  5
762E
330
17
100
AcDbEntity
  8
D-STR
 62
     6
100
AcDbCircle
 10
25791.98779322069
 20
27080.79261849477
 30
0.0
 40
64.50889000000001
100
AcDbArc
 50
356.5053399999522
 51
22.05259799997829
  0
ARC
  5
762F
330
17
100
AcDbEntity
  8
D-STR
  6
Continuous
 62
     6
100
AcDbCircle
 10
25791.98779322069
 20
27080.79261849477
 30
0.0
 40
67.50889
100
AcDbArc
 50
356.5053399999522
 51
22.09374400007156
  0
ARC
  5
7630
330
17
100
AcDbEntity
  8
D-STR
  6
Continuous
 62
     6
100
AcDbCircle
 10
25914.26887322068
 20
27073.32502849477
 30
0.0
 40
57.0
100
AcDbArc
 50
176.5053399999523
 51
230.369202999936
  0
ARC
  5
7631
330
17
100
AcDbEntity
  8
D-STR
 62
     6
100
AcDbCircle
 10
25914.26887322068
 20
27073.32502849477
 30
0.0
 40
58.0
100
AcDbArc
 50
176.5053399999523
 51
233.118641000041
  0
ARC
  5
7632
330
17
100
AcDbEntity
  8
D-STR
  6
Continuous
 62
     6
100
AcDbCircle
 10
25914.26887322068
 20
27073.32502849477
 30
0.0
 40
55.0
100
AcDbArc
 50
176.5053399999523
 51
230.0887120001334
  0
ARC
  5
7633
330
17
100
AcDbEntity
  8
D-STR
  6
Continuous
 62
     6
100
AcDbCircle
 10
25709.02746322069
 20
26979.44789849477
 30
0.0
 40
203.93477
100
AcDbArc
 50
58.62722800000663
 51
73.17631200002508
  0
ARC
  5
7634
330
17
100
AcDbEntity
  8
D-STR
 62
     6
100
AcDbCircle
 10
25709.02746322069
 20
26979.44789849477
 30
0.0
 40
202.93477
100
AcDbArc
 50
58.62722800000663
 51
73.17631200002508
  0
ARC
  5
7635
330
17
100
AcDbEntity
  8
D-STR
  6
Continuous
 62
     6
100
AcDbCircle
 10
25709.02746322069
 20
26979.44789849477
 30
0.0
 40
241.13477
100
AcDbArc
 50
58.0481389999311
 51
73.17631200002508
  0
ARC
  5
7636
330
17
100
AcDbEntity
  8
D-STR
  6
Continuous
 62
     6
100
AcDbCircle
 10
25709.02746322069
 20
26979.44789849477
 30
0.0
 40
205.93477
100
AcDbArc
 50
58.59009900005007
 51
73.17631200002508
  0
ARC
  5
7637
330
17
100
AcDbEntity
  8
D-STR
  6
Continuous
 62
     6
100
AcDbCircle
 10
25784.54917322068
 20
27229.21464849477
 30
0.0
 40
55.0
100
AcDbArc
 50
239.4629399999867
 51
253.1763120000251
  0
ARC
  5
7638
330
17
100
AcDbEntity
  8
D-STR
  6
Continuous
 62
     6
100
AcDbCircle
 10
25789.73111322069
 20
27225.97054849478
 30
0.0
 40
19.97828
100
AcDbArc
 50
175.9323199999905
 51
227.4633579998582
  0
ARC
  5
7639
330
17
100
AcDbEntity
  8
D-STR
  6
Continuous
 62
     6
100
AcDbCircle
 10
25784.54917322068
 20
27229.21464849477
 30
0.0
 40
57.0
100
AcDbArc
 50
239.3512649998323
 51
253.1763120000251
  0
ARC
  5
763A
330
17
100
AcDbEntity
  8
D-STR
 62
     6
100
AcDbCircle
 10
25784.54917322068
 20
27229.21464849477
 30
0.0
 40
58.0
100
AcDbArc
 50
239.3489699998232
 51
253.1763120000251
  0
ARC
  5
763B
330
17
100
AcDbEntity
  8
D-STR
  6
Continuous
 62
     6
100
AcDbCircle
 10
25789.73111322069
 20
27225.97054849478
 30
0.0
 40
57.17828
100
AcDbArc
 50
178.3974009999394
 51
233.2151619999873
  0
ARC
  5
763C
330
17
100
AcDbEntity
  8
D-STR
  6
Continuous
 62
     6
100
AcDbCircle
 10
25789.73111322069
 20
27225.97054849478
 30
0.0
 40
55.17828
100
AcDbArc
 50
178.3359300000287
 51
233.1038420000587
  0
ARC
  5
763D
330
17
100
AcDbEntity
  8
D-STR
  6
Continuous
 62
     6
100
AcDbCircle
 10
25784.54917322068
 20
27229.21464849477
 30
0.0
 40
19.8
100
AcDbArc
 50
245.1379639999464
 51
253.1763120000251
  0
ARC
  5
763E
330
17
100
AcDbEntity
  8
D-STR
  6
Continuous
 62
     6
100
AcDbCircle
 10
25996.87181322068
 20
27124.65092849478
 30
0.0
 40
50.2
100
AcDbArc
 50
182.9091370000053
 51
214.9909809999389
  0
ARC
  5
763F
330
17
100
AcDbEntity
  8
D-STR
  6
Continuous
 62
     6
100
AcDbCircle
 10
26344.70330322068
 20
27368.12357849477
 30
0.0
 40
437.57706
100
AcDbArc
 50
214.9909809999389
 51
222.782643000066
  0
ARC
  5
7640
330
17
100
AcDbEntity
  8
D-STR
 62
     6
100
AcDbCircle
 10
26344.70330322068
 20
27368.12357849477
 30
0.0
 40
436.57706
100
AcDbArc
 50
214.9909809999389
 51
219.6233689999937
  0
ARC
  5
7641
330
17
100
AcDbEntity
  8
D-STR
  6
Continuous
 62
     6
100
AcDbCircle
 10
26344.70330322068
 20
27368.12357849477
 30
0.0
 40
439.57706
100
AcDbArc
 50
214.9909809999389
 51
222.7613779999143
  0
ARC
  5
7642
330
17
100
AcDbEntity
  8
D-STR
  6
Continuous
 62
     6
100
AcDbCircle
 10
25791.98779322069
 20
27080.79261849477
 30
0.0
 40
102.70889
100
AcDbArc
 50
356.5053399999522
 51
22.57946900014118
  0
ARC
  5
7643
330
17
100
AcDbEntity
  8
D-STR
  6
Continuous
 62
     6
100
AcDbCircle
 10
25943.07635322068
 20
27190.69022849478
 30
0.0
 40
172.84892
100
AcDbArc
 50
256.2092940000676
 51
293.7099129999741
  0
ARC
  5
7644
330
17
100
AcDbEntity
  8
D-STR
  6
Continuous
 62
     6
100
AcDbCircle
 10
25943.07635322068
 20
27190.69022849478
 30
0.0
 40
170.84892
100
AcDbArc
 50
256.1666859999987
 51
293.7050270000034
  0
ARC
  5
7645
330
17
100
AcDbEntity
  8
D-STR
  6
Continuous
 62
     6
100
AcDbCircle
 10
25943.07635322068
 20
27190.69022849478
 30
0.0
 40
135.64892
100
AcDbArc
 50
255.120091999963
 51
286.9763170000291
  0
ARC
  5
7646
330
17
100
AcDbEntity
  8
D-STR
  6
Continuous
 62
     6
100
AcDbCircle
 10
26344.70330322068
 20
27368.12357849477
 30
0.0
 40
474.77706
100
AcDbArc
 50
214.9909809999389
 51
220.3143190001438
  0
ARC
  5
7647
330
17
100
AcDbEntity
  8
D-STR
  6
Continuous
 62
     6
100
AcDbCircle
 10
25914.26887322068
 20
27073.32502849477
 30
0.0
 40
19.8
100
AcDbArc
 50
176.5053399999523
 51
217.1946889999597
  0
ARC
  5
7648
330
17
100
AcDbEntity
  8
D-STR
  6
Continuous
 62
     6
100
AcDbCircle
 10
25911.07368322069
 20
27103.00706849478
 30
0.0
 40
43.50914
100
AcDbArc
 50
253.1976819999425
 51
266.2691159999677
  0
ARC
  5
7649
330
17
100
AcDbEntity
  8
D-STR
  6
Continuous
 62
     6
100
AcDbCircle
 10
26001.66534322069
 20
27056.34691849477
 30
0.0
 40
26.28882
100
AcDbArc
 50
294.5307289999509
 51
33.64709500005708
  0
ARC
  5
764A
330
17
100
AcDbEntity
  8
D-STR
  6
Continuous
 62
     6
100
AcDbCircle
 10
26001.66534322069
 20
27056.34691849477
 30
0.0
 40
24.28882
100
AcDbArc
 50
294.5639529999269
 51
33.27801400010315
  0
ARC
  5
764B
330
17
100
AcDbEntity
  8
D-STR
  6
Continuous
 62
     6
100
AcDbCircle
 10
25850.56338322069
 20
27144.02844849478
 30
0.0
 40
129.97788
100
AcDbArc
 50
4.240802000070508
 51
46.138657000118
  0
ARC
  5
764C
330
17
100
AcDbEntity
  8
D-STR
 62
     6
100
AcDbCircle
 10
25850.56338322069
 20
27144.02844849478
 30
0.0
 40
130.97788
100
AcDbArc
 50
4.240802000070508
 51
46.138657000118
  0
ARC
  5
764D
330
17
100
AcDbEntity
  8
D-STR
  6
Continuous
 62
     6
100
AcDbCircle
 10
25850.56338322069
 20
27144.02844849478
 30
0.0
 40
127.97788
100
AcDbArc
 50
4.18541700003605
 51
46.17064399996391
  0
ARC
  5
764E
330
17
100
AcDbEntity
  8
D-STR
  6
Continuous
 62
     6
100
AcDbCircle
 10
25780.66008322069
 20
27113.66354849478
 30
0.0
 40
166.29073
100
AcDbArc
 50
2.909137000005319
 51
12.15095999986327
  0
ARC
  5
764F
330
17
100
AcDbEntity
  8
D-STR
  6
Continuous
 62
     6
100
AcDbCircle
 10
25850.56338322069
 20
27144.02844849478
 30
0.0
 40
92.77788000000001
100
AcDbArc
 50
2.86501400011669
 51
46.91426600011025
  0
ARC
  5
7650
330
17
100
AcDbEntity
  8
D-STR
  6
Continuous
 62
     6
100
AcDbCircle
 10
25996.87181322068
 20
27124.65092849478
 30
0.0
 40
13.0
100
AcDbArc
 50
182.9091370000053
 51
214.9909809999389
  0
ARC
  5
7651
330
17
100
AcDbEntity
  8
D-STR
 62
     6
100
AcDbCircle
 10
25996.87181322068
 20
27124.65092849478
 30
0.0
 40
12.0
100
AcDbArc
 50
182.9091370000053
 51
214.9909809999389
  0
ARC
  5
7652
330
17
100
AcDbEntity
  8
D-STR
  6
Continuous
 62
     6
100
AcDbCircle
 10
25780.66008322069
 20
27113.66354849478
 30
0.0
 40
203.49073
100
AcDbArc
 50
2.909137000005319
 51
11.329672000051
  0
ARC
  5
7653
330
17
100
AcDbEntity
  8
D-STR
 62
     6
100
AcDbCircle
 10
25780.66008322069
 20
27113.66354849478
 30
0.0
 40
204.49073
100
AcDbArc
 50
2.909137000005319
 51
11.329672000051
  0
ARC
  5
7654
330
17
100
AcDbEntity
  8
D-STR
  6
Continuous
 62
     6
100
AcDbCircle
 10
25996.87181322068
 20
27124.65092849478
 30
0.0
 40
15.0
100
AcDbArc
 50
182.9091370000053
 51
214.9909809999389
  0
ARC
  5
7655
330
17
100
AcDbEntity
  8
D-STR
  6
Continuous
 62
     6
100
AcDbCircle
 10
25780.66008322069
 20
27113.66354849478
 30
0.0
 40
201.49073
100
AcDbArc
 50
2.909137000005319
 51
11.36494999997561
  0
ARC
  5
7656
330
17
100
AcDbEntity
  8
D-STR
 62
     6
100
AcDbCircle
 10
25706.93818322069
 20
27093.83605849477
 30
0.0
 40
265.6621
100
AcDbArc
 50
45.19975100016465
 51
71.93671099992731
  0
ARC
  5
7657
330
17
100
AcDbEntity
  8
D-STR
  6
Continuous
 62
     6
100
AcDbCircle
 10
25706.93818322069
 20
27093.83605849477
 30
0.0
 40
264.6621
100
AcDbArc
 50
45.19975100016465
 51
75.00332599986332
  0
ARC
  5
7658
330
17
100
AcDbEntity
  8
D-STR
  6
Continuous
 62
     6
100
AcDbCircle
 10
25706.93818322069
 20
27093.83605849477
 30
0.0
 40
262.6621
100
AcDbArc
 50
45.17335700012422
 51
74.96270399998325
  0
ARC
  5
7659
330
17
100
AcDbEntity
  8
D-STR
  6
Continuous
 62
     6
100
AcDbCircle
 10
25773.29790322069
 20
27322.72680849478
 30
0.0
 40
26.84143
100
AcDbArc
 50
85.4591550000349
 51
163.5014510001214
  0
ARC
  5
765A
330
17
100
AcDbEntity
  8
D-STR
  6
Continuous
 62
     6
100
AcDbCircle
 10
25773.29790322069
 20
27322.72680849478
 30
0.0
 40
24.84143
100
AcDbArc
 50
85.8739369999635
 51
163.5768319999817
  0
ARC
  5
765B
330
17
100
AcDbEntity
  8
D-STR
 62
     6
100
AcDbCircle
 10
25828.02298322069
 20
27374.84707849477
 30
0.0
 40
48.03697
100
AcDbArc
 50
97.08473499992978
 51
216.3054240000027
  0
ARC
  5
765C
330
17
100
AcDbEntity
  8
D-STR
 62
     6
100
AcDbCircle
 10
25655.76839322069
 20
28313.53122849477
 30
0.0
 40
906.4058
100
AcDbArc
 50
280.5739739999422
 51
288.0781789999496
  0
ARC
  5
765D
330
17
100
AcDbEntity
  8
D-STR
 62
     6
100
AcDbCircle
 10
25963.17640322068
 20
27254.54129849478
 30
0.0
 40
200.17417
100
AcDbArc
 50
59.62900600019329
 51
94.05579800002585
  0
ARC
  5
765E
330
17
100
AcDbEntity
  8
D-STR
 62
     6
100
AcDbCircle
 10
25981.71993322069
 20
27268.35622849478
 30
0.0
 40
179.10648
100
AcDbArc
 50
4.643947999988365
 51
62.51378600006407
  0
ARC
  5
765F
330
17
100
AcDbEntity
  8
D-STR
 62
     6
100
AcDbCircle
 10
26014.42633322068
 20
27240.45649849478
 30
0.0
 40
151.85187
100
AcDbArc
 50
321.3873339999372
 51
16.21394600001431
  0
ARC
  5
7660
330
17
100
AcDbEntity
  8
D-STR
 62
     6
100
AcDbCircle
 10
26153.56746322068
 20
26997.11793849478
 30
0.0
 40
139.3856
100
AcDbArc
 50
108.3287470000102
 51
132.8009360001675
  0
ARC
  5
7661
330
17
100
AcDbEntity
  8
D-STR
 62
     6
100
AcDbCircle
 10
26025.95966322068
 20
27134.56014849477
 30
0.0
 40
48.16248000000001
100
AcDbArc
 50
248.6538290000584
 51
313.089631000043
  0
ARC
  5
7662
330
17
100
AcDbEntity
  8
D-STR
 62
     6
100
AcDbCircle
 10
26094.01160322069
 20
27176.89559849478
 30
0.0
 40
50.0
100
AcDbArc
 50
288.3287470000102
 51
321.3873339999372
  0
ARC
  5
7663
330
17
100
AcDbEntity
  8
D-STR
  6
Continuous
 62
     6
100
AcDbCircle
 10
25596.87599322068
 20
27250.59945849477
 30
0.0
 40
39.3734
100
AcDbArc
 50
105.5883150000169
 51
162.7418319998839
  0
ARC
  5
7664
330
17
100
AcDbEntity
  8
D-STR
 62
     6
100
AcDbCircle
 10
25525.83509322069
 20
27068.97689849477
 30
0.0
 40
51.0
100
AcDbArc
 50
308.5711810001082
 51
358.7733570000971
  0
ARC
  5
7665
330
17
100
AcDbEntity
  8
D-STR
  6
Continuous
 62
     6
100
AcDbCircle
 10
25596.87599322068
 20
27250.59945849477
 30
0.0
 40
76.57339999999999
100
AcDbArc
 50
105.5883150000169
 51
164.0500420001194
  0
ARC
  5
7666
330
17
100
AcDbEntity
  8
D-STR
  6
Continuous
 62
     6
100
AcDbCircle
 10
25596.87599322068
 20
27250.59945849477
 30
0.0
 40
74.57339999999999
100
AcDbArc
 50
105.5883150000169
 51
164.0058830000187
  0
ARC
  5
7667
330
17
100
AcDbEntity
  8
D-STR
  6
Continuous
 62
     6
100
AcDbCircle
 10
25691.76876322068
 20
27057.05716849478
 30
0.0
 40
168.37981
100
AcDbArc
 50
128.0292419999907
 51
150.7331830000133
  0
ARC
  5
7668
330
17
100
AcDbEntity
  8
D-STR
  6
Continuous
 62
     6
100
AcDbCircle
 10
25525.83509322069
 20
27068.97689849477
 30
0.0
 40
50.0
100
AcDbArc
 50
280.2167319999602
 51
358.7733570000971
  0
ARC
  5
7669
330
17
100
AcDbEntity
  8
D-STR
  6
Continuous
 62
     6
100
AcDbCircle
 10
25525.83509322069
 20
27068.97689849477
 30
0.0
 40
48.0
100
AcDbArc
 50
280.2167319999602
 51
358.7733570000971
  0
LINE
  5
766A
330
17
100
AcDbEntity
  8
D-STR
  6
Continuous
 62
     6
100
AcDbLine
 10
25523.25050322069
 20
27271.64165849477
 30
0.0
 11
25521.23314322068
 21
27262.64300849477
 31
0.0
  0
LINE
  5
766B
330
17
100
AcDbEntity
  8
D-STR
  6
Continuous
 62
     6
100
AcDbLine
 10
25525.18932322069
 20
27271.14731849478
 30
0.0
 11
25523.18751322068
 21
27262.21800849477
 31
0.0
  0
ARC
  5
766C
330
17
100
AcDbEntity
  8
D-STR
 62
     6
100
AcDbCircle
 10
25668.15214322069
 20
26944.95297849477
 30
0.0
 40
138.90928
100
AcDbArc
 50
142.714017999886
 51
203.7107919999938
  0
ARC
  5
766D
330
17
100
AcDbEntity
  8
D-STR
  6
Continuous
 62
     6
100
AcDbCircle
 10
25471.95256322069
 20
25178.85580849478
 30
0.0
 40
1738.83898
100
AcDbArc
 50
89.36670600002522
 51
93.83054399995328
  0
ARC
  5
766E
330
17
100
AcDbEntity
  8
D-STR
  6
Continuous
 62
     6
100
AcDbCircle
 10
25471.95256322069
 20
25178.85580849478
 30
0.0
 40
1736.83898
100
AcDbArc
 50
89.36565800003753
 51
93.83054399995328
  0
ARC
  5
766F
330
17
100
AcDbEntity
  8
D-STR
  6
Continuous
 62
     6
100
AcDbCircle
 10
25471.95256322069
 20
25178.85580849478
 30
0.0
 40
1701.63898
100
AcDbArc
 50
89.34105800003404
 51
93.83054399995328
  0
ARC
  5
7670
330
17
100
AcDbEntity
  8
D-STR
  6
Continuous
 62
     6
100
AcDbCircle
 10
25358.59385322069
 20
26871.90404849477
 30
0.0
 40
42.0
100
AcDbArc
 50
93.83054399995328
 51
191.6224860000599
  0
ARC
  5
7671
330
17
100
AcDbEntity
  8
D-STR
  6
Continuous
 62
     6
100
AcDbCircle
 10
25358.59385322069
 20
26871.90404849477
 30
0.0
 40
40.0
100
AcDbArc
 50
93.83054399995328
 51
191.6224860000599
  0
ARC
  5
7672
330
17
100
AcDbEntity
  8
D-STR
  6
Continuous
 62
     6
100
AcDbCircle
 10
25358.59385322069
 20
26871.90404849477
 30
0.0
 40
4.8
100
AcDbArc
 50
93.83054399995328
 51
191.6224860000599
  0
ARC
  5
7673
330
17
100
AcDbEntity
  8
D-STR
  6
Continuous
 62
     6
100
AcDbCircle
 10
25492.22777322069
 20
26865.82452849478
 30
0.0
 40
14.57482
100
AcDbArc
 50
22.99456699988167
 51
92.7748539999729
  0
ARC
  5
7674
330
17
100
AcDbEntity
  8
D-STR
  6
Continuous
 62
     6
100
AcDbCircle
 10
25492.22777322069
 20
26865.82452849478
 30
0.0
 40
51.77482000000001
100
AcDbArc
 50
18.49240099992372
 51
91.16878399993217
  0
ARC
  5
7675
330
17
100
AcDbEntity
  8
D-STR
  6
Continuous
 62
     6
100
AcDbCircle
 10
25492.22777322069
 20
26865.82452849478
 30
0.0
 40
49.77482000000001
100
AcDbArc
 50
18.60226200002252
 51
91.20464500000871
  0
ARC
  5
7676
330
17
100
AcDbEntity
  8
D-STR
 62
     6
100
AcDbCircle
 10
25359.62360322068
 20
27096.04605849478
 30
0.0
 40
94.83096000000002
100
AcDbArc
 50
47.34754100000826
 51
79.90560200010358
  0
ARC
  5
7677
330
17
100
AcDbEntity
  8
D-STR
 62
     6
100
AcDbCircle
 10
25391.62122322069
 20
27068.76815849477
 30
0.0
 40
70.3562
100
AcDbArc
 50
241.3688980000155
 51
314.2858509999566
  0
ARC
  5
7678
330
17
100
AcDbEntity
  8
D-STR
 62
     6
100
AcDbCircle
 10
25671.44689322068
 20
27371.83598849477
 30
0.0
 40
481.04115
100
AcDbArc
 50
218.848655999933
 51
229.3232509999698
  0
ARC
  5
7679
330
17
100
AcDbEntity
  8
D-STR
  6
Continuous
 62
     6
100
AcDbCircle
 10
25492.68553322069
 20
27121.68541849477
 30
0.0
 40
20.30186
100
AcDbArc
 50
191.9663799999283
 51
238.6048889999386
  0
ARC
  5
767A
330
17
100
AcDbEntity
  8
D-STR
  6
Continuous
 62
     6
100
AcDbCircle
 10
25643.34628322068
 20
27104.92837849478
 30
0.0
 40
104.31535
100
AcDbArc
 50
160.7185390000607
 51
183.7970350000544
  0
ARC
  5
767B
330
17
100
AcDbEntity
  8
D-STR
  6
Continuous
 62
     6
100
AcDbCircle
 10
25492.68553322069
 20
27121.68541849477
 30
0.0
 40
57.50186
100
AcDbArc
 50
191.1929169999649
 51
214.7360500000706
  0
ARC
  5
767C
330
17
100
AcDbEntity
  8
D-STR
 62
     6
100
AcDbCircle
 10
25492.68553322069
 20
27121.68541849477
 30
0.0
 40
58.50186
100
AcDbArc
 50
191.1831970000125
 51
214.4474679999706
  0
ARC
  5
767D
330
17
100
AcDbEntity
  8
D-STR
  6
Continuous
 62
     6
100
AcDbCircle
 10
25492.68553322069
 20
27121.68541849477
 30
0.0
 40
55.50186
100
AcDbArc
 50
191.2131409998747
 51
215.3371259999892
  0
ARC
  5
767E
330
17
100
AcDbEntity
  8
D-STR
  6
Continuous
 62
     6
100
AcDbCircle
 10
25511.49301322069
 20
27148.55347849477
 30
0.0
 40
93.65869
100
AcDbArc
 50
252.7421100001247
 51
280.2167319999602
  0
ARC
  5
767F
330
17
100
AcDbEntity
  8
D-STR
  6
Continuous
 62
     6
100
AcDbCircle
 10
25511.49301322069
 20
27148.55347849477
 30
0.0
 40
130.85869
100
AcDbArc
 50
249.8121939999389
 51
280.2167319999602
  0
ARC
  5
7680
330
17
100
AcDbEntity
  8
D-STR
  6
Continuous
 62
     6
100
AcDbCircle
 10
25511.49301322069
 20
27148.55347849477
 30
0.0
 40
128.85869
100
AcDbArc
 50
249.8121939999389
 51
280.2167319999602
  0
LINE
  5
7681
330
17
100
AcDbEntity
  8
D-STR
  6
Continuous
 62
     6
100
AcDbLine
 10
25445.43133322068
 20
27088.92104849478
 30
0.0
 11
25446.70552322069
 21
27052.83233849477
 31
0.0
  0
LINE
  5
7682
330
17
100
AcDbEntity
  8
D-STR
 62
     6
100
AcDbLine
 10
25444.44226322068
 20
27088.59381849477
 30
0.0
 11
25445.70614322068
 21
27052.79704849478
 31
0.0
  0
LINE
  5
7683
330
17
100
AcDbEntity
  8
D-STR
  6
Continuous
 62
     6
100
AcDbLine
 10
25447.40917322068
 20
27089.58389849477
 30
0.0
 11
25448.70427322069
 21
27052.90290849477
 31
0.0
  0
ARC
  5
7684
330
17
100
AcDbEntity
  8
D-STR
 62
     6
100
AcDbCircle
 10
25408.07551322069
 20
27046.24161849478
 30
0.0
 40
42.92333
100
AcDbArc
 50
319.5657290000422
 51
348.7075299999813
  0
ARC
  5
7685
330
17
100
AcDbEntity
  8
D-STR
  6
Continuous
 62
     6
100
AcDbCircle
 10
25476.68684322068
 20
27053.89088849478
 30
0.0
 40
30.0
100
AcDbArc
 50
182.022114000141
 51
249.8121939999389
  0
ARC
  5
7686
330
17
100
AcDbEntity
  8
D-STR
 62
     6
100
AcDbCircle
 10
25476.68684322068
 20
27053.89088849478
 30
0.0
 40
31.0
100
AcDbArc
 50
182.022114000141
 51
211.1904220000193
  0
ARC
  5
7687
330
17
100
AcDbEntity
  8
D-STR
  6
Continuous
 62
     6
100
AcDbCircle
 10
25476.68684322068
 20
27053.89088849478
 30
0.0
 40
28.0
100
AcDbArc
 50
182.022114000141
 51
249.8121939999389
  0
LINE
  5
7688
330
17
100
AcDbEntity
  8
D-STR
  6
Continuous
 62
     6
100
AcDbLine
 10
25482.10955322068
 20
27104.35584849477
 30
0.0
 11
25483.70700322069
 21
27059.11138849477
 31
0.0
  0
ARC
  5
7689
330
17
100
AcDbEntity
  8
D-STR
  6
Continuous
 62
     6
100
AcDbCircle
 10
25525.83509322069
 20
27068.97689849477
 30
0.0
 40
12.8
100
AcDbArc
 50
280.2167319999602
 51
358.7733570000971
  0
LINE
  5
768A
330
17
100
AcDbEntity
  8
D-STR
  6
Continuous
 62
     6
100
AcDbLine
 10
25538.63216322069
 20
27068.70287849478
 30
0.0
 11
25539.25991322069
 21
27098.02037849477
 31
0.0
  0
ARC
  5
768B
330
17
100
AcDbEntity
  8
D-STR
  6
Continuous
 62
     6
100
AcDbCircle
 10
25523.97316322069
 20
27141.27950849478
 30
0.0
 40
55.98918
100
AcDbArc
 50
124.0908450000408
 51
155.2843430000483
  0
LINE
  5
768C
330
17
100
AcDbEntity
  8
D-STR
  6
Continuous
 62
     6
100
AcDbLine
 10
25505.22675322068
 20
27239.62169849478
 30
0.0
 11
25472.29272322069
 21
27218.82533849478
 31
0.0
  0
LINE
  5
768D
330
17
100
AcDbEntity
  8
D-STR
  6
Continuous
 62
     6
100
AcDbLine
 10
25506.29458322069
 20
27237.93062849477
 30
0.0
 11
25473.38150322069
 21
27217.14748849477
 31
0.0
  0
LINE
  5
768E
330
17
100
AcDbEntity
  8
D-STR
  6
Continuous
 62
     6
100
AcDbLine
 10
25431.67649322069
 20
27136.45651849478
 30
0.0
 11
25436.27741322068
 21
27110.52355849478
 31
0.0
  0
LINE
  5
768F
330
17
100
AcDbEntity
  8
D-STR
 62
     6
100
AcDbLine
 10
25430.68586322069
 20
27136.31571849478
 30
0.0
 11
25435.29450322069
 21
27110.33917849478
 31
0.0
  0
ARC
  5
7690
330
17
100
AcDbEntity
  8
D-STR
 62
     6
100
AcDbCircle
 10
25511.89715322069
 20
27145.03858849477
 30
0.0
 40
81.6784
100
AcDbArc
 50
172.0711959999063
 51
186.1306119999971
  0
LINE
  5
7691
330
17
100
AcDbEntity
  8
D-STR
  6
Continuous
 62
     6
100
AcDbLine
 10
25433.65788322068
 20
27136.73748849477
 30
0.0
 11
25438.24317322068
 21
27110.89256849477
 31
0.0
  0
ARC
  5
7692
330
17
100
AcDbEntity
  8
D-STR
 62
     6
100
AcDbCircle
 10
25402.12380322068
 20
27142.04084849477
 30
0.0
 40
32.20699
100
AcDbArc
 50
26.2894240000376
 51
47.51506400007938
  0
ARC
  5
7693
330
17
100
AcDbEntity
  8
D-STR
  6
Continuous
 62
     6
100
AcDbCircle
 10
25511.89715322069
 20
27145.03858849477
 30
0.0
 40
80.67839999999998
100
AcDbArc
 50
153.6401749999003
 51
186.1063220001147
  0
ARC
  5
7694
330
17
100
AcDbEntity
  8
D-STR
  6
Continuous
 62
     6
100
AcDbCircle
 10
25511.89715322069
 20
27145.03858849477
 30
0.0
 40
78.6784
100
AcDbArc
 50
153.6246080001024
 51
186.0563599999485
  0
ARC
  5
7695
330
17
100
AcDbEntity
  8
D-STR
  6
Continuous
 62
     6
100
AcDbCircle
 10
25523.97316322069
 20
27141.27950849478
 30
0.0
 40
93.18918
100
AcDbArc
 50
123.6814799999333
 51
154.8660069999524
  0
ARC
  5
7696
330
17
100
AcDbEntity
  8
D-STR
  6
Continuous
 62
     6
100
AcDbCircle
 10
25523.97316322069
 20
27141.27950849478
 30
0.0
 40
91.18918
100
AcDbArc
 50
123.6968689999839
 51
154.8794620000567
  0
LINE
  5
7697
330
17
100
AcDbEntity
  8
D-STR
  6
Continuous
 62
     6
100
AcDbLine
 10
25468.56328322069
 20
27141.49630849478
 30
0.0
 11
25472.82484322069
 21
27117.47607849477
 31
0.0
  0
ARC
  5
7698
330
17
100
AcDbEntity
  8
D-STR
  6
Continuous
 62
     6
100
AcDbCircle
 10
25511.89715322069
 20
27145.03858849477
 30
0.0
 40
43.47839999999999
100
AcDbArc
 50
153.1299709999064
 51
184.6731990000083
  0
LINE
  5
7699
330
17
100
AcDbEntity
  8
D-STR
  6
Continuous
 62
     6
100
AcDbLine
 10
25559.27527322069
 20
27262.28066849478
 30
0.0
 11
25557.57575322069
 21
27254.69978849477
 31
0.0
  0
LINE
  5
769A
330
17
100
AcDbEntity
  8
D-STR
  6
Continuous
 62
     6
100
AcDbLine
 10
25525.08850322069
 20
27208.16774849477
 30
0.0
 11
25492.59085322068
 21
27187.64693849477
 31
0.0
  0
ARC
  5
769B
330
17
100
AcDbEntity
  8
D-STR
  6
Continuous
 62
     6
100
AcDbCircle
 10
25486.00569322069
 20
27270.06099849477
 30
0.0
 40
36.0
100
AcDbArc
 50
302.2705739999308
 51
348.1087149999393
  0
ARC
  5
769C
330
17
100
AcDbEntity
  8
D-STR
  6
Continuous
 62
     6
100
AcDbCircle
 10
25486.00569322069
 20
27270.06099849477
 30
0.0
 40
38.0
100
AcDbArc
 50
302.2705739999308
 51
348.0888539999669
  0
ARC
  5
769D
330
17
100
AcDbEntity
  8
D-STR
  6
Continuous
 62
     6
100
AcDbCircle
 10
25486.00569322069
 20
27270.06099849477
 30
0.0
 40
73.2
100
AcDbArc
 50
302.2705739999308
 51
347.8862880000433
  0
ARC
  5
769E
330
17
100
AcDbEntity
  8
D-STR
  6
Continuous
 62
     6
100
AcDbCircle
 10
25136.47642322069
 20
27243.64707849477
 30
0.0
 40
495.8382
100
AcDbArc
 50
354.3523460000117
 51
7.026614000056515
  0
ARC
  5
769F
330
17
100
AcDbEntity
  8
D-STR
  6
Continuous
 62
     6
100
AcDbCircle
 10
25136.47642322069
 20
27243.64707849477
 30
0.0
 40
493.8382
100
AcDbArc
 50
354.3523460000117
 51
6.973724000088941
  0
ARC
  5
76A0
330
17
100
AcDbEntity
  8
D-STR
  6
Continuous
 62
     6
100
AcDbCircle
 10
25136.47642322069
 20
27243.64707849477
 30
0.0
 40
458.6382
100
AcDbArc
 50
354.3523460000117
 51
5.551517999867017
  0
ARC
  5
76A1
330
17
100
AcDbEntity
  8
D-STR
 62
     6
100
AcDbCircle
 10
25729.14085322068
 20
26935.36293849477
 30
0.0
 40
176.01311
100
AcDbArc
 50
343.9943840000377
 51
31.34834899994207
  0
ARC
  5
76A2
330
17
100
AcDbEntity
  8
D-STR
 62
     6
100
AcDbCircle
 10
25696.55810322068
 20
27080.92898849477
 30
0.0
 40
114.42699
100
AcDbArc
 50
59.332502000067
 51
132.8422500001863
  0
ARC
  5
76A3
330
17
100
AcDbEntity
  8
D-STR
  6
Continuous
 62
     6
100
AcDbCircle
 10
25643.34628322068
 20
27104.92837849478
 30
0.0
 40
67.11535
100
AcDbArc
 50
163.3650420000377
 51
185.0375080000314
  0
ARC
  5
76A4
330
17
100
AcDbEntity
  8
D-STR
 62
     6
100
AcDbCircle
 10
25643.34628322068
 20
27104.92837849478
 30
0.0
 40
66.11535
100
AcDbArc
 50
163.4721940000565
 51
185.0847510000875
  0
ARC
  5
76A5
330
17
100
AcDbEntity
  8
D-STR
  6
Continuous
 62
     6
100
AcDbCircle
 10
25643.34628322068
 20
27104.92837849478
 30
0.0
 40
69.11535
100
AcDbArc
 50
163.1589839998769
 51
184.9461199998955
  0
LINE
  5
76A6
330
17
100
AcDbEntity
  8
D-STR
  6
Continuous
 62
     6
100
AcDbLine
 10
25575.82364322068
 20
27067.90652849478
 30
0.0
 11
25576.49017322069
 21
27099.03511849478
 31
0.0
  0
LINE
  5
76A7
330
17
100
AcDbEntity
  8
D-STR
 62
     6
100
AcDbLine
 10
25576.82341322069
 20
27067.88511849477
 30
0.0
 11
25577.49111322069
 21
27099.06862849478
 31
0.0
  0
LINE
  5
76A8
330
17
100
AcDbEntity
  8
D-STR
  6
Continuous
 62
     6
100
AcDbLine
 10
25573.82409322069
 20
27067.94934849477
 30
0.0
 11
25574.48830322069
 21
27098.96932849478
 31
0.0
  0
ARC
  5
76A9
330
17
100
AcDbEntity
  8
D-STR
  6
Continuous
 62
     6
100
AcDbCircle
 10
25580.15048322069
 20
27199.77186849478
 30
0.0
 40
12.8
100
AcDbArc
 50
308.0292419999907
 51
354.3523460000117
  0
ARC
  5
76AA
330
17
100
AcDbEntity
  8
D-STR
  6
Continuous
 62
     6
100
AcDbCircle
 10
25691.76876322068
 20
27057.05716849478
 30
0.0
 40
131.17981
100
AcDbArc
 50
128.0292419999907
 51
149.2432990000014
  0
ARC
  5
76AB
330
17
100
AcDbEntity
  8
D-STR
  6
Continuous
 62
     6
100
AcDbCircle
 10
25691.76876322068
 20
27057.05716849478
 30
0.0
 40
133.17981
100
AcDbArc
 50
128.0292419999907
 51
149.3494770000131
  0
ARC
  5
76AC
330
17
100
AcDbEntity
  8
D-STR
 62
     6
100
AcDbCircle
 10
25691.76876322068
 20
27057.05716849478
 30
0.0
 40
130.17981
100
AcDbArc
 50
124.1186579999944
 51
149.1886779999036
  0
ARC
  5
76AD
330
17
100
AcDbEntity
  8
D-STR
  6
Continuous
 62
     6
100
AcDbCircle
 10
25580.15048322069
 20
27199.77186849478
 30
0.0
 40
50.0
100
AcDbArc
 50
308.0292419999907
 51
354.3523460000117
  0
ARC
  5
76AE
330
17
100
AcDbEntity
  8
D-STR
  6
Continuous
 62
     6
100
AcDbCircle
 10
25580.15048322069
 20
27199.77186849478
 30
0.0
 40
48.0
100
AcDbArc
 50
308.0292419999907
 51
354.3523460000117
  0
ARC
  5
76AF
330
17
100
AcDbEntity
  8
D-STR
  6
Continuous
 62
     6
100
AcDbCircle
 10
25948.45245322069
 20
26857.09341849478
 30
0.0
 40
57.29130000000001
100
AcDbArc
 50
98.14837099997749
 51
149.1581790000745
  0
ARC
  5
76B0
330
17
100
AcDbEntity
  8
D-STR
  6
Continuous
 62
     6
100
AcDbCircle
 10
25948.45245322069
 20
26857.09341849478
 30
0.0
 40
55.29130000000001
100
AcDbArc
 50
98.07821499995099
 51
149.0420169999823
  0
ARC
  5
76B1
330
17
100
AcDbEntity
  8
D-STR
  6
Continuous
 62
     6
100
AcDbCircle
 10
25948.45245322069
 20
26857.09341849478
 30
0.0
 40
20.0913
100
AcDbArc
 50
95.25551699991783
 51
144.7795909999992
  0
ARC
  5
76B2
330
17
100
AcDbEntity
  8
D-STR
  6
Continuous
 62
     6
100
AcDbCircle
 10
25588.92892322069
 20
27279.08507849478
 30
0.0
 40
9.8
100
AcDbArc
 50
65.689253999851
 51
105.5883150000169
  0
ARC
  5
76B3
330
17
100
AcDbEntity
  8
D-STR
  6
Continuous
 62
     6
100
AcDbCircle
 10
25588.92892322069
 20
27279.08507849478
 30
0.0
 40
47.0
100
AcDbArc
 50
32.44940799995626
 51
105.5883150000169
  0
ARC
  5
76B4
330
17
100
AcDbEntity
  8
D-STR
  6
Continuous
 62
     6
100
AcDbCircle
 10
25588.92892322069
 20
27279.08507849478
 30
0.0
 40
45.0
100
AcDbArc
 50
33.0185019999263
 51
105.5883150000169
  0
ARC
  5
76B5
330
17
100
AcDbEntity
  8
D-STR
 62
     6
100
AcDbCircle
 10
25257.69649322069
 20
27171.58226849477
 30
0.0
 40
42.21241
100
AcDbArc
 50
83.64495200000607
 51
220.7068559999323
  0
ARC
  5
76B6
330
17
100
AcDbEntity
  8
D-STR
 62
     6
100
AcDbCircle
 10
25249.45301322069
 20
26871.76223849478
 30
0.0
 40
342.01701
100
AcDbArc
 50
68.2401309999442
 51
87.83576600008813
  0
ARC
  5
76B7
330
17
100
AcDbEntity
  8
D-STR
 62
     6
100
AcDbCircle
 10
25423.78182322068
 20
27269.05395849478
 30
0.0
 40
234.22873
100
AcDbArc
 50
212.2541400001058
 51
234.7871180000034
  0
ARC
  5
76B8
330
17
100
AcDbEntity
  8
D-STR
  6
Continuous
 62
     6
100
AcDbCircle
 10
25659.31785322068
 20
26919.29006849477
 30
0.0
 40
127.50724
100
AcDbArc
 50
219.765061999996
 51
245.5942639998536
  0
ARC
  5
76B9
330
17
100
AcDbEntity
  8
D-STR
 62
     6
100
AcDbCircle
 10
25659.31785322068
 20
26919.29006849477
 30
0.0
 40
126.50724
100
AcDbArc
 50
219.7823769999767
 51
242.4408230000686
  0
ARC
  5
76BA
330
17
100
AcDbEntity
  8
D-STR
  6
Continuous
 62
     6
100
AcDbCircle
 10
25659.31785322068
 20
26919.29006849477
 30
0.0
 40
129.50724
100
AcDbArc
 50
219.7312379999533
 51
245.5547000000685
  0
ARC
  5
76BB
330
17
100
AcDbEntity
  8
D-STR
  6
Continuous
 62
     6
100
AcDbCircle
 10
25573.10770322069
 20
26663.34754849477
 30
0.0
 40
9.64043
100
AcDbArc
 50
204.560272999954
 51
271.0839949999676
  0
ARC
  5
76BC
330
17
100
AcDbEntity
  8
D-STR
  6
Continuous
 62
     6
100
AcDbCircle
 10
25573.10770322069
 20
26663.34754849477
 30
0.0
 40
46.84043
100
AcDbArc
 50
197.5271970000536
 51
268.5360220000147
  0
ARC
  5
76BD
330
17
100
AcDbEntity
  8
D-STR
  6
Continuous
 62
     6
100
AcDbCircle
 10
25573.10770322069
 20
26663.34754849477
 30
0.0
 40
44.84043
100
AcDbArc
 50
197.6645670000894
 51
268.5826790000258
  0
ARC
  5
76BE
330
17
100
AcDbEntity
  8
D-STR
  6
Continuous
 62
     6
100
AcDbCircle
 10
25659.31785322068
 20
26919.29006849477
 30
0.0
 40
164.70724
100
AcDbArc
 50
219.2708930000976
 51
244.8029609999197
  0
ARC
  5
76BF
330
17
100
AcDbEntity
  8
D-STR
  6
Continuous
 62
     6
100
AcDbCircle
 10
25361.65540322069
 20
26615.95204849477
 30
0.0
 40
207.27614
100
AcDbArc
 50
12.08290599992177
 51
36.87170800007366
  0
ARC
  5
76C0
330
17
100
AcDbEntity
  8
D-STR
 62
     6
100
AcDbCircle
 10
25573.10770322069
 20
26663.34754849477
 30
0.0
 40
47.84043
100
AcDbArc
 50
197.4614769999193
 51
216.4884550000175
  0
ARC
  5
76C1
330
17
100
AcDbEntity
  8
D-STR
  6
Continuous
 62
     6
100
AcDbCircle
 10
25253.07899322069
 20
26455.91585849478
 30
0.0
 40
357.99506
100
AcDbArc
 50
46.51534999996947
 51
73.71220899997455
  0
ARC
  5
76C2
330
17
100
AcDbEntity
  8
D-STR
 62
     6
100
AcDbCircle
 10
25253.07899322069
 20
26455.91585849478
 30
0.0
 40
356.99506
100
AcDbArc
 50
46.53028200000963
 51
73.72109599993628
  0
ARC
  5
76C3
330
17
100
AcDbEntity
  8
D-STR
  6
Continuous
 62
     6
100
AcDbCircle
 10
25253.07899322069
 20
26455.91585849478
 30
0.0
 40
359.99506
100
AcDbArc
 50
46.48580300020135
 51
73.69428599993223
  0
ARC
  5
76C4
330
17
100
AcDbEntity
  8
D-STR
  6
Continuous
 62
     6
100
AcDbCircle
 10
25253.07899322069
 20
26455.91585849478
 30
0.0
 40
395.19506
100
AcDbArc
 50
46.02663200012887
 51
73.31120199989796
  0
ARC
  5
76C5
330
17
100
AcDbEntity
  8
D-STR
 62
     6
100
AcDbCircle
 10
25373.26010322068
 20
26846.91138849477
 30
0.0
 40
52.33141000000001
100
AcDbArc
 50
233.2412280001712
 51
247.4000799999887
  0
ARC
  5
76C6
330
17
100
AcDbEntity
  8
D-STR
  6
Continuous
 62
     6
100
AcDbCircle
 10
25373.26010322068
 20
26846.91138849477
 30
0.0
 40
51.33141000000001
100
AcDbArc
 50
191.2742160000528
 51
247.338785999906
  0
ARC
  5
76C7
330
17
100
AcDbEntity
  8
D-STR
  6
Continuous
 62
     6
100
AcDbCircle
 10
25373.26010322068
 20
26846.91138849477
 30
0.0
 40
49.33141
100
AcDbArc
 50
191.2672270001094
 51
247.2109179999836
  0
LINE
  5
76C8
330
17
100
AcDbEntity
  8
D-STR
  6
Continuous
 62
     6
100
AcDbLine
 10
25322.91925322069
 20
26836.87584849477
 30
0.0
 11
25317.45501322069
 21
26863.44262849478
 31
0.0
  0
LINE
  5
76C9
330
17
100
AcDbEntity
  8
D-STR
  6
Continuous
 62
     6
100
AcDbLine
 10
25319.41400322069
 20
26863.84554849477
 30
0.0
 11
25324.87948322069
 21
26837.27275849477
 31
0.0
  0
ARC
  5
76CA
330
17
100
AcDbEntity
  8
D-STR
  6
Continuous
 62
     6
100
AcDbCircle
 10
25373.26010322068
 20
26846.91138849477
 30
0.0
 40
14.13141
100
AcDbArc
 50
190.9587179999953
 51
241.7362480000368
  0
LINE
  5
76CB
330
17
100
AcDbEntity
  8
D-STR
  6
Continuous
 62
     6
100
AcDbLine
 10
25359.38639322068
 20
26844.22498849478
 30
0.0
 11
25353.89227322068
 21
26870.93702849478
 31
0.0
  0
ARC
  5
76CC
330
17
100
AcDbEntity
  8
D-STR
  6
Continuous
 62
     6
100
AcDbCircle
 10
25361.65540322069
 20
26615.95204849477
 30
0.0
 40
170.07614
100
AcDbArc
 50
11.2874090000601
 51
35.89264600014417
  0
ARC
  5
76CD
330
17
100
AcDbEntity
  8
D-STR
 62
     6
100
AcDbCircle
 10
25361.65540322069
 20
26615.95204849477
 30
0.0
 40
169.07614
100
AcDbArc
 50
11.26906300005842
 51
35.86116599988854
  0
ARC
  5
76CE
330
17
100
AcDbEntity
  8
D-STR
  6
Continuous
 62
     6
100
AcDbCircle
 10
25361.65540322069
 20
26615.95204849477
 30
0.0
 40
172.07614
100
AcDbArc
 50
11.3242100000009
 51
35.95464900009339
  0
ARC
  5
76CF
330
17
100
AcDbEntity
  8
D-STR
  6
Continuous
 62
     6
100
AcDbCircle
 10
25663.54975322069
 20
26910.35529849477
 30
0.0
 40
162.61119
100
AcDbArc
 50
193.8177800001188
 51
215.8879009999705
  0
ARC
  5
76D0
330
17
100
AcDbEntity
  8
D-STR
  6
Continuous
 62
     6
100
AcDbCircle
 10
25663.54975322069
 20
26910.35529849477
 30
0.0
 40
125.41119
100
AcDbArc
 50
192.9519529999279
 51
215.3864189998683
  0
ARC
  5
76D1
330
17
100
AcDbEntity
  8
D-STR
 62
     6
100
AcDbCircle
 10
25663.54975322069
 20
26910.35529849477
 30
0.0
 40
124.41119
100
AcDbArc
 50
189.8395390001019
 51
215.3688130000921
  0
ARC
  5
76D2
330
17
100
AcDbEntity
  8
D-STR
  6
Continuous
 62
     6
100
AcDbCircle
 10
25663.54975322069
 20
26910.35529849477
 30
0.0
 40
127.41119
100
AcDbArc
 50
192.9960730000282
 51
215.4208040000819
  0
ARC
  5
76D3
330
17
100
AcDbEntity
  8
D-STR
  6
Continuous
 62
     6
100
AcDbCircle
 10
25792.91168322069
 20
26668.50920849477
 30
0.0
 40
19.70778
100
AcDbArc
 50
191.115389999978
 51
272.2104169999974
  0
ARC
  5
76D4
330
17
100
AcDbEntity
  8
D-STR
  6
Continuous
 62
     6
100
AcDbCircle
 10
25792.91168322069
 20
26668.50920849477
 30
0.0
 40
56.90778
100
AcDbArc
 50
190.9583670001217
 51
281.2353900000306
  0
ARC
  5
76D5
330
17
100
AcDbEntity
  8
D-STR
  6
Continuous
 62
     6
100
AcDbCircle
 10
25792.91168322069
 20
26668.50920849477
 30
0.0
 40
54.90778
100
AcDbArc
 50
190.9622339999594
 51
281.0036859999706
  0
ARC
  5
76D6
330
17
100
AcDbEntity
  8
D-STR
  6
Continuous
 62
     6
100
AcDbCircle
 10
25588.62046322069
 20
26657.55937849478
 30
0.0
 40
42.0
100
AcDbArc
 50
266.4210660000739
 51
2.592852999991309
  0
ARC
  5
76D7
330
17
100
AcDbEntity
  8
D-STR
  6
Continuous
 62
     6
100
AcDbCircle
 10
25588.62046322069
 20
26657.55937849478
 30
0.0
 40
40.0
100
AcDbArc
 50
266.4210660000739
 51
2.592852999991309
  0
ARC
  5
76D8
330
17
100
AcDbEntity
  8
D-STR
  6
Continuous
 62
     6
100
AcDbCircle
 10
25726.65521322068
 20
26798.35817849477
 30
0.0
 40
201.68224
100
AcDbArc
 50
298.4771139999058
 51
313.2687519999977
  0
ARC
  5
76D9
330
17
100
AcDbEntity
  8
D-STR
 62
     6
100
AcDbCircle
 10
25726.65521322068
 20
26798.35817849477
 30
0.0
 40
202.68224
100
AcDbArc
 50
298.4660940000514
 51
313.2687519999977
  0
ARC
  5
76DA
330
17
100
AcDbEntity
  8
D-STR
  6
Continuous
 62
     6
100
AcDbCircle
 10
25726.65521322068
 20
26798.35817849477
 30
0.0
 40
199.68224
100
AcDbArc
 50
298.4994019999499
 51
313.2687519999977
  0
LINE
  5
76DB
330
17
100
AcDbEntity
  8
D-STR
  6
Continuous
 62
     6
100
AcDbLine
 10
25571.99860322068
 20
26618.52083849478
 30
0.0
 11
25586.12352322069
 21
26617.63738849478
 31
0.0
  0
LINE
  5
76DC
330
17
100
AcDbEntity
  8
D-STR
  6
Continuous
 62
     6
100
AcDbLine
 10
25585.99867322069
 20
26615.64128849478
 30
0.0
 11
25571.91100322069
 21
26616.52240849477
 31
0.0
  0
LINE
  5
76DD
330
17
100
AcDbEntity
  8
D-STR
  6
Continuous
 62
     6
100
AcDbLine
 10
25803.39204322069
 20
26614.61091849477
 30
0.0
 11
25821.93351322069
 21
26622.87301849478
 31
0.0
  0
ARC
  5
76DE
330
17
100
AcDbEntity
  8
D-STR
 62
     6
100
AcDbCircle
 10
25820.66009322069
 20
26575.22970849478
 30
0.0
 40
40.0
100
AcDbArc
 50
113.974914000001
 51
145.536366999999
  0
LINE
  5
76DF
330
17
100
AcDbEntity
  8
D-STR
 62
     6
100
AcDbLine
 10
25804.40662322068
 20
26611.77864849477
 30
0.0
 11
25823.26139322068
 21
26620.18035849477
 31
0.0
  0
LINE
  5
76E0
330
17
100
AcDbEntity
  8
D-STR
  6
Continuous
 62
     6
100
AcDbLine
 10
25803.99960322068
 20
26612.69206849477
 30
0.0
 11
25822.81885322068
 21
26621.07795849478
 31
0.0
  0
ARC
  5
76E1
330
17
100
AcDbEntity
  8
D-STR
  6
Continuous
 62
     6
100
AcDbCircle
 10
25409.84698322068
 20
27108.08757849477
 30
0.0
 40
537.25653
100
AcDbArc
 50
329.7579900000689
 51
335.6375160000009
  0
ARC
  5
76E2
330
17
100
AcDbEntity
  8
D-STR
 62
     6
100
AcDbCircle
 10
25409.84698322068
 20
27108.08757849477
 30
0.0
 40
536.25653
100
AcDbArc
 50
329.7579900000689
 51
335.632017000043
  0
ARC
  5
76E3
330
17
100
AcDbEntity
  8
D-STR
  6
Continuous
 62
     6
100
AcDbCircle
 10
25409.84698322068
 20
27108.08757849477
 30
0.0
 40
539.25653
100
AcDbArc
 50
329.7674230001217
 51
335.625369000085
  0
ARC
  5
76E4
330
17
100
AcDbEntity
  8
D-STR
  6
Continuous
 62
     6
100
AcDbCircle
 10
24881.10538322069
 20
30481.04096849477
 30
0.0
 40
3951.04173
100
AcDbArc
 50
284.5677049999445
 51
285.1393359998906
  0
ARC
  5
76E5
330
17
100
AcDbEntity
  8
D-STR
 62
     6
100
AcDbCircle
 10
24881.10538322069
 20
30481.04096849477
 30
0.0
 40
3952.04173
100
AcDbArc
 50
284.5677049999445
 51
285.1399970000761
  0
ARC
  5
76E6
330
17
100
AcDbEntity
  8
D-STR
  6
Continuous
 62
     6
100
AcDbCircle
 10
24881.10538322069
 20
30481.04096849477
 30
0.0
 40
3949.04173
100
AcDbArc
 50
284.5677149999702
 51
285.1380059999788
  0
ARC
  5
76E7
330
17
100
AcDbEntity
  8
D-STR
  6
Continuous
 62
     6
100
AcDbCircle
 10
25805.25270322069
 20
26883.52860849477
 30
0.0
 40
119.91465
100
AcDbArc
 50
288.729354000107
 51
326.8730110000856
  0
ARC
  5
76E8
330
17
100
AcDbEntity
  8
D-STR
  6
Continuous
 62
     6
100
AcDbCircle
 10
24881.10538322069
 20
30481.04096849477
 30
0.0
 40
3913.84173
100
AcDbArc
 50
284.5678410001221
 51
285.112824000125
  0
ARC
  5
76E9
330
17
100
AcDbEntity
  8
D-STR
 62
     6
100
AcDbCircle
 10
25716.02777322069
 20
27068.99152849478
 30
0.0
 40
286.09096
100
AcDbArc
 50
246.2135159998973
 51
282.2214159999158
  0
ARC
  5
76EA
330
17
100
AcDbEntity
  8
D-STR
  6
Continuous
 62
     6
100
AcDbCircle
 10
25582.13079322068
 20
26759.79031849477
 30
0.0
 40
49.82668
100
AcDbArc
 50
355.8523810001083
 51
60.54516600013819
  0
ARC
  5
76EB
330
17
100
AcDbEntity
  8
D-STR
  6
Continuous
 62
     6
100
AcDbCircle
 10
25582.13079322068
 20
26759.79031849477
 30
0.0
 40
47.82668
100
AcDbArc
 50
355.8508390000986
 51
60.44101799994353
  0
ARC
  5
76EC
330
17
100
AcDbEntity
  8
D-STR
  6
Continuous
 62
     6
100
AcDbCircle
 10
25588.62046322069
 20
26657.55937849478
 30
0.0
 40
4.8
100
AcDbArc
 50
266.4210660000739
 51
2.592852999991309
  0
LINE
  5
76ED
330
17
100
AcDbEntity
  8
D-STR
  6
Continuous
 62
     6
100
AcDbLine
 10
25588.32083322069
 20
26652.76873849478
 30
0.0
 11
25573.29008322068
 21
26653.70884849478
 31
0.0
  0
ARC
  5
76EE
330
17
100
AcDbEntity
  8
D-STR
  6
Continuous
 62
     6
100
AcDbCircle
 10
25582.13079322068
 20
26759.79031849477
 30
0.0
 40
12.62668
100
AcDbArc
 50
355.779881999907
 51
55.97214700011262
  0
ARC
  5
76EF
330
17
100
AcDbEntity
  8
D-STR
  6
Continuous
 62
     6
100
AcDbCircle
 10
26461.66850322069
 20
26697.09513849478
 30
0.0
 40
869.14276
100
AcDbArc
 50
175.9248160000885
 51
182.5928529999913
  0
ARC
  5
76F0
330
17
100
AcDbEntity
  8
D-STR
  6
Continuous
 62
     6
100
AcDbCircle
 10
26461.66850322069
 20
26697.09513849478
 30
0.0
 40
831.94276
100
AcDbArc
 50
175.9269539999825
 51
182.5928529999913
  0
ARC
  5
76F1
330
17
100
AcDbEntity
  8
D-STR
  6
Continuous
 62
     6
100
AcDbCircle
 10
26461.66850322069
 20
26697.09513849478
 30
0.0
 40
833.94276
100
AcDbArc
 50
175.9268640001123
 51
182.5928529999913
  0
ARC
  5
76F2
330
17
100
AcDbEntity
  8
D-STR
 62
     6
100
AcDbCircle
 10
25764.38134322069
 20
26923.22339849477
 30
0.0
 40
134.39482
100
AcDbArc
 50
275.2122039999943
 51
298.6548110000415
  0
ARC
  5
76F3
330
17
100
AcDbEntity
  8
D-STR
  6
Continuous
 62
     6
100
AcDbCircle
 10
25764.38134322069
 20
26923.22339849477
 30
0.0
 40
135.39482
100
AcDbArc
 50
276.5428620000451
 51
298.6108120000024
  0
ARC
  5
76F4
330
17
100
AcDbEntity
  8
D-STR
  6
Continuous
 62
     6
100
AcDbCircle
 10
25764.38134322069
 20
26923.22339849477
 30
0.0
 40
137.39482
100
AcDbArc
 50
276.5800829999395
 51
298.5250510000296
  0
ARC
  5
76F5
330
17
100
AcDbEntity
  8
D-STR
  6
Continuous
 62
     6
100
AcDbCircle
 10
25805.25270322069
 20
26883.52860849477
 30
0.0
 40
84.71465
100
AcDbArc
 50
286.9804840000669
 51
326.3330660000007
  0
LINE
  5
76F6
330
17
100
AcDbEntity
  8
D-STR
  6
Continuous
 62
     6
100
AcDbLine
 10
25806.28724322069
 20
26654.43754849478
 30
0.0
 11
25793.67180322068
 21
26648.81609849478
 31
0.0
  0
ARC
  5
76F7
330
17
100
AcDbEntity
  8
D-STR
  6
Continuous
 62
     6
100
AcDbCircle
 10
25764.38134322069
 20
26923.22339849477
 30
0.0
 40
172.59482
100
AcDbArc
 50
277.2593050000579
 51
297.3804229999736
  0
ARC
  5
76F8
330
17
100
AcDbEntity
  8
D-STR
  6
Continuous
 62
     6
100
AcDbCircle
 10
25988.54470322069
 20
26705.41560849478
 30
0.0
 40
255.99108
100
AcDbArc
 50
172.4887019999057
 51
190.7444940000377
  0
ARC
  5
76F9
330
17
100
AcDbEntity
  8
D-STR
  6
Continuous
 62
     6
100
AcDbCircle
 10
25988.54470322069
 20
26705.41560849478
 30
0.0
 40
253.99108
100
AcDbArc
 50
172.4820409999489
 51
190.7436459998526
  0
ARC
  5
76FA
330
17
100
AcDbEntity
  8
D-STR
  6
Continuous
 62
     6
100
AcDbCircle
 10
25988.54470322069
 20
26705.41560849478
 30
0.0
 40
218.79108
100
AcDbArc
 50
172.3139599999118
 51
190.7222740000218
  0
ARC
  5
76FB
330
17
100
AcDbEntity
  8
D-STR
  6
Continuous
 62
     6
100
AcDbCircle
 10
25791.21120322069
 20
26733.11293849477
 30
0.0
 40
19.55463
100
AcDbArc
 50
104.8776590001486
 51
175.4100899999279
  0
ARC
  5
76FC
330
17
100
AcDbEntity
  8
D-STR
  6
Continuous
 62
     6
100
AcDbCircle
 10
25791.21120322069
 20
26733.11293849477
 30
0.0
 40
56.75463
100
AcDbArc
 50
101.5896909999239
 51
174.1686990000469
  0
ARC
  5
76FD
330
17
100
AcDbEntity
  8
D-STR
  6
Continuous
 62
     6
100
AcDbCircle
 10
25791.21120322069
 20
26733.11293849477
 30
0.0
 40
54.75462999999999
100
AcDbArc
 50
101.6807590000436
 51
174.1991689999701
  0
ARC
  5
76FE
330
17
100
AcDbEntity
  8
D-STR
  6
Continuous
 62
     6
100
AcDbCircle
 10
25726.65521322068
 20
26798.35817849477
 30
0.0
 40
164.48224
100
AcDbArc
 50
298.9559810000303
 51
313.2687519999977
  0
ARC
  5
76FF
330
17
100
AcDbEntity
  8
D-STR
  6
Continuous
 62
     6
100
AcDbCircle
 10
25880.65721322068
 20
26634.75655849478
 30
0.0
 40
60.2
100
AcDbArc
 50
104.5446239998908
 51
133.2687519999978
  0
ARC
  5
7700
330
17
100
AcDbEntity
  8
D-STR
  6
Continuous
 62
     6
100
AcDbCircle
 10
25880.65721322068
 20
26634.75655849478
 30
0.0
 40
23.0
100
AcDbArc
 50
104.5303219999503
 51
133.2687519999978
  0
ARC
  5
7701
330
17
100
AcDbEntity
  8
D-STR
 62
     6
100
AcDbCircle
 10
25880.65721322068
 20
26634.75655849478
 30
0.0
 40
22.0
100
AcDbArc
 50
104.5303219999503
 51
133.2687519999978
  0
ARC
  5
7702
330
17
100
AcDbEntity
  8
D-STR
  6
Continuous
 62
     6
100
AcDbCircle
 10
25880.65721322068
 20
26634.75655849478
 30
0.0
 40
25.0
100
AcDbArc
 50
104.5318479999546
 51
133.2687519999978
  0
ARC
  5
7703
330
17
100
AcDbEntity
  8
D-STR
  6
Continuous
 62
     6
100
AcDbCircle
 10
25805.25270322069
 20
26883.52860849477
 30
0.0
 40
82.71464999999999
100
AcDbArc
 50
286.8407479999609
 51
326.39224299991
  0
ARC
  5
7704
330
17
100
AcDbEntity
  8
D-STR
 62
     6
100
AcDbCircle
 10
25805.25270322069
 20
26883.52860849477
 30
0.0
 40
81.71464999999999
100
AcDbArc
 50
286.7685569999864
 51
326.39224299991
  0
ARC
  5
7705
330
17
100
AcDbEntity
  8
D-STR
  6
Continuous
 62
     6
100
AcDbCircle
 10
26005.65021322068
 20
26878.51657849477
 30
0.0
 40
36.2056
100
AcDbArc
 50
336.5106099999869
 51
77.60429800002827
  0
ARC
  5
7706
330
17
100
AcDbEntity
  8
D-STR
  6
Continuous
 62
     6
100
AcDbCircle
 10
26005.65021322068
 20
26878.51657849477
 30
0.0
 40
34.2056
100
AcDbArc
 50
336.6971770000353
 51
77.59102900002306
  0
ARC
  5
7707
330
17
100
AcDbEntity
  8
D-STR
 62
     6
100
AcDbCircle
 10
26214.45368322068
 20
26762.81860849477
 30
0.0
 40
201.70601
100
AcDbArc
 50
159.7232189999468
 51
171.3707139999256
  0
ARC
  5
7708
330
17
100
AcDbEntity
  8
D-STR
  6
Continuous
 62
     6
100
AcDbCircle
 10
26214.45368322068
 20
26762.81860849477
 30
0.0
 40
239.90601
100
AcDbArc
 50
151.3478649999093
 51
171.4347070000743
  0
ARC
  5
7709
330
17
100
AcDbEntity
  8
D-STR
  6
Continuous
 62
     6
100
AcDbCircle
 10
26214.45368322068
 20
26762.81860849477
 30
0.0
 40
202.70601
100
AcDbArc
 50
150.0280100001214
 51
171.3707139999256
  0
ARC
  5
770A
330
17
100
AcDbEntity
  8
D-STR
  6
Continuous
 62
     6
100
AcDbCircle
 10
26214.45368322068
 20
26762.81860849477
 30
0.0
 40
204.70601
100
AcDbArc
 50
150.060241000006
 51
171.3643879999056
  0
ARC
  5
770B
330
17
100
AcDbEntity
  8
D-STR
  6
Continuous
 62
     6
100
AcDbCircle
 10
25858.24596322068
 20
26814.53617849477
 30
0.0
 40
120.04669
100
AcDbArc
 50
291.1317850000951
 51
352.3470790000144
  0
ARC
  5
770C
330
17
100
AcDbEntity
  8
D-STR
  6
Continuous
 62
     6
100
AcDbCircle
 10
25858.24596322068
 20
26814.53617849477
 30
0.0
 40
157.24669
100
AcDbArc
 50
290.3729649999203
 51
352.2414140001049
  0
ARC
  5
770D
330
17
100
AcDbEntity
  8
D-STR
 62
     6
100
AcDbCircle
 10
25858.24596322068
 20
26814.53617849477
 30
0.0
 40
158.24669
100
AcDbArc
 50
290.3563919999751
 51
352.2414140001049
  0
ARC
  5
770E
330
17
100
AcDbEntity
  8
D-STR
  6
Continuous
 62
     6
100
AcDbCircle
 10
25858.24596322068
 20
26814.53617849477
 30
0.0
 40
155.24669
100
AcDbArc
 50
290.4065969999914
 51
352.232928999984
  0
ARC
  5
770F
330
17
100
AcDbEntity
  8
D-STR
  6
Continuous
 62
     6
100
AcDbCircle
 10
25977.04628322068
 20
26741.80776849477
 30
0.0
 40
138.67334
100
AcDbArc
 50
78.82380899990312
 51
102.6776940001501
  0
ARC
  5
7710
330
17
100
AcDbEntity
  8
D-STR
  6
Continuous
 62
     6
100
AcDbCircle
 10
25977.04628322068
 20
26741.80776849477
 30
0.0
 40
175.87334
100
AcDbArc
 50
78.06334499999781
 51
102.0492960000226
  0
ARC
  5
7711
330
17
100
AcDbEntity
  8
D-STR
  6
Continuous
 62
     6
100
AcDbCircle
 10
25977.04628322068
 20
26741.80776849477
 30
0.0
 40
173.87334
100
AcDbArc
 50
78.06601500003443
 51
102.0718760000873
  0
ARC
  5
7712
330
17
100
AcDbEntity
  8
D-STR
  6
Continuous
 62
     6
100
AcDbCircle
 10
25409.84698322068
 20
27108.08757849477
 30
0.0
 40
574.45653
100
AcDbArc
 50
329.6696460000092
 51
335.3701789999749
  0
ARC
  5
7713
330
17
100
AcDbEntity
  8
D-STR
 62
     6
100
AcDbCircle
 10
26102.07597322068
 20
26780.37745849478
 30
0.0
 40
92.96480000000001
100
AcDbArc
 50
118.5899809999503
 51
145.733268999886
  0
ARC
  5
7714
330
17
100
AcDbEntity
  8
D-STR
 62
     6
100
AcDbCircle
 10
26097.04054322069
 20
26820.66861849477
 30
0.0
 40
40.0
100
AcDbArc
 50
17.04205899999955
 51
61.72362499994595
  0
ARC
  5
7715
330
17
100
AcDbEntity
  8
D-STR
 62
     6
100
AcDbCircle
 10
26076.73028322068
 20
26826.88408849478
 30
0.0
 40
40.0
100
AcDbArc
 50
84.24543600007088
 51
118.5899809999503
  0
ARC
  5
7716
330
17
100
AcDbEntity
  8
D-STR
 62
     6
100
AcDbCircle
 10
26071.27731322068
 20
26772.77381849478
 30
0.0
 40
94.38434
100
AcDbArc
 50
61.72362499994595
 51
84.24543600007088
  0
ARC
  5
7717
330
17
100
AcDbEntity
  8
D-STR
 62
     6
100
AcDbCircle
 10
25657.04702322069
 20
26685.79584849477
 30
0.0
 40
500.201
100
AcDbArc
 50
349.3004589999665
 51
17.04205899999955
  0
ARC
  5
7718
330
17
100
AcDbEntity
  8
D-STR
 62
     6
100
AcDbCircle
 10
26109.24710322068
 20
26600.35550849478
 30
0.0
 40
40.0
100
AcDbArc
 50
318.2090230000409
 51
349.3004589999665
  0
ARC
  5
7719
330
17
100
AcDbEntity
  8
D-STR
 62
     6
100
AcDbCircle
 10
25894.72036322068
 20
26792.10375849478
 30
0.0
 40
327.73097
100
AcDbArc
 50
291.5698790000615
 51
318.2090230000409
  0
ARC
  5
771A
330
17
100
AcDbEntity
  8
D-STR
 62
     6
100
AcDbCircle
 10
25970.61732322069
 20
26728.39794849477
 30
0.0
 40
245.16297
100
AcDbArc
 50
241.5268059999658
 51
280.4789069999396
  0
ARC
  5
771B
330
17
100
AcDbEntity
  8
D-STR
 62
     6
100
AcDbCircle
 10
26511.05264322069
 20
27984.24856849478
 30
0.0
 40
1611.50894
100
AcDbArc
 50
243.7270599998523
 51
245.9277299999171
  0
ARC
  5
771C
330
17
100
AcDbEntity
  8
D-STR
 62
     6
100
AcDbCircle
 10
25814.23635322068
 20
26572.22727849477
 30
0.0
 40
36.91204
100
AcDbArc
 50
136.0075540000611
 51
243.4229139999481
  0
ARC
  5
771D
330
17
100
AcDbEntity
  8
D-STR
 62
     6
100
AcDbCircle
 10
25382.11062322069
 20
26608.80488849477
 30
0.0
 40
154.75031
100
AcDbArc
 50
318.1492050000197
 51
9.707529999938526
  0
ARC
  5
771E
330
17
100
AcDbEntity
  8
D-STR
 62
     6
100
AcDbCircle
 10
25333.60485322068
 20
26659.41651849477
 30
0.0
 40
145.80751
100
AcDbArc
 50
86.72188500003077
 51
155.3413989998883
  0
ARC
  5
771F
330
17
100
AcDbEntity
  8
D-STR
 62
     6
100
AcDbCircle
 10
25383.51694322068
 20
26792.93273849477
 30
0.0
 40
309.11207
100
AcDbArc
 50
262.8419059999314
 51
291.6145710000525
  0
ARC
  5
7720
330
17
100
AcDbEntity
  8
D-STR
 62
     6
100
AcDbCircle
 10
25417.50300322069
 20
26705.14767849478
 30
0.0
 40
230.61182
100
AcDbArc
 50
220.2052450000811
 51
251.6755580000215
  0
ARC
  5
7721
330
17
100
AcDbEntity
  8
D-STR
 62
     6
100
AcDbCircle
 10
25363.60018322069
 20
26673.24071849477
 30
0.0
 40
169.16908
100
AcDbArc
 50
163.8664520000119
 51
223.7390789999911
  0
LWPOLYLINE
  5
7722
330
17
100
AcDbEntity
  8
D-STR
 62
     6
100
AcDbPolyline
 90
        2
 70
     0
 43
0.0
 10
25338.73192205461
 20
27445.93287870043
 42
0.1887468967353659
 10
25289.10147729094
 20
27420.2149605046
  0
LWPOLYLINE
  5
7723
330
17
100
AcDbEntity
  8
D-STR
 62
     6
100
AcDbPolyline
 90
        2
 70
     0
 43
0.0
 10
25289.10147418107
 20
27420.21495626248
 42
0.5260448399788237
 10
25298.81233472982
 20
27355.00972557056
  0
LWPOLYLINE
  5
7724
330
17
100
AcDbEntity
  8
D-STR
 62
     6
100
AcDbPolyline
 90
        2
 70
     0
 43
0.0
 10
25298.81233921809
 20
27355.00972330861
 42
0.0669333231018506
 10
25342.27603441452
 20
27340.56981084579
  0
LWPOLYLINE
  5
7725
330
17
100
AcDbEntity
  8
D-STR
 62
     6
100
AcDbPolyline
 90
        2
 70
     0
 43
0.0
 10
25440.0466448412
 20
27251.43071848922
 42
0.2833157620996851
 10
25342.27603233433
 20
27340.56981641573
  0
LWPOLYLINE
  5
7726
330
17
100
AcDbEntity
  8
D-STR
 62
     6
100
AcDbPolyline
 90
        2
 70
     0
 43
0.0
 10
25440.0466458485
 20
27251.43071824973
 42
0.2507798871168739
 10
25461.47294392267
 20
27227.3894699216
  0
LWPOLYLINE
  5
7727
330
17
100
AcDbEntity
  8
D-STR
 62
     6
100
AcDbPolyline
 90
        2
 70
     0
 43
0.0
 10
25461.47294466969
 20
27227.38946020499
 42
0.1138344894957938
 10
25479.19783216093
 20
27224.36828221299
  0
LWPOLYLINE
  5
7728
330
17
100
AcDbEntity
  8
D-STR
 62
     6
100
AcDbPolyline
 90
        2
 70
     0
 43
0.0
 10
25504.69283322069
 20
27240.46723849477
 10
25479.19783322069
 20
27224.36828849478
  0
LWPOLYLINE
  5
7729
330
17
100
AcDbEntity
  8
D-STR
 62
     6
100
AcDbPolyline
 90
        2
 70
     0
 43
0.0
 10
25504.69282913112
 20
27240.46723307931
 42
0.2027169284390248
 10
25520.25460507033
 20
27262.84906136839
  0
LWPOLYLINE
  5
772A
330
17
100
AcDbEntity
  8
D-STR
 62
     6
100
AcDbPolyline
 90
        2
 70
     0
 43
0.0
 10
25522.27472322069
 20
27271.86040849477
 10
25520.25736322069
 20
27262.86175849477
  0
LWPOLYLINE
  5
772B
330
17
100
AcDbEntity
  8
D-STR
 62
     6
100
AcDbPolyline
 90
        2
 70
     0
 43
0.0
 10
25571.64591555077
 20
27323.95527331766
 42
0.2450214670002804
 10
25522.28900852094
 20
27271.91644939311
  0
LWPOLYLINE
  5
772C
330
17
100
AcDbEntity
  8
D-STR
 62
     6
100
AcDbPolyline
 90
        2
 70
     0
 43
0.0
 10
25571.64590784381
 20
27323.95527650285
 42
0.1588566169706148
 10
25582.23330178358
 20
27353.0798969578
  0
LWPOLYLINE
  5
772D
330
17
100
AcDbEntity
  8
D-STR
 62
     6
100
AcDbPolyline
 90
        2
 70
     0
 43
0.0
 10
25582.23329733268
 20
27353.07989619194
 42
0.1281013490100398
 10
25572.0218755823
 20
27398.48258037148
  0
LWPOLYLINE
  5
772E
330
17
100
AcDbEntity
  8
D-STR
 62
     6
100
AcDbPolyline
 90
        2
 70
     0
 43
0.0
 10
25572.02187682074
 20
27398.48258070321
 42
0.1910692602638523
 10
25549.79287441358
 20
27417.86778897881
  0
LWPOLYLINE
  5
772F
330
17
100
AcDbEntity
  8
D-STR
 62
     6
100
AcDbPolyline
 90
        2
 70
     0
 43
0.0
 10
25549.79287928504
 20
27417.86778326258
 42
0.1040650934989579
 10
25338.73191780128
 20
27445.93286276789
  0
ARC
  5
7730
330
17
100
AcDbEntity
  8
D-STR
 62
     6
100
AcDbCircle
 10
26747.31267021667
 20
26574.50870579477
 30
0.0
 40
50.0
100
AcDbArc
 50
180.0
 51
252.8972710000527
  0
LINE
  5
7731
330
17
100
AcDbEntity
  8
D-STR
 62
     6
100
AcDbLine
 10
26697.31267021667
 20
26680.59435579478
 30
0.0
 11
26697.31267021667
 21
26574.50870579477
 31
0.0
  0
LINE
  5
7732
330
17
100
AcDbEntity
  8
D-STR
 62
     6
100
AcDbLine
 10
26732.60838021667
 20
26526.71975579477
 30
0.0
 11
26762.31267021667
 21
26517.57997579477
 31
0.0
  0
LINE
  5
7733
330
17
100
AcDbEntity
  8
D-STR
 62
     6
100
AcDbLine
 10
26733.79205021667
 20
26821.55508579477
 30
0.0
 11
26762.31267021667
 21
26812.57221579477
 31
0.0
  0
LINE
  5
7734
330
17
100
AcDbEntity
  8
D-STR
 62
     6
100
AcDbLine
 10
26762.31267021667
 20
26737.52308579478
 30
0.0
 11
26732.60838021667
 21
26728.38330579478
 31
0.0
  0
ARC
  5
7735
330
17
100
AcDbEntity
  8
D-STR
 62
     6
100
AcDbCircle
 10
26747.31267021667
 20
26680.59435579478
 30
0.0
 40
50.0
100
AcDbArc
 50
107.1027289999473
 51
180.0
  0
ARC
  5
7736
330
17
100
AcDbEntity
  8
D-STR
 62
     6
100
AcDbCircle
 10
26748.81267021667
 20
26869.24555579478
 30
0.0
 40
50.0
100
AcDbArc
 50
180.0
 51
252.5176250000552
  0
LINE
  5
7737
330
17
100
AcDbEntity
  8
D-STR
 62
     6
100
AcDbLine
 10
26698.81267021667
 20
26869.24555579478
 30
0.0
 11
26698.81267021667
 21
27135.34897579477
 31
0.0
  0
LINE
  5
7738
330
17
100
AcDbEntity
  8
D-STR
 62
     6
100
AcDbLine
 10
26762.31267021667
 20
27192.02231579478
 30
0.0
 11
26733.79205021667
 21
27183.03944579477
 31
0.0
  0
ARC
  5
7739
330
17
100
AcDbEntity
  8
D-STR
 62
     6
100
AcDbCircle
 10
26748.81267021667
 20
27135.34897579477
 30
0.0
 40
50.0
100
AcDbArc
 50
107.4823749999448
 51
180.0
  0
LINE
  5
773A
330
17
100
AcDbEntity
  8
D-STR
 62
     6
100
AcDbLine
 10
26762.31267021667
 20
27420.80263579477
 30
0.0
 11
26732.60838021667
 21
27411.66285579477
 31
0.0
  0
LINE
  5
773B
330
17
100
AcDbEntity
  8
D-STR
 62
     6
100
AcDbLine
 10
26762.31267021667
 20
27281.82285579477
 30
0.0
 11
26732.60838021667
 21
27290.96263579477
 31
0.0
  0
LINE
  5
773C
330
17
100
AcDbEntity
  8
D-STR
 62
     6
100
AcDbLine
 10
26697.31267021667
 20
27338.75158579477
 30
0.0
 11
26697.31267021667
 21
27363.87390579478
 31
0.0
  0
ARC
  5
773D
330
17
100
AcDbEntity
  8
D-STR
 62
     6
100
AcDbCircle
 10
26747.31267021667
 20
27338.75158579477
 30
0.0
 40
50.0
100
AcDbArc
 50
180.0
 51
252.8972710000527
  0
ARC
  5
773E
330
17
100
AcDbEntity
  8
D-STR
 62
     6
100
AcDbCircle
 10
26747.31267021667
 20
27363.87390579478
 30
0.0
 40
50.0
100
AcDbArc
 50
107.1027289999473
 51
180.0
  0
LINE
  5
773F
330
17
100
AcDbEntity
  8
D-STR
 62
     6
100
AcDbLine
 10
25937.03916956532
 20
27451.87107237281
 30
0.0
 11
25949.01849912626
 21
27454.2141611648
 31
0.0
  0
LINE
  5
7740
330
17
100
AcDbEntity
  8
D-STR
  6
HIDDEN
100
AcDbLine
 10
36215.37570495121
 20
28438.9951176055
 30
0.0
 11
31744.86975811295
 21
26203.74214418638
 31
0.0
  0
LINE
  5
7741
330
17
100
AcDbEntity
  8
D-STR-STR1
100
AcDbLine
 10
36275.14170598397
 20
28301.17301980941
 30
0.0
 11
31811.95179743794
 21
26069.57806553639
 31
0.0
  0
LINE
  5
7742
330
17
100
AcDbEntity
  8
D-STR
100
AcDbLine
 10
35595.17368322203
 20
28184.79580617842
 30
0.0
 11
31722.50907833795
 21
26248.46350373638
 31
0.0
  0
LINE
  5
7743
330
17
100
AcDbEntity
  8
D-STR-HTXT
100
AcDbLine
 10
33952.42081523676
 20
28557.4864843067
 30
0.0
 11
34577.34521665495
 21
28557.4864843067
 31
0.0
  0
TEXT
  5
7744
330
17
100
AcDbEntity
  8
D-STR-HTXT
100
AcDbText
 10
34005.14631660615
 20
28604.41155369387
 30
0.0
 40
150.0
  1
覆 土
  7
ＭＳ ゴシック
100
AcDbText
  0
INSERT
  5
7745
330
17
100
AcDbEntity
  8
D-STR
100
AcDbBlockReference
  2
ブロック
 10
16810.16996858229
 20
23887.46568228334
 30
0.0
  0
INSERT
  5
7746
330
17
100
AcDbEntity
  8
D-STR
100
AcDbBlockReference
  2
ブロック
 10
17702.80751358741
 20
24333.7855465461
 30
0.0
  0
INSERT
  5
7747
330
17
100
AcDbEntity
  8
D-STR
100
AcDbBlockReference
  2
ブロック
 10
18595.44593200069
 20
24780.10366399255
 30
0.0
  0
INSERT
  5
7748
330
17
100
AcDbEntity
  8
D-STR
100
AcDbBlockReference
  2
ブロック
 10
19488.08435041398
 20
25226.421781439
 30
0.0
  0
INSERT
  5
7749
330
17
100
AcDbEntity
  8
D-STR
100
AcDbBlockReference
  2
ブロック
 10
20380.72276882726
 20
25672.73989888545
 30
0.0
  0
LINE
  5
774A
330
17
100
AcDbEntity
  8
D-STR
100
AcDbLine
 10
31639.77456317046
 20
26413.93253407136
 30
0.0
 11
31239.77456317046
 21
26413.93253407136
 31
0.0
  0
LINE
  5
774B
330
17
100
AcDbEntity
  8
D-STR
100
AcDbLine
 10
31239.77456317046
 20
26413.93253407136
 30
0.0
 11
31239.77456317046
 21
25913.93253407136
 31
0.0
  0
LINE
  5
774C
330
17
100
AcDbEntity
  8
D-STR
100
AcDbLine
 10
31239.77456317046
 20
25913.93253407136
 30
0.0
 11
31889.77456317046
 21
25913.93253407136
 31
0.0
  0
LINE
  5
774D
330
17
100
AcDbEntity
  8
D-STR
100
AcDbLine
 10
31889.77456317046
 20
25913.93253407136
 30
0.0
 11
31639.77456317046
 21
26413.93253407136
 31
0.0
  0
LINE
  5
774E
330
17
100
AcDbEntity
  8
D-BGD
100
AcDbLine
 10
32432.41570931278
 20
26847.76390670729
 30
0.0
 11
29268.17961373827
 21
26847.76390670729
 31
0.0
  0
LINE
  5
774F
330
17
100
AcDbEntity
  8
D-BGD
100
AcDbLine
 10
31008.87373725242
 20
26847.76390670729
 30
0.0
 11
30886.06516944354
 21
26724.95533889841
 31
0.0
  0
LINE
  5
7750
330
17
100
AcDbEntity
  8
D-BGD
100
AcDbLine
 10
31070.43546169794
 20
26847.76390670729
 30
0.0
 11
30947.62689388906
 21
26724.95533889841
 31
0.0
  0
LINE
  5
7751
330
17
100
AcDbEntity
  8
D-BGD
100
AcDbLine
 10
31131.99718614345
 20
26847.76390670729
 30
0.0
 11
31009.18861833457
 21
26724.95533889841
 31
0.0
  0
LINE
  5
7752
330
17
100
AcDbEntity
  8
D-BGD
100
AcDbLine
 10
31255.12063503448
 20
26847.76390670729
 30
0.0
 11
31132.3120672256
 21
26724.95533889841
 31
0.0
  0
LINE
  5
7753
330
17
100
AcDbEntity
  8
D-BGD
100
AcDbLine
 10
31316.68235948
 20
26847.76390670729
 30
0.0
 11
31193.87379167112
 21
26724.95533889841
 31
0.0
  0
LINE
  5
7754
330
17
100
AcDbEntity
  8
D-BGD
100
AcDbLine
 10
31378.24408392551
 20
26847.76390670729
 30
0.0
 11
31255.43551611663
 21
26724.95533889841
 31
0.0
  0
LINE
  5
7755
330
17
100
AcDbEntity
  8
D-BGD
100
AcDbLine
 10
31131.99718614345
 20
26847.76390670729
 30
0.0
 11
31208.94934170035
 21
26770.8117511504
 31
0.0
  0
LINE
  5
7756
330
17
100
AcDbEntity
  8
D-BGD
100
AcDbLine
 10
31101.21632392069
 20
26816.98304448453
 30
0.0
 11
31162.77804836621
 21
26755.42132003901
 31
0.0
  0
LINE
  5
7757
330
17
100
AcDbEntity
  8
D-BGD
100
AcDbLine
 10
31070.43546169794
 20
26786.20218226177
 30
0.0
 11
31131.68230506131
 21
26724.95533889841
 31
0.0
  0
LINE
  5
7758
330
17
100
AcDbEntity
  8
D-BGD
100
AcDbLine
 10
31378.24408392551
 20
26847.76390670729
 30
0.0
 11
31501.0526517344
 21
26724.95533889841
 31
0.0
  0
LINE
  5
7759
330
17
100
AcDbEntity
  8
D-BGD
100
AcDbLine
 10
31347.46322170275
 20
26816.98304448453
 30
0.0
 11
31439.49092728888
 21
26724.95533889841
 31
0.0
  0
LINE
  5
775A
330
17
100
AcDbEntity
  8
D-BGD
100
AcDbLine
 10
31316.68235948
 20
26786.20218226177
 30
0.0
 11
31377.92920284336
 21
26724.95533889841
 31
0.0
  0
LINE
  5
775B
330
17
100
AcDbEntity
  8
D-STR-DIM
 48
1.5
100
AcDbLine
 10
37932.0592006231
 20
29632.74597030624
 30
0.0
 11
35958.7868679958
 21
28646.10980399259
 31
0.0
  0
LINE
  5
775C
330
17
100
AcDbEntity
  8
D-STR
100
AcDbLine
 10
31722.50907833795
 20
26248.46350373638
 30
0.0
 11
31639.77456317046
 21
26413.93253407136
 31
0.0
  0
LINE
  5
775D
330
17
100
AcDbEntity
  8
D-STR-STR1
100
AcDbLine
 10
36185.69898688399
 20
28480.05845800939
 30
0.0
 11
36275.14170598397
 21
28301.17301980941
 31
0.0
  0
LINE
  5
775E
330
17
100
AcDbEntity
  8
D-STR-DIM
100
AcDbLine
 10
34110.01249230769
 20
26574.73691831835
 30
0.0
 11
35246.40441201546
 21
26574.73691831835
 31
0.0
  0
DIMENSION
  5
775F
330
17
100
AcDbEntity
  8
D-STR-DIM
100
AcDbDimension
  2
*D18
 10
33183.16807882617
 20
27790.33422795004
 30
0.0
 11
32685.41964219786
 21
27670.03337246196
 31
0.0
 70
    33
  1
1000
 71
     5
 42
997.9996032004783
  3
S-50
100
AcDbAlignedDimension
 13
32532.41298158374
 23
26860.25065151781
 33
0.0
 14
33425.05052658886
 24
27306.57051578058
 34
0.0
  0
DIMENSION
  5
7760
330
17
100
AcDbEntity
  8
D-STR-DIM
100
AcDbDimension
  2
*D19
 10
34075.80562383129
 20
28236.6540922128
 30
0.0
 11
33578.05718720298
 21
28116.35323672472
 31
0.0
 70
    33
  1
1000
 71
     5
 42
997.9996032004783
  3
S-50
100
AcDbAlignedDimension
 13
33425.05052658886
 23
27306.57051578058
 33
0.0
 14
34317.68807159399
 24
27752.89038004334
 34
0.0
  0
LEADER
  5
7761
330
17
100
AcDbEntity
  8
D-STR-HTXT
100
AcDbLeader
  3
S-50
 76
     2
 10
34977.85083437123
 20
28008.71483154484
 30
0.0
 10
34577.34521665495
 20
28557.4864843067
 30
0.0
1001
ACAD
1000
DSTYLE
1002
{
1070
   147
1040
0.8
1070
    77
1070
     0
1002
}
  0
TEXT
  5
7762
330
17
100
AcDbEntity
  8
D-STR-DIM
100
AcDbText
 10
35034.04594808821
 20
27182.63408352984
 30
0.0
 40
150.0
  1
グリーンエス
  7
ＭＳ ゴシック
100
AcDbText
  0
LEADER
  5
7763
330
17
100
AcDbEntity
  8
D-STR-DIM
100
AcDbLeader
  3
S-50
 76
     2
 10
34186.87813591975
 20
27584.06726824684
 30
0.0
 10
34962.44312880808
 20
27130.47868144846
 30
0.0
1001
ACAD
1000
DSTYLE
1002
{
1070
   147
1040
0.8
1070
    77
1070
     0
1002
}
  0
LINE
  5
7764
330
17
100
AcDbEntity
  8
D-STR-DIM
100
AcDbLine
 10
34962.44312880808
 20
27130.47868144846
 30
0.0
 11
36287.42040224392
 21
27130.47868144846
 31
0.0
  0
TEXT
  5
7765
330
17
100
AcDbEntity
  8
D-STR-DIM
100
AcDbText
 10
33531.08248062934
 20
26176.65020973791
 30
0.0
 40
150.0
  1
裏込材
  7
ＭＳ ゴシック
100
AcDbText
  0
LEADER
  5
7766
330
17
100
AcDbEntity
  8
D-STR-DIM
100
AcDbLeader
  3
S-50
 76
     2
 10
32863.61018683338
 20
26650.79724408387
 30
0.0
 10
33459.47966134921
 20
26124.49480765653
 30
0.0
1001
ACAD
1000
DSTYLE
1002
{
1070
   147
1040
0.8
1070
    77
1070
     0
1002
}
  0
LINE
  5
7767
330
17
100
AcDbEntity
  8
D-STR-DIM
100
AcDbLine
 10
33459.47966134921
 20
26124.49480765653
 30
0.0
 11
34176.1601465563
 21
26124.49480765653
 31
0.0
  0
TEXT
  5
7768
330
17
100
AcDbEntity
  8
D-STR-DIM
100
AcDbText
 10
32236.68976507951
 20
25547.45640026846
 30
0.0
 40
150.0
  1
法留工
  7
ＭＳ ゴシック
100
AcDbText
  0
LEADER
  5
7769
330
17
100
AcDbEntity
  8
D-STR-DIM
100
AcDbLeader
  3
S-50
 76
     2
 10
31569.21747128355
 20
26021.60343461442
 30
0.0
 10
32165.08694579938
 20
25495.30099818709
 30
0.0
1001
ACAD
1000
DSTYLE
1002
{
1070
   147
1040
0.8
1070
    77
1070
     0
1002
}
  0
LINE
  5
776A
330
17
100
AcDbEntity
  8
D-STR-DIM
100
AcDbLine
 10
32165.08694579938
 20
25495.30099818709
 30
0.0
 11
32915.56234122899
 21
25495.30099818709
 31
0.0
  0
TEXT
  5
7819
330
17
100
AcDbEntity
  8
D-STR-TXT
100
AcDbText
 10
38263.22662660194
 20
21150.99819135737
 30
0.0
 40
175.0
  1
グリーンエス
  7
ＭＳ ゴシック
100
AcDbText
  0
TEXT
  5
7822
330
17
100
AcDbEntity
  8
D-STR-TXT
100
AcDbText
 10
33720.32837662561
 20
27604.91576000637
 30
0.0
 40
150.0
  1
1:2.0
 50
26.56510723849971
  7
ＭＳ ゴシック
100
AcDbText
  0
DIMENSION
  5
7825
330
17
100
AcDbEntity
  8
D-STR-TXT
100
AcDbDimension
  2
*D21
 10
34721.58233463794
 20
27747.99904012619
 30
0.0
 11
34768.53976216543
 21
27911.23200248367
 31
0.0
 70
    32
 71
     5
 42
250.0000000000036
  3
S-50
100
AcDbAlignedDimension
 13
34288.62006129465
 23
27811.02640064201
 33
0.0
 14
34400.42346016964
 24
27587.41960289204
 34
0.0
 50
296.565051177078
100
AcDbRotatedDimension
1001
ACAD
1000
DSTYLE
1002
{
1070
    75
1070
     1
1002
}
  0
ENDSEC
  0
SECTION
  2
OBJECTS
  0
DICTIONARY
  5
C
330
0
100
AcDbDictionary
281
     1
  3
ACAD_COLOR
350
5EB0
  3
ACAD_GROUP
350
D
  3
ACAD_LAYOUT
350
3A33
  3
ACAD_MATERIAL
350
5EAF
  3
ACAD_MLEADERSTYLE
350
78A6
  3
ACAD_MLINESTYLE
350
1A
  3
ACAD_PLOTSETTINGS
350
3A34
  3
ACAD_PLOTSTYLENAME
350
3A31
  3
ACAD_SCALELIST
350
787F
  3
ACAD_TABLESTYLE
350
5EB1
  3
ACDB_RECOMPOSE_DATA
350
78A5
  3
AcDbVariableDictionary
350
3A82
  0
DICTIONARY
  5
3B1C
330
2
100
AcDbDictionary
280
     1
281
     1
  3
ACAD_LAYERFILTERS
360
69F0
  3
ACLYDICTIONARY
360
69EF
  0
DICTIONARY
  5
3A7C
330
17
100
AcDbDictionary
280
     1
281
     1
  3
ACAD_SORTENTS
360
5350
  0
DICTIONARY
  5
5EB0
102
{ACAD_REACTORS
330
C
102
}
330
C
100
AcDbDictionary
281
     1
  0
DICTIONARY
  5
D
102
{ACAD_REACTORS
330
C
102
}
330
C
100
AcDbDictionary
281
     1
  0
DICTIONARY
  5
3A33
102
{ACAD_REACTORS
330
C
102
}
330
C
100
AcDbDictionary
281
     1
  3
Model
350
3A35
  3
ﾚｲｱｳﾄ1
350
3A36
  0
DICTIONARY
  5
5EAF
102
{ACAD_REACTORS
330
C
102
}
330
C
100
AcDbDictionary
281
     1
  0
DICTIONARY
  5
78A6
102
{ACAD_REACTORS
330
C
102
}
330
C
100
AcDbDictionary
281
     1
  0
DICTIONARY
  5
1A
102
{ACAD_REACTORS
330
C
102
}
330
C
100
AcDbDictionary
281
     1
  3
STANDARD
350
1B
  0
DICTIONARY
  5
3A34
102
{ACAD_REACTORS
330
C
102
}
330
C
100
AcDbDictionary
281
     1
  0
ACDBDICTIONARYWDFLT
  5
3A31
102
{ACAD_REACTORS
330
C
102
}
330
C
100
AcDbDictionary
281
     1
  3
Normal
350
3A32
100
AcDbDictionaryWithDefault
340
3A32
  0
DICTIONARY
  5
787F
102
{ACAD_REACTORS
330
C
102
}
330
C
100
AcDbDictionary
281
     1
  3
A0
350
7880
  3
A1
350
7881
  3
A2
350
7882
  3
A3
350
7883
  3
A4
350
7884
  3
A5
350
7885
  3
A6
350
7886
  3
A7
350
7887
  3
A8
350
7888
  3
A9
350
7889
  3
B0
350
788A
  3
B1
350
788B
  3
B2
350
788C
  3
B3
350
788D
  3
B4
350
788E
  3
B5
350
788F
  3
B6
350
7890
  3
B7
350
7891
  3
B8
350
7892
  3
B9
350
7893
  3
C0
350
7894
  3
C1
350
7895
  3
C2
350
7896
  3
C3
350
7897
  3
C4
350
7898
  3
C5
350
7899
  3
C6
350
789A
  3
C7
350
789B
  3
C8
350
789C
  3
C9
350
789D
  3
D0
350
789E
  3
D1
350
789F
  3
D2
350
78A0
  0
DICTIONARY
  5
5EB1
102
{ACAD_REACTORS
330
C
102
}
330
C
100
AcDbDictionary
281
     1
  3
Standard
350
5EB2
  0
XRECORD
  5
78A5
102
{ACAD_REACTORS
330
C
102
}
330
C
100
AcDbXrecord
280
     1
 90
        1
330
5EB2
  0
DICTIONARY
  5
3A82
102
{ACAD_REACTORS
330
C
102
}
330
C
100
AcDbDictionary
281
     1
  3
CANNOSCALE
350
78A1
  3
CTABLESTYLE
350
5EC7
  3
DIMASSOC
350
3A83
  3
PROJECTNAME
350
5EC8
  3
SORTENTS
350
5351
  0
DICTIONARY
  5
69F0
102
{ACAD_REACTORS
330
3B1C
102
}
330
3B1C
100
AcDbDictionary
281
     1
  3
50
350
69F2
  3
hat
350
69F4
  3
kabe
350
69F6
  3
kijun
350
69F8
  3
setubi
350
69FA
  3
siage
350
69FC
  3
tategu
350
69FE
  3
梁
350
6A00
  0
DICTIONARY
  5
69EF
102
{ACAD_REACTORS
330
3B1C
102
}
330
3B1C
100
AcDbDictionary
281
     1
  3
*A1
350
69F1
  3
*A2
350
69F3
  3
*A3
350
69F5
  3
*A4
350
69F7
  3
*A5
350
69F9
  3
*A6
350
69FB
  3
*A7
350
69FD
  3
*A8
350
69FF
1001
ACAD
1000
<All
  0
SORTENTSTABLE
  5
5350
102
{ACAD_REACTORS
330
3A7C
102
}
330
3A7C
100
AcDbSortentsTable
330
17
331
73
  5
51D5
  0
LAYOUT
  5
3A35
102
{ACAD_REACTORS
330
3A33
102
}
330
3A33
100
AcDbPlotSettings
  1

  2
RICOH SP9II RPDL.pc3
  4
A3
  6

 40
5.873749732971191
 41
5.873758316040039
 42
4.349761962890625
 43
8.159759521484375
 44
420.1159973144531
 45
296.9259948730469
 46
0.0
 47
0.0
 48
0.0
 49
0.0
140
0.0
141
0.0
142
1.0
143
7502.175706480581
 70
 11952
 72
     0
 73
     0
 74
     0
  7
acad.ctb
 75
     0
 76
     0
 77
     2
 78
   300
147
0.0001332946653244
148
620250.649107715
149
88199.04588441564
100
AcDbLayout
  1
Model
 70
     1
 71
     0
 10
0.0
 20
0.0
 11
12.0
 21
9.0
 12
0.0
 22
0.0
 32
0.0
 14
0.0
 24
0.0
 34
0.0
 15
0.0
 25
0.0
 35
0.0
146
0.0
 13
0.0
 23
0.0
 33
0.0
 16
1.0
 26
0.0
 36
0.0
 17
0.0
 27
1.0
 37
0.0
 76
     0
330
17
331
7878
  0
LAYOUT
  5
3A36
102
{ACAD_REACTORS
330
3A33
102
}
330
3A33
100
AcDbPlotSettings
  1

  2
C:\PROGRAM FILES\MDT6\plotters\RICOH SP9II RPDL.pc3
  4

  6

 40
0.0
 41
0.0
 42
0.0
 43
0.0
 44
0.0
 45
0.0
 46
0.0
 47
0.0
 48
0.0
 49
0.0
140
0.0
141
0.0
142
1.0
143
1.0
 70
   688
 72
     0
 73
     0
 74
     5
  7
acad.ctb
 75
    16
 76
     0
 77
     2
 78
   300
147
1.0
148
0.0
149
0.0
100
AcDbLayout
  1
ﾚｲｱｳﾄ1
 70
     0
 71
     1
 10
0.0
 20
0.0
 11
12.0
 21
9.0
 12
0.0
 22
0.0
 32
0.0
 14
1.000000000000000E+20
 24
1.000000000000000E+20
 34
1.000000000000000E+20
 15
-1.000000000000000E+20
 25
-1.000000000000000E+20
 35
-1.000000000000000E+20
146
0.0
 13
0.0
 23
0.0
 33
0.0
 16
1.0
 26
0.0
 36
0.0
 17
0.0
 27
1.0
 37
0.0
 76
     0
330
14
  0
MLINESTYLE
  5
1B
102
{ACAD_REACTORS
330
1A
102
}
330
1A
100
AcDbMlineStyle
  2
STANDARD
 70
     0
  3

 62
   256
 51
90.0
 52
90.0
 71
     2
 49
0.5
 62
   256
  6
BYLAYER
 49
-0.5
 62
   256
  6
BYLAYER
  0
ACDBPLACEHOLDER
  5
3A32
102
{ACAD_REACTORS
330
3A31
102
}
330
3A31
  0
SCALE
  5
7880
102
{ACAD_REACTORS
330
787F
102
}
330
787F
100
AcDbScale
 70
     0
300
1:1
140
1.0
141
1.0
290
     1
  0
SCALE
  5
7881
102
{ACAD_REACTORS
330
787F
102
}
330
787F
100
AcDbScale
 70
     0
300
1:2
140
1.0
141
2.0
290
     0
  0
SCALE
  5
7882
102
{ACAD_REACTORS
330
787F
102
}
330
787F
100
AcDbScale
 70
     0
300
1:4
140
1.0
141
4.0
290
     0
  0
SCALE
  5
7883
102
{ACAD_REACTORS
330
787F
102
}
330
787F
100
AcDbScale
 70
     0
300
1:5
140
1.0
141
5.0
290
     0
  0
SCALE
  5
7884
102
{ACAD_REACTORS
330
787F
102
}
330
787F
100
AcDbScale
 70
     0
300
1:8
140
1.0
141
8.0
290
     0
  0
SCALE
  5
7885
102
{ACAD_REACTORS
330
787F
102
}
330
787F
100
AcDbScale
 70
     0
300
1:10
140
1.0
141
10.0
290
     0
  0
SCALE
  5
7886
102
{ACAD_REACTORS
330
787F
102
}
330
787F
100
AcDbScale
 70
     0
300
1:16
140
1.0
141
16.0
290
     0
  0
SCALE
  5
7887
102
{ACAD_REACTORS
330
787F
102
}
330
787F
100
AcDbScale
 70
     0
300
1:20
140
1.0
141
20.0
290
     0
  0
SCALE
  5
7888
102
{ACAD_REACTORS
330
787F
102
}
330
787F
100
AcDbScale
 70
     0
300
1:30
140
1.0
141
30.0
290
     0
  0
SCALE
  5
7889
102
{ACAD_REACTORS
330
787F
102
}
330
787F
100
AcDbScale
 70
     0
300
1:40
140
1.0
141
40.0
290
     0
  0
SCALE
  5
788A
102
{ACAD_REACTORS
330
787F
102
}
330
787F
100
AcDbScale
 70
     0
300
1:50
140
1.0
141
50.0
290
     0
  0
SCALE
  5
788B
102
{ACAD_REACTORS
330
787F
102
}
330
787F
100
AcDbScale
 70
     0
300
1:100
140
1.0
141
100.0
290
     0
  0
SCALE
  5
788C
102
{ACAD_REACTORS
330
787F
102
}
330
787F
100
AcDbScale
 70
     0
300
2:1
140
2.0
141
1.0
290
     0
  0
SCALE
  5
788D
102
{ACAD_REACTORS
330
787F
102
}
330
787F
100
AcDbScale
 70
     0
300
4:1
140
4.0
141
1.0
290
     0
  0
SCALE
  5
788E
102
{ACAD_REACTORS
330
787F
102
}
330
787F
100
AcDbScale
 70
     0
300
8:1
140
8.0
141
1.0
290
     0
  0
SCALE
  5
788F
102
{ACAD_REACTORS
330
787F
102
}
330
787F
100
AcDbScale
 70
     0
300
10:1
140
10.0
141
1.0
290
     0
  0
SCALE
  5
7890
102
{ACAD_REACTORS
330
787F
102
}
330
787F
100
AcDbScale
 70
     0
300
100:1
140
100.0
141
1.0
290
     0
  0
SCALE
  5
7891
102
{ACAD_REACTORS
330
787F
102
}
330
787F
100
AcDbScale
 70
     0
300
1/128" = 1'-0"
140
0.0078125
141
12.0
290
     0
  0
SCALE
  5
7892
102
{ACAD_REACTORS
330
787F
102
}
330
787F
100
AcDbScale
 70
     0
300
1/64" = 1'-0"
140
0.015625
141
12.0
290
     0
  0
SCALE
  5
7893
102
{ACAD_REACTORS
330
787F
102
}
330
787F
100
AcDbScale
 70
     0
300
1/32" = 1'-0"
140
0.03125
141
12.0
290
     0
  0
SCALE
  5
7894
102
{ACAD_REACTORS
330
787F
102
}
330
787F
100
AcDbScale
 70
     0
300
1/16" = 1'-0"
140
0.0625
141
12.0
290
     0
  0
SCALE
  5
7895
102
{ACAD_REACTORS
330
787F
102
}
330
787F
100
AcDbScale
 70
     0
300
3/32" = 1'-0"
140
0.09375
141
12.0
290
     0
  0
SCALE
  5
7896
102
{ACAD_REACTORS
330
787F
102
}
330
787F
100
AcDbScale
 70
     0
300
1/8" = 1'-0"
140
0.125
141
12.0
290
     0
  0
SCALE
  5
7897
102
{ACAD_REACTORS
330
787F
102
}
330
787F
100
AcDbScale
 70
     0
300
3/16" = 1'-0"
140
0.1875
141
12.0
290
     0
  0
SCALE
  5
7898
102
{ACAD_REACTORS
330
787F
102
}
330
787F
100
AcDbScale
 70
     0
300
1/4" = 1'-0"
140
0.25
141
12.0
290
     0
  0
SCALE
  5
7899
102
{ACAD_REACTORS
330
787F
102
}
330
787F
100
AcDbScale
 70
     0
300
3/8" = 1'-0"
140
0.375
141
12.0
290
     0
  0
SCALE
  5
789A
102
{ACAD_REACTORS
330
787F
102
}
330
787F
100
AcDbScale
 70
     0
300
1/2" = 1'-0"
140
0.5
141
12.0
290
     0
  0
SCALE
  5
789B
102
{ACAD_REACTORS
330
787F
102
}
330
787F
100
AcDbScale
 70
     0
300
3/4" = 1'-0"
140
0.75
141
12.0
290
     0
  0
SCALE
  5
789C
102
{ACAD_REACTORS
330
787F
102
}
330
787F
100
AcDbScale
 70
     0
300
1" = 1'-0"
140
1.0
141
12.0
290
     0
  0
SCALE
  5
789D
102
{ACAD_REACTORS
330
787F
102
}
330
787F
100
AcDbScale
 70
     0
300
1-1/2" = 1'-0"
140
1.5
141
12.0
290
     0
  0
SCALE
  5
789E
102
{ACAD_REACTORS
330
787F
102
}
330
787F
100
AcDbScale
 70
     0
300
3" = 1'-0"
140
3.0
141
12.0
290
     0
  0
SCALE
  5
789F
102
{ACAD_REACTORS
330
787F
102
}
330
787F
100
AcDbScale
 70
     0
300
6" = 1'-0"
140
6.0
141
12.0
290
     0
  0
SCALE
  5
78A0
102
{ACAD_REACTORS
330
787F
102
}
330
787F
100
AcDbScale
 70
     0
300
1'-0" = 1'-0"
140
12.0
141
12.0
290
     0
  0
TABLESTYLE
  5
5EB2
102
{ACAD_REACTORS
330
5EB1
102
}
102
{ACAD_XDICTIONARY
360
78A2
102
}
330
5EB1
100
AcDbTableStyle
  3
Standard
 70
     0
 71
     0
 40
0.06
 41
0.06
280
     0
281
     0
  7
STANDARD
140
0.18
170
     2
 62
     0
 63
   257
283
     0
274
    -2
284
     1
 64
     0
275
    -2
285
     1
 65
     0
276
    -2
286
     1
 66
     0
277
    -2
287
     1
 67
     0
278
    -2
288
     1
 68
     0
279
    -2
289
     1
 69
     0
  7
STANDARD
140
0.25
170
     5
 62
     0
 63
   257
283
     0
274
    -2
284
     1
 64
     0
275
    -2
285
     1
 65
     0
276
    -2
286
     1
 66
     0
277
    -2
287
     1
 67
     0
278
    -2
288
     1
 68
     0
279
    -2
289
     1
 69
     0
  7
STANDARD
140
0.18
170
     5
 62
     0
 63
   257
283
     0
274
    -2
284
     1
 64
     0
275
    -2
285
     1
 65
     0
276
    -2
286
     1
 66
     0
277
    -2
287
     1
 67
     0
278
    -2
288
     1
 68
     0
279
    -2
289
     1
 69
     0
  0
DICTIONARYVAR
  5
78A1
102
{ACAD_REACTORS
330
3A82
102
}
330
3A82
100
DictionaryVariables
280
     0
  1
1:1
  0
DICTIONARYVAR
  5
5EC7
102
{ACAD_REACTORS
330
3A82
102
}
330
3A82
100
DictionaryVariables
280
     0
  1
Standard
  0
DICTIONARYVAR
  5
3A83
102
{ACAD_REACTORS
330
3A82
102
}
330
3A82
100
DictionaryVariables
280
     0
  1
1
  0
DICTIONARYVAR
  5
5EC8
102
{ACAD_REACTORS
330
3A82
102
}
330
3A82
100
DictionaryVariables
280
     0
  1

  0
DICTIONARYVAR
  5
5351
102
{ACAD_REACTORS
330
3A82
102
}
330
3A82
100
DictionaryVariables
280
     0
  1
127
  0
XRECORD
  5
69F2
102
{ACAD_REACTORS
330
69F0
102
}
330
69F0
100
AcDbXrecord
280
     1
  1
50
  1
*50*
  1
*
  1
*
 70
     0
  1
*
  1
*
1001
ACAD
1000
( NAME== "*50*" )
  0
XRECORD
  5
69F4
102
{ACAD_REACTORS
330
69F0
102
}
330
69F0
100
AcDbXrecord
280
     1
  1
hat
  1
*hat*
  1
*
  1
*
 70
     0
  1
*
  1
*
1001
ACAD
1000
( NAME== "*hat*" )
  0
XRECORD
  5
69F6
102
{ACAD_REACTORS
330
69F0
102
}
330
69F0
100
AcDbXrecord
280
     1
  1
kabe
  1
*kabe*
  1
*
  1
*
 70
     0
  1
*
  1
*
1001
ACAD
1000
( NAME== "*kabe*" )
  0
XRECORD
  5
69F8
102
{ACAD_REACTORS
330
69F0
102
}
330
69F0
100
AcDbXrecord
280
     1
  1
kijun
  1
*kijun*
  1
*
  1
*
 70
     0
  1
*
  1
*
1001
ACAD
1000
( NAME== "*kijun*" )
  0
XRECORD
  5
69FA
102
{ACAD_REACTORS
330
69F0
102
}
330
69F0
100
AcDbXrecord
280
     1
  1
setubi
  1
*setubi*
  1
*
  1
*
 70
     0
  1
*
  1
*
1001
ACAD
1000
( NAME== "*setubi*" )
  0
XRECORD
  5
69FC
102
{ACAD_REACTORS
330
69F0
102
}
330
69F0
100
AcDbXrecord
280
     1
  1
siage
  1
*siage*
  1
*
  1
*
 70
     0
  1
*
  1
*
1001
ACAD
1000
( NAME== "*siage*" )
  0
XRECORD
  5
69FE
102
{ACAD_REACTORS
330
69F0
102
}
330
69F0
100
AcDbXrecord
280
     1
  1
tategu
  1
*tategu*
  1
*
  1
*
 70
     0
  1
*
  1
*
1001
ACAD
1000
( NAME== "*tategu*" )
  0
XRECORD
  5
6A00
102
{ACAD_REACTORS
330
69F0
102
}
330
69F0
100
AcDbXrecord
280
     1
  1
梁
  1
*梁*
  1
*
  1
*
 70
     0
  1
*
  1
*
1001
ACAD
1000
( NAME== "*梁*" )
  0
XRECORD
  5
69F1
102
{ACAD_REACTORS
330
69EF
102
}
330
69EF
100
AcDbXrecord
280
     1
  1
AcLyLayerFilter
 90
        1
300
50
301
( NAME== "*50*" )
  0
XRECORD
  5
69F3
102
{ACAD_REACTORS
330
69EF
102
}
330
69EF
100
AcDbXrecord
280
     1
  1
AcLyLayerFilter
 90
        1
300
hat
301
( NAME== "*hat*" )
  0
XRECORD
  5
69F5
102
{ACAD_REACTORS
330
69EF
102
}
330
69EF
100
AcDbXrecord
280
     1
  1
AcLyLayerFilter
 90
        1
300
kabe
301
( NAME== "*kabe*" )
  0
XRECORD
  5
69F7
102
{ACAD_REACTORS
330
69EF
102
}
330
69EF
100
AcDbXrecord
280
     1
  1
AcLyLayerFilter
 90
        1
300
kijun
301
( NAME== "*kijun*" )
  0
XRECORD
  5
69F9
102
{ACAD_REACTORS
330
69EF
102
}
330
69EF
100
AcDbXrecord
280
     1
  1
AcLyLayerFilter
 90
        1
300
setubi
301
( NAME== "*setubi*" )
  0
XRECORD
  5
69FB
102
{ACAD_REACTORS
330
69EF
102
}
330
69EF
100
AcDbXrecord
280
     1
  1
AcLyLayerFilter
 90
        1
300
siage
301
( NAME== "*siage*" )
  0
XRECORD
  5
69FD
102
{ACAD_REACTORS
330
69EF
102
}
330
69EF
100
AcDbXrecord
280
     1
  1
AcLyLayerFilter
 90
        1
300
tategu
301
( NAME== "*tategu*" )
  0
XRECORD
  5
69FF
102
{ACAD_REACTORS
330
69EF
102
}
330
69EF
100
AcDbXrecord
280
     1
  1
AcLyLayerFilter
 90
        1
300
梁
301
( NAME== "*梁*" )
  0
DICTIONARY
  5
78A2
330
5EB2
100
AcDbDictionary
280
     1
281
     1
  3
ACAD_ROUNDTRIP_2008_TABLESTYLE_CELLSTYLEMAP
360
78A4
  3
ACAD_XREC_ROUNDTRIP
360
78A3
  0
CELLSTYLEMAP
  5
78A4
102
{ACAD_REACTORS
330
78A2
102
}
330
78A2
100
AcDbCellStyleMap
 90
        3
300
CELLSTYLE
  1
TABLEFORMAT_BEGIN
 90
        5
170
     1
 91
        0
 92
    32768
 62
   257
 93
        1
300
CONTENTFORMAT
  1
CONTENTFORMAT_BEGIN
 90
        0
 91
        0
 92
        4
 93
        0
300

 40
0.0
140
1.0
 94
        5
 62
     0
340
F
144
0.25
309
CONTENTFORMAT_END
171
     1
301
MARGIN
  1
CELLMARGIN_BEGIN
 40
0.06
 40
0.06
 40
0.06
 40
0.06
 40
0.06
 40
0.06
309
CELLMARGIN_END
 94
        6
 95
        1
302
GRIDFORMAT
  1
GRIDFORMAT_BEGIN
 90
        0
 91
        1
 62
     0
 92
       -2
340
0
 93
        0
 40
0.045
309
GRIDFORMAT_END
 95
        2
302
GRIDFORMAT
  1
GRIDFORMAT_BEGIN
 90
        0
 91
        1
 62
     0
 92
       -2
340
0
 93
        0
 40
0.045
309
GRIDFORMAT_END
 95
        4
302
GRIDFORMAT
  1
GRIDFORMAT_BEGIN
 90
        0
 91
        1
 62
     0
 92
       -2
340
0
 93
        0
 40
0.045
309
GRIDFORMAT_END
 95
        8
302
GRIDFORMAT
  1
GRIDFORMAT_BEGIN
 90
        0
 91
        1
 62
     0
 92
       -2
340
0
 93
        0
 40
0.045
309
GRIDFORMAT_END
 95
       16
302
GRIDFORMAT
  1
GRIDFORMAT_BEGIN
 90
        0
 91
        1
 62
     0
 92
       -2
340
0
 93
        0
 40
0.045
309
GRIDFORMAT_END
 95
       32
302
GRIDFORMAT
  1
GRIDFORMAT_BEGIN
 90
        0
 91
        1
 62
     0
 92
       -2
340
0
 93
        0
 40
0.045
309
GRIDFORMAT_END
309
TABLEFORMAT_END
  1
CELLSTYLE_BEGIN
 90
        1
 91
        1
300
_TITLE
309
CELLSTYLE_END
300
CELLSTYLE
  1
TABLEFORMAT_BEGIN
 90
        5
170
     1
 91
        0
 92
        0
 62
   257
 93
        1
300
CONTENTFORMAT
  1
CONTENTFORMAT_BEGIN
 90
        0
 91
        0
 92
        4
 93
        0
300

 40
0.0
140
1.0
 94
        5
 62
     0
340
F
144
0.18
309
CONTENTFORMAT_END
171
     1
301
MARGIN
  1
CELLMARGIN_BEGIN
 40
0.06
 40
0.06
 40
0.06
 40
0.06
 40
0.06
 40
0.06
309
CELLMARGIN_END
 94
        6
 95
        1
302
GRIDFORMAT
  1
GRIDFORMAT_BEGIN
 90
        0
 91
        1
 62
     0
 92
       -2
340
0
 93
        0
 40
0.045
309
GRIDFORMAT_END
 95
        2
302
GRIDFORMAT
  1
GRIDFORMAT_BEGIN
 90
        0
 91
        1
 62
     0
 92
       -2
340
0
 93
        0
 40
0.045
309
GRIDFORMAT_END
 95
        4
302
GRIDFORMAT
  1
GRIDFORMAT_BEGIN
 90
        0
 91
        1
 62
     0
 92
       -2
340
0
 93
        0
 40
0.045
309
GRIDFORMAT_END
 95
        8
302
GRIDFORMAT
  1
GRIDFORMAT_BEGIN
 90
        0
 91
        1
 62
     0
 92
       -2
340
0
 93
        0
 40
0.045
309
GRIDFORMAT_END
 95
       16
302
GRIDFORMAT
  1
GRIDFORMAT_BEGIN
 90
        0
 91
        1
 62
     0
 92
       -2
340
0
 93
        0
 40
0.045
309
GRIDFORMAT_END
 95
       32
302
GRIDFORMAT
  1
GRIDFORMAT_BEGIN
 90
        0
 91
        1
 62
     0
 92
       -2
340
0
 93
        0
 40
0.045
309
GRIDFORMAT_END
309
TABLEFORMAT_END
  1
CELLSTYLE_BEGIN
 90
        2
 91
        1
300
_HEADER
309
CELLSTYLE_END
300
CELLSTYLE
  1
TABLEFORMAT_BEGIN
 90
        5
170
     1
 91
        0
 92
        0
 62
   257
 93
        1
300
CONTENTFORMAT
  1
CONTENTFORMAT_BEGIN
 90
        0
 91
        0
 92
        4
 93
        0
300

 40
0.0
140
1.0
 94
        2
 62
     0
340
F
144
0.18
309
CONTENTFORMAT_END
171
     1
301
MARGIN
  1
CELLMARGIN_BEGIN
 40
0.06
 40
0.06
 40
0.06
 40
0.06
 40
0.06
 40
0.06
309
CELLMARGIN_END
 94
        6
 95
        1
302
GRIDFORMAT
  1
GRIDFORMAT_BEGIN
 90
        0
 91
        1
 62
     0
 92
       -2
340
0
 93
        0
 40
0.045
309
GRIDFORMAT_END
 95
        2
302
GRIDFORMAT
  1
GRIDFORMAT_BEGIN
 90
        0
 91
        1
 62
     0
 92
       -2
340
0
 93
        0
 40
0.045
309
GRIDFORMAT_END
 95
        4
302
GRIDFORMAT
  1
GRIDFORMAT_BEGIN
 90
        0
 91
        1
 62
     0
 92
       -2
340
0
 93
        0
 40
0.045
309
GRIDFORMAT_END
 95
        8
302
GRIDFORMAT
  1
GRIDFORMAT_BEGIN
 90
        0
 91
        1
 62
     0
 92
       -2
340
0
 93
        0
 40
0.045
309
GRIDFORMAT_END
 95
       16
302
GRIDFORMAT
  1
GRIDFORMAT_BEGIN
 90
        0
 91
        1
 62
     0
 92
       -2
340
0
 93
        0
 40
0.045
309
GRIDFORMAT_END
 95
       32
302
GRIDFORMAT
  1
GRIDFORMAT_BEGIN
 90
        0
 91
        1
 62
     0
 92
       -2
340
0
 93
        0
 40
0.045
309
GRIDFORMAT_END
309
TABLEFORMAT_END
  1
CELLSTYLE_BEGIN
 90
        3
 91
        2
300
_DATA
309
CELLSTYLE_END
  0
XRECORD
  5
78A3
102
{ACAD_REACTORS
330
78A2
102
}
330
78A2
100
AcDbXrecord
280
     1
102
ACAD_ROUNDTRIP_PRE2007_TABLESTYLE
 90
        4
 91
        0
  1

 92
        4
 93
        0
  2

 94
        4
 95
        0
  3

  0
ENDSEC
  0
EOF
