  0
SECTION
  2
HEADER
  9
$ACADVER
  1
AC1018
  9
$ACADMAINTVER
 70
     0
  9
$DWGCODEPAGE
  3
ANSI_932
  9
$INSBASE
 10
0.0
 20
0.0
 30
0.0
  9
$EXTMIN
 10
320.0
 20
-0.0000000000000142
 30
0.0
  9
$EXTMAX
 10
7980.0
 20
5540.0
 30
0.0
  9
$LIMMIN
 10
0.0
 20
0.0
  9
$LIMMAX
 10
8400.0
 20
5940.0
  9
$ORTHOMODE
 70
     1
  9
$REGENMODE
 70
     1
  9
$FILLMODE
 70
     1
  9
$QTEXTMODE
 70
     0
  9
$MIRRTEXT
 70
     1
  9
$LTSCALE
 40
200.0
  9
$ATTMODE
 70
     1
  9
$TEXTSIZE
 40
60.0
  9
$TRACEWID
 40
0.05
  9
$TEXTSTYLE
  7
STANDARD
  9
$CLAYER
  8
SUNPOU
  9
$CELTYPE
  6
BYLAYER
  9
$CECOLOR
 62
   256
  9
$CELTSCALE
 40
1.0
  9
$DISPSILH
 70
     0
  9
$DIMSCALE
 40
20.0
  9
$DIMASZ
 40
2.0
  9
$DIMEXO
 40
2.0
  9
$DIMDLI
 40
7.0
  9
$DIMRND
 40
0.0
  9
$DIMDLE
 40
0.0
  9
$DIMEXE
 40
0.5
  9
$DIMTP
 40
0.0
  9
$DIMTM
 40
0.0
  9
$DIMTXT
 40
3.0
  9
$DIMCEN
 40
0.0
  9
$DIMTSZ
 40
0.0
  9
$DIMTOL
 70
     0
  9
$DIMLIM
 70
     0
  9
$DIMTIH
 70
     0
  9
$DIMTOH
 70
     0
  9
$DIMSE1
 70
     0
  9
$DIMSE2
 70
     0
  9
$DIMTAD
 70
     1
  9
$DIMZIN
 70
     8
  9
$DIMBLK
  1

  9
$DIMASO
 70
     1
  9
$DIMSHO
 70
     1
  9
$DIMPOST
  1

  9
$DIMAPOST
  1

  9
$DIMALT
 70
     0
  9
$DIMALTD
 70
     2
  9
$DIMALTF
 40
25.4
  9
$DIMLFAC
 40
1.0
  9
$DIMTOFL
 70
     0
  9
$DIMTVP
 40
1.0
  9
$DIMTIX
 70
     1
  9
$DIMSOXD
 70
     0
  9
$DIMSAH
 70
     0
  9
$DIMBLK1
  1

  9
$DIMBLK2
  1

  9
$DIMSTYLE
  2
A3-20
  9
$DIMCLRD
 70
     0
  9
$DIMCLRE
 70
     0
  9
$DIMCLRT
 70
     0
  9
$DIMTFAC
 40
1.0
  9
$DIMGAP
 40
0.8
  9
$DIMJUST
 70
     0
  9
$DIMSD1
 70
     0
  9
$DIMSD2
 70
     0
  9
$DIMTOLJ
 70
     1
  9
$DIMTZIN
 70
     8
  9
$DIMALTZ
 70
     8
  9
$DIMALTTZ
 70
     8
  9
$DIMUPT
 70
     0
  9
$DIMDEC
 70
     0
  9
$DIMTDEC
 70
     0
  9
$DIMALTU
 70
     2
  9
$DIMALTTD
 70
     2
  9
$DIMTXSTY
  7
STANDARD
  9
$DIMAUNIT
 70
     0
  9
$DIMADEC
 70
     4
  9
$DIMALTRND
 40
0.0
  9
$DIMAZIN
 70
     0
  9
$DIMDSEP
 70
    46
  9
$DIMATFIT
 70
     3
  9
$DIMFRAC
 70
     0
  9
$DIMLDRBLK
  1

  9
$DIMLUNIT
 70
     2
  9
$DIMLWD
 70
    -2
  9
$DIMLWE
 70
    -2
  9
$DIMTMOVE
 70
     2
  9
$LUNITS
 70
     2
  9
$LUPREC
 70
     4
  9
$SKETCHINC
 40
0.1
  9
$FILLETRAD
 40
0.0
  9
$AUNITS
 70
     0
  9
$AUPREC
 70
     6
  9
$MENU
  1
acad
  9
$ELEVATION
 40
0.0
  9
$PELEVATION
 40
0.0
  9
$THICKNESS
 40
0.0
  9
$LIMCHECK
 70
     0
  9
$CHAMFERA
 40
0.0
  9
$CHAMFERB
 40
0.0
  9
$CHAMFERC
 40
0.0
  9
$CHAMFERD
 40
0.0
  9
$SKPOLY
 70
     0
  9
$TDCREATE
 40
2450014.656655093
  9
$TDUCREATE
 40
2450014.281655093
  9
$TDUPDATE
 40
2455351.379926389
  9
$TDUUPDATE
 40
2455351.004926389
  9
$TDINDWG
 40
0.0203956597
  9
$TDUSRTIMER
 40
0.0203956597
  9
$USRTIMER
 70
     1
  9
$ANGBASE
 50
0.0
  9
$ANGDIR
 70
     0
  9
$PDMODE
 70
     0
  9
$PDSIZE
 40
0.0
  9
$PLINEWID
 40
0.0
  9
$SPLFRAME
 70
     0
  9
$SPLINETYPE
 70
     6
  9
$SPLINESEGS
 70
     8
  9
$HANDSEED
  5
1768
  9
$SURFTAB1
 70
     6
  9
$SURFTAB2
 70
     6
  9
$SURFTYPE
 70
     6
  9
$SURFU
 70
     6
  9
$SURFV
 70
     6
  9
$UCSBASE
  2

  9
$UCSNAME
  2

  9
$UCSORG
 10
0.0
 20
0.0
 30
0.0
  9
$UCSXDIR
 10
1.0
 20
0.0
 30
0.0
  9
$UCSYDIR
 10
0.0
 20
1.0
 30
0.0
  9
$UCSORTHOREF
  2

  9
$UCSORTHOVIEW
 70
     0
  9
$UCSORGTOP
 10
0.0
 20
0.0
 30
0.0
  9
$UCSORGBOTTOM
 10
0.0
 20
0.0
 30
0.0
  9
$UCSORGLEFT
 10
0.0
 20
0.0
 30
0.0
  9
$UCSORGRIGHT
 10
0.0
 20
0.0
 30
0.0
  9
$UCSORGFRONT
 10
0.0
 20
0.0
 30
0.0
  9
$UCSORGBACK
 10
0.0
 20
0.0
 30
0.0
  9
$PUCSBASE
  2

  9
$PUCSNAME
  2

  9
$PUCSORG
 10
0.0
 20
0.0
 30
0.0
  9
$PUCSXDIR
 10
1.0
 20
0.0
 30
0.0
  9
$PUCSYDIR
 10
0.0
 20
1.0
 30
0.0
  9
$PUCSORTHOREF
  2

  9
$PUCSORTHOVIEW
 70
     0
  9
$PUCSORGTOP
 10
0.0
 20
0.0
 30
0.0
  9
$PUCSORGBOTTOM
 10
0.0
 20
0.0
 30
0.0
  9
$PUCSORGLEFT
 10
0.0
 20
0.0
 30
0.0
  9
$PUCSORGRIGHT
 10
0.0
 20
0.0
 30
0.0
  9
$PUCSORGFRONT
 10
0.0
 20
0.0
 30
0.0
  9
$PUCSORGBACK
 10
0.0
 20
0.0
 30
0.0
  9
$USERI1
 70
     0
  9
$USERI2
 70
     0
  9
$USERI3
 70
     0
  9
$USERI4
 70
     0
  9
$USERI5
 70
     0
  9
$USERR1
 40
0.0
  9
$USERR2
 40
0.0
  9
$USERR3
 40
0.0
  9
$USERR4
 40
0.0
  9
$USERR5
 40
0.0
  9
$WORLDVIEW
 70
     1
  9
$SHADEDGE
 70
     3
  9
$SHADEDIF
 70
    70
  9
$TILEMODE
 70
     1
  9
$MAXACTVP
 70
    48
  9
$PINSBASE
 10
0.0
 20
0.0
 30
0.0
  9
$PLIMCHECK
 70
     0
  9
$PEXTMIN
 10
1.000000000000000E+20
 20
1.000000000000000E+20
 30
1.000000000000000E+20
  9
$PEXTMAX
 10
-1.000000000000000E+20
 20
-1.000000000000000E+20
 30
-1.000000000000000E+20
  9
$PLIMMIN
 10
0.0
 20
0.0
  9
$PLIMMAX
 10
12.0
 20
9.0
  9
$UNITMODE
 70
     0
  9
$VISRETAIN
 70
     0
  9
$PLINEGEN
 70
     0
  9
$PSLTSCALE
 70
     0
  9
$TREEDEPTH
 70
  3020
  9
$CMLSTYLE
  2
STANDARD
  9
$CMLJUST
 70
     0
  9
$CMLSCALE
 40
1.0
  9
$PROXYGRAPHICS
 70
     1
  9
$MEASUREMENT
 70
     0
  9
$CELWEIGHT
370
    -1
  9
$ENDCAPS
280
     0
  9
$JOINSTYLE
280
     0
  9
$LWDISPLAY
290
     0
  9
$INSUNITS
 70
     0
  9
$HYPERLINKBASE
  1

  9
$STYLESHEET
  1

  9
$XEDIT
290
     1
  9
$CEPSNTYPE
380
     0
  9
$PSTYLEMODE
290
     1
  9
$FINGERPRINTGUID
  2
{F67648C0-8D40-11D8-A1CD-0050FC45377D}
  9
$VERSIONGUID
  2
{AD79F64C-40AF-4DCA-928C-A180CE4C37AC}
  9
$EXTNAMES
290
     1
  9
$PSVPSCALE
 40
0.0
  9
$OLESTARTUP
290
     0
  9
$SORTENTS
280
   127
  9
$INDEXCTL
280
     0
  9
$HIDETEXT
280
     1
  9
$XCLIPFRAME
290
     0
  9
$HALOGAP
280
     0
  9
$OBSCOLOR
 70
   257
  9
$OBSLTYPE
280
     0
  9
$INTERSECTIONDISPLAY
280
     0
  9
$INTERSECTIONCOLOR
 70
   257
  9
$DIMASSOC
280
     1
  9
$PROJECTNAME
  1

  0
ENDSEC
  0
SECTION
  2
CLASSES
  0
CLASS
  1
ACDBDICTIONARYWDFLT
  2
AcDbDictionaryWithDefault
  3
ObjectDBX Classes
 90
        0
 91
        4
280
     0
281
     0
  0
CLASS
  1
ACDBPLACEHOLDER
  2
AcDbPlaceHolder
  3
ObjectDBX Classes
 90
        0
 91
        1
280
     0
281
     0
  0
CLASS
  1
LAYOUT
  2
AcDbLayout
  3
ObjectDBX Classes
 90
        0
 91
        1
280
     0
281
     0
  0
CLASS
  1
DICTIONARYVAR
  2
AcDbDictionaryVar
  3
ObjectDBX Classes
 90
        0
 91
        4
280
     0
281
     0
  0
CLASS
  1
DUMMY
  2
AcDbLongTransaction
  3
DUMMY
 90
        0
 91
        1
280
     0
281
     0
  0
CLASS
  1
LWPOLYLINE
  2
AcDbPolyline
  3
AutoCAD 2000
 90
        0
 91
        1
280
     0
281
     1
  0
CLASS
  1
HATCH
  2
AcDbHatch
  3
AutoCAD 2000
 90
        0
 91
        1
280
     0
281
     1
  0
CLASS
  1
XRECORD
  2
AcDbXrecord
  3
AutoCAD 2000
 90
        0
 91
        1
280
     0
281
     0
  0
CLASS
  1
TABLESTYLE
  2
AcDbTableStyle
  3
ObjectDBX Classes
 90
     4095
 91
        4
280
     0
281
     0
  0
CLASS
  1
SCALE
  2
AcDbScale
  3
ObjectDBX Classes
 90
     1153
 91
        4
280
     0
281
     0
  0
CLASS
  1
CELLSTYLEMAP
  2
AcDbCellStyleMap
  3
ObjectDBX Classes
 90
     1152
 91
        4
280
     0
281
     0
  0
ENDSEC
  0
SECTION
  2
TABLES
  0
TABLE
  2
VPORT
  5
8
330
0
100
AcDbSymbolTable
 70
     2
  0
VPORT
  5
173A
330
8
100
AcDbSymbolTableRecord
100
AcDbViewportTableRecord
  2
*Active
 70
     0
 10
0.0
 20
0.0
 11
1.0
 21
1.0
 12
3879.210193709832
 22
2866.596329916154
 13
0.0
 23
0.0
 14
20.0
 24
20.0
 15
200.0
 25
200.0
 16
0.0
 26
0.0
 36
1.0
 17
0.0
 27
0.0
 37
0.0
 40
6296.487961875016
 41
1.507024265644956
 42
50.0
 43
0.0
 44
0.0
 50
0.0
 51
0.0
 71
     0
 72
   100
 73
     1
 74
     1
 75
     0
 76
     0
 77
     0
 78
     0
281
     0
 65
     1
110
0.0
120
0.0
130
0.0
111
1.0
121
0.0
131
0.0
112
0.0
122
1.0
132
0.0
 79
     0
146
0.0
  0
ENDTAB
  0
TABLE
  2
LTYPE
  5
5
330
0
100
AcDbSymbolTable
 70
     4
  0
LTYPE
  5
11
330
5
100
AcDbSymbolTableRecord
100
AcDbLinetypeTableRecord
  2
BYBLOCK
 70
     0
  3

 72
    65
 73
     0
 40
0.0
  0
LTYPE
  5
12
330
5
100
AcDbSymbolTableRecord
100
AcDbLinetypeTableRecord
  2
BYLAYER
 70
     0
  3

 72
    65
 73
     0
 40
0.0
  0
LTYPE
  5
13
330
5
100
AcDbSymbolTableRecord
100
AcDbLinetypeTableRecord
  2
CONTINUOUS
 70
     0
  3
Solid line
 72
    65
 73
     0
 40
0.0
  0
LTYPE
  5
1E
330
5
100
AcDbSymbolTableRecord
100
AcDbLinetypeTableRecord
  2
HIDDEN
 70
     0
  3
_ _ _ _ _ _ _ _ _ _ _ _ _ _ _ _ _ _ _ _ _ _ _
 72
    65
 73
     2
 40
0.375
 49
0.25
 74
     0
 49
-0.125
 74
     0
  0
LTYPE
  5
1F
330
5
100
AcDbSymbolTableRecord
100
AcDbLinetypeTableRecord
  2
CENTER
 70
     0
  3
____ _ ____ _ ____ _ ____ _ ____ _ ____ _ ____
 72
    65
 73
     4
 40
2.0
 49
1.25
 74
     0
 49
-0.25
 74
     0
 49
0.25
 74
     0
 49
-0.25
 74
     0
  0
LTYPE
  5
20
330
5
100
AcDbSymbolTableRecord
100
AcDbLinetypeTableRecord
  2
PHANTOM
 70
     0
  3
_____ _ _ _____ _ _ _____ _ _ _____ _ _ ____
 72
    65
 73
     6
 40
2.5
 49
1.25
 74
     0
 49
-0.25
 74
     0
 49
0.25
 74
     0
 49
-0.25
 74
     0
 49
0.25
 74
     0
 49
-0.25
 74
     0
  0
ENDTAB
  0
TABLE
  2
LAYER
  5
2
330
0
100
AcDbSymbolTable
 70
    10
  0
LAYER
  5
E
330
2
100
AcDbSymbolTableRecord
100
AcDbLayerTableRecord
  2
0
 70
     0
 62
     7
  6
CONTINUOUS
370
    -3
390
6E
  0
LAYER
  5
23
330
2
100
AcDbSymbolTableRecord
100
AcDbLayerTableRecord
  2
SUNPOU
 70
     0
 62
     1
  6
CONTINUOUS
370
    -3
390
6E
  0
LAYER
  5
24
330
2
100
AcDbSymbolTableRecord
100
AcDbLayerTableRecord
  2
HAIKIN
 70
     0
 62
     2
  6
CONTINUOUS
370
    -3
390
6E
  0
LAYER
  5
25
330
2
100
AcDbSymbolTableRecord
100
AcDbLayerTableRecord
  2
SEIHIN
 70
     0
 62
     3
  6
CONTINUOUS
370
    -3
390
6E
  0
LAYER
  5
26
330
2
100
AcDbSymbolTableRecord
100
AcDbLayerTableRecord
  2
HASEN
 70
     0
 62
     4
  6
HIDDEN
370
    -3
390
6E
  0
LAYER
  5
27
330
2
100
AcDbSymbolTableRecord
100
AcDbLayerTableRecord
  2
1HASEN
 70
     0
 62
     5
  6
CENTER
370
    -3
390
6E
  0
LAYER
  5
28
330
2
100
AcDbSymbolTableRecord
100
AcDbLayerTableRecord
  2
2HASEN
 70
     0
 62
     6
  6
PHANTOM
370
    -3
390
6E
  0
LAYER
  5
29
330
2
100
AcDbSymbolTableRecord
100
AcDbLayerTableRecord
  2
HOJO
 70
     0
 62
     7
  6
CONTINUOUS
370
    -3
390
6E
  0
LAYER
  5
2A
330
2
100
AcDbSymbolTableRecord
100
AcDbLayerTableRecord
  2
TEN
 70
     0
 62
     7
  6
CONTINUOUS
370
    -3
390
6E
  0
LAYER
  5
7AA
330
2
100
AcDbSymbolTableRecord
100
AcDbLayerTableRecord
  2
DEFPOINTS
 70
     0
 62
     7
  6
CONTINUOUS
290
     0
370
    -3
390
6E
  0
ENDTAB
  0
TABLE
  2
STYLE
  5
3
330
0
100
AcDbSymbolTable
 70
     1
  0
STYLE
  5
F
330
3
100
AcDbSymbolTableRecord
100
AcDbTextStyleTableRecord
  2
STANDARD
 70
     0
 40
0.0
 41
0.8
 50
0.0
 71
     0
 42
60.0
  3
TXT.shx
  4
BIGFONT.shx
  0
ENDTAB
  0
TABLE
  2
VIEW
  5
6
330
0
100
AcDbSymbolTable
 70
     0
  0
ENDTAB
  0
TABLE
  2
UCS
  5
7
330
0
100
AcDbSymbolTable
 70
     0
  0
ENDTAB
  0
TABLE
  2
APPID
  5
9
330
0
100
AcDbSymbolTable
 70
    10
  0
APPID
  5
10
330
9
100
AcDbSymbolTableRecord
100
AcDbRegAppTableRecord
  2
ACAD
 70
     0
  0
APPID
  5
B6
330
9
100
AcDbSymbolTableRecord
100
AcDbRegAppTableRecord
  2
ACAD_DSTYLE_DIMTEXT_FILL
 70
     0
  0
APPID
  5
B7
330
9
100
AcDbSymbolTableRecord
100
AcDbRegAppTableRecord
  2
ACAD_DSTYLE_DIMEXT_LENGTH
 70
     0
  0
APPID
  5
B8
330
9
100
AcDbSymbolTableRecord
100
AcDbRegAppTableRecord
  2
ACAD_DSTYLE_DIMEXT_ENABLED
 70
     0
  0
APPID
  5
B9
330
9
100
AcDbSymbolTableRecord
100
AcDbRegAppTableRecord
  2
ACAD_DSTYLE_DIM_LINETYPE
 70
     0
  0
APPID
  5
BA
330
9
100
AcDbSymbolTableRecord
100
AcDbRegAppTableRecord
  2
ACAD_DSTYLE_DIM_EXT1_LINETYPE
 70
     0
  0
APPID
  5
BB
330
9
100
AcDbSymbolTableRecord
100
AcDbRegAppTableRecord
  2
ACAD_DSTYLE_DIM_EXT2_LINETYPE
 70
     0
  0
APPID
  5
177
330
9
100
AcDbSymbolTableRecord
100
AcDbRegAppTableRecord
  2
ACAD_DSTYLE_DIMJOGGED_JOGANGLE_SYMBOL
 70
     0
  0
APPID
  5
35B
330
9
100
AcDbSymbolTableRecord
100
AcDbRegAppTableRecord
  2
ACAD_DSTYLE_DIMARC_LENGTH_SYMBOL
 70
     0
  0
APPID
  5
1186
330
9
100
AcDbSymbolTableRecord
100
AcDbRegAppTableRecord
  2
ACAD_EXEMPT_FROM_CAD_STANDARDS
 70
     0
  0
ENDTAB
  0
TABLE
  2
DIMSTYLE
  5
A
330
0
100
AcDbSymbolTable
 70
     2
100
AcDbDimStyleTable
  0
DIMSTYLE
105
61
330
A
100
AcDbSymbolTableRecord
100
AcDbDimStyleTableRecord
  2
STANDARD
 70
     0
178
     0
340
F
  0
DIMSTYLE
105
360
102
{ACAD_REACTORS
330
ADE
330
9CB
330
9CA
330
9C9
330
9C8
330
9C7
330
9C6
330
9C5
330
9C2
330
9C1
330
9C0
330
9BF
330
A58
330
A57
330
A56
330
A55
330
A54
330
A13
330
A12
330
A11
330
A04
330
A66
330
A59
330
A3C
330
A3B
330
A3A
330
A39
330
138C
330
139A
330
1709
102
}
330
A
100
AcDbSymbolTableRecord
100
AcDbDimStyleTableRecord
  2
A3-20
 70
     0
 40
20.0
 41
2.0
 42
2.0
 43
7.0
 44
0.5
 73
     0
 74
     0
 77
     1
 78
     8
140
3.0
141
0.0
145
1.0
147
0.8
174
     1
178
     0
179
     4
271
     0
272
     0
279
     2
284
     8
285
     8
286
     8
340
F
  0
ENDTAB
  0
TABLE
  2
BLOCK_RECORD
  5
1
330
0
100
AcDbSymbolTable
 70
    38
  0
BLOCK_RECORD
  5
17
330
1
100
AcDbSymbolTableRecord
100
AcDbBlockTableRecord
  2
*MODEL_SPACE
340
71
  0
BLOCK_RECORD
  5
14
330
1
100
AcDbSymbolTableRecord
100
AcDbBlockTableRecord
  2
*PAPER_SPACE
340
72
  0
BLOCK_RECORD
  5
1C
330
1
100
AcDbSymbolTableRecord
100
AcDbBlockTableRecord
  2
BORDER
340
0
  0
BLOCK_RECORD
  5
1D
330
1
100
AcDbSymbolTableRecord
100
AcDbBlockTableRecord
  2
SA3
340
0
102
{BLKREFS
331
60
102
}
  0
BLOCK_RECORD
  5
ADF
330
1
100
AcDbSymbolTableRecord
100
AcDbBlockTableRecord
  2
*D2
340
0
  0
BLOCK_RECORD
  5
AEB
330
1
100
AcDbSymbolTableRecord
100
AcDbBlockTableRecord
  2
*D3
340
0
  0
BLOCK_RECORD
  5
AF7
330
1
100
AcDbSymbolTableRecord
100
AcDbBlockTableRecord
  2
*D4
340
0
  0
BLOCK_RECORD
  5
B03
330
1
100
AcDbSymbolTableRecord
100
AcDbBlockTableRecord
  2
*D5
340
0
  0
BLOCK_RECORD
  5
B1B
330
1
100
AcDbSymbolTableRecord
100
AcDbBlockTableRecord
  2
*D6
340
0
  0
BLOCK_RECORD
  5
B28
330
1
100
AcDbSymbolTableRecord
100
AcDbBlockTableRecord
  2
*D7
340
0
  0
BLOCK_RECORD
  5
B34
330
1
100
AcDbSymbolTableRecord
100
AcDbBlockTableRecord
  2
*D8
340
0
  0
BLOCK_RECORD
  5
B40
330
1
100
AcDbSymbolTableRecord
100
AcDbBlockTableRecord
  2
*D9
340
0
  0
BLOCK_RECORD
  5
B4C
330
1
100
AcDbSymbolTableRecord
100
AcDbBlockTableRecord
  2
*D10
340
0
  0
BLOCK_RECORD
  5
B58
330
1
100
AcDbSymbolTableRecord
100
AcDbBlockTableRecord
  2
*D11
340
0
  0
BLOCK_RECORD
  5
B64
330
1
100
AcDbSymbolTableRecord
100
AcDbBlockTableRecord
  2
*D12
340
0
  0
BLOCK_RECORD
  5
B98
330
1
100
AcDbSymbolTableRecord
100
AcDbBlockTableRecord
  2
*D13
340
0
  0
BLOCK_RECORD
  5
BE4
330
1
100
AcDbSymbolTableRecord
100
AcDbBlockTableRecord
  2
*D14
340
0
  0
BLOCK_RECORD
  5
BF0
330
1
100
AcDbSymbolTableRecord
100
AcDbBlockTableRecord
  2
*D15
340
0
  0
BLOCK_RECORD
  5
BFC
330
1
100
AcDbSymbolTableRecord
100
AcDbBlockTableRecord
  2
*D16
340
0
  0
BLOCK_RECORD
  5
C46
330
1
100
AcDbSymbolTableRecord
100
AcDbBlockTableRecord
  2
*D17
340
0
  0
BLOCK_RECORD
  5
C52
330
1
100
AcDbSymbolTableRecord
100
AcDbBlockTableRecord
  2
*D18
340
0
  0
BLOCK_RECORD
  5
C5E
330
1
100
AcDbSymbolTableRecord
100
AcDbBlockTableRecord
  2
*D19
340
0
  0
BLOCK_RECORD
  5
C6A
330
1
100
AcDbSymbolTableRecord
100
AcDbBlockTableRecord
  2
*D20
340
0
  0
BLOCK_RECORD
  5
C76
330
1
100
AcDbSymbolTableRecord
100
AcDbBlockTableRecord
  2
*D21
340
0
  0
BLOCK_RECORD
  5
C82
330
1
100
AcDbSymbolTableRecord
100
AcDbBlockTableRecord
  2
*D22
340
0
  0
BLOCK_RECORD
  5
C8E
330
1
100
AcDbSymbolTableRecord
100
AcDbBlockTableRecord
  2
*D23
340
0
  0
BLOCK_RECORD
  5
C9A
330
1
100
AcDbSymbolTableRecord
100
AcDbBlockTableRecord
  2
*D24
340
0
  0
BLOCK_RECORD
  5
CA6
330
1
100
AcDbSymbolTableRecord
100
AcDbBlockTableRecord
  2
*D25
340
0
  0
BLOCK_RECORD
  5
CB2
330
1
100
AcDbSymbolTableRecord
100
AcDbBlockTableRecord
  2
*D26
340
0
  0
BLOCK_RECORD
  5
D3A
330
1
100
AcDbSymbolTableRecord
100
AcDbBlockTableRecord
  2
*D27
340
0
  0
BLOCK_RECORD
  5
DF7
330
1
100
AcDbSymbolTableRecord
100
AcDbBlockTableRecord
  2
*D28
340
0
  0
BLOCK_RECORD
  5
138D
330
1
100
AcDbSymbolTableRecord
100
AcDbBlockTableRecord
  2
*D29
340
0
  0
BLOCK_RECORD
  5
139B
330
1
100
AcDbSymbolTableRecord
100
AcDbBlockTableRecord
  2
*D30
340
0
  0
BLOCK_RECORD
  5
170A
330
1
100
AcDbSymbolTableRecord
100
AcDbBlockTableRecord
  2
*D36
340
0
  0
ENDTAB
  0
ENDSEC
  0
SECTION
  2
BLOCKS
  0
BLOCK
  5
2D
330
17
100
AcDbEntity
  8
0
100
AcDbBlockBegin
  2
*MODEL_SPACE
 70
     0
 10
0.0
 20
0.0
 30
0.0
  3
*MODEL_SPACE
  1

  0
ENDBLK
  5
2E
330
17
100
AcDbEntity
  8
0
100
AcDbBlockEnd
  0
BLOCK
  5
2B
330
14
100
AcDbEntity
 67
     1
  8
0
100
AcDbBlockBegin
  2
*PAPER_SPACE
 70
     0
 10
0.0
 20
0.0
 30
0.0
  3
*PAPER_SPACE
  1

  0
ENDBLK
  5
2C
330
14
100
AcDbEntity
 67
     1
  8
0
100
AcDbBlockEnd
  0
BLOCK
  5
2F
330
1C
100
AcDbEntity
  8
0
100
AcDbBlockBegin
  2
BORDER
 70
     0
 10
0.0
 20
0.0
 30
0.0
  3
BORDER
  1

  0
LINE
  5
30
330
1C
100
AcDbEntity
  8
0
100
AcDbLine
 10
0.0
 20
0.0
 30
0.0
 11
1.00000000000004
 21
0.0
 31
0.0
  0
LINE
  5
31
330
1C
100
AcDbEntity
  8
0
100
AcDbLine
 10
1.00000000000004
 20
0.0
 30
0.0
 11
1.00000000000004
 21
1.00000000000004
 31
0.0
  0
LINE
  5
32
330
1C
100
AcDbEntity
  8
0
100
AcDbLine
 10
1.00000000000004
 20
1.00000000000004
 30
0.0
 11
0.0
 21
1.00000000000004
 31
0.0
  0
LINE
  5
33
330
1C
100
AcDbEntity
  8
0
100
AcDbLine
 10
0.0
 20
1.00000000000004
 30
0.0
 11
0.0
 21
0.0
 31
0.0
  0
ENDBLK
  5
34
330
1C
100
AcDbEntity
  8
0
100
AcDbBlockEnd
  0
BLOCK
  5
35
330
1D
100
AcDbEntity
  8
HAIKIN
100
AcDbBlockBegin
  2
SA3
 70
     0
 10
0.0
 20
0.0
 30
0.0
  3
SA3
  1

  0
TEXT
  5
36
330
1D
100
AcDbEntity
  8
SUNPOU
100
AcDbText
 10
340.0
 20
0.0
 30
0.0
 40
2.5
  1
新和コンクリート工業株式会社
100
AcDbText
  0
TEXT
  5
39
330
1D
100
AcDbEntity
  8
SUNPOU
100
AcDbText
 10
361.4166666666667
 20
6.25
 30
0.0
 40
2.5
  1
製図
 72
     4
 11
364.0
 21
7.5
 31
0.0
100
AcDbText
  0
TEXT
  5
3A
330
1D
100
AcDbEntity
  8
SUNPOU
100
AcDbText
 10
361.3333333333333
 20
11.25
 30
0.0
 40
2.5
  1
設計
 72
     4
 11
364.0
 21
12.5
 31
0.0
100
AcDbText
  0
TEXT
  5
3B
330
1D
100
AcDbEntity
  8
SUNPOU
100
AcDbText
 10
339.0833333333333
 20
6.250000000000014
 30
0.0
 40
2.5
  1
認
 72
     4
 11
340.25
 21
7.500000000000014
 31
0.0
100
AcDbText
  0
TEXT
  5
3C
330
1D
100
AcDbEntity
  8
SUNPOU
100
AcDbText
 10
339.0833333333333
 20
11.33333333333336
 30
0.0
 40
2.5
  1
承
 72
     4
 11
340.25
 21
12.50000000000003
 31
0.0
100
AcDbText
  0
TEXT
  5
3D
330
1D
100
AcDbEntity
  8
SUNPOU
100
AcDbText
 10
312.75
 20
11.75000000000001
 30
0.0
 40
2.5
  1
図　面　番　号
 72
     4
 11
323.0
 21
13.00000000000001
 31
0.0
100
AcDbText
  0
TEXT
  5
3E
330
1D
100
AcDbEntity
  8
SUNPOU
100
AcDbText
 10
362.0
 20
17.0
 30
0.0
 40
2.5
  1
１／
100
AcDbText
  0
TEXT
  5
3F
330
1D
100
AcDbEntity
  8
SUNPOU
100
AcDbText
 10
347.3333333333333
 20
16.25000000000001
 30
0.0
 40
2.5
  1
縮　　尺
 72
     4
 11
353.0
 21
17.50000000000001
 31
0.0
100
AcDbText
  0
TEXT
  5
40
330
1D
100
AcDbEntity
  8
SUNPOU
100
AcDbText
 10
347.3333333333333
 20
21.25
 30
0.0
 40
2.5
  1
鉄 筋 量
 72
     4
 11
353.0
 21
22.5
 31
0.0
100
AcDbText
  0
TEXT
  5
41
330
1D
100
AcDbEntity
  8
SUNPOU
100
AcDbText
 10
347.3333333333333
 20
26.25
 30
0.0
 40
2.5
  1
製 造 数
 72
     4
 11
353.0
 21
27.5
 31
0.0
100
AcDbText
  0
TEXT
  5
42
330
1D
100
AcDbEntity
  8
SUNPOU
100
AcDbText
 10
377.0
 20
21.0
 30
0.0
 40
2.5
  1
ｋｇ
 72
     2
 11
382.0
 21
21.0
 31
0.0
100
AcDbText
  0
TEXT
  5
43
330
1D
100
AcDbEntity
  8
SUNPOU
100
AcDbText
 10
339.5
 20
21.0
 30
0.0
 40
2.5
  1
ｋｇ
 72
     2
 11
344.5
 21
21.0
 31
0.0
100
AcDbText
  0
TEXT
  5
44
330
1D
100
AcDbEntity
  8
SUNPOU
100
AcDbText
 10
310.0
 20
16.25000000000001
 30
0.0
 40
2.5
  1
年 月 日
 72
     4
 11
315.5
 21
17.50000000000001
 31
0.0
100
AcDbText
  0
TEXT
  5
45
330
1D
100
AcDbEntity
  8
SUNPOU
100
AcDbText
 10
309.8333333333333
 20
21.25
 30
0.0
 40
2.5
  1
製品質量
 72
     4
 11
315.5
 21
22.5
 31
0.0
100
AcDbText
  0
TEXT
  5
46
330
1D
100
AcDbEntity
  8
SUNPOU
100
AcDbText
 10
309.9166666666667
 20
26.25
 30
0.0
 40
2.5
  1
業 者 名
 72
     4
 11
315.5
 21
27.5
 31
0.0
100
AcDbText
  0
TEXT
  5
47
330
1D
100
AcDbEntity
  8
SUNPOU
100
AcDbText
 10
309.8333333333333
 20
32.5
 30
0.0
 40
2.5
  1
名　　称
 72
     4
 11
315.5
 21
33.75
 31
0.0
100
AcDbText
  0
LINE
  5
48
330
1D
100
AcDbEntity
  8
SUNPOU
100
AcDbLine
 10
338.0
 20
11.00000000000001
 30
0.0
 11
308.0
 21
11.00000000000001
 31
0.0
  0
LINE
  5
49
330
1D
100
AcDbEntity
  8
SUNPOU
100
AcDbLine
 10
367.5
 20
4.999999999999986
 30
0.0
 11
367.5
 21
14.99999999999999
 31
0.0
  0
LINE
  5
4A
330
1D
100
AcDbEntity
  8
SUNPOU
100
AcDbLine
 10
360.5
 20
4.999999999999986
 30
0.0
 11
360.5
 21
14.99999999999999
 31
0.0
  0
LINE
  5
4B
330
1D
100
AcDbEntity
  8
SUNPOU
100
AcDbLine
 10
342.5
 20
4.999999999999995
 30
0.0
 11
342.5
 21
15.0
 31
0.0
  0
LINE
  5
4C
330
1D
100
AcDbEntity
  8
SUNPOU
100
AcDbLine
 10
338.0
 20
4.999999999999995
 30
0.0
 11
338.0
 21
15.0
 31
0.0
  0
LINE
  5
4D
330
1D
100
AcDbEntity
  8
SUNPOU
100
AcDbLine
 10
323.0
 20
15.00000000000001
 30
0.0
 11
323.0
 21
37.5
 31
0.0
  0
LINE
  5
4E
330
1D
100
AcDbEntity
  8
SUNPOU
100
AcDbLine
 10
360.5
 20
15.00000000000001
 30
0.0
 11
360.5
 21
30.0
 31
0.0
  0
LINE
  5
4F
330
1D
100
AcDbEntity
  8
SUNPOU
100
AcDbLine
 10
345.5
 20
15.00000000000001
 30
0.0
 11
345.5
 21
30.0
 31
0.0
  0
LINE
  5
50
330
1D
100
AcDbEntity
  8
SUNPOU
100
AcDbLine
 10
383.0
 20
30.0
 30
0.0
 11
308.0
 21
30.0
 31
0.0
  0
LINE
  5
51
330
1D
100
AcDbEntity
  8
SUNPOU
100
AcDbLine
 10
383.0
 20
25.0
 30
0.0
 11
308.0
 21
25.0
 31
0.0
  0
LINE
  5
52
330
1D
100
AcDbEntity
  8
SUNPOU
100
AcDbLine
 10
383.0
 20
20.0
 30
0.0
 11
308.0
 21
20.0
 31
0.0
  0
LINE
  5
53
330
1D
100
AcDbEntity
  8
SUNPOU
100
AcDbLine
 10
383.0
 20
14.99999999999999
 30
0.0
 11
308.0
 21
15.00000000000004
 31
0.0
  0
LINE
  5
54
330
1D
100
AcDbEntity
  8
HAIKIN
100
AcDbLine
 10
308.0
 20
37.5
 30
0.0
 11
383.0
 21
37.5
 31
0.0
  0
LINE
  5
55
330
1D
100
AcDbEntity
  8
HAIKIN
100
AcDbLine
 10
308.0
 20
5.000000000000009
 30
0.0
 11
308.0
 21
37.5
 31
0.0
  0
LINE
  5
56
330
1D
100
AcDbEntity
  8
SUNPOU
100
AcDbLine
 10
0.000000000000016
 20
277.0
 30
0.0
 11
0.000000000000016
 21
272.0
 31
0.0
  0
LINE
  5
57
330
1D
100
AcDbEntity
  8
SUNPOU
100
AcDbLine
 10
25.00000000000001
 20
277.0
 30
0.0
 11
0.000000000000016
 21
277.0
 31
0.0
  0
LINE
  5
58
330
1D
100
AcDbEntity
  8
SUNPOU
100
AcDbLine
 10
25.00000000000001
 20
272.0
 30
0.0
 11
25.00000000000001
 21
277.0
 31
0.0
  0
LINE
  5
59
330
1D
100
AcDbEntity
  8
HAIKIN
100
AcDbLine
 10
0.0000000000000004
 20
5.0
 30
0.0
 11
383.0
 21
5.0
 31
0.0
  0
LINE
  5
5A
330
1D
100
AcDbEntity
  8
HAIKIN
100
AcDbLine
 10
0.0000000000000158
 20
272.0
 30
0.0
 11
383.0
 21
272.0
 31
0.0
  0
LINE
  5
5B
330
1D
100
AcDbEntity
  8
HAIKIN
100
AcDbLine
 10
383.0
 20
272.0
 30
0.0
 11
383.0
 21
5.0
 31
0.0
  0
TEXT
  5
5C
330
1D
100
AcDbEntity
  8
SUNPOU
100
AcDbText
 10
3.700000000000017
 20
273.0
 30
0.0
 40
3.0
  1
Ｈ－２－共
 72
     4
 11
12.50000000000002
 21
274.5
 31
0.0
100
AcDbText
  0
LINE
  5
5D
330
1D
100
AcDbEntity
  8
HAIKIN
100
AcDbLine
 10
0.0000000000000004
 20
5.0
 30
0.0
 11
0.0000000000000158
 21
272.0
 31
0.0
  0
ENDBLK
  5
5E
330
1D
100
AcDbEntity
  8
HAIKIN
100
AcDbBlockEnd
  0
BLOCK
  5
AE9
330
ADF
100
AcDbEntity
  8
0
100
AcDbBlockBegin
  2
*D2
 70
     1
 10
0.0
 20
0.0
 30
0.0
  3
*D2
  1

  0
LINE
  5
158A
330
ADF
100
AcDbEntity
  8
SUNPOU
 62
     0
370
    -2
100
AcDbLine
 10
1425.117202579266
 20
4478.564145216644
 30
0.0
 11
855.0297215330577
 21
4478.564145216644
 31
0.0
  0
LINE
  5
158B
330
ADF
100
AcDbEntity
  8
SUNPOU
 62
     0
370
    -2
100
AcDbLine
 10
1425.117202579266
 20
3478.564145216644
 30
0.0
 11
855.0297215330575
 21
3478.564145216644
 31
0.0
  0
LINE
  5
158C
330
ADF
100
AcDbEntity
  8
SUNPOU
 62
     0
370
    -2
100
AcDbLine
 10
865.0297215330577
 20
4438.564145216644
 30
0.0
 11
865.0297215330575
 21
3518.564145216644
 31
0.0
  0
SOLID
  5
158D
330
ADF
100
AcDbEntity
  8
SUNPOU
 62
     0
100
AcDbTrace
 10
858.363054866391
 20
4438.564145216644
 30
0.0
 11
871.6963881997243
 21
4438.564145216644
 31
0.0
 12
865.0297215330577
 22
4478.564145216644
 32
0.0
 13
865.0297215330577
 23
4478.564145216644
 33
0.0
  0
SOLID
  5
158E
330
ADF
100
AcDbEntity
  8
SUNPOU
 62
     0
100
AcDbTrace
 10
858.3630548663908
 20
3518.564145216644
 30
0.0
 11
871.6963881997241
 21
3518.564145216644
 31
0.0
 12
865.0297215330575
 22
3478.564145216644
 32
0.0
 13
865.0297215330575
 23
3478.564145216644
 33
0.0
  0
MTEXT
  5
158F
330
ADF
100
AcDbEntity
  8
SUNPOU
 62
     0
100
AcDbMText
 10
819.0297215330569
 20
3978.564145216644
 30
0.0
 40
60.0
 41
0.0
 71
     5
 72
     1
  1
\A1;1000
 11
6.123031769111886E-17
 21
1.0
 31
0.0
 73
     1
 44
1.0
  0
POINT
  5
1590
330
ADF
100
AcDbEntity
  8
DEFPOINTS
 62
     0
100
AcDbPoint
 10
1465.117202579266
 20
4478.564145216644
 30
0.0
  0
POINT
  5
1591
330
ADF
100
AcDbEntity
  8
DEFPOINTS
 62
     0
100
AcDbPoint
 10
1465.117202579266
 20
3478.564145216644
 30
0.0
  0
POINT
  5
1592
330
ADF
100
AcDbEntity
  8
DEFPOINTS
 62
     0
100
AcDbPoint
 10
865.0297215330575
 20
3478.564145216644
 30
0.0
  0
ENDBLK
  5
AEA
330
ADF
100
AcDbEntity
  8
0
100
AcDbBlockEnd
  0
BLOCK
  5
AF5
330
AEB
100
AcDbEntity
  8
0
100
AcDbBlockBegin
  2
*D3
 70
     1
 10
0.0
 20
0.0
 30
0.0
  3
*D3
  1

  0
LINE
  5
1593
330
AEB
100
AcDbEntity
  8
SUNPOU
 62
     0
370
    -2
100
AcDbLine
 10
1425.117202579266
 20
3478.564145216644
 30
0.0
 11
990.3156012242689
 21
3478.564145216644
 31
0.0
  0
LINE
  5
1594
330
AEB
100
AcDbEntity
  8
SUNPOU
 62
     0
370
    -2
100
AcDbLine
 10
1425.117202579266
 20
3588.564145216644
 30
0.0
 11
990.3156012242689
 21
3588.564145216644
 31
0.0
  0
LINE
  5
1595
330
AEB
100
AcDbEntity
  8
SUNPOU
 62
     0
370
    -2
100
AcDbLine
 10
1000.315601224269
 20
3438.564145216644
 30
0.0
 11
1000.315601224269
 21
3398.564145216644
 31
0.0
  0
LINE
  5
1596
330
AEB
100
AcDbEntity
  8
SUNPOU
 62
     0
370
    -2
100
AcDbLine
 10
1000.315601224269
 20
3628.564145216644
 30
0.0
 11
1000.315601224269
 21
3668.564145216644
 31
0.0
  0
SOLID
  5
1597
330
AEB
100
AcDbEntity
  8
SUNPOU
 62
     0
100
AcDbTrace
 10
993.6489345576023
 20
3438.564145216644
 30
0.0
 11
1006.982267890936
 21
3438.564145216644
 31
0.0
 12
1000.315601224269
 22
3478.564145216644
 32
0.0
 13
1000.315601224269
 23
3478.564145216644
 33
0.0
  0
SOLID
  5
1598
330
AEB
100
AcDbEntity
  8
SUNPOU
 62
     0
100
AcDbTrace
 10
993.6489345576023
 20
3628.564145216644
 30
0.0
 11
1006.982267890936
 21
3628.564145216644
 31
0.0
 12
1000.315601224269
 22
3588.564145216644
 32
0.0
 13
1000.315601224269
 23
3588.564145216644
 33
0.0
  0
MTEXT
  5
1599
330
AEB
100
AcDbEntity
  8
SUNPOU
 62
     0
100
AcDbMText
 10
954.3156012242683
 20
3533.564145216644
 30
0.0
 40
60.0
 41
0.0
 71
     5
 72
     1
  1
\A1;110
 11
6.123031769111886E-17
 21
1.0
 31
0.0
 73
     1
 44
1.0
  0
POINT
  5
159A
330
AEB
100
AcDbEntity
  8
DEFPOINTS
 62
     0
100
AcDbPoint
 10
1465.117202579266
 20
3478.564145216644
 30
0.0
  0
POINT
  5
159B
330
AEB
100
AcDbEntity
  8
DEFPOINTS
 62
     0
100
AcDbPoint
 10
1465.117202579266
 20
3588.564145216644
 30
0.0
  0
POINT
  5
159C
330
AEB
100
AcDbEntity
  8
DEFPOINTS
 62
     0
100
AcDbPoint
 10
1000.315601224269
 20
3588.564145216644
 30
0.0
  0
ENDBLK
  5
AF6
330
AEB
100
AcDbEntity
  8
0
100
AcDbBlockEnd
  0
BLOCK
  5
B01
330
AF7
100
AcDbEntity
  8
0
100
AcDbBlockBegin
  2
*D4
 70
     1
 10
0.0
 20
0.0
 30
0.0
  3
*D4
  1

  0
LINE
  5
159D
330
AF7
100
AcDbEntity
  8
SUNPOU
 62
     0
370
    -2
100
AcDbLine
 10
1425.117202579266
 20
4478.564145216644
 30
0.0
 11
990.3156012242691
 21
4478.564145216644
 31
0.0
  0
LINE
  5
159E
330
AF7
100
AcDbEntity
  8
SUNPOU
 62
     0
370
    -2
100
AcDbLine
 10
1425.117202579266
 20
3588.564145216644
 30
0.0
 11
990.3156012242689
 21
3588.564145216644
 31
0.0
  0
LINE
  5
159F
330
AF7
100
AcDbEntity
  8
SUNPOU
 62
     0
370
    -2
100
AcDbLine
 10
1000.315601224269
 20
4438.564145216644
 30
0.0
 11
1000.315601224269
 21
3628.564145216644
 31
0.0
  0
SOLID
  5
15A0
330
AF7
100
AcDbEntity
  8
SUNPOU
 62
     0
100
AcDbTrace
 10
993.6489345576025
 20
4438.564145216644
 30
0.0
 11
1006.982267890936
 21
4438.564145216644
 31
0.0
 12
1000.315601224269
 22
4478.564145216644
 32
0.0
 13
1000.315601224269
 23
4478.564145216644
 33
0.0
  0
SOLID
  5
15A1
330
AF7
100
AcDbEntity
  8
SUNPOU
 62
     0
100
AcDbTrace
 10
993.6489345576023
 20
3628.564145216644
 30
0.0
 11
1006.982267890936
 21
3628.564145216644
 31
0.0
 12
1000.315601224269
 22
3588.564145216644
 32
0.0
 13
1000.315601224269
 23
3588.564145216644
 33
0.0
  0
MTEXT
  5
15A2
330
AF7
100
AcDbEntity
  8
SUNPOU
 62
     0
100
AcDbMText
 10
954.3156012242683
 20
4033.564145216644
 30
0.0
 40
60.0
 41
0.0
 71
     5
 72
     1
  1
\A1;890
 11
6.123031769111886E-17
 21
1.0
 31
0.0
 73
     1
 44
1.0
  0
POINT
  5
15A3
330
AF7
100
AcDbEntity
  8
DEFPOINTS
 62
     0
100
AcDbPoint
 10
1465.117202579266
 20
4478.564145216644
 30
0.0
  0
POINT
  5
15A4
330
AF7
100
AcDbEntity
  8
DEFPOINTS
 62
     0
100
AcDbPoint
 10
1465.117202579266
 20
3588.564145216644
 30
0.0
  0
POINT
  5
15A5
330
AF7
100
AcDbEntity
  8
DEFPOINTS
 62
     0
100
AcDbPoint
 10
1000.315601224269
 20
3588.564145216644
 30
0.0
  0
ENDBLK
  5
B02
330
AF7
100
AcDbEntity
  8
0
100
AcDbBlockEnd
  0
BLOCK
  5
B0D
330
B03
100
AcDbEntity
  8
0
100
AcDbBlockBegin
  2
*D5
 70
     1
 10
0.0
 20
0.0
 30
0.0
  3
*D5
  1

  0
LINE
  5
15A6
330
B03
100
AcDbEntity
  8
SUNPOU
 62
     0
370
    -2
100
AcDbLine
 10
1425.117202579266
 20
3478.564145216644
 30
0.0
 11
1203.029417450354
 21
3478.564145216644
 31
0.0
  0
LINE
  5
15A7
330
B03
100
AcDbEntity
  8
SUNPOU
 62
     0
370
    -2
100
AcDbLine
 10
1374.808335257334
 20
3878.564145216644
 30
0.0
 11
1203.029417450354
 21
3878.564145216644
 31
0.0
  0
LINE
  5
15A8
330
B03
100
AcDbEntity
  8
SUNPOU
 62
     0
370
    -2
100
AcDbLine
 10
1213.029417450354
 20
3518.564145216644
 30
0.0
 11
1213.029417450354
 21
3838.564145216644
 31
0.0
  0
SOLID
  5
15A9
330
B03
100
AcDbEntity
  8
SUNPOU
 62
     0
100
AcDbTrace
 10
1206.362750783687
 20
3518.564145216644
 30
0.0
 11
1219.696084117021
 21
3518.564145216644
 31
0.0
 12
1213.029417450354
 22
3478.564145216644
 32
0.0
 13
1213.029417450354
 23
3478.564145216644
 33
0.0
  0
SOLID
  5
15AA
330
B03
100
AcDbEntity
  8
SUNPOU
 62
     0
100
AcDbTrace
 10
1206.362750783687
 20
3838.564145216644
 30
0.0
 11
1219.696084117021
 21
3838.564145216644
 31
0.0
 12
1213.029417450354
 22
3878.564145216644
 32
0.0
 13
1213.029417450354
 23
3878.564145216644
 33
0.0
  0
MTEXT
  5
15AB
330
B03
100
AcDbEntity
  8
SUNPOU
 62
     0
100
AcDbMText
 10
1167.029417450354
 20
3678.564145216644
 30
0.0
 40
60.0
 41
0.0
 71
     5
 72
     1
  1
\A1;400
 11
6.123031769111886E-17
 21
1.0
 31
0.0
 73
     1
 44
1.0
  0
POINT
  5
15AC
330
B03
100
AcDbEntity
  8
DEFPOINTS
 62
     0
100
AcDbPoint
 10
1465.117202579266
 20
3478.564145216644
 30
0.0
  0
POINT
  5
15AD
330
B03
100
AcDbEntity
  8
DEFPOINTS
 62
     0
100
AcDbPoint
 10
1414.808335257334
 20
3878.564145216644
 30
0.0
  0
POINT
  5
15AE
330
B03
100
AcDbEntity
  8
DEFPOINTS
 62
     0
100
AcDbPoint
 10
1213.029417450354
 20
3878.564145216644
 30
0.0
  0
ENDBLK
  5
B0E
330
B03
100
AcDbEntity
  8
0
100
AcDbBlockEnd
  0
BLOCK
  5
B26
330
B1B
100
AcDbEntity
  8
0
100
AcDbBlockBegin
  2
*D6
 70
     1
 10
0.0
 20
0.0
 30
0.0
  3
*D6
  1

  0
LINE
  5
15AF
330
B1B
100
AcDbEntity
  8
SUNPOU
 62
     0
370
    -2
100
AcDbLine
 10
2355.117202579266
 20
3478.564145216646
 30
0.0
 11
2625.117202579266
 21
3478.564145216646
 31
0.0
  0
LINE
  5
15B0
330
B1B
100
AcDbEntity
  8
SUNPOU
 62
     0
370
    -2
100
AcDbLine
 10
2355.117202579266
 20
3551.689145216645
 30
0.0
 11
2625.117202579266
 21
3551.689145216645
 31
0.0
  0
LINE
  5
15B1
330
B1B
100
AcDbEntity
  8
SUNPOU
 62
     0
370
    -2
100
AcDbLine
 10
2615.117202579266
 20
3438.564145216646
 30
0.0
 11
2615.117202579266
 21
3398.564145216646
 31
0.0
  0
LINE
  5
15B2
330
B1B
100
AcDbEntity
  8
SUNPOU
 62
     0
370
    -2
100
AcDbLine
 10
2615.117202579266
 20
3591.689145216645
 30
0.0
 11
2615.117202579266
 21
3631.689145216645
 31
0.0
  0
SOLID
  5
15B3
330
B1B
100
AcDbEntity
  8
SUNPOU
 62
     0
100
AcDbTrace
 10
2608.450535912599
 20
3438.564145216646
 30
0.0
 11
2621.783869245932
 21
3438.564145216646
 31
0.0
 12
2615.117202579266
 22
3478.564145216646
 32
0.0
 13
2615.117202579266
 23
3478.564145216646
 33
0.0
  0
SOLID
  5
15B4
330
B1B
100
AcDbEntity
  8
SUNPOU
 62
     0
100
AcDbTrace
 10
2608.450535912599
 20
3591.689145216645
 30
0.0
 11
2621.783869245932
 21
3591.689145216645
 31
0.0
 12
2615.117202579266
 22
3551.689145216645
 32
0.0
 13
2615.117202579266
 23
3551.689145216645
 33
0.0
  0
MTEXT
  5
15B5
330
B1B
100
AcDbEntity
  8
SUNPOU
 62
     0
100
AcDbMText
 10
2569.117202579265
 20
3515.126645216646
 30
0.0
 40
60.0
 41
0.0
 71
     5
 72
     1
  1
\A1;73
 11
6.123031769111886E-17
 21
1.0
 31
0.0
 73
     1
 44
1.0
  0
POINT
  5
15B6
330
B1B
100
AcDbEntity
  8
DEFPOINTS
 62
     0
100
AcDbPoint
 10
2315.117202579266
 20
3478.564145216646
 30
0.0
  0
POINT
  5
15B7
330
B1B
100
AcDbEntity
  8
DEFPOINTS
 62
     0
100
AcDbPoint
 10
2315.117202579266
 20
3551.689145216645
 30
0.0
  0
POINT
  5
15B8
330
B1B
100
AcDbEntity
  8
DEFPOINTS
 62
     0
100
AcDbPoint
 10
2615.117202579266
 20
3551.689145216645
 30
0.0
  0
ENDBLK
  5
B27
330
B1B
100
AcDbEntity
  8
0
100
AcDbBlockEnd
  0
BLOCK
  5
B32
330
B28
100
AcDbEntity
  8
0
100
AcDbBlockBegin
  2
*D7
 70
     1
 10
0.0
 20
0.0
 30
0.0
  3
*D7
  1

  0
LINE
  5
15B9
330
B28
100
AcDbEntity
  8
SUNPOU
 62
     0
370
    -2
100
AcDbLine
 10
1575.117202579266
 20
4478.564145216644
 30
0.0
 11
2625.117202579266
 21
4478.564145216643
 31
0.0
  0
LINE
  5
15BA
330
B28
100
AcDbEntity
  8
SUNPOU
 62
     0
370
    -2
100
AcDbLine
 10
1575.117202579266
 20
4168.564145216644
 30
0.0
 11
2625.117202579266
 21
4168.564145216643
 31
0.0
  0
LINE
  5
15BB
330
B28
100
AcDbEntity
  8
SUNPOU
 62
     0
370
    -2
100
AcDbLine
 10
2615.117202579266
 20
4438.564145216643
 30
0.0
 11
2615.117202579266
 21
4208.564145216643
 31
0.0
  0
SOLID
  5
15BC
330
B28
100
AcDbEntity
  8
SUNPOU
 62
     0
100
AcDbTrace
 10
2608.450535912599
 20
4438.564145216643
 30
0.0
 11
2621.783869245932
 21
4438.564145216643
 31
0.0
 12
2615.117202579266
 22
4478.564145216643
 32
0.0
 13
2615.117202579266
 23
4478.564145216643
 33
0.0
  0
SOLID
  5
15BD
330
B28
100
AcDbEntity
  8
SUNPOU
 62
     0
100
AcDbTrace
 10
2608.450535912599
 20
4208.564145216643
 30
0.0
 11
2621.783869245932
 21
4208.564145216643
 31
0.0
 12
2615.117202579266
 22
4168.564145216643
 32
0.0
 13
2615.117202579266
 23
4168.564145216643
 33
0.0
  0
MTEXT
  5
15BE
330
B28
100
AcDbEntity
  8
SUNPOU
 62
     0
100
AcDbMText
 10
2569.117202579265
 20
4323.564145216644
 30
0.0
 40
60.0
 41
0.0
 71
     5
 72
     1
  1
\A1;310
 11
6.123031769111886E-17
 21
1.0
 31
0.0
 73
     1
 44
1.0
  0
POINT
  5
15BF
330
B28
100
AcDbEntity
  8
DEFPOINTS
 62
     0
100
AcDbPoint
 10
1535.117202579266
 20
4478.564145216644
 30
0.0
  0
POINT
  5
15C0
330
B28
100
AcDbEntity
  8
DEFPOINTS
 62
     0
100
AcDbPoint
 10
1535.117202579266
 20
4168.564145216644
 30
0.0
  0
POINT
  5
15C1
330
B28
100
AcDbEntity
  8
DEFPOINTS
 62
     0
100
AcDbPoint
 10
2615.117202579266
 20
4168.564145216643
 30
0.0
  0
ENDBLK
  5
B33
330
B28
100
AcDbEntity
  8
0
100
AcDbBlockEnd
  0
BLOCK
  5
B3E
330
B34
100
AcDbEntity
  8
0
100
AcDbBlockBegin
  2
*D8
 70
     1
 10
0.0
 20
0.0
 30
0.0
  3
*D8
  1

  0
LINE
  5
15C2
330
B34
100
AcDbEntity
  8
SUNPOU
 62
     0
370
    -2
100
AcDbLine
 10
1615.117202579266
 20
4168.564145216644
 30
0.0
 11
2625.117202579266
 21
4168.564145216643
 31
0.0
  0
LINE
  5
15C3
330
B34
100
AcDbEntity
  8
SUNPOU
 62
     0
370
    -2
100
AcDbLine
 10
2355.117202579266
 20
3551.689145216645
 30
0.0
 11
2625.117202579266
 21
3551.689145216645
 31
0.0
  0
LINE
  5
15C4
330
B34
100
AcDbEntity
  8
SUNPOU
 62
     0
370
    -2
100
AcDbLine
 10
2615.117202579266
 20
4128.564145216643
 30
0.0
 11
2615.117202579266
 21
3591.689145216645
 31
0.0
  0
SOLID
  5
15C5
330
B34
100
AcDbEntity
  8
SUNPOU
 62
     0
100
AcDbTrace
 10
2608.450535912599
 20
4128.564145216643
 30
0.0
 11
2621.783869245932
 21
4128.564145216643
 31
0.0
 12
2615.117202579266
 22
4168.564145216643
 32
0.0
 13
2615.117202579266
 23
4168.564145216643
 33
0.0
  0
SOLID
  5
15C6
330
B34
100
AcDbEntity
  8
SUNPOU
 62
     0
100
AcDbTrace
 10
2608.450535912599
 20
3591.689145216645
 30
0.0
 11
2621.783869245932
 21
3591.689145216645
 31
0.0
 12
2615.117202579266
 22
3551.689145216645
 32
0.0
 13
2615.117202579266
 23
3551.689145216645
 33
0.0
  0
MTEXT
  5
15C7
330
B34
100
AcDbEntity
  8
SUNPOU
 62
     0
100
AcDbMText
 10
2569.117202579265
 20
3860.126645216645
 30
0.0
 40
60.0
 41
0.0
 71
     5
 72
     1
  1
\A1;617
 11
6.123031769111886E-17
 21
1.0
 31
0.0
 73
     1
 44
1.0
  0
POINT
  5
15C8
330
B34
100
AcDbEntity
  8
DEFPOINTS
 62
     0
100
AcDbPoint
 10
1575.117202579266
 20
4168.564145216644
 30
0.0
  0
POINT
  5
15C9
330
B34
100
AcDbEntity
  8
DEFPOINTS
 62
     0
100
AcDbPoint
 10
2315.117202579266
 20
3551.689145216645
 30
0.0
  0
POINT
  5
15CA
330
B34
100
AcDbEntity
  8
DEFPOINTS
 62
     0
100
AcDbPoint
 10
2615.117202579266
 20
3551.689145216645
 30
0.0
  0
ENDBLK
  5
B3F
330
B34
100
AcDbEntity
  8
0
100
AcDbBlockEnd
  0
BLOCK
  5
B4A
330
B40
100
AcDbEntity
  8
0
100
AcDbBlockBegin
  2
*D9
 70
     1
 10
0.0
 20
0.0
 30
0.0
  3
*D9
  1

  0
LINE
  5
15CB
330
B40
100
AcDbEntity
  8
SUNPOU
 62
     0
370
    -2
100
AcDbLine
 10
1465.117202579266
 20
3438.564145216644
 30
0.0
 11
1465.117202579266
 21
3022.487464631578
 31
0.0
  0
LINE
  5
15CC
330
B40
100
AcDbEntity
  8
SUNPOU
 62
     0
370
    -2
100
AcDbLine
 10
2315.117202579266
 20
3438.564145216644
 30
0.0
 11
2315.117202579266
 21
3022.487464631578
 31
0.0
  0
LINE
  5
15CD
330
B40
100
AcDbEntity
  8
SUNPOU
 62
     0
370
    -2
100
AcDbLine
 10
1505.117202579266
 20
3032.487464631578
 30
0.0
 11
2275.117202579266
 21
3032.487464631578
 31
0.0
  0
SOLID
  5
15CE
330
B40
100
AcDbEntity
  8
SUNPOU
 62
     0
100
AcDbTrace
 10
1505.117202579266
 20
3039.154131298245
 30
0.0
 11
1505.117202579266
 21
3025.820797964912
 31
0.0
 12
1465.117202579266
 22
3032.487464631578
 32
0.0
 13
1465.117202579266
 23
3032.487464631578
 33
0.0
  0
SOLID
  5
15CF
330
B40
100
AcDbEntity
  8
SUNPOU
 62
     0
100
AcDbTrace
 10
2275.117202579266
 20
3039.154131298245
 30
0.0
 11
2275.117202579266
 21
3025.820797964912
 31
0.0
 12
2315.117202579266
 22
3032.487464631578
 32
0.0
 13
2315.117202579266
 23
3032.487464631578
 33
0.0
  0
MTEXT
  5
15D0
330
B40
100
AcDbEntity
  8
SUNPOU
 62
     0
100
AcDbMText
 10
1890.117202579266
 20
3078.487464631578
 30
0.0
 40
60.0
 41
0.0
 71
     5
 72
     1
  1
\A1;850
 73
     1
 44
1.0
  0
POINT
  5
15D1
330
B40
100
AcDbEntity
  8
DEFPOINTS
 62
     0
100
AcDbPoint
 10
1465.117202579266
 20
3478.564145216644
 30
0.0
  0
POINT
  5
15D2
330
B40
100
AcDbEntity
  8
DEFPOINTS
 62
     0
100
AcDbPoint
 10
2315.117202579266
 20
3478.564145216644
 30
0.0
  0
POINT
  5
15D3
330
B40
100
AcDbEntity
  8
DEFPOINTS
 62
     0
100
AcDbPoint
 10
2315.117202579266
 20
3032.487464631578
 30
0.0
  0
ENDBLK
  5
B4B
330
B40
100
AcDbEntity
  8
0
100
AcDbBlockEnd
  0
BLOCK
  5
B56
330
B4C
100
AcDbEntity
  8
0
100
AcDbBlockBegin
  2
*D10
 70
     1
 10
0.0
 20
0.0
 30
0.0
  3
*D10
  1

  0
LINE
  5
15D4
330
B4C
100
AcDbEntity
  8
SUNPOU
 62
     0
370
    -2
100
AcDbLine
 10
1465.117202579266
 20
3438.564145216644
 30
0.0
 11
1465.117202579266
 21
3155.952129746465
 31
0.0
  0
LINE
  5
15D5
330
B4C
100
AcDbEntity
  8
SUNPOU
 62
     0
370
    -2
100
AcDbLine
 10
1575.117202579266
 20
3438.564145216644
 30
0.0
 11
1575.117202579266
 21
3155.952129746465
 31
0.0
  0
LINE
  5
15D6
330
B4C
100
AcDbEntity
  8
SUNPOU
 62
     0
370
    -2
100
AcDbLine
 10
1425.117202579266
 20
3165.952129746465
 30
0.0
 11
1385.117202579266
 21
3165.952129746465
 31
0.0
  0
LINE
  5
15D7
330
B4C
100
AcDbEntity
  8
SUNPOU
 62
     0
370
    -2
100
AcDbLine
 10
1615.117202579266
 20
3165.952129746465
 30
0.0
 11
1655.117202579266
 21
3165.952129746465
 31
0.0
  0
SOLID
  5
15D8
330
B4C
100
AcDbEntity
  8
SUNPOU
 62
     0
100
AcDbTrace
 10
1425.117202579266
 20
3172.618796413132
 30
0.0
 11
1425.117202579266
 21
3159.285463079799
 31
0.0
 12
1465.117202579266
 22
3165.952129746465
 32
0.0
 13
1465.117202579266
 23
3165.952129746465
 33
0.0
  0
SOLID
  5
15D9
330
B4C
100
AcDbEntity
  8
SUNPOU
 62
     0
100
AcDbTrace
 10
1615.117202579266
 20
3172.618796413132
 30
0.0
 11
1615.117202579266
 21
3159.285463079799
 31
0.0
 12
1575.117202579266
 22
3165.952129746465
 32
0.0
 13
1575.117202579266
 23
3165.952129746465
 33
0.0
  0
MTEXT
  5
15DA
330
B4C
100
AcDbEntity
  8
SUNPOU
 62
     0
100
AcDbMText
 10
1520.117202579266
 20
3211.952129746465
 30
0.0
 40
60.0
 41
0.0
 71
     5
 72
     1
  1
\A1;110
 73
     1
 44
1.0
  0
POINT
  5
15DB
330
B4C
100
AcDbEntity
  8
DEFPOINTS
 62
     0
100
AcDbPoint
 10
1465.117202579266
 20
3478.564145216644
 30
0.0
  0
POINT
  5
15DC
330
B4C
100
AcDbEntity
  8
DEFPOINTS
 62
     0
100
AcDbPoint
 10
1575.117202579266
 20
3478.564145216644
 30
0.0
  0
POINT
  5
15DD
330
B4C
100
AcDbEntity
  8
DEFPOINTS
 62
     0
100
AcDbPoint
 10
1575.117202579266
 20
3165.952129746465
 30
0.0
  0
ENDBLK
  5
B57
330
B4C
100
AcDbEntity
  8
0
100
AcDbBlockEnd
  0
BLOCK
  5
B62
330
B58
100
AcDbEntity
  8
0
100
AcDbBlockBegin
  2
*D11
 70
     1
 10
0.0
 20
0.0
 30
0.0
  3
*D11
  1

  0
LINE
  5
15DE
330
B58
100
AcDbEntity
  8
SUNPOU
 62
     0
370
    -2
100
AcDbLine
 10
1575.117202579266
 20
3438.564145216644
 30
0.0
 11
1575.117202579266
 21
3155.952129746465
 31
0.0
  0
LINE
  5
15DF
330
B58
100
AcDbEntity
  8
SUNPOU
 62
     0
370
    -2
100
AcDbLine
 10
2315.117202579266
 20
3438.564145216644
 30
0.0
 11
2315.117202579266
 21
3155.952129746465
 31
0.0
  0
LINE
  5
15E0
330
B58
100
AcDbEntity
  8
SUNPOU
 62
     0
370
    -2
100
AcDbLine
 10
1615.117202579266
 20
3165.952129746465
 30
0.0
 11
2275.117202579266
 21
3165.952129746465
 31
0.0
  0
SOLID
  5
15E1
330
B58
100
AcDbEntity
  8
SUNPOU
 62
     0
100
AcDbTrace
 10
1615.117202579266
 20
3172.618796413132
 30
0.0
 11
1615.117202579266
 21
3159.285463079799
 31
0.0
 12
1575.117202579266
 22
3165.952129746465
 32
0.0
 13
1575.117202579266
 23
3165.952129746465
 33
0.0
  0
SOLID
  5
15E2
330
B58
100
AcDbEntity
  8
SUNPOU
 62
     0
100
AcDbTrace
 10
2275.117202579266
 20
3172.618796413132
 30
0.0
 11
2275.117202579266
 21
3159.285463079799
 31
0.0
 12
2315.117202579266
 22
3165.952129746465
 32
0.0
 13
2315.117202579266
 23
3165.952129746465
 33
0.0
  0
MTEXT
  5
15E3
330
B58
100
AcDbEntity
  8
SUNPOU
 62
     0
100
AcDbMText
 10
1945.117202579266
 20
3211.952129746465
 30
0.0
 40
60.0
 41
0.0
 71
     5
 72
     1
  1
\A1;740
 73
     1
 44
1.0
  0
POINT
  5
15E4
330
B58
100
AcDbEntity
  8
DEFPOINTS
 62
     0
100
AcDbPoint
 10
1575.117202579266
 20
3478.564145216644
 30
0.0
  0
POINT
  5
15E5
330
B58
100
AcDbEntity
  8
DEFPOINTS
 62
     0
100
AcDbPoint
 10
2315.117202579266
 20
3478.564145216644
 30
0.0
  0
POINT
  5
15E6
330
B58
100
AcDbEntity
  8
DEFPOINTS
 62
     0
100
AcDbPoint
 10
2315.117202579266
 20
3165.952129746465
 30
0.0
  0
ENDBLK
  5
B63
330
B58
100
AcDbEntity
  8
0
100
AcDbBlockEnd
  0
BLOCK
  5
B6F
330
B64
100
AcDbEntity
  8
0
100
AcDbBlockBegin
  2
*D12
 70
     1
 10
0.0
 20
0.0
 30
0.0
  3
*D12
  1

  0
LINE
  5
15E7
330
B64
100
AcDbEntity
  8
SUNPOU
 62
     0
370
    -2
100
AcDbLine
 10
1465.117202579266
 20
4518.564145216644
 30
0.0
 11
1465.117202579266
 21
4788.564145216644
 31
0.0
  0
LINE
  5
15E8
330
B64
100
AcDbEntity
  8
SUNPOU
 62
     0
370
    -2
100
AcDbLine
 10
1535.117202579266
 20
4518.564145216644
 30
0.0
 11
1535.117202579266
 21
4788.564145216644
 31
0.0
  0
LINE
  5
15E9
330
B64
100
AcDbEntity
  8
SUNPOU
 62
     0
370
    -2
100
AcDbLine
 10
1425.117202579266
 20
4778.564145216644
 30
0.0
 11
1385.117202579266
 21
4778.564145216644
 31
0.0
  0
LINE
  5
15EA
330
B64
100
AcDbEntity
  8
SUNPOU
 62
     0
370
    -2
100
AcDbLine
 10
1575.117202579266
 20
4778.564145216644
 30
0.0
 11
1615.117202579266
 21
4778.564145216644
 31
0.0
  0
SOLID
  5
15EB
330
B64
100
AcDbEntity
  8
SUNPOU
 62
     0
100
AcDbTrace
 10
1425.117202579266
 20
4785.230811883311
 30
0.0
 11
1425.117202579266
 21
4771.897478549977
 31
0.0
 12
1465.117202579266
 22
4778.564145216644
 32
0.0
 13
1465.117202579266
 23
4778.564145216644
 33
0.0
  0
SOLID
  5
15EC
330
B64
100
AcDbEntity
  8
SUNPOU
 62
     0
100
AcDbTrace
 10
1575.117202579266
 20
4785.230811883311
 30
0.0
 11
1575.117202579266
 21
4771.897478549977
 31
0.0
 12
1535.117202579266
 22
4778.564145216644
 32
0.0
 13
1535.117202579266
 23
4778.564145216644
 33
0.0
  0
MTEXT
  5
15ED
330
B64
100
AcDbEntity
  8
SUNPOU
 62
     0
100
AcDbMText
 10
1500.117202579266
 20
4824.564145216644
 30
0.0
 40
60.0
 41
0.0
 71
     5
 72
     1
  1
\A1;70
 73
     1
 44
1.0
  0
POINT
  5
15EE
330
B64
100
AcDbEntity
  8
DEFPOINTS
 62
     0
100
AcDbPoint
 10
1465.117202579266
 20
4478.564145216644
 30
0.0
  0
POINT
  5
15EF
330
B64
100
AcDbEntity
  8
DEFPOINTS
 62
     0
100
AcDbPoint
 10
1535.117202579266
 20
4478.564145216644
 30
0.0
  0
POINT
  5
15F0
330
B64
100
AcDbEntity
  8
DEFPOINTS
 62
     0
100
AcDbPoint
 10
1535.117202579266
 20
4778.564145216644
 30
0.0
  0
ENDBLK
  5
B70
330
B64
100
AcDbEntity
  8
0
100
AcDbBlockEnd
  0
BLOCK
  5
BA2
330
B98
100
AcDbEntity
  8
0
100
AcDbBlockBegin
  2
*D13
 70
     1
 10
0.0
 20
0.0
 30
0.0
  3
*D13
  1

  0
LINE
  5
15F1
330
B98
100
AcDbEntity
  8
SUNPOU
 62
     0
370
    -2
100
AcDbLine
 10
3743.078958976643
 20
4518.564145216644
 30
0.0
 11
3743.078958976643
 21
4926.59578949422
 31
0.0
  0
LINE
  5
15F2
330
B98
100
AcDbEntity
  8
SUNPOU
 62
     0
370
    -2
100
AcDbLine
 10
5743.078958976643
 20
4518.564145216644
 30
0.0
 11
5743.078958976643
 21
4926.59578949422
 31
0.0
  0
LINE
  5
15F3
330
B98
100
AcDbEntity
  8
SUNPOU
 62
     0
370
    -2
100
AcDbLine
 10
3783.078958976643
 20
4916.59578949422
 30
0.0
 11
5703.078958976643
 21
4916.59578949422
 31
0.0
  0
SOLID
  5
15F4
330
B98
100
AcDbEntity
  8
SUNPOU
 62
     0
100
AcDbTrace
 10
3783.078958976643
 20
4923.262456160887
 30
0.0
 11
3783.078958976643
 21
4909.929122827553
 31
0.0
 12
3743.078958976643
 22
4916.59578949422
 32
0.0
 13
3743.078958976643
 23
4916.59578949422
 33
0.0
  0
SOLID
  5
15F5
330
B98
100
AcDbEntity
  8
SUNPOU
 62
     0
100
AcDbTrace
 10
5703.078958976643
 20
4923.262456160887
 30
0.0
 11
5703.078958976643
 21
4909.929122827553
 31
0.0
 12
5743.078958976643
 22
4916.59578949422
 32
0.0
 13
5743.078958976643
 23
4916.59578949422
 33
0.0
  0
MTEXT
  5
15F6
330
B98
100
AcDbEntity
  8
SUNPOU
 62
     0
100
AcDbMText
 10
4743.078958976643
 20
4962.59578949422
 30
0.0
 40
60.0
 41
0.0
 71
     5
 72
     1
  1
\A1;2000
 73
     1
 44
1.0
  0
POINT
  5
15F7
330
B98
100
AcDbEntity
  8
DEFPOINTS
 62
     0
100
AcDbPoint
 10
3743.078958976643
 20
4478.564145216644
 30
0.0
  0
POINT
  5
15F8
330
B98
100
AcDbEntity
  8
DEFPOINTS
 62
     0
100
AcDbPoint
 10
5743.078958976643
 20
4478.564145216644
 30
0.0
  0
POINT
  5
15F9
330
B98
100
AcDbEntity
  8
DEFPOINTS
 62
     0
100
AcDbPoint
 10
5743.078958976643
 20
4916.59578949422
 30
0.0
  0
ENDBLK
  5
BA3
330
B98
100
AcDbEntity
  8
0
100
AcDbBlockEnd
  0
BLOCK
  5
BEE
330
BE4
100
AcDbEntity
  8
0
100
AcDbBlockBegin
  2
*D14
 70
     1
 10
0.0
 20
0.0
 30
0.0
  3
*D14
  1

  0
LINE
  5
15FA
330
BE4
100
AcDbEntity
  8
SUNPOU
 62
     0
370
    -2
100
AcDbLine
 10
3703.078958976643
 20
3478.564145216644
 30
0.0
 11
3414.565824734116
 21
3478.564145216644
 31
0.0
  0
LINE
  5
15FB
330
BE4
100
AcDbEntity
  8
SUNPOU
 62
     0
370
    -2
100
AcDbLine
 10
3703.078958976643
 20
3878.564145216644
 30
0.0
 11
3414.565824734116
 21
3878.564145216644
 31
0.0
  0
LINE
  5
15FC
330
BE4
100
AcDbEntity
  8
SUNPOU
 62
     0
370
    -2
100
AcDbLine
 10
3424.565824734116
 20
3518.564145216644
 30
0.0
 11
3424.565824734116
 21
3838.564145216644
 31
0.0
  0
SOLID
  5
15FD
330
BE4
100
AcDbEntity
  8
SUNPOU
 62
     0
100
AcDbTrace
 10
3417.89915806745
 20
3518.564145216644
 30
0.0
 11
3431.232491400783
 21
3518.564145216644
 31
0.0
 12
3424.565824734116
 22
3478.564145216644
 32
0.0
 13
3424.565824734116
 23
3478.564145216644
 33
0.0
  0
SOLID
  5
15FE
330
BE4
100
AcDbEntity
  8
SUNPOU
 62
     0
100
AcDbTrace
 10
3417.89915806745
 20
3838.564145216644
 30
0.0
 11
3431.232491400783
 21
3838.564145216644
 31
0.0
 12
3424.565824734116
 22
3878.564145216644
 32
0.0
 13
3424.565824734116
 23
3878.564145216644
 33
0.0
  0
MTEXT
  5
15FF
330
BE4
100
AcDbEntity
  8
SUNPOU
 62
     0
100
AcDbMText
 10
3378.565824734115
 20
3678.564145216645
 30
0.0
 40
60.0
 41
0.0
 71
     5
 72
     1
  1
\A1;400
 11
6.123031769111886E-17
 21
1.0
 31
0.0
 73
     1
 44
1.0
  0
POINT
  5
1600
330
BE4
100
AcDbEntity
  8
DEFPOINTS
 62
     0
100
AcDbPoint
 10
3743.078958976643
 20
3478.564145216644
 30
0.0
  0
POINT
  5
1601
330
BE4
100
AcDbEntity
  8
DEFPOINTS
 62
     0
100
AcDbPoint
 10
3743.078958976643
 20
3878.564145216644
 30
0.0
  0
POINT
  5
1602
330
BE4
100
AcDbEntity
  8
DEFPOINTS
 62
     0
100
AcDbPoint
 10
3424.565824734116
 20
3878.564145216644
 30
0.0
  0
ENDBLK
  5
BEF
330
BE4
100
AcDbEntity
  8
0
100
AcDbBlockEnd
  0
BLOCK
  5
BFA
330
BF0
100
AcDbEntity
  8
0
100
AcDbBlockBegin
  2
*D15
 70
     1
 10
0.0
 20
0.0
 30
0.0
  3
*D15
  1

  0
LINE
  5
1603
330
BF0
100
AcDbEntity
  8
SUNPOU
 62
     0
370
    -2
100
AcDbLine
 10
3703.078958976643
 20
4478.564145216644
 30
0.0
 11
3286.546799191627
 21
4478.564145216644
 31
0.0
  0
LINE
  5
1604
330
BF0
100
AcDbEntity
  8
SUNPOU
 62
     0
370
    -2
100
AcDbLine
 10
3703.078958976643
 20
3478.564145216644
 30
0.0
 11
3286.546799191627
 21
3478.564145216644
 31
0.0
  0
LINE
  5
1605
330
BF0
100
AcDbEntity
  8
SUNPOU
 62
     0
370
    -2
100
AcDbLine
 10
3296.546799191627
 20
4438.564145216644
 30
0.0
 11
3296.546799191627
 21
3518.564145216644
 31
0.0
  0
SOLID
  5
1606
330
BF0
100
AcDbEntity
  8
SUNPOU
 62
     0
100
AcDbTrace
 10
3289.88013252496
 20
4438.564145216644
 30
0.0
 11
3303.213465858293
 21
4438.564145216644
 31
0.0
 12
3296.546799191627
 22
4478.564145216644
 32
0.0
 13
3296.546799191627
 23
4478.564145216644
 33
0.0
  0
SOLID
  5
1607
330
BF0
100
AcDbEntity
  8
SUNPOU
 62
     0
100
AcDbTrace
 10
3289.88013252496
 20
3518.564145216644
 30
0.0
 11
3303.213465858293
 21
3518.564145216644
 31
0.0
 12
3296.546799191627
 22
3478.564145216644
 32
0.0
 13
3296.546799191627
 23
3478.564145216644
 33
0.0
  0
MTEXT
  5
1608
330
BF0
100
AcDbEntity
  8
SUNPOU
 62
     0
100
AcDbMText
 10
3250.546799191626
 20
3978.564145216645
 30
0.0
 40
60.0
 41
0.0
 71
     5
 72
     1
  1
\A1;1000
 11
6.123031769111886E-17
 21
1.0
 31
0.0
 73
     1
 44
1.0
  0
POINT
  5
1609
330
BF0
100
AcDbEntity
  8
DEFPOINTS
 62
     0
100
AcDbPoint
 10
3743.078958976643
 20
4478.564145216644
 30
0.0
  0
POINT
  5
160A
330
BF0
100
AcDbEntity
  8
DEFPOINTS
 62
     0
100
AcDbPoint
 10
3743.078958976643
 20
3478.564145216644
 30
0.0
  0
POINT
  5
160B
330
BF0
100
AcDbEntity
  8
DEFPOINTS
 62
     0
100
AcDbPoint
 10
3296.546799191627
 20
3478.564145216644
 30
0.0
  0
ENDBLK
  5
BFB
330
BF0
100
AcDbEntity
  8
0
100
AcDbBlockEnd
  0
BLOCK
  5
C06
330
BFC
100
AcDbEntity
  8
0
100
AcDbBlockBegin
  2
*D16
 70
     1
 10
0.0
 20
0.0
 30
0.0
  3
*D16
  1

  0
LINE
  5
160C
330
BFC
100
AcDbEntity
  8
SUNPOU
 62
     0
370
    -2
100
AcDbLine
 10
3703.078958976643
 20
4478.564145216644
 30
0.0
 11
3414.565824734116
 21
4478.564145216644
 31
0.0
  0
LINE
  5
160D
330
BFC
100
AcDbEntity
  8
SUNPOU
 62
     0
370
    -2
100
AcDbLine
 10
3703.078958976643
 20
3878.564145216644
 30
0.0
 11
3414.565824734116
 21
3878.564145216644
 31
0.0
  0
LINE
  5
160E
330
BFC
100
AcDbEntity
  8
SUNPOU
 62
     0
370
    -2
100
AcDbLine
 10
3424.565824734116
 20
4438.564145216644
 30
0.0
 11
3424.565824734116
 21
3918.564145216644
 31
0.0
  0
SOLID
  5
160F
330
BFC
100
AcDbEntity
  8
SUNPOU
 62
     0
100
AcDbTrace
 10
3417.89915806745
 20
4438.564145216644
 30
0.0
 11
3431.232491400783
 21
4438.564145216644
 31
0.0
 12
3424.565824734116
 22
4478.564145216644
 32
0.0
 13
3424.565824734116
 23
4478.564145216644
 33
0.0
  0
SOLID
  5
1610
330
BFC
100
AcDbEntity
  8
SUNPOU
 62
     0
100
AcDbTrace
 10
3417.89915806745
 20
3918.564145216644
 30
0.0
 11
3431.232491400783
 21
3918.564145216644
 31
0.0
 12
3424.565824734116
 22
3878.564145216644
 32
0.0
 13
3424.565824734116
 23
3878.564145216644
 33
0.0
  0
MTEXT
  5
1611
330
BFC
100
AcDbEntity
  8
SUNPOU
 62
     0
100
AcDbMText
 10
3378.565824734116
 20
4178.564145216645
 30
0.0
 40
60.0
 41
0.0
 71
     5
 72
     1
  1
\A1;600
 11
6.123031769111886E-17
 21
1.0
 31
0.0
 73
     1
 44
1.0
  0
POINT
  5
1612
330
BFC
100
AcDbEntity
  8
DEFPOINTS
 62
     0
100
AcDbPoint
 10
3743.078958976643
 20
4478.564145216644
 30
0.0
  0
POINT
  5
1613
330
BFC
100
AcDbEntity
  8
DEFPOINTS
 62
     0
100
AcDbPoint
 10
3743.078958976643
 20
3878.564145216644
 30
0.0
  0
POINT
  5
1614
330
BFC
100
AcDbEntity
  8
DEFPOINTS
 62
     0
100
AcDbPoint
 10
3424.565824734116
 20
3878.564145216644
 30
0.0
  0
ENDBLK
  5
C07
330
BFC
100
AcDbEntity
  8
0
100
AcDbBlockEnd
  0
BLOCK
  5
C50
330
C46
100
AcDbEntity
  8
0
100
AcDbBlockBegin
  2
*D17
 70
     1
 10
0.0
 20
0.0
 30
0.0
  3
*D17
  1

  0
LINE
  5
1615
330
C46
100
AcDbEntity
  8
SUNPOU
 62
     0
370
    -2
100
AcDbLine
 10
3703.078958976643
 20
2024.104941746084
 30
0.0
 11
3269.896391367347
 21
2024.104941746084
 31
0.0
  0
LINE
  5
1616
330
C46
100
AcDbEntity
  8
SUNPOU
 62
     0
370
    -2
100
AcDbLine
 10
3753.078958976643
 20
1174.104941746084
 30
0.0
 11
3269.896391367347
 21
1174.104941746084
 31
0.0
  0
LINE
  5
1617
330
C46
100
AcDbEntity
  8
SUNPOU
 62
     0
370
    -2
100
AcDbLine
 10
3279.896391367347
 20
1984.104941746084
 30
0.0
 11
3279.896391367347
 21
1214.104941746084
 31
0.0
  0
SOLID
  5
1618
330
C46
100
AcDbEntity
  8
SUNPOU
 62
     0
100
AcDbTrace
 10
3273.22972470068
 20
1984.104941746084
 30
0.0
 11
3286.563058034013
 21
1984.104941746084
 31
0.0
 12
3279.896391367347
 22
2024.104941746084
 32
0.0
 13
3279.896391367347
 23
2024.104941746084
 33
0.0
  0
SOLID
  5
1619
330
C46
100
AcDbEntity
  8
SUNPOU
 62
     0
100
AcDbTrace
 10
3273.22972470068
 20
1214.104941746084
 30
0.0
 11
3286.563058034013
 21
1214.104941746084
 31
0.0
 12
3279.896391367347
 22
1174.104941746084
 32
0.0
 13
3279.896391367347
 23
1174.104941746084
 33
0.0
  0
MTEXT
  5
161A
330
C46
100
AcDbEntity
  8
SUNPOU
 62
     0
100
AcDbMText
 10
3233.896391367346
 20
1599.104941746084
 30
0.0
 40
60.0
 41
0.0
 71
     5
 72
     1
  1
\A1;850
 11
6.123031769111886E-17
 21
1.0
 31
0.0
 73
     1
 44
1.0
  0
POINT
  5
161B
330
C46
100
AcDbEntity
  8
DEFPOINTS
 62
     0
100
AcDbPoint
 10
3743.078958976643
 20
2024.104941746084
 30
0.0
  0
POINT
  5
161C
330
C46
100
AcDbEntity
  8
DEFPOINTS
 62
     0
100
AcDbPoint
 10
3793.078958976643
 20
1174.104941746084
 30
0.0
  0
POINT
  5
161D
330
C46
100
AcDbEntity
  8
DEFPOINTS
 62
     0
100
AcDbPoint
 10
3279.896391367347
 20
1174.104941746084
 30
0.0
  0
ENDBLK
  5
C51
330
C46
100
AcDbEntity
  8
0
100
AcDbBlockEnd
  0
BLOCK
  5
C5C
330
C52
100
AcDbEntity
  8
0
100
AcDbBlockBegin
  2
*D18
 70
     1
 10
0.0
 20
0.0
 30
0.0
  3
*D18
  1

  0
LINE
  5
16EA
330
C52
100
AcDbEntity
  8
SUNPOU
 62
     0
370
    -2
100
AcDbLine
 10
3703.078958976643
 20
2024.104941746084
 30
0.0
 11
3392.817336628148
 21
2024.104941746084
 31
0.0
  0
LINE
  5
16EB
330
C52
100
AcDbEntity
  8
SUNPOU
 62
     0
370
    -2
100
AcDbLine
 10
3703.078958976643
 20
1820.604941746084
 30
0.0
 11
3392.817336628148
 21
1820.604941746084
 31
0.0
  0
LINE
  5
16EC
330
C52
100
AcDbEntity
  8
SUNPOU
 62
     0
370
    -2
100
AcDbLine
 10
3402.817336628148
 20
1984.104941746084
 30
0.0
 11
3402.817336628148
 21
1860.604941746084
 31
0.0
  0
SOLID
  5
16ED
330
C52
100
AcDbEntity
  8
SUNPOU
 62
     0
100
AcDbTrace
 10
3396.150669961482
 20
1984.104941746084
 30
0.0
 11
3409.484003294815
 21
1984.104941746084
 31
0.0
 12
3402.817336628148
 22
2024.104941746084
 32
0.0
 13
3402.817336628148
 23
2024.104941746084
 33
0.0
  0
SOLID
  5
16EE
330
C52
100
AcDbEntity
  8
SUNPOU
 62
     0
100
AcDbTrace
 10
3396.150669961482
 20
1860.604941746084
 30
0.0
 11
3409.484003294815
 21
1860.604941746084
 31
0.0
 12
3402.817336628148
 22
1820.604941746084
 32
0.0
 13
3402.817336628148
 23
1820.604941746084
 33
0.0
  0
MTEXT
  5
16EF
330
C52
100
AcDbEntity
  8
SUNPOU
 62
     0
100
AcDbMText
 10
3356.817336628148
 20
1922.354941746084
 30
0.0
 40
60.0
 41
0.0
 71
     5
 72
     1
  1
\A1;204
 11
6.123031769111886E-17
 21
1.0
 31
0.0
 73
     1
 44
1.0
  0
POINT
  5
16F0
330
C52
100
AcDbEntity
  8
DEFPOINTS
 62
     0
100
AcDbPoint
 10
3743.078958976643
 20
2024.104941746084
 30
0.0
  0
POINT
  5
16F1
330
C52
100
AcDbEntity
  8
DEFPOINTS
 62
     0
100
AcDbPoint
 10
3743.078958976643
 20
1820.604941746084
 30
0.0
  0
POINT
  5
16F2
330
C52
100
AcDbEntity
  8
DEFPOINTS
 62
     0
100
AcDbPoint
 10
3402.817336628148
 20
1820.604941746084
 30
0.0
  0
ENDBLK
  5
C5D
330
C52
100
AcDbEntity
  8
0
100
AcDbBlockEnd
  0
BLOCK
  5
C68
330
C5E
100
AcDbEntity
  8
0
100
AcDbBlockBegin
  2
*D19
 70
     1
 10
0.0
 20
0.0
 30
0.0
  3
*D19
  1

  0
LINE
  5
16F3
330
C5E
100
AcDbEntity
  8
SUNPOU
 62
     0
370
    -2
100
AcDbLine
 10
3703.078958976643
 20
1820.604941746084
 30
0.0
 11
3392.817336628148
 21
1820.604941746084
 31
0.0
  0
LINE
  5
16F4
330
C5E
100
AcDbEntity
  8
SUNPOU
 62
     0
370
    -2
100
AcDbLine
 10
3753.078958976643
 20
1734.002401367642
 30
0.0
 11
3392.817336628148
 21
1734.002401367642
 31
0.0
  0
LINE
  5
16F5
330
C5E
100
AcDbEntity
  8
SUNPOU
 62
     0
370
    -2
100
AcDbLine
 10
3402.817336628148
 20
1860.604941746084
 30
0.0
 11
3402.817336628148
 21
1900.604941746084
 31
0.0
  0
LINE
  5
16F6
330
C5E
100
AcDbEntity
  8
SUNPOU
 62
     0
370
    -2
100
AcDbLine
 10
3402.817336628148
 20
1694.002401367642
 30
0.0
 11
3402.817336628148
 21
1654.002401367642
 31
0.0
  0
SOLID
  5
16F7
330
C5E
100
AcDbEntity
  8
SUNPOU
 62
     0
100
AcDbTrace
 10
3396.150669961482
 20
1860.604941746084
 30
0.0
 11
3409.484003294815
 21
1860.604941746084
 31
0.0
 12
3402.817336628148
 22
1820.604941746084
 32
0.0
 13
3402.817336628148
 23
1820.604941746084
 33
0.0
  0
SOLID
  5
16F8
330
C5E
100
AcDbEntity
  8
SUNPOU
 62
     0
100
AcDbTrace
 10
3396.150669961482
 20
1694.002401367642
 30
0.0
 11
3409.484003294815
 21
1694.002401367642
 31
0.0
 12
3402.817336628148
 22
1734.002401367642
 32
0.0
 13
3402.817336628148
 23
1734.002401367642
 33
0.0
  0
MTEXT
  5
16F9
330
C5E
100
AcDbEntity
  8
SUNPOU
 62
     0
100
AcDbMText
 10
3356.817336628148
 20
1777.303671556863
 30
0.0
 40
60.0
 41
0.0
 71
     5
 72
     1
  1
\A1;87
 11
6.123031769111886E-17
 21
1.0
 31
0.0
 73
     1
 44
1.0
  0
POINT
  5
16FA
330
C5E
100
AcDbEntity
  8
DEFPOINTS
 62
     0
100
AcDbPoint
 10
3743.078958976643
 20
1820.604941746084
 30
0.0
  0
POINT
  5
16FB
330
C5E
100
AcDbEntity
  8
DEFPOINTS
 62
     0
100
AcDbPoint
 10
3793.078958976643
 20
1734.002401367642
 30
0.0
  0
POINT
  5
16FC
330
C5E
100
AcDbEntity
  8
DEFPOINTS
 62
     0
100
AcDbPoint
 10
3402.817336628148
 20
1734.002401367642
 30
0.0
  0
ENDBLK
  5
C69
330
C5E
100
AcDbEntity
  8
0
100
AcDbBlockEnd
  0
BLOCK
  5
C74
330
C6A
100
AcDbEntity
  8
0
100
AcDbBlockBegin
  2
*D20
 70
     1
 10
0.0
 20
0.0
 30
0.0
  3
*D20
  1

  0
LINE
  5
16FD
330
C6A
100
AcDbEntity
  8
SUNPOU
 62
     0
370
    -2
100
AcDbLine
 10
3753.078958976643
 20
1734.002401367642
 30
0.0
 11
3392.817336628148
 21
1734.002401367642
 31
0.0
  0
LINE
  5
16FE
330
C6A
100
AcDbEntity
  8
SUNPOU
 62
     0
370
    -2
100
AcDbLine
 10
3753.078958976643
 20
1174.104941746084
 30
0.0
 11
3392.817336628148
 21
1174.104941746084
 31
0.0
  0
LINE
  5
16FF
330
C6A
100
AcDbEntity
  8
SUNPOU
 62
     0
370
    -2
100
AcDbLine
 10
3402.817336628148
 20
1694.002401367642
 30
0.0
 11
3402.817336628148
 21
1214.104941746084
 31
0.0
  0
SOLID
  5
1700
330
C6A
100
AcDbEntity
  8
SUNPOU
 62
     0
100
AcDbTrace
 10
3396.150669961482
 20
1694.002401367642
 30
0.0
 11
3409.484003294815
 21
1694.002401367642
 31
0.0
 12
3402.817336628148
 22
1734.002401367642
 32
0.0
 13
3402.817336628148
 23
1734.002401367642
 33
0.0
  0
SOLID
  5
1701
330
C6A
100
AcDbEntity
  8
SUNPOU
 62
     0
100
AcDbTrace
 10
3396.150669961482
 20
1214.104941746084
 30
0.0
 11
3409.484003294815
 21
1214.104941746084
 31
0.0
 12
3402.817336628148
 22
1174.104941746084
 32
0.0
 13
3402.817336628148
 23
1174.104941746084
 33
0.0
  0
MTEXT
  5
1702
330
C6A
100
AcDbEntity
  8
SUNPOU
 62
     0
100
AcDbMText
 10
3356.817336628148
 20
1454.053671556863
 30
0.0
 40
60.0
 41
0.0
 71
     5
 72
     1
  1
\A1;553
 11
6.123031769111886E-17
 21
1.0
 31
0.0
 73
     1
 44
1.0
  0
POINT
  5
1703
330
C6A
100
AcDbEntity
  8
DEFPOINTS
 62
     0
100
AcDbPoint
 10
3793.078958976643
 20
1734.002401367642
 30
0.0
  0
POINT
  5
1704
330
C6A
100
AcDbEntity
  8
DEFPOINTS
 62
     0
100
AcDbPoint
 10
3793.078958976643
 20
1174.104941746084
 30
0.0
  0
POINT
  5
1705
330
C6A
100
AcDbEntity
  8
DEFPOINTS
 62
     0
100
AcDbPoint
 10
3402.817336628148
 20
1174.104941746084
 30
0.0
  0
ENDBLK
  5
C75
330
C6A
100
AcDbEntity
  8
0
100
AcDbBlockEnd
  0
BLOCK
  5
C80
330
C76
100
AcDbEntity
  8
0
100
AcDbBlockBegin
  2
*D21
 70
     1
 10
0.0
 20
0.0
 30
0.0
  3
*D21
  1

  0
LINE
  5
163A
330
C76
100
AcDbEntity
  8
SUNPOU
 62
     0
370
    -2
100
AcDbLine
 10
3743.078958976643
 20
3438.564145216644
 30
0.0
 11
3743.078958976643
 21
2977.726818724366
 31
0.0
  0
LINE
  5
163B
330
C76
100
AcDbEntity
  8
SUNPOU
 62
     0
370
    -2
100
AcDbLine
 10
5743.078958976643
 20
3438.564145216644
 30
0.0
 11
5743.078958976643
 21
2977.726818724366
 31
0.0
  0
LINE
  5
163C
330
C76
100
AcDbEntity
  8
SUNPOU
 62
     0
370
    -2
100
AcDbLine
 10
3783.078958976643
 20
2987.726818724366
 30
0.0
 11
5703.078958976643
 21
2987.726818724366
 31
0.0
  0
SOLID
  5
163D
330
C76
100
AcDbEntity
  8
SUNPOU
 62
     0
100
AcDbTrace
 10
3783.078958976643
 20
2994.393485391033
 30
0.0
 11
3783.078958976643
 21
2981.0601520577
 31
0.0
 12
3743.078958976643
 22
2987.726818724366
 32
0.0
 13
3743.078958976643
 23
2987.726818724366
 33
0.0
  0
SOLID
  5
163E
330
C76
100
AcDbEntity
  8
SUNPOU
 62
     0
100
AcDbTrace
 10
5703.078958976643
 20
2994.393485391033
 30
0.0
 11
5703.078958976643
 21
2981.0601520577
 31
0.0
 12
5743.078958976643
 22
2987.726818724366
 32
0.0
 13
5743.078958976643
 23
2987.726818724366
 33
0.0
  0
MTEXT
  5
163F
330
C76
100
AcDbEntity
  8
SUNPOU
 62
     0
100
AcDbMText
 10
4743.078958976643
 20
3033.726818724366
 30
0.0
 40
60.0
 41
0.0
 71
     5
 72
     1
  1
\A1;2000
 73
     1
 44
1.0
  0
POINT
  5
1640
330
C76
100
AcDbEntity
  8
DEFPOINTS
 62
     0
100
AcDbPoint
 10
3743.078958976643
 20
3478.564145216644
 30
0.0
  0
POINT
  5
1641
330
C76
100
AcDbEntity
  8
DEFPOINTS
 62
     0
100
AcDbPoint
 10
5743.078958976643
 20
3478.564145216644
 30
0.0
  0
POINT
  5
1642
330
C76
100
AcDbEntity
  8
DEFPOINTS
 62
     0
100
AcDbPoint
 10
5743.078958976643
 20
2987.726818724366
 30
0.0
  0
ENDBLK
  5
C81
330
C76
100
AcDbEntity
  8
0
100
AcDbBlockEnd
  0
BLOCK
  5
C8C
330
C82
100
AcDbEntity
  8
0
100
AcDbBlockBegin
  2
*D22
 70
     1
 10
0.0
 20
0.0
 30
0.0
  3
*D22
  1

  0
LINE
  5
1643
330
C82
100
AcDbEntity
  8
SUNPOU
 62
     0
370
    -2
100
AcDbLine
 10
5743.078958976643
 20
3438.564145216644
 30
0.0
 11
5743.078958976643
 21
3108.8207608598
 31
0.0
  0
LINE
  5
1644
330
C82
100
AcDbEntity
  8
SUNPOU
 62
     0
370
    -2
100
AcDbLine
 10
5243.078958976643
 20
3438.564145216644
 30
0.0
 11
5243.078958976643
 21
3108.8207608598
 31
0.0
  0
LINE
  5
1645
330
C82
100
AcDbEntity
  8
SUNPOU
 62
     0
370
    -2
100
AcDbLine
 10
5703.078958976643
 20
3118.8207608598
 30
0.0
 11
5283.078958976643
 21
3118.8207608598
 31
0.0
  0
SOLID
  5
1646
330
C82
100
AcDbEntity
  8
SUNPOU
 62
     0
100
AcDbTrace
 10
5703.078958976643
 20
3125.487427526467
 30
0.0
 11
5703.078958976643
 21
3112.154094193134
 31
0.0
 12
5743.078958976643
 22
3118.8207608598
 32
0.0
 13
5743.078958976643
 23
3118.8207608598
 33
0.0
  0
SOLID
  5
1647
330
C82
100
AcDbEntity
  8
SUNPOU
 62
     0
100
AcDbTrace
 10
5283.078958976643
 20
3125.487427526467
 30
0.0
 11
5283.078958976643
 21
3112.154094193134
 31
0.0
 12
5243.078958976643
 22
3118.8207608598
 32
0.0
 13
5243.078958976643
 23
3118.8207608598
 33
0.0
  0
MTEXT
  5
1648
330
C82
100
AcDbEntity
  8
SUNPOU
 62
     0
100
AcDbMText
 10
5493.078958976643
 20
3164.8207608598
 30
0.0
 40
60.0
 41
0.0
 71
     5
 72
     1
  1
\A1;500
 73
     1
 44
1.0
  0
POINT
  5
1649
330
C82
100
AcDbEntity
  8
DEFPOINTS
 62
     0
100
AcDbPoint
 10
5743.078958976643
 20
3478.564145216644
 30
0.0
  0
POINT
  5
164A
330
C82
100
AcDbEntity
  8
DEFPOINTS
 62
     0
100
AcDbPoint
 10
5243.078958976643
 20
3478.564145216644
 30
0.0
  0
POINT
  5
164B
330
C82
100
AcDbEntity
  8
DEFPOINTS
 62
     0
100
AcDbPoint
 10
5243.078958976643
 20
3118.8207608598
 30
0.0
  0
ENDBLK
  5
C8D
330
C82
100
AcDbEntity
  8
0
100
AcDbBlockEnd
  0
BLOCK
  5
C98
330
C8E
100
AcDbEntity
  8
0
100
AcDbBlockBegin
  2
*D23
 70
     1
 10
0.0
 20
0.0
 30
0.0
  3
*D23
  1

  0
LINE
  5
164C
330
C8E
100
AcDbEntity
  8
SUNPOU
 62
     0
370
    -2
100
AcDbLine
 10
4743.078958976644
 20
3338.564145216644
 30
0.0
 11
4743.078958976644
 21
3108.8207608598
 31
0.0
  0
LINE
  5
164D
330
C8E
100
AcDbEntity
  8
SUNPOU
 62
     0
370
    -2
100
AcDbLine
 10
5243.078958976643
 20
3438.564145216644
 30
0.0
 11
5243.078958976643
 21
3108.8207608598
 31
0.0
  0
LINE
  5
164E
330
C8E
100
AcDbEntity
  8
SUNPOU
 62
     0
370
    -2
100
AcDbLine
 10
4783.078958976644
 20
3118.8207608598
 30
0.0
 11
5203.078958976643
 21
3118.8207608598
 31
0.0
  0
SOLID
  5
164F
330
C8E
100
AcDbEntity
  8
SUNPOU
 62
     0
100
AcDbTrace
 10
4783.078958976644
 20
3125.487427526467
 30
0.0
 11
4783.078958976644
 21
3112.154094193134
 31
0.0
 12
4743.078958976644
 22
3118.8207608598
 32
0.0
 13
4743.078958976644
 23
3118.8207608598
 33
0.0
  0
SOLID
  5
1650
330
C8E
100
AcDbEntity
  8
SUNPOU
 62
     0
100
AcDbTrace
 10
5203.078958976643
 20
3125.487427526467
 30
0.0
 11
5203.078958976643
 21
3112.154094193134
 31
0.0
 12
5243.078958976643
 22
3118.8207608598
 32
0.0
 13
5243.078958976643
 23
3118.8207608598
 33
0.0
  0
MTEXT
  5
1651
330
C8E
100
AcDbEntity
  8
SUNPOU
 62
     0
100
AcDbMText
 10
4993.078958976643
 20
3164.8207608598
 30
0.0
 40
60.0
 41
0.0
 71
     5
 72
     1
  1
\A1;500
 73
     1
 44
1.0
  0
POINT
  5
1652
330
C8E
100
AcDbEntity
  8
DEFPOINTS
 62
     0
100
AcDbPoint
 10
4743.078958976644
 20
3378.564145216644
 30
0.0
  0
POINT
  5
1653
330
C8E
100
AcDbEntity
  8
DEFPOINTS
 62
     0
100
AcDbPoint
 10
5243.078958976643
 20
3478.564145216644
 30
0.0
  0
POINT
  5
1654
330
C8E
100
AcDbEntity
  8
DEFPOINTS
 62
     0
100
AcDbPoint
 10
5243.078958976643
 20
3118.8207608598
 30
0.0
  0
ENDBLK
  5
C99
330
C8E
100
AcDbEntity
  8
0
100
AcDbBlockEnd
  0
BLOCK
  5
CA4
330
C9A
100
AcDbEntity
  8
0
100
AcDbBlockBegin
  2
*D24
 70
     1
 10
0.0
 20
0.0
 30
0.0
  3
*D24
  1

  0
LINE
  5
1655
330
C9A
100
AcDbEntity
  8
SUNPOU
 62
     0
370
    -2
100
AcDbLine
 10
4743.078958976644
 20
3338.564145216644
 30
0.0
 11
4743.078958976644
 21
3108.8207608598
 31
0.0
  0
LINE
  5
1656
330
C9A
100
AcDbEntity
  8
SUNPOU
 62
     0
370
    -2
100
AcDbLine
 10
4243.078958976645
 20
3438.564145216643
 30
0.0
 11
4243.078958976645
 21
3108.8207608598
 31
0.0
  0
LINE
  5
1657
330
C9A
100
AcDbEntity
  8
SUNPOU
 62
     0
370
    -2
100
AcDbLine
 10
4703.078958976644
 20
3118.8207608598
 30
0.0
 11
4283.078958976645
 21
3118.8207608598
 31
0.0
  0
SOLID
  5
1658
330
C9A
100
AcDbEntity
  8
SUNPOU
 62
     0
100
AcDbTrace
 10
4703.078958976644
 20
3125.487427526467
 30
0.0
 11
4703.078958976644
 21
3112.154094193134
 31
0.0
 12
4743.078958976644
 22
3118.8207608598
 32
0.0
 13
4743.078958976644
 23
3118.8207608598
 33
0.0
  0
SOLID
  5
1659
330
C9A
100
AcDbEntity
  8
SUNPOU
 62
     0
100
AcDbTrace
 10
4283.078958976645
 20
3125.487427526467
 30
0.0
 11
4283.078958976645
 21
3112.154094193134
 31
0.0
 12
4243.078958976645
 22
3118.8207608598
 32
0.0
 13
4243.078958976645
 23
3118.8207608598
 33
0.0
  0
MTEXT
  5
165A
330
C9A
100
AcDbEntity
  8
SUNPOU
 62
     0
100
AcDbMText
 10
4493.078958976645
 20
3164.8207608598
 30
0.0
 40
60.0
 41
0.0
 71
     5
 72
     1
  1
\A1;500
 73
     1
 44
1.0
  0
POINT
  5
165B
330
C9A
100
AcDbEntity
  8
DEFPOINTS
 62
     0
100
AcDbPoint
 10
4743.078958976644
 20
3378.564145216644
 30
0.0
  0
POINT
  5
165C
330
C9A
100
AcDbEntity
  8
DEFPOINTS
 62
     0
100
AcDbPoint
 10
4243.078958976645
 20
3478.564145216643
 30
0.0
  0
POINT
  5
165D
330
C9A
100
AcDbEntity
  8
DEFPOINTS
 62
     0
100
AcDbPoint
 10
4243.078958976645
 20
3118.8207608598
 30
0.0
  0
ENDBLK
  5
CA5
330
C9A
100
AcDbEntity
  8
0
100
AcDbBlockEnd
  0
BLOCK
  5
CB0
330
CA6
100
AcDbEntity
  8
0
100
AcDbBlockBegin
  2
*D25
 70
     1
 10
0.0
 20
0.0
 30
0.0
  3
*D25
  1

  0
LINE
  5
165E
330
CA6
100
AcDbEntity
  8
SUNPOU
 62
     0
370
    -2
100
AcDbLine
 10
3743.078958976645
 20
3438.564145216642
 30
0.0
 11
3743.078958976645
 21
3108.8207608598
 31
0.0
  0
LINE
  5
165F
330
CA6
100
AcDbEntity
  8
SUNPOU
 62
     0
370
    -2
100
AcDbLine
 10
4243.078958976645
 20
3438.564145216643
 30
0.0
 11
4243.078958976645
 21
3108.8207608598
 31
0.0
  0
LINE
  5
1660
330
CA6
100
AcDbEntity
  8
SUNPOU
 62
     0
370
    -2
100
AcDbLine
 10
3783.078958976645
 20
3118.8207608598
 30
0.0
 11
4203.078958976645
 21
3118.8207608598
 31
0.0
  0
SOLID
  5
1661
330
CA6
100
AcDbEntity
  8
SUNPOU
 62
     0
100
AcDbTrace
 10
3783.078958976645
 20
3125.487427526467
 30
0.0
 11
3783.078958976645
 21
3112.154094193134
 31
0.0
 12
3743.078958976645
 22
3118.8207608598
 32
0.0
 13
3743.078958976645
 23
3118.8207608598
 33
0.0
  0
SOLID
  5
1662
330
CA6
100
AcDbEntity
  8
SUNPOU
 62
     0
100
AcDbTrace
 10
4203.078958976645
 20
3125.487427526467
 30
0.0
 11
4203.078958976645
 21
3112.154094193134
 31
0.0
 12
4243.078958976645
 22
3118.8207608598
 32
0.0
 13
4243.078958976645
 23
3118.8207608598
 33
0.0
  0
MTEXT
  5
1663
330
CA6
100
AcDbEntity
  8
SUNPOU
 62
     0
100
AcDbMText
 10
3993.078958976645
 20
3164.8207608598
 30
0.0
 40
60.0
 41
0.0
 71
     5
 72
     1
  1
\A1;500
 73
     1
 44
1.0
  0
POINT
  5
1664
330
CA6
100
AcDbEntity
  8
DEFPOINTS
 62
     0
100
AcDbPoint
 10
3743.078958976645
 20
3478.564145216642
 30
0.0
  0
POINT
  5
1665
330
CA6
100
AcDbEntity
  8
DEFPOINTS
 62
     0
100
AcDbPoint
 10
4243.078958976645
 20
3478.564145216643
 30
0.0
  0
POINT
  5
1666
330
CA6
100
AcDbEntity
  8
DEFPOINTS
 62
     0
100
AcDbPoint
 10
4243.078958976645
 20
3118.8207608598
 30
0.0
  0
ENDBLK
  5
CB1
330
CA6
100
AcDbEntity
  8
0
100
AcDbBlockEnd
  0
BLOCK
  5
CBC
330
CB2
100
AcDbEntity
  8
0
100
AcDbBlockBegin
  2
*D26
 70
     1
 10
0.0
 20
0.0
 30
0.0
  3
*D26
  1

  0
LINE
  5
1667
330
CB2
100
AcDbEntity
  8
SUNPOU
 62
     0
370
    -2
100
AcDbLine
 10
3793.078958976643
 20
1134.104941746084
 30
0.0
 11
3793.078958976643
 21
756.2229829923672
 31
0.0
  0
LINE
  5
1668
330
CB2
100
AcDbEntity
  8
SUNPOU
 62
     0
370
    -2
100
AcDbLine
 10
5693.078958976641
 20
1134.104941746084
 30
0.0
 11
5693.078958976641
 21
756.2229829923672
 31
0.0
  0
LINE
  5
1669
330
CB2
100
AcDbEntity
  8
SUNPOU
 62
     0
370
    -2
100
AcDbLine
 10
3833.078958976643
 20
766.2229829923672
 30
0.0
 11
5653.078958976641
 21
766.2229829923672
 31
0.0
  0
SOLID
  5
166A
330
CB2
100
AcDbEntity
  8
SUNPOU
 62
     0
100
AcDbTrace
 10
3833.078958976643
 20
772.8896496590338
 30
0.0
 11
3833.078958976643
 21
759.5563163257005
 31
0.0
 12
3793.078958976643
 22
766.2229829923672
 32
0.0
 13
3793.078958976643
 23
766.2229829923672
 33
0.0
  0
SOLID
  5
166B
330
CB2
100
AcDbEntity
  8
SUNPOU
 62
     0
100
AcDbTrace
 10
5653.078958976641
 20
772.8896496590338
 30
0.0
 11
5653.078958976641
 21
759.5563163257005
 31
0.0
 12
5693.078958976641
 22
766.2229829923672
 32
0.0
 13
5693.078958976641
 23
766.2229829923672
 33
0.0
  0
MTEXT
  5
166C
330
CB2
100
AcDbEntity
  8
SUNPOU
 62
     0
100
AcDbMText
 10
4743.078958976642
 20
812.2229829923672
 30
0.0
 40
60.0
 41
0.0
 71
     5
 72
     1
  1
\A1;1900
 73
     1
 44
1.0
  0
POINT
  5
166D
330
CB2
100
AcDbEntity
  8
DEFPOINTS
 62
     0
100
AcDbPoint
 10
3793.078958976643
 20
1174.104941746084
 30
0.0
  0
POINT
  5
166E
330
CB2
100
AcDbEntity
  8
DEFPOINTS
 62
     0
100
AcDbPoint
 10
5693.078958976641
 20
1174.104941746084
 30
0.0
  0
POINT
  5
166F
330
CB2
100
AcDbEntity
  8
DEFPOINTS
 62
     0
100
AcDbPoint
 10
5693.078958976641
 20
766.2229829923672
 30
0.0
  0
ENDBLK
  5
CBD
330
CB2
100
AcDbEntity
  8
0
100
AcDbBlockEnd
  0
BLOCK
  5
D44
330
D3A
100
AcDbEntity
  8
0
100
AcDbBlockBegin
  2
*D27
 70
     1
 10
0.0
 20
0.0
 30
0.0
  3
*D27
  1

  0
LINE
  5
1670
330
D3A
100
AcDbEntity
  8
SUNPOU
 62
     0
370
    -2
100
AcDbLine
 10
3743.078958976643
 20
2064.104941746084
 30
0.0
 11
3743.078958976643
 21
2417.135592419516
 31
0.0
  0
LINE
  5
1671
330
D3A
100
AcDbEntity
  8
SUNPOU
 62
     0
370
    -2
100
AcDbLine
 10
5743.078958976643
 20
2064.104941746084
 30
0.0
 11
5743.078958976643
 21
2417.135592419516
 31
0.0
  0
LINE
  5
1672
330
D3A
100
AcDbEntity
  8
SUNPOU
 62
     0
370
    -2
100
AcDbLine
 10
3783.078958976643
 20
2407.135592419516
 30
0.0
 11
5703.078958976643
 21
2407.135592419516
 31
0.0
  0
SOLID
  5
1673
330
D3A
100
AcDbEntity
  8
SUNPOU
 62
     0
100
AcDbTrace
 10
3783.078958976643
 20
2413.802259086182
 30
0.0
 11
3783.078958976643
 21
2400.468925752849
 31
0.0
 12
3743.078958976643
 22
2407.135592419516
 32
0.0
 13
3743.078958976643
 23
2407.135592419516
 33
0.0
  0
SOLID
  5
1674
330
D3A
100
AcDbEntity
  8
SUNPOU
 62
     0
100
AcDbTrace
 10
5703.078958976643
 20
2413.802259086182
 30
0.0
 11
5703.078958976643
 21
2400.468925752849
 31
0.0
 12
5743.078958976643
 22
2407.135592419516
 32
0.0
 13
5743.078958976643
 23
2407.135592419516
 33
0.0
  0
MTEXT
  5
1675
330
D3A
100
AcDbEntity
  8
SUNPOU
 62
     0
100
AcDbMText
 10
4743.078958976643
 20
2453.135592419516
 30
0.0
 40
60.0
 41
0.0
 71
     5
 72
     1
  1
\A1;2000
 73
     1
 44
1.0
  0
POINT
  5
1676
330
D3A
100
AcDbEntity
  8
DEFPOINTS
 62
     0
100
AcDbPoint
 10
3743.078958976643
 20
2024.104941746084
 30
0.0
  0
POINT
  5
1677
330
D3A
100
AcDbEntity
  8
DEFPOINTS
 62
     0
100
AcDbPoint
 10
5743.078958976643
 20
2024.104941746084
 30
0.0
  0
POINT
  5
1678
330
D3A
100
AcDbEntity
  8
DEFPOINTS
 62
     0
100
AcDbPoint
 10
5743.078958976643
 20
2407.135592419516
 30
0.0
  0
ENDBLK
  5
D45
330
D3A
100
AcDbEntity
  8
0
100
AcDbBlockEnd
  0
BLOCK
  5
E01
330
DF7
100
AcDbEntity
  8
0
100
AcDbBlockBegin
  2
*D28
 70
     1
 10
0.0
 20
0.0
 30
0.0
  3
*D28
  1

  0
LINE
  5
1679
330
DF7
100
AcDbEntity
  8
SUNPOU
 62
     0
370
    -2
100
AcDbLine
 10
2165.117202579266
 20
3591.689145216645
 30
0.0
 11
2165.117202579266
 21
3705.586950757081
 31
0.0
  0
LINE
  5
167A
330
DF7
100
AcDbEntity
  8
SUNPOU
 62
     0
370
    -2
100
AcDbLine
 10
2315.117202579266
 20
3591.689145216645
 30
0.0
 11
2315.117202579266
 21
3705.586950757081
 31
0.0
  0
LINE
  5
167B
330
DF7
100
AcDbEntity
  8
SUNPOU
 62
     0
370
    -2
100
AcDbLine
 10
2205.117202579266
 20
3695.586950757081
 30
0.0
 11
2275.117202579266
 21
3695.586950757081
 31
0.0
  0
SOLID
  5
167C
330
DF7
100
AcDbEntity
  8
SUNPOU
 62
     0
100
AcDbTrace
 10
2205.117202579266
 20
3702.253617423747
 30
0.0
 11
2205.117202579266
 21
3688.920284090414
 31
0.0
 12
2165.117202579266
 22
3695.586950757081
 32
0.0
 13
2165.117202579266
 23
3695.586950757081
 33
0.0
  0
SOLID
  5
167D
330
DF7
100
AcDbEntity
  8
SUNPOU
 62
     0
100
AcDbTrace
 10
2275.117202579266
 20
3702.253617423747
 30
0.0
 11
2275.117202579266
 21
3688.920284090414
 31
0.0
 12
2315.117202579266
 22
3695.586950757081
 32
0.0
 13
2315.117202579266
 23
3695.586950757081
 33
0.0
  0
MTEXT
  5
167E
330
DF7
100
AcDbEntity
  8
SUNPOU
 62
     0
100
AcDbMText
 10
2240.117202579266
 20
3741.586950757081
 30
0.0
 40
60.0
 41
0.0
 71
     5
 72
     1
  1
\A1;150
 73
     1
 44
1.0
  0
POINT
  5
167F
330
DF7
100
AcDbEntity
  8
DEFPOINTS
 62
     0
100
AcDbPoint
 10
2165.117202579266
 20
3551.689145216645
 30
0.0
  0
POINT
  5
1680
330
DF7
100
AcDbEntity
  8
DEFPOINTS
 62
     0
100
AcDbPoint
 10
2315.117202579266
 20
3551.689145216645
 30
0.0
  0
POINT
  5
1681
330
DF7
100
AcDbEntity
  8
DEFPOINTS
 62
     0
100
AcDbPoint
 10
2315.117202579266
 20
3695.586950757081
 30
0.0
  0
ENDBLK
  5
E02
330
DF7
100
AcDbEntity
  8
0
100
AcDbBlockEnd
  0
BLOCK
  5
1398
330
138D
100
AcDbEntity
  8
0
100
AcDbBlockBegin
  2
*D29
 70
     1
 10
0.0
 20
0.0
 30
0.0
  3
*D29
  1

  0
LINE
  5
1682
330
138D
100
AcDbEntity
  8
SUNPOU
 62
     0
370
    -2
100
AcDbLine
 10
3793.078958976643
 20
1134.104941746084
 30
0.0
 11
3793.078958976643
 21
756.2229829923672
 31
0.0
  0
LINE
  5
1683
330
138D
100
AcDbEntity
  8
SUNPOU
 62
     0
370
    -2
100
AcDbLine
 10
3743.078958976643
 20
1134.104941746084
 30
0.0
 11
3743.078958976643
 21
756.2229829923672
 31
0.0
  0
LINE
  5
1684
330
138D
100
AcDbEntity
  8
SUNPOU
 62
     0
370
    -2
100
AcDbLine
 10
3833.078958976643
 20
766.2229829923672
 30
0.0
 11
3873.078958976643
 21
766.2229829923672
 31
0.0
  0
LINE
  5
1685
330
138D
100
AcDbEntity
  8
SUNPOU
 62
     0
370
    -2
100
AcDbLine
 10
3703.078958976643
 20
766.2229829923672
 30
0.0
 11
3663.078958976643
 21
766.2229829923672
 31
0.0
  0
SOLID
  5
1686
330
138D
100
AcDbEntity
  8
SUNPOU
 62
     0
100
AcDbTrace
 10
3833.078958976643
 20
772.8896496590338
 30
0.0
 11
3833.078958976643
 21
759.5563163257005
 31
0.0
 12
3793.078958976643
 22
766.2229829923672
 32
0.0
 13
3793.078958976643
 23
766.2229829923672
 33
0.0
  0
SOLID
  5
1687
330
138D
100
AcDbEntity
  8
SUNPOU
 62
     0
100
AcDbTrace
 10
3703.078958976643
 20
772.8896496590338
 30
0.0
 11
3703.078958976643
 21
759.5563163257005
 31
0.0
 12
3743.078958976643
 22
766.2229829923672
 32
0.0
 13
3743.078958976643
 23
766.2229829923672
 33
0.0
  0
MTEXT
  5
1688
330
138D
100
AcDbEntity
  8
SUNPOU
 62
     0
100
AcDbMText
 10
3768.078958976643
 20
812.2229829923672
 30
0.0
 40
60.0
 41
0.0
 71
     5
 72
     1
  1
\A1;50
 73
     1
 44
1.0
  0
POINT
  5
1689
330
138D
100
AcDbEntity
  8
DEFPOINTS
 62
     0
100
AcDbPoint
 10
3793.078958976643
 20
1174.104941746084
 30
0.0
  0
POINT
  5
168A
330
138D
100
AcDbEntity
  8
DEFPOINTS
 62
     0
100
AcDbPoint
 10
3743.078958976643
 20
1174.104941746084
 30
0.0
  0
POINT
  5
168B
330
138D
100
AcDbEntity
  8
DEFPOINTS
 62
     0
100
AcDbPoint
 10
3743.078958976643
 20
766.2229829923672
 30
0.0
  0
ENDBLK
  5
1399
330
138D
100
AcDbEntity
  8
0
100
AcDbBlockEnd
  0
BLOCK
  5
13A6
330
139B
100
AcDbEntity
  8
0
100
AcDbBlockBegin
  2
*D30
 70
     1
 10
0.0
 20
0.0
 30
0.0
  3
*D30
  1

  0
LINE
  5
168C
330
139B
100
AcDbEntity
  8
SUNPOU
 62
     0
370
    -2
100
AcDbLine
 10
5693.078958976641
 20
1134.104941746084
 30
0.0
 11
5693.078958976641
 21
756.2229829923672
 31
0.0
  0
LINE
  5
168D
330
139B
100
AcDbEntity
  8
SUNPOU
 62
     0
370
    -2
100
AcDbLine
 10
5743.078958976641
 20
1134.104941746084
 30
0.0
 11
5743.078958976641
 21
756.2229829923672
 31
0.0
  0
LINE
  5
168E
330
139B
100
AcDbEntity
  8
SUNPOU
 62
     0
370
    -2
100
AcDbLine
 10
5653.078958976641
 20
766.2229829923672
 30
0.0
 11
5613.078958976641
 21
766.2229829923672
 31
0.0
  0
LINE
  5
168F
330
139B
100
AcDbEntity
  8
SUNPOU
 62
     0
370
    -2
100
AcDbLine
 10
5783.078958976641
 20
766.2229829923672
 30
0.0
 11
5823.078958976641
 21
766.2229829923672
 31
0.0
  0
SOLID
  5
1690
330
139B
100
AcDbEntity
  8
SUNPOU
 62
     0
100
AcDbTrace
 10
5653.078958976641
 20
772.8896496590338
 30
0.0
 11
5653.078958976641
 21
759.5563163257005
 31
0.0
 12
5693.078958976641
 22
766.2229829923672
 32
0.0
 13
5693.078958976641
 23
766.2229829923672
 33
0.0
  0
SOLID
  5
1691
330
139B
100
AcDbEntity
  8
SUNPOU
 62
     0
100
AcDbTrace
 10
5783.078958976641
 20
772.8896496590338
 30
0.0
 11
5783.078958976641
 21
759.5563163257005
 31
0.0
 12
5743.078958976641
 22
766.2229829923672
 32
0.0
 13
5743.078958976641
 23
766.2229829923672
 33
0.0
  0
MTEXT
  5
1692
330
139B
100
AcDbEntity
  8
SUNPOU
 62
     0
100
AcDbMText
 10
5718.078958976641
 20
812.2229829923672
 30
0.0
 40
60.0
 41
0.0
 71
     5
 72
     1
  1
\A1;50
 73
     1
 44
1.0
  0
POINT
  5
1693
330
139B
100
AcDbEntity
  8
DEFPOINTS
 62
     0
100
AcDbPoint
 10
5693.078958976641
 20
1174.104941746084
 30
0.0
  0
POINT
  5
1694
330
139B
100
AcDbEntity
  8
DEFPOINTS
 62
     0
100
AcDbPoint
 10
5743.078958976641
 20
1174.104941746084
 30
0.0
  0
POINT
  5
1695
330
139B
100
AcDbEntity
  8
DEFPOINTS
 62
     0
100
AcDbPoint
 10
5743.078958976641
 20
766.2229829923672
 30
0.0
  0
ENDBLK
  5
13A7
330
139B
100
AcDbEntity
  8
0
100
AcDbBlockEnd
  0
BLOCK
  5
1716
330
170A
100
AcDbEntity
  8
0
100
AcDbBlockBegin
  2
*D36
 70
     1
 10
0.0
 20
0.0
 30
0.0
  3
*D36
  1

  0
LINE
  5
1718
330
170A
100
AcDbEntity
  8
SUNPOU
 62
     0
370
    -2
100
AcDbLine
 10
5673.078958976641
 20
1699.361385216265
 30
0.0
 11
5620.985310480028
 21
1609.132539268498
 31
0.0
  0
LINE
  5
1719
330
170A
100
AcDbEntity
  8
SUNPOU
 62
     0
370
    -2
100
AcDbLine
 10
5743.078958976642
 20
1780.604941746084
 30
0.0
 11
5743.078958976643
 21
1576.417644752859
 31
0.0
  0
ARC
  5
171A
330
170A
100
AcDbEntity
  8
SUNPOU
 62
     0
370
    -2
100
AcDbCircle
 10
5743.078958976644
 20
1820.604941746084
 30
0.0
 40
234.1872969932245
100
AcDbArc
 50
249.7982524587542
 51
260.2017475412449
  0
SOLID
  5
171B
330
170A
100
AcDbEntity
  8
SUNPOU
 62
     0
100
AcDbTrace
 10
5659.379715453136
 20
1594.787181796614
 30
0.0
 11
5665.035891890177
 21
1606.861346193824
 31
0.0
 12
5625.985310480028
 22
1617.792793306342
 32
0.0
 13
5625.985310480028
 23
1617.792793306342
 33
0.0
  0
SOLID
  5
171C
330
170A
100
AcDbEntity
  8
SUNPOU
 62
     0
100
AcDbTrace
 10
5703.794439886643
 20
1596.476024558367
 30
0.0
 11
5702.655750170802
 21
1583.191403242394
 31
0.0
 12
5743.078958976643
 22
1586.417644752859
 32
0.0
 13
5743.078958976643
 23
1586.417644752859
 33
0.0
  0
MTEXT
  5
171D
330
170A
100
AcDbEntity
  8
SUNPOU
 62
     0
100
AcDbMText
 10
5694.372502468431
 20
1638.829971400797
 30
0.0
 40
60.0
 41
0.0
 71
     5
 72
     1
  1
\A1;30°
 11
0.965925826289067
 21
-0.2588190451025256
 31
0.0
 73
     1
 44
1.0
  0
POINT
  5
171E
330
170A
100
AcDbEntity
  8
DEFPOINTS
 62
     0
100
AcDbPoint
 10
5662.982186093966
 20
1600.540866879754
 30
0.0
  0
POINT
  5
171F
330
170A
100
AcDbEntity
  8
DEFPOINTS
 62
     0
100
AcDbPoint
 10
5743.078958976643
 20
2024.104941746083
 30
0.0
  0
POINT
  5
1720
330
170A
100
AcDbEntity
  8
DEFPOINTS
 62
     0
100
AcDbPoint
 10
5743.078958976644
 20
1820.604941746084
 30
0.0
  0
POINT
  5
1721
330
170A
100
AcDbEntity
  8
DEFPOINTS
 62
     0
100
AcDbPoint
 10
5693.078958976643
 20
1734.002401367642
 30
0.0
  0
POINT
  5
1722
330
170A
100
AcDbEntity
  8
DEFPOINTS
 62
     0
100
AcDbPoint
 10
5743.078958976644
 20
1820.604941746084
 30
0.0
  0
ENDBLK
  5
1717
330
170A
100
AcDbEntity
  8
0
100
AcDbBlockEnd
  0
ENDSEC
  0
SECTION
  2
ENTITIES
  0
TEXT
  5
5F
330
17
100
AcDbEntity
  8
SUNPOU
100
AcDbText
 10
7679.999999999996
 20
320.0
 30
0.0
 40
60.0
  1
20
100
AcDbText
  0
INSERT
  5
60
330
17
100
AcDbEntity
  8
HAIKIN
100
AcDbBlockReference
  2
SA3
 10
320.0
 20
0.0
 30
0.0
 41
20.0
 42
20.0
 43
20.0
  0
LINE
  5
999
330
17
100
AcDbEntity
  8
SEIHIN
100
AcDbLine
 10
1465.117202579266
 20
3478.564145216644
 30
0.0
 11
2315.117202579266
 21
3478.564145216646
 31
0.0
  0
LINE
  5
99A
330
17
100
AcDbEntity
  8
SEIHIN
100
AcDbLine
 10
1465.117202579266
 20
3478.564145216644
 30
0.0
 11
1465.117202579266
 21
4478.564145216644
 31
0.0
  0
LINE
  5
99C
330
17
100
AcDbEntity
  8
1HASEN
100
AcDbLine
 10
1575.117202579266
 20
3563.564145216645
 30
0.0
 11
1575.117202579266
 21
3613.564145216644
 31
0.0
  0
LINE
  5
99D
330
17
100
AcDbEntity
  8
1HASEN
100
AcDbLine
 10
1550.117202579266
 20
3588.564145216644
 30
0.0
 11
1600.117202579266
 21
3588.564145216644
 31
0.0
  0
LINE
  5
9A1
330
17
100
AcDbEntity
  8
1HASEN
 48
0.4
100
AcDbLine
 10
1414.808335257334
 20
3878.564145216644
 30
0.0
 11
1611.71044713552
 21
3878.564145216644
 31
0.0
  0
LINE
  5
9A2
330
17
100
AcDbEntity
  8
HASEN
 48
0.2
100
AcDbLine
 10
1543.35858188961
 20
3903.564145216644
 30
0.0
 11
1543.35858188961
 21
3853.564145216644
 31
0.0
  0
LINE
  5
9A3
330
17
100
AcDbEntity
  8
HASEN
 48
0.2
100
AcDbLine
 10
1500.117202579265
 20
3903.564145216644
 30
0.0
 11
1500.117202579265
 21
3853.564145216644
 31
0.0
  0
LINE
  5
9A4
330
17
100
AcDbEntity
  8
HASEN
 48
0.2
100
AcDbLine
 10
1500.117202579265
 20
3897.064145216644
 30
0.0
 11
1543.35858188961
 21
3899.149869010211
 31
0.0
  0
LINE
  5
9A5
330
17
100
AcDbEntity
  8
HASEN
 48
0.2
100
AcDbLine
 10
1500.117202579265
 20
3860.064145216644
 30
0.0
 11
1543.35858188961
 21
3857.978421423075
 31
0.0
  0
LINE
  5
9A6
330
17
100
AcDbEntity
  8
HASEN
 48
0.2
100
AcDbLine
 10
1500.117202579265
 20
3853.564145216644
 30
0.0
 11
1465.117202579265
 21
3838.564145216644
 31
0.0
  0
LINE
  5
9A7
330
17
100
AcDbEntity
  8
HASEN
 48
0.2
100
AcDbLine
 10
1543.35858188961
 20
3853.564145216644
 30
0.0
 11
1557.933198737957
 21
3837.732200915614
 31
0.0
  0
LINE
  5
9A8
330
17
100
AcDbEntity
  8
HASEN
 48
0.2
100
AcDbLine
 10
1465.117202579265
 20
3918.564145216644
 30
0.0
 11
1500.117202579265
 21
3903.564145216644
 31
0.0
  0
LINE
  5
9A9
330
17
100
AcDbEntity
  8
HASEN
 48
0.2
100
AcDbLine
 10
1552.35858188961
 20
3918.564145216644
 30
0.0
 11
1543.35858188961
 21
3903.564145216644
 31
0.0
  0
LINE
  5
9B0
330
17
100
AcDbEntity
  8
SEIHIN
100
AcDbLine
 10
1465.117202579266
 20
4478.564145216644
 30
0.0
 11
1535.117202579266
 21
4478.564145216644
 31
0.0
  0
LINE
  5
9B1
330
17
100
AcDbEntity
  8
SEIHIN
100
AcDbLine
 10
2315.117202579266
 20
3478.564145216645
 30
0.0
 11
2315.117202579266
 21
3551.689145216645
 31
0.0
  0
LINE
  5
9B2
330
17
100
AcDbEntity
  8
SEIHIN
100
AcDbLine
 10
1535.117202579266
 20
4478.564145216644
 30
0.0
 11
1535.117202579266
 21
4168.564145216644
 31
0.0
  0
LINE
  5
9B3
330
17
100
AcDbEntity
  8
SEIHIN
100
AcDbLine
 10
1535.117202579266
 20
4168.564145216644
 30
0.0
 11
1568.623668096507
 21
3682.720395216644
 31
0.0
  0
LINE
  5
9B4
330
17
100
AcDbEntity
  8
SEIHIN
100
AcDbLine
 10
1668.617202579266
 20
3582.720395216644
 30
0.0
 11
2165.117202579266
 21
3551.689145216645
 31
0.0
  0
DIMENSION
  5
9BF
330
17
100
AcDbEntity
  8
SUNPOU
100
AcDbDimension
  2
*D2
 10
865.0297215330575
 20
3478.564145216644
 30
0.0
 11
819.0297215330569
 21
3978.564145216644
 31
0.0
 70
    32
 71
     5
 42
1000.0
  3
A3-20
100
AcDbAlignedDimension
 13
1465.117202579266
 23
4478.564145216644
 33
0.0
 14
1465.117202579266
 24
3478.564145216644
 34
0.0
 50
90.0
100
AcDbRotatedDimension
  0
DIMENSION
  5
9C0
330
17
100
AcDbEntity
  8
SUNPOU
100
AcDbDimension
  2
*D3
 10
1000.315601224269
 20
3588.564145216644
 30
0.0
 11
954.3156012242683
 21
3533.564145216644
 31
0.0
 70
    32
 71
     5
 42
110.0
  3
A3-20
100
AcDbAlignedDimension
 13
1465.117202579266
 23
3478.564145216644
 33
0.0
 14
1465.117202579266
 24
3588.564145216644
 34
0.0
 50
90.0
100
AcDbRotatedDimension
  0
DIMENSION
  5
9C1
330
17
100
AcDbEntity
  8
SUNPOU
100
AcDbDimension
  2
*D4
 10
1000.315601224269
 20
3588.564145216644
 30
0.0
 11
954.3156012242683
 21
4033.564145216644
 31
0.0
 70
    32
 71
     5
 42
889.9999999999995
  3
A3-20
100
AcDbAlignedDimension
 13
1465.117202579266
 23
4478.564145216644
 33
0.0
 14
1465.117202579266
 24
3588.564145216644
 34
0.0
 50
90.0
100
AcDbRotatedDimension
  0
DIMENSION
  5
9C2
330
17
100
AcDbEntity
  8
SUNPOU
100
AcDbDimension
  2
*D5
 10
1213.029417450354
 20
3878.564145216644
 30
0.0
 11
1167.029417450354
 21
3678.564145216644
 31
0.0
 70
    32
 71
     5
 42
400.0
  3
A3-20
100
AcDbAlignedDimension
 13
1465.117202579266
 23
3478.564145216644
 33
0.0
 14
1414.808335257334
 24
3878.564145216644
 34
0.0
 50
90.0
100
AcDbRotatedDimension
  0
DIMENSION
  5
9C5
330
17
100
AcDbEntity
  8
SUNPOU
100
AcDbDimension
  2
*D6
 10
2615.117202579266
 20
3551.689145216645
 30
0.0
 11
2569.117202579265
 21
3515.126645216646
 31
0.0
 70
    32
 71
     5
 42
73.12499999999955
  3
A3-20
100
AcDbAlignedDimension
 13
2315.117202579266
 23
3478.564145216646
 33
0.0
 14
2315.117202579266
 24
3551.689145216645
 34
0.0
 50
90.0
100
AcDbRotatedDimension
  0
DIMENSION
  5
9C6
330
17
100
AcDbEntity
  8
SUNPOU
100
AcDbDimension
  2
*D7
 10
2615.117202579266
 20
4168.564145216643
 30
0.0
 11
2569.117202579265
 21
4323.564145216644
 31
0.0
 70
    32
 71
     5
 42
310.0
  3
A3-20
100
AcDbAlignedDimension
 13
1535.117202579266
 23
4478.564145216644
 33
0.0
 14
1535.117202579266
 24
4168.564145216644
 34
0.0
 50
90.0
100
AcDbRotatedDimension
  0
DIMENSION
  5
9C7
330
17
100
AcDbEntity
  8
SUNPOU
100
AcDbDimension
  2
*D8
 10
2615.117202579266
 20
3551.689145216645
 30
0.0
 11
2569.117202579265
 21
3860.126645216645
 31
0.0
 70
    32
 71
     5
 42
616.8749999999982
  3
A3-20
100
AcDbAlignedDimension
 13
1575.117202579266
 23
4168.564145216644
 33
0.0
 14
2315.117202579266
 24
3551.689145216645
 34
0.0
 50
90.0
100
AcDbRotatedDimension
  0
DIMENSION
  5
9C8
330
17
100
AcDbEntity
  8
SUNPOU
100
AcDbDimension
  2
*D9
 10
2315.117202579266
 20
3032.487464631578
 30
0.0
 11
1890.117202579266
 21
3078.487464631578
 31
0.0
 70
    32
 71
     5
 42
850.0
  3
A3-20
100
AcDbAlignedDimension
 13
1465.117202579266
 23
3478.564145216644
 33
0.0
 14
2315.117202579266
 24
3478.564145216644
 34
0.0
100
AcDbRotatedDimension
  0
DIMENSION
  5
9C9
330
17
100
AcDbEntity
  8
SUNPOU
100
AcDbDimension
  2
*D10
 10
1575.117202579266
 20
3165.952129746465
 30
0.0
 11
1520.117202579266
 21
3211.952129746465
 31
0.0
 70
    32
 71
     5
 42
110.0
  3
A3-20
100
AcDbAlignedDimension
 13
1465.117202579266
 23
3478.564145216644
 33
0.0
 14
1575.117202579266
 24
3478.564145216644
 34
0.0
100
AcDbRotatedDimension
  0
DIMENSION
  5
9CA
330
17
100
AcDbEntity
  8
SUNPOU
100
AcDbDimension
  2
*D11
 10
2315.117202579266
 20
3165.952129746465
 30
0.0
 11
1945.117202579266
 21
3211.952129746465
 31
0.0
 70
    32
 71
     5
 42
740.0
  3
A3-20
100
AcDbAlignedDimension
 13
1575.117202579266
 23
3478.564145216644
 33
0.0
 14
2315.117202579266
 24
3478.564145216644
 34
0.0
100
AcDbRotatedDimension
  0
DIMENSION
  5
9CB
330
17
100
AcDbEntity
  8
SUNPOU
100
AcDbDimension
  2
*D12
 10
1535.117202579266
 20
4778.564145216644
 30
0.0
 11
1500.117202579266
 21
4824.564145216644
 31
0.0
 70
    32
 71
     5
 42
70.0
  3
A3-20
100
AcDbAlignedDimension
 13
1465.117202579266
 23
4478.564145216644
 33
0.0
 14
1535.117202579266
 24
4478.564145216644
 34
0.0
100
AcDbRotatedDimension
  0
TEXT
  5
9CD
330
17
100
AcDbEntity
  8
HAIKIN
100
AcDbText
 10
3197.283252294685
 20
5221.101789426028
 30
0.0
 40
80.0
  1
デザインウォ－ル　H=1000 ( L=2000 )
100
AcDbText
  0
TEXT
  5
9CE
330
17
100
AcDbEntity
  8
SUNPOU
100
AcDbText
 10
6815.004607628562
 20
647.5882230564421
 30
0.0
 40
50.0
  1
デザインウォ－ル　H=1000 (L=2000)
100
AcDbText
  0
LINE
  5
9FF
330
17
100
AcDbEntity
  8
SEIHIN
100
AcDbLine
 10
3743.078958976643
 20
3478.564145216644
 30
0.0
 11
3743.078958976643
 21
4478.564145216644
 31
0.0
  0
LINE
  5
A00
330
17
100
AcDbEntity
  8
SEIHIN
100
AcDbLine
 10
5743.078958976643
 20
3478.564145216644
 30
0.0
 11
5743.078958976643
 21
4478.564145216644
 31
0.0
  0
LINE
  5
A01
330
17
100
AcDbEntity
  8
SEIHIN
100
AcDbLine
 10
3743.078958976643
 20
4478.564145216644
 30
0.0
 11
5743.078958976643
 21
4478.564145216644
 31
0.0
  0
LINE
  5
A02
330
17
100
AcDbEntity
  8
SEIHIN
100
AcDbLine
 10
3743.078958976643
 20
3478.564145216644
 30
0.0
 11
5743.078958976643
 21
3478.564145216644
 31
0.0
  0
DIMENSION
  5
A04
330
17
100
AcDbEntity
  8
SUNPOU
100
AcDbDimension
  2
*D13
 10
5743.078958976643
 20
4916.59578949422
 30
0.0
 11
4743.078958976643
 21
4962.59578949422
 31
0.0
 70
    32
 71
     5
 42
2000.0
  3
A3-20
100
AcDbAlignedDimension
 13
3743.078958976643
 23
4478.564145216644
 33
0.0
 14
5743.078958976643
 24
4478.564145216644
 34
0.0
100
AcDbRotatedDimension
  0
LINE
  5
A07
330
17
100
AcDbEntity
  8
1HASEN
100
AcDbLine
 10
4743.078958976643
 20
4578.564145216644
 30
0.0
 11
4743.078958976644
 21
3378.564145216644
 31
0.0
  0
DIMENSION
  5
A11
330
17
100
AcDbEntity
  8
SUNPOU
100
AcDbDimension
  2
*D14
 10
3424.565824734116
 20
3878.564145216644
 30
0.0
 11
3378.565824734115
 21
3678.564145216645
 31
0.0
 70
    32
 71
     5
 42
400.0
  3
A3-20
100
AcDbAlignedDimension
 13
3743.078958976643
 23
3478.564145216644
 33
0.0
 14
3743.078958976643
 24
3878.564145216644
 34
0.0
 50
90.0
100
AcDbRotatedDimension
  0
DIMENSION
  5
A12
330
17
100
AcDbEntity
  8
SUNPOU
100
AcDbDimension
  2
*D15
 10
3296.546799191627
 20
3478.564145216644
 30
0.0
 11
3250.546799191626
 21
3978.564145216645
 31
0.0
 70
    32
 71
     5
 42
1000.0
  3
A3-20
100
AcDbAlignedDimension
 13
3743.078958976643
 23
4478.564145216644
 33
0.0
 14
3743.078958976643
 24
3478.564145216644
 34
0.0
 50
90.0
100
AcDbRotatedDimension
  0
DIMENSION
  5
A13
330
17
100
AcDbEntity
  8
SUNPOU
100
AcDbDimension
  2
*D16
 10
3424.565824734116
 20
3878.564145216644
 30
0.0
 11
3378.565824734116
 21
4178.564145216645
 31
0.0
 70
    32
 71
     5
 42
600.0
  3
A3-20
100
AcDbAlignedDimension
 13
3743.078958976643
 23
4478.564145216644
 33
0.0
 14
3743.078958976643
 24
3878.564145216644
 34
0.0
 50
90.0
100
AcDbRotatedDimension
  0
LINE
  5
A1B
330
17
100
AcDbEntity
  8
1HASEN
100
AcDbLine
 10
4193.078958976643
 20
3878.564145216644
 30
0.0
 11
4293.078958976643
 21
3878.564145216644
 31
0.0
  0
CIRCLE
  5
A1C
330
17
100
AcDbEntity
  8
SUNPOU
100
AcDbCircle
 10
4243.078958976643
 20
3878.564145216644
 30
0.0
 40
40.0
  0
CIRCLE
  5
A1D
330
17
100
AcDbEntity
  8
SUNPOU
100
AcDbCircle
 10
4243.078958976643
 20
3878.564145216644
 30
0.0
 40
25.0
  0
LINE
  5
A26
330
17
100
AcDbEntity
  8
1HASEN
100
AcDbLine
 10
5293.078958976644
 20
3878.564145216645
 30
0.0
 11
5193.078958976644
 21
3878.564145216645
 31
0.0
  0
CIRCLE
  5
A27
330
17
100
AcDbEntity
  8
SUNPOU
100
AcDbCircle
 10
5243.078958976644
 20
3878.564145216645
 30
0.0
 40
25.0
  0
CIRCLE
  5
A28
330
17
100
AcDbEntity
  8
SUNPOU
100
AcDbCircle
 10
5243.078958976644
 20
3878.564145216645
 30
0.0
 40
40.0
  0
LINE
  5
A30
330
17
100
AcDbEntity
  8
SEIHIN
100
AcDbLine
 10
3743.078958976643
 20
2024.104941746084
 30
0.0
 11
5743.078958976643
 21
2024.104941746084
 31
0.0
  0
LINE
  5
A31
330
17
100
AcDbEntity
  8
SEIHIN
100
AcDbLine
 10
3793.078958976643
 20
1174.104941746084
 30
0.0
 11
5693.078958976641
 21
1174.104941746084
 31
0.0
  0
LINE
  5
A33
330
17
100
AcDbEntity
  8
SEIHIN
100
AcDbLine
 10
3793.078958976643
 20
1734.002401367642
 30
0.0
 11
3793.078958976643
 21
1174.104941746084
 31
0.0
  0
LINE
  5
A34
330
17
100
AcDbEntity
  8
1HASEN
100
AcDbLine
 10
4743.078958976643
 20
2124.104941746084
 30
0.0
 11
4743.078958976642
 21
1074.104941746084
 31
0.0
  0
DIMENSION
  5
A39
330
17
100
AcDbEntity
  8
SUNPOU
100
AcDbDimension
  2
*D17
 10
3279.896391367347
 20
1174.104941746084
 30
0.0
 11
3233.896391367346
 21
1599.104941746084
 31
0.0
 70
    32
 71
     5
 42
850.0
  3
A3-20
100
AcDbAlignedDimension
 13
3743.078958976643
 23
2024.104941746084
 33
0.0
 14
3793.078958976643
 24
1174.104941746084
 34
0.0
 50
90.0
100
AcDbRotatedDimension
  0
DIMENSION
  5
A3A
330
17
100
AcDbEntity
  8
SUNPOU
100
AcDbDimension
  2
*D18
 10
3402.817336628148
 20
1820.604941746084
 30
0.0
 11
3356.817336628148
 21
1922.354941746084
 31
0.0
 70
    32
 71
     5
 42
203.5
  3
A3-20
100
AcDbAlignedDimension
 13
3743.078958976643
 23
2024.104941746084
 33
0.0
 14
3743.078958976643
 24
1820.604941746084
 34
0.0
 50
90.0
100
AcDbRotatedDimension
  0
DIMENSION
  5
A3B
330
17
100
AcDbEntity
  8
SUNPOU
100
AcDbDimension
  2
*D19
 10
3402.817336628148
 20
1734.002401367642
 30
0.0
 11
3356.817336628148
 21
1777.303671556863
 31
0.0
 70
    32
  1
87
 71
     5
 42
86.60254037844197
  3
A3-20
100
AcDbAlignedDimension
 13
3743.078958976643
 23
1820.604941746084
 33
0.0
 14
3793.078958976643
 24
1734.002401367642
 34
0.0
 50
90.0
100
AcDbRotatedDimension
  0
DIMENSION
  5
A3C
330
17
100
AcDbEntity
  8
SUNPOU
100
AcDbDimension
  2
*D20
 10
3402.817336628148
 20
1174.104941746084
 30
0.0
 11
3356.817336628148
 21
1454.053671556863
 31
0.0
 70
    32
  1
553
 71
     5
 42
559.897459621558
  3
A3-20
100
AcDbAlignedDimension
 13
3793.078958976643
 23
1734.002401367642
 33
0.0
 14
3793.078958976643
 24
1174.104941746084
 34
0.0
 50
90.0
100
AcDbRotatedDimension
  0
DIMENSION
  5
A54
330
17
100
AcDbEntity
  8
SUNPOU
100
AcDbDimension
  2
*D21
 10
5743.078958976643
 20
2987.726818724366
 30
0.0
 11
4743.078958976643
 21
3033.726818724366
 31
0.0
 70
    32
 71
     5
 42
2000.0
  3
A3-20
100
AcDbAlignedDimension
 13
3743.078958976643
 23
3478.564145216644
 33
0.0
 14
5743.078958976643
 24
3478.564145216644
 34
0.0
100
AcDbRotatedDimension
  0
DIMENSION
  5
A55
330
17
100
AcDbEntity
  8
SUNPOU
100
AcDbDimension
  2
*D22
 10
5243.078958976643
 20
3118.8207608598
 30
0.0
 11
5493.078958976643
 21
3164.8207608598
 31
0.0
 70
    32
 71
     5
 42
500.0
  3
A3-20
100
AcDbAlignedDimension
 13
5743.078958976643
 23
3478.564145216644
 33
0.0
 14
5243.078958976643
 24
3478.564145216644
 34
0.0
100
AcDbRotatedDimension
  0
DIMENSION
  5
A56
330
17
100
AcDbEntity
  8
SUNPOU
100
AcDbDimension
  2
*D23
 10
5243.078958976643
 20
3118.8207608598
 30
0.0
 11
4993.078958976643
 21
3164.8207608598
 31
0.0
 70
    32
 71
     5
 42
499.9999999999991
  3
A3-20
100
AcDbAlignedDimension
 13
4743.078958976644
 23
3378.564145216644
 33
0.0
 14
5243.078958976643
 24
3478.564145216644
 34
0.0
100
AcDbRotatedDimension
  0
DIMENSION
  5
A57
330
17
100
AcDbEntity
  8
SUNPOU
100
AcDbDimension
  2
*D24
 10
4243.078958976645
 20
3118.8207608598
 30
0.0
 11
4493.078958976645
 21
3164.8207608598
 31
0.0
 70
    32
 71
     5
 42
499.9999999999991
  3
A3-20
100
AcDbAlignedDimension
 13
4743.078958976644
 23
3378.564145216644
 33
0.0
 14
4243.078958976645
 24
3478.564145216643
 34
0.0
100
AcDbRotatedDimension
  0
DIMENSION
  5
A58
330
17
100
AcDbEntity
  8
SUNPOU
100
AcDbDimension
  2
*D25
 10
4243.078958976645
 20
3118.8207608598
 30
0.0
 11
3993.078958976645
 21
3164.8207608598
 31
0.0
 70
    32
 71
     5
 42
500.0
  3
A3-20
100
AcDbAlignedDimension
 13
3743.078958976645
 23
3478.564145216642
 33
0.0
 14
4243.078958976645
 24
3478.564145216643
 34
0.0
100
AcDbRotatedDimension
  0
DIMENSION
  5
A59
330
17
100
AcDbEntity
  8
SUNPOU
100
AcDbDimension
  2
*D26
 10
5693.078958976641
 20
766.2229829923672
 30
0.0
 11
4743.078958976642
 21
812.2229829923672
 31
0.0
 70
    32
 71
     5
 42
1899.999999999998
  3
A3-20
100
AcDbAlignedDimension
 13
3793.078958976643
 23
1174.104941746084
 33
0.0
 14
5693.078958976641
 24
1174.104941746084
 34
0.0
100
AcDbRotatedDimension
  0
DIMENSION
  5
A66
330
17
100
AcDbEntity
  8
SUNPOU
100
AcDbDimension
  2
*D27
 10
5743.078958976643
 20
2407.135592419516
 30
0.0
 11
4743.078958976643
 21
2453.135592419516
 31
0.0
 70
    32
 71
     5
 42
2000.0
  3
A3-20
100
AcDbAlignedDimension
 13
3743.078958976643
 23
2024.104941746084
 33
0.0
 14
5743.078958976643
 24
2024.104941746084
 34
0.0
100
AcDbRotatedDimension
  0
LINE
  5
AB3
330
17
100
AcDbEntity
  8
SEIHIN
100
AcDbLine
 10
2165.117202579266
 20
3551.689145216645
 30
0.0
 11
2315.117202579266
 21
3551.689145216645
 31
0.0
  0
LINE
  5
AB4
330
17
100
AcDbEntity
  8
1HASEN
100
AcDbLine
 10
4243.078958976643
 20
3928.564145216644
 30
0.0
 11
4243.078958976643
 21
3828.564145216644
 31
0.0
  0
LINE
  5
AB5
330
17
100
AcDbEntity
  8
1HASEN
100
AcDbLine
 10
5243.078958976644
 20
3928.564145216645
 30
0.0
 11
5243.078958976644
 21
3828.564145216645
 31
0.0
  0
DIMENSION
  5
ADE
330
17
100
AcDbEntity
  8
SUNPOU
100
AcDbDimension
  2
*D28
 10
2315.117202579266
 20
3695.586950757081
 30
0.0
 11
2240.117202579266
 21
3741.586950757081
 31
0.0
 70
    32
 71
     5
 42
150.0
  3
A3-20
100
AcDbAlignedDimension
 13
2165.117202579266
 23
3551.689145216645
 33
0.0
 14
2315.117202579266
 24
3551.689145216645
 34
0.0
100
AcDbRotatedDimension
  0
TEXT
  5
11EA
330
17
100
AcDbEntity
  8
SUNPOU
100
AcDbText
 10
1182.614889249882
 20
4013.860323405059
 30
0.0
 40
60.0
  1
水抜孔
 41
0.8
100
AcDbText
  0
LINE
  5
11EB
330
17
100
AcDbEntity
  8
SUNPOU
100
AcDbLine
 10
1162.578912524092
 20
4005.511466030386
 30
0.0
 11
1373.825972129289
 21
4005.511466030386
 31
0.0
  0
LEADER
  5
11ED
330
17
100
AcDbEntity
  8
SUNPOU
100
AcDbLeader
  3
A3-20
 76
     2
 10
1465.117202579266
 20
3878.564145216644
 30
0.0
 10
1373.825972129289
 20
4005.511466030386
 30
0.0
1001
ACAD
1000
DSTYLE
1002
{
1070
   147
1040
0.8
1070
    77
1070
     0
1002
}
  0
DIMENSION
  5
138C
330
17
100
AcDbEntity
  8
SUNPOU
100
AcDbDimension
  2
*D29
 10
3743.078958976643
 20
766.2229829923672
 30
0.0
 11
3768.078958976643
 21
812.2229829923672
 31
0.0
 70
    32
 71
     5
 42
50.0
  3
A3-20
100
AcDbAlignedDimension
 13
3793.078958976643
 23
1174.104941746084
 33
0.0
 14
3743.078958976643
 24
1174.104941746084
 34
0.0
100
AcDbRotatedDimension
  0
DIMENSION
  5
139A
330
17
100
AcDbEntity
  8
SUNPOU
100
AcDbDimension
  2
*D30
 10
5743.078958976641
 20
766.2229829923672
 30
0.0
 11
5718.078958976641
 21
812.2229829923672
 31
0.0
 70
    32
 71
     5
 42
50.0
  3
A3-20
100
AcDbAlignedDimension
 13
5693.078958976641
 23
1174.104941746084
 33
0.0
 14
5743.078958976641
 24
1174.104941746084
 34
0.0
 50
180.0
100
AcDbRotatedDimension
  0
LINE
  5
16D3
330
17
100
AcDbEntity
  8
SEIHIN
100
AcDbLine
 10
1568.623668096507
 20
3682.720395216644
 30
0.0
 11
1668.617202579266
 21
3582.720395216644
 31
0.0
  0
LINE
  5
16DE
330
17
100
AcDbEntity
  8
SEIHIN
100
AcDbLine
 10
3743.078958976643
 20
1820.604941746084
 30
0.0
 11
3793.078958976643
 21
1734.002401367642
 31
0.0
  0
LINE
  5
16DF
330
17
100
AcDbEntity
  8
SEIHIN
100
AcDbLine
 10
3743.078958976643
 20
1954.104941746084
 30
0.0
 11
5743.078958976643
 21
1954.104941746084
 31
0.0
  0
LINE
  5
16E0
330
17
100
AcDbEntity
  8
SEIHIN
100
AcDbLine
 10
3743.078958976643
 20
1820.604941746084
 30
0.0
 11
5743.078958976643
 21
1820.604941746084
 31
0.0
  0
LINE
  5
16E1
330
17
100
AcDbEntity
  8
SEIHIN
100
AcDbLine
 10
3743.078958976643
 20
2024.104941746084
 30
0.0
 11
3743.078958976643
 21
1820.604941746084
 31
0.0
  0
LINE
  5
16E2
330
17
100
AcDbEntity
  8
SEIHIN
100
AcDbLine
 10
3743.078958976643
 20
1920.604941746084
 30
0.0
 11
5743.078958976643
 21
1920.604941746084
 31
0.0
  0
LINE
  5
1706
330
17
100
AcDbEntity
  8
SEIHIN
100
AcDbLine
 10
5693.078958976643
 20
1734.002401367642
 30
0.0
 11
5693.078958976643
 21
1174.104941746084
 31
0.0
  0
LINE
  5
1707
330
17
100
AcDbEntity
  8
SEIHIN
100
AcDbLine
 10
5743.078958976643
 20
1820.604941746084
 30
0.0
 11
5693.078958976643
 21
1734.002401367642
 31
0.0
  0
LINE
  5
1708
330
17
100
AcDbEntity
  8
SEIHIN
100
AcDbLine
 10
5743.078958976643
 20
2024.104941746084
 30
0.0
 11
5743.078958976643
 21
1820.604941746084
 31
0.0
  0
DIMENSION
  5
1709
330
17
100
AcDbEntity
  8
SUNPOU
100
AcDbDimension
  2
*D36
 10
5743.078958976643
 20
1820.604941746084
 30
0.0
 11
5694.372502468431
 21
1638.829971400797
 31
0.0
 70
    34
 71
     5
 42
0.5235987755983142
  3
A3-20
100
AcDb2LineAngularDimension
 13
5743.078958976643
 23
1820.604941746084
 33
0.0
 14
5693.078958976643
 24
1734.002401367642
 34
0.0
 15
5743.078958976643
 25
2024.104941746084
 35
0.0
 16
5662.982186093966
 26
1600.540866879754
 36
0.0
1001
ACAD
1000
DSTYLE
1002
{
1070
   179
1070
     0
1002
}
  0
LINE
  5
1723
330
17
100
AcDbEntity
  8
SEIHIN
100
AcDbLine
 10
3743.078958976643
 20
3682.720395216644
 30
0.0
 11
5743.078958976643
 21
3682.720395216644
 31
0.0
  0
LINE
  5
1724
330
17
100
AcDbEntity
  8
SEIHIN
100
AcDbLine
 10
3743.078958976643
 20
3582.720395216644
 30
0.0
 11
5743.078958976643
 21
3582.720395216644
 31
0.0
  0
LINE
  5
1725
330
17
100
AcDbEntity
  8
SEIHIN
100
AcDbLine
 10
3793.078958976642
 20
3551.664145216644
 30
0.0
 11
5693.078958976645
 21
3551.664145216644
 31
0.0
  0
LINE
  5
1726
330
17
100
AcDbEntity
  8
SEIHIN
100
AcDbLine
 10
3793.078958976643
 20
3478.564145216644
 30
0.0
 11
3793.078958976642
 21
3577.320395216644
 31
0.0
  0
LINE
  5
1737
330
17
100
AcDbEntity
  8
SEIHIN
100
AcDbLine
 10
3743.078958976643
 20
3582.720395216644
 30
0.0
 11
3793.078958976642
 21
3577.320395216644
 31
0.0
  0
LINE
  5
1738
330
17
100
AcDbEntity
  8
SEIHIN
100
AcDbLine
 10
5693.078958976645
 20
3478.564145216644
 30
0.0
 11
5693.078958976645
 21
3577.320395216644
 31
0.0
  0
LINE
  5
1739
330
17
100
AcDbEntity
  8
SEIHIN
100
AcDbLine
 10
5743.078958976645
 20
3582.720395216644
 30
0.0
 11
5693.078958976645
 21
3577.320395216644
 31
0.0
  0
ENDSEC
  0
SECTION
  2
OBJECTS
  0
DICTIONARY
  5
C
330
0
100
AcDbDictionary
281
     1
  3
ACAD_COLOR
350
A4
  3
ACAD_GROUP
350
D
  3
ACAD_LAYOUT
350
6F
  3
ACAD_MATERIAL
350
A3
  3
ACAD_MLEADERSTYLE
350
1767
  3
ACAD_MLINESTYLE
350
1A
  3
ACAD_PLOTSETTINGS
350
70
  3
ACAD_PLOTSTYLENAME
350
6D
  3
ACAD_SCALELIST
350
1740
  3
ACAD_TABLESTYLE
350
A5
  3
AcadDim
350
12C0
  3
ACDB_RECOMPOSE_DATA
350
1766
  3
AcDbVariableDictionary
350
A0
  0
DICTIONARY
  5
A4
102
{ACAD_REACTORS
330
C
102
}
330
C
100
AcDbDictionary
281
     1
  0
DICTIONARY
  5
D
102
{ACAD_REACTORS
330
C
102
}
330
C
100
AcDbDictionary
281
     1
  0
DICTIONARY
  5
6F
102
{ACAD_REACTORS
330
C
102
}
330
C
100
AcDbDictionary
281
     1
  3
Model
350
71
  3
ﾚｲｱｳﾄ1
350
72
  0
DICTIONARY
  5
A3
102
{ACAD_REACTORS
330
C
102
}
330
C
100
AcDbDictionary
281
     1
  0
DICTIONARY
  5
1767
102
{ACAD_REACTORS
330
C
102
}
330
C
100
AcDbDictionary
281
     1
  0
DICTIONARY
  5
1A
102
{ACAD_REACTORS
330
C
102
}
330
C
100
AcDbDictionary
281
     1
  3
STANDARD
350
1B
  0
DICTIONARY
  5
70
102
{ACAD_REACTORS
330
C
102
}
330
C
100
AcDbDictionary
281
     1
  0
ACDBDICTIONARYWDFLT
  5
6D
102
{ACAD_REACTORS
330
C
102
}
330
C
100
AcDbDictionary
281
     1
  3
Normal
350
6E
100
AcDbDictionaryWithDefault
340
6E
  0
DICTIONARY
  5
1740
102
{ACAD_REACTORS
330
C
102
}
330
C
100
AcDbDictionary
281
     1
  3
A0
350
1741
  3
A1
350
1742
  3
A2
350
1743
  3
A3
350
1744
  3
A4
350
1745
  3
A5
350
1746
  3
A6
350
1747
  3
A7
350
1748
  3
A8
350
1749
  3
A9
350
174A
  3
B0
350
174B
  3
B1
350
174C
  3
B2
350
174D
  3
B3
350
174E
  3
B4
350
174F
  3
B5
350
1750
  3
B6
350
1751
  3
B7
350
1752
  3
B8
350
1753
  3
B9
350
1754
  3
C0
350
1755
  3
C1
350
1756
  3
C2
350
1757
  3
C3
350
1758
  3
C4
350
1759
  3
C5
350
175A
  3
C6
350
175B
  3
C7
350
175C
  3
C8
350
175D
  3
C9
350
175E
  3
D0
350
175F
  3
D1
350
1760
  3
D2
350
1761
  0
DICTIONARY
  5
A5
102
{ACAD_REACTORS
330
C
102
}
330
C
100
AcDbDictionary
281
     1
  3
Standard
350
A6
  0
XRECORD
  5
12C0
102
{ACAD_REACTORS
330
C
102
}
330
C
100
AcDbXrecord
280
     1
 90
   990106
  3

 60
     0
 61
     0
 62
     1
 63
     3
 64
     0
 65
     0
 66
     0
 67
     3
 68
     1
 69
     0
 70
     0
 71
     0
 72
     0
 40
0.0
170
     0
  0
XRECORD
  5
1766
102
{ACAD_REACTORS
330
C
102
}
330
C
100
AcDbXrecord
280
     1
 90
        1
330
A6
  0
DICTIONARY
  5
A0
102
{ACAD_REACTORS
330
C
102
}
330
C
100
AcDbDictionary
281
     1
  3
CANNOSCALE
350
1762
  3
CTABLESTYLE
350
B0
  3
DIMASSOC
350
A1
  3
PROJECTNAME
350
B1
  0
LAYOUT
  5
71
102
{ACAD_REACTORS
330
6F
102
}
330
6F
100
AcDbPlotSettings
  1

  2
RICOH IPSiO NX850 RPCS
  4

  6

 40
0.0
 41
0.0
 42
0.0
 43
0.0
 44
0.0
 45
0.0
 46
0.0
 47
0.0
 48
0.0
 49
0.0
140
0.0
141
0.0
142
1.0
143
1.0
 70
  1712
 72
     0
 73
     0
 74
     0
  7
acad.ctb
 75
     0
 76
     0
 77
     2
 78
   300
147
1.0
148
0.0
149
0.0
100
AcDbLayout
  1
Model
 70
     1
 71
     0
 10
0.0
 20
0.0
 11
12.0
 21
9.0
 12
0.0
 22
0.0
 32
0.0
 14
0.0
 24
0.0
 34
0.0
 15
0.0
 25
0.0
 35
0.0
146
0.0
 13
0.0
 23
0.0
 33
0.0
 16
1.0
 26
0.0
 36
0.0
 17
0.0
 27
1.0
 37
0.0
 76
     0
330
17
331
173A
  0
LAYOUT
  5
72
102
{ACAD_REACTORS
330
6F
102
}
330
6F
100
AcDbPlotSettings
  1

  2
RICOH IPSiO NX850 RPCS
  4

  6

 40
0.0
 41
0.0
 42
0.0
 43
0.0
 44
0.0
 45
0.0
 46
0.0
 47
0.0
 48
0.0
 49
0.0
140
0.0
141
0.0
142
1.0
143
1.0
 70
   688
 72
     0
 73
     0
 74
     5
  7
acad.ctb
 75
    16
 76
     0
 77
     2
 78
   300
147
1.0
148
0.0
149
0.0
100
AcDbLayout
  1
ﾚｲｱｳﾄ1
 70
     0
 71
     1
 10
0.0
 20
0.0
 11
12.0
 21
9.0
 12
0.0
 22
0.0
 32
0.0
 14
1.000000000000000E+20
 24
1.000000000000000E+20
 34
1.000000000000000E+20
 15
-1.000000000000000E+20
 25
-1.000000000000000E+20
 35
-1.000000000000000E+20
146
0.0
 13
0.0
 23
0.0
 33
0.0
 16
1.0
 26
0.0
 36
0.0
 17
0.0
 27
1.0
 37
0.0
 76
     0
330
14
  0
MLINESTYLE
  5
1B
102
{ACAD_REACTORS
330
1A
102
}
330
1A
100
AcDbMlineStyle
  2
STANDARD
 70
     0
  3

 62
   256
 51
90.0
 52
90.0
 71
     2
 49
0.5
 62
   256
  6
BYLAYER
 49
-0.5
 62
   256
  6
BYLAYER
  0
ACDBPLACEHOLDER
  5
6E
102
{ACAD_REACTORS
330
6D
102
}
330
6D
  0
SCALE
  5
1741
102
{ACAD_REACTORS
330
1740
102
}
330
1740
100
AcDbScale
 70
     0
300
1:1
140
1.0
141
1.0
290
     1
  0
SCALE
  5
1742
102
{ACAD_REACTORS
330
1740
102
}
330
1740
100
AcDbScale
 70
     0
300
1:2
140
1.0
141
2.0
290
     0
  0
SCALE
  5
1743
102
{ACAD_REACTORS
330
1740
102
}
330
1740
100
AcDbScale
 70
     0
300
1:4
140
1.0
141
4.0
290
     0
  0
SCALE
  5
1744
102
{ACAD_REACTORS
330
1740
102
}
330
1740
100
AcDbScale
 70
     0
300
1:5
140
1.0
141
5.0
290
     0
  0
SCALE
  5
1745
102
{ACAD_REACTORS
330
1740
102
}
330
1740
100
AcDbScale
 70
     0
300
1:8
140
1.0
141
8.0
290
     0
  0
SCALE
  5
1746
102
{ACAD_REACTORS
330
1740
102
}
330
1740
100
AcDbScale
 70
     0
300
1:10
140
1.0
141
10.0
290
     0
  0
SCALE
  5
1747
102
{ACAD_REACTORS
330
1740
102
}
330
1740
100
AcDbScale
 70
     0
300
1:16
140
1.0
141
16.0
290
     0
  0
SCALE
  5
1748
102
{ACAD_REACTORS
330
1740
102
}
330
1740
100
AcDbScale
 70
     0
300
1:20
140
1.0
141
20.0
290
     0
  0
SCALE
  5
1749
102
{ACAD_REACTORS
330
1740
102
}
330
1740
100
AcDbScale
 70
     0
300
1:30
140
1.0
141
30.0
290
     0
  0
SCALE
  5
174A
102
{ACAD_REACTORS
330
1740
102
}
330
1740
100
AcDbScale
 70
     0
300
1:40
140
1.0
141
40.0
290
     0
  0
SCALE
  5
174B
102
{ACAD_REACTORS
330
1740
102
}
330
1740
100
AcDbScale
 70
     0
300
1:50
140
1.0
141
50.0
290
     0
  0
SCALE
  5
174C
102
{ACAD_REACTORS
330
1740
102
}
330
1740
100
AcDbScale
 70
     0
300
1:100
140
1.0
141
100.0
290
     0
  0
SCALE
  5
174D
102
{ACAD_REACTORS
330
1740
102
}
330
1740
100
AcDbScale
 70
     0
300
2:1
140
2.0
141
1.0
290
     0
  0
SCALE
  5
174E
102
{ACAD_REACTORS
330
1740
102
}
330
1740
100
AcDbScale
 70
     0
300
4:1
140
4.0
141
1.0
290
     0
  0
SCALE
  5
174F
102
{ACAD_REACTORS
330
1740
102
}
330
1740
100
AcDbScale
 70
     0
300
8:1
140
8.0
141
1.0
290
     0
  0
SCALE
  5
1750
102
{ACAD_REACTORS
330
1740
102
}
330
1740
100
AcDbScale
 70
     0
300
10:1
140
10.0
141
1.0
290
     0
  0
SCALE
  5
1751
102
{ACAD_REACTORS
330
1740
102
}
330
1740
100
AcDbScale
 70
     0
300
100:1
140
100.0
141
1.0
290
     0
  0
SCALE
  5
1752
102
{ACAD_REACTORS
330
1740
102
}
330
1740
100
AcDbScale
 70
     0
300
1/128" = 1'-0"
140
0.0078125
141
12.0
290
     0
  0
SCALE
  5
1753
102
{ACAD_REACTORS
330
1740
102
}
330
1740
100
AcDbScale
 70
     0
300
1/64" = 1'-0"
140
0.015625
141
12.0
290
     0
  0
SCALE
  5
1754
102
{ACAD_REACTORS
330
1740
102
}
330
1740
100
AcDbScale
 70
     0
300
1/32" = 1'-0"
140
0.03125
141
12.0
290
     0
  0
SCALE
  5
1755
102
{ACAD_REACTORS
330
1740
102
}
330
1740
100
AcDbScale
 70
     0
300
1/16" = 1'-0"
140
0.0625
141
12.0
290
     0
  0
SCALE
  5
1756
102
{ACAD_REACTORS
330
1740
102
}
330
1740
100
AcDbScale
 70
     0
300
3/32" = 1'-0"
140
0.09375
141
12.0
290
     0
  0
SCALE
  5
1757
102
{ACAD_REACTORS
330
1740
102
}
330
1740
100
AcDbScale
 70
     0
300
1/8" = 1'-0"
140
0.125
141
12.0
290
     0
  0
SCALE
  5
1758
102
{ACAD_REACTORS
330
1740
102
}
330
1740
100
AcDbScale
 70
     0
300
3/16" = 1'-0"
140
0.1875
141
12.0
290
     0
  0
SCALE
  5
1759
102
{ACAD_REACTORS
330
1740
102
}
330
1740
100
AcDbScale
 70
     0
300
1/4" = 1'-0"
140
0.25
141
12.0
290
     0
  0
SCALE
  5
175A
102
{ACAD_REACTORS
330
1740
102
}
330
1740
100
AcDbScale
 70
     0
300
3/8" = 1'-0"
140
0.375
141
12.0
290
     0
  0
SCALE
  5
175B
102
{ACAD_REACTORS
330
1740
102
}
330
1740
100
AcDbScale
 70
     0
300
1/2" = 1'-0"
140
0.5
141
12.0
290
     0
  0
SCALE
  5
175C
102
{ACAD_REACTORS
330
1740
102
}
330
1740
100
AcDbScale
 70
     0
300
3/4" = 1'-0"
140
0.75
141
12.0
290
     0
  0
SCALE
  5
175D
102
{ACAD_REACTORS
330
1740
102
}
330
1740
100
AcDbScale
 70
     0
300
1" = 1'-0"
140
1.0
141
12.0
290
     0
  0
SCALE
  5
175E
102
{ACAD_REACTORS
330
1740
102
}
330
1740
100
AcDbScale
 70
     0
300
1-1/2" = 1'-0"
140
1.5
141
12.0
290
     0
  0
SCALE
  5
175F
102
{ACAD_REACTORS
330
1740
102
}
330
1740
100
AcDbScale
 70
     0
300
3" = 1'-0"
140
3.0
141
12.0
290
     0
  0
SCALE
  5
1760
102
{ACAD_REACTORS
330
1740
102
}
330
1740
100
AcDbScale
 70
     0
300
6" = 1'-0"
140
6.0
141
12.0
290
     0
  0
SCALE
  5
1761
102
{ACAD_REACTORS
330
1740
102
}
330
1740
100
AcDbScale
 70
     0
300
1'-0" = 1'-0"
140
12.0
141
12.0
290
     0
  0
TABLESTYLE
  5
A6
102
{ACAD_REACTORS
330
A5
102
}
102
{ACAD_XDICTIONARY
360
1763
102
}
330
A5
100
AcDbTableStyle
  3
Standard
 70
     0
 71
     0
 40
0.06
 41
0.06
280
     0
281
     0
  7
STANDARD
140
0.18
170
     2
 62
     0
 63
   257
283
     0
274
    -2
284
     1
 64
     0
275
    -2
285
     1
 65
     0
276
    -2
286
     1
 66
     0
277
    -2
287
     1
 67
     0
278
    -2
288
     1
 68
     0
279
    -2
289
     1
 69
     0
  7
STANDARD
140
0.25
170
     5
 62
     0
 63
   257
283
     0
274
    -2
284
     1
 64
     0
275
    -2
285
     1
 65
     0
276
    -2
286
     1
 66
     0
277
    -2
287
     1
 67
     0
278
    -2
288
     1
 68
     0
279
    -2
289
     1
 69
     0
  7
STANDARD
140
0.18
170
     5
 62
     0
 63
   257
283
     0
274
    -2
284
     1
 64
     0
275
    -2
285
     1
 65
     0
276
    -2
286
     1
 66
     0
277
    -2
287
     1
 67
     0
278
    -2
288
     1
 68
     0
279
    -2
289
     1
 69
     0
  0
DICTIONARYVAR
  5
1762
102
{ACAD_REACTORS
330
A0
102
}
330
A0
100
DictionaryVariables
280
     0
  1
1:1
  0
DICTIONARYVAR
  5
B0
102
{ACAD_REACTORS
330
A0
102
}
330
A0
100
DictionaryVariables
280
     0
  1
Standard
  0
DICTIONARYVAR
  5
A1
102
{ACAD_REACTORS
330
A0
102
}
330
A0
100
DictionaryVariables
280
     0
  1
1
  0
DICTIONARYVAR
  5
B1
102
{ACAD_REACTORS
330
A0
102
}
330
A0
100
DictionaryVariables
280
     0
  1

  0
DICTIONARY
  5
1763
330
A6
100
AcDbDictionary
280
     1
281
     1
  3
ACAD_ROUNDTRIP_2008_TABLESTYLE_CELLSTYLEMAP
360
1765
  3
ACAD_XREC_ROUNDTRIP
360
1764
  0
CELLSTYLEMAP
  5
1765
102
{ACAD_REACTORS
330
1763
102
}
330
1763
100
AcDbCellStyleMap
 90
        3
300
CELLSTYLE
  1
TABLEFORMAT_BEGIN
 90
        5
170
     1
 91
        0
 92
    32768
 62
   257
 93
        1
300
CONTENTFORMAT
  1
CONTENTFORMAT_BEGIN
 90
        0
 91
        0
 92
        4
 93
        0
300

 40
0.0
140
1.0
 94
        5
 62
     0
340
F
144
0.25
309
CONTENTFORMAT_END
171
     1
301
MARGIN
  1
CELLMARGIN_BEGIN
 40
0.06
 40
0.06
 40
0.06
 40
0.06
 40
0.06
 40
0.06
309
CELLMARGIN_END
 94
        6
 95
        1
302
GRIDFORMAT
  1
GRIDFORMAT_BEGIN
 90
        0
 91
        1
 62
     0
 92
       -2
340
0
 93
        0
 40
0.045
309
GRIDFORMAT_END
 95
        2
302
GRIDFORMAT
  1
GRIDFORMAT_BEGIN
 90
        0
 91
        1
 62
     0
 92
       -2
340
0
 93
        0
 40
0.045
309
GRIDFORMAT_END
 95
        4
302
GRIDFORMAT
  1
GRIDFORMAT_BEGIN
 90
        0
 91
        1
 62
     0
 92
       -2
340
0
 93
        0
 40
0.045
309
GRIDFORMAT_END
 95
        8
302
GRIDFORMAT
  1
GRIDFORMAT_BEGIN
 90
        0
 91
        1
 62
     0
 92
       -2
340
0
 93
        0
 40
0.045
309
GRIDFORMAT_END
 95
       16
302
GRIDFORMAT
  1
GRIDFORMAT_BEGIN
 90
        0
 91
        1
 62
     0
 92
       -2
340
0
 93
        0
 40
0.045
309
GRIDFORMAT_END
 95
       32
302
GRIDFORMAT
  1
GRIDFORMAT_BEGIN
 90
        0
 91
        1
 62
     0
 92
       -2
340
0
 93
        0
 40
0.045
309
GRIDFORMAT_END
309
TABLEFORMAT_END
  1
CELLSTYLE_BEGIN
 90
        1
 91
        1
300
_TITLE
309
CELLSTYLE_END
300
CELLSTYLE
  1
TABLEFORMAT_BEGIN
 90
        5
170
     1
 91
        0
 92
        0
 62
   257
 93
        1
300
CONTENTFORMAT
  1
CONTENTFORMAT_BEGIN
 90
        0
 91
        0
 92
        4
 93
        0
300

 40
0.0
140
1.0
 94
        5
 62
     0
340
F
144
0.18
309
CONTENTFORMAT_END
171
     1
301
MARGIN
  1
CELLMARGIN_BEGIN
 40
0.06
 40
0.06
 40
0.06
 40
0.06
 40
0.06
 40
0.06
309
CELLMARGIN_END
 94
        6
 95
        1
302
GRIDFORMAT
  1
GRIDFORMAT_BEGIN
 90
        0
 91
        1
 62
     0
 92
       -2
340
0
 93
        0
 40
0.045
309
GRIDFORMAT_END
 95
        2
302
GRIDFORMAT
  1
GRIDFORMAT_BEGIN
 90
        0
 91
        1
 62
     0
 92
       -2
340
0
 93
        0
 40
0.045
309
GRIDFORMAT_END
 95
        4
302
GRIDFORMAT
  1
GRIDFORMAT_BEGIN
 90
        0
 91
        1
 62
     0
 92
       -2
340
0
 93
        0
 40
0.045
309
GRIDFORMAT_END
 95
        8
302
GRIDFORMAT
  1
GRIDFORMAT_BEGIN
 90
        0
 91
        1
 62
     0
 92
       -2
340
0
 93
        0
 40
0.045
309
GRIDFORMAT_END
 95
       16
302
GRIDFORMAT
  1
GRIDFORMAT_BEGIN
 90
        0
 91
        1
 62
     0
 92
       -2
340
0
 93
        0
 40
0.045
309
GRIDFORMAT_END
 95
       32
302
GRIDFORMAT
  1
GRIDFORMAT_BEGIN
 90
        0
 91
        1
 62
     0
 92
       -2
340
0
 93
        0
 40
0.045
309
GRIDFORMAT_END
309
TABLEFORMAT_END
  1
CELLSTYLE_BEGIN
 90
        2
 91
        1
300
_HEADER
309
CELLSTYLE_END
300
CELLSTYLE
  1
TABLEFORMAT_BEGIN
 90
        5
170
     1
 91
        0
 92
        0
 62
   257
 93
        1
300
CONTENTFORMAT
  1
CONTENTFORMAT_BEGIN
 90
        0
 91
        0
 92
        4
 93
        0
300

 40
0.0
140
1.0
 94
        2
 62
     0
340
F
144
0.18
309
CONTENTFORMAT_END
171
     1
301
MARGIN
  1
CELLMARGIN_BEGIN
 40
0.06
 40
0.06
 40
0.06
 40
0.06
 40
0.06
 40
0.06
309
CELLMARGIN_END
 94
        6
 95
        1
302
GRIDFORMAT
  1
GRIDFORMAT_BEGIN
 90
        0
 91
        1
 62
     0
 92
       -2
340
0
 93
        0
 40
0.045
309
GRIDFORMAT_END
 95
        2
302
GRIDFORMAT
  1
GRIDFORMAT_BEGIN
 90
        0
 91
        1
 62
     0
 92
       -2
340
0
 93
        0
 40
0.045
309
GRIDFORMAT_END
 95
        4
302
GRIDFORMAT
  1
GRIDFORMAT_BEGIN
 90
        0
 91
        1
 62
     0
 92
       -2
340
0
 93
        0
 40
0.045
309
GRIDFORMAT_END
 95
        8
302
GRIDFORMAT
  1
GRIDFORMAT_BEGIN
 90
        0
 91
        1
 62
     0
 92
       -2
340
0
 93
        0
 40
0.045
309
GRIDFORMAT_END
 95
       16
302
GRIDFORMAT
  1
GRIDFORMAT_BEGIN
 90
        0
 91
        1
 62
     0
 92
       -2
340
0
 93
        0
 40
0.045
309
GRIDFORMAT_END
 95
       32
302
GRIDFORMAT
  1
GRIDFORMAT_BEGIN
 90
        0
 91
        1
 62
     0
 92
       -2
340
0
 93
        0
 40
0.045
309
GRIDFORMAT_END
309
TABLEFORMAT_END
  1
CELLSTYLE_BEGIN
 90
        3
 91
        2
300
_DATA
309
CELLSTYLE_END
  0
XRECORD
  5
1764
102
{ACAD_REACTORS
330
1763
102
}
330
1763
100
AcDbXrecord
280
     1
102
ACAD_ROUNDTRIP_PRE2007_TABLESTYLE
 90
        4
 91
        0
  1

 92
        4
 93
        0
  2

 94
        4
 95
        0
  3

  0
ENDSEC
  0
EOF
