  0
SECTION
  2
HEADER
  9
$ACADVER
  1
AC1018
  9
$ACADMAINTVER
 70
     0
  9
$DWGCODEPAGE
  3
ANSI_932
  9
$INSBASE
 10
0.0
 20
0.0
 30
0.0
  9
$EXTMIN
 10
510.0
 20
0.0
 30
0.0
  9
$EXTMAX
 10
12000.0
 20
8310.0
 30
0.0
  9
$LIMMIN
 10
0.0
 20
0.0
  9
$LIMMAX
 10
12600.0
 20
8910.0
  9
$ORTHOMODE
 70
     1
  9
$REGENMODE
 70
     1
  9
$FILLMODE
 70
     1
  9
$QTEXTMODE
 70
     0
  9
$MIRRTEXT
 70
     1
  9
$LTSCALE
 40
300.0
  9
$ATTMODE
 70
     1
  9
$TEXTSIZE
 40
90.0
  9
$TRACEWID
 40
0.05
  9
$TEXTSTYLE
  7
STANDARD
  9
$CLAYER
  8
SUNPOU
  9
$CELTYPE
  6
BYLAYER
  9
$CECOLOR
 62
   256
  9
$CELTSCALE
 40
1.0
  9
$DISPSILH
 70
     0
  9
$DIMSCALE
 40
30.0
  9
$DIMASZ
 40
2.0
  9
$DIMEXO
 40
2.0
  9
$DIMDLI
 40
7.0
  9
$DIMRND
 40
0.0
  9
$DIMDLE
 40
0.0
  9
$DIMEXE
 40
0.5
  9
$DIMTP
 40
0.0
  9
$DIMTM
 40
0.0
  9
$DIMTXT
 40
3.0
  9
$DIMCEN
 40
0.0
  9
$DIMTSZ
 40
0.0
  9
$DIMTOL
 70
     0
  9
$DIMLIM
 70
     0
  9
$DIMTIH
 70
     0
  9
$DIMTOH
 70
     0
  9
$DIMSE1
 70
     0
  9
$DIMSE2
 70
     0
  9
$DIMTAD
 70
     1
  9
$DIMZIN
 70
     8
  9
$DIMBLK
  1

  9
$DIMASO
 70
     1
  9
$DIMSHO
 70
     1
  9
$DIMPOST
  1

  9
$DIMAPOST
  1

  9
$DIMALT
 70
     0
  9
$DIMALTD
 70
     2
  9
$DIMALTF
 40
25.4
  9
$DIMLFAC
 40
1.0
  9
$DIMTOFL
 70
     0
  9
$DIMTVP
 40
1.0
  9
$DIMTIX
 70
     1
  9
$DIMSOXD
 70
     0
  9
$DIMSAH
 70
     0
  9
$DIMBLK1
  1

  9
$DIMBLK2
  1

  9
$DIMSTYLE
  2
A3-30
  9
$DIMCLRD
 70
     0
  9
$DIMCLRE
 70
     0
  9
$DIMCLRT
 70
     0
  9
$DIMTFAC
 40
1.0
  9
$DIMGAP
 40
0.8
  9
$DIMJUST
 70
     0
  9
$DIMSD1
 70
     0
  9
$DIMSD2
 70
     0
  9
$DIMTOLJ
 70
     1
  9
$DIMTZIN
 70
     8
  9
$DIMALTZ
 70
     8
  9
$DIMALTTZ
 70
     8
  9
$DIMUPT
 70
     0
  9
$DIMDEC
 70
     0
  9
$DIMTDEC
 70
     0
  9
$DIMALTU
 70
     2
  9
$DIMALTTD
 70
     2
  9
$DIMTXSTY
  7
STANDARD
  9
$DIMAUNIT
 70
     0
  9
$DIMADEC
 70
     4
  9
$DIMALTRND
 40
0.0
  9
$DIMAZIN
 70
     0
  9
$DIMDSEP
 70
    46
  9
$DIMATFIT
 70
     3
  9
$DIMFRAC
 70
     0
  9
$DIMLDRBLK
  1

  9
$DIMLUNIT
 70
     2
  9
$DIMLWD
 70
    -2
  9
$DIMLWE
 70
    -2
  9
$DIMTMOVE
 70
     2
  9
$LUNITS
 70
     2
  9
$LUPREC
 70
     4
  9
$SKETCHINC
 40
0.1
  9
$FILLETRAD
 40
0.0
  9
$AUNITS
 70
     0
  9
$AUPREC
 70
     6
  9
$MENU
  1
acad
  9
$ELEVATION
 40
0.0
  9
$PELEVATION
 40
0.0
  9
$THICKNESS
 40
0.0
  9
$LIMCHECK
 70
     0
  9
$CHAMFERA
 40
0.0
  9
$CHAMFERB
 40
0.0
  9
$CHAMFERC
 40
0.0
  9
$CHAMFERD
 40
0.0
  9
$SKPOLY
 70
     0
  9
$TDCREATE
 40
2450014.659421296
  9
$TDUCREATE
 40
2450014.284421296
  9
$TDUPDATE
 40
2455351.391942269
  9
$TDUUPDATE
 40
2455351.016942269
  9
$TDINDWG
 40
0.0686469097
  9
$TDUSRTIMER
 40
0.0686469097
  9
$USRTIMER
 70
     1
  9
$ANGBASE
 50
0.0
  9
$ANGDIR
 70
     0
  9
$PDMODE
 70
     0
  9
$PDSIZE
 40
0.0
  9
$PLINEWID
 40
0.0
  9
$SPLFRAME
 70
     0
  9
$SPLINETYPE
 70
     6
  9
$SPLINESEGS
 70
     8
  9
$HANDSEED
  5
212F
  9
$SURFTAB1
 70
     6
  9
$SURFTAB2
 70
     6
  9
$SURFTYPE
 70
     6
  9
$SURFU
 70
     6
  9
$SURFV
 70
     6
  9
$UCSBASE
  2

  9
$UCSNAME
  2

  9
$UCSORG
 10
0.0
 20
0.0
 30
0.0
  9
$UCSXDIR
 10
1.0
 20
0.0
 30
0.0
  9
$UCSYDIR
 10
0.0
 20
1.0
 30
0.0
  9
$UCSORTHOREF
  2

  9
$UCSORTHOVIEW
 70
     0
  9
$UCSORGTOP
 10
0.0
 20
0.0
 30
0.0
  9
$UCSORGBOTTOM
 10
0.0
 20
0.0
 30
0.0
  9
$UCSORGLEFT
 10
0.0
 20
0.0
 30
0.0
  9
$UCSORGRIGHT
 10
0.0
 20
0.0
 30
0.0
  9
$UCSORGFRONT
 10
0.0
 20
0.0
 30
0.0
  9
$UCSORGBACK
 10
0.0
 20
0.0
 30
0.0
  9
$PUCSBASE
  2

  9
$PUCSNAME
  2

  9
$PUCSORG
 10
0.0
 20
0.0
 30
0.0
  9
$PUCSXDIR
 10
1.0
 20
0.0
 30
0.0
  9
$PUCSYDIR
 10
0.0
 20
1.0
 30
0.0
  9
$PUCSORTHOREF
  2

  9
$PUCSORTHOVIEW
 70
     0
  9
$PUCSORGTOP
 10
0.0
 20
0.0
 30
0.0
  9
$PUCSORGBOTTOM
 10
0.0
 20
0.0
 30
0.0
  9
$PUCSORGLEFT
 10
0.0
 20
0.0
 30
0.0
  9
$PUCSORGRIGHT
 10
0.0
 20
0.0
 30
0.0
  9
$PUCSORGFRONT
 10
0.0
 20
0.0
 30
0.0
  9
$PUCSORGBACK
 10
0.0
 20
0.0
 30
0.0
  9
$USERI1
 70
     0
  9
$USERI2
 70
     0
  9
$USERI3
 70
     0
  9
$USERI4
 70
     0
  9
$USERI5
 70
     0
  9
$USERR1
 40
0.0
  9
$USERR2
 40
0.0
  9
$USERR3
 40
0.0
  9
$USERR4
 40
0.0
  9
$USERR5
 40
0.0
  9
$WORLDVIEW
 70
     1
  9
$SHADEDGE
 70
     3
  9
$SHADEDIF
 70
    70
  9
$TILEMODE
 70
     1
  9
$MAXACTVP
 70
    48
  9
$PINSBASE
 10
0.0
 20
0.0
 30
0.0
  9
$PLIMCHECK
 70
     0
  9
$PEXTMIN
 10
1.000000000000000E+20
 20
1.000000000000000E+20
 30
1.000000000000000E+20
  9
$PEXTMAX
 10
-1.000000000000000E+20
 20
-1.000000000000000E+20
 30
-1.000000000000000E+20
  9
$PLIMMIN
 10
0.0
 20
0.0
  9
$PLIMMAX
 10
12.0
 20
9.0
  9
$UNITMODE
 70
     0
  9
$VISRETAIN
 70
     0
  9
$PLINEGEN
 70
     0
  9
$PSLTSCALE
 70
     0
  9
$TREEDEPTH
 70
  3020
  9
$CMLSTYLE
  2
STANDARD
  9
$CMLJUST
 70
     0
  9
$CMLSCALE
 40
1.0
  9
$PROXYGRAPHICS
 70
     1
  9
$MEASUREMENT
 70
     0
  9
$CELWEIGHT
370
    -1
  9
$ENDCAPS
280
     0
  9
$JOINSTYLE
280
     0
  9
$LWDISPLAY
290
     0
  9
$INSUNITS
 70
     0
  9
$HYPERLINKBASE
  1

  9
$STYLESHEET
  1
acad.ctb
  9
$XEDIT
290
     1
  9
$CEPSNTYPE
380
     0
  9
$PSTYLEMODE
290
     1
  9
$FINGERPRINTGUID
  2
{9E4B692F-34DC-11D6-9351-0080AD72C8A3}
  9
$VERSIONGUID
  2
{C453E992-334C-45A9-B793-137DA1A4970A}
  9
$EXTNAMES
290
     1
  9
$PSVPSCALE
 40
0.0
  9
$OLESTARTUP
290
     0
  9
$SORTENTS
280
   127
  9
$INDEXCTL
280
     0
  9
$HIDETEXT
280
     1
  9
$XCLIPFRAME
290
     0
  9
$HALOGAP
280
     0
  9
$OBSCOLOR
 70
   257
  9
$OBSLTYPE
280
     0
  9
$INTERSECTIONDISPLAY
280
     0
  9
$INTERSECTIONCOLOR
 70
   257
  9
$DIMASSOC
280
     1
  9
$PROJECTNAME
  1

  0
ENDSEC
  0
SECTION
  2
CLASSES
  0
CLASS
  1
ACDBDICTIONARYWDFLT
  2
AcDbDictionaryWithDefault
  3
ObjectDBX Classes
 90
        0
 91
        4
280
     0
281
     0
  0
CLASS
  1
ACDBPLACEHOLDER
  2
AcDbPlaceHolder
  3
ObjectDBX Classes
 90
        0
 91
        1
280
     0
281
     0
  0
CLASS
  1
LAYOUT
  2
AcDbLayout
  3
ObjectDBX Classes
 90
        0
 91
        1
280
     0
281
     0
  0
CLASS
  1
DICTIONARYVAR
  2
AcDbDictionaryVar
  3
ObjectDBX Classes
 90
        0
 91
        4
280
     0
281
     0
  0
CLASS
  1
DUMMY
  2
AcDbLongTransaction
  3
DUMMY
 90
        0
 91
        1
280
     0
281
     0
  0
CLASS
  1
LWPOLYLINE
  2
AcDbPolyline
  3
AutoCAD 2000
 90
        0
 91
        1
280
     0
281
     1
  0
CLASS
  1
HATCH
  2
AcDbHatch
  3
AutoCAD 2000
 90
        0
 91
        1
280
     0
281
     1
  0
CLASS
  1
XRECORD
  2
AcDbXrecord
  3
AutoCAD 2000
 90
        0
 91
        1
280
     0
281
     0
  0
CLASS
  1
DUMMY
  2
AcDbLongTransaction
  3
DUMMY
 90
        0
 91
        1
280
     0
281
     0
  0
CLASS
  1
LWPOLYLINE
  2
AcDbPolyline
  3
AutoCAD 2000
 90
        0
 91
        1
280
     0
281
     1
  0
CLASS
  1
HATCH
  2
AcDbHatch
  3
AutoCAD 2000
 90
        0
 91
        1
280
     0
281
     1
  0
CLASS
  1
XRECORD
  2
AcDbXrecord
  3
AutoCAD 2000
 90
        0
 91
        1
280
     0
281
     0
  0
CLASS
  1
DUMMY
  2
AcDbLongTransaction
  3
DUMMY
 90
        0
 91
        1
280
     0
281
     0
  0
CLASS
  1
LWPOLYLINE
  2
AcDbPolyline
  3
AutoCAD 2000
 90
        0
 91
        1
280
     0
281
     1
  0
CLASS
  1
HATCH
  2
AcDbHatch
  3
AutoCAD 2000
 90
        0
 91
        1
280
     0
281
     1
  0
CLASS
  1
XRECORD
  2
AcDbXrecord
  3
AutoCAD 2000
 90
        0
 91
        1
280
     0
281
     0
  0
CLASS
  1
TABLESTYLE
  2
AcDbTableStyle
  3
ObjectDBX Classes
 90
     4095
 91
        4
280
     0
281
     0
  0
CLASS
  1
SORTENTSTABLE
  2
AcDbSortentsTable
  3
ObjectDBX Classes
 90
        0
 91
        4
280
     0
281
     0
  0
CLASS
  1
SCALE
  2
AcDbScale
  3
ObjectDBX Classes
 90
     1153
 91
        4
280
     0
281
     0
  0
CLASS
  1
CELLSTYLEMAP
  2
AcDbCellStyleMap
  3
ObjectDBX Classes
 90
     1152
 91
        4
280
     0
281
     0
  0
ENDSEC
  0
SECTION
  2
TABLES
  0
TABLE
  2
VPORT
  5
8
330
0
100
AcDbSymbolTable
 70
     2
  0
VPORT
  5
2101
330
8
100
AcDbSymbolTableRecord
100
AcDbViewportTableRecord
  2
*Active
 70
     0
 10
0.0
 20
0.0
 11
1.0
 21
1.0
 12
6266.786710114211
 22
3928.810435922238
 13
0.0
 23
0.0
 14
30.0
 24
30.0
 15
300.0
 25
300.0
 16
0.0
 26
0.0
 36
1.0
 17
0.0
 27
0.0
 37
0.0
 40
9432.846217236918
 41
1.507024265644955
 42
50.0
 43
0.0
 44
0.0
 50
0.0
 51
0.0
 71
     0
 72
   100
 73
     1
 74
     1
 75
     0
 76
     0
 77
     0
 78
     0
281
     0
 65
     1
110
0.0
120
0.0
130
0.0
111
1.0
121
0.0
131
0.0
112
0.0
122
1.0
132
0.0
 79
     0
146
0.0
  0
ENDTAB
  0
TABLE
  2
LTYPE
  5
5
330
0
100
AcDbSymbolTable
 70
     4
  0
LTYPE
  5
11
330
5
100
AcDbSymbolTableRecord
100
AcDbLinetypeTableRecord
  2
BYBLOCK
 70
     0
  3

 72
    65
 73
     0
 40
0.0
  0
LTYPE
  5
12
330
5
100
AcDbSymbolTableRecord
100
AcDbLinetypeTableRecord
  2
BYLAYER
 70
     0
  3

 72
    65
 73
     0
 40
0.0
  0
LTYPE
  5
13
330
5
100
AcDbSymbolTableRecord
100
AcDbLinetypeTableRecord
  2
CONTINUOUS
 70
     0
  3
Solid line
 72
    65
 73
     0
 40
0.0
  0
LTYPE
  5
1E
330
5
100
AcDbSymbolTableRecord
100
AcDbLinetypeTableRecord
  2
HIDDEN
 70
     0
  3
_ _ _ _ _ _ _ _ _ _ _ _ _ _ _ _ _ _ _ _ _ _ _
 72
    65
 73
     2
 40
0.375
 49
0.25
 74
     0
 49
-0.125
 74
     0
  0
LTYPE
  5
1F
330
5
100
AcDbSymbolTableRecord
100
AcDbLinetypeTableRecord
  2
CENTER
 70
     0
  3
____ _ ____ _ ____ _ ____ _ ____ _ ____ _ ____
 72
    65
 73
     4
 40
2.0
 49
1.25
 74
     0
 49
-0.25
 74
     0
 49
0.25
 74
     0
 49
-0.25
 74
     0
  0
LTYPE
  5
20
330
5
100
AcDbSymbolTableRecord
100
AcDbLinetypeTableRecord
  2
PHANTOM
 70
     0
  3
_____ _ _ _____ _ _ _____ _ _ _____ _ _ ____
 72
    65
 73
     6
 40
2.5
 49
1.25
 74
     0
 49
-0.25
 74
     0
 49
0.25
 74
     0
 49
-0.25
 74
     0
 49
0.25
 74
     0
 49
-0.25
 74
     0
  0
ENDTAB
  0
TABLE
  2
LAYER
  5
2
330
0
100
AcDbSymbolTable
 70
    10
  0
LAYER
  5
E
330
2
100
AcDbSymbolTableRecord
100
AcDbLayerTableRecord
  2
0
 70
     0
 62
     7
  6
CONTINUOUS
370
    -3
390
7A
  0
LAYER
  5
23
330
2
100
AcDbSymbolTableRecord
100
AcDbLayerTableRecord
  2
SUNPOU
 70
     0
 62
     1
  6
CONTINUOUS
370
    -3
390
7A
  0
LAYER
  5
24
330
2
100
AcDbSymbolTableRecord
100
AcDbLayerTableRecord
  2
HAIKIN
 70
     0
 62
     2
  6
CONTINUOUS
370
    -3
390
7A
  0
LAYER
  5
25
330
2
100
AcDbSymbolTableRecord
100
AcDbLayerTableRecord
  2
SEIHIN
 70
     0
 62
     3
  6
CONTINUOUS
370
    -3
390
7A
  0
LAYER
  5
26
330
2
100
AcDbSymbolTableRecord
100
AcDbLayerTableRecord
  2
HASEN
 70
     0
 62
     4
  6
HIDDEN
370
    -3
390
7A
  0
LAYER
  5
27
330
2
100
AcDbSymbolTableRecord
100
AcDbLayerTableRecord
  2
1HASEN
 70
     0
 62
     5
  6
CENTER
370
    -3
390
7A
  0
LAYER
  5
28
330
2
100
AcDbSymbolTableRecord
100
AcDbLayerTableRecord
  2
2HASEN
 70
     0
 62
     6
  6
PHANTOM
370
    -3
390
7A
  0
LAYER
  5
29
330
2
100
AcDbSymbolTableRecord
100
AcDbLayerTableRecord
  2
HOJO
 70
     0
 62
     7
  6
CONTINUOUS
370
    -3
390
7A
  0
LAYER
  5
2A
330
2
100
AcDbSymbolTableRecord
100
AcDbLayerTableRecord
  2
TEN
 70
     0
 62
     7
  6
CONTINUOUS
370
    -3
390
7A
  0
LAYER
  5
70
330
2
100
AcDbSymbolTableRecord
100
AcDbLayerTableRecord
  2
DEFPOINTS
 70
     0
 62
     7
  6
CONTINUOUS
290
     0
370
    -3
390
7A
  0
ENDTAB
  0
TABLE
  2
STYLE
  5
3
330
0
100
AcDbSymbolTable
 70
     1
  0
STYLE
  5
F
330
3
100
AcDbSymbolTableRecord
100
AcDbTextStyleTableRecord
  2
STANDARD
 70
     0
 40
0.0
 41
0.8
 50
0.0
 71
     0
 42
90.0
  3
TXT.shx
  4
BIGFONT.shx
  0
ENDTAB
  0
TABLE
  2
VIEW
  5
6
330
0
100
AcDbSymbolTable
 70
     0
  0
ENDTAB
  0
TABLE
  2
UCS
  5
7
330
0
100
AcDbSymbolTable
 70
     0
  0
ENDTAB
  0
TABLE
  2
APPID
  5
9
330
0
100
AcDbSymbolTable
 70
    10
  0
APPID
  5
10
330
9
100
AcDbSymbolTableRecord
100
AcDbRegAppTableRecord
  2
ACAD
 70
     0
  0
APPID
  5
9B0
330
9
100
AcDbSymbolTableRecord
100
AcDbRegAppTableRecord
  2
ACAD_DSTYLE_DIMTEXT_FILL
 70
     0
  0
APPID
  5
9B1
330
9
100
AcDbSymbolTableRecord
100
AcDbRegAppTableRecord
  2
ACAD_DSTYLE_DIMEXT_LENGTH
 70
     0
  0
APPID
  5
9B2
330
9
100
AcDbSymbolTableRecord
100
AcDbRegAppTableRecord
  2
ACAD_DSTYLE_DIMEXT_ENABLED
 70
     0
  0
APPID
  5
9B3
330
9
100
AcDbSymbolTableRecord
100
AcDbRegAppTableRecord
  2
ACAD_DSTYLE_DIM_LINETYPE
 70
     0
  0
APPID
  5
9B4
330
9
100
AcDbSymbolTableRecord
100
AcDbRegAppTableRecord
  2
ACAD_DSTYLE_DIM_EXT1_LINETYPE
 70
     0
  0
APPID
  5
9B5
330
9
100
AcDbSymbolTableRecord
100
AcDbRegAppTableRecord
  2
ACAD_DSTYLE_DIM_EXT2_LINETYPE
 70
     0
  0
APPID
  5
A71
330
9
100
AcDbSymbolTableRecord
100
AcDbRegAppTableRecord
  2
ACAD_DSTYLE_DIMJOGGED_JOGANGLE_SYMBOL
 70
     0
  0
APPID
  5
C55
330
9
100
AcDbSymbolTableRecord
100
AcDbRegAppTableRecord
  2
ACAD_DSTYLE_DIMARC_LENGTH_SYMBOL
 70
     0
  0
APPID
  5
1A72
330
9
100
AcDbSymbolTableRecord
100
AcDbRegAppTableRecord
  2
ACAD_EXEMPT_FROM_CAD_STANDARDS
 70
     0
  0
ENDTAB
  0
TABLE
  2
DIMSTYLE
  5
A
330
0
100
AcDbSymbolTable
 70
     2
100
AcDbDimStyleTable
  0
DIMSTYLE
105
61
330
A
100
AcDbSymbolTableRecord
100
AcDbDimStyleTableRecord
  2
STANDARD
 70
     0
178
     0
340
F
  0
DIMSTYLE
105
C5A
102
{ACAD_REACTORS
330
12C8
330
12ED
330
12F5
330
130D
330
1337
330
1338
330
1339
330
133A
330
133D
330
1340
330
1342
330
1343
330
1351
330
1352
330
135A
330
135C
330
136A
330
136B
330
136E
330
137E
330
1387
330
1388
330
1396
330
1397
330
13F7
330
13F8
330
1D3E
330
1D4C
330
20BB
102
}
330
A
100
AcDbSymbolTableRecord
100
AcDbDimStyleTableRecord
  2
A3-30
 70
     0
 40
30.0
 41
2.0
 42
2.0
 43
7.0
 44
0.5
 73
     0
 74
     0
 77
     1
 78
     8
140
3.0
141
0.0
145
1.0
147
0.8
174
     1
178
     0
179
     4
271
     0
272
     0
279
     2
284
     8
285
     8
286
     8
340
F
  0
ENDTAB
  0
TABLE
  2
BLOCK_RECORD
  5
1
330
0
100
AcDbSymbolTable
 70
    38
  0
BLOCK_RECORD
  5
17
102
{ACAD_XDICTIONARY
360
90E
102
}
330
1
100
AcDbSymbolTableRecord
100
AcDbBlockTableRecord
  2
*MODEL_SPACE
340
7D
  0
BLOCK_RECORD
  5
14
330
1
100
AcDbSymbolTableRecord
100
AcDbBlockTableRecord
  2
*PAPER_SPACE
340
7E
  0
BLOCK_RECORD
  5
1C
330
1
100
AcDbSymbolTableRecord
100
AcDbBlockTableRecord
  2
BORDER
340
0
  0
BLOCK_RECORD
  5
1D
330
1
100
AcDbSymbolTableRecord
100
AcDbBlockTableRecord
  2
SA3
340
0
102
{BLKREFS
331
60
102
}
  0
BLOCK_RECORD
  5
82
330
1
100
AcDbSymbolTableRecord
100
AcDbBlockTableRecord
  2
*D2
340
0
  0
BLOCK_RECORD
  5
8E
330
1
100
AcDbSymbolTableRecord
100
AcDbBlockTableRecord
  2
*D3
340
0
  0
BLOCK_RECORD
  5
9C
330
1
100
AcDbSymbolTableRecord
100
AcDbBlockTableRecord
  2
*D4
340
0
  0
BLOCK_RECORD
  5
AA
330
1
100
AcDbSymbolTableRecord
100
AcDbBlockTableRecord
  2
*D5
340
0
  0
BLOCK_RECORD
  5
B6
330
1
100
AcDbSymbolTableRecord
100
AcDbBlockTableRecord
  2
*D6
340
0
  0
BLOCK_RECORD
  5
C3
330
1
100
AcDbSymbolTableRecord
100
AcDbBlockTableRecord
  2
A$C79F54BAC
340
0
  0
BLOCK_RECORD
  5
13F9
330
1
100
AcDbSymbolTableRecord
100
AcDbBlockTableRecord
  2
*D8
340
0
  0
BLOCK_RECORD
  5
1447
330
1
100
AcDbSymbolTableRecord
100
AcDbBlockTableRecord
  2
*D9
340
0
  0
BLOCK_RECORD
  5
1453
330
1
100
AcDbSymbolTableRecord
100
AcDbBlockTableRecord
  2
*D10
340
0
  0
BLOCK_RECORD
  5
14D1
330
1
100
AcDbSymbolTableRecord
100
AcDbBlockTableRecord
  2
*D11
340
0
  0
BLOCK_RECORD
  5
152B
330
1
100
AcDbSymbolTableRecord
100
AcDbBlockTableRecord
  2
*D12
340
0
  0
BLOCK_RECORD
  5
1537
330
1
100
AcDbSymbolTableRecord
100
AcDbBlockTableRecord
  2
*D13
340
0
  0
BLOCK_RECORD
  5
1543
330
1
100
AcDbSymbolTableRecord
100
AcDbBlockTableRecord
  2
*D14
340
0
  0
BLOCK_RECORD
  5
154F
330
1
100
AcDbSymbolTableRecord
100
AcDbBlockTableRecord
  2
*D15
340
0
  0
BLOCK_RECORD
  5
155B
330
1
100
AcDbSymbolTableRecord
100
AcDbBlockTableRecord
  2
*D16
340
0
  0
BLOCK_RECORD
  5
1574
330
1
100
AcDbSymbolTableRecord
100
AcDbBlockTableRecord
  2
*D17
340
0
  0
BLOCK_RECORD
  5
1580
330
1
100
AcDbSymbolTableRecord
100
AcDbBlockTableRecord
  2
*D18
340
0
  0
BLOCK_RECORD
  5
158D
330
1
100
AcDbSymbolTableRecord
100
AcDbBlockTableRecord
  2
*D19
340
0
  0
BLOCK_RECORD
  5
15BD
330
1
100
AcDbSymbolTableRecord
100
AcDbBlockTableRecord
  2
*D20
340
0
  0
BLOCK_RECORD
  5
15C9
330
1
100
AcDbSymbolTableRecord
100
AcDbBlockTableRecord
  2
*D21
340
0
  0
BLOCK_RECORD
  5
15E1
330
1
100
AcDbSymbolTableRecord
100
AcDbBlockTableRecord
  2
*D22
340
0
  0
BLOCK_RECORD
  5
15F9
330
1
100
AcDbSymbolTableRecord
100
AcDbBlockTableRecord
  2
*D23
340
0
  0
BLOCK_RECORD
  5
1606
330
1
100
AcDbSymbolTableRecord
100
AcDbBlockTableRecord
  2
*D24
340
0
  0
BLOCK_RECORD
  5
1612
330
1
100
AcDbSymbolTableRecord
100
AcDbBlockTableRecord
  2
*D25
340
0
  0
BLOCK_RECORD
  5
1636
330
1
100
AcDbSymbolTableRecord
100
AcDbBlockTableRecord
  2
*D26
340
0
  0
BLOCK_RECORD
  5
1643
330
1
100
AcDbSymbolTableRecord
100
AcDbBlockTableRecord
  2
*D27
340
0
  0
BLOCK_RECORD
  5
1667
330
1
100
AcDbSymbolTableRecord
100
AcDbBlockTableRecord
  2
*D28
340
0
  0
BLOCK_RECORD
  5
1673
330
1
100
AcDbSymbolTableRecord
100
AcDbBlockTableRecord
  2
*D29
340
0
  0
BLOCK_RECORD
  5
16AF
330
1
100
AcDbSymbolTableRecord
100
AcDbBlockTableRecord
  2
*D30
340
0
  0
BLOCK_RECORD
  5
16BB
330
1
100
AcDbSymbolTableRecord
100
AcDbBlockTableRecord
  2
*D31
340
0
  0
BLOCK_RECORD
  5
178F
330
1
100
AcDbSymbolTableRecord
100
AcDbBlockTableRecord
  2
*D32
340
0
  0
BLOCK_RECORD
  5
179B
330
1
100
AcDbSymbolTableRecord
100
AcDbBlockTableRecord
  2
*D33
340
0
  0
BLOCK_RECORD
  5
1D3F
330
1
100
AcDbSymbolTableRecord
100
AcDbBlockTableRecord
  2
*D34
340
0
  0
BLOCK_RECORD
  5
1D4D
330
1
100
AcDbSymbolTableRecord
100
AcDbBlockTableRecord
  2
*D35
340
0
  0
BLOCK_RECORD
  5
20BC
330
1
100
AcDbSymbolTableRecord
100
AcDbBlockTableRecord
  2
*D37
340
0
  0
ENDTAB
  0
ENDSEC
  0
SECTION
  2
BLOCKS
  0
BLOCK
  5
2D
330
17
100
AcDbEntity
  8
0
100
AcDbBlockBegin
  2
*MODEL_SPACE
 70
     0
 10
0.0
 20
0.0
 30
0.0
  3
*MODEL_SPACE
  1

  0
ENDBLK
  5
2E
330
17
100
AcDbEntity
  8
0
100
AcDbBlockEnd
  0
BLOCK
  5
2B
330
14
100
AcDbEntity
 67
     1
  8
0
100
AcDbBlockBegin
  2
*PAPER_SPACE
 70
     0
 10
0.0
 20
0.0
 30
0.0
  3
*PAPER_SPACE
  1

  0
ENDBLK
  5
2C
330
14
100
AcDbEntity
 67
     1
  8
0
100
AcDbBlockEnd
  0
BLOCK
  5
2F
330
1C
100
AcDbEntity
  8
0
100
AcDbBlockBegin
  2
BORDER
 70
     0
 10
0.0
 20
0.0
 30
0.0
  3
BORDER
  1

  0
LINE
  5
30
330
1C
100
AcDbEntity
  8
0
100
AcDbLine
 10
0.0
 20
0.0
 30
0.0
 11
1.00000000000004
 21
0.0
 31
0.0
  0
LINE
  5
31
330
1C
100
AcDbEntity
  8
0
100
AcDbLine
 10
1.00000000000004
 20
0.0
 30
0.0
 11
1.00000000000004
 21
1.00000000000004
 31
0.0
  0
LINE
  5
32
330
1C
100
AcDbEntity
  8
0
100
AcDbLine
 10
1.00000000000004
 20
1.00000000000004
 30
0.0
 11
0.0
 21
1.00000000000004
 31
0.0
  0
LINE
  5
33
330
1C
100
AcDbEntity
  8
0
100
AcDbLine
 10
0.0
 20
1.00000000000004
 30
0.0
 11
0.0
 21
0.0
 31
0.0
  0
ENDBLK
  5
34
330
1C
100
AcDbEntity
  8
0
100
AcDbBlockEnd
  0
BLOCK
  5
35
330
1D
100
AcDbEntity
  8
HAIKIN
100
AcDbBlockBegin
  2
SA3
 70
     0
 10
0.0
 20
0.0
 30
0.0
  3
SA3
  1

  0
TEXT
  5
36
330
1D
100
AcDbEntity
  8
SUNPOU
100
AcDbText
 10
340.0
 20
0.0
 30
0.0
 40
2.5
  1
新和コンクリート工業株式会社
100
AcDbText
  0
TEXT
  5
39
330
1D
100
AcDbEntity
  8
SUNPOU
100
AcDbText
 10
361.4166666666667
 20
6.25
 30
0.0
 40
2.5
  1
製図
 72
     4
 11
364.0
 21
7.5
 31
0.0
100
AcDbText
  0
TEXT
  5
3A
330
1D
100
AcDbEntity
  8
SUNPOU
100
AcDbText
 10
361.3333333333333
 20
11.25
 30
0.0
 40
2.5
  1
設計
 72
     4
 11
364.0
 21
12.5
 31
0.0
100
AcDbText
  0
TEXT
  5
3B
330
1D
100
AcDbEntity
  8
SUNPOU
100
AcDbText
 10
339.0833333333333
 20
6.250000000000014
 30
0.0
 40
2.5
  1
認
 72
     4
 11
340.25
 21
7.500000000000014
 31
0.0
100
AcDbText
  0
TEXT
  5
3C
330
1D
100
AcDbEntity
  8
SUNPOU
100
AcDbText
 10
339.0833333333333
 20
11.33333333333336
 30
0.0
 40
2.5
  1
承
 72
     4
 11
340.25
 21
12.50000000000003
 31
0.0
100
AcDbText
  0
TEXT
  5
3D
330
1D
100
AcDbEntity
  8
SUNPOU
100
AcDbText
 10
312.75
 20
11.75000000000001
 30
0.0
 40
2.5
  1
図　面　番　号
 72
     4
 11
323.0
 21
13.00000000000001
 31
0.0
100
AcDbText
  0
TEXT
  5
3E
330
1D
100
AcDbEntity
  8
SUNPOU
100
AcDbText
 10
362.0
 20
17.0
 30
0.0
 40
2.5
  1
１／
100
AcDbText
  0
TEXT
  5
3F
330
1D
100
AcDbEntity
  8
SUNPOU
100
AcDbText
 10
347.3333333333333
 20
16.25000000000001
 30
0.0
 40
2.5
  1
縮　　尺
 72
     4
 11
353.0
 21
17.50000000000001
 31
0.0
100
AcDbText
  0
TEXT
  5
40
330
1D
100
AcDbEntity
  8
SUNPOU
100
AcDbText
 10
347.3333333333333
 20
21.25
 30
0.0
 40
2.5
  1
鉄 筋 量
 72
     4
 11
353.0
 21
22.5
 31
0.0
100
AcDbText
  0
TEXT
  5
41
330
1D
100
AcDbEntity
  8
SUNPOU
100
AcDbText
 10
347.3333333333333
 20
26.25
 30
0.0
 40
2.5
  1
製 造 数
 72
     4
 11
353.0
 21
27.5
 31
0.0
100
AcDbText
  0
TEXT
  5
42
330
1D
100
AcDbEntity
  8
SUNPOU
100
AcDbText
 10
377.0
 20
21.0
 30
0.0
 40
2.5
  1
ｋｇ
 72
     2
 11
382.0
 21
21.0
 31
0.0
100
AcDbText
  0
TEXT
  5
43
330
1D
100
AcDbEntity
  8
SUNPOU
100
AcDbText
 10
339.5
 20
21.0
 30
0.0
 40
2.5
  1
ｋｇ
 72
     2
 11
344.5
 21
21.0
 31
0.0
100
AcDbText
  0
TEXT
  5
44
330
1D
100
AcDbEntity
  8
SUNPOU
100
AcDbText
 10
310.0
 20
16.25000000000001
 30
0.0
 40
2.5
  1
年 月 日
 72
     4
 11
315.5
 21
17.50000000000001
 31
0.0
100
AcDbText
  0
TEXT
  5
45
330
1D
100
AcDbEntity
  8
SUNPOU
100
AcDbText
 10
309.8333333333333
 20
21.25
 30
0.0
 40
2.5
  1
製品質量
 72
     4
 11
315.5
 21
22.5
 31
0.0
100
AcDbText
  0
TEXT
  5
46
330
1D
100
AcDbEntity
  8
SUNPOU
100
AcDbText
 10
309.9166666666667
 20
26.25
 30
0.0
 40
2.5
  1
業 者 名
 72
     4
 11
315.5
 21
27.5
 31
0.0
100
AcDbText
  0
TEXT
  5
47
330
1D
100
AcDbEntity
  8
SUNPOU
100
AcDbText
 10
309.8333333333333
 20
32.5
 30
0.0
 40
2.5
  1
名　　称
 72
     4
 11
315.5
 21
33.75
 31
0.0
100
AcDbText
  0
LINE
  5
48
330
1D
100
AcDbEntity
  8
SUNPOU
100
AcDbLine
 10
338.0
 20
11.00000000000001
 30
0.0
 11
308.0
 21
11.00000000000001
 31
0.0
  0
LINE
  5
49
330
1D
100
AcDbEntity
  8
SUNPOU
100
AcDbLine
 10
367.5
 20
4.999999999999986
 30
0.0
 11
367.5
 21
14.99999999999999
 31
0.0
  0
LINE
  5
4A
330
1D
100
AcDbEntity
  8
SUNPOU
100
AcDbLine
 10
360.5
 20
4.999999999999986
 30
0.0
 11
360.5
 21
14.99999999999999
 31
0.0
  0
LINE
  5
4B
330
1D
100
AcDbEntity
  8
SUNPOU
100
AcDbLine
 10
342.5
 20
4.999999999999995
 30
0.0
 11
342.5
 21
15.0
 31
0.0
  0
LINE
  5
4C
330
1D
100
AcDbEntity
  8
SUNPOU
100
AcDbLine
 10
338.0
 20
4.999999999999995
 30
0.0
 11
338.0
 21
15.0
 31
0.0
  0
LINE
  5
4D
330
1D
100
AcDbEntity
  8
SUNPOU
100
AcDbLine
 10
323.0
 20
15.00000000000001
 30
0.0
 11
323.0
 21
37.5
 31
0.0
  0
LINE
  5
4E
330
1D
100
AcDbEntity
  8
SUNPOU
100
AcDbLine
 10
360.5
 20
15.00000000000001
 30
0.0
 11
360.5
 21
30.0
 31
0.0
  0
LINE
  5
4F
330
1D
100
AcDbEntity
  8
SUNPOU
100
AcDbLine
 10
345.5
 20
15.00000000000001
 30
0.0
 11
345.5
 21
30.0
 31
0.0
  0
LINE
  5
50
330
1D
100
AcDbEntity
  8
SUNPOU
100
AcDbLine
 10
383.0
 20
30.0
 30
0.0
 11
308.0
 21
30.0
 31
0.0
  0
LINE
  5
51
330
1D
100
AcDbEntity
  8
SUNPOU
100
AcDbLine
 10
383.0
 20
25.0
 30
0.0
 11
308.0
 21
25.0
 31
0.0
  0
LINE
  5
52
330
1D
100
AcDbEntity
  8
SUNPOU
100
AcDbLine
 10
383.0
 20
20.0
 30
0.0
 11
308.0
 21
20.0
 31
0.0
  0
LINE
  5
53
330
1D
100
AcDbEntity
  8
SUNPOU
100
AcDbLine
 10
383.0
 20
14.99999999999999
 30
0.0
 11
308.0
 21
15.00000000000004
 31
0.0
  0
LINE
  5
54
330
1D
100
AcDbEntity
  8
HAIKIN
100
AcDbLine
 10
308.0
 20
37.5
 30
0.0
 11
383.0
 21
37.5
 31
0.0
  0
LINE
  5
55
330
1D
100
AcDbEntity
  8
HAIKIN
100
AcDbLine
 10
308.0
 20
5.000000000000009
 30
0.0
 11
308.0
 21
37.5
 31
0.0
  0
LINE
  5
56
330
1D
100
AcDbEntity
  8
SUNPOU
100
AcDbLine
 10
0.000000000000016
 20
277.0
 30
0.0
 11
0.000000000000016
 21
272.0
 31
0.0
  0
LINE
  5
57
330
1D
100
AcDbEntity
  8
SUNPOU
100
AcDbLine
 10
25.00000000000001
 20
277.0
 30
0.0
 11
0.000000000000016
 21
277.0
 31
0.0
  0
LINE
  5
58
330
1D
100
AcDbEntity
  8
SUNPOU
100
AcDbLine
 10
25.00000000000001
 20
272.0
 30
0.0
 11
25.00000000000001
 21
277.0
 31
0.0
  0
LINE
  5
59
330
1D
100
AcDbEntity
  8
HAIKIN
100
AcDbLine
 10
0.0000000000000004
 20
5.0
 30
0.0
 11
383.0
 21
5.0
 31
0.0
  0
LINE
  5
5A
330
1D
100
AcDbEntity
  8
HAIKIN
100
AcDbLine
 10
0.0000000000000158
 20
272.0
 30
0.0
 11
383.0
 21
272.0
 31
0.0
  0
LINE
  5
5B
330
1D
100
AcDbEntity
  8
HAIKIN
100
AcDbLine
 10
383.0
 20
272.0
 30
0.0
 11
383.0
 21
5.0
 31
0.0
  0
TEXT
  5
5C
330
1D
100
AcDbEntity
  8
SUNPOU
100
AcDbText
 10
3.700000000000017
 20
273.0
 30
0.0
 40
3.0
  1
Ｈ－２－共
 72
     4
 11
12.50000000000002
 21
274.5
 31
0.0
100
AcDbText
  0
LINE
  5
5D
330
1D
100
AcDbEntity
  8
HAIKIN
100
AcDbLine
 10
0.0000000000000004
 20
5.0
 30
0.0
 11
0.0000000000000158
 21
272.0
 31
0.0
  0
ENDBLK
  5
5E
330
1D
100
AcDbEntity
  8
HAIKIN
100
AcDbBlockEnd
  0
BLOCK
  5
8C
330
82
100
AcDbEntity
  8
0
100
AcDbBlockBegin
  2
*D2
 70
     1
 10
0.0
 20
0.0
 30
0.0
  3
*D2
  1

  0
LINE
  5
83
330
82
100
AcDbEntity
  8
SUNPOU
370
    -2
100
AcDbLine
 10
14459.99999999999
 20
11910.0
 30
0.0
 11
15605.99999999999
 21
11910.0
 31
0.0
  0
LINE
  5
84
330
82
100
AcDbEntity
  8
SUNPOU
370
    -2
100
AcDbLine
 10
14459.99999999999
 20
13710.0
 30
0.0
 11
15605.99999999999
 21
13710.0
 31
0.0
  0
LINE
  5
85
330
82
100
AcDbEntity
  8
SUNPOU
370
    -2
100
AcDbLine
 10
15569.99999999999
 20
12000.0
 30
0.0
 11
15569.99999999999
 21
13620.0
 31
0.0
  0
MTEXT
  5
86
330
82
100
AcDbEntity
  8
SUNPOU
 62
     0
100
AcDbMText
 10
15404.05869794343
 20
12806.25726232369
 30
0.0
 40
180.0
 41
0.0
 71
     5
 72
     1
  1
\A1;15@120=1800
 11
6.123031769111886E-17
 21
1.0
 31
0.0
 73
     1
 44
1.0
  0
SOLID
  5
87
330
82
100
AcDbEntity
  8
SUNPOU
100
AcDbTrace
 10
15554.99999999999
 20
12000.0
 30
0.0
 11
15584.99999999999
 21
12000.0
 31
0.0
 12
15569.99999999999
 22
11910.0
 32
0.0
 13
15569.99999999999
 23
11910.0
 33
0.0
  0
SOLID
  5
88
330
82
100
AcDbEntity
  8
SUNPOU
100
AcDbTrace
 10
15554.99999999999
 20
13620.0
 30
0.0
 11
15584.99999999999
 21
13620.0
 31
0.0
 12
15569.99999999999
 22
13710.0
 32
0.0
 13
15569.99999999999
 23
13710.0
 33
0.0
  0
POINT
  5
89
330
82
100
AcDbEntity
  8
DEFPOINTS
 62
     0
100
AcDbPoint
 10
14369.99999999999
 20
11910.0
 30
0.0
  0
POINT
  5
8A
330
82
100
AcDbEntity
  8
DEFPOINTS
 62
     0
100
AcDbPoint
 10
14369.99999999999
 20
13710.0
 30
0.0
  0
POINT
  5
8B
330
82
100
AcDbEntity
  8
DEFPOINTS
 62
     0
100
AcDbPoint
 10
15569.99999999999
 20
13710.0
 30
0.0
  0
ENDBLK
  5
8D
330
82
100
AcDbEntity
  8
0
100
AcDbBlockEnd
  0
BLOCK
  5
9A
330
8E
100
AcDbEntity
  8
0
100
AcDbBlockBegin
  2
*D3
 70
     1
 10
0.0
 20
0.0
 30
0.0
  3
*D3
  1

  0
LINE
  5
8F
330
8E
100
AcDbEntity
  8
SUNPOU
370
    -2
100
AcDbLine
 10
14333.74999999999
 20
11805.0
 30
0.0
 11
15605.99999999999
 21
11805.0
 31
0.0
  0
LINE
  5
90
330
8E
100
AcDbEntity
  8
SUNPOU
370
    -2
100
AcDbLine
 10
14489.70588235293
 20
11910.0
 30
0.0
 11
15605.99999999999
 21
11910.0
 31
0.0
  0
LINE
  5
91
330
8E
100
AcDbEntity
  8
SUNPOU
370
    -2
100
AcDbLine
 10
15569.99999999999
 20
11715.0
 30
0.0
 11
15569.99999999999
 21
11625.0
 31
0.0
  0
LINE
  5
92
330
8E
100
AcDbEntity
  8
SUNPOU
370
    -2
100
AcDbLine
 10
15569.99999999999
 20
12000.0
 30
0.0
 11
15569.99999999999
 21
12090.0
 31
0.0
  0
MTEXT
  5
93
330
8E
100
AcDbEntity
  8
SUNPOU
 62
     0
100
AcDbMText
 10
15730.33993097525
 20
11906.05735268755
 30
0.0
 40
180.0
 41
0.0
 71
     5
 72
     1
  1
\A1;105
 11
6.123031769111886E-17
 21
1.0
 31
0.0
 73
     1
 44
1.0
  0
LINE
  5
94
330
8E
100
AcDbEntity
  8
SUNPOU
370
    -2
100
AcDbLine
 10
15569.99999999999
 20
11805.0
 30
0.0
 11
15569.99999999999
 21
11910.0
 31
0.0
  0
SOLID
  5
95
330
8E
100
AcDbEntity
  8
SUNPOU
100
AcDbTrace
 10
15554.99999999999
 20
11715.0
 30
0.0
 11
15584.99999999999
 21
11715.0
 31
0.0
 12
15569.99999999999
 22
11805.0
 32
0.0
 13
15569.99999999999
 23
11805.0
 33
0.0
  0
SOLID
  5
96
330
8E
100
AcDbEntity
  8
SUNPOU
100
AcDbTrace
 10
15554.99999999999
 20
12000.0
 30
0.0
 11
15584.99999999999
 21
12000.0
 31
0.0
 12
15569.99999999999
 22
11910.0
 32
0.0
 13
15569.99999999999
 23
11910.0
 33
0.0
  0
POINT
  5
97
330
8E
100
AcDbEntity
  8
DEFPOINTS
 62
     0
100
AcDbPoint
 10
14243.74999999999
 20
11805.0
 30
0.0
  0
POINT
  5
98
330
8E
100
AcDbEntity
  8
DEFPOINTS
 62
     0
100
AcDbPoint
 10
14399.70588235293
 20
11910.0
 30
0.0
  0
POINT
  5
99
330
8E
100
AcDbEntity
  8
DEFPOINTS
 62
     0
100
AcDbPoint
 10
15569.99999999999
 20
11910.0
 30
0.0
  0
ENDBLK
  5
9B
330
8E
100
AcDbEntity
  8
0
100
AcDbBlockEnd
  0
BLOCK
  5
A8
330
9C
100
AcDbEntity
  8
0
100
AcDbBlockBegin
  2
*D4
 70
     1
 10
0.0
 20
0.0
 30
0.0
  3
*D4
  1

  0
LINE
  5
9D
330
9C
100
AcDbEntity
  8
SUNPOU
370
    -2
100
AcDbLine
 10
14459.99999999999
 20
13710.0
 30
0.0
 11
15605.99999999999
 21
13710.0
 31
0.0
  0
LINE
  5
9E
330
9C
100
AcDbEntity
  8
SUNPOU
370
    -2
100
AcDbLine
 10
14459.99999999999
 20
13770.0
 30
0.0
 11
15605.99999999999
 21
13770.0
 31
0.0
  0
LINE
  5
9F
330
9C
100
AcDbEntity
  8
SUNPOU
370
    -2
100
AcDbLine
 10
15569.99999999999
 20
13620.0
 30
0.0
 11
15569.99999999999
 21
13530.0
 31
0.0
  0
LINE
  5
A0
330
9C
100
AcDbEntity
  8
SUNPOU
370
    -2
100
AcDbLine
 10
15569.99999999999
 20
13860.0
 30
0.0
 11
15569.99999999999
 21
13950.0
 31
0.0
  0
MTEXT
  5
A1
330
9C
100
AcDbEntity
  8
SUNPOU
 62
     0
100
AcDbMText
 10
15437.48050855183
 20
13968.0082924672
 30
0.0
 40
180.0
 41
0.0
 71
     5
 72
     1
  1
\A1;60
 11
6.123031769111886E-17
 21
1.0
 31
0.0
 73
     1
 44
1.0
  0
LINE
  5
A2
330
9C
100
AcDbEntity
  8
SUNPOU
370
    -2
100
AcDbLine
 10
15569.99999999999
 20
13710.0
 30
0.0
 11
15569.99999999999
 21
13770.0
 31
0.0
  0
SOLID
  5
A3
330
9C
100
AcDbEntity
  8
SUNPOU
100
AcDbTrace
 10
15554.99999999999
 20
13620.0
 30
0.0
 11
15584.99999999999
 21
13620.0
 31
0.0
 12
15569.99999999999
 22
13710.0
 32
0.0
 13
15569.99999999999
 23
13710.0
 33
0.0
  0
SOLID
  5
A4
330
9C
100
AcDbEntity
  8
SUNPOU
100
AcDbTrace
 10
15554.99999999999
 20
13860.0
 30
0.0
 11
15584.99999999999
 21
13860.0
 31
0.0
 12
15569.99999999999
 22
13770.0
 32
0.0
 13
15569.99999999999
 23
13770.0
 33
0.0
  0
POINT
  5
A5
330
9C
100
AcDbEntity
  8
DEFPOINTS
 62
     0
100
AcDbPoint
 10
14369.99999999999
 20
13710.0
 30
0.0
  0
POINT
  5
A6
330
9C
100
AcDbEntity
  8
DEFPOINTS
 62
     0
100
AcDbPoint
 10
14369.99999999999
 20
13770.0
 30
0.0
  0
POINT
  5
A7
330
9C
100
AcDbEntity
  8
DEFPOINTS
 62
     0
100
AcDbPoint
 10
15569.99999999999
 20
13770.0
 30
0.0
  0
ENDBLK
  5
A9
330
9C
100
AcDbEntity
  8
0
100
AcDbBlockEnd
  0
BLOCK
  5
B4
330
AA
100
AcDbEntity
  8
0
100
AcDbBlockBegin
  2
*D5
 70
     1
 10
0.0
 20
0.0
 30
0.0
  3
*D5
  1

  0
LINE
  5
AB
330
AA
100
AcDbEntity
  8
SUNPOU
370
    -2
100
AcDbLine
 10
14324.99999999999
 20
11770.0
 30
0.0
 11
15905.99999999999
 21
11770.0
 31
0.0
  0
LINE
  5
AC
330
AA
100
AcDbEntity
  8
SUNPOU
370
    -2
100
AcDbLine
 10
14594.99999999999
 20
13770.0
 30
0.0
 11
15905.99999999999
 21
13770.0
 31
0.0
  0
LINE
  5
AD
330
AA
100
AcDbEntity
  8
SUNPOU
370
    -2
100
AcDbLine
 10
15869.99999999999
 20
11860.0
 30
0.0
 11
15869.99999999999
 21
13680.0
 31
0.0
  0
SOLID
  5
AE
330
AA
100
AcDbEntity
  8
SUNPOU
100
AcDbTrace
 10
15854.99999999999
 20
11860.0
 30
0.0
 11
15884.99999999999
 21
11860.0
 31
0.0
 12
15869.99999999999
 22
11770.0
 32
0.0
 13
15869.99999999999
 23
11770.0
 33
0.0
  0
SOLID
  5
AF
330
AA
100
AcDbEntity
  8
SUNPOU
100
AcDbTrace
 10
15854.99999999999
 20
13680.0
 30
0.0
 11
15884.99999999999
 21
13680.0
 31
0.0
 12
15869.99999999999
 22
13770.0
 32
0.0
 13
15869.99999999999
 23
13770.0
 33
0.0
  0
MTEXT
  5
B0
330
AA
100
AcDbEntity
  8
SUNPOU
 62
     0
100
AcDbMText
 10
15731.99999999999
 20
12770.0
 30
0.0
 40
180.0
 41
0.0
 71
     5
 72
     1
  1
\A1;2000
 11
6.123031769111886E-17
 21
1.0
 31
0.0
 73
     1
 44
1.0
  0
POINT
  5
B1
330
AA
100
AcDbEntity
  8
DEFPOINTS
 62
     0
100
AcDbPoint
 10
14234.99999999999
 20
11770.0
 30
0.0
  0
POINT
  5
B2
330
AA
100
AcDbEntity
  8
DEFPOINTS
 62
     0
100
AcDbPoint
 10
14504.99999999999
 20
13770.0
 30
0.0
  0
POINT
  5
B3
330
AA
100
AcDbEntity
  8
DEFPOINTS
 62
     0
100
AcDbPoint
 10
15869.99999999999
 20
13770.0
 30
0.0
  0
ENDBLK
  5
B5
330
AA
100
AcDbEntity
  8
0
100
AcDbBlockEnd
  0
BLOCK
  5
C1
330
B6
100
AcDbEntity
  8
0
100
AcDbBlockBegin
  2
*D6
 70
     1
 10
0.0
 20
0.0
 30
0.0
  3
*D6
  1

  0
LINE
  5
B7
330
B6
100
AcDbEntity
  8
SUNPOU
 62
     0
370
    -2
100
AcDbLine
 10
14388.74999999999
 20
11805.0
 30
0.0
 11
15629.99999999999
 21
11805.0
 31
0.0
  0
LINE
  5
B8
330
B6
100
AcDbEntity
  8
SUNPOU
 62
     0
370
    -2
100
AcDbLine
 10
14379.99999999999
 20
11770.0
 30
0.0
 11
15629.99999999999
 21
11770.0
 31
0.0
  0
LINE
  5
B9
330
B6
100
AcDbEntity
  8
SUNPOU
 62
     0
370
    -2
100
AcDbLine
 10
15569.99999999999
 20
11895.0
 30
0.0
 11
15569.99999999999
 21
11985.0
 31
0.0
  0
LINE
  5
BA
330
B6
100
AcDbEntity
  8
SUNPOU
 62
     0
370
    -2
100
AcDbLine
 10
15569.99999999999
 20
11680.0
 30
0.0
 11
15569.99999999999
 21
11590.0
 31
0.0
  0
MTEXT
  5
BB
330
B6
100
AcDbEntity
  8
SUNPOU
 62
     0
100
AcDbMText
 10
15422.1488453184
 20
11572.59656658611
 30
0.0
 40
180.0
 41
0.0
 71
     5
 72
     1
  1
\A1;35
 11
6.123031769111886E-17
 21
1.0
 31
0.0
 73
     1
 44
1.0
  0
SOLID
  5
BC
330
B6
100
AcDbEntity
  8
SUNPOU
 62
     0
100
AcDbTrace
 10
15554.99999999999
 20
11895.0
 30
0.0
 11
15584.99999999999
 21
11895.0
 31
0.0
 12
15569.99999999999
 22
11805.0
 32
0.0
 13
15569.99999999999
 23
11805.0
 33
0.0
  0
SOLID
  5
BD
330
B6
100
AcDbEntity
  8
SUNPOU
 62
     0
100
AcDbTrace
 10
15554.99999999999
 20
11680.0
 30
0.0
 11
15584.99999999999
 21
11680.0
 31
0.0
 12
15569.99999999999
 22
11770.0
 32
0.0
 13
15569.99999999999
 23
11770.0
 33
0.0
  0
POINT
  5
BE
330
B6
100
AcDbEntity
  8
DEFPOINTS
 62
     0
100
AcDbPoint
 10
14268.74999999999
 20
11805.0
 30
0.0
  0
POINT
  5
BF
330
B6
100
AcDbEntity
  8
DEFPOINTS
 62
     0
100
AcDbPoint
 10
14259.99999999999
 20
11770.0
 30
0.0
  0
POINT
  5
C0
330
B6
100
AcDbEntity
  8
DEFPOINTS
 62
     0
100
AcDbPoint
 10
15569.99999999999
 20
11770.0
 30
0.0
  0
ENDBLK
  5
C2
330
B6
100
AcDbEntity
  8
0
100
AcDbBlockEnd
  0
BLOCK
  5
169
330
C3
100
AcDbEntity
  8
0
100
AcDbBlockBegin
  2
A$C79F54BAC
 70
     0
 10
0.0
 20
0.0
 30
0.0
  3
A$C79F54BAC
  1

  0
DIMENSION
  5
C4
330
C3
100
AcDbEntity
  8
SUNPOU
100
AcDbDimension
  2
*D2
 10
4229.99998564875
 20
2257.403415746125
 30
0.0
 11
4064.058683592186
 21
1353.660678069813
 31
0.0
 12
-11340.00001435124
 22
-11452.59658425388
 32
0.0
 70
   128
  1
15@120=<>
 71
     5
 42
-1.0
  3
STANDARD
100
AcDbAlignedDimension
 13
3029.99998564875
 23
457.4034157461228
 33
0.0
 14
3029.99998564875
 24
2257.403415746125
 34
0.0
 50
90.0
100
AcDbRotatedDimension
1001
ACAD
1000
DSTYLE
1002
{
1070
   287
1070
     5
1070
   287
1070
     5
1070
   287
1070
     5
1070
   287
1070
     5
1070
   287
1070
     5
1070
   287
1070
     5
1070
   287
1070
     5
1070
   287
1070
     5
1070
    40
1040
60.0
1070
    41
1040
1.5
1070
    42
1040
1.5
1070
    43
1040
7.0
1070
    44
1040
0.6
1070
    73
1070
     0
1070
    74
1070
     0
1070
    77
1070
     1
1070
    78
1070
     8
1070
   140
1040
3.0
1070
   141
1040
0.0
1070
   145
1040
1.0
1070
   147
1040
0.8
1070
   172
1070
     1
1070
   176
1070
   256
1070
   177
1070
   256
1070
   271
1070
     0
1070
   275
1070
     1
1070
   279
1070
     2
1070
   284
1070
     8
1070
   285
1070
     8
1070
   286
1070
     8
1002
}
  0
DIMENSION
  5
C5
330
C3
100
AcDbEntity
  8
SUNPOU
100
AcDbDimension
  2
*D3
 10
4229.99998564875
 20
457.4034157461228
 30
0.0
 11
4390.339916624003
 21
453.4607684336734
 31
0.0
 12
-11340.00001435124
 22
-11452.59658425388
 32
0.0
 70
   128
 71
     5
 42
-1.0
  3
STANDARD
100
AcDbAlignedDimension
 13
2903.74998564875
 23
352.4034157461247
 33
0.0
 14
3059.705868001689
 24
457.4034157461228
 34
0.0
 50
90.0
100
AcDbRotatedDimension
1001
ACAD
1000
DSTYLE
1002
{
1070
   287
1070
     5
1070
   287
1070
     5
1070
   287
1070
     5
1070
   287
1070
     5
1070
   287
1070
     5
1070
   287
1070
     5
1070
   287
1070
     5
1070
   287
1070
     5
1070
    40
1040
60.0
1070
    41
1040
1.5
1070
    42
1040
1.5
1070
    43
1040
7.0
1070
    44
1040
0.6
1070
    73
1070
     0
1070
    74
1070
     0
1070
    77
1070
     1
1070
    78
1070
     8
1070
   140
1040
3.0
1070
   141
1040
0.0
1070
   145
1040
1.0
1070
   147
1040
0.8
1070
   172
1070
     1
1070
   176
1070
   256
1070
   177
1070
   256
1070
   271
1070
     0
1070
   275
1070
     1
1070
   279
1070
     2
1070
   284
1070
     8
1070
   285
1070
     8
1070
   286
1070
     8
1002
}
  0
DIMENSION
  5
C6
330
C3
100
AcDbEntity
  8
SUNPOU
100
AcDbDimension
  2
*D4
 10
4229.99998564875
 20
2317.403415746121
 30
0.0
 11
4097.480494200581
 21
2515.411708213323
 31
0.0
 12
-11340.00001435124
 22
-11452.59658425388
 32
0.0
 70
   128
 71
     5
 42
-1.0
  3
STANDARD
100
AcDbAlignedDimension
 13
3029.99998564875
 23
2257.403415746125
 33
0.0
 14
3029.99998564875
 24
2317.403415746121
 34
0.0
 50
90.0
100
AcDbRotatedDimension
1001
ACAD
1000
DSTYLE
1002
{
1070
   287
1070
     5
1070
   287
1070
     5
1070
   287
1070
     5
1070
   287
1070
     5
1070
   287
1070
     5
1070
   287
1070
     5
1070
   287
1070
     5
1070
   287
1070
     5
1070
    40
1040
60.0
1070
    41
1040
1.5
1070
    42
1040
1.5
1070
    43
1040
7.0
1070
    44
1040
0.6
1070
    73
1070
     0
1070
    74
1070
     0
1070
    77
1070
     1
1070
    78
1070
     8
1070
   140
1040
3.0
1070
   141
1040
0.0
1070
   145
1040
1.0
1070
   147
1040
0.8
1070
   172
1070
     1
1070
   176
1070
   256
1070
   177
1070
   256
1070
   271
1070
     0
1070
   275
1070
     1
1070
   279
1070
     2
1070
   284
1070
     8
1070
   285
1070
     8
1070
   286
1070
     8
1002
}
  0
DIMENSION
  5
C7
330
C3
100
AcDbEntity
  8
SUNPOU
100
AcDbDimension
  2
*D5
 10
4529.99998564875
 20
2317.403415746123
 30
0.0
 11
4391.999985648747
 21
1317.403415746123
 31
0.0
 12
-11340.00001435124
 22
-11452.59658425388
 32
0.0
 71
     5
 42
-1.0
  3
STANDARD
100
AcDbAlignedDimension
 13
2894.99998564875
 23
317.403415746121
 33
0.0
 14
3164.99998564875
 24
2317.403415746123
 34
0.0
 50
90.0
100
AcDbRotatedDimension
1001
ACAD
1000
DSTYLE
1002
{
1070
   287
1070
     5
1070
   287
1070
     5
1070
   287
1070
     5
1070
   287
1070
     5
1070
   287
1070
     5
1070
   287
1070
     5
1070
   287
1070
     5
1070
   287
1070
     5
1070
    40
1040
60.0
1070
    41
1040
1.5
1070
    42
1040
1.5
1070
    43
1040
7.0
1070
    44
1040
0.6
1070
    73
1070
     0
1070
    74
1070
     0
1070
    77
1070
     1
1070
    78
1070
     8
1070
   140
1040
3.0
1070
   141
1040
0.0
1070
   145
1040
1.0
1070
   147
1040
0.8
1070
   172
1070
     1
1070
   176
1070
   256
1070
   177
1070
   256
1070
   271
1070
     0
1070
   275
1070
     1
1070
   279
1070
     2
1070
   284
1070
     8
1070
   285
1070
     8
1070
   286
1070
     8
1002
}
  0
DIMENSION
  5
C8
330
C3
100
AcDbEntity
  8
SUNPOU
100
AcDbDimension
  2
*D6
 10
4229.99998564875
 20
317.403415746121
 30
0.0
 11
4082.14883096716
 21
119.9999823322287
 31
0.0
 12
-11340.00001435124
 22
-11452.59658425388
 32
0.0
 70
   128
 71
     5
 42
-1.0
  3
STANDARD
100
AcDbAlignedDimension
 13
2928.74998564875
 23
352.4034157461247
 33
0.0
 14
2919.99998564875
 24
317.403415746121
 34
0.0
 50
90.0
100
AcDbRotatedDimension
1001
ACAD
1000
DSTYLE
1002
{
1070
   287
1070
     5
1070
   287
1070
     5
1070
   287
1070
     5
1070
   287
1070
     5
1070
   287
1070
     5
1070
   287
1070
     5
1070
   287
1070
     5
1070
   287
1070
     5
1070
    40
1040
60.0
1070
    41
1040
1.5
1070
    42
1040
2.0
1070
    43
1040
3.75
1070
    44
1040
1.0
1070
    73
1070
     0
1070
    74
1070
     0
1070
    77
1070
     1
1070
    78
1070
     8
1070
   140
1040
3.0
1070
   141
1040
2.5
1070
   143
1040
0.0394
1070
   147
1040
1.0
1070
   171
1070
     4
1070
   271
1070
     0
1070
   273
1070
     8
1070
   274
1070
     4
1070
   279
1070
     2
1002
}
  0
LINE
  5
C9
330
C3
100
AcDbEntity
  8
SUNPOU
100
AcDbLine
 10
1679.999985648763
 20
3227.403415746123
 30
0.0
 11
899.9999856487611
 21
3227.403415746123
 31
0.0
1001
ACAD
1000
DSTYLE
1002
{
1070
    78
1070
     8
1070
   284
1070
     8
1070
   140
1040
3.0
1070
   145
1040
1.0
1070
    74
1070
     0
1070
   172
1070
     1
1070
    73
1070
     0
1070
    77
1070
     1
1070
    40
1040
60.0
1070
   147
1040
0.8
1070
   287
1070
     5
1070
    42
1040
1.5
1070
    44
1040
0.6
1070
    43
1040
7.0
1070
   271
1070
     0
1070
   177
1070
   256
1070
   176
1070
   256
1070
   141
1040
0.0
1070
   275
1070
     1
1070
    41
1040
1.5
1070
   285
1070
     8
1070
   286
1070
     8
1002
}
  0
SOLID
  5
CA
330
C3
100
AcDbEntity
  8
SUNPOU
100
AcDbTrace
 10
1216.999985648774
 20
1372.403415746125
 30
0.0
 11
1306.999985648774
 21
1357.403415746123
 31
0.0
 12
1216.999985648774
 22
1342.403415746125
 32
0.0
 13
1216.999985648774
 23
1342.403415746125
 33
0.0
1001
ACAD
1000
DSTYLE
1002
{
1070
    78
1070
     8
1070
   284
1070
     8
1070
   140
1040
3.0
1070
   145
1040
1.0
1070
    74
1070
     0
1070
   172
1070
     1
1070
    73
1070
     0
1070
    77
1070
     1
1070
    40
1040
60.0
1070
   147
1040
0.8
1070
   287
1070
     5
1070
    42
1040
1.5
1070
    44
1040
0.6
1070
    43
1040
7.0
1070
   271
1070
     0
1070
   177
1070
   256
1070
   176
1070
   256
1070
   141
1040
0.0
1070
   275
1070
     1
1070
    41
1040
1.5
1070
   285
1070
     8
1070
   286
1070
     8
1002
}
  0
LINE
  5
CB
330
C3
100
AcDbEntity
  8
SUNPOU
100
AcDbLine
 10
329.9999856487375
 20
1357.403415746123
 30
0.0
 11
1426.999985648756
 21
1357.403415746126
 31
0.0
1001
ACAD
1000
DSTYLE
1002
{
1070
    78
1070
     8
1070
   284
1070
     8
1070
   140
1040
3.0
1070
   145
1040
1.0
1070
    74
1070
     0
1070
   172
1070
     1
1070
    73
1070
     0
1070
    77
1070
     1
1070
    40
1040
60.0
1070
   147
1040
0.8
1070
   287
1070
     5
1070
    42
1040
1.5
1070
    44
1040
0.6
1070
    43
1040
7.0
1070
   271
1070
     0
1070
   177
1070
   256
1070
   176
1070
   256
1070
   141
1040
0.0
1070
   275
1070
     1
1070
    41
1040
1.5
1070
   285
1070
     8
1070
   286
1070
     8
1002
}
  0
LINE
  5
CC
330
C3
100
AcDbEntity
  8
HAIKIN
100
AcDbLine
 10
1979.999985648756
 20
2052.403415746123
 30
0.0
 11
964.9999856487557
 21
2052.403415746117
 31
0.0
  0
LINE
  5
CD
330
C3
100
AcDbEntity
  8
HAIKIN
100
AcDbLine
 10
1979.999985648765
 20
1992.403415746121
 30
0.0
 11
964.9999856487557
 21
1992.403415746117
 31
0.0
  0
LINE
  5
CE
330
C3
100
AcDbEntity
  8
HAIKIN
100
AcDbLine
 10
1979.999985648765
 20
1932.403415746121
 30
0.0
 11
964.9999856487557
 21
1932.403415746117
 31
0.0
  0
LINE
  5
CF
330
C3
100
AcDbEntity
  8
HAIKIN
100
AcDbLine
 10
1979.999985648765
 20
847.4034157461283
 30
0.0
 11
964.9999856487557
 21
847.4034157461247
 31
0.0
  0
LINE
  5
D0
330
C3
100
AcDbEntity
  8
HAIKIN
100
AcDbLine
 10
1979.999985648765
 20
787.4034157461283
 30
0.0
 11
964.9999856487557
 21
787.4034157461247
 31
0.0
  0
LINE
  5
D1
330
C3
100
AcDbEntity
  8
HAIKIN
100
AcDbLine
 10
1979.999985648758
 20
727.4034157461283
 30
0.0
 11
964.9999856487557
 21
727.4034157461247
 31
0.0
  0
LINE
  5
D2
330
C3
100
AcDbEntity
  8
SUNPOU
100
AcDbLine
 10
964.9999856487557
 20
1897.403415746125
 30
0.0
 11
1486.999985648752
 21
1897.403415746121
 31
0.0
  0
LINE
  5
D3
330
C3
100
AcDbEntity
  8
SUNPOU
100
AcDbLine
 10
964.9999856487557
 20
1657.403415746125
 30
0.0
 11
1486.999985648752
 21
1657.403415746121
 31
0.0
  0
LINE
  5
D4
330
C3
100
AcDbEntity
  8
SUNPOU
100
AcDbLine
 10
964.9999856487557
 20
1777.403415746125
 30
0.0
 11
1486.999985648752
 21
1777.403415746123
 31
0.0
  0
LINE
  5
D5
330
C3
100
AcDbEntity
  8
SUNPOU
100
AcDbLine
 10
964.9999856487557
 20
457.4034157461247
 30
0.0
 11
1979.999985648759
 21
457.403415746121
 31
0.0
  0
LINE
  5
D6
330
C3
100
AcDbEntity
  8
SUNPOU
100
AcDbLine
 10
964.9999856487557
 20
817.4034157461247
 30
0.0
 11
1979.999985648759
 21
817.403415746121
 31
0.0
  0
LINE
  5
D7
330
C3
100
AcDbEntity
  8
SUNPOU
100
AcDbLine
 10
964.9999856487557
 20
697.4034157461247
 30
0.0
 11
1979.999985648759
 21
697.403415746121
 31
0.0
  0
LINE
  5
D8
330
C3
100
AcDbEntity
  8
SUNPOU
100
AcDbLine
 10
964.9999856487557
 20
577.4034157461247
 30
0.0
 11
1979.999985648759
 21
577.403415746121
 31
0.0
  0
LINE
  5
D9
330
C3
100
AcDbEntity
  8
SUNPOU
100
AcDbLine
 10
964.9999856487557
 20
937.4034157461247
 30
0.0
 11
1486.999985648752
 21
937.403415746121
 31
0.0
  0
LINE
  5
DA
330
C3
100
AcDbEntity
  8
SUNPOU
100
AcDbLine
 10
964.9999856487557
 20
1057.403415746125
 30
0.0
 11
1486.999985648752
 21
1057.403415746119
 31
0.0
  0
LINE
  5
DB
330
C3
100
AcDbEntity
  8
SUNPOU
100
AcDbLine
 10
964.9999856487557
 20
1177.403415746125
 30
0.0
 11
1486.999985648752
 21
1177.403415746117
 31
0.0
  0
LINE
  5
DC
330
C3
100
AcDbEntity
  8
SUNPOU
100
AcDbLine
 10
964.9999856487557
 20
1297.403415746125
 30
0.0
 11
1486.999985648752
 21
1297.403415746121
 31
0.0
  0
LINE
  5
DD
330
C3
100
AcDbEntity
  8
SUNPOU
100
AcDbLine
 10
964.9999856487557
 20
1417.403415746125
 30
0.0
 11
1486.999985648752
 21
1417.403415746119
 31
0.0
  0
LINE
  5
DE
330
C3
100
AcDbEntity
  8
SUNPOU
100
AcDbLine
 10
964.9999856487557
 20
1537.403415746125
 30
0.0
 11
1486.999985648752
 21
1537.403415746121
 31
0.0
  0
LINE
  5
DF
330
C3
100
AcDbEntity
  8
SUNPOU
100
AcDbLine
 10
964.9999856487557
 20
2017.403415746125
 30
0.0
 11
1979.999985648759
 21
2017.403415746121
 31
0.0
  0
LINE
  5
E0
330
C3
100
AcDbEntity
  8
SUNPOU
100
AcDbLine
 10
964.9999856487557
 20
2137.403415746125
 30
0.0
 11
1979.999985648759
 21
2137.403415746121
 31
0.0
  0
LINE
  5
E1
330
C3
100
AcDbEntity
  8
SUNPOU
100
AcDbLine
 10
964.9999856487557
 20
2257.403415746125
 30
0.0
 11
1979.999985648759
 21
2257.403415746121
 31
0.0
  0
LINE
  5
E2
330
C3
100
AcDbEntity
  8
SUNPOU
100
AcDbLine
 10
964.9999856487557
 20
2362.403415746125
 30
0.0
 11
1979.999985648759
 21
2362.403415746121
 31
0.0
  0
TEXT
  5
E3
330
C3
100
AcDbEntity
  8
HAIKIN
 62
     3
100
AcDbText
 10
1009.999985648752
 20
4617.403415746125
 30
0.0
 40
240.0
  1
頂　版
 72
     1
 11
1409.999985648752
 21
4617.403415746125
 31
0.0
100
AcDbText
  0
TEXT
  5
E4
330
C3
100
AcDbEntity
  8
SUNPOU
100
AcDbText
 10
1019.999985648756
 20
4105.403415746121
 30
0.0
 40
210.0
  1
外　側
 11
1019.999985648756
 21
4077.403415746121
 31
0.0
100
AcDbText
 73
     1
  0
LINE
  5
E5
330
C3
100
AcDbEntity
  8
SUNPOU
100
AcDbLine
 10
1019.999985648752
 20
317.4034157461247
 30
0.0
 11
1979.999985648759
 21
317.403415746121
 31
0.0
  0
LINE
  5
E6
330
C3
100
AcDbEntity
  8
SUNPOU
100
AcDbLine
 10
929.999985648752
 20
397.403415746121
 30
0.0
 11
1979.999985648759
 21
397.403415746121
 31
0.0
  0
LINE
  5
E7
330
C3
100
AcDbEntity
  8
SUNPOU
100
AcDbLine
 10
929.999985648752
 20
2397.403415746123
 30
0.0
 11
1979.999985648759
 21
2397.403415746121
 31
0.0
  0
LINE
  5
E8
330
C3
100
AcDbEntity
  8
SUNPOU
100
AcDbLine
 10
1019.999985648756
 20
4077.403415746121
 30
0.0
 11
2939.999985648754
 21
4077.403415746121
 31
0.0
  0
LINE
  5
E9
330
C3
100
AcDbEntity
  8
HAIKIN
 62
     3
100
AcDbLine
 10
1889.999985648752
 20
4887.403415746125
 30
0.0
 11
929.999985648752
 21
4887.403415746125
 31
0.0
  0
LINE
  5
EA
330
C3
100
AcDbEntity
  8
HAIKIN
 62
     3
100
AcDbLine
 10
1889.999985648752
 20
4587.403415746125
 30
0.0
 11
929.999985648752
 21
4587.403415746125
 31
0.0
  0
TEXT
  5
EB
330
C3
100
AcDbEntity
  8
SUNPOU
100
AcDbText
 10
762.4999856487557
 20
2907.403415746125
 30
0.0
 40
150.0
  1
D13
 41
0.8
 11
762.4999856487557
 21
2982.403415746125
 31
0.0
100
AcDbText
 73
     2
  0
TEXT
  5
EC
330
C3
100
AcDbEntity
  8
SUNPOU
100
AcDbText
 10
457.4999856487557
 20
2907.403415746125
 30
0.0
 40
150.0
  1
H1
 41
0.8
 72
     4
 11
537.4999856487557
 21
2982.403415746125
 31
0.0
100
AcDbText
  0
CIRCLE
  5
ED
330
C3
100
AcDbEntity
  8
SUNPOU
100
AcDbCircle
 10
537.4999856487557
 20
2982.403415746125
 30
0.0
 40
165.0
  0
TEXT
  5
EE
330
C3
100
AcDbEntity
  8
SUNPOU
100
AcDbText
 10
239.9999856487393
 20
1437.403415746128
 30
0.0
 40
150.0
  1
H2
 50
90.0
 41
0.8
 72
     4
 11
164.9999856487393
 21
1537.403415746128
 31
0.0
100
AcDbText
  0
LINE
  5
EF
330
C3
100
AcDbEntity
  8
SUNPOU
100
AcDbLine
 10
1137.499985648754
 20
727.4034157461247
 30
0.0
 11
1137.499985648756
 21
2817.403415746125
 31
0.0
1001
ACAD
1000
DSTYLE
1002
{
1070
    78
1070
     8
1070
   284
1070
     8
1070
   140
1040
3.0
1070
   145
1040
1.0
1070
    74
1070
     0
1070
   172
1070
     1
1070
    73
1070
     0
1070
    77
1070
     1
1070
    40
1040
60.0
1070
   147
1040
0.8
1070
   287
1070
     5
1070
    42
1040
1.5
1070
    44
1040
0.6
1070
    43
1040
7.0
1070
   271
1070
     0
1070
   177
1070
   256
1070
   176
1070
   256
1070
   141
1040
0.0
1070
   275
1070
     1
1070
    41
1040
1.5
1070
   285
1070
     8
1070
   286
1070
     8
1002
}
  0
LINE
  5
F0
330
C3
100
AcDbEntity
  8
SUNPOU
100
AcDbLine
 10
1044.999985648752
 20
2362.403415746125
 30
0.0
 11
1044.999985648756
 21
457.4034157461265
 31
0.0
  0
LINE
  5
F1
330
C3
100
AcDbEntity
  8
SUNPOU
100
AcDbLine
 10
1229.999985648759
 20
2362.403415746123
 30
0.0
 11
1229.999985648763
 21
457.4034157461228
 31
0.0
  0
LINE
  5
F2
330
C3
100
AcDbEntity
  8
SUNPOU
100
AcDbLine
 10
329.9999856487393
 20
2137.403415746126
 30
0.0
 11
329.9999856487393
 21
1357.403415746128
 31
0.0
1001
ACAD
1000
DSTYLE
1002
{
1070
    78
1070
     8
1070
   284
1070
     8
1070
   140
1040
3.0
1070
   145
1040
1.0
1070
    74
1070
     0
1070
   172
1070
     1
1070
    73
1070
     0
1070
    77
1070
     1
1070
    40
1040
60.0
1070
   147
1040
0.8
1070
   287
1070
     5
1070
    42
1040
1.5
1070
    44
1040
0.6
1070
    43
1040
7.0
1070
   271
1070
     0
1070
   177
1070
   256
1070
   176
1070
   256
1070
   141
1040
0.0
1070
   275
1070
     1
1070
    41
1040
1.5
1070
   285
1070
     8
1070
   286
1070
     8
1002
}
  0
CIRCLE
  5
F3
330
C3
100
AcDbEntity
  8
SUNPOU
100
AcDbCircle
 10
164.9999856487393
 20
1537.403415746128
 30
0.0
 40
165.0
  0
LINE
  5
F4
330
C3
100
AcDbEntity
  8
SUNPOU
100
AcDbLine
 10
929.999985648752
 20
2397.403415746126
 30
0.0
 11
929.999985648752
 21
397.4034157461247
 31
0.0
  0
LINE
  5
F5
330
C3
100
AcDbEntity
  8
SUNPOU
100
AcDbLine
 10
999.999985648752
 20
397.4034157461247
 30
0.0
 11
1019.999985648752
 21
317.4034157461301
 31
0.0
  0
SOLID
  5
F6
330
C3
100
AcDbEntity
  8
SUNPOU
100
AcDbTrace
 10
1152.499985648758
 20
937.4034157461138
 30
0.0
 11
1137.499985648758
 21
847.4034157461138
 31
0.0
 12
1122.499985648756
 22
937.4034157461138
 32
0.0
 13
1122.499985648756
 23
937.4034157461138
 33
0.0
1001
ACAD
1000
DSTYLE
1002
{
1070
    78
1070
     8
1070
   284
1070
     8
1070
   140
1040
3.0
1070
   145
1040
1.0
1070
    74
1070
     0
1070
   172
1070
     1
1070
    73
1070
     0
1070
    77
1070
     1
1070
    40
1040
60.0
1070
   147
1040
0.8
1070
   287
1070
     5
1070
    42
1040
1.5
1070
    44
1040
0.6
1070
    43
1040
7.0
1070
   271
1070
     0
1070
   177
1070
   256
1070
   176
1070
   256
1070
   141
1040
0.0
1070
   275
1070
     1
1070
    41
1040
1.5
1070
   285
1070
     8
1070
   286
1070
     8
1002
}
  0
SOLID
  5
F7
330
C3
100
AcDbEntity
  8
SUNPOU
100
AcDbTrace
 10
1152.499985648758
 20
817.4034157461356
 30
0.0
 11
1137.499985648758
 21
727.4034157461356
 31
0.0
 12
1122.499985648756
 22
817.4034157461356
 32
0.0
 13
1122.499985648756
 23
817.4034157461356
 33
0.0
1001
ACAD
1000
DSTYLE
1002
{
1070
    78
1070
     8
1070
   284
1070
     8
1070
   140
1040
3.0
1070
   145
1040
1.0
1070
    74
1070
     0
1070
   172
1070
     1
1070
    73
1070
     0
1070
    77
1070
     1
1070
    40
1040
60.0
1070
   147
1040
0.8
1070
   287
1070
     5
1070
    42
1040
1.5
1070
    44
1040
0.6
1070
    43
1040
7.0
1070
   271
1070
     0
1070
   177
1070
   256
1070
   176
1070
   256
1070
   141
1040
0.0
1070
   275
1070
     1
1070
    41
1040
1.5
1070
   285
1070
     8
1070
   286
1070
     8
1002
}
  0
SOLID
  5
F8
330
C3
100
AcDbEntity
  8
SUNPOU
100
AcDbTrace
 10
1152.499985648754
 20
877.4034157461301
 30
0.0
 11
1137.499985648754
 21
787.4034157461301
 31
0.0
 12
1122.499985648752
 22
877.4034157461301
 32
0.0
 13
1122.499985648752
 23
877.4034157461301
 33
0.0
1001
ACAD
1000
DSTYLE
1002
{
1070
    78
1070
     8
1070
   284
1070
     8
1070
   140
1040
3.0
1070
   145
1040
1.0
1070
    74
1070
     0
1070
   172
1070
     1
1070
    73
1070
     0
1070
    77
1070
     1
1070
    40
1040
60.0
1070
   147
1040
0.8
1070
   287
1070
     5
1070
    42
1040
1.5
1070
    44
1040
0.6
1070
    43
1040
7.0
1070
   271
1070
     0
1070
   177
1070
   256
1070
   176
1070
   256
1070
   141
1040
0.0
1070
   275
1070
     1
1070
    41
1040
1.5
1070
   285
1070
     8
1070
   286
1070
     8
1002
}
  0
TEXT
  5
F9
330
C3
100
AcDbEntity
  8
SUNPOU
100
AcDbText
 10
239.9999856487393
 20
1762.40341574613
 30
0.0
 40
150.0
  1
D13
 50
90.0
 41
0.8
 11
164.9999856487393
 21
1762.40341574613
 31
0.0
100
AcDbText
 73
     2
  0
SOLID
  5
FA
330
C3
100
AcDbEntity
  8
SUNPOU
100
AcDbTrace
 10
1152.499985648756
 20
2022.403415746117
 30
0.0
 11
1137.499985648756
 21
1932.403415746117
 31
0.0
 12
1122.499985648756
 22
2022.403415746117
 32
0.0
 13
1122.499985648756
 23
2022.403415746117
 33
0.0
1001
ACAD
1000
DSTYLE
1002
{
1070
    78
1070
     8
1070
   284
1070
     8
1070
   140
1040
3.0
1070
   145
1040
1.0
1070
    74
1070
     0
1070
   172
1070
     1
1070
    73
1070
     0
1070
    77
1070
     1
1070
    40
1040
60.0
1070
   147
1040
0.8
1070
   287
1070
     5
1070
    42
1040
1.5
1070
    44
1040
0.6
1070
    43
1040
7.0
1070
   271
1070
     0
1070
   177
1070
   256
1070
   176
1070
   256
1070
   141
1040
0.0
1070
   275
1070
     1
1070
    41
1040
1.5
1070
   285
1070
     8
1070
   286
1070
     8
1002
}
  0
SOLID
  5
FB
330
C3
100
AcDbEntity
  8
SUNPOU
100
AcDbTrace
 10
1152.499985648756
 20
2082.403415746117
 30
0.0
 11
1137.499985648756
 21
1992.403415746117
 31
0.0
 12
1122.499985648756
 22
2082.403415746117
 32
0.0
 13
1122.499985648756
 23
2082.403415746117
 33
0.0
1001
ACAD
1000
DSTYLE
1002
{
1070
    78
1070
     8
1070
   284
1070
     8
1070
   140
1040
3.0
1070
   145
1040
1.0
1070
    74
1070
     0
1070
   172
1070
     1
1070
    73
1070
     0
1070
    77
1070
     1
1070
    40
1040
60.0
1070
   147
1040
0.8
1070
   287
1070
     5
1070
    42
1040
1.5
1070
    44
1040
0.6
1070
    43
1040
7.0
1070
   271
1070
     0
1070
   177
1070
   256
1070
   176
1070
   256
1070
   141
1040
0.0
1070
   275
1070
     1
1070
    41
1040
1.5
1070
   285
1070
     8
1070
   286
1070
     8
1002
}
  0
SOLID
  5
FC
330
C3
100
AcDbEntity
  8
SUNPOU
100
AcDbTrace
 10
1152.499985648756
 20
2142.403415746119
 30
0.0
 11
1137.499985648756
 21
2052.403415746119
 31
0.0
 12
1122.499985648756
 22
2142.403415746119
 32
0.0
 13
1122.499985648756
 23
2142.403415746119
 33
0.0
1001
ACAD
1000
DSTYLE
1002
{
1070
    78
1070
     8
1070
   284
1070
     8
1070
   140
1040
3.0
1070
   145
1040
1.0
1070
    74
1070
     0
1070
   172
1070
     1
1070
    73
1070
     0
1070
    77
1070
     1
1070
    40
1040
60.0
1070
   147
1040
0.8
1070
   287
1070
     5
1070
    42
1040
1.5
1070
    44
1040
0.6
1070
    43
1040
7.0
1070
   271
1070
     0
1070
   177
1070
   256
1070
   176
1070
   256
1070
   141
1040
0.0
1070
   275
1070
     1
1070
    41
1040
1.5
1070
   285
1070
     8
1070
   286
1070
     8
1002
}
  0
LINE
  5
FD
330
C3
100
AcDbEntity
  8
SUNPOU
100
AcDbLine
 10
1137.499985648756
 20
2817.403415746125
 30
0.0
 11
357.4999856487557
 21
2817.403415746125
 31
0.0
1001
ACAD
1000
DSTYLE
1002
{
1070
    78
1070
     8
1070
   284
1070
     8
1070
   140
1040
3.0
1070
   145
1040
1.0
1070
    74
1070
     0
1070
   172
1070
     1
1070
    73
1070
     0
1070
    77
1070
     1
1070
    40
1040
60.0
1070
   147
1040
0.8
1070
   287
1070
     5
1070
    42
1040
1.5
1070
    44
1040
0.6
1070
    43
1040
7.0
1070
   271
1070
     0
1070
   177
1070
   256
1070
   176
1070
   256
1070
   141
1040
0.0
1070
   275
1070
     1
1070
    41
1040
1.5
1070
   285
1070
     8
1070
   286
1070
     8
1002
}
  0
TEXT
  5
FE
330
C3
100
AcDbEntity
  8
SUNPOU
100
AcDbText
 10
979.9999856487611
 20
3317.403415746123
 30
0.0
 40
150.0
  1
H3
 41
0.8
 72
     4
 11
1079.999985648761
 21
3392.403415746123
 31
0.0
100
AcDbText
  0
CIRCLE
  5
FF
330
C3
100
AcDbEntity
  8
SUNPOU
100
AcDbCircle
 10
1079.999985648761
 20
3392.403415746123
 30
0.0
 40
165.0
  0
LINE
  5
100
330
C3
100
AcDbEntity
  8
HAIKIN
 62
     3
100
AcDbLine
 10
929.999985648752
 20
4587.403415746125
 30
0.0
 11
929.999985648752
 21
4887.403415746125
 31
0.0
  0
TEXT
  5
101
330
C3
100
AcDbEntity
  8
SUNPOU
100
AcDbText
 10
3194.999985648759
 20
2907.403415746125
 30
0.0
 40
150.0
  1
D13
 41
0.8
 11
3194.999985648759
 21
2982.403415746125
 31
0.0
100
AcDbText
 73
     2
  0
TEXT
  5
102
330
C3
100
AcDbEntity
  8
SUNPOU
100
AcDbText
 10
2889.999985648759
 20
2907.403415746125
 30
0.0
 40
150.0
  1
H1
 41
0.8
 72
     4
 11
2969.999985648759
 21
2982.403415746125
 31
0.0
100
AcDbText
  0
LINE
  5
103
330
C3
100
AcDbEntity
  8
SUNPOU
100
AcDbLine
 10
1679.999985648761
 20
1890.403415746132
 30
0.0
 11
1679.999985648763
 21
3227.403415746123
 31
0.0
1001
ACAD
1000
DSTYLE
1002
{
1070
    78
1070
     8
1070
   284
1070
     8
1070
   140
1040
3.0
1070
   145
1040
1.0
1070
    74
1070
     0
1070
   172
1070
     1
1070
    73
1070
     0
1070
    77
1070
     1
1070
    40
1040
60.0
1070
   147
1040
0.8
1070
   287
1070
     5
1070
    42
1040
1.5
1070
    44
1040
0.6
1070
    43
1040
7.0
1070
   271
1070
     0
1070
   177
1070
   256
1070
   176
1070
   256
1070
   141
1040
0.0
1070
   275
1070
     1
1070
    41
1040
1.5
1070
   285
1070
     8
1070
   286
1070
     8
1002
}
  0
LINE
  5
104
330
C3
100
AcDbEntity
  8
SUNPOU
100
AcDbLine
 10
2279.999985648761
 20
1827.403415746126
 30
0.0
 11
2279.999985648759
 21
3227.403415746123
 31
0.0
1001
ACAD
1000
DSTYLE
1002
{
1070
    78
1070
     8
1070
   284
1070
     8
1070
   140
1040
3.0
1070
   145
1040
1.0
1070
    74
1070
     0
1070
   172
1070
     1
1070
    73
1070
     0
1070
    77
1070
     1
1070
    40
1040
60.0
1070
   147
1040
0.8
1070
   287
1070
     5
1070
    42
1040
1.5
1070
    44
1040
0.6
1070
    43
1040
7.0
1070
   271
1070
     0
1070
   177
1070
   256
1070
   176
1070
   256
1070
   141
1040
0.0
1070
   275
1070
     1
1070
    41
1040
1.5
1070
   285
1070
     8
1070
   286
1070
     8
1002
}
  0
CIRCLE
  5
105
330
C3
100
AcDbEntity
  8
SUNPOU
100
AcDbCircle
 10
2969.999985648759
 20
2982.403415746125
 30
0.0
 40
165.0
  0
LINE
  5
106
330
C3
100
AcDbEntity
  8
1HASEN
100
AcDbLine
 10
1979.999985648754
 20
4077.403415746121
 30
0.0
 11
1979.999985648759
 21
17.40341574611921
 31
0.0
  0
TEXT
  5
107
330
C3
100
AcDbEntity
  8
SUNPOU
100
AcDbText
 10
3359.999985648745
 20
1762.403415746126
 30
0.0
 40
150.0
  1
D13
 50
90.0
 41
0.8
 11
3284.999985648745
 21
1762.403415746126
 31
0.0
100
AcDbText
 73
     2
  0
TEXT
  5
108
330
C3
100
AcDbEntity
  8
SUNPOU
100
AcDbText
 10
3359.999985648745
 20
1437.403415746125
 30
0.0
 40
150.0
  1
H2
 50
90.0
 41
0.8
 72
     4
 11
3284.999985648745
 21
1537.403415746125
 31
0.0
100
AcDbText
  0
LINE
  5
109
330
C3
100
AcDbEntity
  8
SUNPOU
100
AcDbLine
 10
2789.999985648759
 20
2817.403415746125
 30
0.0
 11
3569.999985648759
 21
2817.403415746125
 31
0.0
1001
ACAD
1000
DSTYLE
1002
{
1070
    78
1070
     8
1070
   284
1070
     8
1070
   140
1040
3.0
1070
   145
1040
1.0
1070
    74
1070
     0
1070
   172
1070
     1
1070
    73
1070
     0
1070
    77
1070
     1
1070
    40
1040
60.0
1070
   147
1040
0.8
1070
   287
1070
     5
1070
    42
1040
1.5
1070
    44
1040
0.6
1070
    43
1040
7.0
1070
   271
1070
     0
1070
   177
1070
   256
1070
   176
1070
   256
1070
   141
1040
0.0
1070
   275
1070
     1
1070
    41
1040
1.5
1070
   285
1070
     8
1070
   286
1070
     8
1002
}
  0
LINE
  5
10A
330
C3
100
AcDbEntity
  8
SUNPOU
100
AcDbLine
 10
2429.999985648759
 20
1357.403415746125
 30
0.0
 11
3449.999985648745
 21
1357.403415746123
 31
0.0
1001
ACAD
1000
DSTYLE
1002
{
1070
    78
1070
     8
1070
   284
1070
     8
1070
   140
1040
3.0
1070
   145
1040
1.0
1070
    74
1070
     0
1070
   172
1070
     1
1070
    73
1070
     0
1070
    77
1070
     1
1070
    40
1040
60.0
1070
   147
1040
0.8
1070
   287
1070
     5
1070
    42
1040
1.5
1070
    44
1040
0.6
1070
    43
1040
7.0
1070
   271
1070
     0
1070
   177
1070
   256
1070
   176
1070
   256
1070
   141
1040
0.0
1070
   275
1070
     1
1070
    41
1040
1.5
1070
   285
1070
     8
1070
   286
1070
     8
1002
}
  0
CIRCLE
  5
10B
330
C3
100
AcDbEntity
  8
SUNPOU
100
AcDbCircle
 10
3284.999985648745
 20
1537.403415746125
 30
0.0
 40
165.0
  0
LINE
  5
10C
330
C3
100
AcDbEntity
  8
HAIKIN
100
AcDbLine
 10
1486.99998564875
 20
939.4034157461192
 30
0.0
 11
1486.99998564875
 21
1855.403415746132
 31
0.0
  0
LINE
  5
10D
330
C3
100
AcDbEntity
  8
HAIKIN
100
AcDbLine
 10
2409.999985648758
 20
1792.403415746126
 30
0.0
 11
2409.999985648759
 21
1002.403415746126
 31
0.0
  0
LINE
  5
10E
330
C3
100
AcDbEntity
  8
SUNPOU
100
AcDbLine
 10
2789.999985648759
 20
787.4034157461319
 30
0.0
 11
2789.999985648759
 21
2817.403415746125
 31
0.0
1001
ACAD
1000
DSTYLE
1002
{
1070
    78
1070
     8
1070
   284
1070
     8
1070
   140
1040
3.0
1070
   145
1040
1.0
1070
    74
1070
     0
1070
   172
1070
     1
1070
    73
1070
     0
1070
    77
1070
     1
1070
    40
1040
60.0
1070
   147
1040
0.8
1070
   287
1070
     5
1070
    42
1040
1.5
1070
    44
1040
0.6
1070
    43
1040
7.0
1070
   271
1070
     0
1070
   177
1070
   256
1070
   176
1070
   256
1070
   141
1040
0.0
1070
   275
1070
     1
1070
    41
1040
1.5
1070
   285
1070
     8
1070
   286
1070
     8
1002
}
  0
LINE
  5
10F
330
C3
100
AcDbEntity
  8
HAIKIN
100
AcDbLine
 10
2469.999985648758
 20
352.4034157461247
 30
0.0
 11
2469.999985648758
 21
2257.403415746121
 31
0.0
  0
LINE
  5
110
330
C3
100
AcDbEntity
  8
HAIKIN
100
AcDbLine
 10
2529.999985648759
 20
352.4034157461247
 30
0.0
 11
2529.999985648759
 21
2257.403415746121
 31
0.0
  0
LINE
  5
111
330
C3
100
AcDbEntity
  8
HAIKIN
100
AcDbLine
 10
2589.999985648761
 20
352.4034157461247
 30
0.0
 11
2589.999985648758
 21
2257.403415746121
 31
0.0
  0
LINE
  5
112
330
C3
100
AcDbEntity
  8
HAIKIN
100
AcDbLine
 10
1426.999985648754
 20
457.4034157461228
 30
0.0
 11
1426.999985648752
 21
2362.403415746123
 31
0.0
  0
LINE
  5
113
330
C3
100
AcDbEntity
  8
HAIKIN
100
AcDbLine
 10
1366.999985648756
 20
457.4034157461228
 30
0.0
 11
1366.999985648748
 21
2362.403415746123
 31
0.0
  0
LINE
  5
114
330
C3
100
AcDbEntity
  8
HAIKIN
100
AcDbLine
 10
1306.999985648754
 20
457.4034157461228
 30
0.0
 11
1306.999985648748
 21
2362.403415746123
 31
0.0
  0
LINE
  5
115
330
C3
100
AcDbEntity
  8
SUNPOU
100
AcDbLine
 10
2914.99998564875
 20
2257.403415746121
 30
0.0
 11
2914.99998564875
 21
352.4034157461265
 31
0.0
  0
LINE
  5
116
330
C3
100
AcDbEntity
  8
SUNPOU
100
AcDbLine
 10
2729.999985648759
 20
2257.403415746121
 30
0.0
 11
2729.999985648759
 21
352.4034157461228
 31
0.0
  0
LINE
  5
117
330
C3
100
AcDbEntity
  8
SUNPOU
100
AcDbLine
 10
2429.999985648759
 20
2257.403415746121
 30
0.0
 11
2429.999985648758
 21
352.403415746121
 31
0.0
  0
LINE
  5
118
330
C3
100
AcDbEntity
  8
SUNPOU
100
AcDbLine
 10
2379.999985648758
 20
1797.403415746126
 30
0.0
 11
2379.999985648758
 21
997.4034157461265
 31
0.0
  0
LINE
  5
119
330
C3
100
AcDbEntity
  8
SUNPOU
100
AcDbLine
 10
3029.99998564875
 20
2397.403415746121
 30
0.0
 11
3029.99998564875
 21
397.403415746121
 31
0.0
  0
LINE
  5
11A
330
C3
100
AcDbEntity
  8
SUNPOU
100
AcDbLine
 10
1516.999985648752
 20
934.403415746121
 30
0.0
 11
1516.999985648752
 21
1860.403415746126
 31
0.0
  0
LINE
  5
11B
330
C3
100
AcDbEntity
  8
SUNPOU
100
AcDbLine
 10
1579.999985648756
 20
1797.403415746126
 30
0.0
 11
1579.999985648758
 21
997.4034157461265
 31
0.0
  0
LINE
  5
11C
330
C3
100
AcDbEntity
  8
HAIKIN
100
AcDbLine
 10
2374.999985648759
 20
967.4034157461265
 30
0.0
 11
1979.999985648752
 21
967.4034157461265
 31
0.0
  0
LINE
  5
11D
330
C3
100
AcDbEntity
  8
HAIKIN
100
AcDbLine
 10
2994.999985648774
 20
787.4034157461319
 30
0.0
 11
1979.999985648759
 21
787.4034157461283
 31
0.0
  0
LINE
  5
11E
330
C3
100
AcDbEntity
  8
HAIKIN
100
AcDbLine
 10
2994.999985648774
 20
847.4034157461319
 30
0.0
 11
1979.999985648758
 21
847.4034157461283
 31
0.0
  0
LINE
  5
11F
330
C3
100
AcDbEntity
  8
HAIKIN
100
AcDbLine
 10
2994.999985648774
 20
907.4034157461319
 30
0.0
 11
1979.999985648759
 21
907.4034157461283
 31
0.0
  0
LINE
  5
120
330
C3
100
AcDbEntity
  8
SUNPOU
100
AcDbLine
 10
2914.99998564875
 20
352.4034157461265
 30
0.0
 11
1979.999985648759
 21
352.403415746121
 31
0.0
  0
LINE
  5
121
330
C3
100
AcDbEntity
  8
SUNPOU
100
AcDbLine
 10
2994.999985648774
 20
457.4034157461247
 30
0.0
 11
1979.999985648759
 21
457.403415746121
 31
0.0
  0
LINE
  5
122
330
C3
100
AcDbEntity
  8
SUNPOU
100
AcDbLine
 10
2994.999985648774
 20
937.4034157461247
 30
0.0
 11
1979.999985648759
 21
937.403415746121
 31
0.0
  0
LINE
  5
123
330
C3
100
AcDbEntity
  8
SUNPOU
100
AcDbLine
 10
2994.999985648774
 20
817.4034157461247
 30
0.0
 11
1979.999985648759
 21
817.403415746121
 31
0.0
  0
LINE
  5
124
330
C3
100
AcDbEntity
  8
SUNPOU
100
AcDbLine
 10
2994.999985648774
 20
697.4034157461247
 30
0.0
 11
1979.999985648759
 21
697.403415746121
 31
0.0
  0
LINE
  5
125
330
C3
100
AcDbEntity
  8
SUNPOU
100
AcDbLine
 10
2994.999985648774
 20
577.4034157461247
 30
0.0
 11
1979.999985648759
 21
577.403415746121
 31
0.0
  0
LINE
  5
126
330
C3
100
AcDbEntity
  8
SUNPOU
100
AcDbLine
 10
2939.99998564875
 20
317.4034157461247
 30
0.0
 11
1963.628976814191
 21
317.403415746121
 31
0.0
  0
LINE
  5
127
330
C3
100
AcDbEntity
  8
1HASEN
100
AcDbLine
 10
1379.999985648756
 20
1397.403415746126
 30
0.0
 11
2579.999985648758
 21
1397.403415746126
 31
0.0
  0
LINE
  5
128
330
C3
100
AcDbEntity
  8
SUNPOU
100
AcDbLine
 10
2379.999985648758
 20
997.4034157461265
 30
0.0
 11
1579.999985648758
 21
997.4034157461265
 31
0.0
  0
ARC
  5
129
330
C3
100
AcDbEntity
  8
HAIKIN
100
AcDbCircle
 10
1521.99998564875
 20
939.4034157461192
 30
0.0
 40
35.0
100
AcDbArc
 50
180.0
 51
270.0
  0
LINE
  5
12A
330
C3
100
AcDbEntity
  8
SUNPOU
100
AcDbLine
 10
2129.999985648758
 20
967.4034157461283
 30
0.0
 11
2129.999985648759
 21
352.4034157461192
 31
0.0
  0
LINE
  5
12B
330
C3
100
AcDbEntity
  8
HAIKIN
100
AcDbLine
 10
1521.99998564875
 20
904.4034157461192
 30
0.0
 11
1979.999985648758
 21
904.4034157461228
 31
0.0
  0
LINE
  5
12C
330
C3
100
AcDbEntity
  8
SUNPOU
100
AcDbLine
 10
1516.999985648752
 20
934.403415746121
 30
0.0
 11
1979.999985648758
 21
934.4034157461228
 31
0.0
  0
LINE
  5
12D
330
C3
100
AcDbEntity
  8
SUNPOU
100
AcDbLine
 10
1529.999985648765
 20
904.403415746121
 30
0.0
 11
1529.999985648767
 21
457.4034157461247
 31
0.0
  0
LINE
  5
12E
330
C3
100
AcDbEntity
  8
SUNPOU
100
AcDbLine
 10
1829.999985648759
 20
904.4034157461228
 30
0.0
 11
1829.999985648759
 21
457.4034157461192
 31
0.0
  0
SOLID
  5
12F
330
C3
100
AcDbEntity
  8
SUNPOU
100
AcDbTrace
 10
1276.999985648759
 20
1372.403415746128
 30
0.0
 11
1366.999985648759
 21
1357.403415746128
 31
0.0
 12
1276.999985648759
 22
1342.403415746128
 32
0.0
 13
1276.999985648759
 23
1342.403415746128
 33
0.0
1001
ACAD
1000
DSTYLE
1002
{
1070
    78
1070
     8
1070
   284
1070
     8
1070
   140
1040
3.0
1070
   145
1040
1.0
1070
    74
1070
     0
1070
   172
1070
     1
1070
    73
1070
     0
1070
    77
1070
     1
1070
    40
1040
60.0
1070
   147
1040
0.8
1070
   287
1070
     5
1070
    42
1040
1.5
1070
    44
1040
0.6
1070
    43
1040
7.0
1070
   271
1070
     0
1070
   177
1070
   256
1070
   176
1070
   256
1070
   141
1040
0.0
1070
   275
1070
     1
1070
    41
1040
1.5
1070
   285
1070
     8
1070
   286
1070
     8
1002
}
  0
SOLID
  5
130
330
C3
100
AcDbEntity
  8
SUNPOU
100
AcDbTrace
 10
1336.99998564877
 20
1372.403415746125
 30
0.0
 11
1426.99998564877
 21
1357.403415746123
 31
0.0
 12
1336.99998564877
 22
1342.403415746125
 32
0.0
 13
1336.99998564877
 23
1342.403415746125
 33
0.0
1001
ACAD
1000
DSTYLE
1002
{
1070
    78
1070
     8
1070
   284
1070
     8
1070
   140
1040
3.0
1070
   145
1040
1.0
1070
    74
1070
     0
1070
   172
1070
     1
1070
    73
1070
     0
1070
    77
1070
     1
1070
    40
1040
60.0
1070
   147
1040
0.8
1070
   287
1070
     5
1070
    42
1040
1.5
1070
    44
1040
0.6
1070
    43
1040
7.0
1070
   271
1070
     0
1070
   177
1070
   256
1070
   176
1070
   256
1070
   141
1040
0.0
1070
   275
1070
     1
1070
    41
1040
1.5
1070
   285
1070
     8
1070
   286
1070
     8
1002
}
  0
SOLID
  5
131
330
C3
100
AcDbEntity
  8
SUNPOU
100
AcDbTrace
 10
2804.999985648759
 20
997.4034157461319
 30
0.0
 11
2789.999985648759
 21
907.4034157461319
 31
0.0
 12
2774.999985648759
 22
997.4034157461319
 32
0.0
 13
2774.999985648759
 23
997.4034157461319
 33
0.0
1001
ACAD
1000
DSTYLE
1002
{
1070
    78
1070
     8
1070
   284
1070
     8
1070
   140
1040
3.0
1070
   145
1040
1.0
1070
    74
1070
     0
1070
   172
1070
     1
1070
    73
1070
     0
1070
    77
1070
     1
1070
    40
1040
60.0
1070
   147
1040
0.8
1070
   287
1070
     5
1070
    42
1040
1.5
1070
    44
1040
0.6
1070
    43
1040
7.0
1070
   271
1070
     0
1070
   177
1070
   256
1070
   176
1070
   256
1070
   141
1040
0.0
1070
   275
1070
     1
1070
    41
1040
1.5
1070
   285
1070
     8
1070
   286
1070
     8
1002
}
  0
LINE
  5
132
330
C3
100
AcDbEntity
  8
HASEN
100
AcDbLine
 10
2994.999985648772
 20
715.4034157461156
 30
0.0
 11
2644.497460331817
 21
715.4034157461119
 31
0.0
  0
LINE
  5
133
330
C3
100
AcDbEntity
  8
HASEN
100
AcDbLine
 10
2994.999985648772
 20
475.4034157461156
 30
0.0
 11
2644.497460331817
 21
475.4034157461119
 31
0.0
  0
LINE
  5
134
330
C3
100
AcDbEntity
  8
SUNPOU
100
AcDbLine
 10
3029.99998564875
 20
397.403415746121
 30
0.0
 11
2959.999985648748
 21
397.403415746121
 31
0.0
  0
LINE
  5
135
330
C3
100
AcDbEntity
  8
SUNPOU
100
AcDbLine
 10
2959.999985648748
 20
397.403415746121
 30
0.0
 11
2939.999985648748
 21
317.4034157461228
 31
0.0
  0
SOLID
  5
136
330
C3
100
AcDbEntity
  8
SUNPOU
100
AcDbTrace
 10
2804.999985648759
 20
937.4034157461319
 30
0.0
 11
2789.999985648759
 21
847.4034157461319
 31
0.0
 12
2774.999985648759
 22
937.4034157461319
 32
0.0
 13
2774.999985648759
 23
937.4034157461319
 33
0.0
1001
ACAD
1000
DSTYLE
1002
{
1070
    78
1070
     8
1070
   284
1070
     8
1070
   140
1040
3.0
1070
   145
1040
1.0
1070
    74
1070
     0
1070
   172
1070
     1
1070
    73
1070
     0
1070
    77
1070
     1
1070
    40
1040
60.0
1070
   147
1040
0.8
1070
   287
1070
     5
1070
    42
1040
1.5
1070
    44
1040
0.6
1070
    43
1040
7.0
1070
   271
1070
     0
1070
   177
1070
   256
1070
   176
1070
   256
1070
   141
1040
0.0
1070
   275
1070
     1
1070
    41
1040
1.5
1070
   285
1070
     8
1070
   286
1070
     8
1002
}
  0
SOLID
  5
137
330
C3
100
AcDbEntity
  8
SUNPOU
100
AcDbTrace
 10
2804.999985648759
 20
877.4034157461319
 30
0.0
 11
2789.999985648759
 21
787.4034157461319
 31
0.0
 12
2774.999985648759
 22
877.4034157461319
 32
0.0
 13
2774.999985648759
 23
877.4034157461319
 33
0.0
1001
ACAD
1000
DSTYLE
1002
{
1070
    78
1070
     8
1070
   284
1070
     8
1070
   140
1040
3.0
1070
   145
1040
1.0
1070
    74
1070
     0
1070
   172
1070
     1
1070
    73
1070
     0
1070
    77
1070
     1
1070
    40
1040
60.0
1070
   147
1040
0.8
1070
   287
1070
     5
1070
    42
1040
1.5
1070
    44
1040
0.6
1070
    43
1040
7.0
1070
   271
1070
     0
1070
   177
1070
   256
1070
   176
1070
   256
1070
   141
1040
0.0
1070
   275
1070
     1
1070
    41
1040
1.5
1070
   285
1070
     8
1070
   286
1070
     8
1002
}
  0
LINE
  5
138
330
C3
100
AcDbEntity
  8
SUNPOU
100
AcDbLine
 10
2994.999985648774
 20
1537.403415746125
 30
0.0
 11
2409.999985648759
 21
1537.403415746121
 31
0.0
  0
LINE
  5
139
330
C3
100
AcDbEntity
  8
SUNPOU
100
AcDbLine
 10
2994.999985648774
 20
1417.403415746125
 30
0.0
 11
2409.999985648759
 21
1417.403415746121
 31
0.0
  0
LINE
  5
13A
330
C3
100
AcDbEntity
  8
SUNPOU
100
AcDbLine
 10
2994.999985648774
 20
1297.403415746125
 30
0.0
 11
2409.999985648759
 21
1297.403415746125
 31
0.0
  0
LINE
  5
13B
330
C3
100
AcDbEntity
  8
SUNPOU
100
AcDbLine
 10
2994.999985648774
 20
1177.403415746125
 30
0.0
 11
2409.999985648759
 21
1177.403415746121
 31
0.0
  0
LINE
  5
13C
330
C3
100
AcDbEntity
  8
SUNPOU
100
AcDbLine
 10
2994.999985648774
 20
1057.403415746125
 30
0.0
 11
2409.999985648759
 21
1057.403415746121
 31
0.0
  0
LINE
  5
13D
330
C3
100
AcDbEntity
  8
HASEN
100
AcDbLine
 10
2994.999985648772
 20
955.4034157461156
 30
0.0
 11
2644.497460331817
 21
955.4034157461119
 31
0.0
  0
LINE
  5
13E
330
C3
100
AcDbEntity
  8
HASEN
100
AcDbLine
 10
2994.999985648772
 20
1195.403415746116
 30
0.0
 11
2644.497460331817
 21
1195.403415746112
 31
0.0
  0
LINE
  5
13F
330
C3
100
AcDbEntity
  8
HASEN
100
AcDbLine
 10
2994.999985648772
 20
1435.403415746116
 30
0.0
 11
2644.497460331817
 21
1435.403415746112
 31
0.0
  0
ARC
  5
140
330
C3
100
AcDbEntity
  8
HAIKIN
100
AcDbCircle
 10
2374.999985648759
 20
1002.403415746126
 30
0.0
 40
35.0
100
AcDbArc
 50
270.0
 51
0.0
  0
LINE
  5
141
330
C3
100
AcDbEntity
  8
HAIKIN
100
AcDbLine
 10
2374.999985648758
 20
1827.403415746126
 30
0.0
 11
1979.999985648752
 21
1827.403415746126
 31
0.0
  0
LINE
  5
142
330
C3
100
AcDbEntity
  8
HAIKIN
100
AcDbLine
 10
2994.999985648774
 20
1872.403415746125
 30
0.0
 11
1979.999985648759
 21
1872.403415746121
 31
0.0
  0
LINE
  5
143
330
C3
100
AcDbEntity
  8
HAIKIN
100
AcDbLine
 10
2994.999985648774
 20
1932.403415746125
 30
0.0
 11
1979.999985648758
 21
1932.403415746121
 31
0.0
  0
LINE
  5
144
330
C3
100
AcDbEntity
  8
HAIKIN
100
AcDbLine
 10
2994.999985648774
 20
1992.403415746125
 30
0.0
 11
1979.999985648758
 21
1992.403415746121
 31
0.0
  0
LINE
  5
145
330
C3
100
AcDbEntity
  8
SUNPOU
100
AcDbLine
 10
2994.999985648774
 20
2017.403415746125
 30
0.0
 11
1979.999985648759
 21
2017.403415746121
 31
0.0
  0
LINE
  5
146
330
C3
100
AcDbEntity
  8
SUNPOU
100
AcDbLine
 10
2994.999985648774
 20
2137.403415746125
 30
0.0
 11
1979.999985648759
 21
2137.403415746121
 31
0.0
  0
LINE
  5
147
330
C3
100
AcDbEntity
  8
SUNPOU
100
AcDbLine
 10
2994.999985648774
 20
2257.403415746125
 30
0.0
 11
1979.999985648759
 21
2257.403415746121
 31
0.0
  0
LINE
  5
148
330
C3
100
AcDbEntity
  8
SUNPOU
100
AcDbLine
 10
2994.999985648774
 20
1897.403415746125
 30
0.0
 11
1979.999985648759
 21
1897.403415746121
 31
0.0
  0
LINE
  5
149
330
C3
100
AcDbEntity
  8
SUNPOU
100
AcDbLine
 10
2949.999985648748
 20
2317.403415746123
 30
0.0
 11
1979.999985648759
 21
2317.403415746121
 31
0.0
  0
LINE
  5
14A
330
C3
100
AcDbEntity
  8
SUNPOU
100
AcDbLine
 10
2379.999985648758
 20
1797.403415746126
 30
0.0
 11
1579.999985648756
 21
1797.403415746126
 31
0.0
  0
LINE
  5
14B
330
C3
100
AcDbEntity
  8
SUNPOU
100
AcDbLine
 10
1829.999985648765
 20
2362.403415746123
 30
0.0
 11
1829.999985648759
 21
1890.403415746126
 31
0.0
  0
LINE
  5
14C
330
C3
100
AcDbEntity
  8
SUNPOU
100
AcDbLine
 10
1529.999985648763
 20
2362.403415746125
 30
0.0
 11
1529.999985648763
 21
1890.403415746128
 31
0.0
  0
LINE
  5
14D
330
C3
100
AcDbEntity
  8
HAIKIN
100
AcDbLine
 10
1979.999985648758
 20
1890.403415746128
 30
0.0
 11
1521.99998564875
 21
1890.403415746132
 31
0.0
  0
LINE
  5
14E
330
C3
100
AcDbEntity
  8
SUNPOU
100
AcDbLine
 10
1979.999985648758
 20
1860.403415746128
 30
0.0
 11
1516.999985648752
 21
1860.403415746126
 31
0.0
  0
ARC
  5
14F
330
C3
100
AcDbEntity
  8
HAIKIN
100
AcDbCircle
 10
1521.99998564875
 20
1855.403415746132
 30
0.0
 40
35.0
100
AcDbArc
 50
90.0
 51
180.0
  0
SOLID
  5
150
330
C3
100
AcDbEntity
  8
SUNPOU
100
AcDbTrace
 10
1694.999985648759
 20
1980.403415746141
 30
0.0
 11
1679.999985648759
 21
1890.403415746141
 31
0.0
 12
1664.999985648759
 22
1980.403415746141
 32
0.0
 13
1664.999985648759
 23
1980.403415746141
 33
0.0
1001
ACAD
1000
DSTYLE
1002
{
1070
    78
1070
     8
1070
   284
1070
     8
1070
   140
1040
3.0
1070
   145
1040
1.0
1070
    74
1070
     0
1070
   172
1070
     1
1070
    73
1070
     0
1070
    77
1070
     1
1070
    40
1040
60.0
1070
   147
1040
0.8
1070
   287
1070
     5
1070
    42
1040
1.5
1070
    44
1040
0.6
1070
    43
1040
7.0
1070
   271
1070
     0
1070
   177
1070
   256
1070
   176
1070
   256
1070
   141
1040
0.0
1070
   275
1070
     1
1070
    41
1040
1.5
1070
   285
1070
     8
1070
   286
1070
     8
1002
}
  0
LINE
  5
151
330
C3
100
AcDbEntity
  8
SUNPOU
100
AcDbLine
 10
2129.999985648759
 20
2257.403415746121
 30
0.0
 11
2129.999985648759
 21
1827.40341574613
 31
0.0
  0
LINE
  5
152
330
C3
100
AcDbEntity
  8
SUNPOU
100
AcDbLine
 10
2969.99998564875
 20
2397.403415746121
 30
0.0
 11
2949.99998564875
 21
2317.403415746125
 31
0.0
  0
LINE
  5
153
330
C3
100
AcDbEntity
  8
SUNPOU
100
AcDbLine
 10
2994.999985648774
 20
1777.403415746125
 30
0.0
 11
2409.999985648758
 21
1777.403415746119
 31
0.0
  0
LINE
  5
154
330
C3
100
AcDbEntity
  8
SUNPOU
100
AcDbLine
 10
2994.999985648774
 20
1657.403415746125
 30
0.0
 11
2409.999985648758
 21
1657.403415746121
 31
0.0
  0
LINE
  5
155
330
C3
100
AcDbEntity
  8
HASEN
100
AcDbLine
 10
2994.999985648772
 20
2155.403415746116
 30
0.0
 11
2644.497460331817
 21
2155.403415746112
 31
0.0
  0
LINE
  5
156
330
C3
100
AcDbEntity
  8
HASEN
100
AcDbLine
 10
2994.999985648772
 20
1915.403415746116
 30
0.0
 11
2644.497460331817
 21
1915.403415746112
 31
0.0
  0
LINE
  5
157
330
C3
100
AcDbEntity
  8
HASEN
100
AcDbLine
 10
2994.999985648772
 20
1675.403415746116
 30
0.0
 11
2644.497460331817
 21
1675.403415746112
 31
0.0
  0
ARC
  5
158
330
C3
100
AcDbEntity
  8
HAIKIN
100
AcDbCircle
 10
2374.999985648758
 20
1792.403415746126
 30
0.0
 40
35.0
100
AcDbArc
 50
0.0
 51
90.0
  0
SOLID
  5
159
330
C3
100
AcDbEntity
  8
SUNPOU
100
AcDbTrace
 10
2294.999985648761
 20
1917.403415746126
 30
0.0
 11
2279.999985648761
 21
1827.403415746126
 31
0.0
 12
2264.999985648761
 22
1917.403415746126
 32
0.0
 13
2264.999985648761
 23
1917.403415746126
 33
0.0
1001
ACAD
1000
DSTYLE
1002
{
1070
    78
1070
     8
1070
   284
1070
     8
1070
   140
1040
3.0
1070
   145
1040
1.0
1070
    74
1070
     0
1070
   172
1070
     1
1070
    73
1070
     0
1070
    77
1070
     1
1070
    40
1040
60.0
1070
   147
1040
0.8
1070
   287
1070
     5
1070
    42
1040
1.5
1070
    44
1040
0.6
1070
    43
1040
7.0
1070
   271
1070
     0
1070
   177
1070
   256
1070
   176
1070
   256
1070
   141
1040
0.0
1070
   275
1070
     1
1070
    41
1040
1.5
1070
   285
1070
     8
1070
   286
1070
     8
1002
}
  0
SOLID
  5
15A
330
C3
100
AcDbEntity
  8
SUNPOU
100
AcDbTrace
 10
2804.999985648759
 20
2022.403415746125
 30
0.0
 11
2789.999985648759
 21
1932.403415746125
 31
0.0
 12
2774.999985648759
 22
2022.403415746125
 32
0.0
 13
2774.999985648759
 23
2022.403415746125
 33
0.0
1001
ACAD
1000
DSTYLE
1002
{
1070
    78
1070
     8
1070
   284
1070
     8
1070
   140
1040
3.0
1070
   145
1040
1.0
1070
    74
1070
     0
1070
   172
1070
     1
1070
    73
1070
     0
1070
    77
1070
     1
1070
    40
1040
60.0
1070
   147
1040
0.8
1070
   287
1070
     5
1070
    42
1040
1.5
1070
    44
1040
0.6
1070
    43
1040
7.0
1070
   271
1070
     0
1070
   177
1070
   256
1070
   176
1070
   256
1070
   141
1040
0.0
1070
   275
1070
     1
1070
    41
1040
1.5
1070
   285
1070
     8
1070
   286
1070
     8
1002
}
  0
SOLID
  5
15B
330
C3
100
AcDbEntity
  8
SUNPOU
100
AcDbTrace
 10
2804.999985648759
 20
1962.403415746125
 30
0.0
 11
2789.999985648759
 21
1872.403415746125
 31
0.0
 12
2774.999985648759
 22
1962.403415746125
 32
0.0
 13
2774.999985648759
 23
1962.403415746125
 33
0.0
1001
ACAD
1000
DSTYLE
1002
{
1070
    78
1070
     8
1070
   284
1070
     8
1070
   140
1040
3.0
1070
   145
1040
1.0
1070
    74
1070
     0
1070
   172
1070
     1
1070
    73
1070
     0
1070
    77
1070
     1
1070
    40
1040
60.0
1070
   147
1040
0.8
1070
   287
1070
     5
1070
    42
1040
1.5
1070
    44
1040
0.6
1070
    43
1040
7.0
1070
   271
1070
     0
1070
   177
1070
   256
1070
   176
1070
   256
1070
   141
1040
0.0
1070
   275
1070
     1
1070
    41
1040
1.5
1070
   285
1070
     8
1070
   286
1070
     8
1002
}
  0
SOLID
  5
15C
330
C3
100
AcDbEntity
  8
SUNPOU
100
AcDbTrace
 10
2804.999985648759
 20
2082.403415746125
 30
0.0
 11
2789.999985648759
 21
1992.403415746125
 31
0.0
 12
2774.999985648759
 22
2082.403415746125
 32
0.0
 13
2774.999985648759
 23
2082.403415746125
 33
0.0
1001
ACAD
1000
DSTYLE
1002
{
1070
    78
1070
     8
1070
   284
1070
     8
1070
   140
1040
3.0
1070
   145
1040
1.0
1070
    74
1070
     0
1070
   172
1070
     1
1070
    73
1070
     0
1070
    77
1070
     1
1070
    40
1040
60.0
1070
   147
1040
0.8
1070
   287
1070
     5
1070
    42
1040
1.5
1070
    44
1040
0.6
1070
    43
1040
7.0
1070
   271
1070
     0
1070
   177
1070
   256
1070
   176
1070
   256
1070
   141
1040
0.0
1070
   275
1070
     1
1070
    41
1040
1.5
1070
   285
1070
     8
1070
   286
1070
     8
1002
}
  0
LINE
  5
15D
330
C3
100
AcDbEntity
  8
SUNPOU
100
AcDbLine
 10
2969.99998564875
 20
2397.403415746121
 30
0.0
 11
3029.99998564875
 21
2397.403415746121
 31
0.0
  0
LINE
  5
15E
330
C3
100
AcDbEntity
  8
SUNPOU
100
AcDbLine
 10
3449.999985648745
 20
1357.403415746123
 30
0.0
 11
3449.999985648745
 21
2102.632833953865
 31
0.0
1001
ACAD
1000
DSTYLE
1002
{
1070
    78
1070
     8
1070
   284
1070
     8
1070
   140
1040
3.0
1070
   145
1040
1.0
1070
    74
1070
     0
1070
   172
1070
     1
1070
    73
1070
     0
1070
    77
1070
     1
1070
    40
1040
60.0
1070
   147
1040
0.8
1070
   287
1070
     5
1070
    42
1040
1.5
1070
    44
1040
0.6
1070
    43
1040
7.0
1070
   271
1070
     0
1070
   177
1070
   256
1070
   176
1070
   256
1070
   141
1040
0.0
1070
   275
1070
     1
1070
    41
1040
1.5
1070
   285
1070
     8
1070
   286
1070
     8
1002
}
  0
TEXT
  5
15F
330
C3
100
AcDbEntity
  8
SUNPOU
100
AcDbText
 10
1304.999985648761
 20
3317.403415746123
 30
0.0
 40
150.0
  1
D10
 41
0.8
 11
1304.999985648761
 21
3392.403415746123
 31
0.0
100
AcDbText
 73
     2
  0
TEXT
  5
160
330
C3
100
AcDbEntity
  8
SUNPOU
100
AcDbText
 10
2684.999985648759
 20
3317.403415746123
 30
0.0
 40
150.0
  1
D10
 41
0.8
 11
2684.999985648759
 21
3392.403415746123
 31
0.0
100
AcDbText
 73
     2
  0
LINE
  5
161
330
C3
100
AcDbEntity
  8
SUNPOU
100
AcDbLine
 10
2279.999985648759
 20
3227.403415746123
 30
0.0
 11
3059.999985648759
 21
3227.403415746123
 31
0.0
1001
ACAD
1000
DSTYLE
1002
{
1070
    78
1070
     8
1070
   284
1070
     8
1070
   140
1040
3.0
1070
   145
1040
1.0
1070
    74
1070
     0
1070
   172
1070
     1
1070
    73
1070
     0
1070
    77
1070
     1
1070
    40
1040
60.0
1070
   147
1040
0.8
1070
   287
1070
     5
1070
    42
1040
1.5
1070
    44
1040
0.6
1070
    43
1040
7.0
1070
   271
1070
     0
1070
   177
1070
   256
1070
   176
1070
   256
1070
   141
1040
0.0
1070
   275
1070
     1
1070
    41
1040
1.5
1070
   285
1070
     8
1070
   286
1070
     8
1002
}
  0
TEXT
  5
162
330
C3
100
AcDbEntity
  8
SUNPOU
100
AcDbText
 10
2359.999985648759
 20
3317.403415746123
 30
0.0
 40
150.0
  1
H4
 41
0.8
 72
     4
 11
2459.999985648759
 21
3392.403415746123
 31
0.0
100
AcDbText
  0
CIRCLE
  5
163
330
C3
100
AcDbEntity
  8
SUNPOU
100
AcDbCircle
 10
2459.999985648759
 20
3392.403415746123
 30
0.0
 40
165.0
  0
TEXT
  5
164
330
C3
100
AcDbEntity
  8
SUNPOU
100
AcDbText
 10
2239.999985648754
 20
4105.403415746121
 30
0.0
 40
210.0
  1
内　側
 72
     2
 11
2939.999985648754
 21
4077.403415746121
 31
0.0
100
AcDbText
 73
     1
  0
LINE
  5
165
330
C3
100
AcDbEntity
  8
HAIKIN
 62
     3
100
AcDbLine
 10
1889.999985648752
 20
4587.403415746125
 30
0.0
 11
1889.999985648752
 21
4887.403415746125
 31
0.0
  0
SOLID
  5
166
330
C3
100
AcDbEntity
  8
SUNPOU
100
AcDbTrace
 10
2559.999985648748
 20
1342.403415746126
 30
0.0000000000000092
 11
2469.999985648748
 21
1357.403415746126
 31
0.0000000000000092
 12
2559.999985648748
 22
1372.403415746126
 32
0.0000000000000092
 13
2559.999985648748
 23
1372.403415746126
 33
0.0000000000000092
1001
ACAD
1000
DSTYLE
1002
{
1070
    78
1070
     8
1070
   284
1070
     8
1070
   140
1040
3.0
1070
   145
1040
1.0
1070
    74
1070
     0
1070
   172
1070
     1
1070
    73
1070
     0
1070
    77
1070
     1
1070
    40
1040
60.0
1070
   147
1040
0.8
1070
   287
1070
     5
1070
    42
1040
1.5
1070
    44
1040
0.6
1070
    43
1040
7.0
1070
   271
1070
     0
1070
   177
1070
   256
1070
   176
1070
   256
1070
   141
1040
0.0
1070
   275
1070
     1
1070
    41
1040
1.5
1070
   285
1070
     8
1070
   286
1070
     8
1002
}
  0
SOLID
  5
167
330
C3
100
AcDbEntity
  8
SUNPOU
100
AcDbTrace
 10
2679.99998564875
 20
1342.403415746126
 30
0.0000000000000092
 11
2589.99998564875
 21
1357.403415746126
 31
0.0000000000000092
 12
2679.99998564875
 22
1372.403415746126
 32
0.0000000000000092
 13
2679.99998564875
 23
1372.403415746126
 33
0.0000000000000092
1001
ACAD
1000
DSTYLE
1002
{
1070
    78
1070
     8
1070
   284
1070
     8
1070
   140
1040
3.0
1070
   145
1040
1.0
1070
    74
1070
     0
1070
   172
1070
     1
1070
    73
1070
     0
1070
    77
1070
     1
1070
    40
1040
60.0
1070
   147
1040
0.8
1070
   287
1070
     5
1070
    42
1040
1.5
1070
    44
1040
0.6
1070
    43
1040
7.0
1070
   271
1070
     0
1070
   177
1070
   256
1070
   176
1070
   256
1070
   141
1040
0.0
1070
   275
1070
     1
1070
    41
1040
1.5
1070
   285
1070
     8
1070
   286
1070
     8
1002
}
  0
SOLID
  5
168
330
C3
100
AcDbEntity
  8
SUNPOU
100
AcDbTrace
 10
2619.99998564875
 20
1342.403415746126
 30
0.0000000000000092
 11
2529.99998564875
 21
1357.403415746126
 31
0.0000000000000092
 12
2619.99998564875
 22
1372.403415746126
 32
0.0000000000000092
 13
2619.99998564875
 23
1372.403415746126
 33
0.0000000000000092
1001
ACAD
1000
DSTYLE
1002
{
1070
    78
1070
     8
1070
   284
1070
     8
1070
   140
1040
3.0
1070
   145
1040
1.0
1070
    74
1070
     0
1070
   172
1070
     1
1070
    73
1070
     0
1070
    77
1070
     1
1070
    40
1040
60.0
1070
   147
1040
0.8
1070
   287
1070
     5
1070
    42
1040
1.5
1070
    44
1040
0.6
1070
    43
1040
7.0
1070
   271
1070
     0
1070
   177
1070
   256
1070
   176
1070
   256
1070
   141
1040
0.0
1070
   275
1070
     1
1070
    41
1040
1.5
1070
   285
1070
     8
1070
   286
1070
     8
1002
}
  0
ENDBLK
  5
16A
330
C3
100
AcDbEntity
  8
0
100
AcDbBlockEnd
  0
BLOCK
  5
1404
330
13F9
100
AcDbEntity
  8
0
100
AcDbBlockBegin
  2
*D8
 70
     1
 10
0.0
 20
0.0
 30
0.0
  3
*D8
  1

  0
LINE
  5
1F4F
330
13F9
100
AcDbEntity
  8
SUNPOU
 62
     0
370
    -2
100
AcDbLine
 10
2470.462080610858
 20
6815.086375133453
 30
0.0
 11
2470.462080610858
 21
7120.086375133453
 31
0.0
  0
LINE
  5
1F50
330
13F9
100
AcDbEntity
  8
SUNPOU
 62
     0
370
    -2
100
AcDbLine
 10
2540.462080610858
 20
6815.086375133453
 30
0.0
 11
2540.462080610858
 21
7120.086375133453
 31
0.0
  0
LINE
  5
1F51
330
13F9
100
AcDbEntity
  8
SUNPOU
 62
     0
370
    -2
100
AcDbLine
 10
2410.462080610858
 20
7105.086375133453
 30
0.0
 11
2350.462080610858
 21
7105.086375133453
 31
0.0
  0
LINE
  5
1F52
330
13F9
100
AcDbEntity
  8
SUNPOU
 62
     0
370
    -2
100
AcDbLine
 10
2600.462080610858
 20
7105.086375133453
 30
0.0
 11
2660.462080610858
 21
7105.086375133453
 31
0.0
  0
MTEXT
  5
1F53
330
13F9
100
AcDbEntity
  8
SUNPOU
 62
     0
100
AcDbMText
 10
2504.959207555374
 20
7166.528156694048
 30
0.0
 40
90.0
 41
0.0
 71
     5
 72
     1
  1
\A1;70
 73
     1
 44
1.0
  0
SOLID
  5
1F54
330
13F9
100
AcDbEntity
  8
SUNPOU
 62
     0
100
AcDbTrace
 10
2410.462080610858
 20
7115.086375133453
 30
0.0
 11
2410.462080610858
 21
7095.086375133453
 31
0.0
 12
2470.462080610858
 22
7105.086375133453
 32
0.0
 13
2470.462080610858
 23
7105.086375133453
 33
0.0
  0
SOLID
  5
1F55
330
13F9
100
AcDbEntity
  8
SUNPOU
 62
     0
100
AcDbTrace
 10
2600.462080610858
 20
7115.086375133453
 30
0.0
 11
2600.462080610858
 21
7095.086375133453
 31
0.0
 12
2540.462080610858
 22
7105.086375133453
 32
0.0
 13
2540.462080610858
 23
7105.086375133453
 33
0.0
  0
POINT
  5
1F56
330
13F9
100
AcDbEntity
  8
DEFPOINTS
 62
     0
100
AcDbPoint
 10
2470.462080610858
 20
6755.086375133453
 30
0.0
  0
POINT
  5
1F57
330
13F9
100
AcDbEntity
  8
DEFPOINTS
 62
     0
100
AcDbPoint
 10
2540.462080610858
 20
6755.086375133453
 30
0.0
  0
POINT
  5
1F58
330
13F9
100
AcDbEntity
  8
DEFPOINTS
 62
     0
100
AcDbPoint
 10
2540.462080610858
 20
7105.086375133453
 30
0.0
  0
ENDBLK
  5
1405
330
13F9
100
AcDbEntity
  8
0
100
AcDbBlockEnd
  0
BLOCK
  5
1451
330
1447
100
AcDbEntity
  8
0
100
AcDbBlockBegin
  2
*D9
 70
     1
 10
0.0
 20
0.0
 30
0.0
  3
*D9
  1

  0
LINE
  5
1F59
330
1447
100
AcDbEntity
  8
SUNPOU
 62
     0
370
    -2
100
AcDbLine
 10
5868.946294070469
 20
5445.086375133455
 30
0.0
 11
5868.946294070469
 21
4768.583398270188
 31
0.0
  0
LINE
  5
1F5A
330
1447
100
AcDbEntity
  8
SUNPOU
 62
     0
370
    -2
100
AcDbLine
 10
7868.946294070469
 20
5445.086375133455
 30
0.0
 11
7868.946294070469
 21
4768.583398270188
 31
0.0
  0
LINE
  5
1F5B
330
1447
100
AcDbEntity
  8
SUNPOU
 62
     0
370
    -2
100
AcDbLine
 10
5928.946294070469
 20
4783.583398270188
 30
0.0
 11
7808.946294070469
 21
4783.583398270188
 31
0.0
  0
SOLID
  5
1F5C
330
1447
100
AcDbEntity
  8
SUNPOU
 62
     0
100
AcDbTrace
 10
5928.946294070469
 20
4793.583398270188
 30
0.0
 11
5928.946294070469
 21
4773.583398270188
 31
0.0
 12
5868.946294070469
 22
4783.583398270188
 32
0.0
 13
5868.946294070469
 23
4783.583398270188
 33
0.0
  0
SOLID
  5
1F5D
330
1447
100
AcDbEntity
  8
SUNPOU
 62
     0
100
AcDbTrace
 10
7808.946294070469
 20
4793.583398270188
 30
0.0
 11
7808.946294070469
 21
4773.583398270188
 31
0.0
 12
7868.946294070469
 22
4783.583398270188
 32
0.0
 13
7868.946294070469
 23
4783.583398270188
 33
0.0
  0
MTEXT
  5
1F5E
330
1447
100
AcDbEntity
  8
SUNPOU
 62
     0
100
AcDbMText
 10
6868.946294070469
 20
4852.583398270188
 30
0.0
 40
90.0
 41
0.0
 71
     5
 72
     1
  1
\A1;2000
 73
     1
 44
1.0
  0
POINT
  5
1F5F
330
1447
100
AcDbEntity
  8
DEFPOINTS
 62
     0
100
AcDbPoint
 10
5868.946294070469
 20
5505.086375133455
 30
0.0
  0
POINT
  5
1F60
330
1447
100
AcDbEntity
  8
DEFPOINTS
 62
     0
100
AcDbPoint
 10
7868.946294070469
 20
5505.086375133455
 30
0.0
  0
POINT
  5
1F61
330
1447
100
AcDbEntity
  8
DEFPOINTS
 62
     0
100
AcDbPoint
 10
7868.946294070469
 20
4783.583398270188
 30
0.0
  0
ENDBLK
  5
1452
330
1447
100
AcDbEntity
  8
0
100
AcDbBlockEnd
  0
BLOCK
  5
145D
330
1453
100
AcDbEntity
  8
0
100
AcDbBlockBegin
  2
*D10
 70
     1
 10
0.0
 20
0.0
 30
0.0
  3
*D10
  1

  0
LINE
  5
1F62
330
1453
100
AcDbEntity
  8
SUNPOU
 62
     0
370
    -2
100
AcDbLine
 10
5868.946294070469
 20
6815.086375133455
 30
0.0
 11
5868.946294070469
 21
7335.005715625095
 31
0.0
  0
LINE
  5
1F63
330
1453
100
AcDbEntity
  8
SUNPOU
 62
     0
370
    -2
100
AcDbLine
 10
7868.946294070469
 20
6815.086375133455
 30
0.0
 11
7868.946294070469
 21
7335.005715625095
 31
0.0
  0
LINE
  5
1F64
330
1453
100
AcDbEntity
  8
SUNPOU
 62
     0
370
    -2
100
AcDbLine
 10
5928.946294070469
 20
7320.005715625095
 30
0.0
 11
7808.946294070469
 21
7320.005715625095
 31
0.0
  0
SOLID
  5
1F65
330
1453
100
AcDbEntity
  8
SUNPOU
 62
     0
100
AcDbTrace
 10
5928.946294070469
 20
7330.005715625095
 30
0.0
 11
5928.946294070469
 21
7310.005715625095
 31
0.0
 12
5868.946294070469
 22
7320.005715625095
 32
0.0
 13
5868.946294070469
 23
7320.005715625095
 33
0.0
  0
SOLID
  5
1F66
330
1453
100
AcDbEntity
  8
SUNPOU
 62
     0
100
AcDbTrace
 10
7808.946294070469
 20
7330.005715625095
 30
0.0
 11
7808.946294070469
 21
7310.005715625095
 31
0.0
 12
7868.946294070469
 22
7320.005715625095
 32
0.0
 13
7868.946294070469
 23
7320.005715625095
 33
0.0
  0
MTEXT
  5
1F67
330
1453
100
AcDbEntity
  8
SUNPOU
 62
     0
100
AcDbMText
 10
6868.946294070469
 20
7389.005715625095
 30
0.0
 40
90.0
 41
0.0
 71
     5
 72
     1
  1
\A1;2000
 73
     1
 44
1.0
  0
POINT
  5
1F68
330
1453
100
AcDbEntity
  8
DEFPOINTS
 62
     0
100
AcDbPoint
 10
5868.946294070469
 20
6755.086375133455
 30
0.0
  0
POINT
  5
1F69
330
1453
100
AcDbEntity
  8
DEFPOINTS
 62
     0
100
AcDbPoint
 10
7868.946294070469
 20
6755.086375133455
 30
0.0
  0
POINT
  5
1F6A
330
1453
100
AcDbEntity
  8
DEFPOINTS
 62
     0
100
AcDbPoint
 10
7868.946294070469
 20
7320.005715625095
 30
0.0
  0
ENDBLK
  5
145E
330
1453
100
AcDbEntity
  8
0
100
AcDbBlockEnd
  0
BLOCK
  5
14DB
330
14D1
100
AcDbEntity
  8
0
100
AcDbBlockBegin
  2
*D11
 70
     1
 10
0.0
 20
0.0
 30
0.0
  3
*D11
  1

  0
LINE
  5
1F6B
330
14D1
100
AcDbEntity
  8
SUNPOU
 62
     0
370
    -2
100
AcDbLine
 10
7818.946294070468
 20
2549.997608710022
 30
0.0
 11
7818.946294070468
 21
2062.467370065242
 31
0.0
  0
LINE
  5
1F6C
330
14D1
100
AcDbEntity
  8
SUNPOU
 62
     0
370
    -2
100
AcDbLine
 10
5918.946294070468
 20
2549.997608710022
 30
0.0
 11
5918.946294070468
 21
2062.467370065242
 31
0.0
  0
LINE
  5
1F6D
330
14D1
100
AcDbEntity
  8
SUNPOU
 62
     0
370
    -2
100
AcDbLine
 10
7758.946294070468
 20
2077.467370065242
 30
0.0
 11
5978.946294070468
 21
2077.467370065242
 31
0.0
  0
SOLID
  5
1F6E
330
14D1
100
AcDbEntity
  8
SUNPOU
 62
     0
100
AcDbTrace
 10
7758.946294070468
 20
2087.467370065242
 30
0.0
 11
7758.946294070468
 21
2067.467370065242
 31
0.0
 12
7818.946294070468
 22
2077.467370065242
 32
0.0
 13
7818.946294070468
 23
2077.467370065242
 33
0.0
  0
SOLID
  5
1F6F
330
14D1
100
AcDbEntity
  8
SUNPOU
 62
     0
100
AcDbTrace
 10
5978.946294070468
 20
2087.467370065242
 30
0.0
 11
5978.946294070468
 21
2067.467370065242
 31
0.0
 12
5918.946294070468
 22
2077.467370065242
 32
0.0
 13
5918.946294070468
 23
2077.467370065242
 33
0.0
  0
MTEXT
  5
1F70
330
14D1
100
AcDbEntity
  8
SUNPOU
 62
     0
100
AcDbMText
 10
6868.946294070468
 20
2146.467370065242
 30
0.0
 40
90.0
 41
0.0
 71
     5
 72
     1
  1
\A1;1900
 73
     1
 44
1.0
  0
POINT
  5
1F71
330
14D1
100
AcDbEntity
  8
DEFPOINTS
 62
     0
100
AcDbPoint
 10
7818.946294070468
 20
2609.997608710022
 30
0.0
  0
POINT
  5
1F72
330
14D1
100
AcDbEntity
  8
DEFPOINTS
 62
     0
100
AcDbPoint
 10
5918.946294070468
 20
2609.997608710022
 30
0.0
  0
POINT
  5
1F73
330
14D1
100
AcDbEntity
  8
DEFPOINTS
 62
     0
100
AcDbPoint
 10
5918.946294070468
 20
2077.467370065242
 30
0.0
  0
ENDBLK
  5
14DC
330
14D1
100
AcDbEntity
  8
0
100
AcDbBlockEnd
  0
BLOCK
  5
1535
330
152B
100
AcDbEntity
  8
0
100
AcDbBlockBegin
  2
*D12
 70
     1
 10
0.0
 20
0.0
 30
0.0
  3
*D12
  1

  0
LINE
  5
1F74
330
152B
100
AcDbEntity
  8
SUNPOU
 62
     0
370
    -2
100
AcDbLine
 10
5868.946294070469
 20
5445.086375133455
 30
0.0
 11
5868.946294070469
 21
4952.354051698887
 31
0.0
  0
LINE
  5
1F75
330
152B
100
AcDbEntity
  8
SUNPOU
 62
     0
370
    -2
100
AcDbLine
 10
6368.946294070469
 20
5445.086375133455
 30
0.0
 11
6368.946294070469
 21
4952.354051698887
 31
0.0
  0
LINE
  5
1F76
330
152B
100
AcDbEntity
  8
SUNPOU
 62
     0
370
    -2
100
AcDbLine
 10
5928.946294070469
 20
4967.354051698887
 30
0.0
 11
6308.946294070469
 21
4967.354051698887
 31
0.0
  0
SOLID
  5
1F77
330
152B
100
AcDbEntity
  8
SUNPOU
 62
     0
100
AcDbTrace
 10
5928.946294070469
 20
4977.354051698887
 30
0.0
 11
5928.946294070469
 21
4957.354051698887
 31
0.0
 12
5868.946294070469
 22
4967.354051698887
 32
0.0
 13
5868.946294070469
 23
4967.354051698887
 33
0.0
  0
SOLID
  5
1F78
330
152B
100
AcDbEntity
  8
SUNPOU
 62
     0
100
AcDbTrace
 10
6308.946294070469
 20
4977.354051698887
 30
0.0
 11
6308.946294070469
 21
4957.354051698887
 31
0.0
 12
6368.946294070469
 22
4967.354051698887
 32
0.0
 13
6368.946294070469
 23
4967.354051698887
 33
0.0
  0
MTEXT
  5
1F79
330
152B
100
AcDbEntity
  8
SUNPOU
 62
     0
100
AcDbMText
 10
6118.946294070469
 20
5036.354051698887
 30
0.0
 40
90.0
 41
0.0
 71
     5
 72
     1
  1
\A1;500
 73
     1
 44
1.0
  0
POINT
  5
1F7A
330
152B
100
AcDbEntity
  8
DEFPOINTS
 62
     0
100
AcDbPoint
 10
5868.946294070469
 20
5505.086375133455
 30
0.0
  0
POINT
  5
1F7B
330
152B
100
AcDbEntity
  8
DEFPOINTS
 62
     0
100
AcDbPoint
 10
6368.946294070469
 20
5505.086375133455
 30
0.0
  0
POINT
  5
1F7C
330
152B
100
AcDbEntity
  8
DEFPOINTS
 62
     0
100
AcDbPoint
 10
6368.946294070469
 20
4967.354051698887
 30
0.0
  0
ENDBLK
  5
1536
330
152B
100
AcDbEntity
  8
0
100
AcDbBlockEnd
  0
BLOCK
  5
1541
330
1537
100
AcDbEntity
  8
0
100
AcDbBlockBegin
  2
*D13
 70
     1
 10
0.0
 20
0.0
 30
0.0
  3
*D13
  1

  0
LINE
  5
1F7D
330
1537
100
AcDbEntity
  8
SUNPOU
 62
     0
370
    -2
100
AcDbLine
 10
6368.946294070469
 20
5445.086375133455
 30
0.0
 11
6368.946294070469
 21
4952.354051698887
 31
0.0
  0
LINE
  5
1F7E
330
1537
100
AcDbEntity
  8
SUNPOU
 62
     0
370
    -2
100
AcDbLine
 10
6868.946294070469
 20
5345.086375133454
 30
0.0
 11
6868.946294070469
 21
4952.354051698887
 31
0.0
  0
LINE
  5
1F7F
330
1537
100
AcDbEntity
  8
SUNPOU
 62
     0
370
    -2
100
AcDbLine
 10
6428.946294070469
 20
4967.354051698887
 30
0.0
 11
6808.946294070469
 21
4967.354051698887
 31
0.0
  0
SOLID
  5
1F80
330
1537
100
AcDbEntity
  8
SUNPOU
 62
     0
100
AcDbTrace
 10
6428.946294070469
 20
4977.354051698887
 30
0.0
 11
6428.946294070469
 21
4957.354051698887
 31
0.0
 12
6368.946294070469
 22
4967.354051698887
 32
0.0
 13
6368.946294070469
 23
4967.354051698887
 33
0.0
  0
SOLID
  5
1F81
330
1537
100
AcDbEntity
  8
SUNPOU
 62
     0
100
AcDbTrace
 10
6808.946294070469
 20
4977.354051698887
 30
0.0
 11
6808.946294070469
 21
4957.354051698887
 31
0.0
 12
6868.946294070469
 22
4967.354051698887
 32
0.0
 13
6868.946294070469
 23
4967.354051698887
 33
0.0
  0
MTEXT
  5
1F82
330
1537
100
AcDbEntity
  8
SUNPOU
 62
     0
100
AcDbMText
 10
6618.946294070469
 20
5036.354051698887
 30
0.0
 40
90.0
 41
0.0
 71
     5
 72
     1
  1
\A1;500
 73
     1
 44
1.0
  0
POINT
  5
1F83
330
1537
100
AcDbEntity
  8
DEFPOINTS
 62
     0
100
AcDbPoint
 10
6368.946294070469
 20
5505.086375133455
 30
0.0
  0
POINT
  5
1F84
330
1537
100
AcDbEntity
  8
DEFPOINTS
 62
     0
100
AcDbPoint
 10
6868.946294070469
 20
5405.086375133454
 30
0.0
  0
POINT
  5
1F85
330
1537
100
AcDbEntity
  8
DEFPOINTS
 62
     0
100
AcDbPoint
 10
6868.946294070469
 20
4967.354051698887
 30
0.0
  0
ENDBLK
  5
1542
330
1537
100
AcDbEntity
  8
0
100
AcDbBlockEnd
  0
BLOCK
  5
154D
330
1543
100
AcDbEntity
  8
0
100
AcDbBlockBegin
  2
*D14
 70
     1
 10
0.0
 20
0.0
 30
0.0
  3
*D14
  1

  0
LINE
  5
1F86
330
1543
100
AcDbEntity
  8
SUNPOU
 62
     0
370
    -2
100
AcDbLine
 10
7868.946294070469
 20
5445.086375133455
 30
0.0
 11
7868.946294070469
 21
4952.354051698887
 31
0.0
  0
LINE
  5
1F87
330
1543
100
AcDbEntity
  8
SUNPOU
 62
     0
370
    -2
100
AcDbLine
 10
7368.946294070469
 20
5445.086375133455
 30
0.0
 11
7368.946294070469
 21
4952.354051698887
 31
0.0
  0
LINE
  5
1F88
330
1543
100
AcDbEntity
  8
SUNPOU
 62
     0
370
    -2
100
AcDbLine
 10
7808.946294070469
 20
4967.354051698887
 30
0.0
 11
7428.946294070469
 21
4967.354051698887
 31
0.0
  0
SOLID
  5
1F89
330
1543
100
AcDbEntity
  8
SUNPOU
 62
     0
100
AcDbTrace
 10
7808.946294070469
 20
4977.354051698887
 30
0.0
 11
7808.946294070469
 21
4957.354051698887
 31
0.0
 12
7868.946294070469
 22
4967.354051698887
 32
0.0
 13
7868.946294070469
 23
4967.354051698887
 33
0.0
  0
SOLID
  5
1F8A
330
1543
100
AcDbEntity
  8
SUNPOU
 62
     0
100
AcDbTrace
 10
7428.946294070469
 20
4977.354051698887
 30
0.0
 11
7428.946294070469
 21
4957.354051698887
 31
0.0
 12
7368.946294070469
 22
4967.354051698887
 32
0.0
 13
7368.946294070469
 23
4967.354051698887
 33
0.0
  0
MTEXT
  5
1F8B
330
1543
100
AcDbEntity
  8
SUNPOU
 62
     0
100
AcDbMText
 10
7618.946294070469
 20
5036.354051698887
 30
0.0
 40
90.0
 41
0.0
 71
     5
 72
     1
  1
\A1;500
 73
     1
 44
1.0
  0
POINT
  5
1F8C
330
1543
100
AcDbEntity
  8
DEFPOINTS
 62
     0
100
AcDbPoint
 10
7868.946294070469
 20
5505.086375133455
 30
0.0
  0
POINT
  5
1F8D
330
1543
100
AcDbEntity
  8
DEFPOINTS
 62
     0
100
AcDbPoint
 10
7368.946294070469
 20
5505.086375133455
 30
0.0
  0
POINT
  5
1F8E
330
1543
100
AcDbEntity
  8
DEFPOINTS
 62
     0
100
AcDbPoint
 10
7368.946294070469
 20
4967.354051698887
 30
0.0
  0
ENDBLK
  5
154E
330
1543
100
AcDbEntity
  8
0
100
AcDbBlockEnd
  0
BLOCK
  5
1559
330
154F
100
AcDbEntity
  8
0
100
AcDbBlockBegin
  2
*D15
 70
     1
 10
0.0
 20
0.0
 30
0.0
  3
*D15
  1

  0
LINE
  5
1F8F
330
154F
100
AcDbEntity
  8
SUNPOU
 62
     0
370
    -2
100
AcDbLine
 10
7368.946294070469
 20
5445.086375133455
 30
0.0
 11
7368.946294070469
 21
4952.354051698887
 31
0.0
  0
LINE
  5
1F90
330
154F
100
AcDbEntity
  8
SUNPOU
 62
     0
370
    -2
100
AcDbLine
 10
6868.946294070469
 20
5345.086375133454
 30
0.0
 11
6868.946294070469
 21
4952.354051698887
 31
0.0
  0
LINE
  5
1F91
330
154F
100
AcDbEntity
  8
SUNPOU
 62
     0
370
    -2
100
AcDbLine
 10
7308.946294070469
 20
4967.354051698887
 30
0.0
 11
6928.946294070469
 21
4967.354051698887
 31
0.0
  0
SOLID
  5
1F92
330
154F
100
AcDbEntity
  8
SUNPOU
 62
     0
100
AcDbTrace
 10
7308.946294070469
 20
4977.354051698887
 30
0.0
 11
7308.946294070469
 21
4957.354051698887
 31
0.0
 12
7368.946294070469
 22
4967.354051698887
 32
0.0
 13
7368.946294070469
 23
4967.354051698887
 33
0.0
  0
SOLID
  5
1F93
330
154F
100
AcDbEntity
  8
SUNPOU
 62
     0
100
AcDbTrace
 10
6928.946294070469
 20
4977.354051698887
 30
0.0
 11
6928.946294070469
 21
4957.354051698887
 31
0.0
 12
6868.946294070469
 22
4967.354051698887
 32
0.0
 13
6868.946294070469
 23
4967.354051698887
 33
0.0
  0
MTEXT
  5
1F94
330
154F
100
AcDbEntity
  8
SUNPOU
 62
     0
100
AcDbMText
 10
7118.946294070469
 20
5036.354051698887
 30
0.0
 40
90.0
 41
0.0
 71
     5
 72
     1
  1
\A1;500
 73
     1
 44
1.0
  0
POINT
  5
1F95
330
154F
100
AcDbEntity
  8
DEFPOINTS
 62
     0
100
AcDbPoint
 10
7368.946294070469
 20
5505.086375133455
 30
0.0
  0
POINT
  5
1F96
330
154F
100
AcDbEntity
  8
DEFPOINTS
 62
     0
100
AcDbPoint
 10
6868.946294070469
 20
5405.086375133454
 30
0.0
  0
POINT
  5
1F97
330
154F
100
AcDbEntity
  8
DEFPOINTS
 62
     0
100
AcDbPoint
 10
6868.946294070469
 20
4967.354051698887
 30
0.0
  0
ENDBLK
  5
155A
330
154F
100
AcDbEntity
  8
0
100
AcDbBlockEnd
  0
BLOCK
  5
1565
330
155B
100
AcDbEntity
  8
0
100
AcDbBlockBegin
  2
*D16
 70
     1
 10
0.0
 20
0.0
 30
0.0
  3
*D16
  1

  0
LINE
  5
1F98
330
155B
100
AcDbEntity
  8
SUNPOU
 62
     0
370
    -2
100
AcDbLine
 10
5868.946294070468
 20
3669.997608710022
 30
0.0
 11
5868.946294070468
 21
4165.208013247
 31
0.0
  0
LINE
  5
1F99
330
155B
100
AcDbEntity
  8
SUNPOU
 62
     0
370
    -2
100
AcDbLine
 10
7868.946294070468
 20
3669.997608710021
 30
0.0
 11
7868.946294070468
 21
4165.208013247
 31
0.0
  0
LINE
  5
1F9A
330
155B
100
AcDbEntity
  8
SUNPOU
 62
     0
370
    -2
100
AcDbLine
 10
5928.946294070468
 20
4150.208013247
 30
0.0
 11
7808.946294070468
 21
4150.208013247
 31
0.0
  0
SOLID
  5
1F9B
330
155B
100
AcDbEntity
  8
SUNPOU
 62
     0
100
AcDbTrace
 10
5928.946294070468
 20
4160.208013247
 30
0.0
 11
5928.946294070468
 21
4140.208013247
 31
0.0
 12
5868.946294070468
 22
4150.208013247
 32
0.0
 13
5868.946294070468
 23
4150.208013247
 33
0.0
  0
SOLID
  5
1F9C
330
155B
100
AcDbEntity
  8
SUNPOU
 62
     0
100
AcDbTrace
 10
7808.946294070468
 20
4160.208013247
 30
0.0
 11
7808.946294070468
 21
4140.208013247
 31
0.0
 12
7868.946294070468
 22
4150.208013247
 32
0.0
 13
7868.946294070468
 23
4150.208013247
 33
0.0
  0
MTEXT
  5
1F9D
330
155B
100
AcDbEntity
  8
SUNPOU
 62
     0
100
AcDbMText
 10
6868.946294070468
 20
4219.208013247
 30
0.0
 40
90.0
 41
0.0
 71
     5
 72
     1
  1
\A1;2000
 73
     1
 44
1.0
  0
POINT
  5
1F9E
330
155B
100
AcDbEntity
  8
DEFPOINTS
 62
     0
100
AcDbPoint
 10
5868.946294070468
 20
3609.997608710022
 30
0.0
  0
POINT
  5
1F9F
330
155B
100
AcDbEntity
  8
DEFPOINTS
 62
     0
100
AcDbPoint
 10
7868.946294070468
 20
3609.997608710021
 30
0.0
  0
POINT
  5
1FA0
330
155B
100
AcDbEntity
  8
DEFPOINTS
 62
     0
100
AcDbPoint
 10
7868.946294070468
 20
4150.208013247
 30
0.0
  0
ENDBLK
  5
1566
330
155B
100
AcDbEntity
  8
0
100
AcDbBlockEnd
  0
BLOCK
  5
157E
330
1574
100
AcDbEntity
  8
0
100
AcDbBlockBegin
  2
*D17
 70
     1
 10
0.0
 20
0.0
 30
0.0
  3
*D17
  1

  0
LINE
  5
1FA1
330
1574
100
AcDbEntity
  8
SUNPOU
 62
     0
370
    -2
100
AcDbLine
 10
2410.462080610858
 20
5635.086375133455
 30
0.0
 11
1841.323497429061
 21
5635.086375133455
 31
0.0
  0
LINE
  5
1FA2
330
1574
100
AcDbEntity
  8
SUNPOU
 62
     0
370
    -2
100
AcDbLine
 10
2410.462080610858
 20
5505.086375133455
 30
0.0
 11
1841.323497429061
 21
5505.086375133455
 31
0.0
  0
LINE
  5
1FA3
330
1574
100
AcDbEntity
  8
SUNPOU
 62
     0
370
    -2
100
AcDbLine
 10
1856.323497429061
 20
5695.086375133455
 30
0.0
 11
1856.323497429061
 21
5755.086375133455
 31
0.0
  0
LINE
  5
1FA4
330
1574
100
AcDbEntity
  8
SUNPOU
 62
     0
370
    -2
100
AcDbLine
 10
1856.323497429061
 20
5445.086375133455
 30
0.0
 11
1856.323497429061
 21
5385.086375133455
 31
0.0
  0
SOLID
  5
1FA5
330
1574
100
AcDbEntity
  8
SUNPOU
 62
     0
100
AcDbTrace
 10
1846.323497429061
 20
5695.086375133455
 30
0.0
 11
1866.323497429061
 21
5695.086375133455
 31
0.0
 12
1856.323497429061
 22
5635.086375133455
 32
0.0
 13
1856.323497429061
 23
5635.086375133455
 33
0.0
  0
SOLID
  5
1FA6
330
1574
100
AcDbEntity
  8
SUNPOU
 62
     0
100
AcDbTrace
 10
1846.323497429061
 20
5445.086375133455
 30
0.0
 11
1866.323497429061
 21
5445.086375133455
 31
0.0
 12
1856.323497429061
 22
5505.086375133455
 32
0.0
 13
1856.323497429061
 23
5505.086375133455
 33
0.0
  0
MTEXT
  5
1FA7
330
1574
100
AcDbEntity
  8
SUNPOU
 62
     0
100
AcDbMText
 10
1787.32349742906
 20
5570.086375133455
 30
0.0
 40
90.0
 41
0.0
 71
     5
 72
     1
  1
\A1;130
 11
6.123031769111886E-17
 21
1.0
 31
0.0
 73
     1
 44
1.0
  0
POINT
  5
1FA8
330
1574
100
AcDbEntity
  8
DEFPOINTS
 62
     0
100
AcDbPoint
 10
2470.462080610858
 20
5635.086375133455
 30
0.0
  0
POINT
  5
1FA9
330
1574
100
AcDbEntity
  8
DEFPOINTS
 62
     0
100
AcDbPoint
 10
2470.462080610858
 20
5505.086375133455
 30
0.0
  0
POINT
  5
1FAA
330
1574
100
AcDbEntity
  8
DEFPOINTS
 62
     0
100
AcDbPoint
 10
1856.323497429061
 20
5505.086375133455
 30
0.0
  0
ENDBLK
  5
157F
330
1574
100
AcDbEntity
  8
0
100
AcDbBlockEnd
  0
BLOCK
  5
158B
330
1580
100
AcDbEntity
  8
0
100
AcDbBlockBegin
  2
*D18
 70
     1
 10
0.0
 20
0.0
 30
0.0
  3
*D18
  1

  0
LINE
  5
1FAB
330
1580
100
AcDbEntity
  8
SUNPOU
 62
     0
370
    -2
100
AcDbLine
 10
2470.462080610858
 20
5445.086375133455
 30
0.0
 11
2470.462080610858
 21
5025.307597265022
 31
0.0
  0
LINE
  5
1FAC
330
1580
100
AcDbEntity
  8
SUNPOU
 62
     0
370
    -2
100
AcDbLine
 10
2600.462080610858
 20
5445.086375133454
 30
0.0
 11
2600.462080610858
 21
5025.307597265022
 31
0.0
  0
LINE
  5
1FAD
330
1580
100
AcDbEntity
  8
SUNPOU
 62
     0
370
    -2
100
AcDbLine
 10
2410.462080610858
 20
5040.307597265022
 30
0.0
 11
2350.462080610858
 21
5040.307597265022
 31
0.0
  0
LINE
  5
1FAE
330
1580
100
AcDbEntity
  8
SUNPOU
 62
     0
370
    -2
100
AcDbLine
 10
2660.462080610858
 20
5040.307597265022
 30
0.0
 11
2720.462080610858
 21
5040.307597265022
 31
0.0
  0
SOLID
  5
1FAF
330
1580
100
AcDbEntity
  8
SUNPOU
 62
     0
100
AcDbTrace
 10
2410.462080610858
 20
5050.307597265022
 30
0.0
 11
2410.462080610858
 21
5030.307597265022
 31
0.0
 12
2470.462080610858
 22
5040.307597265022
 32
0.0
 13
2470.462080610858
 23
5040.307597265022
 33
0.0
  0
SOLID
  5
1FB0
330
1580
100
AcDbEntity
  8
SUNPOU
 62
     0
100
AcDbTrace
 10
2660.462080610858
 20
5050.307597265022
 30
0.0
 11
2660.462080610858
 21
5030.307597265022
 31
0.0
 12
2600.462080610858
 22
5040.307597265022
 32
0.0
 13
2600.462080610858
 23
5040.307597265022
 33
0.0
  0
MTEXT
  5
1FB1
330
1580
100
AcDbEntity
  8
SUNPOU
 62
     0
100
AcDbMText
 10
2535.462080610858
 20
5109.307597265022
 30
0.0
 40
90.0
 41
0.0
 71
     5
 72
     1
  1
\A1;130
 73
     1
 44
1.0
  0
POINT
  5
1FB2
330
1580
100
AcDbEntity
  8
DEFPOINTS
 62
     0
100
AcDbPoint
 10
2470.462080610858
 20
5505.086375133455
 30
0.0
  0
POINT
  5
1FB3
330
1580
100
AcDbEntity
  8
DEFPOINTS
 62
     0
100
AcDbPoint
 10
2600.462080610858
 20
5505.086375133454
 30
0.0
  0
POINT
  5
1FB4
330
1580
100
AcDbEntity
  8
DEFPOINTS
 62
     0
100
AcDbPoint
 10
2600.462080610858
 20
5040.307597265022
 30
0.0
  0
ENDBLK
  5
158C
330
1580
100
AcDbEntity
  8
0
100
AcDbBlockEnd
  0
BLOCK
  5
1597
330
158D
100
AcDbEntity
  8
0
100
AcDbBlockBegin
  2
*D19
 70
     1
 10
0.0
 20
0.0
 30
0.0
  3
*D19
  1

  0
LINE
  5
1FB5
330
158D
100
AcDbEntity
  8
SUNPOU
 62
     0
370
    -2
100
AcDbLine
 10
2358.015770940183
 20
5905.086375133455
 30
0.0
 11
2110.791798972583
 21
5905.086375133455
 31
0.0
  0
LINE
  5
1FB6
330
158D
100
AcDbEntity
  8
SUNPOU
 62
     0
370
    -2
100
AcDbLine
 10
2410.462080610858
 20
5505.086375133455
 30
0.0
 11
2110.791798972583
 21
5505.086375133455
 31
0.0
  0
LINE
  5
1FB7
330
158D
100
AcDbEntity
  8
SUNPOU
 62
     0
370
    -2
100
AcDbLine
 10
2125.791798972583
 20
5845.086375133455
 30
0.0
 11
2125.791798972583
 21
5565.086375133455
 31
0.0
  0
SOLID
  5
1FB8
330
158D
100
AcDbEntity
  8
SUNPOU
 62
     0
100
AcDbTrace
 10
2115.791798972583
 20
5845.086375133455
 30
0.0
 11
2135.791798972583
 21
5845.086375133455
 31
0.0
 12
2125.791798972583
 22
5905.086375133455
 32
0.0
 13
2125.791798972583
 23
5905.086375133455
 33
0.0
  0
SOLID
  5
1FB9
330
158D
100
AcDbEntity
  8
SUNPOU
 62
     0
100
AcDbTrace
 10
2115.791798972583
 20
5565.086375133455
 30
0.0
 11
2135.791798972583
 21
5565.086375133455
 31
0.0
 12
2125.791798972583
 22
5505.086375133455
 32
0.0
 13
2125.791798972583
 23
5505.086375133455
 33
0.0
  0
MTEXT
  5
1FBA
330
158D
100
AcDbEntity
  8
SUNPOU
 62
     0
100
AcDbMText
 10
2056.791798972582
 20
5705.086375133455
 30
0.0
 40
90.0
 41
0.0
 71
     5
 72
     1
  1
\A1;400
 11
6.123031769111886E-17
 21
1.0
 31
0.0
 73
     1
 44
1.0
  0
POINT
  5
1FBB
330
158D
100
AcDbEntity
  8
DEFPOINTS
 62
     0
100
AcDbPoint
 10
2418.015770940183
 20
5905.086375133455
 30
0.0
  0
POINT
  5
1FBC
330
158D
100
AcDbEntity
  8
DEFPOINTS
 62
     0
100
AcDbPoint
 10
2470.462080610858
 20
5505.086375133455
 30
0.0
  0
POINT
  5
1FBD
330
158D
100
AcDbEntity
  8
DEFPOINTS
 62
     0
100
AcDbPoint
 10
2125.791798972583
 20
5505.086375133455
 30
0.0
  0
ENDBLK
  5
1598
330
158D
100
AcDbEntity
  8
0
100
AcDbBlockEnd
  0
BLOCK
  5
15C7
330
15BD
100
AcDbEntity
  8
0
100
AcDbBlockBegin
  2
*D20
 70
     1
 10
0.0
 20
0.0
 30
0.0
  3
*D20
  1

  0
LINE
  5
1FBE
330
15BD
100
AcDbEntity
  8
SUNPOU
 62
     0
370
    -2
100
AcDbLine
 10
5808.946294070469
 20
5905.086375133455
 30
0.0
 11
5442.740591102462
 21
5905.086375133455
 31
0.0
  0
LINE
  5
1FBF
330
15BD
100
AcDbEntity
  8
SUNPOU
 62
     0
370
    -2
100
AcDbLine
 10
5808.946294070469
 20
5505.086375133455
 30
0.0
 11
5442.740591102462
 21
5505.086375133455
 31
0.0
  0
LINE
  5
1FC0
330
15BD
100
AcDbEntity
  8
SUNPOU
 62
     0
370
    -2
100
AcDbLine
 10
5457.740591102462
 20
5845.086375133455
 30
0.0
 11
5457.740591102462
 21
5565.086375133455
 31
0.0
  0
SOLID
  5
1FC1
330
15BD
100
AcDbEntity
  8
SUNPOU
 62
     0
100
AcDbTrace
 10
5447.740591102462
 20
5845.086375133455
 30
0.0
 11
5467.740591102462
 21
5845.086375133455
 31
0.0
 12
5457.740591102462
 22
5905.086375133455
 32
0.0
 13
5457.740591102462
 23
5905.086375133455
 33
0.0
  0
SOLID
  5
1FC2
330
15BD
100
AcDbEntity
  8
SUNPOU
 62
     0
100
AcDbTrace
 10
5447.740591102462
 20
5565.086375133455
 30
0.0
 11
5467.740591102462
 21
5565.086375133455
 31
0.0
 12
5457.740591102462
 22
5505.086375133455
 32
0.0
 13
5457.740591102462
 23
5505.086375133455
 33
0.0
  0
MTEXT
  5
1FC3
330
15BD
100
AcDbEntity
  8
SUNPOU
 62
     0
100
AcDbMText
 10
5388.740591102461
 20
5705.086375133455
 30
0.0
 40
90.0
 41
0.0
 71
     5
 72
     1
  1
\A1;400
 11
6.123031769111886E-17
 21
1.0
 31
0.0
 73
     1
 44
1.0
  0
POINT
  5
1FC4
330
15BD
100
AcDbEntity
  8
DEFPOINTS
 62
     0
100
AcDbPoint
 10
5868.946294070469
 20
5905.086375133455
 30
0.0
  0
POINT
  5
1FC5
330
15BD
100
AcDbEntity
  8
DEFPOINTS
 62
     0
100
AcDbPoint
 10
5868.946294070469
 20
5505.086375133455
 30
0.0
  0
POINT
  5
1FC6
330
15BD
100
AcDbEntity
  8
DEFPOINTS
 62
     0
100
AcDbPoint
 10
5457.740591102462
 20
5505.086375133455
 30
0.0
  0
ENDBLK
  5
15C8
330
15BD
100
AcDbEntity
  8
0
100
AcDbBlockEnd
  0
BLOCK
  5
15D3
330
15C9
100
AcDbEntity
  8
0
100
AcDbBlockBegin
  2
*D21
 70
     1
 10
0.0
 20
0.0
 30
0.0
  3
*D21
  1

  0
LINE
  5
1FC7
330
15C9
100
AcDbEntity
  8
SUNPOU
 62
     0
370
    -2
100
AcDbLine
 10
5808.946294070469
 20
5905.086375133455
 30
0.0
 11
5442.740591102462
 21
5905.086375133455
 31
0.0
  0
LINE
  5
1FC8
330
15C9
100
AcDbEntity
  8
SUNPOU
 62
     0
370
    -2
100
AcDbLine
 10
5808.946294070469
 20
6755.086375133453
 30
0.0
 11
5442.740591102463
 21
6755.086375133453
 31
0.0
  0
LINE
  5
1FC9
330
15C9
100
AcDbEntity
  8
SUNPOU
 62
     0
370
    -2
100
AcDbLine
 10
5457.740591102462
 20
5965.086375133455
 30
0.0
 11
5457.740591102463
 21
6695.086375133453
 31
0.0
  0
SOLID
  5
1FCA
330
15C9
100
AcDbEntity
  8
SUNPOU
 62
     0
100
AcDbTrace
 10
5447.740591102462
 20
5965.086375133455
 30
0.0
 11
5467.740591102462
 21
5965.086375133455
 31
0.0
 12
5457.740591102462
 22
5905.086375133455
 32
0.0
 13
5457.740591102462
 23
5905.086375133455
 33
0.0
  0
SOLID
  5
1FCB
330
15C9
100
AcDbEntity
  8
SUNPOU
 62
     0
100
AcDbTrace
 10
5447.740591102463
 20
6695.086375133453
 30
0.0
 11
5467.740591102463
 21
6695.086375133453
 31
0.0
 12
5457.740591102463
 22
6755.086375133453
 32
0.0
 13
5457.740591102463
 23
6755.086375133453
 33
0.0
  0
MTEXT
  5
1FCC
330
15C9
100
AcDbEntity
  8
SUNPOU
 62
     0
100
AcDbMText
 10
5388.740591102461
 20
6330.086375133455
 30
0.0
 40
90.0
 41
0.0
 71
     5
 72
     1
  1
\A1;850
 11
6.123031769111886E-17
 21
1.0
 31
0.0
 73
     1
 44
1.0
  0
POINT
  5
1FCD
330
15C9
100
AcDbEntity
  8
DEFPOINTS
 62
     0
100
AcDbPoint
 10
5868.946294070469
 20
5905.086375133455
 30
0.0
  0
POINT
  5
1FCE
330
15C9
100
AcDbEntity
  8
DEFPOINTS
 62
     0
100
AcDbPoint
 10
5868.946294070469
 20
6755.086375133453
 30
0.0
  0
POINT
  5
1FCF
330
15C9
100
AcDbEntity
  8
DEFPOINTS
 62
     0
100
AcDbPoint
 10
5457.740591102463
 20
6755.086375133453
 30
0.0
  0
ENDBLK
  5
15D4
330
15C9
100
AcDbEntity
  8
0
100
AcDbBlockEnd
  0
BLOCK
  5
15EB
330
15E1
100
AcDbEntity
  8
0
100
AcDbBlockBegin
  2
*D22
 70
     1
 10
0.0
 20
0.0
 30
0.0
  3
*D22
  1

  0
LINE
  5
20A6
330
15E1
100
AcDbEntity
  8
SUNPOU
 62
     0
370
    -2
100
AcDbLine
 10
5808.946294070468
 20
3609.997608710022
 30
0.0
 11
5423.77187739504
 21
3609.997608710022
 31
0.0
  0
LINE
  5
20A7
330
15E1
100
AcDbEntity
  8
SUNPOU
 62
     0
370
    -2
100
AcDbLine
 10
5808.946294070465
 20
3385.897608710022
 30
0.0
 11
5423.77187739504
 21
3385.897608710022
 31
0.0
  0
LINE
  5
20A8
330
15E1
100
AcDbEntity
  8
SUNPOU
 62
     0
370
    -2
100
AcDbLine
 10
5438.77187739504
 20
3549.997608710022
 30
0.0
 11
5438.77187739504
 21
3445.897608710022
 31
0.0
  0
MTEXT
  5
20A9
330
15E1
100
AcDbEntity
  8
SUNPOU
 62
     0
100
AcDbMText
 10
5369.771877395039
 20
3513.613959462844
 30
0.0
 40
90.0
 41
0.0
 71
     5
 72
     1
  1
\A1;224
 11
6.123031769111886E-17
 21
1.0
 31
0.0
 73
     1
 44
1.0
  0
SOLID
  5
20AA
330
15E1
100
AcDbEntity
  8
SUNPOU
 62
     0
100
AcDbTrace
 10
5428.77187739504
 20
3549.997608710022
 30
0.0
 11
5448.77187739504
 21
3549.997608710022
 31
0.0
 12
5438.77187739504
 22
3609.997608710022
 32
0.0
 13
5438.77187739504
 23
3609.997608710022
 33
0.0
  0
SOLID
  5
20AB
330
15E1
100
AcDbEntity
  8
SUNPOU
 62
     0
100
AcDbTrace
 10
5428.77187739504
 20
3445.897608710022
 30
0.0
 11
5448.77187739504
 21
3445.897608710022
 31
0.0
 12
5438.77187739504
 22
3385.897608710022
 32
0.0
 13
5438.77187739504
 23
3385.897608710022
 33
0.0
  0
POINT
  5
20AC
330
15E1
100
AcDbEntity
  8
DEFPOINTS
 62
     0
100
AcDbPoint
 10
5868.946294070468
 20
3609.997608710022
 30
0.0
  0
POINT
  5
20AD
330
15E1
100
AcDbEntity
  8
DEFPOINTS
 62
     0
100
AcDbPoint
 10
5868.946294070465
 20
3385.897608710022
 30
0.0
  0
POINT
  5
20AE
330
15E1
100
AcDbEntity
  8
DEFPOINTS
 62
     0
100
AcDbPoint
 10
5438.77187739504
 20
3385.897608710022
 30
0.0
  0
ENDBLK
  5
15EC
330
15E1
100
AcDbEntity
  8
0
100
AcDbBlockEnd
  0
BLOCK
  5
1604
330
15F9
100
AcDbEntity
  8
0
100
AcDbBlockBegin
  2
*D23
 70
     1
 10
0.0
 20
0.0
 30
0.0
  3
*D23
  1

  0
LINE
  5
2092
330
15F9
100
AcDbEntity
  8
SUNPOU
 62
     0
370
    -2
100
AcDbLine
 10
5808.946294070468
 20
3385.897608710022
 30
0.0
 11
5423.771877395042
 21
3385.897608710022
 31
0.0
  0
LINE
  5
2093
330
15F9
100
AcDbEntity
  8
SUNPOU
 62
     0
370
    -2
100
AcDbLine
 10
5858.94629407047
 20
3299.295068331576
 30
0.0
 11
5423.771877395042
 21
3299.295068331576
 31
0.0
  0
LINE
  5
2094
330
15F9
100
AcDbEntity
  8
SUNPOU
 62
     0
370
    -2
100
AcDbLine
 10
5438.771877395042
 20
3445.897608710022
 30
0.0
 11
5438.771877395042
 21
3505.897608710022
 31
0.0
  0
LINE
  5
2095
330
15F9
100
AcDbEntity
  8
SUNPOU
 62
     0
370
    -2
100
AcDbLine
 10
5438.771877395042
 20
3239.295068331576
 30
0.0
 11
5438.771877395042
 21
3179.295068331576
 31
0.0
  0
MTEXT
  5
2096
330
15F9
100
AcDbEntity
  8
SUNPOU
 62
     0
100
AcDbMText
 10
5369.771877395041
 20
3321.654023740174
 30
0.0
 40
90.0
 41
0.0
 71
     5
 72
     1
  1
\A1;87
 11
6.123031769111886E-17
 21
1.0
 31
0.0
 73
     1
 44
1.0
  0
SOLID
  5
2097
330
15F9
100
AcDbEntity
  8
SUNPOU
 62
     0
100
AcDbTrace
 10
5428.771877395042
 20
3445.897608710022
 30
0.0
 11
5448.771877395042
 21
3445.897608710022
 31
0.0
 12
5438.771877395042
 22
3385.897608710022
 32
0.0
 13
5438.771877395042
 23
3385.897608710022
 33
0.0
  0
SOLID
  5
2098
330
15F9
100
AcDbEntity
  8
SUNPOU
 62
     0
100
AcDbTrace
 10
5428.771877395042
 20
3239.295068331576
 30
0.0
 11
5448.771877395042
 21
3239.295068331576
 31
0.0
 12
5438.771877395042
 22
3299.295068331576
 32
0.0
 13
5438.771877395042
 23
3299.295068331576
 33
0.0
  0
POINT
  5
2099
330
15F9
100
AcDbEntity
  8
DEFPOINTS
 62
     0
100
AcDbPoint
 10
5868.946294070468
 20
3385.897608710022
 30
0.0
  0
POINT
  5
209A
330
15F9
100
AcDbEntity
  8
DEFPOINTS
 62
     0
100
AcDbPoint
 10
5918.94629407047
 20
3299.295068331576
 30
0.0
  0
POINT
  5
209B
330
15F9
100
AcDbEntity
  8
DEFPOINTS
 62
     0
100
AcDbPoint
 10
5438.771877395042
 20
3299.295068331576
 30
0.0
  0
ENDBLK
  5
1605
330
15F9
100
AcDbEntity
  8
0
100
AcDbBlockEnd
  0
BLOCK
  5
1610
330
1606
100
AcDbEntity
  8
0
100
AcDbBlockBegin
  2
*D24
 70
     1
 10
0.0
 20
0.0
 30
0.0
  3
*D24
  1

  0
LINE
  5
1FE3
330
1606
100
AcDbEntity
  8
SUNPOU
 62
     0
370
    -2
100
AcDbLine
 10
2410.462080610858
 20
5505.086375133455
 30
0.0
 11
1652.480775043099
 21
5505.086375133455
 31
0.0
  0
LINE
  5
1FE4
330
1606
100
AcDbEntity
  8
SUNPOU
 62
     0
370
    -2
100
AcDbLine
 10
2410.462080610858
 20
6755.086375133455
 30
0.0
 11
1652.480775043099
 21
6755.086375133455
 31
0.0
  0
LINE
  5
1FE5
330
1606
100
AcDbEntity
  8
SUNPOU
 62
     0
370
    -2
100
AcDbLine
 10
1667.480775043099
 20
5565.086375133455
 30
0.0
 11
1667.480775043099
 21
6695.086375133455
 31
0.0
  0
SOLID
  5
1FE6
330
1606
100
AcDbEntity
  8
SUNPOU
 62
     0
100
AcDbTrace
 10
1657.480775043099
 20
5565.086375133455
 30
0.0
 11
1677.480775043099
 21
5565.086375133455
 31
0.0
 12
1667.480775043099
 22
5505.086375133455
 32
0.0
 13
1667.480775043099
 23
5505.086375133455
 33
0.0
  0
SOLID
  5
1FE7
330
1606
100
AcDbEntity
  8
SUNPOU
 62
     0
100
AcDbTrace
 10
1657.480775043099
 20
6695.086375133455
 30
0.0
 11
1677.480775043099
 21
6695.086375133455
 31
0.0
 12
1667.480775043099
 22
6755.086375133455
 32
0.0
 13
1667.480775043099
 23
6755.086375133455
 33
0.0
  0
MTEXT
  5
1FE8
330
1606
100
AcDbEntity
  8
SUNPOU
 62
     0
100
AcDbMText
 10
1598.480775043098
 20
6130.086375133455
 30
0.0
 40
90.0
 41
0.0
 71
     5
 72
     1
  1
\A1;1250
 11
6.123031769111886E-17
 21
1.0
 31
0.0
 73
     1
 44
1.0
  0
POINT
  5
1FE9
330
1606
100
AcDbEntity
  8
DEFPOINTS
 62
     0
100
AcDbPoint
 10
2470.462080610858
 20
5505.086375133455
 30
0.0
  0
POINT
  5
1FEA
330
1606
100
AcDbEntity
  8
DEFPOINTS
 62
     0
100
AcDbPoint
 10
2470.462080610858
 20
6755.086375133455
 30
0.0
  0
POINT
  5
1FEB
330
1606
100
AcDbEntity
  8
DEFPOINTS
 62
     0
100
AcDbPoint
 10
1667.480775043099
 20
6755.086375133455
 30
0.0
  0
ENDBLK
  5
1611
330
1606
100
AcDbEntity
  8
0
100
AcDbBlockEnd
  0
BLOCK
  5
161C
330
1612
100
AcDbEntity
  8
0
100
AcDbBlockBegin
  2
*D25
 70
     1
 10
0.0
 20
0.0
 30
0.0
  3
*D25
  1

  0
LINE
  5
1FEC
330
1612
100
AcDbEntity
  8
SUNPOU
 62
     0
370
    -2
100
AcDbLine
 10
2410.462080610858
 20
6755.086375133455
 30
0.0
 11
1841.323497429061
 21
6755.086375133455
 31
0.0
  0
LINE
  5
1FED
330
1612
100
AcDbEntity
  8
SUNPOU
 62
     0
370
    -2
100
AcDbLine
 10
2410.462080610858
 20
5635.086375133455
 30
0.0
 11
1841.323497429061
 21
5635.086375133455
 31
0.0
  0
LINE
  5
1FEE
330
1612
100
AcDbEntity
  8
SUNPOU
 62
     0
370
    -2
100
AcDbLine
 10
1856.323497429061
 20
6695.086375133455
 30
0.0
 11
1856.323497429061
 21
5695.086375133455
 31
0.0
  0
SOLID
  5
1FEF
330
1612
100
AcDbEntity
  8
SUNPOU
 62
     0
100
AcDbTrace
 10
1846.323497429061
 20
6695.086375133455
 30
0.0
 11
1866.323497429061
 21
6695.086375133455
 31
0.0
 12
1856.323497429061
 22
6755.086375133455
 32
0.0
 13
1856.323497429061
 23
6755.086375133455
 33
0.0
  0
SOLID
  5
1FF0
330
1612
100
AcDbEntity
  8
SUNPOU
 62
     0
100
AcDbTrace
 10
1846.323497429061
 20
5695.086375133455
 30
0.0
 11
1866.323497429061
 21
5695.086375133455
 31
0.0
 12
1856.323497429061
 22
5635.086375133455
 32
0.0
 13
1856.323497429061
 23
5635.086375133455
 33
0.0
  0
MTEXT
  5
1FF1
330
1612
100
AcDbEntity
  8
SUNPOU
 62
     0
100
AcDbMText
 10
1787.32349742906
 20
6195.086375133455
 30
0.0
 40
90.0
 41
0.0
 71
     5
 72
     1
  1
\A1;1120
 11
6.123031769111886E-17
 21
1.0
 31
0.0
 73
     1
 44
1.0
  0
POINT
  5
1FF2
330
1612
100
AcDbEntity
  8
DEFPOINTS
 62
     0
100
AcDbPoint
 10
2470.462080610858
 20
6755.086375133455
 30
0.0
  0
POINT
  5
1FF3
330
1612
100
AcDbEntity
  8
DEFPOINTS
 62
     0
100
AcDbPoint
 10
2470.462080610858
 20
5635.086375133455
 30
0.0
  0
POINT
  5
1FF4
330
1612
100
AcDbEntity
  8
DEFPOINTS
 62
     0
100
AcDbPoint
 10
1856.323497429061
 20
5635.086375133455
 30
0.0
  0
ENDBLK
  5
161D
330
1612
100
AcDbEntity
  8
0
100
AcDbBlockEnd
  0
BLOCK
  5
1641
330
1636
100
AcDbEntity
  8
0
100
AcDbBlockBegin
  2
*D26
 70
     1
 10
0.0
 20
0.0
 30
0.0
  3
*D26
  1

  0
LINE
  5
1FF5
330
1636
100
AcDbEntity
  8
SUNPOU
 62
     0
370
    -2
100
AcDbLine
 10
3530.462080610858
 20
5581.271942143764
 30
0.0
 11
3835.462080610858
 21
5581.271942143764
 31
0.0
  0
LINE
  5
1FF6
330
1636
100
AcDbEntity
  8
SUNPOU
 62
     0
370
    -2
100
AcDbLine
 10
3530.462080610858
 20
5505.086375133455
 30
0.0
 11
3835.462080610858
 21
5505.086375133455
 31
0.0
  0
LINE
  5
1FF7
330
1636
100
AcDbEntity
  8
SUNPOU
 62
     0
370
    -2
100
AcDbLine
 10
3820.462080610858
 20
5641.271942143764
 30
0.0
 11
3820.462080610858
 21
5701.271942143764
 31
0.0
  0
LINE
  5
1FF8
330
1636
100
AcDbEntity
  8
SUNPOU
 62
     0
370
    -2
100
AcDbLine
 10
3820.462080610858
 20
5445.086375133455
 30
0.0
 11
3820.462080610858
 21
5385.086375133455
 31
0.0
  0
SOLID
  5
1FF9
330
1636
100
AcDbEntity
  8
SUNPOU
 62
     0
100
AcDbTrace
 10
3810.462080610858
 20
5641.271942143764
 30
0.0
 11
3830.462080610858
 21
5641.271942143764
 31
0.0
 12
3820.462080610858
 22
5581.271942143764
 32
0.0
 13
3820.462080610858
 23
5581.271942143764
 33
0.0
  0
SOLID
  5
1FFA
330
1636
100
AcDbEntity
  8
SUNPOU
 62
     0
100
AcDbTrace
 10
3810.462080610858
 20
5445.086375133455
 30
0.0
 11
3830.462080610858
 21
5445.086375133455
 31
0.0
 12
3820.462080610858
 22
5505.086375133455
 32
0.0
 13
3820.462080610858
 23
5505.086375133455
 33
0.0
  0
MTEXT
  5
1FFB
330
1636
100
AcDbEntity
  8
SUNPOU
 62
     0
100
AcDbMText
 10
3751.462080610857
 20
5543.17915863861
 30
0.0
 40
90.0
 41
0.0
 71
     5
 72
     1
  1
\A1;76
 11
6.123031769111886E-17
 21
1.0
 31
0.0
 73
     1
 44
1.0
  0
POINT
  5
1FFC
330
1636
100
AcDbEntity
  8
DEFPOINTS
 62
     0
100
AcDbPoint
 10
3470.462080610858
 20
5581.271942143764
 30
0.0
  0
POINT
  5
1FFD
330
1636
100
AcDbEntity
  8
DEFPOINTS
 62
     0
100
AcDbPoint
 10
3470.462080610858
 20
5505.086375133455
 30
0.0
  0
POINT
  5
1FFE
330
1636
100
AcDbEntity
  8
DEFPOINTS
 62
     0
100
AcDbPoint
 10
3820.462080610858
 20
5505.086375133455
 30
0.0
  0
ENDBLK
  5
1642
330
1636
100
AcDbEntity
  8
0
100
AcDbBlockEnd
  0
BLOCK
  5
164D
330
1643
100
AcDbEntity
  8
0
100
AcDbBlockBegin
  2
*D27
 70
     1
 10
0.0
 20
0.0
 30
0.0
  3
*D27
  1

  0
LINE
  5
1FFF
330
1643
100
AcDbEntity
  8
SUNPOU
 62
     0
370
    -2
100
AcDbLine
 10
5808.946294070469
 20
6755.086375133453
 30
0.0
 11
5237.501543645799
 21
6755.086375133453
 31
0.0
  0
LINE
  5
2000
330
1643
100
AcDbEntity
  8
SUNPOU
 62
     0
370
    -2
100
AcDbLine
 10
5808.946294070469
 20
5505.086375133455
 30
0.0
 11
5237.501543645798
 21
5505.086375133455
 31
0.0
  0
LINE
  5
2001
330
1643
100
AcDbEntity
  8
SUNPOU
 62
     0
370
    -2
100
AcDbLine
 10
5252.501543645799
 20
6695.086375133453
 30
0.0
 11
5252.501543645798
 21
5565.086375133455
 31
0.0
  0
SOLID
  5
2002
330
1643
100
AcDbEntity
  8
SUNPOU
 62
     0
100
AcDbTrace
 10
5242.501543645799
 20
6695.086375133453
 30
0.0
 11
5262.501543645799
 21
6695.086375133453
 31
0.0
 12
5252.501543645799
 22
6755.086375133453
 32
0.0
 13
5252.501543645799
 23
6755.086375133453
 33
0.0
  0
SOLID
  5
2003
330
1643
100
AcDbEntity
  8
SUNPOU
 62
     0
100
AcDbTrace
 10
5242.501543645798
 20
5565.086375133455
 30
0.0
 11
5262.501543645798
 21
5565.086375133455
 31
0.0
 12
5252.501543645798
 22
5505.086375133455
 32
0.0
 13
5252.501543645798
 23
5505.086375133455
 33
0.0
  0
MTEXT
  5
2004
330
1643
100
AcDbEntity
  8
SUNPOU
 62
     0
100
AcDbMText
 10
5183.501543645797
 20
6130.086375133455
 30
0.0
 40
90.0
 41
0.0
 71
     5
 72
     1
  1
\A1;1250
 11
6.123031769111886E-17
 21
1.0
 31
0.0
 73
     1
 44
1.0
  0
POINT
  5
2005
330
1643
100
AcDbEntity
  8
DEFPOINTS
 62
     0
100
AcDbPoint
 10
5868.946294070469
 20
6755.086375133453
 30
0.0
  0
POINT
  5
2006
330
1643
100
AcDbEntity
  8
DEFPOINTS
 62
     0
100
AcDbPoint
 10
5868.946294070469
 20
5505.086375133455
 30
0.0
  0
POINT
  5
2007
330
1643
100
AcDbEntity
  8
DEFPOINTS
 62
     0
100
AcDbPoint
 10
5252.501543645798
 20
5505.086375133455
 30
0.0
  0
ENDBLK
  5
164E
330
1643
100
AcDbEntity
  8
0
100
AcDbBlockEnd
  0
BLOCK
  5
1671
330
1667
100
AcDbEntity
  8
0
100
AcDbBlockBegin
  2
*D28
 70
     1
 10
0.0
 20
0.0
 30
0.0
  3
*D28
  1

  0
LINE
  5
2008
330
1667
100
AcDbEntity
  8
SUNPOU
 62
     0
370
    -2
100
AcDbLine
 10
5808.946294070468
 20
3609.997608710022
 30
0.0
 11
5236.907603523337
 21
3609.997608710022
 31
0.0
  0
LINE
  5
2009
330
1667
100
AcDbEntity
  8
SUNPOU
 62
     0
370
    -2
100
AcDbLine
 10
5808.946294070468
 20
2609.997608710022
 30
0.0
 11
5236.907603523337
 21
2609.997608710022
 31
0.0
  0
LINE
  5
200A
330
1667
100
AcDbEntity
  8
SUNPOU
 62
     0
370
    -2
100
AcDbLine
 10
5251.907603523337
 20
3549.997608710022
 30
0.0
 11
5251.907603523337
 21
2669.997608710022
 31
0.0
  0
SOLID
  5
200B
330
1667
100
AcDbEntity
  8
SUNPOU
 62
     0
100
AcDbTrace
 10
5241.907603523337
 20
3549.997608710022
 30
0.0
 11
5261.907603523337
 21
3549.997608710022
 31
0.0
 12
5251.907603523337
 22
3609.997608710022
 32
0.0
 13
5251.907603523337
 23
3609.997608710022
 33
0.0
  0
SOLID
  5
200C
330
1667
100
AcDbEntity
  8
SUNPOU
 62
     0
100
AcDbTrace
 10
5241.907603523337
 20
2669.997608710022
 30
0.0
 11
5261.907603523337
 21
2669.997608710022
 31
0.0
 12
5251.907603523337
 22
2609.997608710022
 32
0.0
 13
5251.907603523337
 23
2609.997608710022
 33
0.0
  0
MTEXT
  5
200D
330
1667
100
AcDbEntity
  8
SUNPOU
 62
     0
100
AcDbMText
 10
5182.907603523337
 20
3109.997608710023
 30
0.0
 40
90.0
 41
0.0
 71
     5
 72
     1
  1
\A1;1000
 11
6.123031769111886E-17
 21
1.0
 31
0.0
 73
     1
 44
1.0
  0
POINT
  5
200E
330
1667
100
AcDbEntity
  8
DEFPOINTS
 62
     0
100
AcDbPoint
 10
5868.946294070468
 20
3609.997608710022
 30
0.0
  0
POINT
  5
200F
330
1667
100
AcDbEntity
  8
DEFPOINTS
 62
     0
100
AcDbPoint
 10
5868.946294070468
 20
2609.997608710022
 30
0.0
  0
POINT
  5
2010
330
1667
100
AcDbEntity
  8
DEFPOINTS
 62
     0
100
AcDbPoint
 10
5251.907603523337
 20
2609.997608710022
 30
0.0
  0
ENDBLK
  5
1672
330
1667
100
AcDbEntity
  8
0
100
AcDbBlockEnd
  0
BLOCK
  5
167D
330
1673
100
AcDbEntity
  8
0
100
AcDbBlockBegin
  2
*D29
 70
     1
 10
0.0
 20
0.0
 30
0.0
  3
*D29
  1

  0
LINE
  5
20AF
330
1673
100
AcDbEntity
  8
SUNPOU
 62
     0
370
    -2
100
AcDbLine
 10
5858.94629407047
 20
3299.295068331576
 30
0.0
 11
5423.77187739504
 21
3299.295068331576
 31
0.0
  0
LINE
  5
20B0
330
1673
100
AcDbEntity
  8
SUNPOU
 62
     0
370
    -2
100
AcDbLine
 10
5858.946294070466
 20
2609.997608710022
 30
0.0
 11
5423.77187739504
 21
2609.997608710022
 31
0.0
  0
LINE
  5
20B1
330
1673
100
AcDbEntity
  8
SUNPOU
 62
     0
370
    -2
100
AcDbLine
 10
5438.77187739504
 20
3239.295068331576
 30
0.0
 11
5438.77187739504
 21
2669.997608710022
 31
0.0
  0
SOLID
  5
20B2
330
1673
100
AcDbEntity
  8
SUNPOU
 62
     0
100
AcDbTrace
 10
5428.77187739504
 20
3239.295068331576
 30
0.0
 11
5448.77187739504
 21
3239.295068331576
 31
0.0
 12
5438.77187739504
 22
3299.295068331576
 32
0.0
 13
5438.77187739504
 23
3299.295068331576
 33
0.0
  0
SOLID
  5
20B3
330
1673
100
AcDbEntity
  8
SUNPOU
 62
     0
100
AcDbTrace
 10
5428.77187739504
 20
2669.997608710022
 30
0.0
 11
5448.77187739504
 21
2669.997608710022
 31
0.0
 12
5438.77187739504
 22
2609.997608710022
 32
0.0
 13
5438.77187739504
 23
2609.997608710022
 33
0.0
  0
MTEXT
  5
20B4
330
1673
100
AcDbEntity
  8
SUNPOU
 62
     0
100
AcDbMText
 10
5369.771877395039
 20
2954.6463385208
 30
0.0
 40
90.0
 41
0.0
 71
     5
 72
     1
  1
\A1;689
 11
6.123031769111886E-17
 21
1.0
 31
0.0
 73
     1
 44
1.0
  0
POINT
  5
20B5
330
1673
100
AcDbEntity
  8
DEFPOINTS
 62
     0
100
AcDbPoint
 10
5918.94629407047
 20
3299.295068331576
 30
0.0
  0
POINT
  5
20B6
330
1673
100
AcDbEntity
  8
DEFPOINTS
 62
     0
100
AcDbPoint
 10
5918.946294070466
 20
2609.997608710022
 30
0.0
  0
POINT
  5
20B7
330
1673
100
AcDbEntity
  8
DEFPOINTS
 62
     0
100
AcDbPoint
 10
5438.77187739504
 20
2609.997608710022
 30
0.0
  0
ENDBLK
  5
167E
330
1673
100
AcDbEntity
  8
0
100
AcDbBlockEnd
  0
BLOCK
  5
16B9
330
16AF
100
AcDbEntity
  8
0
100
AcDbBlockBegin
  2
*D30
 70
     1
 10
0.0
 20
0.0
 30
0.0
  3
*D30
  1

  0
LINE
  5
201A
330
16AF
100
AcDbEntity
  8
SUNPOU
 62
     0
370
    -2
100
AcDbLine
 10
2600.462080610858
 20
6755.086375133455
 30
0.0
 11
3835.462080610858
 21
6755.086375133455
 31
0.0
  0
LINE
  5
201B
330
16AF
100
AcDbEntity
  8
SUNPOU
 62
     0
370
    -2
100
AcDbLine
 10
2600.462080610858
 20
6595.086375133453
 30
0.0
 11
3835.462080610858
 21
6595.086375133453
 31
0.0
  0
LINE
  5
201C
330
16AF
100
AcDbEntity
  8
SUNPOU
 62
     0
370
    -2
100
AcDbLine
 10
3820.462080610858
 20
6815.086375133455
 30
0.0
 11
3820.462080610858
 21
6875.086375133455
 31
0.0
  0
LINE
  5
201D
330
16AF
100
AcDbEntity
  8
SUNPOU
 62
     0
370
    -2
100
AcDbLine
 10
3820.462080610858
 20
6535.086375133453
 30
0.0
 11
3820.462080610858
 21
6475.086375133453
 31
0.0
  0
SOLID
  5
201E
330
16AF
100
AcDbEntity
  8
SUNPOU
 62
     0
100
AcDbTrace
 10
3810.462080610858
 20
6815.086375133455
 30
0.0
 11
3830.462080610858
 21
6815.086375133455
 31
0.0
 12
3820.462080610858
 22
6755.086375133455
 32
0.0
 13
3820.462080610858
 23
6755.086375133455
 33
0.0
  0
SOLID
  5
201F
330
16AF
100
AcDbEntity
  8
SUNPOU
 62
     0
100
AcDbTrace
 10
3810.462080610858
 20
6535.086375133453
 30
0.0
 11
3830.462080610858
 21
6535.086375133453
 31
0.0
 12
3820.462080610858
 22
6595.086375133453
 32
0.0
 13
3820.462080610858
 23
6595.086375133453
 33
0.0
  0
MTEXT
  5
2020
330
16AF
100
AcDbEntity
  8
SUNPOU
 62
     0
100
AcDbMText
 10
3751.462080610857
 20
6675.086375133455
 30
0.0
 40
90.0
 41
0.0
 71
     5
 72
     1
  1
\A1;160
 11
6.123031769111886E-17
 21
1.0
 31
0.0
 73
     1
 44
1.0
  0
POINT
  5
2021
330
16AF
100
AcDbEntity
  8
DEFPOINTS
 62
     0
100
AcDbPoint
 10
2540.462080610858
 20
6755.086375133455
 30
0.0
  0
POINT
  5
2022
330
16AF
100
AcDbEntity
  8
DEFPOINTS
 62
     0
100
AcDbPoint
 10
2540.462080610858
 20
6595.086375133453
 30
0.0
  0
POINT
  5
2023
330
16AF
100
AcDbEntity
  8
DEFPOINTS
 62
     0
100
AcDbPoint
 10
3820.462080610858
 20
6595.086375133453
 30
0.0
  0
ENDBLK
  5
16BA
330
16AF
100
AcDbEntity
  8
0
100
AcDbBlockEnd
  0
BLOCK
  5
16C5
330
16BB
100
AcDbEntity
  8
0
100
AcDbBlockBegin
  2
*D31
 70
     1
 10
0.0
 20
0.0
 30
0.0
  3
*D31
  1

  0
LINE
  5
2024
330
16BB
100
AcDbEntity
  8
SUNPOU
 62
     0
370
    -2
100
AcDbLine
 10
2660.462080610858
 20
6595.086375133453
 30
0.0
 11
3835.462080610858
 21
6595.086375133453
 31
0.0
  0
LINE
  5
2025
330
16BB
100
AcDbEntity
  8
SUNPOU
 62
     0
370
    -2
100
AcDbLine
 10
3530.462080610858
 20
5581.271942143764
 30
0.0
 11
3835.462080610858
 21
5581.271942143764
 31
0.0
  0
LINE
  5
2026
330
16BB
100
AcDbEntity
  8
SUNPOU
 62
     0
370
    -2
100
AcDbLine
 10
3820.462080610858
 20
6535.086375133453
 30
0.0
 11
3820.462080610858
 21
5641.271942143764
 31
0.0
  0
SOLID
  5
2027
330
16BB
100
AcDbEntity
  8
SUNPOU
 62
     0
100
AcDbTrace
 10
3810.462080610858
 20
6535.086375133453
 30
0.0
 11
3830.462080610858
 21
6535.086375133453
 31
0.0
 12
3820.462080610858
 22
6595.086375133453
 32
0.0
 13
3820.462080610858
 23
6595.086375133453
 33
0.0
  0
SOLID
  5
2028
330
16BB
100
AcDbEntity
  8
SUNPOU
 62
     0
100
AcDbTrace
 10
3810.462080610858
 20
5641.271942143764
 30
0.0
 11
3830.462080610858
 21
5641.271942143764
 31
0.0
 12
3820.462080610858
 22
5581.271942143764
 32
0.0
 13
3820.462080610858
 23
5581.271942143764
 33
0.0
  0
MTEXT
  5
2029
330
16BB
100
AcDbEntity
  8
SUNPOU
 62
     0
100
AcDbMText
 10
3751.462080610857
 20
6088.17915863861
 30
0.0
 40
90.0
 41
0.0
 71
     5
 72
     1
  1
\A1;1014
 11
6.123031769111886E-17
 21
1.0
 31
0.0
 73
     1
 44
1.0
  0
POINT
  5
202A
330
16BB
100
AcDbEntity
  8
DEFPOINTS
 62
     0
100
AcDbPoint
 10
2600.462080610858
 20
6595.086375133453
 30
0.0
  0
POINT
  5
202B
330
16BB
100
AcDbEntity
  8
DEFPOINTS
 62
     0
100
AcDbPoint
 10
3470.462080610858
 20
5581.271942143764
 30
0.0
  0
POINT
  5
202C
330
16BB
100
AcDbEntity
  8
DEFPOINTS
 62
     0
100
AcDbPoint
 10
3820.462080610858
 20
5581.271942143764
 30
0.0
  0
ENDBLK
  5
16C6
330
16BB
100
AcDbEntity
  8
0
100
AcDbBlockEnd
  0
BLOCK
  5
1799
330
178F
100
AcDbEntity
  8
0
100
AcDbBlockBegin
  2
*D32
 70
     1
 10
0.0
 20
0.0
 30
0.0
  3
*D32
  1

  0
LINE
  5
202D
330
178F
100
AcDbEntity
  8
SUNPOU
 62
     0
370
    -2
100
AcDbLine
 10
2600.462080610858
 20
5445.086375133454
 30
0.0
 11
2600.462080610858
 21
5025.307597265022
 31
0.0
  0
LINE
  5
202E
330
178F
100
AcDbEntity
  8
SUNPOU
 62
     0
370
    -2
100
AcDbLine
 10
3470.462080610858
 20
5445.086375133455
 30
0.0
 11
3470.462080610858
 21
5025.307597265022
 31
0.0
  0
LINE
  5
202F
330
178F
100
AcDbEntity
  8
SUNPOU
 62
     0
370
    -2
100
AcDbLine
 10
2660.462080610858
 20
5040.307597265022
 30
0.0
 11
3410.462080610858
 21
5040.307597265022
 31
0.0
  0
SOLID
  5
2030
330
178F
100
AcDbEntity
  8
SUNPOU
 62
     0
100
AcDbTrace
 10
2660.462080610858
 20
5050.307597265022
 30
0.0
 11
2660.462080610858
 21
5030.307597265022
 31
0.0
 12
2600.462080610858
 22
5040.307597265022
 32
0.0
 13
2600.462080610858
 23
5040.307597265022
 33
0.0
  0
SOLID
  5
2031
330
178F
100
AcDbEntity
  8
SUNPOU
 62
     0
100
AcDbTrace
 10
3410.462080610858
 20
5050.307597265022
 30
0.0
 11
3410.462080610858
 21
5030.307597265022
 31
0.0
 12
3470.462080610858
 22
5040.307597265022
 32
0.0
 13
3470.462080610858
 23
5040.307597265022
 33
0.0
  0
MTEXT
  5
2032
330
178F
100
AcDbEntity
  8
SUNPOU
 62
     0
100
AcDbMText
 10
3035.462080610858
 20
5109.307597265022
 30
0.0
 40
90.0
 41
0.0
 71
     5
 72
     1
  1
\A1;870
 73
     1
 44
1.0
  0
POINT
  5
2033
330
178F
100
AcDbEntity
  8
DEFPOINTS
 62
     0
100
AcDbPoint
 10
2600.462080610858
 20
5505.086375133454
 30
0.0
  0
POINT
  5
2034
330
178F
100
AcDbEntity
  8
DEFPOINTS
 62
     0
100
AcDbPoint
 10
3470.462080610858
 20
5505.086375133455
 30
0.0
  0
POINT
  5
2035
330
178F
100
AcDbEntity
  8
DEFPOINTS
 62
     0
100
AcDbPoint
 10
3470.462080610858
 20
5040.307597265022
 30
0.0
  0
ENDBLK
  5
179A
330
178F
100
AcDbEntity
  8
0
100
AcDbBlockEnd
  0
BLOCK
  5
17A5
330
179B
100
AcDbEntity
  8
0
100
AcDbBlockBegin
  2
*D33
 70
     1
 10
0.0
 20
0.0
 30
0.0
  3
*D33
  1

  0
LINE
  5
2036
330
179B
100
AcDbEntity
  8
SUNPOU
 62
     0
370
    -2
100
AcDbLine
 10
2470.462080610858
 20
5445.086375133454
 30
0.0
 11
2470.462080610858
 21
4846.660961026901
 31
0.0
  0
LINE
  5
2037
330
179B
100
AcDbEntity
  8
SUNPOU
 62
     0
370
    -2
100
AcDbLine
 10
3470.462080610858
 20
5445.086375133455
 30
0.0
 11
3470.462080610858
 21
4846.660961026901
 31
0.0
  0
LINE
  5
2038
330
179B
100
AcDbEntity
  8
SUNPOU
 62
     0
370
    -2
100
AcDbLine
 10
2530.462080610858
 20
4861.660961026901
 30
0.0
 11
3410.462080610858
 21
4861.660961026901
 31
0.0
  0
SOLID
  5
2039
330
179B
100
AcDbEntity
  8
SUNPOU
 62
     0
100
AcDbTrace
 10
2530.462080610858
 20
4871.660961026901
 30
0.0
 11
2530.462080610858
 21
4851.660961026901
 31
0.0
 12
2470.462080610858
 22
4861.660961026901
 32
0.0
 13
2470.462080610858
 23
4861.660961026901
 33
0.0
  0
SOLID
  5
203A
330
179B
100
AcDbEntity
  8
SUNPOU
 62
     0
100
AcDbTrace
 10
3410.462080610858
 20
4871.660961026901
 30
0.0
 11
3410.462080610858
 21
4851.660961026901
 31
0.0
 12
3470.462080610858
 22
4861.660961026901
 32
0.0
 13
3470.462080610858
 23
4861.660961026901
 33
0.0
  0
MTEXT
  5
203B
330
179B
100
AcDbEntity
  8
SUNPOU
 62
     0
100
AcDbMText
 10
2970.462080610858
 20
4930.660961026901
 30
0.0
 40
90.0
 41
0.0
 71
     5
 72
     1
  1
\A1;1000
 73
     1
 44
1.0
  0
POINT
  5
203C
330
179B
100
AcDbEntity
  8
DEFPOINTS
 62
     0
100
AcDbPoint
 10
2470.462080610858
 20
5505.086375133454
 30
0.0
  0
POINT
  5
203D
330
179B
100
AcDbEntity
  8
DEFPOINTS
 62
     0
100
AcDbPoint
 10
3470.462080610858
 20
5505.086375133455
 30
0.0
  0
POINT
  5
203E
330
179B
100
AcDbEntity
  8
DEFPOINTS
 62
     0
100
AcDbPoint
 10
3470.462080610858
 20
4861.660961026901
 30
0.0
  0
ENDBLK
  5
17A6
330
179B
100
AcDbEntity
  8
0
100
AcDbBlockEnd
  0
BLOCK
  5
1D4A
330
1D3F
100
AcDbEntity
  8
0
100
AcDbBlockBegin
  2
*D34
 70
     1
 10
0.0
 20
0.0
 30
0.0
  3
*D34
  1

  0
LINE
  5
203F
330
1D3F
100
AcDbEntity
  8
SUNPOU
 62
     0
370
    -2
100
AcDbLine
 10
5918.946294070468
 20
2549.997608710022
 30
0.0
 11
5918.946294070468
 21
2062.467370065242
 31
0.0
  0
LINE
  5
2040
330
1D3F
100
AcDbEntity
  8
SUNPOU
 62
     0
370
    -2
100
AcDbLine
 10
5868.946294070468
 20
2549.997608710022
 30
0.0
 11
5868.946294070468
 21
2062.467370065242
 31
0.0
  0
LINE
  5
2041
330
1D3F
100
AcDbEntity
  8
SUNPOU
 62
     0
370
    -2
100
AcDbLine
 10
5978.946294070468
 20
2077.467370065242
 30
0.0
 11
6038.946294070468
 21
2077.467370065242
 31
0.0
  0
LINE
  5
2042
330
1D3F
100
AcDbEntity
  8
SUNPOU
 62
     0
370
    -2
100
AcDbLine
 10
5808.946294070468
 20
2077.467370065242
 30
0.0
 11
5748.946294070468
 21
2077.467370065242
 31
0.0
  0
SOLID
  5
2043
330
1D3F
100
AcDbEntity
  8
SUNPOU
 62
     0
100
AcDbTrace
 10
5978.946294070468
 20
2087.467370065242
 30
0.0
 11
5978.946294070468
 21
2067.467370065242
 31
0.0
 12
5918.946294070468
 22
2077.467370065242
 32
0.0
 13
5918.946294070468
 23
2077.467370065242
 33
0.0
  0
SOLID
  5
2044
330
1D3F
100
AcDbEntity
  8
SUNPOU
 62
     0
100
AcDbTrace
 10
5808.946294070468
 20
2087.467370065242
 30
0.0
 11
5808.946294070468
 21
2067.467370065242
 31
0.0
 12
5868.946294070468
 22
2077.467370065242
 32
0.0
 13
5868.946294070468
 23
2077.467370065242
 33
0.0
  0
MTEXT
  5
2045
330
1D3F
100
AcDbEntity
  8
SUNPOU
 62
     0
100
AcDbMText
 10
5893.946294070468
 20
2146.467370065242
 30
0.0
 40
90.0
 41
0.0
 71
     5
 72
     1
  1
\A1;50
 73
     1
 44
1.0
  0
POINT
  5
2046
330
1D3F
100
AcDbEntity
  8
DEFPOINTS
 62
     0
100
AcDbPoint
 10
5918.946294070468
 20
2609.997608710022
 30
0.0
  0
POINT
  5
2047
330
1D3F
100
AcDbEntity
  8
DEFPOINTS
 62
     0
100
AcDbPoint
 10
5868.946294070468
 20
2609.997608710022
 30
0.0
  0
POINT
  5
2048
330
1D3F
100
AcDbEntity
  8
DEFPOINTS
 62
     0
100
AcDbPoint
 10
5868.946294070468
 20
2077.467370065242
 30
0.0
  0
ENDBLK
  5
1D4B
330
1D3F
100
AcDbEntity
  8
0
100
AcDbBlockEnd
  0
BLOCK
  5
1D58
330
1D4D
100
AcDbEntity
  8
0
100
AcDbBlockBegin
  2
*D35
 70
     1
 10
0.0
 20
0.0
 30
0.0
  3
*D35
  1

  0
LINE
  5
2049
330
1D4D
100
AcDbEntity
  8
SUNPOU
 62
     0
370
    -2
100
AcDbLine
 10
7818.946294070471
 20
2549.997608710022
 30
0.0
 11
7818.946294070471
 21
2062.467370065242
 31
0.0
  0
LINE
  5
204A
330
1D4D
100
AcDbEntity
  8
SUNPOU
 62
     0
370
    -2
100
AcDbLine
 10
7868.946294070471
 20
2549.997608710022
 30
0.0
 11
7868.946294070471
 21
2062.467370065242
 31
0.0
  0
LINE
  5
204B
330
1D4D
100
AcDbEntity
  8
SUNPOU
 62
     0
370
    -2
100
AcDbLine
 10
7758.946294070471
 20
2077.467370065242
 30
0.0
 11
7698.946294070471
 21
2077.467370065242
 31
0.0
  0
LINE
  5
204C
330
1D4D
100
AcDbEntity
  8
SUNPOU
 62
     0
370
    -2
100
AcDbLine
 10
7928.946294070471
 20
2077.467370065242
 30
0.0
 11
7988.946294070471
 21
2077.467370065242
 31
0.0
  0
SOLID
  5
204D
330
1D4D
100
AcDbEntity
  8
SUNPOU
 62
     0
100
AcDbTrace
 10
7758.946294070471
 20
2087.467370065242
 30
0.0
 11
7758.946294070471
 21
2067.467370065242
 31
0.0
 12
7818.946294070471
 22
2077.467370065242
 32
0.0
 13
7818.946294070471
 23
2077.467370065242
 33
0.0
  0
SOLID
  5
204E
330
1D4D
100
AcDbEntity
  8
SUNPOU
 62
     0
100
AcDbTrace
 10
7928.946294070471
 20
2087.467370065242
 30
0.0
 11
7928.946294070471
 21
2067.467370065242
 31
0.0
 12
7868.946294070471
 22
2077.467370065242
 32
0.0
 13
7868.946294070471
 23
2077.467370065242
 33
0.0
  0
MTEXT
  5
204F
330
1D4D
100
AcDbEntity
  8
SUNPOU
 62
     0
100
AcDbMText
 10
7843.946294070471
 20
2146.467370065242
 30
0.0
 40
90.0
 41
0.0
 71
     5
 72
     1
  1
\A1;50
 73
     1
 44
1.0
  0
POINT
  5
2050
330
1D4D
100
AcDbEntity
  8
DEFPOINTS
 62
     0
100
AcDbPoint
 10
7818.946294070471
 20
2609.997608710022
 30
0.0
  0
POINT
  5
2051
330
1D4D
100
AcDbEntity
  8
DEFPOINTS
 62
     0
100
AcDbPoint
 10
7868.946294070471
 20
2609.997608710022
 30
0.0
  0
POINT
  5
2052
330
1D4D
100
AcDbEntity
  8
DEFPOINTS
 62
     0
100
AcDbPoint
 10
7868.946294070471
 20
2077.467370065242
 30
0.0
  0
ENDBLK
  5
1D59
330
1D4D
100
AcDbEntity
  8
0
100
AcDbBlockEnd
  0
BLOCK
  5
20C8
330
20BC
100
AcDbEntity
  8
0
100
AcDbBlockBegin
  2
*D37
 70
     1
 10
0.0
 20
0.0
 30
0.0
  3
*D37
  1

  0
LINE
  5
20CA
330
20BC
100
AcDbEntity
  8
SUNPOU
 62
     0
370
    -2
100
AcDbLine
 10
7788.946294070462
 20
3247.333544104512
 30
0.0
 11
7712.384487187391
 21
3114.724604663763
 31
0.0
  0
LINE
  5
20CB
330
20BC
100
AcDbEntity
  8
SUNPOU
 62
     0
370
    -2
100
AcDbLine
 10
7868.946294070471
 20
3325.897608710023
 30
0.0
 11
7868.946294070475
 21
3072.773994943882
 31
0.0
  0
ARC
  5
20CC
330
20BC
100
AcDbEntity
  8
SUNPOU
 62
     0
370
    -2
100
AcDbCircle
 10
7868.946294070471
 20
3385.897608710027
 30
0.0
 40
298.1236137661451
100
AcDbArc
 50
251.5508303915349
 51
258.4491696084647
  0
SOLID
  5
20CD
330
20BC
100
AcDbEntity
  8
SUNPOU
 62
     0
100
AcDbTrace
 10
7770.49799185269
 20
3093.976681888002
 30
0.0
 11
7778.704279329979
 21
3112.215564689316
 31
0.0
 12
7719.884487187392
 22
3127.714985720529
 32
0.0
 13
7719.884487187392
 23
3127.714985720529
 33
0.0
  0
SOLID
  5
20CE
330
20BC
100
AcDbEntity
  8
SUNPOU
 62
     0
100
AcDbTrace
 10
7810.257149314069
 20
3103.760998658195
 30
0.0
 11
7808.244561339501
 21
3083.862519076964
 31
0.0
 12
7868.946294070475
 22
3087.773994943881
 32
0.0
 13
7868.946294070475
 23
3087.773994943881
 33
0.0
  0
MTEXT
  5
20CF
330
20BC
100
AcDbEntity
  8
SUNPOU
 62
     0
100
AcDbMText
 10
7809.644739145077
 20
3164.581192760626
 30
0.0
 40
90.0
 41
0.0
 71
     5
 72
     1
  1
\A1;30°
 11
0.9659258262890681
 21
-0.2588190451025222
 31
0.0
 73
     1
 44
1.0
  0
POINT
  5
20D0
330
20BC
100
AcDbEntity
  8
DEFPOINTS
 62
     0
100
AcDbPoint
 10
7766.982012961405
 20
3105.753048771953
 30
0.0
  0
POINT
  5
20D1
330
20BC
100
AcDbEntity
  8
DEFPOINTS
 62
     0
100
AcDbPoint
 10
7868.946294070466
 20
3609.997608710022
 30
0.0
  0
POINT
  5
20D2
330
20BC
100
AcDbEntity
  8
DEFPOINTS
 62
     0
100
AcDbPoint
 10
7868.946294070467
 20
3385.897608710022
 30
0.0
  0
POINT
  5
20D3
330
20BC
100
AcDbEntity
  8
DEFPOINTS
 62
     0
100
AcDbPoint
 10
7818.946294070463
 20
3299.295068331578
 30
0.0
  0
POINT
  5
20D4
330
20BC
100
AcDbEntity
  8
DEFPOINTS
 62
     0
100
AcDbPoint
 10
7868.94629407047
 20
3385.897608710022
 30
0.0
  0
ENDBLK
  5
20C9
330
20BC
100
AcDbEntity
  8
0
100
AcDbBlockEnd
  0
ENDSEC
  0
SECTION
  2
ENTITIES
  0
TEXT
  5
5F
330
17
100
AcDbEntity
  8
SUNPOU
100
AcDbText
 10
11549.99999999999
 20
480.0
 30
0.0
 40
90.0
  1
30
100
AcDbText
  0
INSERT
  5
60
330
17
100
AcDbEntity
  8
HAIKIN
100
AcDbBlockReference
  2
SA3
 10
510.0
 20
0.0
 30
0.0
 41
30.0
 42
30.0
 43
30.0
  0
TEXT
  5
1293
330
17
100
AcDbEntity
  8
HAIKIN
100
AcDbText
 10
4459.516951455509
 20
7910.785158313898
 30
0.0
 40
112.5
  1
デザインウォ－ル　H=1250  ( L=2000 )
 11
4459.516951455509
 21
7895.785158313898
 31
0.0
100
AcDbText
 73
     1
  0
TEXT
  5
1294
330
17
100
AcDbEntity
  8
SUNPOU
100
AcDbText
 10
10267.24701859385
 20
975.0
 30
0.0
 40
75.0
  1
デザインウォ－ル H=1250 (L=2000)
100
AcDbText
  0
LINE
  5
1295
330
17
100
AcDbEntity
  8
SEIHIN
100
AcDbLine
 10
2470.462080610858
 20
5505.086375133454
 30
0.0
 11
3470.462080610858
 21
5505.086375133455
 31
0.0
  0
LINE
  5
1296
330
17
100
AcDbEntity
  8
1HASEN
100
AcDbLine
 10
2600.462080610858
 20
5610.086375133455
 30
0.0
 11
2600.462080610858
 21
5660.086375133455
 31
0.0
  0
LINE
  5
1297
330
17
100
AcDbEntity
  8
1HASEN
100
AcDbLine
 10
2575.462080610858
 20
5635.086375133455
 30
0.0
 11
2625.462080610858
 21
5635.086375133455
 31
0.0
  0
LINE
  5
1298
330
17
100
AcDbEntity
  8
SEIHIN
100
AcDbLine
 10
5868.946294070469
 20
5505.086375133455
 30
0.0
 11
5868.946294070469
 21
6755.086375133453
 31
0.0
  0
LINE
  5
1299
330
17
100
AcDbEntity
  8
SEIHIN
100
AcDbLine
 10
7868.946294070469
 20
5505.086375133455
 30
0.0
 11
7868.946294070467
 21
6755.086375133453
 31
0.0
  0
LINE
  5
129A
330
17
100
AcDbEntity
  8
SEIHIN
100
AcDbLine
 10
5868.946294070469
 20
6755.086375133455
 30
0.0
 11
7868.946294070469
 21
6755.086375133455
 31
0.0
  0
LINE
  5
129B
330
17
100
AcDbEntity
  8
SEIHIN
100
AcDbLine
 10
5868.946294070469
 20
5505.086375133455
 30
0.0
 11
7868.946294070469
 21
5505.086375133455
 31
0.0
  0
LINE
  5
129C
330
17
100
AcDbEntity
  8
SEIHIN
100
AcDbLine
 10
5868.946294070468
 20
3609.997608710022
 30
0.0
 11
7868.946294070468
 21
3609.997608710021
 31
0.0
  0
LINE
  5
129D
330
17
100
AcDbEntity
  8
SEIHIN
100
AcDbLine
 10
5918.946294070466
 20
2609.997608710022
 30
0.0
 11
7818.946294070468
 21
2609.997608710022
 31
0.0
  0
LINE
  5
129E
330
17
100
AcDbEntity
  8
SEIHIN
100
AcDbLine
 10
5918.946294070468
 20
3299.295068331583
 30
0.0
 11
5918.946294070468
 21
2609.997608710022
 31
0.0
  0
LINE
  5
129F
330
17
100
AcDbEntity
  8
SEIHIN
100
AcDbLine
 10
5868.946294070468
 20
3385.897608710022
 30
0.0
 11
5918.94629407047
 21
3299.295068331578
 31
0.0
  0
LINE
  5
12A0
330
17
100
AcDbEntity
  8
1HASEN
100
AcDbLine
 10
6868.946294070468
 20
3709.997608710022
 30
0.0
 11
6868.94629407047
 21
2509.997608710022
 31
0.0
  0
LINE
  5
12A4
330
17
100
AcDbEntity
  8
1HASEN
100
AcDbLine
 10
6868.946294070469
 20
6855.086375133455
 30
0.0
 11
6868.946294070469
 21
5405.086375133454
 31
0.0
  0
LINE
  5
12B7
330
17
100
AcDbEntity
  8
1HASEN
100
AcDbLine
 10
6368.946294070469
 20
6005.086375133456
 30
0.0
 11
6368.946294070469
 21
5805.086375133455
 31
0.0
  0
LINE
  5
12B8
330
17
100
AcDbEntity
  8
1HASEN
100
AcDbLine
 10
6268.946294070469
 20
5905.086375133455
 30
0.0
 11
6468.946294070469
 21
5905.086375133455
 31
0.0
  0
LINE
  5
12B9
330
17
100
AcDbEntity
  8
1HASEN
100
AcDbLine
 10
7468.946294070469
 20
5905.086375133455
 30
0.0
 11
7268.946294070469
 21
5905.086375133455
 31
0.0
  0
LINE
  5
12BA
330
17
100
AcDbEntity
  8
1HASEN
100
AcDbLine
 10
7368.946294070469
 20
6005.086375133456
 30
0.0
 11
7368.946294070469
 21
5805.086375133455
 31
0.0
  0
DIMENSION
  5
12C8
330
17
100
AcDbEntity
  8
SUNPOU
100
AcDbDimension
  2
*D8
 10
2540.462080610858
 20
7105.086375133453
 30
0.0
 11
2504.959207555374
 21
7166.528156694048
 31
0.0
 70
   160
 71
     5
 42
70.0
  3
A3-30
100
AcDbAlignedDimension
 13
2470.462080610858
 23
6755.086375133453
 33
0.0
 14
2540.462080610858
 24
6755.086375133453
 34
0.0
100
AcDbRotatedDimension
  0
LINE
  5
12C9
330
17
100
AcDbEntity
  8
HASEN
 48
0.2
100
AcDbLine
 10
2505.462080610858
 20
5880.086375133455
 30
0.0
 11
2470.462080610858
 21
5865.086375133455
 31
0.0
  0
LINE
  5
12CA
330
17
100
AcDbEntity
  8
HASEN
 48
0.2
100
AcDbLine
 10
2505.462080610858
 20
5930.086375133455
 30
0.0
 11
2505.462080610858
 21
5880.086375133455
 31
0.0
  0
LINE
  5
12CB
330
17
100
AcDbEntity
  8
HASEN
 48
0.2
100
AcDbLine
 10
2470.462080610858
 20
5945.086375133455
 30
0.0
 11
2505.462080610858
 21
5930.086375133455
 31
0.0
  0
LINE
  5
12CC
330
17
100
AcDbEntity
  8
HASEN
 48
0.2
100
AcDbLine
 10
2572.087080610858
 20
5880.086375133455
 30
0.0
 11
2586.101011143932
 21
5864.863486604258
 31
0.0
  0
LINE
  5
12CD
330
17
100
AcDbEntity
  8
HASEN
 48
0.2
100
AcDbLine
 10
2572.087080610858
 20
5930.086375133455
 30
0.0
 11
2572.087080610858
 21
5880.086375133455
 31
0.0
  0
LINE
  5
12CE
330
17
100
AcDbEntity
  8
HASEN
 48
0.2
100
AcDbLine
 10
2581.087080610858
 20
5945.086375133455
 30
0.0
 11
2572.087080610858
 21
5930.086375133455
 31
0.0
  0
CIRCLE
  5
12CF
330
17
100
AcDbEntity
  8
SUNPOU
100
AcDbCircle
 10
6368.946294070469
 20
5905.086375133455
 30
0.0
 40
40.0
  0
CIRCLE
  5
12D0
330
17
100
AcDbEntity
  8
SUNPOU
100
AcDbCircle
 10
6368.946294070469
 20
5905.086375133455
 30
0.0
 40
25.0
  0
CIRCLE
  5
12D1
330
17
100
AcDbEntity
  8
SUNPOU
100
AcDbCircle
 10
7368.946294070469
 20
5905.086375133455
 30
0.0
 40
25.0
  0
CIRCLE
  5
12D2
330
17
100
AcDbEntity
  8
SUNPOU
100
AcDbCircle
 10
7368.946294070469
 20
5905.086375133455
 30
0.0
 40
40.0
  0
LINE
  5
12D3
330
17
100
AcDbEntity
  8
1HASEN
100
AcDbLine
 10
2418.015770940183
 20
5905.086375133455
 30
0.0
 11
2652.8836011436
 21
5905.086375133455
 31
0.0
  0
LINE
  5
12D4
330
17
100
AcDbEntity
  8
HASEN
 48
0.2
100
AcDbLine
 10
2505.462080610858
 20
5923.586375133455
 30
0.0
 11
2572.087080610858
 21
5926.79999481818
 31
0.0
  0
LINE
  5
12D5
330
17
100
AcDbEntity
  8
HASEN
 48
0.2
100
AcDbLine
 10
2505.462080610858
 20
5886.586375133455
 30
0.0
 11
2572.087080610858
 21
5883.372755448725
 31
0.0
  0
DIMENSION
  5
12ED
330
17
100
AcDbEntity
  8
SUNPOU
100
AcDbDimension
  2
*D9
 10
7868.946294070469
 20
4783.583398270188
 30
0.0
 11
6868.946294070469
 21
4852.583398270188
 31
0.0
 70
    32
 71
     5
 42
2000.0
  3
A3-30
100
AcDbAlignedDimension
 13
5868.946294070469
 23
5505.086375133455
 33
0.0
 14
7868.946294070469
 24
5505.086375133455
 34
0.0
100
AcDbRotatedDimension
  0
DIMENSION
  5
12F5
330
17
100
AcDbEntity
  8
SUNPOU
100
AcDbDimension
  2
*D10
 10
7868.946294070469
 20
7320.005715625095
 30
0.0
 11
6868.946294070469
 21
7389.005715625095
 31
0.0
 70
    32
 71
     5
 42
2000.0
  3
A3-30
100
AcDbAlignedDimension
 13
5868.946294070469
 23
6755.086375133455
 33
0.0
 14
7868.946294070469
 24
6755.086375133455
 34
0.0
100
AcDbRotatedDimension
  0
DIMENSION
  5
130D
330
17
100
AcDbEntity
  8
SUNPOU
100
AcDbDimension
  2
*D11
 10
5918.946294070468
 20
2077.467370065242
 30
0.0
 11
6868.946294070468
 21
2146.467370065242
 31
0.0
 70
    32
 71
     5
 42
1900.0
  3
A3-30
100
AcDbAlignedDimension
 13
7818.946294070468
 23
2609.997608710022
 33
0.0
 14
5918.946294070468
 24
2609.997608710022
 34
0.0
100
AcDbRotatedDimension
  0
DIMENSION
  5
1337
330
17
100
AcDbEntity
  8
SUNPOU
100
AcDbDimension
  2
*D12
 10
6368.946294070469
 20
4967.354051698887
 30
0.0
 11
6118.946294070469
 21
5036.354051698887
 31
0.0
 70
    32
 71
     5
 42
500.0
  3
A3-30
100
AcDbAlignedDimension
 13
5868.946294070469
 23
5505.086375133455
 33
0.0
 14
6368.946294070469
 24
5505.086375133455
 34
0.0
100
AcDbRotatedDimension
  0
DIMENSION
  5
1338
330
17
100
AcDbEntity
  8
SUNPOU
100
AcDbDimension
  2
*D13
 10
6868.946294070469
 20
4967.354051698887
 30
0.0
 11
6618.946294070469
 21
5036.354051698887
 31
0.0
 70
    32
 71
     5
 42
500.0
  3
A3-30
100
AcDbAlignedDimension
 13
6368.946294070469
 23
5505.086375133455
 33
0.0
 14
6868.946294070469
 24
5405.086375133454
 34
0.0
100
AcDbRotatedDimension
  0
DIMENSION
  5
1339
330
17
100
AcDbEntity
  8
SUNPOU
100
AcDbDimension
  2
*D14
 10
7368.946294070469
 20
4967.354051698887
 30
0.0
 11
7618.946294070469
 21
5036.354051698887
 31
0.0
 70
    32
 71
     5
 42
500.0
  3
A3-30
100
AcDbAlignedDimension
 13
7868.946294070469
 23
5505.086375133455
 33
0.0
 14
7368.946294070469
 24
5505.086375133455
 34
0.0
100
AcDbRotatedDimension
  0
DIMENSION
  5
133A
330
17
100
AcDbEntity
  8
SUNPOU
100
AcDbDimension
  2
*D15
 10
6868.946294070469
 20
4967.354051698887
 30
0.0
 11
7118.946294070469
 21
5036.354051698887
 31
0.0
 70
    32
 71
     5
 42
500.0
  3
A3-30
100
AcDbAlignedDimension
 13
7368.946294070469
 23
5505.086375133455
 33
0.0
 14
6868.946294070469
 24
5405.086375133454
 34
0.0
100
AcDbRotatedDimension
  0
DIMENSION
  5
133D
330
17
100
AcDbEntity
  8
SUNPOU
100
AcDbDimension
  2
*D16
 10
7868.946294070468
 20
4150.208013247
 30
0.0
 11
6868.946294070468
 21
4219.208013247
 31
0.0
 70
    32
 71
     5
 42
2000.0
  3
A3-30
100
AcDbAlignedDimension
 13
5868.946294070468
 23
3609.997608710022
 33
0.0
 14
7868.946294070468
 24
3609.997608710021
 34
0.0
100
AcDbRotatedDimension
  0
LINE
  5
133F
330
17
100
AcDbEntity
  8
SEIHIN
100
AcDbLine
 10
2540.462080610858
 20
6755.086375133455
 30
0.0
 11
2540.462080610858
 21
6595.086375133453
 31
0.0
  0
DIMENSION
  5
1340
330
17
100
AcDbEntity
  8
SUNPOU
100
AcDbDimension
  2
*D17
 10
1856.323497429061
 20
5505.086375133455
 30
0.0
 11
1787.32349742906
 21
5570.086375133455
 31
0.0
 70
    32
 71
     5
 42
130.0
  3
A3-30
100
AcDbAlignedDimension
 13
2470.462080610858
 23
5635.086375133455
 33
0.0
 14
2470.462080610858
 24
5505.086375133455
 34
0.0
 50
90.0
100
AcDbRotatedDimension
  0
LINE
  5
1341
330
17
100
AcDbEntity
  8
SEIHIN
100
AcDbLine
 10
3470.462080610858
 20
5505.086375133455
 30
0.0
 11
3470.462080610858
 21
5581.271942143763
 31
0.0
  0
DIMENSION
  5
1342
330
17
100
AcDbEntity
  8
SUNPOU
100
AcDbDimension
  2
*D18
 10
2600.462080610858
 20
5040.307597265022
 30
0.0
 11
2535.462080610858
 21
5109.307597265022
 31
0.0
 70
    32
 71
     5
 42
130.0
  3
A3-30
100
AcDbAlignedDimension
 13
2470.462080610858
 23
5505.086375133455
 33
0.0
 14
2600.462080610858
 24
5505.086375133454
 34
0.0
100
AcDbRotatedDimension
  0
DIMENSION
  5
1343
330
17
100
AcDbEntity
  8
SUNPOU
100
AcDbDimension
  2
*D19
 10
2125.791798972583
 20
5505.086375133455
 30
0.0
 11
2056.791798972582
 21
5705.086375133455
 31
0.0
 70
    32
 71
     5
 42
400.0
  3
A3-30
100
AcDbAlignedDimension
 13
2418.015770940183
 23
5905.086375133455
 33
0.0
 14
2470.462080610858
 24
5505.086375133455
 34
0.0
 50
90.0
100
AcDbRotatedDimension
  0
DIMENSION
  5
1351
330
17
100
AcDbEntity
  8
SUNPOU
100
AcDbDimension
  2
*D20
 10
5457.740591102462
 20
5505.086375133455
 30
0.0
 11
5388.740591102461
 21
5705.086375133455
 31
0.0
 70
    32
 71
     5
 42
400.0
  3
A3-30
100
AcDbAlignedDimension
 13
5868.946294070469
 23
5905.086375133455
 33
0.0
 14
5868.946294070469
 24
5505.086375133455
 34
0.0
 50
90.0
100
AcDbRotatedDimension
  0
DIMENSION
  5
1352
330
17
100
AcDbEntity
  8
SUNPOU
100
AcDbDimension
  2
*D21
 10
5457.740591102463
 20
6755.086375133453
 30
0.0
 11
5388.740591102461
 21
6330.086375133455
 31
0.0
 70
    32
 71
     5
 42
849.9999999999982
  3
A3-30
100
AcDbAlignedDimension
 13
5868.946294070469
 23
5905.086375133455
 33
0.0
 14
5868.946294070469
 24
6755.086375133453
 34
0.0
 50
90.0
100
AcDbRotatedDimension
  0
LINE
  5
1358
330
17
100
AcDbEntity
  8
SEIHIN
100
AcDbLine
 10
5868.946294070468
 20
3609.997608710022
 30
0.0
 11
5868.946294070465
 21
3385.897608710022
 31
0.0
  0
DIMENSION
  5
135A
330
17
100
AcDbEntity
  8
SUNPOU
100
AcDbDimension
  2
*D22
 10
5438.77187739504
 20
3385.897608710022
 30
0.0
 11
5369.771877395039
 21
3513.613959462844
 31
0.0
 70
   160
 71
     5
 42
224.0999999999999
  3
A3-30
100
AcDbAlignedDimension
 13
5868.946294070468
 23
3609.997608710022
 33
0.0
 14
5868.946294070465
 24
3385.897608710022
 34
0.0
 50
90.0
100
AcDbRotatedDimension
  0
DIMENSION
  5
135C
330
17
100
AcDbEntity
  8
SUNPOU
100
AcDbDimension
  2
*D23
 10
5438.771877395042
 20
3299.295068331576
 30
0.0
 11
5369.771877395041
 21
3321.654023740174
 31
0.0
 70
   160
 71
     5
 42
86.60254037844607
  3
A3-30
100
AcDbAlignedDimension
 13
5868.946294070468
 23
3385.897608710022
 33
0.0
 14
5918.94629407047
 24
3299.295068331576
 34
0.0
 50
90.0
100
AcDbRotatedDimension
  0
LINE
  5
1362
330
17
100
AcDbEntity
  8
SEIHIN
100
AcDbLine
 10
2470.462080610858
 20
6755.086375133455
 30
0.0
 11
2540.462080610858
 21
6755.086375133455
 31
0.0
  0
LINE
  5
1363
330
17
100
AcDbEntity
  8
SEIHIN
100
AcDbLine
 10
2470.462080610858
 20
5505.086375133454
 30
0.0
 11
2470.462080610858
 21
6755.086375133453
 31
0.0
  0
LINE
  5
1364
330
17
100
AcDbEntity
  8
SEIHIN
100
AcDbLine
 10
2540.462080610858
 20
6595.086375133453
 30
0.0
 11
2594.575869270651
 21
5729.265756576754
 31
0.0
  0
LINE
  5
1365
330
17
100
AcDbEntity
  8
SEIHIN
100
AcDbLine
 10
3470.462080610858
 20
5581.271942143764
 30
0.0
 11
2694.562080610858
 21
5629.265756576754
 31
0.0
  0
DIMENSION
  5
136A
330
17
100
AcDbEntity
  8
SUNPOU
100
AcDbDimension
  2
*D24
 10
1667.480775043099
 20
6755.086375133455
 30
0.0
 11
1598.480775043098
 21
6130.086375133455
 31
0.0
 70
    32
 71
     5
 42
1250.0
  3
A3-30
100
AcDbAlignedDimension
 13
2470.462080610858
 23
5505.086375133455
 33
0.0
 14
2470.462080610858
 24
6755.086375133455
 34
0.0
 50
90.0
100
AcDbRotatedDimension
  0
DIMENSION
  5
136B
330
17
100
AcDbEntity
  8
SUNPOU
100
AcDbDimension
  2
*D25
 10
1856.323497429061
 20
5635.086375133455
 30
0.0
 11
1787.32349742906
 21
6195.086375133455
 31
0.0
 70
    32
 71
     5
 42
1120.0
  3
A3-30
100
AcDbAlignedDimension
 13
2470.462080610858
 23
6755.086375133455
 33
0.0
 14
2470.462080610858
 24
5635.086375133455
 34
0.0
 50
90.0
100
AcDbRotatedDimension
  0
DIMENSION
  5
136E
330
17
100
AcDbEntity
  8
SUNPOU
100
AcDbDimension
  2
*D26
 10
3820.462080610858
 20
5505.086375133455
 30
0.0
 11
3751.462080610857
 21
5543.17915863861
 31
0.0
 70
    32
 71
     5
 42
76.18556701030957
  3
A3-30
100
AcDbAlignedDimension
 13
3470.462080610858
 23
5581.271942143764
 33
0.0
 14
3470.462080610858
 24
5505.086375133455
 34
0.0
 50
90.0
100
AcDbRotatedDimension
  0
DIMENSION
  5
137E
330
17
100
AcDbEntity
  8
SUNPOU
100
AcDbDimension
  2
*D27
 10
5252.501543645798
 20
5505.086375133455
 30
0.0
 11
5183.501543645797
 21
6130.086375133455
 31
0.0
 70
    32
 71
     5
 42
1249.999999999998
  3
A3-30
100
AcDbAlignedDimension
 13
5868.946294070469
 23
6755.086375133453
 33
0.0
 14
5868.946294070469
 24
5505.086375133455
 34
0.0
 50
90.0
100
AcDbRotatedDimension
  0
DIMENSION
  5
1387
330
17
100
AcDbEntity
  8
SUNPOU
100
AcDbDimension
  2
*D28
 10
5251.907603523337
 20
2609.997608710022
 30
0.0
 11
5182.907603523337
 21
3109.997608710023
 31
0.0
 70
    32
 71
     5
 42
1000.0
  3
A3-30
100
AcDbAlignedDimension
 13
5868.946294070468
 23
3609.997608710022
 33
0.0
 14
5868.946294070468
 24
2609.997608710022
 34
0.0
 50
90.0
100
AcDbRotatedDimension
  0
DIMENSION
  5
1388
330
17
100
AcDbEntity
  8
SUNPOU
100
AcDbDimension
  2
*D29
 10
5438.77187739504
 20
2609.997608710022
 30
0.0
 11
5369.771877395039
 21
2954.6463385208
 31
0.0
 70
    32
 71
     5
 42
689.297459621554
  3
A3-30
100
AcDbAlignedDimension
 13
5918.94629407047
 23
3299.295068331576
 33
0.0
 14
5918.946294070466
 24
2609.997608710022
 34
0.0
 50
90.0
100
AcDbRotatedDimension
  0
DIMENSION
  5
1396
330
17
100
AcDbEntity
  8
SUNPOU
100
AcDbDimension
  2
*D30
 10
3820.462080610858
 20
6595.086375133453
 30
0.0
 11
3751.462080610857
 21
6675.086375133455
 31
0.0
 70
    32
 71
     5
 42
160.0000000000018
  3
A3-30
100
AcDbAlignedDimension
 13
2540.462080610858
 23
6755.086375133455
 33
0.0
 14
2540.462080610858
 24
6595.086375133453
 34
0.0
 50
90.0
100
AcDbRotatedDimension
  0
DIMENSION
  5
1397
330
17
100
AcDbEntity
  8
SUNPOU
100
AcDbDimension
  2
*D31
 10
3820.462080610858
 20
5581.271942143764
 30
0.0
 11
3751.462080610857
 21
6088.17915863861
 31
0.0
 70
    32
 71
     5
 42
1013.814432989689
  3
A3-30
100
AcDbAlignedDimension
 13
2600.462080610858
 23
6595.086375133453
 33
0.0
 14
3470.462080610858
 24
5581.271942143764
 34
0.0
 50
90.0
100
AcDbRotatedDimension
  0
DIMENSION
  5
13F7
330
17
100
AcDbEntity
  8
SUNPOU
100
AcDbDimension
  2
*D32
 10
3470.462080610858
 20
5040.307597265022
 30
0.0
 11
3035.462080610858
 21
5109.307597265022
 31
0.0
 70
    32
 71
     5
 42
870.0
  3
A3-30
100
AcDbAlignedDimension
 13
2600.462080610858
 23
5505.086375133454
 33
0.0
 14
3470.462080610858
 24
5505.086375133455
 34
0.0
100
AcDbRotatedDimension
  0
DIMENSION
  5
13F8
330
17
100
AcDbEntity
  8
SUNPOU
100
AcDbDimension
  2
*D33
 10
3470.462080610858
 20
4861.660961026901
 30
0.0
 11
2970.462080610858
 21
4930.660961026901
 31
0.0
 70
    32
 71
     5
 42
1000.0
  3
A3-30
100
AcDbAlignedDimension
 13
2470.462080610858
 23
5505.086375133454
 33
0.0
 14
3470.462080610858
 24
5505.086375133455
 34
0.0
100
AcDbRotatedDimension
  0
TEXT
  5
1B2E
330
17
100
AcDbEntity
  8
SUNPOU
100
AcDbText
 10
2055.535475752535
 20
6113.433697892757
 30
0.0
 40
90.0
  1
水抜孔
 41
0.8
100
AcDbText
  0
LINE
  5
1B2F
330
17
100
AcDbEntity
  8
SUNPOU
100
AcDbLine
 10
2019.523881622234
 20
6104.141274648253
 30
0.0
 11
2340.185389441016
 21
6104.141274648253
 31
0.0
  0
LEADER
  5
1B31
330
17
100
AcDbEntity
  8
SUNPOU
100
AcDbLeader
  3
A3-30
 76
     2
 10
2470.462080610858
 20
5905.086375133455
 30
0.0
 10
2340.185389441016
 20
6104.141274648253
 30
0.0
1001
ACAD
1000
DSTYLE
1002
{
1070
   147
1040
0.8
1070
    77
1070
     0
1002
}
  0
DIMENSION
  5
1D3E
330
17
100
AcDbEntity
  8
SUNPOU
100
AcDbDimension
  2
*D34
 10
5868.946294070468
 20
2077.467370065242
 30
0.0
 11
5893.946294070468
 21
2146.467370065242
 31
0.0
 70
    32
 71
     5
 42
50.0
  3
A3-30
100
AcDbAlignedDimension
 13
5918.946294070468
 23
2609.997608710022
 33
0.0
 14
5868.946294070468
 24
2609.997608710022
 34
0.0
100
AcDbRotatedDimension
  0
DIMENSION
  5
1D4C
330
17
100
AcDbEntity
  8
SUNPOU
100
AcDbDimension
  2
*D35
 10
7868.946294070471
 20
2077.467370065242
 30
0.0
 11
7843.946294070471
 21
2146.467370065242
 31
0.0
 70
    32
 71
     5
 42
50.0
  3
A3-30
100
AcDbAlignedDimension
 13
7818.946294070471
 23
2609.997608710022
 33
0.0
 14
7868.946294070471
 24
2609.997608710022
 34
0.0
 50
180.0
100
AcDbRotatedDimension
  0
LINE
  5
205D
330
17
100
AcDbEntity
  8
SEIHIN
100
AcDbLine
 10
5918.946294070468
 20
5581.271942143764
 30
0.0
 11
7818.94629407047
 21
5581.271942143764
 31
0.0
  0
LINE
  5
2060
330
17
100
AcDbEntity
  8
SEIHIN
100
AcDbLine
 10
5918.946294070469
 20
5505.086375133455
 30
0.0
 11
5918.946294070469
 21
5623.865756576753
 31
0.0
  0
LINE
  5
2061
330
17
100
AcDbEntity
  8
SEIHIN
100
AcDbLine
 10
5918.946294070469
 20
5623.865756576753
 30
0.0
 11
5868.946294070469
 21
5629.265756576753
 31
0.0
  0
LINE
  5
2064
330
17
100
AcDbEntity
  8
SEIHIN
100
AcDbLine
 10
5868.946294070468
 20
3539.997608710022
 30
0.0
 11
7868.946294070468
 21
3539.997608710021
 31
0.0
  0
LINE
  5
208F
330
17
100
AcDbEntity
  8
SEIHIN
100
AcDbLine
 10
2594.575869270651
 20
5729.265756576754
 30
0.0
 11
2694.562080610858
 21
5629.265756576754
 31
0.0
  0
LINE
  5
2090
330
17
100
AcDbEntity
  8
SEIHIN
100
AcDbLine
 10
5868.946294070468
 20
3385.897608710022
 30
0.0
 11
7868.946294070468
 21
3385.897608710021
 31
0.0
  0
LINE
  5
2091
330
17
100
AcDbEntity
  8
SEIHIN
100
AcDbLine
 10
5868.946294070468
 20
3485.897608710022
 30
0.0
 11
7868.946294070468
 21
3485.897608710021
 31
0.0
  0
LINE
  5
20B8
330
17
100
AcDbEntity
  8
SEIHIN
100
AcDbLine
 10
7818.946294070467
 20
3299.295068331583
 30
0.0
 11
7818.946294070467
 21
2609.997608710022
 31
0.0
  0
LINE
  5
20B9
330
17
100
AcDbEntity
  8
SEIHIN
100
AcDbLine
 10
7868.946294070467
 20
3385.897608710022
 30
0.0
 11
7818.946294070465
 21
3299.295068331578
 31
0.0
  0
LINE
  5
20BA
330
17
100
AcDbEntity
  8
SEIHIN
100
AcDbLine
 10
7868.946294070467
 20
3609.997608710022
 30
0.0
 11
7868.94629407047
 21
3385.897608710022
 31
0.0
  0
DIMENSION
  5
20BB
330
17
100
AcDbEntity
  8
SUNPOU
100
AcDbDimension
  2
*D37
 10
7868.94629407047
 20
3385.897608710022
 30
0.0
 11
7809.644739145077
 21
3164.581192760626
 31
0.0
 70
    34
 71
     5
 42
0.5235987755983409
  3
A3-30
100
AcDb2LineAngularDimension
 13
7868.946294070467
 23
3385.897608710022
 33
0.0
 14
7818.946294070465
 24
3299.295068331578
 34
0.0
 15
7868.946294070467
 25
3609.997608710022
 35
0.0
 16
7766.982012961405
 26
3105.753048771953
 36
0.0
1001
ACAD
1000
DSTYLE
1002
{
1070
   179
1070
     0
1002
}
  0
LINE
  5
20D5
330
17
100
AcDbEntity
  8
SEIHIN
100
AcDbLine
 10
5868.946294070469
 20
5729.265756576753
 30
0.0
 11
7868.946294070468
 21
5729.265756576753
 31
0.0
  0
LINE
  5
20D6
330
17
100
AcDbEntity
  8
SEIHIN
100
AcDbLine
 10
5868.946294070469
 20
5629.265756576753
 30
0.0
 11
7868.946294070468
 21
5629.265756576753
 31
0.0
  0
LINE
  5
20EE
330
17
100
AcDbEntity
  8
SEIHIN
100
AcDbLine
 10
7818.946294070469
 20
5505.086375133455
 30
0.0
 11
7818.946294070469
 21
5623.865756576753
 31
0.0
  0
LINE
  5
20EF
330
17
100
AcDbEntity
  8
SEIHIN
100
AcDbLine
 10
7818.946294070469
 20
5623.865756576753
 30
0.0
 11
7868.946294070468
 21
5629.265756576753
 31
0.0
  0
ENDSEC
  0
SECTION
  2
OBJECTS
  0
DICTIONARY
  5
C
330
0
100
AcDbDictionary
281
     1
  3
ACAD_COLOR
350
9AA
  3
ACAD_GROUP
350
D
  3
ACAD_LAYOUT
350
7B
  3
ACAD_MATERIAL
350
9A9
  3
ACAD_MLEADERSTYLE
350
212E
  3
ACAD_MLINESTYLE
350
1A
  3
ACAD_PLOTSETTINGS
350
7C
  3
ACAD_PLOTSTYLENAME
350
79
  3
ACAD_SCALELIST
350
2107
  3
ACAD_TABLESTYLE
350
9AB
  3
ACDB_RECOMPOSE_DATA
350
212D
  3
AcDbVariableDictionary
350
946
  0
DICTIONARY
  5
90E
330
17
100
AcDbDictionary
280
     1
281
     1
  3
ACAD_SORTENTS
360
1A8D
  0
DICTIONARY
  5
9AA
102
{ACAD_REACTORS
330
C
102
}
330
C
100
AcDbDictionary
281
     1
  0
DICTIONARY
  5
D
102
{ACAD_REACTORS
330
C
102
}
330
C
100
AcDbDictionary
281
     1
  0
DICTIONARY
  5
7B
102
{ACAD_REACTORS
330
C
102
}
330
C
100
AcDbDictionary
281
     1
  3
Model
350
7D
  3
ﾚｲｱｳﾄ1
350
7E
  0
DICTIONARY
  5
9A9
102
{ACAD_REACTORS
330
C
102
}
330
C
100
AcDbDictionary
281
     1
  0
DICTIONARY
  5
212E
102
{ACAD_REACTORS
330
C
102
}
330
C
100
AcDbDictionary
281
     1
  0
DICTIONARY
  5
1A
102
{ACAD_REACTORS
330
C
102
}
330
C
100
AcDbDictionary
281
     1
  3
STANDARD
350
1B
  0
DICTIONARY
  5
7C
102
{ACAD_REACTORS
330
C
102
}
330
C
100
AcDbDictionary
281
     1
  0
ACDBDICTIONARYWDFLT
  5
79
102
{ACAD_REACTORS
330
C
102
}
330
C
100
AcDbDictionary
281
     1
  3
Normal
350
7A
100
AcDbDictionaryWithDefault
340
7A
  0
DICTIONARY
  5
2107
102
{ACAD_REACTORS
330
C
102
}
330
C
100
AcDbDictionary
281
     1
  3
A0
350
2108
  3
A1
350
2109
  3
A2
350
210A
  3
A3
350
210B
  3
A4
350
210C
  3
A5
350
210D
  3
A6
350
210E
  3
A7
350
210F
  3
A8
350
2110
  3
A9
350
2111
  3
B0
350
2112
  3
B1
350
2113
  3
B2
350
2114
  3
B3
350
2115
  3
B4
350
2116
  3
B5
350
2117
  3
B6
350
2118
  3
B7
350
2119
  3
B8
350
211A
  3
B9
350
211B
  3
C0
350
211C
  3
C1
350
211D
  3
C2
350
211E
  3
C3
350
211F
  3
C4
350
2120
  3
C5
350
2121
  3
C6
350
2122
  3
C7
350
2123
  3
C8
350
2124
  3
C9
350
2125
  3
D0
350
2126
  3
D1
350
2127
  3
D2
350
2128
  0
DICTIONARY
  5
9AB
102
{ACAD_REACTORS
330
C
102
}
330
C
100
AcDbDictionary
281
     1
  3
Standard
350
9AC
  0
XRECORD
  5
212D
102
{ACAD_REACTORS
330
C
102
}
330
C
100
AcDbXrecord
280
     1
 90
        1
330
9AC
  0
DICTIONARY
  5
946
102
{ACAD_REACTORS
330
C
102
}
330
C
100
AcDbDictionary
281
     1
  3
CANNOSCALE
350
2129
  3
CTABLESTYLE
350
CC1
  3
DIMASSOC
350
947
  3
PROJECTNAME
350
CC2
  0
SORTENTSTABLE
  5
1A8D
102
{ACAD_REACTORS
330
90E
102
}
330
90E
100
AcDbSortentsTable
330
17
331
5F
  5
5F
331
60
  5
60
331
1293
  5
1293
331
1294
  5
1294
331
1295
  5
1295
331
1296
  5
1296
331
1297
  5
1297
331
1298
  5
1298
331
1299
  5
1299
331
129A
  5
129A
331
129B
  5
129B
331
129C
  5
129C
331
129D
  5
129D
331
129E
  5
129E
331
129F
  5
129F
331
12A0
  5
12A0
331
12A4
  5
12A4
331
12B7
  5
12B7
331
12B8
  5
12B8
331
12B9
  5
12B9
331
12BA
  5
12BA
331
12C8
  5
12C8
331
12C9
  5
12C9
331
12CA
  5
12CA
331
12CB
  5
12CB
331
12CC
  5
12CC
331
12CD
  5
12CD
331
12CE
  5
12CE
331
12CF
  5
12CF
331
12D0
  5
12D0
331
12D1
  5
12D1
331
12D2
  5
12D2
331
12D3
  5
12D3
331
12D4
  5
12D4
331
12D5
  5
12D5
331
12ED
  5
12ED
331
12F5
  5
12F5
331
130D
  5
130D
331
1337
  5
1337
331
1338
  5
1338
331
1339
  5
1339
331
133A
  5
133A
331
133D
  5
133D
331
133F
  5
133F
331
1340
  5
1340
331
1341
  5
1341
331
1342
  5
1342
331
1343
  5
1343
331
1351
  5
1351
331
1352
  5
1352
331
1358
  5
1358
331
135A
  5
135A
331
135C
  5
135C
331
1362
  5
1362
331
1363
  5
1363
331
1364
  5
1364
331
1365
  5
1365
331
136A
  5
136A
331
136B
  5
136B
331
136E
  5
136E
331
137E
  5
137E
331
1387
  5
1387
331
1388
  5
1388
331
1396
  5
1396
331
1397
  5
1397
331
13F7
  5
13F7
331
13F8
  5
13F8
  0
LAYOUT
  5
7D
102
{ACAD_REACTORS
330
7B
102
}
330
7B
100
AcDbPlotSettings
  1

  2
C:\PROGRAM FILES\MDT6\plotters\RICOH SP9II RPDL.pc3
  4
A3
  6

 40
5.873749732971191
 41
5.873758316040039
 42
4.349761962890625
 43
8.159759521484375
 44
420.1159973144531
 45
296.9259948730469
 46
0.0
 47
0.0
 48
0.0
 49
0.0
140
0.0
141
0.0
142
1.0
143
1.0
 70
 11952
 72
     0
 73
     0
 74
     0
  7
acad.ctb
 75
     0
 76
     0
 77
     2
 78
   300
147
1.0
148
-52067.63847066872
149
1270.867660243985
100
AcDbLayout
  1
Model
 70
     1
 71
     0
 10
0.0
 20
0.0
 11
12.0
 21
9.0
 12
0.0
 22
0.0
 32
0.0
 14
0.0
 24
0.0
 34
0.0
 15
0.0
 25
0.0
 35
0.0
146
0.0
 13
0.0
 23
0.0
 33
0.0
 16
1.0
 26
0.0
 36
0.0
 17
0.0
 27
1.0
 37
0.0
 76
     0
330
17
331
2101
  0
LAYOUT
  5
7E
102
{ACAD_REACTORS
330
7B
102
}
330
7B
100
AcDbPlotSettings
  1

  2
C:\PROGRAM FILES\MDT6\plotters\RICOH SP9II RPDL.pc3
  4

  6

 40
0.0
 41
0.0
 42
0.0
 43
0.0
 44
0.0
 45
0.0
 46
0.0
 47
0.0
 48
0.0
 49
0.0
140
0.0
141
0.0
142
1.0
143
1.0
 70
   688
 72
     0
 73
     0
 74
     5
  7
acad.ctb
 75
    16
 76
     0
 77
     2
 78
   300
147
1.0
148
0.0
149
0.0
100
AcDbLayout
  1
ﾚｲｱｳﾄ1
 70
     0
 71
     1
 10
0.0
 20
0.0
 11
12.0
 21
9.0
 12
0.0
 22
0.0
 32
0.0
 14
1.000000000000000E+20
 24
1.000000000000000E+20
 34
1.000000000000000E+20
 15
-1.000000000000000E+20
 25
-1.000000000000000E+20
 35
-1.000000000000000E+20
146
0.0
 13
0.0
 23
0.0
 33
0.0
 16
1.0
 26
0.0
 36
0.0
 17
0.0
 27
1.0
 37
0.0
 76
     0
330
14
  0
MLINESTYLE
  5
1B
102
{ACAD_REACTORS
330
1A
102
}
330
1A
100
AcDbMlineStyle
  2
STANDARD
 70
     0
  3

 62
   256
 51
90.0
 52
90.0
 71
     2
 49
0.5
 62
   256
  6
BYLAYER
 49
-0.5
 62
   256
  6
BYLAYER
  0
ACDBPLACEHOLDER
  5
7A
102
{ACAD_REACTORS
330
79
102
}
330
79
  0
SCALE
  5
2108
102
{ACAD_REACTORS
330
2107
102
}
330
2107
100
AcDbScale
 70
     0
300
1:1
140
1.0
141
1.0
290
     1
  0
SCALE
  5
2109
102
{ACAD_REACTORS
330
2107
102
}
330
2107
100
AcDbScale
 70
     0
300
1:2
140
1.0
141
2.0
290
     0
  0
SCALE
  5
210A
102
{ACAD_REACTORS
330
2107
102
}
330
2107
100
AcDbScale
 70
     0
300
1:4
140
1.0
141
4.0
290
     0
  0
SCALE
  5
210B
102
{ACAD_REACTORS
330
2107
102
}
330
2107
100
AcDbScale
 70
     0
300
1:5
140
1.0
141
5.0
290
     0
  0
SCALE
  5
210C
102
{ACAD_REACTORS
330
2107
102
}
330
2107
100
AcDbScale
 70
     0
300
1:8
140
1.0
141
8.0
290
     0
  0
SCALE
  5
210D
102
{ACAD_REACTORS
330
2107
102
}
330
2107
100
AcDbScale
 70
     0
300
1:10
140
1.0
141
10.0
290
     0
  0
SCALE
  5
210E
102
{ACAD_REACTORS
330
2107
102
}
330
2107
100
AcDbScale
 70
     0
300
1:16
140
1.0
141
16.0
290
     0
  0
SCALE
  5
210F
102
{ACAD_REACTORS
330
2107
102
}
330
2107
100
AcDbScale
 70
     0
300
1:20
140
1.0
141
20.0
290
     0
  0
SCALE
  5
2110
102
{ACAD_REACTORS
330
2107
102
}
330
2107
100
AcDbScale
 70
     0
300
1:30
140
1.0
141
30.0
290
     0
  0
SCALE
  5
2111
102
{ACAD_REACTORS
330
2107
102
}
330
2107
100
AcDbScale
 70
     0
300
1:40
140
1.0
141
40.0
290
     0
  0
SCALE
  5
2112
102
{ACAD_REACTORS
330
2107
102
}
330
2107
100
AcDbScale
 70
     0
300
1:50
140
1.0
141
50.0
290
     0
  0
SCALE
  5
2113
102
{ACAD_REACTORS
330
2107
102
}
330
2107
100
AcDbScale
 70
     0
300
1:100
140
1.0
141
100.0
290
     0
  0
SCALE
  5
2114
102
{ACAD_REACTORS
330
2107
102
}
330
2107
100
AcDbScale
 70
     0
300
2:1
140
2.0
141
1.0
290
     0
  0
SCALE
  5
2115
102
{ACAD_REACTORS
330
2107
102
}
330
2107
100
AcDbScale
 70
     0
300
4:1
140
4.0
141
1.0
290
     0
  0
SCALE
  5
2116
102
{ACAD_REACTORS
330
2107
102
}
330
2107
100
AcDbScale
 70
     0
300
8:1
140
8.0
141
1.0
290
     0
  0
SCALE
  5
2117
102
{ACAD_REACTORS
330
2107
102
}
330
2107
100
AcDbScale
 70
     0
300
10:1
140
10.0
141
1.0
290
     0
  0
SCALE
  5
2118
102
{ACAD_REACTORS
330
2107
102
}
330
2107
100
AcDbScale
 70
     0
300
100:1
140
100.0
141
1.0
290
     0
  0
SCALE
  5
2119
102
{ACAD_REACTORS
330
2107
102
}
330
2107
100
AcDbScale
 70
     0
300
1/128" = 1'-0"
140
0.0078125
141
12.0
290
     0
  0
SCALE
  5
211A
102
{ACAD_REACTORS
330
2107
102
}
330
2107
100
AcDbScale
 70
     0
300
1/64" = 1'-0"
140
0.015625
141
12.0
290
     0
  0
SCALE
  5
211B
102
{ACAD_REACTORS
330
2107
102
}
330
2107
100
AcDbScale
 70
     0
300
1/32" = 1'-0"
140
0.03125
141
12.0
290
     0
  0
SCALE
  5
211C
102
{ACAD_REACTORS
330
2107
102
}
330
2107
100
AcDbScale
 70
     0
300
1/16" = 1'-0"
140
0.0625
141
12.0
290
     0
  0
SCALE
  5
211D
102
{ACAD_REACTORS
330
2107
102
}
330
2107
100
AcDbScale
 70
     0
300
3/32" = 1'-0"
140
0.09375
141
12.0
290
     0
  0
SCALE
  5
211E
102
{ACAD_REACTORS
330
2107
102
}
330
2107
100
AcDbScale
 70
     0
300
1/8" = 1'-0"
140
0.125
141
12.0
290
     0
  0
SCALE
  5
211F
102
{ACAD_REACTORS
330
2107
102
}
330
2107
100
AcDbScale
 70
     0
300
3/16" = 1'-0"
140
0.1875
141
12.0
290
     0
  0
SCALE
  5
2120
102
{ACAD_REACTORS
330
2107
102
}
330
2107
100
AcDbScale
 70
     0
300
1/4" = 1'-0"
140
0.25
141
12.0
290
     0
  0
SCALE
  5
2121
102
{ACAD_REACTORS
330
2107
102
}
330
2107
100
AcDbScale
 70
     0
300
3/8" = 1'-0"
140
0.375
141
12.0
290
     0
  0
SCALE
  5
2122
102
{ACAD_REACTORS
330
2107
102
}
330
2107
100
AcDbScale
 70
     0
300
1/2" = 1'-0"
140
0.5
141
12.0
290
     0
  0
SCALE
  5
2123
102
{ACAD_REACTORS
330
2107
102
}
330
2107
100
AcDbScale
 70
     0
300
3/4" = 1'-0"
140
0.75
141
12.0
290
     0
  0
SCALE
  5
2124
102
{ACAD_REACTORS
330
2107
102
}
330
2107
100
AcDbScale
 70
     0
300
1" = 1'-0"
140
1.0
141
12.0
290
     0
  0
SCALE
  5
2125
102
{ACAD_REACTORS
330
2107
102
}
330
2107
100
AcDbScale
 70
     0
300
1-1/2" = 1'-0"
140
1.5
141
12.0
290
     0
  0
SCALE
  5
2126
102
{ACAD_REACTORS
330
2107
102
}
330
2107
100
AcDbScale
 70
     0
300
3" = 1'-0"
140
3.0
141
12.0
290
     0
  0
SCALE
  5
2127
102
{ACAD_REACTORS
330
2107
102
}
330
2107
100
AcDbScale
 70
     0
300
6" = 1'-0"
140
6.0
141
12.0
290
     0
  0
SCALE
  5
2128
102
{ACAD_REACTORS
330
2107
102
}
330
2107
100
AcDbScale
 70
     0
300
1'-0" = 1'-0"
140
12.0
141
12.0
290
     0
  0
TABLESTYLE
  5
9AC
102
{ACAD_REACTORS
330
9AB
102
}
102
{ACAD_XDICTIONARY
360
212A
102
}
330
9AB
100
AcDbTableStyle
  3
Standard
 70
     0
 71
     0
 40
0.06
 41
0.06
280
     0
281
     0
  7
STANDARD
140
0.18
170
     2
 62
     0
 63
   257
283
     0
274
    -2
284
     1
 64
     0
275
    -2
285
     1
 65
     0
276
    -2
286
     1
 66
     0
277
    -2
287
     1
 67
     0
278
    -2
288
     1
 68
     0
279
    -2
289
     1
 69
     0
  7
STANDARD
140
0.25
170
     5
 62
     0
 63
   257
283
     0
274
    -2
284
     1
 64
     0
275
    -2
285
     1
 65
     0
276
    -2
286
     1
 66
     0
277
    -2
287
     1
 67
     0
278
    -2
288
     1
 68
     0
279
    -2
289
     1
 69
     0
  7
STANDARD
140
0.18
170
     5
 62
     0
 63
   257
283
     0
274
    -2
284
     1
 64
     0
275
    -2
285
     1
 65
     0
276
    -2
286
     1
 66
     0
277
    -2
287
     1
 67
     0
278
    -2
288
     1
 68
     0
279
    -2
289
     1
 69
     0
  0
DICTIONARYVAR
  5
2129
102
{ACAD_REACTORS
330
946
102
}
330
946
100
DictionaryVariables
280
     0
  1
1:1
  0
DICTIONARYVAR
  5
CC1
102
{ACAD_REACTORS
330
946
102
}
330
946
100
DictionaryVariables
280
     0
  1
Standard
  0
DICTIONARYVAR
  5
947
102
{ACAD_REACTORS
330
946
102
}
330
946
100
DictionaryVariables
280
     0
  1
1
  0
DICTIONARYVAR
  5
CC2
102
{ACAD_REACTORS
330
946
102
}
330
946
100
DictionaryVariables
280
     0
  1

  0
DICTIONARY
  5
212A
330
9AC
100
AcDbDictionary
280
     1
281
     1
  3
ACAD_ROUNDTRIP_2008_TABLESTYLE_CELLSTYLEMAP
360
212C
  3
ACAD_XREC_ROUNDTRIP
360
212B
  0
CELLSTYLEMAP
  5
212C
102
{ACAD_REACTORS
330
212A
102
}
330
212A
100
AcDbCellStyleMap
 90
        3
300
CELLSTYLE
  1
TABLEFORMAT_BEGIN
 90
        5
170
     1
 91
        0
 92
    32768
 62
   257
 93
        1
300
CONTENTFORMAT
  1
CONTENTFORMAT_BEGIN
 90
        0
 91
        0
 92
        4
 93
        0
300

 40
0.0
140
1.0
 94
        5
 62
     0
340
F
144
0.25
309
CONTENTFORMAT_END
171
     1
301
MARGIN
  1
CELLMARGIN_BEGIN
 40
0.06
 40
0.06
 40
0.06
 40
0.06
 40
0.06
 40
0.06
309
CELLMARGIN_END
 94
        6
 95
        1
302
GRIDFORMAT
  1
GRIDFORMAT_BEGIN
 90
        0
 91
        1
 62
     0
 92
       -2
340
0
 93
        0
 40
0.045
309
GRIDFORMAT_END
 95
        2
302
GRIDFORMAT
  1
GRIDFORMAT_BEGIN
 90
        0
 91
        1
 62
     0
 92
       -2
340
0
 93
        0
 40
0.045
309
GRIDFORMAT_END
 95
        4
302
GRIDFORMAT
  1
GRIDFORMAT_BEGIN
 90
        0
 91
        1
 62
     0
 92
       -2
340
0
 93
        0
 40
0.045
309
GRIDFORMAT_END
 95
        8
302
GRIDFORMAT
  1
GRIDFORMAT_BEGIN
 90
        0
 91
        1
 62
     0
 92
       -2
340
0
 93
        0
 40
0.045
309
GRIDFORMAT_END
 95
       16
302
GRIDFORMAT
  1
GRIDFORMAT_BEGIN
 90
        0
 91
        1
 62
     0
 92
       -2
340
0
 93
        0
 40
0.045
309
GRIDFORMAT_END
 95
       32
302
GRIDFORMAT
  1
GRIDFORMAT_BEGIN
 90
        0
 91
        1
 62
     0
 92
       -2
340
0
 93
        0
 40
0.045
309
GRIDFORMAT_END
309
TABLEFORMAT_END
  1
CELLSTYLE_BEGIN
 90
        1
 91
        1
300
_TITLE
309
CELLSTYLE_END
300
CELLSTYLE
  1
TABLEFORMAT_BEGIN
 90
        5
170
     1
 91
        0
 92
        0
 62
   257
 93
        1
300
CONTENTFORMAT
  1
CONTENTFORMAT_BEGIN
 90
        0
 91
        0
 92
        4
 93
        0
300

 40
0.0
140
1.0
 94
        5
 62
     0
340
F
144
0.18
309
CONTENTFORMAT_END
171
     1
301
MARGIN
  1
CELLMARGIN_BEGIN
 40
0.06
 40
0.06
 40
0.06
 40
0.06
 40
0.06
 40
0.06
309
CELLMARGIN_END
 94
        6
 95
        1
302
GRIDFORMAT
  1
GRIDFORMAT_BEGIN
 90
        0
 91
        1
 62
     0
 92
       -2
340
0
 93
        0
 40
0.045
309
GRIDFORMAT_END
 95
        2
302
GRIDFORMAT
  1
GRIDFORMAT_BEGIN
 90
        0
 91
        1
 62
     0
 92
       -2
340
0
 93
        0
 40
0.045
309
GRIDFORMAT_END
 95
        4
302
GRIDFORMAT
  1
GRIDFORMAT_BEGIN
 90
        0
 91
        1
 62
     0
 92
       -2
340
0
 93
        0
 40
0.045
309
GRIDFORMAT_END
 95
        8
302
GRIDFORMAT
  1
GRIDFORMAT_BEGIN
 90
        0
 91
        1
 62
     0
 92
       -2
340
0
 93
        0
 40
0.045
309
GRIDFORMAT_END
 95
       16
302
GRIDFORMAT
  1
GRIDFORMAT_BEGIN
 90
        0
 91
        1
 62
     0
 92
       -2
340
0
 93
        0
 40
0.045
309
GRIDFORMAT_END
 95
       32
302
GRIDFORMAT
  1
GRIDFORMAT_BEGIN
 90
        0
 91
        1
 62
     0
 92
       -2
340
0
 93
        0
 40
0.045
309
GRIDFORMAT_END
309
TABLEFORMAT_END
  1
CELLSTYLE_BEGIN
 90
        2
 91
        1
300
_HEADER
309
CELLSTYLE_END
300
CELLSTYLE
  1
TABLEFORMAT_BEGIN
 90
        5
170
     1
 91
        0
 92
        0
 62
   257
 93
        1
300
CONTENTFORMAT
  1
CONTENTFORMAT_BEGIN
 90
        0
 91
        0
 92
        4
 93
        0
300

 40
0.0
140
1.0
 94
        2
 62
     0
340
F
144
0.18
309
CONTENTFORMAT_END
171
     1
301
MARGIN
  1
CELLMARGIN_BEGIN
 40
0.06
 40
0.06
 40
0.06
 40
0.06
 40
0.06
 40
0.06
309
CELLMARGIN_END
 94
        6
 95
        1
302
GRIDFORMAT
  1
GRIDFORMAT_BEGIN
 90
        0
 91
        1
 62
     0
 92
       -2
340
0
 93
        0
 40
0.045
309
GRIDFORMAT_END
 95
        2
302
GRIDFORMAT
  1
GRIDFORMAT_BEGIN
 90
        0
 91
        1
 62
     0
 92
       -2
340
0
 93
        0
 40
0.045
309
GRIDFORMAT_END
 95
        4
302
GRIDFORMAT
  1
GRIDFORMAT_BEGIN
 90
        0
 91
        1
 62
     0
 92
       -2
340
0
 93
        0
 40
0.045
309
GRIDFORMAT_END
 95
        8
302
GRIDFORMAT
  1
GRIDFORMAT_BEGIN
 90
        0
 91
        1
 62
     0
 92
       -2
340
0
 93
        0
 40
0.045
309
GRIDFORMAT_END
 95
       16
302
GRIDFORMAT
  1
GRIDFORMAT_BEGIN
 90
        0
 91
        1
 62
     0
 92
       -2
340
0
 93
        0
 40
0.045
309
GRIDFORMAT_END
 95
       32
302
GRIDFORMAT
  1
GRIDFORMAT_BEGIN
 90
        0
 91
        1
 62
     0
 92
       -2
340
0
 93
        0
 40
0.045
309
GRIDFORMAT_END
309
TABLEFORMAT_END
  1
CELLSTYLE_BEGIN
 90
        3
 91
        2
300
_DATA
309
CELLSTYLE_END
  0
XRECORD
  5
212B
102
{ACAD_REACTORS
330
212A
102
}
330
212A
100
AcDbXrecord
280
     1
102
ACAD_ROUNDTRIP_PRE2007_TABLESTYLE
 90
        4
 91
        0
  1

 92
        4
 93
        0
  2

 94
        4
 95
        0
  3

  0
ENDSEC
  0
EOF
