  0
SECTION
  2
HEADER
  9
$ACADVER
  1
AC1018
  9
$ACADMAINTVER
 70
     0
  9
$DWGCODEPAGE
  3
ANSI_932
  9
$INSBASE
 10
0.0
 20
0.0
 30
0.0
  9
$EXTMIN
 10
510.0
 20
0.0
 30
0.0
  9
$EXTMAX
 10
12000.0
 20
8310.0
 30
0.0
  9
$LIMMIN
 10
0.0
 20
0.0
  9
$LIMMAX
 10
12600.0
 20
8910.0
  9
$ORTHOMODE
 70
     1
  9
$REGENMODE
 70
     1
  9
$FILLMODE
 70
     1
  9
$QTEXTMODE
 70
     0
  9
$MIRRTEXT
 70
     1
  9
$LTSCALE
 40
300.0
  9
$ATTMODE
 70
     1
  9
$TEXTSIZE
 40
90.0
  9
$TRACEWID
 40
0.05
  9
$TEXTSTYLE
  7
STANDARD
  9
$CLAYER
  8
SUNPOU
  9
$CELTYPE
  6
BYLAYER
  9
$CECOLOR
 62
   256
  9
$CELTSCALE
 40
1.0
  9
$DISPSILH
 70
     0
  9
$DIMSCALE
 40
30.0
  9
$DIMASZ
 40
2.0
  9
$DIMEXO
 40
2.0
  9
$DIMDLI
 40
7.0
  9
$DIMRND
 40
0.0
  9
$DIMDLE
 40
0.0
  9
$DIMEXE
 40
0.5
  9
$DIMTP
 40
0.0
  9
$DIMTM
 40
0.0
  9
$DIMTXT
 40
3.0
  9
$DIMCEN
 40
0.0
  9
$DIMTSZ
 40
0.0
  9
$DIMTOL
 70
     0
  9
$DIMLIM
 70
     0
  9
$DIMTIH
 70
     0
  9
$DIMTOH
 70
     0
  9
$DIMSE1
 70
     0
  9
$DIMSE2
 70
     0
  9
$DIMTAD
 70
     1
  9
$DIMZIN
 70
     8
  9
$DIMBLK
  1

  9
$DIMASO
 70
     1
  9
$DIMSHO
 70
     1
  9
$DIMPOST
  1

  9
$DIMAPOST
  1

  9
$DIMALT
 70
     0
  9
$DIMALTD
 70
     2
  9
$DIMALTF
 40
25.4
  9
$DIMLFAC
 40
1.0
  9
$DIMTOFL
 70
     0
  9
$DIMTVP
 40
1.0
  9
$DIMTIX
 70
     1
  9
$DIMSOXD
 70
     0
  9
$DIMSAH
 70
     0
  9
$DIMBLK1
  1

  9
$DIMBLK2
  1

  9
$DIMSTYLE
  2
A3-30
  9
$DIMCLRD
 70
     0
  9
$DIMCLRE
 70
     0
  9
$DIMCLRT
 70
     0
  9
$DIMTFAC
 40
1.0
  9
$DIMGAP
 40
0.8
  9
$DIMJUST
 70
     0
  9
$DIMSD1
 70
     0
  9
$DIMSD2
 70
     0
  9
$DIMTOLJ
 70
     1
  9
$DIMTZIN
 70
     8
  9
$DIMALTZ
 70
     8
  9
$DIMALTTZ
 70
     8
  9
$DIMUPT
 70
     0
  9
$DIMDEC
 70
     0
  9
$DIMTDEC
 70
     0
  9
$DIMALTU
 70
     2
  9
$DIMALTTD
 70
     2
  9
$DIMTXSTY
  7
STANDARD
  9
$DIMAUNIT
 70
     0
  9
$DIMADEC
 70
     4
  9
$DIMALTRND
 40
0.0
  9
$DIMAZIN
 70
     0
  9
$DIMDSEP
 70
    46
  9
$DIMATFIT
 70
     3
  9
$DIMFRAC
 70
     0
  9
$DIMLDRBLK
  1

  9
$DIMLUNIT
 70
     2
  9
$DIMLWD
 70
    -2
  9
$DIMLWE
 70
    -2
  9
$DIMTMOVE
 70
     2
  9
$LUNITS
 70
     2
  9
$LUPREC
 70
     4
  9
$SKETCHINC
 40
0.1
  9
$FILLETRAD
 40
0.0
  9
$AUNITS
 70
     0
  9
$AUPREC
 70
     6
  9
$MENU
  1
acad
  9
$ELEVATION
 40
0.0
  9
$PELEVATION
 40
0.0
  9
$THICKNESS
 40
0.0
  9
$LIMCHECK
 70
     0
  9
$CHAMFERA
 40
0.0
  9
$CHAMFERB
 40
0.0
  9
$CHAMFERC
 40
0.0
  9
$CHAMFERD
 40
0.0
  9
$SKPOLY
 70
     0
  9
$TDCREATE
 40
2450014.659421296
  9
$TDUCREATE
 40
2450014.284421296
  9
$TDUPDATE
 40
2455351.39245044
  9
$TDUUPDATE
 40
2455351.01745044
  9
$TDINDWG
 40
0.0685781829
  9
$TDUSRTIMER
 40
0.0685781829
  9
$USRTIMER
 70
     1
  9
$ANGBASE
 50
0.0
  9
$ANGDIR
 70
     0
  9
$PDMODE
 70
     0
  9
$PDSIZE
 40
0.0
  9
$PLINEWID
 40
0.0
  9
$SPLFRAME
 70
     0
  9
$SPLINETYPE
 70
     6
  9
$SPLINESEGS
 70
     8
  9
$HANDSEED
  5
2449
  9
$SURFTAB1
 70
     6
  9
$SURFTAB2
 70
     6
  9
$SURFTYPE
 70
     6
  9
$SURFU
 70
     6
  9
$SURFV
 70
     6
  9
$UCSBASE
  2

  9
$UCSNAME
  2

  9
$UCSORG
 10
0.0
 20
0.0
 30
0.0
  9
$UCSXDIR
 10
1.0
 20
0.0
 30
0.0
  9
$UCSYDIR
 10
0.0
 20
1.0
 30
0.0
  9
$UCSORTHOREF
  2

  9
$UCSORTHOVIEW
 70
     0
  9
$UCSORGTOP
 10
0.0
 20
0.0
 30
0.0
  9
$UCSORGBOTTOM
 10
0.0
 20
0.0
 30
0.0
  9
$UCSORGLEFT
 10
0.0
 20
0.0
 30
0.0
  9
$UCSORGRIGHT
 10
0.0
 20
0.0
 30
0.0
  9
$UCSORGFRONT
 10
0.0
 20
0.0
 30
0.0
  9
$UCSORGBACK
 10
0.0
 20
0.0
 30
0.0
  9
$PUCSBASE
  2

  9
$PUCSNAME
  2

  9
$PUCSORG
 10
0.0
 20
0.0
 30
0.0
  9
$PUCSXDIR
 10
1.0
 20
0.0
 30
0.0
  9
$PUCSYDIR
 10
0.0
 20
1.0
 30
0.0
  9
$PUCSORTHOREF
  2

  9
$PUCSORTHOVIEW
 70
     0
  9
$PUCSORGTOP
 10
0.0
 20
0.0
 30
0.0
  9
$PUCSORGBOTTOM
 10
0.0
 20
0.0
 30
0.0
  9
$PUCSORGLEFT
 10
0.0
 20
0.0
 30
0.0
  9
$PUCSORGRIGHT
 10
0.0
 20
0.0
 30
0.0
  9
$PUCSORGFRONT
 10
0.0
 20
0.0
 30
0.0
  9
$PUCSORGBACK
 10
0.0
 20
0.0
 30
0.0
  9
$USERI1
 70
     0
  9
$USERI2
 70
     0
  9
$USERI3
 70
     0
  9
$USERI4
 70
     0
  9
$USERI5
 70
     0
  9
$USERR1
 40
0.0
  9
$USERR2
 40
0.0
  9
$USERR3
 40
0.0
  9
$USERR4
 40
0.0
  9
$USERR5
 40
0.0
  9
$WORLDVIEW
 70
     1
  9
$SHADEDGE
 70
     3
  9
$SHADEDIF
 70
    70
  9
$TILEMODE
 70
     1
  9
$MAXACTVP
 70
    48
  9
$PINSBASE
 10
0.0
 20
0.0
 30
0.0
  9
$PLIMCHECK
 70
     0
  9
$PEXTMIN
 10
1.000000000000000E+20
 20
1.000000000000000E+20
 30
1.000000000000000E+20
  9
$PEXTMAX
 10
-1.000000000000000E+20
 20
-1.000000000000000E+20
 30
-1.000000000000000E+20
  9
$PLIMMIN
 10
0.0
 20
0.0
  9
$PLIMMAX
 10
12.0
 20
9.0
  9
$UNITMODE
 70
     0
  9
$VISRETAIN
 70
     0
  9
$PLINEGEN
 70
     0
  9
$PSLTSCALE
 70
     0
  9
$TREEDEPTH
 70
  3020
  9
$CMLSTYLE
  2
STANDARD
  9
$CMLJUST
 70
     0
  9
$CMLSCALE
 40
1.0
  9
$PROXYGRAPHICS
 70
     1
  9
$MEASUREMENT
 70
     0
  9
$CELWEIGHT
370
    -1
  9
$ENDCAPS
280
     0
  9
$JOINSTYLE
280
     0
  9
$LWDISPLAY
290
     0
  9
$INSUNITS
 70
     0
  9
$HYPERLINKBASE
  1

  9
$STYLESHEET
  1
acad.ctb
  9
$XEDIT
290
     1
  9
$CEPSNTYPE
380
     0
  9
$PSTYLEMODE
290
     1
  9
$FINGERPRINTGUID
  2
{9E4B692F-34DC-11D6-9351-0080AD72C8A3}
  9
$VERSIONGUID
  2
{DFED7056-FB08-4A3C-9231-EF2FED0E8CE9}
  9
$EXTNAMES
290
     1
  9
$PSVPSCALE
 40
0.0
  9
$OLESTARTUP
290
     0
  9
$SORTENTS
280
   127
  9
$INDEXCTL
280
     0
  9
$HIDETEXT
280
     1
  9
$XCLIPFRAME
290
     0
  9
$HALOGAP
280
     0
  9
$OBSCOLOR
 70
   257
  9
$OBSLTYPE
280
     0
  9
$INTERSECTIONDISPLAY
280
     0
  9
$INTERSECTIONCOLOR
 70
   257
  9
$DIMASSOC
280
     1
  9
$PROJECTNAME
  1

  0
ENDSEC
  0
SECTION
  2
CLASSES
  0
CLASS
  1
ACDBDICTIONARYWDFLT
  2
AcDbDictionaryWithDefault
  3
ObjectDBX Classes
 90
        0
 91
        4
280
     0
281
     0
  0
CLASS
  1
ACDBPLACEHOLDER
  2
AcDbPlaceHolder
  3
ObjectDBX Classes
 90
        0
 91
        1
280
     0
281
     0
  0
CLASS
  1
LAYOUT
  2
AcDbLayout
  3
ObjectDBX Classes
 90
        0
 91
        1
280
     0
281
     0
  0
CLASS
  1
DICTIONARYVAR
  2
AcDbDictionaryVar
  3
ObjectDBX Classes
 90
        0
 91
        4
280
     0
281
     0
  0
CLASS
  1
DUMMY
  2
AcDbLongTransaction
  3
DUMMY
 90
        0
 91
        1
280
     0
281
     0
  0
CLASS
  1
LWPOLYLINE
  2
AcDbPolyline
  3
AutoCAD 2000
 90
        0
 91
        1
280
     0
281
     1
  0
CLASS
  1
HATCH
  2
AcDbHatch
  3
AutoCAD 2000
 90
        0
 91
        1
280
     0
281
     1
  0
CLASS
  1
XRECORD
  2
AcDbXrecord
  3
AutoCAD 2000
 90
        0
 91
        1
280
     0
281
     0
  0
CLASS
  1
DUMMY
  2
AcDbLongTransaction
  3
DUMMY
 90
        0
 91
        1
280
     0
281
     0
  0
CLASS
  1
LWPOLYLINE
  2
AcDbPolyline
  3
AutoCAD 2000
 90
        0
 91
        1
280
     0
281
     1
  0
CLASS
  1
HATCH
  2
AcDbHatch
  3
AutoCAD 2000
 90
        0
 91
        1
280
     0
281
     1
  0
CLASS
  1
XRECORD
  2
AcDbXrecord
  3
AutoCAD 2000
 90
        0
 91
        1
280
     0
281
     0
  0
CLASS
  1
DUMMY
  2
AcDbLongTransaction
  3
DUMMY
 90
        0
 91
        1
280
     0
281
     0
  0
CLASS
  1
LWPOLYLINE
  2
AcDbPolyline
  3
AutoCAD 2000
 90
        0
 91
        1
280
     0
281
     1
  0
CLASS
  1
HATCH
  2
AcDbHatch
  3
AutoCAD 2000
 90
        0
 91
        1
280
     0
281
     1
  0
CLASS
  1
XRECORD
  2
AcDbXrecord
  3
AutoCAD 2000
 90
        0
 91
        1
280
     0
281
     0
  0
CLASS
  1
TABLESTYLE
  2
AcDbTableStyle
  3
ObjectDBX Classes
 90
     4095
 91
        4
280
     0
281
     0
  0
CLASS
  1
SCALE
  2
AcDbScale
  3
ObjectDBX Classes
 90
     1153
 91
        4
280
     0
281
     0
  0
CLASS
  1
CELLSTYLEMAP
  2
AcDbCellStyleMap
  3
ObjectDBX Classes
 90
     1152
 91
        4
280
     0
281
     0
  0
ENDSEC
  0
SECTION
  2
TABLES
  0
TABLE
  2
VPORT
  5
8
330
0
100
AcDbSymbolTable
 70
     2
  0
VPORT
  5
241B
330
8
100
AcDbSymbolTableRecord
100
AcDbViewportTableRecord
  2
*Active
 70
     0
 10
0.0
 20
0.0
 11
1.0
 21
1.0
 12
6427.669607776752
 22
4271.298693934776
 13
0.0
 23
0.0
 14
30.0
 24
30.0
 15
300.0
 25
300.0
 16
0.0
 26
0.0
 36
1.0
 17
0.0
 27
0.0
 37
0.0
 40
9304.998933714167
 41
1.507024265644955
 42
50.0
 43
0.0
 44
0.0
 50
0.0
 51
0.0
 71
     0
 72
   100
 73
     1
 74
     1
 75
     0
 76
     0
 77
     0
 78
     0
281
     0
 65
     1
110
0.0
120
0.0
130
0.0
111
1.0
121
0.0
131
0.0
112
0.0
122
1.0
132
0.0
 79
     0
146
0.0
  0
ENDTAB
  0
TABLE
  2
LTYPE
  5
5
330
0
100
AcDbSymbolTable
 70
     4
  0
LTYPE
  5
11
330
5
100
AcDbSymbolTableRecord
100
AcDbLinetypeTableRecord
  2
BYBLOCK
 70
     0
  3

 72
    65
 73
     0
 40
0.0
  0
LTYPE
  5
12
330
5
100
AcDbSymbolTableRecord
100
AcDbLinetypeTableRecord
  2
BYLAYER
 70
     0
  3

 72
    65
 73
     0
 40
0.0
  0
LTYPE
  5
13
330
5
100
AcDbSymbolTableRecord
100
AcDbLinetypeTableRecord
  2
CONTINUOUS
 70
     0
  3
Solid line
 72
    65
 73
     0
 40
0.0
  0
LTYPE
  5
1E
330
5
100
AcDbSymbolTableRecord
100
AcDbLinetypeTableRecord
  2
HIDDEN
 70
     0
  3
_ _ _ _ _ _ _ _ _ _ _ _ _ _ _ _ _ _ _ _ _ _ _
 72
    65
 73
     2
 40
0.375
 49
0.25
 74
     0
 49
-0.125
 74
     0
  0
LTYPE
  5
1F
330
5
100
AcDbSymbolTableRecord
100
AcDbLinetypeTableRecord
  2
CENTER
 70
     0
  3
____ _ ____ _ ____ _ ____ _ ____ _ ____ _ ____
 72
    65
 73
     4
 40
2.0
 49
1.25
 74
     0
 49
-0.25
 74
     0
 49
0.25
 74
     0
 49
-0.25
 74
     0
  0
LTYPE
  5
20
330
5
100
AcDbSymbolTableRecord
100
AcDbLinetypeTableRecord
  2
PHANTOM
 70
     0
  3
_____ _ _ _____ _ _ _____ _ _ _____ _ _ ____
 72
    65
 73
     6
 40
2.5
 49
1.25
 74
     0
 49
-0.25
 74
     0
 49
0.25
 74
     0
 49
-0.25
 74
     0
 49
0.25
 74
     0
 49
-0.25
 74
     0
  0
ENDTAB
  0
TABLE
  2
LAYER
  5
2
330
0
100
AcDbSymbolTable
 70
    10
  0
LAYER
  5
E
330
2
100
AcDbSymbolTableRecord
100
AcDbLayerTableRecord
  2
0
 70
     0
 62
     7
  6
CONTINUOUS
370
    -3
390
7A
  0
LAYER
  5
23
330
2
100
AcDbSymbolTableRecord
100
AcDbLayerTableRecord
  2
SUNPOU
 70
     0
 62
     1
  6
CONTINUOUS
370
    -3
390
7A
  0
LAYER
  5
24
330
2
100
AcDbSymbolTableRecord
100
AcDbLayerTableRecord
  2
HAIKIN
 70
     0
 62
     2
  6
CONTINUOUS
370
    -3
390
7A
  0
LAYER
  5
25
330
2
100
AcDbSymbolTableRecord
100
AcDbLayerTableRecord
  2
SEIHIN
 70
     0
 62
     3
  6
CONTINUOUS
370
    -3
390
7A
  0
LAYER
  5
26
330
2
100
AcDbSymbolTableRecord
100
AcDbLayerTableRecord
  2
HASEN
 70
     0
 62
     4
  6
HIDDEN
370
    -3
390
7A
  0
LAYER
  5
27
330
2
100
AcDbSymbolTableRecord
100
AcDbLayerTableRecord
  2
1HASEN
 70
     0
 62
     5
  6
CENTER
370
    -3
390
7A
  0
LAYER
  5
28
330
2
100
AcDbSymbolTableRecord
100
AcDbLayerTableRecord
  2
2HASEN
 70
     0
 62
     6
  6
PHANTOM
370
    -3
390
7A
  0
LAYER
  5
29
330
2
100
AcDbSymbolTableRecord
100
AcDbLayerTableRecord
  2
HOJO
 70
     0
 62
     7
  6
CONTINUOUS
370
    -3
390
7A
  0
LAYER
  5
2A
330
2
100
AcDbSymbolTableRecord
100
AcDbLayerTableRecord
  2
TEN
 70
     0
 62
     7
  6
CONTINUOUS
370
    -3
390
7A
  0
LAYER
  5
70
330
2
100
AcDbSymbolTableRecord
100
AcDbLayerTableRecord
  2
DEFPOINTS
 70
     0
 62
     7
  6
CONTINUOUS
290
     0
370
    -3
390
7A
  0
ENDTAB
  0
TABLE
  2
STYLE
  5
3
330
0
100
AcDbSymbolTable
 70
     1
  0
STYLE
  5
F
330
3
100
AcDbSymbolTableRecord
100
AcDbTextStyleTableRecord
  2
STANDARD
 70
     0
 40
0.0
 41
0.8
 50
0.0
 71
     0
 42
90.0
  3
TXT.shx
  4
BIGFONT.shx
  0
ENDTAB
  0
TABLE
  2
VIEW
  5
6
330
0
100
AcDbSymbolTable
 70
     0
  0
ENDTAB
  0
TABLE
  2
UCS
  5
7
330
0
100
AcDbSymbolTable
 70
     0
  0
ENDTAB
  0
TABLE
  2
APPID
  5
9
330
0
100
AcDbSymbolTable
 70
    10
  0
APPID
  5
10
330
9
100
AcDbSymbolTableRecord
100
AcDbRegAppTableRecord
  2
ACAD
 70
     0
  0
APPID
  5
9B0
330
9
100
AcDbSymbolTableRecord
100
AcDbRegAppTableRecord
  2
ACAD_DSTYLE_DIMTEXT_FILL
 70
     0
  0
APPID
  5
9B1
330
9
100
AcDbSymbolTableRecord
100
AcDbRegAppTableRecord
  2
ACAD_DSTYLE_DIMEXT_LENGTH
 70
     0
  0
APPID
  5
9B2
330
9
100
AcDbSymbolTableRecord
100
AcDbRegAppTableRecord
  2
ACAD_DSTYLE_DIMEXT_ENABLED
 70
     0
  0
APPID
  5
9B3
330
9
100
AcDbSymbolTableRecord
100
AcDbRegAppTableRecord
  2
ACAD_DSTYLE_DIM_LINETYPE
 70
     0
  0
APPID
  5
9B4
330
9
100
AcDbSymbolTableRecord
100
AcDbRegAppTableRecord
  2
ACAD_DSTYLE_DIM_EXT1_LINETYPE
 70
     0
  0
APPID
  5
9B5
330
9
100
AcDbSymbolTableRecord
100
AcDbRegAppTableRecord
  2
ACAD_DSTYLE_DIM_EXT2_LINETYPE
 70
     0
  0
APPID
  5
A71
330
9
100
AcDbSymbolTableRecord
100
AcDbRegAppTableRecord
  2
ACAD_DSTYLE_DIMJOGGED_JOGANGLE_SYMBOL
 70
     0
  0
APPID
  5
C55
330
9
100
AcDbSymbolTableRecord
100
AcDbRegAppTableRecord
  2
ACAD_DSTYLE_DIMARC_LENGTH_SYMBOL
 70
     0
  0
APPID
  5
207E
330
9
100
AcDbSymbolTableRecord
100
AcDbRegAppTableRecord
  2
ACAD_EXEMPT_FROM_CAD_STANDARDS
 70
     0
  0
ENDTAB
  0
TABLE
  2
DIMSTYLE
  5
A
330
0
100
AcDbSymbolTable
 70
     2
100
AcDbDimStyleTable
  0
DIMSTYLE
105
61
330
A
100
AcDbSymbolTableRecord
100
AcDbDimStyleTableRecord
  2
STANDARD
 70
     0
178
     0
340
F
  0
DIMSTYLE
105
C5A
102
{ACAD_REACTORS
330
14F8
330
14F7
330
14BF
330
14BE
330
14B9
330
1474
330
146D
330
146C
330
146A
330
1466
330
1465
330
1461
330
1460
330
145F
330
145E
330
1426
330
1423
330
1422
330
1404
330
13F1
330
13D4
330
13D2
330
13C4
330
13C1
330
215B
330
21B1
330
21BF
330
23F0
102
}
330
A
100
AcDbSymbolTableRecord
100
AcDbDimStyleTableRecord
  2
A3-30
 70
     0
 40
30.0
 41
2.0
 42
2.0
 43
7.0
 44
0.5
 73
     0
 74
     0
 77
     1
 78
     8
140
3.0
141
0.0
145
1.0
147
0.8
174
     1
178
     0
179
     4
271
     0
272
     0
279
     2
284
     8
285
     8
286
     8
340
F
  0
ENDTAB
  0
TABLE
  2
BLOCK_RECORD
  5
1
330
0
100
AcDbSymbolTable
 70
    37
  0
BLOCK_RECORD
  5
17
330
1
100
AcDbSymbolTableRecord
100
AcDbBlockTableRecord
  2
*MODEL_SPACE
340
7D
  0
BLOCK_RECORD
  5
14
330
1
100
AcDbSymbolTableRecord
100
AcDbBlockTableRecord
  2
*PAPER_SPACE
340
7E
  0
BLOCK_RECORD
  5
1C
330
1
100
AcDbSymbolTableRecord
100
AcDbBlockTableRecord
  2
BORDER
340
0
  0
BLOCK_RECORD
  5
1D
330
1
100
AcDbSymbolTableRecord
100
AcDbBlockTableRecord
  2
SA3
340
0
102
{BLKREFS
331
60
102
}
  0
BLOCK_RECORD
  5
82
330
1
100
AcDbSymbolTableRecord
100
AcDbBlockTableRecord
  2
*D2
340
0
  0
BLOCK_RECORD
  5
8E
330
1
100
AcDbSymbolTableRecord
100
AcDbBlockTableRecord
  2
*D3
340
0
  0
BLOCK_RECORD
  5
9C
330
1
100
AcDbSymbolTableRecord
100
AcDbBlockTableRecord
  2
*D4
340
0
  0
BLOCK_RECORD
  5
AA
330
1
100
AcDbSymbolTableRecord
100
AcDbBlockTableRecord
  2
*D5
340
0
  0
BLOCK_RECORD
  5
B6
330
1
100
AcDbSymbolTableRecord
100
AcDbBlockTableRecord
  2
*D6
340
0
  0
BLOCK_RECORD
  5
C3
330
1
100
AcDbSymbolTableRecord
100
AcDbBlockTableRecord
  2
A$C79F54BAC
340
0
  0
BLOCK_RECORD
  5
1521
330
1
100
AcDbSymbolTableRecord
100
AcDbBlockTableRecord
  2
*D8
340
0
  0
BLOCK_RECORD
  5
1545
330
1
100
AcDbSymbolTableRecord
100
AcDbBlockTableRecord
  2
*D9
340
0
  0
BLOCK_RECORD
  5
1552
330
1
100
AcDbSymbolTableRecord
100
AcDbBlockTableRecord
  2
*D10
340
0
  0
BLOCK_RECORD
  5
156B
330
1
100
AcDbSymbolTableRecord
100
AcDbBlockTableRecord
  2
*D11
340
0
  0
BLOCK_RECORD
  5
15B8
330
1
100
AcDbSymbolTableRecord
100
AcDbBlockTableRecord
  2
*D12
340
0
  0
BLOCK_RECORD
  5
15DC
330
1
100
AcDbSymbolTableRecord
100
AcDbBlockTableRecord
  2
*D13
340
0
  0
BLOCK_RECORD
  5
1642
330
1
100
AcDbSymbolTableRecord
100
AcDbBlockTableRecord
  2
*D14
340
0
  0
BLOCK_RECORD
  5
164E
330
1
100
AcDbSymbolTableRecord
100
AcDbBlockTableRecord
  2
*D15
340
0
  0
BLOCK_RECORD
  5
1673
330
1
100
AcDbSymbolTableRecord
100
AcDbBlockTableRecord
  2
*D16
340
0
  0
BLOCK_RECORD
  5
16FD
330
1
100
AcDbSymbolTableRecord
100
AcDbBlockTableRecord
  2
*D17
340
0
  0
BLOCK_RECORD
  5
1709
330
1
100
AcDbSymbolTableRecord
100
AcDbBlockTableRecord
  2
*D18
340
0
  0
BLOCK_RECORD
  5
1715
330
1
100
AcDbSymbolTableRecord
100
AcDbBlockTableRecord
  2
*D19
340
0
  0
BLOCK_RECORD
  5
1721
330
1
100
AcDbSymbolTableRecord
100
AcDbBlockTableRecord
  2
*D20
340
0
  0
BLOCK_RECORD
  5
173A
330
1
100
AcDbSymbolTableRecord
100
AcDbBlockTableRecord
  2
*D21
340
0
  0
BLOCK_RECORD
  5
1746
330
1
100
AcDbSymbolTableRecord
100
AcDbBlockTableRecord
  2
*D22
340
0
  0
BLOCK_RECORD
  5
176A
330
1
100
AcDbSymbolTableRecord
100
AcDbBlockTableRecord
  2
*D23
340
0
  0
BLOCK_RECORD
  5
1784
330
1
100
AcDbSymbolTableRecord
100
AcDbBlockTableRecord
  2
*D24
340
0
  0
BLOCK_RECORD
  5
1790
330
1
100
AcDbSymbolTableRecord
100
AcDbBlockTableRecord
  2
*D25
340
0
  0
BLOCK_RECORD
  5
179C
330
1
100
AcDbSymbolTableRecord
100
AcDbBlockTableRecord
  2
*D26
340
0
  0
BLOCK_RECORD
  5
1808
330
1
100
AcDbSymbolTableRecord
100
AcDbBlockTableRecord
  2
*D27
340
0
  0
BLOCK_RECORD
  5
182E
330
1
100
AcDbSymbolTableRecord
100
AcDbBlockTableRecord
  2
*D28
340
0
  0
BLOCK_RECORD
  5
183A
330
1
100
AcDbSymbolTableRecord
100
AcDbBlockTableRecord
  2
*D29
340
0
  0
BLOCK_RECORD
  5
1890
330
1
100
AcDbSymbolTableRecord
100
AcDbBlockTableRecord
  2
*D30
340
0
  0
BLOCK_RECORD
  5
189C
330
1
100
AcDbSymbolTableRecord
100
AcDbBlockTableRecord
  2
*D31
340
0
  0
BLOCK_RECORD
  5
215C
330
1
100
AcDbSymbolTableRecord
100
AcDbBlockTableRecord
  2
*D32
340
0
  0
BLOCK_RECORD
  5
21B2
330
1
100
AcDbSymbolTableRecord
100
AcDbBlockTableRecord
  2
*D33
340
0
  0
BLOCK_RECORD
  5
21C0
330
1
100
AcDbSymbolTableRecord
100
AcDbBlockTableRecord
  2
*D34
340
0
  0
BLOCK_RECORD
  5
23F1
330
1
100
AcDbSymbolTableRecord
100
AcDbBlockTableRecord
  2
*D36
340
0
  0
ENDTAB
  0
ENDSEC
  0
SECTION
  2
BLOCKS
  0
BLOCK
  5
2D
330
17
100
AcDbEntity
  8
0
100
AcDbBlockBegin
  2
*MODEL_SPACE
 70
     0
 10
0.0
 20
0.0
 30
0.0
  3
*MODEL_SPACE
  1

  0
ENDBLK
  5
2E
330
17
100
AcDbEntity
  8
0
100
AcDbBlockEnd
  0
BLOCK
  5
2B
330
14
100
AcDbEntity
 67
     1
  8
0
100
AcDbBlockBegin
  2
*PAPER_SPACE
 70
     0
 10
0.0
 20
0.0
 30
0.0
  3
*PAPER_SPACE
  1

  0
ENDBLK
  5
2C
330
14
100
AcDbEntity
 67
     1
  8
0
100
AcDbBlockEnd
  0
BLOCK
  5
2F
330
1C
100
AcDbEntity
  8
0
100
AcDbBlockBegin
  2
BORDER
 70
     0
 10
0.0
 20
0.0
 30
0.0
  3
BORDER
  1

  0
LINE
  5
30
330
1C
100
AcDbEntity
  8
0
100
AcDbLine
 10
0.0
 20
0.0
 30
0.0
 11
1.00000000000004
 21
0.0
 31
0.0
  0
LINE
  5
31
330
1C
100
AcDbEntity
  8
0
100
AcDbLine
 10
1.00000000000004
 20
0.0
 30
0.0
 11
1.00000000000004
 21
1.00000000000004
 31
0.0
  0
LINE
  5
32
330
1C
100
AcDbEntity
  8
0
100
AcDbLine
 10
1.00000000000004
 20
1.00000000000004
 30
0.0
 11
0.0
 21
1.00000000000004
 31
0.0
  0
LINE
  5
33
330
1C
100
AcDbEntity
  8
0
100
AcDbLine
 10
0.0
 20
1.00000000000004
 30
0.0
 11
0.0
 21
0.0
 31
0.0
  0
ENDBLK
  5
34
330
1C
100
AcDbEntity
  8
0
100
AcDbBlockEnd
  0
BLOCK
  5
35
330
1D
100
AcDbEntity
  8
HAIKIN
100
AcDbBlockBegin
  2
SA3
 70
     0
 10
0.0
 20
0.0
 30
0.0
  3
SA3
  1

  0
TEXT
  5
36
330
1D
100
AcDbEntity
  8
SUNPOU
100
AcDbText
 10
340.0
 20
0.0
 30
0.0
 40
2.5
  1
新和コンクリート工業株式会社
100
AcDbText
  0
TEXT
  5
39
330
1D
100
AcDbEntity
  8
SUNPOU
100
AcDbText
 10
361.4166666666667
 20
6.25
 30
0.0
 40
2.5
  1
製図
 72
     4
 11
364.0
 21
7.5
 31
0.0
100
AcDbText
  0
TEXT
  5
3A
330
1D
100
AcDbEntity
  8
SUNPOU
100
AcDbText
 10
361.3333333333333
 20
11.25
 30
0.0
 40
2.5
  1
設計
 72
     4
 11
364.0
 21
12.5
 31
0.0
100
AcDbText
  0
TEXT
  5
3B
330
1D
100
AcDbEntity
  8
SUNPOU
100
AcDbText
 10
339.0833333333333
 20
6.250000000000014
 30
0.0
 40
2.5
  1
認
 72
     4
 11
340.25
 21
7.500000000000014
 31
0.0
100
AcDbText
  0
TEXT
  5
3C
330
1D
100
AcDbEntity
  8
SUNPOU
100
AcDbText
 10
339.0833333333333
 20
11.33333333333336
 30
0.0
 40
2.5
  1
承
 72
     4
 11
340.25
 21
12.50000000000003
 31
0.0
100
AcDbText
  0
TEXT
  5
3D
330
1D
100
AcDbEntity
  8
SUNPOU
100
AcDbText
 10
312.75
 20
11.75000000000001
 30
0.0
 40
2.5
  1
図　面　番　号
 72
     4
 11
323.0
 21
13.00000000000001
 31
0.0
100
AcDbText
  0
TEXT
  5
3E
330
1D
100
AcDbEntity
  8
SUNPOU
100
AcDbText
 10
362.0
 20
17.0
 30
0.0
 40
2.5
  1
１／
100
AcDbText
  0
TEXT
  5
3F
330
1D
100
AcDbEntity
  8
SUNPOU
100
AcDbText
 10
347.3333333333333
 20
16.25000000000001
 30
0.0
 40
2.5
  1
縮　　尺
 72
     4
 11
353.0
 21
17.50000000000001
 31
0.0
100
AcDbText
  0
TEXT
  5
40
330
1D
100
AcDbEntity
  8
SUNPOU
100
AcDbText
 10
347.3333333333333
 20
21.25
 30
0.0
 40
2.5
  1
鉄 筋 量
 72
     4
 11
353.0
 21
22.5
 31
0.0
100
AcDbText
  0
TEXT
  5
41
330
1D
100
AcDbEntity
  8
SUNPOU
100
AcDbText
 10
347.3333333333333
 20
26.25
 30
0.0
 40
2.5
  1
製 造 数
 72
     4
 11
353.0
 21
27.5
 31
0.0
100
AcDbText
  0
TEXT
  5
42
330
1D
100
AcDbEntity
  8
SUNPOU
100
AcDbText
 10
377.0
 20
21.0
 30
0.0
 40
2.5
  1
ｋｇ
 72
     2
 11
382.0
 21
21.0
 31
0.0
100
AcDbText
  0
TEXT
  5
43
330
1D
100
AcDbEntity
  8
SUNPOU
100
AcDbText
 10
339.5
 20
21.0
 30
0.0
 40
2.5
  1
ｋｇ
 72
     2
 11
344.5
 21
21.0
 31
0.0
100
AcDbText
  0
TEXT
  5
44
330
1D
100
AcDbEntity
  8
SUNPOU
100
AcDbText
 10
310.0
 20
16.25000000000001
 30
0.0
 40
2.5
  1
年 月 日
 72
     4
 11
315.5
 21
17.50000000000001
 31
0.0
100
AcDbText
  0
TEXT
  5
45
330
1D
100
AcDbEntity
  8
SUNPOU
100
AcDbText
 10
309.8333333333333
 20
21.25
 30
0.0
 40
2.5
  1
製品質量
 72
     4
 11
315.5
 21
22.5
 31
0.0
100
AcDbText
  0
TEXT
  5
46
330
1D
100
AcDbEntity
  8
SUNPOU
100
AcDbText
 10
309.9166666666667
 20
26.25
 30
0.0
 40
2.5
  1
業 者 名
 72
     4
 11
315.5
 21
27.5
 31
0.0
100
AcDbText
  0
TEXT
  5
47
330
1D
100
AcDbEntity
  8
SUNPOU
100
AcDbText
 10
309.8333333333333
 20
32.5
 30
0.0
 40
2.5
  1
名　　称
 72
     4
 11
315.5
 21
33.75
 31
0.0
100
AcDbText
  0
LINE
  5
48
330
1D
100
AcDbEntity
  8
SUNPOU
100
AcDbLine
 10
338.0
 20
11.00000000000001
 30
0.0
 11
308.0
 21
11.00000000000001
 31
0.0
  0
LINE
  5
49
330
1D
100
AcDbEntity
  8
SUNPOU
100
AcDbLine
 10
367.5
 20
4.999999999999986
 30
0.0
 11
367.5
 21
14.99999999999999
 31
0.0
  0
LINE
  5
4A
330
1D
100
AcDbEntity
  8
SUNPOU
100
AcDbLine
 10
360.5
 20
4.999999999999986
 30
0.0
 11
360.5
 21
14.99999999999999
 31
0.0
  0
LINE
  5
4B
330
1D
100
AcDbEntity
  8
SUNPOU
100
AcDbLine
 10
342.5
 20
4.999999999999995
 30
0.0
 11
342.5
 21
15.0
 31
0.0
  0
LINE
  5
4C
330
1D
100
AcDbEntity
  8
SUNPOU
100
AcDbLine
 10
338.0
 20
4.999999999999995
 30
0.0
 11
338.0
 21
15.0
 31
0.0
  0
LINE
  5
4D
330
1D
100
AcDbEntity
  8
SUNPOU
100
AcDbLine
 10
323.0
 20
15.00000000000001
 30
0.0
 11
323.0
 21
37.5
 31
0.0
  0
LINE
  5
4E
330
1D
100
AcDbEntity
  8
SUNPOU
100
AcDbLine
 10
360.5
 20
15.00000000000001
 30
0.0
 11
360.5
 21
30.0
 31
0.0
  0
LINE
  5
4F
330
1D
100
AcDbEntity
  8
SUNPOU
100
AcDbLine
 10
345.5
 20
15.00000000000001
 30
0.0
 11
345.5
 21
30.0
 31
0.0
  0
LINE
  5
50
330
1D
100
AcDbEntity
  8
SUNPOU
100
AcDbLine
 10
383.0
 20
30.0
 30
0.0
 11
308.0
 21
30.0
 31
0.0
  0
LINE
  5
51
330
1D
100
AcDbEntity
  8
SUNPOU
100
AcDbLine
 10
383.0
 20
25.0
 30
0.0
 11
308.0
 21
25.0
 31
0.0
  0
LINE
  5
52
330
1D
100
AcDbEntity
  8
SUNPOU
100
AcDbLine
 10
383.0
 20
20.0
 30
0.0
 11
308.0
 21
20.0
 31
0.0
  0
LINE
  5
53
330
1D
100
AcDbEntity
  8
SUNPOU
100
AcDbLine
 10
383.0
 20
14.99999999999999
 30
0.0
 11
308.0
 21
15.00000000000004
 31
0.0
  0
LINE
  5
54
330
1D
100
AcDbEntity
  8
HAIKIN
100
AcDbLine
 10
308.0
 20
37.5
 30
0.0
 11
383.0
 21
37.5
 31
0.0
  0
LINE
  5
55
330
1D
100
AcDbEntity
  8
HAIKIN
100
AcDbLine
 10
308.0
 20
5.000000000000009
 30
0.0
 11
308.0
 21
37.5
 31
0.0
  0
LINE
  5
56
330
1D
100
AcDbEntity
  8
SUNPOU
100
AcDbLine
 10
0.000000000000016
 20
277.0
 30
0.0
 11
0.000000000000016
 21
272.0
 31
0.0
  0
LINE
  5
57
330
1D
100
AcDbEntity
  8
SUNPOU
100
AcDbLine
 10
25.00000000000001
 20
277.0
 30
0.0
 11
0.000000000000016
 21
277.0
 31
0.0
  0
LINE
  5
58
330
1D
100
AcDbEntity
  8
SUNPOU
100
AcDbLine
 10
25.00000000000001
 20
272.0
 30
0.0
 11
25.00000000000001
 21
277.0
 31
0.0
  0
LINE
  5
59
330
1D
100
AcDbEntity
  8
HAIKIN
100
AcDbLine
 10
0.0000000000000004
 20
5.0
 30
0.0
 11
383.0
 21
5.0
 31
0.0
  0
LINE
  5
5A
330
1D
100
AcDbEntity
  8
HAIKIN
100
AcDbLine
 10
0.0000000000000158
 20
272.0
 30
0.0
 11
383.0
 21
272.0
 31
0.0
  0
LINE
  5
5B
330
1D
100
AcDbEntity
  8
HAIKIN
100
AcDbLine
 10
383.0
 20
272.0
 30
0.0
 11
383.0
 21
5.0
 31
0.0
  0
TEXT
  5
5C
330
1D
100
AcDbEntity
  8
SUNPOU
100
AcDbText
 10
3.700000000000017
 20
273.0
 30
0.0
 40
3.0
  1
Ｈ－２－共
 72
     4
 11
12.50000000000002
 21
274.5
 31
0.0
100
AcDbText
  0
LINE
  5
5D
330
1D
100
AcDbEntity
  8
HAIKIN
100
AcDbLine
 10
0.0000000000000004
 20
5.0
 30
0.0
 11
0.0000000000000158
 21
272.0
 31
0.0
  0
ENDBLK
  5
5E
330
1D
100
AcDbEntity
  8
HAIKIN
100
AcDbBlockEnd
  0
BLOCK
  5
8C
330
82
100
AcDbEntity
  8
0
100
AcDbBlockBegin
  2
*D2
 70
     1
 10
0.0
 20
0.0
 30
0.0
  3
*D2
  1

  0
LINE
  5
83
330
82
100
AcDbEntity
  8
SUNPOU
370
    -2
100
AcDbLine
 10
14459.99999999999
 20
11910.0
 30
0.0
 11
15605.99999999999
 21
11910.0
 31
0.0
  0
LINE
  5
84
330
82
100
AcDbEntity
  8
SUNPOU
370
    -2
100
AcDbLine
 10
14459.99999999999
 20
13710.0
 30
0.0
 11
15605.99999999999
 21
13710.0
 31
0.0
  0
LINE
  5
85
330
82
100
AcDbEntity
  8
SUNPOU
370
    -2
100
AcDbLine
 10
15569.99999999999
 20
12000.0
 30
0.0
 11
15569.99999999999
 21
13620.0
 31
0.0
  0
MTEXT
  5
86
330
82
100
AcDbEntity
  8
SUNPOU
 62
     0
100
AcDbMText
 10
15404.05869794343
 20
12806.25726232369
 30
0.0
 40
180.0
 41
0.0
 71
     5
 72
     1
  1
\A1;15@120=1800
 11
6.123031769111886E-17
 21
1.0
 31
0.0
 73
     1
 44
1.0
  0
SOLID
  5
87
330
82
100
AcDbEntity
  8
SUNPOU
100
AcDbTrace
 10
15554.99999999999
 20
12000.0
 30
0.0
 11
15584.99999999999
 21
12000.0
 31
0.0
 12
15569.99999999999
 22
11910.0
 32
0.0
 13
15569.99999999999
 23
11910.0
 33
0.0
  0
SOLID
  5
88
330
82
100
AcDbEntity
  8
SUNPOU
100
AcDbTrace
 10
15554.99999999999
 20
13620.0
 30
0.0
 11
15584.99999999999
 21
13620.0
 31
0.0
 12
15569.99999999999
 22
13710.0
 32
0.0
 13
15569.99999999999
 23
13710.0
 33
0.0
  0
POINT
  5
89
330
82
100
AcDbEntity
  8
DEFPOINTS
 62
     0
100
AcDbPoint
 10
14369.99999999999
 20
11910.0
 30
0.0
  0
POINT
  5
8A
330
82
100
AcDbEntity
  8
DEFPOINTS
 62
     0
100
AcDbPoint
 10
14369.99999999999
 20
13710.0
 30
0.0
  0
POINT
  5
8B
330
82
100
AcDbEntity
  8
DEFPOINTS
 62
     0
100
AcDbPoint
 10
15569.99999999999
 20
13710.0
 30
0.0
  0
ENDBLK
  5
8D
330
82
100
AcDbEntity
  8
0
100
AcDbBlockEnd
  0
BLOCK
  5
9A
330
8E
100
AcDbEntity
  8
0
100
AcDbBlockBegin
  2
*D3
 70
     1
 10
0.0
 20
0.0
 30
0.0
  3
*D3
  1

  0
LINE
  5
8F
330
8E
100
AcDbEntity
  8
SUNPOU
370
    -2
100
AcDbLine
 10
14333.74999999999
 20
11805.0
 30
0.0
 11
15605.99999999999
 21
11805.0
 31
0.0
  0
LINE
  5
90
330
8E
100
AcDbEntity
  8
SUNPOU
370
    -2
100
AcDbLine
 10
14489.70588235293
 20
11910.0
 30
0.0
 11
15605.99999999999
 21
11910.0
 31
0.0
  0
LINE
  5
91
330
8E
100
AcDbEntity
  8
SUNPOU
370
    -2
100
AcDbLine
 10
15569.99999999999
 20
11715.0
 30
0.0
 11
15569.99999999999
 21
11625.0
 31
0.0
  0
LINE
  5
92
330
8E
100
AcDbEntity
  8
SUNPOU
370
    -2
100
AcDbLine
 10
15569.99999999999
 20
12000.0
 30
0.0
 11
15569.99999999999
 21
12090.0
 31
0.0
  0
MTEXT
  5
93
330
8E
100
AcDbEntity
  8
SUNPOU
 62
     0
100
AcDbMText
 10
15730.33993097525
 20
11906.05735268755
 30
0.0
 40
180.0
 41
0.0
 71
     5
 72
     1
  1
\A1;105
 11
6.123031769111886E-17
 21
1.0
 31
0.0
 73
     1
 44
1.0
  0
LINE
  5
94
330
8E
100
AcDbEntity
  8
SUNPOU
370
    -2
100
AcDbLine
 10
15569.99999999999
 20
11805.0
 30
0.0
 11
15569.99999999999
 21
11910.0
 31
0.0
  0
SOLID
  5
95
330
8E
100
AcDbEntity
  8
SUNPOU
100
AcDbTrace
 10
15554.99999999999
 20
11715.0
 30
0.0
 11
15584.99999999999
 21
11715.0
 31
0.0
 12
15569.99999999999
 22
11805.0
 32
0.0
 13
15569.99999999999
 23
11805.0
 33
0.0
  0
SOLID
  5
96
330
8E
100
AcDbEntity
  8
SUNPOU
100
AcDbTrace
 10
15554.99999999999
 20
12000.0
 30
0.0
 11
15584.99999999999
 21
12000.0
 31
0.0
 12
15569.99999999999
 22
11910.0
 32
0.0
 13
15569.99999999999
 23
11910.0
 33
0.0
  0
POINT
  5
97
330
8E
100
AcDbEntity
  8
DEFPOINTS
 62
     0
100
AcDbPoint
 10
14243.74999999999
 20
11805.0
 30
0.0
  0
POINT
  5
98
330
8E
100
AcDbEntity
  8
DEFPOINTS
 62
     0
100
AcDbPoint
 10
14399.70588235293
 20
11910.0
 30
0.0
  0
POINT
  5
99
330
8E
100
AcDbEntity
  8
DEFPOINTS
 62
     0
100
AcDbPoint
 10
15569.99999999999
 20
11910.0
 30
0.0
  0
ENDBLK
  5
9B
330
8E
100
AcDbEntity
  8
0
100
AcDbBlockEnd
  0
BLOCK
  5
A8
330
9C
100
AcDbEntity
  8
0
100
AcDbBlockBegin
  2
*D4
 70
     1
 10
0.0
 20
0.0
 30
0.0
  3
*D4
  1

  0
LINE
  5
9D
330
9C
100
AcDbEntity
  8
SUNPOU
370
    -2
100
AcDbLine
 10
14459.99999999999
 20
13710.0
 30
0.0
 11
15605.99999999999
 21
13710.0
 31
0.0
  0
LINE
  5
9E
330
9C
100
AcDbEntity
  8
SUNPOU
370
    -2
100
AcDbLine
 10
14459.99999999999
 20
13770.0
 30
0.0
 11
15605.99999999999
 21
13770.0
 31
0.0
  0
LINE
  5
9F
330
9C
100
AcDbEntity
  8
SUNPOU
370
    -2
100
AcDbLine
 10
15569.99999999999
 20
13620.0
 30
0.0
 11
15569.99999999999
 21
13530.0
 31
0.0
  0
LINE
  5
A0
330
9C
100
AcDbEntity
  8
SUNPOU
370
    -2
100
AcDbLine
 10
15569.99999999999
 20
13860.0
 30
0.0
 11
15569.99999999999
 21
13950.0
 31
0.0
  0
MTEXT
  5
A1
330
9C
100
AcDbEntity
  8
SUNPOU
 62
     0
100
AcDbMText
 10
15437.48050855183
 20
13968.0082924672
 30
0.0
 40
180.0
 41
0.0
 71
     5
 72
     1
  1
\A1;60
 11
6.123031769111886E-17
 21
1.0
 31
0.0
 73
     1
 44
1.0
  0
LINE
  5
A2
330
9C
100
AcDbEntity
  8
SUNPOU
370
    -2
100
AcDbLine
 10
15569.99999999999
 20
13710.0
 30
0.0
 11
15569.99999999999
 21
13770.0
 31
0.0
  0
SOLID
  5
A3
330
9C
100
AcDbEntity
  8
SUNPOU
100
AcDbTrace
 10
15554.99999999999
 20
13620.0
 30
0.0
 11
15584.99999999999
 21
13620.0
 31
0.0
 12
15569.99999999999
 22
13710.0
 32
0.0
 13
15569.99999999999
 23
13710.0
 33
0.0
  0
SOLID
  5
A4
330
9C
100
AcDbEntity
  8
SUNPOU
100
AcDbTrace
 10
15554.99999999999
 20
13860.0
 30
0.0
 11
15584.99999999999
 21
13860.0
 31
0.0
 12
15569.99999999999
 22
13770.0
 32
0.0
 13
15569.99999999999
 23
13770.0
 33
0.0
  0
POINT
  5
A5
330
9C
100
AcDbEntity
  8
DEFPOINTS
 62
     0
100
AcDbPoint
 10
14369.99999999999
 20
13710.0
 30
0.0
  0
POINT
  5
A6
330
9C
100
AcDbEntity
  8
DEFPOINTS
 62
     0
100
AcDbPoint
 10
14369.99999999999
 20
13770.0
 30
0.0
  0
POINT
  5
A7
330
9C
100
AcDbEntity
  8
DEFPOINTS
 62
     0
100
AcDbPoint
 10
15569.99999999999
 20
13770.0
 30
0.0
  0
ENDBLK
  5
A9
330
9C
100
AcDbEntity
  8
0
100
AcDbBlockEnd
  0
BLOCK
  5
B4
330
AA
100
AcDbEntity
  8
0
100
AcDbBlockBegin
  2
*D5
 70
     1
 10
0.0
 20
0.0
 30
0.0
  3
*D5
  1

  0
LINE
  5
AB
330
AA
100
AcDbEntity
  8
SUNPOU
370
    -2
100
AcDbLine
 10
14324.99999999999
 20
11770.0
 30
0.0
 11
15905.99999999999
 21
11770.0
 31
0.0
  0
LINE
  5
AC
330
AA
100
AcDbEntity
  8
SUNPOU
370
    -2
100
AcDbLine
 10
14594.99999999999
 20
13770.0
 30
0.0
 11
15905.99999999999
 21
13770.0
 31
0.0
  0
LINE
  5
AD
330
AA
100
AcDbEntity
  8
SUNPOU
370
    -2
100
AcDbLine
 10
15869.99999999999
 20
11860.0
 30
0.0
 11
15869.99999999999
 21
13680.0
 31
0.0
  0
SOLID
  5
AE
330
AA
100
AcDbEntity
  8
SUNPOU
100
AcDbTrace
 10
15854.99999999999
 20
11860.0
 30
0.0
 11
15884.99999999999
 21
11860.0
 31
0.0
 12
15869.99999999999
 22
11770.0
 32
0.0
 13
15869.99999999999
 23
11770.0
 33
0.0
  0
SOLID
  5
AF
330
AA
100
AcDbEntity
  8
SUNPOU
100
AcDbTrace
 10
15854.99999999999
 20
13680.0
 30
0.0
 11
15884.99999999999
 21
13680.0
 31
0.0
 12
15869.99999999999
 22
13770.0
 32
0.0
 13
15869.99999999999
 23
13770.0
 33
0.0
  0
MTEXT
  5
B0
330
AA
100
AcDbEntity
  8
SUNPOU
 62
     0
100
AcDbMText
 10
15731.99999999999
 20
12770.0
 30
0.0
 40
180.0
 41
0.0
 71
     5
 72
     1
  1
\A1;2000
 11
6.123031769111886E-17
 21
1.0
 31
0.0
 73
     1
 44
1.0
  0
POINT
  5
B1
330
AA
100
AcDbEntity
  8
DEFPOINTS
 62
     0
100
AcDbPoint
 10
14234.99999999999
 20
11770.0
 30
0.0
  0
POINT
  5
B2
330
AA
100
AcDbEntity
  8
DEFPOINTS
 62
     0
100
AcDbPoint
 10
14504.99999999999
 20
13770.0
 30
0.0
  0
POINT
  5
B3
330
AA
100
AcDbEntity
  8
DEFPOINTS
 62
     0
100
AcDbPoint
 10
15869.99999999999
 20
13770.0
 30
0.0
  0
ENDBLK
  5
B5
330
AA
100
AcDbEntity
  8
0
100
AcDbBlockEnd
  0
BLOCK
  5
C1
330
B6
100
AcDbEntity
  8
0
100
AcDbBlockBegin
  2
*D6
 70
     1
 10
0.0
 20
0.0
 30
0.0
  3
*D6
  1

  0
LINE
  5
B7
330
B6
100
AcDbEntity
  8
SUNPOU
 62
     0
370
    -2
100
AcDbLine
 10
14388.74999999999
 20
11805.0
 30
0.0
 11
15629.99999999999
 21
11805.0
 31
0.0
  0
LINE
  5
B8
330
B6
100
AcDbEntity
  8
SUNPOU
 62
     0
370
    -2
100
AcDbLine
 10
14379.99999999999
 20
11770.0
 30
0.0
 11
15629.99999999999
 21
11770.0
 31
0.0
  0
LINE
  5
B9
330
B6
100
AcDbEntity
  8
SUNPOU
 62
     0
370
    -2
100
AcDbLine
 10
15569.99999999999
 20
11895.0
 30
0.0
 11
15569.99999999999
 21
11985.0
 31
0.0
  0
LINE
  5
BA
330
B6
100
AcDbEntity
  8
SUNPOU
 62
     0
370
    -2
100
AcDbLine
 10
15569.99999999999
 20
11680.0
 30
0.0
 11
15569.99999999999
 21
11590.0
 31
0.0
  0
MTEXT
  5
BB
330
B6
100
AcDbEntity
  8
SUNPOU
 62
     0
100
AcDbMText
 10
15422.1488453184
 20
11572.59656658611
 30
0.0
 40
180.0
 41
0.0
 71
     5
 72
     1
  1
\A1;35
 11
6.123031769111886E-17
 21
1.0
 31
0.0
 73
     1
 44
1.0
  0
SOLID
  5
BC
330
B6
100
AcDbEntity
  8
SUNPOU
 62
     0
100
AcDbTrace
 10
15554.99999999999
 20
11895.0
 30
0.0
 11
15584.99999999999
 21
11895.0
 31
0.0
 12
15569.99999999999
 22
11805.0
 32
0.0
 13
15569.99999999999
 23
11805.0
 33
0.0
  0
SOLID
  5
BD
330
B6
100
AcDbEntity
  8
SUNPOU
 62
     0
100
AcDbTrace
 10
15554.99999999999
 20
11680.0
 30
0.0
 11
15584.99999999999
 21
11680.0
 31
0.0
 12
15569.99999999999
 22
11770.0
 32
0.0
 13
15569.99999999999
 23
11770.0
 33
0.0
  0
POINT
  5
BE
330
B6
100
AcDbEntity
  8
DEFPOINTS
 62
     0
100
AcDbPoint
 10
14268.74999999999
 20
11805.0
 30
0.0
  0
POINT
  5
BF
330
B6
100
AcDbEntity
  8
DEFPOINTS
 62
     0
100
AcDbPoint
 10
14259.99999999999
 20
11770.0
 30
0.0
  0
POINT
  5
C0
330
B6
100
AcDbEntity
  8
DEFPOINTS
 62
     0
100
AcDbPoint
 10
15569.99999999999
 20
11770.0
 30
0.0
  0
ENDBLK
  5
C2
330
B6
100
AcDbEntity
  8
0
100
AcDbBlockEnd
  0
BLOCK
  5
169
330
C3
100
AcDbEntity
  8
0
100
AcDbBlockBegin
  2
A$C79F54BAC
 70
     0
 10
0.0
 20
0.0
 30
0.0
  3
A$C79F54BAC
  1

  0
DIMENSION
  5
C4
330
C3
100
AcDbEntity
  8
SUNPOU
100
AcDbDimension
  2
*D2
 10
4229.99998564875
 20
2257.403415746125
 30
0.0
 11
4064.058683592186
 21
1353.660678069813
 31
0.0
 12
-11340.00001435124
 22
-11452.59658425388
 32
0.0
 70
   128
  1
15@120=<>
 71
     5
 42
-1.0
  3
STANDARD
100
AcDbAlignedDimension
 13
3029.99998564875
 23
457.4034157461228
 33
0.0
 14
3029.99998564875
 24
2257.403415746125
 34
0.0
 50
90.0
100
AcDbRotatedDimension
1001
ACAD
1000
DSTYLE
1002
{
1070
   287
1070
     5
1070
   287
1070
     5
1070
   287
1070
     5
1070
   287
1070
     5
1070
   287
1070
     5
1070
   287
1070
     5
1070
   287
1070
     5
1070
   287
1070
     5
1070
    40
1040
60.0
1070
    41
1040
1.5
1070
    42
1040
1.5
1070
    43
1040
7.0
1070
    44
1040
0.6
1070
    73
1070
     0
1070
    74
1070
     0
1070
    77
1070
     1
1070
    78
1070
     8
1070
   140
1040
3.0
1070
   141
1040
0.0
1070
   145
1040
1.0
1070
   147
1040
0.8
1070
   172
1070
     1
1070
   176
1070
   256
1070
   177
1070
   256
1070
   271
1070
     0
1070
   275
1070
     1
1070
   279
1070
     2
1070
   284
1070
     8
1070
   285
1070
     8
1070
   286
1070
     8
1002
}
  0
DIMENSION
  5
C5
330
C3
100
AcDbEntity
  8
SUNPOU
100
AcDbDimension
  2
*D3
 10
4229.99998564875
 20
457.4034157461228
 30
0.0
 11
4390.339916624003
 21
453.4607684336734
 31
0.0
 12
-11340.00001435124
 22
-11452.59658425388
 32
0.0
 70
   128
 71
     5
 42
-1.0
  3
STANDARD
100
AcDbAlignedDimension
 13
2903.74998564875
 23
352.4034157461247
 33
0.0
 14
3059.705868001689
 24
457.4034157461228
 34
0.0
 50
90.0
100
AcDbRotatedDimension
1001
ACAD
1000
DSTYLE
1002
{
1070
   287
1070
     5
1070
   287
1070
     5
1070
   287
1070
     5
1070
   287
1070
     5
1070
   287
1070
     5
1070
   287
1070
     5
1070
   287
1070
     5
1070
   287
1070
     5
1070
    40
1040
60.0
1070
    41
1040
1.5
1070
    42
1040
1.5
1070
    43
1040
7.0
1070
    44
1040
0.6
1070
    73
1070
     0
1070
    74
1070
     0
1070
    77
1070
     1
1070
    78
1070
     8
1070
   140
1040
3.0
1070
   141
1040
0.0
1070
   145
1040
1.0
1070
   147
1040
0.8
1070
   172
1070
     1
1070
   176
1070
   256
1070
   177
1070
   256
1070
   271
1070
     0
1070
   275
1070
     1
1070
   279
1070
     2
1070
   284
1070
     8
1070
   285
1070
     8
1070
   286
1070
     8
1002
}
  0
DIMENSION
  5
C6
330
C3
100
AcDbEntity
  8
SUNPOU
100
AcDbDimension
  2
*D4
 10
4229.99998564875
 20
2317.403415746121
 30
0.0
 11
4097.480494200581
 21
2515.411708213323
 31
0.0
 12
-11340.00001435124
 22
-11452.59658425388
 32
0.0
 70
   128
 71
     5
 42
-1.0
  3
STANDARD
100
AcDbAlignedDimension
 13
3029.99998564875
 23
2257.403415746125
 33
0.0
 14
3029.99998564875
 24
2317.403415746121
 34
0.0
 50
90.0
100
AcDbRotatedDimension
1001
ACAD
1000
DSTYLE
1002
{
1070
   287
1070
     5
1070
   287
1070
     5
1070
   287
1070
     5
1070
   287
1070
     5
1070
   287
1070
     5
1070
   287
1070
     5
1070
   287
1070
     5
1070
   287
1070
     5
1070
    40
1040
60.0
1070
    41
1040
1.5
1070
    42
1040
1.5
1070
    43
1040
7.0
1070
    44
1040
0.6
1070
    73
1070
     0
1070
    74
1070
     0
1070
    77
1070
     1
1070
    78
1070
     8
1070
   140
1040
3.0
1070
   141
1040
0.0
1070
   145
1040
1.0
1070
   147
1040
0.8
1070
   172
1070
     1
1070
   176
1070
   256
1070
   177
1070
   256
1070
   271
1070
     0
1070
   275
1070
     1
1070
   279
1070
     2
1070
   284
1070
     8
1070
   285
1070
     8
1070
   286
1070
     8
1002
}
  0
DIMENSION
  5
C7
330
C3
100
AcDbEntity
  8
SUNPOU
100
AcDbDimension
  2
*D5
 10
4529.99998564875
 20
2317.403415746123
 30
0.0
 11
4391.999985648747
 21
1317.403415746123
 31
0.0
 12
-11340.00001435124
 22
-11452.59658425388
 32
0.0
 71
     5
 42
-1.0
  3
STANDARD
100
AcDbAlignedDimension
 13
2894.99998564875
 23
317.403415746121
 33
0.0
 14
3164.99998564875
 24
2317.403415746123
 34
0.0
 50
90.0
100
AcDbRotatedDimension
1001
ACAD
1000
DSTYLE
1002
{
1070
   287
1070
     5
1070
   287
1070
     5
1070
   287
1070
     5
1070
   287
1070
     5
1070
   287
1070
     5
1070
   287
1070
     5
1070
   287
1070
     5
1070
   287
1070
     5
1070
    40
1040
60.0
1070
    41
1040
1.5
1070
    42
1040
1.5
1070
    43
1040
7.0
1070
    44
1040
0.6
1070
    73
1070
     0
1070
    74
1070
     0
1070
    77
1070
     1
1070
    78
1070
     8
1070
   140
1040
3.0
1070
   141
1040
0.0
1070
   145
1040
1.0
1070
   147
1040
0.8
1070
   172
1070
     1
1070
   176
1070
   256
1070
   177
1070
   256
1070
   271
1070
     0
1070
   275
1070
     1
1070
   279
1070
     2
1070
   284
1070
     8
1070
   285
1070
     8
1070
   286
1070
     8
1002
}
  0
DIMENSION
  5
C8
330
C3
100
AcDbEntity
  8
SUNPOU
100
AcDbDimension
  2
*D6
 10
4229.99998564875
 20
317.403415746121
 30
0.0
 11
4082.14883096716
 21
119.9999823322287
 31
0.0
 12
-11340.00001435124
 22
-11452.59658425388
 32
0.0
 70
   128
 71
     5
 42
-1.0
  3
STANDARD
100
AcDbAlignedDimension
 13
2928.74998564875
 23
352.4034157461247
 33
0.0
 14
2919.99998564875
 24
317.403415746121
 34
0.0
 50
90.0
100
AcDbRotatedDimension
1001
ACAD
1000
DSTYLE
1002
{
1070
   287
1070
     5
1070
   287
1070
     5
1070
   287
1070
     5
1070
   287
1070
     5
1070
   287
1070
     5
1070
   287
1070
     5
1070
   287
1070
     5
1070
   287
1070
     5
1070
    40
1040
60.0
1070
    41
1040
1.5
1070
    42
1040
2.0
1070
    43
1040
3.75
1070
    44
1040
1.0
1070
    73
1070
     0
1070
    74
1070
     0
1070
    77
1070
     1
1070
    78
1070
     8
1070
   140
1040
3.0
1070
   141
1040
2.5
1070
   143
1040
0.0394
1070
   147
1040
1.0
1070
   171
1070
     4
1070
   271
1070
     0
1070
   273
1070
     8
1070
   274
1070
     4
1070
   279
1070
     2
1002
}
  0
LINE
  5
C9
330
C3
100
AcDbEntity
  8
SUNPOU
100
AcDbLine
 10
1679.999985648763
 20
3227.403415746123
 30
0.0
 11
899.9999856487611
 21
3227.403415746123
 31
0.0
1001
ACAD
1000
DSTYLE
1002
{
1070
    78
1070
     8
1070
   284
1070
     8
1070
   140
1040
3.0
1070
   145
1040
1.0
1070
    74
1070
     0
1070
   172
1070
     1
1070
    73
1070
     0
1070
    77
1070
     1
1070
    40
1040
60.0
1070
   147
1040
0.8
1070
   287
1070
     5
1070
    42
1040
1.5
1070
    44
1040
0.6
1070
    43
1040
7.0
1070
   271
1070
     0
1070
   177
1070
   256
1070
   176
1070
   256
1070
   141
1040
0.0
1070
   275
1070
     1
1070
    41
1040
1.5
1070
   285
1070
     8
1070
   286
1070
     8
1002
}
  0
SOLID
  5
CA
330
C3
100
AcDbEntity
  8
SUNPOU
100
AcDbTrace
 10
1216.999985648774
 20
1372.403415746125
 30
0.0
 11
1306.999985648774
 21
1357.403415746123
 31
0.0
 12
1216.999985648774
 22
1342.403415746125
 32
0.0
 13
1216.999985648774
 23
1342.403415746125
 33
0.0
1001
ACAD
1000
DSTYLE
1002
{
1070
    78
1070
     8
1070
   284
1070
     8
1070
   140
1040
3.0
1070
   145
1040
1.0
1070
    74
1070
     0
1070
   172
1070
     1
1070
    73
1070
     0
1070
    77
1070
     1
1070
    40
1040
60.0
1070
   147
1040
0.8
1070
   287
1070
     5
1070
    42
1040
1.5
1070
    44
1040
0.6
1070
    43
1040
7.0
1070
   271
1070
     0
1070
   177
1070
   256
1070
   176
1070
   256
1070
   141
1040
0.0
1070
   275
1070
     1
1070
    41
1040
1.5
1070
   285
1070
     8
1070
   286
1070
     8
1002
}
  0
LINE
  5
CB
330
C3
100
AcDbEntity
  8
SUNPOU
100
AcDbLine
 10
329.9999856487375
 20
1357.403415746123
 30
0.0
 11
1426.999985648756
 21
1357.403415746126
 31
0.0
1001
ACAD
1000
DSTYLE
1002
{
1070
    78
1070
     8
1070
   284
1070
     8
1070
   140
1040
3.0
1070
   145
1040
1.0
1070
    74
1070
     0
1070
   172
1070
     1
1070
    73
1070
     0
1070
    77
1070
     1
1070
    40
1040
60.0
1070
   147
1040
0.8
1070
   287
1070
     5
1070
    42
1040
1.5
1070
    44
1040
0.6
1070
    43
1040
7.0
1070
   271
1070
     0
1070
   177
1070
   256
1070
   176
1070
   256
1070
   141
1040
0.0
1070
   275
1070
     1
1070
    41
1040
1.5
1070
   285
1070
     8
1070
   286
1070
     8
1002
}
  0
LINE
  5
CC
330
C3
100
AcDbEntity
  8
HAIKIN
100
AcDbLine
 10
1979.999985648756
 20
2052.403415746123
 30
0.0
 11
964.9999856487557
 21
2052.403415746117
 31
0.0
  0
LINE
  5
CD
330
C3
100
AcDbEntity
  8
HAIKIN
100
AcDbLine
 10
1979.999985648765
 20
1992.403415746121
 30
0.0
 11
964.9999856487557
 21
1992.403415746117
 31
0.0
  0
LINE
  5
CE
330
C3
100
AcDbEntity
  8
HAIKIN
100
AcDbLine
 10
1979.999985648765
 20
1932.403415746121
 30
0.0
 11
964.9999856487557
 21
1932.403415746117
 31
0.0
  0
LINE
  5
CF
330
C3
100
AcDbEntity
  8
HAIKIN
100
AcDbLine
 10
1979.999985648765
 20
847.4034157461283
 30
0.0
 11
964.9999856487557
 21
847.4034157461247
 31
0.0
  0
LINE
  5
D0
330
C3
100
AcDbEntity
  8
HAIKIN
100
AcDbLine
 10
1979.999985648765
 20
787.4034157461283
 30
0.0
 11
964.9999856487557
 21
787.4034157461247
 31
0.0
  0
LINE
  5
D1
330
C3
100
AcDbEntity
  8
HAIKIN
100
AcDbLine
 10
1979.999985648758
 20
727.4034157461283
 30
0.0
 11
964.9999856487557
 21
727.4034157461247
 31
0.0
  0
LINE
  5
D2
330
C3
100
AcDbEntity
  8
SUNPOU
100
AcDbLine
 10
964.9999856487557
 20
1897.403415746125
 30
0.0
 11
1486.999985648752
 21
1897.403415746121
 31
0.0
  0
LINE
  5
D3
330
C3
100
AcDbEntity
  8
SUNPOU
100
AcDbLine
 10
964.9999856487557
 20
1657.403415746125
 30
0.0
 11
1486.999985648752
 21
1657.403415746121
 31
0.0
  0
LINE
  5
D4
330
C3
100
AcDbEntity
  8
SUNPOU
100
AcDbLine
 10
964.9999856487557
 20
1777.403415746125
 30
0.0
 11
1486.999985648752
 21
1777.403415746123
 31
0.0
  0
LINE
  5
D5
330
C3
100
AcDbEntity
  8
SUNPOU
100
AcDbLine
 10
964.9999856487557
 20
457.4034157461247
 30
0.0
 11
1979.999985648759
 21
457.403415746121
 31
0.0
  0
LINE
  5
D6
330
C3
100
AcDbEntity
  8
SUNPOU
100
AcDbLine
 10
964.9999856487557
 20
817.4034157461247
 30
0.0
 11
1979.999985648759
 21
817.403415746121
 31
0.0
  0
LINE
  5
D7
330
C3
100
AcDbEntity
  8
SUNPOU
100
AcDbLine
 10
964.9999856487557
 20
697.4034157461247
 30
0.0
 11
1979.999985648759
 21
697.403415746121
 31
0.0
  0
LINE
  5
D8
330
C3
100
AcDbEntity
  8
SUNPOU
100
AcDbLine
 10
964.9999856487557
 20
577.4034157461247
 30
0.0
 11
1979.999985648759
 21
577.403415746121
 31
0.0
  0
LINE
  5
D9
330
C3
100
AcDbEntity
  8
SUNPOU
100
AcDbLine
 10
964.9999856487557
 20
937.4034157461247
 30
0.0
 11
1486.999985648752
 21
937.403415746121
 31
0.0
  0
LINE
  5
DA
330
C3
100
AcDbEntity
  8
SUNPOU
100
AcDbLine
 10
964.9999856487557
 20
1057.403415746125
 30
0.0
 11
1486.999985648752
 21
1057.403415746119
 31
0.0
  0
LINE
  5
DB
330
C3
100
AcDbEntity
  8
SUNPOU
100
AcDbLine
 10
964.9999856487557
 20
1177.403415746125
 30
0.0
 11
1486.999985648752
 21
1177.403415746117
 31
0.0
  0
LINE
  5
DC
330
C3
100
AcDbEntity
  8
SUNPOU
100
AcDbLine
 10
964.9999856487557
 20
1297.403415746125
 30
0.0
 11
1486.999985648752
 21
1297.403415746121
 31
0.0
  0
LINE
  5
DD
330
C3
100
AcDbEntity
  8
SUNPOU
100
AcDbLine
 10
964.9999856487557
 20
1417.403415746125
 30
0.0
 11
1486.999985648752
 21
1417.403415746119
 31
0.0
  0
LINE
  5
DE
330
C3
100
AcDbEntity
  8
SUNPOU
100
AcDbLine
 10
964.9999856487557
 20
1537.403415746125
 30
0.0
 11
1486.999985648752
 21
1537.403415746121
 31
0.0
  0
LINE
  5
DF
330
C3
100
AcDbEntity
  8
SUNPOU
100
AcDbLine
 10
964.9999856487557
 20
2017.403415746125
 30
0.0
 11
1979.999985648759
 21
2017.403415746121
 31
0.0
  0
LINE
  5
E0
330
C3
100
AcDbEntity
  8
SUNPOU
100
AcDbLine
 10
964.9999856487557
 20
2137.403415746125
 30
0.0
 11
1979.999985648759
 21
2137.403415746121
 31
0.0
  0
LINE
  5
E1
330
C3
100
AcDbEntity
  8
SUNPOU
100
AcDbLine
 10
964.9999856487557
 20
2257.403415746125
 30
0.0
 11
1979.999985648759
 21
2257.403415746121
 31
0.0
  0
LINE
  5
E2
330
C3
100
AcDbEntity
  8
SUNPOU
100
AcDbLine
 10
964.9999856487557
 20
2362.403415746125
 30
0.0
 11
1979.999985648759
 21
2362.403415746121
 31
0.0
  0
TEXT
  5
E3
330
C3
100
AcDbEntity
  8
HAIKIN
 62
     3
100
AcDbText
 10
1009.999985648752
 20
4617.403415746125
 30
0.0
 40
240.0
  1
頂　版
 72
     1
 11
1409.999985648752
 21
4617.403415746125
 31
0.0
100
AcDbText
  0
TEXT
  5
E4
330
C3
100
AcDbEntity
  8
SUNPOU
100
AcDbText
 10
1019.999985648756
 20
4105.403415746121
 30
0.0
 40
210.0
  1
外　側
 11
1019.999985648756
 21
4077.403415746121
 31
0.0
100
AcDbText
 73
     1
  0
LINE
  5
E5
330
C3
100
AcDbEntity
  8
SUNPOU
100
AcDbLine
 10
1019.999985648752
 20
317.4034157461247
 30
0.0
 11
1979.999985648759
 21
317.403415746121
 31
0.0
  0
LINE
  5
E6
330
C3
100
AcDbEntity
  8
SUNPOU
100
AcDbLine
 10
929.999985648752
 20
397.403415746121
 30
0.0
 11
1979.999985648759
 21
397.403415746121
 31
0.0
  0
LINE
  5
E7
330
C3
100
AcDbEntity
  8
SUNPOU
100
AcDbLine
 10
929.999985648752
 20
2397.403415746123
 30
0.0
 11
1979.999985648759
 21
2397.403415746121
 31
0.0
  0
LINE
  5
E8
330
C3
100
AcDbEntity
  8
SUNPOU
100
AcDbLine
 10
1019.999985648756
 20
4077.403415746121
 30
0.0
 11
2939.999985648754
 21
4077.403415746121
 31
0.0
  0
LINE
  5
E9
330
C3
100
AcDbEntity
  8
HAIKIN
 62
     3
100
AcDbLine
 10
1889.999985648752
 20
4887.403415746125
 30
0.0
 11
929.999985648752
 21
4887.403415746125
 31
0.0
  0
LINE
  5
EA
330
C3
100
AcDbEntity
  8
HAIKIN
 62
     3
100
AcDbLine
 10
1889.999985648752
 20
4587.403415746125
 30
0.0
 11
929.999985648752
 21
4587.403415746125
 31
0.0
  0
TEXT
  5
EB
330
C3
100
AcDbEntity
  8
SUNPOU
100
AcDbText
 10
762.4999856487557
 20
2907.403415746125
 30
0.0
 40
150.0
  1
D13
 41
0.8
 11
762.4999856487557
 21
2982.403415746125
 31
0.0
100
AcDbText
 73
     2
  0
TEXT
  5
EC
330
C3
100
AcDbEntity
  8
SUNPOU
100
AcDbText
 10
457.4999856487557
 20
2907.403415746125
 30
0.0
 40
150.0
  1
H1
 41
0.8
 72
     4
 11
537.4999856487557
 21
2982.403415746125
 31
0.0
100
AcDbText
  0
CIRCLE
  5
ED
330
C3
100
AcDbEntity
  8
SUNPOU
100
AcDbCircle
 10
537.4999856487557
 20
2982.403415746125
 30
0.0
 40
165.0
  0
TEXT
  5
EE
330
C3
100
AcDbEntity
  8
SUNPOU
100
AcDbText
 10
239.9999856487393
 20
1437.403415746128
 30
0.0
 40
150.0
  1
H2
 50
90.0
 41
0.8
 72
     4
 11
164.9999856487393
 21
1537.403415746128
 31
0.0
100
AcDbText
  0
LINE
  5
EF
330
C3
100
AcDbEntity
  8
SUNPOU
100
AcDbLine
 10
1137.499985648754
 20
727.4034157461247
 30
0.0
 11
1137.499985648756
 21
2817.403415746125
 31
0.0
1001
ACAD
1000
DSTYLE
1002
{
1070
    78
1070
     8
1070
   284
1070
     8
1070
   140
1040
3.0
1070
   145
1040
1.0
1070
    74
1070
     0
1070
   172
1070
     1
1070
    73
1070
     0
1070
    77
1070
     1
1070
    40
1040
60.0
1070
   147
1040
0.8
1070
   287
1070
     5
1070
    42
1040
1.5
1070
    44
1040
0.6
1070
    43
1040
7.0
1070
   271
1070
     0
1070
   177
1070
   256
1070
   176
1070
   256
1070
   141
1040
0.0
1070
   275
1070
     1
1070
    41
1040
1.5
1070
   285
1070
     8
1070
   286
1070
     8
1002
}
  0
LINE
  5
F0
330
C3
100
AcDbEntity
  8
SUNPOU
100
AcDbLine
 10
1044.999985648752
 20
2362.403415746125
 30
0.0
 11
1044.999985648756
 21
457.4034157461265
 31
0.0
  0
LINE
  5
F1
330
C3
100
AcDbEntity
  8
SUNPOU
100
AcDbLine
 10
1229.999985648759
 20
2362.403415746123
 30
0.0
 11
1229.999985648763
 21
457.4034157461228
 31
0.0
  0
LINE
  5
F2
330
C3
100
AcDbEntity
  8
SUNPOU
100
AcDbLine
 10
329.9999856487393
 20
2137.403415746126
 30
0.0
 11
329.9999856487393
 21
1357.403415746128
 31
0.0
1001
ACAD
1000
DSTYLE
1002
{
1070
    78
1070
     8
1070
   284
1070
     8
1070
   140
1040
3.0
1070
   145
1040
1.0
1070
    74
1070
     0
1070
   172
1070
     1
1070
    73
1070
     0
1070
    77
1070
     1
1070
    40
1040
60.0
1070
   147
1040
0.8
1070
   287
1070
     5
1070
    42
1040
1.5
1070
    44
1040
0.6
1070
    43
1040
7.0
1070
   271
1070
     0
1070
   177
1070
   256
1070
   176
1070
   256
1070
   141
1040
0.0
1070
   275
1070
     1
1070
    41
1040
1.5
1070
   285
1070
     8
1070
   286
1070
     8
1002
}
  0
CIRCLE
  5
F3
330
C3
100
AcDbEntity
  8
SUNPOU
100
AcDbCircle
 10
164.9999856487393
 20
1537.403415746128
 30
0.0
 40
165.0
  0
LINE
  5
F4
330
C3
100
AcDbEntity
  8
SUNPOU
100
AcDbLine
 10
929.999985648752
 20
2397.403415746126
 30
0.0
 11
929.999985648752
 21
397.4034157461247
 31
0.0
  0
LINE
  5
F5
330
C3
100
AcDbEntity
  8
SUNPOU
100
AcDbLine
 10
999.999985648752
 20
397.4034157461247
 30
0.0
 11
1019.999985648752
 21
317.4034157461301
 31
0.0
  0
SOLID
  5
F6
330
C3
100
AcDbEntity
  8
SUNPOU
100
AcDbTrace
 10
1152.499985648758
 20
937.4034157461138
 30
0.0
 11
1137.499985648758
 21
847.4034157461138
 31
0.0
 12
1122.499985648756
 22
937.4034157461138
 32
0.0
 13
1122.499985648756
 23
937.4034157461138
 33
0.0
1001
ACAD
1000
DSTYLE
1002
{
1070
    78
1070
     8
1070
   284
1070
     8
1070
   140
1040
3.0
1070
   145
1040
1.0
1070
    74
1070
     0
1070
   172
1070
     1
1070
    73
1070
     0
1070
    77
1070
     1
1070
    40
1040
60.0
1070
   147
1040
0.8
1070
   287
1070
     5
1070
    42
1040
1.5
1070
    44
1040
0.6
1070
    43
1040
7.0
1070
   271
1070
     0
1070
   177
1070
   256
1070
   176
1070
   256
1070
   141
1040
0.0
1070
   275
1070
     1
1070
    41
1040
1.5
1070
   285
1070
     8
1070
   286
1070
     8
1002
}
  0
SOLID
  5
F7
330
C3
100
AcDbEntity
  8
SUNPOU
100
AcDbTrace
 10
1152.499985648758
 20
817.4034157461356
 30
0.0
 11
1137.499985648758
 21
727.4034157461356
 31
0.0
 12
1122.499985648756
 22
817.4034157461356
 32
0.0
 13
1122.499985648756
 23
817.4034157461356
 33
0.0
1001
ACAD
1000
DSTYLE
1002
{
1070
    78
1070
     8
1070
   284
1070
     8
1070
   140
1040
3.0
1070
   145
1040
1.0
1070
    74
1070
     0
1070
   172
1070
     1
1070
    73
1070
     0
1070
    77
1070
     1
1070
    40
1040
60.0
1070
   147
1040
0.8
1070
   287
1070
     5
1070
    42
1040
1.5
1070
    44
1040
0.6
1070
    43
1040
7.0
1070
   271
1070
     0
1070
   177
1070
   256
1070
   176
1070
   256
1070
   141
1040
0.0
1070
   275
1070
     1
1070
    41
1040
1.5
1070
   285
1070
     8
1070
   286
1070
     8
1002
}
  0
SOLID
  5
F8
330
C3
100
AcDbEntity
  8
SUNPOU
100
AcDbTrace
 10
1152.499985648754
 20
877.4034157461301
 30
0.0
 11
1137.499985648754
 21
787.4034157461301
 31
0.0
 12
1122.499985648752
 22
877.4034157461301
 32
0.0
 13
1122.499985648752
 23
877.4034157461301
 33
0.0
1001
ACAD
1000
DSTYLE
1002
{
1070
    78
1070
     8
1070
   284
1070
     8
1070
   140
1040
3.0
1070
   145
1040
1.0
1070
    74
1070
     0
1070
   172
1070
     1
1070
    73
1070
     0
1070
    77
1070
     1
1070
    40
1040
60.0
1070
   147
1040
0.8
1070
   287
1070
     5
1070
    42
1040
1.5
1070
    44
1040
0.6
1070
    43
1040
7.0
1070
   271
1070
     0
1070
   177
1070
   256
1070
   176
1070
   256
1070
   141
1040
0.0
1070
   275
1070
     1
1070
    41
1040
1.5
1070
   285
1070
     8
1070
   286
1070
     8
1002
}
  0
TEXT
  5
F9
330
C3
100
AcDbEntity
  8
SUNPOU
100
AcDbText
 10
239.9999856487393
 20
1762.40341574613
 30
0.0
 40
150.0
  1
D13
 50
90.0
 41
0.8
 11
164.9999856487393
 21
1762.40341574613
 31
0.0
100
AcDbText
 73
     2
  0
SOLID
  5
FA
330
C3
100
AcDbEntity
  8
SUNPOU
100
AcDbTrace
 10
1152.499985648756
 20
2022.403415746117
 30
0.0
 11
1137.499985648756
 21
1932.403415746117
 31
0.0
 12
1122.499985648756
 22
2022.403415746117
 32
0.0
 13
1122.499985648756
 23
2022.403415746117
 33
0.0
1001
ACAD
1000
DSTYLE
1002
{
1070
    78
1070
     8
1070
   284
1070
     8
1070
   140
1040
3.0
1070
   145
1040
1.0
1070
    74
1070
     0
1070
   172
1070
     1
1070
    73
1070
     0
1070
    77
1070
     1
1070
    40
1040
60.0
1070
   147
1040
0.8
1070
   287
1070
     5
1070
    42
1040
1.5
1070
    44
1040
0.6
1070
    43
1040
7.0
1070
   271
1070
     0
1070
   177
1070
   256
1070
   176
1070
   256
1070
   141
1040
0.0
1070
   275
1070
     1
1070
    41
1040
1.5
1070
   285
1070
     8
1070
   286
1070
     8
1002
}
  0
SOLID
  5
FB
330
C3
100
AcDbEntity
  8
SUNPOU
100
AcDbTrace
 10
1152.499985648756
 20
2082.403415746117
 30
0.0
 11
1137.499985648756
 21
1992.403415746117
 31
0.0
 12
1122.499985648756
 22
2082.403415746117
 32
0.0
 13
1122.499985648756
 23
2082.403415746117
 33
0.0
1001
ACAD
1000
DSTYLE
1002
{
1070
    78
1070
     8
1070
   284
1070
     8
1070
   140
1040
3.0
1070
   145
1040
1.0
1070
    74
1070
     0
1070
   172
1070
     1
1070
    73
1070
     0
1070
    77
1070
     1
1070
    40
1040
60.0
1070
   147
1040
0.8
1070
   287
1070
     5
1070
    42
1040
1.5
1070
    44
1040
0.6
1070
    43
1040
7.0
1070
   271
1070
     0
1070
   177
1070
   256
1070
   176
1070
   256
1070
   141
1040
0.0
1070
   275
1070
     1
1070
    41
1040
1.5
1070
   285
1070
     8
1070
   286
1070
     8
1002
}
  0
SOLID
  5
FC
330
C3
100
AcDbEntity
  8
SUNPOU
100
AcDbTrace
 10
1152.499985648756
 20
2142.403415746119
 30
0.0
 11
1137.499985648756
 21
2052.403415746119
 31
0.0
 12
1122.499985648756
 22
2142.403415746119
 32
0.0
 13
1122.499985648756
 23
2142.403415746119
 33
0.0
1001
ACAD
1000
DSTYLE
1002
{
1070
    78
1070
     8
1070
   284
1070
     8
1070
   140
1040
3.0
1070
   145
1040
1.0
1070
    74
1070
     0
1070
   172
1070
     1
1070
    73
1070
     0
1070
    77
1070
     1
1070
    40
1040
60.0
1070
   147
1040
0.8
1070
   287
1070
     5
1070
    42
1040
1.5
1070
    44
1040
0.6
1070
    43
1040
7.0
1070
   271
1070
     0
1070
   177
1070
   256
1070
   176
1070
   256
1070
   141
1040
0.0
1070
   275
1070
     1
1070
    41
1040
1.5
1070
   285
1070
     8
1070
   286
1070
     8
1002
}
  0
LINE
  5
FD
330
C3
100
AcDbEntity
  8
SUNPOU
100
AcDbLine
 10
1137.499985648756
 20
2817.403415746125
 30
0.0
 11
357.4999856487557
 21
2817.403415746125
 31
0.0
1001
ACAD
1000
DSTYLE
1002
{
1070
    78
1070
     8
1070
   284
1070
     8
1070
   140
1040
3.0
1070
   145
1040
1.0
1070
    74
1070
     0
1070
   172
1070
     1
1070
    73
1070
     0
1070
    77
1070
     1
1070
    40
1040
60.0
1070
   147
1040
0.8
1070
   287
1070
     5
1070
    42
1040
1.5
1070
    44
1040
0.6
1070
    43
1040
7.0
1070
   271
1070
     0
1070
   177
1070
   256
1070
   176
1070
   256
1070
   141
1040
0.0
1070
   275
1070
     1
1070
    41
1040
1.5
1070
   285
1070
     8
1070
   286
1070
     8
1002
}
  0
TEXT
  5
FE
330
C3
100
AcDbEntity
  8
SUNPOU
100
AcDbText
 10
979.9999856487611
 20
3317.403415746123
 30
0.0
 40
150.0
  1
H3
 41
0.8
 72
     4
 11
1079.999985648761
 21
3392.403415746123
 31
0.0
100
AcDbText
  0
CIRCLE
  5
FF
330
C3
100
AcDbEntity
  8
SUNPOU
100
AcDbCircle
 10
1079.999985648761
 20
3392.403415746123
 30
0.0
 40
165.0
  0
LINE
  5
100
330
C3
100
AcDbEntity
  8
HAIKIN
 62
     3
100
AcDbLine
 10
929.999985648752
 20
4587.403415746125
 30
0.0
 11
929.999985648752
 21
4887.403415746125
 31
0.0
  0
TEXT
  5
101
330
C3
100
AcDbEntity
  8
SUNPOU
100
AcDbText
 10
3194.999985648759
 20
2907.403415746125
 30
0.0
 40
150.0
  1
D13
 41
0.8
 11
3194.999985648759
 21
2982.403415746125
 31
0.0
100
AcDbText
 73
     2
  0
TEXT
  5
102
330
C3
100
AcDbEntity
  8
SUNPOU
100
AcDbText
 10
2889.999985648759
 20
2907.403415746125
 30
0.0
 40
150.0
  1
H1
 41
0.8
 72
     4
 11
2969.999985648759
 21
2982.403415746125
 31
0.0
100
AcDbText
  0
LINE
  5
103
330
C3
100
AcDbEntity
  8
SUNPOU
100
AcDbLine
 10
1679.999985648761
 20
1890.403415746132
 30
0.0
 11
1679.999985648763
 21
3227.403415746123
 31
0.0
1001
ACAD
1000
DSTYLE
1002
{
1070
    78
1070
     8
1070
   284
1070
     8
1070
   140
1040
3.0
1070
   145
1040
1.0
1070
    74
1070
     0
1070
   172
1070
     1
1070
    73
1070
     0
1070
    77
1070
     1
1070
    40
1040
60.0
1070
   147
1040
0.8
1070
   287
1070
     5
1070
    42
1040
1.5
1070
    44
1040
0.6
1070
    43
1040
7.0
1070
   271
1070
     0
1070
   177
1070
   256
1070
   176
1070
   256
1070
   141
1040
0.0
1070
   275
1070
     1
1070
    41
1040
1.5
1070
   285
1070
     8
1070
   286
1070
     8
1002
}
  0
LINE
  5
104
330
C3
100
AcDbEntity
  8
SUNPOU
100
AcDbLine
 10
2279.999985648761
 20
1827.403415746126
 30
0.0
 11
2279.999985648759
 21
3227.403415746123
 31
0.0
1001
ACAD
1000
DSTYLE
1002
{
1070
    78
1070
     8
1070
   284
1070
     8
1070
   140
1040
3.0
1070
   145
1040
1.0
1070
    74
1070
     0
1070
   172
1070
     1
1070
    73
1070
     0
1070
    77
1070
     1
1070
    40
1040
60.0
1070
   147
1040
0.8
1070
   287
1070
     5
1070
    42
1040
1.5
1070
    44
1040
0.6
1070
    43
1040
7.0
1070
   271
1070
     0
1070
   177
1070
   256
1070
   176
1070
   256
1070
   141
1040
0.0
1070
   275
1070
     1
1070
    41
1040
1.5
1070
   285
1070
     8
1070
   286
1070
     8
1002
}
  0
CIRCLE
  5
105
330
C3
100
AcDbEntity
  8
SUNPOU
100
AcDbCircle
 10
2969.999985648759
 20
2982.403415746125
 30
0.0
 40
165.0
  0
LINE
  5
106
330
C3
100
AcDbEntity
  8
1HASEN
100
AcDbLine
 10
1979.999985648754
 20
4077.403415746121
 30
0.0
 11
1979.999985648759
 21
17.40341574611921
 31
0.0
  0
TEXT
  5
107
330
C3
100
AcDbEntity
  8
SUNPOU
100
AcDbText
 10
3359.999985648745
 20
1762.403415746126
 30
0.0
 40
150.0
  1
D13
 50
90.0
 41
0.8
 11
3284.999985648745
 21
1762.403415746126
 31
0.0
100
AcDbText
 73
     2
  0
TEXT
  5
108
330
C3
100
AcDbEntity
  8
SUNPOU
100
AcDbText
 10
3359.999985648745
 20
1437.403415746125
 30
0.0
 40
150.0
  1
H2
 50
90.0
 41
0.8
 72
     4
 11
3284.999985648745
 21
1537.403415746125
 31
0.0
100
AcDbText
  0
LINE
  5
109
330
C3
100
AcDbEntity
  8
SUNPOU
100
AcDbLine
 10
2789.999985648759
 20
2817.403415746125
 30
0.0
 11
3569.999985648759
 21
2817.403415746125
 31
0.0
1001
ACAD
1000
DSTYLE
1002
{
1070
    78
1070
     8
1070
   284
1070
     8
1070
   140
1040
3.0
1070
   145
1040
1.0
1070
    74
1070
     0
1070
   172
1070
     1
1070
    73
1070
     0
1070
    77
1070
     1
1070
    40
1040
60.0
1070
   147
1040
0.8
1070
   287
1070
     5
1070
    42
1040
1.5
1070
    44
1040
0.6
1070
    43
1040
7.0
1070
   271
1070
     0
1070
   177
1070
   256
1070
   176
1070
   256
1070
   141
1040
0.0
1070
   275
1070
     1
1070
    41
1040
1.5
1070
   285
1070
     8
1070
   286
1070
     8
1002
}
  0
LINE
  5
10A
330
C3
100
AcDbEntity
  8
SUNPOU
100
AcDbLine
 10
2429.999985648759
 20
1357.403415746125
 30
0.0
 11
3449.999985648745
 21
1357.403415746123
 31
0.0
1001
ACAD
1000
DSTYLE
1002
{
1070
    78
1070
     8
1070
   284
1070
     8
1070
   140
1040
3.0
1070
   145
1040
1.0
1070
    74
1070
     0
1070
   172
1070
     1
1070
    73
1070
     0
1070
    77
1070
     1
1070
    40
1040
60.0
1070
   147
1040
0.8
1070
   287
1070
     5
1070
    42
1040
1.5
1070
    44
1040
0.6
1070
    43
1040
7.0
1070
   271
1070
     0
1070
   177
1070
   256
1070
   176
1070
   256
1070
   141
1040
0.0
1070
   275
1070
     1
1070
    41
1040
1.5
1070
   285
1070
     8
1070
   286
1070
     8
1002
}
  0
CIRCLE
  5
10B
330
C3
100
AcDbEntity
  8
SUNPOU
100
AcDbCircle
 10
3284.999985648745
 20
1537.403415746125
 30
0.0
 40
165.0
  0
LINE
  5
10C
330
C3
100
AcDbEntity
  8
HAIKIN
100
AcDbLine
 10
1486.99998564875
 20
939.4034157461192
 30
0.0
 11
1486.99998564875
 21
1855.403415746132
 31
0.0
  0
LINE
  5
10D
330
C3
100
AcDbEntity
  8
HAIKIN
100
AcDbLine
 10
2409.999985648758
 20
1792.403415746126
 30
0.0
 11
2409.999985648759
 21
1002.403415746126
 31
0.0
  0
LINE
  5
10E
330
C3
100
AcDbEntity
  8
SUNPOU
100
AcDbLine
 10
2789.999985648759
 20
787.4034157461319
 30
0.0
 11
2789.999985648759
 21
2817.403415746125
 31
0.0
1001
ACAD
1000
DSTYLE
1002
{
1070
    78
1070
     8
1070
   284
1070
     8
1070
   140
1040
3.0
1070
   145
1040
1.0
1070
    74
1070
     0
1070
   172
1070
     1
1070
    73
1070
     0
1070
    77
1070
     1
1070
    40
1040
60.0
1070
   147
1040
0.8
1070
   287
1070
     5
1070
    42
1040
1.5
1070
    44
1040
0.6
1070
    43
1040
7.0
1070
   271
1070
     0
1070
   177
1070
   256
1070
   176
1070
   256
1070
   141
1040
0.0
1070
   275
1070
     1
1070
    41
1040
1.5
1070
   285
1070
     8
1070
   286
1070
     8
1002
}
  0
LINE
  5
10F
330
C3
100
AcDbEntity
  8
HAIKIN
100
AcDbLine
 10
2469.999985648758
 20
352.4034157461247
 30
0.0
 11
2469.999985648758
 21
2257.403415746121
 31
0.0
  0
LINE
  5
110
330
C3
100
AcDbEntity
  8
HAIKIN
100
AcDbLine
 10
2529.999985648759
 20
352.4034157461247
 30
0.0
 11
2529.999985648759
 21
2257.403415746121
 31
0.0
  0
LINE
  5
111
330
C3
100
AcDbEntity
  8
HAIKIN
100
AcDbLine
 10
2589.999985648761
 20
352.4034157461247
 30
0.0
 11
2589.999985648758
 21
2257.403415746121
 31
0.0
  0
LINE
  5
112
330
C3
100
AcDbEntity
  8
HAIKIN
100
AcDbLine
 10
1426.999985648754
 20
457.4034157461228
 30
0.0
 11
1426.999985648752
 21
2362.403415746123
 31
0.0
  0
LINE
  5
113
330
C3
100
AcDbEntity
  8
HAIKIN
100
AcDbLine
 10
1366.999985648756
 20
457.4034157461228
 30
0.0
 11
1366.999985648748
 21
2362.403415746123
 31
0.0
  0
LINE
  5
114
330
C3
100
AcDbEntity
  8
HAIKIN
100
AcDbLine
 10
1306.999985648754
 20
457.4034157461228
 30
0.0
 11
1306.999985648748
 21
2362.403415746123
 31
0.0
  0
LINE
  5
115
330
C3
100
AcDbEntity
  8
SUNPOU
100
AcDbLine
 10
2914.99998564875
 20
2257.403415746121
 30
0.0
 11
2914.99998564875
 21
352.4034157461265
 31
0.0
  0
LINE
  5
116
330
C3
100
AcDbEntity
  8
SUNPOU
100
AcDbLine
 10
2729.999985648759
 20
2257.403415746121
 30
0.0
 11
2729.999985648759
 21
352.4034157461228
 31
0.0
  0
LINE
  5
117
330
C3
100
AcDbEntity
  8
SUNPOU
100
AcDbLine
 10
2429.999985648759
 20
2257.403415746121
 30
0.0
 11
2429.999985648758
 21
352.403415746121
 31
0.0
  0
LINE
  5
118
330
C3
100
AcDbEntity
  8
SUNPOU
100
AcDbLine
 10
2379.999985648758
 20
1797.403415746126
 30
0.0
 11
2379.999985648758
 21
997.4034157461265
 31
0.0
  0
LINE
  5
119
330
C3
100
AcDbEntity
  8
SUNPOU
100
AcDbLine
 10
3029.99998564875
 20
2397.403415746121
 30
0.0
 11
3029.99998564875
 21
397.403415746121
 31
0.0
  0
LINE
  5
11A
330
C3
100
AcDbEntity
  8
SUNPOU
100
AcDbLine
 10
1516.999985648752
 20
934.403415746121
 30
0.0
 11
1516.999985648752
 21
1860.403415746126
 31
0.0
  0
LINE
  5
11B
330
C3
100
AcDbEntity
  8
SUNPOU
100
AcDbLine
 10
1579.999985648756
 20
1797.403415746126
 30
0.0
 11
1579.999985648758
 21
997.4034157461265
 31
0.0
  0
LINE
  5
11C
330
C3
100
AcDbEntity
  8
HAIKIN
100
AcDbLine
 10
2374.999985648759
 20
967.4034157461265
 30
0.0
 11
1979.999985648752
 21
967.4034157461265
 31
0.0
  0
LINE
  5
11D
330
C3
100
AcDbEntity
  8
HAIKIN
100
AcDbLine
 10
2994.999985648774
 20
787.4034157461319
 30
0.0
 11
1979.999985648759
 21
787.4034157461283
 31
0.0
  0
LINE
  5
11E
330
C3
100
AcDbEntity
  8
HAIKIN
100
AcDbLine
 10
2994.999985648774
 20
847.4034157461319
 30
0.0
 11
1979.999985648758
 21
847.4034157461283
 31
0.0
  0
LINE
  5
11F
330
C3
100
AcDbEntity
  8
HAIKIN
100
AcDbLine
 10
2994.999985648774
 20
907.4034157461319
 30
0.0
 11
1979.999985648759
 21
907.4034157461283
 31
0.0
  0
LINE
  5
120
330
C3
100
AcDbEntity
  8
SUNPOU
100
AcDbLine
 10
2914.99998564875
 20
352.4034157461265
 30
0.0
 11
1979.999985648759
 21
352.403415746121
 31
0.0
  0
LINE
  5
121
330
C3
100
AcDbEntity
  8
SUNPOU
100
AcDbLine
 10
2994.999985648774
 20
457.4034157461247
 30
0.0
 11
1979.999985648759
 21
457.403415746121
 31
0.0
  0
LINE
  5
122
330
C3
100
AcDbEntity
  8
SUNPOU
100
AcDbLine
 10
2994.999985648774
 20
937.4034157461247
 30
0.0
 11
1979.999985648759
 21
937.403415746121
 31
0.0
  0
LINE
  5
123
330
C3
100
AcDbEntity
  8
SUNPOU
100
AcDbLine
 10
2994.999985648774
 20
817.4034157461247
 30
0.0
 11
1979.999985648759
 21
817.403415746121
 31
0.0
  0
LINE
  5
124
330
C3
100
AcDbEntity
  8
SUNPOU
100
AcDbLine
 10
2994.999985648774
 20
697.4034157461247
 30
0.0
 11
1979.999985648759
 21
697.403415746121
 31
0.0
  0
LINE
  5
125
330
C3
100
AcDbEntity
  8
SUNPOU
100
AcDbLine
 10
2994.999985648774
 20
577.4034157461247
 30
0.0
 11
1979.999985648759
 21
577.403415746121
 31
0.0
  0
LINE
  5
126
330
C3
100
AcDbEntity
  8
SUNPOU
100
AcDbLine
 10
2939.99998564875
 20
317.4034157461247
 30
0.0
 11
1963.628976814191
 21
317.403415746121
 31
0.0
  0
LINE
  5
127
330
C3
100
AcDbEntity
  8
1HASEN
100
AcDbLine
 10
1379.999985648756
 20
1397.403415746126
 30
0.0
 11
2579.999985648758
 21
1397.403415746126
 31
0.0
  0
LINE
  5
128
330
C3
100
AcDbEntity
  8
SUNPOU
100
AcDbLine
 10
2379.999985648758
 20
997.4034157461265
 30
0.0
 11
1579.999985648758
 21
997.4034157461265
 31
0.0
  0
ARC
  5
129
330
C3
100
AcDbEntity
  8
HAIKIN
100
AcDbCircle
 10
1521.99998564875
 20
939.4034157461192
 30
0.0
 40
35.0
100
AcDbArc
 50
180.0
 51
270.0
  0
LINE
  5
12A
330
C3
100
AcDbEntity
  8
SUNPOU
100
AcDbLine
 10
2129.999985648758
 20
967.4034157461283
 30
0.0
 11
2129.999985648759
 21
352.4034157461192
 31
0.0
  0
LINE
  5
12B
330
C3
100
AcDbEntity
  8
HAIKIN
100
AcDbLine
 10
1521.99998564875
 20
904.4034157461192
 30
0.0
 11
1979.999985648758
 21
904.4034157461228
 31
0.0
  0
LINE
  5
12C
330
C3
100
AcDbEntity
  8
SUNPOU
100
AcDbLine
 10
1516.999985648752
 20
934.403415746121
 30
0.0
 11
1979.999985648758
 21
934.4034157461228
 31
0.0
  0
LINE
  5
12D
330
C3
100
AcDbEntity
  8
SUNPOU
100
AcDbLine
 10
1529.999985648765
 20
904.403415746121
 30
0.0
 11
1529.999985648767
 21
457.4034157461247
 31
0.0
  0
LINE
  5
12E
330
C3
100
AcDbEntity
  8
SUNPOU
100
AcDbLine
 10
1829.999985648759
 20
904.4034157461228
 30
0.0
 11
1829.999985648759
 21
457.4034157461192
 31
0.0
  0
SOLID
  5
12F
330
C3
100
AcDbEntity
  8
SUNPOU
100
AcDbTrace
 10
1276.999985648759
 20
1372.403415746128
 30
0.0
 11
1366.999985648759
 21
1357.403415746128
 31
0.0
 12
1276.999985648759
 22
1342.403415746128
 32
0.0
 13
1276.999985648759
 23
1342.403415746128
 33
0.0
1001
ACAD
1000
DSTYLE
1002
{
1070
    78
1070
     8
1070
   284
1070
     8
1070
   140
1040
3.0
1070
   145
1040
1.0
1070
    74
1070
     0
1070
   172
1070
     1
1070
    73
1070
     0
1070
    77
1070
     1
1070
    40
1040
60.0
1070
   147
1040
0.8
1070
   287
1070
     5
1070
    42
1040
1.5
1070
    44
1040
0.6
1070
    43
1040
7.0
1070
   271
1070
     0
1070
   177
1070
   256
1070
   176
1070
   256
1070
   141
1040
0.0
1070
   275
1070
     1
1070
    41
1040
1.5
1070
   285
1070
     8
1070
   286
1070
     8
1002
}
  0
SOLID
  5
130
330
C3
100
AcDbEntity
  8
SUNPOU
100
AcDbTrace
 10
1336.99998564877
 20
1372.403415746125
 30
0.0
 11
1426.99998564877
 21
1357.403415746123
 31
0.0
 12
1336.99998564877
 22
1342.403415746125
 32
0.0
 13
1336.99998564877
 23
1342.403415746125
 33
0.0
1001
ACAD
1000
DSTYLE
1002
{
1070
    78
1070
     8
1070
   284
1070
     8
1070
   140
1040
3.0
1070
   145
1040
1.0
1070
    74
1070
     0
1070
   172
1070
     1
1070
    73
1070
     0
1070
    77
1070
     1
1070
    40
1040
60.0
1070
   147
1040
0.8
1070
   287
1070
     5
1070
    42
1040
1.5
1070
    44
1040
0.6
1070
    43
1040
7.0
1070
   271
1070
     0
1070
   177
1070
   256
1070
   176
1070
   256
1070
   141
1040
0.0
1070
   275
1070
     1
1070
    41
1040
1.5
1070
   285
1070
     8
1070
   286
1070
     8
1002
}
  0
SOLID
  5
131
330
C3
100
AcDbEntity
  8
SUNPOU
100
AcDbTrace
 10
2804.999985648759
 20
997.4034157461319
 30
0.0
 11
2789.999985648759
 21
907.4034157461319
 31
0.0
 12
2774.999985648759
 22
997.4034157461319
 32
0.0
 13
2774.999985648759
 23
997.4034157461319
 33
0.0
1001
ACAD
1000
DSTYLE
1002
{
1070
    78
1070
     8
1070
   284
1070
     8
1070
   140
1040
3.0
1070
   145
1040
1.0
1070
    74
1070
     0
1070
   172
1070
     1
1070
    73
1070
     0
1070
    77
1070
     1
1070
    40
1040
60.0
1070
   147
1040
0.8
1070
   287
1070
     5
1070
    42
1040
1.5
1070
    44
1040
0.6
1070
    43
1040
7.0
1070
   271
1070
     0
1070
   177
1070
   256
1070
   176
1070
   256
1070
   141
1040
0.0
1070
   275
1070
     1
1070
    41
1040
1.5
1070
   285
1070
     8
1070
   286
1070
     8
1002
}
  0
LINE
  5
132
330
C3
100
AcDbEntity
  8
HASEN
100
AcDbLine
 10
2994.999985648772
 20
715.4034157461156
 30
0.0
 11
2644.497460331817
 21
715.4034157461119
 31
0.0
  0
LINE
  5
133
330
C3
100
AcDbEntity
  8
HASEN
100
AcDbLine
 10
2994.999985648772
 20
475.4034157461156
 30
0.0
 11
2644.497460331817
 21
475.4034157461119
 31
0.0
  0
LINE
  5
134
330
C3
100
AcDbEntity
  8
SUNPOU
100
AcDbLine
 10
3029.99998564875
 20
397.403415746121
 30
0.0
 11
2959.999985648748
 21
397.403415746121
 31
0.0
  0
LINE
  5
135
330
C3
100
AcDbEntity
  8
SUNPOU
100
AcDbLine
 10
2959.999985648748
 20
397.403415746121
 30
0.0
 11
2939.999985648748
 21
317.4034157461228
 31
0.0
  0
SOLID
  5
136
330
C3
100
AcDbEntity
  8
SUNPOU
100
AcDbTrace
 10
2804.999985648759
 20
937.4034157461319
 30
0.0
 11
2789.999985648759
 21
847.4034157461319
 31
0.0
 12
2774.999985648759
 22
937.4034157461319
 32
0.0
 13
2774.999985648759
 23
937.4034157461319
 33
0.0
1001
ACAD
1000
DSTYLE
1002
{
1070
    78
1070
     8
1070
   284
1070
     8
1070
   140
1040
3.0
1070
   145
1040
1.0
1070
    74
1070
     0
1070
   172
1070
     1
1070
    73
1070
     0
1070
    77
1070
     1
1070
    40
1040
60.0
1070
   147
1040
0.8
1070
   287
1070
     5
1070
    42
1040
1.5
1070
    44
1040
0.6
1070
    43
1040
7.0
1070
   271
1070
     0
1070
   177
1070
   256
1070
   176
1070
   256
1070
   141
1040
0.0
1070
   275
1070
     1
1070
    41
1040
1.5
1070
   285
1070
     8
1070
   286
1070
     8
1002
}
  0
SOLID
  5
137
330
C3
100
AcDbEntity
  8
SUNPOU
100
AcDbTrace
 10
2804.999985648759
 20
877.4034157461319
 30
0.0
 11
2789.999985648759
 21
787.4034157461319
 31
0.0
 12
2774.999985648759
 22
877.4034157461319
 32
0.0
 13
2774.999985648759
 23
877.4034157461319
 33
0.0
1001
ACAD
1000
DSTYLE
1002
{
1070
    78
1070
     8
1070
   284
1070
     8
1070
   140
1040
3.0
1070
   145
1040
1.0
1070
    74
1070
     0
1070
   172
1070
     1
1070
    73
1070
     0
1070
    77
1070
     1
1070
    40
1040
60.0
1070
   147
1040
0.8
1070
   287
1070
     5
1070
    42
1040
1.5
1070
    44
1040
0.6
1070
    43
1040
7.0
1070
   271
1070
     0
1070
   177
1070
   256
1070
   176
1070
   256
1070
   141
1040
0.0
1070
   275
1070
     1
1070
    41
1040
1.5
1070
   285
1070
     8
1070
   286
1070
     8
1002
}
  0
LINE
  5
138
330
C3
100
AcDbEntity
  8
SUNPOU
100
AcDbLine
 10
2994.999985648774
 20
1537.403415746125
 30
0.0
 11
2409.999985648759
 21
1537.403415746121
 31
0.0
  0
LINE
  5
139
330
C3
100
AcDbEntity
  8
SUNPOU
100
AcDbLine
 10
2994.999985648774
 20
1417.403415746125
 30
0.0
 11
2409.999985648759
 21
1417.403415746121
 31
0.0
  0
LINE
  5
13A
330
C3
100
AcDbEntity
  8
SUNPOU
100
AcDbLine
 10
2994.999985648774
 20
1297.403415746125
 30
0.0
 11
2409.999985648759
 21
1297.403415746125
 31
0.0
  0
LINE
  5
13B
330
C3
100
AcDbEntity
  8
SUNPOU
100
AcDbLine
 10
2994.999985648774
 20
1177.403415746125
 30
0.0
 11
2409.999985648759
 21
1177.403415746121
 31
0.0
  0
LINE
  5
13C
330
C3
100
AcDbEntity
  8
SUNPOU
100
AcDbLine
 10
2994.999985648774
 20
1057.403415746125
 30
0.0
 11
2409.999985648759
 21
1057.403415746121
 31
0.0
  0
LINE
  5
13D
330
C3
100
AcDbEntity
  8
HASEN
100
AcDbLine
 10
2994.999985648772
 20
955.4034157461156
 30
0.0
 11
2644.497460331817
 21
955.4034157461119
 31
0.0
  0
LINE
  5
13E
330
C3
100
AcDbEntity
  8
HASEN
100
AcDbLine
 10
2994.999985648772
 20
1195.403415746116
 30
0.0
 11
2644.497460331817
 21
1195.403415746112
 31
0.0
  0
LINE
  5
13F
330
C3
100
AcDbEntity
  8
HASEN
100
AcDbLine
 10
2994.999985648772
 20
1435.403415746116
 30
0.0
 11
2644.497460331817
 21
1435.403415746112
 31
0.0
  0
ARC
  5
140
330
C3
100
AcDbEntity
  8
HAIKIN
100
AcDbCircle
 10
2374.999985648759
 20
1002.403415746126
 30
0.0
 40
35.0
100
AcDbArc
 50
270.0
 51
0.0
  0
LINE
  5
141
330
C3
100
AcDbEntity
  8
HAIKIN
100
AcDbLine
 10
2374.999985648758
 20
1827.403415746126
 30
0.0
 11
1979.999985648752
 21
1827.403415746126
 31
0.0
  0
LINE
  5
142
330
C3
100
AcDbEntity
  8
HAIKIN
100
AcDbLine
 10
2994.999985648774
 20
1872.403415746125
 30
0.0
 11
1979.999985648759
 21
1872.403415746121
 31
0.0
  0
LINE
  5
143
330
C3
100
AcDbEntity
  8
HAIKIN
100
AcDbLine
 10
2994.999985648774
 20
1932.403415746125
 30
0.0
 11
1979.999985648758
 21
1932.403415746121
 31
0.0
  0
LINE
  5
144
330
C3
100
AcDbEntity
  8
HAIKIN
100
AcDbLine
 10
2994.999985648774
 20
1992.403415746125
 30
0.0
 11
1979.999985648758
 21
1992.403415746121
 31
0.0
  0
LINE
  5
145
330
C3
100
AcDbEntity
  8
SUNPOU
100
AcDbLine
 10
2994.999985648774
 20
2017.403415746125
 30
0.0
 11
1979.999985648759
 21
2017.403415746121
 31
0.0
  0
LINE
  5
146
330
C3
100
AcDbEntity
  8
SUNPOU
100
AcDbLine
 10
2994.999985648774
 20
2137.403415746125
 30
0.0
 11
1979.999985648759
 21
2137.403415746121
 31
0.0
  0
LINE
  5
147
330
C3
100
AcDbEntity
  8
SUNPOU
100
AcDbLine
 10
2994.999985648774
 20
2257.403415746125
 30
0.0
 11
1979.999985648759
 21
2257.403415746121
 31
0.0
  0
LINE
  5
148
330
C3
100
AcDbEntity
  8
SUNPOU
100
AcDbLine
 10
2994.999985648774
 20
1897.403415746125
 30
0.0
 11
1979.999985648759
 21
1897.403415746121
 31
0.0
  0
LINE
  5
149
330
C3
100
AcDbEntity
  8
SUNPOU
100
AcDbLine
 10
2949.999985648748
 20
2317.403415746123
 30
0.0
 11
1979.999985648759
 21
2317.403415746121
 31
0.0
  0
LINE
  5
14A
330
C3
100
AcDbEntity
  8
SUNPOU
100
AcDbLine
 10
2379.999985648758
 20
1797.403415746126
 30
0.0
 11
1579.999985648756
 21
1797.403415746126
 31
0.0
  0
LINE
  5
14B
330
C3
100
AcDbEntity
  8
SUNPOU
100
AcDbLine
 10
1829.999985648765
 20
2362.403415746123
 30
0.0
 11
1829.999985648759
 21
1890.403415746126
 31
0.0
  0
LINE
  5
14C
330
C3
100
AcDbEntity
  8
SUNPOU
100
AcDbLine
 10
1529.999985648763
 20
2362.403415746125
 30
0.0
 11
1529.999985648763
 21
1890.403415746128
 31
0.0
  0
LINE
  5
14D
330
C3
100
AcDbEntity
  8
HAIKIN
100
AcDbLine
 10
1979.999985648758
 20
1890.403415746128
 30
0.0
 11
1521.99998564875
 21
1890.403415746132
 31
0.0
  0
LINE
  5
14E
330
C3
100
AcDbEntity
  8
SUNPOU
100
AcDbLine
 10
1979.999985648758
 20
1860.403415746128
 30
0.0
 11
1516.999985648752
 21
1860.403415746126
 31
0.0
  0
ARC
  5
14F
330
C3
100
AcDbEntity
  8
HAIKIN
100
AcDbCircle
 10
1521.99998564875
 20
1855.403415746132
 30
0.0
 40
35.0
100
AcDbArc
 50
90.0
 51
180.0
  0
SOLID
  5
150
330
C3
100
AcDbEntity
  8
SUNPOU
100
AcDbTrace
 10
1694.999985648759
 20
1980.403415746141
 30
0.0
 11
1679.999985648759
 21
1890.403415746141
 31
0.0
 12
1664.999985648759
 22
1980.403415746141
 32
0.0
 13
1664.999985648759
 23
1980.403415746141
 33
0.0
1001
ACAD
1000
DSTYLE
1002
{
1070
    78
1070
     8
1070
   284
1070
     8
1070
   140
1040
3.0
1070
   145
1040
1.0
1070
    74
1070
     0
1070
   172
1070
     1
1070
    73
1070
     0
1070
    77
1070
     1
1070
    40
1040
60.0
1070
   147
1040
0.8
1070
   287
1070
     5
1070
    42
1040
1.5
1070
    44
1040
0.6
1070
    43
1040
7.0
1070
   271
1070
     0
1070
   177
1070
   256
1070
   176
1070
   256
1070
   141
1040
0.0
1070
   275
1070
     1
1070
    41
1040
1.5
1070
   285
1070
     8
1070
   286
1070
     8
1002
}
  0
LINE
  5
151
330
C3
100
AcDbEntity
  8
SUNPOU
100
AcDbLine
 10
2129.999985648759
 20
2257.403415746121
 30
0.0
 11
2129.999985648759
 21
1827.40341574613
 31
0.0
  0
LINE
  5
152
330
C3
100
AcDbEntity
  8
SUNPOU
100
AcDbLine
 10
2969.99998564875
 20
2397.403415746121
 30
0.0
 11
2949.99998564875
 21
2317.403415746125
 31
0.0
  0
LINE
  5
153
330
C3
100
AcDbEntity
  8
SUNPOU
100
AcDbLine
 10
2994.999985648774
 20
1777.403415746125
 30
0.0
 11
2409.999985648758
 21
1777.403415746119
 31
0.0
  0
LINE
  5
154
330
C3
100
AcDbEntity
  8
SUNPOU
100
AcDbLine
 10
2994.999985648774
 20
1657.403415746125
 30
0.0
 11
2409.999985648758
 21
1657.403415746121
 31
0.0
  0
LINE
  5
155
330
C3
100
AcDbEntity
  8
HASEN
100
AcDbLine
 10
2994.999985648772
 20
2155.403415746116
 30
0.0
 11
2644.497460331817
 21
2155.403415746112
 31
0.0
  0
LINE
  5
156
330
C3
100
AcDbEntity
  8
HASEN
100
AcDbLine
 10
2994.999985648772
 20
1915.403415746116
 30
0.0
 11
2644.497460331817
 21
1915.403415746112
 31
0.0
  0
LINE
  5
157
330
C3
100
AcDbEntity
  8
HASEN
100
AcDbLine
 10
2994.999985648772
 20
1675.403415746116
 30
0.0
 11
2644.497460331817
 21
1675.403415746112
 31
0.0
  0
ARC
  5
158
330
C3
100
AcDbEntity
  8
HAIKIN
100
AcDbCircle
 10
2374.999985648758
 20
1792.403415746126
 30
0.0
 40
35.0
100
AcDbArc
 50
0.0
 51
90.0
  0
SOLID
  5
159
330
C3
100
AcDbEntity
  8
SUNPOU
100
AcDbTrace
 10
2294.999985648761
 20
1917.403415746126
 30
0.0
 11
2279.999985648761
 21
1827.403415746126
 31
0.0
 12
2264.999985648761
 22
1917.403415746126
 32
0.0
 13
2264.999985648761
 23
1917.403415746126
 33
0.0
1001
ACAD
1000
DSTYLE
1002
{
1070
    78
1070
     8
1070
   284
1070
     8
1070
   140
1040
3.0
1070
   145
1040
1.0
1070
    74
1070
     0
1070
   172
1070
     1
1070
    73
1070
     0
1070
    77
1070
     1
1070
    40
1040
60.0
1070
   147
1040
0.8
1070
   287
1070
     5
1070
    42
1040
1.5
1070
    44
1040
0.6
1070
    43
1040
7.0
1070
   271
1070
     0
1070
   177
1070
   256
1070
   176
1070
   256
1070
   141
1040
0.0
1070
   275
1070
     1
1070
    41
1040
1.5
1070
   285
1070
     8
1070
   286
1070
     8
1002
}
  0
SOLID
  5
15A
330
C3
100
AcDbEntity
  8
SUNPOU
100
AcDbTrace
 10
2804.999985648759
 20
2022.403415746125
 30
0.0
 11
2789.999985648759
 21
1932.403415746125
 31
0.0
 12
2774.999985648759
 22
2022.403415746125
 32
0.0
 13
2774.999985648759
 23
2022.403415746125
 33
0.0
1001
ACAD
1000
DSTYLE
1002
{
1070
    78
1070
     8
1070
   284
1070
     8
1070
   140
1040
3.0
1070
   145
1040
1.0
1070
    74
1070
     0
1070
   172
1070
     1
1070
    73
1070
     0
1070
    77
1070
     1
1070
    40
1040
60.0
1070
   147
1040
0.8
1070
   287
1070
     5
1070
    42
1040
1.5
1070
    44
1040
0.6
1070
    43
1040
7.0
1070
   271
1070
     0
1070
   177
1070
   256
1070
   176
1070
   256
1070
   141
1040
0.0
1070
   275
1070
     1
1070
    41
1040
1.5
1070
   285
1070
     8
1070
   286
1070
     8
1002
}
  0
SOLID
  5
15B
330
C3
100
AcDbEntity
  8
SUNPOU
100
AcDbTrace
 10
2804.999985648759
 20
1962.403415746125
 30
0.0
 11
2789.999985648759
 21
1872.403415746125
 31
0.0
 12
2774.999985648759
 22
1962.403415746125
 32
0.0
 13
2774.999985648759
 23
1962.403415746125
 33
0.0
1001
ACAD
1000
DSTYLE
1002
{
1070
    78
1070
     8
1070
   284
1070
     8
1070
   140
1040
3.0
1070
   145
1040
1.0
1070
    74
1070
     0
1070
   172
1070
     1
1070
    73
1070
     0
1070
    77
1070
     1
1070
    40
1040
60.0
1070
   147
1040
0.8
1070
   287
1070
     5
1070
    42
1040
1.5
1070
    44
1040
0.6
1070
    43
1040
7.0
1070
   271
1070
     0
1070
   177
1070
   256
1070
   176
1070
   256
1070
   141
1040
0.0
1070
   275
1070
     1
1070
    41
1040
1.5
1070
   285
1070
     8
1070
   286
1070
     8
1002
}
  0
SOLID
  5
15C
330
C3
100
AcDbEntity
  8
SUNPOU
100
AcDbTrace
 10
2804.999985648759
 20
2082.403415746125
 30
0.0
 11
2789.999985648759
 21
1992.403415746125
 31
0.0
 12
2774.999985648759
 22
2082.403415746125
 32
0.0
 13
2774.999985648759
 23
2082.403415746125
 33
0.0
1001
ACAD
1000
DSTYLE
1002
{
1070
    78
1070
     8
1070
   284
1070
     8
1070
   140
1040
3.0
1070
   145
1040
1.0
1070
    74
1070
     0
1070
   172
1070
     1
1070
    73
1070
     0
1070
    77
1070
     1
1070
    40
1040
60.0
1070
   147
1040
0.8
1070
   287
1070
     5
1070
    42
1040
1.5
1070
    44
1040
0.6
1070
    43
1040
7.0
1070
   271
1070
     0
1070
   177
1070
   256
1070
   176
1070
   256
1070
   141
1040
0.0
1070
   275
1070
     1
1070
    41
1040
1.5
1070
   285
1070
     8
1070
   286
1070
     8
1002
}
  0
LINE
  5
15D
330
C3
100
AcDbEntity
  8
SUNPOU
100
AcDbLine
 10
2969.99998564875
 20
2397.403415746121
 30
0.0
 11
3029.99998564875
 21
2397.403415746121
 31
0.0
  0
LINE
  5
15E
330
C3
100
AcDbEntity
  8
SUNPOU
100
AcDbLine
 10
3449.999985648745
 20
1357.403415746123
 30
0.0
 11
3449.999985648745
 21
2102.632833953865
 31
0.0
1001
ACAD
1000
DSTYLE
1002
{
1070
    78
1070
     8
1070
   284
1070
     8
1070
   140
1040
3.0
1070
   145
1040
1.0
1070
    74
1070
     0
1070
   172
1070
     1
1070
    73
1070
     0
1070
    77
1070
     1
1070
    40
1040
60.0
1070
   147
1040
0.8
1070
   287
1070
     5
1070
    42
1040
1.5
1070
    44
1040
0.6
1070
    43
1040
7.0
1070
   271
1070
     0
1070
   177
1070
   256
1070
   176
1070
   256
1070
   141
1040
0.0
1070
   275
1070
     1
1070
    41
1040
1.5
1070
   285
1070
     8
1070
   286
1070
     8
1002
}
  0
TEXT
  5
15F
330
C3
100
AcDbEntity
  8
SUNPOU
100
AcDbText
 10
1304.999985648761
 20
3317.403415746123
 30
0.0
 40
150.0
  1
D10
 41
0.8
 11
1304.999985648761
 21
3392.403415746123
 31
0.0
100
AcDbText
 73
     2
  0
TEXT
  5
160
330
C3
100
AcDbEntity
  8
SUNPOU
100
AcDbText
 10
2684.999985648759
 20
3317.403415746123
 30
0.0
 40
150.0
  1
D10
 41
0.8
 11
2684.999985648759
 21
3392.403415746123
 31
0.0
100
AcDbText
 73
     2
  0
LINE
  5
161
330
C3
100
AcDbEntity
  8
SUNPOU
100
AcDbLine
 10
2279.999985648759
 20
3227.403415746123
 30
0.0
 11
3059.999985648759
 21
3227.403415746123
 31
0.0
1001
ACAD
1000
DSTYLE
1002
{
1070
    78
1070
     8
1070
   284
1070
     8
1070
   140
1040
3.0
1070
   145
1040
1.0
1070
    74
1070
     0
1070
   172
1070
     1
1070
    73
1070
     0
1070
    77
1070
     1
1070
    40
1040
60.0
1070
   147
1040
0.8
1070
   287
1070
     5
1070
    42
1040
1.5
1070
    44
1040
0.6
1070
    43
1040
7.0
1070
   271
1070
     0
1070
   177
1070
   256
1070
   176
1070
   256
1070
   141
1040
0.0
1070
   275
1070
     1
1070
    41
1040
1.5
1070
   285
1070
     8
1070
   286
1070
     8
1002
}
  0
TEXT
  5
162
330
C3
100
AcDbEntity
  8
SUNPOU
100
AcDbText
 10
2359.999985648759
 20
3317.403415746123
 30
0.0
 40
150.0
  1
H4
 41
0.8
 72
     4
 11
2459.999985648759
 21
3392.403415746123
 31
0.0
100
AcDbText
  0
CIRCLE
  5
163
330
C3
100
AcDbEntity
  8
SUNPOU
100
AcDbCircle
 10
2459.999985648759
 20
3392.403415746123
 30
0.0
 40
165.0
  0
TEXT
  5
164
330
C3
100
AcDbEntity
  8
SUNPOU
100
AcDbText
 10
2239.999985648754
 20
4105.403415746121
 30
0.0
 40
210.0
  1
内　側
 72
     2
 11
2939.999985648754
 21
4077.403415746121
 31
0.0
100
AcDbText
 73
     1
  0
LINE
  5
165
330
C3
100
AcDbEntity
  8
HAIKIN
 62
     3
100
AcDbLine
 10
1889.999985648752
 20
4587.403415746125
 30
0.0
 11
1889.999985648752
 21
4887.403415746125
 31
0.0
  0
SOLID
  5
166
330
C3
100
AcDbEntity
  8
SUNPOU
100
AcDbTrace
 10
2559.999985648748
 20
1342.403415746126
 30
0.0000000000000092
 11
2469.999985648748
 21
1357.403415746126
 31
0.0000000000000092
 12
2559.999985648748
 22
1372.403415746126
 32
0.0000000000000092
 13
2559.999985648748
 23
1372.403415746126
 33
0.0000000000000092
1001
ACAD
1000
DSTYLE
1002
{
1070
    78
1070
     8
1070
   284
1070
     8
1070
   140
1040
3.0
1070
   145
1040
1.0
1070
    74
1070
     0
1070
   172
1070
     1
1070
    73
1070
     0
1070
    77
1070
     1
1070
    40
1040
60.0
1070
   147
1040
0.8
1070
   287
1070
     5
1070
    42
1040
1.5
1070
    44
1040
0.6
1070
    43
1040
7.0
1070
   271
1070
     0
1070
   177
1070
   256
1070
   176
1070
   256
1070
   141
1040
0.0
1070
   275
1070
     1
1070
    41
1040
1.5
1070
   285
1070
     8
1070
   286
1070
     8
1002
}
  0
SOLID
  5
167
330
C3
100
AcDbEntity
  8
SUNPOU
100
AcDbTrace
 10
2679.99998564875
 20
1342.403415746126
 30
0.0000000000000092
 11
2589.99998564875
 21
1357.403415746126
 31
0.0000000000000092
 12
2679.99998564875
 22
1372.403415746126
 32
0.0000000000000092
 13
2679.99998564875
 23
1372.403415746126
 33
0.0000000000000092
1001
ACAD
1000
DSTYLE
1002
{
1070
    78
1070
     8
1070
   284
1070
     8
1070
   140
1040
3.0
1070
   145
1040
1.0
1070
    74
1070
     0
1070
   172
1070
     1
1070
    73
1070
     0
1070
    77
1070
     1
1070
    40
1040
60.0
1070
   147
1040
0.8
1070
   287
1070
     5
1070
    42
1040
1.5
1070
    44
1040
0.6
1070
    43
1040
7.0
1070
   271
1070
     0
1070
   177
1070
   256
1070
   176
1070
   256
1070
   141
1040
0.0
1070
   275
1070
     1
1070
    41
1040
1.5
1070
   285
1070
     8
1070
   286
1070
     8
1002
}
  0
SOLID
  5
168
330
C3
100
AcDbEntity
  8
SUNPOU
100
AcDbTrace
 10
2619.99998564875
 20
1342.403415746126
 30
0.0000000000000092
 11
2529.99998564875
 21
1357.403415746126
 31
0.0000000000000092
 12
2619.99998564875
 22
1372.403415746126
 32
0.0000000000000092
 13
2619.99998564875
 23
1372.403415746126
 33
0.0000000000000092
1001
ACAD
1000
DSTYLE
1002
{
1070
    78
1070
     8
1070
   284
1070
     8
1070
   140
1040
3.0
1070
   145
1040
1.0
1070
    74
1070
     0
1070
   172
1070
     1
1070
    73
1070
     0
1070
    77
1070
     1
1070
    40
1040
60.0
1070
   147
1040
0.8
1070
   287
1070
     5
1070
    42
1040
1.5
1070
    44
1040
0.6
1070
    43
1040
7.0
1070
   271
1070
     0
1070
   177
1070
   256
1070
   176
1070
   256
1070
   141
1040
0.0
1070
   275
1070
     1
1070
    41
1040
1.5
1070
   285
1070
     8
1070
   286
1070
     8
1002
}
  0
ENDBLK
  5
16A
330
C3
100
AcDbEntity
  8
0
100
AcDbBlockEnd
  0
BLOCK
  5
152B
330
1521
100
AcDbEntity
  8
0
100
AcDbBlockBegin
  2
*D8
 70
     1
 10
0.0
 20
0.0
 30
0.0
  3
*D8
  1

  0
LINE
  5
227F
330
1521
100
AcDbEntity
  8
SUNPOU
 62
     0
370
    -2
100
AcDbLine
 10
2625.823086985067
 20
4910.0
 30
0.0
 11
2004.288760709234
 21
4910.000000000001
 31
0.0
  0
LINE
  5
2280
330
1521
100
AcDbEntity
  8
SUNPOU
 62
     0
370
    -2
100
AcDbLine
 10
2625.823086985067
 20
5050.0
 30
0.0
 11
2004.288760709234
 21
5050.000000000001
 31
0.0
  0
LINE
  5
2281
330
1521
100
AcDbEntity
  8
SUNPOU
 62
     0
370
    -2
100
AcDbLine
 10
2019.288760709234
 20
4850.000000000001
 30
0.0
 11
2019.288760709234
 21
4790.000000000001
 31
0.0
  0
LINE
  5
2282
330
1521
100
AcDbEntity
  8
SUNPOU
 62
     0
370
    -2
100
AcDbLine
 10
2019.288760709234
 20
5110.000000000001
 30
0.0
 11
2019.288760709234
 21
5170.000000000001
 31
0.0
  0
SOLID
  5
2283
330
1521
100
AcDbEntity
  8
SUNPOU
 62
     0
100
AcDbTrace
 10
2009.288760709234
 20
4850.000000000001
 30
0.0
 11
2029.288760709234
 21
4850.000000000001
 31
0.0
 12
2019.288760709234
 22
4910.000000000001
 32
0.0
 13
2019.288760709234
 23
4910.000000000001
 33
0.0
  0
SOLID
  5
2284
330
1521
100
AcDbEntity
  8
SUNPOU
 62
     0
100
AcDbTrace
 10
2009.288760709234
 20
5110.000000000001
 30
0.0
 11
2029.288760709234
 21
5110.000000000001
 31
0.0
 12
2019.288760709234
 22
5050.000000000001
 32
0.0
 13
2019.288760709234
 23
5050.000000000001
 33
0.0
  0
MTEXT
  5
2285
330
1521
100
AcDbEntity
  8
SUNPOU
 62
     0
100
AcDbMText
 10
1950.288760709233
 20
4980.000000000001
 30
0.0
 40
90.0
 41
0.0
 71
     5
 72
     1
  1
\A1;140
 11
6.123031769111886E-17
 21
1.0
 31
0.0
 73
     1
 44
1.0
  0
POINT
  5
2286
330
1521
100
AcDbEntity
  8
DEFPOINTS
 62
     0
100
AcDbPoint
 10
2685.823086985067
 20
4910.0
 30
0.0
  0
POINT
  5
2287
330
1521
100
AcDbEntity
  8
DEFPOINTS
 62
     0
100
AcDbPoint
 10
2685.823086985067
 20
5050.0
 30
0.0
  0
POINT
  5
2288
330
1521
100
AcDbEntity
  8
DEFPOINTS
 62
     0
100
AcDbPoint
 10
2019.288760709234
 20
5050.000000000001
 30
0.0
  0
ENDBLK
  5
152C
330
1521
100
AcDbEntity
  8
0
100
AcDbBlockEnd
  0
BLOCK
  5
1550
330
1545
100
AcDbEntity
  8
0
100
AcDbBlockBegin
  2
*D9
 70
     1
 10
0.0
 20
0.0
 30
0.0
  3
*D9
  1

  0
LINE
  5
2289
330
1545
100
AcDbEntity
  8
SUNPOU
 62
     0
370
    -2
100
AcDbLine
 10
2685.823086985067
 20
6720.0
 30
0.0
 11
2685.823086985067
 21
7025.0
 31
0.0
  0
LINE
  5
228A
330
1545
100
AcDbEntity
  8
SUNPOU
 62
     0
370
    -2
100
AcDbLine
 10
2755.823086985067
 20
6720.0
 30
0.0
 11
2755.823086985067
 21
7025.0
 31
0.0
  0
LINE
  5
228B
330
1545
100
AcDbEntity
  8
SUNPOU
 62
     0
370
    -2
100
AcDbLine
 10
2625.823086985067
 20
7010.0
 30
0.0
 11
2565.823086985067
 21
7010.0
 31
0.0
  0
LINE
  5
228C
330
1545
100
AcDbEntity
  8
SUNPOU
 62
     0
370
    -2
100
AcDbLine
 10
2815.823086985067
 20
7010.0
 30
0.0
 11
2875.823086985067
 21
7010.0
 31
0.0
  0
SOLID
  5
228D
330
1545
100
AcDbEntity
  8
SUNPOU
 62
     0
100
AcDbTrace
 10
2625.823086985067
 20
7020.0
 30
0.0
 11
2625.823086985067
 21
7000.0
 31
0.0
 12
2685.823086985067
 22
7010.0
 32
0.0
 13
2685.823086985067
 23
7010.0
 33
0.0
  0
SOLID
  5
228E
330
1545
100
AcDbEntity
  8
SUNPOU
 62
     0
100
AcDbTrace
 10
2815.823086985067
 20
7020.0
 30
0.0
 11
2815.823086985067
 21
7000.0
 31
0.0
 12
2755.823086985067
 22
7010.0
 32
0.0
 13
2755.823086985067
 23
7010.0
 33
0.0
  0
MTEXT
  5
228F
330
1545
100
AcDbEntity
  8
SUNPOU
 62
     0
100
AcDbMText
 10
2720.823086985067
 20
7079.0
 30
0.0
 40
90.0
 41
0.0
 71
     5
 72
     1
  1
\A1;70
 73
     1
 44
1.0
  0
POINT
  5
2290
330
1545
100
AcDbEntity
  8
DEFPOINTS
 62
     0
100
AcDbPoint
 10
2685.823086985067
 20
6660.0
 30
0.0
  0
POINT
  5
2291
330
1545
100
AcDbEntity
  8
DEFPOINTS
 62
     0
100
AcDbPoint
 10
2755.823086985067
 20
6660.0
 30
0.0
  0
POINT
  5
2292
330
1545
100
AcDbEntity
  8
DEFPOINTS
 62
     0
100
AcDbPoint
 10
2755.823086985067
 20
7010.0
 30
0.0
  0
ENDBLK
  5
1551
330
1545
100
AcDbEntity
  8
0
100
AcDbBlockEnd
  0
BLOCK
  5
155C
330
1552
100
AcDbEntity
  8
0
100
AcDbBlockBegin
  2
*D10
 70
     1
 10
0.0
 20
0.0
 30
0.0
  3
*D10
  1

  0
LINE
  5
2293
330
1552
100
AcDbEntity
  8
SUNPOU
 62
     0
370
    -2
100
AcDbLine
 10
2625.823086985067
 20
4910.0
 30
0.0
 11
2246.715260341348
 21
4910.0
 31
0.0
  0
LINE
  5
2294
330
1552
100
AcDbEntity
  8
SUNPOU
 62
     0
370
    -2
100
AcDbLine
 10
2588.558253674986
 20
5310.0
 30
0.0
 11
2246.715260341349
 21
5310.0
 31
0.0
  0
LINE
  5
2295
330
1552
100
AcDbEntity
  8
SUNPOU
 62
     0
370
    -2
100
AcDbLine
 10
2261.715260341348
 20
4970.0
 30
0.0
 11
2261.715260341349
 21
5250.0
 31
0.0
  0
SOLID
  5
2296
330
1552
100
AcDbEntity
  8
SUNPOU
 62
     0
100
AcDbTrace
 10
2251.715260341348
 20
4970.0
 30
0.0
 11
2271.715260341348
 21
4970.0
 31
0.0
 12
2261.715260341348
 22
4910.0
 32
0.0
 13
2261.715260341348
 23
4910.0
 33
0.0
  0
SOLID
  5
2297
330
1552
100
AcDbEntity
  8
SUNPOU
 62
     0
100
AcDbTrace
 10
2251.715260341349
 20
5250.0
 30
0.0
 11
2271.715260341349
 21
5250.0
 31
0.0
 12
2261.715260341349
 22
5310.0
 32
0.0
 13
2261.715260341349
 23
5310.0
 33
0.0
  0
MTEXT
  5
2298
330
1552
100
AcDbEntity
  8
SUNPOU
 62
     0
100
AcDbMText
 10
2192.715260341348
 20
5110.000000000001
 30
0.0
 40
90.0
 41
0.0
 71
     5
 72
     1
  1
\A1;400
 11
6.123031769111886E-17
 21
1.0
 31
0.0
 73
     1
 44
1.0
  0
POINT
  5
2299
330
1552
100
AcDbEntity
  8
DEFPOINTS
 62
     0
100
AcDbPoint
 10
2685.823086985067
 20
4910.0
 30
0.0
  0
POINT
  5
229A
330
1552
100
AcDbEntity
  8
DEFPOINTS
 62
     0
100
AcDbPoint
 10
2648.558253674986
 20
5310.0
 30
0.0
  0
POINT
  5
229B
330
1552
100
AcDbEntity
  8
DEFPOINTS
 62
     0
100
AcDbPoint
 10
2261.715260341349
 20
5310.0
 30
0.0
  0
ENDBLK
  5
155D
330
1552
100
AcDbEntity
  8
0
100
AcDbBlockEnd
  0
BLOCK
  5
1576
330
156B
100
AcDbEntity
  8
0
100
AcDbBlockBegin
  2
*D11
 70
     1
 10
0.0
 20
0.0
 30
0.0
  3
*D11
  1

  0
LINE
  5
229C
330
156B
100
AcDbEntity
  8
SUNPOU
 62
     0
370
    -2
100
AcDbLine
 10
2685.823086985067
 20
4850.0
 30
0.0
 11
2685.823086985067
 21
4382.599565385492
 31
0.0
  0
LINE
  5
229D
330
156B
100
AcDbEntity
  8
SUNPOU
 62
     0
370
    -2
100
AcDbLine
 10
2825.823086985067
 20
4850.0
 30
0.0
 11
2825.823086985067
 21
4382.599565385492
 31
0.0
  0
LINE
  5
229E
330
156B
100
AcDbEntity
  8
SUNPOU
 62
     0
370
    -2
100
AcDbLine
 10
2625.823086985067
 20
4397.599565385492
 30
0.0
 11
2565.823086985067
 21
4397.599565385492
 31
0.0
  0
LINE
  5
229F
330
156B
100
AcDbEntity
  8
SUNPOU
 62
     0
370
    -2
100
AcDbLine
 10
2885.823086985067
 20
4397.599565385492
 30
0.0
 11
2945.823086985067
 21
4397.599565385492
 31
0.0
  0
SOLID
  5
22A0
330
156B
100
AcDbEntity
  8
SUNPOU
 62
     0
100
AcDbTrace
 10
2625.823086985067
 20
4407.599565385492
 30
0.0
 11
2625.823086985067
 21
4387.599565385492
 31
0.0
 12
2685.823086985067
 22
4397.599565385492
 32
0.0
 13
2685.823086985067
 23
4397.599565385492
 33
0.0
  0
SOLID
  5
22A1
330
156B
100
AcDbEntity
  8
SUNPOU
 62
     0
100
AcDbTrace
 10
2885.823086985067
 20
4407.599565385492
 30
0.0
 11
2885.823086985067
 21
4387.599565385492
 31
0.0
 12
2825.823086985067
 22
4397.599565385492
 32
0.0
 13
2825.823086985067
 23
4397.599565385492
 33
0.0
  0
MTEXT
  5
22A2
330
156B
100
AcDbEntity
  8
SUNPOU
 62
     0
100
AcDbMText
 10
2755.823086985067
 20
4466.599565385492
 30
0.0
 40
90.0
 41
0.0
 71
     5
 72
     1
  1
\A1;140
 73
     1
 44
1.0
  0
POINT
  5
22A3
330
156B
100
AcDbEntity
  8
DEFPOINTS
 62
     0
100
AcDbPoint
 10
2685.823086985067
 20
4910.0
 30
0.0
  0
POINT
  5
22A4
330
156B
100
AcDbEntity
  8
DEFPOINTS
 62
     0
100
AcDbPoint
 10
2825.823086985067
 20
4910.0
 30
0.0
  0
POINT
  5
22A5
330
156B
100
AcDbEntity
  8
DEFPOINTS
 62
     0
100
AcDbPoint
 10
2825.823086985067
 20
4397.599565385492
 30
0.0
  0
ENDBLK
  5
1577
330
156B
100
AcDbEntity
  8
0
100
AcDbBlockEnd
  0
BLOCK
  5
15C2
330
15B8
100
AcDbEntity
  8
0
100
AcDbBlockBegin
  2
*D12
 70
     1
 10
0.0
 20
0.0
 30
0.0
  3
*D12
  1

  0
LINE
  5
22A6
330
15B8
100
AcDbEntity
  8
SUNPOU
 62
     0
370
    -2
100
AcDbLine
 10
6051.301239887078
 20
4910.0
 30
0.0
 11
5596.301239887078
 21
4910.0
 31
0.0
  0
LINE
  5
22A7
330
15B8
100
AcDbEntity
  8
SUNPOU
 62
     0
370
    -2
100
AcDbLine
 10
6051.301239887078
 20
5310.0
 30
0.0
 11
5596.301239887078
 21
5310.0
 31
0.0
  0
LINE
  5
22A8
330
15B8
100
AcDbEntity
  8
SUNPOU
 62
     0
370
    -2
100
AcDbLine
 10
5611.301239887078
 20
4970.0
 30
0.0
 11
5611.301239887078
 21
5250.0
 31
0.0
  0
SOLID
  5
22A9
330
15B8
100
AcDbEntity
  8
SUNPOU
 62
     0
100
AcDbTrace
 10
5601.301239887078
 20
4970.0
 30
0.0
 11
5621.301239887078
 21
4970.0
 31
0.0
 12
5611.301239887078
 22
4910.0
 32
0.0
 13
5611.301239887078
 23
4910.0
 33
0.0
  0
SOLID
  5
22AA
330
15B8
100
AcDbEntity
  8
SUNPOU
 62
     0
100
AcDbTrace
 10
5601.301239887078
 20
5250.0
 30
0.0
 11
5621.301239887078
 21
5250.0
 31
0.0
 12
5611.301239887078
 22
5310.0
 32
0.0
 13
5611.301239887078
 23
5310.0
 33
0.0
  0
MTEXT
  5
22AB
330
15B8
100
AcDbEntity
  8
SUNPOU
 62
     0
100
AcDbMText
 10
5542.301239887077
 20
5110.000000000001
 30
0.0
 40
90.0
 41
0.0
 71
     5
 72
     1
  1
\A1;400
 11
6.123031769111886E-17
 21
1.0
 31
0.0
 73
     1
 44
1.0
  0
POINT
  5
22AC
330
15B8
100
AcDbEntity
  8
DEFPOINTS
 62
     0
100
AcDbPoint
 10
6111.301239887078
 20
4910.0
 30
0.0
  0
POINT
  5
22AD
330
15B8
100
AcDbEntity
  8
DEFPOINTS
 62
     0
100
AcDbPoint
 10
6111.301239887078
 20
5310.0
 30
0.0
  0
POINT
  5
22AE
330
15B8
100
AcDbEntity
  8
DEFPOINTS
 62
     0
100
AcDbPoint
 10
5611.301239887078
 20
5310.0
 30
0.0
  0
ENDBLK
  5
15C3
330
15B8
100
AcDbEntity
  8
0
100
AcDbBlockEnd
  0
BLOCK
  5
15E6
330
15DC
100
AcDbEntity
  8
0
100
AcDbBlockBegin
  2
*D13
 70
     1
 10
0.0
 20
0.0
 30
0.0
  3
*D13
  1

  0
LINE
  5
22AF
330
15DC
100
AcDbEntity
  8
SUNPOU
 62
     0
370
    -2
100
AcDbLine
 10
6111.301239887078
 20
6720.0
 30
0.0
 11
6111.301239887078
 21
7325.0
 31
0.0
  0
LINE
  5
22B0
330
15DC
100
AcDbEntity
  8
SUNPOU
 62
     0
370
    -2
100
AcDbLine
 10
8111.301239887078
 20
6720.0
 30
0.0
 11
8111.301239887078
 21
7325.0
 31
0.0
  0
LINE
  5
22B1
330
15DC
100
AcDbEntity
  8
SUNPOU
 62
     0
370
    -2
100
AcDbLine
 10
6171.301239887078
 20
7310.0
 30
0.0
 11
8051.301239887078
 21
7310.0
 31
0.0
  0
SOLID
  5
22B2
330
15DC
100
AcDbEntity
  8
SUNPOU
 62
     0
100
AcDbTrace
 10
6171.301239887078
 20
7320.0
 30
0.0
 11
6171.301239887078
 21
7300.0
 31
0.0
 12
6111.301239887078
 22
7310.0
 32
0.0
 13
6111.301239887078
 23
7310.0
 33
0.0
  0
SOLID
  5
22B3
330
15DC
100
AcDbEntity
  8
SUNPOU
 62
     0
100
AcDbTrace
 10
8051.301239887078
 20
7320.0
 30
0.0
 11
8051.301239887078
 21
7300.0
 31
0.0
 12
8111.301239887078
 22
7310.0
 32
0.0
 13
8111.301239887078
 23
7310.0
 33
0.0
  0
MTEXT
  5
22B4
330
15DC
100
AcDbEntity
  8
SUNPOU
 62
     0
100
AcDbMText
 10
7111.301239887078
 20
7379.0
 30
0.0
 40
90.0
 41
0.0
 71
     5
 72
     1
  1
\A1;2000
 73
     1
 44
1.0
  0
POINT
  5
22B5
330
15DC
100
AcDbEntity
  8
DEFPOINTS
 62
     0
100
AcDbPoint
 10
6111.301239887078
 20
6660.0
 30
0.0
  0
POINT
  5
22B6
330
15DC
100
AcDbEntity
  8
DEFPOINTS
 62
     0
100
AcDbPoint
 10
8111.301239887078
 20
6660.0
 30
0.0
  0
POINT
  5
22B7
330
15DC
100
AcDbEntity
  8
DEFPOINTS
 62
     0
100
AcDbPoint
 10
8111.301239887078
 20
7310.0
 30
0.0
  0
ENDBLK
  5
15E7
330
15DC
100
AcDbEntity
  8
0
100
AcDbBlockEnd
  0
BLOCK
  5
164C
330
1642
100
AcDbEntity
  8
0
100
AcDbBlockBegin
  2
*D14
 70
     1
 10
0.0
 20
0.0
 30
0.0
  3
*D14
  1

  0
LINE
  5
23E4
330
1642
100
AcDbEntity
  8
SUNPOU
 62
     0
370
    -2
100
AcDbLine
 10
6051.301239887078
 20
2761.152323565129
 30
0.0
 11
5533.763127953033
 21
2761.152323565129
 31
0.0
  0
LINE
  5
23E5
330
1642
100
AcDbEntity
  8
SUNPOU
 62
     0
370
    -2
100
AcDbLine
 10
6051.301239887078
 20
2525.752323565129
 30
0.0
 11
5533.763127953033
 21
2525.752323565129
 31
0.0
  0
LINE
  5
23E6
330
1642
100
AcDbEntity
  8
SUNPOU
 62
     0
370
    -2
100
AcDbLine
 10
5548.763127953033
 20
2701.152323565129
 30
0.0
 11
5548.763127953033
 21
2585.752323565129
 31
0.0
  0
MTEXT
  5
23E7
330
1642
100
AcDbEntity
  8
SUNPOU
 62
     0
100
AcDbMText
 10
5479.763127953032
 20
2643.45232356513
 30
0.0
 40
90.0
 41
0.0
 71
     5
 72
     1
  1
\A1;235
 11
6.123031769111886E-17
 21
1.0
 31
0.0
 73
     1
 44
1.0
  0
SOLID
  5
23E8
330
1642
100
AcDbEntity
  8
SUNPOU
 62
     0
100
AcDbTrace
 10
5538.763127953033
 20
2701.152323565129
 30
0.0
 11
5558.763127953033
 21
2701.152323565129
 31
0.0
 12
5548.763127953033
 22
2761.152323565129
 32
0.0
 13
5548.763127953033
 23
2761.152323565129
 33
0.0
  0
SOLID
  5
23E9
330
1642
100
AcDbEntity
  8
SUNPOU
 62
     0
100
AcDbTrace
 10
5538.763127953033
 20
2585.752323565129
 30
0.0
 11
5558.763127953033
 21
2585.752323565129
 31
0.0
 12
5548.763127953033
 22
2525.752323565129
 32
0.0
 13
5548.763127953033
 23
2525.752323565129
 33
0.0
  0
POINT
  5
23EA
330
1642
100
AcDbEntity
  8
DEFPOINTS
 62
     0
100
AcDbPoint
 10
6111.301239887078
 20
2761.152323565129
 30
0.0
  0
POINT
  5
23EB
330
1642
100
AcDbEntity
  8
DEFPOINTS
 62
     0
100
AcDbPoint
 10
6111.301239887078
 20
2525.752323565129
 30
0.0
  0
POINT
  5
23EC
330
1642
100
AcDbEntity
  8
DEFPOINTS
 62
     0
100
AcDbPoint
 10
5548.763127953033
 20
2525.752323565129
 30
0.0
  0
ENDBLK
  5
164D
330
1642
100
AcDbEntity
  8
0
100
AcDbBlockEnd
  0
BLOCK
  5
1659
330
164E
100
AcDbEntity
  8
0
100
AcDbBlockBegin
  2
*D15
 70
     1
 10
0.0
 20
0.0
 30
0.0
  3
*D15
  1

  0
LINE
  5
23C7
330
164E
100
AcDbEntity
  8
SUNPOU
 62
     0
370
    -2
100
AcDbLine
 10
6051.301239887078
 20
2525.752323565129
 30
0.0
 11
5533.763127953035
 21
2525.752323565129
 31
0.0
  0
LINE
  5
23C8
330
164E
100
AcDbEntity
  8
SUNPOU
 62
     0
370
    -2
100
AcDbLine
 10
6101.30123988708
 20
2439.149783186683
 30
0.0
 11
5533.763127953035
 21
2439.149783186683
 31
0.0
  0
LINE
  5
23C9
330
164E
100
AcDbEntity
  8
SUNPOU
 62
     0
370
    -2
100
AcDbLine
 10
5548.763127953035
 20
2585.752323565129
 30
0.0
 11
5548.763127953035
 21
2645.752323565129
 31
0.0
  0
LINE
  5
23CA
330
164E
100
AcDbEntity
  8
SUNPOU
 62
     0
370
    -2
100
AcDbLine
 10
5548.763127953035
 20
2379.149783186683
 30
0.0
 11
5548.763127953035
 21
2319.149783186683
 31
0.0
  0
MTEXT
  5
23CB
330
164E
100
AcDbEntity
  8
SUNPOU
 62
     0
100
AcDbMText
 10
5479.763127953034
 20
2462.513920586128
 30
0.0
 40
90.0
 41
0.0
 71
     5
 72
     1
  1
\A1;87
 11
6.123031769111886E-17
 21
1.0
 31
0.0
 73
     1
 44
1.0
  0
SOLID
  5
23CC
330
164E
100
AcDbEntity
  8
SUNPOU
 62
     0
100
AcDbTrace
 10
5538.763127953035
 20
2585.752323565129
 30
0.0
 11
5558.763127953035
 21
2585.752323565129
 31
0.0
 12
5548.763127953035
 22
2525.752323565129
 32
0.0
 13
5548.763127953035
 23
2525.752323565129
 33
0.0
  0
SOLID
  5
23CD
330
164E
100
AcDbEntity
  8
SUNPOU
 62
     0
100
AcDbTrace
 10
5538.763127953035
 20
2379.149783186683
 30
0.0
 11
5558.763127953035
 21
2379.149783186683
 31
0.0
 12
5548.763127953035
 22
2439.149783186683
 32
0.0
 13
5548.763127953035
 23
2439.149783186683
 33
0.0
  0
POINT
  5
23CE
330
164E
100
AcDbEntity
  8
DEFPOINTS
 62
     0
100
AcDbPoint
 10
6111.301239887078
 20
2525.752323565129
 30
0.0
  0
POINT
  5
23CF
330
164E
100
AcDbEntity
  8
DEFPOINTS
 62
     0
100
AcDbPoint
 10
6161.30123988708
 20
2439.149783186683
 30
0.0
  0
POINT
  5
23D0
330
164E
100
AcDbEntity
  8
DEFPOINTS
 62
     0
100
AcDbPoint
 10
5548.763127953035
 20
2439.149783186683
 30
0.0
  0
ENDBLK
  5
165A
330
164E
100
AcDbEntity
  8
0
100
AcDbBlockEnd
  0
BLOCK
  5
167D
330
1673
100
AcDbEntity
  8
0
100
AcDbBlockBegin
  2
*D16
 70
     1
 10
0.0
 20
0.0
 30
0.0
  3
*D16
  1

  0
LINE
  5
22CB
330
1673
100
AcDbEntity
  8
SUNPOU
 62
     0
370
    -2
100
AcDbLine
 10
8061.301239887078
 20
1401.152323565129
 30
0.0
 11
8061.301239887078
 21
926.0197891429489
 31
0.0
  0
LINE
  5
22CC
330
1673
100
AcDbEntity
  8
SUNPOU
 62
     0
370
    -2
100
AcDbLine
 10
6161.301239887078
 20
1401.152323565129
 30
0.0
 11
6161.301239887078
 21
926.0197891429489
 31
0.0
  0
LINE
  5
22CD
330
1673
100
AcDbEntity
  8
SUNPOU
 62
     0
370
    -2
100
AcDbLine
 10
8001.301239887078
 20
941.0197891429489
 30
0.0
 11
6221.301239887078
 21
941.0197891429489
 31
0.0
  0
SOLID
  5
22CE
330
1673
100
AcDbEntity
  8
SUNPOU
 62
     0
100
AcDbTrace
 10
8001.301239887078
 20
951.0197891429489
 30
0.0
 11
8001.301239887078
 21
931.0197891429489
 31
0.0
 12
8061.301239887078
 22
941.0197891429489
 32
0.0
 13
8061.301239887078
 23
941.0197891429489
 33
0.0
  0
SOLID
  5
22CF
330
1673
100
AcDbEntity
  8
SUNPOU
 62
     0
100
AcDbTrace
 10
6221.301239887078
 20
951.0197891429489
 30
0.0
 11
6221.301239887078
 21
931.0197891429489
 31
0.0
 12
6161.301239887078
 22
941.0197891429489
 32
0.0
 13
6161.301239887078
 23
941.0197891429489
 33
0.0
  0
MTEXT
  5
22D0
330
1673
100
AcDbEntity
  8
SUNPOU
 62
     0
100
AcDbMText
 10
7111.301239887078
 20
1010.019789142949
 30
0.0
 40
90.0
 41
0.0
 71
     5
 72
     1
  1
\A1;1900
 73
     1
 44
1.0
  0
POINT
  5
22D1
330
1673
100
AcDbEntity
  8
DEFPOINTS
 62
     0
100
AcDbPoint
 10
8061.301239887078
 20
1461.152323565129
 30
0.0
  0
POINT
  5
22D2
330
1673
100
AcDbEntity
  8
DEFPOINTS
 62
     0
100
AcDbPoint
 10
6161.301239887078
 20
1461.152323565129
 30
0.0
  0
POINT
  5
22D3
330
1673
100
AcDbEntity
  8
DEFPOINTS
 62
     0
100
AcDbPoint
 10
6161.301239887078
 20
941.0197891429489
 30
0.0
  0
ENDBLK
  5
167E
330
1673
100
AcDbEntity
  8
0
100
AcDbBlockEnd
  0
BLOCK
  5
1707
330
16FD
100
AcDbEntity
  8
0
100
AcDbBlockBegin
  2
*D17
 70
     1
 10
0.0
 20
0.0
 30
0.0
  3
*D17
  1

  0
LINE
  5
22D4
330
16FD
100
AcDbEntity
  8
SUNPOU
 62
     0
370
    -2
100
AcDbLine
 10
6111.301239887078
 20
4850.0
 30
0.0
 11
6111.301239887078
 21
4245.0
 31
0.0
  0
LINE
  5
22D5
330
16FD
100
AcDbEntity
  8
SUNPOU
 62
     0
370
    -2
100
AcDbLine
 10
6611.301239887078
 20
4850.0
 30
0.0
 11
6611.301239887078
 21
4245.0
 31
0.0
  0
LINE
  5
22D6
330
16FD
100
AcDbEntity
  8
SUNPOU
 62
     0
370
    -2
100
AcDbLine
 10
6171.301239887078
 20
4260.0
 30
0.0
 11
6551.301239887078
 21
4260.0
 31
0.0
  0
SOLID
  5
22D7
330
16FD
100
AcDbEntity
  8
SUNPOU
 62
     0
100
AcDbTrace
 10
6171.301239887078
 20
4270.0
 30
0.0
 11
6171.301239887078
 21
4250.0
 31
0.0
 12
6111.301239887078
 22
4260.0
 32
0.0
 13
6111.301239887078
 23
4260.0
 33
0.0
  0
SOLID
  5
22D8
330
16FD
100
AcDbEntity
  8
SUNPOU
 62
     0
100
AcDbTrace
 10
6551.301239887078
 20
4270.0
 30
0.0
 11
6551.301239887078
 21
4250.0
 31
0.0
 12
6611.301239887078
 22
4260.0
 32
0.0
 13
6611.301239887078
 23
4260.0
 33
0.0
  0
MTEXT
  5
22D9
330
16FD
100
AcDbEntity
  8
SUNPOU
 62
     0
100
AcDbMText
 10
6361.301239887078
 20
4329.0
 30
0.0
 40
90.0
 41
0.0
 71
     5
 72
     1
  1
\A1;500
 73
     1
 44
1.0
  0
POINT
  5
22DA
330
16FD
100
AcDbEntity
  8
DEFPOINTS
 62
     0
100
AcDbPoint
 10
6111.301239887078
 20
4910.0
 30
0.0
  0
POINT
  5
22DB
330
16FD
100
AcDbEntity
  8
DEFPOINTS
 62
     0
100
AcDbPoint
 10
6611.301239887078
 20
4910.0
 30
0.0
  0
POINT
  5
22DC
330
16FD
100
AcDbEntity
  8
DEFPOINTS
 62
     0
100
AcDbPoint
 10
6611.301239887078
 20
4260.0
 30
0.0
  0
ENDBLK
  5
1708
330
16FD
100
AcDbEntity
  8
0
100
AcDbBlockEnd
  0
BLOCK
  5
1713
330
1709
100
AcDbEntity
  8
0
100
AcDbBlockBegin
  2
*D18
 70
     1
 10
0.0
 20
0.0
 30
0.0
  3
*D18
  1

  0
LINE
  5
22DD
330
1709
100
AcDbEntity
  8
SUNPOU
 62
     0
370
    -2
100
AcDbLine
 10
6611.301239887078
 20
4850.0
 30
0.0
 11
6611.301239887078
 21
4245.0
 31
0.0
  0
LINE
  5
22DE
330
1709
100
AcDbEntity
  8
SUNPOU
 62
     0
370
    -2
100
AcDbLine
 10
7111.301239887078
 20
4749.999999999999
 30
0.0
 11
7111.301239887078
 21
4245.0
 31
0.0
  0
LINE
  5
22DF
330
1709
100
AcDbEntity
  8
SUNPOU
 62
     0
370
    -2
100
AcDbLine
 10
6671.301239887078
 20
4260.0
 30
0.0
 11
7051.301239887078
 21
4260.0
 31
0.0
  0
SOLID
  5
22E0
330
1709
100
AcDbEntity
  8
SUNPOU
 62
     0
100
AcDbTrace
 10
6671.301239887078
 20
4270.0
 30
0.0
 11
6671.301239887078
 21
4250.0
 31
0.0
 12
6611.301239887078
 22
4260.0
 32
0.0
 13
6611.301239887078
 23
4260.0
 33
0.0
  0
SOLID
  5
22E1
330
1709
100
AcDbEntity
  8
SUNPOU
 62
     0
100
AcDbTrace
 10
7051.301239887078
 20
4270.0
 30
0.0
 11
7051.301239887078
 21
4250.0
 31
0.0
 12
7111.301239887078
 22
4260.0
 32
0.0
 13
7111.301239887078
 23
4260.0
 33
0.0
  0
MTEXT
  5
22E2
330
1709
100
AcDbEntity
  8
SUNPOU
 62
     0
100
AcDbMText
 10
6861.301239887078
 20
4329.0
 30
0.0
 40
90.0
 41
0.0
 71
     5
 72
     1
  1
\A1;500
 73
     1
 44
1.0
  0
POINT
  5
22E3
330
1709
100
AcDbEntity
  8
DEFPOINTS
 62
     0
100
AcDbPoint
 10
6611.301239887078
 20
4910.0
 30
0.0
  0
POINT
  5
22E4
330
1709
100
AcDbEntity
  8
DEFPOINTS
 62
     0
100
AcDbPoint
 10
7111.301239887078
 20
4809.999999999999
 30
0.0
  0
POINT
  5
22E5
330
1709
100
AcDbEntity
  8
DEFPOINTS
 62
     0
100
AcDbPoint
 10
7111.301239887078
 20
4260.0
 30
0.0
  0
ENDBLK
  5
1714
330
1709
100
AcDbEntity
  8
0
100
AcDbBlockEnd
  0
BLOCK
  5
171F
330
1715
100
AcDbEntity
  8
0
100
AcDbBlockBegin
  2
*D19
 70
     1
 10
0.0
 20
0.0
 30
0.0
  3
*D19
  1

  0
LINE
  5
22E6
330
1715
100
AcDbEntity
  8
SUNPOU
 62
     0
370
    -2
100
AcDbLine
 10
8111.301239887078
 20
4850.0
 30
0.0
 11
8111.301239887078
 21
4245.0
 31
0.0
  0
LINE
  5
22E7
330
1715
100
AcDbEntity
  8
SUNPOU
 62
     0
370
    -2
100
AcDbLine
 10
7611.301239887078
 20
4850.0
 30
0.0
 11
7611.301239887078
 21
4245.0
 31
0.0
  0
LINE
  5
22E8
330
1715
100
AcDbEntity
  8
SUNPOU
 62
     0
370
    -2
100
AcDbLine
 10
8051.301239887078
 20
4260.0
 30
0.0
 11
7671.301239887078
 21
4260.0
 31
0.0
  0
SOLID
  5
22E9
330
1715
100
AcDbEntity
  8
SUNPOU
 62
     0
100
AcDbTrace
 10
8051.301239887078
 20
4270.0
 30
0.0
 11
8051.301239887078
 21
4250.0
 31
0.0
 12
8111.301239887078
 22
4260.0
 32
0.0
 13
8111.301239887078
 23
4260.0
 33
0.0
  0
SOLID
  5
22EA
330
1715
100
AcDbEntity
  8
SUNPOU
 62
     0
100
AcDbTrace
 10
7671.301239887078
 20
4270.0
 30
0.0
 11
7671.301239887078
 21
4250.0
 31
0.0
 12
7611.301239887078
 22
4260.0
 32
0.0
 13
7611.301239887078
 23
4260.0
 33
0.0
  0
MTEXT
  5
22EB
330
1715
100
AcDbEntity
  8
SUNPOU
 62
     0
100
AcDbMText
 10
7861.301239887078
 20
4329.0
 30
0.0
 40
90.0
 41
0.0
 71
     5
 72
     1
  1
\A1;500
 73
     1
 44
1.0
  0
POINT
  5
22EC
330
1715
100
AcDbEntity
  8
DEFPOINTS
 62
     0
100
AcDbPoint
 10
8111.301239887078
 20
4910.0
 30
0.0
  0
POINT
  5
22ED
330
1715
100
AcDbEntity
  8
DEFPOINTS
 62
     0
100
AcDbPoint
 10
7611.301239887078
 20
4910.0
 30
0.0
  0
POINT
  5
22EE
330
1715
100
AcDbEntity
  8
DEFPOINTS
 62
     0
100
AcDbPoint
 10
7611.301239887078
 20
4260.0
 30
0.0
  0
ENDBLK
  5
1720
330
1715
100
AcDbEntity
  8
0
100
AcDbBlockEnd
  0
BLOCK
  5
172B
330
1721
100
AcDbEntity
  8
0
100
AcDbBlockBegin
  2
*D20
 70
     1
 10
0.0
 20
0.0
 30
0.0
  3
*D20
  1

  0
LINE
  5
22EF
330
1721
100
AcDbEntity
  8
SUNPOU
 62
     0
370
    -2
100
AcDbLine
 10
7611.301239887078
 20
4850.0
 30
0.0
 11
7611.301239887078
 21
4245.0
 31
0.0
  0
LINE
  5
22F0
330
1721
100
AcDbEntity
  8
SUNPOU
 62
     0
370
    -2
100
AcDbLine
 10
7111.301239887078
 20
4749.999999999999
 30
0.0
 11
7111.301239887078
 21
4245.0
 31
0.0
  0
LINE
  5
22F1
330
1721
100
AcDbEntity
  8
SUNPOU
 62
     0
370
    -2
100
AcDbLine
 10
7551.301239887078
 20
4260.0
 30
0.0
 11
7171.301239887078
 21
4260.0
 31
0.0
  0
SOLID
  5
22F2
330
1721
100
AcDbEntity
  8
SUNPOU
 62
     0
100
AcDbTrace
 10
7551.301239887078
 20
4270.0
 30
0.0
 11
7551.301239887078
 21
4250.0
 31
0.0
 12
7611.301239887078
 22
4260.0
 32
0.0
 13
7611.301239887078
 23
4260.0
 33
0.0
  0
SOLID
  5
22F3
330
1721
100
AcDbEntity
  8
SUNPOU
 62
     0
100
AcDbTrace
 10
7171.301239887078
 20
4270.0
 30
0.0
 11
7171.301239887078
 21
4250.0
 31
0.0
 12
7111.301239887078
 22
4260.0
 32
0.0
 13
7111.301239887078
 23
4260.0
 33
0.0
  0
MTEXT
  5
22F4
330
1721
100
AcDbEntity
  8
SUNPOU
 62
     0
100
AcDbMText
 10
7361.301239887078
 20
4329.0
 30
0.0
 40
90.0
 41
0.0
 71
     5
 72
     1
  1
\A1;500
 73
     1
 44
1.0
  0
POINT
  5
22F5
330
1721
100
AcDbEntity
  8
DEFPOINTS
 62
     0
100
AcDbPoint
 10
7611.301239887078
 20
4910.0
 30
0.0
  0
POINT
  5
22F6
330
1721
100
AcDbEntity
  8
DEFPOINTS
 62
     0
100
AcDbPoint
 10
7111.301239887078
 20
4809.999999999999
 30
0.0
  0
POINT
  5
22F7
330
1721
100
AcDbEntity
  8
DEFPOINTS
 62
     0
100
AcDbPoint
 10
7111.301239887078
 20
4260.0
 30
0.0
  0
ENDBLK
  5
172C
330
1721
100
AcDbEntity
  8
0
100
AcDbBlockEnd
  0
BLOCK
  5
1744
330
173A
100
AcDbEntity
  8
0
100
AcDbBlockBegin
  2
*D21
 70
     1
 10
0.0
 20
0.0
 30
0.0
  3
*D21
  1

  0
LINE
  5
22F8
330
173A
100
AcDbEntity
  8
SUNPOU
 62
     0
370
    -2
100
AcDbLine
 10
2625.823086985067
 20
6660.0
 30
0.0
 11
1815.294312368322
 21
6660.000000000001
 31
0.0
  0
LINE
  5
22F9
330
173A
100
AcDbEntity
  8
SUNPOU
 62
     0
370
    -2
100
AcDbLine
 10
2625.823086985067
 20
4910.0
 30
0.0
 11
1815.294312368322
 21
4910.000000000001
 31
0.0
  0
LINE
  5
22FA
330
173A
100
AcDbEntity
  8
SUNPOU
 62
     0
370
    -2
100
AcDbLine
 10
1830.294312368322
 20
6600.000000000001
 30
0.0
 11
1830.294312368322
 21
4970.000000000001
 31
0.0
  0
SOLID
  5
22FB
330
173A
100
AcDbEntity
  8
SUNPOU
 62
     0
100
AcDbTrace
 10
1820.294312368322
 20
6600.000000000001
 30
0.0
 11
1840.294312368322
 21
6600.000000000001
 31
0.0
 12
1830.294312368322
 22
6660.000000000001
 32
0.0
 13
1830.294312368322
 23
6660.000000000001
 33
0.0
  0
SOLID
  5
22FC
330
173A
100
AcDbEntity
  8
SUNPOU
 62
     0
100
AcDbTrace
 10
1820.294312368322
 20
4970.000000000001
 30
0.0
 11
1840.294312368322
 21
4970.000000000001
 31
0.0
 12
1830.294312368322
 22
4910.000000000001
 32
0.0
 13
1830.294312368322
 23
4910.000000000001
 33
0.0
  0
MTEXT
  5
22FD
330
173A
100
AcDbEntity
  8
SUNPOU
 62
     0
100
AcDbMText
 10
1761.294312368321
 20
5785.000000000001
 30
0.0
 40
90.0
 41
0.0
 71
     5
 72
     1
  1
\A1;1750
 11
6.123031769111886E-17
 21
1.0
 31
0.0
 73
     1
 44
1.0
  0
POINT
  5
22FE
330
173A
100
AcDbEntity
  8
DEFPOINTS
 62
     0
100
AcDbPoint
 10
2685.823086985067
 20
6660.0
 30
0.0
  0
POINT
  5
22FF
330
173A
100
AcDbEntity
  8
DEFPOINTS
 62
     0
100
AcDbPoint
 10
2685.823086985067
 20
4910.0
 30
0.0
  0
POINT
  5
2300
330
173A
100
AcDbEntity
  8
DEFPOINTS
 62
     0
100
AcDbPoint
 10
1830.294312368322
 20
4910.000000000001
 30
0.0
  0
ENDBLK
  5
1745
330
173A
100
AcDbEntity
  8
0
100
AcDbBlockEnd
  0
BLOCK
  5
1750
330
1746
100
AcDbEntity
  8
0
100
AcDbBlockBegin
  2
*D22
 70
     1
 10
0.0
 20
0.0
 30
0.0
  3
*D22
  1

  0
LINE
  5
2301
330
1746
100
AcDbEntity
  8
SUNPOU
 62
     0
370
    -2
100
AcDbLine
 10
2625.823086985067
 20
5050.0
 30
0.0
 11
2004.288760709234
 21
5050.000000000001
 31
0.0
  0
LINE
  5
2302
330
1746
100
AcDbEntity
  8
SUNPOU
 62
     0
370
    -2
100
AcDbLine
 10
2625.823086985067
 20
6660.0
 30
0.0
 11
2004.288760709234
 21
6660.000000000001
 31
0.0
  0
LINE
  5
2303
330
1746
100
AcDbEntity
  8
SUNPOU
 62
     0
370
    -2
100
AcDbLine
 10
2019.288760709234
 20
5110.000000000001
 30
0.0
 11
2019.288760709234
 21
6600.000000000001
 31
0.0
  0
SOLID
  5
2304
330
1746
100
AcDbEntity
  8
SUNPOU
 62
     0
100
AcDbTrace
 10
2009.288760709234
 20
5110.000000000001
 30
0.0
 11
2029.288760709234
 21
5110.000000000001
 31
0.0
 12
2019.288760709234
 22
5050.000000000001
 32
0.0
 13
2019.288760709234
 23
5050.000000000001
 33
0.0
  0
SOLID
  5
2305
330
1746
100
AcDbEntity
  8
SUNPOU
 62
     0
100
AcDbTrace
 10
2009.288760709234
 20
6600.000000000001
 30
0.0
 11
2029.288760709234
 21
6600.000000000001
 31
0.0
 12
2019.288760709234
 22
6660.000000000001
 32
0.0
 13
2019.288760709234
 23
6660.000000000001
 33
0.0
  0
MTEXT
  5
2306
330
1746
100
AcDbEntity
  8
SUNPOU
 62
     0
100
AcDbMText
 10
1950.288760709233
 20
5855.000000000001
 30
0.0
 40
90.0
 41
0.0
 71
     5
 72
     1
  1
\A1;1610
 11
6.123031769111886E-17
 21
1.0
 31
0.0
 73
     1
 44
1.0
  0
POINT
  5
2307
330
1746
100
AcDbEntity
  8
DEFPOINTS
 62
     0
100
AcDbPoint
 10
2685.823086985067
 20
5050.0
 30
0.0
  0
POINT
  5
2308
330
1746
100
AcDbEntity
  8
DEFPOINTS
 62
     0
100
AcDbPoint
 10
2685.823086985067
 20
6660.0
 30
0.0
  0
POINT
  5
2309
330
1746
100
AcDbEntity
  8
DEFPOINTS
 62
     0
100
AcDbPoint
 10
2019.288760709234
 20
6660.000000000001
 30
0.0
  0
ENDBLK
  5
1751
330
1746
100
AcDbEntity
  8
0
100
AcDbBlockEnd
  0
BLOCK
  5
1775
330
176A
100
AcDbEntity
  8
0
100
AcDbBlockBegin
  2
*D23
 70
     1
 10
0.0
 20
0.0
 30
0.0
  3
*D23
  1

  0
LINE
  5
230A
330
176A
100
AcDbEntity
  8
SUNPOU
 62
     0
370
    -2
100
AcDbLine
 10
4045.823086985067
 20
4910.0
 30
0.0
 11
4350.823086985067
 21
4910.0
 31
0.0
  0
LINE
  5
230B
330
176A
100
AcDbEntity
  8
SUNPOU
 62
     0
370
    -2
100
AcDbLine
 10
4045.823086985067
 20
4985.555555555556
 30
0.0
 11
4350.823086985067
 21
4985.555555555556
 31
0.0
  0
LINE
  5
230C
330
176A
100
AcDbEntity
  8
SUNPOU
 62
     0
370
    -2
100
AcDbLine
 10
4335.823086985067
 20
4850.0
 30
0.0
 11
4335.823086985067
 21
4790.0
 31
0.0
  0
LINE
  5
230D
330
176A
100
AcDbEntity
  8
SUNPOU
 62
     0
370
    -2
100
AcDbLine
 10
4335.823086985067
 20
5045.555555555556
 30
0.0
 11
4335.823086985067
 21
5105.555555555556
 31
0.0
  0
SOLID
  5
230E
330
176A
100
AcDbEntity
  8
SUNPOU
 62
     0
100
AcDbTrace
 10
4325.823086985067
 20
4850.0
 30
0.0
 11
4345.823086985067
 21
4850.0
 31
0.0
 12
4335.823086985067
 22
4910.0
 32
0.0
 13
4335.823086985067
 23
4910.0
 33
0.0
  0
SOLID
  5
230F
330
176A
100
AcDbEntity
  8
SUNPOU
 62
     0
100
AcDbTrace
 10
4325.823086985067
 20
5045.555555555556
 30
0.0
 11
4345.823086985067
 21
5045.555555555556
 31
0.0
 12
4335.823086985067
 22
4985.555555555556
 32
0.0
 13
4335.823086985067
 23
4985.555555555556
 33
0.0
  0
MTEXT
  5
2310
330
176A
100
AcDbEntity
  8
SUNPOU
 62
     0
100
AcDbMText
 10
4266.823086985066
 20
4947.777777777779
 30
0.0
 40
90.0
 41
0.0
 71
     5
 72
     1
  1
\A1;76
 11
6.123031769111886E-17
 21
1.0
 31
0.0
 73
     1
 44
1.0
  0
POINT
  5
2311
330
176A
100
AcDbEntity
  8
DEFPOINTS
 62
     0
100
AcDbPoint
 10
3985.823086985067
 20
4910.0
 30
0.0
  0
POINT
  5
2312
330
176A
100
AcDbEntity
  8
DEFPOINTS
 62
     0
100
AcDbPoint
 10
3985.823086985067
 20
4985.555555555556
 30
0.0
  0
POINT
  5
2313
330
176A
100
AcDbEntity
  8
DEFPOINTS
 62
     0
100
AcDbPoint
 10
4335.823086985067
 20
4985.555555555556
 30
0.0
  0
ENDBLK
  5
1776
330
176A
100
AcDbEntity
  8
0
100
AcDbBlockEnd
  0
BLOCK
  5
178E
330
1784
100
AcDbEntity
  8
0
100
AcDbBlockBegin
  2
*D24
 70
     1
 10
0.0
 20
0.0
 30
0.0
  3
*D24
  1

  0
LINE
  5
2314
330
1784
100
AcDbEntity
  8
SUNPOU
 62
     0
370
    -2
100
AcDbLine
 10
3985.823086985067
 20
4850.0
 30
0.0
 11
3985.823086985067
 21
4194.856361733262
 31
0.0
  0
LINE
  5
2315
330
1784
100
AcDbEntity
  8
SUNPOU
 62
     0
370
    -2
100
AcDbLine
 10
2685.823086985067
 20
4850.0
 30
0.0
 11
2685.823086985067
 21
4194.856361733262
 31
0.0
  0
LINE
  5
2316
330
1784
100
AcDbEntity
  8
SUNPOU
 62
     0
370
    -2
100
AcDbLine
 10
3925.823086985067
 20
4209.856361733262
 30
0.0
 11
2745.823086985067
 21
4209.856361733262
 31
0.0
  0
SOLID
  5
2317
330
1784
100
AcDbEntity
  8
SUNPOU
 62
     0
100
AcDbTrace
 10
3925.823086985067
 20
4219.856361733262
 30
0.0
 11
3925.823086985067
 21
4199.856361733262
 31
0.0
 12
3985.823086985067
 22
4209.856361733262
 32
0.0
 13
3985.823086985067
 23
4209.856361733262
 33
0.0
  0
SOLID
  5
2318
330
1784
100
AcDbEntity
  8
SUNPOU
 62
     0
100
AcDbTrace
 10
2745.823086985067
 20
4219.856361733262
 30
0.0
 11
2745.823086985067
 21
4199.856361733262
 31
0.0
 12
2685.823086985067
 22
4209.856361733262
 32
0.0
 13
2685.823086985067
 23
4209.856361733262
 33
0.0
  0
MTEXT
  5
2319
330
1784
100
AcDbEntity
  8
SUNPOU
 62
     0
100
AcDbMText
 10
3335.823086985067
 20
4278.856361733262
 30
0.0
 40
90.0
 41
0.0
 71
     5
 72
     1
  1
\A1;1300
 73
     1
 44
1.0
  0
POINT
  5
231A
330
1784
100
AcDbEntity
  8
DEFPOINTS
 62
     0
100
AcDbPoint
 10
3985.823086985067
 20
4910.0
 30
0.0
  0
POINT
  5
231B
330
1784
100
AcDbEntity
  8
DEFPOINTS
 62
     0
100
AcDbPoint
 10
2685.823086985067
 20
4910.0
 30
0.0
  0
POINT
  5
231C
330
1784
100
AcDbEntity
  8
DEFPOINTS
 62
     0
100
AcDbPoint
 10
2685.823086985067
 20
4209.856361733262
 30
0.0
  0
ENDBLK
  5
178F
330
1784
100
AcDbEntity
  8
0
100
AcDbBlockEnd
  0
BLOCK
  5
179A
330
1790
100
AcDbEntity
  8
0
100
AcDbBlockBegin
  2
*D25
 70
     1
 10
0.0
 20
0.0
 30
0.0
  3
*D25
  1

  0
LINE
  5
231D
330
1790
100
AcDbEntity
  8
SUNPOU
 62
     0
370
    -2
100
AcDbLine
 10
2825.823086985067
 20
4850.0
 30
0.0
 11
2825.823086985067
 21
4382.599565385492
 31
0.0
  0
LINE
  5
231E
330
1790
100
AcDbEntity
  8
SUNPOU
 62
     0
370
    -2
100
AcDbLine
 10
3985.823086985067
 20
4849.999999999999
 30
0.0
 11
3985.823086985067
 21
4382.599565385492
 31
0.0
  0
LINE
  5
231F
330
1790
100
AcDbEntity
  8
SUNPOU
 62
     0
370
    -2
100
AcDbLine
 10
2885.823086985067
 20
4397.599565385492
 30
0.0
 11
3925.823086985067
 21
4397.599565385492
 31
0.0
  0
SOLID
  5
2320
330
1790
100
AcDbEntity
  8
SUNPOU
 62
     0
100
AcDbTrace
 10
2885.823086985067
 20
4407.599565385492
 30
0.0
 11
2885.823086985067
 21
4387.599565385492
 31
0.0
 12
2825.823086985067
 22
4397.599565385492
 32
0.0
 13
2825.823086985067
 23
4397.599565385492
 33
0.0
  0
SOLID
  5
2321
330
1790
100
AcDbEntity
  8
SUNPOU
 62
     0
100
AcDbTrace
 10
3925.823086985067
 20
4407.599565385492
 30
0.0
 11
3925.823086985067
 21
4387.599565385492
 31
0.0
 12
3985.823086985067
 22
4397.599565385492
 32
0.0
 13
3985.823086985067
 23
4397.599565385492
 33
0.0
  0
MTEXT
  5
2322
330
1790
100
AcDbEntity
  8
SUNPOU
 62
     0
100
AcDbMText
 10
3405.823086985067
 20
4466.599565385492
 30
0.0
 40
90.0
 41
0.0
 71
     5
 72
     1
  1
\A1;1160
 73
     1
 44
1.0
  0
POINT
  5
2323
330
1790
100
AcDbEntity
  8
DEFPOINTS
 62
     0
100
AcDbPoint
 10
2825.823086985067
 20
4910.0
 30
0.0
  0
POINT
  5
2324
330
1790
100
AcDbEntity
  8
DEFPOINTS
 62
     0
100
AcDbPoint
 10
3985.823086985067
 20
4909.999999999999
 30
0.0
  0
POINT
  5
2325
330
1790
100
AcDbEntity
  8
DEFPOINTS
 62
     0
100
AcDbPoint
 10
3985.823086985067
 20
4397.599565385492
 30
0.0
  0
ENDBLK
  5
179B
330
1790
100
AcDbEntity
  8
0
100
AcDbBlockEnd
  0
BLOCK
  5
17A6
330
179C
100
AcDbEntity
  8
0
100
AcDbBlockBegin
  2
*D26
 70
     1
 10
0.0
 20
0.0
 30
0.0
  3
*D26
  1

  0
LINE
  5
2326
330
179C
100
AcDbEntity
  8
SUNPOU
 62
     0
370
    -2
100
AcDbLine
 10
6051.301239887078
 20
4910.0
 30
0.0
 11
5392.768000218485
 21
4910.0
 31
0.0
  0
LINE
  5
2327
330
179C
100
AcDbEntity
  8
SUNPOU
 62
     0
370
    -2
100
AcDbLine
 10
6051.301239887078
 20
6660.0
 30
0.0
 11
5392.768000218486
 21
6660.0
 31
0.0
  0
LINE
  5
2328
330
179C
100
AcDbEntity
  8
SUNPOU
 62
     0
370
    -2
100
AcDbLine
 10
5407.768000218485
 20
4970.0
 30
0.0
 11
5407.768000218486
 21
6600.0
 31
0.0
  0
SOLID
  5
2329
330
179C
100
AcDbEntity
  8
SUNPOU
 62
     0
100
AcDbTrace
 10
5397.768000218485
 20
4970.0
 30
0.0
 11
5417.768000218485
 21
4970.0
 31
0.0
 12
5407.768000218485
 22
4910.0
 32
0.0
 13
5407.768000218485
 23
4910.0
 33
0.0
  0
SOLID
  5
232A
330
179C
100
AcDbEntity
  8
SUNPOU
 62
     0
100
AcDbTrace
 10
5397.768000218486
 20
6600.0
 30
0.0
 11
5417.768000218486
 21
6600.0
 31
0.0
 12
5407.768000218486
 22
6660.0
 32
0.0
 13
5407.768000218486
 23
6660.0
 33
0.0
  0
MTEXT
  5
232B
330
179C
100
AcDbEntity
  8
SUNPOU
 62
     0
100
AcDbMText
 10
5338.768000218484
 20
5785.000000000001
 30
0.0
 40
90.0
 41
0.0
 71
     5
 72
     1
  1
\A1;1750
 11
6.123031769111886E-17
 21
1.0
 31
0.0
 73
     1
 44
1.0
  0
POINT
  5
232C
330
179C
100
AcDbEntity
  8
DEFPOINTS
 62
     0
100
AcDbPoint
 10
6111.301239887078
 20
4910.0
 30
0.0
  0
POINT
  5
232D
330
179C
100
AcDbEntity
  8
DEFPOINTS
 62
     0
100
AcDbPoint
 10
6111.301239887078
 20
6660.0
 30
0.0
  0
POINT
  5
232E
330
179C
100
AcDbEntity
  8
DEFPOINTS
 62
     0
100
AcDbPoint
 10
5407.768000218486
 20
6660.0
 30
0.0
  0
ENDBLK
  5
17A7
330
179C
100
AcDbEntity
  8
0
100
AcDbBlockEnd
  0
BLOCK
  5
1812
330
1808
100
AcDbEntity
  8
0
100
AcDbBlockBegin
  2
*D27
 70
     1
 10
0.0
 20
0.0
 30
0.0
  3
*D27
  1

  0
LINE
  5
232F
330
1808
100
AcDbEntity
  8
SUNPOU
 62
     0
370
    -2
100
AcDbLine
 10
6111.301239887078
 20
2821.152323565129
 30
0.0
 11
6111.301239887078
 21
3407.508436312048
 31
0.0
  0
LINE
  5
2330
330
1808
100
AcDbEntity
  8
SUNPOU
 62
     0
370
    -2
100
AcDbLine
 10
8111.301239887078
 20
2821.152323565129
 30
0.0
 11
8111.301239887078
 21
3407.508436312048
 31
0.0
  0
LINE
  5
2331
330
1808
100
AcDbEntity
  8
SUNPOU
 62
     0
370
    -2
100
AcDbLine
 10
6171.301239887078
 20
3392.508436312048
 30
0.0
 11
8051.301239887078
 21
3392.508436312048
 31
0.0
  0
SOLID
  5
2332
330
1808
100
AcDbEntity
  8
SUNPOU
 62
     0
100
AcDbTrace
 10
6171.301239887078
 20
3402.508436312048
 30
0.0
 11
6171.301239887078
 21
3382.508436312048
 31
0.0
 12
6111.301239887078
 22
3392.508436312048
 32
0.0
 13
6111.301239887078
 23
3392.508436312048
 33
0.0
  0
SOLID
  5
2333
330
1808
100
AcDbEntity
  8
SUNPOU
 62
     0
100
AcDbTrace
 10
8051.301239887078
 20
3402.508436312048
 30
0.0
 11
8051.301239887078
 21
3382.508436312048
 31
0.0
 12
8111.301239887078
 22
3392.508436312048
 32
0.0
 13
8111.301239887078
 23
3392.508436312048
 33
0.0
  0
MTEXT
  5
2334
330
1808
100
AcDbEntity
  8
SUNPOU
 62
     0
100
AcDbMText
 10
7111.301239887078
 20
3461.508436312048
 30
0.0
 40
90.0
 41
0.0
 71
     5
 72
     1
  1
\A1;2000
 73
     1
 44
1.0
  0
POINT
  5
2335
330
1808
100
AcDbEntity
  8
DEFPOINTS
 62
     0
100
AcDbPoint
 10
6111.301239887078
 20
2761.152323565129
 30
0.0
  0
POINT
  5
2336
330
1808
100
AcDbEntity
  8
DEFPOINTS
 62
     0
100
AcDbPoint
 10
8111.301239887078
 20
2761.152323565129
 30
0.0
  0
POINT
  5
2337
330
1808
100
AcDbEntity
  8
DEFPOINTS
 62
     0
100
AcDbPoint
 10
8111.301239887078
 20
3392.508436312048
 30
0.0
  0
ENDBLK
  5
1813
330
1808
100
AcDbEntity
  8
0
100
AcDbBlockEnd
  0
BLOCK
  5
1838
330
182E
100
AcDbEntity
  8
0
100
AcDbBlockBegin
  2
*D28
 70
     1
 10
0.0
 20
0.0
 30
0.0
  3
*D28
  1

  0
LINE
  5
2338
330
182E
100
AcDbEntity
  8
SUNPOU
 62
     0
370
    -2
100
AcDbLine
 10
6051.301239887078
 20
2761.152323565129
 30
0.0
 11
5356.530663939463
 21
2761.152323565129
 31
0.0
  0
LINE
  5
2339
330
182E
100
AcDbEntity
  8
SUNPOU
 62
     0
370
    -2
100
AcDbLine
 10
6101.301239887076
 20
1461.152323565129
 30
0.0
 11
5356.530663939462
 21
1461.15232356513
 31
0.0
  0
LINE
  5
233A
330
182E
100
AcDbEntity
  8
SUNPOU
 62
     0
370
    -2
100
AcDbLine
 10
5371.530663939463
 20
2701.152323565129
 30
0.0
 11
5371.530663939462
 21
1521.15232356513
 31
0.0
  0
SOLID
  5
233B
330
182E
100
AcDbEntity
  8
SUNPOU
 62
     0
100
AcDbTrace
 10
5361.530663939463
 20
2701.152323565129
 30
0.0
 11
5381.530663939463
 21
2701.152323565129
 31
0.0
 12
5371.530663939463
 22
2761.152323565129
 32
0.0
 13
5371.530663939463
 23
2761.152323565129
 33
0.0
  0
SOLID
  5
233C
330
182E
100
AcDbEntity
  8
SUNPOU
 62
     0
100
AcDbTrace
 10
5361.530663939462
 20
1521.15232356513
 30
0.0
 11
5381.530663939462
 21
1521.15232356513
 31
0.0
 12
5371.530663939462
 22
1461.15232356513
 32
0.0
 13
5371.530663939462
 23
1461.15232356513
 33
0.0
  0
MTEXT
  5
233D
330
182E
100
AcDbEntity
  8
SUNPOU
 62
     0
100
AcDbMText
 10
5302.530663939462
 20
2111.15232356513
 30
0.0
 40
90.0
 41
0.0
 71
     5
 72
     1
  1
\A1;1300
 11
6.123031769111886E-17
 21
1.0
 31
0.0
 73
     1
 44
1.0
  0
POINT
  5
233E
330
182E
100
AcDbEntity
  8
DEFPOINTS
 62
     0
100
AcDbPoint
 10
6111.301239887078
 20
2761.152323565129
 30
0.0
  0
POINT
  5
233F
330
182E
100
AcDbEntity
  8
DEFPOINTS
 62
     0
100
AcDbPoint
 10
6161.301239887076
 20
1461.152323565129
 30
0.0
  0
POINT
  5
2340
330
182E
100
AcDbEntity
  8
DEFPOINTS
 62
     0
100
AcDbPoint
 10
5371.530663939462
 20
1461.15232356513
 30
0.0
  0
ENDBLK
  5
1839
330
182E
100
AcDbEntity
  8
0
100
AcDbBlockEnd
  0
BLOCK
  5
1844
330
183A
100
AcDbEntity
  8
0
100
AcDbBlockBegin
  2
*D29
 70
     1
 10
0.0
 20
0.0
 30
0.0
  3
*D29
  1

  0
LINE
  5
23DB
330
183A
100
AcDbEntity
  8
SUNPOU
 62
     0
370
    -2
100
AcDbLine
 10
6101.30123988708
 20
2439.149783186683
 30
0.0
 11
5533.763127953033
 21
2439.149783186683
 31
0.0
  0
LINE
  5
23DC
330
183A
100
AcDbEntity
  8
SUNPOU
 62
     0
370
    -2
100
AcDbLine
 10
6101.301239887076
 20
1461.152323565129
 30
0.0
 11
5533.763127953032
 21
1461.15232356513
 31
0.0
  0
LINE
  5
23DD
330
183A
100
AcDbEntity
  8
SUNPOU
 62
     0
370
    -2
100
AcDbLine
 10
5548.763127953033
 20
2379.149783186683
 30
0.0
 11
5548.763127953032
 21
1521.15232356513
 31
0.0
  0
SOLID
  5
23DE
330
183A
100
AcDbEntity
  8
SUNPOU
 62
     0
100
AcDbTrace
 10
5538.763127953033
 20
2379.149783186683
 30
0.0
 11
5558.763127953033
 21
2379.149783186683
 31
0.0
 12
5548.763127953033
 22
2439.149783186683
 32
0.0
 13
5548.763127953033
 23
2439.149783186683
 33
0.0
  0
SOLID
  5
23DF
330
183A
100
AcDbEntity
  8
SUNPOU
 62
     0
100
AcDbTrace
 10
5538.763127953032
 20
1521.15232356513
 30
0.0
 11
5558.763127953032
 21
1521.15232356513
 31
0.0
 12
5548.763127953032
 22
1461.15232356513
 32
0.0
 13
5548.763127953032
 23
1461.15232356513
 33
0.0
  0
MTEXT
  5
23E0
330
183A
100
AcDbEntity
  8
SUNPOU
 62
     0
100
AcDbMText
 10
5479.763127953032
 20
1950.151053375907
 30
0.0
 40
90.0
 41
0.0
 71
     5
 72
     1
  1
\A1;978
 11
6.123031769111886E-17
 21
1.0
 31
0.0
 73
     1
 44
1.0
  0
POINT
  5
23E1
330
183A
100
AcDbEntity
  8
DEFPOINTS
 62
     0
100
AcDbPoint
 10
6161.30123988708
 20
2439.149783186683
 30
0.0
  0
POINT
  5
23E2
330
183A
100
AcDbEntity
  8
DEFPOINTS
 62
     0
100
AcDbPoint
 10
6161.301239887076
 20
1461.152323565129
 30
0.0
  0
POINT
  5
23E3
330
183A
100
AcDbEntity
  8
DEFPOINTS
 62
     0
100
AcDbPoint
 10
5548.763127953032
 20
1461.15232356513
 30
0.0
  0
ENDBLK
  5
1845
330
183A
100
AcDbEntity
  8
0
100
AcDbBlockEnd
  0
BLOCK
  5
189A
330
1890
100
AcDbEntity
  8
0
100
AcDbBlockBegin
  2
*D30
 70
     1
 10
0.0
 20
0.0
 30
0.0
  3
*D30
  1

  0
LINE
  5
234A
330
1890
100
AcDbEntity
  8
SUNPOU
 62
     0
370
    -2
100
AcDbLine
 10
2815.823086985067
 20
6660.0
 30
0.0
 11
4350.823086985067
 21
6660.0
 31
0.0
  0
LINE
  5
234B
330
1890
100
AcDbEntity
  8
SUNPOU
 62
     0
370
    -2
100
AcDbLine
 10
2815.823086985067
 20
6500.0
 30
0.0
 11
4350.823086985067
 21
6500.0
 31
0.0
  0
LINE
  5
234C
330
1890
100
AcDbEntity
  8
SUNPOU
 62
     0
370
    -2
100
AcDbLine
 10
4335.823086985067
 20
6720.0
 30
0.0
 11
4335.823086985067
 21
6780.0
 31
0.0
  0
LINE
  5
234D
330
1890
100
AcDbEntity
  8
SUNPOU
 62
     0
370
    -2
100
AcDbLine
 10
4335.823086985067
 20
6440.0
 30
0.0
 11
4335.823086985067
 21
6380.0
 31
0.0
  0
SOLID
  5
234E
330
1890
100
AcDbEntity
  8
SUNPOU
 62
     0
100
AcDbTrace
 10
4325.823086985067
 20
6720.0
 30
0.0
 11
4345.823086985067
 21
6720.0
 31
0.0
 12
4335.823086985067
 22
6660.0
 32
0.0
 13
4335.823086985067
 23
6660.0
 33
0.0
  0
SOLID
  5
234F
330
1890
100
AcDbEntity
  8
SUNPOU
 62
     0
100
AcDbTrace
 10
4325.823086985067
 20
6440.0
 30
0.0
 11
4345.823086985067
 21
6440.0
 31
0.0
 12
4335.823086985067
 22
6500.0
 32
0.0
 13
4335.823086985067
 23
6500.0
 33
0.0
  0
MTEXT
  5
2350
330
1890
100
AcDbEntity
  8
SUNPOU
 62
     0
100
AcDbMText
 10
4266.823086985065
 20
6580.000000000001
 30
0.0
 40
90.0
 41
0.0
 71
     5
 72
     1
  1
\A1;160
 11
6.123031769111886E-17
 21
1.0
 31
0.0
 73
     1
 44
1.0
  0
POINT
  5
2351
330
1890
100
AcDbEntity
  8
DEFPOINTS
 62
     0
100
AcDbPoint
 10
2755.823086985067
 20
6660.0
 30
0.0
  0
POINT
  5
2352
330
1890
100
AcDbEntity
  8
DEFPOINTS
 62
     0
100
AcDbPoint
 10
2755.823086985067
 20
6500.0
 30
0.0
  0
POINT
  5
2353
330
1890
100
AcDbEntity
  8
DEFPOINTS
 62
     0
100
AcDbPoint
 10
4335.823086985067
 20
6500.0
 30
0.0
  0
ENDBLK
  5
189B
330
1890
100
AcDbEntity
  8
0
100
AcDbBlockEnd
  0
BLOCK
  5
18A6
330
189C
100
AcDbEntity
  8
0
100
AcDbBlockBegin
  2
*D31
 70
     1
 10
0.0
 20
0.0
 30
0.0
  3
*D31
  1

  0
LINE
  5
2354
330
189C
100
AcDbEntity
  8
SUNPOU
 62
     0
370
    -2
100
AcDbLine
 10
2875.823086985067
 20
6500.0
 30
0.0
 11
4350.823086985068
 21
6500.0
 31
0.0
  0
LINE
  5
2355
330
189C
100
AcDbEntity
  8
SUNPOU
 62
     0
370
    -2
100
AcDbLine
 10
4045.823086985067
 20
4985.555555555556
 30
0.0
 11
4350.823086985067
 21
4985.555555555556
 31
0.0
  0
LINE
  5
2356
330
189C
100
AcDbEntity
  8
SUNPOU
 62
     0
370
    -2
100
AcDbLine
 10
4335.823086985068
 20
6440.0
 30
0.0
 11
4335.823086985067
 21
5045.555555555556
 31
0.0
  0
SOLID
  5
2357
330
189C
100
AcDbEntity
  8
SUNPOU
 62
     0
100
AcDbTrace
 10
4325.823086985068
 20
6440.0
 30
0.0
 11
4345.823086985068
 21
6440.0
 31
0.0
 12
4335.823086985068
 22
6500.0
 32
0.0
 13
4335.823086985068
 23
6500.0
 33
0.0
  0
SOLID
  5
2358
330
189C
100
AcDbEntity
  8
SUNPOU
 62
     0
100
AcDbTrace
 10
4325.823086985067
 20
5045.555555555556
 30
0.0
 11
4345.823086985067
 21
5045.555555555556
 31
0.0
 12
4335.823086985067
 22
4985.555555555556
 32
0.0
 13
4335.823086985067
 23
4985.555555555556
 33
0.0
  0
MTEXT
  5
2359
330
189C
100
AcDbEntity
  8
SUNPOU
 62
     0
100
AcDbMText
 10
4266.823086985066
 20
5742.777777777779
 30
0.0
 40
90.0
 41
0.0
 71
     5
 72
     1
  1
\A1;1514
 11
6.123031769111886E-17
 21
1.0
 31
0.0
 73
     1
 44
1.0
  0
POINT
  5
235A
330
189C
100
AcDbEntity
  8
DEFPOINTS
 62
     0
100
AcDbPoint
 10
2815.823086985067
 20
6500.0
 30
0.0
  0
POINT
  5
235B
330
189C
100
AcDbEntity
  8
DEFPOINTS
 62
     0
100
AcDbPoint
 10
3985.823086985067
 20
4985.555555555556
 30
0.0
  0
POINT
  5
235C
330
189C
100
AcDbEntity
  8
DEFPOINTS
 62
     0
100
AcDbPoint
 10
4335.823086985067
 20
4985.555555555556
 30
0.0
  0
ENDBLK
  5
18A7
330
189C
100
AcDbEntity
  8
0
100
AcDbBlockEnd
  0
BLOCK
  5
2166
330
215C
100
AcDbEntity
  8
0
100
AcDbBlockBegin
  2
*D32
 70
     1
 10
0.0
 20
0.0
 30
0.0
  3
*D32
  1

  0
LINE
  5
235D
330
215C
100
AcDbEntity
  8
SUNPOU
 62
     0
370
    -2
100
AcDbLine
 10
6051.301239887078
 20
5310.0
 30
0.0
 11
5596.301239887078
 21
5310.0
 31
0.0
  0
LINE
  5
235E
330
215C
100
AcDbEntity
  8
SUNPOU
 62
     0
370
    -2
100
AcDbLine
 10
6051.301239887078
 20
6660.0
 30
0.0
 11
5596.301239887079
 21
6660.0
 31
0.0
  0
LINE
  5
235F
330
215C
100
AcDbEntity
  8
SUNPOU
 62
     0
370
    -2
100
AcDbLine
 10
5611.301239887078
 20
5370.0
 30
0.0
 11
5611.301239887079
 21
6600.0
 31
0.0
  0
SOLID
  5
2360
330
215C
100
AcDbEntity
  8
SUNPOU
 62
     0
100
AcDbTrace
 10
5601.301239887078
 20
5370.0
 30
0.0
 11
5621.301239887078
 21
5370.0
 31
0.0
 12
5611.301239887078
 22
5310.0
 32
0.0
 13
5611.301239887078
 23
5310.0
 33
0.0
  0
SOLID
  5
2361
330
215C
100
AcDbEntity
  8
SUNPOU
 62
     0
100
AcDbTrace
 10
5601.301239887079
 20
6600.0
 30
0.0
 11
5621.301239887079
 21
6600.0
 31
0.0
 12
5611.301239887079
 22
6660.0
 32
0.0
 13
5611.301239887079
 23
6660.0
 33
0.0
  0
MTEXT
  5
2362
330
215C
100
AcDbEntity
  8
SUNPOU
 62
     0
100
AcDbMText
 10
5542.301239887077
 20
5985.000000000001
 30
0.0
 40
90.0
 41
0.0
 71
     5
 72
     1
  1
\A1;1350
 11
6.123031769111886E-17
 21
1.0
 31
0.0
 73
     1
 44
1.0
  0
POINT
  5
2363
330
215C
100
AcDbEntity
  8
DEFPOINTS
 62
     0
100
AcDbPoint
 10
6111.301239887078
 20
5310.0
 30
0.0
  0
POINT
  5
2364
330
215C
100
AcDbEntity
  8
DEFPOINTS
 62
     0
100
AcDbPoint
 10
6111.301239887078
 20
6660.0
 30
0.0
  0
POINT
  5
2365
330
215C
100
AcDbEntity
  8
DEFPOINTS
 62
     0
100
AcDbPoint
 10
5611.301239887079
 20
6660.0
 30
0.0
  0
ENDBLK
  5
2167
330
215C
100
AcDbEntity
  8
0
100
AcDbBlockEnd
  0
BLOCK
  5
21BD
330
21B2
100
AcDbEntity
  8
0
100
AcDbBlockBegin
  2
*D33
 70
     1
 10
0.0
 20
0.0
 30
0.0
  3
*D33
  1

  0
LINE
  5
2366
330
21B2
100
AcDbEntity
  8
SUNPOU
 62
     0
370
    -2
100
AcDbLine
 10
8061.301239887078
 20
1401.152323565129
 30
0.0
 11
8061.301239887078
 21
926.0197891429489
 31
0.0
  0
LINE
  5
2367
330
21B2
100
AcDbEntity
  8
SUNPOU
 62
     0
370
    -2
100
AcDbLine
 10
8111.301239887078
 20
1401.152323565129
 30
0.0
 11
8111.301239887078
 21
926.0197891429489
 31
0.0
  0
LINE
  5
2368
330
21B2
100
AcDbEntity
  8
SUNPOU
 62
     0
370
    -2
100
AcDbLine
 10
8001.301239887078
 20
941.0197891429489
 30
0.0
 11
7941.301239887078
 21
941.0197891429489
 31
0.0
  0
LINE
  5
2369
330
21B2
100
AcDbEntity
  8
SUNPOU
 62
     0
370
    -2
100
AcDbLine
 10
8171.301239887078
 20
941.0197891429489
 30
0.0
 11
8231.301239887078
 21
941.0197891429489
 31
0.0
  0
SOLID
  5
236A
330
21B2
100
AcDbEntity
  8
SUNPOU
 62
     0
100
AcDbTrace
 10
8001.301239887078
 20
951.0197891429489
 30
0.0
 11
8001.301239887078
 21
931.0197891429489
 31
0.0
 12
8061.301239887078
 22
941.0197891429489
 32
0.0
 13
8061.301239887078
 23
941.0197891429489
 33
0.0
  0
SOLID
  5
236B
330
21B2
100
AcDbEntity
  8
SUNPOU
 62
     0
100
AcDbTrace
 10
8171.301239887078
 20
951.0197891429489
 30
0.0
 11
8171.301239887078
 21
931.0197891429489
 31
0.0
 12
8111.301239887078
 22
941.0197891429489
 32
0.0
 13
8111.301239887078
 23
941.0197891429489
 33
0.0
  0
MTEXT
  5
236C
330
21B2
100
AcDbEntity
  8
SUNPOU
 62
     0
100
AcDbMText
 10
8086.301239887078
 20
1010.019789142949
 30
0.0
 40
90.0
 41
0.0
 71
     5
 72
     1
  1
\A1;50
 73
     1
 44
1.0
  0
POINT
  5
236D
330
21B2
100
AcDbEntity
  8
DEFPOINTS
 62
     0
100
AcDbPoint
 10
8061.301239887078
 20
1461.152323565129
 30
0.0
  0
POINT
  5
236E
330
21B2
100
AcDbEntity
  8
DEFPOINTS
 62
     0
100
AcDbPoint
 10
8111.301239887078
 20
1461.152323565129
 30
0.0
  0
POINT
  5
236F
330
21B2
100
AcDbEntity
  8
DEFPOINTS
 62
     0
100
AcDbPoint
 10
8111.301239887078
 20
941.0197891429489
 30
0.0
  0
ENDBLK
  5
21BE
330
21B2
100
AcDbEntity
  8
0
100
AcDbBlockEnd
  0
BLOCK
  5
21CB
330
21C0
100
AcDbEntity
  8
0
100
AcDbBlockBegin
  2
*D34
 70
     1
 10
0.0
 20
0.0
 30
0.0
  3
*D34
  1

  0
LINE
  5
2370
330
21C0
100
AcDbEntity
  8
SUNPOU
 62
     0
370
    -2
100
AcDbLine
 10
6161.301239887078
 20
1401.152323565129
 30
0.0
 11
6161.301239887078
 21
926.0197891429489
 31
0.0
  0
LINE
  5
2371
330
21C0
100
AcDbEntity
  8
SUNPOU
 62
     0
370
    -2
100
AcDbLine
 10
6111.301239887078
 20
1401.152323565129
 30
0.0
 11
6111.301239887078
 21
926.0197891429489
 31
0.0
  0
LINE
  5
2372
330
21C0
100
AcDbEntity
  8
SUNPOU
 62
     0
370
    -2
100
AcDbLine
 10
6221.301239887078
 20
941.0197891429489
 30
0.0
 11
6281.301239887078
 21
941.0197891429489
 31
0.0
  0
LINE
  5
2373
330
21C0
100
AcDbEntity
  8
SUNPOU
 62
     0
370
    -2
100
AcDbLine
 10
6051.301239887078
 20
941.0197891429489
 30
0.0
 11
5991.301239887078
 21
941.0197891429489
 31
0.0
  0
SOLID
  5
2374
330
21C0
100
AcDbEntity
  8
SUNPOU
 62
     0
100
AcDbTrace
 10
6221.301239887078
 20
951.0197891429489
 30
0.0
 11
6221.301239887078
 21
931.0197891429489
 31
0.0
 12
6161.301239887078
 22
941.0197891429489
 32
0.0
 13
6161.301239887078
 23
941.0197891429489
 33
0.0
  0
SOLID
  5
2375
330
21C0
100
AcDbEntity
  8
SUNPOU
 62
     0
100
AcDbTrace
 10
6051.301239887078
 20
951.0197891429489
 30
0.0
 11
6051.301239887078
 21
931.0197891429489
 31
0.0
 12
6111.301239887078
 22
941.0197891429489
 32
0.0
 13
6111.301239887078
 23
941.0197891429489
 33
0.0
  0
MTEXT
  5
2376
330
21C0
100
AcDbEntity
  8
SUNPOU
 62
     0
100
AcDbMText
 10
6136.301239887078
 20
1010.019789142949
 30
0.0
 40
90.0
 41
0.0
 71
     5
 72
     1
  1
\A1;50
 73
     1
 44
1.0
  0
POINT
  5
2377
330
21C0
100
AcDbEntity
  8
DEFPOINTS
 62
     0
100
AcDbPoint
 10
6161.301239887078
 20
1461.152323565129
 30
0.0
  0
POINT
  5
2378
330
21C0
100
AcDbEntity
  8
DEFPOINTS
 62
     0
100
AcDbPoint
 10
6111.301239887078
 20
1461.152323565129
 30
0.0
  0
POINT
  5
2379
330
21C0
100
AcDbEntity
  8
DEFPOINTS
 62
     0
100
AcDbPoint
 10
6111.301239887078
 20
941.0197891429489
 30
0.0
  0
ENDBLK
  5
21CC
330
21C0
100
AcDbEntity
  8
0
100
AcDbBlockEnd
  0
BLOCK
  5
23FD
330
23F1
100
AcDbEntity
  8
0
100
AcDbBlockBegin
  2
*D36
 70
     1
 10
0.0
 20
0.0
 30
0.0
  3
*D36
  1

  0
LINE
  5
23FF
330
23F1
100
AcDbEntity
  8
SUNPOU
 62
     0
370
    -2
100
AcDbLine
 10
8031.301239887076
 20
2387.188258959617
 30
0.0
 11
7946.899405295875
 21
2240.99999319563
 31
0.0
  0
LINE
  5
2400
330
23F1
100
AcDbEntity
  8
SUNPOU
 62
     0
370
    -2
100
AcDbLine
 10
8111.301239887076
 20
2465.752323565129
 30
0.0
 11
8111.301239887076
 21
2196.948654382722
 31
0.0
  0
ARC
  5
2401
330
23F1
100
AcDbEntity
  8
SUNPOU
 62
     0
370
    -2
100
AcDbCircle
 10
8111.301239887077
 20
2525.75232356513
 30
0.0
 40
313.8036691824057
100
AcDbArc
 50
250.9718443740713
 51
259.0281556259289
  0
SOLID
  5
2402
330
23F1
100
AcDbEntity
  8
SUNPOU
 62
     0
100
AcDbTrace
 10
8004.841798274192
 20
2219.996772051083
 30
0.0
 11
8013.140134502817
 21
2238.19395908196
 31
0.0
 12
7954.399405295876
 22
2253.990374252397
 32
0.0
 13
7954.399405295876
 23
2253.990374252397
 33
0.0
  0
SOLID
  5
2403
330
23F1
100
AcDbEntity
  8
SUNPOU
 62
     0
100
AcDbTrace
 10
8052.532068571822
 20
2227.638922159868
 30
0.0
 11
8050.620045039519
 21
2207.730527799401
 31
0.0
 12
8111.301239887076
 22
2211.948654382723
 32
0.0
 13
8111.301239887076
 23
2211.948654382723
 33
0.0
  0
MTEXT
  5
2404
330
23F1
100
AcDbEntity
  8
SUNPOU
 62
     0
100
AcDbMText
 10
8047.941387991693
 20
2289.290137131519
 30
0.0
 40
90.0
 41
0.0
 71
     5
 72
     1
  1
\A1;30°
 11
0.9659258262890679
 21
-0.2588190451025231
 31
0.0
 73
     1
 44
1.0
  0
POINT
  5
2405
330
23F1
100
AcDbEntity
  8
DEFPOINTS
 62
     0
100
AcDbPoint
 10
8003.974063977192
 20
2230.87333125888
 30
0.0
  0
POINT
  5
2406
330
23F1
100
AcDbEntity
  8
DEFPOINTS
 62
     0
100
AcDbPoint
 10
8111.301239887078
 20
2761.152323565129
 30
0.0
  0
POINT
  5
2407
330
23F1
100
AcDbEntity
  8
DEFPOINTS
 62
     0
100
AcDbPoint
 10
8111.301239887077
 20
2525.75232356513
 30
0.0
  0
POINT
  5
2408
330
23F1
100
AcDbEntity
  8
DEFPOINTS
 62
     0
100
AcDbPoint
 10
8061.301239887077
 20
2439.149783186683
 30
0.0
  0
POINT
  5
2409
330
23F1
100
AcDbEntity
  8
DEFPOINTS
 62
     0
100
AcDbPoint
 10
8111.301239887077
 20
2525.75232356513
 30
0.0
  0
ENDBLK
  5
23FE
330
23F1
100
AcDbEntity
  8
0
100
AcDbBlockEnd
  0
ENDSEC
  0
SECTION
  2
ENTITIES
  0
TEXT
  5
5F
330
17
100
AcDbEntity
  8
SUNPOU
100
AcDbText
 10
11549.99999999999
 20
480.0
 30
0.0
 40
90.0
  1
30
100
AcDbText
  0
INSERT
  5
60
330
17
100
AcDbEntity
  8
HAIKIN
100
AcDbBlockReference
  2
SA3
 10
510.0
 20
0.0
 30
0.0
 41
30.0
 42
30.0
 43
30.0
  0
TEXT
  5
1377
330
17
100
AcDbEntity
  8
HAIKIN
100
AcDbText
 10
4459.516951455509
 20
7910.785158313898
 30
0.0
 40
112.5
  1
デザインウォ－ル　H=1750  ( L=2000 )
 11
4459.516951455509
 21
7895.785158313898
 31
0.0
100
AcDbText
 73
     1
  0
TEXT
  5
1378
330
17
100
AcDbEntity
  8
SUNPOU
100
AcDbText
 10
10267.24701859385
 20
975.0
 30
0.0
 40
75.0
  1
デザインウォ－ル H=1750 (L=2000)
100
AcDbText
  0
LINE
  5
1379
330
17
100
AcDbEntity
  8
SEIHIN
100
AcDbLine
 10
2685.823086985067
 20
4910.0
 30
0.0
 11
3985.823086985067
 21
4909.999999999999
 31
0.0
  0
LINE
  5
137A
330
17
100
AcDbEntity
  8
SEIHIN
100
AcDbLine
 10
2685.823086985067
 20
4910.0
 30
0.0
 11
2685.823086985067
 21
6660.0
 31
0.0
  0
LINE
  5
137B
330
17
100
AcDbEntity
  8
SEIHIN
100
AcDbLine
 10
2685.823086985067
 20
6660.0
 30
0.0
 11
2755.823086985067
 21
6660.0
 31
0.0
  0
LINE
  5
137C
330
17
100
AcDbEntity
  8
1HASEN
100
AcDbLine
 10
2825.823086985067
 20
5025.000000000001
 30
0.0
 11
2825.823086985067
 21
5075.0
 31
0.0
  0
LINE
  5
137D
330
17
100
AcDbEntity
  8
1HASEN
100
AcDbLine
 10
2800.823086985067
 20
5050.0
 30
0.0
 11
2850.823086985067
 21
5050.0
 31
0.0
  0
LINE
  5
137E
330
17
100
AcDbEntity
  8
SEIHIN
100
AcDbLine
 10
2755.823086985067
 20
6660.0
 30
0.0
 11
2755.823086985067
 21
6500.0
 31
0.0
  0
LINE
  5
137F
330
17
100
AcDbEntity
  8
SEIHIN
100
AcDbLine
 10
3985.823086985067
 20
4985.555555555556
 30
0.0
 11
2921.223086985067
 21
5044.700000000001
 31
0.0
  0
LINE
  5
1380
330
17
100
AcDbEntity
  8
SEIHIN
100
AcDbLine
 10
2821.251362847137
 20
5144.7
 30
0.0
 11
2755.823086985067
 21
6500.0
 31
0.0
  0
LINE
  5
1382
330
17
100
AcDbEntity
  8
SEIHIN
100
AcDbLine
 10
6111.301239887078
 20
4910.0
 30
0.0
 11
6111.301239887078
 21
6660.0
 31
0.0
  0
LINE
  5
1383
330
17
100
AcDbEntity
  8
SEIHIN
100
AcDbLine
 10
8111.301239887078
 20
4910.0
 30
0.0
 11
8111.301239887078
 21
6660.0
 31
0.0
  0
LINE
  5
1384
330
17
100
AcDbEntity
  8
SEIHIN
100
AcDbLine
 10
6111.301239887078
 20
6660.0
 30
0.0
 11
8111.301239887078
 21
6660.0
 31
0.0
  0
LINE
  5
1385
330
17
100
AcDbEntity
  8
SEIHIN
100
AcDbLine
 10
6111.301239887078
 20
4910.0
 30
0.0
 11
8111.301239887078
 21
4910.0
 31
0.0
  0
LINE
  5
1386
330
17
100
AcDbEntity
  8
SEIHIN
100
AcDbLine
 10
6111.301239887078
 20
2761.152323565129
 30
0.0
 11
8111.301239887078
 21
2761.152323565129
 31
0.0
  0
LINE
  5
1387
330
17
100
AcDbEntity
  8
SEIHIN
100
AcDbLine
 10
6161.301239887076
 20
1461.152323565129
 30
0.0
 11
8061.301239887078
 21
1461.152323565129
 31
0.0
  0
LINE
  5
1388
330
17
100
AcDbEntity
  8
SEIHIN
100
AcDbLine
 10
6111.301239887078
 20
2761.152323565129
 30
0.0
 11
6111.301239887078
 21
2525.752323565129
 31
0.0
  0
LINE
  5
1389
330
17
100
AcDbEntity
  8
SEIHIN
100
AcDbLine
 10
6161.30123988708
 20
2439.149783186683
 30
0.0
 11
6161.301239887078
 21
1461.152323565129
 31
0.0
  0
LINE
  5
138A
330
17
100
AcDbEntity
  8
SEIHIN
100
AcDbLine
 10
6111.301239887078
 20
2525.752323565129
 30
0.0
 11
6161.30123988708
 21
2439.149783186683
 31
0.0
  0
LINE
  5
138B
330
17
100
AcDbEntity
  8
1HASEN
100
AcDbLine
 10
7111.301239887078
 20
2861.152323565129
 30
0.0
 11
7111.301239887078
 21
1361.152323565129
 31
0.0
  0
LINE
  5
1390
330
17
100
AcDbEntity
  8
1HASEN
100
AcDbLine
 10
7111.301239887078
 20
6760.0
 30
0.0
 11
7111.301239887078
 21
4809.999999999999
 31
0.0
  0
LINE
  5
13A4
330
17
100
AcDbEntity
  8
1HASEN
100
AcDbLine
 10
6611.301239887078
 20
5410.000000000001
 30
0.0
 11
6611.301239887078
 21
5210.0
 31
0.0
  0
LINE
  5
13A5
330
17
100
AcDbEntity
  8
1HASEN
100
AcDbLine
 10
6511.301239887078
 20
5310.0
 30
0.0
 11
6711.301239887078
 21
5310.0
 31
0.0
  0
LINE
  5
13A6
330
17
100
AcDbEntity
  8
1HASEN
100
AcDbLine
 10
7711.301239887078
 20
5310.0
 30
0.0
 11
7511.301239887078
 21
5310.0
 31
0.0
  0
LINE
  5
13A7
330
17
100
AcDbEntity
  8
1HASEN
100
AcDbLine
 10
7611.301239887078
 20
5410.000000000001
 30
0.0
 11
7611.301239887078
 21
5210.0
 31
0.0
  0
DIMENSION
  5
13C1
330
17
100
AcDbEntity
  8
SUNPOU
100
AcDbDimension
  2
*D8
 10
2019.288760709234
 20
5050.000000000001
 30
0.0
 11
1950.288760709233
 21
4980.000000000001
 31
0.0
 70
    32
 71
     5
 42
140.0
  3
A3-30
100
AcDbAlignedDimension
 13
2685.823086985067
 23
4910.0
 33
0.0
 14
2685.823086985067
 24
5050.0
 34
0.0
 50
90.0
100
AcDbRotatedDimension
  0
DIMENSION
  5
13C4
330
17
100
AcDbEntity
  8
SUNPOU
100
AcDbDimension
  2
*D9
 10
2755.823086985067
 20
7010.0
 30
0.0
 11
2720.823086985067
 21
7079.0
 31
0.0
 70
    32
 71
     5
 42
70.0
  3
A3-30
100
AcDbAlignedDimension
 13
2685.823086985067
 23
6660.0
 33
0.0
 14
2755.823086985067
 24
6660.0
 34
0.0
100
AcDbRotatedDimension
  0
LINE
  5
13C5
330
17
100
AcDbEntity
  8
HASEN
 48
0.2
100
AcDbLine
 10
2720.823086985067
 20
5285.0
 30
0.0
 11
2685.823086985067
 21
5270.0
 31
0.0
  0
LINE
  5
13C6
330
17
100
AcDbEntity
  8
HASEN
 48
0.2
100
AcDbLine
 10
2720.823086985067
 20
5335.0
 30
0.0
 11
2720.823086985067
 21
5285.0
 31
0.0
  0
LINE
  5
13C7
330
17
100
AcDbEntity
  8
HASEN
 48
0.2
100
AcDbLine
 10
2685.823086985067
 20
5350.0
 30
0.0
 11
2720.823086985067
 21
5335.0
 31
0.0
  0
LINE
  5
13C8
330
17
100
AcDbEntity
  8
HASEN
 48
0.2
100
AcDbLine
 10
2802.340328364378
 20
5285.0
 30
0.0
 11
2815.150005783731
 21
5271.085253456223
 31
0.0
  0
LINE
  5
13C9
330
17
100
AcDbEntity
  8
HASEN
 48
0.2
100
AcDbLine
 10
2802.340328364378
 20
5335.0
 30
0.0
 11
2802.340328364378
 21
5285.0
 31
0.0
  0
LINE
  5
13CA
330
17
100
AcDbEntity
  8
HASEN
 48
0.2
100
AcDbLine
 10
2811.340328364378
 20
5350.0
 30
0.0
 11
2802.340328364378
 21
5335.0
 31
0.0
  0
CIRCLE
  5
13CB
330
17
100
AcDbEntity
  8
SUNPOU
100
AcDbCircle
 10
6611.301239887078
 20
5310.0
 30
0.0
 40
40.0
  0
CIRCLE
  5
13CC
330
17
100
AcDbEntity
  8
SUNPOU
100
AcDbCircle
 10
6611.301239887078
 20
5310.0
 30
0.0
 40
25.0
  0
CIRCLE
  5
13CD
330
17
100
AcDbEntity
  8
SUNPOU
100
AcDbCircle
 10
7611.301239887078
 20
5310.0
 30
0.0
 40
25.0
  0
CIRCLE
  5
13CE
330
17
100
AcDbEntity
  8
SUNPOU
100
AcDbCircle
 10
7611.301239887078
 20
5310.0
 30
0.0
 40
40.0
  0
LINE
  5
13CF
330
17
100
AcDbEntity
  8
1HASEN
100
AcDbLine
 10
2648.558253674986
 20
5310.0
 30
0.0
 11
2856.534813958002
 21
5310.0
 31
0.0
  0
LINE
  5
13D0
330
17
100
AcDbEntity
  8
HASEN
 48
0.2
100
AcDbLine
 10
2720.823086985067
 20
5328.5
 30
0.0
 11
2802.340328364378
 21
5332.431938634764
 31
0.0
  0
LINE
  5
13D1
330
17
100
AcDbEntity
  8
HASEN
 48
0.2
100
AcDbLine
 10
2720.823086985067
 20
5291.5
 30
0.0
 11
2802.340328364378
 21
5287.568061365236
 31
0.0
  0
DIMENSION
  5
13D2
330
17
100
AcDbEntity
  8
SUNPOU
100
AcDbDimension
  2
*D10
 10
2261.715260341349
 20
5310.0
 30
0.0
 11
2192.715260341348
 21
5110.000000000001
 31
0.0
 70
    32
 71
     5
 42
400.0
  3
A3-30
100
AcDbAlignedDimension
 13
2685.823086985067
 23
4910.0
 33
0.0
 14
2648.558253674986
 24
5310.0
 34
0.0
 50
90.0
100
AcDbRotatedDimension
  0
DIMENSION
  5
13D4
330
17
100
AcDbEntity
  8
SUNPOU
100
AcDbDimension
  2
*D11
 10
2825.823086985067
 20
4397.599565385492
 30
0.0
 11
2755.823086985067
 21
4466.599565385492
 31
0.0
 70
    32
 71
     5
 42
140.0
  3
A3-30
100
AcDbAlignedDimension
 13
2685.823086985067
 23
4910.0
 33
0.0
 14
2825.823086985067
 24
4910.0
 34
0.0
100
AcDbRotatedDimension
  0
DIMENSION
  5
13F1
330
17
100
AcDbEntity
  8
SUNPOU
100
AcDbDimension
  2
*D12
 10
5611.301239887078
 20
5310.0
 30
0.0
 11
5542.301239887077
 21
5110.000000000001
 31
0.0
 70
    32
 71
     5
 42
400.0
  3
A3-30
100
AcDbAlignedDimension
 13
6111.301239887078
 23
4910.0
 33
0.0
 14
6111.301239887078
 24
5310.0
 34
0.0
 50
90.0
100
AcDbRotatedDimension
  0
DIMENSION
  5
1404
330
17
100
AcDbEntity
  8
SUNPOU
100
AcDbDimension
  2
*D13
 10
8111.301239887078
 20
7310.0
 30
0.0
 11
7111.301239887078
 21
7379.0
 31
0.0
 70
    32
 71
     5
 42
2000.0
  3
A3-30
100
AcDbAlignedDimension
 13
6111.301239887078
 23
6660.0
 33
0.0
 14
8111.301239887078
 24
6660.0
 34
0.0
100
AcDbRotatedDimension
  0
DIMENSION
  5
1422
330
17
100
AcDbEntity
  8
SUNPOU
100
AcDbDimension
  2
*D14
 10
5548.763127953033
 20
2525.752323565129
 30
0.0
 11
5479.763127953032
 21
2643.45232356513
 31
0.0
 70
   160
 71
     5
 42
235.4000000000001
  3
A3-30
100
AcDbAlignedDimension
 13
6111.301239887078
 23
2761.152323565129
 33
0.0
 14
6111.301239887078
 24
2525.752323565129
 34
0.0
 50
270.0
100
AcDbRotatedDimension
  0
DIMENSION
  5
1423
330
17
100
AcDbEntity
  8
SUNPOU
100
AcDbDimension
  2
*D15
 10
5548.763127953035
 20
2439.149783186683
 30
0.0
 11
5479.763127953034
 21
2462.513920586128
 31
0.0
 70
   160
 71
     5
 42
86.60254037844607
  3
A3-30
100
AcDbAlignedDimension
 13
6111.301239887078
 23
2525.752323565129
 33
0.0
 14
6161.30123988708
 24
2439.149783186683
 34
0.0
 50
270.0
100
AcDbRotatedDimension
  0
DIMENSION
  5
1426
330
17
100
AcDbEntity
  8
SUNPOU
100
AcDbDimension
  2
*D16
 10
6161.301239887078
 20
941.0197891429489
 30
0.0
 11
7111.301239887078
 21
1010.019789142949
 31
0.0
 70
    32
 71
     5
 42
1900.0
  3
A3-30
100
AcDbAlignedDimension
 13
8061.301239887078
 23
1461.152323565129
 33
0.0
 14
6161.301239887078
 24
1461.152323565129
 34
0.0
100
AcDbRotatedDimension
  0
DIMENSION
  5
145E
330
17
100
AcDbEntity
  8
SUNPOU
100
AcDbDimension
  2
*D17
 10
6611.301239887078
 20
4260.0
 30
0.0
 11
6361.301239887078
 21
4329.0
 31
0.0
 70
    32
 71
     5
 42
500.0
  3
A3-30
100
AcDbAlignedDimension
 13
6111.301239887078
 23
4910.0
 33
0.0
 14
6611.301239887078
 24
4910.0
 34
0.0
100
AcDbRotatedDimension
  0
DIMENSION
  5
145F
330
17
100
AcDbEntity
  8
SUNPOU
100
AcDbDimension
  2
*D18
 10
7111.301239887078
 20
4260.0
 30
0.0
 11
6861.301239887078
 21
4329.0
 31
0.0
 70
    32
 71
     5
 42
500.0
  3
A3-30
100
AcDbAlignedDimension
 13
6611.301239887078
 23
4910.0
 33
0.0
 14
7111.301239887078
 24
4809.999999999999
 34
0.0
100
AcDbRotatedDimension
  0
DIMENSION
  5
1460
330
17
100
AcDbEntity
  8
SUNPOU
100
AcDbDimension
  2
*D19
 10
7611.301239887078
 20
4260.0
 30
0.0
 11
7861.301239887078
 21
4329.0
 31
0.0
 70
    32
 71
     5
 42
500.0
  3
A3-30
100
AcDbAlignedDimension
 13
8111.301239887078
 23
4910.0
 33
0.0
 14
7611.301239887078
 24
4910.0
 34
0.0
100
AcDbRotatedDimension
  0
DIMENSION
  5
1461
330
17
100
AcDbEntity
  8
SUNPOU
100
AcDbDimension
  2
*D20
 10
7111.301239887078
 20
4260.0
 30
0.0
 11
7361.301239887078
 21
4329.0
 31
0.0
 70
    32
 71
     5
 42
500.0
  3
A3-30
100
AcDbAlignedDimension
 13
7611.301239887078
 23
4910.0
 33
0.0
 14
7111.301239887078
 24
4809.999999999999
 34
0.0
100
AcDbRotatedDimension
  0
DIMENSION
  5
1465
330
17
100
AcDbEntity
  8
SUNPOU
100
AcDbDimension
  2
*D21
 10
1830.294312368322
 20
4910.000000000001
 30
0.0
 11
1761.294312368321
 21
5785.000000000001
 31
0.0
 70
    32
 71
     5
 42
1750.0
  3
A3-30
100
AcDbAlignedDimension
 13
2685.823086985067
 23
6660.0
 33
0.0
 14
2685.823086985067
 24
4910.0
 34
0.0
 50
90.0
100
AcDbRotatedDimension
  0
DIMENSION
  5
1466
330
17
100
AcDbEntity
  8
SUNPOU
100
AcDbDimension
  2
*D22
 10
2019.288760709234
 20
6660.000000000001
 30
0.0
 11
1950.288760709233
 21
5855.000000000001
 31
0.0
 70
    32
 71
     5
 42
1610.0
  3
A3-30
100
AcDbAlignedDimension
 13
2685.823086985067
 23
5050.0
 33
0.0
 14
2685.823086985067
 24
6660.0
 34
0.0
 50
90.0
100
AcDbRotatedDimension
  0
LINE
  5
1469
330
17
100
AcDbEntity
  8
SEIHIN
100
AcDbLine
 10
3985.823086985067
 20
4910.0
 30
0.0
 11
3985.823086985067
 21
4985.555555555556
 31
0.0
  0
DIMENSION
  5
146A
330
17
100
AcDbEntity
  8
SUNPOU
100
AcDbDimension
  2
*D23
 10
4335.823086985067
 20
4985.555555555556
 30
0.0
 11
4266.823086985066
 21
4947.777777777779
 31
0.0
 70
    32
 71
     5
 42
75.55555555555566
  3
A3-30
100
AcDbAlignedDimension
 13
3985.823086985067
 23
4910.0
 33
0.0
 14
3985.823086985067
 24
4985.555555555556
 34
0.0
 50
90.0
100
AcDbRotatedDimension
  0
DIMENSION
  5
146C
330
17
100
AcDbEntity
  8
SUNPOU
100
AcDbDimension
  2
*D24
 10
2685.823086985067
 20
4209.856361733262
 30
0.0
 11
3335.823086985067
 21
4278.856361733262
 31
0.0
 70
    32
 71
     5
 42
1300.0
  3
A3-30
100
AcDbAlignedDimension
 13
3985.823086985067
 23
4910.0
 33
0.0
 14
2685.823086985067
 24
4910.0
 34
0.0
100
AcDbRotatedDimension
  0
DIMENSION
  5
146D
330
17
100
AcDbEntity
  8
SUNPOU
100
AcDbDimension
  2
*D25
 10
3985.823086985067
 20
4397.599565385492
 30
0.0
 11
3405.823086985067
 21
4466.599565385492
 31
0.0
 70
    32
 71
     5
 42
1160.0
  3
A3-30
100
AcDbAlignedDimension
 13
2825.823086985067
 23
4910.0
 33
0.0
 14
3985.823086985067
 24
4909.999999999999
 34
0.0
100
AcDbRotatedDimension
  0
DIMENSION
  5
1474
330
17
100
AcDbEntity
  8
SUNPOU
100
AcDbDimension
  2
*D26
 10
5407.768000218486
 20
6660.0
 30
0.0
 11
5338.768000218484
 21
5785.000000000001
 31
0.0
 70
    32
 71
     5
 42
1750.0
  3
A3-30
100
AcDbAlignedDimension
 13
6111.301239887078
 23
4910.0
 33
0.0
 14
6111.301239887078
 24
6660.0
 34
0.0
 50
90.0
100
AcDbRotatedDimension
  0
DIMENSION
  5
14B9
330
17
100
AcDbEntity
  8
SUNPOU
100
AcDbDimension
  2
*D27
 10
8111.301239887078
 20
3392.508436312048
 30
0.0
 11
7111.301239887078
 21
3461.508436312048
 31
0.0
 70
    32
 71
     5
 42
2000.0
  3
A3-30
100
AcDbAlignedDimension
 13
6111.301239887078
 23
2761.152323565129
 33
0.0
 14
8111.301239887078
 24
2761.152323565129
 34
0.0
100
AcDbRotatedDimension
  0
DIMENSION
  5
14BE
330
17
100
AcDbEntity
  8
SUNPOU
100
AcDbDimension
  2
*D28
 10
5371.530663939462
 20
1461.15232356513
 30
0.0
 11
5302.530663939462
 21
2111.15232356513
 31
0.0
 70
    32
 71
     5
 42
1300.0
  3
A3-30
100
AcDbAlignedDimension
 13
6111.301239887078
 23
2761.152323565129
 33
0.0
 14
6161.301239887076
 24
1461.152323565129
 34
0.0
 50
90.0
100
AcDbRotatedDimension
  0
DIMENSION
  5
14BF
330
17
100
AcDbEntity
  8
SUNPOU
100
AcDbDimension
  2
*D29
 10
5548.763127953032
 20
1461.15232356513
 30
0.0
 11
5479.763127953032
 21
1950.151053375907
 31
0.0
 70
    32
 71
     5
 42
977.9974596215538
  3
A3-30
100
AcDbAlignedDimension
 13
6161.30123988708
 23
2439.149783186683
 33
0.0
 14
6161.301239887076
 24
1461.152323565129
 34
0.0
 50
90.0
100
AcDbRotatedDimension
  0
DIMENSION
  5
14F7
330
17
100
AcDbEntity
  8
SUNPOU
100
AcDbDimension
  2
*D30
 10
4335.823086985067
 20
6500.0
 30
0.0
 11
4266.823086985065
 21
6580.000000000001
 31
0.0
 70
    32
 71
     5
 42
160.0
  3
A3-30
100
AcDbAlignedDimension
 13
2755.823086985067
 23
6660.0
 33
0.0
 14
2755.823086985067
 24
6500.0
 34
0.0
 50
90.0
100
AcDbRotatedDimension
  0
DIMENSION
  5
14F8
330
17
100
AcDbEntity
  8
SUNPOU
100
AcDbDimension
  2
*D31
 10
4335.823086985067
 20
4985.555555555556
 30
0.0
 11
4266.823086985066
 21
5742.777777777779
 31
0.0
 70
    32
 71
     5
 42
1514.444444444444
  3
A3-30
100
AcDbAlignedDimension
 13
2815.823086985067
 23
6500.0
 33
0.0
 14
3985.823086985067
 24
4985.555555555556
 34
0.0
 50
90.0
100
AcDbRotatedDimension
  0
TEXT
  5
20BB
330
17
100
AcDbEntity
  8
SUNPOU
100
AcDbText
 10
2271.809924890695
 20
5519.152275564884
 30
0.0
 40
90.0
  1
水抜孔
 41
0.8
100
AcDbText
  0
LINE
  5
20BC
330
17
100
AcDbEntity
  8
SUNPOU
100
AcDbLine
 10
2240.917542753588
 20
5505.150445895775
 30
0.0
 11
2550.933211617215
 21
5505.150445895775
 31
0.0
  0
LEADER
  5
20BE
330
17
100
AcDbEntity
  8
SUNPOU
100
AcDbLeader
  3
A3-30
 76
     2
 10
2685.823086985067
 20
5310.0
 30
0.0
 10
2550.933211617215
 20
5505.150445895775
 30
0.0
1001
ACAD
1000
DSTYLE
1002
{
1070
   147
1040
0.8
1070
    77
1070
     0
1002
}
  0
DIMENSION
  5
215B
330
17
100
AcDbEntity
  8
SUNPOU
100
AcDbDimension
  2
*D32
 10
5611.301239887079
 20
6660.0
 30
0.0
 11
5542.301239887077
 21
5985.000000000001
 31
0.0
 70
    32
 71
     5
 42
1350.0
  3
A3-30
100
AcDbAlignedDimension
 13
6111.301239887078
 23
5310.0
 33
0.0
 14
6111.301239887078
 24
6660.0
 34
0.0
 50
90.0
100
AcDbRotatedDimension
  0
DIMENSION
  5
21B1
330
17
100
AcDbEntity
  8
SUNPOU
100
AcDbDimension
  2
*D33
 10
8111.301239887078
 20
941.0197891429489
 30
0.0
 11
8086.301239887078
 21
1010.019789142949
 31
0.0
 70
    32
 71
     5
 42
50.0
  3
A3-30
100
AcDbAlignedDimension
 13
8061.301239887078
 23
1461.152323565129
 33
0.0
 14
8111.301239887078
 24
1461.152323565129
 34
0.0
100
AcDbRotatedDimension
  0
DIMENSION
  5
21BF
330
17
100
AcDbEntity
  8
SUNPOU
100
AcDbDimension
  2
*D34
 10
6111.301239887078
 20
941.0197891429489
 30
0.0
 11
6136.301239887078
 21
1010.019789142949
 31
0.0
 70
    32
 71
     5
 42
50.0
  3
A3-30
100
AcDbAlignedDimension
 13
6161.301239887078
 23
1461.152323565129
 33
0.0
 14
6111.301239887078
 24
1461.152323565129
 34
0.0
 50
180.0
100
AcDbRotatedDimension
  0
LINE
  5
2384
330
17
100
AcDbEntity
  8
SEIHIN
100
AcDbLine
 10
6161.301239887077
 20
4985.555555555555
 30
0.0
 11
8061.301239887079
 21
4985.555555555557
 31
0.0
  0
LINE
  5
2387
330
17
100
AcDbEntity
  8
SEIHIN
100
AcDbLine
 10
6161.301239887078
 20
4910.0
 30
0.0
 11
6161.301239887079
 21
5039.9
 31
0.0
  0
LINE
  5
2388
330
17
100
AcDbEntity
  8
SEIHIN
100
AcDbLine
 10
6161.301239887079
 20
5039.9
 30
0.0
 11
6111.301239887078
 21
5044.699999999999
 31
0.0
  0
LINE
  5
238B
330
17
100
AcDbEntity
  8
SEIHIN
100
AcDbLine
 10
6111.301239887078
 20
2691.152323565129
 30
0.0
 11
8111.301239887078
 21
2691.152323565129
 31
0.0
  0
LINE
  5
23A8
330
17
100
AcDbEntity
  8
SEIHIN
100
AcDbLine
 10
2821.251362847137
 20
5144.7
 30
0.0
 11
2921.223086985067
 21
5044.700000000001
 31
0.0
  0
LINE
  5
23A9
330
17
100
AcDbEntity
  8
SEIHIN
100
AcDbLine
 10
6111.301239887077
 20
5144.699999999999
 30
0.0
 11
8111.301239887079
 21
5144.699999999999
 31
0.0
  0
LINE
  5
23AA
330
17
100
AcDbEntity
  8
SEIHIN
100
AcDbLine
 10
6111.301239887077
 20
5044.699999999999
 30
0.0
 11
8111.301239887079
 21
5044.699999999999
 31
0.0
  0
LINE
  5
23C3
330
17
100
AcDbEntity
  8
SEIHIN
100
AcDbLine
 10
8061.301239887079
 20
4910.0
 30
0.0
 11
8061.301239887078
 21
5039.9
 31
0.0
  0
LINE
  5
23C4
330
17
100
AcDbEntity
  8
SEIHIN
100
AcDbLine
 10
8061.301239887078
 20
5039.9
 30
0.0
 11
8111.301239887078
 21
5044.699999999999
 31
0.0
  0
LINE
  5
23C5
330
17
100
AcDbEntity
  8
SEIHIN
100
AcDbLine
 10
6111.301239887078
 20
2525.752323565129
 30
0.0
 11
8111.301239887078
 21
2525.752323565129
 31
0.0
  0
LINE
  5
23C6
330
17
100
AcDbEntity
  8
SEIHIN
100
AcDbLine
 10
6111.301239887078
 20
2625.752323565129
 30
0.0
 11
8111.301239887078
 21
2625.752323565129
 31
0.0
  0
LINE
  5
23ED
330
17
100
AcDbEntity
  8
SEIHIN
100
AcDbLine
 10
8111.301239887078
 20
2761.152323565129
 30
0.0
 11
8111.301239887078
 21
2525.752323565129
 31
0.0
  0
LINE
  5
23EE
330
17
100
AcDbEntity
  8
SEIHIN
100
AcDbLine
 10
8061.301239887076
 20
2439.149783186683
 30
0.0
 11
8061.301239887078
 21
1461.152323565129
 31
0.0
  0
LINE
  5
23EF
330
17
100
AcDbEntity
  8
SEIHIN
100
AcDbLine
 10
8111.301239887078
 20
2525.752323565129
 30
0.0
 11
8061.301239887076
 21
2439.149783186683
 31
0.0
  0
DIMENSION
  5
23F0
330
17
100
AcDbEntity
  8
SUNPOU
100
AcDbDimension
  2
*D36
 10
8111.301239887078
 20
2525.752323565129
 30
0.0
 11
8047.941387991692
 21
2289.290137131519
 31
0.0
 70
    34
 71
     5
 42
0.5235987755982894
  3
A3-30
100
AcDb2LineAngularDimension
 13
8111.301239887078
 23
2525.752323565129
 33
0.0
 14
8061.301239887076
 24
2439.149783186683
 34
0.0
 15
8111.301239887078
 25
2761.152323565129
 35
0.0
 16
8003.974063977192
 26
2230.87333125888
 36
0.0
1001
ACAD
1000
DSTYLE
1002
{
1070
   179
1070
     0
1002
}
  0
ENDSEC
  0
SECTION
  2
OBJECTS
  0
DICTIONARY
  5
C
330
0
100
AcDbDictionary
281
     1
  3
ACAD_COLOR
350
9AA
  3
ACAD_GROUP
350
D
  3
ACAD_LAYOUT
350
7B
  3
ACAD_MATERIAL
350
9A9
  3
ACAD_MLEADERSTYLE
350
2448
  3
ACAD_MLINESTYLE
350
1A
  3
ACAD_PLOTSETTINGS
350
7C
  3
ACAD_PLOTSTYLENAME
350
79
  3
ACAD_SCALELIST
350
2421
  3
ACAD_TABLESTYLE
350
9AB
  3
ACDB_RECOMPOSE_DATA
350
2447
  3
AcDbVariableDictionary
350
946
  0
DICTIONARY
  5
9AA
102
{ACAD_REACTORS
330
C
102
}
330
C
100
AcDbDictionary
281
     1
  0
DICTIONARY
  5
D
102
{ACAD_REACTORS
330
C
102
}
330
C
100
AcDbDictionary
281
     1
  0
DICTIONARY
  5
7B
102
{ACAD_REACTORS
330
C
102
}
330
C
100
AcDbDictionary
281
     1
  3
Model
350
7D
  3
ﾚｲｱｳﾄ1
350
7E
  0
DICTIONARY
  5
9A9
102
{ACAD_REACTORS
330
C
102
}
330
C
100
AcDbDictionary
281
     1
  0
DICTIONARY
  5
2448
102
{ACAD_REACTORS
330
C
102
}
330
C
100
AcDbDictionary
281
     1
  0
DICTIONARY
  5
1A
102
{ACAD_REACTORS
330
C
102
}
330
C
100
AcDbDictionary
281
     1
  3
STANDARD
350
1B
  0
DICTIONARY
  5
7C
102
{ACAD_REACTORS
330
C
102
}
330
C
100
AcDbDictionary
281
     1
  0
ACDBDICTIONARYWDFLT
  5
79
102
{ACAD_REACTORS
330
C
102
}
330
C
100
AcDbDictionary
281
     1
  3
Normal
350
7A
100
AcDbDictionaryWithDefault
340
7A
  0
DICTIONARY
  5
2421
102
{ACAD_REACTORS
330
C
102
}
330
C
100
AcDbDictionary
281
     1
  3
A0
350
2422
  3
A1
350
2423
  3
A2
350
2424
  3
A3
350
2425
  3
A4
350
2426
  3
A5
350
2427
  3
A6
350
2428
  3
A7
350
2429
  3
A8
350
242A
  3
A9
350
242B
  3
B0
350
242C
  3
B1
350
242D
  3
B2
350
242E
  3
B3
350
242F
  3
B4
350
2430
  3
B5
350
2431
  3
B6
350
2432
  3
B7
350
2433
  3
B8
350
2434
  3
B9
350
2435
  3
C0
350
2436
  3
C1
350
2437
  3
C2
350
2438
  3
C3
350
2439
  3
C4
350
243A
  3
C5
350
243B
  3
C6
350
243C
  3
C7
350
243D
  3
C8
350
243E
  3
C9
350
243F
  3
D0
350
2440
  3
D1
350
2441
  3
D2
350
2442
  0
DICTIONARY
  5
9AB
102
{ACAD_REACTORS
330
C
102
}
330
C
100
AcDbDictionary
281
     1
  3
Standard
350
9AC
  0
XRECORD
  5
2447
102
{ACAD_REACTORS
330
C
102
}
330
C
100
AcDbXrecord
280
     1
 90
        1
330
9AC
  0
DICTIONARY
  5
946
102
{ACAD_REACTORS
330
C
102
}
330
C
100
AcDbDictionary
281
     1
  3
CANNOSCALE
350
2443
  3
CTABLESTYLE
350
CC1
  3
DIMASSOC
350
947
  3
PROJECTNAME
350
CC2
  0
LAYOUT
  5
7D
102
{ACAD_REACTORS
330
7B
102
}
330
7B
100
AcDbPlotSettings
  1

  2
C:\PROGRAM FILES\MDT6\plotters\RICOH SP9II RPDL.pc3
  4
A3
  6

 40
5.873749732971191
 41
5.873758316040039
 42
4.349761962890625
 43
8.159759521484375
 44
420.1159973144531
 45
296.9259948730469
 46
0.0
 47
0.0
 48
0.0
 49
0.0
140
0.0
141
0.0
142
1.0
143
1.0
 70
 11952
 72
     0
 73
     0
 74
     0
  7
acad.ctb
 75
     0
 76
     0
 77
     2
 78
   300
147
1.0
148
-52067.63847066872
149
1270.867660243985
100
AcDbLayout
  1
Model
 70
     1
 71
     0
 10
0.0
 20
0.0
 11
12.0
 21
9.0
 12
0.0
 22
0.0
 32
0.0
 14
0.0
 24
0.0
 34
0.0
 15
0.0
 25
0.0
 35
0.0
146
0.0
 13
0.0
 23
0.0
 33
0.0
 16
1.0
 26
0.0
 36
0.0
 17
0.0
 27
1.0
 37
0.0
 76
     0
330
17
331
241B
  0
LAYOUT
  5
7E
102
{ACAD_REACTORS
330
7B
102
}
330
7B
100
AcDbPlotSettings
  1

  2
C:\PROGRAM FILES\MDT6\plotters\RICOH SP9II RPDL.pc3
  4

  6

 40
0.0
 41
0.0
 42
0.0
 43
0.0
 44
0.0
 45
0.0
 46
0.0
 47
0.0
 48
0.0
 49
0.0
140
0.0
141
0.0
142
1.0
143
1.0
 70
   688
 72
     0
 73
     0
 74
     5
  7
acad.ctb
 75
    16
 76
     0
 77
     2
 78
   300
147
1.0
148
0.0
149
0.0
100
AcDbLayout
  1
ﾚｲｱｳﾄ1
 70
     0
 71
     1
 10
0.0
 20
0.0
 11
12.0
 21
9.0
 12
0.0
 22
0.0
 32
0.0
 14
1.000000000000000E+20
 24
1.000000000000000E+20
 34
1.000000000000000E+20
 15
-1.000000000000000E+20
 25
-1.000000000000000E+20
 35
-1.000000000000000E+20
146
0.0
 13
0.0
 23
0.0
 33
0.0
 16
1.0
 26
0.0
 36
0.0
 17
0.0
 27
1.0
 37
0.0
 76
     0
330
14
  0
MLINESTYLE
  5
1B
102
{ACAD_REACTORS
330
1A
102
}
330
1A
100
AcDbMlineStyle
  2
STANDARD
 70
     0
  3

 62
   256
 51
90.0
 52
90.0
 71
     2
 49
0.5
 62
   256
  6
BYLAYER
 49
-0.5
 62
   256
  6
BYLAYER
  0
ACDBPLACEHOLDER
  5
7A
102
{ACAD_REACTORS
330
79
102
}
330
79
  0
SCALE
  5
2422
102
{ACAD_REACTORS
330
2421
102
}
330
2421
100
AcDbScale
 70
     0
300
1:1
140
1.0
141
1.0
290
     1
  0
SCALE
  5
2423
102
{ACAD_REACTORS
330
2421
102
}
330
2421
100
AcDbScale
 70
     0
300
1:2
140
1.0
141
2.0
290
     0
  0
SCALE
  5
2424
102
{ACAD_REACTORS
330
2421
102
}
330
2421
100
AcDbScale
 70
     0
300
1:4
140
1.0
141
4.0
290
     0
  0
SCALE
  5
2425
102
{ACAD_REACTORS
330
2421
102
}
330
2421
100
AcDbScale
 70
     0
300
1:5
140
1.0
141
5.0
290
     0
  0
SCALE
  5
2426
102
{ACAD_REACTORS
330
2421
102
}
330
2421
100
AcDbScale
 70
     0
300
1:8
140
1.0
141
8.0
290
     0
  0
SCALE
  5
2427
102
{ACAD_REACTORS
330
2421
102
}
330
2421
100
AcDbScale
 70
     0
300
1:10
140
1.0
141
10.0
290
     0
  0
SCALE
  5
2428
102
{ACAD_REACTORS
330
2421
102
}
330
2421
100
AcDbScale
 70
     0
300
1:16
140
1.0
141
16.0
290
     0
  0
SCALE
  5
2429
102
{ACAD_REACTORS
330
2421
102
}
330
2421
100
AcDbScale
 70
     0
300
1:20
140
1.0
141
20.0
290
     0
  0
SCALE
  5
242A
102
{ACAD_REACTORS
330
2421
102
}
330
2421
100
AcDbScale
 70
     0
300
1:30
140
1.0
141
30.0
290
     0
  0
SCALE
  5
242B
102
{ACAD_REACTORS
330
2421
102
}
330
2421
100
AcDbScale
 70
     0
300
1:40
140
1.0
141
40.0
290
     0
  0
SCALE
  5
242C
102
{ACAD_REACTORS
330
2421
102
}
330
2421
100
AcDbScale
 70
     0
300
1:50
140
1.0
141
50.0
290
     0
  0
SCALE
  5
242D
102
{ACAD_REACTORS
330
2421
102
}
330
2421
100
AcDbScale
 70
     0
300
1:100
140
1.0
141
100.0
290
     0
  0
SCALE
  5
242E
102
{ACAD_REACTORS
330
2421
102
}
330
2421
100
AcDbScale
 70
     0
300
2:1
140
2.0
141
1.0
290
     0
  0
SCALE
  5
242F
102
{ACAD_REACTORS
330
2421
102
}
330
2421
100
AcDbScale
 70
     0
300
4:1
140
4.0
141
1.0
290
     0
  0
SCALE
  5
2430
102
{ACAD_REACTORS
330
2421
102
}
330
2421
100
AcDbScale
 70
     0
300
8:1
140
8.0
141
1.0
290
     0
  0
SCALE
  5
2431
102
{ACAD_REACTORS
330
2421
102
}
330
2421
100
AcDbScale
 70
     0
300
10:1
140
10.0
141
1.0
290
     0
  0
SCALE
  5
2432
102
{ACAD_REACTORS
330
2421
102
}
330
2421
100
AcDbScale
 70
     0
300
100:1
140
100.0
141
1.0
290
     0
  0
SCALE
  5
2433
102
{ACAD_REACTORS
330
2421
102
}
330
2421
100
AcDbScale
 70
     0
300
1/128" = 1'-0"
140
0.0078125
141
12.0
290
     0
  0
SCALE
  5
2434
102
{ACAD_REACTORS
330
2421
102
}
330
2421
100
AcDbScale
 70
     0
300
1/64" = 1'-0"
140
0.015625
141
12.0
290
     0
  0
SCALE
  5
2435
102
{ACAD_REACTORS
330
2421
102
}
330
2421
100
AcDbScale
 70
     0
300
1/32" = 1'-0"
140
0.03125
141
12.0
290
     0
  0
SCALE
  5
2436
102
{ACAD_REACTORS
330
2421
102
}
330
2421
100
AcDbScale
 70
     0
300
1/16" = 1'-0"
140
0.0625
141
12.0
290
     0
  0
SCALE
  5
2437
102
{ACAD_REACTORS
330
2421
102
}
330
2421
100
AcDbScale
 70
     0
300
3/32" = 1'-0"
140
0.09375
141
12.0
290
     0
  0
SCALE
  5
2438
102
{ACAD_REACTORS
330
2421
102
}
330
2421
100
AcDbScale
 70
     0
300
1/8" = 1'-0"
140
0.125
141
12.0
290
     0
  0
SCALE
  5
2439
102
{ACAD_REACTORS
330
2421
102
}
330
2421
100
AcDbScale
 70
     0
300
3/16" = 1'-0"
140
0.1875
141
12.0
290
     0
  0
SCALE
  5
243A
102
{ACAD_REACTORS
330
2421
102
}
330
2421
100
AcDbScale
 70
     0
300
1/4" = 1'-0"
140
0.25
141
12.0
290
     0
  0
SCALE
  5
243B
102
{ACAD_REACTORS
330
2421
102
}
330
2421
100
AcDbScale
 70
     0
300
3/8" = 1'-0"
140
0.375
141
12.0
290
     0
  0
SCALE
  5
243C
102
{ACAD_REACTORS
330
2421
102
}
330
2421
100
AcDbScale
 70
     0
300
1/2" = 1'-0"
140
0.5
141
12.0
290
     0
  0
SCALE
  5
243D
102
{ACAD_REACTORS
330
2421
102
}
330
2421
100
AcDbScale
 70
     0
300
3/4" = 1'-0"
140
0.75
141
12.0
290
     0
  0
SCALE
  5
243E
102
{ACAD_REACTORS
330
2421
102
}
330
2421
100
AcDbScale
 70
     0
300
1" = 1'-0"
140
1.0
141
12.0
290
     0
  0
SCALE
  5
243F
102
{ACAD_REACTORS
330
2421
102
}
330
2421
100
AcDbScale
 70
     0
300
1-1/2" = 1'-0"
140
1.5
141
12.0
290
     0
  0
SCALE
  5
2440
102
{ACAD_REACTORS
330
2421
102
}
330
2421
100
AcDbScale
 70
     0
300
3" = 1'-0"
140
3.0
141
12.0
290
     0
  0
SCALE
  5
2441
102
{ACAD_REACTORS
330
2421
102
}
330
2421
100
AcDbScale
 70
     0
300
6" = 1'-0"
140
6.0
141
12.0
290
     0
  0
SCALE
  5
2442
102
{ACAD_REACTORS
330
2421
102
}
330
2421
100
AcDbScale
 70
     0
300
1'-0" = 1'-0"
140
12.0
141
12.0
290
     0
  0
TABLESTYLE
  5
9AC
102
{ACAD_REACTORS
330
9AB
102
}
102
{ACAD_XDICTIONARY
360
2444
102
}
330
9AB
100
AcDbTableStyle
  3
Standard
 70
     0
 71
     0
 40
0.06
 41
0.06
280
     0
281
     0
  7
STANDARD
140
0.18
170
     2
 62
     0
 63
   257
283
     0
274
    -2
284
     1
 64
     0
275
    -2
285
     1
 65
     0
276
    -2
286
     1
 66
     0
277
    -2
287
     1
 67
     0
278
    -2
288
     1
 68
     0
279
    -2
289
     1
 69
     0
  7
STANDARD
140
0.25
170
     5
 62
     0
 63
   257
283
     0
274
    -2
284
     1
 64
     0
275
    -2
285
     1
 65
     0
276
    -2
286
     1
 66
     0
277
    -2
287
     1
 67
     0
278
    -2
288
     1
 68
     0
279
    -2
289
     1
 69
     0
  7
STANDARD
140
0.18
170
     5
 62
     0
 63
   257
283
     0
274
    -2
284
     1
 64
     0
275
    -2
285
     1
 65
     0
276
    -2
286
     1
 66
     0
277
    -2
287
     1
 67
     0
278
    -2
288
     1
 68
     0
279
    -2
289
     1
 69
     0
  0
DICTIONARYVAR
  5
2443
102
{ACAD_REACTORS
330
946
102
}
330
946
100
DictionaryVariables
280
     0
  1
1:1
  0
DICTIONARYVAR
  5
CC1
102
{ACAD_REACTORS
330
946
102
}
330
946
100
DictionaryVariables
280
     0
  1
Standard
  0
DICTIONARYVAR
  5
947
102
{ACAD_REACTORS
330
946
102
}
330
946
100
DictionaryVariables
280
     0
  1
1
  0
DICTIONARYVAR
  5
CC2
102
{ACAD_REACTORS
330
946
102
}
330
946
100
DictionaryVariables
280
     0
  1

  0
DICTIONARY
  5
2444
330
9AC
100
AcDbDictionary
280
     1
281
     1
  3
ACAD_ROUNDTRIP_2008_TABLESTYLE_CELLSTYLEMAP
360
2446
  3
ACAD_XREC_ROUNDTRIP
360
2445
  0
CELLSTYLEMAP
  5
2446
102
{ACAD_REACTORS
330
2444
102
}
330
2444
100
AcDbCellStyleMap
 90
        3
300
CELLSTYLE
  1
TABLEFORMAT_BEGIN
 90
        5
170
     1
 91
        0
 92
    32768
 62
   257
 93
        1
300
CONTENTFORMAT
  1
CONTENTFORMAT_BEGIN
 90
        0
 91
        0
 92
        4
 93
        0
300

 40
0.0
140
1.0
 94
        5
 62
     0
340
F
144
0.25
309
CONTENTFORMAT_END
171
     1
301
MARGIN
  1
CELLMARGIN_BEGIN
 40
0.06
 40
0.06
 40
0.06
 40
0.06
 40
0.06
 40
0.06
309
CELLMARGIN_END
 94
        6
 95
        1
302
GRIDFORMAT
  1
GRIDFORMAT_BEGIN
 90
        0
 91
        1
 62
     0
 92
       -2
340
0
 93
        0
 40
0.045
309
GRIDFORMAT_END
 95
        2
302
GRIDFORMAT
  1
GRIDFORMAT_BEGIN
 90
        0
 91
        1
 62
     0
 92
       -2
340
0
 93
        0
 40
0.045
309
GRIDFORMAT_END
 95
        4
302
GRIDFORMAT
  1
GRIDFORMAT_BEGIN
 90
        0
 91
        1
 62
     0
 92
       -2
340
0
 93
        0
 40
0.045
309
GRIDFORMAT_END
 95
        8
302
GRIDFORMAT
  1
GRIDFORMAT_BEGIN
 90
        0
 91
        1
 62
     0
 92
       -2
340
0
 93
        0
 40
0.045
309
GRIDFORMAT_END
 95
       16
302
GRIDFORMAT
  1
GRIDFORMAT_BEGIN
 90
        0
 91
        1
 62
     0
 92
       -2
340
0
 93
        0
 40
0.045
309
GRIDFORMAT_END
 95
       32
302
GRIDFORMAT
  1
GRIDFORMAT_BEGIN
 90
        0
 91
        1
 62
     0
 92
       -2
340
0
 93
        0
 40
0.045
309
GRIDFORMAT_END
309
TABLEFORMAT_END
  1
CELLSTYLE_BEGIN
 90
        1
 91
        1
300
_TITLE
309
CELLSTYLE_END
300
CELLSTYLE
  1
TABLEFORMAT_BEGIN
 90
        5
170
     1
 91
        0
 92
        0
 62
   257
 93
        1
300
CONTENTFORMAT
  1
CONTENTFORMAT_BEGIN
 90
        0
 91
        0
 92
        4
 93
        0
300

 40
0.0
140
1.0
 94
        5
 62
     0
340
F
144
0.18
309
CONTENTFORMAT_END
171
     1
301
MARGIN
  1
CELLMARGIN_BEGIN
 40
0.06
 40
0.06
 40
0.06
 40
0.06
 40
0.06
 40
0.06
309
CELLMARGIN_END
 94
        6
 95
        1
302
GRIDFORMAT
  1
GRIDFORMAT_BEGIN
 90
        0
 91
        1
 62
     0
 92
       -2
340
0
 93
        0
 40
0.045
309
GRIDFORMAT_END
 95
        2
302
GRIDFORMAT
  1
GRIDFORMAT_BEGIN
 90
        0
 91
        1
 62
     0
 92
       -2
340
0
 93
        0
 40
0.045
309
GRIDFORMAT_END
 95
        4
302
GRIDFORMAT
  1
GRIDFORMAT_BEGIN
 90
        0
 91
        1
 62
     0
 92
       -2
340
0
 93
        0
 40
0.045
309
GRIDFORMAT_END
 95
        8
302
GRIDFORMAT
  1
GRIDFORMAT_BEGIN
 90
        0
 91
        1
 62
     0
 92
       -2
340
0
 93
        0
 40
0.045
309
GRIDFORMAT_END
 95
       16
302
GRIDFORMAT
  1
GRIDFORMAT_BEGIN
 90
        0
 91
        1
 62
     0
 92
       -2
340
0
 93
        0
 40
0.045
309
GRIDFORMAT_END
 95
       32
302
GRIDFORMAT
  1
GRIDFORMAT_BEGIN
 90
        0
 91
        1
 62
     0
 92
       -2
340
0
 93
        0
 40
0.045
309
GRIDFORMAT_END
309
TABLEFORMAT_END
  1
CELLSTYLE_BEGIN
 90
        2
 91
        1
300
_HEADER
309
CELLSTYLE_END
300
CELLSTYLE
  1
TABLEFORMAT_BEGIN
 90
        5
170
     1
 91
        0
 92
        0
 62
   257
 93
        1
300
CONTENTFORMAT
  1
CONTENTFORMAT_BEGIN
 90
        0
 91
        0
 92
        4
 93
        0
300

 40
0.0
140
1.0
 94
        2
 62
     0
340
F
144
0.18
309
CONTENTFORMAT_END
171
     1
301
MARGIN
  1
CELLMARGIN_BEGIN
 40
0.06
 40
0.06
 40
0.06
 40
0.06
 40
0.06
 40
0.06
309
CELLMARGIN_END
 94
        6
 95
        1
302
GRIDFORMAT
  1
GRIDFORMAT_BEGIN
 90
        0
 91
        1
 62
     0
 92
       -2
340
0
 93
        0
 40
0.045
309
GRIDFORMAT_END
 95
        2
302
GRIDFORMAT
  1
GRIDFORMAT_BEGIN
 90
        0
 91
        1
 62
     0
 92
       -2
340
0
 93
        0
 40
0.045
309
GRIDFORMAT_END
 95
        4
302
GRIDFORMAT
  1
GRIDFORMAT_BEGIN
 90
        0
 91
        1
 62
     0
 92
       -2
340
0
 93
        0
 40
0.045
309
GRIDFORMAT_END
 95
        8
302
GRIDFORMAT
  1
GRIDFORMAT_BEGIN
 90
        0
 91
        1
 62
     0
 92
       -2
340
0
 93
        0
 40
0.045
309
GRIDFORMAT_END
 95
       16
302
GRIDFORMAT
  1
GRIDFORMAT_BEGIN
 90
        0
 91
        1
 62
     0
 92
       -2
340
0
 93
        0
 40
0.045
309
GRIDFORMAT_END
 95
       32
302
GRIDFORMAT
  1
GRIDFORMAT_BEGIN
 90
        0
 91
        1
 62
     0
 92
       -2
340
0
 93
        0
 40
0.045
309
GRIDFORMAT_END
309
TABLEFORMAT_END
  1
CELLSTYLE_BEGIN
 90
        3
 91
        2
300
_DATA
309
CELLSTYLE_END
  0
XRECORD
  5
2445
102
{ACAD_REACTORS
330
2444
102
}
330
2444
100
AcDbXrecord
280
     1
102
ACAD_ROUNDTRIP_PRE2007_TABLESTYLE
 90
        4
 91
        0
  1

 92
        4
 93
        0
  2

 94
        4
 95
        0
  3

  0
ENDSEC
  0
EOF
