  0
SECTION
  2
HEADER
  9
$ACADVER
  1
AC1018
  9
$ACADMAINTVER
 70
     0
  9
$DWGCODEPAGE
  3
ANSI_932
  9
$INSBASE
 10
0.0
 20
0.0
 30
0.0
  9
$EXTMIN
 10
510.0
 20
0.0
 30
0.0
  9
$EXTMAX
 10
12000.0
 20
8310.0
 30
0.0
  9
$LIMMIN
 10
0.0
 20
0.0
  9
$LIMMAX
 10
12600.0
 20
8910.0
  9
$ORTHOMODE
 70
     1
  9
$REGENMODE
 70
     1
  9
$FILLMODE
 70
     1
  9
$QTEXTMODE
 70
     0
  9
$MIRRTEXT
 70
     1
  9
$LTSCALE
 40
300.0
  9
$ATTMODE
 70
     1
  9
$TEXTSIZE
 40
90.0
  9
$TRACEWID
 40
0.05
  9
$TEXTSTYLE
  7
STANDARD
  9
$CLAYER
  8
SUNPOU
  9
$CELTYPE
  6
BYLAYER
  9
$CECOLOR
 62
   256
  9
$CELTSCALE
 40
1.0
  9
$DISPSILH
 70
     0
  9
$DIMSCALE
 40
30.0
  9
$DIMASZ
 40
2.0
  9
$DIMEXO
 40
2.0
  9
$DIMDLI
 40
7.0
  9
$DIMRND
 40
0.0
  9
$DIMDLE
 40
0.0
  9
$DIMEXE
 40
0.5
  9
$DIMTP
 40
0.0
  9
$DIMTM
 40
0.0
  9
$DIMTXT
 40
3.0
  9
$DIMCEN
 40
0.0
  9
$DIMTSZ
 40
0.0
  9
$DIMTOL
 70
     0
  9
$DIMLIM
 70
     0
  9
$DIMTIH
 70
     0
  9
$DIMTOH
 70
     0
  9
$DIMSE1
 70
     0
  9
$DIMSE2
 70
     0
  9
$DIMTAD
 70
     1
  9
$DIMZIN
 70
     8
  9
$DIMBLK
  1

  9
$DIMASO
 70
     1
  9
$DIMSHO
 70
     1
  9
$DIMPOST
  1

  9
$DIMAPOST
  1

  9
$DIMALT
 70
     0
  9
$DIMALTD
 70
     2
  9
$DIMALTF
 40
25.4
  9
$DIMLFAC
 40
1.0
  9
$DIMTOFL
 70
     0
  9
$DIMTVP
 40
1.0
  9
$DIMTIX
 70
     1
  9
$DIMSOXD
 70
     0
  9
$DIMSAH
 70
     0
  9
$DIMBLK1
  1

  9
$DIMBLK2
  1

  9
$DIMSTYLE
  2
A3-30
  9
$DIMCLRD
 70
     0
  9
$DIMCLRE
 70
     0
  9
$DIMCLRT
 70
     0
  9
$DIMTFAC
 40
1.0
  9
$DIMGAP
 40
0.8
  9
$DIMJUST
 70
     0
  9
$DIMSD1
 70
     0
  9
$DIMSD2
 70
     0
  9
$DIMTOLJ
 70
     1
  9
$DIMTZIN
 70
     8
  9
$DIMALTZ
 70
     8
  9
$DIMALTTZ
 70
     8
  9
$DIMUPT
 70
     0
  9
$DIMDEC
 70
     0
  9
$DIMTDEC
 70
     0
  9
$DIMALTU
 70
     2
  9
$DIMALTTD
 70
     2
  9
$DIMTXSTY
  7
STANDARD
  9
$DIMAUNIT
 70
     0
  9
$DIMADEC
 70
     4
  9
$DIMALTRND
 40
0.0
  9
$DIMAZIN
 70
     0
  9
$DIMDSEP
 70
    46
  9
$DIMATFIT
 70
     3
  9
$DIMFRAC
 70
     0
  9
$DIMLDRBLK
  1

  9
$DIMLUNIT
 70
     2
  9
$DIMLWD
 70
    -2
  9
$DIMLWE
 70
    -2
  9
$DIMTMOVE
 70
     2
  9
$LUNITS
 70
     2
  9
$LUPREC
 70
     4
  9
$SKETCHINC
 40
0.1
  9
$FILLETRAD
 40
0.0
  9
$AUNITS
 70
     0
  9
$AUPREC
 70
     6
  9
$MENU
  1
acad
  9
$ELEVATION
 40
0.0
  9
$PELEVATION
 40
0.0
  9
$THICKNESS
 40
0.0
  9
$LIMCHECK
 70
     0
  9
$CHAMFERA
 40
0.0
  9
$CHAMFERB
 40
0.0
  9
$CHAMFERC
 40
0.0
  9
$CHAMFERD
 40
0.0
  9
$SKPOLY
 70
     0
  9
$TDCREATE
 40
2450014.659421296
  9
$TDUCREATE
 40
2450014.284421296
  9
$TDUPDATE
 40
2455355.370967512
  9
$TDUUPDATE
 40
2455354.995967512
  9
$TDINDWG
 40
0.0718495023
  9
$TDUSRTIMER
 40
0.0718495023
  9
$USRTIMER
 70
     1
  9
$ANGBASE
 50
0.0
  9
$ANGDIR
 70
     0
  9
$PDMODE
 70
     0
  9
$PDSIZE
 40
0.0
  9
$PLINEWID
 40
0.0
  9
$SPLFRAME
 70
     0
  9
$SPLINETYPE
 70
     6
  9
$SPLINESEGS
 70
     8
  9
$HANDSEED
  5
2534
  9
$SURFTAB1
 70
     6
  9
$SURFTAB2
 70
     6
  9
$SURFTYPE
 70
     6
  9
$SURFU
 70
     6
  9
$SURFV
 70
     6
  9
$UCSBASE
  2

  9
$UCSNAME
  2

  9
$UCSORG
 10
0.0
 20
0.0
 30
0.0
  9
$UCSXDIR
 10
1.0
 20
0.0
 30
0.0
  9
$UCSYDIR
 10
0.0
 20
1.0
 30
0.0
  9
$UCSORTHOREF
  2

  9
$UCSORTHOVIEW
 70
     0
  9
$UCSORGTOP
 10
0.0
 20
0.0
 30
0.0
  9
$UCSORGBOTTOM
 10
0.0
 20
0.0
 30
0.0
  9
$UCSORGLEFT
 10
0.0
 20
0.0
 30
0.0
  9
$UCSORGRIGHT
 10
0.0
 20
0.0
 30
0.0
  9
$UCSORGFRONT
 10
0.0
 20
0.0
 30
0.0
  9
$UCSORGBACK
 10
0.0
 20
0.0
 30
0.0
  9
$PUCSBASE
  2

  9
$PUCSNAME
  2

  9
$PUCSORG
 10
0.0
 20
0.0
 30
0.0
  9
$PUCSXDIR
 10
1.0
 20
0.0
 30
0.0
  9
$PUCSYDIR
 10
0.0
 20
1.0
 30
0.0
  9
$PUCSORTHOREF
  2

  9
$PUCSORTHOVIEW
 70
     0
  9
$PUCSORGTOP
 10
0.0
 20
0.0
 30
0.0
  9
$PUCSORGBOTTOM
 10
0.0
 20
0.0
 30
0.0
  9
$PUCSORGLEFT
 10
0.0
 20
0.0
 30
0.0
  9
$PUCSORGRIGHT
 10
0.0
 20
0.0
 30
0.0
  9
$PUCSORGFRONT
 10
0.0
 20
0.0
 30
0.0
  9
$PUCSORGBACK
 10
0.0
 20
0.0
 30
0.0
  9
$USERI1
 70
     0
  9
$USERI2
 70
     0
  9
$USERI3
 70
     0
  9
$USERI4
 70
     0
  9
$USERI5
 70
     0
  9
$USERR1
 40
0.0
  9
$USERR2
 40
0.0
  9
$USERR3
 40
0.0
  9
$USERR4
 40
0.0
  9
$USERR5
 40
0.0
  9
$WORLDVIEW
 70
     1
  9
$SHADEDGE
 70
     3
  9
$SHADEDIF
 70
    70
  9
$TILEMODE
 70
     1
  9
$MAXACTVP
 70
    48
  9
$PINSBASE
 10
0.0
 20
0.0
 30
0.0
  9
$PLIMCHECK
 70
     0
  9
$PEXTMIN
 10
1.000000000000000E+20
 20
1.000000000000000E+20
 30
1.000000000000000E+20
  9
$PEXTMAX
 10
-1.000000000000000E+20
 20
-1.000000000000000E+20
 30
-1.000000000000000E+20
  9
$PLIMMIN
 10
0.0
 20
0.0
  9
$PLIMMAX
 10
12.0
 20
9.0
  9
$UNITMODE
 70
     0
  9
$VISRETAIN
 70
     0
  9
$PLINEGEN
 70
     0
  9
$PSLTSCALE
 70
     0
  9
$TREEDEPTH
 70
  3020
  9
$CMLSTYLE
  2
STANDARD
  9
$CMLJUST
 70
     0
  9
$CMLSCALE
 40
1.0
  9
$PROXYGRAPHICS
 70
     1
  9
$MEASUREMENT
 70
     0
  9
$CELWEIGHT
370
    -1
  9
$ENDCAPS
280
     0
  9
$JOINSTYLE
280
     0
  9
$LWDISPLAY
290
     0
  9
$INSUNITS
 70
     0
  9
$HYPERLINKBASE
  1

  9
$STYLESHEET
  1
acad.ctb
  9
$XEDIT
290
     1
  9
$CEPSNTYPE
380
     0
  9
$PSTYLEMODE
290
     1
  9
$FINGERPRINTGUID
  2
{9E4B692F-34DC-11D6-9351-0080AD72C8A3}
  9
$VERSIONGUID
  2
{DD2B563A-0556-4EA7-B0DE-2B7C1E94A830}
  9
$EXTNAMES
290
     1
  9
$PSVPSCALE
 40
0.0
  9
$OLESTARTUP
290
     0
  9
$SORTENTS
280
   127
  9
$INDEXCTL
280
     0
  9
$HIDETEXT
280
     1
  9
$XCLIPFRAME
290
     0
  9
$HALOGAP
280
     0
  9
$OBSCOLOR
 70
   257
  9
$OBSLTYPE
280
     0
  9
$INTERSECTIONDISPLAY
280
     0
  9
$INTERSECTIONCOLOR
 70
   257
  9
$DIMASSOC
280
     1
  9
$PROJECTNAME
  1

  0
ENDSEC
  0
SECTION
  2
CLASSES
  0
CLASS
  1
ACDBDICTIONARYWDFLT
  2
AcDbDictionaryWithDefault
  3
ObjectDBX Classes
 90
        0
 91
        4
280
     0
281
     0
  0
CLASS
  1
ACDBPLACEHOLDER
  2
AcDbPlaceHolder
  3
ObjectDBX Classes
 90
        0
 91
        1
280
     0
281
     0
  0
CLASS
  1
LAYOUT
  2
AcDbLayout
  3
ObjectDBX Classes
 90
        0
 91
        1
280
     0
281
     0
  0
CLASS
  1
DICTIONARYVAR
  2
AcDbDictionaryVar
  3
ObjectDBX Classes
 90
        0
 91
        4
280
     0
281
     0
  0
CLASS
  1
DUMMY
  2
AcDbLongTransaction
  3
DUMMY
 90
        0
 91
        1
280
     0
281
     0
  0
CLASS
  1
LWPOLYLINE
  2
AcDbPolyline
  3
AutoCAD 2000
 90
        0
 91
        1
280
     0
281
     1
  0
CLASS
  1
HATCH
  2
AcDbHatch
  3
AutoCAD 2000
 90
        0
 91
        1
280
     0
281
     1
  0
CLASS
  1
XRECORD
  2
AcDbXrecord
  3
AutoCAD 2000
 90
        0
 91
        1
280
     0
281
     0
  0
CLASS
  1
DUMMY
  2
AcDbLongTransaction
  3
DUMMY
 90
        0
 91
        1
280
     0
281
     0
  0
CLASS
  1
LWPOLYLINE
  2
AcDbPolyline
  3
AutoCAD 2000
 90
        0
 91
        1
280
     0
281
     1
  0
CLASS
  1
HATCH
  2
AcDbHatch
  3
AutoCAD 2000
 90
        0
 91
        1
280
     0
281
     1
  0
CLASS
  1
XRECORD
  2
AcDbXrecord
  3
AutoCAD 2000
 90
        0
 91
        1
280
     0
281
     0
  0
CLASS
  1
DUMMY
  2
AcDbLongTransaction
  3
DUMMY
 90
        0
 91
        1
280
     0
281
     0
  0
CLASS
  1
LWPOLYLINE
  2
AcDbPolyline
  3
AutoCAD 2000
 90
        0
 91
        1
280
     0
281
     1
  0
CLASS
  1
HATCH
  2
AcDbHatch
  3
AutoCAD 2000
 90
        0
 91
        1
280
     0
281
     1
  0
CLASS
  1
XRECORD
  2
AcDbXrecord
  3
AutoCAD 2000
 90
        0
 91
        1
280
     0
281
     0
  0
CLASS
  1
TABLESTYLE
  2
AcDbTableStyle
  3
ObjectDBX Classes
 90
     4095
 91
        4
280
     0
281
     0
  0
CLASS
  1
SCALE
  2
AcDbScale
  3
ObjectDBX Classes
 90
     1153
 91
        4
280
     0
281
     0
  0
CLASS
  1
CELLSTYLEMAP
  2
AcDbCellStyleMap
  3
ObjectDBX Classes
 90
     1152
 91
        4
280
     0
281
     0
  0
ENDSEC
  0
SECTION
  2
TABLES
  0
TABLE
  2
VPORT
  5
8
330
0
100
AcDbSymbolTable
 70
     2
  0
VPORT
  5
2506
330
8
100
AcDbSymbolTableRecord
100
AcDbViewportTableRecord
  2
*Active
 70
     0
 10
0.0
 20
0.0
 11
1.0
 21
1.0
 12
5812.873134285304
 22
4404.644494089031
 13
0.0
 23
0.0
 14
30.0
 24
30.0
 15
300.0
 25
300.0
 16
0.0
 26
0.0
 36
1.0
 17
0.0
 27
0.0
 37
0.0
 40
10054.09275428285
 41
1.507024265644955
 42
50.0
 43
0.0
 44
0.0
 50
0.0
 51
0.0
 71
     0
 72
   100
 73
     1
 74
     1
 75
     0
 76
     0
 77
     0
 78
     0
281
     0
 65
     1
110
0.0
120
0.0
130
0.0
111
1.0
121
0.0
131
0.0
112
0.0
122
1.0
132
0.0
 79
     0
146
0.0
  0
ENDTAB
  0
TABLE
  2
LTYPE
  5
5
330
0
100
AcDbSymbolTable
 70
     4
  0
LTYPE
  5
11
330
5
100
AcDbSymbolTableRecord
100
AcDbLinetypeTableRecord
  2
BYBLOCK
 70
     0
  3

 72
    65
 73
     0
 40
0.0
  0
LTYPE
  5
12
330
5
100
AcDbSymbolTableRecord
100
AcDbLinetypeTableRecord
  2
BYLAYER
 70
     0
  3

 72
    65
 73
     0
 40
0.0
  0
LTYPE
  5
13
330
5
100
AcDbSymbolTableRecord
100
AcDbLinetypeTableRecord
  2
CONTINUOUS
 70
     0
  3
Solid line
 72
    65
 73
     0
 40
0.0
  0
LTYPE
  5
1E
330
5
100
AcDbSymbolTableRecord
100
AcDbLinetypeTableRecord
  2
HIDDEN
 70
     0
  3
_ _ _ _ _ _ _ _ _ _ _ _ _ _ _ _ _ _ _ _ _ _ _
 72
    65
 73
     2
 40
0.375
 49
0.25
 74
     0
 49
-0.125
 74
     0
  0
LTYPE
  5
1F
330
5
100
AcDbSymbolTableRecord
100
AcDbLinetypeTableRecord
  2
CENTER
 70
     0
  3
____ _ ____ _ ____ _ ____ _ ____ _ ____ _ ____
 72
    65
 73
     4
 40
2.0
 49
1.25
 74
     0
 49
-0.25
 74
     0
 49
0.25
 74
     0
 49
-0.25
 74
     0
  0
LTYPE
  5
20
330
5
100
AcDbSymbolTableRecord
100
AcDbLinetypeTableRecord
  2
PHANTOM
 70
     0
  3
_____ _ _ _____ _ _ _____ _ _ _____ _ _ ____
 72
    65
 73
     6
 40
2.5
 49
1.25
 74
     0
 49
-0.25
 74
     0
 49
0.25
 74
     0
 49
-0.25
 74
     0
 49
0.25
 74
     0
 49
-0.25
 74
     0
  0
ENDTAB
  0
TABLE
  2
LAYER
  5
2
330
0
100
AcDbSymbolTable
 70
    10
  0
LAYER
  5
E
330
2
100
AcDbSymbolTableRecord
100
AcDbLayerTableRecord
  2
0
 70
     0
 62
     7
  6
CONTINUOUS
370
    -3
390
7A
  0
LAYER
  5
23
330
2
100
AcDbSymbolTableRecord
100
AcDbLayerTableRecord
  2
SUNPOU
 70
     0
 62
     1
  6
CONTINUOUS
370
    -3
390
7A
  0
LAYER
  5
24
330
2
100
AcDbSymbolTableRecord
100
AcDbLayerTableRecord
  2
HAIKIN
 70
     0
 62
     2
  6
CONTINUOUS
370
    -3
390
7A
  0
LAYER
  5
25
330
2
100
AcDbSymbolTableRecord
100
AcDbLayerTableRecord
  2
SEIHIN
 70
     0
 62
     3
  6
CONTINUOUS
370
    -3
390
7A
  0
LAYER
  5
26
330
2
100
AcDbSymbolTableRecord
100
AcDbLayerTableRecord
  2
HASEN
 70
     0
 62
     4
  6
HIDDEN
370
    -3
390
7A
  0
LAYER
  5
27
330
2
100
AcDbSymbolTableRecord
100
AcDbLayerTableRecord
  2
1HASEN
 70
     0
 62
     5
  6
CENTER
370
    -3
390
7A
  0
LAYER
  5
28
330
2
100
AcDbSymbolTableRecord
100
AcDbLayerTableRecord
  2
2HASEN
 70
     0
 62
     6
  6
PHANTOM
370
    -3
390
7A
  0
LAYER
  5
29
330
2
100
AcDbSymbolTableRecord
100
AcDbLayerTableRecord
  2
HOJO
 70
     0
 62
     7
  6
CONTINUOUS
370
    -3
390
7A
  0
LAYER
  5
2A
330
2
100
AcDbSymbolTableRecord
100
AcDbLayerTableRecord
  2
TEN
 70
     0
 62
     7
  6
CONTINUOUS
370
    -3
390
7A
  0
LAYER
  5
70
330
2
100
AcDbSymbolTableRecord
100
AcDbLayerTableRecord
  2
DEFPOINTS
 70
     0
 62
     7
  6
CONTINUOUS
290
     0
370
    -3
390
7A
  0
ENDTAB
  0
TABLE
  2
STYLE
  5
3
330
0
100
AcDbSymbolTable
 70
     1
  0
STYLE
  5
F
330
3
100
AcDbSymbolTableRecord
100
AcDbTextStyleTableRecord
  2
STANDARD
 70
     0
 40
0.0
 41
0.8
 50
0.0
 71
     0
 42
90.0
  3
TXT.shx
  4
BIGFONT.shx
  0
ENDTAB
  0
TABLE
  2
VIEW
  5
6
330
0
100
AcDbSymbolTable
 70
     0
  0
ENDTAB
  0
TABLE
  2
UCS
  5
7
330
0
100
AcDbSymbolTable
 70
     0
  0
ENDTAB
  0
TABLE
  2
APPID
  5
9
330
0
100
AcDbSymbolTable
 70
    10
  0
APPID
  5
10
330
9
100
AcDbSymbolTableRecord
100
AcDbRegAppTableRecord
  2
ACAD
 70
     0
  0
APPID
  5
9B0
330
9
100
AcDbSymbolTableRecord
100
AcDbRegAppTableRecord
  2
ACAD_DSTYLE_DIMTEXT_FILL
 70
     0
  0
APPID
  5
9B1
330
9
100
AcDbSymbolTableRecord
100
AcDbRegAppTableRecord
  2
ACAD_DSTYLE_DIMEXT_LENGTH
 70
     0
  0
APPID
  5
9B2
330
9
100
AcDbSymbolTableRecord
100
AcDbRegAppTableRecord
  2
ACAD_DSTYLE_DIMEXT_ENABLED
 70
     0
  0
APPID
  5
9B3
330
9
100
AcDbSymbolTableRecord
100
AcDbRegAppTableRecord
  2
ACAD_DSTYLE_DIM_LINETYPE
 70
     0
  0
APPID
  5
9B4
330
9
100
AcDbSymbolTableRecord
100
AcDbRegAppTableRecord
  2
ACAD_DSTYLE_DIM_EXT1_LINETYPE
 70
     0
  0
APPID
  5
9B5
330
9
100
AcDbSymbolTableRecord
100
AcDbRegAppTableRecord
  2
ACAD_DSTYLE_DIM_EXT2_LINETYPE
 70
     0
  0
APPID
  5
A71
330
9
100
AcDbSymbolTableRecord
100
AcDbRegAppTableRecord
  2
ACAD_DSTYLE_DIMJOGGED_JOGANGLE_SYMBOL
 70
     0
  0
APPID
  5
C55
330
9
100
AcDbSymbolTableRecord
100
AcDbRegAppTableRecord
  2
ACAD_DSTYLE_DIMARC_LENGTH_SYMBOL
 70
     0
  0
APPID
  5
21FF
330
9
100
AcDbSymbolTableRecord
100
AcDbRegAppTableRecord
  2
ACAD_EXEMPT_FROM_CAD_STANDARDS
 70
     0
  0
ENDTAB
  0
TABLE
  2
DIMSTYLE
  5
A
330
0
100
AcDbSymbolTable
 70
     2
100
AcDbDimStyleTable
  0
DIMSTYLE
105
61
330
A
100
AcDbSymbolTableRecord
100
AcDbDimStyleTableRecord
  2
STANDARD
 70
     0
178
     0
340
F
  0
DIMSTYLE
105
C5A
102
{ACAD_REACTORS
330
150E
330
150D
330
1503
330
14BA
330
14A0
330
149C
330
1499
330
1472
330
1407
330
1406
330
1405
330
1404
330
13E1
330
1519
330
1518
330
14F2
330
14F1
330
14E6
330
14DF
330
14DE
330
1425
330
141D
330
141A
330
13CA
330
220E
330
221C
102
}
330
A
100
AcDbSymbolTableRecord
100
AcDbDimStyleTableRecord
  2
A3-30
 70
     0
 40
30.0
 41
2.0
 42
2.0
 43
7.0
 44
0.5
 73
     0
 74
     0
 77
     1
 78
     8
140
3.0
141
0.0
145
1.0
147
0.8
174
     1
178
     0
179
     4
271
     0
272
     0
279
     2
284
     8
285
     8
286
     8
340
F
  0
ENDTAB
  0
TABLE
  2
BLOCK_RECORD
  5
1
330
0
100
AcDbSymbolTable
 70
    34
  0
BLOCK_RECORD
  5
17
330
1
100
AcDbSymbolTableRecord
100
AcDbBlockTableRecord
  2
*MODEL_SPACE
340
7D
  0
BLOCK_RECORD
  5
14
330
1
100
AcDbSymbolTableRecord
100
AcDbBlockTableRecord
  2
*PAPER_SPACE
340
7E
  0
BLOCK_RECORD
  5
1C
330
1
100
AcDbSymbolTableRecord
100
AcDbBlockTableRecord
  2
BORDER
340
0
  0
BLOCK_RECORD
  5
1D
330
1
100
AcDbSymbolTableRecord
100
AcDbBlockTableRecord
  2
SA3
340
0
102
{BLKREFS
331
60
102
}
  0
BLOCK_RECORD
  5
82
330
1
100
AcDbSymbolTableRecord
100
AcDbBlockTableRecord
  2
*D2
340
0
  0
BLOCK_RECORD
  5
8E
330
1
100
AcDbSymbolTableRecord
100
AcDbBlockTableRecord
  2
*D3
340
0
  0
BLOCK_RECORD
  5
9C
330
1
100
AcDbSymbolTableRecord
100
AcDbBlockTableRecord
  2
*D4
340
0
  0
BLOCK_RECORD
  5
AA
330
1
100
AcDbSymbolTableRecord
100
AcDbBlockTableRecord
  2
*D5
340
0
  0
BLOCK_RECORD
  5
B6
330
1
100
AcDbSymbolTableRecord
100
AcDbBlockTableRecord
  2
*D6
340
0
  0
BLOCK_RECORD
  5
C3
330
1
100
AcDbSymbolTableRecord
100
AcDbBlockTableRecord
  2
A$C79F54BAC
340
0
  0
BLOCK_RECORD
  5
15DB
330
1
100
AcDbSymbolTableRecord
100
AcDbBlockTableRecord
  2
*D8
340
0
  0
BLOCK_RECORD
  5
1635
330
1
100
AcDbSymbolTableRecord
100
AcDbBlockTableRecord
  2
*D9
340
0
  0
BLOCK_RECORD
  5
1681
330
1
100
AcDbSymbolTableRecord
100
AcDbBlockTableRecord
  2
*D10
340
0
  0
BLOCK_RECORD
  5
168D
330
1
100
AcDbSymbolTableRecord
100
AcDbBlockTableRecord
  2
*D11
340
0
  0
BLOCK_RECORD
  5
1699
330
1
100
AcDbSymbolTableRecord
100
AcDbBlockTableRecord
  2
*D12
340
0
  0
BLOCK_RECORD
  5
16A5
330
1
100
AcDbSymbolTableRecord
100
AcDbBlockTableRecord
  2
*D13
340
0
  0
BLOCK_RECORD
  5
16BE
330
1
100
AcDbSymbolTableRecord
100
AcDbBlockTableRecord
  2
*D14
340
0
  0
BLOCK_RECORD
  5
16E3
330
1
100
AcDbSymbolTableRecord
100
AcDbBlockTableRecord
  2
*D15
340
0
  0
BLOCK_RECORD
  5
1708
330
1
100
AcDbSymbolTableRecord
100
AcDbBlockTableRecord
  2
*D16
340
0
  0
BLOCK_RECORD
  5
175F
330
1
100
AcDbSymbolTableRecord
100
AcDbBlockTableRecord
  2
*D17
340
0
  0
BLOCK_RECORD
  5
1785
330
1
100
AcDbSymbolTableRecord
100
AcDbBlockTableRecord
  2
*D18
340
0
  0
BLOCK_RECORD
  5
17AA
330
1
100
AcDbSymbolTableRecord
100
AcDbBlockTableRecord
  2
*D19
340
0
  0
BLOCK_RECORD
  5
17DC
330
1
100
AcDbSymbolTableRecord
100
AcDbBlockTableRecord
  2
*D20
340
0
  0
BLOCK_RECORD
  5
1800
330
1
100
AcDbSymbolTableRecord
100
AcDbBlockTableRecord
  2
*D21
340
0
  0
BLOCK_RECORD
  5
180C
330
1
100
AcDbSymbolTableRecord
100
AcDbBlockTableRecord
  2
*D22
340
0
  0
BLOCK_RECORD
  5
1818
330
1
100
AcDbSymbolTableRecord
100
AcDbBlockTableRecord
  2
*D23
340
0
  0
BLOCK_RECORD
  5
183C
330
1
100
AcDbSymbolTableRecord
100
AcDbBlockTableRecord
  2
*D24
340
0
  0
BLOCK_RECORD
  5
1887
330
1
100
AcDbSymbolTableRecord
100
AcDbBlockTableRecord
  2
*D25
340
0
  0
BLOCK_RECORD
  5
1893
330
1
100
AcDbSymbolTableRecord
100
AcDbBlockTableRecord
  2
*D26
340
0
  0
BLOCK_RECORD
  5
18C4
330
1
100
AcDbSymbolTableRecord
100
AcDbBlockTableRecord
  2
*D27
340
0
  0
BLOCK_RECORD
  5
18E8
330
1
100
AcDbSymbolTableRecord
100
AcDbBlockTableRecord
  2
*D28
340
0
  0
BLOCK_RECORD
  5
18F4
330
1
100
AcDbSymbolTableRecord
100
AcDbBlockTableRecord
  2
*D29
340
0
  0
BLOCK_RECORD
  5
1900
330
1
100
AcDbSymbolTableRecord
100
AcDbBlockTableRecord
  2
*D30
340
0
  0
BLOCK_RECORD
  5
190C
330
1
100
AcDbSymbolTableRecord
100
AcDbBlockTableRecord
  2
*D31
340
0
  0
BLOCK_RECORD
  5
220F
330
1
100
AcDbSymbolTableRecord
100
AcDbBlockTableRecord
  2
*D32
340
0
  0
BLOCK_RECORD
  5
221D
330
1
100
AcDbSymbolTableRecord
100
AcDbBlockTableRecord
  2
*D33
340
0
  0
ENDTAB
  0
ENDSEC
  0
SECTION
  2
BLOCKS
  0
BLOCK
  5
2D
330
17
100
AcDbEntity
  8
0
100
AcDbBlockBegin
  2
*MODEL_SPACE
 70
     0
 10
0.0
 20
0.0
 30
0.0
  3
*MODEL_SPACE
  1

  0
ENDBLK
  5
2E
330
17
100
AcDbEntity
  8
0
100
AcDbBlockEnd
  0
BLOCK
  5
2B
330
14
100
AcDbEntity
 67
     1
  8
0
100
AcDbBlockBegin
  2
*PAPER_SPACE
 70
     0
 10
0.0
 20
0.0
 30
0.0
  3
*PAPER_SPACE
  1

  0
ENDBLK
  5
2C
330
14
100
AcDbEntity
 67
     1
  8
0
100
AcDbBlockEnd
  0
BLOCK
  5
2F
330
1C
100
AcDbEntity
  8
0
100
AcDbBlockBegin
  2
BORDER
 70
     0
 10
0.0
 20
0.0
 30
0.0
  3
BORDER
  1

  0
LINE
  5
30
330
1C
100
AcDbEntity
  8
0
100
AcDbLine
 10
0.0
 20
0.0
 30
0.0
 11
1.00000000000004
 21
0.0
 31
0.0
  0
LINE
  5
31
330
1C
100
AcDbEntity
  8
0
100
AcDbLine
 10
1.00000000000004
 20
0.0
 30
0.0
 11
1.00000000000004
 21
1.00000000000004
 31
0.0
  0
LINE
  5
32
330
1C
100
AcDbEntity
  8
0
100
AcDbLine
 10
1.00000000000004
 20
1.00000000000004
 30
0.0
 11
0.0
 21
1.00000000000004
 31
0.0
  0
LINE
  5
33
330
1C
100
AcDbEntity
  8
0
100
AcDbLine
 10
0.0
 20
1.00000000000004
 30
0.0
 11
0.0
 21
0.0
 31
0.0
  0
ENDBLK
  5
34
330
1C
100
AcDbEntity
  8
0
100
AcDbBlockEnd
  0
BLOCK
  5
35
330
1D
100
AcDbEntity
  8
HAIKIN
100
AcDbBlockBegin
  2
SA3
 70
     0
 10
0.0
 20
0.0
 30
0.0
  3
SA3
  1

  0
TEXT
  5
36
330
1D
100
AcDbEntity
  8
SUNPOU
100
AcDbText
 10
340.0
 20
0.0
 30
0.0
 40
2.5
  1
新和コンクリート工業株式会社
100
AcDbText
  0
TEXT
  5
39
330
1D
100
AcDbEntity
  8
SUNPOU
100
AcDbText
 10
361.4166666666667
 20
6.25
 30
0.0
 40
2.5
  1
製図
 72
     4
 11
364.0
 21
7.5
 31
0.0
100
AcDbText
  0
TEXT
  5
3A
330
1D
100
AcDbEntity
  8
SUNPOU
100
AcDbText
 10
361.3333333333333
 20
11.25
 30
0.0
 40
2.5
  1
設計
 72
     4
 11
364.0
 21
12.5
 31
0.0
100
AcDbText
  0
TEXT
  5
3B
330
1D
100
AcDbEntity
  8
SUNPOU
100
AcDbText
 10
339.0833333333333
 20
6.250000000000014
 30
0.0
 40
2.5
  1
認
 72
     4
 11
340.25
 21
7.500000000000014
 31
0.0
100
AcDbText
  0
TEXT
  5
3C
330
1D
100
AcDbEntity
  8
SUNPOU
100
AcDbText
 10
339.0833333333333
 20
11.33333333333336
 30
0.0
 40
2.5
  1
承
 72
     4
 11
340.25
 21
12.50000000000003
 31
0.0
100
AcDbText
  0
TEXT
  5
3D
330
1D
100
AcDbEntity
  8
SUNPOU
100
AcDbText
 10
312.75
 20
11.75000000000001
 30
0.0
 40
2.5
  1
図　面　番　号
 72
     4
 11
323.0
 21
13.00000000000001
 31
0.0
100
AcDbText
  0
TEXT
  5
3E
330
1D
100
AcDbEntity
  8
SUNPOU
100
AcDbText
 10
362.0
 20
17.0
 30
0.0
 40
2.5
  1
１／
100
AcDbText
  0
TEXT
  5
3F
330
1D
100
AcDbEntity
  8
SUNPOU
100
AcDbText
 10
347.3333333333333
 20
16.25000000000001
 30
0.0
 40
2.5
  1
縮　　尺
 72
     4
 11
353.0
 21
17.50000000000001
 31
0.0
100
AcDbText
  0
TEXT
  5
40
330
1D
100
AcDbEntity
  8
SUNPOU
100
AcDbText
 10
347.3333333333333
 20
21.25
 30
0.0
 40
2.5
  1
鉄 筋 量
 72
     4
 11
353.0
 21
22.5
 31
0.0
100
AcDbText
  0
TEXT
  5
41
330
1D
100
AcDbEntity
  8
SUNPOU
100
AcDbText
 10
347.3333333333333
 20
26.25
 30
0.0
 40
2.5
  1
製 造 数
 72
     4
 11
353.0
 21
27.5
 31
0.0
100
AcDbText
  0
TEXT
  5
42
330
1D
100
AcDbEntity
  8
SUNPOU
100
AcDbText
 10
377.0
 20
21.0
 30
0.0
 40
2.5
  1
ｋｇ
 72
     2
 11
382.0
 21
21.0
 31
0.0
100
AcDbText
  0
TEXT
  5
43
330
1D
100
AcDbEntity
  8
SUNPOU
100
AcDbText
 10
339.5
 20
21.0
 30
0.0
 40
2.5
  1
ｋｇ
 72
     2
 11
344.5
 21
21.0
 31
0.0
100
AcDbText
  0
TEXT
  5
44
330
1D
100
AcDbEntity
  8
SUNPOU
100
AcDbText
 10
310.0
 20
16.25000000000001
 30
0.0
 40
2.5
  1
年 月 日
 72
     4
 11
315.5
 21
17.50000000000001
 31
0.0
100
AcDbText
  0
TEXT
  5
45
330
1D
100
AcDbEntity
  8
SUNPOU
100
AcDbText
 10
309.8333333333333
 20
21.25
 30
0.0
 40
2.5
  1
製品質量
 72
     4
 11
315.5
 21
22.5
 31
0.0
100
AcDbText
  0
TEXT
  5
46
330
1D
100
AcDbEntity
  8
SUNPOU
100
AcDbText
 10
309.9166666666667
 20
26.25
 30
0.0
 40
2.5
  1
業 者 名
 72
     4
 11
315.5
 21
27.5
 31
0.0
100
AcDbText
  0
TEXT
  5
47
330
1D
100
AcDbEntity
  8
SUNPOU
100
AcDbText
 10
309.8333333333333
 20
32.5
 30
0.0
 40
2.5
  1
名　　称
 72
     4
 11
315.5
 21
33.75
 31
0.0
100
AcDbText
  0
LINE
  5
48
330
1D
100
AcDbEntity
  8
SUNPOU
100
AcDbLine
 10
338.0
 20
11.00000000000001
 30
0.0
 11
308.0
 21
11.00000000000001
 31
0.0
  0
LINE
  5
49
330
1D
100
AcDbEntity
  8
SUNPOU
100
AcDbLine
 10
367.5
 20
4.999999999999986
 30
0.0
 11
367.5
 21
14.99999999999999
 31
0.0
  0
LINE
  5
4A
330
1D
100
AcDbEntity
  8
SUNPOU
100
AcDbLine
 10
360.5
 20
4.999999999999986
 30
0.0
 11
360.5
 21
14.99999999999999
 31
0.0
  0
LINE
  5
4B
330
1D
100
AcDbEntity
  8
SUNPOU
100
AcDbLine
 10
342.5
 20
4.999999999999995
 30
0.0
 11
342.5
 21
15.0
 31
0.0
  0
LINE
  5
4C
330
1D
100
AcDbEntity
  8
SUNPOU
100
AcDbLine
 10
338.0
 20
4.999999999999995
 30
0.0
 11
338.0
 21
15.0
 31
0.0
  0
LINE
  5
4D
330
1D
100
AcDbEntity
  8
SUNPOU
100
AcDbLine
 10
323.0
 20
15.00000000000001
 30
0.0
 11
323.0
 21
37.5
 31
0.0
  0
LINE
  5
4E
330
1D
100
AcDbEntity
  8
SUNPOU
100
AcDbLine
 10
360.5
 20
15.00000000000001
 30
0.0
 11
360.5
 21
30.0
 31
0.0
  0
LINE
  5
4F
330
1D
100
AcDbEntity
  8
SUNPOU
100
AcDbLine
 10
345.5
 20
15.00000000000001
 30
0.0
 11
345.5
 21
30.0
 31
0.0
  0
LINE
  5
50
330
1D
100
AcDbEntity
  8
SUNPOU
100
AcDbLine
 10
383.0
 20
30.0
 30
0.0
 11
308.0
 21
30.0
 31
0.0
  0
LINE
  5
51
330
1D
100
AcDbEntity
  8
SUNPOU
100
AcDbLine
 10
383.0
 20
25.0
 30
0.0
 11
308.0
 21
25.0
 31
0.0
  0
LINE
  5
52
330
1D
100
AcDbEntity
  8
SUNPOU
100
AcDbLine
 10
383.0
 20
20.0
 30
0.0
 11
308.0
 21
20.0
 31
0.0
  0
LINE
  5
53
330
1D
100
AcDbEntity
  8
SUNPOU
100
AcDbLine
 10
383.0
 20
14.99999999999999
 30
0.0
 11
308.0
 21
15.00000000000004
 31
0.0
  0
LINE
  5
54
330
1D
100
AcDbEntity
  8
HAIKIN
100
AcDbLine
 10
308.0
 20
37.5
 30
0.0
 11
383.0
 21
37.5
 31
0.0
  0
LINE
  5
55
330
1D
100
AcDbEntity
  8
HAIKIN
100
AcDbLine
 10
308.0
 20
5.000000000000009
 30
0.0
 11
308.0
 21
37.5
 31
0.0
  0
LINE
  5
56
330
1D
100
AcDbEntity
  8
SUNPOU
100
AcDbLine
 10
0.000000000000016
 20
277.0
 30
0.0
 11
0.000000000000016
 21
272.0
 31
0.0
  0
LINE
  5
57
330
1D
100
AcDbEntity
  8
SUNPOU
100
AcDbLine
 10
25.00000000000001
 20
277.0
 30
0.0
 11
0.000000000000016
 21
277.0
 31
0.0
  0
LINE
  5
58
330
1D
100
AcDbEntity
  8
SUNPOU
100
AcDbLine
 10
25.00000000000001
 20
272.0
 30
0.0
 11
25.00000000000001
 21
277.0
 31
0.0
  0
LINE
  5
59
330
1D
100
AcDbEntity
  8
HAIKIN
100
AcDbLine
 10
0.0000000000000004
 20
5.0
 30
0.0
 11
383.0
 21
5.0
 31
0.0
  0
LINE
  5
5A
330
1D
100
AcDbEntity
  8
HAIKIN
100
AcDbLine
 10
0.0000000000000158
 20
272.0
 30
0.0
 11
383.0
 21
272.0
 31
0.0
  0
LINE
  5
5B
330
1D
100
AcDbEntity
  8
HAIKIN
100
AcDbLine
 10
383.0
 20
272.0
 30
0.0
 11
383.0
 21
5.0
 31
0.0
  0
TEXT
  5
5C
330
1D
100
AcDbEntity
  8
SUNPOU
100
AcDbText
 10
3.700000000000017
 20
273.0
 30
0.0
 40
3.0
  1
Ｈ－２－共
 72
     4
 11
12.50000000000002
 21
274.5
 31
0.0
100
AcDbText
  0
LINE
  5
5D
330
1D
100
AcDbEntity
  8
HAIKIN
100
AcDbLine
 10
0.0000000000000004
 20
5.0
 30
0.0
 11
0.0000000000000158
 21
272.0
 31
0.0
  0
ENDBLK
  5
5E
330
1D
100
AcDbEntity
  8
HAIKIN
100
AcDbBlockEnd
  0
BLOCK
  5
8C
330
82
100
AcDbEntity
  8
0
100
AcDbBlockBegin
  2
*D2
 70
     1
 10
0.0
 20
0.0
 30
0.0
  3
*D2
  1

  0
LINE
  5
83
330
82
100
AcDbEntity
  8
SUNPOU
370
    -2
100
AcDbLine
 10
14459.99999999999
 20
11910.0
 30
0.0
 11
15605.99999999999
 21
11910.0
 31
0.0
  0
LINE
  5
84
330
82
100
AcDbEntity
  8
SUNPOU
370
    -2
100
AcDbLine
 10
14459.99999999999
 20
13710.0
 30
0.0
 11
15605.99999999999
 21
13710.0
 31
0.0
  0
LINE
  5
85
330
82
100
AcDbEntity
  8
SUNPOU
370
    -2
100
AcDbLine
 10
15569.99999999999
 20
12000.0
 30
0.0
 11
15569.99999999999
 21
13620.0
 31
0.0
  0
MTEXT
  5
86
330
82
100
AcDbEntity
  8
SUNPOU
 62
     0
100
AcDbMText
 10
15404.05869794343
 20
12806.25726232369
 30
0.0
 40
180.0
 41
0.0
 71
     5
 72
     1
  1
\A1;15@120=1800
 11
6.123031769111886E-17
 21
1.0
 31
0.0
 73
     1
 44
1.0
  0
SOLID
  5
87
330
82
100
AcDbEntity
  8
SUNPOU
100
AcDbTrace
 10
15554.99999999999
 20
12000.0
 30
0.0
 11
15584.99999999999
 21
12000.0
 31
0.0
 12
15569.99999999999
 22
11910.0
 32
0.0
 13
15569.99999999999
 23
11910.0
 33
0.0
  0
SOLID
  5
88
330
82
100
AcDbEntity
  8
SUNPOU
100
AcDbTrace
 10
15554.99999999999
 20
13620.0
 30
0.0
 11
15584.99999999999
 21
13620.0
 31
0.0
 12
15569.99999999999
 22
13710.0
 32
0.0
 13
15569.99999999999
 23
13710.0
 33
0.0
  0
POINT
  5
89
330
82
100
AcDbEntity
  8
DEFPOINTS
 62
     0
100
AcDbPoint
 10
14369.99999999999
 20
11910.0
 30
0.0
  0
POINT
  5
8A
330
82
100
AcDbEntity
  8
DEFPOINTS
 62
     0
100
AcDbPoint
 10
14369.99999999999
 20
13710.0
 30
0.0
  0
POINT
  5
8B
330
82
100
AcDbEntity
  8
DEFPOINTS
 62
     0
100
AcDbPoint
 10
15569.99999999999
 20
13710.0
 30
0.0
  0
ENDBLK
  5
8D
330
82
100
AcDbEntity
  8
0
100
AcDbBlockEnd
  0
BLOCK
  5
9A
330
8E
100
AcDbEntity
  8
0
100
AcDbBlockBegin
  2
*D3
 70
     1
 10
0.0
 20
0.0
 30
0.0
  3
*D3
  1

  0
LINE
  5
8F
330
8E
100
AcDbEntity
  8
SUNPOU
370
    -2
100
AcDbLine
 10
14333.74999999999
 20
11805.0
 30
0.0
 11
15605.99999999999
 21
11805.0
 31
0.0
  0
LINE
  5
90
330
8E
100
AcDbEntity
  8
SUNPOU
370
    -2
100
AcDbLine
 10
14489.70588235293
 20
11910.0
 30
0.0
 11
15605.99999999999
 21
11910.0
 31
0.0
  0
LINE
  5
91
330
8E
100
AcDbEntity
  8
SUNPOU
370
    -2
100
AcDbLine
 10
15569.99999999999
 20
11715.0
 30
0.0
 11
15569.99999999999
 21
11625.0
 31
0.0
  0
LINE
  5
92
330
8E
100
AcDbEntity
  8
SUNPOU
370
    -2
100
AcDbLine
 10
15569.99999999999
 20
12000.0
 30
0.0
 11
15569.99999999999
 21
12090.0
 31
0.0
  0
MTEXT
  5
93
330
8E
100
AcDbEntity
  8
SUNPOU
 62
     0
100
AcDbMText
 10
15730.33993097525
 20
11906.05735268755
 30
0.0
 40
180.0
 41
0.0
 71
     5
 72
     1
  1
\A1;105
 11
6.123031769111886E-17
 21
1.0
 31
0.0
 73
     1
 44
1.0
  0
LINE
  5
94
330
8E
100
AcDbEntity
  8
SUNPOU
370
    -2
100
AcDbLine
 10
15569.99999999999
 20
11805.0
 30
0.0
 11
15569.99999999999
 21
11910.0
 31
0.0
  0
SOLID
  5
95
330
8E
100
AcDbEntity
  8
SUNPOU
100
AcDbTrace
 10
15554.99999999999
 20
11715.0
 30
0.0
 11
15584.99999999999
 21
11715.0
 31
0.0
 12
15569.99999999999
 22
11805.0
 32
0.0
 13
15569.99999999999
 23
11805.0
 33
0.0
  0
SOLID
  5
96
330
8E
100
AcDbEntity
  8
SUNPOU
100
AcDbTrace
 10
15554.99999999999
 20
12000.0
 30
0.0
 11
15584.99999999999
 21
12000.0
 31
0.0
 12
15569.99999999999
 22
11910.0
 32
0.0
 13
15569.99999999999
 23
11910.0
 33
0.0
  0
POINT
  5
97
330
8E
100
AcDbEntity
  8
DEFPOINTS
 62
     0
100
AcDbPoint
 10
14243.74999999999
 20
11805.0
 30
0.0
  0
POINT
  5
98
330
8E
100
AcDbEntity
  8
DEFPOINTS
 62
     0
100
AcDbPoint
 10
14399.70588235293
 20
11910.0
 30
0.0
  0
POINT
  5
99
330
8E
100
AcDbEntity
  8
DEFPOINTS
 62
     0
100
AcDbPoint
 10
15569.99999999999
 20
11910.0
 30
0.0
  0
ENDBLK
  5
9B
330
8E
100
AcDbEntity
  8
0
100
AcDbBlockEnd
  0
BLOCK
  5
A8
330
9C
100
AcDbEntity
  8
0
100
AcDbBlockBegin
  2
*D4
 70
     1
 10
0.0
 20
0.0
 30
0.0
  3
*D4
  1

  0
LINE
  5
9D
330
9C
100
AcDbEntity
  8
SUNPOU
370
    -2
100
AcDbLine
 10
14459.99999999999
 20
13710.0
 30
0.0
 11
15605.99999999999
 21
13710.0
 31
0.0
  0
LINE
  5
9E
330
9C
100
AcDbEntity
  8
SUNPOU
370
    -2
100
AcDbLine
 10
14459.99999999999
 20
13770.0
 30
0.0
 11
15605.99999999999
 21
13770.0
 31
0.0
  0
LINE
  5
9F
330
9C
100
AcDbEntity
  8
SUNPOU
370
    -2
100
AcDbLine
 10
15569.99999999999
 20
13620.0
 30
0.0
 11
15569.99999999999
 21
13530.0
 31
0.0
  0
LINE
  5
A0
330
9C
100
AcDbEntity
  8
SUNPOU
370
    -2
100
AcDbLine
 10
15569.99999999999
 20
13860.0
 30
0.0
 11
15569.99999999999
 21
13950.0
 31
0.0
  0
MTEXT
  5
A1
330
9C
100
AcDbEntity
  8
SUNPOU
 62
     0
100
AcDbMText
 10
15437.48050855183
 20
13968.0082924672
 30
0.0
 40
180.0
 41
0.0
 71
     5
 72
     1
  1
\A1;60
 11
6.123031769111886E-17
 21
1.0
 31
0.0
 73
     1
 44
1.0
  0
LINE
  5
A2
330
9C
100
AcDbEntity
  8
SUNPOU
370
    -2
100
AcDbLine
 10
15569.99999999999
 20
13710.0
 30
0.0
 11
15569.99999999999
 21
13770.0
 31
0.0
  0
SOLID
  5
A3
330
9C
100
AcDbEntity
  8
SUNPOU
100
AcDbTrace
 10
15554.99999999999
 20
13620.0
 30
0.0
 11
15584.99999999999
 21
13620.0
 31
0.0
 12
15569.99999999999
 22
13710.0
 32
0.0
 13
15569.99999999999
 23
13710.0
 33
0.0
  0
SOLID
  5
A4
330
9C
100
AcDbEntity
  8
SUNPOU
100
AcDbTrace
 10
15554.99999999999
 20
13860.0
 30
0.0
 11
15584.99999999999
 21
13860.0
 31
0.0
 12
15569.99999999999
 22
13770.0
 32
0.0
 13
15569.99999999999
 23
13770.0
 33
0.0
  0
POINT
  5
A5
330
9C
100
AcDbEntity
  8
DEFPOINTS
 62
     0
100
AcDbPoint
 10
14369.99999999999
 20
13710.0
 30
0.0
  0
POINT
  5
A6
330
9C
100
AcDbEntity
  8
DEFPOINTS
 62
     0
100
AcDbPoint
 10
14369.99999999999
 20
13770.0
 30
0.0
  0
POINT
  5
A7
330
9C
100
AcDbEntity
  8
DEFPOINTS
 62
     0
100
AcDbPoint
 10
15569.99999999999
 20
13770.0
 30
0.0
  0
ENDBLK
  5
A9
330
9C
100
AcDbEntity
  8
0
100
AcDbBlockEnd
  0
BLOCK
  5
B4
330
AA
100
AcDbEntity
  8
0
100
AcDbBlockBegin
  2
*D5
 70
     1
 10
0.0
 20
0.0
 30
0.0
  3
*D5
  1

  0
LINE
  5
AB
330
AA
100
AcDbEntity
  8
SUNPOU
370
    -2
100
AcDbLine
 10
14324.99999999999
 20
11770.0
 30
0.0
 11
15905.99999999999
 21
11770.0
 31
0.0
  0
LINE
  5
AC
330
AA
100
AcDbEntity
  8
SUNPOU
370
    -2
100
AcDbLine
 10
14594.99999999999
 20
13770.0
 30
0.0
 11
15905.99999999999
 21
13770.0
 31
0.0
  0
LINE
  5
AD
330
AA
100
AcDbEntity
  8
SUNPOU
370
    -2
100
AcDbLine
 10
15869.99999999999
 20
11860.0
 30
0.0
 11
15869.99999999999
 21
13680.0
 31
0.0
  0
SOLID
  5
AE
330
AA
100
AcDbEntity
  8
SUNPOU
100
AcDbTrace
 10
15854.99999999999
 20
11860.0
 30
0.0
 11
15884.99999999999
 21
11860.0
 31
0.0
 12
15869.99999999999
 22
11770.0
 32
0.0
 13
15869.99999999999
 23
11770.0
 33
0.0
  0
SOLID
  5
AF
330
AA
100
AcDbEntity
  8
SUNPOU
100
AcDbTrace
 10
15854.99999999999
 20
13680.0
 30
0.0
 11
15884.99999999999
 21
13680.0
 31
0.0
 12
15869.99999999999
 22
13770.0
 32
0.0
 13
15869.99999999999
 23
13770.0
 33
0.0
  0
MTEXT
  5
B0
330
AA
100
AcDbEntity
  8
SUNPOU
 62
     0
100
AcDbMText
 10
15731.99999999999
 20
12770.0
 30
0.0
 40
180.0
 41
0.0
 71
     5
 72
     1
  1
\A1;2000
 11
6.123031769111886E-17
 21
1.0
 31
0.0
 73
     1
 44
1.0
  0
POINT
  5
B1
330
AA
100
AcDbEntity
  8
DEFPOINTS
 62
     0
100
AcDbPoint
 10
14234.99999999999
 20
11770.0
 30
0.0
  0
POINT
  5
B2
330
AA
100
AcDbEntity
  8
DEFPOINTS
 62
     0
100
AcDbPoint
 10
14504.99999999999
 20
13770.0
 30
0.0
  0
POINT
  5
B3
330
AA
100
AcDbEntity
  8
DEFPOINTS
 62
     0
100
AcDbPoint
 10
15869.99999999999
 20
13770.0
 30
0.0
  0
ENDBLK
  5
B5
330
AA
100
AcDbEntity
  8
0
100
AcDbBlockEnd
  0
BLOCK
  5
C1
330
B6
100
AcDbEntity
  8
0
100
AcDbBlockBegin
  2
*D6
 70
     1
 10
0.0
 20
0.0
 30
0.0
  3
*D6
  1

  0
LINE
  5
B7
330
B6
100
AcDbEntity
  8
SUNPOU
 62
     0
370
    -2
100
AcDbLine
 10
14388.74999999999
 20
11805.0
 30
0.0
 11
15629.99999999999
 21
11805.0
 31
0.0
  0
LINE
  5
B8
330
B6
100
AcDbEntity
  8
SUNPOU
 62
     0
370
    -2
100
AcDbLine
 10
14379.99999999999
 20
11770.0
 30
0.0
 11
15629.99999999999
 21
11770.0
 31
0.0
  0
LINE
  5
B9
330
B6
100
AcDbEntity
  8
SUNPOU
 62
     0
370
    -2
100
AcDbLine
 10
15569.99999999999
 20
11895.0
 30
0.0
 11
15569.99999999999
 21
11985.0
 31
0.0
  0
LINE
  5
BA
330
B6
100
AcDbEntity
  8
SUNPOU
 62
     0
370
    -2
100
AcDbLine
 10
15569.99999999999
 20
11680.0
 30
0.0
 11
15569.99999999999
 21
11590.0
 31
0.0
  0
MTEXT
  5
BB
330
B6
100
AcDbEntity
  8
SUNPOU
 62
     0
100
AcDbMText
 10
15422.1488453184
 20
11572.59656658611
 30
0.0
 40
180.0
 41
0.0
 71
     5
 72
     1
  1
\A1;35
 11
6.123031769111886E-17
 21
1.0
 31
0.0
 73
     1
 44
1.0
  0
SOLID
  5
BC
330
B6
100
AcDbEntity
  8
SUNPOU
 62
     0
100
AcDbTrace
 10
15554.99999999999
 20
11895.0
 30
0.0
 11
15584.99999999999
 21
11895.0
 31
0.0
 12
15569.99999999999
 22
11805.0
 32
0.0
 13
15569.99999999999
 23
11805.0
 33
0.0
  0
SOLID
  5
BD
330
B6
100
AcDbEntity
  8
SUNPOU
 62
     0
100
AcDbTrace
 10
15554.99999999999
 20
11680.0
 30
0.0
 11
15584.99999999999
 21
11680.0
 31
0.0
 12
15569.99999999999
 22
11770.0
 32
0.0
 13
15569.99999999999
 23
11770.0
 33
0.0
  0
POINT
  5
BE
330
B6
100
AcDbEntity
  8
DEFPOINTS
 62
     0
100
AcDbPoint
 10
14268.74999999999
 20
11805.0
 30
0.0
  0
POINT
  5
BF
330
B6
100
AcDbEntity
  8
DEFPOINTS
 62
     0
100
AcDbPoint
 10
14259.99999999999
 20
11770.0
 30
0.0
  0
POINT
  5
C0
330
B6
100
AcDbEntity
  8
DEFPOINTS
 62
     0
100
AcDbPoint
 10
15569.99999999999
 20
11770.0
 30
0.0
  0
ENDBLK
  5
C2
330
B6
100
AcDbEntity
  8
0
100
AcDbBlockEnd
  0
BLOCK
  5
169
330
C3
100
AcDbEntity
  8
0
100
AcDbBlockBegin
  2
A$C79F54BAC
 70
     0
 10
0.0
 20
0.0
 30
0.0
  3
A$C79F54BAC
  1

  0
DIMENSION
  5
C4
330
C3
100
AcDbEntity
  8
SUNPOU
100
AcDbDimension
  2
*D2
 10
4229.99998564875
 20
2257.403415746125
 30
0.0
 11
4064.058683592186
 21
1353.660678069813
 31
0.0
 12
-11340.00001435124
 22
-11452.59658425388
 32
0.0
 70
   128
  1
15@120=<>
 71
     5
 42
-1.0
  3
STANDARD
100
AcDbAlignedDimension
 13
3029.99998564875
 23
457.4034157461228
 33
0.0
 14
3029.99998564875
 24
2257.403415746125
 34
0.0
 50
90.0
100
AcDbRotatedDimension
1001
ACAD
1000
DSTYLE
1002
{
1070
   287
1070
     5
1070
   287
1070
     5
1070
   287
1070
     5
1070
   287
1070
     5
1070
   287
1070
     5
1070
   287
1070
     5
1070
   287
1070
     5
1070
   287
1070
     5
1070
    40
1040
60.0
1070
    41
1040
1.5
1070
    42
1040
1.5
1070
    43
1040
7.0
1070
    44
1040
0.6
1070
    73
1070
     0
1070
    74
1070
     0
1070
    77
1070
     1
1070
    78
1070
     8
1070
   140
1040
3.0
1070
   141
1040
0.0
1070
   145
1040
1.0
1070
   147
1040
0.8
1070
   172
1070
     1
1070
   176
1070
   256
1070
   177
1070
   256
1070
   271
1070
     0
1070
   275
1070
     1
1070
   279
1070
     2
1070
   284
1070
     8
1070
   285
1070
     8
1070
   286
1070
     8
1002
}
  0
DIMENSION
  5
C5
330
C3
100
AcDbEntity
  8
SUNPOU
100
AcDbDimension
  2
*D3
 10
4229.99998564875
 20
457.4034157461228
 30
0.0
 11
4390.339916624003
 21
453.4607684336734
 31
0.0
 12
-11340.00001435124
 22
-11452.59658425388
 32
0.0
 70
   128
 71
     5
 42
-1.0
  3
STANDARD
100
AcDbAlignedDimension
 13
2903.74998564875
 23
352.4034157461247
 33
0.0
 14
3059.705868001689
 24
457.4034157461228
 34
0.0
 50
90.0
100
AcDbRotatedDimension
1001
ACAD
1000
DSTYLE
1002
{
1070
   287
1070
     5
1070
   287
1070
     5
1070
   287
1070
     5
1070
   287
1070
     5
1070
   287
1070
     5
1070
   287
1070
     5
1070
   287
1070
     5
1070
   287
1070
     5
1070
    40
1040
60.0
1070
    41
1040
1.5
1070
    42
1040
1.5
1070
    43
1040
7.0
1070
    44
1040
0.6
1070
    73
1070
     0
1070
    74
1070
     0
1070
    77
1070
     1
1070
    78
1070
     8
1070
   140
1040
3.0
1070
   141
1040
0.0
1070
   145
1040
1.0
1070
   147
1040
0.8
1070
   172
1070
     1
1070
   176
1070
   256
1070
   177
1070
   256
1070
   271
1070
     0
1070
   275
1070
     1
1070
   279
1070
     2
1070
   284
1070
     8
1070
   285
1070
     8
1070
   286
1070
     8
1002
}
  0
DIMENSION
  5
C6
330
C3
100
AcDbEntity
  8
SUNPOU
100
AcDbDimension
  2
*D4
 10
4229.99998564875
 20
2317.403415746121
 30
0.0
 11
4097.480494200581
 21
2515.411708213323
 31
0.0
 12
-11340.00001435124
 22
-11452.59658425388
 32
0.0
 70
   128
 71
     5
 42
-1.0
  3
STANDARD
100
AcDbAlignedDimension
 13
3029.99998564875
 23
2257.403415746125
 33
0.0
 14
3029.99998564875
 24
2317.403415746121
 34
0.0
 50
90.0
100
AcDbRotatedDimension
1001
ACAD
1000
DSTYLE
1002
{
1070
   287
1070
     5
1070
   287
1070
     5
1070
   287
1070
     5
1070
   287
1070
     5
1070
   287
1070
     5
1070
   287
1070
     5
1070
   287
1070
     5
1070
   287
1070
     5
1070
    40
1040
60.0
1070
    41
1040
1.5
1070
    42
1040
1.5
1070
    43
1040
7.0
1070
    44
1040
0.6
1070
    73
1070
     0
1070
    74
1070
     0
1070
    77
1070
     1
1070
    78
1070
     8
1070
   140
1040
3.0
1070
   141
1040
0.0
1070
   145
1040
1.0
1070
   147
1040
0.8
1070
   172
1070
     1
1070
   176
1070
   256
1070
   177
1070
   256
1070
   271
1070
     0
1070
   275
1070
     1
1070
   279
1070
     2
1070
   284
1070
     8
1070
   285
1070
     8
1070
   286
1070
     8
1002
}
  0
DIMENSION
  5
C7
330
C3
100
AcDbEntity
  8
SUNPOU
100
AcDbDimension
  2
*D5
 10
4529.99998564875
 20
2317.403415746123
 30
0.0
 11
4391.999985648747
 21
1317.403415746123
 31
0.0
 12
-11340.00001435124
 22
-11452.59658425388
 32
0.0
 71
     5
 42
-1.0
  3
STANDARD
100
AcDbAlignedDimension
 13
2894.99998564875
 23
317.403415746121
 33
0.0
 14
3164.99998564875
 24
2317.403415746123
 34
0.0
 50
90.0
100
AcDbRotatedDimension
1001
ACAD
1000
DSTYLE
1002
{
1070
   287
1070
     5
1070
   287
1070
     5
1070
   287
1070
     5
1070
   287
1070
     5
1070
   287
1070
     5
1070
   287
1070
     5
1070
   287
1070
     5
1070
   287
1070
     5
1070
    40
1040
60.0
1070
    41
1040
1.5
1070
    42
1040
1.5
1070
    43
1040
7.0
1070
    44
1040
0.6
1070
    73
1070
     0
1070
    74
1070
     0
1070
    77
1070
     1
1070
    78
1070
     8
1070
   140
1040
3.0
1070
   141
1040
0.0
1070
   145
1040
1.0
1070
   147
1040
0.8
1070
   172
1070
     1
1070
   176
1070
   256
1070
   177
1070
   256
1070
   271
1070
     0
1070
   275
1070
     1
1070
   279
1070
     2
1070
   284
1070
     8
1070
   285
1070
     8
1070
   286
1070
     8
1002
}
  0
DIMENSION
  5
C8
330
C3
100
AcDbEntity
  8
SUNPOU
100
AcDbDimension
  2
*D6
 10
4229.99998564875
 20
317.403415746121
 30
0.0
 11
4082.14883096716
 21
119.9999823322287
 31
0.0
 12
-11340.00001435124
 22
-11452.59658425388
 32
0.0
 70
   128
 71
     5
 42
-1.0
  3
STANDARD
100
AcDbAlignedDimension
 13
2928.74998564875
 23
352.4034157461247
 33
0.0
 14
2919.99998564875
 24
317.403415746121
 34
0.0
 50
90.0
100
AcDbRotatedDimension
1001
ACAD
1000
DSTYLE
1002
{
1070
   287
1070
     5
1070
   287
1070
     5
1070
   287
1070
     5
1070
   287
1070
     5
1070
   287
1070
     5
1070
   287
1070
     5
1070
   287
1070
     5
1070
   287
1070
     5
1070
    40
1040
60.0
1070
    41
1040
1.5
1070
    42
1040
2.0
1070
    43
1040
3.75
1070
    44
1040
1.0
1070
    73
1070
     0
1070
    74
1070
     0
1070
    77
1070
     1
1070
    78
1070
     8
1070
   140
1040
3.0
1070
   141
1040
2.5
1070
   143
1040
0.0394
1070
   147
1040
1.0
1070
   171
1070
     4
1070
   271
1070
     0
1070
   273
1070
     8
1070
   274
1070
     4
1070
   279
1070
     2
1002
}
  0
LINE
  5
C9
330
C3
100
AcDbEntity
  8
SUNPOU
100
AcDbLine
 10
1679.999985648763
 20
3227.403415746123
 30
0.0
 11
899.9999856487611
 21
3227.403415746123
 31
0.0
1001
ACAD
1000
DSTYLE
1002
{
1070
    78
1070
     8
1070
   284
1070
     8
1070
   140
1040
3.0
1070
   145
1040
1.0
1070
    74
1070
     0
1070
   172
1070
     1
1070
    73
1070
     0
1070
    77
1070
     1
1070
    40
1040
60.0
1070
   147
1040
0.8
1070
   287
1070
     5
1070
    42
1040
1.5
1070
    44
1040
0.6
1070
    43
1040
7.0
1070
   271
1070
     0
1070
   177
1070
   256
1070
   176
1070
   256
1070
   141
1040
0.0
1070
   275
1070
     1
1070
    41
1040
1.5
1070
   285
1070
     8
1070
   286
1070
     8
1002
}
  0
SOLID
  5
CA
330
C3
100
AcDbEntity
  8
SUNPOU
100
AcDbTrace
 10
1216.999985648774
 20
1372.403415746125
 30
0.0
 11
1306.999985648774
 21
1357.403415746123
 31
0.0
 12
1216.999985648774
 22
1342.403415746125
 32
0.0
 13
1216.999985648774
 23
1342.403415746125
 33
0.0
1001
ACAD
1000
DSTYLE
1002
{
1070
    78
1070
     8
1070
   284
1070
     8
1070
   140
1040
3.0
1070
   145
1040
1.0
1070
    74
1070
     0
1070
   172
1070
     1
1070
    73
1070
     0
1070
    77
1070
     1
1070
    40
1040
60.0
1070
   147
1040
0.8
1070
   287
1070
     5
1070
    42
1040
1.5
1070
    44
1040
0.6
1070
    43
1040
7.0
1070
   271
1070
     0
1070
   177
1070
   256
1070
   176
1070
   256
1070
   141
1040
0.0
1070
   275
1070
     1
1070
    41
1040
1.5
1070
   285
1070
     8
1070
   286
1070
     8
1002
}
  0
LINE
  5
CB
330
C3
100
AcDbEntity
  8
SUNPOU
100
AcDbLine
 10
329.9999856487375
 20
1357.403415746123
 30
0.0
 11
1426.999985648756
 21
1357.403415746126
 31
0.0
1001
ACAD
1000
DSTYLE
1002
{
1070
    78
1070
     8
1070
   284
1070
     8
1070
   140
1040
3.0
1070
   145
1040
1.0
1070
    74
1070
     0
1070
   172
1070
     1
1070
    73
1070
     0
1070
    77
1070
     1
1070
    40
1040
60.0
1070
   147
1040
0.8
1070
   287
1070
     5
1070
    42
1040
1.5
1070
    44
1040
0.6
1070
    43
1040
7.0
1070
   271
1070
     0
1070
   177
1070
   256
1070
   176
1070
   256
1070
   141
1040
0.0
1070
   275
1070
     1
1070
    41
1040
1.5
1070
   285
1070
     8
1070
   286
1070
     8
1002
}
  0
LINE
  5
CC
330
C3
100
AcDbEntity
  8
HAIKIN
100
AcDbLine
 10
1979.999985648756
 20
2052.403415746123
 30
0.0
 11
964.9999856487557
 21
2052.403415746117
 31
0.0
  0
LINE
  5
CD
330
C3
100
AcDbEntity
  8
HAIKIN
100
AcDbLine
 10
1979.999985648765
 20
1992.403415746121
 30
0.0
 11
964.9999856487557
 21
1992.403415746117
 31
0.0
  0
LINE
  5
CE
330
C3
100
AcDbEntity
  8
HAIKIN
100
AcDbLine
 10
1979.999985648765
 20
1932.403415746121
 30
0.0
 11
964.9999856487557
 21
1932.403415746117
 31
0.0
  0
LINE
  5
CF
330
C3
100
AcDbEntity
  8
HAIKIN
100
AcDbLine
 10
1979.999985648765
 20
847.4034157461283
 30
0.0
 11
964.9999856487557
 21
847.4034157461247
 31
0.0
  0
LINE
  5
D0
330
C3
100
AcDbEntity
  8
HAIKIN
100
AcDbLine
 10
1979.999985648765
 20
787.4034157461283
 30
0.0
 11
964.9999856487557
 21
787.4034157461247
 31
0.0
  0
LINE
  5
D1
330
C3
100
AcDbEntity
  8
HAIKIN
100
AcDbLine
 10
1979.999985648758
 20
727.4034157461283
 30
0.0
 11
964.9999856487557
 21
727.4034157461247
 31
0.0
  0
LINE
  5
D2
330
C3
100
AcDbEntity
  8
SUNPOU
100
AcDbLine
 10
964.9999856487557
 20
1897.403415746125
 30
0.0
 11
1486.999985648752
 21
1897.403415746121
 31
0.0
  0
LINE
  5
D3
330
C3
100
AcDbEntity
  8
SUNPOU
100
AcDbLine
 10
964.9999856487557
 20
1657.403415746125
 30
0.0
 11
1486.999985648752
 21
1657.403415746121
 31
0.0
  0
LINE
  5
D4
330
C3
100
AcDbEntity
  8
SUNPOU
100
AcDbLine
 10
964.9999856487557
 20
1777.403415746125
 30
0.0
 11
1486.999985648752
 21
1777.403415746123
 31
0.0
  0
LINE
  5
D5
330
C3
100
AcDbEntity
  8
SUNPOU
100
AcDbLine
 10
964.9999856487557
 20
457.4034157461247
 30
0.0
 11
1979.999985648759
 21
457.403415746121
 31
0.0
  0
LINE
  5
D6
330
C3
100
AcDbEntity
  8
SUNPOU
100
AcDbLine
 10
964.9999856487557
 20
817.4034157461247
 30
0.0
 11
1979.999985648759
 21
817.403415746121
 31
0.0
  0
LINE
  5
D7
330
C3
100
AcDbEntity
  8
SUNPOU
100
AcDbLine
 10
964.9999856487557
 20
697.4034157461247
 30
0.0
 11
1979.999985648759
 21
697.403415746121
 31
0.0
  0
LINE
  5
D8
330
C3
100
AcDbEntity
  8
SUNPOU
100
AcDbLine
 10
964.9999856487557
 20
577.4034157461247
 30
0.0
 11
1979.999985648759
 21
577.403415746121
 31
0.0
  0
LINE
  5
D9
330
C3
100
AcDbEntity
  8
SUNPOU
100
AcDbLine
 10
964.9999856487557
 20
937.4034157461247
 30
0.0
 11
1486.999985648752
 21
937.403415746121
 31
0.0
  0
LINE
  5
DA
330
C3
100
AcDbEntity
  8
SUNPOU
100
AcDbLine
 10
964.9999856487557
 20
1057.403415746125
 30
0.0
 11
1486.999985648752
 21
1057.403415746119
 31
0.0
  0
LINE
  5
DB
330
C3
100
AcDbEntity
  8
SUNPOU
100
AcDbLine
 10
964.9999856487557
 20
1177.403415746125
 30
0.0
 11
1486.999985648752
 21
1177.403415746117
 31
0.0
  0
LINE
  5
DC
330
C3
100
AcDbEntity
  8
SUNPOU
100
AcDbLine
 10
964.9999856487557
 20
1297.403415746125
 30
0.0
 11
1486.999985648752
 21
1297.403415746121
 31
0.0
  0
LINE
  5
DD
330
C3
100
AcDbEntity
  8
SUNPOU
100
AcDbLine
 10
964.9999856487557
 20
1417.403415746125
 30
0.0
 11
1486.999985648752
 21
1417.403415746119
 31
0.0
  0
LINE
  5
DE
330
C3
100
AcDbEntity
  8
SUNPOU
100
AcDbLine
 10
964.9999856487557
 20
1537.403415746125
 30
0.0
 11
1486.999985648752
 21
1537.403415746121
 31
0.0
  0
LINE
  5
DF
330
C3
100
AcDbEntity
  8
SUNPOU
100
AcDbLine
 10
964.9999856487557
 20
2017.403415746125
 30
0.0
 11
1979.999985648759
 21
2017.403415746121
 31
0.0
  0
LINE
  5
E0
330
C3
100
AcDbEntity
  8
SUNPOU
100
AcDbLine
 10
964.9999856487557
 20
2137.403415746125
 30
0.0
 11
1979.999985648759
 21
2137.403415746121
 31
0.0
  0
LINE
  5
E1
330
C3
100
AcDbEntity
  8
SUNPOU
100
AcDbLine
 10
964.9999856487557
 20
2257.403415746125
 30
0.0
 11
1979.999985648759
 21
2257.403415746121
 31
0.0
  0
LINE
  5
E2
330
C3
100
AcDbEntity
  8
SUNPOU
100
AcDbLine
 10
964.9999856487557
 20
2362.403415746125
 30
0.0
 11
1979.999985648759
 21
2362.403415746121
 31
0.0
  0
TEXT
  5
E3
330
C3
100
AcDbEntity
  8
HAIKIN
 62
     3
100
AcDbText
 10
1009.999985648752
 20
4617.403415746125
 30
0.0
 40
240.0
  1
頂　版
 72
     1
 11
1409.999985648752
 21
4617.403415746125
 31
0.0
100
AcDbText
  0
TEXT
  5
E4
330
C3
100
AcDbEntity
  8
SUNPOU
100
AcDbText
 10
1019.999985648756
 20
4105.403415746121
 30
0.0
 40
210.0
  1
外　側
 11
1019.999985648756
 21
4077.403415746121
 31
0.0
100
AcDbText
 73
     1
  0
LINE
  5
E5
330
C3
100
AcDbEntity
  8
SUNPOU
100
AcDbLine
 10
1019.999985648752
 20
317.4034157461247
 30
0.0
 11
1979.999985648759
 21
317.403415746121
 31
0.0
  0
LINE
  5
E6
330
C3
100
AcDbEntity
  8
SUNPOU
100
AcDbLine
 10
929.999985648752
 20
397.403415746121
 30
0.0
 11
1979.999985648759
 21
397.403415746121
 31
0.0
  0
LINE
  5
E7
330
C3
100
AcDbEntity
  8
SUNPOU
100
AcDbLine
 10
929.999985648752
 20
2397.403415746123
 30
0.0
 11
1979.999985648759
 21
2397.403415746121
 31
0.0
  0
LINE
  5
E8
330
C3
100
AcDbEntity
  8
SUNPOU
100
AcDbLine
 10
1019.999985648756
 20
4077.403415746121
 30
0.0
 11
2939.999985648754
 21
4077.403415746121
 31
0.0
  0
LINE
  5
E9
330
C3
100
AcDbEntity
  8
HAIKIN
 62
     3
100
AcDbLine
 10
1889.999985648752
 20
4887.403415746125
 30
0.0
 11
929.999985648752
 21
4887.403415746125
 31
0.0
  0
LINE
  5
EA
330
C3
100
AcDbEntity
  8
HAIKIN
 62
     3
100
AcDbLine
 10
1889.999985648752
 20
4587.403415746125
 30
0.0
 11
929.999985648752
 21
4587.403415746125
 31
0.0
  0
TEXT
  5
EB
330
C3
100
AcDbEntity
  8
SUNPOU
100
AcDbText
 10
762.4999856487557
 20
2907.403415746125
 30
0.0
 40
150.0
  1
D13
 41
0.8
 11
762.4999856487557
 21
2982.403415746125
 31
0.0
100
AcDbText
 73
     2
  0
TEXT
  5
EC
330
C3
100
AcDbEntity
  8
SUNPOU
100
AcDbText
 10
457.4999856487557
 20
2907.403415746125
 30
0.0
 40
150.0
  1
H1
 41
0.8
 72
     4
 11
537.4999856487557
 21
2982.403415746125
 31
0.0
100
AcDbText
  0
CIRCLE
  5
ED
330
C3
100
AcDbEntity
  8
SUNPOU
100
AcDbCircle
 10
537.4999856487557
 20
2982.403415746125
 30
0.0
 40
165.0
  0
TEXT
  5
EE
330
C3
100
AcDbEntity
  8
SUNPOU
100
AcDbText
 10
239.9999856487393
 20
1437.403415746128
 30
0.0
 40
150.0
  1
H2
 50
90.0
 41
0.8
 72
     4
 11
164.9999856487393
 21
1537.403415746128
 31
0.0
100
AcDbText
  0
LINE
  5
EF
330
C3
100
AcDbEntity
  8
SUNPOU
100
AcDbLine
 10
1137.499985648754
 20
727.4034157461247
 30
0.0
 11
1137.499985648756
 21
2817.403415746125
 31
0.0
1001
ACAD
1000
DSTYLE
1002
{
1070
    78
1070
     8
1070
   284
1070
     8
1070
   140
1040
3.0
1070
   145
1040
1.0
1070
    74
1070
     0
1070
   172
1070
     1
1070
    73
1070
     0
1070
    77
1070
     1
1070
    40
1040
60.0
1070
   147
1040
0.8
1070
   287
1070
     5
1070
    42
1040
1.5
1070
    44
1040
0.6
1070
    43
1040
7.0
1070
   271
1070
     0
1070
   177
1070
   256
1070
   176
1070
   256
1070
   141
1040
0.0
1070
   275
1070
     1
1070
    41
1040
1.5
1070
   285
1070
     8
1070
   286
1070
     8
1002
}
  0
LINE
  5
F0
330
C3
100
AcDbEntity
  8
SUNPOU
100
AcDbLine
 10
1044.999985648752
 20
2362.403415746125
 30
0.0
 11
1044.999985648756
 21
457.4034157461265
 31
0.0
  0
LINE
  5
F1
330
C3
100
AcDbEntity
  8
SUNPOU
100
AcDbLine
 10
1229.999985648759
 20
2362.403415746123
 30
0.0
 11
1229.999985648763
 21
457.4034157461228
 31
0.0
  0
LINE
  5
F2
330
C3
100
AcDbEntity
  8
SUNPOU
100
AcDbLine
 10
329.9999856487393
 20
2137.403415746126
 30
0.0
 11
329.9999856487393
 21
1357.403415746128
 31
0.0
1001
ACAD
1000
DSTYLE
1002
{
1070
    78
1070
     8
1070
   284
1070
     8
1070
   140
1040
3.0
1070
   145
1040
1.0
1070
    74
1070
     0
1070
   172
1070
     1
1070
    73
1070
     0
1070
    77
1070
     1
1070
    40
1040
60.0
1070
   147
1040
0.8
1070
   287
1070
     5
1070
    42
1040
1.5
1070
    44
1040
0.6
1070
    43
1040
7.0
1070
   271
1070
     0
1070
   177
1070
   256
1070
   176
1070
   256
1070
   141
1040
0.0
1070
   275
1070
     1
1070
    41
1040
1.5
1070
   285
1070
     8
1070
   286
1070
     8
1002
}
  0
CIRCLE
  5
F3
330
C3
100
AcDbEntity
  8
SUNPOU
100
AcDbCircle
 10
164.9999856487393
 20
1537.403415746128
 30
0.0
 40
165.0
  0
LINE
  5
F4
330
C3
100
AcDbEntity
  8
SUNPOU
100
AcDbLine
 10
929.999985648752
 20
2397.403415746126
 30
0.0
 11
929.999985648752
 21
397.4034157461247
 31
0.0
  0
LINE
  5
F5
330
C3
100
AcDbEntity
  8
SUNPOU
100
AcDbLine
 10
999.999985648752
 20
397.4034157461247
 30
0.0
 11
1019.999985648752
 21
317.4034157461301
 31
0.0
  0
SOLID
  5
F6
330
C3
100
AcDbEntity
  8
SUNPOU
100
AcDbTrace
 10
1152.499985648758
 20
937.4034157461138
 30
0.0
 11
1137.499985648758
 21
847.4034157461138
 31
0.0
 12
1122.499985648756
 22
937.4034157461138
 32
0.0
 13
1122.499985648756
 23
937.4034157461138
 33
0.0
1001
ACAD
1000
DSTYLE
1002
{
1070
    78
1070
     8
1070
   284
1070
     8
1070
   140
1040
3.0
1070
   145
1040
1.0
1070
    74
1070
     0
1070
   172
1070
     1
1070
    73
1070
     0
1070
    77
1070
     1
1070
    40
1040
60.0
1070
   147
1040
0.8
1070
   287
1070
     5
1070
    42
1040
1.5
1070
    44
1040
0.6
1070
    43
1040
7.0
1070
   271
1070
     0
1070
   177
1070
   256
1070
   176
1070
   256
1070
   141
1040
0.0
1070
   275
1070
     1
1070
    41
1040
1.5
1070
   285
1070
     8
1070
   286
1070
     8
1002
}
  0
SOLID
  5
F7
330
C3
100
AcDbEntity
  8
SUNPOU
100
AcDbTrace
 10
1152.499985648758
 20
817.4034157461356
 30
0.0
 11
1137.499985648758
 21
727.4034157461356
 31
0.0
 12
1122.499985648756
 22
817.4034157461356
 32
0.0
 13
1122.499985648756
 23
817.4034157461356
 33
0.0
1001
ACAD
1000
DSTYLE
1002
{
1070
    78
1070
     8
1070
   284
1070
     8
1070
   140
1040
3.0
1070
   145
1040
1.0
1070
    74
1070
     0
1070
   172
1070
     1
1070
    73
1070
     0
1070
    77
1070
     1
1070
    40
1040
60.0
1070
   147
1040
0.8
1070
   287
1070
     5
1070
    42
1040
1.5
1070
    44
1040
0.6
1070
    43
1040
7.0
1070
   271
1070
     0
1070
   177
1070
   256
1070
   176
1070
   256
1070
   141
1040
0.0
1070
   275
1070
     1
1070
    41
1040
1.5
1070
   285
1070
     8
1070
   286
1070
     8
1002
}
  0
SOLID
  5
F8
330
C3
100
AcDbEntity
  8
SUNPOU
100
AcDbTrace
 10
1152.499985648754
 20
877.4034157461301
 30
0.0
 11
1137.499985648754
 21
787.4034157461301
 31
0.0
 12
1122.499985648752
 22
877.4034157461301
 32
0.0
 13
1122.499985648752
 23
877.4034157461301
 33
0.0
1001
ACAD
1000
DSTYLE
1002
{
1070
    78
1070
     8
1070
   284
1070
     8
1070
   140
1040
3.0
1070
   145
1040
1.0
1070
    74
1070
     0
1070
   172
1070
     1
1070
    73
1070
     0
1070
    77
1070
     1
1070
    40
1040
60.0
1070
   147
1040
0.8
1070
   287
1070
     5
1070
    42
1040
1.5
1070
    44
1040
0.6
1070
    43
1040
7.0
1070
   271
1070
     0
1070
   177
1070
   256
1070
   176
1070
   256
1070
   141
1040
0.0
1070
   275
1070
     1
1070
    41
1040
1.5
1070
   285
1070
     8
1070
   286
1070
     8
1002
}
  0
TEXT
  5
F9
330
C3
100
AcDbEntity
  8
SUNPOU
100
AcDbText
 10
239.9999856487393
 20
1762.40341574613
 30
0.0
 40
150.0
  1
D13
 50
90.0
 41
0.8
 11
164.9999856487393
 21
1762.40341574613
 31
0.0
100
AcDbText
 73
     2
  0
SOLID
  5
FA
330
C3
100
AcDbEntity
  8
SUNPOU
100
AcDbTrace
 10
1152.499985648756
 20
2022.403415746117
 30
0.0
 11
1137.499985648756
 21
1932.403415746117
 31
0.0
 12
1122.499985648756
 22
2022.403415746117
 32
0.0
 13
1122.499985648756
 23
2022.403415746117
 33
0.0
1001
ACAD
1000
DSTYLE
1002
{
1070
    78
1070
     8
1070
   284
1070
     8
1070
   140
1040
3.0
1070
   145
1040
1.0
1070
    74
1070
     0
1070
   172
1070
     1
1070
    73
1070
     0
1070
    77
1070
     1
1070
    40
1040
60.0
1070
   147
1040
0.8
1070
   287
1070
     5
1070
    42
1040
1.5
1070
    44
1040
0.6
1070
    43
1040
7.0
1070
   271
1070
     0
1070
   177
1070
   256
1070
   176
1070
   256
1070
   141
1040
0.0
1070
   275
1070
     1
1070
    41
1040
1.5
1070
   285
1070
     8
1070
   286
1070
     8
1002
}
  0
SOLID
  5
FB
330
C3
100
AcDbEntity
  8
SUNPOU
100
AcDbTrace
 10
1152.499985648756
 20
2082.403415746117
 30
0.0
 11
1137.499985648756
 21
1992.403415746117
 31
0.0
 12
1122.499985648756
 22
2082.403415746117
 32
0.0
 13
1122.499985648756
 23
2082.403415746117
 33
0.0
1001
ACAD
1000
DSTYLE
1002
{
1070
    78
1070
     8
1070
   284
1070
     8
1070
   140
1040
3.0
1070
   145
1040
1.0
1070
    74
1070
     0
1070
   172
1070
     1
1070
    73
1070
     0
1070
    77
1070
     1
1070
    40
1040
60.0
1070
   147
1040
0.8
1070
   287
1070
     5
1070
    42
1040
1.5
1070
    44
1040
0.6
1070
    43
1040
7.0
1070
   271
1070
     0
1070
   177
1070
   256
1070
   176
1070
   256
1070
   141
1040
0.0
1070
   275
1070
     1
1070
    41
1040
1.5
1070
   285
1070
     8
1070
   286
1070
     8
1002
}
  0
SOLID
  5
FC
330
C3
100
AcDbEntity
  8
SUNPOU
100
AcDbTrace
 10
1152.499985648756
 20
2142.403415746119
 30
0.0
 11
1137.499985648756
 21
2052.403415746119
 31
0.0
 12
1122.499985648756
 22
2142.403415746119
 32
0.0
 13
1122.499985648756
 23
2142.403415746119
 33
0.0
1001
ACAD
1000
DSTYLE
1002
{
1070
    78
1070
     8
1070
   284
1070
     8
1070
   140
1040
3.0
1070
   145
1040
1.0
1070
    74
1070
     0
1070
   172
1070
     1
1070
    73
1070
     0
1070
    77
1070
     1
1070
    40
1040
60.0
1070
   147
1040
0.8
1070
   287
1070
     5
1070
    42
1040
1.5
1070
    44
1040
0.6
1070
    43
1040
7.0
1070
   271
1070
     0
1070
   177
1070
   256
1070
   176
1070
   256
1070
   141
1040
0.0
1070
   275
1070
     1
1070
    41
1040
1.5
1070
   285
1070
     8
1070
   286
1070
     8
1002
}
  0
LINE
  5
FD
330
C3
100
AcDbEntity
  8
SUNPOU
100
AcDbLine
 10
1137.499985648756
 20
2817.403415746125
 30
0.0
 11
357.4999856487557
 21
2817.403415746125
 31
0.0
1001
ACAD
1000
DSTYLE
1002
{
1070
    78
1070
     8
1070
   284
1070
     8
1070
   140
1040
3.0
1070
   145
1040
1.0
1070
    74
1070
     0
1070
   172
1070
     1
1070
    73
1070
     0
1070
    77
1070
     1
1070
    40
1040
60.0
1070
   147
1040
0.8
1070
   287
1070
     5
1070
    42
1040
1.5
1070
    44
1040
0.6
1070
    43
1040
7.0
1070
   271
1070
     0
1070
   177
1070
   256
1070
   176
1070
   256
1070
   141
1040
0.0
1070
   275
1070
     1
1070
    41
1040
1.5
1070
   285
1070
     8
1070
   286
1070
     8
1002
}
  0
TEXT
  5
FE
330
C3
100
AcDbEntity
  8
SUNPOU
100
AcDbText
 10
979.9999856487611
 20
3317.403415746123
 30
0.0
 40
150.0
  1
H3
 41
0.8
 72
     4
 11
1079.999985648761
 21
3392.403415746123
 31
0.0
100
AcDbText
  0
CIRCLE
  5
FF
330
C3
100
AcDbEntity
  8
SUNPOU
100
AcDbCircle
 10
1079.999985648761
 20
3392.403415746123
 30
0.0
 40
165.0
  0
LINE
  5
100
330
C3
100
AcDbEntity
  8
HAIKIN
 62
     3
100
AcDbLine
 10
929.999985648752
 20
4587.403415746125
 30
0.0
 11
929.999985648752
 21
4887.403415746125
 31
0.0
  0
TEXT
  5
101
330
C3
100
AcDbEntity
  8
SUNPOU
100
AcDbText
 10
3194.999985648759
 20
2907.403415746125
 30
0.0
 40
150.0
  1
D13
 41
0.8
 11
3194.999985648759
 21
2982.403415746125
 31
0.0
100
AcDbText
 73
     2
  0
TEXT
  5
102
330
C3
100
AcDbEntity
  8
SUNPOU
100
AcDbText
 10
2889.999985648759
 20
2907.403415746125
 30
0.0
 40
150.0
  1
H1
 41
0.8
 72
     4
 11
2969.999985648759
 21
2982.403415746125
 31
0.0
100
AcDbText
  0
LINE
  5
103
330
C3
100
AcDbEntity
  8
SUNPOU
100
AcDbLine
 10
1679.999985648761
 20
1890.403415746132
 30
0.0
 11
1679.999985648763
 21
3227.403415746123
 31
0.0
1001
ACAD
1000
DSTYLE
1002
{
1070
    78
1070
     8
1070
   284
1070
     8
1070
   140
1040
3.0
1070
   145
1040
1.0
1070
    74
1070
     0
1070
   172
1070
     1
1070
    73
1070
     0
1070
    77
1070
     1
1070
    40
1040
60.0
1070
   147
1040
0.8
1070
   287
1070
     5
1070
    42
1040
1.5
1070
    44
1040
0.6
1070
    43
1040
7.0
1070
   271
1070
     0
1070
   177
1070
   256
1070
   176
1070
   256
1070
   141
1040
0.0
1070
   275
1070
     1
1070
    41
1040
1.5
1070
   285
1070
     8
1070
   286
1070
     8
1002
}
  0
LINE
  5
104
330
C3
100
AcDbEntity
  8
SUNPOU
100
AcDbLine
 10
2279.999985648761
 20
1827.403415746126
 30
0.0
 11
2279.999985648759
 21
3227.403415746123
 31
0.0
1001
ACAD
1000
DSTYLE
1002
{
1070
    78
1070
     8
1070
   284
1070
     8
1070
   140
1040
3.0
1070
   145
1040
1.0
1070
    74
1070
     0
1070
   172
1070
     1
1070
    73
1070
     0
1070
    77
1070
     1
1070
    40
1040
60.0
1070
   147
1040
0.8
1070
   287
1070
     5
1070
    42
1040
1.5
1070
    44
1040
0.6
1070
    43
1040
7.0
1070
   271
1070
     0
1070
   177
1070
   256
1070
   176
1070
   256
1070
   141
1040
0.0
1070
   275
1070
     1
1070
    41
1040
1.5
1070
   285
1070
     8
1070
   286
1070
     8
1002
}
  0
CIRCLE
  5
105
330
C3
100
AcDbEntity
  8
SUNPOU
100
AcDbCircle
 10
2969.999985648759
 20
2982.403415746125
 30
0.0
 40
165.0
  0
LINE
  5
106
330
C3
100
AcDbEntity
  8
1HASEN
100
AcDbLine
 10
1979.999985648754
 20
4077.403415746121
 30
0.0
 11
1979.999985648759
 21
17.40341574611921
 31
0.0
  0
TEXT
  5
107
330
C3
100
AcDbEntity
  8
SUNPOU
100
AcDbText
 10
3359.999985648745
 20
1762.403415746126
 30
0.0
 40
150.0
  1
D13
 50
90.0
 41
0.8
 11
3284.999985648745
 21
1762.403415746126
 31
0.0
100
AcDbText
 73
     2
  0
TEXT
  5
108
330
C3
100
AcDbEntity
  8
SUNPOU
100
AcDbText
 10
3359.999985648745
 20
1437.403415746125
 30
0.0
 40
150.0
  1
H2
 50
90.0
 41
0.8
 72
     4
 11
3284.999985648745
 21
1537.403415746125
 31
0.0
100
AcDbText
  0
LINE
  5
109
330
C3
100
AcDbEntity
  8
SUNPOU
100
AcDbLine
 10
2789.999985648759
 20
2817.403415746125
 30
0.0
 11
3569.999985648759
 21
2817.403415746125
 31
0.0
1001
ACAD
1000
DSTYLE
1002
{
1070
    78
1070
     8
1070
   284
1070
     8
1070
   140
1040
3.0
1070
   145
1040
1.0
1070
    74
1070
     0
1070
   172
1070
     1
1070
    73
1070
     0
1070
    77
1070
     1
1070
    40
1040
60.0
1070
   147
1040
0.8
1070
   287
1070
     5
1070
    42
1040
1.5
1070
    44
1040
0.6
1070
    43
1040
7.0
1070
   271
1070
     0
1070
   177
1070
   256
1070
   176
1070
   256
1070
   141
1040
0.0
1070
   275
1070
     1
1070
    41
1040
1.5
1070
   285
1070
     8
1070
   286
1070
     8
1002
}
  0
LINE
  5
10A
330
C3
100
AcDbEntity
  8
SUNPOU
100
AcDbLine
 10
2429.999985648759
 20
1357.403415746125
 30
0.0
 11
3449.999985648745
 21
1357.403415746123
 31
0.0
1001
ACAD
1000
DSTYLE
1002
{
1070
    78
1070
     8
1070
   284
1070
     8
1070
   140
1040
3.0
1070
   145
1040
1.0
1070
    74
1070
     0
1070
   172
1070
     1
1070
    73
1070
     0
1070
    77
1070
     1
1070
    40
1040
60.0
1070
   147
1040
0.8
1070
   287
1070
     5
1070
    42
1040
1.5
1070
    44
1040
0.6
1070
    43
1040
7.0
1070
   271
1070
     0
1070
   177
1070
   256
1070
   176
1070
   256
1070
   141
1040
0.0
1070
   275
1070
     1
1070
    41
1040
1.5
1070
   285
1070
     8
1070
   286
1070
     8
1002
}
  0
CIRCLE
  5
10B
330
C3
100
AcDbEntity
  8
SUNPOU
100
AcDbCircle
 10
3284.999985648745
 20
1537.403415746125
 30
0.0
 40
165.0
  0
LINE
  5
10C
330
C3
100
AcDbEntity
  8
HAIKIN
100
AcDbLine
 10
1486.99998564875
 20
939.4034157461192
 30
0.0
 11
1486.99998564875
 21
1855.403415746132
 31
0.0
  0
LINE
  5
10D
330
C3
100
AcDbEntity
  8
HAIKIN
100
AcDbLine
 10
2409.999985648758
 20
1792.403415746126
 30
0.0
 11
2409.999985648759
 21
1002.403415746126
 31
0.0
  0
LINE
  5
10E
330
C3
100
AcDbEntity
  8
SUNPOU
100
AcDbLine
 10
2789.999985648759
 20
787.4034157461319
 30
0.0
 11
2789.999985648759
 21
2817.403415746125
 31
0.0
1001
ACAD
1000
DSTYLE
1002
{
1070
    78
1070
     8
1070
   284
1070
     8
1070
   140
1040
3.0
1070
   145
1040
1.0
1070
    74
1070
     0
1070
   172
1070
     1
1070
    73
1070
     0
1070
    77
1070
     1
1070
    40
1040
60.0
1070
   147
1040
0.8
1070
   287
1070
     5
1070
    42
1040
1.5
1070
    44
1040
0.6
1070
    43
1040
7.0
1070
   271
1070
     0
1070
   177
1070
   256
1070
   176
1070
   256
1070
   141
1040
0.0
1070
   275
1070
     1
1070
    41
1040
1.5
1070
   285
1070
     8
1070
   286
1070
     8
1002
}
  0
LINE
  5
10F
330
C3
100
AcDbEntity
  8
HAIKIN
100
AcDbLine
 10
2469.999985648758
 20
352.4034157461247
 30
0.0
 11
2469.999985648758
 21
2257.403415746121
 31
0.0
  0
LINE
  5
110
330
C3
100
AcDbEntity
  8
HAIKIN
100
AcDbLine
 10
2529.999985648759
 20
352.4034157461247
 30
0.0
 11
2529.999985648759
 21
2257.403415746121
 31
0.0
  0
LINE
  5
111
330
C3
100
AcDbEntity
  8
HAIKIN
100
AcDbLine
 10
2589.999985648761
 20
352.4034157461247
 30
0.0
 11
2589.999985648758
 21
2257.403415746121
 31
0.0
  0
LINE
  5
112
330
C3
100
AcDbEntity
  8
HAIKIN
100
AcDbLine
 10
1426.999985648754
 20
457.4034157461228
 30
0.0
 11
1426.999985648752
 21
2362.403415746123
 31
0.0
  0
LINE
  5
113
330
C3
100
AcDbEntity
  8
HAIKIN
100
AcDbLine
 10
1366.999985648756
 20
457.4034157461228
 30
0.0
 11
1366.999985648748
 21
2362.403415746123
 31
0.0
  0
LINE
  5
114
330
C3
100
AcDbEntity
  8
HAIKIN
100
AcDbLine
 10
1306.999985648754
 20
457.4034157461228
 30
0.0
 11
1306.999985648748
 21
2362.403415746123
 31
0.0
  0
LINE
  5
115
330
C3
100
AcDbEntity
  8
SUNPOU
100
AcDbLine
 10
2914.99998564875
 20
2257.403415746121
 30
0.0
 11
2914.99998564875
 21
352.4034157461265
 31
0.0
  0
LINE
  5
116
330
C3
100
AcDbEntity
  8
SUNPOU
100
AcDbLine
 10
2729.999985648759
 20
2257.403415746121
 30
0.0
 11
2729.999985648759
 21
352.4034157461228
 31
0.0
  0
LINE
  5
117
330
C3
100
AcDbEntity
  8
SUNPOU
100
AcDbLine
 10
2429.999985648759
 20
2257.403415746121
 30
0.0
 11
2429.999985648758
 21
352.403415746121
 31
0.0
  0
LINE
  5
118
330
C3
100
AcDbEntity
  8
SUNPOU
100
AcDbLine
 10
2379.999985648758
 20
1797.403415746126
 30
0.0
 11
2379.999985648758
 21
997.4034157461265
 31
0.0
  0
LINE
  5
119
330
C3
100
AcDbEntity
  8
SUNPOU
100
AcDbLine
 10
3029.99998564875
 20
2397.403415746121
 30
0.0
 11
3029.99998564875
 21
397.403415746121
 31
0.0
  0
LINE
  5
11A
330
C3
100
AcDbEntity
  8
SUNPOU
100
AcDbLine
 10
1516.999985648752
 20
934.403415746121
 30
0.0
 11
1516.999985648752
 21
1860.403415746126
 31
0.0
  0
LINE
  5
11B
330
C3
100
AcDbEntity
  8
SUNPOU
100
AcDbLine
 10
1579.999985648756
 20
1797.403415746126
 30
0.0
 11
1579.999985648758
 21
997.4034157461265
 31
0.0
  0
LINE
  5
11C
330
C3
100
AcDbEntity
  8
HAIKIN
100
AcDbLine
 10
2374.999985648759
 20
967.4034157461265
 30
0.0
 11
1979.999985648752
 21
967.4034157461265
 31
0.0
  0
LINE
  5
11D
330
C3
100
AcDbEntity
  8
HAIKIN
100
AcDbLine
 10
2994.999985648774
 20
787.4034157461319
 30
0.0
 11
1979.999985648759
 21
787.4034157461283
 31
0.0
  0
LINE
  5
11E
330
C3
100
AcDbEntity
  8
HAIKIN
100
AcDbLine
 10
2994.999985648774
 20
847.4034157461319
 30
0.0
 11
1979.999985648758
 21
847.4034157461283
 31
0.0
  0
LINE
  5
11F
330
C3
100
AcDbEntity
  8
HAIKIN
100
AcDbLine
 10
2994.999985648774
 20
907.4034157461319
 30
0.0
 11
1979.999985648759
 21
907.4034157461283
 31
0.0
  0
LINE
  5
120
330
C3
100
AcDbEntity
  8
SUNPOU
100
AcDbLine
 10
2914.99998564875
 20
352.4034157461265
 30
0.0
 11
1979.999985648759
 21
352.403415746121
 31
0.0
  0
LINE
  5
121
330
C3
100
AcDbEntity
  8
SUNPOU
100
AcDbLine
 10
2994.999985648774
 20
457.4034157461247
 30
0.0
 11
1979.999985648759
 21
457.403415746121
 31
0.0
  0
LINE
  5
122
330
C3
100
AcDbEntity
  8
SUNPOU
100
AcDbLine
 10
2994.999985648774
 20
937.4034157461247
 30
0.0
 11
1979.999985648759
 21
937.403415746121
 31
0.0
  0
LINE
  5
123
330
C3
100
AcDbEntity
  8
SUNPOU
100
AcDbLine
 10
2994.999985648774
 20
817.4034157461247
 30
0.0
 11
1979.999985648759
 21
817.403415746121
 31
0.0
  0
LINE
  5
124
330
C3
100
AcDbEntity
  8
SUNPOU
100
AcDbLine
 10
2994.999985648774
 20
697.4034157461247
 30
0.0
 11
1979.999985648759
 21
697.403415746121
 31
0.0
  0
LINE
  5
125
330
C3
100
AcDbEntity
  8
SUNPOU
100
AcDbLine
 10
2994.999985648774
 20
577.4034157461247
 30
0.0
 11
1979.999985648759
 21
577.403415746121
 31
0.0
  0
LINE
  5
126
330
C3
100
AcDbEntity
  8
SUNPOU
100
AcDbLine
 10
2939.99998564875
 20
317.4034157461247
 30
0.0
 11
1963.628976814191
 21
317.403415746121
 31
0.0
  0
LINE
  5
127
330
C3
100
AcDbEntity
  8
1HASEN
100
AcDbLine
 10
1379.999985648756
 20
1397.403415746126
 30
0.0
 11
2579.999985648758
 21
1397.403415746126
 31
0.0
  0
LINE
  5
128
330
C3
100
AcDbEntity
  8
SUNPOU
100
AcDbLine
 10
2379.999985648758
 20
997.4034157461265
 30
0.0
 11
1579.999985648758
 21
997.4034157461265
 31
0.0
  0
ARC
  5
129
330
C3
100
AcDbEntity
  8
HAIKIN
100
AcDbCircle
 10
1521.99998564875
 20
939.4034157461192
 30
0.0
 40
35.0
100
AcDbArc
 50
180.0
 51
270.0
  0
LINE
  5
12A
330
C3
100
AcDbEntity
  8
SUNPOU
100
AcDbLine
 10
2129.999985648758
 20
967.4034157461283
 30
0.0
 11
2129.999985648759
 21
352.4034157461192
 31
0.0
  0
LINE
  5
12B
330
C3
100
AcDbEntity
  8
HAIKIN
100
AcDbLine
 10
1521.99998564875
 20
904.4034157461192
 30
0.0
 11
1979.999985648758
 21
904.4034157461228
 31
0.0
  0
LINE
  5
12C
330
C3
100
AcDbEntity
  8
SUNPOU
100
AcDbLine
 10
1516.999985648752
 20
934.403415746121
 30
0.0
 11
1979.999985648758
 21
934.4034157461228
 31
0.0
  0
LINE
  5
12D
330
C3
100
AcDbEntity
  8
SUNPOU
100
AcDbLine
 10
1529.999985648765
 20
904.403415746121
 30
0.0
 11
1529.999985648767
 21
457.4034157461247
 31
0.0
  0
LINE
  5
12E
330
C3
100
AcDbEntity
  8
SUNPOU
100
AcDbLine
 10
1829.999985648759
 20
904.4034157461228
 30
0.0
 11
1829.999985648759
 21
457.4034157461192
 31
0.0
  0
SOLID
  5
12F
330
C3
100
AcDbEntity
  8
SUNPOU
100
AcDbTrace
 10
1276.999985648759
 20
1372.403415746128
 30
0.0
 11
1366.999985648759
 21
1357.403415746128
 31
0.0
 12
1276.999985648759
 22
1342.403415746128
 32
0.0
 13
1276.999985648759
 23
1342.403415746128
 33
0.0
1001
ACAD
1000
DSTYLE
1002
{
1070
    78
1070
     8
1070
   284
1070
     8
1070
   140
1040
3.0
1070
   145
1040
1.0
1070
    74
1070
     0
1070
   172
1070
     1
1070
    73
1070
     0
1070
    77
1070
     1
1070
    40
1040
60.0
1070
   147
1040
0.8
1070
   287
1070
     5
1070
    42
1040
1.5
1070
    44
1040
0.6
1070
    43
1040
7.0
1070
   271
1070
     0
1070
   177
1070
   256
1070
   176
1070
   256
1070
   141
1040
0.0
1070
   275
1070
     1
1070
    41
1040
1.5
1070
   285
1070
     8
1070
   286
1070
     8
1002
}
  0
SOLID
  5
130
330
C3
100
AcDbEntity
  8
SUNPOU
100
AcDbTrace
 10
1336.99998564877
 20
1372.403415746125
 30
0.0
 11
1426.99998564877
 21
1357.403415746123
 31
0.0
 12
1336.99998564877
 22
1342.403415746125
 32
0.0
 13
1336.99998564877
 23
1342.403415746125
 33
0.0
1001
ACAD
1000
DSTYLE
1002
{
1070
    78
1070
     8
1070
   284
1070
     8
1070
   140
1040
3.0
1070
   145
1040
1.0
1070
    74
1070
     0
1070
   172
1070
     1
1070
    73
1070
     0
1070
    77
1070
     1
1070
    40
1040
60.0
1070
   147
1040
0.8
1070
   287
1070
     5
1070
    42
1040
1.5
1070
    44
1040
0.6
1070
    43
1040
7.0
1070
   271
1070
     0
1070
   177
1070
   256
1070
   176
1070
   256
1070
   141
1040
0.0
1070
   275
1070
     1
1070
    41
1040
1.5
1070
   285
1070
     8
1070
   286
1070
     8
1002
}
  0
SOLID
  5
131
330
C3
100
AcDbEntity
  8
SUNPOU
100
AcDbTrace
 10
2804.999985648759
 20
997.4034157461319
 30
0.0
 11
2789.999985648759
 21
907.4034157461319
 31
0.0
 12
2774.999985648759
 22
997.4034157461319
 32
0.0
 13
2774.999985648759
 23
997.4034157461319
 33
0.0
1001
ACAD
1000
DSTYLE
1002
{
1070
    78
1070
     8
1070
   284
1070
     8
1070
   140
1040
3.0
1070
   145
1040
1.0
1070
    74
1070
     0
1070
   172
1070
     1
1070
    73
1070
     0
1070
    77
1070
     1
1070
    40
1040
60.0
1070
   147
1040
0.8
1070
   287
1070
     5
1070
    42
1040
1.5
1070
    44
1040
0.6
1070
    43
1040
7.0
1070
   271
1070
     0
1070
   177
1070
   256
1070
   176
1070
   256
1070
   141
1040
0.0
1070
   275
1070
     1
1070
    41
1040
1.5
1070
   285
1070
     8
1070
   286
1070
     8
1002
}
  0
LINE
  5
132
330
C3
100
AcDbEntity
  8
HASEN
100
AcDbLine
 10
2994.999985648772
 20
715.4034157461156
 30
0.0
 11
2644.497460331817
 21
715.4034157461119
 31
0.0
  0
LINE
  5
133
330
C3
100
AcDbEntity
  8
HASEN
100
AcDbLine
 10
2994.999985648772
 20
475.4034157461156
 30
0.0
 11
2644.497460331817
 21
475.4034157461119
 31
0.0
  0
LINE
  5
134
330
C3
100
AcDbEntity
  8
SUNPOU
100
AcDbLine
 10
3029.99998564875
 20
397.403415746121
 30
0.0
 11
2959.999985648748
 21
397.403415746121
 31
0.0
  0
LINE
  5
135
330
C3
100
AcDbEntity
  8
SUNPOU
100
AcDbLine
 10
2959.999985648748
 20
397.403415746121
 30
0.0
 11
2939.999985648748
 21
317.4034157461228
 31
0.0
  0
SOLID
  5
136
330
C3
100
AcDbEntity
  8
SUNPOU
100
AcDbTrace
 10
2804.999985648759
 20
937.4034157461319
 30
0.0
 11
2789.999985648759
 21
847.4034157461319
 31
0.0
 12
2774.999985648759
 22
937.4034157461319
 32
0.0
 13
2774.999985648759
 23
937.4034157461319
 33
0.0
1001
ACAD
1000
DSTYLE
1002
{
1070
    78
1070
     8
1070
   284
1070
     8
1070
   140
1040
3.0
1070
   145
1040
1.0
1070
    74
1070
     0
1070
   172
1070
     1
1070
    73
1070
     0
1070
    77
1070
     1
1070
    40
1040
60.0
1070
   147
1040
0.8
1070
   287
1070
     5
1070
    42
1040
1.5
1070
    44
1040
0.6
1070
    43
1040
7.0
1070
   271
1070
     0
1070
   177
1070
   256
1070
   176
1070
   256
1070
   141
1040
0.0
1070
   275
1070
     1
1070
    41
1040
1.5
1070
   285
1070
     8
1070
   286
1070
     8
1002
}
  0
SOLID
  5
137
330
C3
100
AcDbEntity
  8
SUNPOU
100
AcDbTrace
 10
2804.999985648759
 20
877.4034157461319
 30
0.0
 11
2789.999985648759
 21
787.4034157461319
 31
0.0
 12
2774.999985648759
 22
877.4034157461319
 32
0.0
 13
2774.999985648759
 23
877.4034157461319
 33
0.0
1001
ACAD
1000
DSTYLE
1002
{
1070
    78
1070
     8
1070
   284
1070
     8
1070
   140
1040
3.0
1070
   145
1040
1.0
1070
    74
1070
     0
1070
   172
1070
     1
1070
    73
1070
     0
1070
    77
1070
     1
1070
    40
1040
60.0
1070
   147
1040
0.8
1070
   287
1070
     5
1070
    42
1040
1.5
1070
    44
1040
0.6
1070
    43
1040
7.0
1070
   271
1070
     0
1070
   177
1070
   256
1070
   176
1070
   256
1070
   141
1040
0.0
1070
   275
1070
     1
1070
    41
1040
1.5
1070
   285
1070
     8
1070
   286
1070
     8
1002
}
  0
LINE
  5
138
330
C3
100
AcDbEntity
  8
SUNPOU
100
AcDbLine
 10
2994.999985648774
 20
1537.403415746125
 30
0.0
 11
2409.999985648759
 21
1537.403415746121
 31
0.0
  0
LINE
  5
139
330
C3
100
AcDbEntity
  8
SUNPOU
100
AcDbLine
 10
2994.999985648774
 20
1417.403415746125
 30
0.0
 11
2409.999985648759
 21
1417.403415746121
 31
0.0
  0
LINE
  5
13A
330
C3
100
AcDbEntity
  8
SUNPOU
100
AcDbLine
 10
2994.999985648774
 20
1297.403415746125
 30
0.0
 11
2409.999985648759
 21
1297.403415746125
 31
0.0
  0
LINE
  5
13B
330
C3
100
AcDbEntity
  8
SUNPOU
100
AcDbLine
 10
2994.999985648774
 20
1177.403415746125
 30
0.0
 11
2409.999985648759
 21
1177.403415746121
 31
0.0
  0
LINE
  5
13C
330
C3
100
AcDbEntity
  8
SUNPOU
100
AcDbLine
 10
2994.999985648774
 20
1057.403415746125
 30
0.0
 11
2409.999985648759
 21
1057.403415746121
 31
0.0
  0
LINE
  5
13D
330
C3
100
AcDbEntity
  8
HASEN
100
AcDbLine
 10
2994.999985648772
 20
955.4034157461156
 30
0.0
 11
2644.497460331817
 21
955.4034157461119
 31
0.0
  0
LINE
  5
13E
330
C3
100
AcDbEntity
  8
HASEN
100
AcDbLine
 10
2994.999985648772
 20
1195.403415746116
 30
0.0
 11
2644.497460331817
 21
1195.403415746112
 31
0.0
  0
LINE
  5
13F
330
C3
100
AcDbEntity
  8
HASEN
100
AcDbLine
 10
2994.999985648772
 20
1435.403415746116
 30
0.0
 11
2644.497460331817
 21
1435.403415746112
 31
0.0
  0
ARC
  5
140
330
C3
100
AcDbEntity
  8
HAIKIN
100
AcDbCircle
 10
2374.999985648759
 20
1002.403415746126
 30
0.0
 40
35.0
100
AcDbArc
 50
270.0
 51
0.0
  0
LINE
  5
141
330
C3
100
AcDbEntity
  8
HAIKIN
100
AcDbLine
 10
2374.999985648758
 20
1827.403415746126
 30
0.0
 11
1979.999985648752
 21
1827.403415746126
 31
0.0
  0
LINE
  5
142
330
C3
100
AcDbEntity
  8
HAIKIN
100
AcDbLine
 10
2994.999985648774
 20
1872.403415746125
 30
0.0
 11
1979.999985648759
 21
1872.403415746121
 31
0.0
  0
LINE
  5
143
330
C3
100
AcDbEntity
  8
HAIKIN
100
AcDbLine
 10
2994.999985648774
 20
1932.403415746125
 30
0.0
 11
1979.999985648758
 21
1932.403415746121
 31
0.0
  0
LINE
  5
144
330
C3
100
AcDbEntity
  8
HAIKIN
100
AcDbLine
 10
2994.999985648774
 20
1992.403415746125
 30
0.0
 11
1979.999985648758
 21
1992.403415746121
 31
0.0
  0
LINE
  5
145
330
C3
100
AcDbEntity
  8
SUNPOU
100
AcDbLine
 10
2994.999985648774
 20
2017.403415746125
 30
0.0
 11
1979.999985648759
 21
2017.403415746121
 31
0.0
  0
LINE
  5
146
330
C3
100
AcDbEntity
  8
SUNPOU
100
AcDbLine
 10
2994.999985648774
 20
2137.403415746125
 30
0.0
 11
1979.999985648759
 21
2137.403415746121
 31
0.0
  0
LINE
  5
147
330
C3
100
AcDbEntity
  8
SUNPOU
100
AcDbLine
 10
2994.999985648774
 20
2257.403415746125
 30
0.0
 11
1979.999985648759
 21
2257.403415746121
 31
0.0
  0
LINE
  5
148
330
C3
100
AcDbEntity
  8
SUNPOU
100
AcDbLine
 10
2994.999985648774
 20
1897.403415746125
 30
0.0
 11
1979.999985648759
 21
1897.403415746121
 31
0.0
  0
LINE
  5
149
330
C3
100
AcDbEntity
  8
SUNPOU
100
AcDbLine
 10
2949.999985648748
 20
2317.403415746123
 30
0.0
 11
1979.999985648759
 21
2317.403415746121
 31
0.0
  0
LINE
  5
14A
330
C3
100
AcDbEntity
  8
SUNPOU
100
AcDbLine
 10
2379.999985648758
 20
1797.403415746126
 30
0.0
 11
1579.999985648756
 21
1797.403415746126
 31
0.0
  0
LINE
  5
14B
330
C3
100
AcDbEntity
  8
SUNPOU
100
AcDbLine
 10
1829.999985648765
 20
2362.403415746123
 30
0.0
 11
1829.999985648759
 21
1890.403415746126
 31
0.0
  0
LINE
  5
14C
330
C3
100
AcDbEntity
  8
SUNPOU
100
AcDbLine
 10
1529.999985648763
 20
2362.403415746125
 30
0.0
 11
1529.999985648763
 21
1890.403415746128
 31
0.0
  0
LINE
  5
14D
330
C3
100
AcDbEntity
  8
HAIKIN
100
AcDbLine
 10
1979.999985648758
 20
1890.403415746128
 30
0.0
 11
1521.99998564875
 21
1890.403415746132
 31
0.0
  0
LINE
  5
14E
330
C3
100
AcDbEntity
  8
SUNPOU
100
AcDbLine
 10
1979.999985648758
 20
1860.403415746128
 30
0.0
 11
1516.999985648752
 21
1860.403415746126
 31
0.0
  0
ARC
  5
14F
330
C3
100
AcDbEntity
  8
HAIKIN
100
AcDbCircle
 10
1521.99998564875
 20
1855.403415746132
 30
0.0
 40
35.0
100
AcDbArc
 50
90.0
 51
180.0
  0
SOLID
  5
150
330
C3
100
AcDbEntity
  8
SUNPOU
100
AcDbTrace
 10
1694.999985648759
 20
1980.403415746141
 30
0.0
 11
1679.999985648759
 21
1890.403415746141
 31
0.0
 12
1664.999985648759
 22
1980.403415746141
 32
0.0
 13
1664.999985648759
 23
1980.403415746141
 33
0.0
1001
ACAD
1000
DSTYLE
1002
{
1070
    78
1070
     8
1070
   284
1070
     8
1070
   140
1040
3.0
1070
   145
1040
1.0
1070
    74
1070
     0
1070
   172
1070
     1
1070
    73
1070
     0
1070
    77
1070
     1
1070
    40
1040
60.0
1070
   147
1040
0.8
1070
   287
1070
     5
1070
    42
1040
1.5
1070
    44
1040
0.6
1070
    43
1040
7.0
1070
   271
1070
     0
1070
   177
1070
   256
1070
   176
1070
   256
1070
   141
1040
0.0
1070
   275
1070
     1
1070
    41
1040
1.5
1070
   285
1070
     8
1070
   286
1070
     8
1002
}
  0
LINE
  5
151
330
C3
100
AcDbEntity
  8
SUNPOU
100
AcDbLine
 10
2129.999985648759
 20
2257.403415746121
 30
0.0
 11
2129.999985648759
 21
1827.40341574613
 31
0.0
  0
LINE
  5
152
330
C3
100
AcDbEntity
  8
SUNPOU
100
AcDbLine
 10
2969.99998564875
 20
2397.403415746121
 30
0.0
 11
2949.99998564875
 21
2317.403415746125
 31
0.0
  0
LINE
  5
153
330
C3
100
AcDbEntity
  8
SUNPOU
100
AcDbLine
 10
2994.999985648774
 20
1777.403415746125
 30
0.0
 11
2409.999985648758
 21
1777.403415746119
 31
0.0
  0
LINE
  5
154
330
C3
100
AcDbEntity
  8
SUNPOU
100
AcDbLine
 10
2994.999985648774
 20
1657.403415746125
 30
0.0
 11
2409.999985648758
 21
1657.403415746121
 31
0.0
  0
LINE
  5
155
330
C3
100
AcDbEntity
  8
HASEN
100
AcDbLine
 10
2994.999985648772
 20
2155.403415746116
 30
0.0
 11
2644.497460331817
 21
2155.403415746112
 31
0.0
  0
LINE
  5
156
330
C3
100
AcDbEntity
  8
HASEN
100
AcDbLine
 10
2994.999985648772
 20
1915.403415746116
 30
0.0
 11
2644.497460331817
 21
1915.403415746112
 31
0.0
  0
LINE
  5
157
330
C3
100
AcDbEntity
  8
HASEN
100
AcDbLine
 10
2994.999985648772
 20
1675.403415746116
 30
0.0
 11
2644.497460331817
 21
1675.403415746112
 31
0.0
  0
ARC
  5
158
330
C3
100
AcDbEntity
  8
HAIKIN
100
AcDbCircle
 10
2374.999985648758
 20
1792.403415746126
 30
0.0
 40
35.0
100
AcDbArc
 50
0.0
 51
90.0
  0
SOLID
  5
159
330
C3
100
AcDbEntity
  8
SUNPOU
100
AcDbTrace
 10
2294.999985648761
 20
1917.403415746126
 30
0.0
 11
2279.999985648761
 21
1827.403415746126
 31
0.0
 12
2264.999985648761
 22
1917.403415746126
 32
0.0
 13
2264.999985648761
 23
1917.403415746126
 33
0.0
1001
ACAD
1000
DSTYLE
1002
{
1070
    78
1070
     8
1070
   284
1070
     8
1070
   140
1040
3.0
1070
   145
1040
1.0
1070
    74
1070
     0
1070
   172
1070
     1
1070
    73
1070
     0
1070
    77
1070
     1
1070
    40
1040
60.0
1070
   147
1040
0.8
1070
   287
1070
     5
1070
    42
1040
1.5
1070
    44
1040
0.6
1070
    43
1040
7.0
1070
   271
1070
     0
1070
   177
1070
   256
1070
   176
1070
   256
1070
   141
1040
0.0
1070
   275
1070
     1
1070
    41
1040
1.5
1070
   285
1070
     8
1070
   286
1070
     8
1002
}
  0
SOLID
  5
15A
330
C3
100
AcDbEntity
  8
SUNPOU
100
AcDbTrace
 10
2804.999985648759
 20
2022.403415746125
 30
0.0
 11
2789.999985648759
 21
1932.403415746125
 31
0.0
 12
2774.999985648759
 22
2022.403415746125
 32
0.0
 13
2774.999985648759
 23
2022.403415746125
 33
0.0
1001
ACAD
1000
DSTYLE
1002
{
1070
    78
1070
     8
1070
   284
1070
     8
1070
   140
1040
3.0
1070
   145
1040
1.0
1070
    74
1070
     0
1070
   172
1070
     1
1070
    73
1070
     0
1070
    77
1070
     1
1070
    40
1040
60.0
1070
   147
1040
0.8
1070
   287
1070
     5
1070
    42
1040
1.5
1070
    44
1040
0.6
1070
    43
1040
7.0
1070
   271
1070
     0
1070
   177
1070
   256
1070
   176
1070
   256
1070
   141
1040
0.0
1070
   275
1070
     1
1070
    41
1040
1.5
1070
   285
1070
     8
1070
   286
1070
     8
1002
}
  0
SOLID
  5
15B
330
C3
100
AcDbEntity
  8
SUNPOU
100
AcDbTrace
 10
2804.999985648759
 20
1962.403415746125
 30
0.0
 11
2789.999985648759
 21
1872.403415746125
 31
0.0
 12
2774.999985648759
 22
1962.403415746125
 32
0.0
 13
2774.999985648759
 23
1962.403415746125
 33
0.0
1001
ACAD
1000
DSTYLE
1002
{
1070
    78
1070
     8
1070
   284
1070
     8
1070
   140
1040
3.0
1070
   145
1040
1.0
1070
    74
1070
     0
1070
   172
1070
     1
1070
    73
1070
     0
1070
    77
1070
     1
1070
    40
1040
60.0
1070
   147
1040
0.8
1070
   287
1070
     5
1070
    42
1040
1.5
1070
    44
1040
0.6
1070
    43
1040
7.0
1070
   271
1070
     0
1070
   177
1070
   256
1070
   176
1070
   256
1070
   141
1040
0.0
1070
   275
1070
     1
1070
    41
1040
1.5
1070
   285
1070
     8
1070
   286
1070
     8
1002
}
  0
SOLID
  5
15C
330
C3
100
AcDbEntity
  8
SUNPOU
100
AcDbTrace
 10
2804.999985648759
 20
2082.403415746125
 30
0.0
 11
2789.999985648759
 21
1992.403415746125
 31
0.0
 12
2774.999985648759
 22
2082.403415746125
 32
0.0
 13
2774.999985648759
 23
2082.403415746125
 33
0.0
1001
ACAD
1000
DSTYLE
1002
{
1070
    78
1070
     8
1070
   284
1070
     8
1070
   140
1040
3.0
1070
   145
1040
1.0
1070
    74
1070
     0
1070
   172
1070
     1
1070
    73
1070
     0
1070
    77
1070
     1
1070
    40
1040
60.0
1070
   147
1040
0.8
1070
   287
1070
     5
1070
    42
1040
1.5
1070
    44
1040
0.6
1070
    43
1040
7.0
1070
   271
1070
     0
1070
   177
1070
   256
1070
   176
1070
   256
1070
   141
1040
0.0
1070
   275
1070
     1
1070
    41
1040
1.5
1070
   285
1070
     8
1070
   286
1070
     8
1002
}
  0
LINE
  5
15D
330
C3
100
AcDbEntity
  8
SUNPOU
100
AcDbLine
 10
2969.99998564875
 20
2397.403415746121
 30
0.0
 11
3029.99998564875
 21
2397.403415746121
 31
0.0
  0
LINE
  5
15E
330
C3
100
AcDbEntity
  8
SUNPOU
100
AcDbLine
 10
3449.999985648745
 20
1357.403415746123
 30
0.0
 11
3449.999985648745
 21
2102.632833953865
 31
0.0
1001
ACAD
1000
DSTYLE
1002
{
1070
    78
1070
     8
1070
   284
1070
     8
1070
   140
1040
3.0
1070
   145
1040
1.0
1070
    74
1070
     0
1070
   172
1070
     1
1070
    73
1070
     0
1070
    77
1070
     1
1070
    40
1040
60.0
1070
   147
1040
0.8
1070
   287
1070
     5
1070
    42
1040
1.5
1070
    44
1040
0.6
1070
    43
1040
7.0
1070
   271
1070
     0
1070
   177
1070
   256
1070
   176
1070
   256
1070
   141
1040
0.0
1070
   275
1070
     1
1070
    41
1040
1.5
1070
   285
1070
     8
1070
   286
1070
     8
1002
}
  0
TEXT
  5
15F
330
C3
100
AcDbEntity
  8
SUNPOU
100
AcDbText
 10
1304.999985648761
 20
3317.403415746123
 30
0.0
 40
150.0
  1
D10
 41
0.8
 11
1304.999985648761
 21
3392.403415746123
 31
0.0
100
AcDbText
 73
     2
  0
TEXT
  5
160
330
C3
100
AcDbEntity
  8
SUNPOU
100
AcDbText
 10
2684.999985648759
 20
3317.403415746123
 30
0.0
 40
150.0
  1
D10
 41
0.8
 11
2684.999985648759
 21
3392.403415746123
 31
0.0
100
AcDbText
 73
     2
  0
LINE
  5
161
330
C3
100
AcDbEntity
  8
SUNPOU
100
AcDbLine
 10
2279.999985648759
 20
3227.403415746123
 30
0.0
 11
3059.999985648759
 21
3227.403415746123
 31
0.0
1001
ACAD
1000
DSTYLE
1002
{
1070
    78
1070
     8
1070
   284
1070
     8
1070
   140
1040
3.0
1070
   145
1040
1.0
1070
    74
1070
     0
1070
   172
1070
     1
1070
    73
1070
     0
1070
    77
1070
     1
1070
    40
1040
60.0
1070
   147
1040
0.8
1070
   287
1070
     5
1070
    42
1040
1.5
1070
    44
1040
0.6
1070
    43
1040
7.0
1070
   271
1070
     0
1070
   177
1070
   256
1070
   176
1070
   256
1070
   141
1040
0.0
1070
   275
1070
     1
1070
    41
1040
1.5
1070
   285
1070
     8
1070
   286
1070
     8
1002
}
  0
TEXT
  5
162
330
C3
100
AcDbEntity
  8
SUNPOU
100
AcDbText
 10
2359.999985648759
 20
3317.403415746123
 30
0.0
 40
150.0
  1
H4
 41
0.8
 72
     4
 11
2459.999985648759
 21
3392.403415746123
 31
0.0
100
AcDbText
  0
CIRCLE
  5
163
330
C3
100
AcDbEntity
  8
SUNPOU
100
AcDbCircle
 10
2459.999985648759
 20
3392.403415746123
 30
0.0
 40
165.0
  0
TEXT
  5
164
330
C3
100
AcDbEntity
  8
SUNPOU
100
AcDbText
 10
2239.999985648754
 20
4105.403415746121
 30
0.0
 40
210.0
  1
内　側
 72
     2
 11
2939.999985648754
 21
4077.403415746121
 31
0.0
100
AcDbText
 73
     1
  0
LINE
  5
165
330
C3
100
AcDbEntity
  8
HAIKIN
 62
     3
100
AcDbLine
 10
1889.999985648752
 20
4587.403415746125
 30
0.0
 11
1889.999985648752
 21
4887.403415746125
 31
0.0
  0
SOLID
  5
166
330
C3
100
AcDbEntity
  8
SUNPOU
100
AcDbTrace
 10
2559.999985648748
 20
1342.403415746126
 30
0.0000000000000092
 11
2469.999985648748
 21
1357.403415746126
 31
0.0000000000000092
 12
2559.999985648748
 22
1372.403415746126
 32
0.0000000000000092
 13
2559.999985648748
 23
1372.403415746126
 33
0.0000000000000092
1001
ACAD
1000
DSTYLE
1002
{
1070
    78
1070
     8
1070
   284
1070
     8
1070
   140
1040
3.0
1070
   145
1040
1.0
1070
    74
1070
     0
1070
   172
1070
     1
1070
    73
1070
     0
1070
    77
1070
     1
1070
    40
1040
60.0
1070
   147
1040
0.8
1070
   287
1070
     5
1070
    42
1040
1.5
1070
    44
1040
0.6
1070
    43
1040
7.0
1070
   271
1070
     0
1070
   177
1070
   256
1070
   176
1070
   256
1070
   141
1040
0.0
1070
   275
1070
     1
1070
    41
1040
1.5
1070
   285
1070
     8
1070
   286
1070
     8
1002
}
  0
SOLID
  5
167
330
C3
100
AcDbEntity
  8
SUNPOU
100
AcDbTrace
 10
2679.99998564875
 20
1342.403415746126
 30
0.0000000000000092
 11
2589.99998564875
 21
1357.403415746126
 31
0.0000000000000092
 12
2679.99998564875
 22
1372.403415746126
 32
0.0000000000000092
 13
2679.99998564875
 23
1372.403415746126
 33
0.0000000000000092
1001
ACAD
1000
DSTYLE
1002
{
1070
    78
1070
     8
1070
   284
1070
     8
1070
   140
1040
3.0
1070
   145
1040
1.0
1070
    74
1070
     0
1070
   172
1070
     1
1070
    73
1070
     0
1070
    77
1070
     1
1070
    40
1040
60.0
1070
   147
1040
0.8
1070
   287
1070
     5
1070
    42
1040
1.5
1070
    44
1040
0.6
1070
    43
1040
7.0
1070
   271
1070
     0
1070
   177
1070
   256
1070
   176
1070
   256
1070
   141
1040
0.0
1070
   275
1070
     1
1070
    41
1040
1.5
1070
   285
1070
     8
1070
   286
1070
     8
1002
}
  0
SOLID
  5
168
330
C3
100
AcDbEntity
  8
SUNPOU
100
AcDbTrace
 10
2619.99998564875
 20
1342.403415746126
 30
0.0000000000000092
 11
2529.99998564875
 21
1357.403415746126
 31
0.0000000000000092
 12
2619.99998564875
 22
1372.403415746126
 32
0.0000000000000092
 13
2619.99998564875
 23
1372.403415746126
 33
0.0000000000000092
1001
ACAD
1000
DSTYLE
1002
{
1070
    78
1070
     8
1070
   284
1070
     8
1070
   140
1040
3.0
1070
   145
1040
1.0
1070
    74
1070
     0
1070
   172
1070
     1
1070
    73
1070
     0
1070
    77
1070
     1
1070
    40
1040
60.0
1070
   147
1040
0.8
1070
   287
1070
     5
1070
    42
1040
1.5
1070
    44
1040
0.6
1070
    43
1040
7.0
1070
   271
1070
     0
1070
   177
1070
   256
1070
   176
1070
   256
1070
   141
1040
0.0
1070
   275
1070
     1
1070
    41
1040
1.5
1070
   285
1070
     8
1070
   286
1070
     8
1002
}
  0
ENDBLK
  5
16A
330
C3
100
AcDbEntity
  8
0
100
AcDbBlockEnd
  0
BLOCK
  5
15E6
330
15DB
100
AcDbEntity
  8
0
100
AcDbBlockBegin
  2
*D8
 70
     1
 10
0.0
 20
0.0
 30
0.0
  3
*D8
  1

  0
LINE
  5
2408
330
15DB
100
AcDbEntity
  8
SUNPOU
 62
     0
370
    -2
100
AcDbLine
 10
2698.949558480406
 20
7008.605600928881
 30
0.0
 11
2698.949558480406
 21
7313.605600928881
 31
0.0
  0
LINE
  5
2409
330
15DB
100
AcDbEntity
  8
SUNPOU
 62
     0
370
    -2
100
AcDbLine
 10
2768.949558480406
 20
7008.605600928881
 30
0.0
 11
2768.949558480406
 21
7313.605600928881
 31
0.0
  0
LINE
  5
240A
330
15DB
100
AcDbEntity
  8
SUNPOU
 62
     0
370
    -2
100
AcDbLine
 10
2638.949558480406
 20
7298.605600928881
 30
0.0
 11
2578.949558480406
 21
7298.605600928881
 31
0.0
  0
LINE
  5
240B
330
15DB
100
AcDbEntity
  8
SUNPOU
 62
     0
370
    -2
100
AcDbLine
 10
2828.949558480406
 20
7298.605600928881
 30
0.0
 11
2888.949558480406
 21
7298.605600928881
 31
0.0
  0
SOLID
  5
240C
330
15DB
100
AcDbEntity
  8
SUNPOU
 62
     0
100
AcDbTrace
 10
2638.949558480406
 20
7308.605600928881
 30
0.0
 11
2638.949558480406
 21
7288.605600928881
 31
0.0
 12
2698.949558480406
 22
7298.605600928881
 32
0.0
 13
2698.949558480406
 23
7298.605600928881
 33
0.0
  0
SOLID
  5
240D
330
15DB
100
AcDbEntity
  8
SUNPOU
 62
     0
100
AcDbTrace
 10
2828.949558480406
 20
7308.605600928881
 30
0.0
 11
2828.949558480406
 21
7288.605600928881
 31
0.0
 12
2768.949558480406
 22
7298.605600928881
 32
0.0
 13
2768.949558480406
 23
7298.605600928881
 33
0.0
  0
MTEXT
  5
240E
330
15DB
100
AcDbEntity
  8
SUNPOU
 62
     0
100
AcDbMText
 10
2733.949558480406
 20
7367.605600928881
 30
0.0
 40
90.0
 41
0.0
 71
     5
 72
     1
  1
\A1;70
 73
     1
 44
1.0
  0
POINT
  5
240F
330
15DB
100
AcDbEntity
  8
DEFPOINTS
 62
     0
100
AcDbPoint
 10
2698.949558480406
 20
6948.605600928881
 30
0.0
  0
POINT
  5
2410
330
15DB
100
AcDbEntity
  8
DEFPOINTS
 62
     0
100
AcDbPoint
 10
2768.949558480406
 20
6948.605600928881
 30
0.0
  0
POINT
  5
2411
330
15DB
100
AcDbEntity
  8
DEFPOINTS
 62
     0
100
AcDbPoint
 10
2768.949558480406
 20
7298.605600928881
 30
0.0
  0
ENDBLK
  5
15E7
330
15DB
100
AcDbEntity
  8
0
100
AcDbBlockEnd
  0
BLOCK
  5
163F
330
1635
100
AcDbEntity
  8
0
100
AcDbBlockBegin
  2
*D9
 70
     1
 10
0.0
 20
0.0
 30
0.0
  3
*D9
  1

  0
LINE
  5
2412
330
1635
100
AcDbEntity
  8
SUNPOU
 62
     0
370
    -2
100
AcDbLine
 10
6224.306948403493
 20
7008.60560092888
 30
0.0
 11
6224.306948403493
 21
7374.01058085763
 31
0.0
  0
LINE
  5
2413
330
1635
100
AcDbEntity
  8
SUNPOU
 62
     0
370
    -2
100
AcDbLine
 10
8224.306948403493
 20
7008.60560092888
 30
0.0
 11
8224.306948403493
 21
7374.01058085763
 31
0.0
  0
LINE
  5
2414
330
1635
100
AcDbEntity
  8
SUNPOU
 62
     0
370
    -2
100
AcDbLine
 10
6284.306948403493
 20
7359.01058085763
 30
0.0
 11
8164.306948403493
 21
7359.01058085763
 31
0.0
  0
SOLID
  5
2415
330
1635
100
AcDbEntity
  8
SUNPOU
 62
     0
100
AcDbTrace
 10
6284.306948403493
 20
7369.01058085763
 30
0.0
 11
6284.306948403493
 21
7349.01058085763
 31
0.0
 12
6224.306948403493
 22
7359.01058085763
 32
0.0
 13
6224.306948403493
 23
7359.01058085763
 33
0.0
  0
SOLID
  5
2416
330
1635
100
AcDbEntity
  8
SUNPOU
 62
     0
100
AcDbTrace
 10
8164.306948403493
 20
7369.01058085763
 30
0.0
 11
8164.306948403493
 21
7349.01058085763
 31
0.0
 12
8224.306948403493
 22
7359.01058085763
 32
0.0
 13
8224.306948403493
 23
7359.01058085763
 33
0.0
  0
MTEXT
  5
2417
330
1635
100
AcDbEntity
  8
SUNPOU
 62
     0
100
AcDbMText
 10
7224.306948403493
 20
7428.01058085763
 30
0.0
 40
90.0
 41
0.0
 71
     5
 72
     1
  1
\A1;2000
 73
     1
 44
1.0
  0
POINT
  5
2418
330
1635
100
AcDbEntity
  8
DEFPOINTS
 62
     0
100
AcDbPoint
 10
6224.306948403493
 20
6948.60560092888
 30
0.0
  0
POINT
  5
2419
330
1635
100
AcDbEntity
  8
DEFPOINTS
 62
     0
100
AcDbPoint
 10
8224.306948403493
 20
6948.60560092888
 30
0.0
  0
POINT
  5
241A
330
1635
100
AcDbEntity
  8
DEFPOINTS
 62
     0
100
AcDbPoint
 10
8224.306948403493
 20
7359.01058085763
 30
0.0
  0
ENDBLK
  5
1640
330
1635
100
AcDbEntity
  8
0
100
AcDbBlockEnd
  0
BLOCK
  5
168B
330
1681
100
AcDbEntity
  8
0
100
AcDbBlockBegin
  2
*D10
 70
     1
 10
0.0
 20
0.0
 30
0.0
  3
*D10
  1

  0
LINE
  5
241B
330
1681
100
AcDbEntity
  8
SUNPOU
 62
     0
370
    -2
100
AcDbLine
 10
6224.306948403493
 20
4638.60560092888
 30
0.0
 11
6224.306948403493
 21
4218.425307795336
 31
0.0
  0
LINE
  5
241C
330
1681
100
AcDbEntity
  8
SUNPOU
 62
     0
370
    -2
100
AcDbLine
 10
6724.306948403493
 20
4638.60560092888
 30
0.0
 11
6724.306948403493
 21
4218.425307795336
 31
0.0
  0
LINE
  5
241D
330
1681
100
AcDbEntity
  8
SUNPOU
 62
     0
370
    -2
100
AcDbLine
 10
6284.306948403493
 20
4233.425307795336
 30
0.0
 11
6664.306948403493
 21
4233.425307795336
 31
0.0
  0
SOLID
  5
241E
330
1681
100
AcDbEntity
  8
SUNPOU
 62
     0
100
AcDbTrace
 10
6284.306948403493
 20
4243.425307795336
 30
0.0
 11
6284.306948403493
 21
4223.425307795336
 31
0.0
 12
6224.306948403493
 22
4233.425307795336
 32
0.0
 13
6224.306948403493
 23
4233.425307795336
 33
0.0
  0
SOLID
  5
241F
330
1681
100
AcDbEntity
  8
SUNPOU
 62
     0
100
AcDbTrace
 10
6664.306948403493
 20
4243.425307795336
 30
0.0
 11
6664.306948403493
 21
4223.425307795336
 31
0.0
 12
6724.306948403493
 22
4233.425307795336
 32
0.0
 13
6724.306948403493
 23
4233.425307795336
 33
0.0
  0
MTEXT
  5
2420
330
1681
100
AcDbEntity
  8
SUNPOU
 62
     0
100
AcDbMText
 10
6474.306948403493
 20
4302.425307795336
 30
0.0
 40
90.0
 41
0.0
 71
     5
 72
     1
  1
\A1;500
 73
     1
 44
1.0
  0
POINT
  5
2421
330
1681
100
AcDbEntity
  8
DEFPOINTS
 62
     0
100
AcDbPoint
 10
6224.306948403493
 20
4698.60560092888
 30
0.0
  0
POINT
  5
2422
330
1681
100
AcDbEntity
  8
DEFPOINTS
 62
     0
100
AcDbPoint
 10
6724.306948403493
 20
4698.60560092888
 30
0.0
  0
POINT
  5
2423
330
1681
100
AcDbEntity
  8
DEFPOINTS
 62
     0
100
AcDbPoint
 10
6724.306948403493
 20
4233.425307795336
 30
0.0
  0
ENDBLK
  5
168C
330
1681
100
AcDbEntity
  8
0
100
AcDbBlockEnd
  0
BLOCK
  5
1697
330
168D
100
AcDbEntity
  8
0
100
AcDbBlockBegin
  2
*D11
 70
     1
 10
0.0
 20
0.0
 30
0.0
  3
*D11
  1

  0
LINE
  5
2424
330
168D
100
AcDbEntity
  8
SUNPOU
 62
     0
370
    -2
100
AcDbLine
 10
6724.306948403493
 20
4638.60560092888
 30
0.0
 11
6724.306948403493
 21
4218.425307795336
 31
0.0
  0
LINE
  5
2425
330
168D
100
AcDbEntity
  8
SUNPOU
 62
     0
370
    -2
100
AcDbLine
 10
7224.306948403493
 20
4538.60560092888
 30
0.0
 11
7224.306948403493
 21
4218.425307795336
 31
0.0
  0
LINE
  5
2426
330
168D
100
AcDbEntity
  8
SUNPOU
 62
     0
370
    -2
100
AcDbLine
 10
6784.306948403493
 20
4233.425307795336
 30
0.0
 11
7164.306948403493
 21
4233.425307795336
 31
0.0
  0
SOLID
  5
2427
330
168D
100
AcDbEntity
  8
SUNPOU
 62
     0
100
AcDbTrace
 10
6784.306948403493
 20
4243.425307795336
 30
0.0
 11
6784.306948403493
 21
4223.425307795336
 31
0.0
 12
6724.306948403493
 22
4233.425307795336
 32
0.0
 13
6724.306948403493
 23
4233.425307795336
 33
0.0
  0
SOLID
  5
2428
330
168D
100
AcDbEntity
  8
SUNPOU
 62
     0
100
AcDbTrace
 10
7164.306948403493
 20
4243.425307795336
 30
0.0
 11
7164.306948403493
 21
4223.425307795336
 31
0.0
 12
7224.306948403493
 22
4233.425307795336
 32
0.0
 13
7224.306948403493
 23
4233.425307795336
 33
0.0
  0
MTEXT
  5
2429
330
168D
100
AcDbEntity
  8
SUNPOU
 62
     0
100
AcDbMText
 10
6974.306948403493
 20
4302.425307795336
 30
0.0
 40
90.0
 41
0.0
 71
     5
 72
     1
  1
\A1;500
 73
     1
 44
1.0
  0
POINT
  5
242A
330
168D
100
AcDbEntity
  8
DEFPOINTS
 62
     0
100
AcDbPoint
 10
6724.306948403493
 20
4698.60560092888
 30
0.0
  0
POINT
  5
242B
330
168D
100
AcDbEntity
  8
DEFPOINTS
 62
     0
100
AcDbPoint
 10
7224.306948403493
 20
4598.60560092888
 30
0.0
  0
POINT
  5
242C
330
168D
100
AcDbEntity
  8
DEFPOINTS
 62
     0
100
AcDbPoint
 10
7224.306948403493
 20
4233.425307795336
 30
0.0
  0
ENDBLK
  5
1698
330
168D
100
AcDbEntity
  8
0
100
AcDbBlockEnd
  0
BLOCK
  5
16A3
330
1699
100
AcDbEntity
  8
0
100
AcDbBlockBegin
  2
*D12
 70
     1
 10
0.0
 20
0.0
 30
0.0
  3
*D12
  1

  0
LINE
  5
242D
330
1699
100
AcDbEntity
  8
SUNPOU
 62
     0
370
    -2
100
AcDbLine
 10
8224.306948403493
 20
4638.60560092888
 30
0.0
 11
8224.306948403493
 21
4218.425307795336
 31
0.0
  0
LINE
  5
242E
330
1699
100
AcDbEntity
  8
SUNPOU
 62
     0
370
    -2
100
AcDbLine
 10
7724.306948403493
 20
4638.60560092888
 30
0.0
 11
7724.306948403493
 21
4218.425307795336
 31
0.0
  0
LINE
  5
242F
330
1699
100
AcDbEntity
  8
SUNPOU
 62
     0
370
    -2
100
AcDbLine
 10
8164.306948403493
 20
4233.425307795336
 30
0.0
 11
7784.306948403493
 21
4233.425307795336
 31
0.0
  0
SOLID
  5
2430
330
1699
100
AcDbEntity
  8
SUNPOU
 62
     0
100
AcDbTrace
 10
8164.306948403493
 20
4243.425307795336
 30
0.0
 11
8164.306948403493
 21
4223.425307795336
 31
0.0
 12
8224.306948403493
 22
4233.425307795336
 32
0.0
 13
8224.306948403493
 23
4233.425307795336
 33
0.0
  0
SOLID
  5
2431
330
1699
100
AcDbEntity
  8
SUNPOU
 62
     0
100
AcDbTrace
 10
7784.306948403493
 20
4243.425307795336
 30
0.0
 11
7784.306948403493
 21
4223.425307795336
 31
0.0
 12
7724.306948403493
 22
4233.425307795336
 32
0.0
 13
7724.306948403493
 23
4233.425307795336
 33
0.0
  0
MTEXT
  5
2432
330
1699
100
AcDbEntity
  8
SUNPOU
 62
     0
100
AcDbMText
 10
7974.306948403493
 20
4302.425307795336
 30
0.0
 40
90.0
 41
0.0
 71
     5
 72
     1
  1
\A1;500
 73
     1
 44
1.0
  0
POINT
  5
2433
330
1699
100
AcDbEntity
  8
DEFPOINTS
 62
     0
100
AcDbPoint
 10
8224.306948403493
 20
4698.60560092888
 30
0.0
  0
POINT
  5
2434
330
1699
100
AcDbEntity
  8
DEFPOINTS
 62
     0
100
AcDbPoint
 10
7724.306948403493
 20
4698.60560092888
 30
0.0
  0
POINT
  5
2435
330
1699
100
AcDbEntity
  8
DEFPOINTS
 62
     0
100
AcDbPoint
 10
7724.306948403493
 20
4233.425307795336
 30
0.0
  0
ENDBLK
  5
16A4
330
1699
100
AcDbEntity
  8
0
100
AcDbBlockEnd
  0
BLOCK
  5
16AF
330
16A5
100
AcDbEntity
  8
0
100
AcDbBlockBegin
  2
*D13
 70
     1
 10
0.0
 20
0.0
 30
0.0
  3
*D13
  1

  0
LINE
  5
2436
330
16A5
100
AcDbEntity
  8
SUNPOU
 62
     0
370
    -2
100
AcDbLine
 10
7724.306948403493
 20
4638.60560092888
 30
0.0
 11
7724.306948403493
 21
4218.425307795336
 31
0.0
  0
LINE
  5
2437
330
16A5
100
AcDbEntity
  8
SUNPOU
 62
     0
370
    -2
100
AcDbLine
 10
7224.306948403493
 20
4538.60560092888
 30
0.0
 11
7224.306948403493
 21
4218.425307795336
 31
0.0
  0
LINE
  5
2438
330
16A5
100
AcDbEntity
  8
SUNPOU
 62
     0
370
    -2
100
AcDbLine
 10
7664.306948403493
 20
4233.425307795336
 30
0.0
 11
7284.306948403493
 21
4233.425307795336
 31
0.0
  0
SOLID
  5
2439
330
16A5
100
AcDbEntity
  8
SUNPOU
 62
     0
100
AcDbTrace
 10
7664.306948403493
 20
4243.425307795336
 30
0.0
 11
7664.306948403493
 21
4223.425307795336
 31
0.0
 12
7724.306948403493
 22
4233.425307795336
 32
0.0
 13
7724.306948403493
 23
4233.425307795336
 33
0.0
  0
SOLID
  5
243A
330
16A5
100
AcDbEntity
  8
SUNPOU
 62
     0
100
AcDbTrace
 10
7284.306948403493
 20
4243.425307795336
 30
0.0
 11
7284.306948403493
 21
4223.425307795336
 31
0.0
 12
7224.306948403493
 22
4233.425307795336
 32
0.0
 13
7224.306948403493
 23
4233.425307795336
 33
0.0
  0
MTEXT
  5
243B
330
16A5
100
AcDbEntity
  8
SUNPOU
 62
     0
100
AcDbMText
 10
7474.306948403493
 20
4302.425307795336
 30
0.0
 40
90.0
 41
0.0
 71
     5
 72
     1
  1
\A1;500
 73
     1
 44
1.0
  0
POINT
  5
243C
330
16A5
100
AcDbEntity
  8
DEFPOINTS
 62
     0
100
AcDbPoint
 10
7724.306948403493
 20
4698.60560092888
 30
0.0
  0
POINT
  5
243D
330
16A5
100
AcDbEntity
  8
DEFPOINTS
 62
     0
100
AcDbPoint
 10
7224.306948403493
 20
4598.60560092888
 30
0.0
  0
POINT
  5
243E
330
16A5
100
AcDbEntity
  8
DEFPOINTS
 62
     0
100
AcDbPoint
 10
7224.306948403493
 20
4233.425307795336
 30
0.0
  0
ENDBLK
  5
16B0
330
16A5
100
AcDbEntity
  8
0
100
AcDbBlockEnd
  0
BLOCK
  5
16C9
330
16BE
100
AcDbEntity
  8
0
100
AcDbBlockBegin
  2
*D14
 70
     1
 10
0.0
 20
0.0
 30
0.0
  3
*D14
  1

  0
LINE
  5
243F
330
16BE
100
AcDbEntity
  8
SUNPOU
 62
     0
370
    -2
100
AcDbLine
 10
2638.949558480406
 20
4698.60560092888
 30
0.0
 11
1907.171765226143
 21
4698.605600928881
 31
0.0
  0
LINE
  5
2440
330
16BE
100
AcDbEntity
  8
SUNPOU
 62
     0
370
    -2
100
AcDbLine
 10
2638.949558480406
 20
4878.60560092888
 30
0.0
 11
1907.171765226143
 21
4878.605600928881
 31
0.0
  0
LINE
  5
2441
330
16BE
100
AcDbEntity
  8
SUNPOU
 62
     0
370
    -2
100
AcDbLine
 10
1922.171765226143
 20
4758.605600928881
 30
0.0
 11
1922.171765226143
 21
4818.605600928881
 31
0.0
  0
MTEXT
  5
2442
330
16BE
100
AcDbEntity
  8
SUNPOU
 62
     0
100
AcDbMText
 10
1853.171765226142
 20
4788.60560092888
 30
0.0
 40
90.0
 41
0.0
 71
     5
 72
     1
  1
\A1;180
 11
6.123031769111886E-17
 21
1.0
 31
0.0
 73
     1
 44
1.0
  0
SOLID
  5
2443
330
16BE
100
AcDbEntity
  8
SUNPOU
 62
     0
100
AcDbTrace
 10
1912.171765226143
 20
4758.605600928881
 30
0.0
 11
1932.171765226143
 21
4758.605600928881
 31
0.0
 12
1922.171765226143
 22
4698.605600928881
 32
0.0
 13
1922.171765226143
 23
4698.605600928881
 33
0.0
  0
SOLID
  5
2444
330
16BE
100
AcDbEntity
  8
SUNPOU
 62
     0
100
AcDbTrace
 10
1912.171765226143
 20
4818.605600928881
 30
0.0
 11
1932.171765226143
 21
4818.605600928881
 31
0.0
 12
1922.171765226143
 22
4878.605600928881
 32
0.0
 13
1922.171765226143
 23
4878.605600928881
 33
0.0
  0
POINT
  5
2445
330
16BE
100
AcDbEntity
  8
DEFPOINTS
 62
     0
100
AcDbPoint
 10
2698.949558480406
 20
4698.60560092888
 30
0.0
  0
POINT
  5
2446
330
16BE
100
AcDbEntity
  8
DEFPOINTS
 62
     0
100
AcDbPoint
 10
2698.949558480406
 20
4878.60560092888
 30
0.0
  0
POINT
  5
2447
330
16BE
100
AcDbEntity
  8
DEFPOINTS
 62
     0
100
AcDbPoint
 10
1922.171765226143
 20
4878.605600928881
 30
0.0
  0
ENDBLK
  5
16CA
330
16BE
100
AcDbEntity
  8
0
100
AcDbBlockEnd
  0
BLOCK
  5
16ED
330
16E3
100
AcDbEntity
  8
0
100
AcDbBlockBegin
  2
*D15
 70
     1
 10
0.0
 20
0.0
 30
0.0
  3
*D15
  1

  0
LINE
  5
2448
330
16E3
100
AcDbEntity
  8
SUNPOU
 62
     0
370
    -2
100
AcDbLine
 10
2638.949558480406
 20
4698.60560092888
 30
0.0
 11
2207.035591668616
 21
4698.60560092888
 31
0.0
  0
LINE
  5
2449
330
16E3
100
AcDbEntity
  8
SUNPOU
 62
     0
370
    -2
100
AcDbLine
 10
2575.134542309777
 20
5298.60560092888
 30
0.0
 11
2207.035591668617
 21
5298.60560092888
 31
0.0
  0
LINE
  5
244A
330
16E3
100
AcDbEntity
  8
SUNPOU
 62
     0
370
    -2
100
AcDbLine
 10
2222.035591668616
 20
4758.60560092888
 30
0.0
 11
2222.035591668617
 21
5238.60560092888
 31
0.0
  0
SOLID
  5
244B
330
16E3
100
AcDbEntity
  8
SUNPOU
 62
     0
100
AcDbTrace
 10
2212.035591668616
 20
4758.60560092888
 30
0.0
 11
2232.035591668616
 21
4758.60560092888
 31
0.0
 12
2222.035591668616
 22
4698.60560092888
 32
0.0
 13
2222.035591668616
 23
4698.60560092888
 33
0.0
  0
SOLID
  5
244C
330
16E3
100
AcDbEntity
  8
SUNPOU
 62
     0
100
AcDbTrace
 10
2212.035591668617
 20
5238.60560092888
 30
0.0
 11
2232.035591668617
 21
5238.60560092888
 31
0.0
 12
2222.035591668617
 22
5298.60560092888
 32
0.0
 13
2222.035591668617
 23
5298.60560092888
 33
0.0
  0
MTEXT
  5
244D
330
16E3
100
AcDbEntity
  8
SUNPOU
 62
     0
100
AcDbMText
 10
2153.035591668616
 20
4998.605600928881
 30
0.0
 40
90.0
 41
0.0
 71
     5
 72
     1
  1
\A1;600
 11
6.123031769111886E-17
 21
1.0
 31
0.0
 73
     1
 44
1.0
  0
POINT
  5
244E
330
16E3
100
AcDbEntity
  8
DEFPOINTS
 62
     0
100
AcDbPoint
 10
2698.949558480406
 20
4698.60560092888
 30
0.0
  0
POINT
  5
244F
330
16E3
100
AcDbEntity
  8
DEFPOINTS
 62
     0
100
AcDbPoint
 10
2635.134542309777
 20
5298.60560092888
 30
0.0
  0
POINT
  5
2450
330
16E3
100
AcDbEntity
  8
DEFPOINTS
 62
     0
100
AcDbPoint
 10
2222.035591668617
 20
5298.60560092888
 30
0.0
  0
ENDBLK
  5
16EE
330
16E3
100
AcDbEntity
  8
0
100
AcDbBlockEnd
  0
BLOCK
  5
1712
330
1708
100
AcDbEntity
  8
0
100
AcDbBlockBegin
  2
*D16
 70
     1
 10
0.0
 20
0.0
 30
0.0
  3
*D16
  1

  0
LINE
  5
2451
330
1708
100
AcDbEntity
  8
SUNPOU
 62
     0
370
    -2
100
AcDbLine
 10
2698.949558480406
 20
4638.60560092888
 30
0.0
 11
2698.949558480406
 21
4082.587911948016
 31
0.0
  0
LINE
  5
2452
330
1708
100
AcDbEntity
  8
SUNPOU
 62
     0
370
    -2
100
AcDbLine
 10
2878.949558480406
 20
4638.60560092888
 30
0.0
 11
2878.949558480406
 21
4082.587911948016
 31
0.0
  0
LINE
  5
2453
330
1708
100
AcDbEntity
  8
SUNPOU
 62
     0
370
    -2
100
AcDbLine
 10
2758.949558480406
 20
4097.587911948016
 30
0.0
 11
2818.949558480406
 21
4097.587911948016
 31
0.0
  0
MTEXT
  5
2454
330
1708
100
AcDbEntity
  8
SUNPOU
 62
     0
100
AcDbMText
 10
2788.949558480406
 20
4166.587911948016
 30
0.0
 40
90.0
 41
0.0
 71
     5
 72
     1
  1
\A1;180
 73
     1
 44
1.0
  0
SOLID
  5
2455
330
1708
100
AcDbEntity
  8
SUNPOU
 62
     0
100
AcDbTrace
 10
2758.949558480406
 20
4107.587911948016
 30
0.0
 11
2758.949558480406
 21
4087.587911948016
 31
0.0
 12
2698.949558480406
 22
4097.587911948016
 32
0.0
 13
2698.949558480406
 23
4097.587911948016
 33
0.0
  0
SOLID
  5
2456
330
1708
100
AcDbEntity
  8
SUNPOU
 62
     0
100
AcDbTrace
 10
2818.949558480406
 20
4107.587911948016
 30
0.0
 11
2818.949558480406
 21
4087.587911948016
 31
0.0
 12
2878.949558480406
 22
4097.587911948016
 32
0.0
 13
2878.949558480406
 23
4097.587911948016
 33
0.0
  0
POINT
  5
2457
330
1708
100
AcDbEntity
  8
DEFPOINTS
 62
     0
100
AcDbPoint
 10
2698.949558480406
 20
4698.60560092888
 30
0.0
  0
POINT
  5
2458
330
1708
100
AcDbEntity
  8
DEFPOINTS
 62
     0
100
AcDbPoint
 10
2878.949558480406
 20
4698.60560092888
 30
0.0
  0
POINT
  5
2459
330
1708
100
AcDbEntity
  8
DEFPOINTS
 62
     0
100
AcDbPoint
 10
2878.949558480406
 20
4097.587911948016
 30
0.0
  0
ENDBLK
  5
1713
330
1708
100
AcDbEntity
  8
0
100
AcDbBlockEnd
  0
BLOCK
  5
1769
330
175F
100
AcDbEntity
  8
0
100
AcDbBlockBegin
  2
*D17
 70
     1
 10
0.0
 20
0.0
 30
0.0
  3
*D17
  1

  0
LINE
  5
245A
330
175F
100
AcDbEntity
  8
SUNPOU
 62
     0
370
    -2
100
AcDbLine
 10
6164.306948403493
 20
6948.60560092888
 30
0.0
 11
5826.503330281915
 21
6948.605600928881
 31
0.0
  0
LINE
  5
245B
330
175F
100
AcDbEntity
  8
SUNPOU
 62
     0
370
    -2
100
AcDbLine
 10
6164.306948403493
 20
5298.60560092888
 30
0.0
 11
5826.503330281914
 21
5298.605600928881
 31
0.0
  0
LINE
  5
245C
330
175F
100
AcDbEntity
  8
SUNPOU
 62
     0
370
    -2
100
AcDbLine
 10
5841.503330281915
 20
6888.605600928881
 30
0.0
 11
5841.503330281914
 21
5358.605600928881
 31
0.0
  0
SOLID
  5
245D
330
175F
100
AcDbEntity
  8
SUNPOU
 62
     0
100
AcDbTrace
 10
5831.503330281915
 20
6888.605600928881
 30
0.0
 11
5851.503330281915
 21
6888.605600928881
 31
0.0
 12
5841.503330281915
 22
6948.605600928881
 32
0.0
 13
5841.503330281915
 23
6948.605600928881
 33
0.0
  0
SOLID
  5
245E
330
175F
100
AcDbEntity
  8
SUNPOU
 62
     0
100
AcDbTrace
 10
5831.503330281914
 20
5358.605600928881
 30
0.0
 11
5851.503330281914
 21
5358.605600928881
 31
0.0
 12
5841.503330281914
 22
5298.605600928881
 32
0.0
 13
5841.503330281914
 23
5298.605600928881
 33
0.0
  0
MTEXT
  5
245F
330
175F
100
AcDbEntity
  8
SUNPOU
 62
     0
100
AcDbMText
 10
5772.503330281913
 20
6123.605600928882
 30
0.0
 40
90.0
 41
0.0
 71
     5
 72
     1
  1
\A1;1650
 11
6.123031769111886E-17
 21
1.0
 31
0.0
 73
     1
 44
1.0
  0
POINT
  5
2460
330
175F
100
AcDbEntity
  8
DEFPOINTS
 62
     0
100
AcDbPoint
 10
6224.306948403493
 20
6948.60560092888
 30
0.0
  0
POINT
  5
2461
330
175F
100
AcDbEntity
  8
DEFPOINTS
 62
     0
100
AcDbPoint
 10
6224.306948403493
 20
5298.60560092888
 30
0.0
  0
POINT
  5
2462
330
175F
100
AcDbEntity
  8
DEFPOINTS
 62
     0
100
AcDbPoint
 10
5841.503330281914
 20
5298.605600928881
 30
0.0
  0
ENDBLK
  5
176A
330
175F
100
AcDbEntity
  8
0
100
AcDbBlockEnd
  0
BLOCK
  5
178F
330
1785
100
AcDbEntity
  8
0
100
AcDbBlockBegin
  2
*D18
 70
     1
 10
0.0
 20
0.0
 30
0.0
  3
*D18
  1

  0
LINE
  5
24EA
330
1785
100
AcDbEntity
  8
SUNPOU
 62
     0
370
    -2
100
AcDbLine
 10
6164.306948403493
 20
2855.0
 30
0.0
 11
5673.100531942524
 21
2855.0
 31
0.0
  0
LINE
  5
24EB
330
1785
100
AcDbEntity
  8
SUNPOU
 62
     0
370
    -2
100
AcDbLine
 10
6164.306948403493
 20
2485.7
 30
0.0
 11
5673.100531942524
 21
2485.7
 31
0.0
  0
LINE
  5
24EC
330
1785
100
AcDbEntity
  8
SUNPOU
 62
     0
370
    -2
100
AcDbLine
 10
5688.100531942524
 20
2795.0
 30
0.0
 11
5688.100531942524
 21
2545.7
 31
0.0
  0
SOLID
  5
24ED
330
1785
100
AcDbEntity
  8
SUNPOU
 62
     0
100
AcDbTrace
 10
5678.100531942524
 20
2795.0
 30
0.0
 11
5698.100531942524
 21
2795.0
 31
0.0
 12
5688.100531942524
 22
2855.0
 32
0.0
 13
5688.100531942524
 23
2855.0
 33
0.0
  0
SOLID
  5
24EE
330
1785
100
AcDbEntity
  8
SUNPOU
 62
     0
100
AcDbTrace
 10
5678.100531942524
 20
2545.7
 30
0.0
 11
5698.100531942524
 21
2545.7
 31
0.0
 12
5688.100531942524
 22
2485.7
 32
0.0
 13
5688.100531942524
 23
2485.7
 33
0.0
  0
MTEXT
  5
24EF
330
1785
100
AcDbEntity
  8
SUNPOU
 62
     0
100
AcDbMText
 10
5619.100531942523
 20
2670.350000000001
 30
0.0
 40
90.0
 41
0.0
 71
     5
 72
     1
  1
\A1;369
 11
6.123031769111886E-17
 21
1.0
 31
0.0
 73
     1
 44
1.0
  0
POINT
  5
24F0
330
1785
100
AcDbEntity
  8
DEFPOINTS
 62
     0
100
AcDbPoint
 10
6224.306948403493
 20
2855.0
 30
0.0
  0
POINT
  5
24F1
330
1785
100
AcDbEntity
  8
DEFPOINTS
 62
     0
100
AcDbPoint
 10
6224.306948403493
 20
2485.7
 30
0.0
  0
POINT
  5
24F2
330
1785
100
AcDbEntity
  8
DEFPOINTS
 62
     0
100
AcDbPoint
 10
5688.100531942524
 20
2485.7
 30
0.0
  0
ENDBLK
  5
1790
330
1785
100
AcDbEntity
  8
0
100
AcDbBlockEnd
  0
BLOCK
  5
17B4
330
17AA
100
AcDbEntity
  8
0
100
AcDbBlockBegin
  2
*D19
 70
     1
 10
0.0
 20
0.0
 30
0.0
  3
*D19
  1

  0
LINE
  5
23BE
330
17AA
100
AcDbEntity
  8
SUNPOU
 62
     0
370
    -2
100
AcDbLine
 10
6274.306948403493
 20
1195.0
 30
0.0
 11
6274.306948403493
 21
771.9081624758073
 31
0.0
  0
LINE
  5
23BF
330
17AA
100
AcDbEntity
  8
SUNPOU
 62
     0
370
    -2
100
AcDbLine
 10
8174.306948403493
 20
1195.000000000001
 30
0.0
 11
8174.306948403493
 21
771.9081624758073
 31
0.0
  0
LINE
  5
23C0
330
17AA
100
AcDbEntity
  8
SUNPOU
 62
     0
370
    -2
100
AcDbLine
 10
6334.306948403493
 20
786.9081624758073
 30
0.0
 11
8114.306948403493
 21
786.9081624758073
 31
0.0
  0
SOLID
  5
23C1
330
17AA
100
AcDbEntity
  8
SUNPOU
 62
     0
100
AcDbTrace
 10
6334.306948403493
 20
796.9081624758073
 30
0.0
 11
6334.306948403493
 21
776.9081624758073
 31
0.0
 12
6274.306948403493
 22
786.9081624758073
 32
0.0
 13
6274.306948403493
 23
786.9081624758073
 33
0.0
  0
SOLID
  5
23C2
330
17AA
100
AcDbEntity
  8
SUNPOU
 62
     0
100
AcDbTrace
 10
8114.306948403493
 20
796.9081624758073
 30
0.0
 11
8114.306948403493
 21
776.9081624758073
 31
0.0
 12
8174.306948403493
 22
786.9081624758073
 32
0.0
 13
8174.306948403493
 23
786.9081624758073
 33
0.0
  0
MTEXT
  5
23C3
330
17AA
100
AcDbEntity
  8
SUNPOU
 62
     0
100
AcDbMText
 10
7224.306948403493
 20
855.9081624758073
 30
0.0
 40
90.0
 41
0.0
 71
     5
 72
     1
  1
\A1;1900
 73
     1
 44
1.0
  0
POINT
  5
23C4
330
17AA
100
AcDbEntity
  8
DEFPOINTS
 62
     0
100
AcDbPoint
 10
6274.306948403493
 20
1255.0
 30
0.0
  0
POINT
  5
23C5
330
17AA
100
AcDbEntity
  8
DEFPOINTS
 62
     0
100
AcDbPoint
 10
8174.306948403493
 20
1255.000000000001
 30
0.0
  0
POINT
  5
23C6
330
17AA
100
AcDbEntity
  8
DEFPOINTS
 62
     0
100
AcDbPoint
 10
8174.306948403493
 20
786.9081624758073
 30
0.0
  0
ENDBLK
  5
17B5
330
17AA
100
AcDbEntity
  8
0
100
AcDbBlockEnd
  0
BLOCK
  5
17E6
330
17DC
100
AcDbEntity
  8
0
100
AcDbBlockBegin
  2
*D20
 70
     1
 10
0.0
 20
0.0
 30
0.0
  3
*D20
  1

  0
LINE
  5
23C7
330
17DC
100
AcDbEntity
  8
SUNPOU
 62
     0
370
    -2
100
AcDbLine
 10
8224.306948403491
 20
2915.0
 30
0.0
 11
8224.306948403491
 21
3405.268456895872
 31
0.0
  0
LINE
  5
23C8
330
17DC
100
AcDbEntity
  8
SUNPOU
 62
     0
370
    -2
100
AcDbLine
 10
6224.306948403491
 20
2915.0
 30
0.0
 11
6224.306948403491
 21
3405.268456895872
 31
0.0
  0
LINE
  5
23C9
330
17DC
100
AcDbEntity
  8
SUNPOU
 62
     0
370
    -2
100
AcDbLine
 10
8164.306948403491
 20
3390.268456895872
 30
0.0
 11
6284.306948403491
 21
3390.268456895872
 31
0.0
  0
SOLID
  5
23CA
330
17DC
100
AcDbEntity
  8
SUNPOU
 62
     0
100
AcDbTrace
 10
8164.306948403491
 20
3400.268456895872
 30
0.0
 11
8164.306948403491
 21
3380.268456895872
 31
0.0
 12
8224.306948403491
 22
3390.268456895872
 32
0.0
 13
8224.306948403491
 23
3390.268456895872
 33
0.0
  0
SOLID
  5
23CB
330
17DC
100
AcDbEntity
  8
SUNPOU
 62
     0
100
AcDbTrace
 10
6284.306948403491
 20
3400.268456895872
 30
0.0
 11
6284.306948403491
 21
3380.268456895872
 31
0.0
 12
6224.306948403491
 22
3390.268456895872
 32
0.0
 13
6224.306948403491
 23
3390.268456895872
 33
0.0
  0
MTEXT
  5
23CC
330
17DC
100
AcDbEntity
  8
SUNPOU
 62
     0
100
AcDbMText
 10
7224.306948403491
 20
3459.268456895872
 30
0.0
 40
90.0
 41
0.0
 71
     5
 72
     1
  1
\A1;2000
 73
     1
 44
1.0
  0
POINT
  5
23CD
330
17DC
100
AcDbEntity
  8
DEFPOINTS
 62
     0
100
AcDbPoint
 10
8224.306948403491
 20
2855.0
 30
0.0
  0
POINT
  5
23CE
330
17DC
100
AcDbEntity
  8
DEFPOINTS
 62
     0
100
AcDbPoint
 10
6224.306948403491
 20
2855.0
 30
0.0
  0
POINT
  5
23CF
330
17DC
100
AcDbEntity
  8
DEFPOINTS
 62
     0
100
AcDbPoint
 10
6224.306948403491
 20
3390.268456895872
 30
0.0
  0
ENDBLK
  5
17E7
330
17DC
100
AcDbEntity
  8
0
100
AcDbBlockEnd
  0
BLOCK
  5
180A
330
1800
100
AcDbEntity
  8
0
100
AcDbBlockBegin
  2
*D21
 70
     1
 10
0.0
 20
0.0
 30
0.0
  3
*D21
  1

  0
LINE
  5
2463
330
1800
100
AcDbEntity
  8
SUNPOU
 62
     0
370
    -2
100
AcDbLine
 10
6164.306948403493
 20
4698.60560092888
 30
0.0
 11
5826.503330281914
 21
4698.605600928881
 31
0.0
  0
LINE
  5
2464
330
1800
100
AcDbEntity
  8
SUNPOU
 62
     0
370
    -2
100
AcDbLine
 10
6104.306948403493
 20
5298.605600928881
 30
0.0
 11
5826.503330281914
 21
5298.605600928881
 31
0.0
  0
LINE
  5
2465
330
1800
100
AcDbEntity
  8
SUNPOU
 62
     0
370
    -2
100
AcDbLine
 10
5841.503330281914
 20
4758.605600928881
 30
0.0
 11
5841.503330281914
 21
5238.605600928881
 31
0.0
  0
SOLID
  5
2466
330
1800
100
AcDbEntity
  8
SUNPOU
 62
     0
100
AcDbTrace
 10
5831.503330281914
 20
4758.605600928881
 30
0.0
 11
5851.503330281914
 21
4758.605600928881
 31
0.0
 12
5841.503330281914
 22
4698.605600928881
 32
0.0
 13
5841.503330281914
 23
4698.605600928881
 33
0.0
  0
SOLID
  5
2467
330
1800
100
AcDbEntity
  8
SUNPOU
 62
     0
100
AcDbTrace
 10
5831.503330281914
 20
5238.605600928881
 30
0.0
 11
5851.503330281914
 21
5238.605600928881
 31
0.0
 12
5841.503330281914
 22
5298.605600928881
 32
0.0
 13
5841.503330281914
 23
5298.605600928881
 33
0.0
  0
MTEXT
  5
2468
330
1800
100
AcDbEntity
  8
SUNPOU
 62
     0
100
AcDbMText
 10
5772.503330281913
 20
4998.605600928882
 30
0.0
 40
90.0
 41
0.0
 71
     5
 72
     1
  1
\A1;600
 11
6.123031769111886E-17
 21
1.0
 31
0.0
 73
     1
 44
1.0
  0
POINT
  5
2469
330
1800
100
AcDbEntity
  8
DEFPOINTS
 62
     0
100
AcDbPoint
 10
6224.306948403493
 20
4698.60560092888
 30
0.0
  0
POINT
  5
246A
330
1800
100
AcDbEntity
  8
DEFPOINTS
 62
     0
100
AcDbPoint
 10
6164.306948403493
 20
5298.60560092888
 30
0.0
  0
POINT
  5
246B
330
1800
100
AcDbEntity
  8
DEFPOINTS
 62
     0
100
AcDbPoint
 10
5841.503330281914
 20
5298.605600928881
 30
0.0
  0
ENDBLK
  5
180B
330
1800
100
AcDbEntity
  8
0
100
AcDbBlockEnd
  0
BLOCK
  5
1816
330
180C
100
AcDbEntity
  8
0
100
AcDbBlockBegin
  2
*D22
 70
     1
 10
0.0
 20
0.0
 30
0.0
  3
*D22
  1

  0
LINE
  5
246C
330
180C
100
AcDbEntity
  8
SUNPOU
 62
     0
370
    -2
100
AcDbLine
 10
2638.949558480406
 20
4698.60560092888
 30
0.0
 11
1704.330712086615
 21
4698.605600928881
 31
0.0
  0
LINE
  5
246D
330
180C
100
AcDbEntity
  8
SUNPOU
 62
     0
370
    -2
100
AcDbLine
 10
2638.949558480406
 20
6948.60560092888
 30
0.0
 11
1704.330712086616
 21
6948.605600928881
 31
0.0
  0
LINE
  5
246E
330
180C
100
AcDbEntity
  8
SUNPOU
 62
     0
370
    -2
100
AcDbLine
 10
1719.330712086615
 20
4758.605600928881
 30
0.0
 11
1719.330712086616
 21
6888.605600928881
 31
0.0
  0
SOLID
  5
246F
330
180C
100
AcDbEntity
  8
SUNPOU
 62
     0
100
AcDbTrace
 10
1709.330712086615
 20
4758.605600928881
 30
0.0
 11
1729.330712086615
 21
4758.605600928881
 31
0.0
 12
1719.330712086615
 22
4698.605600928881
 32
0.0
 13
1719.330712086615
 23
4698.605600928881
 33
0.0
  0
SOLID
  5
2470
330
180C
100
AcDbEntity
  8
SUNPOU
 62
     0
100
AcDbTrace
 10
1709.330712086616
 20
6888.605600928881
 30
0.0
 11
1729.330712086616
 21
6888.605600928881
 31
0.0
 12
1719.330712086616
 22
6948.605600928881
 32
0.0
 13
1719.330712086616
 23
6948.605600928881
 33
0.0
  0
MTEXT
  5
2471
330
180C
100
AcDbEntity
  8
SUNPOU
 62
     0
100
AcDbMText
 10
1650.330712086615
 20
5823.605600928881
 30
0.0
 40
90.0
 41
0.0
 71
     5
 72
     1
  1
\A1;2250
 11
6.123031769111886E-17
 21
1.0
 31
0.0
 73
     1
 44
1.0
  0
POINT
  5
2472
330
180C
100
AcDbEntity
  8
DEFPOINTS
 62
     0
100
AcDbPoint
 10
2698.949558480406
 20
4698.60560092888
 30
0.0
  0
POINT
  5
2473
330
180C
100
AcDbEntity
  8
DEFPOINTS
 62
     0
100
AcDbPoint
 10
2698.949558480406
 20
6948.60560092888
 30
0.0
  0
POINT
  5
2474
330
180C
100
AcDbEntity
  8
DEFPOINTS
 62
     0
100
AcDbPoint
 10
1719.330712086616
 20
6948.605600928881
 30
0.0
  0
ENDBLK
  5
1817
330
180C
100
AcDbEntity
  8
0
100
AcDbBlockEnd
  0
BLOCK
  5
1822
330
1818
100
AcDbEntity
  8
0
100
AcDbBlockBegin
  2
*D23
 70
     1
 10
0.0
 20
0.0
 30
0.0
  3
*D23
  1

  0
LINE
  5
2475
330
1818
100
AcDbEntity
  8
SUNPOU
 62
     0
370
    -2
100
AcDbLine
 10
2578.949558480406
 20
4878.60560092888
 30
0.0
 11
1907.171765226143
 21
4878.605600928881
 31
0.0
  0
LINE
  5
2476
330
1818
100
AcDbEntity
  8
SUNPOU
 62
     0
370
    -2
100
AcDbLine
 10
2638.949558480406
 20
6948.60560092888
 30
0.0
 11
1907.171765226143
 21
6948.605600928881
 31
0.0
  0
LINE
  5
2477
330
1818
100
AcDbEntity
  8
SUNPOU
 62
     0
370
    -2
100
AcDbLine
 10
1922.171765226143
 20
4938.605600928881
 30
0.0
 11
1922.171765226143
 21
6888.605600928881
 31
0.0
  0
SOLID
  5
2478
330
1818
100
AcDbEntity
  8
SUNPOU
 62
     0
100
AcDbTrace
 10
1912.171765226143
 20
4938.605600928881
 30
0.0
 11
1932.171765226143
 21
4938.605600928881
 31
0.0
 12
1922.171765226143
 22
4878.605600928881
 32
0.0
 13
1922.171765226143
 23
4878.605600928881
 33
0.0
  0
SOLID
  5
2479
330
1818
100
AcDbEntity
  8
SUNPOU
 62
     0
100
AcDbTrace
 10
1912.171765226143
 20
6888.605600928881
 30
0.0
 11
1932.171765226143
 21
6888.605600928881
 31
0.0
 12
1922.171765226143
 22
6948.605600928881
 32
0.0
 13
1922.171765226143
 23
6948.605600928881
 33
0.0
  0
MTEXT
  5
247A
330
1818
100
AcDbEntity
  8
SUNPOU
 62
     0
100
AcDbMText
 10
1853.171765226142
 20
5913.605600928881
 30
0.0
 40
90.0
 41
0.0
 71
     5
 72
     1
  1
\A1;2070
 11
6.123031769111886E-17
 21
1.0
 31
0.0
 73
     1
 44
1.0
  0
POINT
  5
247B
330
1818
100
AcDbEntity
  8
DEFPOINTS
 62
     0
100
AcDbPoint
 10
2638.949558480406
 20
4878.60560092888
 30
0.0
  0
POINT
  5
247C
330
1818
100
AcDbEntity
  8
DEFPOINTS
 62
     0
100
AcDbPoint
 10
2698.949558480406
 20
6948.60560092888
 30
0.0
  0
POINT
  5
247D
330
1818
100
AcDbEntity
  8
DEFPOINTS
 62
     0
100
AcDbPoint
 10
1922.171765226143
 20
6948.605600928881
 30
0.0
  0
ENDBLK
  5
1823
330
1818
100
AcDbEntity
  8
0
100
AcDbBlockEnd
  0
BLOCK
  5
1847
330
183C
100
AcDbEntity
  8
0
100
AcDbBlockBegin
  2
*D24
 70
     1
 10
0.0
 20
0.0
 30
0.0
  3
*D24
  1

  0
LINE
  5
247E
330
183C
100
AcDbEntity
  8
SUNPOU
 62
     0
370
    -2
100
AcDbLine
 10
4358.949558480406
 20
4698.60560092888
 30
0.0
 11
4663.949558480406
 21
4698.60560092888
 31
0.0
  0
LINE
  5
247F
330
183C
100
AcDbEntity
  8
SUNPOU
 62
     0
370
    -2
100
AcDbLine
 10
4358.949558480406
 20
4775.842443034144
 30
0.0
 11
4663.949558480406
 21
4775.842443034144
 31
0.0
  0
LINE
  5
2480
330
183C
100
AcDbEntity
  8
SUNPOU
 62
     0
370
    -2
100
AcDbLine
 10
4648.949558480406
 20
4638.60560092888
 30
0.0
 11
4648.949558480406
 21
4578.60560092888
 31
0.0
  0
LINE
  5
2481
330
183C
100
AcDbEntity
  8
SUNPOU
 62
     0
370
    -2
100
AcDbLine
 10
4648.949558480406
 20
4835.842443034144
 30
0.0
 11
4648.949558480406
 21
4895.842443034144
 31
0.0
  0
SOLID
  5
2482
330
183C
100
AcDbEntity
  8
SUNPOU
 62
     0
100
AcDbTrace
 10
4638.949558480406
 20
4638.60560092888
 30
0.0
 11
4658.949558480406
 21
4638.60560092888
 31
0.0
 12
4648.949558480406
 22
4698.60560092888
 32
0.0
 13
4648.949558480406
 23
4698.60560092888
 33
0.0
  0
SOLID
  5
2483
330
183C
100
AcDbEntity
  8
SUNPOU
 62
     0
100
AcDbTrace
 10
4638.949558480406
 20
4835.842443034144
 30
0.0
 11
4658.949558480406
 21
4835.842443034144
 31
0.0
 12
4648.949558480406
 22
4775.842443034144
 32
0.0
 13
4648.949558480406
 23
4775.842443034144
 33
0.0
  0
MTEXT
  5
2484
330
183C
100
AcDbEntity
  8
SUNPOU
 62
     0
100
AcDbMText
 10
4579.949558480405
 20
4737.224021981513
 30
0.0
 40
90.0
 41
0.0
 71
     5
 72
     1
  1
\A1;77
 11
6.123031769111886E-17
 21
1.0
 31
0.0
 73
     1
 44
1.0
  0
POINT
  5
2485
330
183C
100
AcDbEntity
  8
DEFPOINTS
 62
     0
100
AcDbPoint
 10
4298.949558480406
 20
4698.60560092888
 30
0.0
  0
POINT
  5
2486
330
183C
100
AcDbEntity
  8
DEFPOINTS
 62
     0
100
AcDbPoint
 10
4298.949558480406
 20
4775.842443034144
 30
0.0
  0
POINT
  5
2487
330
183C
100
AcDbEntity
  8
DEFPOINTS
 62
     0
100
AcDbPoint
 10
4648.949558480406
 20
4775.842443034144
 30
0.0
  0
ENDBLK
  5
1848
330
183C
100
AcDbEntity
  8
0
100
AcDbBlockEnd
  0
BLOCK
  5
1891
330
1887
100
AcDbEntity
  8
0
100
AcDbBlockBegin
  2
*D25
 70
     1
 10
0.0
 20
0.0
 30
0.0
  3
*D25
  1

  0
LINE
  5
2488
330
1887
100
AcDbEntity
  8
SUNPOU
 62
     0
370
    -2
100
AcDbLine
 10
2698.949558480406
 20
4638.60560092888
 30
0.0
 11
2698.949558480406
 21
3881.056899959196
 31
0.0
  0
LINE
  5
2489
330
1887
100
AcDbEntity
  8
SUNPOU
 62
     0
370
    -2
100
AcDbLine
 10
4298.949558480406
 20
4638.60560092888
 30
0.0
 11
4298.949558480406
 21
3881.056899959196
 31
0.0
  0
LINE
  5
248A
330
1887
100
AcDbEntity
  8
SUNPOU
 62
     0
370
    -2
100
AcDbLine
 10
2758.949558480406
 20
3896.056899959196
 30
0.0
 11
4238.949558480406
 21
3896.056899959196
 31
0.0
  0
SOLID
  5
248B
330
1887
100
AcDbEntity
  8
SUNPOU
 62
     0
100
AcDbTrace
 10
2758.949558480406
 20
3906.056899959196
 30
0.0
 11
2758.949558480406
 21
3886.056899959196
 31
0.0
 12
2698.949558480406
 22
3896.056899959196
 32
0.0
 13
2698.949558480406
 23
3896.056899959196
 33
0.0
  0
SOLID
  5
248C
330
1887
100
AcDbEntity
  8
SUNPOU
 62
     0
100
AcDbTrace
 10
4238.949558480406
 20
3906.056899959196
 30
0.0
 11
4238.949558480406
 21
3886.056899959196
 31
0.0
 12
4298.949558480406
 22
3896.056899959196
 32
0.0
 13
4298.949558480406
 23
3896.056899959196
 33
0.0
  0
MTEXT
  5
248D
330
1887
100
AcDbEntity
  8
SUNPOU
 62
     0
100
AcDbMText
 10
3498.949558480406
 20
3965.056899959196
 30
0.0
 40
90.0
 41
0.0
 71
     5
 72
     1
  1
\A1;1600
 73
     1
 44
1.0
  0
POINT
  5
248E
330
1887
100
AcDbEntity
  8
DEFPOINTS
 62
     0
100
AcDbPoint
 10
2698.949558480406
 20
4698.60560092888
 30
0.0
  0
POINT
  5
248F
330
1887
100
AcDbEntity
  8
DEFPOINTS
 62
     0
100
AcDbPoint
 10
4298.949558480406
 20
4698.60560092888
 30
0.0
  0
POINT
  5
2490
330
1887
100
AcDbEntity
  8
DEFPOINTS
 62
     0
100
AcDbPoint
 10
4298.949558480406
 20
3896.056899959196
 30
0.0
  0
ENDBLK
  5
1892
330
1887
100
AcDbEntity
  8
0
100
AcDbBlockEnd
  0
BLOCK
  5
189D
330
1893
100
AcDbEntity
  8
0
100
AcDbBlockBegin
  2
*D26
 70
     1
 10
0.0
 20
0.0
 30
0.0
  3
*D26
  1

  0
LINE
  5
2491
330
1893
100
AcDbEntity
  8
SUNPOU
 62
     0
370
    -2
100
AcDbLine
 10
4298.949558480406
 20
4638.60560092888
 30
0.0
 11
4298.949558480406
 21
4082.587911948016
 31
0.0
  0
LINE
  5
2492
330
1893
100
AcDbEntity
  8
SUNPOU
 62
     0
370
    -2
100
AcDbLine
 10
2878.949558480406
 20
4578.60560092888
 30
0.0
 11
2878.949558480406
 21
4082.587911948016
 31
0.0
  0
LINE
  5
2493
330
1893
100
AcDbEntity
  8
SUNPOU
 62
     0
370
    -2
100
AcDbLine
 10
4238.949558480406
 20
4097.587911948016
 30
0.0
 11
2938.949558480406
 21
4097.587911948016
 31
0.0
  0
SOLID
  5
2494
330
1893
100
AcDbEntity
  8
SUNPOU
 62
     0
100
AcDbTrace
 10
4238.949558480406
 20
4107.587911948016
 30
0.0
 11
4238.949558480406
 21
4087.587911948016
 31
0.0
 12
4298.949558480406
 22
4097.587911948016
 32
0.0
 13
4298.949558480406
 23
4097.587911948016
 33
0.0
  0
SOLID
  5
2495
330
1893
100
AcDbEntity
  8
SUNPOU
 62
     0
100
AcDbTrace
 10
2938.949558480406
 20
4107.587911948016
 30
0.0
 11
2938.949558480406
 21
4087.587911948016
 31
0.0
 12
2878.949558480406
 22
4097.587911948016
 32
0.0
 13
2878.949558480406
 23
4097.587911948016
 33
0.0
  0
MTEXT
  5
2496
330
1893
100
AcDbEntity
  8
SUNPOU
 62
     0
100
AcDbMText
 10
3588.949558480406
 20
4166.587911948016
 30
0.0
 40
90.0
 41
0.0
 71
     5
 72
     1
  1
\A1;1420
 73
     1
 44
1.0
  0
POINT
  5
2497
330
1893
100
AcDbEntity
  8
DEFPOINTS
 62
     0
100
AcDbPoint
 10
4298.949558480406
 20
4698.60560092888
 30
0.0
  0
POINT
  5
2498
330
1893
100
AcDbEntity
  8
DEFPOINTS
 62
     0
100
AcDbPoint
 10
2878.949558480406
 20
4638.60560092888
 30
0.0
  0
POINT
  5
2499
330
1893
100
AcDbEntity
  8
DEFPOINTS
 62
     0
100
AcDbPoint
 10
2878.949558480406
 20
4097.587911948016
 30
0.0
  0
ENDBLK
  5
189E
330
1893
100
AcDbEntity
  8
0
100
AcDbBlockEnd
  0
BLOCK
  5
18CE
330
18C4
100
AcDbEntity
  8
0
100
AcDbBlockBegin
  2
*D27
 70
     1
 10
0.0
 20
0.0
 30
0.0
  3
*D27
  1

  0
LINE
  5
249A
330
18C4
100
AcDbEntity
  8
SUNPOU
 62
     0
370
    -2
100
AcDbLine
 10
6164.306948403493
 20
6948.60560092888
 30
0.0
 11
5621.093183747173
 21
6948.605600928881
 31
0.0
  0
LINE
  5
249B
330
18C4
100
AcDbEntity
  8
SUNPOU
 62
     0
370
    -2
100
AcDbLine
 10
6164.306948403493
 20
4698.60560092888
 30
0.0
 11
5621.093183747173
 21
4698.605600928881
 31
0.0
  0
LINE
  5
249C
330
18C4
100
AcDbEntity
  8
SUNPOU
 62
     0
370
    -2
100
AcDbLine
 10
5636.093183747173
 20
6888.605600928881
 30
0.0
 11
5636.093183747173
 21
4758.605600928881
 31
0.0
  0
SOLID
  5
249D
330
18C4
100
AcDbEntity
  8
SUNPOU
 62
     0
100
AcDbTrace
 10
5626.093183747173
 20
6888.605600928881
 30
0.0
 11
5646.093183747173
 21
6888.605600928881
 31
0.0
 12
5636.093183747173
 22
6948.605600928881
 32
0.0
 13
5636.093183747173
 23
6948.605600928881
 33
0.0
  0
SOLID
  5
249E
330
18C4
100
AcDbEntity
  8
SUNPOU
 62
     0
100
AcDbTrace
 10
5626.093183747173
 20
4758.605600928881
 30
0.0
 11
5646.093183747173
 21
4758.605600928881
 31
0.0
 12
5636.093183747173
 22
4698.605600928881
 32
0.0
 13
5636.093183747173
 23
4698.605600928881
 33
0.0
  0
MTEXT
  5
249F
330
18C4
100
AcDbEntity
  8
SUNPOU
 62
     0
100
AcDbMText
 10
5567.093183747172
 20
5823.605600928882
 30
0.0
 40
90.0
 41
0.0
 71
     5
 72
     1
  1
\A1;2250
 11
6.123031769111886E-17
 21
1.0
 31
0.0
 73
     1
 44
1.0
  0
POINT
  5
24A0
330
18C4
100
AcDbEntity
  8
DEFPOINTS
 62
     0
100
AcDbPoint
 10
6224.306948403493
 20
6948.60560092888
 30
0.0
  0
POINT
  5
24A1
330
18C4
100
AcDbEntity
  8
DEFPOINTS
 62
     0
100
AcDbPoint
 10
6224.306948403493
 20
4698.60560092888
 30
0.0
  0
POINT
  5
24A2
330
18C4
100
AcDbEntity
  8
DEFPOINTS
 62
     0
100
AcDbPoint
 10
5636.093183747173
 20
4698.605600928881
 30
0.0
  0
ENDBLK
  5
18CF
330
18C4
100
AcDbEntity
  8
0
100
AcDbBlockEnd
  0
BLOCK
  5
18F2
330
18E8
100
AcDbEntity
  8
0
100
AcDbBlockBegin
  2
*D28
 70
     1
 10
0.0
 20
0.0
 30
0.0
  3
*D28
  1

  0
LINE
  5
23E2
330
18E8
100
AcDbEntity
  8
SUNPOU
 62
     0
370
    -2
100
AcDbLine
 10
6164.306948403494
 20
2855.000000000002
 30
0.0
 11
5478.098097899988
 21
2855.000000000002
 31
0.0
  0
LINE
  5
23E3
330
18E8
100
AcDbEntity
  8
SUNPOU
 62
     0
370
    -2
100
AcDbLine
 10
6214.306948403492
 20
1255.0
 30
0.0
 11
5478.098097899987
 21
1255.0
 31
0.0
  0
LINE
  5
23E4
330
18E8
100
AcDbEntity
  8
SUNPOU
 62
     0
370
    -2
100
AcDbLine
 10
5493.098097899988
 20
2795.000000000002
 30
0.0
 11
5493.098097899987
 21
1315.0
 31
0.0
  0
SOLID
  5
23E5
330
18E8
100
AcDbEntity
  8
SUNPOU
 62
     0
100
AcDbTrace
 10
5483.098097899988
 20
2795.000000000002
 30
0.0
 11
5503.098097899988
 21
2795.000000000002
 31
0.0
 12
5493.098097899988
 22
2855.000000000002
 32
0.0
 13
5493.098097899988
 23
2855.000000000002
 33
0.0
  0
SOLID
  5
23E6
330
18E8
100
AcDbEntity
  8
SUNPOU
 62
     0
100
AcDbTrace
 10
5483.098097899987
 20
1315.0
 30
0.0
 11
5503.098097899987
 21
1315.0
 31
0.0
 12
5493.098097899987
 22
1255.0
 32
0.0
 13
5493.098097899987
 23
1255.0
 33
0.0
  0
MTEXT
  5
23E7
330
18E8
100
AcDbEntity
  8
SUNPOU
 62
     0
100
AcDbMText
 10
5424.098097899987
 20
2055.000000000002
 30
0.0
 40
90.0
 41
0.0
 71
     5
 72
     1
  1
\A1;1600
 11
6.123031769111886E-17
 21
1.0
 31
0.0
 73
     1
 44
1.0
  0
POINT
  5
23E8
330
18E8
100
AcDbEntity
  8
DEFPOINTS
 62
     0
100
AcDbPoint
 10
6224.306948403494
 20
2855.000000000002
 30
0.0
  0
POINT
  5
23E9
330
18E8
100
AcDbEntity
  8
DEFPOINTS
 62
     0
100
AcDbPoint
 10
6274.306948403492
 20
1255.0
 30
0.0
  0
POINT
  5
23EA
330
18E8
100
AcDbEntity
  8
DEFPOINTS
 62
     0
100
AcDbPoint
 10
5493.098097899987
 20
1255.0
 30
0.0
  0
ENDBLK
  5
18F3
330
18E8
100
AcDbEntity
  8
0
100
AcDbBlockEnd
  0
BLOCK
  5
18FE
330
18F4
100
AcDbEntity
  8
0
100
AcDbBlockBegin
  2
*D29
 70
     1
 10
0.0
 20
0.0
 30
0.0
  3
*D29
  1

  0
LINE
  5
24F3
330
18F4
100
AcDbEntity
  8
SUNPOU
 62
     0
370
    -2
100
AcDbLine
 10
6164.306948403493
 20
2485.7
 30
0.0
 11
5673.100531942525
 21
2485.7
 31
0.0
  0
LINE
  5
24F4
330
18F4
100
AcDbEntity
  8
SUNPOU
 62
     0
370
    -2
100
AcDbLine
 10
6214.306948403492
 20
1255.0
 30
0.0
 11
5673.100531942524
 21
1255.0
 31
0.0
  0
LINE
  5
24F5
330
18F4
100
AcDbEntity
  8
SUNPOU
 62
     0
370
    -2
100
AcDbLine
 10
5688.100531942525
 20
2425.7
 30
0.0
 11
5688.100531942524
 21
1315.0
 31
0.0
  0
SOLID
  5
24F6
330
18F4
100
AcDbEntity
  8
SUNPOU
 62
     0
100
AcDbTrace
 10
5678.100531942525
 20
2425.7
 30
0.0
 11
5698.100531942525
 21
2425.7
 31
0.0
 12
5688.100531942525
 22
2485.7
 32
0.0
 13
5688.100531942525
 23
2485.7
 33
0.0
  0
SOLID
  5
24F7
330
18F4
100
AcDbEntity
  8
SUNPOU
 62
     0
100
AcDbTrace
 10
5678.100531942524
 20
1315.0
 30
0.0
 11
5698.100531942524
 21
1315.0
 31
0.0
 12
5688.100531942524
 22
1255.0
 32
0.0
 13
5688.100531942524
 23
1255.0
 33
0.0
  0
MTEXT
  5
24F8
330
18F4
100
AcDbEntity
  8
SUNPOU
 62
     0
100
AcDbMText
 10
5619.100531942524
 20
1870.350000000001
 30
0.0
 40
90.0
 41
0.0
 71
     5
 72
     1
  1
\A1;1231
 11
6.123031769111886E-17
 21
1.0
 31
0.0
 73
     1
 44
1.0
  0
POINT
  5
24F9
330
18F4
100
AcDbEntity
  8
DEFPOINTS
 62
     0
100
AcDbPoint
 10
6224.306948403493
 20
2485.7
 30
0.0
  0
POINT
  5
24FA
330
18F4
100
AcDbEntity
  8
DEFPOINTS
 62
     0
100
AcDbPoint
 10
6274.306948403492
 20
1255.0
 30
0.0
  0
POINT
  5
24FB
330
18F4
100
AcDbEntity
  8
DEFPOINTS
 62
     0
100
AcDbPoint
 10
5688.100531942524
 20
1255.0
 30
0.0
  0
ENDBLK
  5
18FF
330
18F4
100
AcDbEntity
  8
0
100
AcDbBlockEnd
  0
BLOCK
  5
190A
330
1900
100
AcDbEntity
  8
0
100
AcDbBlockBegin
  2
*D30
 70
     1
 10
0.0
 20
0.0
 30
0.0
  3
*D30
  1

  0
LINE
  5
24A3
330
1900
100
AcDbEntity
  8
SUNPOU
 62
     0
370
    -2
100
AcDbLine
 10
2828.949558480406
 20
6948.605600928881
 30
0.0
 11
4663.949558480406
 21
6948.605600928881
 31
0.0
  0
LINE
  5
24A4
330
1900
100
AcDbEntity
  8
SUNPOU
 62
     0
370
    -2
100
AcDbLine
 10
2828.949558480406
 20
6788.60560092888
 30
0.0
 11
4663.949558480406
 21
6788.60560092888
 31
0.0
  0
LINE
  5
24A5
330
1900
100
AcDbEntity
  8
SUNPOU
 62
     0
370
    -2
100
AcDbLine
 10
4648.949558480406
 20
7008.605600928881
 30
0.0
 11
4648.949558480406
 21
7068.605600928881
 31
0.0
  0
LINE
  5
24A6
330
1900
100
AcDbEntity
  8
SUNPOU
 62
     0
370
    -2
100
AcDbLine
 10
4648.949558480406
 20
6728.60560092888
 30
0.0
 11
4648.949558480406
 21
6668.60560092888
 31
0.0
  0
SOLID
  5
24A7
330
1900
100
AcDbEntity
  8
SUNPOU
 62
     0
100
AcDbTrace
 10
4638.949558480406
 20
7008.605600928881
 30
0.0
 11
4658.949558480406
 21
7008.605600928881
 31
0.0
 12
4648.949558480406
 22
6948.605600928881
 32
0.0
 13
4648.949558480406
 23
6948.605600928881
 33
0.0
  0
SOLID
  5
24A8
330
1900
100
AcDbEntity
  8
SUNPOU
 62
     0
100
AcDbTrace
 10
4638.949558480406
 20
6728.60560092888
 30
0.0
 11
4658.949558480406
 21
6728.60560092888
 31
0.0
 12
4648.949558480406
 22
6788.60560092888
 32
0.0
 13
4648.949558480406
 23
6788.60560092888
 33
0.0
  0
MTEXT
  5
24A9
330
1900
100
AcDbEntity
  8
SUNPOU
 62
     0
100
AcDbMText
 10
4579.949558480404
 20
6868.605600928882
 30
0.0
 40
90.0
 41
0.0
 71
     5
 72
     1
  1
\A1;160
 11
6.123031769111886E-17
 21
1.0
 31
0.0
 73
     1
 44
1.0
  0
POINT
  5
24AA
330
1900
100
AcDbEntity
  8
DEFPOINTS
 62
     0
100
AcDbPoint
 10
2768.949558480406
 20
6948.605600928881
 30
0.0
  0
POINT
  5
24AB
330
1900
100
AcDbEntity
  8
DEFPOINTS
 62
     0
100
AcDbPoint
 10
2768.949558480406
 20
6788.60560092888
 30
0.0
  0
POINT
  5
24AC
330
1900
100
AcDbEntity
  8
DEFPOINTS
 62
     0
100
AcDbPoint
 10
4648.949558480406
 20
6788.60560092888
 30
0.0
  0
ENDBLK
  5
190B
330
1900
100
AcDbEntity
  8
0
100
AcDbBlockEnd
  0
BLOCK
  5
1916
330
190C
100
AcDbEntity
  8
0
100
AcDbBlockBegin
  2
*D31
 70
     1
 10
0.0
 20
0.0
 30
0.0
  3
*D31
  1

  0
LINE
  5
24AD
330
190C
100
AcDbEntity
  8
SUNPOU
 62
     0
370
    -2
100
AcDbLine
 10
2828.949558480406
 20
6788.60560092888
 30
0.0
 11
4663.949558480407
 21
6788.60560092888
 31
0.0
  0
LINE
  5
24AE
330
190C
100
AcDbEntity
  8
SUNPOU
 62
     0
370
    -2
100
AcDbLine
 10
4418.949558480406
 20
4775.842443034144
 30
0.0
 11
4663.949558480406
 21
4775.842443034144
 31
0.0
  0
LINE
  5
24AF
330
190C
100
AcDbEntity
  8
SUNPOU
 62
     0
370
    -2
100
AcDbLine
 10
4648.949558480407
 20
6728.60560092888
 30
0.0
 11
4648.949558480406
 21
4835.842443034144
 31
0.0
  0
SOLID
  5
24B0
330
190C
100
AcDbEntity
  8
SUNPOU
 62
     0
100
AcDbTrace
 10
4638.949558480407
 20
6728.60560092888
 30
0.0
 11
4658.949558480407
 21
6728.60560092888
 31
0.0
 12
4648.949558480407
 22
6788.60560092888
 32
0.0
 13
4648.949558480407
 23
6788.60560092888
 33
0.0
  0
SOLID
  5
24B1
330
190C
100
AcDbEntity
  8
SUNPOU
 62
     0
100
AcDbTrace
 10
4638.949558480406
 20
4835.842443034144
 30
0.0
 11
4658.949558480406
 21
4835.842443034144
 31
0.0
 12
4648.949558480406
 22
4775.842443034144
 32
0.0
 13
4648.949558480406
 23
4775.842443034144
 33
0.0
  0
MTEXT
  5
24B2
330
190C
100
AcDbEntity
  8
SUNPOU
 62
     0
100
AcDbMText
 10
4579.949558480405
 20
5782.224021981513
 30
0.0
 40
90.0
 41
0.0
 71
     5
 72
     1
  1
\A1;2013
 11
6.123031769111886E-17
 21
1.0
 31
0.0
 73
     1
 44
1.0
  0
POINT
  5
24B3
330
190C
100
AcDbEntity
  8
DEFPOINTS
 62
     0
100
AcDbPoint
 10
2768.949558480406
 20
6788.60560092888
 30
0.0
  0
POINT
  5
24B4
330
190C
100
AcDbEntity
  8
DEFPOINTS
 62
     0
100
AcDbPoint
 10
4358.949558480406
 20
4775.842443034144
 30
0.0
  0
POINT
  5
24B5
330
190C
100
AcDbEntity
  8
DEFPOINTS
 62
     0
100
AcDbPoint
 10
4648.949558480406
 20
4775.842443034144
 30
0.0
  0
ENDBLK
  5
1917
330
190C
100
AcDbEntity
  8
0
100
AcDbBlockEnd
  0
BLOCK
  5
221A
330
220F
100
AcDbEntity
  8
0
100
AcDbBlockBegin
  2
*D32
 70
     1
 10
0.0
 20
0.0
 30
0.0
  3
*D32
  1

  0
LINE
  5
23F4
330
220F
100
AcDbEntity
  8
SUNPOU
 62
     0
370
    -2
100
AcDbLine
 10
8174.306948403493
 20
1195.0
 30
0.0
 11
8174.306948403493
 21
771.9081624758073
 31
0.0
  0
LINE
  5
23F5
330
220F
100
AcDbEntity
  8
SUNPOU
 62
     0
370
    -2
100
AcDbLine
 10
8224.306948403493
 20
1195.0
 30
0.0
 11
8224.306948403493
 21
771.9081624758073
 31
0.0
  0
LINE
  5
23F6
330
220F
100
AcDbEntity
  8
SUNPOU
 62
     0
370
    -2
100
AcDbLine
 10
8114.306948403493
 20
786.9081624758073
 30
0.0
 11
8054.306948403493
 21
786.9081624758073
 31
0.0
  0
LINE
  5
23F7
330
220F
100
AcDbEntity
  8
SUNPOU
 62
     0
370
    -2
100
AcDbLine
 10
8284.306948403493
 20
786.9081624758073
 30
0.0
 11
8344.306948403493
 21
786.9081624758073
 31
0.0
  0
SOLID
  5
23F8
330
220F
100
AcDbEntity
  8
SUNPOU
 62
     0
100
AcDbTrace
 10
8114.306948403493
 20
796.9081624758073
 30
0.0
 11
8114.306948403493
 21
776.9081624758073
 31
0.0
 12
8174.306948403493
 22
786.9081624758073
 32
0.0
 13
8174.306948403493
 23
786.9081624758073
 33
0.0
  0
SOLID
  5
23F9
330
220F
100
AcDbEntity
  8
SUNPOU
 62
     0
100
AcDbTrace
 10
8284.306948403493
 20
796.9081624758073
 30
0.0
 11
8284.306948403493
 21
776.9081624758073
 31
0.0
 12
8224.306948403493
 22
786.9081624758073
 32
0.0
 13
8224.306948403493
 23
786.9081624758073
 33
0.0
  0
MTEXT
  5
23FA
330
220F
100
AcDbEntity
  8
SUNPOU
 62
     0
100
AcDbMText
 10
8199.306948403493
 20
855.9081624758073
 30
0.0
 40
90.0
 41
0.0
 71
     5
 72
     1
  1
\A1;50
 73
     1
 44
1.0
  0
POINT
  5
23FB
330
220F
100
AcDbEntity
  8
DEFPOINTS
 62
     0
100
AcDbPoint
 10
8174.306948403493
 20
1255.0
 30
0.0
  0
POINT
  5
23FC
330
220F
100
AcDbEntity
  8
DEFPOINTS
 62
     0
100
AcDbPoint
 10
8224.306948403493
 20
1255.0
 30
0.0
  0
POINT
  5
23FD
330
220F
100
AcDbEntity
  8
DEFPOINTS
 62
     0
100
AcDbPoint
 10
8224.306948403493
 20
786.9081624758073
 30
0.0
  0
ENDBLK
  5
221B
330
220F
100
AcDbEntity
  8
0
100
AcDbBlockEnd
  0
BLOCK
  5
2228
330
221D
100
AcDbEntity
  8
0
100
AcDbBlockBegin
  2
*D33
 70
     1
 10
0.0
 20
0.0
 30
0.0
  3
*D33
  1

  0
LINE
  5
23FE
330
221D
100
AcDbEntity
  8
SUNPOU
 62
     0
370
    -2
100
AcDbLine
 10
6274.306948403493
 20
1195.0
 30
0.0
 11
6274.306948403493
 21
771.9081624758073
 31
0.0
  0
LINE
  5
23FF
330
221D
100
AcDbEntity
  8
SUNPOU
 62
     0
370
    -2
100
AcDbLine
 10
6224.306948403493
 20
1195.0
 30
0.0
 11
6224.306948403493
 21
771.9081624758073
 31
0.0
  0
LINE
  5
2400
330
221D
100
AcDbEntity
  8
SUNPOU
 62
     0
370
    -2
100
AcDbLine
 10
6334.306948403493
 20
786.9081624758073
 30
0.0
 11
6394.306948403493
 21
786.9081624758073
 31
0.0
  0
LINE
  5
2401
330
221D
100
AcDbEntity
  8
SUNPOU
 62
     0
370
    -2
100
AcDbLine
 10
6164.306948403493
 20
786.9081624758073
 30
0.0
 11
6104.306948403493
 21
786.9081624758073
 31
0.0
  0
SOLID
  5
2402
330
221D
100
AcDbEntity
  8
SUNPOU
 62
     0
100
AcDbTrace
 10
6334.306948403493
 20
796.9081624758073
 30
0.0
 11
6334.306948403493
 21
776.9081624758073
 31
0.0
 12
6274.306948403493
 22
786.9081624758073
 32
0.0
 13
6274.306948403493
 23
786.9081624758073
 33
0.0
  0
SOLID
  5
2403
330
221D
100
AcDbEntity
  8
SUNPOU
 62
     0
100
AcDbTrace
 10
6164.306948403493
 20
796.9081624758073
 30
0.0
 11
6164.306948403493
 21
776.9081624758073
 31
0.0
 12
6224.306948403493
 22
786.9081624758073
 32
0.0
 13
6224.306948403493
 23
786.9081624758073
 33
0.0
  0
MTEXT
  5
2404
330
221D
100
AcDbEntity
  8
SUNPOU
 62
     0
100
AcDbMText
 10
6249.306948403493
 20
855.9081624758073
 30
0.0
 40
90.0
 41
0.0
 71
     5
 72
     1
  1
\A1;50
 73
     1
 44
1.0
  0
POINT
  5
2405
330
221D
100
AcDbEntity
  8
DEFPOINTS
 62
     0
100
AcDbPoint
 10
6274.306948403493
 20
1255.0
 30
0.0
  0
POINT
  5
2406
330
221D
100
AcDbEntity
  8
DEFPOINTS
 62
     0
100
AcDbPoint
 10
6224.306948403493
 20
1255.0
 30
0.0
  0
POINT
  5
2407
330
221D
100
AcDbEntity
  8
DEFPOINTS
 62
     0
100
AcDbPoint
 10
6224.306948403493
 20
786.9081624758073
 30
0.0
  0
ENDBLK
  5
2229
330
221D
100
AcDbEntity
  8
0
100
AcDbBlockEnd
  0
ENDSEC
  0
SECTION
  2
ENTITIES
  0
TEXT
  5
5F
330
17
100
AcDbEntity
  8
SUNPOU
100
AcDbText
 10
11549.99999999999
 20
480.0
 30
0.0
 40
90.0
  1
30
100
AcDbText
  0
INSERT
  5
60
330
17
100
AcDbEntity
  8
HAIKIN
100
AcDbBlockReference
  2
SA3
 10
510.0
 20
0.0
 30
0.0
 41
30.0
 42
30.0
 43
30.0
  0
TEXT
  5
13A9
330
17
100
AcDbEntity
  8
HAIKIN
100
AcDbText
 10
4912.165282841335
 20
7862.558348170878
 30
0.0
 40
112.5
  1
デザインウォ－ル　H=2250  ( L=2000 )
 11
4912.165282841335
 21
7847.558348170878
 31
0.0
100
AcDbText
 73
     1
  0
TEXT
  5
13AA
330
17
100
AcDbEntity
  8
SUNPOU
100
AcDbText
 10
10232.5
 20
975.0
 30
0.0
 40
75.0
  1
デザインウォ－ル H=2250 (L=2000)
 72
     4
 11
11100.0
 21
1012.5
 31
0.0
100
AcDbText
  0
LINE
  5
13AB
330
17
100
AcDbEntity
  8
SEIHIN
100
AcDbLine
 10
2698.949558480406
 20
4698.60560092888
 30
0.0
 11
4298.949558480406
 21
4698.605600928881
 31
0.0
  0
LINE
  5
13AC
330
17
100
AcDbEntity
  8
SEIHIN
100
AcDbLine
 10
4298.949558480406
 20
4698.605600928881
 30
0.0
 11
4298.949558480406
 21
4775.842443034144
 31
0.0
  0
LINE
  5
13AD
330
17
100
AcDbEntity
  8
SEIHIN
100
AcDbLine
 10
2698.949558480406
 20
4698.60560092888
 30
0.0
 11
2698.949558480406
 21
6948.60560092888
 31
0.0
  0
LINE
  5
13AE
330
17
100
AcDbEntity
  8
SEIHIN
100
AcDbLine
 10
2698.949558480406
 20
6948.605600928881
 30
0.0
 11
2768.949558480406
 21
6948.605600928881
 31
0.0
  0
LINE
  5
13AF
330
17
100
AcDbEntity
  8
1HASEN
100
AcDbLine
 10
2878.949558480406
 20
4828.605600928881
 30
0.0
 11
2878.949558480406
 21
4928.60560092888
 31
0.0
  0
LINE
  5
13B0
330
17
100
AcDbEntity
  8
1HASEN
100
AcDbLine
 10
2828.949558480406
 20
4878.60560092888
 30
0.0
 11
2928.949558480406
 21
4878.60560092888
 31
0.0
  0
LINE
  5
13B1
330
17
100
AcDbEntity
  8
SEIHIN
100
AcDbLine
 10
6224.306948403493
 20
4698.60560092888
 30
0.0
 11
6224.306948403493
 21
6948.60560092888
 31
0.0
  0
LINE
  5
13B2
330
17
100
AcDbEntity
  8
SEIHIN
100
AcDbLine
 10
8224.306948403493
 20
4698.60560092888
 30
0.0
 11
8224.306948403493
 21
6948.60560092888
 31
0.0
  0
LINE
  5
13B3
330
17
100
AcDbEntity
  8
SEIHIN
100
AcDbLine
 10
6224.306948403493
 20
6948.60560092888
 30
0.0
 11
8224.306948403493
 21
6948.60560092888
 31
0.0
  0
LINE
  5
13B4
330
17
100
AcDbEntity
  8
SEIHIN
100
AcDbLine
 10
6224.306948403493
 20
4698.60560092888
 30
0.0
 11
8224.306948403493
 21
4698.60560092888
 31
0.0
  0
LINE
  5
13B6
330
17
100
AcDbEntity
  8
1HASEN
100
AcDbLine
 10
7224.306948403493
 20
7048.60560092888
 30
0.0
 11
7224.306948403493
 21
4598.60560092888
 31
0.0
  0
LINE
  5
13C4
330
17
100
AcDbEntity
  8
1HASEN
100
AcDbLine
 10
6724.306948403492
 20
5398.605600928881
 30
0.0
 11
6724.306948403493
 21
5198.60560092888
 31
0.0
  0
LINE
  5
13C5
330
17
100
AcDbEntity
  8
1HASEN
100
AcDbLine
 10
6624.306948403493
 20
5298.60560092888
 30
0.0
 11
6824.306948403494
 21
5298.60560092888
 31
0.0
  0
DIMENSION
  5
13CA
330
17
100
AcDbEntity
  8
SUNPOU
100
AcDbDimension
  2
*D8
 10
2768.949558480406
 20
7298.605600928881
 30
0.0
 11
2733.949558480406
 21
7367.605600928881
 31
0.0
 70
    32
 71
     5
 42
70.0
  3
A3-30
100
AcDbAlignedDimension
 13
2698.949558480406
 23
6948.605600928881
 33
0.0
 14
2768.949558480406
 24
6948.605600928881
 34
0.0
100
AcDbRotatedDimension
  0
LINE
  5
13CB
330
17
100
AcDbEntity
  8
HASEN
 48
0.2
100
AcDbLine
 10
2733.949558480406
 20
5273.60560092888
 30
0.0
 11
2698.949558480406
 21
5258.60560092888
 31
0.0
  0
LINE
  5
13CC
330
17
100
AcDbEntity
  8
HASEN
 48
0.2
100
AcDbLine
 10
2733.949558480406
 20
5323.60560092888
 30
0.0
 11
2733.949558480406
 21
5273.60560092888
 31
0.0
  0
LINE
  5
13CD
330
17
100
AcDbEntity
  8
HASEN
 48
0.2
100
AcDbLine
 10
2698.949558480406
 20
5338.60560092888
 30
0.0
 11
2733.949558480406
 21
5323.60560092888
 31
0.0
  0
LINE
  5
13CE
330
17
100
AcDbEntity
  8
HASEN
 48
0.2
100
AcDbLine
 10
2843.457411883548
 20
5273.60560092888
 30
0.0
 11
2857.051300431094
 21
5258.83899069421
 31
0.0
  0
LINE
  5
13CF
330
17
100
AcDbEntity
  8
HASEN
 48
0.2
100
AcDbLine
 10
2843.457411883548
 20
5323.60560092888
 30
0.0
 11
2843.457411883548
 21
5273.60560092888
 31
0.0
  0
LINE
  5
13D0
330
17
100
AcDbEntity
  8
HASEN
 48
0.2
100
AcDbLine
 10
2852.457411883548
 20
5338.60560092888
 30
0.0
 11
2843.457411883548
 21
5323.60560092888
 31
0.0
  0
CIRCLE
  5
13D1
330
17
100
AcDbEntity
  8
SUNPOU
100
AcDbCircle
 10
6724.306948403493
 20
5298.60560092888
 30
0.0
 40
40.0
  0
CIRCLE
  5
13D2
330
17
100
AcDbEntity
  8
SUNPOU
100
AcDbCircle
 10
6724.306948403493
 20
5298.60560092888
 30
0.0
 40
25.0
  0
LINE
  5
13D3
330
17
100
AcDbEntity
  8
1HASEN
100
AcDbLine
 10
2635.134542309777
 20
5298.60560092888
 30
0.0
 11
2910.337346676719
 21
5298.60560092888
 31
0.0
  0
LINE
  5
13D4
330
17
100
AcDbEntity
  8
HASEN
 48
0.2
100
AcDbLine
 10
2733.949558480406
 20
5317.10560092888
 30
0.0
 11
2843.457411883548
 21
5322.387651110172
 31
0.0
  0
LINE
  5
13D5
330
17
100
AcDbEntity
  8
HASEN
 48
0.2
100
AcDbLine
 10
2733.949558480406
 20
5280.10560092888
 30
0.0
 11
2843.457411883548
 21
5274.823550747589
 31
0.0
  0
DIMENSION
  5
13E1
330
17
100
AcDbEntity
  8
SUNPOU
100
AcDbDimension
  2
*D9
 10
8224.306948403493
 20
7359.01058085763
 30
0.0
 11
7224.306948403493
 21
7428.01058085763
 31
0.0
 70
    32
 71
     5
 42
2000.0
  3
A3-30
100
AcDbAlignedDimension
 13
6224.306948403493
 23
6948.60560092888
 33
0.0
 14
8224.306948403493
 24
6948.60560092888
 34
0.0
100
AcDbRotatedDimension
  0
DIMENSION
  5
1404
330
17
100
AcDbEntity
  8
SUNPOU
100
AcDbDimension
  2
*D10
 10
6724.306948403493
 20
4233.425307795336
 30
0.0
 11
6474.306948403493
 21
4302.425307795336
 31
0.0
 70
    32
 71
     5
 42
500.0
  3
A3-30
100
AcDbAlignedDimension
 13
6224.306948403493
 23
4698.60560092888
 33
0.0
 14
6724.306948403493
 24
4698.60560092888
 34
0.0
100
AcDbRotatedDimension
  0
DIMENSION
  5
1405
330
17
100
AcDbEntity
  8
SUNPOU
100
AcDbDimension
  2
*D11
 10
7224.306948403493
 20
4233.425307795336
 30
0.0
 11
6974.306948403493
 21
4302.425307795336
 31
0.0
 70
    32
 71
     5
 42
500.0
  3
A3-30
100
AcDbAlignedDimension
 13
6724.306948403493
 23
4698.60560092888
 33
0.0
 14
7224.306948403493
 24
4598.60560092888
 34
0.0
100
AcDbRotatedDimension
  0
DIMENSION
  5
1406
330
17
100
AcDbEntity
  8
SUNPOU
100
AcDbDimension
  2
*D12
 10
7724.306948403493
 20
4233.425307795336
 30
0.0
 11
7974.306948403493
 21
4302.425307795336
 31
0.0
 70
    32
 71
     5
 42
500.0
  3
A3-30
100
AcDbAlignedDimension
 13
8224.306948403493
 23
4698.60560092888
 33
0.0
 14
7724.306948403493
 24
4698.60560092888
 34
0.0
100
AcDbRotatedDimension
  0
DIMENSION
  5
1407
330
17
100
AcDbEntity
  8
SUNPOU
100
AcDbDimension
  2
*D13
 10
7224.306948403493
 20
4233.425307795336
 30
0.0
 11
7474.306948403493
 21
4302.425307795336
 31
0.0
 70
    32
 71
     5
 42
500.0
  3
A3-30
100
AcDbAlignedDimension
 13
7724.306948403493
 23
4698.60560092888
 33
0.0
 14
7224.306948403493
 24
4598.60560092888
 34
0.0
100
AcDbRotatedDimension
  0
LINE
  5
140B
330
17
100
AcDbEntity
  8
SEIHIN
100
AcDbLine
 10
2768.949558480406
 20
6948.60560092888
 30
0.0
 11
2768.949558480406
 21
6788.60560092888
 31
0.0
  0
LINE
  5
140C
330
17
100
AcDbEntity
  8
SEIHIN
100
AcDbLine
 10
3068.249558480407
 20
4864.906258823618
 30
0.0
 11
4298.949558480406
 21
4775.842443034144
 31
0.0
  0
LINE
  5
140D
330
17
100
AcDbEntity
  8
SEIHIN
100
AcDbLine
 10
2768.949558480406
 20
6788.60560092888
 30
0.0
 11
2868.220201219453
 21
5064.906258823618
 31
0.0
  0
DIMENSION
  5
141A
330
17
100
AcDbEntity
  8
SUNPOU
100
AcDbDimension
  2
*D14
 10
1922.171765226143
 20
4878.605600928881
 30
0.0
 11
1853.171765226142
 21
4788.60560092888
 31
0.0
 70
   160
 71
     5
 42
180.0
  3
A3-30
100
AcDbAlignedDimension
 13
2698.949558480406
 23
4698.60560092888
 33
0.0
 14
2698.949558480406
 24
4878.60560092888
 34
0.0
 50
90.0
100
AcDbRotatedDimension
  0
DIMENSION
  5
141D
330
17
100
AcDbEntity
  8
SUNPOU
100
AcDbDimension
  2
*D15
 10
2222.035591668617
 20
5298.60560092888
 30
0.0
 11
2153.035591668616
 21
4998.605600928881
 31
0.0
 70
    32
 71
     5
 42
600.0
  3
A3-30
100
AcDbAlignedDimension
 13
2698.949558480406
 23
4698.60560092888
 33
0.0
 14
2635.134542309777
 24
5298.60560092888
 34
0.0
 50
90.0
100
AcDbRotatedDimension
  0
DIMENSION
  5
1425
330
17
100
AcDbEntity
  8
SUNPOU
100
AcDbDimension
  2
*D16
 10
2878.949558480406
 20
4097.587911948016
 30
0.0
 11
2788.949558480406
 21
4166.587911948016
 31
0.0
 70
   160
 71
     5
 42
180.0
  3
A3-30
100
AcDbAlignedDimension
 13
2698.949558480406
 23
4698.60560092888
 33
0.0
 14
2878.949558480406
 24
4698.60560092888
 34
0.0
100
AcDbRotatedDimension
  0
LINE
  5
1462
330
17
100
AcDbEntity
  8
1HASEN
100
AcDbLine
 10
7724.306948403493
 20
5398.605600928881
 30
0.0
 11
7724.306948403493
 21
5198.60560092888
 31
0.0
  0
LINE
  5
1463
330
17
100
AcDbEntity
  8
1HASEN
100
AcDbLine
 10
7824.306948403493
 20
5298.605600928881
 30
0.0
 11
7624.306948403493
 21
5298.60560092888
 31
0.0
  0
CIRCLE
  5
1464
330
17
100
AcDbEntity
  8
SUNPOU
100
AcDbCircle
 10
7724.306948403493
 20
5298.60560092888
 30
0.0
 40
25.0
  0
CIRCLE
  5
1465
330
17
100
AcDbEntity
  8
SUNPOU
100
AcDbCircle
 10
7724.306948403493
 20
5298.60560092888
 30
0.0
 40
40.0
  0
DIMENSION
  5
1472
330
17
100
AcDbEntity
  8
SUNPOU
100
AcDbDimension
  2
*D17
 10
5841.503330281914
 20
5298.605600928881
 30
0.0
 11
5772.503330281913
 21
6123.605600928882
 31
0.0
 70
    32
 71
     5
 42
1650.0
  3
A3-30
100
AcDbAlignedDimension
 13
6224.306948403493
 23
6948.60560092888
 33
0.0
 14
6224.306948403493
 24
5298.60560092888
 34
0.0
 50
90.0
100
AcDbRotatedDimension
  0
LINE
  5
1488
330
17
100
AcDbEntity
  8
SEIHIN
100
AcDbLine
 10
6224.306948403493
 20
2855.0
 30
0.0
 11
8224.306948403493
 21
2855.0
 31
0.0
  0
LINE
  5
1489
330
17
100
AcDbEntity
  8
SEIHIN
100
AcDbLine
 10
6274.306948403492
 20
1255.0
 30
0.0
 11
8174.306948403493
 21
1255.0
 31
0.0
  0
LINE
  5
148A
330
17
100
AcDbEntity
  8
1HASEN
100
AcDbLine
 10
7224.306948403492
 20
2955.0
 30
0.0
 11
7224.306948403493
 21
1097.252262211037
 31
0.0
  0
LINE
  5
148B
330
17
100
AcDbEntity
  8
SEIHIN
100
AcDbLine
 10
6224.306948403493
 20
2855.0
 30
0.0
 11
6224.306948403493
 21
2485.7
 31
0.0
  0
DIMENSION
  5
1499
330
17
100
AcDbEntity
  8
SUNPOU
100
AcDbDimension
  2
*D18
 10
5688.100531942524
 20
2485.7
 30
0.0
 11
5619.100531942523
 21
2670.350000000001
 31
0.0
 70
    32
 71
     5
 42
369.3000000000002
  3
A3-30
100
AcDbAlignedDimension
 13
6224.306948403493
 23
2855.0
 33
0.0
 14
6224.306948403493
 24
2485.7
 34
0.0
 50
90.0
100
AcDbRotatedDimension
  0
DIMENSION
  5
149C
330
17
100
AcDbEntity
  8
SUNPOU
100
AcDbDimension
  2
*D19
 10
8174.306948403493
 20
786.9081624758073
 30
0.0
 11
7224.306948403493
 21
855.9081624758073
 31
0.0
 70
    32
 71
     5
 42
1900.0
  3
A3-30
100
AcDbAlignedDimension
 13
6274.306948403493
 23
1255.0
 33
0.0
 14
8174.306948403493
 24
1255.000000000001
 34
0.0
100
AcDbRotatedDimension
  0
DIMENSION
  5
14A0
330
17
100
AcDbEntity
  8
SUNPOU
100
AcDbDimension
  2
*D20
 10
6224.306948403491
 20
3390.268456895872
 30
0.0
 11
7224.306948403491
 21
3459.268456895872
 31
0.0
 70
    32
 71
     5
 42
2000.0
  3
A3-30
100
AcDbAlignedDimension
 13
8224.306948403491
 23
2855.0
 33
0.0
 14
6224.306948403491
 24
2855.0
 34
0.0
 50
180.0
100
AcDbRotatedDimension
  0
DIMENSION
  5
14BA
330
17
100
AcDbEntity
  8
SUNPOU
100
AcDbDimension
  2
*D21
 10
5841.503330281914
 20
5298.605600928881
 30
0.0
 11
5772.503330281913
 21
4998.605600928882
 31
0.0
 70
    32
 71
     5
 42
600.0
  3
A3-30
100
AcDbAlignedDimension
 13
6224.306948403493
 23
4698.60560092888
 33
0.0
 14
6164.306948403493
 24
5298.60560092888
 34
0.0
 50
90.0
100
AcDbRotatedDimension
  0
DIMENSION
  5
14DE
330
17
100
AcDbEntity
  8
SUNPOU
100
AcDbDimension
  2
*D22
 10
1719.330712086616
 20
6948.605600928881
 30
0.0
 11
1650.330712086615
 21
5823.605600928881
 31
0.0
 70
    32
 71
     5
 42
2250.0
  3
A3-30
100
AcDbAlignedDimension
 13
2698.949558480406
 23
4698.60560092888
 33
0.0
 14
2698.949558480406
 24
6948.60560092888
 34
0.0
 50
90.0
100
AcDbRotatedDimension
  0
DIMENSION
  5
14DF
330
17
100
AcDbEntity
  8
SUNPOU
100
AcDbDimension
  2
*D23
 10
1922.171765226143
 20
6948.605600928881
 30
0.0
 11
1853.171765226142
 21
5913.605600928881
 31
0.0
 70
    32
 71
     5
 42
2070.0
  3
A3-30
100
AcDbAlignedDimension
 13
2638.949558480406
 23
4878.60560092888
 33
0.0
 14
2698.949558480406
 24
6948.60560092888
 34
0.0
 50
90.0
100
AcDbRotatedDimension
  0
DIMENSION
  5
14E6
330
17
100
AcDbEntity
  8
SUNPOU
100
AcDbDimension
  2
*D24
 10
4648.949558480406
 20
4775.842443034144
 30
0.0
 11
4579.949558480405
 21
4737.224021981513
 31
0.0
 70
    32
 71
     5
 42
77.23684210526335
  3
A3-30
100
AcDbAlignedDimension
 13
4298.949558480406
 23
4698.60560092888
 33
0.0
 14
4298.949558480406
 24
4775.842443034144
 34
0.0
 50
90.0
100
AcDbRotatedDimension
  0
DIMENSION
  5
14F1
330
17
100
AcDbEntity
  8
SUNPOU
100
AcDbDimension
  2
*D25
 10
4298.949558480406
 20
3896.056899959196
 30
0.0
 11
3498.949558480406
 21
3965.056899959196
 31
0.0
 70
    32
 71
     5
 42
1600.0
  3
A3-30
100
AcDbAlignedDimension
 13
2698.949558480406
 23
4698.60560092888
 33
0.0
 14
4298.949558480406
 24
4698.60560092888
 34
0.0
100
AcDbRotatedDimension
  0
DIMENSION
  5
14F2
330
17
100
AcDbEntity
  8
SUNPOU
100
AcDbDimension
  2
*D26
 10
2878.949558480406
 20
4097.587911948016
 30
0.0
 11
3588.949558480406
 21
4166.587911948016
 31
0.0
 70
    32
 71
     5
 42
1420.0
  3
A3-30
100
AcDbAlignedDimension
 13
4298.949558480406
 23
4698.60560092888
 33
0.0
 14
2878.949558480406
 24
4638.60560092888
 34
0.0
100
AcDbRotatedDimension
  0
DIMENSION
  5
1503
330
17
100
AcDbEntity
  8
SUNPOU
100
AcDbDimension
  2
*D27
 10
5636.093183747173
 20
4698.605600928881
 30
0.0
 11
5567.093183747172
 21
5823.605600928882
 31
0.0
 70
    32
 71
     5
 42
2250.0
  3
A3-30
100
AcDbAlignedDimension
 13
6224.306948403493
 23
6948.60560092888
 33
0.0
 14
6224.306948403493
 24
4698.60560092888
 34
0.0
 50
90.0
100
AcDbRotatedDimension
  0
DIMENSION
  5
150D
330
17
100
AcDbEntity
  8
SUNPOU
100
AcDbDimension
  2
*D28
 10
5493.098097899987
 20
1255.0
 30
0.0
 11
5424.098097899987
 21
2055.000000000002
 31
0.0
 70
    32
 71
     5
 42
1600.000000000002
  3
A3-30
100
AcDbAlignedDimension
 13
6224.306948403494
 23
2855.000000000002
 33
0.0
 14
6274.306948403492
 24
1255.0
 34
0.0
 50
90.0
100
AcDbRotatedDimension
  0
DIMENSION
  5
150E
330
17
100
AcDbEntity
  8
SUNPOU
100
AcDbDimension
  2
*D29
 10
5688.100531942524
 20
1255.0
 30
0.0
 11
5619.100531942524
 21
1870.350000000001
 31
0.0
 70
    32
 71
     5
 42
1230.7
  3
A3-30
100
AcDbAlignedDimension
 13
6224.306948403493
 23
2485.7
 33
0.0
 14
6274.306948403492
 24
1255.0
 34
0.0
 50
90.0
100
AcDbRotatedDimension
  0
DIMENSION
  5
1518
330
17
100
AcDbEntity
  8
SUNPOU
100
AcDbDimension
  2
*D30
 10
4648.949558480406
 20
6788.60560092888
 30
0.0
 11
4579.949558480404
 21
6868.605600928882
 31
0.0
 70
    32
 71
     5
 42
160.0000000000009
  3
A3-30
100
AcDbAlignedDimension
 13
2768.949558480406
 23
6948.605600928881
 33
0.0
 14
2768.949558480406
 24
6788.60560092888
 34
0.0
 50
90.0
100
AcDbRotatedDimension
  0
DIMENSION
  5
1519
330
17
100
AcDbEntity
  8
SUNPOU
100
AcDbDimension
  2
*D31
 10
4648.949558480406
 20
4775.842443034144
 30
0.0
 11
4579.949558480405
 21
5782.224021981513
 31
0.0
 70
    32
 71
     5
 42
2012.763157894737
  3
A3-30
100
AcDbAlignedDimension
 13
2768.949558480406
 23
6788.60560092888
 33
0.0
 14
4358.949558480406
 24
4775.842443034144
 34
0.0
 50
90.0
100
AcDbRotatedDimension
  0
LINE
  5
1552
330
17
100
AcDbEntity
  8
SEIHIN
100
AcDbLine
 10
6224.306948403493
 20
2485.7
 30
0.0
 11
6274.306948403492
 21
1255.0
 31
0.0
  0
TEXT
  5
213C
330
17
100
AcDbEntity
  8
SUNPOU
100
AcDbText
 10
2256.600755836007
 20
5531.101379465992
 30
0.0
 40
90.0
  1
水抜孔
 41
0.8
100
AcDbText
  0
LINE
  5
213D
330
17
100
AcDbEntity
  8
SUNPOU
100
AcDbLine
 10
2221.723883549232
 20
5517.871535580103
 30
0.0
 11
2541.157062938917
 21
5517.871535580103
 31
0.0
  0
LEADER
  5
213F
330
17
100
AcDbEntity
  8
SUNPOU
100
AcDbLeader
  3
A3-30
 76
     2
 10
2698.949558480406
 20
5298.60560092888
 30
0.0
 10
2541.157062938917
 20
5517.871535580103
 30
0.0
1001
ACAD
1000
DSTYLE
1002
{
1070
   147
1040
0.8
1070
    77
1070
     0
1002
}
  0
DIMENSION
  5
220E
330
17
100
AcDbEntity
  8
SUNPOU
100
AcDbDimension
  2
*D32
 10
8224.306948403493
 20
786.9081624758073
 30
0.0
 11
8199.306948403493
 21
855.9081624758073
 31
0.0
 70
    32
 71
     5
 42
50.0
  3
A3-30
100
AcDbAlignedDimension
 13
8174.306948403493
 23
1255.0
 33
0.0
 14
8224.306948403493
 24
1255.0
 34
0.0
100
AcDbRotatedDimension
  0
DIMENSION
  5
221C
330
17
100
AcDbEntity
  8
SUNPOU
100
AcDbDimension
  2
*D33
 10
6224.306948403493
 20
786.9081624758073
 30
0.0
 11
6249.306948403493
 21
855.9081624758073
 31
0.0
 70
    32
 71
     5
 42
50.0
  3
A3-30
100
AcDbAlignedDimension
 13
6274.306948403493
 23
1255.0
 33
0.0
 14
6224.306948403493
 24
1255.0
 34
0.0
 50
180.0
100
AcDbRotatedDimension
  0
LINE
  5
24C0
330
17
100
AcDbEntity
  8
SEIHIN
100
AcDbLine
 10
6274.306948403492
 20
4775.842443034143
 30
0.0
 11
8174.306948403494
 21
4775.842443034144
 31
0.0
  0
LINE
  5
24C2
330
17
100
AcDbEntity
  8
SEIHIN
100
AcDbLine
 10
6224.306948403494
 20
5064.906258823618
 30
0.0
 11
8224.306948403493
 21
5064.906258823619
 31
0.0
  0
LINE
  5
24C3
330
17
100
AcDbEntity
  8
SEIHIN
100
AcDbLine
 10
6274.306948403493
 20
4698.60560092888
 30
0.0
 11
6274.306948403492
 21
4775.842443034142
 31
0.0
  0
LINE
  5
24C4
330
17
100
AcDbEntity
  8
SEIHIN
100
AcDbLine
 10
6274.306948403493
 20
4775.842443034144
 30
0.0
 11
6224.306948403494
 21
4864.906258823618
 31
0.0
  0
LINE
  5
24C7
330
17
100
AcDbEntity
  8
SEIHIN
100
AcDbLine
 10
6224.306948403493
 20
2785.0
 30
0.0
 11
8224.306948403493
 21
2785.0
 31
0.0
  0
LINE
  5
24E2
330
17
100
AcDbEntity
  8
SEIHIN
100
AcDbLine
 10
6224.306948403493
 20
2485.7
 30
0.0
 11
8224.306948403493
 21
2485.7
 31
0.0
  0
LINE
  5
24FC
330
17
100
AcDbEntity
  8
SEIHIN
100
AcDbLine
 10
6224.306948403493
 20
2685.7
 30
0.0
 11
8224.306948403493
 21
2685.7
 31
0.0
  0
LINE
  5
24FD
330
17
100
AcDbEntity
  8
SEIHIN
100
AcDbLine
 10
8224.306948403491
 20
2855.0
 30
0.0
 11
8224.306948403491
 21
2485.7
 31
0.0
  0
LINE
  5
24FE
330
17
100
AcDbEntity
  8
SEIHIN
100
AcDbLine
 10
8224.306948403491
 20
2485.7
 30
0.0
 11
8174.306948403492
 21
1255.0
 31
0.0
  0
LINE
  5
2501
330
17
100
AcDbEntity
  8
SEIHIN
100
AcDbLine
 10
2868.220201219453
 20
5064.906258823618
 30
0.0
 11
3068.249558480407
 21
4864.906258823618
 31
0.0
  0
LINE
  5
2503
330
17
100
AcDbEntity
  8
SEIHIN
100
AcDbLine
 10
6224.306948403494
 20
4864.906258823618
 30
0.0
 11
8224.306948403493
 21
4864.906258823619
 31
0.0
  0
LINE
  5
2504
330
17
100
AcDbEntity
  8
SEIHIN
100
AcDbLine
 10
8174.306948403493
 20
4698.60560092888
 30
0.0
 11
8174.306948403494
 21
4775.842443034142
 31
0.0
  0
LINE
  5
2505
330
17
100
AcDbEntity
  8
SEIHIN
100
AcDbLine
 10
8174.306948403493
 20
4775.842443034144
 30
0.0
 11
8224.306948403493
 21
4864.906258823618
 31
0.0
  0
ENDSEC
  0
SECTION
  2
OBJECTS
  0
DICTIONARY
  5
C
330
0
100
AcDbDictionary
281
     1
  3
ACAD_COLOR
350
9AA
  3
ACAD_GROUP
350
D
  3
ACAD_LAYOUT
350
7B
  3
ACAD_MATERIAL
350
9A9
  3
ACAD_MLEADERSTYLE
350
2533
  3
ACAD_MLINESTYLE
350
1A
  3
ACAD_PLOTSETTINGS
350
7C
  3
ACAD_PLOTSTYLENAME
350
79
  3
ACAD_SCALELIST
350
250C
  3
ACAD_TABLESTYLE
350
9AB
  3
ACDB_RECOMPOSE_DATA
350
2532
  3
AcDbVariableDictionary
350
946
  0
DICTIONARY
  5
9AA
102
{ACAD_REACTORS
330
C
102
}
330
C
100
AcDbDictionary
281
     1
  0
DICTIONARY
  5
D
102
{ACAD_REACTORS
330
C
102
}
330
C
100
AcDbDictionary
281
     1
  0
DICTIONARY
  5
7B
102
{ACAD_REACTORS
330
C
102
}
330
C
100
AcDbDictionary
281
     1
  3
Model
350
7D
  3
ﾚｲｱｳﾄ1
350
7E
  0
DICTIONARY
  5
9A9
102
{ACAD_REACTORS
330
C
102
}
330
C
100
AcDbDictionary
281
     1
  0
DICTIONARY
  5
2533
102
{ACAD_REACTORS
330
C
102
}
330
C
100
AcDbDictionary
281
     1
  0
DICTIONARY
  5
1A
102
{ACAD_REACTORS
330
C
102
}
330
C
100
AcDbDictionary
281
     1
  3
STANDARD
350
1B
  0
DICTIONARY
  5
7C
102
{ACAD_REACTORS
330
C
102
}
330
C
100
AcDbDictionary
281
     1
  0
ACDBDICTIONARYWDFLT
  5
79
102
{ACAD_REACTORS
330
C
102
}
330
C
100
AcDbDictionary
281
     1
  3
Normal
350
7A
100
AcDbDictionaryWithDefault
340
7A
  0
DICTIONARY
  5
250C
102
{ACAD_REACTORS
330
C
102
}
330
C
100
AcDbDictionary
281
     1
  3
A0
350
250D
  3
A1
350
250E
  3
A2
350
250F
  3
A3
350
2510
  3
A4
350
2511
  3
A5
350
2512
  3
A6
350
2513
  3
A7
350
2514
  3
A8
350
2515
  3
A9
350
2516
  3
B0
350
2517
  3
B1
350
2518
  3
B2
350
2519
  3
B3
350
251A
  3
B4
350
251B
  3
B5
350
251C
  3
B6
350
251D
  3
B7
350
251E
  3
B8
350
251F
  3
B9
350
2520
  3
C0
350
2521
  3
C1
350
2522
  3
C2
350
2523
  3
C3
350
2524
  3
C4
350
2525
  3
C5
350
2526
  3
C6
350
2527
  3
C7
350
2528
  3
C8
350
2529
  3
C9
350
252A
  3
D0
350
252B
  3
D1
350
252C
  3
D2
350
252D
  0
DICTIONARY
  5
9AB
102
{ACAD_REACTORS
330
C
102
}
330
C
100
AcDbDictionary
281
     1
  3
Standard
350
9AC
  0
XRECORD
  5
2532
102
{ACAD_REACTORS
330
C
102
}
330
C
100
AcDbXrecord
280
     1
 90
        1
330
9AC
  0
DICTIONARY
  5
946
102
{ACAD_REACTORS
330
C
102
}
330
C
100
AcDbDictionary
281
     1
  3
CANNOSCALE
350
252E
  3
CTABLESTYLE
350
CC1
  3
DIMASSOC
350
947
  3
PROJECTNAME
350
CC2
  0
LAYOUT
  5
7D
102
{ACAD_REACTORS
330
7B
102
}
330
7B
100
AcDbPlotSettings
  1

  2
C:\PROGRAM FILES\MDT6\plotters\RICOH SP9II RPDL.pc3
  4
A3
  6

 40
5.873749732971191
 41
5.873758316040039
 42
4.349761962890625
 43
8.159759521484375
 44
420.1159973144531
 45
296.9259948730469
 46
0.0
 47
0.0
 48
0.0
 49
0.0
140
0.0
141
0.0
142
1.0
143
1.0
 70
 11952
 72
     0
 73
     0
 74
     0
  7
acad.ctb
 75
     0
 76
     0
 77
     2
 78
   300
147
1.0
148
-52067.63847066872
149
1270.867660243985
100
AcDbLayout
  1
Model
 70
     1
 71
     0
 10
0.0
 20
0.0
 11
12.0
 21
9.0
 12
0.0
 22
0.0
 32
0.0
 14
0.0
 24
0.0
 34
0.0
 15
0.0
 25
0.0
 35
0.0
146
0.0
 13
0.0
 23
0.0
 33
0.0
 16
1.0
 26
0.0
 36
0.0
 17
0.0
 27
1.0
 37
0.0
 76
     0
330
17
331
2506
  0
LAYOUT
  5
7E
102
{ACAD_REACTORS
330
7B
102
}
330
7B
100
AcDbPlotSettings
  1

  2
C:\PROGRAM FILES\MDT6\plotters\RICOH SP9II RPDL.pc3
  4

  6

 40
0.0
 41
0.0
 42
0.0
 43
0.0
 44
0.0
 45
0.0
 46
0.0
 47
0.0
 48
0.0
 49
0.0
140
0.0
141
0.0
142
1.0
143
1.0
 70
   688
 72
     0
 73
     0
 74
     5
  7
acad.ctb
 75
    16
 76
     0
 77
     2
 78
   300
147
1.0
148
0.0
149
0.0
100
AcDbLayout
  1
ﾚｲｱｳﾄ1
 70
     0
 71
     1
 10
0.0
 20
0.0
 11
12.0
 21
9.0
 12
0.0
 22
0.0
 32
0.0
 14
1.000000000000000E+20
 24
1.000000000000000E+20
 34
1.000000000000000E+20
 15
-1.000000000000000E+20
 25
-1.000000000000000E+20
 35
-1.000000000000000E+20
146
0.0
 13
0.0
 23
0.0
 33
0.0
 16
1.0
 26
0.0
 36
0.0
 17
0.0
 27
1.0
 37
0.0
 76
     0
330
14
  0
MLINESTYLE
  5
1B
102
{ACAD_REACTORS
330
1A
102
}
330
1A
100
AcDbMlineStyle
  2
STANDARD
 70
     0
  3

 62
   256
 51
90.0
 52
90.0
 71
     2
 49
0.5
 62
   256
  6
BYLAYER
 49
-0.5
 62
   256
  6
BYLAYER
  0
ACDBPLACEHOLDER
  5
7A
102
{ACAD_REACTORS
330
79
102
}
330
79
  0
SCALE
  5
250D
102
{ACAD_REACTORS
330
250C
102
}
330
250C
100
AcDbScale
 70
     0
300
1:1
140
1.0
141
1.0
290
     1
  0
SCALE
  5
250E
102
{ACAD_REACTORS
330
250C
102
}
330
250C
100
AcDbScale
 70
     0
300
1:2
140
1.0
141
2.0
290
     0
  0
SCALE
  5
250F
102
{ACAD_REACTORS
330
250C
102
}
330
250C
100
AcDbScale
 70
     0
300
1:4
140
1.0
141
4.0
290
     0
  0
SCALE
  5
2510
102
{ACAD_REACTORS
330
250C
102
}
330
250C
100
AcDbScale
 70
     0
300
1:5
140
1.0
141
5.0
290
     0
  0
SCALE
  5
2511
102
{ACAD_REACTORS
330
250C
102
}
330
250C
100
AcDbScale
 70
     0
300
1:8
140
1.0
141
8.0
290
     0
  0
SCALE
  5
2512
102
{ACAD_REACTORS
330
250C
102
}
330
250C
100
AcDbScale
 70
     0
300
1:10
140
1.0
141
10.0
290
     0
  0
SCALE
  5
2513
102
{ACAD_REACTORS
330
250C
102
}
330
250C
100
AcDbScale
 70
     0
300
1:16
140
1.0
141
16.0
290
     0
  0
SCALE
  5
2514
102
{ACAD_REACTORS
330
250C
102
}
330
250C
100
AcDbScale
 70
     0
300
1:20
140
1.0
141
20.0
290
     0
  0
SCALE
  5
2515
102
{ACAD_REACTORS
330
250C
102
}
330
250C
100
AcDbScale
 70
     0
300
1:30
140
1.0
141
30.0
290
     0
  0
SCALE
  5
2516
102
{ACAD_REACTORS
330
250C
102
}
330
250C
100
AcDbScale
 70
     0
300
1:40
140
1.0
141
40.0
290
     0
  0
SCALE
  5
2517
102
{ACAD_REACTORS
330
250C
102
}
330
250C
100
AcDbScale
 70
     0
300
1:50
140
1.0
141
50.0
290
     0
  0
SCALE
  5
2518
102
{ACAD_REACTORS
330
250C
102
}
330
250C
100
AcDbScale
 70
     0
300
1:100
140
1.0
141
100.0
290
     0
  0
SCALE
  5
2519
102
{ACAD_REACTORS
330
250C
102
}
330
250C
100
AcDbScale
 70
     0
300
2:1
140
2.0
141
1.0
290
     0
  0
SCALE
  5
251A
102
{ACAD_REACTORS
330
250C
102
}
330
250C
100
AcDbScale
 70
     0
300
4:1
140
4.0
141
1.0
290
     0
  0
SCALE
  5
251B
102
{ACAD_REACTORS
330
250C
102
}
330
250C
100
AcDbScale
 70
     0
300
8:1
140
8.0
141
1.0
290
     0
  0
SCALE
  5
251C
102
{ACAD_REACTORS
330
250C
102
}
330
250C
100
AcDbScale
 70
     0
300
10:1
140
10.0
141
1.0
290
     0
  0
SCALE
  5
251D
102
{ACAD_REACTORS
330
250C
102
}
330
250C
100
AcDbScale
 70
     0
300
100:1
140
100.0
141
1.0
290
     0
  0
SCALE
  5
251E
102
{ACAD_REACTORS
330
250C
102
}
330
250C
100
AcDbScale
 70
     0
300
1/128" = 1'-0"
140
0.0078125
141
12.0
290
     0
  0
SCALE
  5
251F
102
{ACAD_REACTORS
330
250C
102
}
330
250C
100
AcDbScale
 70
     0
300
1/64" = 1'-0"
140
0.015625
141
12.0
290
     0
  0
SCALE
  5
2520
102
{ACAD_REACTORS
330
250C
102
}
330
250C
100
AcDbScale
 70
     0
300
1/32" = 1'-0"
140
0.03125
141
12.0
290
     0
  0
SCALE
  5
2521
102
{ACAD_REACTORS
330
250C
102
}
330
250C
100
AcDbScale
 70
     0
300
1/16" = 1'-0"
140
0.0625
141
12.0
290
     0
  0
SCALE
  5
2522
102
{ACAD_REACTORS
330
250C
102
}
330
250C
100
AcDbScale
 70
     0
300
3/32" = 1'-0"
140
0.09375
141
12.0
290
     0
  0
SCALE
  5
2523
102
{ACAD_REACTORS
330
250C
102
}
330
250C
100
AcDbScale
 70
     0
300
1/8" = 1'-0"
140
0.125
141
12.0
290
     0
  0
SCALE
  5
2524
102
{ACAD_REACTORS
330
250C
102
}
330
250C
100
AcDbScale
 70
     0
300
3/16" = 1'-0"
140
0.1875
141
12.0
290
     0
  0
SCALE
  5
2525
102
{ACAD_REACTORS
330
250C
102
}
330
250C
100
AcDbScale
 70
     0
300
1/4" = 1'-0"
140
0.25
141
12.0
290
     0
  0
SCALE
  5
2526
102
{ACAD_REACTORS
330
250C
102
}
330
250C
100
AcDbScale
 70
     0
300
3/8" = 1'-0"
140
0.375
141
12.0
290
     0
  0
SCALE
  5
2527
102
{ACAD_REACTORS
330
250C
102
}
330
250C
100
AcDbScale
 70
     0
300
1/2" = 1'-0"
140
0.5
141
12.0
290
     0
  0
SCALE
  5
2528
102
{ACAD_REACTORS
330
250C
102
}
330
250C
100
AcDbScale
 70
     0
300
3/4" = 1'-0"
140
0.75
141
12.0
290
     0
  0
SCALE
  5
2529
102
{ACAD_REACTORS
330
250C
102
}
330
250C
100
AcDbScale
 70
     0
300
1" = 1'-0"
140
1.0
141
12.0
290
     0
  0
SCALE
  5
252A
102
{ACAD_REACTORS
330
250C
102
}
330
250C
100
AcDbScale
 70
     0
300
1-1/2" = 1'-0"
140
1.5
141
12.0
290
     0
  0
SCALE
  5
252B
102
{ACAD_REACTORS
330
250C
102
}
330
250C
100
AcDbScale
 70
     0
300
3" = 1'-0"
140
3.0
141
12.0
290
     0
  0
SCALE
  5
252C
102
{ACAD_REACTORS
330
250C
102
}
330
250C
100
AcDbScale
 70
     0
300
6" = 1'-0"
140
6.0
141
12.0
290
     0
  0
SCALE
  5
252D
102
{ACAD_REACTORS
330
250C
102
}
330
250C
100
AcDbScale
 70
     0
300
1'-0" = 1'-0"
140
12.0
141
12.0
290
     0
  0
TABLESTYLE
  5
9AC
102
{ACAD_REACTORS
330
9AB
102
}
102
{ACAD_XDICTIONARY
360
252F
102
}
330
9AB
100
AcDbTableStyle
  3
Standard
 70
     0
 71
     0
 40
0.06
 41
0.06
280
     0
281
     0
  7
STANDARD
140
0.18
170
     2
 62
     0
 63
   257
283
     0
274
    -2
284
     1
 64
     0
275
    -2
285
     1
 65
     0
276
    -2
286
     1
 66
     0
277
    -2
287
     1
 67
     0
278
    -2
288
     1
 68
     0
279
    -2
289
     1
 69
     0
  7
STANDARD
140
0.25
170
     5
 62
     0
 63
   257
283
     0
274
    -2
284
     1
 64
     0
275
    -2
285
     1
 65
     0
276
    -2
286
     1
 66
     0
277
    -2
287
     1
 67
     0
278
    -2
288
     1
 68
     0
279
    -2
289
     1
 69
     0
  7
STANDARD
140
0.18
170
     5
 62
     0
 63
   257
283
     0
274
    -2
284
     1
 64
     0
275
    -2
285
     1
 65
     0
276
    -2
286
     1
 66
     0
277
    -2
287
     1
 67
     0
278
    -2
288
     1
 68
     0
279
    -2
289
     1
 69
     0
  0
DICTIONARYVAR
  5
252E
102
{ACAD_REACTORS
330
946
102
}
330
946
100
DictionaryVariables
280
     0
  1
1:1
  0
DICTIONARYVAR
  5
CC1
102
{ACAD_REACTORS
330
946
102
}
330
946
100
DictionaryVariables
280
     0
  1
Standard
  0
DICTIONARYVAR
  5
947
102
{ACAD_REACTORS
330
946
102
}
330
946
100
DictionaryVariables
280
     0
  1
1
  0
DICTIONARYVAR
  5
CC2
102
{ACAD_REACTORS
330
946
102
}
330
946
100
DictionaryVariables
280
     0
  1

  0
DICTIONARY
  5
252F
330
9AC
100
AcDbDictionary
280
     1
281
     1
  3
ACAD_ROUNDTRIP_2008_TABLESTYLE_CELLSTYLEMAP
360
2531
  3
ACAD_XREC_ROUNDTRIP
360
2530
  0
CELLSTYLEMAP
  5
2531
102
{ACAD_REACTORS
330
252F
102
}
330
252F
100
AcDbCellStyleMap
 90
        3
300
CELLSTYLE
  1
TABLEFORMAT_BEGIN
 90
        5
170
     1
 91
        0
 92
    32768
 62
   257
 93
        1
300
CONTENTFORMAT
  1
CONTENTFORMAT_BEGIN
 90
        0
 91
        0
 92
        4
 93
        0
300

 40
0.0
140
1.0
 94
        5
 62
     0
340
F
144
0.25
309
CONTENTFORMAT_END
171
     1
301
MARGIN
  1
CELLMARGIN_BEGIN
 40
0.06
 40
0.06
 40
0.06
 40
0.06
 40
0.06
 40
0.06
309
CELLMARGIN_END
 94
        6
 95
        1
302
GRIDFORMAT
  1
GRIDFORMAT_BEGIN
 90
        0
 91
        1
 62
     0
 92
       -2
340
0
 93
        0
 40
0.045
309
GRIDFORMAT_END
 95
        2
302
GRIDFORMAT
  1
GRIDFORMAT_BEGIN
 90
        0
 91
        1
 62
     0
 92
       -2
340
0
 93
        0
 40
0.045
309
GRIDFORMAT_END
 95
        4
302
GRIDFORMAT
  1
GRIDFORMAT_BEGIN
 90
        0
 91
        1
 62
     0
 92
       -2
340
0
 93
        0
 40
0.045
309
GRIDFORMAT_END
 95
        8
302
GRIDFORMAT
  1
GRIDFORMAT_BEGIN
 90
        0
 91
        1
 62
     0
 92
       -2
340
0
 93
        0
 40
0.045
309
GRIDFORMAT_END
 95
       16
302
GRIDFORMAT
  1
GRIDFORMAT_BEGIN
 90
        0
 91
        1
 62
     0
 92
       -2
340
0
 93
        0
 40
0.045
309
GRIDFORMAT_END
 95
       32
302
GRIDFORMAT
  1
GRIDFORMAT_BEGIN
 90
        0
 91
        1
 62
     0
 92
       -2
340
0
 93
        0
 40
0.045
309
GRIDFORMAT_END
309
TABLEFORMAT_END
  1
CELLSTYLE_BEGIN
 90
        1
 91
        1
300
_TITLE
309
CELLSTYLE_END
300
CELLSTYLE
  1
TABLEFORMAT_BEGIN
 90
        5
170
     1
 91
        0
 92
        0
 62
   257
 93
        1
300
CONTENTFORMAT
  1
CONTENTFORMAT_BEGIN
 90
        0
 91
        0
 92
        4
 93
        0
300

 40
0.0
140
1.0
 94
        5
 62
     0
340
F
144
0.18
309
CONTENTFORMAT_END
171
     1
301
MARGIN
  1
CELLMARGIN_BEGIN
 40
0.06
 40
0.06
 40
0.06
 40
0.06
 40
0.06
 40
0.06
309
CELLMARGIN_END
 94
        6
 95
        1
302
GRIDFORMAT
  1
GRIDFORMAT_BEGIN
 90
        0
 91
        1
 62
     0
 92
       -2
340
0
 93
        0
 40
0.045
309
GRIDFORMAT_END
 95
        2
302
GRIDFORMAT
  1
GRIDFORMAT_BEGIN
 90
        0
 91
        1
 62
     0
 92
       -2
340
0
 93
        0
 40
0.045
309
GRIDFORMAT_END
 95
        4
302
GRIDFORMAT
  1
GRIDFORMAT_BEGIN
 90
        0
 91
        1
 62
     0
 92
       -2
340
0
 93
        0
 40
0.045
309
GRIDFORMAT_END
 95
        8
302
GRIDFORMAT
  1
GRIDFORMAT_BEGIN
 90
        0
 91
        1
 62
     0
 92
       -2
340
0
 93
        0
 40
0.045
309
GRIDFORMAT_END
 95
       16
302
GRIDFORMAT
  1
GRIDFORMAT_BEGIN
 90
        0
 91
        1
 62
     0
 92
       -2
340
0
 93
        0
 40
0.045
309
GRIDFORMAT_END
 95
       32
302
GRIDFORMAT
  1
GRIDFORMAT_BEGIN
 90
        0
 91
        1
 62
     0
 92
       -2
340
0
 93
        0
 40
0.045
309
GRIDFORMAT_END
309
TABLEFORMAT_END
  1
CELLSTYLE_BEGIN
 90
        2
 91
        1
300
_HEADER
309
CELLSTYLE_END
300
CELLSTYLE
  1
TABLEFORMAT_BEGIN
 90
        5
170
     1
 91
        0
 92
        0
 62
   257
 93
        1
300
CONTENTFORMAT
  1
CONTENTFORMAT_BEGIN
 90
        0
 91
        0
 92
        4
 93
        0
300

 40
0.0
140
1.0
 94
        2
 62
     0
340
F
144
0.18
309
CONTENTFORMAT_END
171
     1
301
MARGIN
  1
CELLMARGIN_BEGIN
 40
0.06
 40
0.06
 40
0.06
 40
0.06
 40
0.06
 40
0.06
309
CELLMARGIN_END
 94
        6
 95
        1
302
GRIDFORMAT
  1
GRIDFORMAT_BEGIN
 90
        0
 91
        1
 62
     0
 92
       -2
340
0
 93
        0
 40
0.045
309
GRIDFORMAT_END
 95
        2
302
GRIDFORMAT
  1
GRIDFORMAT_BEGIN
 90
        0
 91
        1
 62
     0
 92
       -2
340
0
 93
        0
 40
0.045
309
GRIDFORMAT_END
 95
        4
302
GRIDFORMAT
  1
GRIDFORMAT_BEGIN
 90
        0
 91
        1
 62
     0
 92
       -2
340
0
 93
        0
 40
0.045
309
GRIDFORMAT_END
 95
        8
302
GRIDFORMAT
  1
GRIDFORMAT_BEGIN
 90
        0
 91
        1
 62
     0
 92
       -2
340
0
 93
        0
 40
0.045
309
GRIDFORMAT_END
 95
       16
302
GRIDFORMAT
  1
GRIDFORMAT_BEGIN
 90
        0
 91
        1
 62
     0
 92
       -2
340
0
 93
        0
 40
0.045
309
GRIDFORMAT_END
 95
       32
302
GRIDFORMAT
  1
GRIDFORMAT_BEGIN
 90
        0
 91
        1
 62
     0
 92
       -2
340
0
 93
        0
 40
0.045
309
GRIDFORMAT_END
309
TABLEFORMAT_END
  1
CELLSTYLE_BEGIN
 90
        3
 91
        2
300
_DATA
309
CELLSTYLE_END
  0
XRECORD
  5
2530
102
{ACAD_REACTORS
330
252F
102
}
330
252F
100
AcDbXrecord
280
     1
102
ACAD_ROUNDTRIP_PRE2007_TABLESTYLE
 90
        4
 91
        0
  1

 92
        4
 93
        0
  2

 94
        4
 95
        0
  3

  0
ENDSEC
  0
EOF
