  0
SECTION
  2
HEADER
  9
$ACADVER
  1
AC1018
  9
$ACADMAINTVER
 70
     0
  9
$DWGCODEPAGE
  3
ANSI_932
  9
$INSBASE
 10
0.0
 20
0.0
 30
0.0
  9
$EXTMIN
 10
510.0
 20
0.0
 30
0.0
  9
$EXTMAX
 10
12000.0
 20
8310.0
 30
0.0
  9
$LIMMIN
 10
0.0
 20
0.0
  9
$LIMMAX
 10
12600.0
 20
8910.0
  9
$ORTHOMODE
 70
     1
  9
$REGENMODE
 70
     1
  9
$FILLMODE
 70
     1
  9
$QTEXTMODE
 70
     0
  9
$MIRRTEXT
 70
     1
  9
$LTSCALE
 40
300.0
  9
$ATTMODE
 70
     1
  9
$TEXTSIZE
 40
90.0
  9
$TRACEWID
 40
0.05
  9
$TEXTSTYLE
  7
STANDARD
  9
$CLAYER
  8
SUNPOU
  9
$CELTYPE
  6
BYLAYER
  9
$CECOLOR
 62
   256
  9
$CELTSCALE
 40
1.0
  9
$DISPSILH
 70
     0
  9
$DIMSCALE
 40
30.0
  9
$DIMASZ
 40
2.0
  9
$DIMEXO
 40
2.0
  9
$DIMDLI
 40
7.0
  9
$DIMRND
 40
0.0
  9
$DIMDLE
 40
0.0
  9
$DIMEXE
 40
0.5
  9
$DIMTP
 40
0.0
  9
$DIMTM
 40
0.0
  9
$DIMTXT
 40
3.0
  9
$DIMCEN
 40
0.0
  9
$DIMTSZ
 40
0.0
  9
$DIMTOL
 70
     0
  9
$DIMLIM
 70
     0
  9
$DIMTIH
 70
     0
  9
$DIMTOH
 70
     0
  9
$DIMSE1
 70
     0
  9
$DIMSE2
 70
     0
  9
$DIMTAD
 70
     1
  9
$DIMZIN
 70
     8
  9
$DIMBLK
  1

  9
$DIMASO
 70
     1
  9
$DIMSHO
 70
     1
  9
$DIMPOST
  1

  9
$DIMAPOST
  1

  9
$DIMALT
 70
     0
  9
$DIMALTD
 70
     2
  9
$DIMALTF
 40
25.4
  9
$DIMLFAC
 40
1.0
  9
$DIMTOFL
 70
     0
  9
$DIMTVP
 40
1.0
  9
$DIMTIX
 70
     1
  9
$DIMSOXD
 70
     0
  9
$DIMSAH
 70
     0
  9
$DIMBLK1
  1

  9
$DIMBLK2
  1

  9
$DIMSTYLE
  2
A3-30
  9
$DIMCLRD
 70
     0
  9
$DIMCLRE
 70
     0
  9
$DIMCLRT
 70
     0
  9
$DIMTFAC
 40
1.0
  9
$DIMGAP
 40
0.8
  9
$DIMJUST
 70
     0
  9
$DIMSD1
 70
     0
  9
$DIMSD2
 70
     0
  9
$DIMTOLJ
 70
     1
  9
$DIMTZIN
 70
     8
  9
$DIMALTZ
 70
     8
  9
$DIMALTTZ
 70
     8
  9
$DIMUPT
 70
     0
  9
$DIMDEC
 70
     0
  9
$DIMTDEC
 70
     0
  9
$DIMALTU
 70
     2
  9
$DIMALTTD
 70
     2
  9
$DIMTXSTY
  7
STANDARD
  9
$DIMAUNIT
 70
     0
  9
$DIMADEC
 70
     4
  9
$DIMALTRND
 40
0.0
  9
$DIMAZIN
 70
     0
  9
$DIMDSEP
 70
    46
  9
$DIMATFIT
 70
     3
  9
$DIMFRAC
 70
     0
  9
$DIMLDRBLK
  1

  9
$DIMLUNIT
 70
     2
  9
$DIMLWD
 70
    -2
  9
$DIMLWE
 70
    -2
  9
$DIMTMOVE
 70
     2
  9
$LUNITS
 70
     2
  9
$LUPREC
 70
     4
  9
$SKETCHINC
 40
0.1
  9
$FILLETRAD
 40
0.0
  9
$AUNITS
 70
     0
  9
$AUPREC
 70
     6
  9
$MENU
  1
acad
  9
$ELEVATION
 40
0.0
  9
$PELEVATION
 40
0.0
  9
$THICKNESS
 40
0.0
  9
$LIMCHECK
 70
     0
  9
$CHAMFERA
 40
0.0
  9
$CHAMFERB
 40
0.0
  9
$CHAMFERC
 40
0.0
  9
$CHAMFERD
 40
0.0
  9
$SKPOLY
 70
     0
  9
$TDCREATE
 40
2450014.659421296
  9
$TDUCREATE
 40
2450014.284421296
  9
$TDUPDATE
 40
2455355.372542488
  9
$TDUUPDATE
 40
2455354.997542488
  9
$TDINDWG
 40
0.0675838889
  9
$TDUSRTIMER
 40
0.0675838889
  9
$USRTIMER
 70
     1
  9
$ANGBASE
 50
0.0
  9
$ANGDIR
 70
     0
  9
$PDMODE
 70
     0
  9
$PDSIZE
 40
0.0
  9
$PLINEWID
 40
0.0
  9
$SPLFRAME
 70
     0
  9
$SPLINETYPE
 70
     6
  9
$SPLINESEGS
 70
     8
  9
$HANDSEED
  5
2793
  9
$SURFTAB1
 70
     6
  9
$SURFTAB2
 70
     6
  9
$SURFTYPE
 70
     6
  9
$SURFU
 70
     6
  9
$SURFV
 70
     6
  9
$UCSBASE
  2

  9
$UCSNAME
  2

  9
$UCSORG
 10
0.0
 20
0.0
 30
0.0
  9
$UCSXDIR
 10
1.0
 20
0.0
 30
0.0
  9
$UCSYDIR
 10
0.0
 20
1.0
 30
0.0
  9
$UCSORTHOREF
  2

  9
$UCSORTHOVIEW
 70
     0
  9
$UCSORGTOP
 10
0.0
 20
0.0
 30
0.0
  9
$UCSORGBOTTOM
 10
0.0
 20
0.0
 30
0.0
  9
$UCSORGLEFT
 10
0.0
 20
0.0
 30
0.0
  9
$UCSORGRIGHT
 10
0.0
 20
0.0
 30
0.0
  9
$UCSORGFRONT
 10
0.0
 20
0.0
 30
0.0
  9
$UCSORGBACK
 10
0.0
 20
0.0
 30
0.0
  9
$PUCSBASE
  2

  9
$PUCSNAME
  2

  9
$PUCSORG
 10
0.0
 20
0.0
 30
0.0
  9
$PUCSXDIR
 10
1.0
 20
0.0
 30
0.0
  9
$PUCSYDIR
 10
0.0
 20
1.0
 30
0.0
  9
$PUCSORTHOREF
  2

  9
$PUCSORTHOVIEW
 70
     0
  9
$PUCSORGTOP
 10
0.0
 20
0.0
 30
0.0
  9
$PUCSORGBOTTOM
 10
0.0
 20
0.0
 30
0.0
  9
$PUCSORGLEFT
 10
0.0
 20
0.0
 30
0.0
  9
$PUCSORGRIGHT
 10
0.0
 20
0.0
 30
0.0
  9
$PUCSORGFRONT
 10
0.0
 20
0.0
 30
0.0
  9
$PUCSORGBACK
 10
0.0
 20
0.0
 30
0.0
  9
$USERI1
 70
     0
  9
$USERI2
 70
     0
  9
$USERI3
 70
     0
  9
$USERI4
 70
     0
  9
$USERI5
 70
     0
  9
$USERR1
 40
0.0
  9
$USERR2
 40
0.0
  9
$USERR3
 40
0.0
  9
$USERR4
 40
0.0
  9
$USERR5
 40
0.0
  9
$WORLDVIEW
 70
     1
  9
$SHADEDGE
 70
     3
  9
$SHADEDIF
 70
    70
  9
$TILEMODE
 70
     1
  9
$MAXACTVP
 70
    48
  9
$PINSBASE
 10
0.0
 20
0.0
 30
0.0
  9
$PLIMCHECK
 70
     0
  9
$PEXTMIN
 10
1.000000000000000E+20
 20
1.000000000000000E+20
 30
1.000000000000000E+20
  9
$PEXTMAX
 10
-1.000000000000000E+20
 20
-1.000000000000000E+20
 30
-1.000000000000000E+20
  9
$PLIMMIN
 10
0.0
 20
0.0
  9
$PLIMMAX
 10
12.0
 20
9.0
  9
$UNITMODE
 70
     0
  9
$VISRETAIN
 70
     0
  9
$PLINEGEN
 70
     0
  9
$PSLTSCALE
 70
     0
  9
$TREEDEPTH
 70
  3020
  9
$CMLSTYLE
  2
STANDARD
  9
$CMLJUST
 70
     0
  9
$CMLSCALE
 40
1.0
  9
$PROXYGRAPHICS
 70
     1
  9
$MEASUREMENT
 70
     0
  9
$CELWEIGHT
370
    -1
  9
$ENDCAPS
280
     0
  9
$JOINSTYLE
280
     0
  9
$LWDISPLAY
290
     0
  9
$INSUNITS
 70
     0
  9
$HYPERLINKBASE
  1

  9
$STYLESHEET
  1
acad.ctb
  9
$XEDIT
290
     1
  9
$CEPSNTYPE
380
     0
  9
$PSTYLEMODE
290
     1
  9
$FINGERPRINTGUID
  2
{9E4B692F-34DC-11D6-9351-0080AD72C8A3}
  9
$VERSIONGUID
  2
{B1155FFE-9835-410C-942A-0E8120C03943}
  9
$EXTNAMES
290
     1
  9
$PSVPSCALE
 40
0.0
  9
$OLESTARTUP
290
     0
  9
$SORTENTS
280
   127
  9
$INDEXCTL
280
     0
  9
$HIDETEXT
280
     1
  9
$XCLIPFRAME
290
     0
  9
$HALOGAP
280
     0
  9
$OBSCOLOR
 70
   257
  9
$OBSLTYPE
280
     0
  9
$INTERSECTIONDISPLAY
280
     0
  9
$INTERSECTIONCOLOR
 70
   257
  9
$DIMASSOC
280
     1
  9
$PROJECTNAME
  1

  0
ENDSEC
  0
SECTION
  2
CLASSES
  0
CLASS
  1
ACDBDICTIONARYWDFLT
  2
AcDbDictionaryWithDefault
  3
ObjectDBX Classes
 90
        0
 91
        4
280
     0
281
     0
  0
CLASS
  1
ACDBPLACEHOLDER
  2
AcDbPlaceHolder
  3
ObjectDBX Classes
 90
        0
 91
        1
280
     0
281
     0
  0
CLASS
  1
LAYOUT
  2
AcDbLayout
  3
ObjectDBX Classes
 90
        0
 91
        1
280
     0
281
     0
  0
CLASS
  1
DICTIONARYVAR
  2
AcDbDictionaryVar
  3
ObjectDBX Classes
 90
        0
 91
        4
280
     0
281
     0
  0
CLASS
  1
DUMMY
  2
AcDbLongTransaction
  3
DUMMY
 90
        0
 91
        1
280
     0
281
     0
  0
CLASS
  1
LWPOLYLINE
  2
AcDbPolyline
  3
AutoCAD 2000
 90
        0
 91
        1
280
     0
281
     1
  0
CLASS
  1
HATCH
  2
AcDbHatch
  3
AutoCAD 2000
 90
        0
 91
        1
280
     0
281
     1
  0
CLASS
  1
XRECORD
  2
AcDbXrecord
  3
AutoCAD 2000
 90
        0
 91
        1
280
     0
281
     0
  0
CLASS
  1
DUMMY
  2
AcDbLongTransaction
  3
DUMMY
 90
        0
 91
        1
280
     0
281
     0
  0
CLASS
  1
LWPOLYLINE
  2
AcDbPolyline
  3
AutoCAD 2000
 90
        0
 91
        1
280
     0
281
     1
  0
CLASS
  1
HATCH
  2
AcDbHatch
  3
AutoCAD 2000
 90
        0
 91
        1
280
     0
281
     1
  0
CLASS
  1
XRECORD
  2
AcDbXrecord
  3
AutoCAD 2000
 90
        0
 91
        1
280
     0
281
     0
  0
CLASS
  1
DUMMY
  2
AcDbLongTransaction
  3
DUMMY
 90
        0
 91
        1
280
     0
281
     0
  0
CLASS
  1
LWPOLYLINE
  2
AcDbPolyline
  3
AutoCAD 2000
 90
        0
 91
        1
280
     0
281
     1
  0
CLASS
  1
HATCH
  2
AcDbHatch
  3
AutoCAD 2000
 90
        0
 91
        1
280
     0
281
     1
  0
CLASS
  1
XRECORD
  2
AcDbXrecord
  3
AutoCAD 2000
 90
        0
 91
        1
280
     0
281
     0
  0
CLASS
  1
TABLESTYLE
  2
AcDbTableStyle
  3
ObjectDBX Classes
 90
     4095
 91
        4
280
     0
281
     0
  0
CLASS
  1
SCALE
  2
AcDbScale
  3
ObjectDBX Classes
 90
     1153
 91
        4
280
     0
281
     0
  0
CLASS
  1
CELLSTYLEMAP
  2
AcDbCellStyleMap
  3
ObjectDBX Classes
 90
     1152
 91
        4
280
     0
281
     0
  0
ENDSEC
  0
SECTION
  2
TABLES
  0
TABLE
  2
VPORT
  5
8
330
0
100
AcDbSymbolTable
 70
     2
  0
VPORT
  5
2765
330
8
100
AcDbSymbolTableRecord
100
AcDbViewportTableRecord
  2
*Active
 70
     0
 10
0.0
 20
0.0
 11
1.0
 21
1.0
 12
6393.679938043899
 22
4186.335149191087
 13
0.0
 23
0.0
 14
30.0
 24
30.0
 15
300.0
 25
300.0
 16
0.0
 26
0.0
 36
1.0
 17
0.0
 27
0.0
 37
0.0
 40
10401.34152373829
 41
1.507024265644955
 42
50.0
 43
0.0
 44
0.0
 50
0.0
 51
0.0
 71
     0
 72
   100
 73
     1
 74
     1
 75
     0
 76
     0
 77
     0
 78
     0
281
     0
 65
     1
110
0.0
120
0.0
130
0.0
111
1.0
121
0.0
131
0.0
112
0.0
122
1.0
132
0.0
 79
     0
146
0.0
  0
ENDTAB
  0
TABLE
  2
LTYPE
  5
5
330
0
100
AcDbSymbolTable
 70
     4
  0
LTYPE
  5
11
330
5
100
AcDbSymbolTableRecord
100
AcDbLinetypeTableRecord
  2
BYBLOCK
 70
     0
  3

 72
    65
 73
     0
 40
0.0
  0
LTYPE
  5
12
330
5
100
AcDbSymbolTableRecord
100
AcDbLinetypeTableRecord
  2
BYLAYER
 70
     0
  3

 72
    65
 73
     0
 40
0.0
  0
LTYPE
  5
13
330
5
100
AcDbSymbolTableRecord
100
AcDbLinetypeTableRecord
  2
CONTINUOUS
 70
     0
  3
Solid line
 72
    65
 73
     0
 40
0.0
  0
LTYPE
  5
1E
330
5
100
AcDbSymbolTableRecord
100
AcDbLinetypeTableRecord
  2
HIDDEN
 70
     0
  3
_ _ _ _ _ _ _ _ _ _ _ _ _ _ _ _ _ _ _ _ _ _ _
 72
    65
 73
     2
 40
0.375
 49
0.25
 74
     0
 49
-0.125
 74
     0
  0
LTYPE
  5
1F
330
5
100
AcDbSymbolTableRecord
100
AcDbLinetypeTableRecord
  2
CENTER
 70
     0
  3
____ _ ____ _ ____ _ ____ _ ____ _ ____ _ ____
 72
    65
 73
     4
 40
2.0
 49
1.25
 74
     0
 49
-0.25
 74
     0
 49
0.25
 74
     0
 49
-0.25
 74
     0
  0
LTYPE
  5
20
330
5
100
AcDbSymbolTableRecord
100
AcDbLinetypeTableRecord
  2
PHANTOM
 70
     0
  3
_____ _ _ _____ _ _ _____ _ _ _____ _ _ ____
 72
    65
 73
     6
 40
2.5
 49
1.25
 74
     0
 49
-0.25
 74
     0
 49
0.25
 74
     0
 49
-0.25
 74
     0
 49
0.25
 74
     0
 49
-0.25
 74
     0
  0
ENDTAB
  0
TABLE
  2
LAYER
  5
2
330
0
100
AcDbSymbolTable
 70
    10
  0
LAYER
  5
E
330
2
100
AcDbSymbolTableRecord
100
AcDbLayerTableRecord
  2
0
 70
     0
 62
     7
  6
CONTINUOUS
370
    -3
390
7A
  0
LAYER
  5
23
330
2
100
AcDbSymbolTableRecord
100
AcDbLayerTableRecord
  2
SUNPOU
 70
     0
 62
     1
  6
CONTINUOUS
370
    -3
390
7A
  0
LAYER
  5
24
330
2
100
AcDbSymbolTableRecord
100
AcDbLayerTableRecord
  2
HAIKIN
 70
     0
 62
     2
  6
CONTINUOUS
370
    -3
390
7A
  0
LAYER
  5
25
330
2
100
AcDbSymbolTableRecord
100
AcDbLayerTableRecord
  2
SEIHIN
 70
     0
 62
     3
  6
CONTINUOUS
370
    -3
390
7A
  0
LAYER
  5
26
330
2
100
AcDbSymbolTableRecord
100
AcDbLayerTableRecord
  2
HASEN
 70
     0
 62
     4
  6
HIDDEN
370
    -3
390
7A
  0
LAYER
  5
27
330
2
100
AcDbSymbolTableRecord
100
AcDbLayerTableRecord
  2
1HASEN
 70
     0
 62
     5
  6
CENTER
370
    -3
390
7A
  0
LAYER
  5
28
330
2
100
AcDbSymbolTableRecord
100
AcDbLayerTableRecord
  2
2HASEN
 70
     0
 62
     6
  6
PHANTOM
370
    -3
390
7A
  0
LAYER
  5
29
330
2
100
AcDbSymbolTableRecord
100
AcDbLayerTableRecord
  2
HOJO
 70
     0
 62
     7
  6
CONTINUOUS
370
    -3
390
7A
  0
LAYER
  5
2A
330
2
100
AcDbSymbolTableRecord
100
AcDbLayerTableRecord
  2
TEN
 70
     0
 62
     7
  6
CONTINUOUS
370
    -3
390
7A
  0
LAYER
  5
70
330
2
100
AcDbSymbolTableRecord
100
AcDbLayerTableRecord
  2
DEFPOINTS
 70
     0
 62
     7
  6
CONTINUOUS
290
     0
370
    -3
390
7A
  0
ENDTAB
  0
TABLE
  2
STYLE
  5
3
330
0
100
AcDbSymbolTable
 70
     1
  0
STYLE
  5
F
330
3
100
AcDbSymbolTableRecord
100
AcDbTextStyleTableRecord
  2
STANDARD
 70
     0
 40
0.0
 41
0.8
 50
0.0
 71
     0
 42
90.0
  3
TXT.shx
  4
BIGFONT.shx
  0
ENDTAB
  0
TABLE
  2
VIEW
  5
6
330
0
100
AcDbSymbolTable
 70
     0
  0
ENDTAB
  0
TABLE
  2
UCS
  5
7
330
0
100
AcDbSymbolTable
 70
     0
  0
ENDTAB
  0
TABLE
  2
APPID
  5
9
330
0
100
AcDbSymbolTable
 70
    10
  0
APPID
  5
10
330
9
100
AcDbSymbolTableRecord
100
AcDbRegAppTableRecord
  2
ACAD
 70
     0
  0
APPID
  5
9B0
330
9
100
AcDbSymbolTableRecord
100
AcDbRegAppTableRecord
  2
ACAD_DSTYLE_DIMTEXT_FILL
 70
     0
  0
APPID
  5
9B1
330
9
100
AcDbSymbolTableRecord
100
AcDbRegAppTableRecord
  2
ACAD_DSTYLE_DIMEXT_LENGTH
 70
     0
  0
APPID
  5
9B2
330
9
100
AcDbSymbolTableRecord
100
AcDbRegAppTableRecord
  2
ACAD_DSTYLE_DIMEXT_ENABLED
 70
     0
  0
APPID
  5
9B3
330
9
100
AcDbSymbolTableRecord
100
AcDbRegAppTableRecord
  2
ACAD_DSTYLE_DIM_LINETYPE
 70
     0
  0
APPID
  5
9B4
330
9
100
AcDbSymbolTableRecord
100
AcDbRegAppTableRecord
  2
ACAD_DSTYLE_DIM_EXT1_LINETYPE
 70
     0
  0
APPID
  5
9B5
330
9
100
AcDbSymbolTableRecord
100
AcDbRegAppTableRecord
  2
ACAD_DSTYLE_DIM_EXT2_LINETYPE
 70
     0
  0
APPID
  5
A71
330
9
100
AcDbSymbolTableRecord
100
AcDbRegAppTableRecord
  2
ACAD_DSTYLE_DIMJOGGED_JOGANGLE_SYMBOL
 70
     0
  0
APPID
  5
C55
330
9
100
AcDbSymbolTableRecord
100
AcDbRegAppTableRecord
  2
ACAD_DSTYLE_DIMARC_LENGTH_SYMBOL
 70
     0
  0
APPID
  5
273F
330
9
100
AcDbSymbolTableRecord
100
AcDbRegAppTableRecord
  2
ACAD_EXEMPT_FROM_CAD_STANDARDS
 70
     0
  0
ENDTAB
  0
TABLE
  2
DIMSTYLE
  5
A
330
0
100
AcDbSymbolTable
 70
     2
100
AcDbDimStyleTable
  0
DIMSTYLE
105
61
330
A
100
AcDbSymbolTableRecord
100
AcDbDimStyleTableRecord
  2
STANDARD
 70
     0
178
     0
340
F
  0
DIMSTYLE
105
C5A
102
{ACAD_REACTORS
330
15F6
330
153B
330
151B
330
1518
330
1515
330
14E1
330
14CA
330
147F
330
147E
330
147D
330
1473
330
146F
330
146E
330
146D
330
145A
330
1459
330
1454
330
1453
330
1452
330
1451
330
1430
330
1417
330
1416
330
2319
330
2327
330
233F
330
234C
102
}
330
A
100
AcDbSymbolTableRecord
100
AcDbDimStyleTableRecord
  2
A3-30
 70
     0
 40
30.0
 41
2.0
 42
2.0
 43
7.0
 44
0.5
 73
     0
 74
     0
 77
     1
 78
     8
140
3.0
141
0.0
145
1.0
147
0.8
174
     1
178
     0
179
     4
271
     0
272
     0
279
     2
284
     8
285
     8
286
     8
340
F
  0
ENDTAB
  0
TABLE
  2
BLOCK_RECORD
  5
1
330
0
100
AcDbSymbolTable
 70
   200
  0
BLOCK_RECORD
  5
17
330
1
100
AcDbSymbolTableRecord
100
AcDbBlockTableRecord
  2
*MODEL_SPACE
340
7D
  0
BLOCK_RECORD
  5
14
330
1
100
AcDbSymbolTableRecord
100
AcDbBlockTableRecord
  2
*PAPER_SPACE
340
7E
  0
BLOCK_RECORD
  5
1C
330
1
100
AcDbSymbolTableRecord
100
AcDbBlockTableRecord
  2
BORDER
340
0
  0
BLOCK_RECORD
  5
1D
330
1
100
AcDbSymbolTableRecord
100
AcDbBlockTableRecord
  2
SA3
340
0
102
{BLKREFS
331
60
102
}
  0
BLOCK_RECORD
  5
82
330
1
100
AcDbSymbolTableRecord
100
AcDbBlockTableRecord
  2
*D2
340
0
  0
BLOCK_RECORD
  5
8E
330
1
100
AcDbSymbolTableRecord
100
AcDbBlockTableRecord
  2
*D3
340
0
  0
BLOCK_RECORD
  5
9C
330
1
100
AcDbSymbolTableRecord
100
AcDbBlockTableRecord
  2
*D4
340
0
  0
BLOCK_RECORD
  5
AA
330
1
100
AcDbSymbolTableRecord
100
AcDbBlockTableRecord
  2
*D5
340
0
  0
BLOCK_RECORD
  5
B6
330
1
100
AcDbSymbolTableRecord
100
AcDbBlockTableRecord
  2
*D6
340
0
  0
BLOCK_RECORD
  5
C3
330
1
100
AcDbSymbolTableRecord
100
AcDbBlockTableRecord
  2
A$C79F54BAC
340
0
  0
BLOCK_RECORD
  5
15FB
330
1
100
AcDbSymbolTableRecord
100
AcDbBlockTableRecord
  2
*D102
340
0
  0
BLOCK_RECORD
  5
1608
330
1
100
AcDbSymbolTableRecord
100
AcDbBlockTableRecord
  2
*D103
340
0
  0
BLOCK_RECORD
  5
166F
330
1
100
AcDbSymbolTableRecord
100
AcDbBlockTableRecord
  2
*D111
340
0
  0
BLOCK_RECORD
  5
16A1
330
1
100
AcDbSymbolTableRecord
100
AcDbBlockTableRecord
  2
*D115
340
0
  0
BLOCK_RECORD
  5
16AD
330
1
100
AcDbSymbolTableRecord
100
AcDbBlockTableRecord
  2
*D116
340
0
  0
BLOCK_RECORD
  5
16B9
330
1
100
AcDbSymbolTableRecord
100
AcDbBlockTableRecord
  2
*D117
340
0
  0
BLOCK_RECORD
  5
16C5
330
1
100
AcDbSymbolTableRecord
100
AcDbBlockTableRecord
  2
*D118
340
0
  0
BLOCK_RECORD
  5
16DE
330
1
100
AcDbSymbolTableRecord
100
AcDbBlockTableRecord
  2
*D120
340
0
  0
BLOCK_RECORD
  5
16EA
330
1
100
AcDbSymbolTableRecord
100
AcDbBlockTableRecord
  2
*D121
340
0
  0
BLOCK_RECORD
  5
16F6
330
1
100
AcDbSymbolTableRecord
100
AcDbBlockTableRecord
  2
*D122
340
0
  0
BLOCK_RECORD
  5
1702
330
1
100
AcDbSymbolTableRecord
100
AcDbBlockTableRecord
  2
*D123
340
0
  0
BLOCK_RECORD
  5
170F
330
1
100
AcDbSymbolTableRecord
100
AcDbBlockTableRecord
  2
*D124
340
0
  0
BLOCK_RECORD
  5
173F
330
1
100
AcDbSymbolTableRecord
100
AcDbBlockTableRecord
  2
*D128
340
0
  0
BLOCK_RECORD
  5
177C
330
1
100
AcDbSymbolTableRecord
100
AcDbBlockTableRecord
  2
*D133
340
0
  0
BLOCK_RECORD
  5
1788
330
1
100
AcDbSymbolTableRecord
100
AcDbBlockTableRecord
  2
*D134
340
0
  0
BLOCK_RECORD
  5
1794
330
1
100
AcDbSymbolTableRecord
100
AcDbBlockTableRecord
  2
*D135
340
0
  0
BLOCK_RECORD
  5
1803
330
1
100
AcDbSymbolTableRecord
100
AcDbBlockTableRecord
  2
*D144
340
0
  0
BLOCK_RECORD
  5
1833
330
1
100
AcDbSymbolTableRecord
100
AcDbBlockTableRecord
  2
*D148
340
0
  0
BLOCK_RECORD
  5
1865
330
1
100
AcDbSymbolTableRecord
100
AcDbBlockTableRecord
  2
*D152
340
0
  0
BLOCK_RECORD
  5
1889
330
1
100
AcDbSymbolTableRecord
100
AcDbBlockTableRecord
  2
*D155
340
0
  0
BLOCK_RECORD
  5
18AE
330
1
100
AcDbSymbolTableRecord
100
AcDbBlockTableRecord
  2
*D158
340
0
  0
BLOCK_RECORD
  5
18D2
330
1
100
AcDbSymbolTableRecord
100
AcDbBlockTableRecord
  2
*D161
340
0
  0
BLOCK_RECORD
  5
1A44
330
1
100
AcDbSymbolTableRecord
100
AcDbBlockTableRecord
  2
*D191
340
0
  0
BLOCK_RECORD
  5
231A
330
1
100
AcDbSymbolTableRecord
100
AcDbBlockTableRecord
  2
*D196
340
0
  0
BLOCK_RECORD
  5
2328
330
1
100
AcDbSymbolTableRecord
100
AcDbBlockTableRecord
  2
*D197
340
0
  0
BLOCK_RECORD
  5
2340
330
1
100
AcDbSymbolTableRecord
100
AcDbBlockTableRecord
  2
*D198
340
0
  0
BLOCK_RECORD
  5
234D
330
1
100
AcDbSymbolTableRecord
100
AcDbBlockTableRecord
  2
*D199
340
0
  0
ENDTAB
  0
ENDSEC
  0
SECTION
  2
BLOCKS
  0
BLOCK
  5
2D
330
17
100
AcDbEntity
  8
0
100
AcDbBlockBegin
  2
*MODEL_SPACE
 70
     0
 10
0.0
 20
0.0
 30
0.0
  3
*MODEL_SPACE
  1

  0
ENDBLK
  5
2E
330
17
100
AcDbEntity
  8
0
100
AcDbBlockEnd
  0
BLOCK
  5
2B
330
14
100
AcDbEntity
 67
     1
  8
0
100
AcDbBlockBegin
  2
*PAPER_SPACE
 70
     0
 10
0.0
 20
0.0
 30
0.0
  3
*PAPER_SPACE
  1

  0
ENDBLK
  5
2C
330
14
100
AcDbEntity
 67
     1
  8
0
100
AcDbBlockEnd
  0
BLOCK
  5
2F
330
1C
100
AcDbEntity
  8
0
100
AcDbBlockBegin
  2
BORDER
 70
     0
 10
0.0
 20
0.0
 30
0.0
  3
BORDER
  1

  0
LINE
  5
30
330
1C
100
AcDbEntity
  8
0
100
AcDbLine
 10
0.0
 20
0.0
 30
0.0
 11
1.00000000000004
 21
0.0
 31
0.0
  0
LINE
  5
31
330
1C
100
AcDbEntity
  8
0
100
AcDbLine
 10
1.00000000000004
 20
0.0
 30
0.0
 11
1.00000000000004
 21
1.00000000000004
 31
0.0
  0
LINE
  5
32
330
1C
100
AcDbEntity
  8
0
100
AcDbLine
 10
1.00000000000004
 20
1.00000000000004
 30
0.0
 11
0.0
 21
1.00000000000004
 31
0.0
  0
LINE
  5
33
330
1C
100
AcDbEntity
  8
0
100
AcDbLine
 10
0.0
 20
1.00000000000004
 30
0.0
 11
0.0
 21
0.0
 31
0.0
  0
ENDBLK
  5
34
330
1C
100
AcDbEntity
  8
0
100
AcDbBlockEnd
  0
BLOCK
  5
35
330
1D
100
AcDbEntity
  8
HAIKIN
100
AcDbBlockBegin
  2
SA3
 70
     0
 10
0.0
 20
0.0
 30
0.0
  3
SA3
  1

  0
TEXT
  5
36
330
1D
100
AcDbEntity
  8
SUNPOU
100
AcDbText
 10
340.0
 20
0.0
 30
0.0
 40
2.5
  1
新和コンクリート工業株式会社
100
AcDbText
  0
TEXT
  5
39
330
1D
100
AcDbEntity
  8
SUNPOU
100
AcDbText
 10
361.4166666666667
 20
6.25
 30
0.0
 40
2.5
  1
製図
 72
     4
 11
364.0
 21
7.5
 31
0.0
100
AcDbText
  0
TEXT
  5
3A
330
1D
100
AcDbEntity
  8
SUNPOU
100
AcDbText
 10
361.3333333333333
 20
11.25
 30
0.0
 40
2.5
  1
設計
 72
     4
 11
364.0
 21
12.5
 31
0.0
100
AcDbText
  0
TEXT
  5
3B
330
1D
100
AcDbEntity
  8
SUNPOU
100
AcDbText
 10
339.0833333333333
 20
6.250000000000014
 30
0.0
 40
2.5
  1
認
 72
     4
 11
340.25
 21
7.500000000000014
 31
0.0
100
AcDbText
  0
TEXT
  5
3C
330
1D
100
AcDbEntity
  8
SUNPOU
100
AcDbText
 10
339.0833333333333
 20
11.33333333333336
 30
0.0
 40
2.5
  1
承
 72
     4
 11
340.25
 21
12.50000000000003
 31
0.0
100
AcDbText
  0
TEXT
  5
3D
330
1D
100
AcDbEntity
  8
SUNPOU
100
AcDbText
 10
312.75
 20
11.75000000000001
 30
0.0
 40
2.5
  1
図　面　番　号
 72
     4
 11
323.0
 21
13.00000000000001
 31
0.0
100
AcDbText
  0
TEXT
  5
3E
330
1D
100
AcDbEntity
  8
SUNPOU
100
AcDbText
 10
362.0
 20
17.0
 30
0.0
 40
2.5
  1
１／
100
AcDbText
  0
TEXT
  5
3F
330
1D
100
AcDbEntity
  8
SUNPOU
100
AcDbText
 10
347.3333333333333
 20
16.25000000000001
 30
0.0
 40
2.5
  1
縮　　尺
 72
     4
 11
353.0
 21
17.50000000000001
 31
0.0
100
AcDbText
  0
TEXT
  5
40
330
1D
100
AcDbEntity
  8
SUNPOU
100
AcDbText
 10
347.3333333333333
 20
21.25
 30
0.0
 40
2.5
  1
鉄 筋 量
 72
     4
 11
353.0
 21
22.5
 31
0.0
100
AcDbText
  0
TEXT
  5
41
330
1D
100
AcDbEntity
  8
SUNPOU
100
AcDbText
 10
347.3333333333333
 20
26.25
 30
0.0
 40
2.5
  1
製 造 数
 72
     4
 11
353.0
 21
27.5
 31
0.0
100
AcDbText
  0
TEXT
  5
42
330
1D
100
AcDbEntity
  8
SUNPOU
100
AcDbText
 10
377.0
 20
21.0
 30
0.0
 40
2.5
  1
ｋｇ
 72
     2
 11
382.0
 21
21.0
 31
0.0
100
AcDbText
  0
TEXT
  5
43
330
1D
100
AcDbEntity
  8
SUNPOU
100
AcDbText
 10
339.5
 20
21.0
 30
0.0
 40
2.5
  1
ｋｇ
 72
     2
 11
344.5
 21
21.0
 31
0.0
100
AcDbText
  0
TEXT
  5
44
330
1D
100
AcDbEntity
  8
SUNPOU
100
AcDbText
 10
310.0
 20
16.25000000000001
 30
0.0
 40
2.5
  1
年 月 日
 72
     4
 11
315.5
 21
17.50000000000001
 31
0.0
100
AcDbText
  0
TEXT
  5
45
330
1D
100
AcDbEntity
  8
SUNPOU
100
AcDbText
 10
309.8333333333333
 20
21.25
 30
0.0
 40
2.5
  1
製品質量
 72
     4
 11
315.5
 21
22.5
 31
0.0
100
AcDbText
  0
TEXT
  5
46
330
1D
100
AcDbEntity
  8
SUNPOU
100
AcDbText
 10
309.9166666666667
 20
26.25
 30
0.0
 40
2.5
  1
業 者 名
 72
     4
 11
315.5
 21
27.5
 31
0.0
100
AcDbText
  0
TEXT
  5
47
330
1D
100
AcDbEntity
  8
SUNPOU
100
AcDbText
 10
309.8333333333333
 20
32.5
 30
0.0
 40
2.5
  1
名　　称
 72
     4
 11
315.5
 21
33.75
 31
0.0
100
AcDbText
  0
LINE
  5
48
330
1D
100
AcDbEntity
  8
SUNPOU
100
AcDbLine
 10
338.0
 20
11.00000000000001
 30
0.0
 11
308.0
 21
11.00000000000001
 31
0.0
  0
LINE
  5
49
330
1D
100
AcDbEntity
  8
SUNPOU
100
AcDbLine
 10
367.5
 20
4.999999999999986
 30
0.0
 11
367.5
 21
14.99999999999999
 31
0.0
  0
LINE
  5
4A
330
1D
100
AcDbEntity
  8
SUNPOU
100
AcDbLine
 10
360.5
 20
4.999999999999986
 30
0.0
 11
360.5
 21
14.99999999999999
 31
0.0
  0
LINE
  5
4B
330
1D
100
AcDbEntity
  8
SUNPOU
100
AcDbLine
 10
342.5
 20
4.999999999999995
 30
0.0
 11
342.5
 21
15.0
 31
0.0
  0
LINE
  5
4C
330
1D
100
AcDbEntity
  8
SUNPOU
100
AcDbLine
 10
338.0
 20
4.999999999999995
 30
0.0
 11
338.0
 21
15.0
 31
0.0
  0
LINE
  5
4D
330
1D
100
AcDbEntity
  8
SUNPOU
100
AcDbLine
 10
323.0
 20
15.00000000000001
 30
0.0
 11
323.0
 21
37.5
 31
0.0
  0
LINE
  5
4E
330
1D
100
AcDbEntity
  8
SUNPOU
100
AcDbLine
 10
360.5
 20
15.00000000000001
 30
0.0
 11
360.5
 21
30.0
 31
0.0
  0
LINE
  5
4F
330
1D
100
AcDbEntity
  8
SUNPOU
100
AcDbLine
 10
345.5
 20
15.00000000000001
 30
0.0
 11
345.5
 21
30.0
 31
0.0
  0
LINE
  5
50
330
1D
100
AcDbEntity
  8
SUNPOU
100
AcDbLine
 10
383.0
 20
30.0
 30
0.0
 11
308.0
 21
30.0
 31
0.0
  0
LINE
  5
51
330
1D
100
AcDbEntity
  8
SUNPOU
100
AcDbLine
 10
383.0
 20
25.0
 30
0.0
 11
308.0
 21
25.0
 31
0.0
  0
LINE
  5
52
330
1D
100
AcDbEntity
  8
SUNPOU
100
AcDbLine
 10
383.0
 20
20.0
 30
0.0
 11
308.0
 21
20.0
 31
0.0
  0
LINE
  5
53
330
1D
100
AcDbEntity
  8
SUNPOU
100
AcDbLine
 10
383.0
 20
14.99999999999999
 30
0.0
 11
308.0
 21
15.00000000000004
 31
0.0
  0
LINE
  5
54
330
1D
100
AcDbEntity
  8
HAIKIN
100
AcDbLine
 10
308.0
 20
37.5
 30
0.0
 11
383.0
 21
37.5
 31
0.0
  0
LINE
  5
55
330
1D
100
AcDbEntity
  8
HAIKIN
100
AcDbLine
 10
308.0
 20
5.000000000000009
 30
0.0
 11
308.0
 21
37.5
 31
0.0
  0
LINE
  5
56
330
1D
100
AcDbEntity
  8
SUNPOU
100
AcDbLine
 10
0.000000000000016
 20
277.0
 30
0.0
 11
0.000000000000016
 21
272.0
 31
0.0
  0
LINE
  5
57
330
1D
100
AcDbEntity
  8
SUNPOU
100
AcDbLine
 10
25.00000000000001
 20
277.0
 30
0.0
 11
0.000000000000016
 21
277.0
 31
0.0
  0
LINE
  5
58
330
1D
100
AcDbEntity
  8
SUNPOU
100
AcDbLine
 10
25.00000000000001
 20
272.0
 30
0.0
 11
25.00000000000001
 21
277.0
 31
0.0
  0
LINE
  5
59
330
1D
100
AcDbEntity
  8
HAIKIN
100
AcDbLine
 10
0.0000000000000004
 20
5.0
 30
0.0
 11
383.0
 21
5.0
 31
0.0
  0
LINE
  5
5A
330
1D
100
AcDbEntity
  8
HAIKIN
100
AcDbLine
 10
0.0000000000000158
 20
272.0
 30
0.0
 11
383.0
 21
272.0
 31
0.0
  0
LINE
  5
5B
330
1D
100
AcDbEntity
  8
HAIKIN
100
AcDbLine
 10
383.0
 20
272.0
 30
0.0
 11
383.0
 21
5.0
 31
0.0
  0
TEXT
  5
5C
330
1D
100
AcDbEntity
  8
SUNPOU
100
AcDbText
 10
3.700000000000017
 20
273.0
 30
0.0
 40
3.0
  1
Ｈ－２－共
 72
     4
 11
12.50000000000002
 21
274.5
 31
0.0
100
AcDbText
  0
LINE
  5
5D
330
1D
100
AcDbEntity
  8
HAIKIN
100
AcDbLine
 10
0.0000000000000004
 20
5.0
 30
0.0
 11
0.0000000000000158
 21
272.0
 31
0.0
  0
ENDBLK
  5
5E
330
1D
100
AcDbEntity
  8
HAIKIN
100
AcDbBlockEnd
  0
BLOCK
  5
8C
330
82
100
AcDbEntity
  8
0
100
AcDbBlockBegin
  2
*D2
 70
     1
 10
0.0
 20
0.0
 30
0.0
  3
*D2
  1

  0
LINE
  5
83
330
82
100
AcDbEntity
  8
SUNPOU
370
    -2
100
AcDbLine
 10
14459.99999999999
 20
11910.0
 30
0.0
 11
15605.99999999999
 21
11910.0
 31
0.0
  0
LINE
  5
84
330
82
100
AcDbEntity
  8
SUNPOU
370
    -2
100
AcDbLine
 10
14459.99999999999
 20
13710.0
 30
0.0
 11
15605.99999999999
 21
13710.0
 31
0.0
  0
LINE
  5
85
330
82
100
AcDbEntity
  8
SUNPOU
370
    -2
100
AcDbLine
 10
15569.99999999999
 20
12000.0
 30
0.0
 11
15569.99999999999
 21
13620.0
 31
0.0
  0
MTEXT
  5
86
330
82
100
AcDbEntity
  8
SUNPOU
 62
     0
100
AcDbMText
 10
15404.05869794343
 20
12806.25726232369
 30
0.0
 40
180.0
 41
0.0
 71
     5
 72
     1
  1
\A1;15@120=1800
 11
6.123031769111886E-17
 21
1.0
 31
0.0
 73
     1
 44
1.0
  0
SOLID
  5
87
330
82
100
AcDbEntity
  8
SUNPOU
100
AcDbTrace
 10
15554.99999999999
 20
12000.0
 30
0.0
 11
15584.99999999999
 21
12000.0
 31
0.0
 12
15569.99999999999
 22
11910.0
 32
0.0
 13
15569.99999999999
 23
11910.0
 33
0.0
  0
SOLID
  5
88
330
82
100
AcDbEntity
  8
SUNPOU
100
AcDbTrace
 10
15554.99999999999
 20
13620.0
 30
0.0
 11
15584.99999999999
 21
13620.0
 31
0.0
 12
15569.99999999999
 22
13710.0
 32
0.0
 13
15569.99999999999
 23
13710.0
 33
0.0
  0
POINT
  5
89
330
82
100
AcDbEntity
  8
DEFPOINTS
 62
     0
100
AcDbPoint
 10
14369.99999999999
 20
11910.0
 30
0.0
  0
POINT
  5
8A
330
82
100
AcDbEntity
  8
DEFPOINTS
 62
     0
100
AcDbPoint
 10
14369.99999999999
 20
13710.0
 30
0.0
  0
POINT
  5
8B
330
82
100
AcDbEntity
  8
DEFPOINTS
 62
     0
100
AcDbPoint
 10
15569.99999999999
 20
13710.0
 30
0.0
  0
ENDBLK
  5
8D
330
82
100
AcDbEntity
  8
0
100
AcDbBlockEnd
  0
BLOCK
  5
9A
330
8E
100
AcDbEntity
  8
0
100
AcDbBlockBegin
  2
*D3
 70
     1
 10
0.0
 20
0.0
 30
0.0
  3
*D3
  1

  0
LINE
  5
8F
330
8E
100
AcDbEntity
  8
SUNPOU
370
    -2
100
AcDbLine
 10
14333.74999999999
 20
11805.0
 30
0.0
 11
15605.99999999999
 21
11805.0
 31
0.0
  0
LINE
  5
90
330
8E
100
AcDbEntity
  8
SUNPOU
370
    -2
100
AcDbLine
 10
14489.70588235293
 20
11910.0
 30
0.0
 11
15605.99999999999
 21
11910.0
 31
0.0
  0
LINE
  5
91
330
8E
100
AcDbEntity
  8
SUNPOU
370
    -2
100
AcDbLine
 10
15569.99999999999
 20
11715.0
 30
0.0
 11
15569.99999999999
 21
11625.0
 31
0.0
  0
LINE
  5
92
330
8E
100
AcDbEntity
  8
SUNPOU
370
    -2
100
AcDbLine
 10
15569.99999999999
 20
12000.0
 30
0.0
 11
15569.99999999999
 21
12090.0
 31
0.0
  0
MTEXT
  5
93
330
8E
100
AcDbEntity
  8
SUNPOU
 62
     0
100
AcDbMText
 10
15730.33993097525
 20
11906.05735268755
 30
0.0
 40
180.0
 41
0.0
 71
     5
 72
     1
  1
\A1;105
 11
6.123031769111886E-17
 21
1.0
 31
0.0
 73
     1
 44
1.0
  0
LINE
  5
94
330
8E
100
AcDbEntity
  8
SUNPOU
370
    -2
100
AcDbLine
 10
15569.99999999999
 20
11805.0
 30
0.0
 11
15569.99999999999
 21
11910.0
 31
0.0
  0
SOLID
  5
95
330
8E
100
AcDbEntity
  8
SUNPOU
100
AcDbTrace
 10
15554.99999999999
 20
11715.0
 30
0.0
 11
15584.99999999999
 21
11715.0
 31
0.0
 12
15569.99999999999
 22
11805.0
 32
0.0
 13
15569.99999999999
 23
11805.0
 33
0.0
  0
SOLID
  5
96
330
8E
100
AcDbEntity
  8
SUNPOU
100
AcDbTrace
 10
15554.99999999999
 20
12000.0
 30
0.0
 11
15584.99999999999
 21
12000.0
 31
0.0
 12
15569.99999999999
 22
11910.0
 32
0.0
 13
15569.99999999999
 23
11910.0
 33
0.0
  0
POINT
  5
97
330
8E
100
AcDbEntity
  8
DEFPOINTS
 62
     0
100
AcDbPoint
 10
14243.74999999999
 20
11805.0
 30
0.0
  0
POINT
  5
98
330
8E
100
AcDbEntity
  8
DEFPOINTS
 62
     0
100
AcDbPoint
 10
14399.70588235293
 20
11910.0
 30
0.0
  0
POINT
  5
99
330
8E
100
AcDbEntity
  8
DEFPOINTS
 62
     0
100
AcDbPoint
 10
15569.99999999999
 20
11910.0
 30
0.0
  0
ENDBLK
  5
9B
330
8E
100
AcDbEntity
  8
0
100
AcDbBlockEnd
  0
BLOCK
  5
A8
330
9C
100
AcDbEntity
  8
0
100
AcDbBlockBegin
  2
*D4
 70
     1
 10
0.0
 20
0.0
 30
0.0
  3
*D4
  1

  0
LINE
  5
9D
330
9C
100
AcDbEntity
  8
SUNPOU
370
    -2
100
AcDbLine
 10
14459.99999999999
 20
13710.0
 30
0.0
 11
15605.99999999999
 21
13710.0
 31
0.0
  0
LINE
  5
9E
330
9C
100
AcDbEntity
  8
SUNPOU
370
    -2
100
AcDbLine
 10
14459.99999999999
 20
13770.0
 30
0.0
 11
15605.99999999999
 21
13770.0
 31
0.0
  0
LINE
  5
9F
330
9C
100
AcDbEntity
  8
SUNPOU
370
    -2
100
AcDbLine
 10
15569.99999999999
 20
13620.0
 30
0.0
 11
15569.99999999999
 21
13530.0
 31
0.0
  0
LINE
  5
A0
330
9C
100
AcDbEntity
  8
SUNPOU
370
    -2
100
AcDbLine
 10
15569.99999999999
 20
13860.0
 30
0.0
 11
15569.99999999999
 21
13950.0
 31
0.0
  0
MTEXT
  5
A1
330
9C
100
AcDbEntity
  8
SUNPOU
 62
     0
100
AcDbMText
 10
15437.48050855183
 20
13968.0082924672
 30
0.0
 40
180.0
 41
0.0
 71
     5
 72
     1
  1
\A1;60
 11
6.123031769111886E-17
 21
1.0
 31
0.0
 73
     1
 44
1.0
  0
LINE
  5
A2
330
9C
100
AcDbEntity
  8
SUNPOU
370
    -2
100
AcDbLine
 10
15569.99999999999
 20
13710.0
 30
0.0
 11
15569.99999999999
 21
13770.0
 31
0.0
  0
SOLID
  5
A3
330
9C
100
AcDbEntity
  8
SUNPOU
100
AcDbTrace
 10
15554.99999999999
 20
13620.0
 30
0.0
 11
15584.99999999999
 21
13620.0
 31
0.0
 12
15569.99999999999
 22
13710.0
 32
0.0
 13
15569.99999999999
 23
13710.0
 33
0.0
  0
SOLID
  5
A4
330
9C
100
AcDbEntity
  8
SUNPOU
100
AcDbTrace
 10
15554.99999999999
 20
13860.0
 30
0.0
 11
15584.99999999999
 21
13860.0
 31
0.0
 12
15569.99999999999
 22
13770.0
 32
0.0
 13
15569.99999999999
 23
13770.0
 33
0.0
  0
POINT
  5
A5
330
9C
100
AcDbEntity
  8
DEFPOINTS
 62
     0
100
AcDbPoint
 10
14369.99999999999
 20
13710.0
 30
0.0
  0
POINT
  5
A6
330
9C
100
AcDbEntity
  8
DEFPOINTS
 62
     0
100
AcDbPoint
 10
14369.99999999999
 20
13770.0
 30
0.0
  0
POINT
  5
A7
330
9C
100
AcDbEntity
  8
DEFPOINTS
 62
     0
100
AcDbPoint
 10
15569.99999999999
 20
13770.0
 30
0.0
  0
ENDBLK
  5
A9
330
9C
100
AcDbEntity
  8
0
100
AcDbBlockEnd
  0
BLOCK
  5
B4
330
AA
100
AcDbEntity
  8
0
100
AcDbBlockBegin
  2
*D5
 70
     1
 10
0.0
 20
0.0
 30
0.0
  3
*D5
  1

  0
LINE
  5
AB
330
AA
100
AcDbEntity
  8
SUNPOU
370
    -2
100
AcDbLine
 10
14324.99999999999
 20
11770.0
 30
0.0
 11
15905.99999999999
 21
11770.0
 31
0.0
  0
LINE
  5
AC
330
AA
100
AcDbEntity
  8
SUNPOU
370
    -2
100
AcDbLine
 10
14594.99999999999
 20
13770.0
 30
0.0
 11
15905.99999999999
 21
13770.0
 31
0.0
  0
LINE
  5
AD
330
AA
100
AcDbEntity
  8
SUNPOU
370
    -2
100
AcDbLine
 10
15869.99999999999
 20
11860.0
 30
0.0
 11
15869.99999999999
 21
13680.0
 31
0.0
  0
SOLID
  5
AE
330
AA
100
AcDbEntity
  8
SUNPOU
100
AcDbTrace
 10
15854.99999999999
 20
11860.0
 30
0.0
 11
15884.99999999999
 21
11860.0
 31
0.0
 12
15869.99999999999
 22
11770.0
 32
0.0
 13
15869.99999999999
 23
11770.0
 33
0.0
  0
SOLID
  5
AF
330
AA
100
AcDbEntity
  8
SUNPOU
100
AcDbTrace
 10
15854.99999999999
 20
13680.0
 30
0.0
 11
15884.99999999999
 21
13680.0
 31
0.0
 12
15869.99999999999
 22
13770.0
 32
0.0
 13
15869.99999999999
 23
13770.0
 33
0.0
  0
MTEXT
  5
B0
330
AA
100
AcDbEntity
  8
SUNPOU
 62
     0
100
AcDbMText
 10
15731.99999999999
 20
12770.0
 30
0.0
 40
180.0
 41
0.0
 71
     5
 72
     1
  1
\A1;2000
 11
6.123031769111886E-17
 21
1.0
 31
0.0
 73
     1
 44
1.0
  0
POINT
  5
B1
330
AA
100
AcDbEntity
  8
DEFPOINTS
 62
     0
100
AcDbPoint
 10
14234.99999999999
 20
11770.0
 30
0.0
  0
POINT
  5
B2
330
AA
100
AcDbEntity
  8
DEFPOINTS
 62
     0
100
AcDbPoint
 10
14504.99999999999
 20
13770.0
 30
0.0
  0
POINT
  5
B3
330
AA
100
AcDbEntity
  8
DEFPOINTS
 62
     0
100
AcDbPoint
 10
15869.99999999999
 20
13770.0
 30
0.0
  0
ENDBLK
  5
B5
330
AA
100
AcDbEntity
  8
0
100
AcDbBlockEnd
  0
BLOCK
  5
C1
330
B6
100
AcDbEntity
  8
0
100
AcDbBlockBegin
  2
*D6
 70
     1
 10
0.0
 20
0.0
 30
0.0
  3
*D6
  1

  0
LINE
  5
B7
330
B6
100
AcDbEntity
  8
SUNPOU
 62
     0
370
    -2
100
AcDbLine
 10
14388.74999999999
 20
11805.0
 30
0.0
 11
15629.99999999999
 21
11805.0
 31
0.0
  0
LINE
  5
B8
330
B6
100
AcDbEntity
  8
SUNPOU
 62
     0
370
    -2
100
AcDbLine
 10
14379.99999999999
 20
11770.0
 30
0.0
 11
15629.99999999999
 21
11770.0
 31
0.0
  0
LINE
  5
B9
330
B6
100
AcDbEntity
  8
SUNPOU
 62
     0
370
    -2
100
AcDbLine
 10
15569.99999999999
 20
11895.0
 30
0.0
 11
15569.99999999999
 21
11985.0
 31
0.0
  0
LINE
  5
BA
330
B6
100
AcDbEntity
  8
SUNPOU
 62
     0
370
    -2
100
AcDbLine
 10
15569.99999999999
 20
11680.0
 30
0.0
 11
15569.99999999999
 21
11590.0
 31
0.0
  0
MTEXT
  5
BB
330
B6
100
AcDbEntity
  8
SUNPOU
 62
     0
100
AcDbMText
 10
15422.1488453184
 20
11572.59656658611
 30
0.0
 40
180.0
 41
0.0
 71
     5
 72
     1
  1
\A1;35
 11
6.123031769111886E-17
 21
1.0
 31
0.0
 73
     1
 44
1.0
  0
SOLID
  5
BC
330
B6
100
AcDbEntity
  8
SUNPOU
 62
     0
100
AcDbTrace
 10
15554.99999999999
 20
11895.0
 30
0.0
 11
15584.99999999999
 21
11895.0
 31
0.0
 12
15569.99999999999
 22
11805.0
 32
0.0
 13
15569.99999999999
 23
11805.0
 33
0.0
  0
SOLID
  5
BD
330
B6
100
AcDbEntity
  8
SUNPOU
 62
     0
100
AcDbTrace
 10
15554.99999999999
 20
11680.0
 30
0.0
 11
15584.99999999999
 21
11680.0
 31
0.0
 12
15569.99999999999
 22
11770.0
 32
0.0
 13
15569.99999999999
 23
11770.0
 33
0.0
  0
POINT
  5
BE
330
B6
100
AcDbEntity
  8
DEFPOINTS
 62
     0
100
AcDbPoint
 10
14268.74999999999
 20
11805.0
 30
0.0
  0
POINT
  5
BF
330
B6
100
AcDbEntity
  8
DEFPOINTS
 62
     0
100
AcDbPoint
 10
14259.99999999999
 20
11770.0
 30
0.0
  0
POINT
  5
C0
330
B6
100
AcDbEntity
  8
DEFPOINTS
 62
     0
100
AcDbPoint
 10
15569.99999999999
 20
11770.0
 30
0.0
  0
ENDBLK
  5
C2
330
B6
100
AcDbEntity
  8
0
100
AcDbBlockEnd
  0
BLOCK
  5
169
330
C3
100
AcDbEntity
  8
0
100
AcDbBlockBegin
  2
A$C79F54BAC
 70
     0
 10
0.0
 20
0.0
 30
0.0
  3
A$C79F54BAC
  1

  0
DIMENSION
  5
C4
330
C3
100
AcDbEntity
  8
SUNPOU
100
AcDbDimension
  2
*D2
 10
4229.99998564875
 20
2257.403415746125
 30
0.0
 11
4064.058683592186
 21
1353.660678069813
 31
0.0
 12
-11340.00001435124
 22
-11452.59658425388
 32
0.0
 70
   128
  1
15@120=<>
 71
     5
 42
-1.0
  3
STANDARD
100
AcDbAlignedDimension
 13
3029.99998564875
 23
457.4034157461228
 33
0.0
 14
3029.99998564875
 24
2257.403415746125
 34
0.0
 50
90.0
100
AcDbRotatedDimension
1001
ACAD
1000
DSTYLE
1002
{
1070
   287
1070
     5
1070
   287
1070
     5
1070
   287
1070
     5
1070
   287
1070
     5
1070
   287
1070
     5
1070
   287
1070
     5
1070
   287
1070
     5
1070
   287
1070
     5
1070
    40
1040
60.0
1070
    41
1040
1.5
1070
    42
1040
1.5
1070
    43
1040
7.0
1070
    44
1040
0.6
1070
    73
1070
     0
1070
    74
1070
     0
1070
    77
1070
     1
1070
    78
1070
     8
1070
   140
1040
3.0
1070
   141
1040
0.0
1070
   145
1040
1.0
1070
   147
1040
0.8
1070
   172
1070
     1
1070
   176
1070
   256
1070
   177
1070
   256
1070
   271
1070
     0
1070
   275
1070
     1
1070
   279
1070
     2
1070
   284
1070
     8
1070
   285
1070
     8
1070
   286
1070
     8
1002
}
  0
DIMENSION
  5
C5
330
C3
100
AcDbEntity
  8
SUNPOU
100
AcDbDimension
  2
*D3
 10
4229.99998564875
 20
457.4034157461228
 30
0.0
 11
4390.339916624003
 21
453.4607684336734
 31
0.0
 12
-11340.00001435124
 22
-11452.59658425388
 32
0.0
 70
   128
 71
     5
 42
-1.0
  3
STANDARD
100
AcDbAlignedDimension
 13
2903.74998564875
 23
352.4034157461247
 33
0.0
 14
3059.705868001689
 24
457.4034157461228
 34
0.0
 50
90.0
100
AcDbRotatedDimension
1001
ACAD
1000
DSTYLE
1002
{
1070
   287
1070
     5
1070
   287
1070
     5
1070
   287
1070
     5
1070
   287
1070
     5
1070
   287
1070
     5
1070
   287
1070
     5
1070
   287
1070
     5
1070
   287
1070
     5
1070
    40
1040
60.0
1070
    41
1040
1.5
1070
    42
1040
1.5
1070
    43
1040
7.0
1070
    44
1040
0.6
1070
    73
1070
     0
1070
    74
1070
     0
1070
    77
1070
     1
1070
    78
1070
     8
1070
   140
1040
3.0
1070
   141
1040
0.0
1070
   145
1040
1.0
1070
   147
1040
0.8
1070
   172
1070
     1
1070
   176
1070
   256
1070
   177
1070
   256
1070
   271
1070
     0
1070
   275
1070
     1
1070
   279
1070
     2
1070
   284
1070
     8
1070
   285
1070
     8
1070
   286
1070
     8
1002
}
  0
DIMENSION
  5
C6
330
C3
100
AcDbEntity
  8
SUNPOU
100
AcDbDimension
  2
*D4
 10
4229.99998564875
 20
2317.403415746121
 30
0.0
 11
4097.480494200581
 21
2515.411708213323
 31
0.0
 12
-11340.00001435124
 22
-11452.59658425388
 32
0.0
 70
   128
 71
     5
 42
-1.0
  3
STANDARD
100
AcDbAlignedDimension
 13
3029.99998564875
 23
2257.403415746125
 33
0.0
 14
3029.99998564875
 24
2317.403415746121
 34
0.0
 50
90.0
100
AcDbRotatedDimension
1001
ACAD
1000
DSTYLE
1002
{
1070
   287
1070
     5
1070
   287
1070
     5
1070
   287
1070
     5
1070
   287
1070
     5
1070
   287
1070
     5
1070
   287
1070
     5
1070
   287
1070
     5
1070
   287
1070
     5
1070
    40
1040
60.0
1070
    41
1040
1.5
1070
    42
1040
1.5
1070
    43
1040
7.0
1070
    44
1040
0.6
1070
    73
1070
     0
1070
    74
1070
     0
1070
    77
1070
     1
1070
    78
1070
     8
1070
   140
1040
3.0
1070
   141
1040
0.0
1070
   145
1040
1.0
1070
   147
1040
0.8
1070
   172
1070
     1
1070
   176
1070
   256
1070
   177
1070
   256
1070
   271
1070
     0
1070
   275
1070
     1
1070
   279
1070
     2
1070
   284
1070
     8
1070
   285
1070
     8
1070
   286
1070
     8
1002
}
  0
DIMENSION
  5
C7
330
C3
100
AcDbEntity
  8
SUNPOU
100
AcDbDimension
  2
*D5
 10
4529.99998564875
 20
2317.403415746123
 30
0.0
 11
4391.999985648747
 21
1317.403415746123
 31
0.0
 12
-11340.00001435124
 22
-11452.59658425388
 32
0.0
 71
     5
 42
-1.0
  3
STANDARD
100
AcDbAlignedDimension
 13
2894.99998564875
 23
317.403415746121
 33
0.0
 14
3164.99998564875
 24
2317.403415746123
 34
0.0
 50
90.0
100
AcDbRotatedDimension
1001
ACAD
1000
DSTYLE
1002
{
1070
   287
1070
     5
1070
   287
1070
     5
1070
   287
1070
     5
1070
   287
1070
     5
1070
   287
1070
     5
1070
   287
1070
     5
1070
   287
1070
     5
1070
   287
1070
     5
1070
    40
1040
60.0
1070
    41
1040
1.5
1070
    42
1040
1.5
1070
    43
1040
7.0
1070
    44
1040
0.6
1070
    73
1070
     0
1070
    74
1070
     0
1070
    77
1070
     1
1070
    78
1070
     8
1070
   140
1040
3.0
1070
   141
1040
0.0
1070
   145
1040
1.0
1070
   147
1040
0.8
1070
   172
1070
     1
1070
   176
1070
   256
1070
   177
1070
   256
1070
   271
1070
     0
1070
   275
1070
     1
1070
   279
1070
     2
1070
   284
1070
     8
1070
   285
1070
     8
1070
   286
1070
     8
1002
}
  0
DIMENSION
  5
C8
330
C3
100
AcDbEntity
  8
SUNPOU
100
AcDbDimension
  2
*D6
 10
4229.99998564875
 20
317.403415746121
 30
0.0
 11
4082.14883096716
 21
119.9999823322287
 31
0.0
 12
-11340.00001435124
 22
-11452.59658425388
 32
0.0
 70
   128
 71
     5
 42
-1.0
  3
STANDARD
100
AcDbAlignedDimension
 13
2928.74998564875
 23
352.4034157461247
 33
0.0
 14
2919.99998564875
 24
317.403415746121
 34
0.0
 50
90.0
100
AcDbRotatedDimension
1001
ACAD
1000
DSTYLE
1002
{
1070
   287
1070
     5
1070
   287
1070
     5
1070
   287
1070
     5
1070
   287
1070
     5
1070
   287
1070
     5
1070
   287
1070
     5
1070
   287
1070
     5
1070
   287
1070
     5
1070
    40
1040
60.0
1070
    41
1040
1.5
1070
    42
1040
2.0
1070
    43
1040
3.75
1070
    44
1040
1.0
1070
    73
1070
     0
1070
    74
1070
     0
1070
    77
1070
     1
1070
    78
1070
     8
1070
   140
1040
3.0
1070
   141
1040
2.5
1070
   143
1040
0.0394
1070
   147
1040
1.0
1070
   171
1070
     4
1070
   271
1070
     0
1070
   273
1070
     8
1070
   274
1070
     4
1070
   279
1070
     2
1002
}
  0
LINE
  5
C9
330
C3
100
AcDbEntity
  8
SUNPOU
100
AcDbLine
 10
1679.999985648763
 20
3227.403415746123
 30
0.0
 11
899.9999856487611
 21
3227.403415746123
 31
0.0
1001
ACAD
1000
DSTYLE
1002
{
1070
    78
1070
     8
1070
   284
1070
     8
1070
   140
1040
3.0
1070
   145
1040
1.0
1070
    74
1070
     0
1070
   172
1070
     1
1070
    73
1070
     0
1070
    77
1070
     1
1070
    40
1040
60.0
1070
   147
1040
0.8
1070
   287
1070
     5
1070
    42
1040
1.5
1070
    44
1040
0.6
1070
    43
1040
7.0
1070
   271
1070
     0
1070
   177
1070
   256
1070
   176
1070
   256
1070
   141
1040
0.0
1070
   275
1070
     1
1070
    41
1040
1.5
1070
   285
1070
     8
1070
   286
1070
     8
1002
}
  0
SOLID
  5
CA
330
C3
100
AcDbEntity
  8
SUNPOU
100
AcDbTrace
 10
1216.999985648774
 20
1372.403415746125
 30
0.0
 11
1306.999985648774
 21
1357.403415746123
 31
0.0
 12
1216.999985648774
 22
1342.403415746125
 32
0.0
 13
1216.999985648774
 23
1342.403415746125
 33
0.0
1001
ACAD
1000
DSTYLE
1002
{
1070
    78
1070
     8
1070
   284
1070
     8
1070
   140
1040
3.0
1070
   145
1040
1.0
1070
    74
1070
     0
1070
   172
1070
     1
1070
    73
1070
     0
1070
    77
1070
     1
1070
    40
1040
60.0
1070
   147
1040
0.8
1070
   287
1070
     5
1070
    42
1040
1.5
1070
    44
1040
0.6
1070
    43
1040
7.0
1070
   271
1070
     0
1070
   177
1070
   256
1070
   176
1070
   256
1070
   141
1040
0.0
1070
   275
1070
     1
1070
    41
1040
1.5
1070
   285
1070
     8
1070
   286
1070
     8
1002
}
  0
LINE
  5
CB
330
C3
100
AcDbEntity
  8
SUNPOU
100
AcDbLine
 10
329.9999856487375
 20
1357.403415746123
 30
0.0
 11
1426.999985648756
 21
1357.403415746126
 31
0.0
1001
ACAD
1000
DSTYLE
1002
{
1070
    78
1070
     8
1070
   284
1070
     8
1070
   140
1040
3.0
1070
   145
1040
1.0
1070
    74
1070
     0
1070
   172
1070
     1
1070
    73
1070
     0
1070
    77
1070
     1
1070
    40
1040
60.0
1070
   147
1040
0.8
1070
   287
1070
     5
1070
    42
1040
1.5
1070
    44
1040
0.6
1070
    43
1040
7.0
1070
   271
1070
     0
1070
   177
1070
   256
1070
   176
1070
   256
1070
   141
1040
0.0
1070
   275
1070
     1
1070
    41
1040
1.5
1070
   285
1070
     8
1070
   286
1070
     8
1002
}
  0
LINE
  5
CC
330
C3
100
AcDbEntity
  8
HAIKIN
100
AcDbLine
 10
1979.999985648756
 20
2052.403415746123
 30
0.0
 11
964.9999856487557
 21
2052.403415746117
 31
0.0
  0
LINE
  5
CD
330
C3
100
AcDbEntity
  8
HAIKIN
100
AcDbLine
 10
1979.999985648765
 20
1992.403415746121
 30
0.0
 11
964.9999856487557
 21
1992.403415746117
 31
0.0
  0
LINE
  5
CE
330
C3
100
AcDbEntity
  8
HAIKIN
100
AcDbLine
 10
1979.999985648765
 20
1932.403415746121
 30
0.0
 11
964.9999856487557
 21
1932.403415746117
 31
0.0
  0
LINE
  5
CF
330
C3
100
AcDbEntity
  8
HAIKIN
100
AcDbLine
 10
1979.999985648765
 20
847.4034157461283
 30
0.0
 11
964.9999856487557
 21
847.4034157461247
 31
0.0
  0
LINE
  5
D0
330
C3
100
AcDbEntity
  8
HAIKIN
100
AcDbLine
 10
1979.999985648765
 20
787.4034157461283
 30
0.0
 11
964.9999856487557
 21
787.4034157461247
 31
0.0
  0
LINE
  5
D1
330
C3
100
AcDbEntity
  8
HAIKIN
100
AcDbLine
 10
1979.999985648758
 20
727.4034157461283
 30
0.0
 11
964.9999856487557
 21
727.4034157461247
 31
0.0
  0
LINE
  5
D2
330
C3
100
AcDbEntity
  8
SUNPOU
100
AcDbLine
 10
964.9999856487557
 20
1897.403415746125
 30
0.0
 11
1486.999985648752
 21
1897.403415746121
 31
0.0
  0
LINE
  5
D3
330
C3
100
AcDbEntity
  8
SUNPOU
100
AcDbLine
 10
964.9999856487557
 20
1657.403415746125
 30
0.0
 11
1486.999985648752
 21
1657.403415746121
 31
0.0
  0
LINE
  5
D4
330
C3
100
AcDbEntity
  8
SUNPOU
100
AcDbLine
 10
964.9999856487557
 20
1777.403415746125
 30
0.0
 11
1486.999985648752
 21
1777.403415746123
 31
0.0
  0
LINE
  5
D5
330
C3
100
AcDbEntity
  8
SUNPOU
100
AcDbLine
 10
964.9999856487557
 20
457.4034157461247
 30
0.0
 11
1979.999985648759
 21
457.403415746121
 31
0.0
  0
LINE
  5
D6
330
C3
100
AcDbEntity
  8
SUNPOU
100
AcDbLine
 10
964.9999856487557
 20
817.4034157461247
 30
0.0
 11
1979.999985648759
 21
817.403415746121
 31
0.0
  0
LINE
  5
D7
330
C3
100
AcDbEntity
  8
SUNPOU
100
AcDbLine
 10
964.9999856487557
 20
697.4034157461247
 30
0.0
 11
1979.999985648759
 21
697.403415746121
 31
0.0
  0
LINE
  5
D8
330
C3
100
AcDbEntity
  8
SUNPOU
100
AcDbLine
 10
964.9999856487557
 20
577.4034157461247
 30
0.0
 11
1979.999985648759
 21
577.403415746121
 31
0.0
  0
LINE
  5
D9
330
C3
100
AcDbEntity
  8
SUNPOU
100
AcDbLine
 10
964.9999856487557
 20
937.4034157461247
 30
0.0
 11
1486.999985648752
 21
937.403415746121
 31
0.0
  0
LINE
  5
DA
330
C3
100
AcDbEntity
  8
SUNPOU
100
AcDbLine
 10
964.9999856487557
 20
1057.403415746125
 30
0.0
 11
1486.999985648752
 21
1057.403415746119
 31
0.0
  0
LINE
  5
DB
330
C3
100
AcDbEntity
  8
SUNPOU
100
AcDbLine
 10
964.9999856487557
 20
1177.403415746125
 30
0.0
 11
1486.999985648752
 21
1177.403415746117
 31
0.0
  0
LINE
  5
DC
330
C3
100
AcDbEntity
  8
SUNPOU
100
AcDbLine
 10
964.9999856487557
 20
1297.403415746125
 30
0.0
 11
1486.999985648752
 21
1297.403415746121
 31
0.0
  0
LINE
  5
DD
330
C3
100
AcDbEntity
  8
SUNPOU
100
AcDbLine
 10
964.9999856487557
 20
1417.403415746125
 30
0.0
 11
1486.999985648752
 21
1417.403415746119
 31
0.0
  0
LINE
  5
DE
330
C3
100
AcDbEntity
  8
SUNPOU
100
AcDbLine
 10
964.9999856487557
 20
1537.403415746125
 30
0.0
 11
1486.999985648752
 21
1537.403415746121
 31
0.0
  0
LINE
  5
DF
330
C3
100
AcDbEntity
  8
SUNPOU
100
AcDbLine
 10
964.9999856487557
 20
2017.403415746125
 30
0.0
 11
1979.999985648759
 21
2017.403415746121
 31
0.0
  0
LINE
  5
E0
330
C3
100
AcDbEntity
  8
SUNPOU
100
AcDbLine
 10
964.9999856487557
 20
2137.403415746125
 30
0.0
 11
1979.999985648759
 21
2137.403415746121
 31
0.0
  0
LINE
  5
E1
330
C3
100
AcDbEntity
  8
SUNPOU
100
AcDbLine
 10
964.9999856487557
 20
2257.403415746125
 30
0.0
 11
1979.999985648759
 21
2257.403415746121
 31
0.0
  0
LINE
  5
E2
330
C3
100
AcDbEntity
  8
SUNPOU
100
AcDbLine
 10
964.9999856487557
 20
2362.403415746125
 30
0.0
 11
1979.999985648759
 21
2362.403415746121
 31
0.0
  0
TEXT
  5
E3
330
C3
100
AcDbEntity
  8
HAIKIN
 62
     3
100
AcDbText
 10
1009.999985648752
 20
4617.403415746125
 30
0.0
 40
240.0
  1
頂　版
 72
     1
 11
1409.999985648752
 21
4617.403415746125
 31
0.0
100
AcDbText
  0
TEXT
  5
E4
330
C3
100
AcDbEntity
  8
SUNPOU
100
AcDbText
 10
1019.999985648756
 20
4105.403415746121
 30
0.0
 40
210.0
  1
外　側
 11
1019.999985648756
 21
4077.403415746121
 31
0.0
100
AcDbText
 73
     1
  0
LINE
  5
E5
330
C3
100
AcDbEntity
  8
SUNPOU
100
AcDbLine
 10
1019.999985648752
 20
317.4034157461247
 30
0.0
 11
1979.999985648759
 21
317.403415746121
 31
0.0
  0
LINE
  5
E6
330
C3
100
AcDbEntity
  8
SUNPOU
100
AcDbLine
 10
929.999985648752
 20
397.403415746121
 30
0.0
 11
1979.999985648759
 21
397.403415746121
 31
0.0
  0
LINE
  5
E7
330
C3
100
AcDbEntity
  8
SUNPOU
100
AcDbLine
 10
929.999985648752
 20
2397.403415746123
 30
0.0
 11
1979.999985648759
 21
2397.403415746121
 31
0.0
  0
LINE
  5
E8
330
C3
100
AcDbEntity
  8
SUNPOU
100
AcDbLine
 10
1019.999985648756
 20
4077.403415746121
 30
0.0
 11
2939.999985648754
 21
4077.403415746121
 31
0.0
  0
LINE
  5
E9
330
C3
100
AcDbEntity
  8
HAIKIN
 62
     3
100
AcDbLine
 10
1889.999985648752
 20
4887.403415746125
 30
0.0
 11
929.999985648752
 21
4887.403415746125
 31
0.0
  0
LINE
  5
EA
330
C3
100
AcDbEntity
  8
HAIKIN
 62
     3
100
AcDbLine
 10
1889.999985648752
 20
4587.403415746125
 30
0.0
 11
929.999985648752
 21
4587.403415746125
 31
0.0
  0
TEXT
  5
EB
330
C3
100
AcDbEntity
  8
SUNPOU
100
AcDbText
 10
762.4999856487557
 20
2907.403415746125
 30
0.0
 40
150.0
  1
D13
 41
0.8
 11
762.4999856487557
 21
2982.403415746125
 31
0.0
100
AcDbText
 73
     2
  0
TEXT
  5
EC
330
C3
100
AcDbEntity
  8
SUNPOU
100
AcDbText
 10
457.4999856487557
 20
2907.403415746125
 30
0.0
 40
150.0
  1
H1
 41
0.8
 72
     4
 11
537.4999856487557
 21
2982.403415746125
 31
0.0
100
AcDbText
  0
CIRCLE
  5
ED
330
C3
100
AcDbEntity
  8
SUNPOU
100
AcDbCircle
 10
537.4999856487557
 20
2982.403415746125
 30
0.0
 40
165.0
  0
TEXT
  5
EE
330
C3
100
AcDbEntity
  8
SUNPOU
100
AcDbText
 10
239.9999856487393
 20
1437.403415746128
 30
0.0
 40
150.0
  1
H2
 50
90.0
 41
0.8
 72
     4
 11
164.9999856487393
 21
1537.403415746128
 31
0.0
100
AcDbText
  0
LINE
  5
EF
330
C3
100
AcDbEntity
  8
SUNPOU
100
AcDbLine
 10
1137.499985648754
 20
727.4034157461247
 30
0.0
 11
1137.499985648756
 21
2817.403415746125
 31
0.0
1001
ACAD
1000
DSTYLE
1002
{
1070
    78
1070
     8
1070
   284
1070
     8
1070
   140
1040
3.0
1070
   145
1040
1.0
1070
    74
1070
     0
1070
   172
1070
     1
1070
    73
1070
     0
1070
    77
1070
     1
1070
    40
1040
60.0
1070
   147
1040
0.8
1070
   287
1070
     5
1070
    42
1040
1.5
1070
    44
1040
0.6
1070
    43
1040
7.0
1070
   271
1070
     0
1070
   177
1070
   256
1070
   176
1070
   256
1070
   141
1040
0.0
1070
   275
1070
     1
1070
    41
1040
1.5
1070
   285
1070
     8
1070
   286
1070
     8
1002
}
  0
LINE
  5
F0
330
C3
100
AcDbEntity
  8
SUNPOU
100
AcDbLine
 10
1044.999985648752
 20
2362.403415746125
 30
0.0
 11
1044.999985648756
 21
457.4034157461265
 31
0.0
  0
LINE
  5
F1
330
C3
100
AcDbEntity
  8
SUNPOU
100
AcDbLine
 10
1229.999985648759
 20
2362.403415746123
 30
0.0
 11
1229.999985648763
 21
457.4034157461228
 31
0.0
  0
LINE
  5
F2
330
C3
100
AcDbEntity
  8
SUNPOU
100
AcDbLine
 10
329.9999856487393
 20
2137.403415746126
 30
0.0
 11
329.9999856487393
 21
1357.403415746128
 31
0.0
1001
ACAD
1000
DSTYLE
1002
{
1070
    78
1070
     8
1070
   284
1070
     8
1070
   140
1040
3.0
1070
   145
1040
1.0
1070
    74
1070
     0
1070
   172
1070
     1
1070
    73
1070
     0
1070
    77
1070
     1
1070
    40
1040
60.0
1070
   147
1040
0.8
1070
   287
1070
     5
1070
    42
1040
1.5
1070
    44
1040
0.6
1070
    43
1040
7.0
1070
   271
1070
     0
1070
   177
1070
   256
1070
   176
1070
   256
1070
   141
1040
0.0
1070
   275
1070
     1
1070
    41
1040
1.5
1070
   285
1070
     8
1070
   286
1070
     8
1002
}
  0
CIRCLE
  5
F3
330
C3
100
AcDbEntity
  8
SUNPOU
100
AcDbCircle
 10
164.9999856487393
 20
1537.403415746128
 30
0.0
 40
165.0
  0
LINE
  5
F4
330
C3
100
AcDbEntity
  8
SUNPOU
100
AcDbLine
 10
929.999985648752
 20
2397.403415746126
 30
0.0
 11
929.999985648752
 21
397.4034157461247
 31
0.0
  0
LINE
  5
F5
330
C3
100
AcDbEntity
  8
SUNPOU
100
AcDbLine
 10
999.999985648752
 20
397.4034157461247
 30
0.0
 11
1019.999985648752
 21
317.4034157461301
 31
0.0
  0
SOLID
  5
F6
330
C3
100
AcDbEntity
  8
SUNPOU
100
AcDbTrace
 10
1152.499985648758
 20
937.4034157461138
 30
0.0
 11
1137.499985648758
 21
847.4034157461138
 31
0.0
 12
1122.499985648756
 22
937.4034157461138
 32
0.0
 13
1122.499985648756
 23
937.4034157461138
 33
0.0
1001
ACAD
1000
DSTYLE
1002
{
1070
    78
1070
     8
1070
   284
1070
     8
1070
   140
1040
3.0
1070
   145
1040
1.0
1070
    74
1070
     0
1070
   172
1070
     1
1070
    73
1070
     0
1070
    77
1070
     1
1070
    40
1040
60.0
1070
   147
1040
0.8
1070
   287
1070
     5
1070
    42
1040
1.5
1070
    44
1040
0.6
1070
    43
1040
7.0
1070
   271
1070
     0
1070
   177
1070
   256
1070
   176
1070
   256
1070
   141
1040
0.0
1070
   275
1070
     1
1070
    41
1040
1.5
1070
   285
1070
     8
1070
   286
1070
     8
1002
}
  0
SOLID
  5
F7
330
C3
100
AcDbEntity
  8
SUNPOU
100
AcDbTrace
 10
1152.499985648758
 20
817.4034157461356
 30
0.0
 11
1137.499985648758
 21
727.4034157461356
 31
0.0
 12
1122.499985648756
 22
817.4034157461356
 32
0.0
 13
1122.499985648756
 23
817.4034157461356
 33
0.0
1001
ACAD
1000
DSTYLE
1002
{
1070
    78
1070
     8
1070
   284
1070
     8
1070
   140
1040
3.0
1070
   145
1040
1.0
1070
    74
1070
     0
1070
   172
1070
     1
1070
    73
1070
     0
1070
    77
1070
     1
1070
    40
1040
60.0
1070
   147
1040
0.8
1070
   287
1070
     5
1070
    42
1040
1.5
1070
    44
1040
0.6
1070
    43
1040
7.0
1070
   271
1070
     0
1070
   177
1070
   256
1070
   176
1070
   256
1070
   141
1040
0.0
1070
   275
1070
     1
1070
    41
1040
1.5
1070
   285
1070
     8
1070
   286
1070
     8
1002
}
  0
SOLID
  5
F8
330
C3
100
AcDbEntity
  8
SUNPOU
100
AcDbTrace
 10
1152.499985648754
 20
877.4034157461301
 30
0.0
 11
1137.499985648754
 21
787.4034157461301
 31
0.0
 12
1122.499985648752
 22
877.4034157461301
 32
0.0
 13
1122.499985648752
 23
877.4034157461301
 33
0.0
1001
ACAD
1000
DSTYLE
1002
{
1070
    78
1070
     8
1070
   284
1070
     8
1070
   140
1040
3.0
1070
   145
1040
1.0
1070
    74
1070
     0
1070
   172
1070
     1
1070
    73
1070
     0
1070
    77
1070
     1
1070
    40
1040
60.0
1070
   147
1040
0.8
1070
   287
1070
     5
1070
    42
1040
1.5
1070
    44
1040
0.6
1070
    43
1040
7.0
1070
   271
1070
     0
1070
   177
1070
   256
1070
   176
1070
   256
1070
   141
1040
0.0
1070
   275
1070
     1
1070
    41
1040
1.5
1070
   285
1070
     8
1070
   286
1070
     8
1002
}
  0
TEXT
  5
F9
330
C3
100
AcDbEntity
  8
SUNPOU
100
AcDbText
 10
239.9999856487393
 20
1762.40341574613
 30
0.0
 40
150.0
  1
D13
 50
90.0
 41
0.8
 11
164.9999856487393
 21
1762.40341574613
 31
0.0
100
AcDbText
 73
     2
  0
SOLID
  5
FA
330
C3
100
AcDbEntity
  8
SUNPOU
100
AcDbTrace
 10
1152.499985648756
 20
2022.403415746117
 30
0.0
 11
1137.499985648756
 21
1932.403415746117
 31
0.0
 12
1122.499985648756
 22
2022.403415746117
 32
0.0
 13
1122.499985648756
 23
2022.403415746117
 33
0.0
1001
ACAD
1000
DSTYLE
1002
{
1070
    78
1070
     8
1070
   284
1070
     8
1070
   140
1040
3.0
1070
   145
1040
1.0
1070
    74
1070
     0
1070
   172
1070
     1
1070
    73
1070
     0
1070
    77
1070
     1
1070
    40
1040
60.0
1070
   147
1040
0.8
1070
   287
1070
     5
1070
    42
1040
1.5
1070
    44
1040
0.6
1070
    43
1040
7.0
1070
   271
1070
     0
1070
   177
1070
   256
1070
   176
1070
   256
1070
   141
1040
0.0
1070
   275
1070
     1
1070
    41
1040
1.5
1070
   285
1070
     8
1070
   286
1070
     8
1002
}
  0
SOLID
  5
FB
330
C3
100
AcDbEntity
  8
SUNPOU
100
AcDbTrace
 10
1152.499985648756
 20
2082.403415746117
 30
0.0
 11
1137.499985648756
 21
1992.403415746117
 31
0.0
 12
1122.499985648756
 22
2082.403415746117
 32
0.0
 13
1122.499985648756
 23
2082.403415746117
 33
0.0
1001
ACAD
1000
DSTYLE
1002
{
1070
    78
1070
     8
1070
   284
1070
     8
1070
   140
1040
3.0
1070
   145
1040
1.0
1070
    74
1070
     0
1070
   172
1070
     1
1070
    73
1070
     0
1070
    77
1070
     1
1070
    40
1040
60.0
1070
   147
1040
0.8
1070
   287
1070
     5
1070
    42
1040
1.5
1070
    44
1040
0.6
1070
    43
1040
7.0
1070
   271
1070
     0
1070
   177
1070
   256
1070
   176
1070
   256
1070
   141
1040
0.0
1070
   275
1070
     1
1070
    41
1040
1.5
1070
   285
1070
     8
1070
   286
1070
     8
1002
}
  0
SOLID
  5
FC
330
C3
100
AcDbEntity
  8
SUNPOU
100
AcDbTrace
 10
1152.499985648756
 20
2142.403415746119
 30
0.0
 11
1137.499985648756
 21
2052.403415746119
 31
0.0
 12
1122.499985648756
 22
2142.403415746119
 32
0.0
 13
1122.499985648756
 23
2142.403415746119
 33
0.0
1001
ACAD
1000
DSTYLE
1002
{
1070
    78
1070
     8
1070
   284
1070
     8
1070
   140
1040
3.0
1070
   145
1040
1.0
1070
    74
1070
     0
1070
   172
1070
     1
1070
    73
1070
     0
1070
    77
1070
     1
1070
    40
1040
60.0
1070
   147
1040
0.8
1070
   287
1070
     5
1070
    42
1040
1.5
1070
    44
1040
0.6
1070
    43
1040
7.0
1070
   271
1070
     0
1070
   177
1070
   256
1070
   176
1070
   256
1070
   141
1040
0.0
1070
   275
1070
     1
1070
    41
1040
1.5
1070
   285
1070
     8
1070
   286
1070
     8
1002
}
  0
LINE
  5
FD
330
C3
100
AcDbEntity
  8
SUNPOU
100
AcDbLine
 10
1137.499985648756
 20
2817.403415746125
 30
0.0
 11
357.4999856487557
 21
2817.403415746125
 31
0.0
1001
ACAD
1000
DSTYLE
1002
{
1070
    78
1070
     8
1070
   284
1070
     8
1070
   140
1040
3.0
1070
   145
1040
1.0
1070
    74
1070
     0
1070
   172
1070
     1
1070
    73
1070
     0
1070
    77
1070
     1
1070
    40
1040
60.0
1070
   147
1040
0.8
1070
   287
1070
     5
1070
    42
1040
1.5
1070
    44
1040
0.6
1070
    43
1040
7.0
1070
   271
1070
     0
1070
   177
1070
   256
1070
   176
1070
   256
1070
   141
1040
0.0
1070
   275
1070
     1
1070
    41
1040
1.5
1070
   285
1070
     8
1070
   286
1070
     8
1002
}
  0
TEXT
  5
FE
330
C3
100
AcDbEntity
  8
SUNPOU
100
AcDbText
 10
979.9999856487611
 20
3317.403415746123
 30
0.0
 40
150.0
  1
H3
 41
0.8
 72
     4
 11
1079.999985648761
 21
3392.403415746123
 31
0.0
100
AcDbText
  0
CIRCLE
  5
FF
330
C3
100
AcDbEntity
  8
SUNPOU
100
AcDbCircle
 10
1079.999985648761
 20
3392.403415746123
 30
0.0
 40
165.0
  0
LINE
  5
100
330
C3
100
AcDbEntity
  8
HAIKIN
 62
     3
100
AcDbLine
 10
929.999985648752
 20
4587.403415746125
 30
0.0
 11
929.999985648752
 21
4887.403415746125
 31
0.0
  0
TEXT
  5
101
330
C3
100
AcDbEntity
  8
SUNPOU
100
AcDbText
 10
3194.999985648759
 20
2907.403415746125
 30
0.0
 40
150.0
  1
D13
 41
0.8
 11
3194.999985648759
 21
2982.403415746125
 31
0.0
100
AcDbText
 73
     2
  0
TEXT
  5
102
330
C3
100
AcDbEntity
  8
SUNPOU
100
AcDbText
 10
2889.999985648759
 20
2907.403415746125
 30
0.0
 40
150.0
  1
H1
 41
0.8
 72
     4
 11
2969.999985648759
 21
2982.403415746125
 31
0.0
100
AcDbText
  0
LINE
  5
103
330
C3
100
AcDbEntity
  8
SUNPOU
100
AcDbLine
 10
1679.999985648761
 20
1890.403415746132
 30
0.0
 11
1679.999985648763
 21
3227.403415746123
 31
0.0
1001
ACAD
1000
DSTYLE
1002
{
1070
    78
1070
     8
1070
   284
1070
     8
1070
   140
1040
3.0
1070
   145
1040
1.0
1070
    74
1070
     0
1070
   172
1070
     1
1070
    73
1070
     0
1070
    77
1070
     1
1070
    40
1040
60.0
1070
   147
1040
0.8
1070
   287
1070
     5
1070
    42
1040
1.5
1070
    44
1040
0.6
1070
    43
1040
7.0
1070
   271
1070
     0
1070
   177
1070
   256
1070
   176
1070
   256
1070
   141
1040
0.0
1070
   275
1070
     1
1070
    41
1040
1.5
1070
   285
1070
     8
1070
   286
1070
     8
1002
}
  0
LINE
  5
104
330
C3
100
AcDbEntity
  8
SUNPOU
100
AcDbLine
 10
2279.999985648761
 20
1827.403415746126
 30
0.0
 11
2279.999985648759
 21
3227.403415746123
 31
0.0
1001
ACAD
1000
DSTYLE
1002
{
1070
    78
1070
     8
1070
   284
1070
     8
1070
   140
1040
3.0
1070
   145
1040
1.0
1070
    74
1070
     0
1070
   172
1070
     1
1070
    73
1070
     0
1070
    77
1070
     1
1070
    40
1040
60.0
1070
   147
1040
0.8
1070
   287
1070
     5
1070
    42
1040
1.5
1070
    44
1040
0.6
1070
    43
1040
7.0
1070
   271
1070
     0
1070
   177
1070
   256
1070
   176
1070
   256
1070
   141
1040
0.0
1070
   275
1070
     1
1070
    41
1040
1.5
1070
   285
1070
     8
1070
   286
1070
     8
1002
}
  0
CIRCLE
  5
105
330
C3
100
AcDbEntity
  8
SUNPOU
100
AcDbCircle
 10
2969.999985648759
 20
2982.403415746125
 30
0.0
 40
165.0
  0
LINE
  5
106
330
C3
100
AcDbEntity
  8
1HASEN
100
AcDbLine
 10
1979.999985648754
 20
4077.403415746121
 30
0.0
 11
1979.999985648759
 21
17.40341574611921
 31
0.0
  0
TEXT
  5
107
330
C3
100
AcDbEntity
  8
SUNPOU
100
AcDbText
 10
3359.999985648745
 20
1762.403415746126
 30
0.0
 40
150.0
  1
D13
 50
90.0
 41
0.8
 11
3284.999985648745
 21
1762.403415746126
 31
0.0
100
AcDbText
 73
     2
  0
TEXT
  5
108
330
C3
100
AcDbEntity
  8
SUNPOU
100
AcDbText
 10
3359.999985648745
 20
1437.403415746125
 30
0.0
 40
150.0
  1
H2
 50
90.0
 41
0.8
 72
     4
 11
3284.999985648745
 21
1537.403415746125
 31
0.0
100
AcDbText
  0
LINE
  5
109
330
C3
100
AcDbEntity
  8
SUNPOU
100
AcDbLine
 10
2789.999985648759
 20
2817.403415746125
 30
0.0
 11
3569.999985648759
 21
2817.403415746125
 31
0.0
1001
ACAD
1000
DSTYLE
1002
{
1070
    78
1070
     8
1070
   284
1070
     8
1070
   140
1040
3.0
1070
   145
1040
1.0
1070
    74
1070
     0
1070
   172
1070
     1
1070
    73
1070
     0
1070
    77
1070
     1
1070
    40
1040
60.0
1070
   147
1040
0.8
1070
   287
1070
     5
1070
    42
1040
1.5
1070
    44
1040
0.6
1070
    43
1040
7.0
1070
   271
1070
     0
1070
   177
1070
   256
1070
   176
1070
   256
1070
   141
1040
0.0
1070
   275
1070
     1
1070
    41
1040
1.5
1070
   285
1070
     8
1070
   286
1070
     8
1002
}
  0
LINE
  5
10A
330
C3
100
AcDbEntity
  8
SUNPOU
100
AcDbLine
 10
2429.999985648759
 20
1357.403415746125
 30
0.0
 11
3449.999985648745
 21
1357.403415746123
 31
0.0
1001
ACAD
1000
DSTYLE
1002
{
1070
    78
1070
     8
1070
   284
1070
     8
1070
   140
1040
3.0
1070
   145
1040
1.0
1070
    74
1070
     0
1070
   172
1070
     1
1070
    73
1070
     0
1070
    77
1070
     1
1070
    40
1040
60.0
1070
   147
1040
0.8
1070
   287
1070
     5
1070
    42
1040
1.5
1070
    44
1040
0.6
1070
    43
1040
7.0
1070
   271
1070
     0
1070
   177
1070
   256
1070
   176
1070
   256
1070
   141
1040
0.0
1070
   275
1070
     1
1070
    41
1040
1.5
1070
   285
1070
     8
1070
   286
1070
     8
1002
}
  0
CIRCLE
  5
10B
330
C3
100
AcDbEntity
  8
SUNPOU
100
AcDbCircle
 10
3284.999985648745
 20
1537.403415746125
 30
0.0
 40
165.0
  0
LINE
  5
10C
330
C3
100
AcDbEntity
  8
HAIKIN
100
AcDbLine
 10
1486.99998564875
 20
939.4034157461192
 30
0.0
 11
1486.99998564875
 21
1855.403415746132
 31
0.0
  0
LINE
  5
10D
330
C3
100
AcDbEntity
  8
HAIKIN
100
AcDbLine
 10
2409.999985648758
 20
1792.403415746126
 30
0.0
 11
2409.999985648759
 21
1002.403415746126
 31
0.0
  0
LINE
  5
10E
330
C3
100
AcDbEntity
  8
SUNPOU
100
AcDbLine
 10
2789.999985648759
 20
787.4034157461319
 30
0.0
 11
2789.999985648759
 21
2817.403415746125
 31
0.0
1001
ACAD
1000
DSTYLE
1002
{
1070
    78
1070
     8
1070
   284
1070
     8
1070
   140
1040
3.0
1070
   145
1040
1.0
1070
    74
1070
     0
1070
   172
1070
     1
1070
    73
1070
     0
1070
    77
1070
     1
1070
    40
1040
60.0
1070
   147
1040
0.8
1070
   287
1070
     5
1070
    42
1040
1.5
1070
    44
1040
0.6
1070
    43
1040
7.0
1070
   271
1070
     0
1070
   177
1070
   256
1070
   176
1070
   256
1070
   141
1040
0.0
1070
   275
1070
     1
1070
    41
1040
1.5
1070
   285
1070
     8
1070
   286
1070
     8
1002
}
  0
LINE
  5
10F
330
C3
100
AcDbEntity
  8
HAIKIN
100
AcDbLine
 10
2469.999985648758
 20
352.4034157461247
 30
0.0
 11
2469.999985648758
 21
2257.403415746121
 31
0.0
  0
LINE
  5
110
330
C3
100
AcDbEntity
  8
HAIKIN
100
AcDbLine
 10
2529.999985648759
 20
352.4034157461247
 30
0.0
 11
2529.999985648759
 21
2257.403415746121
 31
0.0
  0
LINE
  5
111
330
C3
100
AcDbEntity
  8
HAIKIN
100
AcDbLine
 10
2589.999985648761
 20
352.4034157461247
 30
0.0
 11
2589.999985648758
 21
2257.403415746121
 31
0.0
  0
LINE
  5
112
330
C3
100
AcDbEntity
  8
HAIKIN
100
AcDbLine
 10
1426.999985648754
 20
457.4034157461228
 30
0.0
 11
1426.999985648752
 21
2362.403415746123
 31
0.0
  0
LINE
  5
113
330
C3
100
AcDbEntity
  8
HAIKIN
100
AcDbLine
 10
1366.999985648756
 20
457.4034157461228
 30
0.0
 11
1366.999985648748
 21
2362.403415746123
 31
0.0
  0
LINE
  5
114
330
C3
100
AcDbEntity
  8
HAIKIN
100
AcDbLine
 10
1306.999985648754
 20
457.4034157461228
 30
0.0
 11
1306.999985648748
 21
2362.403415746123
 31
0.0
  0
LINE
  5
115
330
C3
100
AcDbEntity
  8
SUNPOU
100
AcDbLine
 10
2914.99998564875
 20
2257.403415746121
 30
0.0
 11
2914.99998564875
 21
352.4034157461265
 31
0.0
  0
LINE
  5
116
330
C3
100
AcDbEntity
  8
SUNPOU
100
AcDbLine
 10
2729.999985648759
 20
2257.403415746121
 30
0.0
 11
2729.999985648759
 21
352.4034157461228
 31
0.0
  0
LINE
  5
117
330
C3
100
AcDbEntity
  8
SUNPOU
100
AcDbLine
 10
2429.999985648759
 20
2257.403415746121
 30
0.0
 11
2429.999985648758
 21
352.403415746121
 31
0.0
  0
LINE
  5
118
330
C3
100
AcDbEntity
  8
SUNPOU
100
AcDbLine
 10
2379.999985648758
 20
1797.403415746126
 30
0.0
 11
2379.999985648758
 21
997.4034157461265
 31
0.0
  0
LINE
  5
119
330
C3
100
AcDbEntity
  8
SUNPOU
100
AcDbLine
 10
3029.99998564875
 20
2397.403415746121
 30
0.0
 11
3029.99998564875
 21
397.403415746121
 31
0.0
  0
LINE
  5
11A
330
C3
100
AcDbEntity
  8
SUNPOU
100
AcDbLine
 10
1516.999985648752
 20
934.403415746121
 30
0.0
 11
1516.999985648752
 21
1860.403415746126
 31
0.0
  0
LINE
  5
11B
330
C3
100
AcDbEntity
  8
SUNPOU
100
AcDbLine
 10
1579.999985648756
 20
1797.403415746126
 30
0.0
 11
1579.999985648758
 21
997.4034157461265
 31
0.0
  0
LINE
  5
11C
330
C3
100
AcDbEntity
  8
HAIKIN
100
AcDbLine
 10
2374.999985648759
 20
967.4034157461265
 30
0.0
 11
1979.999985648752
 21
967.4034157461265
 31
0.0
  0
LINE
  5
11D
330
C3
100
AcDbEntity
  8
HAIKIN
100
AcDbLine
 10
2994.999985648774
 20
787.4034157461319
 30
0.0
 11
1979.999985648759
 21
787.4034157461283
 31
0.0
  0
LINE
  5
11E
330
C3
100
AcDbEntity
  8
HAIKIN
100
AcDbLine
 10
2994.999985648774
 20
847.4034157461319
 30
0.0
 11
1979.999985648758
 21
847.4034157461283
 31
0.0
  0
LINE
  5
11F
330
C3
100
AcDbEntity
  8
HAIKIN
100
AcDbLine
 10
2994.999985648774
 20
907.4034157461319
 30
0.0
 11
1979.999985648759
 21
907.4034157461283
 31
0.0
  0
LINE
  5
120
330
C3
100
AcDbEntity
  8
SUNPOU
100
AcDbLine
 10
2914.99998564875
 20
352.4034157461265
 30
0.0
 11
1979.999985648759
 21
352.403415746121
 31
0.0
  0
LINE
  5
121
330
C3
100
AcDbEntity
  8
SUNPOU
100
AcDbLine
 10
2994.999985648774
 20
457.4034157461247
 30
0.0
 11
1979.999985648759
 21
457.403415746121
 31
0.0
  0
LINE
  5
122
330
C3
100
AcDbEntity
  8
SUNPOU
100
AcDbLine
 10
2994.999985648774
 20
937.4034157461247
 30
0.0
 11
1979.999985648759
 21
937.403415746121
 31
0.0
  0
LINE
  5
123
330
C3
100
AcDbEntity
  8
SUNPOU
100
AcDbLine
 10
2994.999985648774
 20
817.4034157461247
 30
0.0
 11
1979.999985648759
 21
817.403415746121
 31
0.0
  0
LINE
  5
124
330
C3
100
AcDbEntity
  8
SUNPOU
100
AcDbLine
 10
2994.999985648774
 20
697.4034157461247
 30
0.0
 11
1979.999985648759
 21
697.403415746121
 31
0.0
  0
LINE
  5
125
330
C3
100
AcDbEntity
  8
SUNPOU
100
AcDbLine
 10
2994.999985648774
 20
577.4034157461247
 30
0.0
 11
1979.999985648759
 21
577.403415746121
 31
0.0
  0
LINE
  5
126
330
C3
100
AcDbEntity
  8
SUNPOU
100
AcDbLine
 10
2939.99998564875
 20
317.4034157461247
 30
0.0
 11
1963.628976814191
 21
317.403415746121
 31
0.0
  0
LINE
  5
127
330
C3
100
AcDbEntity
  8
1HASEN
100
AcDbLine
 10
1379.999985648756
 20
1397.403415746126
 30
0.0
 11
2579.999985648758
 21
1397.403415746126
 31
0.0
  0
LINE
  5
128
330
C3
100
AcDbEntity
  8
SUNPOU
100
AcDbLine
 10
2379.999985648758
 20
997.4034157461265
 30
0.0
 11
1579.999985648758
 21
997.4034157461265
 31
0.0
  0
ARC
  5
129
330
C3
100
AcDbEntity
  8
HAIKIN
100
AcDbCircle
 10
1521.99998564875
 20
939.4034157461192
 30
0.0
 40
35.0
100
AcDbArc
 50
180.0
 51
270.0
  0
LINE
  5
12A
330
C3
100
AcDbEntity
  8
SUNPOU
100
AcDbLine
 10
2129.999985648758
 20
967.4034157461283
 30
0.0
 11
2129.999985648759
 21
352.4034157461192
 31
0.0
  0
LINE
  5
12B
330
C3
100
AcDbEntity
  8
HAIKIN
100
AcDbLine
 10
1521.99998564875
 20
904.4034157461192
 30
0.0
 11
1979.999985648758
 21
904.4034157461228
 31
0.0
  0
LINE
  5
12C
330
C3
100
AcDbEntity
  8
SUNPOU
100
AcDbLine
 10
1516.999985648752
 20
934.403415746121
 30
0.0
 11
1979.999985648758
 21
934.4034157461228
 31
0.0
  0
LINE
  5
12D
330
C3
100
AcDbEntity
  8
SUNPOU
100
AcDbLine
 10
1529.999985648765
 20
904.403415746121
 30
0.0
 11
1529.999985648767
 21
457.4034157461247
 31
0.0
  0
LINE
  5
12E
330
C3
100
AcDbEntity
  8
SUNPOU
100
AcDbLine
 10
1829.999985648759
 20
904.4034157461228
 30
0.0
 11
1829.999985648759
 21
457.4034157461192
 31
0.0
  0
SOLID
  5
12F
330
C3
100
AcDbEntity
  8
SUNPOU
100
AcDbTrace
 10
1276.999985648759
 20
1372.403415746128
 30
0.0
 11
1366.999985648759
 21
1357.403415746128
 31
0.0
 12
1276.999985648759
 22
1342.403415746128
 32
0.0
 13
1276.999985648759
 23
1342.403415746128
 33
0.0
1001
ACAD
1000
DSTYLE
1002
{
1070
    78
1070
     8
1070
   284
1070
     8
1070
   140
1040
3.0
1070
   145
1040
1.0
1070
    74
1070
     0
1070
   172
1070
     1
1070
    73
1070
     0
1070
    77
1070
     1
1070
    40
1040
60.0
1070
   147
1040
0.8
1070
   287
1070
     5
1070
    42
1040
1.5
1070
    44
1040
0.6
1070
    43
1040
7.0
1070
   271
1070
     0
1070
   177
1070
   256
1070
   176
1070
   256
1070
   141
1040
0.0
1070
   275
1070
     1
1070
    41
1040
1.5
1070
   285
1070
     8
1070
   286
1070
     8
1002
}
  0
SOLID
  5
130
330
C3
100
AcDbEntity
  8
SUNPOU
100
AcDbTrace
 10
1336.99998564877
 20
1372.403415746125
 30
0.0
 11
1426.99998564877
 21
1357.403415746123
 31
0.0
 12
1336.99998564877
 22
1342.403415746125
 32
0.0
 13
1336.99998564877
 23
1342.403415746125
 33
0.0
1001
ACAD
1000
DSTYLE
1002
{
1070
    78
1070
     8
1070
   284
1070
     8
1070
   140
1040
3.0
1070
   145
1040
1.0
1070
    74
1070
     0
1070
   172
1070
     1
1070
    73
1070
     0
1070
    77
1070
     1
1070
    40
1040
60.0
1070
   147
1040
0.8
1070
   287
1070
     5
1070
    42
1040
1.5
1070
    44
1040
0.6
1070
    43
1040
7.0
1070
   271
1070
     0
1070
   177
1070
   256
1070
   176
1070
   256
1070
   141
1040
0.0
1070
   275
1070
     1
1070
    41
1040
1.5
1070
   285
1070
     8
1070
   286
1070
     8
1002
}
  0
SOLID
  5
131
330
C3
100
AcDbEntity
  8
SUNPOU
100
AcDbTrace
 10
2804.999985648759
 20
997.4034157461319
 30
0.0
 11
2789.999985648759
 21
907.4034157461319
 31
0.0
 12
2774.999985648759
 22
997.4034157461319
 32
0.0
 13
2774.999985648759
 23
997.4034157461319
 33
0.0
1001
ACAD
1000
DSTYLE
1002
{
1070
    78
1070
     8
1070
   284
1070
     8
1070
   140
1040
3.0
1070
   145
1040
1.0
1070
    74
1070
     0
1070
   172
1070
     1
1070
    73
1070
     0
1070
    77
1070
     1
1070
    40
1040
60.0
1070
   147
1040
0.8
1070
   287
1070
     5
1070
    42
1040
1.5
1070
    44
1040
0.6
1070
    43
1040
7.0
1070
   271
1070
     0
1070
   177
1070
   256
1070
   176
1070
   256
1070
   141
1040
0.0
1070
   275
1070
     1
1070
    41
1040
1.5
1070
   285
1070
     8
1070
   286
1070
     8
1002
}
  0
LINE
  5
132
330
C3
100
AcDbEntity
  8
HASEN
100
AcDbLine
 10
2994.999985648772
 20
715.4034157461156
 30
0.0
 11
2644.497460331817
 21
715.4034157461119
 31
0.0
  0
LINE
  5
133
330
C3
100
AcDbEntity
  8
HASEN
100
AcDbLine
 10
2994.999985648772
 20
475.4034157461156
 30
0.0
 11
2644.497460331817
 21
475.4034157461119
 31
0.0
  0
LINE
  5
134
330
C3
100
AcDbEntity
  8
SUNPOU
100
AcDbLine
 10
3029.99998564875
 20
397.403415746121
 30
0.0
 11
2959.999985648748
 21
397.403415746121
 31
0.0
  0
LINE
  5
135
330
C3
100
AcDbEntity
  8
SUNPOU
100
AcDbLine
 10
2959.999985648748
 20
397.403415746121
 30
0.0
 11
2939.999985648748
 21
317.4034157461228
 31
0.0
  0
SOLID
  5
136
330
C3
100
AcDbEntity
  8
SUNPOU
100
AcDbTrace
 10
2804.999985648759
 20
937.4034157461319
 30
0.0
 11
2789.999985648759
 21
847.4034157461319
 31
0.0
 12
2774.999985648759
 22
937.4034157461319
 32
0.0
 13
2774.999985648759
 23
937.4034157461319
 33
0.0
1001
ACAD
1000
DSTYLE
1002
{
1070
    78
1070
     8
1070
   284
1070
     8
1070
   140
1040
3.0
1070
   145
1040
1.0
1070
    74
1070
     0
1070
   172
1070
     1
1070
    73
1070
     0
1070
    77
1070
     1
1070
    40
1040
60.0
1070
   147
1040
0.8
1070
   287
1070
     5
1070
    42
1040
1.5
1070
    44
1040
0.6
1070
    43
1040
7.0
1070
   271
1070
     0
1070
   177
1070
   256
1070
   176
1070
   256
1070
   141
1040
0.0
1070
   275
1070
     1
1070
    41
1040
1.5
1070
   285
1070
     8
1070
   286
1070
     8
1002
}
  0
SOLID
  5
137
330
C3
100
AcDbEntity
  8
SUNPOU
100
AcDbTrace
 10
2804.999985648759
 20
877.4034157461319
 30
0.0
 11
2789.999985648759
 21
787.4034157461319
 31
0.0
 12
2774.999985648759
 22
877.4034157461319
 32
0.0
 13
2774.999985648759
 23
877.4034157461319
 33
0.0
1001
ACAD
1000
DSTYLE
1002
{
1070
    78
1070
     8
1070
   284
1070
     8
1070
   140
1040
3.0
1070
   145
1040
1.0
1070
    74
1070
     0
1070
   172
1070
     1
1070
    73
1070
     0
1070
    77
1070
     1
1070
    40
1040
60.0
1070
   147
1040
0.8
1070
   287
1070
     5
1070
    42
1040
1.5
1070
    44
1040
0.6
1070
    43
1040
7.0
1070
   271
1070
     0
1070
   177
1070
   256
1070
   176
1070
   256
1070
   141
1040
0.0
1070
   275
1070
     1
1070
    41
1040
1.5
1070
   285
1070
     8
1070
   286
1070
     8
1002
}
  0
LINE
  5
138
330
C3
100
AcDbEntity
  8
SUNPOU
100
AcDbLine
 10
2994.999985648774
 20
1537.403415746125
 30
0.0
 11
2409.999985648759
 21
1537.403415746121
 31
0.0
  0
LINE
  5
139
330
C3
100
AcDbEntity
  8
SUNPOU
100
AcDbLine
 10
2994.999985648774
 20
1417.403415746125
 30
0.0
 11
2409.999985648759
 21
1417.403415746121
 31
0.0
  0
LINE
  5
13A
330
C3
100
AcDbEntity
  8
SUNPOU
100
AcDbLine
 10
2994.999985648774
 20
1297.403415746125
 30
0.0
 11
2409.999985648759
 21
1297.403415746125
 31
0.0
  0
LINE
  5
13B
330
C3
100
AcDbEntity
  8
SUNPOU
100
AcDbLine
 10
2994.999985648774
 20
1177.403415746125
 30
0.0
 11
2409.999985648759
 21
1177.403415746121
 31
0.0
  0
LINE
  5
13C
330
C3
100
AcDbEntity
  8
SUNPOU
100
AcDbLine
 10
2994.999985648774
 20
1057.403415746125
 30
0.0
 11
2409.999985648759
 21
1057.403415746121
 31
0.0
  0
LINE
  5
13D
330
C3
100
AcDbEntity
  8
HASEN
100
AcDbLine
 10
2994.999985648772
 20
955.4034157461156
 30
0.0
 11
2644.497460331817
 21
955.4034157461119
 31
0.0
  0
LINE
  5
13E
330
C3
100
AcDbEntity
  8
HASEN
100
AcDbLine
 10
2994.999985648772
 20
1195.403415746116
 30
0.0
 11
2644.497460331817
 21
1195.403415746112
 31
0.0
  0
LINE
  5
13F
330
C3
100
AcDbEntity
  8
HASEN
100
AcDbLine
 10
2994.999985648772
 20
1435.403415746116
 30
0.0
 11
2644.497460331817
 21
1435.403415746112
 31
0.0
  0
ARC
  5
140
330
C3
100
AcDbEntity
  8
HAIKIN
100
AcDbCircle
 10
2374.999985648759
 20
1002.403415746126
 30
0.0
 40
35.0
100
AcDbArc
 50
270.0
 51
0.0
  0
LINE
  5
141
330
C3
100
AcDbEntity
  8
HAIKIN
100
AcDbLine
 10
2374.999985648758
 20
1827.403415746126
 30
0.0
 11
1979.999985648752
 21
1827.403415746126
 31
0.0
  0
LINE
  5
142
330
C3
100
AcDbEntity
  8
HAIKIN
100
AcDbLine
 10
2994.999985648774
 20
1872.403415746125
 30
0.0
 11
1979.999985648759
 21
1872.403415746121
 31
0.0
  0
LINE
  5
143
330
C3
100
AcDbEntity
  8
HAIKIN
100
AcDbLine
 10
2994.999985648774
 20
1932.403415746125
 30
0.0
 11
1979.999985648758
 21
1932.403415746121
 31
0.0
  0
LINE
  5
144
330
C3
100
AcDbEntity
  8
HAIKIN
100
AcDbLine
 10
2994.999985648774
 20
1992.403415746125
 30
0.0
 11
1979.999985648758
 21
1992.403415746121
 31
0.0
  0
LINE
  5
145
330
C3
100
AcDbEntity
  8
SUNPOU
100
AcDbLine
 10
2994.999985648774
 20
2017.403415746125
 30
0.0
 11
1979.999985648759
 21
2017.403415746121
 31
0.0
  0
LINE
  5
146
330
C3
100
AcDbEntity
  8
SUNPOU
100
AcDbLine
 10
2994.999985648774
 20
2137.403415746125
 30
0.0
 11
1979.999985648759
 21
2137.403415746121
 31
0.0
  0
LINE
  5
147
330
C3
100
AcDbEntity
  8
SUNPOU
100
AcDbLine
 10
2994.999985648774
 20
2257.403415746125
 30
0.0
 11
1979.999985648759
 21
2257.403415746121
 31
0.0
  0
LINE
  5
148
330
C3
100
AcDbEntity
  8
SUNPOU
100
AcDbLine
 10
2994.999985648774
 20
1897.403415746125
 30
0.0
 11
1979.999985648759
 21
1897.403415746121
 31
0.0
  0
LINE
  5
149
330
C3
100
AcDbEntity
  8
SUNPOU
100
AcDbLine
 10
2949.999985648748
 20
2317.403415746123
 30
0.0
 11
1979.999985648759
 21
2317.403415746121
 31
0.0
  0
LINE
  5
14A
330
C3
100
AcDbEntity
  8
SUNPOU
100
AcDbLine
 10
2379.999985648758
 20
1797.403415746126
 30
0.0
 11
1579.999985648756
 21
1797.403415746126
 31
0.0
  0
LINE
  5
14B
330
C3
100
AcDbEntity
  8
SUNPOU
100
AcDbLine
 10
1829.999985648765
 20
2362.403415746123
 30
0.0
 11
1829.999985648759
 21
1890.403415746126
 31
0.0
  0
LINE
  5
14C
330
C3
100
AcDbEntity
  8
SUNPOU
100
AcDbLine
 10
1529.999985648763
 20
2362.403415746125
 30
0.0
 11
1529.999985648763
 21
1890.403415746128
 31
0.0
  0
LINE
  5
14D
330
C3
100
AcDbEntity
  8
HAIKIN
100
AcDbLine
 10
1979.999985648758
 20
1890.403415746128
 30
0.0
 11
1521.99998564875
 21
1890.403415746132
 31
0.0
  0
LINE
  5
14E
330
C3
100
AcDbEntity
  8
SUNPOU
100
AcDbLine
 10
1979.999985648758
 20
1860.403415746128
 30
0.0
 11
1516.999985648752
 21
1860.403415746126
 31
0.0
  0
ARC
  5
14F
330
C3
100
AcDbEntity
  8
HAIKIN
100
AcDbCircle
 10
1521.99998564875
 20
1855.403415746132
 30
0.0
 40
35.0
100
AcDbArc
 50
90.0
 51
180.0
  0
SOLID
  5
150
330
C3
100
AcDbEntity
  8
SUNPOU
100
AcDbTrace
 10
1694.999985648759
 20
1980.403415746141
 30
0.0
 11
1679.999985648759
 21
1890.403415746141
 31
0.0
 12
1664.999985648759
 22
1980.403415746141
 32
0.0
 13
1664.999985648759
 23
1980.403415746141
 33
0.0
1001
ACAD
1000
DSTYLE
1002
{
1070
    78
1070
     8
1070
   284
1070
     8
1070
   140
1040
3.0
1070
   145
1040
1.0
1070
    74
1070
     0
1070
   172
1070
     1
1070
    73
1070
     0
1070
    77
1070
     1
1070
    40
1040
60.0
1070
   147
1040
0.8
1070
   287
1070
     5
1070
    42
1040
1.5
1070
    44
1040
0.6
1070
    43
1040
7.0
1070
   271
1070
     0
1070
   177
1070
   256
1070
   176
1070
   256
1070
   141
1040
0.0
1070
   275
1070
     1
1070
    41
1040
1.5
1070
   285
1070
     8
1070
   286
1070
     8
1002
}
  0
LINE
  5
151
330
C3
100
AcDbEntity
  8
SUNPOU
100
AcDbLine
 10
2129.999985648759
 20
2257.403415746121
 30
0.0
 11
2129.999985648759
 21
1827.40341574613
 31
0.0
  0
LINE
  5
152
330
C3
100
AcDbEntity
  8
SUNPOU
100
AcDbLine
 10
2969.99998564875
 20
2397.403415746121
 30
0.0
 11
2949.99998564875
 21
2317.403415746125
 31
0.0
  0
LINE
  5
153
330
C3
100
AcDbEntity
  8
SUNPOU
100
AcDbLine
 10
2994.999985648774
 20
1777.403415746125
 30
0.0
 11
2409.999985648758
 21
1777.403415746119
 31
0.0
  0
LINE
  5
154
330
C3
100
AcDbEntity
  8
SUNPOU
100
AcDbLine
 10
2994.999985648774
 20
1657.403415746125
 30
0.0
 11
2409.999985648758
 21
1657.403415746121
 31
0.0
  0
LINE
  5
155
330
C3
100
AcDbEntity
  8
HASEN
100
AcDbLine
 10
2994.999985648772
 20
2155.403415746116
 30
0.0
 11
2644.497460331817
 21
2155.403415746112
 31
0.0
  0
LINE
  5
156
330
C3
100
AcDbEntity
  8
HASEN
100
AcDbLine
 10
2994.999985648772
 20
1915.403415746116
 30
0.0
 11
2644.497460331817
 21
1915.403415746112
 31
0.0
  0
LINE
  5
157
330
C3
100
AcDbEntity
  8
HASEN
100
AcDbLine
 10
2994.999985648772
 20
1675.403415746116
 30
0.0
 11
2644.497460331817
 21
1675.403415746112
 31
0.0
  0
ARC
  5
158
330
C3
100
AcDbEntity
  8
HAIKIN
100
AcDbCircle
 10
2374.999985648758
 20
1792.403415746126
 30
0.0
 40
35.0
100
AcDbArc
 50
0.0
 51
90.0
  0
SOLID
  5
159
330
C3
100
AcDbEntity
  8
SUNPOU
100
AcDbTrace
 10
2294.999985648761
 20
1917.403415746126
 30
0.0
 11
2279.999985648761
 21
1827.403415746126
 31
0.0
 12
2264.999985648761
 22
1917.403415746126
 32
0.0
 13
2264.999985648761
 23
1917.403415746126
 33
0.0
1001
ACAD
1000
DSTYLE
1002
{
1070
    78
1070
     8
1070
   284
1070
     8
1070
   140
1040
3.0
1070
   145
1040
1.0
1070
    74
1070
     0
1070
   172
1070
     1
1070
    73
1070
     0
1070
    77
1070
     1
1070
    40
1040
60.0
1070
   147
1040
0.8
1070
   287
1070
     5
1070
    42
1040
1.5
1070
    44
1040
0.6
1070
    43
1040
7.0
1070
   271
1070
     0
1070
   177
1070
   256
1070
   176
1070
   256
1070
   141
1040
0.0
1070
   275
1070
     1
1070
    41
1040
1.5
1070
   285
1070
     8
1070
   286
1070
     8
1002
}
  0
SOLID
  5
15A
330
C3
100
AcDbEntity
  8
SUNPOU
100
AcDbTrace
 10
2804.999985648759
 20
2022.403415746125
 30
0.0
 11
2789.999985648759
 21
1932.403415746125
 31
0.0
 12
2774.999985648759
 22
2022.403415746125
 32
0.0
 13
2774.999985648759
 23
2022.403415746125
 33
0.0
1001
ACAD
1000
DSTYLE
1002
{
1070
    78
1070
     8
1070
   284
1070
     8
1070
   140
1040
3.0
1070
   145
1040
1.0
1070
    74
1070
     0
1070
   172
1070
     1
1070
    73
1070
     0
1070
    77
1070
     1
1070
    40
1040
60.0
1070
   147
1040
0.8
1070
   287
1070
     5
1070
    42
1040
1.5
1070
    44
1040
0.6
1070
    43
1040
7.0
1070
   271
1070
     0
1070
   177
1070
   256
1070
   176
1070
   256
1070
   141
1040
0.0
1070
   275
1070
     1
1070
    41
1040
1.5
1070
   285
1070
     8
1070
   286
1070
     8
1002
}
  0
SOLID
  5
15B
330
C3
100
AcDbEntity
  8
SUNPOU
100
AcDbTrace
 10
2804.999985648759
 20
1962.403415746125
 30
0.0
 11
2789.999985648759
 21
1872.403415746125
 31
0.0
 12
2774.999985648759
 22
1962.403415746125
 32
0.0
 13
2774.999985648759
 23
1962.403415746125
 33
0.0
1001
ACAD
1000
DSTYLE
1002
{
1070
    78
1070
     8
1070
   284
1070
     8
1070
   140
1040
3.0
1070
   145
1040
1.0
1070
    74
1070
     0
1070
   172
1070
     1
1070
    73
1070
     0
1070
    77
1070
     1
1070
    40
1040
60.0
1070
   147
1040
0.8
1070
   287
1070
     5
1070
    42
1040
1.5
1070
    44
1040
0.6
1070
    43
1040
7.0
1070
   271
1070
     0
1070
   177
1070
   256
1070
   176
1070
   256
1070
   141
1040
0.0
1070
   275
1070
     1
1070
    41
1040
1.5
1070
   285
1070
     8
1070
   286
1070
     8
1002
}
  0
SOLID
  5
15C
330
C3
100
AcDbEntity
  8
SUNPOU
100
AcDbTrace
 10
2804.999985648759
 20
2082.403415746125
 30
0.0
 11
2789.999985648759
 21
1992.403415746125
 31
0.0
 12
2774.999985648759
 22
2082.403415746125
 32
0.0
 13
2774.999985648759
 23
2082.403415746125
 33
0.0
1001
ACAD
1000
DSTYLE
1002
{
1070
    78
1070
     8
1070
   284
1070
     8
1070
   140
1040
3.0
1070
   145
1040
1.0
1070
    74
1070
     0
1070
   172
1070
     1
1070
    73
1070
     0
1070
    77
1070
     1
1070
    40
1040
60.0
1070
   147
1040
0.8
1070
   287
1070
     5
1070
    42
1040
1.5
1070
    44
1040
0.6
1070
    43
1040
7.0
1070
   271
1070
     0
1070
   177
1070
   256
1070
   176
1070
   256
1070
   141
1040
0.0
1070
   275
1070
     1
1070
    41
1040
1.5
1070
   285
1070
     8
1070
   286
1070
     8
1002
}
  0
LINE
  5
15D
330
C3
100
AcDbEntity
  8
SUNPOU
100
AcDbLine
 10
2969.99998564875
 20
2397.403415746121
 30
0.0
 11
3029.99998564875
 21
2397.403415746121
 31
0.0
  0
LINE
  5
15E
330
C3
100
AcDbEntity
  8
SUNPOU
100
AcDbLine
 10
3449.999985648745
 20
1357.403415746123
 30
0.0
 11
3449.999985648745
 21
2102.632833953865
 31
0.0
1001
ACAD
1000
DSTYLE
1002
{
1070
    78
1070
     8
1070
   284
1070
     8
1070
   140
1040
3.0
1070
   145
1040
1.0
1070
    74
1070
     0
1070
   172
1070
     1
1070
    73
1070
     0
1070
    77
1070
     1
1070
    40
1040
60.0
1070
   147
1040
0.8
1070
   287
1070
     5
1070
    42
1040
1.5
1070
    44
1040
0.6
1070
    43
1040
7.0
1070
   271
1070
     0
1070
   177
1070
   256
1070
   176
1070
   256
1070
   141
1040
0.0
1070
   275
1070
     1
1070
    41
1040
1.5
1070
   285
1070
     8
1070
   286
1070
     8
1002
}
  0
TEXT
  5
15F
330
C3
100
AcDbEntity
  8
SUNPOU
100
AcDbText
 10
1304.999985648761
 20
3317.403415746123
 30
0.0
 40
150.0
  1
D10
 41
0.8
 11
1304.999985648761
 21
3392.403415746123
 31
0.0
100
AcDbText
 73
     2
  0
TEXT
  5
160
330
C3
100
AcDbEntity
  8
SUNPOU
100
AcDbText
 10
2684.999985648759
 20
3317.403415746123
 30
0.0
 40
150.0
  1
D10
 41
0.8
 11
2684.999985648759
 21
3392.403415746123
 31
0.0
100
AcDbText
 73
     2
  0
LINE
  5
161
330
C3
100
AcDbEntity
  8
SUNPOU
100
AcDbLine
 10
2279.999985648759
 20
3227.403415746123
 30
0.0
 11
3059.999985648759
 21
3227.403415746123
 31
0.0
1001
ACAD
1000
DSTYLE
1002
{
1070
    78
1070
     8
1070
   284
1070
     8
1070
   140
1040
3.0
1070
   145
1040
1.0
1070
    74
1070
     0
1070
   172
1070
     1
1070
    73
1070
     0
1070
    77
1070
     1
1070
    40
1040
60.0
1070
   147
1040
0.8
1070
   287
1070
     5
1070
    42
1040
1.5
1070
    44
1040
0.6
1070
    43
1040
7.0
1070
   271
1070
     0
1070
   177
1070
   256
1070
   176
1070
   256
1070
   141
1040
0.0
1070
   275
1070
     1
1070
    41
1040
1.5
1070
   285
1070
     8
1070
   286
1070
     8
1002
}
  0
TEXT
  5
162
330
C3
100
AcDbEntity
  8
SUNPOU
100
AcDbText
 10
2359.999985648759
 20
3317.403415746123
 30
0.0
 40
150.0
  1
H4
 41
0.8
 72
     4
 11
2459.999985648759
 21
3392.403415746123
 31
0.0
100
AcDbText
  0
CIRCLE
  5
163
330
C3
100
AcDbEntity
  8
SUNPOU
100
AcDbCircle
 10
2459.999985648759
 20
3392.403415746123
 30
0.0
 40
165.0
  0
TEXT
  5
164
330
C3
100
AcDbEntity
  8
SUNPOU
100
AcDbText
 10
2239.999985648754
 20
4105.403415746121
 30
0.0
 40
210.0
  1
内　側
 72
     2
 11
2939.999985648754
 21
4077.403415746121
 31
0.0
100
AcDbText
 73
     1
  0
LINE
  5
165
330
C3
100
AcDbEntity
  8
HAIKIN
 62
     3
100
AcDbLine
 10
1889.999985648752
 20
4587.403415746125
 30
0.0
 11
1889.999985648752
 21
4887.403415746125
 31
0.0
  0
SOLID
  5
166
330
C3
100
AcDbEntity
  8
SUNPOU
100
AcDbTrace
 10
2559.999985648748
 20
1342.403415746126
 30
0.0000000000000092
 11
2469.999985648748
 21
1357.403415746126
 31
0.0000000000000092
 12
2559.999985648748
 22
1372.403415746126
 32
0.0000000000000092
 13
2559.999985648748
 23
1372.403415746126
 33
0.0000000000000092
1001
ACAD
1000
DSTYLE
1002
{
1070
    78
1070
     8
1070
   284
1070
     8
1070
   140
1040
3.0
1070
   145
1040
1.0
1070
    74
1070
     0
1070
   172
1070
     1
1070
    73
1070
     0
1070
    77
1070
     1
1070
    40
1040
60.0
1070
   147
1040
0.8
1070
   287
1070
     5
1070
    42
1040
1.5
1070
    44
1040
0.6
1070
    43
1040
7.0
1070
   271
1070
     0
1070
   177
1070
   256
1070
   176
1070
   256
1070
   141
1040
0.0
1070
   275
1070
     1
1070
    41
1040
1.5
1070
   285
1070
     8
1070
   286
1070
     8
1002
}
  0
SOLID
  5
167
330
C3
100
AcDbEntity
  8
SUNPOU
100
AcDbTrace
 10
2679.99998564875
 20
1342.403415746126
 30
0.0000000000000092
 11
2589.99998564875
 21
1357.403415746126
 31
0.0000000000000092
 12
2679.99998564875
 22
1372.403415746126
 32
0.0000000000000092
 13
2679.99998564875
 23
1372.403415746126
 33
0.0000000000000092
1001
ACAD
1000
DSTYLE
1002
{
1070
    78
1070
     8
1070
   284
1070
     8
1070
   140
1040
3.0
1070
   145
1040
1.0
1070
    74
1070
     0
1070
   172
1070
     1
1070
    73
1070
     0
1070
    77
1070
     1
1070
    40
1040
60.0
1070
   147
1040
0.8
1070
   287
1070
     5
1070
    42
1040
1.5
1070
    44
1040
0.6
1070
    43
1040
7.0
1070
   271
1070
     0
1070
   177
1070
   256
1070
   176
1070
   256
1070
   141
1040
0.0
1070
   275
1070
     1
1070
    41
1040
1.5
1070
   285
1070
     8
1070
   286
1070
     8
1002
}
  0
SOLID
  5
168
330
C3
100
AcDbEntity
  8
SUNPOU
100
AcDbTrace
 10
2619.99998564875
 20
1342.403415746126
 30
0.0000000000000092
 11
2529.99998564875
 21
1357.403415746126
 31
0.0000000000000092
 12
2619.99998564875
 22
1372.403415746126
 32
0.0000000000000092
 13
2619.99998564875
 23
1372.403415746126
 33
0.0000000000000092
1001
ACAD
1000
DSTYLE
1002
{
1070
    78
1070
     8
1070
   284
1070
     8
1070
   140
1040
3.0
1070
   145
1040
1.0
1070
    74
1070
     0
1070
   172
1070
     1
1070
    73
1070
     0
1070
    77
1070
     1
1070
    40
1040
60.0
1070
   147
1040
0.8
1070
   287
1070
     5
1070
    42
1040
1.5
1070
    44
1040
0.6
1070
    43
1040
7.0
1070
   271
1070
     0
1070
   177
1070
   256
1070
   176
1070
   256
1070
   141
1040
0.0
1070
   275
1070
     1
1070
    41
1040
1.5
1070
   285
1070
     8
1070
   286
1070
     8
1002
}
  0
ENDBLK
  5
16A
330
C3
100
AcDbEntity
  8
0
100
AcDbBlockEnd
  0
BLOCK
  5
1606
330
15FB
100
AcDbEntity
  8
0
100
AcDbBlockBegin
  2
*D102
 70
     1
 10
0.0
 20
0.0
 30
0.0
  3
*D102
  1

  0
LINE
  5
2729
330
15FB
100
AcDbEntity
  8
SUNPOU
 62
     0
370
    -2
100
AcDbLine
 10
2501.967234997937
 20
6979.497170538612
 30
0.0
 11
2501.967234997937
 21
7382.891805374915
 31
0.0
  0
LINE
  5
272A
330
15FB
100
AcDbEntity
  8
SUNPOU
 62
     0
370
    -2
100
AcDbLine
 10
2571.967234997937
 20
6979.497170538612
 30
0.0
 11
2571.967234997937
 21
7382.891805374915
 31
0.0
  0
LINE
  5
272B
330
15FB
100
AcDbEntity
  8
SUNPOU
 62
     0
370
    -2
100
AcDbLine
 10
2441.967234997937
 20
7367.891805374915
 30
0.0
 11
2381.967234997937
 21
7367.891805374915
 31
0.0
  0
LINE
  5
272C
330
15FB
100
AcDbEntity
  8
SUNPOU
 62
     0
370
    -2
100
AcDbLine
 10
2631.967234997937
 20
7367.891805374915
 30
0.0
 11
2691.967234997937
 21
7367.891805374915
 31
0.0
  0
SOLID
  5
272D
330
15FB
100
AcDbEntity
  8
SUNPOU
 62
     0
100
AcDbTrace
 10
2441.967234997937
 20
7377.891805374915
 30
0.0
 11
2441.967234997937
 21
7357.891805374915
 31
0.0
 12
2501.967234997937
 22
7367.891805374915
 32
0.0
 13
2501.967234997937
 23
7367.891805374915
 33
0.0
  0
SOLID
  5
272E
330
15FB
100
AcDbEntity
  8
SUNPOU
 62
     0
100
AcDbTrace
 10
2631.967234997937
 20
7377.891805374915
 30
0.0
 11
2631.967234997937
 21
7357.891805374915
 31
0.0
 12
2571.967234997937
 22
7367.891805374915
 32
0.0
 13
2571.967234997937
 23
7367.891805374915
 33
0.0
  0
MTEXT
  5
272F
330
15FB
100
AcDbEntity
  8
SUNPOU
 62
     0
100
AcDbMText
 10
2536.967234997937
 20
7436.891805374915
 30
0.0
 40
90.0
 41
0.0
 71
     5
 72
     1
  1
\A1;70
 73
     1
 44
1.0
  0
POINT
  5
2730
330
15FB
100
AcDbEntity
  8
DEFPOINTS
 62
     0
100
AcDbPoint
 10
2501.967234997937
 20
6919.497170538612
 30
0.0
  0
POINT
  5
2731
330
15FB
100
AcDbEntity
  8
DEFPOINTS
 62
     0
100
AcDbPoint
 10
2571.967234997937
 20
6919.497170538612
 30
0.0
  0
POINT
  5
2732
330
15FB
100
AcDbEntity
  8
DEFPOINTS
 62
     0
100
AcDbPoint
 10
2571.967234997937
 20
7367.891805374915
 30
0.0
  0
ENDBLK
  5
1607
330
15FB
100
AcDbEntity
  8
0
100
AcDbBlockEnd
  0
BLOCK
  5
1613
330
1608
100
AcDbEntity
  8
0
100
AcDbBlockBegin
  2
*D103
 70
     1
 10
0.0
 20
0.0
 30
0.0
  3
*D103
  1

  0
LINE
  5
2673
330
1608
100
AcDbEntity
  8
SUNPOU
 62
     0
370
    -2
100
AcDbLine
 10
4361.967234997937
 20
4419.497170538612
 30
0.0
 11
4666.967234997937
 21
4419.497170538612
 31
0.0
  0
LINE
  5
2674
330
1608
100
AcDbEntity
  8
SUNPOU
 62
     0
370
    -2
100
AcDbLine
 10
4361.967234997937
 20
4489.497170538612
 30
0.0
 11
4666.967234997937
 21
4489.497170538612
 31
0.0
  0
LINE
  5
2675
330
1608
100
AcDbEntity
  8
SUNPOU
 62
     0
370
    -2
100
AcDbLine
 10
4651.967234997937
 20
4359.497170538612
 30
0.0
 11
4651.967234997937
 21
4299.497170538612
 31
0.0
  0
LINE
  5
2676
330
1608
100
AcDbEntity
  8
SUNPOU
 62
     0
370
    -2
100
AcDbLine
 10
4651.967234997937
 20
4549.497170538612
 30
0.0
 11
4651.967234997937
 21
4609.497170538612
 31
0.0
  0
SOLID
  5
2677
330
1608
100
AcDbEntity
  8
SUNPOU
 62
     0
100
AcDbTrace
 10
4641.967234997937
 20
4359.497170538612
 30
0.0
 11
4661.967234997937
 21
4359.497170538612
 31
0.0
 12
4651.967234997937
 22
4419.497170538612
 32
0.0
 13
4651.967234997937
 23
4419.497170538612
 33
0.0
  0
SOLID
  5
2678
330
1608
100
AcDbEntity
  8
SUNPOU
 62
     0
100
AcDbTrace
 10
4641.967234997937
 20
4549.497170538612
 30
0.0
 11
4661.967234997937
 21
4549.497170538612
 31
0.0
 12
4651.967234997937
 22
4489.497170538612
 32
0.0
 13
4651.967234997937
 23
4489.497170538612
 33
0.0
  0
MTEXT
  5
2679
330
1608
100
AcDbEntity
  8
SUNPOU
 62
     0
100
AcDbMText
 10
4582.967234997936
 20
4454.497170538613
 30
0.0
 40
90.0
 41
0.0
 71
     5
 72
     1
  1
\A1;70
 11
6.123031769111886E-17
 21
1.0
 31
0.0
 73
     1
 44
1.0
  0
POINT
  5
267A
330
1608
100
AcDbEntity
  8
DEFPOINTS
 62
     0
100
AcDbPoint
 10
4301.967234997937
 20
4419.497170538612
 30
0.0
  0
POINT
  5
267B
330
1608
100
AcDbEntity
  8
DEFPOINTS
 62
     0
100
AcDbPoint
 10
4301.967234997937
 20
4489.497170538612
 30
0.0
  0
POINT
  5
267C
330
1608
100
AcDbEntity
  8
DEFPOINTS
 62
     0
100
AcDbPoint
 10
4651.967234997937
 20
4489.497170538612
 30
0.0
  0
ENDBLK
  5
1614
330
1608
100
AcDbEntity
  8
0
100
AcDbBlockEnd
  0
BLOCK
  5
1679
330
166F
100
AcDbEntity
  8
0
100
AcDbBlockBegin
  2
*D111
 70
     1
 10
0.0
 20
0.0
 30
0.0
  3
*D111
  1

  0
LINE
  5
2720
330
166F
100
AcDbEntity
  8
SUNPOU
 62
     0
370
    -2
100
AcDbLine
 10
6251.23479258726
 20
6979.497170538612
 30
0.0
 11
6251.23479258726
 21
7433.862570389483
 31
0.0
  0
LINE
  5
2721
330
166F
100
AcDbEntity
  8
SUNPOU
 62
     0
370
    -2
100
AcDbLine
 10
8251.23479258726
 20
6979.497170538612
 30
0.0
 11
8251.23479258726
 21
7433.862570389483
 31
0.0
  0
LINE
  5
2722
330
166F
100
AcDbEntity
  8
SUNPOU
 62
     0
370
    -2
100
AcDbLine
 10
6311.23479258726
 20
7418.862570389483
 30
0.0
 11
8191.23479258726
 21
7418.862570389483
 31
0.0
  0
SOLID
  5
2723
330
166F
100
AcDbEntity
  8
SUNPOU
 62
     0
100
AcDbTrace
 10
6311.23479258726
 20
7428.862570389483
 30
0.0
 11
6311.23479258726
 21
7408.862570389483
 31
0.0
 12
6251.23479258726
 22
7418.862570389483
 32
0.0
 13
6251.23479258726
 23
7418.862570389483
 33
0.0
  0
SOLID
  5
2724
330
166F
100
AcDbEntity
  8
SUNPOU
 62
     0
100
AcDbTrace
 10
8191.23479258726
 20
7428.862570389483
 30
0.0
 11
8191.23479258726
 21
7408.862570389483
 31
0.0
 12
8251.23479258726
 22
7418.862570389483
 32
0.0
 13
8251.23479258726
 23
7418.862570389483
 33
0.0
  0
MTEXT
  5
2725
330
166F
100
AcDbEntity
  8
SUNPOU
 62
     0
100
AcDbMText
 10
7251.23479258726
 20
7487.862570389483
 30
0.0
 40
90.0
 41
0.0
 71
     5
 72
     1
  1
\A1;2000
 73
     1
 44
1.0
  0
POINT
  5
2726
330
166F
100
AcDbEntity
  8
DEFPOINTS
 62
     0
100
AcDbPoint
 10
6251.23479258726
 20
6919.497170538612
 30
0.0
  0
POINT
  5
2727
330
166F
100
AcDbEntity
  8
DEFPOINTS
 62
     0
100
AcDbPoint
 10
8251.23479258726
 20
6919.497170538612
 30
0.0
  0
POINT
  5
2728
330
166F
100
AcDbEntity
  8
DEFPOINTS
 62
     0
100
AcDbPoint
 10
8251.23479258726
 20
7418.862570389483
 30
0.0
  0
ENDBLK
  5
167A
330
166F
100
AcDbEntity
  8
0
100
AcDbBlockEnd
  0
BLOCK
  5
16AB
330
16A1
100
AcDbEntity
  8
0
100
AcDbBlockBegin
  2
*D115
 70
     1
 10
0.0
 20
0.0
 30
0.0
  3
*D115
  1

  0
LINE
  5
2686
330
16A1
100
AcDbEntity
  8
SUNPOU
 62
     0
370
    -2
100
AcDbLine
 10
6251.23479258726
 20
4359.497170538612
 30
0.0
 11
6251.23479258726
 21
3993.471370586227
 31
0.0
  0
LINE
  5
2687
330
16A1
100
AcDbEntity
  8
SUNPOU
 62
     0
370
    -2
100
AcDbLine
 10
6751.23479258726
 20
4359.497170538612
 30
0.0
 11
6751.23479258726
 21
3993.471370586227
 31
0.0
  0
LINE
  5
2688
330
16A1
100
AcDbEntity
  8
SUNPOU
 62
     0
370
    -2
100
AcDbLine
 10
6311.23479258726
 20
4008.471370586227
 30
0.0
 11
6691.23479258726
 21
4008.471370586227
 31
0.0
  0
SOLID
  5
2689
330
16A1
100
AcDbEntity
  8
SUNPOU
 62
     0
100
AcDbTrace
 10
6311.23479258726
 20
4018.471370586227
 30
0.0
 11
6311.23479258726
 21
3998.471370586227
 31
0.0
 12
6251.23479258726
 22
4008.471370586227
 32
0.0
 13
6251.23479258726
 23
4008.471370586227
 33
0.0
  0
SOLID
  5
268A
330
16A1
100
AcDbEntity
  8
SUNPOU
 62
     0
100
AcDbTrace
 10
6691.23479258726
 20
4018.471370586227
 30
0.0
 11
6691.23479258726
 21
3998.471370586227
 31
0.0
 12
6751.23479258726
 22
4008.471370586227
 32
0.0
 13
6751.23479258726
 23
4008.471370586227
 33
0.0
  0
MTEXT
  5
268B
330
16A1
100
AcDbEntity
  8
SUNPOU
 62
     0
100
AcDbMText
 10
6501.23479258726
 20
4077.471370586227
 30
0.0
 40
90.0
 41
0.0
 71
     5
 72
     1
  1
\A1;500
 73
     1
 44
1.0
  0
POINT
  5
268C
330
16A1
100
AcDbEntity
  8
DEFPOINTS
 62
     0
100
AcDbPoint
 10
6251.23479258726
 20
4419.497170538612
 30
0.0
  0
POINT
  5
268D
330
16A1
100
AcDbEntity
  8
DEFPOINTS
 62
     0
100
AcDbPoint
 10
6751.23479258726
 20
4419.497170538612
 30
0.0
  0
POINT
  5
268E
330
16A1
100
AcDbEntity
  8
DEFPOINTS
 62
     0
100
AcDbPoint
 10
6751.23479258726
 20
4008.471370586227
 30
0.0
  0
ENDBLK
  5
16AC
330
16A1
100
AcDbEntity
  8
0
100
AcDbBlockEnd
  0
BLOCK
  5
16B7
330
16AD
100
AcDbEntity
  8
0
100
AcDbBlockBegin
  2
*D116
 70
     1
 10
0.0
 20
0.0
 30
0.0
  3
*D116
  1

  0
LINE
  5
268F
330
16AD
100
AcDbEntity
  8
SUNPOU
 62
     0
370
    -2
100
AcDbLine
 10
6751.23479258726
 20
4359.497170538612
 30
0.0
 11
6751.23479258726
 21
3993.471370586227
 31
0.0
  0
LINE
  5
2690
330
16AD
100
AcDbEntity
  8
SUNPOU
 62
     0
370
    -2
100
AcDbLine
 10
7251.23479258726
 20
4259.497170538611
 30
0.0
 11
7251.23479258726
 21
3993.471370586227
 31
0.0
  0
LINE
  5
2691
330
16AD
100
AcDbEntity
  8
SUNPOU
 62
     0
370
    -2
100
AcDbLine
 10
6811.23479258726
 20
4008.471370586227
 30
0.0
 11
7191.23479258726
 21
4008.471370586227
 31
0.0
  0
SOLID
  5
2692
330
16AD
100
AcDbEntity
  8
SUNPOU
 62
     0
100
AcDbTrace
 10
6811.23479258726
 20
4018.471370586227
 30
0.0
 11
6811.23479258726
 21
3998.471370586227
 31
0.0
 12
6751.23479258726
 22
4008.471370586227
 32
0.0
 13
6751.23479258726
 23
4008.471370586227
 33
0.0
  0
SOLID
  5
2693
330
16AD
100
AcDbEntity
  8
SUNPOU
 62
     0
100
AcDbTrace
 10
7191.23479258726
 20
4018.471370586227
 30
0.0
 11
7191.23479258726
 21
3998.471370586227
 31
0.0
 12
7251.23479258726
 22
4008.471370586227
 32
0.0
 13
7251.23479258726
 23
4008.471370586227
 33
0.0
  0
MTEXT
  5
2694
330
16AD
100
AcDbEntity
  8
SUNPOU
 62
     0
100
AcDbMText
 10
7001.23479258726
 20
4077.471370586227
 30
0.0
 40
90.0
 41
0.0
 71
     5
 72
     1
  1
\A1;500
 73
     1
 44
1.0
  0
POINT
  5
2695
330
16AD
100
AcDbEntity
  8
DEFPOINTS
 62
     0
100
AcDbPoint
 10
6751.23479258726
 20
4419.497170538612
 30
0.0
  0
POINT
  5
2696
330
16AD
100
AcDbEntity
  8
DEFPOINTS
 62
     0
100
AcDbPoint
 10
7251.23479258726
 20
4319.497170538611
 30
0.0
  0
POINT
  5
2697
330
16AD
100
AcDbEntity
  8
DEFPOINTS
 62
     0
100
AcDbPoint
 10
7251.23479258726
 20
4008.471370586227
 30
0.0
  0
ENDBLK
  5
16B8
330
16AD
100
AcDbEntity
  8
0
100
AcDbBlockEnd
  0
BLOCK
  5
16C3
330
16B9
100
AcDbEntity
  8
0
100
AcDbBlockBegin
  2
*D117
 70
     1
 10
0.0
 20
0.0
 30
0.0
  3
*D117
  1

  0
LINE
  5
2698
330
16B9
100
AcDbEntity
  8
SUNPOU
 62
     0
370
    -2
100
AcDbLine
 10
8251.23479258726
 20
4359.497170538612
 30
0.0
 11
8251.23479258726
 21
3993.471370586227
 31
0.0
  0
LINE
  5
2699
330
16B9
100
AcDbEntity
  8
SUNPOU
 62
     0
370
    -2
100
AcDbLine
 10
7751.23479258726
 20
4359.497170538612
 30
0.0
 11
7751.23479258726
 21
3993.471370586227
 31
0.0
  0
LINE
  5
269A
330
16B9
100
AcDbEntity
  8
SUNPOU
 62
     0
370
    -2
100
AcDbLine
 10
8191.23479258726
 20
4008.471370586227
 30
0.0
 11
7811.23479258726
 21
4008.471370586227
 31
0.0
  0
SOLID
  5
269B
330
16B9
100
AcDbEntity
  8
SUNPOU
 62
     0
100
AcDbTrace
 10
8191.23479258726
 20
4018.471370586227
 30
0.0
 11
8191.23479258726
 21
3998.471370586227
 31
0.0
 12
8251.23479258726
 22
4008.471370586227
 32
0.0
 13
8251.23479258726
 23
4008.471370586227
 33
0.0
  0
SOLID
  5
269C
330
16B9
100
AcDbEntity
  8
SUNPOU
 62
     0
100
AcDbTrace
 10
7811.23479258726
 20
4018.471370586227
 30
0.0
 11
7811.23479258726
 21
3998.471370586227
 31
0.0
 12
7751.23479258726
 22
4008.471370586227
 32
0.0
 13
7751.23479258726
 23
4008.471370586227
 33
0.0
  0
MTEXT
  5
269D
330
16B9
100
AcDbEntity
  8
SUNPOU
 62
     0
100
AcDbMText
 10
8001.23479258726
 20
4077.471370586227
 30
0.0
 40
90.0
 41
0.0
 71
     5
 72
     1
  1
\A1;500
 73
     1
 44
1.0
  0
POINT
  5
269E
330
16B9
100
AcDbEntity
  8
DEFPOINTS
 62
     0
100
AcDbPoint
 10
8251.23479258726
 20
4419.497170538612
 30
0.0
  0
POINT
  5
269F
330
16B9
100
AcDbEntity
  8
DEFPOINTS
 62
     0
100
AcDbPoint
 10
7751.23479258726
 20
4419.497170538612
 30
0.0
  0
POINT
  5
26A0
330
16B9
100
AcDbEntity
  8
DEFPOINTS
 62
     0
100
AcDbPoint
 10
7751.23479258726
 20
4008.471370586227
 30
0.0
  0
ENDBLK
  5
16C4
330
16B9
100
AcDbEntity
  8
0
100
AcDbBlockEnd
  0
BLOCK
  5
16CF
330
16C5
100
AcDbEntity
  8
0
100
AcDbBlockBegin
  2
*D118
 70
     1
 10
0.0
 20
0.0
 30
0.0
  3
*D118
  1

  0
LINE
  5
26A1
330
16C5
100
AcDbEntity
  8
SUNPOU
 62
     0
370
    -2
100
AcDbLine
 10
7751.23479258726
 20
4359.497170538612
 30
0.0
 11
7751.23479258726
 21
3993.471370586227
 31
0.0
  0
LINE
  5
26A2
330
16C5
100
AcDbEntity
  8
SUNPOU
 62
     0
370
    -2
100
AcDbLine
 10
7251.23479258726
 20
4259.497170538611
 30
0.0
 11
7251.23479258726
 21
3993.471370586227
 31
0.0
  0
LINE
  5
26A3
330
16C5
100
AcDbEntity
  8
SUNPOU
 62
     0
370
    -2
100
AcDbLine
 10
7691.23479258726
 20
4008.471370586227
 30
0.0
 11
7311.23479258726
 21
4008.471370586227
 31
0.0
  0
SOLID
  5
26A4
330
16C5
100
AcDbEntity
  8
SUNPOU
 62
     0
100
AcDbTrace
 10
7691.23479258726
 20
4018.471370586227
 30
0.0
 11
7691.23479258726
 21
3998.471370586227
 31
0.0
 12
7751.23479258726
 22
4008.471370586227
 32
0.0
 13
7751.23479258726
 23
4008.471370586227
 33
0.0
  0
SOLID
  5
26A5
330
16C5
100
AcDbEntity
  8
SUNPOU
 62
     0
100
AcDbTrace
 10
7311.23479258726
 20
4018.471370586227
 30
0.0
 11
7311.23479258726
 21
3998.471370586227
 31
0.0
 12
7251.23479258726
 22
4008.471370586227
 32
0.0
 13
7251.23479258726
 23
4008.471370586227
 33
0.0
  0
MTEXT
  5
26A6
330
16C5
100
AcDbEntity
  8
SUNPOU
 62
     0
100
AcDbMText
 10
7501.23479258726
 20
4077.471370586227
 30
0.0
 40
90.0
 41
0.0
 71
     5
 72
     1
  1
\A1;500
 73
     1
 44
1.0
  0
POINT
  5
26A7
330
16C5
100
AcDbEntity
  8
DEFPOINTS
 62
     0
100
AcDbPoint
 10
7751.23479258726
 20
4419.497170538612
 30
0.0
  0
POINT
  5
26A8
330
16C5
100
AcDbEntity
  8
DEFPOINTS
 62
     0
100
AcDbPoint
 10
7251.23479258726
 20
4319.497170538611
 30
0.0
  0
POINT
  5
26A9
330
16C5
100
AcDbEntity
  8
DEFPOINTS
 62
     0
100
AcDbPoint
 10
7251.23479258726
 20
4008.471370586227
 30
0.0
  0
ENDBLK
  5
16D0
330
16C5
100
AcDbEntity
  8
0
100
AcDbBlockEnd
  0
BLOCK
  5
16E8
330
16DE
100
AcDbEntity
  8
0
100
AcDbBlockBegin
  2
*D120
 70
     1
 10
0.0
 20
0.0
 30
0.0
  3
*D120
  1

  0
LINE
  5
26AA
330
16DE
100
AcDbEntity
  8
SUNPOU
 62
     0
370
    -2
100
AcDbLine
 10
2631.967234997937
 20
6919.497170538612
 30
0.0
 11
4666.967234997937
 21
6919.497170538612
 31
0.0
  0
LINE
  5
26AB
330
16DE
100
AcDbEntity
  8
SUNPOU
 62
     0
370
    -2
100
AcDbLine
 10
2631.967234997937
 20
6509.497170538612
 30
0.0
 11
4666.967234997937
 21
6509.497170538612
 31
0.0
  0
LINE
  5
26AC
330
16DE
100
AcDbEntity
  8
SUNPOU
 62
     0
370
    -2
100
AcDbLine
 10
4651.967234997937
 20
6859.497170538612
 30
0.0
 11
4651.967234997937
 21
6569.497170538612
 31
0.0
  0
SOLID
  5
26AD
330
16DE
100
AcDbEntity
  8
SUNPOU
 62
     0
100
AcDbTrace
 10
4641.967234997937
 20
6859.497170538612
 30
0.0
 11
4661.967234997937
 21
6859.497170538612
 31
0.0
 12
4651.967234997937
 22
6919.497170538612
 32
0.0
 13
4651.967234997937
 23
6919.497170538612
 33
0.0
  0
SOLID
  5
26AE
330
16DE
100
AcDbEntity
  8
SUNPOU
 62
     0
100
AcDbTrace
 10
4641.967234997937
 20
6569.497170538612
 30
0.0
 11
4661.967234997937
 21
6569.497170538612
 31
0.0
 12
4651.967234997937
 22
6509.497170538612
 32
0.0
 13
4651.967234997937
 23
6509.497170538612
 33
0.0
  0
MTEXT
  5
26AF
330
16DE
100
AcDbEntity
  8
SUNPOU
 62
     0
100
AcDbMText
 10
4582.967234997936
 20
6714.497170538613
 30
0.0
 40
90.0
 41
0.0
 71
     5
 72
     1
  1
\A1;410
 11
6.123031769111886E-17
 21
1.0
 31
0.0
 73
     1
 44
1.0
  0
POINT
  5
26B0
330
16DE
100
AcDbEntity
  8
DEFPOINTS
 62
     0
100
AcDbPoint
 10
2571.967234997937
 20
6919.497170538612
 30
0.0
  0
POINT
  5
26B1
330
16DE
100
AcDbEntity
  8
DEFPOINTS
 62
     0
100
AcDbPoint
 10
2571.967234997937
 20
6509.497170538612
 30
0.0
  0
POINT
  5
26B2
330
16DE
100
AcDbEntity
  8
DEFPOINTS
 62
     0
100
AcDbPoint
 10
4651.967234997937
 20
6509.497170538612
 30
0.0
  0
ENDBLK
  5
16E9
330
16DE
100
AcDbEntity
  8
0
100
AcDbBlockEnd
  0
BLOCK
  5
16F4
330
16EA
100
AcDbEntity
  8
0
100
AcDbBlockBegin
  2
*D121
 70
     1
 10
0.0
 20
0.0
 30
0.0
  3
*D121
  1

  0
LINE
  5
26B3
330
16EA
100
AcDbEntity
  8
SUNPOU
 62
     0
370
    -2
100
AcDbLine
 10
2631.967234997937
 20
6509.497170538612
 30
0.0
 11
4666.967234997938
 21
6509.497170538612
 31
0.0
  0
LINE
  5
26B4
330
16EA
100
AcDbEntity
  8
SUNPOU
 62
     0
370
    -2
100
AcDbLine
 10
4361.967234997937
 20
4489.497170538612
 30
0.0
 11
4666.967234997937
 21
4489.497170538612
 31
0.0
  0
LINE
  5
26B5
330
16EA
100
AcDbEntity
  8
SUNPOU
 62
     0
370
    -2
100
AcDbLine
 10
4651.967234997938
 20
6449.497170538612
 30
0.0
 11
4651.967234997937
 21
4549.497170538612
 31
0.0
  0
SOLID
  5
26B6
330
16EA
100
AcDbEntity
  8
SUNPOU
 62
     0
100
AcDbTrace
 10
4641.967234997938
 20
6449.497170538612
 30
0.0
 11
4661.967234997938
 21
6449.497170538612
 31
0.0
 12
4651.967234997938
 22
6509.497170538612
 32
0.0
 13
4651.967234997938
 23
6509.497170538612
 33
0.0
  0
SOLID
  5
26B7
330
16EA
100
AcDbEntity
  8
SUNPOU
 62
     0
100
AcDbTrace
 10
4641.967234997937
 20
4549.497170538612
 30
0.0
 11
4661.967234997937
 21
4549.497170538612
 31
0.0
 12
4651.967234997937
 22
4489.497170538612
 32
0.0
 13
4651.967234997937
 23
4489.497170538612
 33
0.0
  0
MTEXT
  5
26B8
330
16EA
100
AcDbEntity
  8
SUNPOU
 62
     0
100
AcDbMText
 10
4582.967234997936
 20
5499.497170538613
 30
0.0
 40
90.0
 41
0.0
 71
     5
 72
     1
  1
\A1;2020
 11
6.123031769111886E-17
 21
1.0
 31
0.0
 73
     1
 44
1.0
  0
POINT
  5
26B9
330
16EA
100
AcDbEntity
  8
DEFPOINTS
 62
     0
100
AcDbPoint
 10
2571.967234997937
 20
6509.497170538612
 30
0.0
  0
POINT
  5
26BA
330
16EA
100
AcDbEntity
  8
DEFPOINTS
 62
     0
100
AcDbPoint
 10
4301.967234997937
 20
4489.497170538612
 30
0.0
  0
POINT
  5
26BB
330
16EA
100
AcDbEntity
  8
DEFPOINTS
 62
     0
100
AcDbPoint
 10
4651.967234997937
 20
4489.497170538612
 30
0.0
  0
ENDBLK
  5
16F5
330
16EA
100
AcDbEntity
  8
0
100
AcDbBlockEnd
  0
BLOCK
  5
1700
330
16F6
100
AcDbEntity
  8
0
100
AcDbBlockBegin
  2
*D122
 70
     1
 10
0.0
 20
0.0
 30
0.0
  3
*D122
  1

  0
LINE
  5
26BC
330
16F6
100
AcDbEntity
  8
SUNPOU
 62
     0
370
    -2
100
AcDbLine
 10
2441.967234997937
 20
6919.497170538612
 30
0.0
 11
1471.216057983773
 21
6919.497170538613
 31
0.0
  0
LINE
  5
26BD
330
16F6
100
AcDbEntity
  8
SUNPOU
 62
     0
370
    -2
100
AcDbLine
 10
2441.967234997937
 20
4419.497170538612
 30
0.0
 11
1471.216057983773
 21
4419.497170538613
 31
0.0
  0
LINE
  5
26BE
330
16F6
100
AcDbEntity
  8
SUNPOU
 62
     0
370
    -2
100
AcDbLine
 10
1486.216057983773
 20
6859.497170538613
 30
0.0
 11
1486.216057983773
 21
4479.497170538613
 31
0.0
  0
SOLID
  5
26BF
330
16F6
100
AcDbEntity
  8
SUNPOU
 62
     0
100
AcDbTrace
 10
1476.216057983773
 20
6859.497170538613
 30
0.0
 11
1496.216057983773
 21
6859.497170538613
 31
0.0
 12
1486.216057983773
 22
6919.497170538613
 32
0.0
 13
1486.216057983773
 23
6919.497170538613
 33
0.0
  0
SOLID
  5
26C0
330
16F6
100
AcDbEntity
  8
SUNPOU
 62
     0
100
AcDbTrace
 10
1476.216057983773
 20
4479.497170538613
 30
0.0
 11
1496.216057983773
 21
4479.497170538613
 31
0.0
 12
1486.216057983773
 22
4419.497170538613
 32
0.0
 13
1486.216057983773
 23
4419.497170538613
 33
0.0
  0
MTEXT
  5
26C1
330
16F6
100
AcDbEntity
  8
SUNPOU
 62
     0
100
AcDbMText
 10
1417.216057983772
 20
5669.497170538613
 30
0.0
 40
90.0
 41
0.0
 71
     5
 72
     1
  1
\A1;2500
 11
6.123031769111886E-17
 21
1.0
 31
0.0
 73
     1
 44
1.0
  0
POINT
  5
26C2
330
16F6
100
AcDbEntity
  8
DEFPOINTS
 62
     0
100
AcDbPoint
 10
2501.967234997937
 20
6919.497170538612
 30
0.0
  0
POINT
  5
26C3
330
16F6
100
AcDbEntity
  8
DEFPOINTS
 62
     0
100
AcDbPoint
 10
2501.967234997937
 20
4419.497170538612
 30
0.0
  0
POINT
  5
26C4
330
16F6
100
AcDbEntity
  8
DEFPOINTS
 62
     0
100
AcDbPoint
 10
1486.216057983773
 20
4419.497170538613
 30
0.0
  0
ENDBLK
  5
1701
330
16F6
100
AcDbEntity
  8
0
100
AcDbBlockEnd
  0
BLOCK
  5
170D
330
1702
100
AcDbEntity
  8
0
100
AcDbBlockBegin
  2
*D123
 70
     1
 10
0.0
 20
0.0
 30
0.0
  3
*D123
  1

  0
LINE
  5
26C5
330
1702
100
AcDbEntity
  8
SUNPOU
 62
     0
370
    -2
100
AcDbLine
 10
2441.967234997937
 20
4419.497170538612
 30
0.0
 11
1664.465894295121
 21
4419.497170538613
 31
0.0
  0
LINE
  5
26C6
330
1702
100
AcDbEntity
  8
SUNPOU
 62
     0
370
    -2
100
AcDbLine
 10
2441.967234997937
 20
4599.497170538612
 30
0.0
 11
1664.465894295121
 21
4599.497170538613
 31
0.0
  0
LINE
  5
26C7
330
1702
100
AcDbEntity
  8
SUNPOU
 62
     0
370
    -2
100
AcDbLine
 10
1679.465894295121
 20
4479.497170538613
 30
0.0
 11
1679.465894295121
 21
4539.497170538613
 31
0.0
  0
MTEXT
  5
26C8
330
1702
100
AcDbEntity
  8
SUNPOU
 62
     0
100
AcDbMText
 10
1610.46589429512
 20
4509.497170538612
 30
0.0
 40
90.0
 41
0.0
 71
     5
 72
     1
  1
\A1;180
 11
6.123031769111886E-17
 21
1.0
 31
0.0
 73
     1
 44
1.0
  0
SOLID
  5
26C9
330
1702
100
AcDbEntity
  8
SUNPOU
 62
     0
100
AcDbTrace
 10
1669.465894295121
 20
4479.497170538613
 30
0.0
 11
1689.465894295121
 21
4479.497170538613
 31
0.0
 12
1679.465894295121
 22
4419.497170538613
 32
0.0
 13
1679.465894295121
 23
4419.497170538613
 33
0.0
  0
SOLID
  5
26CA
330
1702
100
AcDbEntity
  8
SUNPOU
 62
     0
100
AcDbTrace
 10
1669.465894295121
 20
4539.497170538613
 30
0.0
 11
1689.465894295121
 21
4539.497170538613
 31
0.0
 12
1679.465894295121
 22
4599.497170538613
 32
0.0
 13
1679.465894295121
 23
4599.497170538613
 33
0.0
  0
POINT
  5
26CB
330
1702
100
AcDbEntity
  8
DEFPOINTS
 62
     0
100
AcDbPoint
 10
2501.967234997937
 20
4419.497170538612
 30
0.0
  0
POINT
  5
26CC
330
1702
100
AcDbEntity
  8
DEFPOINTS
 62
     0
100
AcDbPoint
 10
2501.967234997937
 20
4599.497170538612
 30
0.0
  0
POINT
  5
26CD
330
1702
100
AcDbEntity
  8
DEFPOINTS
 62
     0
100
AcDbPoint
 10
1679.465894295121
 20
4599.497170538613
 30
0.0
  0
ENDBLK
  5
170E
330
1702
100
AcDbEntity
  8
0
100
AcDbBlockEnd
  0
BLOCK
  5
1719
330
170F
100
AcDbEntity
  8
0
100
AcDbBlockBegin
  2
*D124
 70
     1
 10
0.0
 20
0.0
 30
0.0
  3
*D124
  1

  0
LINE
  5
26CE
330
170F
100
AcDbEntity
  8
SUNPOU
 62
     0
370
    -2
100
AcDbLine
 10
2441.967234997937
 20
4599.497170538612
 30
0.0
 11
1664.46589429512
 21
4599.497170538613
 31
0.0
  0
LINE
  5
26CF
330
170F
100
AcDbEntity
  8
SUNPOU
 62
     0
370
    -2
100
AcDbLine
 10
2441.967234997937
 20
6919.497170538611
 30
0.0
 11
1664.465894295121
 21
6919.497170538612
 31
0.0
  0
LINE
  5
26D0
330
170F
100
AcDbEntity
  8
SUNPOU
 62
     0
370
    -2
100
AcDbLine
 10
1679.465894295121
 20
4659.497170538613
 30
0.0
 11
1679.465894295121
 21
6859.497170538612
 31
0.0
  0
SOLID
  5
26D1
330
170F
100
AcDbEntity
  8
SUNPOU
 62
     0
100
AcDbTrace
 10
1669.465894295121
 20
4659.497170538613
 30
0.0
 11
1689.465894295121
 21
4659.497170538613
 31
0.0
 12
1679.46589429512
 22
4599.497170538613
 32
0.0
 13
1679.46589429512
 23
4599.497170538613
 33
0.0
  0
SOLID
  5
26D2
330
170F
100
AcDbEntity
  8
SUNPOU
 62
     0
100
AcDbTrace
 10
1669.465894295121
 20
6859.497170538612
 30
0.0
 11
1689.465894295121
 21
6859.497170538612
 31
0.0
 12
1679.465894295121
 22
6919.497170538612
 32
0.0
 13
1679.465894295121
 23
6919.497170538612
 33
0.0
  0
MTEXT
  5
26D3
330
170F
100
AcDbEntity
  8
SUNPOU
 62
     0
100
AcDbMText
 10
1610.46589429512
 20
5759.497170538612
 30
0.0
 40
90.0
 41
0.0
 71
     5
 72
     1
  1
\A1;2320
 11
6.123031769111886E-17
 21
1.0
 31
0.0
 73
     1
 44
1.0
  0
POINT
  5
26D4
330
170F
100
AcDbEntity
  8
DEFPOINTS
 62
     0
100
AcDbPoint
 10
2501.967234997937
 20
4599.497170538612
 30
0.0
  0
POINT
  5
26D5
330
170F
100
AcDbEntity
  8
DEFPOINTS
 62
     0
100
AcDbPoint
 10
2501.967234997937
 20
6919.497170538611
 30
0.0
  0
POINT
  5
26D6
330
170F
100
AcDbEntity
  8
DEFPOINTS
 62
     0
100
AcDbPoint
 10
1679.465894295121
 20
6919.497170538612
 30
0.0
  0
ENDBLK
  5
171A
330
170F
100
AcDbEntity
  8
0
100
AcDbBlockEnd
  0
BLOCK
  5
1749
330
173F
100
AcDbEntity
  8
0
100
AcDbBlockBegin
  2
*D128
 70
     1
 10
0.0
 20
0.0
 30
0.0
  3
*D128
  1

  0
LINE
  5
26D7
330
173F
100
AcDbEntity
  8
SUNPOU
 62
     0
370
    -2
100
AcDbLine
 10
2441.967234997937
 20
4419.497170538612
 30
0.0
 11
1941.737363930886
 21
4419.497170538613
 31
0.0
  0
LINE
  5
26D8
330
173F
100
AcDbEntity
  8
SUNPOU
 62
     0
370
    -2
100
AcDbLine
 10
2378.152218827308
 20
5019.497170538612
 30
0.0
 11
1941.737363930886
 21
5019.497170538613
 31
0.0
  0
LINE
  5
26D9
330
173F
100
AcDbEntity
  8
SUNPOU
 62
     0
370
    -2
100
AcDbLine
 10
1956.737363930886
 20
4479.497170538613
 30
0.0
 11
1956.737363930886
 21
4959.497170538613
 31
0.0
  0
SOLID
  5
26DA
330
173F
100
AcDbEntity
  8
SUNPOU
 62
     0
100
AcDbTrace
 10
1946.737363930886
 20
4479.497170538613
 30
0.0
 11
1966.737363930886
 21
4479.497170538613
 31
0.0
 12
1956.737363930886
 22
4419.497170538613
 32
0.0
 13
1956.737363930886
 23
4419.497170538613
 33
0.0
  0
SOLID
  5
26DB
330
173F
100
AcDbEntity
  8
SUNPOU
 62
     0
100
AcDbTrace
 10
1946.737363930886
 20
4959.497170538613
 30
0.0
 11
1966.737363930886
 21
4959.497170538613
 31
0.0
 12
1956.737363930886
 22
5019.497170538613
 32
0.0
 13
1956.737363930886
 23
5019.497170538613
 33
0.0
  0
MTEXT
  5
26DC
330
173F
100
AcDbEntity
  8
SUNPOU
 62
     0
100
AcDbMText
 10
1887.737363930885
 20
4719.497170538613
 30
0.0
 40
90.0
 41
0.0
 71
     5
 72
     1
  1
\A1;600
 11
6.123031769111886E-17
 21
1.0
 31
0.0
 73
     1
 44
1.0
  0
POINT
  5
26DD
330
173F
100
AcDbEntity
  8
DEFPOINTS
 62
     0
100
AcDbPoint
 10
2501.967234997937
 20
4419.497170538612
 30
0.0
  0
POINT
  5
26DE
330
173F
100
AcDbEntity
  8
DEFPOINTS
 62
     0
100
AcDbPoint
 10
2438.152218827308
 20
5019.497170538612
 30
0.0
  0
POINT
  5
26DF
330
173F
100
AcDbEntity
  8
DEFPOINTS
 62
     0
100
AcDbPoint
 10
1956.737363930886
 20
5019.497170538613
 30
0.0
  0
ENDBLK
  5
174A
330
173F
100
AcDbEntity
  8
0
100
AcDbBlockEnd
  0
BLOCK
  5
1786
330
177C
100
AcDbEntity
  8
0
100
AcDbBlockBegin
  2
*D133
 70
     1
 10
0.0
 20
0.0
 30
0.0
  3
*D133
  1

  0
LINE
  5
26E0
330
177C
100
AcDbEntity
  8
SUNPOU
 62
     0
370
    -2
100
AcDbLine
 10
2501.967234997937
 20
4359.497170538612
 30
0.0
 11
2501.967234997937
 21
3708.196745056433
 31
0.0
  0
LINE
  5
26E1
330
177C
100
AcDbEntity
  8
SUNPOU
 62
     0
370
    -2
100
AcDbLine
 10
4301.967234997937
 20
4359.497170538612
 30
0.0
 11
4301.967234997937
 21
3708.196745056433
 31
0.0
  0
LINE
  5
26E2
330
177C
100
AcDbEntity
  8
SUNPOU
 62
     0
370
    -2
100
AcDbLine
 10
2561.967234997937
 20
3723.196745056433
 30
0.0
 11
4241.967234997937
 21
3723.196745056433
 31
0.0
  0
SOLID
  5
26E3
330
177C
100
AcDbEntity
  8
SUNPOU
 62
     0
100
AcDbTrace
 10
2561.967234997937
 20
3733.196745056433
 30
0.0
 11
2561.967234997937
 21
3713.196745056433
 31
0.0
 12
2501.967234997937
 22
3723.196745056433
 32
0.0
 13
2501.967234997937
 23
3723.196745056433
 33
0.0
  0
SOLID
  5
26E4
330
177C
100
AcDbEntity
  8
SUNPOU
 62
     0
100
AcDbTrace
 10
4241.967234997937
 20
3733.196745056433
 30
0.0
 11
4241.967234997937
 21
3713.196745056433
 31
0.0
 12
4301.967234997937
 22
3723.196745056433
 32
0.0
 13
4301.967234997937
 23
3723.196745056433
 33
0.0
  0
MTEXT
  5
26E5
330
177C
100
AcDbEntity
  8
SUNPOU
 62
     0
100
AcDbMText
 10
3401.967234997937
 20
3792.196745056433
 30
0.0
 40
90.0
 41
0.0
 71
     5
 72
     1
  1
\A1;1800
 73
     1
 44
1.0
  0
POINT
  5
26E6
330
177C
100
AcDbEntity
  8
DEFPOINTS
 62
     0
100
AcDbPoint
 10
2501.967234997937
 20
4419.497170538612
 30
0.0
  0
POINT
  5
26E7
330
177C
100
AcDbEntity
  8
DEFPOINTS
 62
     0
100
AcDbPoint
 10
4301.967234997937
 20
4419.497170538612
 30
0.0
  0
POINT
  5
26E8
330
177C
100
AcDbEntity
  8
DEFPOINTS
 62
     0
100
AcDbPoint
 10
4301.967234997937
 20
3723.196745056433
 30
0.0
  0
ENDBLK
  5
1787
330
177C
100
AcDbEntity
  8
0
100
AcDbBlockEnd
  0
BLOCK
  5
1792
330
1788
100
AcDbEntity
  8
0
100
AcDbBlockBegin
  2
*D134
 70
     1
 10
0.0
 20
0.0
 30
0.0
  3
*D134
  1

  0
LINE
  5
26E9
330
1788
100
AcDbEntity
  8
SUNPOU
 62
     0
370
    -2
100
AcDbLine
 10
2501.967234997937
 20
4359.497170538612
 30
0.0
 11
2501.967234997937
 21
3902.500746586098
 31
0.0
  0
LINE
  5
26EA
330
1788
100
AcDbEntity
  8
SUNPOU
 62
     0
370
    -2
100
AcDbLine
 10
2681.967234997937
 20
4359.497170538612
 30
0.0
 11
2681.967234997937
 21
3902.500746586098
 31
0.0
  0
LINE
  5
26EB
330
1788
100
AcDbEntity
  8
SUNPOU
 62
     0
370
    -2
100
AcDbLine
 10
2561.967234997937
 20
3917.500746586098
 30
0.0
 11
2621.967234997937
 21
3917.500746586098
 31
0.0
  0
MTEXT
  5
26EC
330
1788
100
AcDbEntity
  8
SUNPOU
 62
     0
100
AcDbMText
 10
2591.967234997937
 20
3986.500746586098
 30
0.0
 40
90.0
 41
0.0
 71
     5
 72
     1
  1
\A1;180
 73
     1
 44
1.0
  0
SOLID
  5
26ED
330
1788
100
AcDbEntity
  8
SUNPOU
 62
     0
100
AcDbTrace
 10
2561.967234997937
 20
3927.500746586098
 30
0.0
 11
2561.967234997937
 21
3907.500746586098
 31
0.0
 12
2501.967234997937
 22
3917.500746586098
 32
0.0
 13
2501.967234997937
 23
3917.500746586098
 33
0.0
  0
SOLID
  5
26EE
330
1788
100
AcDbEntity
  8
SUNPOU
 62
     0
100
AcDbTrace
 10
2621.967234997937
 20
3927.500746586098
 30
0.0
 11
2621.967234997937
 21
3907.500746586098
 31
0.0
 12
2681.967234997937
 22
3917.500746586098
 32
0.0
 13
2681.967234997937
 23
3917.500746586098
 33
0.0
  0
POINT
  5
26EF
330
1788
100
AcDbEntity
  8
DEFPOINTS
 62
     0
100
AcDbPoint
 10
2501.967234997937
 20
4419.497170538612
 30
0.0
  0
POINT
  5
26F0
330
1788
100
AcDbEntity
  8
DEFPOINTS
 62
     0
100
AcDbPoint
 10
2681.967234997937
 20
4419.497170538612
 30
0.0
  0
POINT
  5
26F1
330
1788
100
AcDbEntity
  8
DEFPOINTS
 62
     0
100
AcDbPoint
 10
2681.967234997937
 20
3917.500746586098
 30
0.0
  0
ENDBLK
  5
1793
330
1788
100
AcDbEntity
  8
0
100
AcDbBlockEnd
  0
BLOCK
  5
179E
330
1794
100
AcDbEntity
  8
0
100
AcDbBlockBegin
  2
*D135
 70
     1
 10
0.0
 20
0.0
 30
0.0
  3
*D135
  1

  0
LINE
  5
26F2
330
1794
100
AcDbEntity
  8
SUNPOU
 62
     0
370
    -2
100
AcDbLine
 10
2681.967234997937
 20
4359.497170538612
 30
0.0
 11
2681.967234997937
 21
3902.500746586098
 31
0.0
  0
LINE
  5
26F3
330
1794
100
AcDbEntity
  8
SUNPOU
 62
     0
370
    -2
100
AcDbLine
 10
4301.967234997937
 20
4359.497170538612
 30
0.0
 11
4301.967234997937
 21
3902.500746586098
 31
0.0
  0
LINE
  5
26F4
330
1794
100
AcDbEntity
  8
SUNPOU
 62
     0
370
    -2
100
AcDbLine
 10
2741.967234997937
 20
3917.500746586098
 30
0.0
 11
4241.967234997937
 21
3917.500746586098
 31
0.0
  0
SOLID
  5
26F5
330
1794
100
AcDbEntity
  8
SUNPOU
 62
     0
100
AcDbTrace
 10
2741.967234997937
 20
3927.500746586098
 30
0.0
 11
2741.967234997937
 21
3907.500746586098
 31
0.0
 12
2681.967234997937
 22
3917.500746586098
 32
0.0
 13
2681.967234997937
 23
3917.500746586098
 33
0.0
  0
SOLID
  5
26F6
330
1794
100
AcDbEntity
  8
SUNPOU
 62
     0
100
AcDbTrace
 10
4241.967234997937
 20
3927.500746586098
 30
0.0
 11
4241.967234997937
 21
3907.500746586098
 31
0.0
 12
4301.967234997937
 22
3917.500746586098
 32
0.0
 13
4301.967234997937
 23
3917.500746586098
 33
0.0
  0
MTEXT
  5
26F7
330
1794
100
AcDbEntity
  8
SUNPOU
 62
     0
100
AcDbMText
 10
3491.967234997937
 20
3986.500746586098
 30
0.0
 40
90.0
 41
0.0
 71
     5
 72
     1
  1
\A1;1620
 73
     1
 44
1.0
  0
POINT
  5
26F8
330
1794
100
AcDbEntity
  8
DEFPOINTS
 62
     0
100
AcDbPoint
 10
2681.967234997937
 20
4419.497170538612
 30
0.0
  0
POINT
  5
26F9
330
1794
100
AcDbEntity
  8
DEFPOINTS
 62
     0
100
AcDbPoint
 10
4301.967234997937
 20
4419.497170538612
 30
0.0
  0
POINT
  5
26FA
330
1794
100
AcDbEntity
  8
DEFPOINTS
 62
     0
100
AcDbPoint
 10
4301.967234997937
 20
3917.500746586098
 30
0.0
  0
ENDBLK
  5
179F
330
1794
100
AcDbEntity
  8
0
100
AcDbBlockEnd
  0
BLOCK
  5
180D
330
1803
100
AcDbEntity
  8
0
100
AcDbBlockBegin
  2
*D144
 70
     1
 10
0.0
 20
0.0
 30
0.0
  3
*D144
  1

  0
LINE
  5
26FB
330
1803
100
AcDbEntity
  8
SUNPOU
 62
     0
370
    -2
100
AcDbLine
 10
6191.23479258726
 20
6919.497170538612
 30
0.0
 11
5436.234792587261
 21
6919.497170538613
 31
0.0
  0
LINE
  5
26FC
330
1803
100
AcDbEntity
  8
SUNPOU
 62
     0
370
    -2
100
AcDbLine
 10
6191.23479258726
 20
4419.497170538612
 30
0.0
 11
5436.23479258726
 21
4419.497170538613
 31
0.0
  0
LINE
  5
26FD
330
1803
100
AcDbEntity
  8
SUNPOU
 62
     0
370
    -2
100
AcDbLine
 10
5451.234792587261
 20
6859.497170538613
 30
0.0
 11
5451.23479258726
 21
4479.497170538613
 31
0.0
  0
SOLID
  5
26FE
330
1803
100
AcDbEntity
  8
SUNPOU
 62
     0
100
AcDbTrace
 10
5441.234792587261
 20
6859.497170538613
 30
0.0
 11
5461.234792587261
 21
6859.497170538613
 31
0.0
 12
5451.234792587261
 22
6919.497170538613
 32
0.0
 13
5451.234792587261
 23
6919.497170538613
 33
0.0
  0
SOLID
  5
26FF
330
1803
100
AcDbEntity
  8
SUNPOU
 62
     0
100
AcDbTrace
 10
5441.23479258726
 20
4479.497170538613
 30
0.0
 11
5461.23479258726
 21
4479.497170538613
 31
0.0
 12
5451.23479258726
 22
4419.497170538613
 32
0.0
 13
5451.23479258726
 23
4419.497170538613
 33
0.0
  0
MTEXT
  5
2700
330
1803
100
AcDbEntity
  8
SUNPOU
 62
     0
100
AcDbMText
 10
5382.234792587259
 20
5669.497170538614
 30
0.0
 40
90.0
 41
0.0
 71
     5
 72
     1
  1
\A1;2500
 11
6.123031769111886E-17
 21
1.0
 31
0.0
 73
     1
 44
1.0
  0
POINT
  5
2701
330
1803
100
AcDbEntity
  8
DEFPOINTS
 62
     0
100
AcDbPoint
 10
6251.23479258726
 20
6919.497170538612
 30
0.0
  0
POINT
  5
2702
330
1803
100
AcDbEntity
  8
DEFPOINTS
 62
     0
100
AcDbPoint
 10
6251.23479258726
 20
4419.497170538612
 30
0.0
  0
POINT
  5
2703
330
1803
100
AcDbEntity
  8
DEFPOINTS
 62
     0
100
AcDbPoint
 10
5451.23479258726
 20
4419.497170538613
 30
0.0
  0
ENDBLK
  5
180E
330
1803
100
AcDbEntity
  8
0
100
AcDbBlockEnd
  0
BLOCK
  5
183D
330
1833
100
AcDbEntity
  8
0
100
AcDbBlockBegin
  2
*D148
 70
     1
 10
0.0
 20
0.0
 30
0.0
  3
*D148
  1

  0
LINE
  5
2704
330
1833
100
AcDbEntity
  8
SUNPOU
 62
     0
370
    -2
100
AcDbLine
 10
6191.23479258726
 20
6919.497170538612
 30
0.0
 11
5731.234792587261
 21
6919.497170538613
 31
0.0
  0
LINE
  5
2705
330
1833
100
AcDbEntity
  8
SUNPOU
 62
     0
370
    -2
100
AcDbLine
 10
6191.23479258726
 20
5019.497170538612
 30
0.0
 11
5731.23479258726
 21
5019.497170538613
 31
0.0
  0
LINE
  5
2706
330
1833
100
AcDbEntity
  8
SUNPOU
 62
     0
370
    -2
100
AcDbLine
 10
5746.234792587261
 20
6859.497170538613
 30
0.0
 11
5746.23479258726
 21
5079.497170538613
 31
0.0
  0
SOLID
  5
2707
330
1833
100
AcDbEntity
  8
SUNPOU
 62
     0
100
AcDbTrace
 10
5736.234792587261
 20
6859.497170538613
 30
0.0
 11
5756.234792587261
 21
6859.497170538613
 31
0.0
 12
5746.234792587261
 22
6919.497170538613
 32
0.0
 13
5746.234792587261
 23
6919.497170538613
 33
0.0
  0
SOLID
  5
2708
330
1833
100
AcDbEntity
  8
SUNPOU
 62
     0
100
AcDbTrace
 10
5736.23479258726
 20
5079.497170538613
 30
0.0
 11
5756.23479258726
 21
5079.497170538613
 31
0.0
 12
5746.23479258726
 22
5019.497170538613
 32
0.0
 13
5746.23479258726
 23
5019.497170538613
 33
0.0
  0
MTEXT
  5
2709
330
1833
100
AcDbEntity
  8
SUNPOU
 62
     0
100
AcDbMText
 10
5677.234792587259
 20
5969.497170538614
 30
0.0
 40
90.0
 41
0.0
 71
     5
 72
     1
  1
\A1;1900
 11
6.123031769111886E-17
 21
1.0
 31
0.0
 73
     1
 44
1.0
  0
POINT
  5
270A
330
1833
100
AcDbEntity
  8
DEFPOINTS
 62
     0
100
AcDbPoint
 10
6251.23479258726
 20
6919.497170538612
 30
0.0
  0
POINT
  5
270B
330
1833
100
AcDbEntity
  8
DEFPOINTS
 62
     0
100
AcDbPoint
 10
6251.23479258726
 20
5019.497170538612
 30
0.0
  0
POINT
  5
270C
330
1833
100
AcDbEntity
  8
DEFPOINTS
 62
     0
100
AcDbPoint
 10
5746.23479258726
 20
5019.497170538613
 30
0.0
  0
ENDBLK
  5
183E
330
1833
100
AcDbEntity
  8
0
100
AcDbBlockEnd
  0
BLOCK
  5
186F
330
1865
100
AcDbEntity
  8
0
100
AcDbBlockBegin
  2
*D152
 70
     1
 10
0.0
 20
0.0
 30
0.0
  3
*D152
  1

  0
LINE
  5
25FD
330
1865
100
AcDbEntity
  8
SUNPOU
 62
     0
370
    -2
100
AcDbLine
 10
6191.23479258726
 20
2804.195157089249
 30
0.0
 11
5587.633301518436
 21
2804.195157089249
 31
0.0
  0
LINE
  5
25FE
330
1865
100
AcDbEntity
  8
SUNPOU
 62
     0
370
    -2
100
AcDbLine
 10
6241.23479258726
 20
1004.195157089249
 30
0.0
 11
5587.633301518435
 21
1004.195157089249
 31
0.0
  0
LINE
  5
25FF
330
1865
100
AcDbEntity
  8
SUNPOU
 62
     0
370
    -2
100
AcDbLine
 10
5602.633301518436
 20
2744.195157089249
 30
0.0
 11
5602.633301518435
 21
1064.195157089249
 31
0.0
  0
SOLID
  5
2600
330
1865
100
AcDbEntity
  8
SUNPOU
 62
     0
100
AcDbTrace
 10
5592.633301518436
 20
2744.195157089249
 30
0.0
 11
5612.633301518436
 21
2744.195157089249
 31
0.0
 12
5602.633301518436
 22
2804.195157089249
 32
0.0
 13
5602.633301518436
 23
2804.195157089249
 33
0.0
  0
SOLID
  5
2601
330
1865
100
AcDbEntity
  8
SUNPOU
 62
     0
100
AcDbTrace
 10
5592.633301518435
 20
1064.195157089249
 30
0.0
 11
5612.633301518435
 21
1064.195157089249
 31
0.0
 12
5602.633301518435
 22
1004.195157089249
 32
0.0
 13
5602.633301518435
 23
1004.195157089249
 33
0.0
  0
MTEXT
  5
2602
330
1865
100
AcDbEntity
  8
SUNPOU
 62
     0
100
AcDbMText
 10
5533.633301518435
 20
1904.19515708925
 30
0.0
 40
90.0
 41
0.0
 71
     5
 72
     1
  1
\A1;1800
 11
6.123031769111886E-17
 21
1.0
 31
0.0
 73
     1
 44
1.0
  0
POINT
  5
2603
330
1865
100
AcDbEntity
  8
DEFPOINTS
 62
     0
100
AcDbPoint
 10
6251.23479258726
 20
2804.195157089249
 30
0.0
  0
POINT
  5
2604
330
1865
100
AcDbEntity
  8
DEFPOINTS
 62
     0
100
AcDbPoint
 10
6301.23479258726
 20
1004.195157089249
 30
0.0
  0
POINT
  5
2605
330
1865
100
AcDbEntity
  8
DEFPOINTS
 62
     0
100
AcDbPoint
 10
5602.633301518435
 20
1004.195157089249
 30
0.0
  0
ENDBLK
  5
1870
330
1865
100
AcDbEntity
  8
0
100
AcDbBlockEnd
  0
BLOCK
  5
1893
330
1889
100
AcDbEntity
  8
0
100
AcDbBlockBegin
  2
*D155
 70
     1
 10
0.0
 20
0.0
 30
0.0
  3
*D155
  1

  0
LINE
  5
2606
330
1889
100
AcDbEntity
  8
SUNPOU
 62
     0
370
    -2
100
AcDbLine
 10
6301.23479258726
 20
944.1951570892488
 30
0.0
 11
6301.23479258726
 21
547.2826460113683
 31
0.0
  0
LINE
  5
2607
330
1889
100
AcDbEntity
  8
SUNPOU
 62
     0
370
    -2
100
AcDbLine
 10
8201.23479258726
 20
944.1951570892497
 30
0.0
 11
8201.23479258726
 21
547.2826460113683
 31
0.0
  0
LINE
  5
2608
330
1889
100
AcDbEntity
  8
SUNPOU
 62
     0
370
    -2
100
AcDbLine
 10
6361.23479258726
 20
562.2826460113683
 30
0.0
 11
8141.23479258726
 21
562.2826460113683
 31
0.0
  0
SOLID
  5
2609
330
1889
100
AcDbEntity
  8
SUNPOU
 62
     0
100
AcDbTrace
 10
6361.23479258726
 20
572.2826460113683
 30
0.0
 11
6361.23479258726
 21
552.2826460113683
 31
0.0
 12
6301.23479258726
 22
562.2826460113683
 32
0.0
 13
6301.23479258726
 23
562.2826460113683
 33
0.0
  0
SOLID
  5
260A
330
1889
100
AcDbEntity
  8
SUNPOU
 62
     0
100
AcDbTrace
 10
8141.23479258726
 20
572.2826460113683
 30
0.0
 11
8141.23479258726
 21
552.2826460113683
 31
0.0
 12
8201.23479258726
 22
562.2826460113683
 32
0.0
 13
8201.23479258726
 23
562.2826460113683
 33
0.0
  0
MTEXT
  5
260B
330
1889
100
AcDbEntity
  8
SUNPOU
 62
     0
100
AcDbMText
 10
7251.23479258726
 20
631.2826460113683
 30
0.0
 40
90.0
 41
0.0
 71
     5
 72
     1
  1
\A1;1900
 73
     1
 44
1.0
  0
POINT
  5
260C
330
1889
100
AcDbEntity
  8
DEFPOINTS
 62
     0
100
AcDbPoint
 10
6301.23479258726
 20
1004.195157089249
 30
0.0
  0
POINT
  5
260D
330
1889
100
AcDbEntity
  8
DEFPOINTS
 62
     0
100
AcDbPoint
 10
8201.23479258726
 20
1004.19515708925
 30
0.0
  0
POINT
  5
260E
330
1889
100
AcDbEntity
  8
DEFPOINTS
 62
     0
100
AcDbPoint
 10
8201.23479258726
 20
562.2826460113683
 30
0.0
  0
ENDBLK
  5
1894
330
1889
100
AcDbEntity
  8
0
100
AcDbBlockEnd
  0
BLOCK
  5
18B8
330
18AE
100
AcDbEntity
  8
0
100
AcDbBlockBegin
  2
*D158
 70
     1
 10
0.0
 20
0.0
 30
0.0
  3
*D158
  1

  0
LINE
  5
260F
330
18AE
100
AcDbEntity
  8
SUNPOU
 62
     0
370
    -2
100
AcDbLine
 10
8251.234792587258
 20
2864.195157089249
 30
0.0
 11
8251.234792587258
 21
3244.421633919566
 31
0.0
  0
LINE
  5
2610
330
18AE
100
AcDbEntity
  8
SUNPOU
 62
     0
370
    -2
100
AcDbLine
 10
6251.234792587258
 20
2864.195157089249
 30
0.0
 11
6251.234792587258
 21
3244.421633919566
 31
0.0
  0
LINE
  5
2611
330
18AE
100
AcDbEntity
  8
SUNPOU
 62
     0
370
    -2
100
AcDbLine
 10
8191.234792587258
 20
3229.421633919566
 30
0.0
 11
6311.234792587258
 21
3229.421633919566
 31
0.0
  0
SOLID
  5
2612
330
18AE
100
AcDbEntity
  8
SUNPOU
 62
     0
100
AcDbTrace
 10
8191.234792587258
 20
3239.421633919566
 30
0.0
 11
8191.234792587258
 21
3219.421633919566
 31
0.0
 12
8251.234792587258
 22
3229.421633919566
 32
0.0
 13
8251.234792587258
 23
3229.421633919566
 33
0.0
  0
SOLID
  5
2613
330
18AE
100
AcDbEntity
  8
SUNPOU
 62
     0
100
AcDbTrace
 10
6311.234792587258
 20
3239.421633919566
 30
0.0
 11
6311.234792587258
 21
3219.421633919566
 31
0.0
 12
6251.234792587258
 22
3229.421633919566
 32
0.0
 13
6251.234792587258
 23
3229.421633919566
 33
0.0
  0
MTEXT
  5
2614
330
18AE
100
AcDbEntity
  8
SUNPOU
 62
     0
100
AcDbMText
 10
7251.234792587258
 20
3298.421633919566
 30
0.0
 40
90.0
 41
0.0
 71
     5
 72
     1
  1
\A1;2000
 73
     1
 44
1.0
  0
POINT
  5
2615
330
18AE
100
AcDbEntity
  8
DEFPOINTS
 62
     0
100
AcDbPoint
 10
8251.234792587258
 20
2804.195157089249
 30
0.0
  0
POINT
  5
2616
330
18AE
100
AcDbEntity
  8
DEFPOINTS
 62
     0
100
AcDbPoint
 10
6251.234792587258
 20
2804.195157089249
 30
0.0
  0
POINT
  5
2617
330
18AE
100
AcDbEntity
  8
DEFPOINTS
 62
     0
100
AcDbPoint
 10
6251.234792587258
 20
3229.421633919566
 30
0.0
  0
ENDBLK
  5
18B9
330
18AE
100
AcDbEntity
  8
0
100
AcDbBlockEnd
  0
BLOCK
  5
18DC
330
18D2
100
AcDbEntity
  8
0
100
AcDbBlockBegin
  2
*D161
 70
     1
 10
0.0
 20
0.0
 30
0.0
  3
*D161
  1

  0
LINE
  5
270D
330
18D2
100
AcDbEntity
  8
SUNPOU
 62
     0
370
    -2
100
AcDbLine
 10
6191.23479258726
 20
4419.497170538612
 30
0.0
 11
5731.23479258726
 21
4419.497170538613
 31
0.0
  0
LINE
  5
270E
330
18D2
100
AcDbEntity
  8
SUNPOU
 62
     0
370
    -2
100
AcDbLine
 10
6131.23479258726
 20
5019.497170538613
 30
0.0
 11
5731.23479258726
 21
5019.497170538613
 31
0.0
  0
LINE
  5
270F
330
18D2
100
AcDbEntity
  8
SUNPOU
 62
     0
370
    -2
100
AcDbLine
 10
5746.23479258726
 20
4479.497170538613
 30
0.0
 11
5746.23479258726
 21
4959.497170538613
 31
0.0
  0
SOLID
  5
2710
330
18D2
100
AcDbEntity
  8
SUNPOU
 62
     0
100
AcDbTrace
 10
5736.23479258726
 20
4479.497170538613
 30
0.0
 11
5756.23479258726
 21
4479.497170538613
 31
0.0
 12
5746.23479258726
 22
4419.497170538613
 32
0.0
 13
5746.23479258726
 23
4419.497170538613
 33
0.0
  0
SOLID
  5
2711
330
18D2
100
AcDbEntity
  8
SUNPOU
 62
     0
100
AcDbTrace
 10
5736.23479258726
 20
4959.497170538613
 30
0.0
 11
5756.23479258726
 21
4959.497170538613
 31
0.0
 12
5746.23479258726
 22
5019.497170538613
 32
0.0
 13
5746.23479258726
 23
5019.497170538613
 33
0.0
  0
MTEXT
  5
2712
330
18D2
100
AcDbEntity
  8
SUNPOU
 62
     0
100
AcDbMText
 10
5677.234792587259
 20
4719.497170538614
 30
0.0
 40
90.0
 41
0.0
 71
     5
 72
     1
  1
\A1;600
 11
6.123031769111886E-17
 21
1.0
 31
0.0
 73
     1
 44
1.0
  0
POINT
  5
2713
330
18D2
100
AcDbEntity
  8
DEFPOINTS
 62
     0
100
AcDbPoint
 10
6251.23479258726
 20
4419.497170538612
 30
0.0
  0
POINT
  5
2714
330
18D2
100
AcDbEntity
  8
DEFPOINTS
 62
     0
100
AcDbPoint
 10
6191.23479258726
 20
5019.497170538612
 30
0.0
  0
POINT
  5
2715
330
18D2
100
AcDbEntity
  8
DEFPOINTS
 62
     0
100
AcDbPoint
 10
5746.23479258726
 20
5019.497170538613
 30
0.0
  0
ENDBLK
  5
18DD
330
18D2
100
AcDbEntity
  8
0
100
AcDbBlockEnd
  0
BLOCK
  5
1A4F
330
1A44
100
AcDbEntity
  8
0
100
AcDbBlockBegin
  2
*D191
 70
     1
 10
0.0
 20
0.0
 30
0.0
  3
*D191
  1

  0
LINE
  5
2716
330
1A44
100
AcDbEntity
  8
SUNPOU
 62
     0
370
    -2
100
AcDbLine
 10
4301.967234997937
 20
4549.497170538612
 30
0.0
 11
4301.967234997937
 21
4908.351280186234
 31
0.0
  0
LINE
  5
2717
330
1A44
100
AcDbEntity
  8
SUNPOU
 62
     0
370
    -2
100
AcDbLine
 10
4201.967234997937
 20
4549.497170538612
 30
0.0
 11
4201.967234997937
 21
4908.351280186234
 31
0.0
  0
LINE
  5
2718
330
1A44
100
AcDbEntity
  8
SUNPOU
 62
     0
370
    -2
100
AcDbLine
 10
4361.967234997937
 20
4893.351280186234
 30
0.0
 11
4421.967234997937
 21
4893.351280186234
 31
0.0
  0
LINE
  5
2719
330
1A44
100
AcDbEntity
  8
SUNPOU
 62
     0
370
    -2
100
AcDbLine
 10
4141.967234997937
 20
4893.351280186234
 30
0.0
 11
4081.967234997937
 21
4893.351280186234
 31
0.0
  0
SOLID
  5
271A
330
1A44
100
AcDbEntity
  8
SUNPOU
 62
     0
100
AcDbTrace
 10
4361.967234997937
 20
4903.351280186234
 30
0.0
 11
4361.967234997937
 21
4883.351280186234
 31
0.0
 12
4301.967234997937
 22
4893.351280186234
 32
0.0
 13
4301.967234997937
 23
4893.351280186234
 33
0.0
  0
SOLID
  5
271B
330
1A44
100
AcDbEntity
  8
SUNPOU
 62
     0
100
AcDbTrace
 10
4141.967234997937
 20
4903.351280186234
 30
0.0
 11
4141.967234997937
 21
4883.351280186234
 31
0.0
 12
4201.967234997937
 22
4893.351280186234
 32
0.0
 13
4201.967234997937
 23
4893.351280186234
 33
0.0
  0
MTEXT
  5
271C
330
1A44
100
AcDbEntity
  8
SUNPOU
 62
     0
100
AcDbMText
 10
4251.967234997937
 20
4962.351280186234
 30
0.0
 40
90.0
 41
0.0
 71
     5
 72
     1
  1
\A1;100
 73
     1
 44
1.0
  0
POINT
  5
271D
330
1A44
100
AcDbEntity
  8
DEFPOINTS
 62
     0
100
AcDbPoint
 10
4301.967234997937
 20
4489.497170538612
 30
0.0
  0
POINT
  5
271E
330
1A44
100
AcDbEntity
  8
DEFPOINTS
 62
     0
100
AcDbPoint
 10
4201.967234997937
 20
4489.497170538612
 30
0.0
  0
POINT
  5
271F
330
1A44
100
AcDbEntity
  8
DEFPOINTS
 62
     0
100
AcDbPoint
 10
4201.967234997937
 20
4893.351280186234
 30
0.0
  0
ENDBLK
  5
1A50
330
1A44
100
AcDbEntity
  8
0
100
AcDbBlockEnd
  0
BLOCK
  5
2325
330
231A
100
AcDbEntity
  8
0
100
AcDbBlockBegin
  2
*D196
 70
     1
 10
0.0
 20
0.0
 30
0.0
  3
*D196
  1

  0
LINE
  5
262B
330
231A
100
AcDbEntity
  8
SUNPOU
 62
     0
370
    -2
100
AcDbLine
 10
8201.23479258726
 20
944.1951570892488
 30
0.0
 11
8201.23479258726
 21
547.2826460113683
 31
0.0
  0
LINE
  5
262C
330
231A
100
AcDbEntity
  8
SUNPOU
 62
     0
370
    -2
100
AcDbLine
 10
8251.23479258726
 20
944.1951570892488
 30
0.0
 11
8251.23479258726
 21
547.2826460113683
 31
0.0
  0
LINE
  5
262D
330
231A
100
AcDbEntity
  8
SUNPOU
 62
     0
370
    -2
100
AcDbLine
 10
8141.23479258726
 20
562.2826460113683
 30
0.0
 11
8081.23479258726
 21
562.2826460113683
 31
0.0
  0
LINE
  5
262E
330
231A
100
AcDbEntity
  8
SUNPOU
 62
     0
370
    -2
100
AcDbLine
 10
8311.23479258726
 20
562.2826460113683
 30
0.0
 11
8371.23479258726
 21
562.2826460113683
 31
0.0
  0
SOLID
  5
262F
330
231A
100
AcDbEntity
  8
SUNPOU
 62
     0
100
AcDbTrace
 10
8141.23479258726
 20
572.2826460113683
 30
0.0
 11
8141.23479258726
 21
552.2826460113683
 31
0.0
 12
8201.23479258726
 22
562.2826460113683
 32
0.0
 13
8201.23479258726
 23
562.2826460113683
 33
0.0
  0
SOLID
  5
2630
330
231A
100
AcDbEntity
  8
SUNPOU
 62
     0
100
AcDbTrace
 10
8311.23479258726
 20
572.2826460113683
 30
0.0
 11
8311.23479258726
 21
552.2826460113683
 31
0.0
 12
8251.23479258726
 22
562.2826460113683
 32
0.0
 13
8251.23479258726
 23
562.2826460113683
 33
0.0
  0
MTEXT
  5
2631
330
231A
100
AcDbEntity
  8
SUNPOU
 62
     0
100
AcDbMText
 10
8226.23479258726
 20
631.2826460113683
 30
0.0
 40
90.0
 41
0.0
 71
     5
 72
     1
  1
\A1;50
 73
     1
 44
1.0
  0
POINT
  5
2632
330
231A
100
AcDbEntity
  8
DEFPOINTS
 62
     0
100
AcDbPoint
 10
8201.23479258726
 20
1004.195157089249
 30
0.0
  0
POINT
  5
2633
330
231A
100
AcDbEntity
  8
DEFPOINTS
 62
     0
100
AcDbPoint
 10
8251.23479258726
 20
1004.195157089249
 30
0.0
  0
POINT
  5
2634
330
231A
100
AcDbEntity
  8
DEFPOINTS
 62
     0
100
AcDbPoint
 10
8251.23479258726
 20
562.2826460113683
 30
0.0
  0
ENDBLK
  5
2326
330
231A
100
AcDbEntity
  8
0
100
AcDbBlockEnd
  0
BLOCK
  5
2333
330
2328
100
AcDbEntity
  8
0
100
AcDbBlockBegin
  2
*D197
 70
     1
 10
0.0
 20
0.0
 30
0.0
  3
*D197
  1

  0
LINE
  5
2635
330
2328
100
AcDbEntity
  8
SUNPOU
 62
     0
370
    -2
100
AcDbLine
 10
6301.23479258726
 20
944.1951570892488
 30
0.0
 11
6301.23479258726
 21
547.2826460113683
 31
0.0
  0
LINE
  5
2636
330
2328
100
AcDbEntity
  8
SUNPOU
 62
     0
370
    -2
100
AcDbLine
 10
6251.23479258726
 20
944.1951570892488
 30
0.0
 11
6251.23479258726
 21
547.2826460113683
 31
0.0
  0
LINE
  5
2637
330
2328
100
AcDbEntity
  8
SUNPOU
 62
     0
370
    -2
100
AcDbLine
 10
6361.23479258726
 20
562.2826460113683
 30
0.0
 11
6421.23479258726
 21
562.2826460113683
 31
0.0
  0
LINE
  5
2638
330
2328
100
AcDbEntity
  8
SUNPOU
 62
     0
370
    -2
100
AcDbLine
 10
6191.23479258726
 20
562.2826460113683
 30
0.0
 11
6131.23479258726
 21
562.2826460113683
 31
0.0
  0
SOLID
  5
2639
330
2328
100
AcDbEntity
  8
SUNPOU
 62
     0
100
AcDbTrace
 10
6361.23479258726
 20
572.2826460113683
 30
0.0
 11
6361.23479258726
 21
552.2826460113683
 31
0.0
 12
6301.23479258726
 22
562.2826460113683
 32
0.0
 13
6301.23479258726
 23
562.2826460113683
 33
0.0
  0
SOLID
  5
263A
330
2328
100
AcDbEntity
  8
SUNPOU
 62
     0
100
AcDbTrace
 10
6191.23479258726
 20
572.2826460113683
 30
0.0
 11
6191.23479258726
 21
552.2826460113683
 31
0.0
 12
6251.23479258726
 22
562.2826460113683
 32
0.0
 13
6251.23479258726
 23
562.2826460113683
 33
0.0
  0
MTEXT
  5
263B
330
2328
100
AcDbEntity
  8
SUNPOU
 62
     0
100
AcDbMText
 10
6276.23479258726
 20
631.2826460113683
 30
0.0
 40
90.0
 41
0.0
 71
     5
 72
     1
  1
\A1;50
 73
     1
 44
1.0
  0
POINT
  5
263C
330
2328
100
AcDbEntity
  8
DEFPOINTS
 62
     0
100
AcDbPoint
 10
6301.23479258726
 20
1004.195157089249
 30
0.0
  0
POINT
  5
263D
330
2328
100
AcDbEntity
  8
DEFPOINTS
 62
     0
100
AcDbPoint
 10
6251.23479258726
 20
1004.195157089249
 30
0.0
  0
POINT
  5
263E
330
2328
100
AcDbEntity
  8
DEFPOINTS
 62
     0
100
AcDbPoint
 10
6251.23479258726
 20
562.2826460113683
 30
0.0
  0
ENDBLK
  5
2334
330
2328
100
AcDbEntity
  8
0
100
AcDbBlockEnd
  0
BLOCK
  5
234A
330
2340
100
AcDbEntity
  8
0
100
AcDbBlockBegin
  2
*D198
 70
     1
 10
0.0
 20
0.0
 30
0.0
  3
*D198
  1

  0
LINE
  5
2745
330
2340
100
AcDbEntity
  8
SUNPOU
 62
     0
370
    -2
100
AcDbLine
 10
6191.23479258726
 20
2804.195157089249
 30
0.0
 11
5788.043444137242
 21
2804.195157089249
 31
0.0
  0
LINE
  5
2746
330
2340
100
AcDbEntity
  8
SUNPOU
 62
     0
370
    -2
100
AcDbLine
 10
6191.23479258726
 20
2434.895157089249
 30
0.0
 11
5788.043444137242
 21
2434.895157089249
 31
0.0
  0
LINE
  5
2747
330
2340
100
AcDbEntity
  8
SUNPOU
 62
     0
370
    -2
100
AcDbLine
 10
5803.043444137242
 20
2744.195157089249
 30
0.0
 11
5803.043444137242
 21
2494.895157089249
 31
0.0
  0
SOLID
  5
2748
330
2340
100
AcDbEntity
  8
SUNPOU
 62
     0
100
AcDbTrace
 10
5793.043444137242
 20
2744.195157089249
 30
0.0
 11
5813.043444137242
 21
2744.195157089249
 31
0.0
 12
5803.043444137242
 22
2804.195157089249
 32
0.0
 13
5803.043444137242
 23
2804.195157089249
 33
0.0
  0
SOLID
  5
2749
330
2340
100
AcDbEntity
  8
SUNPOU
 62
     0
100
AcDbTrace
 10
5793.043444137242
 20
2494.895157089249
 30
0.0
 11
5813.043444137242
 21
2494.895157089249
 31
0.0
 12
5803.043444137242
 22
2434.895157089249
 32
0.0
 13
5803.043444137242
 23
2434.895157089249
 33
0.0
  0
MTEXT
  5
274A
330
2340
100
AcDbEntity
  8
SUNPOU
 62
     0
100
AcDbMText
 10
5734.043444137241
 20
2619.54515708925
 30
0.0
 40
90.0
 41
0.0
 71
     5
 72
     1
  1
\A1;369
 11
6.123031769111886E-17
 21
1.0
 31
0.0
 73
     1
 44
1.0
  0
POINT
  5
274B
330
2340
100
AcDbEntity
  8
DEFPOINTS
 62
     0
100
AcDbPoint
 10
6251.23479258726
 20
2804.195157089249
 30
0.0
  0
POINT
  5
274C
330
2340
100
AcDbEntity
  8
DEFPOINTS
 62
     0
100
AcDbPoint
 10
6251.23479258726
 20
2434.895157089249
 30
0.0
  0
POINT
  5
274D
330
2340
100
AcDbEntity
  8
DEFPOINTS
 62
     0
100
AcDbPoint
 10
5803.043444137242
 20
2434.895157089249
 30
0.0
  0
ENDBLK
  5
234B
330
2340
100
AcDbEntity
  8
0
100
AcDbBlockEnd
  0
BLOCK
  5
2357
330
234D
100
AcDbEntity
  8
0
100
AcDbBlockBegin
  2
*D199
 70
     1
 10
0.0
 20
0.0
 30
0.0
  3
*D199
  1

  0
LINE
  5
274E
330
234D
100
AcDbEntity
  8
SUNPOU
 62
     0
370
    -2
100
AcDbLine
 10
6191.23479258726
 20
2434.895157089249
 30
0.0
 11
5788.043444137242
 21
2434.895157089249
 31
0.0
  0
LINE
  5
274F
330
234D
100
AcDbEntity
  8
SUNPOU
 62
     0
370
    -2
100
AcDbLine
 10
6241.234792587259
 20
1004.195157089249
 30
0.0
 11
5788.043444137241
 21
1004.195157089249
 31
0.0
  0
LINE
  5
2750
330
234D
100
AcDbEntity
  8
SUNPOU
 62
     0
370
    -2
100
AcDbLine
 10
5803.043444137242
 20
2374.895157089249
 30
0.0
 11
5803.043444137241
 21
1064.195157089249
 31
0.0
  0
SOLID
  5
2751
330
234D
100
AcDbEntity
  8
SUNPOU
 62
     0
100
AcDbTrace
 10
5793.043444137242
 20
2374.895157089249
 30
0.0
 11
5813.043444137242
 21
2374.895157089249
 31
0.0
 12
5803.043444137242
 22
2434.895157089249
 32
0.0
 13
5803.043444137242
 23
2434.895157089249
 33
0.0
  0
SOLID
  5
2752
330
234D
100
AcDbEntity
  8
SUNPOU
 62
     0
100
AcDbTrace
 10
5793.043444137241
 20
1064.195157089249
 30
0.0
 11
5813.043444137241
 21
1064.195157089249
 31
0.0
 12
5803.043444137241
 22
1004.195157089249
 32
0.0
 13
5803.043444137241
 23
1004.195157089249
 33
0.0
  0
MTEXT
  5
2753
330
234D
100
AcDbEntity
  8
SUNPOU
 62
     0
100
AcDbMText
 10
5734.043444137241
 20
1719.54515708925
 30
0.0
 40
90.0
 41
0.0
 71
     5
 72
     1
  1
\A1;1431
 11
6.123031769111886E-17
 21
1.0
 31
0.0
 73
     1
 44
1.0
  0
POINT
  5
2754
330
234D
100
AcDbEntity
  8
DEFPOINTS
 62
     0
100
AcDbPoint
 10
6251.23479258726
 20
2434.895157089249
 30
0.0
  0
POINT
  5
2755
330
234D
100
AcDbEntity
  8
DEFPOINTS
 62
     0
100
AcDbPoint
 10
6301.234792587259
 20
1004.195157089249
 30
0.0
  0
POINT
  5
2756
330
234D
100
AcDbEntity
  8
DEFPOINTS
 62
     0
100
AcDbPoint
 10
5803.043444137241
 20
1004.195157089249
 30
0.0
  0
ENDBLK
  5
2358
330
234D
100
AcDbEntity
  8
0
100
AcDbBlockEnd
  0
ENDSEC
  0
SECTION
  2
ENTITIES
  0
TEXT
  5
5F
330
17
100
AcDbEntity
  8
SUNPOU
100
AcDbText
 10
11549.99999999999
 20
480.0
 30
0.0
 40
90.0
  1
30
100
AcDbText
  0
INSERT
  5
60
330
17
100
AcDbEntity
  8
HAIKIN
100
AcDbBlockReference
  2
SA3
 10
510.0
 20
0.0
 30
0.0
 41
30.0
 42
30.0
 43
30.0
  0
TEXT
  5
13F4
330
17
100
AcDbEntity
  8
HAIKIN
100
AcDbText
 10
4538.794685232686
 20
7862.558348170878
 30
0.0
 40
112.5
  1
デザインウォ－ル　H=2500  ( L=2000 )
 11
4538.794685232686
 21
7847.558348170878
 31
0.0
100
AcDbText
 73
     1
  0
LINE
  5
13F5
330
17
100
AcDbEntity
  8
SEIHIN
100
AcDbLine
 10
2501.967234997937
 20
4419.497170538612
 30
0.0
 11
4301.967234997937
 21
4419.497170538612
 31
0.0
  0
LINE
  5
13F6
330
17
100
AcDbEntity
  8
SEIHIN
100
AcDbLine
 10
4301.967234997937
 20
4419.497170538612
 30
0.0
 11
4301.967234997937
 21
4489.497170538612
 31
0.0
  0
LINE
  5
13F7
330
17
100
AcDbEntity
  8
SEIHIN
100
AcDbLine
 10
2501.967234997937
 20
4419.497170538612
 30
0.0
 11
2501.967234997937
 21
6919.497170538611
 31
0.0
  0
LINE
  5
13F8
330
17
100
AcDbEntity
  8
SEIHIN
100
AcDbLine
 10
2501.967234997937
 20
6919.497170538612
 30
0.0
 11
2571.967234997937
 21
6919.497170538612
 31
0.0
  0
LINE
  5
13F9
330
17
100
AcDbEntity
  8
1HASEN
100
AcDbLine
 10
2681.967234997937
 20
4549.497170538613
 30
0.0
 11
2681.967234997937
 21
4649.497170538612
 31
0.0
  0
LINE
  5
13FA
330
17
100
AcDbEntity
  8
1HASEN
100
AcDbLine
 10
2631.967234997937
 20
4599.497170538612
 30
0.0
 11
2731.967234997937
 21
4599.497170538612
 31
0.0
  0
LINE
  5
13FB
330
17
100
AcDbEntity
  8
SEIHIN
100
AcDbLine
 10
6251.23479258726
 20
4419.497170538612
 30
0.0
 11
6251.23479258726
 21
6919.497170538612
 31
0.0
  0
LINE
  5
13FC
330
17
100
AcDbEntity
  8
SEIHIN
100
AcDbLine
 10
8251.23479258726
 20
4419.497170538612
 30
0.0
 11
8251.23479258726
 21
6919.497170538612
 31
0.0
  0
LINE
  5
13FD
330
17
100
AcDbEntity
  8
SEIHIN
100
AcDbLine
 10
6251.23479258726
 20
6919.497170538612
 30
0.0
 11
8251.23479258726
 21
6919.497170538612
 31
0.0
  0
LINE
  5
13FE
330
17
100
AcDbEntity
  8
SEIHIN
100
AcDbLine
 10
6251.23479258726
 20
4419.497170538612
 30
0.0
 11
8251.23479258726
 21
4419.497170538612
 31
0.0
  0
LINE
  5
1400
330
17
100
AcDbEntity
  8
1HASEN
100
AcDbLine
 10
7251.234792587259
 20
7019.497170538612
 30
0.0
 11
7251.23479258726
 21
4319.497170538611
 31
0.0
  0
LINE
  5
140E
330
17
100
AcDbEntity
  8
1HASEN
100
AcDbLine
 10
6751.234792587259
 20
5119.497170538613
 30
0.0
 11
6751.23479258726
 21
4919.497170538612
 31
0.0
  0
LINE
  5
140F
330
17
100
AcDbEntity
  8
1HASEN
100
AcDbLine
 10
6651.23479258726
 20
5019.497170538612
 30
0.0
 11
6851.234792587261
 21
5019.497170538612
 31
0.0
  0
DIMENSION
  5
1416
330
17
100
AcDbEntity
  8
SUNPOU
100
AcDbDimension
  2
*D102
 10
2571.967234997937
 20
7367.891805374915
 30
0.0
 11
2536.967234997937
 21
7436.891805374915
 31
0.0
 70
    32
 71
     5
 42
70.0
  3
A3-30
100
AcDbAlignedDimension
 13
2501.967234997937
 23
6919.497170538612
 33
0.0
 14
2571.967234997937
 24
6919.497170538612
 34
0.0
100
AcDbRotatedDimension
  0
DIMENSION
  5
1417
330
17
100
AcDbEntity
  8
SUNPOU
100
AcDbDimension
  2
*D103
 10
4651.967234997937
 20
4489.497170538612
 30
0.0
 11
4582.967234997936
 21
4454.497170538613
 31
0.0
 70
    32
 71
     5
 42
70.0
  3
A3-30
100
AcDbAlignedDimension
 13
4301.967234997937
 23
4419.497170538612
 33
0.0
 14
4301.967234997937
 24
4489.497170538612
 34
0.0
 50
90.0
100
AcDbRotatedDimension
  0
LINE
  5
1418
330
17
100
AcDbEntity
  8
HASEN
 48
0.2
100
AcDbLine
 10
2536.967234997937
 20
4994.497170538612
 30
0.0
 11
2501.967234997937
 21
4979.497170538612
 31
0.0
  0
LINE
  5
1419
330
17
100
AcDbEntity
  8
HASEN
 48
0.2
100
AcDbLine
 10
2536.967234997937
 20
5044.497170538612
 30
0.0
 11
2536.967234997937
 21
4994.497170538612
 31
0.0
  0
LINE
  5
141A
330
17
100
AcDbEntity
  8
HASEN
 48
0.2
100
AcDbLine
 10
2501.967234997937
 20
5059.497170538612
 30
0.0
 11
2536.967234997937
 21
5044.497170538612
 31
0.0
  0
LINE
  5
141B
330
17
100
AcDbEntity
  8
HASEN
 48
0.2
100
AcDbLine
 10
2646.475088401079
 20
4994.497170538612
 30
0.0
 11
2660.068976948625
 21
4979.730560303942
 31
0.0
  0
LINE
  5
141C
330
17
100
AcDbEntity
  8
HASEN
 48
0.2
100
AcDbLine
 10
2646.475088401079
 20
5044.497170538612
 30
0.0
 11
2646.475088401079
 21
4994.497170538612
 31
0.0
  0
LINE
  5
141D
330
17
100
AcDbEntity
  8
HASEN
 48
0.2
100
AcDbLine
 10
2655.475088401079
 20
5059.497170538612
 30
0.0
 11
2646.475088401079
 21
5044.497170538612
 31
0.0
  0
CIRCLE
  5
141E
330
17
100
AcDbEntity
  8
SUNPOU
100
AcDbCircle
 10
6751.23479258726
 20
5019.497170538612
 30
0.0
 40
40.0
  0
CIRCLE
  5
141F
330
17
100
AcDbEntity
  8
SUNPOU
100
AcDbCircle
 10
6751.23479258726
 20
5019.497170538612
 30
0.0
 40
25.0
  0
LINE
  5
1420
330
17
100
AcDbEntity
  8
1HASEN
100
AcDbLine
 10
2438.152218827308
 20
5019.497170538612
 30
0.0
 11
2713.35502319425
 21
5019.497170538612
 31
0.0
  0
LINE
  5
1421
330
17
100
AcDbEntity
  8
HASEN
 48
0.2
100
AcDbLine
 10
2536.967234997937
 20
5037.997170538612
 30
0.0
 11
2646.475088401079
 21
5043.279220719904
 31
0.0
  0
LINE
  5
1422
330
17
100
AcDbEntity
  8
HASEN
 48
0.2
100
AcDbLine
 10
2536.967234997937
 20
5000.997170538612
 30
0.0
 11
2646.475088401079
 21
4995.715120357321
 31
0.0
  0
DIMENSION
  5
1430
330
17
100
AcDbEntity
  8
SUNPOU
100
AcDbDimension
  2
*D111
 10
8251.23479258726
 20
7418.862570389483
 30
0.0
 11
7251.23479258726
 21
7487.862570389483
 31
0.0
 70
    32
 71
     5
 42
2000.0
  3
A3-30
100
AcDbAlignedDimension
 13
6251.23479258726
 23
6919.497170538612
 33
0.0
 14
8251.23479258726
 24
6919.497170538612
 34
0.0
100
AcDbRotatedDimension
  0
DIMENSION
  5
1451
330
17
100
AcDbEntity
  8
SUNPOU
100
AcDbDimension
  2
*D115
 10
6751.23479258726
 20
4008.471370586227
 30
0.0
 11
6501.23479258726
 21
4077.471370586227
 31
0.0
 70
    32
 71
     5
 42
500.0
  3
A3-30
100
AcDbAlignedDimension
 13
6251.23479258726
 23
4419.497170538612
 33
0.0
 14
6751.23479258726
 24
4419.497170538612
 34
0.0
100
AcDbRotatedDimension
  0
DIMENSION
  5
1452
330
17
100
AcDbEntity
  8
SUNPOU
100
AcDbDimension
  2
*D116
 10
7251.23479258726
 20
4008.471370586227
 30
0.0
 11
7001.23479258726
 21
4077.471370586227
 31
0.0
 70
    32
 71
     5
 42
500.0
  3
A3-30
100
AcDbAlignedDimension
 13
6751.23479258726
 23
4419.497170538612
 33
0.0
 14
7251.23479258726
 24
4319.497170538611
 34
0.0
100
AcDbRotatedDimension
  0
DIMENSION
  5
1453
330
17
100
AcDbEntity
  8
SUNPOU
100
AcDbDimension
  2
*D117
 10
7751.23479258726
 20
4008.471370586227
 30
0.0
 11
8001.23479258726
 21
4077.471370586227
 31
0.0
 70
    32
 71
     5
 42
500.0
  3
A3-30
100
AcDbAlignedDimension
 13
8251.23479258726
 23
4419.497170538612
 33
0.0
 14
7751.23479258726
 24
4419.497170538612
 34
0.0
100
AcDbRotatedDimension
  0
DIMENSION
  5
1454
330
17
100
AcDbEntity
  8
SUNPOU
100
AcDbDimension
  2
*D118
 10
7251.23479258726
 20
4008.471370586227
 30
0.0
 11
7501.23479258726
 21
4077.471370586227
 31
0.0
 70
    32
 71
     5
 42
500.0
  3
A3-30
100
AcDbAlignedDimension
 13
7751.23479258726
 23
4419.497170538612
 33
0.0
 14
7251.23479258726
 24
4319.497170538611
 34
0.0
100
AcDbRotatedDimension
  0
LINE
  5
1458
330
17
100
AcDbEntity
  8
SEIHIN
100
AcDbLine
 10
2571.967234997937
 20
6919.497170538612
 30
0.0
 11
2571.967234997937
 21
6509.497170538612
 31
0.0
  0
DIMENSION
  5
1459
330
17
100
AcDbEntity
  8
SUNPOU
100
AcDbDimension
  2
*D120
 10
4651.967234997937
 20
6509.497170538612
 30
0.0
 11
4582.967234997936
 21
6714.497170538613
 31
0.0
 70
    32
 71
     5
 42
410.0
  3
A3-30
100
AcDbAlignedDimension
 13
2571.967234997937
 23
6919.497170538612
 33
0.0
 14
2571.967234997937
 24
6509.497170538612
 34
0.0
 50
90.0
100
AcDbRotatedDimension
  0
DIMENSION
  5
145A
330
17
100
AcDbEntity
  8
SUNPOU
100
AcDbDimension
  2
*D121
 10
4651.967234997937
 20
4489.497170538612
 30
0.0
 11
4582.967234997936
 21
5499.497170538613
 31
0.0
 70
    32
 71
     5
 42
2020.0
  3
A3-30
100
AcDbAlignedDimension
 13
2571.967234997937
 23
6509.497170538612
 33
0.0
 14
4301.967234997937
 24
4489.497170538612
 34
0.0
 50
90.0
100
AcDbRotatedDimension
  0
LINE
  5
145B
330
17
100
AcDbEntity
  8
SEIHIN
100
AcDbLine
 10
4301.967234997937
 20
4489.497170538612
 30
0.0
 11
4201.967234997937
 21
4489.497170538612
 31
0.0
  0
LINE
  5
145C
330
17
100
AcDbEntity
  8
SEIHIN
100
AcDbLine
 10
2871.267234997938
 20
4585.797828433351
 30
0.0
 11
4201.967234997937
 21
4489.497170538612
 31
0.0
  0
LINE
  5
145D
330
17
100
AcDbEntity
  8
SEIHIN
100
AcDbLine
 10
2571.967234997937
 20
6509.497170538612
 30
0.0
 11
2671.237877736983
 21
4785.79782843335
 31
0.0
  0
DIMENSION
  5
146D
330
17
100
AcDbEntity
  8
SUNPOU
100
AcDbDimension
  2
*D122
 10
1486.216057983773
 20
4419.497170538613
 30
0.0
 11
1417.216057983772
 21
5669.497170538613
 31
0.0
 70
    32
 71
     5
 42
2500.0
  3
A3-30
100
AcDbAlignedDimension
 13
2501.967234997937
 23
6919.497170538612
 33
0.0
 14
2501.967234997937
 24
4419.497170538612
 34
0.0
 50
90.0
100
AcDbRotatedDimension
  0
DIMENSION
  5
146E
330
17
100
AcDbEntity
  8
SUNPOU
100
AcDbDimension
  2
*D123
 10
1679.465894295121
 20
4599.497170538613
 30
0.0
 11
1610.46589429512
 21
4509.497170538612
 31
0.0
 70
   160
 71
     5
 42
180.0
  3
A3-30
100
AcDbAlignedDimension
 13
2501.967234997937
 23
4419.497170538612
 33
0.0
 14
2501.967234997937
 24
4599.497170538612
 34
0.0
 50
90.0
100
AcDbRotatedDimension
  0
DIMENSION
  5
146F
330
17
100
AcDbEntity
  8
SUNPOU
100
AcDbDimension
  2
*D124
 10
1679.465894295121
 20
6919.497170538612
 30
0.0
 11
1610.46589429512
 21
5759.497170538612
 31
0.0
 70
    32
 71
     5
 42
2319.999999999999
  3
A3-30
100
AcDbAlignedDimension
 13
2501.967234997937
 23
4599.497170538612
 33
0.0
 14
2501.967234997937
 24
6919.497170538611
 34
0.0
 50
90.0
100
AcDbRotatedDimension
  0
DIMENSION
  5
1473
330
17
100
AcDbEntity
  8
SUNPOU
100
AcDbDimension
  2
*D128
 10
1956.737363930886
 20
5019.497170538613
 30
0.0
 11
1887.737363930885
 21
4719.497170538613
 31
0.0
 70
    32
 71
     5
 42
600.0
  3
A3-30
100
AcDbAlignedDimension
 13
2501.967234997937
 23
4419.497170538612
 33
0.0
 14
2438.152218827308
 24
5019.497170538612
 34
0.0
 50
90.0
100
AcDbRotatedDimension
  0
DIMENSION
  5
147D
330
17
100
AcDbEntity
  8
SUNPOU
100
AcDbDimension
  2
*D133
 10
4301.967234997937
 20
3723.196745056433
 30
0.0
 11
3401.967234997937
 21
3792.196745056433
 31
0.0
 70
    32
 71
     5
 42
1800.0
  3
A3-30
100
AcDbAlignedDimension
 13
2501.967234997937
 23
4419.497170538612
 33
0.0
 14
4301.967234997937
 24
4419.497170538612
 34
0.0
100
AcDbRotatedDimension
  0
DIMENSION
  5
147E
330
17
100
AcDbEntity
  8
SUNPOU
100
AcDbDimension
  2
*D134
 10
2681.967234997937
 20
3917.500746586098
 30
0.0
 11
2591.967234997937
 21
3986.500746586098
 31
0.0
 70
   160
 71
     5
 42
180.0
  3
A3-30
100
AcDbAlignedDimension
 13
2501.967234997937
 23
4419.497170538612
 33
0.0
 14
2681.967234997937
 24
4419.497170538612
 34
0.0
100
AcDbRotatedDimension
  0
DIMENSION
  5
147F
330
17
100
AcDbEntity
  8
SUNPOU
100
AcDbDimension
  2
*D135
 10
4301.967234997937
 20
3917.500746586098
 30
0.0
 11
3491.967234997937
 21
3986.500746586098
 31
0.0
 70
    32
 71
     5
 42
1620.0
  3
A3-30
100
AcDbAlignedDimension
 13
2681.967234997937
 23
4419.497170538612
 33
0.0
 14
4301.967234997937
 24
4419.497170538612
 34
0.0
100
AcDbRotatedDimension
  0
DIMENSION
  5
14CA
330
17
100
AcDbEntity
  8
SUNPOU
100
AcDbDimension
  2
*D144
 10
5451.23479258726
 20
4419.497170538613
 30
0.0
 11
5382.234792587259
 21
5669.497170538614
 31
0.0
 70
    32
 71
     5
 42
2500.0
  3
A3-30
100
AcDbAlignedDimension
 13
6251.23479258726
 23
6919.497170538612
 33
0.0
 14
6251.23479258726
 24
4419.497170538612
 34
0.0
 50
90.0
100
AcDbRotatedDimension
  0
LINE
  5
14D1
330
17
100
AcDbEntity
  8
1HASEN
100
AcDbLine
 10
7751.234792587261
 20
5119.497170538613
 30
0.0
 11
7751.23479258726
 21
4919.497170538612
 31
0.0
  0
LINE
  5
14D2
330
17
100
AcDbEntity
  8
1HASEN
100
AcDbLine
 10
7851.23479258726
 20
5019.497170538613
 30
0.0
 11
7651.234792587259
 21
5019.497170538612
 31
0.0
  0
CIRCLE
  5
14D3
330
17
100
AcDbEntity
  8
SUNPOU
100
AcDbCircle
 10
7751.23479258726
 20
5019.497170538612
 30
0.0
 40
25.0
  0
CIRCLE
  5
14D4
330
17
100
AcDbEntity
  8
SUNPOU
100
AcDbCircle
 10
7751.23479258726
 20
5019.497170538612
 30
0.0
 40
40.0
  0
DIMENSION
  5
14E1
330
17
100
AcDbEntity
  8
SUNPOU
100
AcDbDimension
  2
*D148
 10
5746.23479258726
 20
5019.497170538613
 30
0.0
 11
5677.234792587259
 21
5969.497170538614
 31
0.0
 70
    32
 71
     5
 42
1900.0
  3
A3-30
100
AcDbAlignedDimension
 13
6251.23479258726
 23
6919.497170538612
 33
0.0
 14
6251.23479258726
 24
5019.497170538612
 34
0.0
 50
90.0
100
AcDbRotatedDimension
  0
LINE
  5
14FD
330
17
100
AcDbEntity
  8
SEIHIN
100
AcDbLine
 10
6251.23479258726
 20
2804.195157089249
 30
0.0
 11
8251.23479258726
 21
2804.195157089249
 31
0.0
  0
LINE
  5
14FE
330
17
100
AcDbEntity
  8
SEIHIN
100
AcDbLine
 10
6301.234792587259
 20
1004.195157089249
 30
0.0
 11
8201.23479258726
 21
1004.195157089249
 31
0.0
  0
LINE
  5
14FF
330
17
100
AcDbEntity
  8
1HASEN
100
AcDbLine
 10
7251.234792587259
 20
2904.195157089249
 30
0.0
 11
7251.23479258726
 21
904.1951570892488
 31
0.0
  0
LINE
  5
1500
330
17
100
AcDbEntity
  8
SEIHIN
100
AcDbLine
 10
6251.23479258726
 20
2804.195157089249
 30
0.0
 11
6251.23479258726
 21
2434.895157089249
 31
0.0
  0
DIMENSION
  5
1515
330
17
100
AcDbEntity
  8
SUNPOU
100
AcDbDimension
  2
*D152
 10
5602.633301518435
 20
1004.195157089249
 30
0.0
 11
5533.633301518435
 21
1904.19515708925
 31
0.0
 70
    32
 71
     5
 42
1800.0
  3
A3-30
100
AcDbAlignedDimension
 13
6251.23479258726
 23
2804.195157089249
 33
0.0
 14
6301.23479258726
 24
1004.195157089249
 34
0.0
 50
90.0
100
AcDbRotatedDimension
  0
DIMENSION
  5
1518
330
17
100
AcDbEntity
  8
SUNPOU
100
AcDbDimension
  2
*D155
 10
8201.23479258726
 20
562.2826460113683
 30
0.0
 11
7251.23479258726
 21
631.2826460113683
 31
0.0
 70
    32
 71
     5
 42
1900.0
  3
A3-30
100
AcDbAlignedDimension
 13
6301.23479258726
 23
1004.195157089249
 33
0.0
 14
8201.23479258726
 24
1004.19515708925
 34
0.0
100
AcDbRotatedDimension
  0
DIMENSION
  5
151B
330
17
100
AcDbEntity
  8
SUNPOU
100
AcDbDimension
  2
*D158
 10
6251.234792587258
 20
3229.421633919566
 30
0.0
 11
7251.234792587258
 21
3298.421633919566
 31
0.0
 70
    32
 71
     5
 42
2000.0
  3
A3-30
100
AcDbAlignedDimension
 13
8251.234792587258
 23
2804.195157089249
 33
0.0
 14
6251.234792587258
 24
2804.195157089249
 34
0.0
 50
180.0
100
AcDbRotatedDimension
  0
DIMENSION
  5
153B
330
17
100
AcDbEntity
  8
SUNPOU
100
AcDbDimension
  2
*D161
 10
5746.23479258726
 20
5019.497170538613
 30
0.0
 11
5677.234792587259
 21
4719.497170538614
 31
0.0
 70
    32
 71
     5
 42
600.0
  3
A3-30
100
AcDbAlignedDimension
 13
6251.23479258726
 23
4419.497170538612
 33
0.0
 14
6191.23479258726
 24
5019.497170538612
 34
0.0
 50
90.0
100
AcDbRotatedDimension
  0
LINE
  5
15BE
330
17
100
AcDbEntity
  8
SEIHIN
100
AcDbLine
 10
6251.23479258726
 20
2434.895157089249
 30
0.0
 11
6301.234792587259
 21
1004.195157089249
 31
0.0
  0
TEXT
  5
15E5
330
17
100
AcDbEntity
  8
SUNPOU
100
AcDbText
 10
10280.92849073235
 20
973.1917612274119
 30
0.0
 40
75.0
  1
デザインウォ－ル
100
AcDbText
  0
TEXT
  5
15E6
330
17
100
AcDbEntity
  8
SUNPOU
100
AcDbText
 10
11157.10591327626
 20
977.6805127653824
 30
0.0
 40
60.0
  1
H=2500
100
AcDbText
  0
TEXT
  5
15E7
330
17
100
AcDbEntity
  8
SUNPOU
100
AcDbText
 10
11521.05656373165
 20
977.6805127653824
 30
0.0
 40
60.0
  1
L=2000
100
AcDbText
  0
DIMENSION
  5
15F6
330
17
100
AcDbEntity
  8
SUNPOU
100
AcDbDimension
  2
*D191
 10
4201.967234997937
 20
4893.351280186234
 30
0.0
 11
4251.967234997937
 21
4962.351280186234
 31
0.0
 70
    32
 71
     5
 42
100.0
  3
A3-30
100
AcDbAlignedDimension
 13
4301.967234997937
 23
4489.497170538612
 33
0.0
 14
4201.967234997937
 24
4489.497170538612
 34
0.0
100
AcDbRotatedDimension
  0
TEXT
  5
2233
330
17
100
AcDbEntity
  8
SUNPOU
100
AcDbText
 10
2110.113257166566
 20
5243.782606321984
 30
0.0
 40
90.0
  1
水抜孔
 41
0.8
100
AcDbText
  0
LINE
  5
2234
330
17
100
AcDbEntity
  8
SUNPOU
100
AcDbLine
 10
2079.154716719269
 20
5233.195074084404
 30
0.0
 11
2392.983957711709
 21
5233.195074084404
 31
0.0
  0
LEADER
  5
2236
330
17
100
AcDbEntity
  8
SUNPOU
100
AcDbLeader
  3
A3-30
 76
     2
 10
2501.967234997937
 20
5019.497170538612
 30
0.0
 10
2392.983957711709
 20
5233.195074084404
 30
0.0
1001
ACAD
1000
DSTYLE
1002
{
1070
   147
1040
0.8
1070
    77
1070
     0
1002
}
  0
DIMENSION
  5
2319
330
17
100
AcDbEntity
  8
SUNPOU
100
AcDbDimension
  2
*D196
 10
8251.23479258726
 20
562.2826460113683
 30
0.0
 11
8226.23479258726
 21
631.2826460113683
 31
0.0
 70
    32
 71
     5
 42
50.0
  3
A3-30
100
AcDbAlignedDimension
 13
8201.23479258726
 23
1004.195157089249
 33
0.0
 14
8251.23479258726
 24
1004.195157089249
 34
0.0
100
AcDbRotatedDimension
  0
DIMENSION
  5
2327
330
17
100
AcDbEntity
  8
SUNPOU
100
AcDbDimension
  2
*D197
 10
6251.23479258726
 20
562.2826460113683
 30
0.0
 11
6276.23479258726
 21
631.2826460113683
 31
0.0
 70
    32
 71
     5
 42
50.0
  3
A3-30
100
AcDbAlignedDimension
 13
6301.23479258726
 23
1004.195157089249
 33
0.0
 14
6251.23479258726
 24
1004.195157089249
 34
0.0
 50
180.0
100
AcDbRotatedDimension
  0
DIMENSION
  5
233F
330
17
100
AcDbEntity
  8
SUNPOU
100
AcDbDimension
  2
*D198
 10
5803.043444137242
 20
2434.895157089249
 30
0.0
 11
5734.043444137241
 21
2619.54515708925
 31
0.0
 70
    32
 71
     5
 42
369.3000000000002
  3
A3-30
100
AcDbAlignedDimension
 13
6251.23479258726
 23
2804.195157089249
 33
0.0
 14
6251.23479258726
 24
2434.895157089249
 34
0.0
 50
90.0
100
AcDbRotatedDimension
  0
DIMENSION
  5
234C
330
17
100
AcDbEntity
  8
SUNPOU
100
AcDbDimension
  2
*D199
 10
5803.043444137241
 20
1004.195157089249
 30
0.0
 11
5734.043444137241
 21
1719.54515708925
 31
0.0
 70
    32
 71
     5
 42
1430.7
  3
A3-30
100
AcDbAlignedDimension
 13
6251.23479258726
 23
2434.895157089249
 33
0.0
 14
6301.234792587259
 24
1004.195157089249
 34
0.0
 50
90.0
100
AcDbRotatedDimension
  0
LINE
  5
2651
330
17
100
AcDbEntity
  8
SEIHIN
100
AcDbLine
 10
6301.23479258726
 20
4489.497170538611
 30
0.0
 11
8201.23479258726
 21
4489.497170538613
 31
0.0
  0
LINE
  5
2653
330
17
100
AcDbEntity
  8
SEIHIN
100
AcDbLine
 10
6251.23479258726
 20
4785.797828433349
 30
0.0
 11
8251.23479258726
 21
4785.797828433349
 31
0.0
  0
LINE
  5
2654
330
17
100
AcDbEntity
  8
SEIHIN
100
AcDbLine
 10
6301.23479258726
 20
4419.497170538612
 30
0.0
 11
6301.23479258726
 21
4489.497170538612
 31
0.0
  0
LINE
  5
2655
330
17
100
AcDbEntity
  8
SEIHIN
100
AcDbLine
 10
6301.23479258726
 20
4489.497170538612
 30
0.0
 11
6251.23479258726
 21
4585.797828433349
 31
0.0
  0
LINE
  5
2658
330
17
100
AcDbEntity
  8
SEIHIN
100
AcDbLine
 10
6251.23479258726
 20
2734.195157089249
 30
0.0
 11
8251.23479258726
 21
2734.195157089249
 31
0.0
  0
LINE
  5
273D
330
17
100
AcDbEntity
  8
SEIHIN
100
AcDbLine
 10
6251.23479258726
 20
2434.895157089249
 30
0.0
 11
8251.23479258726
 21
2434.895157089249
 31
0.0
  0
LINE
  5
2757
330
17
100
AcDbEntity
  8
SEIHIN
100
AcDbLine
 10
6251.23479258726
 20
2634.895157089249
 30
0.0
 11
8251.23479258726
 21
2634.895157089249
 31
0.0
  0
LINE
  5
2758
330
17
100
AcDbEntity
  8
SEIHIN
100
AcDbLine
 10
8251.234792587258
 20
2804.195157089249
 30
0.0
 11
8251.234792587258
 21
2434.895157089249
 31
0.0
  0
LINE
  5
2759
330
17
100
AcDbEntity
  8
SEIHIN
100
AcDbLine
 10
8251.234792587258
 20
2434.895157089249
 30
0.0
 11
8201.23479258726
 21
1004.195157089249
 31
0.0
  0
LINE
  5
2760
330
17
100
AcDbEntity
  8
SEIHIN
100
AcDbLine
 10
2671.237877736984
 20
4785.79782843335
 30
0.0
 11
2871.267234997938
 21
4585.79782843335
 31
0.0
  0
LINE
  5
2762
330
17
100
AcDbEntity
  8
SEIHIN
100
AcDbLine
 10
6251.23479258726
 20
4585.797828433349
 30
0.0
 11
8251.23479258726
 21
4585.797828433349
 31
0.0
  0
LINE
  5
2763
330
17
100
AcDbEntity
  8
SEIHIN
100
AcDbLine
 10
8201.23479258726
 20
4419.497170538612
 30
0.0
 11
8201.23479258726
 21
4489.497170538612
 31
0.0
  0
LINE
  5
2764
330
17
100
AcDbEntity
  8
SEIHIN
100
AcDbLine
 10
8201.23479258726
 20
4489.497170538612
 30
0.0
 11
8251.23479258726
 21
4585.797828433349
 31
0.0
  0
ENDSEC
  0
SECTION
  2
OBJECTS
  0
DICTIONARY
  5
C
330
0
100
AcDbDictionary
281
     1
  3
ACAD_COLOR
350
9AA
  3
ACAD_GROUP
350
D
  3
ACAD_LAYOUT
350
7B
  3
ACAD_MATERIAL
350
9A9
  3
ACAD_MLEADERSTYLE
350
2792
  3
ACAD_MLINESTYLE
350
1A
  3
ACAD_PLOTSETTINGS
350
7C
  3
ACAD_PLOTSTYLENAME
350
79
  3
ACAD_SCALELIST
350
276B
  3
ACAD_TABLESTYLE
350
9AB
  3
ACDB_RECOMPOSE_DATA
350
2791
  3
AcDbVariableDictionary
350
946
  0
DICTIONARY
  5
9AA
102
{ACAD_REACTORS
330
C
102
}
330
C
100
AcDbDictionary
281
     1
  0
DICTIONARY
  5
D
102
{ACAD_REACTORS
330
C
102
}
330
C
100
AcDbDictionary
281
     1
  0
DICTIONARY
  5
7B
102
{ACAD_REACTORS
330
C
102
}
330
C
100
AcDbDictionary
281
     1
  3
Model
350
7D
  3
ﾚｲｱｳﾄ1
350
7E
  0
DICTIONARY
  5
9A9
102
{ACAD_REACTORS
330
C
102
}
330
C
100
AcDbDictionary
281
     1
  0
DICTIONARY
  5
2792
102
{ACAD_REACTORS
330
C
102
}
330
C
100
AcDbDictionary
281
     1
  0
DICTIONARY
  5
1A
102
{ACAD_REACTORS
330
C
102
}
330
C
100
AcDbDictionary
281
     1
  3
STANDARD
350
1B
  0
DICTIONARY
  5
7C
102
{ACAD_REACTORS
330
C
102
}
330
C
100
AcDbDictionary
281
     1
  0
ACDBDICTIONARYWDFLT
  5
79
102
{ACAD_REACTORS
330
C
102
}
330
C
100
AcDbDictionary
281
     1
  3
Normal
350
7A
100
AcDbDictionaryWithDefault
340
7A
  0
DICTIONARY
  5
276B
102
{ACAD_REACTORS
330
C
102
}
330
C
100
AcDbDictionary
281
     1
  3
A0
350
276C
  3
A1
350
276D
  3
A2
350
276E
  3
A3
350
276F
  3
A4
350
2770
  3
A5
350
2771
  3
A6
350
2772
  3
A7
350
2773
  3
A8
350
2774
  3
A9
350
2775
  3
B0
350
2776
  3
B1
350
2777
  3
B2
350
2778
  3
B3
350
2779
  3
B4
350
277A
  3
B5
350
277B
  3
B6
350
277C
  3
B7
350
277D
  3
B8
350
277E
  3
B9
350
277F
  3
C0
350
2780
  3
C1
350
2781
  3
C2
350
2782
  3
C3
350
2783
  3
C4
350
2784
  3
C5
350
2785
  3
C6
350
2786
  3
C7
350
2787
  3
C8
350
2788
  3
C9
350
2789
  3
D0
350
278A
  3
D1
350
278B
  3
D2
350
278C
  0
DICTIONARY
  5
9AB
102
{ACAD_REACTORS
330
C
102
}
330
C
100
AcDbDictionary
281
     1
  3
Standard
350
9AC
  0
XRECORD
  5
2791
102
{ACAD_REACTORS
330
C
102
}
330
C
100
AcDbXrecord
280
     1
 90
        1
330
9AC
  0
DICTIONARY
  5
946
102
{ACAD_REACTORS
330
C
102
}
330
C
100
AcDbDictionary
281
     1
  3
CANNOSCALE
350
278D
  3
CTABLESTYLE
350
CC1
  3
DIMASSOC
350
947
  3
PROJECTNAME
350
CC2
  0
LAYOUT
  5
7D
102
{ACAD_REACTORS
330
7B
102
}
330
7B
100
AcDbPlotSettings
  1

  2
C:\PROGRAM FILES\MDT6\plotters\RICOH SP9II RPDL.pc3
  4
A3
  6

 40
5.873749732971191
 41
5.873758316040039
 42
4.349761962890625
 43
8.159759521484375
 44
420.1159973144531
 45
296.9259948730469
 46
0.0
 47
0.0
 48
0.0
 49
0.0
140
0.0
141
0.0
142
1.0
143
1.0
 70
 11952
 72
     0
 73
     0
 74
     0
  7
acad.ctb
 75
     0
 76
     0
 77
     2
 78
   300
147
1.0
148
-52067.63847066872
149
1270.867660243985
100
AcDbLayout
  1
Model
 70
     1
 71
     0
 10
0.0
 20
0.0
 11
12.0
 21
9.0
 12
0.0
 22
0.0
 32
0.0
 14
0.0
 24
0.0
 34
0.0
 15
0.0
 25
0.0
 35
0.0
146
0.0
 13
0.0
 23
0.0
 33
0.0
 16
1.0
 26
0.0
 36
0.0
 17
0.0
 27
1.0
 37
0.0
 76
     0
330
17
331
2765
  0
LAYOUT
  5
7E
102
{ACAD_REACTORS
330
7B
102
}
330
7B
100
AcDbPlotSettings
  1

  2
C:\PROGRAM FILES\MDT6\plotters\RICOH SP9II RPDL.pc3
  4

  6

 40
0.0
 41
0.0
 42
0.0
 43
0.0
 44
0.0
 45
0.0
 46
0.0
 47
0.0
 48
0.0
 49
0.0
140
0.0
141
0.0
142
1.0
143
1.0
 70
   688
 72
     0
 73
     0
 74
     5
  7
acad.ctb
 75
    16
 76
     0
 77
     2
 78
   300
147
1.0
148
0.0
149
0.0
100
AcDbLayout
  1
ﾚｲｱｳﾄ1
 70
     0
 71
     1
 10
0.0
 20
0.0
 11
12.0
 21
9.0
 12
0.0
 22
0.0
 32
0.0
 14
1.000000000000000E+20
 24
1.000000000000000E+20
 34
1.000000000000000E+20
 15
-1.000000000000000E+20
 25
-1.000000000000000E+20
 35
-1.000000000000000E+20
146
0.0
 13
0.0
 23
0.0
 33
0.0
 16
1.0
 26
0.0
 36
0.0
 17
0.0
 27
1.0
 37
0.0
 76
     0
330
14
  0
MLINESTYLE
  5
1B
102
{ACAD_REACTORS
330
1A
102
}
330
1A
100
AcDbMlineStyle
  2
STANDARD
 70
     0
  3

 62
   256
 51
90.0
 52
90.0
 71
     2
 49
0.5
 62
   256
  6
BYLAYER
 49
-0.5
 62
   256
  6
BYLAYER
  0
ACDBPLACEHOLDER
  5
7A
102
{ACAD_REACTORS
330
79
102
}
330
79
  0
SCALE
  5
276C
102
{ACAD_REACTORS
330
276B
102
}
330
276B
100
AcDbScale
 70
     0
300
1:1
140
1.0
141
1.0
290
     1
  0
SCALE
  5
276D
102
{ACAD_REACTORS
330
276B
102
}
330
276B
100
AcDbScale
 70
     0
300
1:2
140
1.0
141
2.0
290
     0
  0
SCALE
  5
276E
102
{ACAD_REACTORS
330
276B
102
}
330
276B
100
AcDbScale
 70
     0
300
1:4
140
1.0
141
4.0
290
     0
  0
SCALE
  5
276F
102
{ACAD_REACTORS
330
276B
102
}
330
276B
100
AcDbScale
 70
     0
300
1:5
140
1.0
141
5.0
290
     0
  0
SCALE
  5
2770
102
{ACAD_REACTORS
330
276B
102
}
330
276B
100
AcDbScale
 70
     0
300
1:8
140
1.0
141
8.0
290
     0
  0
SCALE
  5
2771
102
{ACAD_REACTORS
330
276B
102
}
330
276B
100
AcDbScale
 70
     0
300
1:10
140
1.0
141
10.0
290
     0
  0
SCALE
  5
2772
102
{ACAD_REACTORS
330
276B
102
}
330
276B
100
AcDbScale
 70
     0
300
1:16
140
1.0
141
16.0
290
     0
  0
SCALE
  5
2773
102
{ACAD_REACTORS
330
276B
102
}
330
276B
100
AcDbScale
 70
     0
300
1:20
140
1.0
141
20.0
290
     0
  0
SCALE
  5
2774
102
{ACAD_REACTORS
330
276B
102
}
330
276B
100
AcDbScale
 70
     0
300
1:30
140
1.0
141
30.0
290
     0
  0
SCALE
  5
2775
102
{ACAD_REACTORS
330
276B
102
}
330
276B
100
AcDbScale
 70
     0
300
1:40
140
1.0
141
40.0
290
     0
  0
SCALE
  5
2776
102
{ACAD_REACTORS
330
276B
102
}
330
276B
100
AcDbScale
 70
     0
300
1:50
140
1.0
141
50.0
290
     0
  0
SCALE
  5
2777
102
{ACAD_REACTORS
330
276B
102
}
330
276B
100
AcDbScale
 70
     0
300
1:100
140
1.0
141
100.0
290
     0
  0
SCALE
  5
2778
102
{ACAD_REACTORS
330
276B
102
}
330
276B
100
AcDbScale
 70
     0
300
2:1
140
2.0
141
1.0
290
     0
  0
SCALE
  5
2779
102
{ACAD_REACTORS
330
276B
102
}
330
276B
100
AcDbScale
 70
     0
300
4:1
140
4.0
141
1.0
290
     0
  0
SCALE
  5
277A
102
{ACAD_REACTORS
330
276B
102
}
330
276B
100
AcDbScale
 70
     0
300
8:1
140
8.0
141
1.0
290
     0
  0
SCALE
  5
277B
102
{ACAD_REACTORS
330
276B
102
}
330
276B
100
AcDbScale
 70
     0
300
10:1
140
10.0
141
1.0
290
     0
  0
SCALE
  5
277C
102
{ACAD_REACTORS
330
276B
102
}
330
276B
100
AcDbScale
 70
     0
300
100:1
140
100.0
141
1.0
290
     0
  0
SCALE
  5
277D
102
{ACAD_REACTORS
330
276B
102
}
330
276B
100
AcDbScale
 70
     0
300
1/128" = 1'-0"
140
0.0078125
141
12.0
290
     0
  0
SCALE
  5
277E
102
{ACAD_REACTORS
330
276B
102
}
330
276B
100
AcDbScale
 70
     0
300
1/64" = 1'-0"
140
0.015625
141
12.0
290
     0
  0
SCALE
  5
277F
102
{ACAD_REACTORS
330
276B
102
}
330
276B
100
AcDbScale
 70
     0
300
1/32" = 1'-0"
140
0.03125
141
12.0
290
     0
  0
SCALE
  5
2780
102
{ACAD_REACTORS
330
276B
102
}
330
276B
100
AcDbScale
 70
     0
300
1/16" = 1'-0"
140
0.0625
141
12.0
290
     0
  0
SCALE
  5
2781
102
{ACAD_REACTORS
330
276B
102
}
330
276B
100
AcDbScale
 70
     0
300
3/32" = 1'-0"
140
0.09375
141
12.0
290
     0
  0
SCALE
  5
2782
102
{ACAD_REACTORS
330
276B
102
}
330
276B
100
AcDbScale
 70
     0
300
1/8" = 1'-0"
140
0.125
141
12.0
290
     0
  0
SCALE
  5
2783
102
{ACAD_REACTORS
330
276B
102
}
330
276B
100
AcDbScale
 70
     0
300
3/16" = 1'-0"
140
0.1875
141
12.0
290
     0
  0
SCALE
  5
2784
102
{ACAD_REACTORS
330
276B
102
}
330
276B
100
AcDbScale
 70
     0
300
1/4" = 1'-0"
140
0.25
141
12.0
290
     0
  0
SCALE
  5
2785
102
{ACAD_REACTORS
330
276B
102
}
330
276B
100
AcDbScale
 70
     0
300
3/8" = 1'-0"
140
0.375
141
12.0
290
     0
  0
SCALE
  5
2786
102
{ACAD_REACTORS
330
276B
102
}
330
276B
100
AcDbScale
 70
     0
300
1/2" = 1'-0"
140
0.5
141
12.0
290
     0
  0
SCALE
  5
2787
102
{ACAD_REACTORS
330
276B
102
}
330
276B
100
AcDbScale
 70
     0
300
3/4" = 1'-0"
140
0.75
141
12.0
290
     0
  0
SCALE
  5
2788
102
{ACAD_REACTORS
330
276B
102
}
330
276B
100
AcDbScale
 70
     0
300
1" = 1'-0"
140
1.0
141
12.0
290
     0
  0
SCALE
  5
2789
102
{ACAD_REACTORS
330
276B
102
}
330
276B
100
AcDbScale
 70
     0
300
1-1/2" = 1'-0"
140
1.5
141
12.0
290
     0
  0
SCALE
  5
278A
102
{ACAD_REACTORS
330
276B
102
}
330
276B
100
AcDbScale
 70
     0
300
3" = 1'-0"
140
3.0
141
12.0
290
     0
  0
SCALE
  5
278B
102
{ACAD_REACTORS
330
276B
102
}
330
276B
100
AcDbScale
 70
     0
300
6" = 1'-0"
140
6.0
141
12.0
290
     0
  0
SCALE
  5
278C
102
{ACAD_REACTORS
330
276B
102
}
330
276B
100
AcDbScale
 70
     0
300
1'-0" = 1'-0"
140
12.0
141
12.0
290
     0
  0
TABLESTYLE
  5
9AC
102
{ACAD_REACTORS
330
9AB
102
}
102
{ACAD_XDICTIONARY
360
278E
102
}
330
9AB
100
AcDbTableStyle
  3
Standard
 70
     0
 71
     0
 40
0.06
 41
0.06
280
     0
281
     0
  7
STANDARD
140
0.18
170
     2
 62
     0
 63
   257
283
     0
274
    -2
284
     1
 64
     0
275
    -2
285
     1
 65
     0
276
    -2
286
     1
 66
     0
277
    -2
287
     1
 67
     0
278
    -2
288
     1
 68
     0
279
    -2
289
     1
 69
     0
  7
STANDARD
140
0.25
170
     5
 62
     0
 63
   257
283
     0
274
    -2
284
     1
 64
     0
275
    -2
285
     1
 65
     0
276
    -2
286
     1
 66
     0
277
    -2
287
     1
 67
     0
278
    -2
288
     1
 68
     0
279
    -2
289
     1
 69
     0
  7
STANDARD
140
0.18
170
     5
 62
     0
 63
   257
283
     0
274
    -2
284
     1
 64
     0
275
    -2
285
     1
 65
     0
276
    -2
286
     1
 66
     0
277
    -2
287
     1
 67
     0
278
    -2
288
     1
 68
     0
279
    -2
289
     1
 69
     0
  0
DICTIONARYVAR
  5
278D
102
{ACAD_REACTORS
330
946
102
}
330
946
100
DictionaryVariables
280
     0
  1
1:1
  0
DICTIONARYVAR
  5
CC1
102
{ACAD_REACTORS
330
946
102
}
330
946
100
DictionaryVariables
280
     0
  1
Standard
  0
DICTIONARYVAR
  5
947
102
{ACAD_REACTORS
330
946
102
}
330
946
100
DictionaryVariables
280
     0
  1
1
  0
DICTIONARYVAR
  5
CC2
102
{ACAD_REACTORS
330
946
102
}
330
946
100
DictionaryVariables
280
     0
  1

  0
DICTIONARY
  5
278E
330
9AC
100
AcDbDictionary
280
     1
281
     1
  3
ACAD_ROUNDTRIP_2008_TABLESTYLE_CELLSTYLEMAP
360
2790
  3
ACAD_XREC_ROUNDTRIP
360
278F
  0
CELLSTYLEMAP
  5
2790
102
{ACAD_REACTORS
330
278E
102
}
330
278E
100
AcDbCellStyleMap
 90
        3
300
CELLSTYLE
  1
TABLEFORMAT_BEGIN
 90
        5
170
     1
 91
        0
 92
    32768
 62
   257
 93
        1
300
CONTENTFORMAT
  1
CONTENTFORMAT_BEGIN
 90
        0
 91
        0
 92
        4
 93
        0
300

 40
0.0
140
1.0
 94
        5
 62
     0
340
F
144
0.25
309
CONTENTFORMAT_END
171
     1
301
MARGIN
  1
CELLMARGIN_BEGIN
 40
0.06
 40
0.06
 40
0.06
 40
0.06
 40
0.06
 40
0.06
309
CELLMARGIN_END
 94
        6
 95
        1
302
GRIDFORMAT
  1
GRIDFORMAT_BEGIN
 90
        0
 91
        1
 62
     0
 92
       -2
340
0
 93
        0
 40
0.045
309
GRIDFORMAT_END
 95
        2
302
GRIDFORMAT
  1
GRIDFORMAT_BEGIN
 90
        0
 91
        1
 62
     0
 92
       -2
340
0
 93
        0
 40
0.045
309
GRIDFORMAT_END
 95
        4
302
GRIDFORMAT
  1
GRIDFORMAT_BEGIN
 90
        0
 91
        1
 62
     0
 92
       -2
340
0
 93
        0
 40
0.045
309
GRIDFORMAT_END
 95
        8
302
GRIDFORMAT
  1
GRIDFORMAT_BEGIN
 90
        0
 91
        1
 62
     0
 92
       -2
340
0
 93
        0
 40
0.045
309
GRIDFORMAT_END
 95
       16
302
GRIDFORMAT
  1
GRIDFORMAT_BEGIN
 90
        0
 91
        1
 62
     0
 92
       -2
340
0
 93
        0
 40
0.045
309
GRIDFORMAT_END
 95
       32
302
GRIDFORMAT
  1
GRIDFORMAT_BEGIN
 90
        0
 91
        1
 62
     0
 92
       -2
340
0
 93
        0
 40
0.045
309
GRIDFORMAT_END
309
TABLEFORMAT_END
  1
CELLSTYLE_BEGIN
 90
        1
 91
        1
300
_TITLE
309
CELLSTYLE_END
300
CELLSTYLE
  1
TABLEFORMAT_BEGIN
 90
        5
170
     1
 91
        0
 92
        0
 62
   257
 93
        1
300
CONTENTFORMAT
  1
CONTENTFORMAT_BEGIN
 90
        0
 91
        0
 92
        4
 93
        0
300

 40
0.0
140
1.0
 94
        5
 62
     0
340
F
144
0.18
309
CONTENTFORMAT_END
171
     1
301
MARGIN
  1
CELLMARGIN_BEGIN
 40
0.06
 40
0.06
 40
0.06
 40
0.06
 40
0.06
 40
0.06
309
CELLMARGIN_END
 94
        6
 95
        1
302
GRIDFORMAT
  1
GRIDFORMAT_BEGIN
 90
        0
 91
        1
 62
     0
 92
       -2
340
0
 93
        0
 40
0.045
309
GRIDFORMAT_END
 95
        2
302
GRIDFORMAT
  1
GRIDFORMAT_BEGIN
 90
        0
 91
        1
 62
     0
 92
       -2
340
0
 93
        0
 40
0.045
309
GRIDFORMAT_END
 95
        4
302
GRIDFORMAT
  1
GRIDFORMAT_BEGIN
 90
        0
 91
        1
 62
     0
 92
       -2
340
0
 93
        0
 40
0.045
309
GRIDFORMAT_END
 95
        8
302
GRIDFORMAT
  1
GRIDFORMAT_BEGIN
 90
        0
 91
        1
 62
     0
 92
       -2
340
0
 93
        0
 40
0.045
309
GRIDFORMAT_END
 95
       16
302
GRIDFORMAT
  1
GRIDFORMAT_BEGIN
 90
        0
 91
        1
 62
     0
 92
       -2
340
0
 93
        0
 40
0.045
309
GRIDFORMAT_END
 95
       32
302
GRIDFORMAT
  1
GRIDFORMAT_BEGIN
 90
        0
 91
        1
 62
     0
 92
       -2
340
0
 93
        0
 40
0.045
309
GRIDFORMAT_END
309
TABLEFORMAT_END
  1
CELLSTYLE_BEGIN
 90
        2
 91
        1
300
_HEADER
309
CELLSTYLE_END
300
CELLSTYLE
  1
TABLEFORMAT_BEGIN
 90
        5
170
     1
 91
        0
 92
        0
 62
   257
 93
        1
300
CONTENTFORMAT
  1
CONTENTFORMAT_BEGIN
 90
        0
 91
        0
 92
        4
 93
        0
300

 40
0.0
140
1.0
 94
        2
 62
     0
340
F
144
0.18
309
CONTENTFORMAT_END
171
     1
301
MARGIN
  1
CELLMARGIN_BEGIN
 40
0.06
 40
0.06
 40
0.06
 40
0.06
 40
0.06
 40
0.06
309
CELLMARGIN_END
 94
        6
 95
        1
302
GRIDFORMAT
  1
GRIDFORMAT_BEGIN
 90
        0
 91
        1
 62
     0
 92
       -2
340
0
 93
        0
 40
0.045
309
GRIDFORMAT_END
 95
        2
302
GRIDFORMAT
  1
GRIDFORMAT_BEGIN
 90
        0
 91
        1
 62
     0
 92
       -2
340
0
 93
        0
 40
0.045
309
GRIDFORMAT_END
 95
        4
302
GRIDFORMAT
  1
GRIDFORMAT_BEGIN
 90
        0
 91
        1
 62
     0
 92
       -2
340
0
 93
        0
 40
0.045
309
GRIDFORMAT_END
 95
        8
302
GRIDFORMAT
  1
GRIDFORMAT_BEGIN
 90
        0
 91
        1
 62
     0
 92
       -2
340
0
 93
        0
 40
0.045
309
GRIDFORMAT_END
 95
       16
302
GRIDFORMAT
  1
GRIDFORMAT_BEGIN
 90
        0
 91
        1
 62
     0
 92
       -2
340
0
 93
        0
 40
0.045
309
GRIDFORMAT_END
 95
       32
302
GRIDFORMAT
  1
GRIDFORMAT_BEGIN
 90
        0
 91
        1
 62
     0
 92
       -2
340
0
 93
        0
 40
0.045
309
GRIDFORMAT_END
309
TABLEFORMAT_END
  1
CELLSTYLE_BEGIN
 90
        3
 91
        2
300
_DATA
309
CELLSTYLE_END
  0
XRECORD
  5
278F
102
{ACAD_REACTORS
330
278E
102
}
330
278E
100
AcDbXrecord
280
     1
102
ACAD_ROUNDTRIP_PRE2007_TABLESTYLE
 90
        4
 91
        0
  1

 92
        4
 93
        0
  2

 94
        4
 95
        0
  3

  0
ENDSEC
  0
EOF
