  0
SECTION
  2
HEADER
  9
$ACADVER
  1
AC1018
  9
$ACADMAINTVER
 70
     0
  9
$DWGCODEPAGE
  3
ANSI_932
  9
$INSBASE
 10
0.0
 20
0.0
 30
0.0
  9
$EXTMIN
 10
510.0
 20
0.0
 30
0.0
  9
$EXTMAX
 10
12000.0
 20
8310.0
 30
0.0
  9
$LIMMIN
 10
0.0
 20
0.0
  9
$LIMMAX
 10
12600.0
 20
8910.0
  9
$ORTHOMODE
 70
     1
  9
$REGENMODE
 70
     1
  9
$FILLMODE
 70
     1
  9
$QTEXTMODE
 70
     0
  9
$MIRRTEXT
 70
     1
  9
$LTSCALE
 40
300.0
  9
$ATTMODE
 70
     1
  9
$TEXTSIZE
 40
90.0
  9
$TRACEWID
 40
0.05
  9
$TEXTSTYLE
  7
STANDARD
  9
$CLAYER
  8
SUNPOU
  9
$CELTYPE
  6
BYLAYER
  9
$CECOLOR
 62
   256
  9
$CELTSCALE
 40
1.0
  9
$DISPSILH
 70
     0
  9
$DIMSCALE
 40
30.0
  9
$DIMASZ
 40
2.0
  9
$DIMEXO
 40
2.0
  9
$DIMDLI
 40
7.0
  9
$DIMRND
 40
0.0
  9
$DIMDLE
 40
0.0
  9
$DIMEXE
 40
0.5
  9
$DIMTP
 40
0.0
  9
$DIMTM
 40
0.0
  9
$DIMTXT
 40
3.0
  9
$DIMCEN
 40
0.0
  9
$DIMTSZ
 40
0.0
  9
$DIMTOL
 70
     0
  9
$DIMLIM
 70
     0
  9
$DIMTIH
 70
     0
  9
$DIMTOH
 70
     0
  9
$DIMSE1
 70
     0
  9
$DIMSE2
 70
     0
  9
$DIMTAD
 70
     1
  9
$DIMZIN
 70
     8
  9
$DIMBLK
  1

  9
$DIMASO
 70
     1
  9
$DIMSHO
 70
     1
  9
$DIMPOST
  1

  9
$DIMAPOST
  1

  9
$DIMALT
 70
     0
  9
$DIMALTD
 70
     2
  9
$DIMALTF
 40
25.4
  9
$DIMLFAC
 40
1.0
  9
$DIMTOFL
 70
     0
  9
$DIMTVP
 40
1.0
  9
$DIMTIX
 70
     1
  9
$DIMSOXD
 70
     0
  9
$DIMSAH
 70
     0
  9
$DIMBLK1
  1

  9
$DIMBLK2
  1

  9
$DIMSTYLE
  2
A3-30
  9
$DIMCLRD
 70
     0
  9
$DIMCLRE
 70
     0
  9
$DIMCLRT
 70
     0
  9
$DIMTFAC
 40
1.0
  9
$DIMGAP
 40
0.8
  9
$DIMJUST
 70
     0
  9
$DIMSD1
 70
     0
  9
$DIMSD2
 70
     0
  9
$DIMTOLJ
 70
     1
  9
$DIMTZIN
 70
     8
  9
$DIMALTZ
 70
     8
  9
$DIMALTTZ
 70
     8
  9
$DIMUPT
 70
     0
  9
$DIMDEC
 70
     0
  9
$DIMTDEC
 70
     0
  9
$DIMALTU
 70
     2
  9
$DIMALTTD
 70
     2
  9
$DIMTXSTY
  7
STANDARD
  9
$DIMAUNIT
 70
     0
  9
$DIMADEC
 70
     4
  9
$DIMALTRND
 40
0.0
  9
$DIMAZIN
 70
     0
  9
$DIMDSEP
 70
    46
  9
$DIMATFIT
 70
     3
  9
$DIMFRAC
 70
     0
  9
$DIMLDRBLK
  1

  9
$DIMLUNIT
 70
     2
  9
$DIMLWD
 70
    -2
  9
$DIMLWE
 70
    -2
  9
$DIMTMOVE
 70
     2
  9
$LUNITS
 70
     2
  9
$LUPREC
 70
     4
  9
$SKETCHINC
 40
0.1
  9
$FILLETRAD
 40
0.0
  9
$AUNITS
 70
     0
  9
$AUPREC
 70
     6
  9
$MENU
  1
acad
  9
$ELEVATION
 40
0.0
  9
$PELEVATION
 40
0.0
  9
$THICKNESS
 40
0.0
  9
$LIMCHECK
 70
     0
  9
$CHAMFERA
 40
0.0
  9
$CHAMFERB
 40
0.0
  9
$CHAMFERC
 40
0.0
  9
$CHAMFERD
 40
0.0
  9
$SKPOLY
 70
     0
  9
$TDCREATE
 40
2450014.659421296
  9
$TDUCREATE
 40
2450014.284421296
  9
$TDUPDATE
 40
2455355.379471204
  9
$TDUUPDATE
 40
2455355.004471204
  9
$TDINDWG
 40
0.067004838
  9
$TDUSRTIMER
 40
0.067004838
  9
$USRTIMER
 70
     1
  9
$ANGBASE
 50
0.0
  9
$ANGDIR
 70
     0
  9
$PDMODE
 70
     0
  9
$PDSIZE
 40
0.0
  9
$PLINEWID
 40
0.0
  9
$SPLFRAME
 70
     0
  9
$SPLINETYPE
 70
     6
  9
$SPLINESEGS
 70
     8
  9
$HANDSEED
  5
1698
  9
$SURFTAB1
 70
     6
  9
$SURFTAB2
 70
     6
  9
$SURFTYPE
 70
     6
  9
$SURFU
 70
     6
  9
$SURFV
 70
     6
  9
$UCSBASE
  2

  9
$UCSNAME
  2

  9
$UCSORG
 10
0.0
 20
0.0
 30
0.0
  9
$UCSXDIR
 10
1.0
 20
0.0
 30
0.0
  9
$UCSYDIR
 10
0.0
 20
1.0
 30
0.0
  9
$UCSORTHOREF
  2

  9
$UCSORTHOVIEW
 70
     0
  9
$UCSORGTOP
 10
0.0
 20
0.0
 30
0.0
  9
$UCSORGBOTTOM
 10
0.0
 20
0.0
 30
0.0
  9
$UCSORGLEFT
 10
0.0
 20
0.0
 30
0.0
  9
$UCSORGRIGHT
 10
0.0
 20
0.0
 30
0.0
  9
$UCSORGFRONT
 10
0.0
 20
0.0
 30
0.0
  9
$UCSORGBACK
 10
0.0
 20
0.0
 30
0.0
  9
$PUCSBASE
  2

  9
$PUCSNAME
  2

  9
$PUCSORG
 10
0.0
 20
0.0
 30
0.0
  9
$PUCSXDIR
 10
1.0
 20
0.0
 30
0.0
  9
$PUCSYDIR
 10
0.0
 20
1.0
 30
0.0
  9
$PUCSORTHOREF
  2

  9
$PUCSORTHOVIEW
 70
     0
  9
$PUCSORGTOP
 10
0.0
 20
0.0
 30
0.0
  9
$PUCSORGBOTTOM
 10
0.0
 20
0.0
 30
0.0
  9
$PUCSORGLEFT
 10
0.0
 20
0.0
 30
0.0
  9
$PUCSORGRIGHT
 10
0.0
 20
0.0
 30
0.0
  9
$PUCSORGFRONT
 10
0.0
 20
0.0
 30
0.0
  9
$PUCSORGBACK
 10
0.0
 20
0.0
 30
0.0
  9
$USERI1
 70
     0
  9
$USERI2
 70
     0
  9
$USERI3
 70
     0
  9
$USERI4
 70
     0
  9
$USERI5
 70
     0
  9
$USERR1
 40
0.0
  9
$USERR2
 40
0.0
  9
$USERR3
 40
0.0
  9
$USERR4
 40
0.0
  9
$USERR5
 40
0.0
  9
$WORLDVIEW
 70
     1
  9
$SHADEDGE
 70
     3
  9
$SHADEDIF
 70
    70
  9
$TILEMODE
 70
     1
  9
$MAXACTVP
 70
    48
  9
$PINSBASE
 10
0.0
 20
0.0
 30
0.0
  9
$PLIMCHECK
 70
     0
  9
$PEXTMIN
 10
1.000000000000000E+20
 20
1.000000000000000E+20
 30
1.000000000000000E+20
  9
$PEXTMAX
 10
-1.000000000000000E+20
 20
-1.000000000000000E+20
 30
-1.000000000000000E+20
  9
$PLIMMIN
 10
0.0
 20
0.0
  9
$PLIMMAX
 10
12.0
 20
9.0
  9
$UNITMODE
 70
     0
  9
$VISRETAIN
 70
     0
  9
$PLINEGEN
 70
     0
  9
$PSLTSCALE
 70
     0
  9
$TREEDEPTH
 70
  3020
  9
$CMLSTYLE
  2
STANDARD
  9
$CMLJUST
 70
     0
  9
$CMLSCALE
 40
1.0
  9
$PROXYGRAPHICS
 70
     1
  9
$MEASUREMENT
 70
     0
  9
$CELWEIGHT
370
    -1
  9
$ENDCAPS
280
     0
  9
$JOINSTYLE
280
     0
  9
$LWDISPLAY
290
     0
  9
$INSUNITS
 70
     0
  9
$HYPERLINKBASE
  1

  9
$STYLESHEET
  1
acad.ctb
  9
$XEDIT
290
     1
  9
$CEPSNTYPE
380
     0
  9
$PSTYLEMODE
290
     1
  9
$FINGERPRINTGUID
  2
{9E4B692F-34DC-11D6-9351-0080AD72C8A3}
  9
$VERSIONGUID
  2
{CA5FF948-6470-42DF-9707-D223AE42581F}
  9
$EXTNAMES
290
     1
  9
$PSVPSCALE
 40
0.0
  9
$OLESTARTUP
290
     0
  9
$SORTENTS
280
   127
  9
$INDEXCTL
280
     0
  9
$HIDETEXT
280
     1
  9
$XCLIPFRAME
290
     0
  9
$HALOGAP
280
     0
  9
$OBSCOLOR
 70
   257
  9
$OBSLTYPE
280
     0
  9
$INTERSECTIONDISPLAY
280
     0
  9
$INTERSECTIONCOLOR
 70
   257
  9
$DIMASSOC
280
     1
  9
$PROJECTNAME
  1

  0
ENDSEC
  0
SECTION
  2
CLASSES
  0
CLASS
  1
ACDBDICTIONARYWDFLT
  2
AcDbDictionaryWithDefault
  3
ObjectDBX Classes
 90
        0
 91
        4
280
     0
281
     0
  0
CLASS
  1
ACDBPLACEHOLDER
  2
AcDbPlaceHolder
  3
ObjectDBX Classes
 90
        0
 91
        1
280
     0
281
     0
  0
CLASS
  1
LAYOUT
  2
AcDbLayout
  3
ObjectDBX Classes
 90
        0
 91
        1
280
     0
281
     0
  0
CLASS
  1
DICTIONARYVAR
  2
AcDbDictionaryVar
  3
ObjectDBX Classes
 90
        0
 91
        4
280
     0
281
     0
  0
CLASS
  1
DUMMY
  2
AcDbLongTransaction
  3
DUMMY
 90
        0
 91
        1
280
     0
281
     0
  0
CLASS
  1
LWPOLYLINE
  2
AcDbPolyline
  3
AutoCAD 2000
 90
        0
 91
        1
280
     0
281
     1
  0
CLASS
  1
HATCH
  2
AcDbHatch
  3
AutoCAD 2000
 90
        0
 91
        1
280
     0
281
     1
  0
CLASS
  1
XRECORD
  2
AcDbXrecord
  3
AutoCAD 2000
 90
        0
 91
        1
280
     0
281
     0
  0
CLASS
  1
DUMMY
  2
AcDbLongTransaction
  3
DUMMY
 90
        0
 91
        1
280
     0
281
     0
  0
CLASS
  1
LWPOLYLINE
  2
AcDbPolyline
  3
AutoCAD 2000
 90
        0
 91
        1
280
     0
281
     1
  0
CLASS
  1
HATCH
  2
AcDbHatch
  3
AutoCAD 2000
 90
        0
 91
        1
280
     0
281
     1
  0
CLASS
  1
XRECORD
  2
AcDbXrecord
  3
AutoCAD 2000
 90
        0
 91
        1
280
     0
281
     0
  0
CLASS
  1
DUMMY
  2
AcDbLongTransaction
  3
DUMMY
 90
        0
 91
        1
280
     0
281
     0
  0
CLASS
  1
LWPOLYLINE
  2
AcDbPolyline
  3
AutoCAD 2000
 90
        0
 91
        1
280
     0
281
     1
  0
CLASS
  1
HATCH
  2
AcDbHatch
  3
AutoCAD 2000
 90
        0
 91
        1
280
     0
281
     1
  0
CLASS
  1
XRECORD
  2
AcDbXrecord
  3
AutoCAD 2000
 90
        0
 91
        1
280
     0
281
     0
  0
CLASS
  1
TABLESTYLE
  2
AcDbTableStyle
  3
ObjectDBX Classes
 90
     4095
 91
        4
280
     0
281
     0
  0
CLASS
  1
SCALE
  2
AcDbScale
  3
ObjectDBX Classes
 90
     1153
 91
        4
280
     0
281
     0
  0
CLASS
  1
CELLSTYLEMAP
  2
AcDbCellStyleMap
  3
ObjectDBX Classes
 90
     1152
 91
        4
280
     0
281
     0
  0
ENDSEC
  0
SECTION
  2
TABLES
  0
TABLE
  2
VPORT
  5
8
330
0
100
AcDbSymbolTable
 70
     2
  0
VPORT
  5
166A
330
8
100
AcDbSymbolTableRecord
100
AcDbViewportTableRecord
  2
*Active
 70
     0
 10
0.0
 20
0.0
 11
1.0
 21
1.0
 12
6221.223246641046
 22
3904.075929013128
 13
0.0
 23
0.0
 14
30.0
 24
30.0
 15
300.0
 25
300.0
 16
0.0
 26
0.0
 36
1.0
 17
0.0
 27
0.0
 37
0.0
 40
10575.60470128142
 41
1.507024265644955
 42
50.0
 43
0.0
 44
0.0
 50
0.0
 51
0.0
 71
     0
 72
   100
 73
     1
 74
     1
 75
     0
 76
     0
 77
     0
 78
     0
281
     0
 65
     1
110
0.0
120
0.0
130
0.0
111
1.0
121
0.0
131
0.0
112
0.0
122
1.0
132
0.0
 79
     0
146
0.0
  0
ENDTAB
  0
TABLE
  2
LTYPE
  5
5
330
0
100
AcDbSymbolTable
 70
     4
  0
LTYPE
  5
11
330
5
100
AcDbSymbolTableRecord
100
AcDbLinetypeTableRecord
  2
BYBLOCK
 70
     0
  3

 72
    65
 73
     0
 40
0.0
  0
LTYPE
  5
12
330
5
100
AcDbSymbolTableRecord
100
AcDbLinetypeTableRecord
  2
BYLAYER
 70
     0
  3

 72
    65
 73
     0
 40
0.0
  0
LTYPE
  5
13
330
5
100
AcDbSymbolTableRecord
100
AcDbLinetypeTableRecord
  2
CONTINUOUS
 70
     0
  3
Solid line
 72
    65
 73
     0
 40
0.0
  0
LTYPE
  5
1E
330
5
100
AcDbSymbolTableRecord
100
AcDbLinetypeTableRecord
  2
HIDDEN
 70
     0
  3
_ _ _ _ _ _ _ _ _ _ _ _ _ _ _ _ _ _ _ _ _ _ _
 72
    65
 73
     2
 40
0.375
 49
0.25
 74
     0
 49
-0.125
 74
     0
  0
LTYPE
  5
1F
330
5
100
AcDbSymbolTableRecord
100
AcDbLinetypeTableRecord
  2
CENTER
 70
     0
  3
____ _ ____ _ ____ _ ____ _ ____ _ ____ _ ____
 72
    65
 73
     4
 40
2.0
 49
1.25
 74
     0
 49
-0.25
 74
     0
 49
0.25
 74
     0
 49
-0.25
 74
     0
  0
LTYPE
  5
20
330
5
100
AcDbSymbolTableRecord
100
AcDbLinetypeTableRecord
  2
PHANTOM
 70
     0
  3
_____ _ _ _____ _ _ _____ _ _ _____ _ _ ____
 72
    65
 73
     6
 40
2.5
 49
1.25
 74
     0
 49
-0.25
 74
     0
 49
0.25
 74
     0
 49
-0.25
 74
     0
 49
0.25
 74
     0
 49
-0.25
 74
     0
  0
ENDTAB
  0
TABLE
  2
LAYER
  5
2
330
0
100
AcDbSymbolTable
 70
    10
  0
LAYER
  5
E
330
2
100
AcDbSymbolTableRecord
100
AcDbLayerTableRecord
  2
0
 70
     0
 62
     7
  6
CONTINUOUS
370
    -3
390
7A
  0
LAYER
  5
23
330
2
100
AcDbSymbolTableRecord
100
AcDbLayerTableRecord
  2
SUNPOU
 70
     0
 62
     1
  6
CONTINUOUS
370
    -3
390
7A
  0
LAYER
  5
24
330
2
100
AcDbSymbolTableRecord
100
AcDbLayerTableRecord
  2
HAIKIN
 70
     0
 62
     2
  6
CONTINUOUS
370
    -3
390
7A
  0
LAYER
  5
25
330
2
100
AcDbSymbolTableRecord
100
AcDbLayerTableRecord
  2
SEIHIN
 70
     0
 62
     3
  6
CONTINUOUS
370
    -3
390
7A
  0
LAYER
  5
26
330
2
100
AcDbSymbolTableRecord
100
AcDbLayerTableRecord
  2
HASEN
 70
     0
 62
     4
  6
HIDDEN
370
    -3
390
7A
  0
LAYER
  5
27
330
2
100
AcDbSymbolTableRecord
100
AcDbLayerTableRecord
  2
1HASEN
 70
     0
 62
     5
  6
CENTER
370
    -3
390
7A
  0
LAYER
  5
28
330
2
100
AcDbSymbolTableRecord
100
AcDbLayerTableRecord
  2
2HASEN
 70
     0
 62
     6
  6
PHANTOM
370
    -3
390
7A
  0
LAYER
  5
29
330
2
100
AcDbSymbolTableRecord
100
AcDbLayerTableRecord
  2
HOJO
 70
     0
 62
     7
  6
CONTINUOUS
370
    -3
390
7A
  0
LAYER
  5
2A
330
2
100
AcDbSymbolTableRecord
100
AcDbLayerTableRecord
  2
TEN
 70
     0
 62
     7
  6
CONTINUOUS
370
    -3
390
7A
  0
LAYER
  5
70
330
2
100
AcDbSymbolTableRecord
100
AcDbLayerTableRecord
  2
DEFPOINTS
 70
     0
 62
     7
  6
CONTINUOUS
290
     0
370
    -3
390
7A
  0
ENDTAB
  0
TABLE
  2
STYLE
  5
3
330
0
100
AcDbSymbolTable
 70
     1
  0
STYLE
  5
F
330
3
100
AcDbSymbolTableRecord
100
AcDbTextStyleTableRecord
  2
STANDARD
 70
     0
 40
0.0
 41
0.8
 50
0.0
 71
     0
 42
90.0
  3
TXT.shx
  4
BIGFONT.shx
  0
ENDTAB
  0
TABLE
  2
VIEW
  5
6
330
0
100
AcDbSymbolTable
 70
     0
  0
ENDTAB
  0
TABLE
  2
UCS
  5
7
330
0
100
AcDbSymbolTable
 70
     0
  0
ENDTAB
  0
TABLE
  2
APPID
  5
9
330
0
100
AcDbSymbolTable
 70
    10
  0
APPID
  5
10
330
9
100
AcDbSymbolTableRecord
100
AcDbRegAppTableRecord
  2
ACAD
 70
     0
  0
APPID
  5
9B0
330
9
100
AcDbSymbolTableRecord
100
AcDbRegAppTableRecord
  2
ACAD_DSTYLE_DIMTEXT_FILL
 70
     0
  0
APPID
  5
9B1
330
9
100
AcDbSymbolTableRecord
100
AcDbRegAppTableRecord
  2
ACAD_DSTYLE_DIMEXT_LENGTH
 70
     0
  0
APPID
  5
9B2
330
9
100
AcDbSymbolTableRecord
100
AcDbRegAppTableRecord
  2
ACAD_DSTYLE_DIMEXT_ENABLED
 70
     0
  0
APPID
  5
9B3
330
9
100
AcDbSymbolTableRecord
100
AcDbRegAppTableRecord
  2
ACAD_DSTYLE_DIM_LINETYPE
 70
     0
  0
APPID
  5
9B4
330
9
100
AcDbSymbolTableRecord
100
AcDbRegAppTableRecord
  2
ACAD_DSTYLE_DIM_EXT1_LINETYPE
 70
     0
  0
APPID
  5
9B5
330
9
100
AcDbSymbolTableRecord
100
AcDbRegAppTableRecord
  2
ACAD_DSTYLE_DIM_EXT2_LINETYPE
 70
     0
  0
APPID
  5
A71
330
9
100
AcDbSymbolTableRecord
100
AcDbRegAppTableRecord
  2
ACAD_DSTYLE_DIMJOGGED_JOGANGLE_SYMBOL
 70
     0
  0
APPID
  5
C55
330
9
100
AcDbSymbolTableRecord
100
AcDbRegAppTableRecord
  2
ACAD_DSTYLE_DIMARC_LENGTH_SYMBOL
 70
     0
  0
APPID
  5
145D
330
9
100
AcDbSymbolTableRecord
100
AcDbRegAppTableRecord
  2
ACAD_EXEMPT_FROM_CAD_STANDARDS
 70
     0
  0
ENDTAB
  0
TABLE
  2
DIMSTYLE
  5
A
330
0
100
AcDbSymbolTable
 70
     2
100
AcDbDimStyleTable
  0
DIMSTYLE
105
61
330
A
100
AcDbSymbolTableRecord
100
AcDbDimStyleTableRecord
  2
STANDARD
 70
     0
178
     0
340
F
  0
DIMSTYLE
105
C5A
102
{ACAD_REACTORS
330
FC8
330
FC7
330
FC6
330
F6C
330
F6B
330
F6A
330
F48
330
F3E
330
F23
330
F20
330
1360
330
139B
330
141B
330
1428
330
1435
330
1442
330
144F
330
146E
330
147B
330
1488
330
1496
330
14AE
330
14C4
330
14D1
102
}
330
A
100
AcDbSymbolTableRecord
100
AcDbDimStyleTableRecord
  2
A3-30
 70
     0
 40
30.0
 41
2.0
 42
2.0
 43
7.0
 44
0.5
 73
     0
 74
     0
 77
     1
 78
     8
140
3.0
141
0.0
145
1.0
147
0.8
174
     1
178
     0
179
     4
271
     0
272
     0
279
     2
284
     8
285
     8
286
     8
340
F
  0
ENDTAB
  0
TABLE
  2
BLOCK_RECORD
  5
1
330
0
100
AcDbSymbolTable
 70
    62
  0
BLOCK_RECORD
  5
17
330
1
100
AcDbSymbolTableRecord
100
AcDbBlockTableRecord
  2
*MODEL_SPACE
340
7D
  0
BLOCK_RECORD
  5
14
330
1
100
AcDbSymbolTableRecord
100
AcDbBlockTableRecord
  2
*PAPER_SPACE
340
7E
  0
BLOCK_RECORD
  5
1C
330
1
100
AcDbSymbolTableRecord
100
AcDbBlockTableRecord
  2
BORDER
340
0
  0
BLOCK_RECORD
  5
1D
330
1
100
AcDbSymbolTableRecord
100
AcDbBlockTableRecord
  2
SA3
340
0
102
{BLKREFS
331
60
102
}
  0
BLOCK_RECORD
  5
82
330
1
100
AcDbSymbolTableRecord
100
AcDbBlockTableRecord
  2
*D2
340
0
  0
BLOCK_RECORD
  5
8E
330
1
100
AcDbSymbolTableRecord
100
AcDbBlockTableRecord
  2
*D3
340
0
  0
BLOCK_RECORD
  5
9C
330
1
100
AcDbSymbolTableRecord
100
AcDbBlockTableRecord
  2
*D4
340
0
  0
BLOCK_RECORD
  5
AA
330
1
100
AcDbSymbolTableRecord
100
AcDbBlockTableRecord
  2
*D5
340
0
  0
BLOCK_RECORD
  5
B6
330
1
100
AcDbSymbolTableRecord
100
AcDbBlockTableRecord
  2
*D6
340
0
  0
BLOCK_RECORD
  5
C3
330
1
100
AcDbSymbolTableRecord
100
AcDbBlockTableRecord
  2
A$C79F54BAC
340
0
  0
BLOCK_RECORD
  5
FD8
330
1
100
AcDbSymbolTableRecord
100
AcDbBlockTableRecord
  2
*D28
340
0
  0
BLOCK_RECORD
  5
FE4
330
1
100
AcDbSymbolTableRecord
100
AcDbBlockTableRecord
  2
*D29
340
0
  0
BLOCK_RECORD
  5
FF0
330
1
100
AcDbSymbolTableRecord
100
AcDbBlockTableRecord
  2
*D30
340
0
  0
BLOCK_RECORD
  5
FFD
330
1
100
AcDbSymbolTableRecord
100
AcDbBlockTableRecord
  2
*D31
340
0
  0
BLOCK_RECORD
  5
100A
330
1
100
AcDbSymbolTableRecord
100
AcDbBlockTableRecord
  2
*D32
340
0
  0
BLOCK_RECORD
  5
1016
330
1
100
AcDbSymbolTableRecord
100
AcDbBlockTableRecord
  2
*D33
340
0
  0
BLOCK_RECORD
  5
1022
330
1
100
AcDbSymbolTableRecord
100
AcDbBlockTableRecord
  2
*D34
340
0
  0
BLOCK_RECORD
  5
1090
330
1
100
AcDbSymbolTableRecord
100
AcDbBlockTableRecord
  2
*D43
340
0
  0
BLOCK_RECORD
  5
109C
330
1
100
AcDbSymbolTableRecord
100
AcDbBlockTableRecord
  2
*D44
340
0
  0
BLOCK_RECORD
  5
10A8
330
1
100
AcDbSymbolTableRecord
100
AcDbBlockTableRecord
  2
*D45
340
0
  0
BLOCK_RECORD
  5
1361
330
1
100
AcDbSymbolTableRecord
100
AcDbBlockTableRecord
  2
*D48
340
0
  0
BLOCK_RECORD
  5
139C
330
1
100
AcDbSymbolTableRecord
100
AcDbBlockTableRecord
  2
*D49
340
0
  0
BLOCK_RECORD
  5
141C
330
1
100
AcDbSymbolTableRecord
100
AcDbBlockTableRecord
  2
*D50
340
0
  0
BLOCK_RECORD
  5
1429
330
1
100
AcDbSymbolTableRecord
100
AcDbBlockTableRecord
  2
*D51
340
0
  0
BLOCK_RECORD
  5
1436
330
1
100
AcDbSymbolTableRecord
100
AcDbBlockTableRecord
  2
*D52
340
0
  0
BLOCK_RECORD
  5
1443
330
1
100
AcDbSymbolTableRecord
100
AcDbBlockTableRecord
  2
*D53
340
0
  0
BLOCK_RECORD
  5
1450
330
1
100
AcDbSymbolTableRecord
100
AcDbBlockTableRecord
  2
*D54
340
0
  0
BLOCK_RECORD
  5
146F
330
1
100
AcDbSymbolTableRecord
100
AcDbBlockTableRecord
  2
*D55
340
0
  0
BLOCK_RECORD
  5
147C
330
1
100
AcDbSymbolTableRecord
100
AcDbBlockTableRecord
  2
*D56
340
0
  0
BLOCK_RECORD
  5
1489
330
1
100
AcDbSymbolTableRecord
100
AcDbBlockTableRecord
  2
*D57
340
0
  0
BLOCK_RECORD
  5
1497
330
1
100
AcDbSymbolTableRecord
100
AcDbBlockTableRecord
  2
*D58
340
0
  0
BLOCK_RECORD
  5
14AF
330
1
100
AcDbSymbolTableRecord
100
AcDbBlockTableRecord
  2
*D59
340
0
  0
BLOCK_RECORD
  5
14C5
330
1
100
AcDbSymbolTableRecord
100
AcDbBlockTableRecord
  2
*D60
340
0
  0
BLOCK_RECORD
  5
14D2
330
1
100
AcDbSymbolTableRecord
100
AcDbBlockTableRecord
  2
*D61
340
0
  0
ENDTAB
  0
ENDSEC
  0
SECTION
  2
BLOCKS
  0
BLOCK
  5
2D
330
17
100
AcDbEntity
  8
0
100
AcDbBlockBegin
  2
*MODEL_SPACE
 70
     0
 10
0.0
 20
0.0
 30
0.0
  3
*MODEL_SPACE
  1

  0
ENDBLK
  5
2E
330
17
100
AcDbEntity
  8
0
100
AcDbBlockEnd
  0
BLOCK
  5
2B
330
14
100
AcDbEntity
 67
     1
  8
0
100
AcDbBlockBegin
  2
*PAPER_SPACE
 70
     0
 10
0.0
 20
0.0
 30
0.0
  3
*PAPER_SPACE
  1

  0
ENDBLK
  5
2C
330
14
100
AcDbEntity
 67
     1
  8
0
100
AcDbBlockEnd
  0
BLOCK
  5
2F
330
1C
100
AcDbEntity
  8
0
100
AcDbBlockBegin
  2
BORDER
 70
     0
 10
0.0
 20
0.0
 30
0.0
  3
BORDER
  1

  0
LINE
  5
30
330
1C
100
AcDbEntity
  8
0
100
AcDbLine
 10
0.0
 20
0.0
 30
0.0
 11
1.00000000000004
 21
0.0
 31
0.0
  0
LINE
  5
31
330
1C
100
AcDbEntity
  8
0
100
AcDbLine
 10
1.00000000000004
 20
0.0
 30
0.0
 11
1.00000000000004
 21
1.00000000000004
 31
0.0
  0
LINE
  5
32
330
1C
100
AcDbEntity
  8
0
100
AcDbLine
 10
1.00000000000004
 20
1.00000000000004
 30
0.0
 11
0.0
 21
1.00000000000004
 31
0.0
  0
LINE
  5
33
330
1C
100
AcDbEntity
  8
0
100
AcDbLine
 10
0.0
 20
1.00000000000004
 30
0.0
 11
0.0
 21
0.0
 31
0.0
  0
ENDBLK
  5
34
330
1C
100
AcDbEntity
  8
0
100
AcDbBlockEnd
  0
BLOCK
  5
35
330
1D
100
AcDbEntity
  8
HAIKIN
100
AcDbBlockBegin
  2
SA3
 70
     0
 10
0.0
 20
0.0
 30
0.0
  3
SA3
  1

  0
TEXT
  5
36
330
1D
100
AcDbEntity
  8
SUNPOU
100
AcDbText
 10
340.0
 20
0.0
 30
0.0
 40
2.5
  1
新和コンクリート工業株式会社
100
AcDbText
  0
TEXT
  5
39
330
1D
100
AcDbEntity
  8
SUNPOU
100
AcDbText
 10
361.4166666666667
 20
6.25
 30
0.0
 40
2.5
  1
製図
 72
     4
 11
364.0
 21
7.5
 31
0.0
100
AcDbText
  0
TEXT
  5
3A
330
1D
100
AcDbEntity
  8
SUNPOU
100
AcDbText
 10
361.3333333333333
 20
11.25
 30
0.0
 40
2.5
  1
設計
 72
     4
 11
364.0
 21
12.5
 31
0.0
100
AcDbText
  0
TEXT
  5
3B
330
1D
100
AcDbEntity
  8
SUNPOU
100
AcDbText
 10
339.0833333333333
 20
6.250000000000014
 30
0.0
 40
2.5
  1
認
 72
     4
 11
340.25
 21
7.500000000000014
 31
0.0
100
AcDbText
  0
TEXT
  5
3C
330
1D
100
AcDbEntity
  8
SUNPOU
100
AcDbText
 10
339.0833333333333
 20
11.33333333333336
 30
0.0
 40
2.5
  1
承
 72
     4
 11
340.25
 21
12.50000000000003
 31
0.0
100
AcDbText
  0
TEXT
  5
3D
330
1D
100
AcDbEntity
  8
SUNPOU
100
AcDbText
 10
312.75
 20
11.75000000000001
 30
0.0
 40
2.5
  1
図　面　番　号
 72
     4
 11
323.0
 21
13.00000000000001
 31
0.0
100
AcDbText
  0
TEXT
  5
3E
330
1D
100
AcDbEntity
  8
SUNPOU
100
AcDbText
 10
362.0
 20
17.0
 30
0.0
 40
2.5
  1
１／
100
AcDbText
  0
TEXT
  5
3F
330
1D
100
AcDbEntity
  8
SUNPOU
100
AcDbText
 10
347.3333333333333
 20
16.25000000000001
 30
0.0
 40
2.5
  1
縮　　尺
 72
     4
 11
353.0
 21
17.50000000000001
 31
0.0
100
AcDbText
  0
TEXT
  5
40
330
1D
100
AcDbEntity
  8
SUNPOU
100
AcDbText
 10
347.3333333333333
 20
21.25
 30
0.0
 40
2.5
  1
鉄 筋 量
 72
     4
 11
353.0
 21
22.5
 31
0.0
100
AcDbText
  0
TEXT
  5
41
330
1D
100
AcDbEntity
  8
SUNPOU
100
AcDbText
 10
347.3333333333333
 20
26.25
 30
0.0
 40
2.5
  1
製 造 数
 72
     4
 11
353.0
 21
27.5
 31
0.0
100
AcDbText
  0
TEXT
  5
42
330
1D
100
AcDbEntity
  8
SUNPOU
100
AcDbText
 10
377.0
 20
21.0
 30
0.0
 40
2.5
  1
ｋｇ
 72
     2
 11
382.0
 21
21.0
 31
0.0
100
AcDbText
  0
TEXT
  5
43
330
1D
100
AcDbEntity
  8
SUNPOU
100
AcDbText
 10
339.5
 20
21.0
 30
0.0
 40
2.5
  1
ｋｇ
 72
     2
 11
344.5
 21
21.0
 31
0.0
100
AcDbText
  0
TEXT
  5
44
330
1D
100
AcDbEntity
  8
SUNPOU
100
AcDbText
 10
310.0
 20
16.25000000000001
 30
0.0
 40
2.5
  1
年 月 日
 72
     4
 11
315.5
 21
17.50000000000001
 31
0.0
100
AcDbText
  0
TEXT
  5
45
330
1D
100
AcDbEntity
  8
SUNPOU
100
AcDbText
 10
309.8333333333333
 20
21.25
 30
0.0
 40
2.5
  1
製品質量
 72
     4
 11
315.5
 21
22.5
 31
0.0
100
AcDbText
  0
TEXT
  5
46
330
1D
100
AcDbEntity
  8
SUNPOU
100
AcDbText
 10
309.9166666666667
 20
26.25
 30
0.0
 40
2.5
  1
業 者 名
 72
     4
 11
315.5
 21
27.5
 31
0.0
100
AcDbText
  0
TEXT
  5
47
330
1D
100
AcDbEntity
  8
SUNPOU
100
AcDbText
 10
309.8333333333333
 20
32.5
 30
0.0
 40
2.5
  1
名　　称
 72
     4
 11
315.5
 21
33.75
 31
0.0
100
AcDbText
  0
LINE
  5
48
330
1D
100
AcDbEntity
  8
SUNPOU
100
AcDbLine
 10
338.0
 20
11.00000000000001
 30
0.0
 11
308.0
 21
11.00000000000001
 31
0.0
  0
LINE
  5
49
330
1D
100
AcDbEntity
  8
SUNPOU
100
AcDbLine
 10
367.5
 20
4.999999999999986
 30
0.0
 11
367.5
 21
14.99999999999999
 31
0.0
  0
LINE
  5
4A
330
1D
100
AcDbEntity
  8
SUNPOU
100
AcDbLine
 10
360.5
 20
4.999999999999986
 30
0.0
 11
360.5
 21
14.99999999999999
 31
0.0
  0
LINE
  5
4B
330
1D
100
AcDbEntity
  8
SUNPOU
100
AcDbLine
 10
342.5
 20
4.999999999999995
 30
0.0
 11
342.5
 21
15.0
 31
0.0
  0
LINE
  5
4C
330
1D
100
AcDbEntity
  8
SUNPOU
100
AcDbLine
 10
338.0
 20
4.999999999999995
 30
0.0
 11
338.0
 21
15.0
 31
0.0
  0
LINE
  5
4D
330
1D
100
AcDbEntity
  8
SUNPOU
100
AcDbLine
 10
323.0
 20
15.00000000000001
 30
0.0
 11
323.0
 21
37.5
 31
0.0
  0
LINE
  5
4E
330
1D
100
AcDbEntity
  8
SUNPOU
100
AcDbLine
 10
360.5
 20
15.00000000000001
 30
0.0
 11
360.5
 21
30.0
 31
0.0
  0
LINE
  5
4F
330
1D
100
AcDbEntity
  8
SUNPOU
100
AcDbLine
 10
345.5
 20
15.00000000000001
 30
0.0
 11
345.5
 21
30.0
 31
0.0
  0
LINE
  5
50
330
1D
100
AcDbEntity
  8
SUNPOU
100
AcDbLine
 10
383.0
 20
30.0
 30
0.0
 11
308.0
 21
30.0
 31
0.0
  0
LINE
  5
51
330
1D
100
AcDbEntity
  8
SUNPOU
100
AcDbLine
 10
383.0
 20
25.0
 30
0.0
 11
308.0
 21
25.0
 31
0.0
  0
LINE
  5
52
330
1D
100
AcDbEntity
  8
SUNPOU
100
AcDbLine
 10
383.0
 20
20.0
 30
0.0
 11
308.0
 21
20.0
 31
0.0
  0
LINE
  5
53
330
1D
100
AcDbEntity
  8
SUNPOU
100
AcDbLine
 10
383.0
 20
14.99999999999999
 30
0.0
 11
308.0
 21
15.00000000000004
 31
0.0
  0
LINE
  5
54
330
1D
100
AcDbEntity
  8
HAIKIN
100
AcDbLine
 10
308.0
 20
37.5
 30
0.0
 11
383.0
 21
37.5
 31
0.0
  0
LINE
  5
55
330
1D
100
AcDbEntity
  8
HAIKIN
100
AcDbLine
 10
308.0
 20
5.000000000000009
 30
0.0
 11
308.0
 21
37.5
 31
0.0
  0
LINE
  5
56
330
1D
100
AcDbEntity
  8
SUNPOU
100
AcDbLine
 10
0.000000000000016
 20
277.0
 30
0.0
 11
0.000000000000016
 21
272.0
 31
0.0
  0
LINE
  5
57
330
1D
100
AcDbEntity
  8
SUNPOU
100
AcDbLine
 10
25.00000000000001
 20
277.0
 30
0.0
 11
0.000000000000016
 21
277.0
 31
0.0
  0
LINE
  5
58
330
1D
100
AcDbEntity
  8
SUNPOU
100
AcDbLine
 10
25.00000000000001
 20
272.0
 30
0.0
 11
25.00000000000001
 21
277.0
 31
0.0
  0
LINE
  5
59
330
1D
100
AcDbEntity
  8
HAIKIN
100
AcDbLine
 10
0.0000000000000004
 20
5.0
 30
0.0
 11
383.0
 21
5.0
 31
0.0
  0
LINE
  5
5A
330
1D
100
AcDbEntity
  8
HAIKIN
100
AcDbLine
 10
0.0000000000000158
 20
272.0
 30
0.0
 11
383.0
 21
272.0
 31
0.0
  0
LINE
  5
5B
330
1D
100
AcDbEntity
  8
HAIKIN
100
AcDbLine
 10
383.0
 20
272.0
 30
0.0
 11
383.0
 21
5.0
 31
0.0
  0
TEXT
  5
5C
330
1D
100
AcDbEntity
  8
SUNPOU
100
AcDbText
 10
3.700000000000017
 20
273.0
 30
0.0
 40
3.0
  1
Ｈ－２－共
 72
     4
 11
12.50000000000002
 21
274.5
 31
0.0
100
AcDbText
  0
LINE
  5
5D
330
1D
100
AcDbEntity
  8
HAIKIN
100
AcDbLine
 10
0.0000000000000004
 20
5.0
 30
0.0
 11
0.0000000000000158
 21
272.0
 31
0.0
  0
ENDBLK
  5
5E
330
1D
100
AcDbEntity
  8
HAIKIN
100
AcDbBlockEnd
  0
BLOCK
  5
8C
330
82
100
AcDbEntity
  8
0
100
AcDbBlockBegin
  2
*D2
 70
     1
 10
0.0
 20
0.0
 30
0.0
  3
*D2
  1

  0
LINE
  5
83
330
82
100
AcDbEntity
  8
SUNPOU
370
    -2
100
AcDbLine
 10
14459.99999999999
 20
11910.0
 30
0.0
 11
15605.99999999999
 21
11910.0
 31
0.0
  0
LINE
  5
84
330
82
100
AcDbEntity
  8
SUNPOU
370
    -2
100
AcDbLine
 10
14459.99999999999
 20
13710.0
 30
0.0
 11
15605.99999999999
 21
13710.0
 31
0.0
  0
LINE
  5
85
330
82
100
AcDbEntity
  8
SUNPOU
370
    -2
100
AcDbLine
 10
15569.99999999999
 20
12000.0
 30
0.0
 11
15569.99999999999
 21
13620.0
 31
0.0
  0
MTEXT
  5
86
330
82
100
AcDbEntity
  8
SUNPOU
 62
     0
100
AcDbMText
 10
15404.05869794343
 20
12806.25726232369
 30
0.0
 40
180.0
 41
0.0
 71
     5
 72
     1
  1
\A1;15@120=1800
 11
6.123031769111886E-17
 21
1.0
 31
0.0
 73
     1
 44
1.0
  0
SOLID
  5
87
330
82
100
AcDbEntity
  8
SUNPOU
100
AcDbTrace
 10
15554.99999999999
 20
12000.0
 30
0.0
 11
15584.99999999999
 21
12000.0
 31
0.0
 12
15569.99999999999
 22
11910.0
 32
0.0
 13
15569.99999999999
 23
11910.0
 33
0.0
  0
SOLID
  5
88
330
82
100
AcDbEntity
  8
SUNPOU
100
AcDbTrace
 10
15554.99999999999
 20
13620.0
 30
0.0
 11
15584.99999999999
 21
13620.0
 31
0.0
 12
15569.99999999999
 22
13710.0
 32
0.0
 13
15569.99999999999
 23
13710.0
 33
0.0
  0
POINT
  5
89
330
82
100
AcDbEntity
  8
DEFPOINTS
 62
     0
100
AcDbPoint
 10
14369.99999999999
 20
11910.0
 30
0.0
  0
POINT
  5
8A
330
82
100
AcDbEntity
  8
DEFPOINTS
 62
     0
100
AcDbPoint
 10
14369.99999999999
 20
13710.0
 30
0.0
  0
POINT
  5
8B
330
82
100
AcDbEntity
  8
DEFPOINTS
 62
     0
100
AcDbPoint
 10
15569.99999999999
 20
13710.0
 30
0.0
  0
ENDBLK
  5
8D
330
82
100
AcDbEntity
  8
0
100
AcDbBlockEnd
  0
BLOCK
  5
9A
330
8E
100
AcDbEntity
  8
0
100
AcDbBlockBegin
  2
*D3
 70
     1
 10
0.0
 20
0.0
 30
0.0
  3
*D3
  1

  0
LINE
  5
8F
330
8E
100
AcDbEntity
  8
SUNPOU
370
    -2
100
AcDbLine
 10
14333.74999999999
 20
11805.0
 30
0.0
 11
15605.99999999999
 21
11805.0
 31
0.0
  0
LINE
  5
90
330
8E
100
AcDbEntity
  8
SUNPOU
370
    -2
100
AcDbLine
 10
14489.70588235293
 20
11910.0
 30
0.0
 11
15605.99999999999
 21
11910.0
 31
0.0
  0
LINE
  5
91
330
8E
100
AcDbEntity
  8
SUNPOU
370
    -2
100
AcDbLine
 10
15569.99999999999
 20
11715.0
 30
0.0
 11
15569.99999999999
 21
11625.0
 31
0.0
  0
LINE
  5
92
330
8E
100
AcDbEntity
  8
SUNPOU
370
    -2
100
AcDbLine
 10
15569.99999999999
 20
12000.0
 30
0.0
 11
15569.99999999999
 21
12090.0
 31
0.0
  0
MTEXT
  5
93
330
8E
100
AcDbEntity
  8
SUNPOU
 62
     0
100
AcDbMText
 10
15730.33993097525
 20
11906.05735268755
 30
0.0
 40
180.0
 41
0.0
 71
     5
 72
     1
  1
\A1;105
 11
6.123031769111886E-17
 21
1.0
 31
0.0
 73
     1
 44
1.0
  0
LINE
  5
94
330
8E
100
AcDbEntity
  8
SUNPOU
370
    -2
100
AcDbLine
 10
15569.99999999999
 20
11805.0
 30
0.0
 11
15569.99999999999
 21
11910.0
 31
0.0
  0
SOLID
  5
95
330
8E
100
AcDbEntity
  8
SUNPOU
100
AcDbTrace
 10
15554.99999999999
 20
11715.0
 30
0.0
 11
15584.99999999999
 21
11715.0
 31
0.0
 12
15569.99999999999
 22
11805.0
 32
0.0
 13
15569.99999999999
 23
11805.0
 33
0.0
  0
SOLID
  5
96
330
8E
100
AcDbEntity
  8
SUNPOU
100
AcDbTrace
 10
15554.99999999999
 20
12000.0
 30
0.0
 11
15584.99999999999
 21
12000.0
 31
0.0
 12
15569.99999999999
 22
11910.0
 32
0.0
 13
15569.99999999999
 23
11910.0
 33
0.0
  0
POINT
  5
97
330
8E
100
AcDbEntity
  8
DEFPOINTS
 62
     0
100
AcDbPoint
 10
14243.74999999999
 20
11805.0
 30
0.0
  0
POINT
  5
98
330
8E
100
AcDbEntity
  8
DEFPOINTS
 62
     0
100
AcDbPoint
 10
14399.70588235293
 20
11910.0
 30
0.0
  0
POINT
  5
99
330
8E
100
AcDbEntity
  8
DEFPOINTS
 62
     0
100
AcDbPoint
 10
15569.99999999999
 20
11910.0
 30
0.0
  0
ENDBLK
  5
9B
330
8E
100
AcDbEntity
  8
0
100
AcDbBlockEnd
  0
BLOCK
  5
A8
330
9C
100
AcDbEntity
  8
0
100
AcDbBlockBegin
  2
*D4
 70
     1
 10
0.0
 20
0.0
 30
0.0
  3
*D4
  1

  0
LINE
  5
9D
330
9C
100
AcDbEntity
  8
SUNPOU
370
    -2
100
AcDbLine
 10
14459.99999999999
 20
13710.0
 30
0.0
 11
15605.99999999999
 21
13710.0
 31
0.0
  0
LINE
  5
9E
330
9C
100
AcDbEntity
  8
SUNPOU
370
    -2
100
AcDbLine
 10
14459.99999999999
 20
13770.0
 30
0.0
 11
15605.99999999999
 21
13770.0
 31
0.0
  0
LINE
  5
9F
330
9C
100
AcDbEntity
  8
SUNPOU
370
    -2
100
AcDbLine
 10
15569.99999999999
 20
13620.0
 30
0.0
 11
15569.99999999999
 21
13530.0
 31
0.0
  0
LINE
  5
A0
330
9C
100
AcDbEntity
  8
SUNPOU
370
    -2
100
AcDbLine
 10
15569.99999999999
 20
13860.0
 30
0.0
 11
15569.99999999999
 21
13950.0
 31
0.0
  0
MTEXT
  5
A1
330
9C
100
AcDbEntity
  8
SUNPOU
 62
     0
100
AcDbMText
 10
15437.48050855183
 20
13968.0082924672
 30
0.0
 40
180.0
 41
0.0
 71
     5
 72
     1
  1
\A1;60
 11
6.123031769111886E-17
 21
1.0
 31
0.0
 73
     1
 44
1.0
  0
LINE
  5
A2
330
9C
100
AcDbEntity
  8
SUNPOU
370
    -2
100
AcDbLine
 10
15569.99999999999
 20
13710.0
 30
0.0
 11
15569.99999999999
 21
13770.0
 31
0.0
  0
SOLID
  5
A3
330
9C
100
AcDbEntity
  8
SUNPOU
100
AcDbTrace
 10
15554.99999999999
 20
13620.0
 30
0.0
 11
15584.99999999999
 21
13620.0
 31
0.0
 12
15569.99999999999
 22
13710.0
 32
0.0
 13
15569.99999999999
 23
13710.0
 33
0.0
  0
SOLID
  5
A4
330
9C
100
AcDbEntity
  8
SUNPOU
100
AcDbTrace
 10
15554.99999999999
 20
13860.0
 30
0.0
 11
15584.99999999999
 21
13860.0
 31
0.0
 12
15569.99999999999
 22
13770.0
 32
0.0
 13
15569.99999999999
 23
13770.0
 33
0.0
  0
POINT
  5
A5
330
9C
100
AcDbEntity
  8
DEFPOINTS
 62
     0
100
AcDbPoint
 10
14369.99999999999
 20
13710.0
 30
0.0
  0
POINT
  5
A6
330
9C
100
AcDbEntity
  8
DEFPOINTS
 62
     0
100
AcDbPoint
 10
14369.99999999999
 20
13770.0
 30
0.0
  0
POINT
  5
A7
330
9C
100
AcDbEntity
  8
DEFPOINTS
 62
     0
100
AcDbPoint
 10
15569.99999999999
 20
13770.0
 30
0.0
  0
ENDBLK
  5
A9
330
9C
100
AcDbEntity
  8
0
100
AcDbBlockEnd
  0
BLOCK
  5
B4
330
AA
100
AcDbEntity
  8
0
100
AcDbBlockBegin
  2
*D5
 70
     1
 10
0.0
 20
0.0
 30
0.0
  3
*D5
  1

  0
LINE
  5
AB
330
AA
100
AcDbEntity
  8
SUNPOU
370
    -2
100
AcDbLine
 10
14324.99999999999
 20
11770.0
 30
0.0
 11
15905.99999999999
 21
11770.0
 31
0.0
  0
LINE
  5
AC
330
AA
100
AcDbEntity
  8
SUNPOU
370
    -2
100
AcDbLine
 10
14594.99999999999
 20
13770.0
 30
0.0
 11
15905.99999999999
 21
13770.0
 31
0.0
  0
LINE
  5
AD
330
AA
100
AcDbEntity
  8
SUNPOU
370
    -2
100
AcDbLine
 10
15869.99999999999
 20
11860.0
 30
0.0
 11
15869.99999999999
 21
13680.0
 31
0.0
  0
SOLID
  5
AE
330
AA
100
AcDbEntity
  8
SUNPOU
100
AcDbTrace
 10
15854.99999999999
 20
11860.0
 30
0.0
 11
15884.99999999999
 21
11860.0
 31
0.0
 12
15869.99999999999
 22
11770.0
 32
0.0
 13
15869.99999999999
 23
11770.0
 33
0.0
  0
SOLID
  5
AF
330
AA
100
AcDbEntity
  8
SUNPOU
100
AcDbTrace
 10
15854.99999999999
 20
13680.0
 30
0.0
 11
15884.99999999999
 21
13680.0
 31
0.0
 12
15869.99999999999
 22
13770.0
 32
0.0
 13
15869.99999999999
 23
13770.0
 33
0.0
  0
MTEXT
  5
B0
330
AA
100
AcDbEntity
  8
SUNPOU
 62
     0
100
AcDbMText
 10
15731.99999999999
 20
12770.0
 30
0.0
 40
180.0
 41
0.0
 71
     5
 72
     1
  1
\A1;2000
 11
6.123031769111886E-17
 21
1.0
 31
0.0
 73
     1
 44
1.0
  0
POINT
  5
B1
330
AA
100
AcDbEntity
  8
DEFPOINTS
 62
     0
100
AcDbPoint
 10
14234.99999999999
 20
11770.0
 30
0.0
  0
POINT
  5
B2
330
AA
100
AcDbEntity
  8
DEFPOINTS
 62
     0
100
AcDbPoint
 10
14504.99999999999
 20
13770.0
 30
0.0
  0
POINT
  5
B3
330
AA
100
AcDbEntity
  8
DEFPOINTS
 62
     0
100
AcDbPoint
 10
15869.99999999999
 20
13770.0
 30
0.0
  0
ENDBLK
  5
B5
330
AA
100
AcDbEntity
  8
0
100
AcDbBlockEnd
  0
BLOCK
  5
C1
330
B6
100
AcDbEntity
  8
0
100
AcDbBlockBegin
  2
*D6
 70
     1
 10
0.0
 20
0.0
 30
0.0
  3
*D6
  1

  0
LINE
  5
B7
330
B6
100
AcDbEntity
  8
SUNPOU
 62
     0
370
    -2
100
AcDbLine
 10
14388.74999999999
 20
11805.0
 30
0.0
 11
15629.99999999999
 21
11805.0
 31
0.0
  0
LINE
  5
B8
330
B6
100
AcDbEntity
  8
SUNPOU
 62
     0
370
    -2
100
AcDbLine
 10
14379.99999999999
 20
11770.0
 30
0.0
 11
15629.99999999999
 21
11770.0
 31
0.0
  0
LINE
  5
B9
330
B6
100
AcDbEntity
  8
SUNPOU
 62
     0
370
    -2
100
AcDbLine
 10
15569.99999999999
 20
11895.0
 30
0.0
 11
15569.99999999999
 21
11985.0
 31
0.0
  0
LINE
  5
BA
330
B6
100
AcDbEntity
  8
SUNPOU
 62
     0
370
    -2
100
AcDbLine
 10
15569.99999999999
 20
11680.0
 30
0.0
 11
15569.99999999999
 21
11590.0
 31
0.0
  0
MTEXT
  5
BB
330
B6
100
AcDbEntity
  8
SUNPOU
 62
     0
100
AcDbMText
 10
15422.1488453184
 20
11572.59656658611
 30
0.0
 40
180.0
 41
0.0
 71
     5
 72
     1
  1
\A1;35
 11
6.123031769111886E-17
 21
1.0
 31
0.0
 73
     1
 44
1.0
  0
SOLID
  5
BC
330
B6
100
AcDbEntity
  8
SUNPOU
 62
     0
100
AcDbTrace
 10
15554.99999999999
 20
11895.0
 30
0.0
 11
15584.99999999999
 21
11895.0
 31
0.0
 12
15569.99999999999
 22
11805.0
 32
0.0
 13
15569.99999999999
 23
11805.0
 33
0.0
  0
SOLID
  5
BD
330
B6
100
AcDbEntity
  8
SUNPOU
 62
     0
100
AcDbTrace
 10
15554.99999999999
 20
11680.0
 30
0.0
 11
15584.99999999999
 21
11680.0
 31
0.0
 12
15569.99999999999
 22
11770.0
 32
0.0
 13
15569.99999999999
 23
11770.0
 33
0.0
  0
POINT
  5
BE
330
B6
100
AcDbEntity
  8
DEFPOINTS
 62
     0
100
AcDbPoint
 10
14268.74999999999
 20
11805.0
 30
0.0
  0
POINT
  5
BF
330
B6
100
AcDbEntity
  8
DEFPOINTS
 62
     0
100
AcDbPoint
 10
14259.99999999999
 20
11770.0
 30
0.0
  0
POINT
  5
C0
330
B6
100
AcDbEntity
  8
DEFPOINTS
 62
     0
100
AcDbPoint
 10
15569.99999999999
 20
11770.0
 30
0.0
  0
ENDBLK
  5
C2
330
B6
100
AcDbEntity
  8
0
100
AcDbBlockEnd
  0
BLOCK
  5
169
330
C3
100
AcDbEntity
  8
0
100
AcDbBlockBegin
  2
A$C79F54BAC
 70
     0
 10
0.0
 20
0.0
 30
0.0
  3
A$C79F54BAC
  1

  0
DIMENSION
  5
C4
330
C3
100
AcDbEntity
  8
SUNPOU
100
AcDbDimension
  2
*D2
 10
4229.99998564875
 20
2257.403415746125
 30
0.0
 11
4064.058683592186
 21
1353.660678069813
 31
0.0
 12
-11340.00001435124
 22
-11452.59658425388
 32
0.0
 70
   128
  1
15@120=<>
 71
     5
 42
-1.0
  3
STANDARD
100
AcDbAlignedDimension
 13
3029.99998564875
 23
457.4034157461228
 33
0.0
 14
3029.99998564875
 24
2257.403415746125
 34
0.0
 50
90.0
100
AcDbRotatedDimension
1001
ACAD
1000
DSTYLE
1002
{
1070
   287
1070
     5
1070
   287
1070
     5
1070
   287
1070
     5
1070
   287
1070
     5
1070
   287
1070
     5
1070
   287
1070
     5
1070
   287
1070
     5
1070
   287
1070
     5
1070
    40
1040
60.0
1070
    41
1040
1.5
1070
    42
1040
1.5
1070
    43
1040
7.0
1070
    44
1040
0.6
1070
    73
1070
     0
1070
    74
1070
     0
1070
    77
1070
     1
1070
    78
1070
     8
1070
   140
1040
3.0
1070
   141
1040
0.0
1070
   145
1040
1.0
1070
   147
1040
0.8
1070
   172
1070
     1
1070
   176
1070
   256
1070
   177
1070
   256
1070
   271
1070
     0
1070
   275
1070
     1
1070
   279
1070
     2
1070
   284
1070
     8
1070
   285
1070
     8
1070
   286
1070
     8
1002
}
  0
DIMENSION
  5
C5
330
C3
100
AcDbEntity
  8
SUNPOU
100
AcDbDimension
  2
*D3
 10
4229.99998564875
 20
457.4034157461228
 30
0.0
 11
4390.339916624003
 21
453.4607684336734
 31
0.0
 12
-11340.00001435124
 22
-11452.59658425388
 32
0.0
 70
   128
 71
     5
 42
-1.0
  3
STANDARD
100
AcDbAlignedDimension
 13
2903.74998564875
 23
352.4034157461247
 33
0.0
 14
3059.705868001689
 24
457.4034157461228
 34
0.0
 50
90.0
100
AcDbRotatedDimension
1001
ACAD
1000
DSTYLE
1002
{
1070
   287
1070
     5
1070
   287
1070
     5
1070
   287
1070
     5
1070
   287
1070
     5
1070
   287
1070
     5
1070
   287
1070
     5
1070
   287
1070
     5
1070
   287
1070
     5
1070
    40
1040
60.0
1070
    41
1040
1.5
1070
    42
1040
1.5
1070
    43
1040
7.0
1070
    44
1040
0.6
1070
    73
1070
     0
1070
    74
1070
     0
1070
    77
1070
     1
1070
    78
1070
     8
1070
   140
1040
3.0
1070
   141
1040
0.0
1070
   145
1040
1.0
1070
   147
1040
0.8
1070
   172
1070
     1
1070
   176
1070
   256
1070
   177
1070
   256
1070
   271
1070
     0
1070
   275
1070
     1
1070
   279
1070
     2
1070
   284
1070
     8
1070
   285
1070
     8
1070
   286
1070
     8
1002
}
  0
DIMENSION
  5
C6
330
C3
100
AcDbEntity
  8
SUNPOU
100
AcDbDimension
  2
*D4
 10
4229.99998564875
 20
2317.403415746121
 30
0.0
 11
4097.480494200581
 21
2515.411708213323
 31
0.0
 12
-11340.00001435124
 22
-11452.59658425388
 32
0.0
 70
   128
 71
     5
 42
-1.0
  3
STANDARD
100
AcDbAlignedDimension
 13
3029.99998564875
 23
2257.403415746125
 33
0.0
 14
3029.99998564875
 24
2317.403415746121
 34
0.0
 50
90.0
100
AcDbRotatedDimension
1001
ACAD
1000
DSTYLE
1002
{
1070
   287
1070
     5
1070
   287
1070
     5
1070
   287
1070
     5
1070
   287
1070
     5
1070
   287
1070
     5
1070
   287
1070
     5
1070
   287
1070
     5
1070
   287
1070
     5
1070
    40
1040
60.0
1070
    41
1040
1.5
1070
    42
1040
1.5
1070
    43
1040
7.0
1070
    44
1040
0.6
1070
    73
1070
     0
1070
    74
1070
     0
1070
    77
1070
     1
1070
    78
1070
     8
1070
   140
1040
3.0
1070
   141
1040
0.0
1070
   145
1040
1.0
1070
   147
1040
0.8
1070
   172
1070
     1
1070
   176
1070
   256
1070
   177
1070
   256
1070
   271
1070
     0
1070
   275
1070
     1
1070
   279
1070
     2
1070
   284
1070
     8
1070
   285
1070
     8
1070
   286
1070
     8
1002
}
  0
DIMENSION
  5
C7
330
C3
100
AcDbEntity
  8
SUNPOU
100
AcDbDimension
  2
*D5
 10
4529.99998564875
 20
2317.403415746123
 30
0.0
 11
4391.999985648747
 21
1317.403415746123
 31
0.0
 12
-11340.00001435124
 22
-11452.59658425388
 32
0.0
 71
     5
 42
-1.0
  3
STANDARD
100
AcDbAlignedDimension
 13
2894.99998564875
 23
317.403415746121
 33
0.0
 14
3164.99998564875
 24
2317.403415746123
 34
0.0
 50
90.0
100
AcDbRotatedDimension
1001
ACAD
1000
DSTYLE
1002
{
1070
   287
1070
     5
1070
   287
1070
     5
1070
   287
1070
     5
1070
   287
1070
     5
1070
   287
1070
     5
1070
   287
1070
     5
1070
   287
1070
     5
1070
   287
1070
     5
1070
    40
1040
60.0
1070
    41
1040
1.5
1070
    42
1040
1.5
1070
    43
1040
7.0
1070
    44
1040
0.6
1070
    73
1070
     0
1070
    74
1070
     0
1070
    77
1070
     1
1070
    78
1070
     8
1070
   140
1040
3.0
1070
   141
1040
0.0
1070
   145
1040
1.0
1070
   147
1040
0.8
1070
   172
1070
     1
1070
   176
1070
   256
1070
   177
1070
   256
1070
   271
1070
     0
1070
   275
1070
     1
1070
   279
1070
     2
1070
   284
1070
     8
1070
   285
1070
     8
1070
   286
1070
     8
1002
}
  0
DIMENSION
  5
C8
330
C3
100
AcDbEntity
  8
SUNPOU
100
AcDbDimension
  2
*D6
 10
4229.99998564875
 20
317.403415746121
 30
0.0
 11
4082.14883096716
 21
119.9999823322287
 31
0.0
 12
-11340.00001435124
 22
-11452.59658425388
 32
0.0
 70
   128
 71
     5
 42
-1.0
  3
STANDARD
100
AcDbAlignedDimension
 13
2928.74998564875
 23
352.4034157461247
 33
0.0
 14
2919.99998564875
 24
317.403415746121
 34
0.0
 50
90.0
100
AcDbRotatedDimension
1001
ACAD
1000
DSTYLE
1002
{
1070
   287
1070
     5
1070
   287
1070
     5
1070
   287
1070
     5
1070
   287
1070
     5
1070
   287
1070
     5
1070
   287
1070
     5
1070
   287
1070
     5
1070
   287
1070
     5
1070
    40
1040
60.0
1070
    41
1040
1.5
1070
    42
1040
2.0
1070
    43
1040
3.75
1070
    44
1040
1.0
1070
    73
1070
     0
1070
    74
1070
     0
1070
    77
1070
     1
1070
    78
1070
     8
1070
   140
1040
3.0
1070
   141
1040
2.5
1070
   143
1040
0.0394
1070
   147
1040
1.0
1070
   171
1070
     4
1070
   271
1070
     0
1070
   273
1070
     8
1070
   274
1070
     4
1070
   279
1070
     2
1002
}
  0
LINE
  5
C9
330
C3
100
AcDbEntity
  8
SUNPOU
100
AcDbLine
 10
1679.999985648763
 20
3227.403415746123
 30
0.0
 11
899.9999856487611
 21
3227.403415746123
 31
0.0
1001
ACAD
1000
DSTYLE
1002
{
1070
    78
1070
     8
1070
   284
1070
     8
1070
   140
1040
3.0
1070
   145
1040
1.0
1070
    74
1070
     0
1070
   172
1070
     1
1070
    73
1070
     0
1070
    77
1070
     1
1070
    40
1040
60.0
1070
   147
1040
0.8
1070
   287
1070
     5
1070
    42
1040
1.5
1070
    44
1040
0.6
1070
    43
1040
7.0
1070
   271
1070
     0
1070
   177
1070
   256
1070
   176
1070
   256
1070
   141
1040
0.0
1070
   275
1070
     1
1070
    41
1040
1.5
1070
   285
1070
     8
1070
   286
1070
     8
1002
}
  0
SOLID
  5
CA
330
C3
100
AcDbEntity
  8
SUNPOU
100
AcDbTrace
 10
1216.999985648774
 20
1372.403415746125
 30
0.0
 11
1306.999985648774
 21
1357.403415746123
 31
0.0
 12
1216.999985648774
 22
1342.403415746125
 32
0.0
 13
1216.999985648774
 23
1342.403415746125
 33
0.0
1001
ACAD
1000
DSTYLE
1002
{
1070
    78
1070
     8
1070
   284
1070
     8
1070
   140
1040
3.0
1070
   145
1040
1.0
1070
    74
1070
     0
1070
   172
1070
     1
1070
    73
1070
     0
1070
    77
1070
     1
1070
    40
1040
60.0
1070
   147
1040
0.8
1070
   287
1070
     5
1070
    42
1040
1.5
1070
    44
1040
0.6
1070
    43
1040
7.0
1070
   271
1070
     0
1070
   177
1070
   256
1070
   176
1070
   256
1070
   141
1040
0.0
1070
   275
1070
     1
1070
    41
1040
1.5
1070
   285
1070
     8
1070
   286
1070
     8
1002
}
  0
LINE
  5
CB
330
C3
100
AcDbEntity
  8
SUNPOU
100
AcDbLine
 10
329.9999856487375
 20
1357.403415746123
 30
0.0
 11
1426.999985648756
 21
1357.403415746126
 31
0.0
1001
ACAD
1000
DSTYLE
1002
{
1070
    78
1070
     8
1070
   284
1070
     8
1070
   140
1040
3.0
1070
   145
1040
1.0
1070
    74
1070
     0
1070
   172
1070
     1
1070
    73
1070
     0
1070
    77
1070
     1
1070
    40
1040
60.0
1070
   147
1040
0.8
1070
   287
1070
     5
1070
    42
1040
1.5
1070
    44
1040
0.6
1070
    43
1040
7.0
1070
   271
1070
     0
1070
   177
1070
   256
1070
   176
1070
   256
1070
   141
1040
0.0
1070
   275
1070
     1
1070
    41
1040
1.5
1070
   285
1070
     8
1070
   286
1070
     8
1002
}
  0
LINE
  5
CC
330
C3
100
AcDbEntity
  8
HAIKIN
100
AcDbLine
 10
1979.999985648756
 20
2052.403415746123
 30
0.0
 11
964.9999856487557
 21
2052.403415746117
 31
0.0
  0
LINE
  5
CD
330
C3
100
AcDbEntity
  8
HAIKIN
100
AcDbLine
 10
1979.999985648765
 20
1992.403415746121
 30
0.0
 11
964.9999856487557
 21
1992.403415746117
 31
0.0
  0
LINE
  5
CE
330
C3
100
AcDbEntity
  8
HAIKIN
100
AcDbLine
 10
1979.999985648765
 20
1932.403415746121
 30
0.0
 11
964.9999856487557
 21
1932.403415746117
 31
0.0
  0
LINE
  5
CF
330
C3
100
AcDbEntity
  8
HAIKIN
100
AcDbLine
 10
1979.999985648765
 20
847.4034157461283
 30
0.0
 11
964.9999856487557
 21
847.4034157461247
 31
0.0
  0
LINE
  5
D0
330
C3
100
AcDbEntity
  8
HAIKIN
100
AcDbLine
 10
1979.999985648765
 20
787.4034157461283
 30
0.0
 11
964.9999856487557
 21
787.4034157461247
 31
0.0
  0
LINE
  5
D1
330
C3
100
AcDbEntity
  8
HAIKIN
100
AcDbLine
 10
1979.999985648758
 20
727.4034157461283
 30
0.0
 11
964.9999856487557
 21
727.4034157461247
 31
0.0
  0
LINE
  5
D2
330
C3
100
AcDbEntity
  8
SUNPOU
100
AcDbLine
 10
964.9999856487557
 20
1897.403415746125
 30
0.0
 11
1486.999985648752
 21
1897.403415746121
 31
0.0
  0
LINE
  5
D3
330
C3
100
AcDbEntity
  8
SUNPOU
100
AcDbLine
 10
964.9999856487557
 20
1657.403415746125
 30
0.0
 11
1486.999985648752
 21
1657.403415746121
 31
0.0
  0
LINE
  5
D4
330
C3
100
AcDbEntity
  8
SUNPOU
100
AcDbLine
 10
964.9999856487557
 20
1777.403415746125
 30
0.0
 11
1486.999985648752
 21
1777.403415746123
 31
0.0
  0
LINE
  5
D5
330
C3
100
AcDbEntity
  8
SUNPOU
100
AcDbLine
 10
964.9999856487557
 20
457.4034157461247
 30
0.0
 11
1979.999985648759
 21
457.403415746121
 31
0.0
  0
LINE
  5
D6
330
C3
100
AcDbEntity
  8
SUNPOU
100
AcDbLine
 10
964.9999856487557
 20
817.4034157461247
 30
0.0
 11
1979.999985648759
 21
817.403415746121
 31
0.0
  0
LINE
  5
D7
330
C3
100
AcDbEntity
  8
SUNPOU
100
AcDbLine
 10
964.9999856487557
 20
697.4034157461247
 30
0.0
 11
1979.999985648759
 21
697.403415746121
 31
0.0
  0
LINE
  5
D8
330
C3
100
AcDbEntity
  8
SUNPOU
100
AcDbLine
 10
964.9999856487557
 20
577.4034157461247
 30
0.0
 11
1979.999985648759
 21
577.403415746121
 31
0.0
  0
LINE
  5
D9
330
C3
100
AcDbEntity
  8
SUNPOU
100
AcDbLine
 10
964.9999856487557
 20
937.4034157461247
 30
0.0
 11
1486.999985648752
 21
937.403415746121
 31
0.0
  0
LINE
  5
DA
330
C3
100
AcDbEntity
  8
SUNPOU
100
AcDbLine
 10
964.9999856487557
 20
1057.403415746125
 30
0.0
 11
1486.999985648752
 21
1057.403415746119
 31
0.0
  0
LINE
  5
DB
330
C3
100
AcDbEntity
  8
SUNPOU
100
AcDbLine
 10
964.9999856487557
 20
1177.403415746125
 30
0.0
 11
1486.999985648752
 21
1177.403415746117
 31
0.0
  0
LINE
  5
DC
330
C3
100
AcDbEntity
  8
SUNPOU
100
AcDbLine
 10
964.9999856487557
 20
1297.403415746125
 30
0.0
 11
1486.999985648752
 21
1297.403415746121
 31
0.0
  0
LINE
  5
DD
330
C3
100
AcDbEntity
  8
SUNPOU
100
AcDbLine
 10
964.9999856487557
 20
1417.403415746125
 30
0.0
 11
1486.999985648752
 21
1417.403415746119
 31
0.0
  0
LINE
  5
DE
330
C3
100
AcDbEntity
  8
SUNPOU
100
AcDbLine
 10
964.9999856487557
 20
1537.403415746125
 30
0.0
 11
1486.999985648752
 21
1537.403415746121
 31
0.0
  0
LINE
  5
DF
330
C3
100
AcDbEntity
  8
SUNPOU
100
AcDbLine
 10
964.9999856487557
 20
2017.403415746125
 30
0.0
 11
1979.999985648759
 21
2017.403415746121
 31
0.0
  0
LINE
  5
E0
330
C3
100
AcDbEntity
  8
SUNPOU
100
AcDbLine
 10
964.9999856487557
 20
2137.403415746125
 30
0.0
 11
1979.999985648759
 21
2137.403415746121
 31
0.0
  0
LINE
  5
E1
330
C3
100
AcDbEntity
  8
SUNPOU
100
AcDbLine
 10
964.9999856487557
 20
2257.403415746125
 30
0.0
 11
1979.999985648759
 21
2257.403415746121
 31
0.0
  0
LINE
  5
E2
330
C3
100
AcDbEntity
  8
SUNPOU
100
AcDbLine
 10
964.9999856487557
 20
2362.403415746125
 30
0.0
 11
1979.999985648759
 21
2362.403415746121
 31
0.0
  0
TEXT
  5
E3
330
C3
100
AcDbEntity
  8
HAIKIN
 62
     3
100
AcDbText
 10
1009.999985648752
 20
4617.403415746125
 30
0.0
 40
240.0
  1
頂　版
 72
     1
 11
1409.999985648752
 21
4617.403415746125
 31
0.0
100
AcDbText
  0
TEXT
  5
E4
330
C3
100
AcDbEntity
  8
SUNPOU
100
AcDbText
 10
1019.999985648756
 20
4105.403415746121
 30
0.0
 40
210.0
  1
外　側
 11
1019.999985648756
 21
4077.403415746121
 31
0.0
100
AcDbText
 73
     1
  0
LINE
  5
E5
330
C3
100
AcDbEntity
  8
SUNPOU
100
AcDbLine
 10
1019.999985648752
 20
317.4034157461247
 30
0.0
 11
1979.999985648759
 21
317.403415746121
 31
0.0
  0
LINE
  5
E6
330
C3
100
AcDbEntity
  8
SUNPOU
100
AcDbLine
 10
929.999985648752
 20
397.403415746121
 30
0.0
 11
1979.999985648759
 21
397.403415746121
 31
0.0
  0
LINE
  5
E7
330
C3
100
AcDbEntity
  8
SUNPOU
100
AcDbLine
 10
929.999985648752
 20
2397.403415746123
 30
0.0
 11
1979.999985648759
 21
2397.403415746121
 31
0.0
  0
LINE
  5
E8
330
C3
100
AcDbEntity
  8
SUNPOU
100
AcDbLine
 10
1019.999985648756
 20
4077.403415746121
 30
0.0
 11
2939.999985648754
 21
4077.403415746121
 31
0.0
  0
LINE
  5
E9
330
C3
100
AcDbEntity
  8
HAIKIN
 62
     3
100
AcDbLine
 10
1889.999985648752
 20
4887.403415746125
 30
0.0
 11
929.999985648752
 21
4887.403415746125
 31
0.0
  0
LINE
  5
EA
330
C3
100
AcDbEntity
  8
HAIKIN
 62
     3
100
AcDbLine
 10
1889.999985648752
 20
4587.403415746125
 30
0.0
 11
929.999985648752
 21
4587.403415746125
 31
0.0
  0
TEXT
  5
EB
330
C3
100
AcDbEntity
  8
SUNPOU
100
AcDbText
 10
762.4999856487557
 20
2907.403415746125
 30
0.0
 40
150.0
  1
D13
 41
0.8
 11
762.4999856487557
 21
2982.403415746125
 31
0.0
100
AcDbText
 73
     2
  0
TEXT
  5
EC
330
C3
100
AcDbEntity
  8
SUNPOU
100
AcDbText
 10
457.4999856487557
 20
2907.403415746125
 30
0.0
 40
150.0
  1
H1
 41
0.8
 72
     4
 11
537.4999856487557
 21
2982.403415746125
 31
0.0
100
AcDbText
  0
CIRCLE
  5
ED
330
C3
100
AcDbEntity
  8
SUNPOU
100
AcDbCircle
 10
537.4999856487557
 20
2982.403415746125
 30
0.0
 40
165.0
  0
TEXT
  5
EE
330
C3
100
AcDbEntity
  8
SUNPOU
100
AcDbText
 10
239.9999856487393
 20
1437.403415746128
 30
0.0
 40
150.0
  1
H2
 50
90.0
 41
0.8
 72
     4
 11
164.9999856487393
 21
1537.403415746128
 31
0.0
100
AcDbText
  0
LINE
  5
EF
330
C3
100
AcDbEntity
  8
SUNPOU
100
AcDbLine
 10
1137.499985648754
 20
727.4034157461247
 30
0.0
 11
1137.499985648756
 21
2817.403415746125
 31
0.0
1001
ACAD
1000
DSTYLE
1002
{
1070
    78
1070
     8
1070
   284
1070
     8
1070
   140
1040
3.0
1070
   145
1040
1.0
1070
    74
1070
     0
1070
   172
1070
     1
1070
    73
1070
     0
1070
    77
1070
     1
1070
    40
1040
60.0
1070
   147
1040
0.8
1070
   287
1070
     5
1070
    42
1040
1.5
1070
    44
1040
0.6
1070
    43
1040
7.0
1070
   271
1070
     0
1070
   177
1070
   256
1070
   176
1070
   256
1070
   141
1040
0.0
1070
   275
1070
     1
1070
    41
1040
1.5
1070
   285
1070
     8
1070
   286
1070
     8
1002
}
  0
LINE
  5
F0
330
C3
100
AcDbEntity
  8
SUNPOU
100
AcDbLine
 10
1044.999985648752
 20
2362.403415746125
 30
0.0
 11
1044.999985648756
 21
457.4034157461265
 31
0.0
  0
LINE
  5
F1
330
C3
100
AcDbEntity
  8
SUNPOU
100
AcDbLine
 10
1229.999985648759
 20
2362.403415746123
 30
0.0
 11
1229.999985648763
 21
457.4034157461228
 31
0.0
  0
LINE
  5
F2
330
C3
100
AcDbEntity
  8
SUNPOU
100
AcDbLine
 10
329.9999856487393
 20
2137.403415746126
 30
0.0
 11
329.9999856487393
 21
1357.403415746128
 31
0.0
1001
ACAD
1000
DSTYLE
1002
{
1070
    78
1070
     8
1070
   284
1070
     8
1070
   140
1040
3.0
1070
   145
1040
1.0
1070
    74
1070
     0
1070
   172
1070
     1
1070
    73
1070
     0
1070
    77
1070
     1
1070
    40
1040
60.0
1070
   147
1040
0.8
1070
   287
1070
     5
1070
    42
1040
1.5
1070
    44
1040
0.6
1070
    43
1040
7.0
1070
   271
1070
     0
1070
   177
1070
   256
1070
   176
1070
   256
1070
   141
1040
0.0
1070
   275
1070
     1
1070
    41
1040
1.5
1070
   285
1070
     8
1070
   286
1070
     8
1002
}
  0
CIRCLE
  5
F3
330
C3
100
AcDbEntity
  8
SUNPOU
100
AcDbCircle
 10
164.9999856487393
 20
1537.403415746128
 30
0.0
 40
165.0
  0
LINE
  5
F4
330
C3
100
AcDbEntity
  8
SUNPOU
100
AcDbLine
 10
929.999985648752
 20
2397.403415746126
 30
0.0
 11
929.999985648752
 21
397.4034157461247
 31
0.0
  0
LINE
  5
F5
330
C3
100
AcDbEntity
  8
SUNPOU
100
AcDbLine
 10
999.999985648752
 20
397.4034157461247
 30
0.0
 11
1019.999985648752
 21
317.4034157461301
 31
0.0
  0
SOLID
  5
F6
330
C3
100
AcDbEntity
  8
SUNPOU
100
AcDbTrace
 10
1152.499985648758
 20
937.4034157461138
 30
0.0
 11
1137.499985648758
 21
847.4034157461138
 31
0.0
 12
1122.499985648756
 22
937.4034157461138
 32
0.0
 13
1122.499985648756
 23
937.4034157461138
 33
0.0
1001
ACAD
1000
DSTYLE
1002
{
1070
    78
1070
     8
1070
   284
1070
     8
1070
   140
1040
3.0
1070
   145
1040
1.0
1070
    74
1070
     0
1070
   172
1070
     1
1070
    73
1070
     0
1070
    77
1070
     1
1070
    40
1040
60.0
1070
   147
1040
0.8
1070
   287
1070
     5
1070
    42
1040
1.5
1070
    44
1040
0.6
1070
    43
1040
7.0
1070
   271
1070
     0
1070
   177
1070
   256
1070
   176
1070
   256
1070
   141
1040
0.0
1070
   275
1070
     1
1070
    41
1040
1.5
1070
   285
1070
     8
1070
   286
1070
     8
1002
}
  0
SOLID
  5
F7
330
C3
100
AcDbEntity
  8
SUNPOU
100
AcDbTrace
 10
1152.499985648758
 20
817.4034157461356
 30
0.0
 11
1137.499985648758
 21
727.4034157461356
 31
0.0
 12
1122.499985648756
 22
817.4034157461356
 32
0.0
 13
1122.499985648756
 23
817.4034157461356
 33
0.0
1001
ACAD
1000
DSTYLE
1002
{
1070
    78
1070
     8
1070
   284
1070
     8
1070
   140
1040
3.0
1070
   145
1040
1.0
1070
    74
1070
     0
1070
   172
1070
     1
1070
    73
1070
     0
1070
    77
1070
     1
1070
    40
1040
60.0
1070
   147
1040
0.8
1070
   287
1070
     5
1070
    42
1040
1.5
1070
    44
1040
0.6
1070
    43
1040
7.0
1070
   271
1070
     0
1070
   177
1070
   256
1070
   176
1070
   256
1070
   141
1040
0.0
1070
   275
1070
     1
1070
    41
1040
1.5
1070
   285
1070
     8
1070
   286
1070
     8
1002
}
  0
SOLID
  5
F8
330
C3
100
AcDbEntity
  8
SUNPOU
100
AcDbTrace
 10
1152.499985648754
 20
877.4034157461301
 30
0.0
 11
1137.499985648754
 21
787.4034157461301
 31
0.0
 12
1122.499985648752
 22
877.4034157461301
 32
0.0
 13
1122.499985648752
 23
877.4034157461301
 33
0.0
1001
ACAD
1000
DSTYLE
1002
{
1070
    78
1070
     8
1070
   284
1070
     8
1070
   140
1040
3.0
1070
   145
1040
1.0
1070
    74
1070
     0
1070
   172
1070
     1
1070
    73
1070
     0
1070
    77
1070
     1
1070
    40
1040
60.0
1070
   147
1040
0.8
1070
   287
1070
     5
1070
    42
1040
1.5
1070
    44
1040
0.6
1070
    43
1040
7.0
1070
   271
1070
     0
1070
   177
1070
   256
1070
   176
1070
   256
1070
   141
1040
0.0
1070
   275
1070
     1
1070
    41
1040
1.5
1070
   285
1070
     8
1070
   286
1070
     8
1002
}
  0
TEXT
  5
F9
330
C3
100
AcDbEntity
  8
SUNPOU
100
AcDbText
 10
239.9999856487393
 20
1762.40341574613
 30
0.0
 40
150.0
  1
D13
 50
90.0
 41
0.8
 11
164.9999856487393
 21
1762.40341574613
 31
0.0
100
AcDbText
 73
     2
  0
SOLID
  5
FA
330
C3
100
AcDbEntity
  8
SUNPOU
100
AcDbTrace
 10
1152.499985648756
 20
2022.403415746117
 30
0.0
 11
1137.499985648756
 21
1932.403415746117
 31
0.0
 12
1122.499985648756
 22
2022.403415746117
 32
0.0
 13
1122.499985648756
 23
2022.403415746117
 33
0.0
1001
ACAD
1000
DSTYLE
1002
{
1070
    78
1070
     8
1070
   284
1070
     8
1070
   140
1040
3.0
1070
   145
1040
1.0
1070
    74
1070
     0
1070
   172
1070
     1
1070
    73
1070
     0
1070
    77
1070
     1
1070
    40
1040
60.0
1070
   147
1040
0.8
1070
   287
1070
     5
1070
    42
1040
1.5
1070
    44
1040
0.6
1070
    43
1040
7.0
1070
   271
1070
     0
1070
   177
1070
   256
1070
   176
1070
   256
1070
   141
1040
0.0
1070
   275
1070
     1
1070
    41
1040
1.5
1070
   285
1070
     8
1070
   286
1070
     8
1002
}
  0
SOLID
  5
FB
330
C3
100
AcDbEntity
  8
SUNPOU
100
AcDbTrace
 10
1152.499985648756
 20
2082.403415746117
 30
0.0
 11
1137.499985648756
 21
1992.403415746117
 31
0.0
 12
1122.499985648756
 22
2082.403415746117
 32
0.0
 13
1122.499985648756
 23
2082.403415746117
 33
0.0
1001
ACAD
1000
DSTYLE
1002
{
1070
    78
1070
     8
1070
   284
1070
     8
1070
   140
1040
3.0
1070
   145
1040
1.0
1070
    74
1070
     0
1070
   172
1070
     1
1070
    73
1070
     0
1070
    77
1070
     1
1070
    40
1040
60.0
1070
   147
1040
0.8
1070
   287
1070
     5
1070
    42
1040
1.5
1070
    44
1040
0.6
1070
    43
1040
7.0
1070
   271
1070
     0
1070
   177
1070
   256
1070
   176
1070
   256
1070
   141
1040
0.0
1070
   275
1070
     1
1070
    41
1040
1.5
1070
   285
1070
     8
1070
   286
1070
     8
1002
}
  0
SOLID
  5
FC
330
C3
100
AcDbEntity
  8
SUNPOU
100
AcDbTrace
 10
1152.499985648756
 20
2142.403415746119
 30
0.0
 11
1137.499985648756
 21
2052.403415746119
 31
0.0
 12
1122.499985648756
 22
2142.403415746119
 32
0.0
 13
1122.499985648756
 23
2142.403415746119
 33
0.0
1001
ACAD
1000
DSTYLE
1002
{
1070
    78
1070
     8
1070
   284
1070
     8
1070
   140
1040
3.0
1070
   145
1040
1.0
1070
    74
1070
     0
1070
   172
1070
     1
1070
    73
1070
     0
1070
    77
1070
     1
1070
    40
1040
60.0
1070
   147
1040
0.8
1070
   287
1070
     5
1070
    42
1040
1.5
1070
    44
1040
0.6
1070
    43
1040
7.0
1070
   271
1070
     0
1070
   177
1070
   256
1070
   176
1070
   256
1070
   141
1040
0.0
1070
   275
1070
     1
1070
    41
1040
1.5
1070
   285
1070
     8
1070
   286
1070
     8
1002
}
  0
LINE
  5
FD
330
C3
100
AcDbEntity
  8
SUNPOU
100
AcDbLine
 10
1137.499985648756
 20
2817.403415746125
 30
0.0
 11
357.4999856487557
 21
2817.403415746125
 31
0.0
1001
ACAD
1000
DSTYLE
1002
{
1070
    78
1070
     8
1070
   284
1070
     8
1070
   140
1040
3.0
1070
   145
1040
1.0
1070
    74
1070
     0
1070
   172
1070
     1
1070
    73
1070
     0
1070
    77
1070
     1
1070
    40
1040
60.0
1070
   147
1040
0.8
1070
   287
1070
     5
1070
    42
1040
1.5
1070
    44
1040
0.6
1070
    43
1040
7.0
1070
   271
1070
     0
1070
   177
1070
   256
1070
   176
1070
   256
1070
   141
1040
0.0
1070
   275
1070
     1
1070
    41
1040
1.5
1070
   285
1070
     8
1070
   286
1070
     8
1002
}
  0
TEXT
  5
FE
330
C3
100
AcDbEntity
  8
SUNPOU
100
AcDbText
 10
979.9999856487611
 20
3317.403415746123
 30
0.0
 40
150.0
  1
H3
 41
0.8
 72
     4
 11
1079.999985648761
 21
3392.403415746123
 31
0.0
100
AcDbText
  0
CIRCLE
  5
FF
330
C3
100
AcDbEntity
  8
SUNPOU
100
AcDbCircle
 10
1079.999985648761
 20
3392.403415746123
 30
0.0
 40
165.0
  0
LINE
  5
100
330
C3
100
AcDbEntity
  8
HAIKIN
 62
     3
100
AcDbLine
 10
929.999985648752
 20
4587.403415746125
 30
0.0
 11
929.999985648752
 21
4887.403415746125
 31
0.0
  0
TEXT
  5
101
330
C3
100
AcDbEntity
  8
SUNPOU
100
AcDbText
 10
3194.999985648759
 20
2907.403415746125
 30
0.0
 40
150.0
  1
D13
 41
0.8
 11
3194.999985648759
 21
2982.403415746125
 31
0.0
100
AcDbText
 73
     2
  0
TEXT
  5
102
330
C3
100
AcDbEntity
  8
SUNPOU
100
AcDbText
 10
2889.999985648759
 20
2907.403415746125
 30
0.0
 40
150.0
  1
H1
 41
0.8
 72
     4
 11
2969.999985648759
 21
2982.403415746125
 31
0.0
100
AcDbText
  0
LINE
  5
103
330
C3
100
AcDbEntity
  8
SUNPOU
100
AcDbLine
 10
1679.999985648761
 20
1890.403415746132
 30
0.0
 11
1679.999985648763
 21
3227.403415746123
 31
0.0
1001
ACAD
1000
DSTYLE
1002
{
1070
    78
1070
     8
1070
   284
1070
     8
1070
   140
1040
3.0
1070
   145
1040
1.0
1070
    74
1070
     0
1070
   172
1070
     1
1070
    73
1070
     0
1070
    77
1070
     1
1070
    40
1040
60.0
1070
   147
1040
0.8
1070
   287
1070
     5
1070
    42
1040
1.5
1070
    44
1040
0.6
1070
    43
1040
7.0
1070
   271
1070
     0
1070
   177
1070
   256
1070
   176
1070
   256
1070
   141
1040
0.0
1070
   275
1070
     1
1070
    41
1040
1.5
1070
   285
1070
     8
1070
   286
1070
     8
1002
}
  0
LINE
  5
104
330
C3
100
AcDbEntity
  8
SUNPOU
100
AcDbLine
 10
2279.999985648761
 20
1827.403415746126
 30
0.0
 11
2279.999985648759
 21
3227.403415746123
 31
0.0
1001
ACAD
1000
DSTYLE
1002
{
1070
    78
1070
     8
1070
   284
1070
     8
1070
   140
1040
3.0
1070
   145
1040
1.0
1070
    74
1070
     0
1070
   172
1070
     1
1070
    73
1070
     0
1070
    77
1070
     1
1070
    40
1040
60.0
1070
   147
1040
0.8
1070
   287
1070
     5
1070
    42
1040
1.5
1070
    44
1040
0.6
1070
    43
1040
7.0
1070
   271
1070
     0
1070
   177
1070
   256
1070
   176
1070
   256
1070
   141
1040
0.0
1070
   275
1070
     1
1070
    41
1040
1.5
1070
   285
1070
     8
1070
   286
1070
     8
1002
}
  0
CIRCLE
  5
105
330
C3
100
AcDbEntity
  8
SUNPOU
100
AcDbCircle
 10
2969.999985648759
 20
2982.403415746125
 30
0.0
 40
165.0
  0
LINE
  5
106
330
C3
100
AcDbEntity
  8
1HASEN
100
AcDbLine
 10
1979.999985648754
 20
4077.403415746121
 30
0.0
 11
1979.999985648759
 21
17.40341574611921
 31
0.0
  0
TEXT
  5
107
330
C3
100
AcDbEntity
  8
SUNPOU
100
AcDbText
 10
3359.999985648745
 20
1762.403415746126
 30
0.0
 40
150.0
  1
D13
 50
90.0
 41
0.8
 11
3284.999985648745
 21
1762.403415746126
 31
0.0
100
AcDbText
 73
     2
  0
TEXT
  5
108
330
C3
100
AcDbEntity
  8
SUNPOU
100
AcDbText
 10
3359.999985648745
 20
1437.403415746125
 30
0.0
 40
150.0
  1
H2
 50
90.0
 41
0.8
 72
     4
 11
3284.999985648745
 21
1537.403415746125
 31
0.0
100
AcDbText
  0
LINE
  5
109
330
C3
100
AcDbEntity
  8
SUNPOU
100
AcDbLine
 10
2789.999985648759
 20
2817.403415746125
 30
0.0
 11
3569.999985648759
 21
2817.403415746125
 31
0.0
1001
ACAD
1000
DSTYLE
1002
{
1070
    78
1070
     8
1070
   284
1070
     8
1070
   140
1040
3.0
1070
   145
1040
1.0
1070
    74
1070
     0
1070
   172
1070
     1
1070
    73
1070
     0
1070
    77
1070
     1
1070
    40
1040
60.0
1070
   147
1040
0.8
1070
   287
1070
     5
1070
    42
1040
1.5
1070
    44
1040
0.6
1070
    43
1040
7.0
1070
   271
1070
     0
1070
   177
1070
   256
1070
   176
1070
   256
1070
   141
1040
0.0
1070
   275
1070
     1
1070
    41
1040
1.5
1070
   285
1070
     8
1070
   286
1070
     8
1002
}
  0
LINE
  5
10A
330
C3
100
AcDbEntity
  8
SUNPOU
100
AcDbLine
 10
2429.999985648759
 20
1357.403415746125
 30
0.0
 11
3449.999985648745
 21
1357.403415746123
 31
0.0
1001
ACAD
1000
DSTYLE
1002
{
1070
    78
1070
     8
1070
   284
1070
     8
1070
   140
1040
3.0
1070
   145
1040
1.0
1070
    74
1070
     0
1070
   172
1070
     1
1070
    73
1070
     0
1070
    77
1070
     1
1070
    40
1040
60.0
1070
   147
1040
0.8
1070
   287
1070
     5
1070
    42
1040
1.5
1070
    44
1040
0.6
1070
    43
1040
7.0
1070
   271
1070
     0
1070
   177
1070
   256
1070
   176
1070
   256
1070
   141
1040
0.0
1070
   275
1070
     1
1070
    41
1040
1.5
1070
   285
1070
     8
1070
   286
1070
     8
1002
}
  0
CIRCLE
  5
10B
330
C3
100
AcDbEntity
  8
SUNPOU
100
AcDbCircle
 10
3284.999985648745
 20
1537.403415746125
 30
0.0
 40
165.0
  0
LINE
  5
10C
330
C3
100
AcDbEntity
  8
HAIKIN
100
AcDbLine
 10
1486.99998564875
 20
939.4034157461192
 30
0.0
 11
1486.99998564875
 21
1855.403415746132
 31
0.0
  0
LINE
  5
10D
330
C3
100
AcDbEntity
  8
HAIKIN
100
AcDbLine
 10
2409.999985648758
 20
1792.403415746126
 30
0.0
 11
2409.999985648759
 21
1002.403415746126
 31
0.0
  0
LINE
  5
10E
330
C3
100
AcDbEntity
  8
SUNPOU
100
AcDbLine
 10
2789.999985648759
 20
787.4034157461319
 30
0.0
 11
2789.999985648759
 21
2817.403415746125
 31
0.0
1001
ACAD
1000
DSTYLE
1002
{
1070
    78
1070
     8
1070
   284
1070
     8
1070
   140
1040
3.0
1070
   145
1040
1.0
1070
    74
1070
     0
1070
   172
1070
     1
1070
    73
1070
     0
1070
    77
1070
     1
1070
    40
1040
60.0
1070
   147
1040
0.8
1070
   287
1070
     5
1070
    42
1040
1.5
1070
    44
1040
0.6
1070
    43
1040
7.0
1070
   271
1070
     0
1070
   177
1070
   256
1070
   176
1070
   256
1070
   141
1040
0.0
1070
   275
1070
     1
1070
    41
1040
1.5
1070
   285
1070
     8
1070
   286
1070
     8
1002
}
  0
LINE
  5
10F
330
C3
100
AcDbEntity
  8
HAIKIN
100
AcDbLine
 10
2469.999985648758
 20
352.4034157461247
 30
0.0
 11
2469.999985648758
 21
2257.403415746121
 31
0.0
  0
LINE
  5
110
330
C3
100
AcDbEntity
  8
HAIKIN
100
AcDbLine
 10
2529.999985648759
 20
352.4034157461247
 30
0.0
 11
2529.999985648759
 21
2257.403415746121
 31
0.0
  0
LINE
  5
111
330
C3
100
AcDbEntity
  8
HAIKIN
100
AcDbLine
 10
2589.999985648761
 20
352.4034157461247
 30
0.0
 11
2589.999985648758
 21
2257.403415746121
 31
0.0
  0
LINE
  5
112
330
C3
100
AcDbEntity
  8
HAIKIN
100
AcDbLine
 10
1426.999985648754
 20
457.4034157461228
 30
0.0
 11
1426.999985648752
 21
2362.403415746123
 31
0.0
  0
LINE
  5
113
330
C3
100
AcDbEntity
  8
HAIKIN
100
AcDbLine
 10
1366.999985648756
 20
457.4034157461228
 30
0.0
 11
1366.999985648748
 21
2362.403415746123
 31
0.0
  0
LINE
  5
114
330
C3
100
AcDbEntity
  8
HAIKIN
100
AcDbLine
 10
1306.999985648754
 20
457.4034157461228
 30
0.0
 11
1306.999985648748
 21
2362.403415746123
 31
0.0
  0
LINE
  5
115
330
C3
100
AcDbEntity
  8
SUNPOU
100
AcDbLine
 10
2914.99998564875
 20
2257.403415746121
 30
0.0
 11
2914.99998564875
 21
352.4034157461265
 31
0.0
  0
LINE
  5
116
330
C3
100
AcDbEntity
  8
SUNPOU
100
AcDbLine
 10
2729.999985648759
 20
2257.403415746121
 30
0.0
 11
2729.999985648759
 21
352.4034157461228
 31
0.0
  0
LINE
  5
117
330
C3
100
AcDbEntity
  8
SUNPOU
100
AcDbLine
 10
2429.999985648759
 20
2257.403415746121
 30
0.0
 11
2429.999985648758
 21
352.403415746121
 31
0.0
  0
LINE
  5
118
330
C3
100
AcDbEntity
  8
SUNPOU
100
AcDbLine
 10
2379.999985648758
 20
1797.403415746126
 30
0.0
 11
2379.999985648758
 21
997.4034157461265
 31
0.0
  0
LINE
  5
119
330
C3
100
AcDbEntity
  8
SUNPOU
100
AcDbLine
 10
3029.99998564875
 20
2397.403415746121
 30
0.0
 11
3029.99998564875
 21
397.403415746121
 31
0.0
  0
LINE
  5
11A
330
C3
100
AcDbEntity
  8
SUNPOU
100
AcDbLine
 10
1516.999985648752
 20
934.403415746121
 30
0.0
 11
1516.999985648752
 21
1860.403415746126
 31
0.0
  0
LINE
  5
11B
330
C3
100
AcDbEntity
  8
SUNPOU
100
AcDbLine
 10
1579.999985648756
 20
1797.403415746126
 30
0.0
 11
1579.999985648758
 21
997.4034157461265
 31
0.0
  0
LINE
  5
11C
330
C3
100
AcDbEntity
  8
HAIKIN
100
AcDbLine
 10
2374.999985648759
 20
967.4034157461265
 30
0.0
 11
1979.999985648752
 21
967.4034157461265
 31
0.0
  0
LINE
  5
11D
330
C3
100
AcDbEntity
  8
HAIKIN
100
AcDbLine
 10
2994.999985648774
 20
787.4034157461319
 30
0.0
 11
1979.999985648759
 21
787.4034157461283
 31
0.0
  0
LINE
  5
11E
330
C3
100
AcDbEntity
  8
HAIKIN
100
AcDbLine
 10
2994.999985648774
 20
847.4034157461319
 30
0.0
 11
1979.999985648758
 21
847.4034157461283
 31
0.0
  0
LINE
  5
11F
330
C3
100
AcDbEntity
  8
HAIKIN
100
AcDbLine
 10
2994.999985648774
 20
907.4034157461319
 30
0.0
 11
1979.999985648759
 21
907.4034157461283
 31
0.0
  0
LINE
  5
120
330
C3
100
AcDbEntity
  8
SUNPOU
100
AcDbLine
 10
2914.99998564875
 20
352.4034157461265
 30
0.0
 11
1979.999985648759
 21
352.403415746121
 31
0.0
  0
LINE
  5
121
330
C3
100
AcDbEntity
  8
SUNPOU
100
AcDbLine
 10
2994.999985648774
 20
457.4034157461247
 30
0.0
 11
1979.999985648759
 21
457.403415746121
 31
0.0
  0
LINE
  5
122
330
C3
100
AcDbEntity
  8
SUNPOU
100
AcDbLine
 10
2994.999985648774
 20
937.4034157461247
 30
0.0
 11
1979.999985648759
 21
937.403415746121
 31
0.0
  0
LINE
  5
123
330
C3
100
AcDbEntity
  8
SUNPOU
100
AcDbLine
 10
2994.999985648774
 20
817.4034157461247
 30
0.0
 11
1979.999985648759
 21
817.403415746121
 31
0.0
  0
LINE
  5
124
330
C3
100
AcDbEntity
  8
SUNPOU
100
AcDbLine
 10
2994.999985648774
 20
697.4034157461247
 30
0.0
 11
1979.999985648759
 21
697.403415746121
 31
0.0
  0
LINE
  5
125
330
C3
100
AcDbEntity
  8
SUNPOU
100
AcDbLine
 10
2994.999985648774
 20
577.4034157461247
 30
0.0
 11
1979.999985648759
 21
577.403415746121
 31
0.0
  0
LINE
  5
126
330
C3
100
AcDbEntity
  8
SUNPOU
100
AcDbLine
 10
2939.99998564875
 20
317.4034157461247
 30
0.0
 11
1963.628976814191
 21
317.403415746121
 31
0.0
  0
LINE
  5
127
330
C3
100
AcDbEntity
  8
1HASEN
100
AcDbLine
 10
1379.999985648756
 20
1397.403415746126
 30
0.0
 11
2579.999985648758
 21
1397.403415746126
 31
0.0
  0
LINE
  5
128
330
C3
100
AcDbEntity
  8
SUNPOU
100
AcDbLine
 10
2379.999985648758
 20
997.4034157461265
 30
0.0
 11
1579.999985648758
 21
997.4034157461265
 31
0.0
  0
ARC
  5
129
330
C3
100
AcDbEntity
  8
HAIKIN
100
AcDbCircle
 10
1521.99998564875
 20
939.4034157461192
 30
0.0
 40
35.0
100
AcDbArc
 50
180.0
 51
270.0
  0
LINE
  5
12A
330
C3
100
AcDbEntity
  8
SUNPOU
100
AcDbLine
 10
2129.999985648758
 20
967.4034157461283
 30
0.0
 11
2129.999985648759
 21
352.4034157461192
 31
0.0
  0
LINE
  5
12B
330
C3
100
AcDbEntity
  8
HAIKIN
100
AcDbLine
 10
1521.99998564875
 20
904.4034157461192
 30
0.0
 11
1979.999985648758
 21
904.4034157461228
 31
0.0
  0
LINE
  5
12C
330
C3
100
AcDbEntity
  8
SUNPOU
100
AcDbLine
 10
1516.999985648752
 20
934.403415746121
 30
0.0
 11
1979.999985648758
 21
934.4034157461228
 31
0.0
  0
LINE
  5
12D
330
C3
100
AcDbEntity
  8
SUNPOU
100
AcDbLine
 10
1529.999985648765
 20
904.403415746121
 30
0.0
 11
1529.999985648767
 21
457.4034157461247
 31
0.0
  0
LINE
  5
12E
330
C3
100
AcDbEntity
  8
SUNPOU
100
AcDbLine
 10
1829.999985648759
 20
904.4034157461228
 30
0.0
 11
1829.999985648759
 21
457.4034157461192
 31
0.0
  0
SOLID
  5
12F
330
C3
100
AcDbEntity
  8
SUNPOU
100
AcDbTrace
 10
1276.999985648759
 20
1372.403415746128
 30
0.0
 11
1366.999985648759
 21
1357.403415746128
 31
0.0
 12
1276.999985648759
 22
1342.403415746128
 32
0.0
 13
1276.999985648759
 23
1342.403415746128
 33
0.0
1001
ACAD
1000
DSTYLE
1002
{
1070
    78
1070
     8
1070
   284
1070
     8
1070
   140
1040
3.0
1070
   145
1040
1.0
1070
    74
1070
     0
1070
   172
1070
     1
1070
    73
1070
     0
1070
    77
1070
     1
1070
    40
1040
60.0
1070
   147
1040
0.8
1070
   287
1070
     5
1070
    42
1040
1.5
1070
    44
1040
0.6
1070
    43
1040
7.0
1070
   271
1070
     0
1070
   177
1070
   256
1070
   176
1070
   256
1070
   141
1040
0.0
1070
   275
1070
     1
1070
    41
1040
1.5
1070
   285
1070
     8
1070
   286
1070
     8
1002
}
  0
SOLID
  5
130
330
C3
100
AcDbEntity
  8
SUNPOU
100
AcDbTrace
 10
1336.99998564877
 20
1372.403415746125
 30
0.0
 11
1426.99998564877
 21
1357.403415746123
 31
0.0
 12
1336.99998564877
 22
1342.403415746125
 32
0.0
 13
1336.99998564877
 23
1342.403415746125
 33
0.0
1001
ACAD
1000
DSTYLE
1002
{
1070
    78
1070
     8
1070
   284
1070
     8
1070
   140
1040
3.0
1070
   145
1040
1.0
1070
    74
1070
     0
1070
   172
1070
     1
1070
    73
1070
     0
1070
    77
1070
     1
1070
    40
1040
60.0
1070
   147
1040
0.8
1070
   287
1070
     5
1070
    42
1040
1.5
1070
    44
1040
0.6
1070
    43
1040
7.0
1070
   271
1070
     0
1070
   177
1070
   256
1070
   176
1070
   256
1070
   141
1040
0.0
1070
   275
1070
     1
1070
    41
1040
1.5
1070
   285
1070
     8
1070
   286
1070
     8
1002
}
  0
SOLID
  5
131
330
C3
100
AcDbEntity
  8
SUNPOU
100
AcDbTrace
 10
2804.999985648759
 20
997.4034157461319
 30
0.0
 11
2789.999985648759
 21
907.4034157461319
 31
0.0
 12
2774.999985648759
 22
997.4034157461319
 32
0.0
 13
2774.999985648759
 23
997.4034157461319
 33
0.0
1001
ACAD
1000
DSTYLE
1002
{
1070
    78
1070
     8
1070
   284
1070
     8
1070
   140
1040
3.0
1070
   145
1040
1.0
1070
    74
1070
     0
1070
   172
1070
     1
1070
    73
1070
     0
1070
    77
1070
     1
1070
    40
1040
60.0
1070
   147
1040
0.8
1070
   287
1070
     5
1070
    42
1040
1.5
1070
    44
1040
0.6
1070
    43
1040
7.0
1070
   271
1070
     0
1070
   177
1070
   256
1070
   176
1070
   256
1070
   141
1040
0.0
1070
   275
1070
     1
1070
    41
1040
1.5
1070
   285
1070
     8
1070
   286
1070
     8
1002
}
  0
LINE
  5
132
330
C3
100
AcDbEntity
  8
HASEN
100
AcDbLine
 10
2994.999985648772
 20
715.4034157461156
 30
0.0
 11
2644.497460331817
 21
715.4034157461119
 31
0.0
  0
LINE
  5
133
330
C3
100
AcDbEntity
  8
HASEN
100
AcDbLine
 10
2994.999985648772
 20
475.4034157461156
 30
0.0
 11
2644.497460331817
 21
475.4034157461119
 31
0.0
  0
LINE
  5
134
330
C3
100
AcDbEntity
  8
SUNPOU
100
AcDbLine
 10
3029.99998564875
 20
397.403415746121
 30
0.0
 11
2959.999985648748
 21
397.403415746121
 31
0.0
  0
LINE
  5
135
330
C3
100
AcDbEntity
  8
SUNPOU
100
AcDbLine
 10
2959.999985648748
 20
397.403415746121
 30
0.0
 11
2939.999985648748
 21
317.4034157461228
 31
0.0
  0
SOLID
  5
136
330
C3
100
AcDbEntity
  8
SUNPOU
100
AcDbTrace
 10
2804.999985648759
 20
937.4034157461319
 30
0.0
 11
2789.999985648759
 21
847.4034157461319
 31
0.0
 12
2774.999985648759
 22
937.4034157461319
 32
0.0
 13
2774.999985648759
 23
937.4034157461319
 33
0.0
1001
ACAD
1000
DSTYLE
1002
{
1070
    78
1070
     8
1070
   284
1070
     8
1070
   140
1040
3.0
1070
   145
1040
1.0
1070
    74
1070
     0
1070
   172
1070
     1
1070
    73
1070
     0
1070
    77
1070
     1
1070
    40
1040
60.0
1070
   147
1040
0.8
1070
   287
1070
     5
1070
    42
1040
1.5
1070
    44
1040
0.6
1070
    43
1040
7.0
1070
   271
1070
     0
1070
   177
1070
   256
1070
   176
1070
   256
1070
   141
1040
0.0
1070
   275
1070
     1
1070
    41
1040
1.5
1070
   285
1070
     8
1070
   286
1070
     8
1002
}
  0
SOLID
  5
137
330
C3
100
AcDbEntity
  8
SUNPOU
100
AcDbTrace
 10
2804.999985648759
 20
877.4034157461319
 30
0.0
 11
2789.999985648759
 21
787.4034157461319
 31
0.0
 12
2774.999985648759
 22
877.4034157461319
 32
0.0
 13
2774.999985648759
 23
877.4034157461319
 33
0.0
1001
ACAD
1000
DSTYLE
1002
{
1070
    78
1070
     8
1070
   284
1070
     8
1070
   140
1040
3.0
1070
   145
1040
1.0
1070
    74
1070
     0
1070
   172
1070
     1
1070
    73
1070
     0
1070
    77
1070
     1
1070
    40
1040
60.0
1070
   147
1040
0.8
1070
   287
1070
     5
1070
    42
1040
1.5
1070
    44
1040
0.6
1070
    43
1040
7.0
1070
   271
1070
     0
1070
   177
1070
   256
1070
   176
1070
   256
1070
   141
1040
0.0
1070
   275
1070
     1
1070
    41
1040
1.5
1070
   285
1070
     8
1070
   286
1070
     8
1002
}
  0
LINE
  5
138
330
C3
100
AcDbEntity
  8
SUNPOU
100
AcDbLine
 10
2994.999985648774
 20
1537.403415746125
 30
0.0
 11
2409.999985648759
 21
1537.403415746121
 31
0.0
  0
LINE
  5
139
330
C3
100
AcDbEntity
  8
SUNPOU
100
AcDbLine
 10
2994.999985648774
 20
1417.403415746125
 30
0.0
 11
2409.999985648759
 21
1417.403415746121
 31
0.0
  0
LINE
  5
13A
330
C3
100
AcDbEntity
  8
SUNPOU
100
AcDbLine
 10
2994.999985648774
 20
1297.403415746125
 30
0.0
 11
2409.999985648759
 21
1297.403415746125
 31
0.0
  0
LINE
  5
13B
330
C3
100
AcDbEntity
  8
SUNPOU
100
AcDbLine
 10
2994.999985648774
 20
1177.403415746125
 30
0.0
 11
2409.999985648759
 21
1177.403415746121
 31
0.0
  0
LINE
  5
13C
330
C3
100
AcDbEntity
  8
SUNPOU
100
AcDbLine
 10
2994.999985648774
 20
1057.403415746125
 30
0.0
 11
2409.999985648759
 21
1057.403415746121
 31
0.0
  0
LINE
  5
13D
330
C3
100
AcDbEntity
  8
HASEN
100
AcDbLine
 10
2994.999985648772
 20
955.4034157461156
 30
0.0
 11
2644.497460331817
 21
955.4034157461119
 31
0.0
  0
LINE
  5
13E
330
C3
100
AcDbEntity
  8
HASEN
100
AcDbLine
 10
2994.999985648772
 20
1195.403415746116
 30
0.0
 11
2644.497460331817
 21
1195.403415746112
 31
0.0
  0
LINE
  5
13F
330
C3
100
AcDbEntity
  8
HASEN
100
AcDbLine
 10
2994.999985648772
 20
1435.403415746116
 30
0.0
 11
2644.497460331817
 21
1435.403415746112
 31
0.0
  0
ARC
  5
140
330
C3
100
AcDbEntity
  8
HAIKIN
100
AcDbCircle
 10
2374.999985648759
 20
1002.403415746126
 30
0.0
 40
35.0
100
AcDbArc
 50
270.0
 51
0.0
  0
LINE
  5
141
330
C3
100
AcDbEntity
  8
HAIKIN
100
AcDbLine
 10
2374.999985648758
 20
1827.403415746126
 30
0.0
 11
1979.999985648752
 21
1827.403415746126
 31
0.0
  0
LINE
  5
142
330
C3
100
AcDbEntity
  8
HAIKIN
100
AcDbLine
 10
2994.999985648774
 20
1872.403415746125
 30
0.0
 11
1979.999985648759
 21
1872.403415746121
 31
0.0
  0
LINE
  5
143
330
C3
100
AcDbEntity
  8
HAIKIN
100
AcDbLine
 10
2994.999985648774
 20
1932.403415746125
 30
0.0
 11
1979.999985648758
 21
1932.403415746121
 31
0.0
  0
LINE
  5
144
330
C3
100
AcDbEntity
  8
HAIKIN
100
AcDbLine
 10
2994.999985648774
 20
1992.403415746125
 30
0.0
 11
1979.999985648758
 21
1992.403415746121
 31
0.0
  0
LINE
  5
145
330
C3
100
AcDbEntity
  8
SUNPOU
100
AcDbLine
 10
2994.999985648774
 20
2017.403415746125
 30
0.0
 11
1979.999985648759
 21
2017.403415746121
 31
0.0
  0
LINE
  5
146
330
C3
100
AcDbEntity
  8
SUNPOU
100
AcDbLine
 10
2994.999985648774
 20
2137.403415746125
 30
0.0
 11
1979.999985648759
 21
2137.403415746121
 31
0.0
  0
LINE
  5
147
330
C3
100
AcDbEntity
  8
SUNPOU
100
AcDbLine
 10
2994.999985648774
 20
2257.403415746125
 30
0.0
 11
1979.999985648759
 21
2257.403415746121
 31
0.0
  0
LINE
  5
148
330
C3
100
AcDbEntity
  8
SUNPOU
100
AcDbLine
 10
2994.999985648774
 20
1897.403415746125
 30
0.0
 11
1979.999985648759
 21
1897.403415746121
 31
0.0
  0
LINE
  5
149
330
C3
100
AcDbEntity
  8
SUNPOU
100
AcDbLine
 10
2949.999985648748
 20
2317.403415746123
 30
0.0
 11
1979.999985648759
 21
2317.403415746121
 31
0.0
  0
LINE
  5
14A
330
C3
100
AcDbEntity
  8
SUNPOU
100
AcDbLine
 10
2379.999985648758
 20
1797.403415746126
 30
0.0
 11
1579.999985648756
 21
1797.403415746126
 31
0.0
  0
LINE
  5
14B
330
C3
100
AcDbEntity
  8
SUNPOU
100
AcDbLine
 10
1829.999985648765
 20
2362.403415746123
 30
0.0
 11
1829.999985648759
 21
1890.403415746126
 31
0.0
  0
LINE
  5
14C
330
C3
100
AcDbEntity
  8
SUNPOU
100
AcDbLine
 10
1529.999985648763
 20
2362.403415746125
 30
0.0
 11
1529.999985648763
 21
1890.403415746128
 31
0.0
  0
LINE
  5
14D
330
C3
100
AcDbEntity
  8
HAIKIN
100
AcDbLine
 10
1979.999985648758
 20
1890.403415746128
 30
0.0
 11
1521.99998564875
 21
1890.403415746132
 31
0.0
  0
LINE
  5
14E
330
C3
100
AcDbEntity
  8
SUNPOU
100
AcDbLine
 10
1979.999985648758
 20
1860.403415746128
 30
0.0
 11
1516.999985648752
 21
1860.403415746126
 31
0.0
  0
ARC
  5
14F
330
C3
100
AcDbEntity
  8
HAIKIN
100
AcDbCircle
 10
1521.99998564875
 20
1855.403415746132
 30
0.0
 40
35.0
100
AcDbArc
 50
90.0
 51
180.0
  0
SOLID
  5
150
330
C3
100
AcDbEntity
  8
SUNPOU
100
AcDbTrace
 10
1694.999985648759
 20
1980.403415746141
 30
0.0
 11
1679.999985648759
 21
1890.403415746141
 31
0.0
 12
1664.999985648759
 22
1980.403415746141
 32
0.0
 13
1664.999985648759
 23
1980.403415746141
 33
0.0
1001
ACAD
1000
DSTYLE
1002
{
1070
    78
1070
     8
1070
   284
1070
     8
1070
   140
1040
3.0
1070
   145
1040
1.0
1070
    74
1070
     0
1070
   172
1070
     1
1070
    73
1070
     0
1070
    77
1070
     1
1070
    40
1040
60.0
1070
   147
1040
0.8
1070
   287
1070
     5
1070
    42
1040
1.5
1070
    44
1040
0.6
1070
    43
1040
7.0
1070
   271
1070
     0
1070
   177
1070
   256
1070
   176
1070
   256
1070
   141
1040
0.0
1070
   275
1070
     1
1070
    41
1040
1.5
1070
   285
1070
     8
1070
   286
1070
     8
1002
}
  0
LINE
  5
151
330
C3
100
AcDbEntity
  8
SUNPOU
100
AcDbLine
 10
2129.999985648759
 20
2257.403415746121
 30
0.0
 11
2129.999985648759
 21
1827.40341574613
 31
0.0
  0
LINE
  5
152
330
C3
100
AcDbEntity
  8
SUNPOU
100
AcDbLine
 10
2969.99998564875
 20
2397.403415746121
 30
0.0
 11
2949.99998564875
 21
2317.403415746125
 31
0.0
  0
LINE
  5
153
330
C3
100
AcDbEntity
  8
SUNPOU
100
AcDbLine
 10
2994.999985648774
 20
1777.403415746125
 30
0.0
 11
2409.999985648758
 21
1777.403415746119
 31
0.0
  0
LINE
  5
154
330
C3
100
AcDbEntity
  8
SUNPOU
100
AcDbLine
 10
2994.999985648774
 20
1657.403415746125
 30
0.0
 11
2409.999985648758
 21
1657.403415746121
 31
0.0
  0
LINE
  5
155
330
C3
100
AcDbEntity
  8
HASEN
100
AcDbLine
 10
2994.999985648772
 20
2155.403415746116
 30
0.0
 11
2644.497460331817
 21
2155.403415746112
 31
0.0
  0
LINE
  5
156
330
C3
100
AcDbEntity
  8
HASEN
100
AcDbLine
 10
2994.999985648772
 20
1915.403415746116
 30
0.0
 11
2644.497460331817
 21
1915.403415746112
 31
0.0
  0
LINE
  5
157
330
C3
100
AcDbEntity
  8
HASEN
100
AcDbLine
 10
2994.999985648772
 20
1675.403415746116
 30
0.0
 11
2644.497460331817
 21
1675.403415746112
 31
0.0
  0
ARC
  5
158
330
C3
100
AcDbEntity
  8
HAIKIN
100
AcDbCircle
 10
2374.999985648758
 20
1792.403415746126
 30
0.0
 40
35.0
100
AcDbArc
 50
0.0
 51
90.0
  0
SOLID
  5
159
330
C3
100
AcDbEntity
  8
SUNPOU
100
AcDbTrace
 10
2294.999985648761
 20
1917.403415746126
 30
0.0
 11
2279.999985648761
 21
1827.403415746126
 31
0.0
 12
2264.999985648761
 22
1917.403415746126
 32
0.0
 13
2264.999985648761
 23
1917.403415746126
 33
0.0
1001
ACAD
1000
DSTYLE
1002
{
1070
    78
1070
     8
1070
   284
1070
     8
1070
   140
1040
3.0
1070
   145
1040
1.0
1070
    74
1070
     0
1070
   172
1070
     1
1070
    73
1070
     0
1070
    77
1070
     1
1070
    40
1040
60.0
1070
   147
1040
0.8
1070
   287
1070
     5
1070
    42
1040
1.5
1070
    44
1040
0.6
1070
    43
1040
7.0
1070
   271
1070
     0
1070
   177
1070
   256
1070
   176
1070
   256
1070
   141
1040
0.0
1070
   275
1070
     1
1070
    41
1040
1.5
1070
   285
1070
     8
1070
   286
1070
     8
1002
}
  0
SOLID
  5
15A
330
C3
100
AcDbEntity
  8
SUNPOU
100
AcDbTrace
 10
2804.999985648759
 20
2022.403415746125
 30
0.0
 11
2789.999985648759
 21
1932.403415746125
 31
0.0
 12
2774.999985648759
 22
2022.403415746125
 32
0.0
 13
2774.999985648759
 23
2022.403415746125
 33
0.0
1001
ACAD
1000
DSTYLE
1002
{
1070
    78
1070
     8
1070
   284
1070
     8
1070
   140
1040
3.0
1070
   145
1040
1.0
1070
    74
1070
     0
1070
   172
1070
     1
1070
    73
1070
     0
1070
    77
1070
     1
1070
    40
1040
60.0
1070
   147
1040
0.8
1070
   287
1070
     5
1070
    42
1040
1.5
1070
    44
1040
0.6
1070
    43
1040
7.0
1070
   271
1070
     0
1070
   177
1070
   256
1070
   176
1070
   256
1070
   141
1040
0.0
1070
   275
1070
     1
1070
    41
1040
1.5
1070
   285
1070
     8
1070
   286
1070
     8
1002
}
  0
SOLID
  5
15B
330
C3
100
AcDbEntity
  8
SUNPOU
100
AcDbTrace
 10
2804.999985648759
 20
1962.403415746125
 30
0.0
 11
2789.999985648759
 21
1872.403415746125
 31
0.0
 12
2774.999985648759
 22
1962.403415746125
 32
0.0
 13
2774.999985648759
 23
1962.403415746125
 33
0.0
1001
ACAD
1000
DSTYLE
1002
{
1070
    78
1070
     8
1070
   284
1070
     8
1070
   140
1040
3.0
1070
   145
1040
1.0
1070
    74
1070
     0
1070
   172
1070
     1
1070
    73
1070
     0
1070
    77
1070
     1
1070
    40
1040
60.0
1070
   147
1040
0.8
1070
   287
1070
     5
1070
    42
1040
1.5
1070
    44
1040
0.6
1070
    43
1040
7.0
1070
   271
1070
     0
1070
   177
1070
   256
1070
   176
1070
   256
1070
   141
1040
0.0
1070
   275
1070
     1
1070
    41
1040
1.5
1070
   285
1070
     8
1070
   286
1070
     8
1002
}
  0
SOLID
  5
15C
330
C3
100
AcDbEntity
  8
SUNPOU
100
AcDbTrace
 10
2804.999985648759
 20
2082.403415746125
 30
0.0
 11
2789.999985648759
 21
1992.403415746125
 31
0.0
 12
2774.999985648759
 22
2082.403415746125
 32
0.0
 13
2774.999985648759
 23
2082.403415746125
 33
0.0
1001
ACAD
1000
DSTYLE
1002
{
1070
    78
1070
     8
1070
   284
1070
     8
1070
   140
1040
3.0
1070
   145
1040
1.0
1070
    74
1070
     0
1070
   172
1070
     1
1070
    73
1070
     0
1070
    77
1070
     1
1070
    40
1040
60.0
1070
   147
1040
0.8
1070
   287
1070
     5
1070
    42
1040
1.5
1070
    44
1040
0.6
1070
    43
1040
7.0
1070
   271
1070
     0
1070
   177
1070
   256
1070
   176
1070
   256
1070
   141
1040
0.0
1070
   275
1070
     1
1070
    41
1040
1.5
1070
   285
1070
     8
1070
   286
1070
     8
1002
}
  0
LINE
  5
15D
330
C3
100
AcDbEntity
  8
SUNPOU
100
AcDbLine
 10
2969.99998564875
 20
2397.403415746121
 30
0.0
 11
3029.99998564875
 21
2397.403415746121
 31
0.0
  0
LINE
  5
15E
330
C3
100
AcDbEntity
  8
SUNPOU
100
AcDbLine
 10
3449.999985648745
 20
1357.403415746123
 30
0.0
 11
3449.999985648745
 21
2102.632833953865
 31
0.0
1001
ACAD
1000
DSTYLE
1002
{
1070
    78
1070
     8
1070
   284
1070
     8
1070
   140
1040
3.0
1070
   145
1040
1.0
1070
    74
1070
     0
1070
   172
1070
     1
1070
    73
1070
     0
1070
    77
1070
     1
1070
    40
1040
60.0
1070
   147
1040
0.8
1070
   287
1070
     5
1070
    42
1040
1.5
1070
    44
1040
0.6
1070
    43
1040
7.0
1070
   271
1070
     0
1070
   177
1070
   256
1070
   176
1070
   256
1070
   141
1040
0.0
1070
   275
1070
     1
1070
    41
1040
1.5
1070
   285
1070
     8
1070
   286
1070
     8
1002
}
  0
TEXT
  5
15F
330
C3
100
AcDbEntity
  8
SUNPOU
100
AcDbText
 10
1304.999985648761
 20
3317.403415746123
 30
0.0
 40
150.0
  1
D10
 41
0.8
 11
1304.999985648761
 21
3392.403415746123
 31
0.0
100
AcDbText
 73
     2
  0
TEXT
  5
160
330
C3
100
AcDbEntity
  8
SUNPOU
100
AcDbText
 10
2684.999985648759
 20
3317.403415746123
 30
0.0
 40
150.0
  1
D10
 41
0.8
 11
2684.999985648759
 21
3392.403415746123
 31
0.0
100
AcDbText
 73
     2
  0
LINE
  5
161
330
C3
100
AcDbEntity
  8
SUNPOU
100
AcDbLine
 10
2279.999985648759
 20
3227.403415746123
 30
0.0
 11
3059.999985648759
 21
3227.403415746123
 31
0.0
1001
ACAD
1000
DSTYLE
1002
{
1070
    78
1070
     8
1070
   284
1070
     8
1070
   140
1040
3.0
1070
   145
1040
1.0
1070
    74
1070
     0
1070
   172
1070
     1
1070
    73
1070
     0
1070
    77
1070
     1
1070
    40
1040
60.0
1070
   147
1040
0.8
1070
   287
1070
     5
1070
    42
1040
1.5
1070
    44
1040
0.6
1070
    43
1040
7.0
1070
   271
1070
     0
1070
   177
1070
   256
1070
   176
1070
   256
1070
   141
1040
0.0
1070
   275
1070
     1
1070
    41
1040
1.5
1070
   285
1070
     8
1070
   286
1070
     8
1002
}
  0
TEXT
  5
162
330
C3
100
AcDbEntity
  8
SUNPOU
100
AcDbText
 10
2359.999985648759
 20
3317.403415746123
 30
0.0
 40
150.0
  1
H4
 41
0.8
 72
     4
 11
2459.999985648759
 21
3392.403415746123
 31
0.0
100
AcDbText
  0
CIRCLE
  5
163
330
C3
100
AcDbEntity
  8
SUNPOU
100
AcDbCircle
 10
2459.999985648759
 20
3392.403415746123
 30
0.0
 40
165.0
  0
TEXT
  5
164
330
C3
100
AcDbEntity
  8
SUNPOU
100
AcDbText
 10
2239.999985648754
 20
4105.403415746121
 30
0.0
 40
210.0
  1
内　側
 72
     2
 11
2939.999985648754
 21
4077.403415746121
 31
0.0
100
AcDbText
 73
     1
  0
LINE
  5
165
330
C3
100
AcDbEntity
  8
HAIKIN
 62
     3
100
AcDbLine
 10
1889.999985648752
 20
4587.403415746125
 30
0.0
 11
1889.999985648752
 21
4887.403415746125
 31
0.0
  0
SOLID
  5
166
330
C3
100
AcDbEntity
  8
SUNPOU
100
AcDbTrace
 10
2559.999985648748
 20
1342.403415746126
 30
0.0000000000000092
 11
2469.999985648748
 21
1357.403415746126
 31
0.0000000000000092
 12
2559.999985648748
 22
1372.403415746126
 32
0.0000000000000092
 13
2559.999985648748
 23
1372.403415746126
 33
0.0000000000000092
1001
ACAD
1000
DSTYLE
1002
{
1070
    78
1070
     8
1070
   284
1070
     8
1070
   140
1040
3.0
1070
   145
1040
1.0
1070
    74
1070
     0
1070
   172
1070
     1
1070
    73
1070
     0
1070
    77
1070
     1
1070
    40
1040
60.0
1070
   147
1040
0.8
1070
   287
1070
     5
1070
    42
1040
1.5
1070
    44
1040
0.6
1070
    43
1040
7.0
1070
   271
1070
     0
1070
   177
1070
   256
1070
   176
1070
   256
1070
   141
1040
0.0
1070
   275
1070
     1
1070
    41
1040
1.5
1070
   285
1070
     8
1070
   286
1070
     8
1002
}
  0
SOLID
  5
167
330
C3
100
AcDbEntity
  8
SUNPOU
100
AcDbTrace
 10
2679.99998564875
 20
1342.403415746126
 30
0.0000000000000092
 11
2589.99998564875
 21
1357.403415746126
 31
0.0000000000000092
 12
2679.99998564875
 22
1372.403415746126
 32
0.0000000000000092
 13
2679.99998564875
 23
1372.403415746126
 33
0.0000000000000092
1001
ACAD
1000
DSTYLE
1002
{
1070
    78
1070
     8
1070
   284
1070
     8
1070
   140
1040
3.0
1070
   145
1040
1.0
1070
    74
1070
     0
1070
   172
1070
     1
1070
    73
1070
     0
1070
    77
1070
     1
1070
    40
1040
60.0
1070
   147
1040
0.8
1070
   287
1070
     5
1070
    42
1040
1.5
1070
    44
1040
0.6
1070
    43
1040
7.0
1070
   271
1070
     0
1070
   177
1070
   256
1070
   176
1070
   256
1070
   141
1040
0.0
1070
   275
1070
     1
1070
    41
1040
1.5
1070
   285
1070
     8
1070
   286
1070
     8
1002
}
  0
SOLID
  5
168
330
C3
100
AcDbEntity
  8
SUNPOU
100
AcDbTrace
 10
2619.99998564875
 20
1342.403415746126
 30
0.0000000000000092
 11
2529.99998564875
 21
1357.403415746126
 31
0.0000000000000092
 12
2619.99998564875
 22
1372.403415746126
 32
0.0000000000000092
 13
2619.99998564875
 23
1372.403415746126
 33
0.0000000000000092
1001
ACAD
1000
DSTYLE
1002
{
1070
    78
1070
     8
1070
   284
1070
     8
1070
   140
1040
3.0
1070
   145
1040
1.0
1070
    74
1070
     0
1070
   172
1070
     1
1070
    73
1070
     0
1070
    77
1070
     1
1070
    40
1040
60.0
1070
   147
1040
0.8
1070
   287
1070
     5
1070
    42
1040
1.5
1070
    44
1040
0.6
1070
    43
1040
7.0
1070
   271
1070
     0
1070
   177
1070
   256
1070
   176
1070
   256
1070
   141
1040
0.0
1070
   275
1070
     1
1070
    41
1040
1.5
1070
   285
1070
     8
1070
   286
1070
     8
1002
}
  0
ENDBLK
  5
16A
330
C3
100
AcDbEntity
  8
0
100
AcDbBlockEnd
  0
BLOCK
  5
FE2
330
FD8
100
AcDbEntity
  8
0
100
AcDbBlockBegin
  2
*D28
 70
     1
 10
0.0
 20
0.0
 30
0.0
  3
*D28
  1

  0
LINE
  5
1555
330
FD8
100
AcDbEntity
  8
SUNPOU
 62
     0
370
    -2
100
AcDbLine
 10
2749.939362054718
 20
4171.039395791176
 30
0.0
 11
1828.40285549299
 21
4171.039395791177
 31
0.0
  0
LINE
  5
1556
330
FD8
100
AcDbEntity
  8
SUNPOU
 62
     0
370
    -2
100
AcDbLine
 10
2749.939362054718
 20
7171.039395791176
 30
0.0
 11
1828.40285549299
 21
7171.039395791177
 31
0.0
  0
LINE
  5
1557
330
FD8
100
AcDbEntity
  8
SUNPOU
 62
     0
370
    -2
100
AcDbLine
 10
1843.40285549299
 20
4231.039395791177
 30
0.0
 11
1843.40285549299
 21
7111.039395791177
 31
0.0
  0
SOLID
  5
1558
330
FD8
100
AcDbEntity
  8
SUNPOU
 62
     0
100
AcDbTrace
 10
1833.40285549299
 20
4231.039395791177
 30
0.0
 11
1853.40285549299
 21
4231.039395791177
 31
0.0
 12
1843.40285549299
 22
4171.039395791177
 32
0.0
 13
1843.40285549299
 23
4171.039395791177
 33
0.0
  0
SOLID
  5
1559
330
FD8
100
AcDbEntity
  8
SUNPOU
 62
     0
100
AcDbTrace
 10
1833.40285549299
 20
7111.039395791177
 30
0.0
 11
1853.40285549299
 21
7111.039395791177
 31
0.0
 12
1843.40285549299
 22
7171.039395791177
 32
0.0
 13
1843.40285549299
 23
7171.039395791177
 33
0.0
  0
MTEXT
  5
155A
330
FD8
100
AcDbEntity
  8
SUNPOU
 62
     0
100
AcDbMText
 10
1774.402855492989
 20
5671.039395791177
 30
0.0
 40
90.0
 41
0.0
 71
     5
 72
     1
  1
\A1;3000
 11
6.123031769111886E-17
 21
1.0
 31
0.0
 73
     1
 44
1.0
  0
POINT
  5
155B
330
FD8
100
AcDbEntity
  8
DEFPOINTS
 62
     0
100
AcDbPoint
 10
2809.939362054718
 20
4171.039395791176
 30
0.0
  0
POINT
  5
155C
330
FD8
100
AcDbEntity
  8
DEFPOINTS
 62
     0
100
AcDbPoint
 10
2809.939362054718
 20
7171.039395791176
 30
0.0
  0
POINT
  5
155D
330
FD8
100
AcDbEntity
  8
DEFPOINTS
 62
     0
100
AcDbPoint
 10
1843.40285549299
 20
7171.039395791177
 30
0.0
  0
ENDBLK
  5
FE3
330
FD8
100
AcDbEntity
  8
0
100
AcDbBlockEnd
  0
BLOCK
  5
FEE
330
FE4
100
AcDbEntity
  8
0
100
AcDbBlockBegin
  2
*D29
 70
     1
 10
0.0
 20
0.0
 30
0.0
  3
*D29
  1

  0
LINE
  5
155E
330
FE4
100
AcDbEntity
  8
SUNPOU
 62
     0
370
    -2
100
AcDbLine
 10
2809.939362054718
 20
4111.039395791176
 30
0.0
 11
2809.939362054718
 21
3456.9358929095
 31
0.0
  0
LINE
  5
155F
330
FE4
100
AcDbEntity
  8
SUNPOU
 62
     0
370
    -2
100
AcDbLine
 10
4959.939362054718
 20
4111.039395791176
 30
0.0
 11
4959.939362054718
 21
3456.9358929095
 31
0.0
  0
LINE
  5
1560
330
FE4
100
AcDbEntity
  8
SUNPOU
 62
     0
370
    -2
100
AcDbLine
 10
2869.939362054718
 20
3471.9358929095
 30
0.0
 11
4899.939362054718
 21
3471.9358929095
 31
0.0
  0
SOLID
  5
1561
330
FE4
100
AcDbEntity
  8
SUNPOU
 62
     0
100
AcDbTrace
 10
2869.939362054718
 20
3481.9358929095
 30
0.0
 11
2869.939362054718
 21
3461.9358929095
 31
0.0
 12
2809.939362054718
 22
3471.9358929095
 32
0.0
 13
2809.939362054718
 23
3471.9358929095
 33
0.0
  0
SOLID
  5
1562
330
FE4
100
AcDbEntity
  8
SUNPOU
 62
     0
100
AcDbTrace
 10
4899.939362054718
 20
3481.9358929095
 30
0.0
 11
4899.939362054718
 21
3461.9358929095
 31
0.0
 12
4959.939362054718
 22
3471.9358929095
 32
0.0
 13
4959.939362054718
 23
3471.9358929095
 33
0.0
  0
MTEXT
  5
1563
330
FE4
100
AcDbEntity
  8
SUNPOU
 62
     0
100
AcDbMText
 10
3884.939362054718
 20
3540.9358929095
 30
0.0
 40
90.0
 41
0.0
 71
     5
 72
     1
  1
\A1;2150
 73
     1
 44
1.0
  0
POINT
  5
1564
330
FE4
100
AcDbEntity
  8
DEFPOINTS
 62
     0
100
AcDbPoint
 10
2809.939362054718
 20
4171.039395791176
 30
0.0
  0
POINT
  5
1565
330
FE4
100
AcDbEntity
  8
DEFPOINTS
 62
     0
100
AcDbPoint
 10
4959.939362054718
 20
4171.039395791176
 30
0.0
  0
POINT
  5
1566
330
FE4
100
AcDbEntity
  8
DEFPOINTS
 62
     0
100
AcDbPoint
 10
4959.939362054718
 20
3471.9358929095
 30
0.0
  0
ENDBLK
  5
FEF
330
FE4
100
AcDbEntity
  8
0
100
AcDbBlockEnd
  0
BLOCK
  5
FFB
330
FF0
100
AcDbEntity
  8
0
100
AcDbBlockBegin
  2
*D30
 70
     1
 10
0.0
 20
0.0
 30
0.0
  3
*D30
  1

  0
LINE
  5
1567
330
FF0
100
AcDbEntity
  8
SUNPOU
 62
     0
370
    -2
100
AcDbLine
 10
5019.939362054718
 20
4241.039395791176
 30
0.0
 11
5534.939362054718
 21
4241.039395791176
 31
0.0
  0
LINE
  5
1568
330
FF0
100
AcDbEntity
  8
SUNPOU
 62
     0
370
    -2
100
AcDbLine
 10
5019.939362054718
 20
4171.039395791176
 30
0.0
 11
5534.939362054718
 21
4171.039395791176
 31
0.0
  0
LINE
  5
1569
330
FF0
100
AcDbEntity
  8
SUNPOU
 62
     0
370
    -2
100
AcDbLine
 10
5519.939362054718
 20
4301.039395791176
 30
0.0
 11
5519.939362054718
 21
4361.039395791176
 31
0.0
  0
LINE
  5
156A
330
FF0
100
AcDbEntity
  8
SUNPOU
 62
     0
370
    -2
100
AcDbLine
 10
5519.939362054718
 20
4111.039395791176
 30
0.0
 11
5519.939362054718
 21
4051.039395791175
 31
0.0
  0
SOLID
  5
156B
330
FF0
100
AcDbEntity
  8
SUNPOU
 62
     0
100
AcDbTrace
 10
5509.939362054718
 20
4301.039395791176
 30
0.0
 11
5529.939362054718
 21
4301.039395791176
 31
0.0
 12
5519.939362054718
 22
4241.039395791176
 32
0.0
 13
5519.939362054718
 23
4241.039395791176
 33
0.0
  0
SOLID
  5
156C
330
FF0
100
AcDbEntity
  8
SUNPOU
 62
     0
100
AcDbTrace
 10
5509.939362054718
 20
4111.039395791176
 30
0.0
 11
5529.939362054718
 21
4111.039395791176
 31
0.0
 12
5519.939362054718
 22
4171.039395791176
 32
0.0
 13
5519.939362054718
 23
4171.039395791176
 33
0.0
  0
MTEXT
  5
156D
330
FF0
100
AcDbEntity
  8
SUNPOU
 62
     0
100
AcDbMText
 10
5450.939362054717
 20
4206.039395791177
 30
0.0
 40
90.0
 41
0.0
 71
     5
 72
     1
  1
\A1;70
 11
6.123031769111886E-17
 21
1.0
 31
0.0
 73
     1
 44
1.0
  0
POINT
  5
156E
330
FF0
100
AcDbEntity
  8
DEFPOINTS
 62
     0
100
AcDbPoint
 10
4959.939362054718
 20
4241.039395791176
 30
0.0
  0
POINT
  5
156F
330
FF0
100
AcDbEntity
  8
DEFPOINTS
 62
     0
100
AcDbPoint
 10
4959.939362054718
 20
4171.039395791176
 30
0.0
  0
POINT
  5
1570
330
FF0
100
AcDbEntity
  8
DEFPOINTS
 62
     0
100
AcDbPoint
 10
5519.939362054718
 20
4171.039395791176
 30
0.0
  0
ENDBLK
  5
FFC
330
FF0
100
AcDbEntity
  8
0
100
AcDbBlockEnd
  0
BLOCK
  5
1008
330
FFD
100
AcDbEntity
  8
0
100
AcDbBlockBegin
  2
*D31
 70
     1
 10
0.0
 20
0.0
 30
0.0
  3
*D31
  1

  0
LINE
  5
1571
330
FFD
100
AcDbEntity
  8
SUNPOU
 62
     0
370
    -2
100
AcDbLine
 10
2809.939362054718
 20
7231.039395791176
 30
0.0
 11
2809.939362054718
 21
7646.039395791176
 31
0.0
  0
LINE
  5
1572
330
FFD
100
AcDbEntity
  8
SUNPOU
 62
     0
370
    -2
100
AcDbLine
 10
2879.939362054718
 20
7231.039395791176
 30
0.0
 11
2879.939362054718
 21
7646.039395791176
 31
0.0
  0
LINE
  5
1573
330
FFD
100
AcDbEntity
  8
SUNPOU
 62
     0
370
    -2
100
AcDbLine
 10
2749.939362054718
 20
7631.039395791176
 30
0.0
 11
2689.939362054718
 21
7631.039395791176
 31
0.0
  0
LINE
  5
1574
330
FFD
100
AcDbEntity
  8
SUNPOU
 62
     0
370
    -2
100
AcDbLine
 10
2939.939362054718
 20
7631.039395791176
 30
0.0
 11
2999.939362054718
 21
7631.039395791176
 31
0.0
  0
SOLID
  5
1575
330
FFD
100
AcDbEntity
  8
SUNPOU
 62
     0
100
AcDbTrace
 10
2749.939362054718
 20
7641.039395791176
 30
0.0
 11
2749.939362054718
 21
7621.039395791176
 31
0.0
 12
2809.939362054718
 22
7631.039395791176
 32
0.0
 13
2809.939362054718
 23
7631.039395791176
 33
0.0
  0
SOLID
  5
1576
330
FFD
100
AcDbEntity
  8
SUNPOU
 62
     0
100
AcDbTrace
 10
2939.939362054718
 20
7641.039395791176
 30
0.0
 11
2939.939362054718
 21
7621.039395791176
 31
0.0
 12
2879.939362054718
 22
7631.039395791176
 32
0.0
 13
2879.939362054718
 23
7631.039395791176
 33
0.0
  0
MTEXT
  5
1577
330
FFD
100
AcDbEntity
  8
SUNPOU
 62
     0
100
AcDbMText
 10
2844.939362054718
 20
7700.039395791176
 30
0.0
 40
90.0
 41
0.0
 71
     5
 72
     1
  1
\A1;70
 73
     1
 44
1.0
  0
POINT
  5
1578
330
FFD
100
AcDbEntity
  8
DEFPOINTS
 62
     0
100
AcDbPoint
 10
2809.939362054718
 20
7171.039395791176
 30
0.0
  0
POINT
  5
1579
330
FFD
100
AcDbEntity
  8
DEFPOINTS
 62
     0
100
AcDbPoint
 10
2879.939362054718
 20
7171.039395791176
 30
0.0
  0
POINT
  5
157A
330
FFD
100
AcDbEntity
  8
DEFPOINTS
 62
     0
100
AcDbPoint
 10
2879.939362054718
 20
7631.039395791176
 30
0.0
  0
ENDBLK
  5
1009
330
FFD
100
AcDbEntity
  8
0
100
AcDbBlockEnd
  0
BLOCK
  5
1014
330
100A
100
AcDbEntity
  8
0
100
AcDbBlockBegin
  2
*D32
 70
     1
 10
0.0
 20
0.0
 30
0.0
  3
*D32
  1

  0
LINE
  5
157B
330
100A
100
AcDbEntity
  8
SUNPOU
 62
     0
370
    -2
100
AcDbLine
 10
2749.939362054718
 20
4171.039395791176
 30
0.0
 11
2027.008473168338
 21
4171.039395791177
 31
0.0
  0
LINE
  5
157C
330
100A
100
AcDbEntity
  8
SUNPOU
 62
     0
370
    -2
100
AcDbLine
 10
2749.939362054718
 20
4391.039395791176
 30
0.0
 11
2027.008473168338
 21
4391.039395791177
 31
0.0
  0
LINE
  5
157D
330
100A
100
AcDbEntity
  8
SUNPOU
 62
     0
370
    -2
100
AcDbLine
 10
2042.008473168338
 20
4231.039395791177
 30
0.0
 11
2042.008473168338
 21
4331.039395791177
 31
0.0
  0
MTEXT
  5
157E
330
100A
100
AcDbEntity
  8
SUNPOU
 62
     0
100
AcDbMText
 10
1973.008473168337
 20
4281.039395791177
 30
0.0
 40
90.0
 41
0.0
 71
     5
 72
     1
  1
\A1;220
 11
6.123031769111886E-17
 21
1.0
 31
0.0
 73
     1
 44
1.0
  0
SOLID
  5
157F
330
100A
100
AcDbEntity
  8
SUNPOU
 62
     0
100
AcDbTrace
 10
2032.008473168338
 20
4231.039395791177
 30
0.0
 11
2052.008473168338
 21
4231.039395791176
 31
0.0
 12
2042.008473168338
 22
4171.039395791177
 32
0.0
 13
2042.008473168338
 23
4171.039395791177
 33
0.0
  0
SOLID
  5
1580
330
100A
100
AcDbEntity
  8
SUNPOU
 62
     0
100
AcDbTrace
 10
2032.008473168338
 20
4331.039395791177
 30
0.0
 11
2052.008473168338
 21
4331.039395791176
 31
0.0
 12
2042.008473168338
 22
4391.039395791177
 32
0.0
 13
2042.008473168338
 23
4391.039395791177
 33
0.0
  0
POINT
  5
1581
330
100A
100
AcDbEntity
  8
DEFPOINTS
 62
     0
100
AcDbPoint
 10
2809.939362054718
 20
4171.039395791176
 30
0.0
  0
POINT
  5
1582
330
100A
100
AcDbEntity
  8
DEFPOINTS
 62
     0
100
AcDbPoint
 10
2809.939362054718
 20
4391.039395791176
 30
0.0
  0
POINT
  5
1583
330
100A
100
AcDbEntity
  8
DEFPOINTS
 62
     0
100
AcDbPoint
 10
2042.008473168338
 20
4391.039395791177
 30
0.0
  0
ENDBLK
  5
1015
330
100A
100
AcDbEntity
  8
0
100
AcDbBlockEnd
  0
BLOCK
  5
1020
330
1016
100
AcDbEntity
  8
0
100
AcDbBlockBegin
  2
*D33
 70
     1
 10
0.0
 20
0.0
 30
0.0
  3
*D33
  1

  0
LINE
  5
1584
330
1016
100
AcDbEntity
  8
SUNPOU
 62
     0
370
    -2
100
AcDbLine
 10
2749.939362054718
 20
4391.039395791176
 30
0.0
 11
2027.008473168338
 21
4391.039395791177
 31
0.0
  0
LINE
  5
1585
330
1016
100
AcDbEntity
  8
SUNPOU
 62
     0
370
    -2
100
AcDbLine
 10
2749.939362054718
 20
7171.039395791176
 30
0.0
 11
2027.008473168338
 21
7171.039395791177
 31
0.0
  0
LINE
  5
1586
330
1016
100
AcDbEntity
  8
SUNPOU
 62
     0
370
    -2
100
AcDbLine
 10
2042.008473168338
 20
4451.039395791177
 30
0.0
 11
2042.008473168338
 21
7111.039395791177
 31
0.0
  0
SOLID
  5
1587
330
1016
100
AcDbEntity
  8
SUNPOU
 62
     0
100
AcDbTrace
 10
2032.008473168338
 20
4451.039395791177
 30
0.0
 11
2052.008473168338
 21
4451.039395791176
 31
0.0
 12
2042.008473168338
 22
4391.039395791177
 32
0.0
 13
2042.008473168338
 23
4391.039395791177
 33
0.0
  0
SOLID
  5
1588
330
1016
100
AcDbEntity
  8
SUNPOU
 62
     0
100
AcDbTrace
 10
2032.008473168338
 20
7111.039395791177
 30
0.0
 11
2052.008473168338
 21
7111.039395791176
 31
0.0
 12
2042.008473168338
 22
7171.039395791177
 32
0.0
 13
2042.008473168338
 23
7171.039395791177
 33
0.0
  0
MTEXT
  5
1589
330
1016
100
AcDbEntity
  8
SUNPOU
 62
     0
100
AcDbMText
 10
1973.008473168337
 20
5781.039395791177
 30
0.0
 40
90.0
 41
0.0
 71
     5
 72
     1
  1
\A1;2780
 11
6.123031769111886E-17
 21
1.0
 31
0.0
 73
     1
 44
1.0
  0
POINT
  5
158A
330
1016
100
AcDbEntity
  8
DEFPOINTS
 62
     0
100
AcDbPoint
 10
2809.939362054718
 20
4391.039395791176
 30
0.0
  0
POINT
  5
158B
330
1016
100
AcDbEntity
  8
DEFPOINTS
 62
     0
100
AcDbPoint
 10
2809.939362054718
 20
7171.039395791176
 30
0.0
  0
POINT
  5
158C
330
1016
100
AcDbEntity
  8
DEFPOINTS
 62
     0
100
AcDbPoint
 10
2042.008473168338
 20
7171.039395791177
 30
0.0
  0
ENDBLK
  5
1021
330
1016
100
AcDbEntity
  8
0
100
AcDbBlockEnd
  0
BLOCK
  5
102C
330
1022
100
AcDbEntity
  8
0
100
AcDbBlockBegin
  2
*D34
 70
     1
 10
0.0
 20
0.0
 30
0.0
  3
*D34
  1

  0
LINE
  5
158D
330
1022
100
AcDbEntity
  8
SUNPOU
 62
     0
370
    -2
100
AcDbLine
 10
2939.939362054718
 20
7171.039395791176
 30
0.0
 11
5534.939362054719
 21
7171.039395791176
 31
0.0
  0
LINE
  5
158E
330
1022
100
AcDbEntity
  8
SUNPOU
 62
     0
370
    -2
100
AcDbLine
 10
2939.939362054718
 20
6761.039395791176
 30
0.0
 11
5534.939362054719
 21
6761.039395791176
 31
0.0
  0
LINE
  5
158F
330
1022
100
AcDbEntity
  8
SUNPOU
 62
     0
370
    -2
100
AcDbLine
 10
5519.939362054719
 20
7111.039395791176
 30
0.0
 11
5519.939362054719
 21
6821.039395791176
 31
0.0
  0
SOLID
  5
1590
330
1022
100
AcDbEntity
  8
SUNPOU
 62
     0
100
AcDbTrace
 10
5509.939362054719
 20
7111.039395791176
 30
0.0
 11
5529.939362054719
 21
7111.039395791176
 31
0.0
 12
5519.939362054719
 22
7171.039395791176
 32
0.0
 13
5519.939362054719
 23
7171.039395791176
 33
0.0
  0
SOLID
  5
1591
330
1022
100
AcDbEntity
  8
SUNPOU
 62
     0
100
AcDbTrace
 10
5509.939362054719
 20
6821.039395791176
 30
0.0
 11
5529.939362054719
 21
6821.039395791176
 31
0.0
 12
5519.939362054719
 22
6761.039395791176
 32
0.0
 13
5519.939362054719
 23
6761.039395791176
 33
0.0
  0
MTEXT
  5
1592
330
1022
100
AcDbEntity
  8
SUNPOU
 62
     0
100
AcDbMText
 10
5450.939362054717
 20
6966.039395791177
 30
0.0
 40
90.0
 41
0.0
 71
     5
 72
     1
  1
\A1;410
 11
6.123031769111886E-17
 21
1.0
 31
0.0
 73
     1
 44
1.0
  0
POINT
  5
1593
330
1022
100
AcDbEntity
  8
DEFPOINTS
 62
     0
100
AcDbPoint
 10
2879.939362054718
 20
7171.039395791176
 30
0.0
  0
POINT
  5
1594
330
1022
100
AcDbEntity
  8
DEFPOINTS
 62
     0
100
AcDbPoint
 10
2879.939362054718
 20
6761.039395791176
 30
0.0
  0
POINT
  5
1595
330
1022
100
AcDbEntity
  8
DEFPOINTS
 62
     0
100
AcDbPoint
 10
5519.939362054719
 20
6761.039395791176
 30
0.0
  0
ENDBLK
  5
102D
330
1022
100
AcDbEntity
  8
0
100
AcDbBlockEnd
  0
BLOCK
  5
109A
330
1090
100
AcDbEntity
  8
0
100
AcDbBlockBegin
  2
*D43
 70
     1
 10
0.0
 20
0.0
 30
0.0
  3
*D43
  1

  0
LINE
  5
1596
330
1090
100
AcDbEntity
  8
SUNPOU
 62
     0
370
    -2
100
AcDbLine
 10
6739.258925123111
 20
7231.039395791176
 30
0.0
 11
6739.258925123111
 21
7646.039395791176
 31
0.0
  0
LINE
  5
1597
330
1090
100
AcDbEntity
  8
SUNPOU
 62
     0
370
    -2
100
AcDbLine
 10
8739.258925123111
 20
7231.039395791176
 30
0.0
 11
8739.258925123111
 21
7646.039395791176
 31
0.0
  0
LINE
  5
1598
330
1090
100
AcDbEntity
  8
SUNPOU
 62
     0
370
    -2
100
AcDbLine
 10
6799.258925123111
 20
7631.039395791176
 30
0.0
 11
8679.258925123111
 21
7631.039395791176
 31
0.0
  0
SOLID
  5
1599
330
1090
100
AcDbEntity
  8
SUNPOU
 62
     0
100
AcDbTrace
 10
6799.258925123111
 20
7641.039395791176
 30
0.0
 11
6799.258925123111
 21
7621.039395791176
 31
0.0
 12
6739.258925123111
 22
7631.039395791176
 32
0.0
 13
6739.258925123111
 23
7631.039395791176
 33
0.0
  0
SOLID
  5
159A
330
1090
100
AcDbEntity
  8
SUNPOU
 62
     0
100
AcDbTrace
 10
8679.258925123111
 20
7641.039395791176
 30
0.0
 11
8679.258925123111
 21
7621.039395791176
 31
0.0
 12
8739.258925123111
 22
7631.039395791176
 32
0.0
 13
8739.258925123111
 23
7631.039395791176
 33
0.0
  0
MTEXT
  5
159B
330
1090
100
AcDbEntity
  8
SUNPOU
 62
     0
100
AcDbMText
 10
7739.258925123111
 20
7700.039395791176
 30
0.0
 40
90.0
 41
0.0
 71
     5
 72
     1
  1
\A1;2000
 73
     1
 44
1.0
  0
POINT
  5
159C
330
1090
100
AcDbEntity
  8
DEFPOINTS
 62
     0
100
AcDbPoint
 10
6739.258925123111
 20
7171.039395791176
 30
0.0
  0
POINT
  5
159D
330
1090
100
AcDbEntity
  8
DEFPOINTS
 62
     0
100
AcDbPoint
 10
8739.258925123111
 20
7171.039395791176
 30
0.0
  0
POINT
  5
159E
330
1090
100
AcDbEntity
  8
DEFPOINTS
 62
     0
100
AcDbPoint
 10
8739.258925123111
 20
7631.039395791176
 30
0.0
  0
ENDBLK
  5
109B
330
1090
100
AcDbEntity
  8
0
100
AcDbBlockEnd
  0
BLOCK
  5
10A6
330
109C
100
AcDbEntity
  8
0
100
AcDbBlockBegin
  2
*D44
 70
     1
 10
0.0
 20
0.0
 30
0.0
  3
*D44
  1

  0
LINE
  5
159F
330
109C
100
AcDbEntity
  8
SUNPOU
 62
     0
370
    -2
100
AcDbLine
 10
2809.939362054718
 20
4111.039395791176
 30
0.0
 11
2809.939362054718
 21
3641.207731580551
 31
0.0
  0
LINE
  5
15A0
330
109C
100
AcDbEntity
  8
SUNPOU
 62
     0
370
    -2
100
AcDbLine
 10
3029.939362054718
 20
4111.039395791176
 30
0.0
 11
3029.939362054718
 21
3641.207731580551
 31
0.0
  0
LINE
  5
15A1
330
109C
100
AcDbEntity
  8
SUNPOU
 62
     0
370
    -2
100
AcDbLine
 10
2869.939362054718
 20
3656.207731580551
 30
0.0
 11
2969.939362054718
 21
3656.207731580551
 31
0.0
  0
MTEXT
  5
15A2
330
109C
100
AcDbEntity
  8
SUNPOU
 62
     0
100
AcDbMText
 10
2919.939362054718
 20
3725.207731580551
 30
0.0
 40
90.0
 41
0.0
 71
     5
 72
     1
  1
\A1;220
 73
     1
 44
1.0
  0
SOLID
  5
15A3
330
109C
100
AcDbEntity
  8
SUNPOU
 62
     0
100
AcDbTrace
 10
2869.939362054718
 20
3666.207731580551
 30
0.0
 11
2869.939362054718
 21
3646.207731580551
 31
0.0
 12
2809.939362054718
 22
3656.207731580551
 32
0.0
 13
2809.939362054718
 23
3656.207731580551
 33
0.0
  0
SOLID
  5
15A4
330
109C
100
AcDbEntity
  8
SUNPOU
 62
     0
100
AcDbTrace
 10
2969.939362054718
 20
3666.207731580551
 30
0.0
 11
2969.939362054718
 21
3646.207731580551
 31
0.0
 12
3029.939362054718
 22
3656.207731580551
 32
0.0
 13
3029.939362054718
 23
3656.207731580551
 33
0.0
  0
POINT
  5
15A5
330
109C
100
AcDbEntity
  8
DEFPOINTS
 62
     0
100
AcDbPoint
 10
2809.939362054718
 20
4171.039395791176
 30
0.0
  0
POINT
  5
15A6
330
109C
100
AcDbEntity
  8
DEFPOINTS
 62
     0
100
AcDbPoint
 10
3029.939362054718
 20
4171.039395791176
 30
0.0
  0
POINT
  5
15A7
330
109C
100
AcDbEntity
  8
DEFPOINTS
 62
     0
100
AcDbPoint
 10
3029.939362054718
 20
3656.207731580551
 30
0.0
  0
ENDBLK
  5
10A7
330
109C
100
AcDbEntity
  8
0
100
AcDbBlockEnd
  0
BLOCK
  5
10B2
330
10A8
100
AcDbEntity
  8
0
100
AcDbBlockBegin
  2
*D45
 70
     1
 10
0.0
 20
0.0
 30
0.0
  3
*D45
  1

  0
LINE
  5
15A8
330
10A8
100
AcDbEntity
  8
SUNPOU
 62
     0
370
    -2
100
AcDbLine
 10
3029.939362054718
 20
4111.039395791176
 30
0.0
 11
3029.939362054718
 21
3641.207731580551
 31
0.0
  0
LINE
  5
15A9
330
10A8
100
AcDbEntity
  8
SUNPOU
 62
     0
370
    -2
100
AcDbLine
 10
4959.939362054718
 20
4111.039395791176
 30
0.0
 11
4959.939362054718
 21
3641.207731580551
 31
0.0
  0
LINE
  5
15AA
330
10A8
100
AcDbEntity
  8
SUNPOU
 62
     0
370
    -2
100
AcDbLine
 10
3089.939362054718
 20
3656.207731580551
 30
0.0
 11
4899.939362054718
 21
3656.207731580551
 31
0.0
  0
SOLID
  5
15AB
330
10A8
100
AcDbEntity
  8
SUNPOU
 62
     0
100
AcDbTrace
 10
3089.939362054718
 20
3666.207731580551
 30
0.0
 11
3089.939362054718
 21
3646.207731580551
 31
0.0
 12
3029.939362054718
 22
3656.207731580551
 32
0.0
 13
3029.939362054718
 23
3656.207731580551
 33
0.0
  0
SOLID
  5
15AC
330
10A8
100
AcDbEntity
  8
SUNPOU
 62
     0
100
AcDbTrace
 10
4899.939362054718
 20
3666.207731580551
 30
0.0
 11
4899.939362054718
 21
3646.207731580551
 31
0.0
 12
4959.939362054718
 22
3656.207731580551
 32
0.0
 13
4959.939362054718
 23
3656.207731580551
 33
0.0
  0
MTEXT
  5
15AD
330
10A8
100
AcDbEntity
  8
SUNPOU
 62
     0
100
AcDbMText
 10
3994.939362054718
 20
3725.207731580551
 30
0.0
 40
90.0
 41
0.0
 71
     5
 72
     1
  1
\A1;1930
 73
     1
 44
1.0
  0
POINT
  5
15AE
330
10A8
100
AcDbEntity
  8
DEFPOINTS
 62
     0
100
AcDbPoint
 10
3029.939362054718
 20
4171.039395791176
 30
0.0
  0
POINT
  5
15AF
330
10A8
100
AcDbEntity
  8
DEFPOINTS
 62
     0
100
AcDbPoint
 10
4959.939362054718
 20
4171.039395791176
 30
0.0
  0
POINT
  5
15B0
330
10A8
100
AcDbEntity
  8
DEFPOINTS
 62
     0
100
AcDbPoint
 10
4959.939362054718
 20
3656.207731580551
 30
0.0
  0
ENDBLK
  5
10B3
330
10A8
100
AcDbEntity
  8
0
100
AcDbBlockEnd
  0
BLOCK
  5
136B
330
1361
100
AcDbEntity
  8
0
100
AcDbBlockBegin
  2
*D48
 70
     1
 10
0.0
 20
0.0
 30
0.0
  3
*D48
  1

  0
LINE
  5
15B1
330
1361
100
AcDbEntity
  8
SUNPOU
 62
     0
370
    -2
100
AcDbLine
 10
5019.939362054718
 20
4241.039395791176
 30
0.0
 11
5534.939362054718
 21
4241.039395791176
 31
0.0
  0
LINE
  5
15B2
330
1361
100
AcDbEntity
  8
SUNPOU
 62
     0
370
    -2
100
AcDbLine
 10
2939.939362054718
 20
6761.039395791176
 30
0.0
 11
5534.939362054719
 21
6761.039395791176
 31
0.0
  0
LINE
  5
15B3
330
1361
100
AcDbEntity
  8
SUNPOU
 62
     0
370
    -2
100
AcDbLine
 10
5519.939362054718
 20
4301.039395791176
 30
0.0
 11
5519.939362054719
 21
6701.039395791176
 31
0.0
  0
SOLID
  5
15B4
330
1361
100
AcDbEntity
  8
SUNPOU
 62
     0
100
AcDbTrace
 10
5509.939362054718
 20
4301.039395791176
 30
0.0
 11
5529.939362054718
 21
4301.039395791176
 31
0.0
 12
5519.939362054718
 22
4241.039395791176
 32
0.0
 13
5519.939362054718
 23
4241.039395791176
 33
0.0
  0
SOLID
  5
15B5
330
1361
100
AcDbEntity
  8
SUNPOU
 62
     0
100
AcDbTrace
 10
5509.939362054719
 20
6701.039395791176
 30
0.0
 11
5529.939362054719
 21
6701.039395791176
 31
0.0
 12
5519.939362054719
 22
6761.039395791176
 32
0.0
 13
5519.939362054719
 23
6761.039395791176
 33
0.0
  0
MTEXT
  5
15B6
330
1361
100
AcDbEntity
  8
SUNPOU
 62
     0
100
AcDbMText
 10
5450.939362054717
 20
5501.039395791177
 30
0.0
 40
90.0
 41
0.0
 71
     5
 72
     1
  1
\A1;2520
 11
6.123031769111886E-17
 21
1.0
 31
0.0
 73
     1
 44
1.0
  0
POINT
  5
15B7
330
1361
100
AcDbEntity
  8
DEFPOINTS
 62
     0
100
AcDbPoint
 10
4959.939362054718
 20
4241.039395791176
 30
0.0
  0
POINT
  5
15B8
330
1361
100
AcDbEntity
  8
DEFPOINTS
 62
     0
100
AcDbPoint
 10
2879.939362054718
 20
6761.039395791176
 30
0.0
  0
POINT
  5
15B9
330
1361
100
AcDbEntity
  8
DEFPOINTS
 62
     0
100
AcDbPoint
 10
5519.939362054719
 20
6761.039395791176
 30
0.0
  0
ENDBLK
  5
136C
330
1361
100
AcDbEntity
  8
0
100
AcDbBlockEnd
  0
BLOCK
  5
13A6
330
139C
100
AcDbEntity
  8
0
100
AcDbBlockBegin
  2
*D49
 70
     1
 10
0.0
 20
0.0
 30
0.0
  3
*D49
  1

  0
LINE
  5
15BA
330
139C
100
AcDbEntity
  8
SUNPOU
 62
     0
370
    -2
100
AcDbLine
 10
2749.939362054718
 20
4171.039395791176
 30
0.0
 11
2288.491281993549
 21
4171.039395791176
 31
0.0
  0
LINE
  5
15BB
330
139C
100
AcDbEntity
  8
SUNPOU
 62
     0
370
    -2
100
AcDbLine
 10
2629.939362054718
 20
4871.039395791176
 30
0.0
 11
2288.491281993549
 21
4871.039395791176
 31
0.0
  0
LINE
  5
15BC
330
139C
100
AcDbEntity
  8
SUNPOU
 62
     0
370
    -2
100
AcDbLine
 10
2303.491281993549
 20
4231.039395791176
 30
0.0
 11
2303.491281993549
 21
4811.039395791176
 31
0.0
  0
SOLID
  5
15BD
330
139C
100
AcDbEntity
  8
SUNPOU
 62
     0
100
AcDbTrace
 10
2293.491281993549
 20
4231.039395791176
 30
0.0
 11
2313.491281993549
 21
4231.039395791176
 31
0.0
 12
2303.491281993549
 22
4171.039395791176
 32
0.0
 13
2303.491281993549
 23
4171.039395791176
 33
0.0
  0
SOLID
  5
15BE
330
139C
100
AcDbEntity
  8
SUNPOU
 62
     0
100
AcDbTrace
 10
2293.491281993549
 20
4811.039395791176
 30
0.0
 11
2313.491281993549
 21
4811.039395791176
 31
0.0
 12
2303.491281993549
 22
4871.039395791176
 32
0.0
 13
2303.491281993549
 23
4871.039395791176
 33
0.0
  0
MTEXT
  5
15BF
330
139C
100
AcDbEntity
  8
SUNPOU
 62
     0
100
AcDbMText
 10
2234.491281993548
 20
4521.039395791177
 30
0.0
 40
90.0
 41
0.0
 71
     5
 72
     1
  1
\A1;700
 11
6.123031769111886E-17
 21
1.0
 31
0.0
 73
     1
 44
1.0
  0
POINT
  5
15C0
330
139C
100
AcDbEntity
  8
DEFPOINTS
 62
     0
100
AcDbPoint
 10
2809.939362054718
 20
4171.039395791176
 30
0.0
  0
POINT
  5
15C1
330
139C
100
AcDbEntity
  8
DEFPOINTS
 62
     0
100
AcDbPoint
 10
2689.939362054718
 20
4871.039395791176
 30
0.0
  0
POINT
  5
15C2
330
139C
100
AcDbEntity
  8
DEFPOINTS
 62
     0
100
AcDbPoint
 10
2303.491281993549
 20
4871.039395791176
 30
0.0
  0
ENDBLK
  5
13A7
330
139C
100
AcDbEntity
  8
0
100
AcDbBlockEnd
  0
BLOCK
  5
1426
330
141C
100
AcDbEntity
  8
0
100
AcDbBlockBegin
  2
*D50
 70
     1
 10
0.0
 20
0.0
 30
0.0
  3
*D50
  1

  0
LINE
  5
15C3
330
141C
100
AcDbEntity
  8
SUNPOU
 62
     0
370
    -2
100
AcDbLine
 10
6679.258925123111
 20
4171.039395791175
 30
0.0
 11
6325.959391432814
 21
4171.039395791175
 31
0.0
  0
LINE
  5
15C4
330
141C
100
AcDbEntity
  8
SUNPOU
 62
     0
370
    -2
100
AcDbLine
 10
6679.258925123111
 20
4871.039395791175
 30
0.0
 11
6325.959391432814
 21
4871.039395791175
 31
0.0
  0
LINE
  5
15C5
330
141C
100
AcDbEntity
  8
SUNPOU
 62
     0
370
    -2
100
AcDbLine
 10
6340.959391432814
 20
4231.039395791175
 30
0.0
 11
6340.959391432814
 21
4811.039395791175
 31
0.0
  0
SOLID
  5
15C6
330
141C
100
AcDbEntity
  8
SUNPOU
 62
     0
100
AcDbTrace
 10
6330.959391432814
 20
4231.039395791175
 30
0.0
 11
6350.959391432814
 21
4231.039395791175
 31
0.0
 12
6340.959391432814
 22
4171.039395791175
 32
0.0
 13
6340.959391432814
 23
4171.039395791175
 33
0.0
  0
SOLID
  5
15C7
330
141C
100
AcDbEntity
  8
SUNPOU
 62
     0
100
AcDbTrace
 10
6330.959391432814
 20
4811.039395791175
 30
0.0
 11
6350.959391432814
 21
4811.039395791175
 31
0.0
 12
6340.959391432814
 22
4871.039395791175
 32
0.0
 13
6340.959391432814
 23
4871.039395791175
 33
0.0
  0
MTEXT
  5
15C8
330
141C
100
AcDbEntity
  8
SUNPOU
 62
     0
100
AcDbMText
 10
6271.959391432813
 20
4521.039395791177
 30
0.0
 40
90.0
 41
0.0
 71
     5
 72
     1
  1
\A1;700
 11
6.123031769111886E-17
 21
1.0
 31
0.0
 73
     1
 44
1.0
  0
POINT
  5
15C9
330
141C
100
AcDbEntity
  8
DEFPOINTS
 62
     0
100
AcDbPoint
 10
6739.258925123111
 20
4171.039395791175
 30
0.0
  0
POINT
  5
15CA
330
141C
100
AcDbEntity
  8
DEFPOINTS
 62
     0
100
AcDbPoint
 10
6739.258925123111
 20
4871.039395791175
 30
0.0
  0
POINT
  5
15CB
330
141C
100
AcDbEntity
  8
DEFPOINTS
 62
     0
100
AcDbPoint
 10
6340.959391432814
 20
4871.039395791175
 30
0.0
  0
ENDBLK
  5
1427
330
141C
100
AcDbEntity
  8
0
100
AcDbBlockEnd
  0
BLOCK
  5
1433
330
1429
100
AcDbEntity
  8
0
100
AcDbBlockBegin
  2
*D51
 70
     1
 10
0.0
 20
0.0
 30
0.0
  3
*D51
  1

  0
LINE
  5
15CC
330
1429
100
AcDbEntity
  8
SUNPOU
 62
     0
370
    -2
100
AcDbLine
 10
6679.258925123111
 20
4871.039395791175
 30
0.0
 11
6325.959391432814
 21
4871.039395791175
 31
0.0
  0
LINE
  5
15CD
330
1429
100
AcDbEntity
  8
SUNPOU
 62
     0
370
    -2
100
AcDbLine
 10
6679.258925123111
 20
7171.039395791176
 30
0.0
 11
6325.959391432815
 21
7171.039395791176
 31
0.0
  0
LINE
  5
15CE
330
1429
100
AcDbEntity
  8
SUNPOU
 62
     0
370
    -2
100
AcDbLine
 10
6340.959391432814
 20
4931.039395791175
 30
0.0
 11
6340.959391432815
 21
7111.039395791176
 31
0.0
  0
SOLID
  5
15CF
330
1429
100
AcDbEntity
  8
SUNPOU
 62
     0
100
AcDbTrace
 10
6330.959391432814
 20
4931.039395791175
 30
0.0
 11
6350.959391432814
 21
4931.039395791175
 31
0.0
 12
6340.959391432814
 22
4871.039395791175
 32
0.0
 13
6340.959391432814
 23
4871.039395791175
 33
0.0
  0
SOLID
  5
15D0
330
1429
100
AcDbEntity
  8
SUNPOU
 62
     0
100
AcDbTrace
 10
6330.959391432815
 20
7111.039395791176
 30
0.0
 11
6350.959391432815
 21
7111.039395791176
 31
0.0
 12
6340.959391432815
 22
7171.039395791176
 32
0.0
 13
6340.959391432815
 23
7171.039395791176
 33
0.0
  0
MTEXT
  5
15D1
330
1429
100
AcDbEntity
  8
SUNPOU
 62
     0
100
AcDbMText
 10
6271.959391432813
 20
6021.039395791177
 30
0.0
 40
90.0
 41
0.0
 71
     5
 72
     1
  1
\A1;2300
 11
6.123031769111886E-17
 21
1.0
 31
0.0
 73
     1
 44
1.0
  0
POINT
  5
15D2
330
1429
100
AcDbEntity
  8
DEFPOINTS
 62
     0
100
AcDbPoint
 10
6739.258925123111
 20
4871.039395791175
 30
0.0
  0
POINT
  5
15D3
330
1429
100
AcDbEntity
  8
DEFPOINTS
 62
     0
100
AcDbPoint
 10
6739.258925123111
 20
7171.039395791176
 30
0.0
  0
POINT
  5
15D4
330
1429
100
AcDbEntity
  8
DEFPOINTS
 62
     0
100
AcDbPoint
 10
6340.959391432815
 20
7171.039395791176
 30
0.0
  0
ENDBLK
  5
1434
330
1429
100
AcDbEntity
  8
0
100
AcDbBlockEnd
  0
BLOCK
  5
1440
330
1436
100
AcDbEntity
  8
0
100
AcDbBlockBegin
  2
*D52
 70
     1
 10
0.0
 20
0.0
 30
0.0
  3
*D52
  1

  0
LINE
  5
15D5
330
1436
100
AcDbEntity
  8
SUNPOU
 62
     0
370
    -2
100
AcDbLine
 10
6739.258925123111
 20
4111.039395791175
 30
0.0
 11
6739.258925123111
 21
3733.449243904262
 31
0.0
  0
LINE
  5
15D6
330
1436
100
AcDbEntity
  8
SUNPOU
 62
     0
370
    -2
100
AcDbLine
 10
7239.258925123111
 20
4111.039395791175
 30
0.0
 11
7239.258925123111
 21
3733.449243904262
 31
0.0
  0
LINE
  5
15D7
330
1436
100
AcDbEntity
  8
SUNPOU
 62
     0
370
    -2
100
AcDbLine
 10
6799.258925123111
 20
3748.449243904262
 30
0.0
 11
7179.258925123111
 21
3748.449243904262
 31
0.0
  0
SOLID
  5
15D8
330
1436
100
AcDbEntity
  8
SUNPOU
 62
     0
100
AcDbTrace
 10
6799.258925123111
 20
3758.449243904262
 30
0.0
 11
6799.258925123111
 21
3738.449243904262
 31
0.0
 12
6739.258925123111
 22
3748.449243904262
 32
0.0
 13
6739.258925123111
 23
3748.449243904262
 33
0.0
  0
SOLID
  5
15D9
330
1436
100
AcDbEntity
  8
SUNPOU
 62
     0
100
AcDbTrace
 10
7179.258925123111
 20
3758.449243904262
 30
0.0
 11
7179.258925123111
 21
3738.449243904262
 31
0.0
 12
7239.258925123111
 22
3748.449243904262
 32
0.0
 13
7239.258925123111
 23
3748.449243904262
 33
0.0
  0
MTEXT
  5
15DA
330
1436
100
AcDbEntity
  8
SUNPOU
 62
     0
100
AcDbMText
 10
6989.258925123111
 20
3817.449243904262
 30
0.0
 40
90.0
 41
0.0
 71
     5
 72
     1
  1
\A1;500
 73
     1
 44
1.0
  0
POINT
  5
15DB
330
1436
100
AcDbEntity
  8
DEFPOINTS
 62
     0
100
AcDbPoint
 10
6739.258925123111
 20
4171.039395791175
 30
0.0
  0
POINT
  5
15DC
330
1436
100
AcDbEntity
  8
DEFPOINTS
 62
     0
100
AcDbPoint
 10
7239.258925123111
 20
4171.039395791175
 30
0.0
  0
POINT
  5
15DD
330
1436
100
AcDbEntity
  8
DEFPOINTS
 62
     0
100
AcDbPoint
 10
7239.258925123111
 20
3748.449243904262
 30
0.0
  0
ENDBLK
  5
1441
330
1436
100
AcDbEntity
  8
0
100
AcDbBlockEnd
  0
BLOCK
  5
144D
330
1443
100
AcDbEntity
  8
0
100
AcDbBlockBegin
  2
*D53
 70
     1
 10
0.0
 20
0.0
 30
0.0
  3
*D53
  1

  0
LINE
  5
15DE
330
1443
100
AcDbEntity
  8
SUNPOU
 62
     0
370
    -2
100
AcDbLine
 10
7239.258925123111
 20
4111.039395791175
 30
0.0
 11
7239.258925123111
 21
3733.449243904262
 31
0.0
  0
LINE
  5
15DF
330
1443
100
AcDbEntity
  8
SUNPOU
 62
     0
370
    -2
100
AcDbLine
 10
8239.258925123111
 20
4111.039395791175
 30
0.0
 11
8239.258925123111
 21
3733.449243904262
 31
0.0
  0
LINE
  5
15E0
330
1443
100
AcDbEntity
  8
SUNPOU
 62
     0
370
    -2
100
AcDbLine
 10
7299.258925123111
 20
3748.449243904262
 30
0.0
 11
8179.258925123111
 21
3748.449243904262
 31
0.0
  0
SOLID
  5
15E1
330
1443
100
AcDbEntity
  8
SUNPOU
 62
     0
100
AcDbTrace
 10
7299.258925123111
 20
3758.449243904262
 30
0.0
 11
7299.258925123111
 21
3738.449243904262
 31
0.0
 12
7239.258925123111
 22
3748.449243904262
 32
0.0
 13
7239.258925123111
 23
3748.449243904262
 33
0.0
  0
SOLID
  5
15E2
330
1443
100
AcDbEntity
  8
SUNPOU
 62
     0
100
AcDbTrace
 10
8179.258925123111
 20
3758.449243904262
 30
0.0
 11
8179.258925123111
 21
3738.449243904262
 31
0.0
 12
8239.258925123111
 22
3748.449243904262
 32
0.0
 13
8239.258925123111
 23
3748.449243904262
 33
0.0
  0
MTEXT
  5
15E3
330
1443
100
AcDbEntity
  8
SUNPOU
 62
     0
100
AcDbMText
 10
7739.258925123111
 20
3817.449243904262
 30
0.0
 40
90.0
 41
0.0
 71
     5
 72
     1
  1
\A1;1000
 73
     1
 44
1.0
  0
POINT
  5
15E4
330
1443
100
AcDbEntity
  8
DEFPOINTS
 62
     0
100
AcDbPoint
 10
7239.258925123111
 20
4171.039395791175
 30
0.0
  0
POINT
  5
15E5
330
1443
100
AcDbEntity
  8
DEFPOINTS
 62
     0
100
AcDbPoint
 10
8239.258925123111
 20
4171.039395791175
 30
0.0
  0
POINT
  5
15E6
330
1443
100
AcDbEntity
  8
DEFPOINTS
 62
     0
100
AcDbPoint
 10
8239.258925123111
 20
3748.449243904262
 30
0.0
  0
ENDBLK
  5
144E
330
1443
100
AcDbEntity
  8
0
100
AcDbBlockEnd
  0
BLOCK
  5
145A
330
1450
100
AcDbEntity
  8
0
100
AcDbBlockBegin
  2
*D54
 70
     1
 10
0.0
 20
0.0
 30
0.0
  3
*D54
  1

  0
LINE
  5
15E7
330
1450
100
AcDbEntity
  8
SUNPOU
 62
     0
370
    -2
100
AcDbLine
 10
8239.258925123111
 20
4111.039395791175
 30
0.0
 11
8239.258925123111
 21
3733.449243904262
 31
0.0
  0
LINE
  5
15E8
330
1450
100
AcDbEntity
  8
SUNPOU
 62
     0
370
    -2
100
AcDbLine
 10
8739.258925123111
 20
4111.039395791177
 30
0.0
 11
8739.258925123111
 21
3733.449243904262
 31
0.0
  0
LINE
  5
15E9
330
1450
100
AcDbEntity
  8
SUNPOU
 62
     0
370
    -2
100
AcDbLine
 10
8299.258925123111
 20
3748.449243904262
 30
0.0
 11
8679.258925123111
 21
3748.449243904262
 31
0.0
  0
SOLID
  5
15EA
330
1450
100
AcDbEntity
  8
SUNPOU
 62
     0
100
AcDbTrace
 10
8299.258925123111
 20
3758.449243904262
 30
0.0
 11
8299.258925123111
 21
3738.449243904262
 31
0.0
 12
8239.258925123111
 22
3748.449243904262
 32
0.0
 13
8239.258925123111
 23
3748.449243904262
 33
0.0
  0
SOLID
  5
15EB
330
1450
100
AcDbEntity
  8
SUNPOU
 62
     0
100
AcDbTrace
 10
8679.258925123111
 20
3758.449243904262
 30
0.0
 11
8679.258925123111
 21
3738.449243904262
 31
0.0
 12
8739.258925123111
 22
3748.449243904262
 32
0.0
 13
8739.258925123111
 23
3748.449243904262
 33
0.0
  0
MTEXT
  5
15EC
330
1450
100
AcDbEntity
  8
SUNPOU
 62
     0
100
AcDbMText
 10
8489.258925123111
 20
3817.449243904262
 30
0.0
 40
90.0
 41
0.0
 71
     5
 72
     1
  1
\A1;500
 73
     1
 44
1.0
  0
POINT
  5
15ED
330
1450
100
AcDbEntity
  8
DEFPOINTS
 62
     0
100
AcDbPoint
 10
8239.258925123111
 20
4171.039395791175
 30
0.0
  0
POINT
  5
15EE
330
1450
100
AcDbEntity
  8
DEFPOINTS
 62
     0
100
AcDbPoint
 10
8739.258925123111
 20
4171.039395791177
 30
0.0
  0
POINT
  5
15EF
330
1450
100
AcDbEntity
  8
DEFPOINTS
 62
     0
100
AcDbPoint
 10
8739.258925123111
 20
3748.449243904262
 30
0.0
  0
ENDBLK
  5
145B
330
1450
100
AcDbEntity
  8
0
100
AcDbBlockEnd
  0
BLOCK
  5
1479
330
146F
100
AcDbEntity
  8
0
100
AcDbBlockBegin
  2
*D55
 70
     1
 10
0.0
 20
0.0
 30
0.0
  3
*D55
  1

  0
LINE
  5
15F0
330
146F
100
AcDbEntity
  8
SUNPOU
 62
     0
370
    -2
100
AcDbLine
 10
2749.939362054718
 20
2581.955967406767
 30
0.0
 11
2189.088764941808
 21
2581.955967406767
 31
0.0
  0
LINE
  5
15F1
330
146F
100
AcDbEntity
  8
SUNPOU
 62
     0
370
    -2
100
AcDbLine
 10
2749.939362054718
 20
581.9559674067666
 30
0.0
 11
2189.088764941807
 21
581.9559674067667
 31
0.0
  0
LINE
  5
15F2
330
146F
100
AcDbEntity
  8
SUNPOU
 62
     0
370
    -2
100
AcDbLine
 10
2204.088764941808
 20
2521.955967406767
 30
0.0
 11
2204.088764941807
 21
641.9559674067667
 31
0.0
  0
SOLID
  5
15F3
330
146F
100
AcDbEntity
  8
SUNPOU
 62
     0
100
AcDbTrace
 10
2194.088764941808
 20
2521.955967406767
 30
0.0
 11
2214.088764941808
 21
2521.955967406767
 31
0.0
 12
2204.088764941808
 22
2581.955967406767
 32
0.0
 13
2204.088764941808
 23
2581.955967406767
 33
0.0
  0
SOLID
  5
15F4
330
146F
100
AcDbEntity
  8
SUNPOU
 62
     0
100
AcDbTrace
 10
2194.088764941807
 20
641.9559674067667
 30
0.0
 11
2214.088764941807
 21
641.9559674067667
 31
0.0
 12
2204.088764941807
 22
581.9559674067667
 32
0.0
 13
2204.088764941807
 23
581.9559674067667
 33
0.0
  0
MTEXT
  5
15F5
330
146F
100
AcDbEntity
  8
SUNPOU
 62
     0
100
AcDbMText
 10
2135.088764941807
 20
1581.955967406767
 30
0.0
 40
90.0
 41
0.0
 71
     5
 72
     1
  1
\A1;2000
 11
6.123031769111886E-17
 21
1.0
 31
0.0
 73
     1
 44
1.0
  0
POINT
  5
15F6
330
146F
100
AcDbEntity
  8
DEFPOINTS
 62
     0
100
AcDbPoint
 10
2809.939362054718
 20
2581.955967406767
 30
0.0
  0
POINT
  5
15F7
330
146F
100
AcDbEntity
  8
DEFPOINTS
 62
     0
100
AcDbPoint
 10
2809.939362054718
 20
581.9559674067666
 30
0.0
  0
POINT
  5
15F8
330
146F
100
AcDbEntity
  8
DEFPOINTS
 62
     0
100
AcDbPoint
 10
2204.088764941807
 20
581.9559674067667
 30
0.0
  0
ENDBLK
  5
147A
330
146F
100
AcDbEntity
  8
0
100
AcDbBlockEnd
  0
BLOCK
  5
1486
330
147C
100
AcDbEntity
  8
0
100
AcDbBlockBegin
  2
*D56
 70
     1
 10
0.0
 20
0.0
 30
0.0
  3
*D56
  1

  0
LINE
  5
15F9
330
147C
100
AcDbEntity
  8
SUNPOU
 62
     0
370
    -2
100
AcDbLine
 10
5019.939362054718
 20
631.9559674067668
 30
0.0
 11
5534.939362054717
 21
631.9559674067667
 31
0.0
  0
LINE
  5
15FA
330
147C
100
AcDbEntity
  8
SUNPOU
 62
     0
370
    -2
100
AcDbLine
 10
5019.939362054718
 20
2531.955967406767
 30
0.0
 11
5534.939362054718
 21
2531.955967406766
 31
0.0
  0
LINE
  5
15FB
330
147C
100
AcDbEntity
  8
SUNPOU
 62
     0
370
    -2
100
AcDbLine
 10
5519.939362054717
 20
691.9559674067667
 30
0.0
 11
5519.939362054718
 21
2471.955967406766
 31
0.0
  0
SOLID
  5
15FC
330
147C
100
AcDbEntity
  8
SUNPOU
 62
     0
100
AcDbTrace
 10
5509.939362054717
 20
691.9559674067667
 30
0.0
 11
5529.939362054717
 21
691.9559674067667
 31
0.0
 12
5519.939362054717
 22
631.9559674067667
 32
0.0
 13
5519.939362054717
 23
631.9559674067667
 33
0.0
  0
SOLID
  5
15FD
330
147C
100
AcDbEntity
  8
SUNPOU
 62
     0
100
AcDbTrace
 10
5509.939362054718
 20
2471.955967406766
 30
0.0
 11
5529.939362054718
 21
2471.955967406766
 31
0.0
 12
5519.939362054718
 22
2531.955967406766
 32
0.0
 13
5519.939362054718
 23
2531.955967406766
 33
0.0
  0
MTEXT
  5
15FE
330
147C
100
AcDbEntity
  8
SUNPOU
 62
     0
100
AcDbMText
 10
5450.939362054717
 20
1581.955967406768
 30
0.0
 40
90.0
 41
0.0
 71
     5
 72
     1
  1
\A1;1900
 11
6.123031769111886E-17
 21
1.0
 31
0.0
 73
     1
 44
1.0
  0
POINT
  5
15FF
330
147C
100
AcDbEntity
  8
DEFPOINTS
 62
     0
100
AcDbPoint
 10
4959.939362054718
 20
631.9559674067668
 30
0.0
  0
POINT
  5
1600
330
147C
100
AcDbEntity
  8
DEFPOINTS
 62
     0
100
AcDbPoint
 10
4959.939362054718
 20
2531.955967406767
 30
0.0
  0
POINT
  5
1601
330
147C
100
AcDbEntity
  8
DEFPOINTS
 62
     0
100
AcDbPoint
 10
5519.939362054718
 20
2531.955967406766
 30
0.0
  0
ENDBLK
  5
1487
330
147C
100
AcDbEntity
  8
0
100
AcDbBlockEnd
  0
BLOCK
  5
1494
330
1489
100
AcDbEntity
  8
0
100
AcDbBlockBegin
  2
*D57
 70
     1
 10
0.0
 20
0.0
 30
0.0
  3
*D57
  1

  0
LINE
  5
1602
330
1489
100
AcDbEntity
  8
SUNPOU
 62
     0
370
    -2
100
AcDbLine
 10
5019.939362054718
 20
2531.955967406767
 30
0.0
 11
5534.939362054718
 21
2531.955967406766
 31
0.0
  0
LINE
  5
1603
330
1489
100
AcDbEntity
  8
SUNPOU
 62
     0
370
    -2
100
AcDbLine
 10
5019.939362054718
 20
2581.955967406767
 30
0.0
 11
5534.939362054718
 21
2581.955967406766
 31
0.0
  0
LINE
  5
1604
330
1489
100
AcDbEntity
  8
SUNPOU
 62
     0
370
    -2
100
AcDbLine
 10
5519.939362054718
 20
2471.955967406766
 30
0.0
 11
5519.939362054718
 21
2411.955967406766
 31
0.0
  0
LINE
  5
1605
330
1489
100
AcDbEntity
  8
SUNPOU
 62
     0
370
    -2
100
AcDbLine
 10
5519.939362054718
 20
2641.955967406766
 30
0.0
 11
5519.939362054718
 21
2701.955967406766
 31
0.0
  0
SOLID
  5
1606
330
1489
100
AcDbEntity
  8
SUNPOU
 62
     0
100
AcDbTrace
 10
5509.939362054718
 20
2471.955967406766
 30
0.0
 11
5529.939362054718
 21
2471.955967406766
 31
0.0
 12
5519.939362054718
 22
2531.955967406766
 32
0.0
 13
5519.939362054718
 23
2531.955967406766
 33
0.0
  0
SOLID
  5
1607
330
1489
100
AcDbEntity
  8
SUNPOU
 62
     0
100
AcDbTrace
 10
5509.939362054718
 20
2641.955967406766
 30
0.0
 11
5529.939362054718
 21
2641.955967406766
 31
0.0
 12
5519.939362054718
 22
2581.955967406766
 32
0.0
 13
5519.939362054718
 23
2581.955967406766
 33
0.0
  0
MTEXT
  5
1608
330
1489
100
AcDbEntity
  8
SUNPOU
 62
     0
100
AcDbMText
 10
5450.939362054717
 20
2556.955967406767
 30
0.0
 40
90.0
 41
0.0
 71
     5
 72
     1
  1
\A1;50
 11
6.123031769111886E-17
 21
1.0
 31
0.0
 73
     1
 44
1.0
  0
POINT
  5
1609
330
1489
100
AcDbEntity
  8
DEFPOINTS
 62
     0
100
AcDbPoint
 10
4959.939362054718
 20
2531.955967406767
 30
0.0
  0
POINT
  5
160A
330
1489
100
AcDbEntity
  8
DEFPOINTS
 62
     0
100
AcDbPoint
 10
4959.939362054718
 20
2581.955967406767
 30
0.0
  0
POINT
  5
160B
330
1489
100
AcDbEntity
  8
DEFPOINTS
 62
     0
100
AcDbPoint
 10
5519.939362054718
 20
2581.955967406766
 30
0.0
  0
ENDBLK
  5
1495
330
1489
100
AcDbEntity
  8
0
100
AcDbBlockEnd
  0
BLOCK
  5
14A2
330
1497
100
AcDbEntity
  8
0
100
AcDbBlockBegin
  2
*D58
 70
     1
 10
0.0
 20
0.0
 30
0.0
  3
*D58
  1

  0
LINE
  5
160C
330
1497
100
AcDbEntity
  8
SUNPOU
 62
     0
370
    -2
100
AcDbLine
 10
5019.939362054718
 20
631.9559674067668
 30
0.0
 11
5534.939362054718
 21
631.9559674067667
 31
0.0
  0
LINE
  5
160D
330
1497
100
AcDbEntity
  8
SUNPOU
 62
     0
370
    -2
100
AcDbLine
 10
5019.939362054718
 20
581.9559674067668
 30
0.0
 11
5534.939362054718
 21
581.9559674067667
 31
0.0
  0
LINE
  5
160E
330
1497
100
AcDbEntity
  8
SUNPOU
 62
     0
370
    -2
100
AcDbLine
 10
5519.939362054718
 20
691.9559674067667
 30
0.0
 11
5519.939362054718
 21
751.9559674067667
 31
0.0
  0
LINE
  5
160F
330
1497
100
AcDbEntity
  8
SUNPOU
 62
     0
370
    -2
100
AcDbLine
 10
5519.939362054718
 20
521.9559674067667
 30
0.0
 11
5519.939362054718
 21
461.9559674067667
 31
0.0
  0
SOLID
  5
1610
330
1497
100
AcDbEntity
  8
SUNPOU
 62
     0
100
AcDbTrace
 10
5509.939362054718
 20
691.9559674067667
 30
0.0
 11
5529.939362054718
 21
691.9559674067667
 31
0.0
 12
5519.939362054718
 22
631.9559674067667
 32
0.0
 13
5519.939362054718
 23
631.9559674067667
 33
0.0
  0
SOLID
  5
1611
330
1497
100
AcDbEntity
  8
SUNPOU
 62
     0
100
AcDbTrace
 10
5509.939362054718
 20
521.9559674067667
 30
0.0
 11
5529.939362054718
 21
521.9559674067667
 31
0.0
 12
5519.939362054718
 22
581.9559674067667
 32
0.0
 13
5519.939362054718
 23
581.9559674067667
 33
0.0
  0
MTEXT
  5
1612
330
1497
100
AcDbEntity
  8
SUNPOU
 62
     0
100
AcDbMText
 10
5450.939362054718
 20
606.9559674067676
 30
0.0
 40
90.0
 41
0.0
 71
     5
 72
     1
  1
\A1;50
 11
6.123031769111886E-17
 21
1.0
 31
0.0
 73
     1
 44
1.0
  0
POINT
  5
1613
330
1497
100
AcDbEntity
  8
DEFPOINTS
 62
     0
100
AcDbPoint
 10
4959.939362054718
 20
631.9559674067668
 30
0.0
  0
POINT
  5
1614
330
1497
100
AcDbEntity
  8
DEFPOINTS
 62
     0
100
AcDbPoint
 10
4959.939362054718
 20
581.9559674067668
 30
0.0
  0
POINT
  5
1615
330
1497
100
AcDbEntity
  8
DEFPOINTS
 62
     0
100
AcDbPoint
 10
5519.939362054718
 20
581.9559674067667
 30
0.0
  0
ENDBLK
  5
14A3
330
1497
100
AcDbEntity
  8
0
100
AcDbBlockEnd
  0
BLOCK
  5
14B9
330
14AF
100
AcDbEntity
  8
0
100
AcDbBlockBegin
  2
*D59
 70
     1
 10
0.0
 20
0.0
 30
0.0
  3
*D59
  1

  0
LINE
  5
165B
330
14AF
100
AcDbEntity
  8
SUNPOU
 62
     0
370
    -2
100
AcDbLine
 10
4959.939362054718
 20
2591.955967406767
 30
0.0
 11
4959.939362054718
 21
2869.285296985992
 31
0.0
  0
LINE
  5
165C
330
14AF
100
AcDbEntity
  8
SUNPOU
 62
     0
370
    -2
100
AcDbLine
 10
3312.339362054718
 20
2641.955967406767
 30
0.0
 11
3312.339362054718
 21
2869.285296985992
 31
0.0
  0
LINE
  5
165D
330
14AF
100
AcDbEntity
  8
SUNPOU
 62
     0
370
    -2
100
AcDbLine
 10
4899.939362054718
 20
2854.285296985992
 30
0.0
 11
3372.339362054718
 21
2854.285296985992
 31
0.0
  0
SOLID
  5
165E
330
14AF
100
AcDbEntity
  8
SUNPOU
 62
     0
100
AcDbTrace
 10
4899.939362054718
 20
2864.285296985992
 30
0.0
 11
4899.939362054718
 21
2844.285296985992
 31
0.0
 12
4959.939362054718
 22
2854.285296985992
 32
0.0
 13
4959.939362054718
 23
2854.285296985992
 33
0.0
  0
SOLID
  5
165F
330
14AF
100
AcDbEntity
  8
SUNPOU
 62
     0
100
AcDbTrace
 10
3372.339362054718
 20
2864.285296985992
 30
0.0
 11
3372.339362054718
 21
2844.285296985992
 31
0.0
 12
3312.339362054718
 22
2854.285296985992
 32
0.0
 13
3312.339362054718
 23
2854.285296985992
 33
0.0
  0
MTEXT
  5
1660
330
14AF
100
AcDbEntity
  8
SUNPOU
 62
     0
100
AcDbMText
 10
4136.139362054718
 20
2923.285296985992
 30
0.0
 40
90.0
 41
0.0
 71
     5
 72
     1
  1
\A1;1648
 73
     1
 44
1.0
  0
POINT
  5
1661
330
14AF
100
AcDbEntity
  8
DEFPOINTS
 62
     0
100
AcDbPoint
 10
4959.939362054718
 20
2531.955967406767
 30
0.0
  0
POINT
  5
1662
330
14AF
100
AcDbEntity
  8
DEFPOINTS
 62
     0
100
AcDbPoint
 10
3312.339362054718
 20
2581.955967406767
 30
0.0
  0
POINT
  5
1663
330
14AF
100
AcDbEntity
  8
DEFPOINTS
 62
     0
100
AcDbPoint
 10
3312.339362054718
 20
2854.285296985992
 30
0.0
  0
ENDBLK
  5
14BA
330
14AF
100
AcDbEntity
  8
0
100
AcDbBlockEnd
  0
BLOCK
  5
14CF
330
14C5
100
AcDbEntity
  8
0
100
AcDbBlockBegin
  2
*D60
 70
     1
 10
0.0
 20
0.0
 30
0.0
  3
*D60
  1

  0
LINE
  5
1652
330
14C5
100
AcDbEntity
  8
SUNPOU
 62
     0
370
    -2
100
AcDbLine
 10
3312.339362054718
 20
2641.955967406767
 30
0.0
 11
3312.339362054718
 21
2869.285296985992
 31
0.0
  0
LINE
  5
1653
330
14C5
100
AcDbEntity
  8
SUNPOU
 62
     0
370
    -2
100
AcDbLine
 10
2809.939362054718
 20
2641.955967406767
 30
0.0
 11
2809.939362054718
 21
2869.285296985992
 31
0.0
  0
LINE
  5
1654
330
14C5
100
AcDbEntity
  8
SUNPOU
 62
     0
370
    -2
100
AcDbLine
 10
3252.339362054718
 20
2854.285296985992
 30
0.0
 11
2869.939362054718
 21
2854.285296985992
 31
0.0
  0
SOLID
  5
1655
330
14C5
100
AcDbEntity
  8
SUNPOU
 62
     0
100
AcDbTrace
 10
3252.339362054718
 20
2864.285296985992
 30
0.0
 11
3252.339362054718
 21
2844.285296985992
 31
0.0
 12
3312.339362054718
 22
2854.285296985992
 32
0.0
 13
3312.339362054718
 23
2854.285296985992
 33
0.0
  0
SOLID
  5
1656
330
14C5
100
AcDbEntity
  8
SUNPOU
 62
     0
100
AcDbTrace
 10
2869.939362054718
 20
2864.285296985992
 30
0.0
 11
2869.939362054718
 21
2844.285296985992
 31
0.0
 12
2809.939362054718
 22
2854.285296985992
 32
0.0
 13
2809.939362054718
 23
2854.285296985992
 33
0.0
  0
MTEXT
  5
1657
330
14C5
100
AcDbEntity
  8
SUNPOU
 62
     0
100
AcDbMText
 10
3061.139362054718
 20
2923.285296985992
 30
0.0
 40
90.0
 41
0.0
 71
     5
 72
     1
  1
\A1;502
 73
     1
 44
1.0
  0
POINT
  5
1658
330
14C5
100
AcDbEntity
  8
DEFPOINTS
 62
     0
100
AcDbPoint
 10
3312.339362054718
 20
2581.955967406767
 30
0.0
  0
POINT
  5
1659
330
14C5
100
AcDbEntity
  8
DEFPOINTS
 62
     0
100
AcDbPoint
 10
2809.939362054718
 20
2581.955967406767
 30
0.0
  0
POINT
  5
165A
330
14C5
100
AcDbEntity
  8
DEFPOINTS
 62
     0
100
AcDbPoint
 10
2809.939362054718
 20
2854.285296985992
 30
0.0
  0
ENDBLK
  5
14D0
330
14C5
100
AcDbEntity
  8
0
100
AcDbBlockEnd
  0
BLOCK
  5
14DC
330
14D2
100
AcDbEntity
  8
0
100
AcDbBlockBegin
  2
*D61
 70
     1
 10
0.0
 20
0.0
 30
0.0
  3
*D61
  1

  0
LINE
  5
1628
330
14D2
100
AcDbEntity
  8
SUNPOU
 62
     0
370
    -2
100
AcDbLine
 10
2809.939362054718
 20
2641.955967406767
 30
0.0
 11
2809.939362054718
 21
3062.167367405931
 31
0.0
  0
LINE
  5
1629
330
14D2
100
AcDbEntity
  8
SUNPOU
 62
     0
370
    -2
100
AcDbLine
 10
4959.939362054718
 20
2591.955967406767
 30
0.0
 11
4959.939362054718
 21
3062.167367405931
 31
0.0
  0
LINE
  5
162A
330
14D2
100
AcDbEntity
  8
SUNPOU
 62
     0
370
    -2
100
AcDbLine
 10
2869.939362054718
 20
3047.167367405931
 30
0.0
 11
4899.939362054718
 21
3047.167367405931
 31
0.0
  0
SOLID
  5
162B
330
14D2
100
AcDbEntity
  8
SUNPOU
 62
     0
100
AcDbTrace
 10
2869.939362054718
 20
3057.167367405931
 30
0.0
 11
2869.939362054718
 21
3037.167367405931
 31
0.0
 12
2809.939362054718
 22
3047.167367405931
 32
0.0
 13
2809.939362054718
 23
3047.167367405931
 33
0.0
  0
SOLID
  5
162C
330
14D2
100
AcDbEntity
  8
SUNPOU
 62
     0
100
AcDbTrace
 10
4899.939362054718
 20
3057.167367405931
 30
0.0
 11
4899.939362054718
 21
3037.167367405931
 31
0.0
 12
4959.939362054718
 22
3047.167367405931
 32
0.0
 13
4959.939362054718
 23
3047.167367405931
 33
0.0
  0
MTEXT
  5
162D
330
14D2
100
AcDbEntity
  8
SUNPOU
 62
     0
100
AcDbMText
 10
3884.939362054718
 20
3116.167367405931
 30
0.0
 40
90.0
 41
0.0
 71
     5
 72
     1
  1
\A1;2150
 73
     1
 44
1.0
  0
POINT
  5
162E
330
14D2
100
AcDbEntity
  8
DEFPOINTS
 62
     0
100
AcDbPoint
 10
2809.939362054718
 20
2581.955967406767
 30
0.0
  0
POINT
  5
162F
330
14D2
100
AcDbEntity
  8
DEFPOINTS
 62
     0
100
AcDbPoint
 10
4959.939362054718
 20
2531.955967406767
 30
0.0
  0
POINT
  5
1630
330
14D2
100
AcDbEntity
  8
DEFPOINTS
 62
     0
100
AcDbPoint
 10
4959.939362054718
 20
3047.167367405931
 30
0.0
  0
ENDBLK
  5
14DD
330
14D2
100
AcDbEntity
  8
0
100
AcDbBlockEnd
  0
ENDSEC
  0
SECTION
  2
ENTITIES
  0
TEXT
  5
5F
330
17
100
AcDbEntity
  8
SUNPOU
100
AcDbText
 10
11549.99999999999
 20
480.0
 30
0.0
 40
90.0
  1
30
100
AcDbText
  0
INSERT
  5
60
330
17
100
AcDbEntity
  8
HAIKIN
100
AcDbBlockReference
  2
SA3
 10
510.0
 20
0.0
 30
0.0
 41
30.0
 42
30.0
 43
30.0
  0
TEXT
  5
F19
330
17
100
AcDbEntity
  8
HAIKIN
100
AcDbText
 10
5056.662951046113
 20
7916.123746791505
 30
0.0
 40
120.0
  1
デザインウォ－ル H=3000 （2ｍ）
 72
     1
 11
6262.662951046113
 21
7916.123746791505
 31
0.0
100
AcDbText
  0
LINE
  5
F1A
330
17
100
AcDbEntity
  8
SEIHIN
100
AcDbLine
 10
3012.341146012217
 20
4669.091209262677
 30
0.0
 11
2879.939362054718
 21
6761.039395791176
 31
0.0
  0
LINE
  5
F1E
330
17
100
AcDbEntity
  8
SEIHIN
100
AcDbLine
 10
2809.939362054718
 20
4171.039395791176
 30
0.0
 11
2809.939362054718
 21
7171.039395791176
 31
0.0
  0
DIMENSION
  5
F20
330
17
100
AcDbEntity
  8
SUNPOU
100
AcDbDimension
  2
*D28
 10
1843.40285549299
 20
7171.039395791177
 30
0.0
 11
1774.402855492989
 21
5671.039395791177
 31
0.0
 70
    32
 71
     5
 42
3000.0
  3
A3-30
100
AcDbAlignedDimension
 13
2809.939362054718
 23
4171.039395791176
 33
0.0
 14
2809.939362054718
 24
7171.039395791176
 34
0.0
 50
90.0
100
AcDbRotatedDimension
  0
LINE
  5
F22
330
17
100
AcDbEntity
  8
SEIHIN
100
AcDbLine
 10
2809.939362054718
 20
4171.039395791176
 30
0.0
 11
4959.939362054718
 21
4171.039395791176
 31
0.0
  0
DIMENSION
  5
F23
330
17
100
AcDbEntity
  8
SUNPOU
100
AcDbDimension
  2
*D29
 10
4959.939362054718
 20
3471.9358929095
 30
0.0
 11
3884.939362054718
 21
3540.9358929095
 31
0.0
 70
    32
 71
     5
 42
2150.0
  3
A3-30
100
AcDbAlignedDimension
 13
2809.939362054718
 23
4171.039395791176
 33
0.0
 14
4959.939362054718
 24
4171.039395791176
 34
0.0
100
AcDbRotatedDimension
  0
LINE
  5
F26
330
17
100
AcDbEntity
  8
SEIHIN
100
AcDbLine
 10
4959.939362054718
 20
4241.039395791176
 30
0.0
 11
3312.339362054721
 21
4369.091209262678
 31
0.0
  0
LINE
  5
F2C
330
17
100
AcDbEntity
  8
1HASEN
100
AcDbLine
 10
3029.939362054718
 20
4341.039395791176
 30
0.0
 11
3029.939362054718
 21
4441.039395791176
 31
0.0
  0
LINE
  5
F30
330
17
100
AcDbEntity
  8
1HASEN
100
AcDbLine
 10
2979.939362054718
 20
4391.039395791176
 30
0.0
 11
3079.939362054718
 21
4391.039395791176
 31
0.0
  0
DIMENSION
  5
F3E
330
17
100
AcDbEntity
  8
SUNPOU
100
AcDbDimension
  2
*D30
 10
5519.939362054718
 20
4171.039395791176
 30
0.0
 11
5450.939362054717
 21
4206.039395791177
 31
0.0
 70
    32
 71
     5
 42
70.0
  3
A3-30
100
AcDbAlignedDimension
 13
4959.939362054718
 23
4241.039395791176
 33
0.0
 14
4959.939362054718
 24
4171.039395791176
 34
0.0
 50
90.0
100
AcDbRotatedDimension
  0
LINE
  5
F40
330
17
100
AcDbEntity
  8
SEIHIN
100
AcDbLine
 10
4959.939362054718
 20
4171.039395791176
 30
0.0
 11
4959.939362054718
 21
4241.039395791176
 31
0.0
  0
LINE
  5
F41
330
17
100
AcDbEntity
  8
SEIHIN
100
AcDbLine
 10
2809.939362054718
 20
7171.039395791176
 30
0.0
 11
2879.939362054718
 21
7171.039395791176
 31
0.0
  0
LINE
  5
F46
330
17
100
AcDbEntity
  8
HASEN
100
AcDbLine
 10
2988.027969649655
 20
4893.539395791176
 30
0.0
 11
2844.939362054718
 21
4889.539395791176
 31
0.0
  0
LINE
  5
F47
330
17
100
AcDbEntity
  8
HASEN
100
AcDbLine
 10
2844.939362054718
 20
4852.539395791176
 30
0.0
 11
2988.027969649655
 21
4848.539395791176
 31
0.0
  0
DIMENSION
  5
F48
330
17
100
AcDbEntity
  8
SUNPOU
100
AcDbDimension
  2
*D31
 10
2879.939362054718
 20
7631.039395791176
 30
0.0
 11
2844.939362054718
 21
7700.039395791176
 31
0.0
 70
    32
 71
     5
 42
70.0
  3
A3-30
100
AcDbAlignedDimension
 13
2809.939362054718
 23
7171.039395791176
 33
0.0
 14
2879.939362054718
 24
7171.039395791176
 34
0.0
100
AcDbRotatedDimension
  0
LINE
  5
F4A
330
17
100
AcDbEntity
  8
1HASEN
100
AcDbLine
 10
2689.939362054718
 20
4871.039395791176
 30
0.0
 11
3089.939362054718
 21
4871.039395791176
 31
0.0
  0
LINE
  5
F4B
330
17
100
AcDbEntity
  8
HASEN
100
AcDbLine
 10
2844.939362054718
 20
4846.039395791176
 30
0.0
 11
2844.939362054718
 21
4896.039395791176
 31
0.0
  0
LINE
  5
F4C
330
17
100
AcDbEntity
  8
HASEN
100
AcDbLine
 10
2844.939362054718
 20
4846.039395791176
 30
0.0
 11
2809.939362054718
 21
4831.039395791176
 31
0.0
  0
LINE
  5
F4E
330
17
100
AcDbEntity
  8
HASEN
100
AcDbLine
 10
2844.939362054718
 20
4896.039395791176
 30
0.0
 11
2809.939362054718
 21
4911.039395791176
 31
0.0
  0
LINE
  5
F57
330
17
100
AcDbEntity
  8
HASEN
100
AcDbLine
 10
2988.027969649655
 20
4896.039395791176
 30
0.0
 11
2988.027969649655
 21
4846.039395791176
 31
0.0
  0
LINE
  5
F59
330
17
100
AcDbEntity
  8
HASEN
100
AcDbLine
 10
2988.027969649655
 20
4846.039395791176
 30
0.0
 11
3002.10349835056
 21
4831.039395791176
 31
0.0
  0
LINE
  5
F60
330
17
100
AcDbEntity
  8
HASEN
100
AcDbLine
 10
2988.027969649655
 20
4896.039395791176
 30
0.0
 11
2997.027969649655
 21
4911.039395791176
 31
0.0
  0
LINE
  5
F66
330
17
100
AcDbEntity
  8
SEIHIN
100
AcDbLine
 10
2879.939362054718
 20
7171.039395791176
 30
0.0
 11
2879.939362054718
 21
6761.039395791176
 31
0.0
  0
TEXT
  5
F69
330
17
100
AcDbEntity
  8
SUNPOU
100
AcDbText
 10
10346.25
 20
975.0
 30
0.0
 40
75.0
  1
デザインウォ－ル H=3000 （2ｍ）
 72
     4
 11
11100.0
 21
1012.5
 31
0.0
100
AcDbText
  0
DIMENSION
  5
F6A
330
17
100
AcDbEntity
  8
SUNPOU
100
AcDbDimension
  2
*D32
 10
2042.008473168338
 20
4391.039395791177
 30
0.0
 11
1973.008473168337
 21
4281.039395791177
 31
0.0
 70
   160
 71
     5
 42
220.0
  3
A3-30
100
AcDbAlignedDimension
 13
2809.939362054718
 23
4171.039395791176
 33
0.0
 14
2809.939362054718
 24
4391.039395791176
 34
0.0
 50
90.0
100
AcDbRotatedDimension
  0
DIMENSION
  5
F6B
330
17
100
AcDbEntity
  8
SUNPOU
100
AcDbDimension
  2
*D33
 10
2042.008473168338
 20
7171.039395791177
 30
0.0
 11
1973.008473168337
 21
5781.039395791177
 31
0.0
 70
    32
 71
     5
 42
2780.0
  3
A3-30
100
AcDbAlignedDimension
 13
2809.939362054718
 23
4391.039395791176
 33
0.0
 14
2809.939362054718
 24
7171.039395791176
 34
0.0
 50
90.0
100
AcDbRotatedDimension
  0
DIMENSION
  5
F6C
330
17
100
AcDbEntity
  8
SUNPOU
100
AcDbDimension
  2
*D34
 10
5519.939362054719
 20
6761.039395791176
 30
0.0
 11
5450.939362054717
 21
6966.039395791177
 31
0.0
 70
    32
 71
     5
 42
410.0
  3
A3-30
100
AcDbAlignedDimension
 13
2879.939362054718
 23
7171.039395791176
 33
0.0
 14
2879.939362054718
 24
6761.039395791176
 34
0.0
 50
90.0
100
AcDbRotatedDimension
  0
LINE
  5
F91
330
17
100
AcDbEntity
  8
1HASEN
100
AcDbLine
 10
7739.258925123111
 20
7351.039395791176
 30
0.0
 11
7739.258925123111
 21
4041.904448612295
 31
0.0
  0
LINE
  5
F92
330
17
100
AcDbEntity
  8
SEIHIN
100
AcDbLine
 10
6739.258925123111
 20
7171.039395791176
 30
0.0
 11
6739.258925123111
 21
4171.039395791175
 31
0.0
  0
LINE
  5
F93
330
17
100
AcDbEntity
  8
SEIHIN
100
AcDbLine
 10
8739.258925123111
 20
4171.039395791177
 30
0.0
 11
8739.258925123111
 21
7171.039395791176
 31
0.0
  0
LINE
  5
F99
330
17
100
AcDbEntity
  8
SEIHIN
100
AcDbLine
 10
6739.258925123111
 20
4669.09120926268
 30
0.0
 11
8739.258925123111
 21
4669.091209262679
 31
0.0
  0
LINE
  5
F9B
330
17
100
AcDbEntity
  8
SEIHIN
100
AcDbLine
 10
6789.258925123111
 20
4241.039395791176
 30
0.0
 11
8689.258925123104
 21
4241.039395791176
 31
0.0
  0
LINE
  5
F9D
330
17
100
AcDbEntity
  8
SEIHIN
100
AcDbLine
 10
6739.258925123112
 20
4171.039395791175
 30
0.0
 11
8739.258925123111
 21
4171.039395791177
 31
0.0
  0
LINE
  5
F9E
330
17
100
AcDbEntity
  8
SEIHIN
100
AcDbLine
 10
6739.258925123111
 20
4369.09120926268
 30
0.0
 11
6789.258925123111
 21
4241.039395791176
 31
0.0
  0
LINE
  5
FA0
330
17
100
AcDbEntity
  8
SEIHIN
100
AcDbLine
 10
6789.258925123111
 20
4241.039395791176
 30
0.0
 11
6789.258925123111
 21
4171.039395791176
 31
0.0
  0
LINE
  5
FA6
330
17
100
AcDbEntity
  8
1HASEN
100
AcDbLine
 10
8323.758925123111
 20
4871.039395791176
 30
0.0
 11
8154.758925123097
 21
4871.039395791176
 31
0.0
  0
CIRCLE
  5
FA7
330
17
100
AcDbEntity
  8
SUNPOU
100
AcDbCircle
 10
8239.258925123107
 20
4871.039395791176
 30
0.0
 40
40.0
  0
CIRCLE
  5
FA8
330
17
100
AcDbEntity
  8
SUNPOU
100
AcDbCircle
 10
8239.258925123107
 20
4871.039395791176
 30
0.0
 40
25.0
  0
LINE
  5
FA9
330
17
100
AcDbEntity
  8
1HASEN
100
AcDbLine
 10
8239.258925123107
 20
4955.539395791187
 30
0.0
 11
8239.258925123107
 21
4786.539395791165
 31
0.0
  0
LINE
  5
FC5
330
17
100
AcDbEntity
  8
SEIHIN
100
AcDbLine
 10
8739.258925123111
 20
7171.039395791176
 30
0.0
 11
6739.258925123111
 21
7171.039395791176
 31
0.0
  0
DIMENSION
  5
FC6
330
17
100
AcDbEntity
  8
SUNPOU
100
AcDbDimension
  2
*D43
 10
8739.258925123111
 20
7631.039395791176
 30
0.0
 11
7739.258925123111
 21
7700.039395791176
 31
0.0
 70
    32
  1
2000
 71
     5
 42
2000.0
  3
A3-30
100
AcDbAlignedDimension
 13
6739.258925123111
 23
7171.039395791176
 33
0.0
 14
8739.258925123111
 24
7171.039395791176
 34
0.0
100
AcDbRotatedDimension
  0
DIMENSION
  5
FC7
330
17
100
AcDbEntity
  8
SUNPOU
100
AcDbDimension
  2
*D44
 10
3029.939362054718
 20
3656.207731580551
 30
0.0
 11
2919.939362054718
 21
3725.207731580551
 31
0.0
 70
   160
 71
     5
 42
220.0
  3
A3-30
100
AcDbAlignedDimension
 13
2809.939362054718
 23
4171.039395791176
 33
0.0
 14
3029.939362054718
 24
4171.039395791176
 34
0.0
100
AcDbRotatedDimension
  0
DIMENSION
  5
FC8
330
17
100
AcDbEntity
  8
SUNPOU
100
AcDbDimension
  2
*D45
 10
4959.939362054718
 20
3656.207731580551
 30
0.0
 11
3994.939362054718
 21
3725.207731580551
 31
0.0
 70
    32
 71
     5
 42
1930.0
  3
A3-30
100
AcDbAlignedDimension
 13
3029.939362054718
 23
4171.039395791176
 33
0.0
 14
4959.939362054718
 24
4171.039395791176
 34
0.0
100
AcDbRotatedDimension
  0
LINE
  5
FD2
330
17
100
AcDbEntity
  8
1HASEN
100
AcDbLine
 10
7239.258925123107
 20
4955.539395791187
 30
0.0
 11
7239.258925123107
 21
4786.539395791165
 31
0.0
  0
CIRCLE
  5
FD3
330
17
100
AcDbEntity
  8
SUNPOU
100
AcDbCircle
 10
7239.258925123107
 20
4871.039395791176
 30
0.0
 40
25.0
  0
CIRCLE
  5
FD4
330
17
100
AcDbEntity
  8
SUNPOU
100
AcDbCircle
 10
7239.258925123107
 20
4871.039395791176
 30
0.0
 40
40.0
  0
LINE
  5
FD5
330
17
100
AcDbEntity
  8
1HASEN
100
AcDbLine
 10
7323.758925123111
 20
4871.039395791176
 30
0.0
 11
7154.758925123097
 21
4871.039395791176
 31
0.0
  0
TEXT
  5
135C
330
17
100
AcDbEntity
  8
SUNPOU
100
AcDbText
 10
2399.898388306974
 20
5106.144446949027
 30
0.0
 40
90.0
  1
水抜孔
 41
0.8
100
AcDbText
  0
LINE
  5
135D
330
17
100
AcDbEntity
  8
SUNPOU
100
AcDbLine
 10
2360.801035882832
 20
5089.252332110605
 30
0.0
 11
2679.326865092757
 21
5089.252332110605
 31
0.0
  0
LEADER
  5
135F
330
17
100
AcDbEntity
  8
SUNPOU
100
AcDbLeader
  3
A3-30
 76
     2
 10
2809.939362054718
 20
4871.039395791176
 30
0.0
 10
2679.326865092757
 20
5089.252332110605
 30
0.0
1001
ACAD
1000
DSTYLE
1002
{
1070
   147
1040
0.8
1070
    77
1070
     0
1002
}
  0
DIMENSION
  5
1360
330
17
100
AcDbEntity
  8
SUNPOU
100
AcDbDimension
  2
*D48
 10
5519.939362054719
 20
6761.039395791176
 30
0.0
 11
5450.939362054717
 21
5501.039395791177
 31
0.0
 70
    32
 71
     5
 42
2520.0
  3
A3-30
100
AcDbAlignedDimension
 13
4959.939362054718
 23
4241.039395791176
 33
0.0
 14
2879.939362054718
 24
6761.039395791176
 34
0.0
 50
90.0
100
AcDbRotatedDimension
  0
DIMENSION
  5
139B
330
17
100
AcDbEntity
  8
SUNPOU
100
AcDbDimension
  2
*D49
 10
2303.491281993549
 20
4871.039395791176
 30
0.0
 11
2234.491281993548
 21
4521.039395791177
 31
0.0
 70
    32
 71
     5
 42
700.0
  3
A3-30
100
AcDbAlignedDimension
 13
2809.939362054718
 23
4171.039395791176
 33
0.0
 14
2689.939362054718
 24
4871.039395791176
 34
0.0
 50
90.0
100
AcDbRotatedDimension
  0
DIMENSION
  5
141B
330
17
100
AcDbEntity
  8
SUNPOU
100
AcDbDimension
  2
*D50
 10
6340.959391432814
 20
4871.039395791175
 30
0.0
 11
6271.959391432813
 21
4521.039395791177
 31
0.0
 70
    32
 71
     5
 42
700.0
  3
A3-30
100
AcDbAlignedDimension
 13
6739.258925123111
 23
4171.039395791175
 33
0.0
 14
6739.258925123111
 24
4871.039395791175
 34
0.0
 50
90.0
100
AcDbRotatedDimension
  0
DIMENSION
  5
1428
330
17
100
AcDbEntity
  8
SUNPOU
100
AcDbDimension
  2
*D51
 10
6340.959391432815
 20
7171.039395791176
 30
0.0
 11
6271.959391432813
 21
6021.039395791177
 31
0.0
 70
    32
 71
     5
 42
2300.000000000001
  3
A3-30
100
AcDbAlignedDimension
 13
6739.258925123111
 23
4871.039395791175
 33
0.0
 14
6739.258925123111
 24
7171.039395791176
 34
0.0
 50
90.0
100
AcDbRotatedDimension
  0
DIMENSION
  5
1435
330
17
100
AcDbEntity
  8
SUNPOU
100
AcDbDimension
  2
*D52
 10
7239.258925123111
 20
3748.449243904262
 30
0.0
 11
6989.258925123111
 21
3817.449243904262
 31
0.0
 70
    32
 71
     5
 42
500.0
  3
A3-30
100
AcDbAlignedDimension
 13
6739.258925123111
 23
4171.039395791175
 33
0.0
 14
7239.258925123111
 24
4171.039395791175
 34
0.0
100
AcDbRotatedDimension
  0
DIMENSION
  5
1442
330
17
100
AcDbEntity
  8
SUNPOU
100
AcDbDimension
  2
*D53
 10
8239.258925123111
 20
3748.449243904262
 30
0.0
 11
7739.258925123111
 21
3817.449243904262
 31
0.0
 70
    32
 71
     5
 42
1000.0
  3
A3-30
100
AcDbAlignedDimension
 13
7239.258925123111
 23
4171.039395791175
 33
0.0
 14
8239.258925123111
 24
4171.039395791175
 34
0.0
100
AcDbRotatedDimension
  0
DIMENSION
  5
144F
330
17
100
AcDbEntity
  8
SUNPOU
100
AcDbDimension
  2
*D54
 10
8739.258925123111
 20
3748.449243904262
 30
0.0
 11
8489.258925123111
 21
3817.449243904262
 31
0.0
 70
    32
 71
     5
 42
500.0
  3
A3-30
100
AcDbAlignedDimension
 13
8239.258925123111
 23
4171.039395791175
 33
0.0
 14
8739.258925123111
 24
4171.039395791177
 34
0.0
100
AcDbRotatedDimension
  0
LINE
  5
1463
330
17
100
AcDbEntity
  8
SEIHIN
100
AcDbLine
 10
2809.939362054718
 20
2581.955967406767
 30
0.0
 11
3312.339362054718
 21
2581.955967406767
 31
0.0
  0
LINE
  5
1465
330
17
100
AcDbEntity
  8
SEIHIN
100
AcDbLine
 10
2809.939362054718
 20
2581.955967406767
 30
0.0
 11
2809.939362054718
 21
581.9559674067666
 31
0.0
  0
LINE
  5
1466
330
17
100
AcDbEntity
  8
SEIHIN
100
AcDbLine
 10
4959.939362054718
 20
2531.955967406767
 30
0.0
 11
4959.939362054718
 21
631.9559674067668
 31
0.0
  0
LINE
  5
1467
330
17
100
AcDbEntity
  8
1HASEN
100
AcDbLine
 10
2653.641471491748
 20
1581.955967406767
 30
0.0
 11
5109.91539364808
 21
1581.955967406767
 31
0.0
  0
LINE
  5
146A
330
17
100
AcDbEntity
  8
SEIHIN
100
AcDbLine
 10
3312.339362054718
 20
2581.955967406767
 30
0.0
 11
4959.939362054718
 21
2531.955967406767
 31
0.0
  0
LINE
  5
146C
330
17
100
AcDbEntity
  8
SEIHIN
100
AcDbLine
 10
2879.939362054718
 20
2581.955967406767
 30
0.0
 11
2879.939362054718
 21
581.9559674067666
 31
0.0
  0
DIMENSION
  5
146E
330
17
100
AcDbEntity
  8
SUNPOU
100
AcDbDimension
  2
*D55
 10
2204.088764941807
 20
581.9559674067667
 30
0.0
 11
2135.088764941807
 21
1581.955967406767
 31
0.0
 70
    32
 71
     5
 42
2000.0
  3
A3-30
100
AcDbAlignedDimension
 13
2809.939362054718
 23
2581.955967406767
 33
0.0
 14
2809.939362054718
 24
581.9559674067666
 34
0.0
 50
90.0
100
AcDbRotatedDimension
  0
DIMENSION
  5
147B
330
17
100
AcDbEntity
  8
SUNPOU
100
AcDbDimension
  2
*D56
 10
5519.939362054718
 20
2531.955967406766
 30
0.0
 11
5450.939362054717
 21
1581.955967406768
 31
0.0
 70
    32
 71
     5
 42
1900.0
  3
A3-30
100
AcDbAlignedDimension
 13
4959.939362054718
 23
631.9559674067668
 33
0.0
 14
4959.939362054718
 24
2531.955967406767
 34
0.0
 50
90.0
100
AcDbRotatedDimension
  0
DIMENSION
  5
1488
330
17
100
AcDbEntity
  8
SUNPOU
100
AcDbDimension
  2
*D57
 10
5519.939362054718
 20
2581.955967406766
 30
0.0
 11
5450.939362054717
 21
2556.955967406767
 31
0.0
 70
    32
 71
     5
 42
50.0
  3
A3-30
100
AcDbAlignedDimension
 13
4959.939362054718
 23
2531.955967406767
 33
0.0
 14
4959.939362054718
 24
2581.955967406767
 34
0.0
 50
90.0
100
AcDbRotatedDimension
  0
DIMENSION
  5
1496
330
17
100
AcDbEntity
  8
SUNPOU
100
AcDbDimension
  2
*D58
 10
5519.939362054718
 20
581.9559674067667
 30
0.0
 11
5450.939362054718
 21
606.9559674067676
 31
0.0
 70
    32
 71
     5
 42
50.0
  3
A3-30
100
AcDbAlignedDimension
 13
4959.939362054718
 23
631.9559674067668
 33
0.0
 14
4959.939362054718
 24
581.9559674067668
 34
0.0
 50
270.0
100
AcDbRotatedDimension
  0
DIMENSION
  5
14AE
330
17
100
AcDbEntity
  8
SUNPOU
100
AcDbDimension
  2
*D59
 10
3312.339362054718
 20
2854.285296985992
 30
0.0
 11
4136.139362054718
 21
2923.285296985992
 31
0.0
 70
    32
 71
     5
 42
1647.6
  3
A3-30
100
AcDbAlignedDimension
 13
4959.939362054718
 23
2531.955967406767
 33
0.0
 14
3312.339362054718
 24
2581.955967406767
 34
0.0
100
AcDbRotatedDimension
  0
DIMENSION
  5
14C4
330
17
100
AcDbEntity
  8
SUNPOU
100
AcDbDimension
  2
*D60
 10
2809.939362054718
 20
2854.285296985992
 30
0.0
 11
3061.139362054718
 21
2923.285296985992
 31
0.0
 70
    32
 71
     5
 42
502.4000000000001
  3
A3-30
100
AcDbAlignedDimension
 13
3312.339362054718
 23
2581.955967406767
 33
0.0
 14
2809.939362054718
 24
2581.955967406767
 34
0.0
100
AcDbRotatedDimension
  0
DIMENSION
  5
14D1
330
17
100
AcDbEntity
  8
SUNPOU
100
AcDbDimension
  2
*D61
 10
4959.939362054718
 20
3047.167367405931
 30
0.0
 11
3884.939362054718
 21
3116.167367405931
 31
0.0
 70
    32
 71
     5
 42
2150.0
  3
A3-30
100
AcDbAlignedDimension
 13
2809.939362054718
 23
2581.955967406767
 33
0.0
 14
4959.939362054718
 24
2531.955967406767
 34
0.0
100
AcDbRotatedDimension
  0
LINE
  5
1641
330
17
100
AcDbEntity
  8
SEIHIN
100
AcDbLine
 10
3012.341146012217
 20
4669.09120926268
 30
0.0
 11
3312.339362054719
 21
4369.09120926268
 31
0.0
  0
LINE
  5
1649
330
17
100
AcDbEntity
  8
SEIHIN
100
AcDbLine
 10
3012.339362054718
 20
581.9559674067668
 30
0.0
 11
3012.339362054718
 21
2581.955967406767
 31
0.0
  0
LINE
  5
164A
330
17
100
AcDbEntity
  8
SEIHIN
100
AcDbLine
 10
3312.339362054718
 20
581.9559674067668
 30
0.0
 11
3312.339362054718
 21
2581.955967406767
 31
0.0
  0
LINE
  5
1664
330
17
100
AcDbEntity
  8
SEIHIN
100
AcDbLine
 10
2809.939362054718
 20
581.9559674067668
 30
0.0
 11
3312.339362054718
 21
581.9559674067668
 31
0.0
  0
LINE
  5
1665
330
17
100
AcDbEntity
  8
SEIHIN
100
AcDbLine
 10
3312.339362054718
 20
581.9559674067668
 30
0.0
 11
4959.939362054718
 21
631.9559674067668
 31
0.0
  0
LINE
  5
1667
330
17
100
AcDbEntity
  8
SEIHIN
100
AcDbLine
 10
6739.258925123111
 20
4369.09120926268
 30
0.0
 11
8739.258925123111
 21
4369.091209262679
 31
0.0
  0
LINE
  5
1668
330
17
100
AcDbEntity
  8
SEIHIN
100
AcDbLine
 10
8739.258925123111
 20
4369.09120926268
 30
0.0
 11
8689.258925123111
 21
4241.039395791176
 31
0.0
  0
LINE
  5
1669
330
17
100
AcDbEntity
  8
SEIHIN
100
AcDbLine
 10
8689.258925123111
 20
4241.039395791176
 30
0.0
 11
8689.258925123111
 21
4171.039395791176
 31
0.0
  0
ENDSEC
  0
SECTION
  2
OBJECTS
  0
DICTIONARY
  5
C
330
0
100
AcDbDictionary
281
     1
  3
ACAD_COLOR
350
9AA
  3
ACAD_GROUP
350
D
  3
ACAD_LAYOUT
350
7B
  3
ACAD_MATERIAL
350
9A9
  3
ACAD_MLEADERSTYLE
350
1697
  3
ACAD_MLINESTYLE
350
1A
  3
ACAD_PLOTSETTINGS
350
7C
  3
ACAD_PLOTSTYLENAME
350
79
  3
ACAD_SCALELIST
350
1670
  3
ACAD_TABLESTYLE
350
9AB
  3
ACDB_RECOMPOSE_DATA
350
1696
  3
AcDbVariableDictionary
350
946
  0
DICTIONARY
  5
9AA
102
{ACAD_REACTORS
330
C
102
}
330
C
100
AcDbDictionary
281
     1
  0
DICTIONARY
  5
D
102
{ACAD_REACTORS
330
C
102
}
330
C
100
AcDbDictionary
281
     1
  0
DICTIONARY
  5
7B
102
{ACAD_REACTORS
330
C
102
}
330
C
100
AcDbDictionary
281
     1
  3
Model
350
7D
  3
ﾚｲｱｳﾄ1
350
7E
  0
DICTIONARY
  5
9A9
102
{ACAD_REACTORS
330
C
102
}
330
C
100
AcDbDictionary
281
     1
  0
DICTIONARY
  5
1697
102
{ACAD_REACTORS
330
C
102
}
330
C
100
AcDbDictionary
281
     1
  0
DICTIONARY
  5
1A
102
{ACAD_REACTORS
330
C
102
}
330
C
100
AcDbDictionary
281
     1
  3
STANDARD
350
1B
  0
DICTIONARY
  5
7C
102
{ACAD_REACTORS
330
C
102
}
330
C
100
AcDbDictionary
281
     1
  0
ACDBDICTIONARYWDFLT
  5
79
102
{ACAD_REACTORS
330
C
102
}
330
C
100
AcDbDictionary
281
     1
  3
Normal
350
7A
100
AcDbDictionaryWithDefault
340
7A
  0
DICTIONARY
  5
1670
102
{ACAD_REACTORS
330
C
102
}
330
C
100
AcDbDictionary
281
     1
  3
A0
350
1671
  3
A1
350
1672
  3
A2
350
1673
  3
A3
350
1674
  3
A4
350
1675
  3
A5
350
1676
  3
A6
350
1677
  3
A7
350
1678
  3
A8
350
1679
  3
A9
350
167A
  3
B0
350
167B
  3
B1
350
167C
  3
B2
350
167D
  3
B3
350
167E
  3
B4
350
167F
  3
B5
350
1680
  3
B6
350
1681
  3
B7
350
1682
  3
B8
350
1683
  3
B9
350
1684
  3
C0
350
1685
  3
C1
350
1686
  3
C2
350
1687
  3
C3
350
1688
  3
C4
350
1689
  3
C5
350
168A
  3
C6
350
168B
  3
C7
350
168C
  3
C8
350
168D
  3
C9
350
168E
  3
D0
350
168F
  3
D1
350
1690
  3
D2
350
1691
  0
DICTIONARY
  5
9AB
102
{ACAD_REACTORS
330
C
102
}
330
C
100
AcDbDictionary
281
     1
  3
Standard
350
9AC
  0
XRECORD
  5
1696
102
{ACAD_REACTORS
330
C
102
}
330
C
100
AcDbXrecord
280
     1
 90
        1
330
9AC
  0
DICTIONARY
  5
946
102
{ACAD_REACTORS
330
C
102
}
330
C
100
AcDbDictionary
281
     1
  3
CANNOSCALE
350
1692
  3
CTABLESTYLE
350
CC1
  3
DIMASSOC
350
947
  3
PROJECTNAME
350
CC2
  0
LAYOUT
  5
7D
102
{ACAD_REACTORS
330
7B
102
}
330
7B
100
AcDbPlotSettings
  1

  2
C:\PROGRAM FILES\MDT6\plotters\RICOH SP9II RPDL.pc3
  4
A3
  6

 40
5.873749732971191
 41
5.873758316040039
 42
4.349761962890625
 43
8.159759521484375
 44
420.1159973144531
 45
296.9259948730469
 46
0.0
 47
0.0
 48
0.0
 49
0.0
140
0.0
141
0.0
142
1.0
143
1.0
 70
 11952
 72
     0
 73
     0
 74
     0
  7
acad.ctb
 75
     0
 76
     0
 77
     2
 78
   300
147
1.0
148
-52067.63847066872
149
1270.867660243985
100
AcDbLayout
  1
Model
 70
     1
 71
     0
 10
0.0
 20
0.0
 11
12.0
 21
9.0
 12
0.0
 22
0.0
 32
0.0
 14
0.0
 24
0.0
 34
0.0
 15
0.0
 25
0.0
 35
0.0
146
0.0
 13
0.0
 23
0.0
 33
0.0
 16
1.0
 26
0.0
 36
0.0
 17
0.0
 27
1.0
 37
0.0
 76
     0
330
17
331
166A
  0
LAYOUT
  5
7E
102
{ACAD_REACTORS
330
7B
102
}
330
7B
100
AcDbPlotSettings
  1

  2
C:\PROGRAM FILES\MDT6\plotters\RICOH SP9II RPDL.pc3
  4

  6

 40
0.0
 41
0.0
 42
0.0
 43
0.0
 44
0.0
 45
0.0
 46
0.0
 47
0.0
 48
0.0
 49
0.0
140
0.0
141
0.0
142
1.0
143
1.0
 70
   688
 72
     0
 73
     0
 74
     5
  7
acad.ctb
 75
    16
 76
     0
 77
     2
 78
   300
147
1.0
148
0.0
149
0.0
100
AcDbLayout
  1
ﾚｲｱｳﾄ1
 70
     0
 71
     1
 10
0.0
 20
0.0
 11
12.0
 21
9.0
 12
0.0
 22
0.0
 32
0.0
 14
1.000000000000000E+20
 24
1.000000000000000E+20
 34
1.000000000000000E+20
 15
-1.000000000000000E+20
 25
-1.000000000000000E+20
 35
-1.000000000000000E+20
146
0.0
 13
0.0
 23
0.0
 33
0.0
 16
1.0
 26
0.0
 36
0.0
 17
0.0
 27
1.0
 37
0.0
 76
     0
330
14
  0
MLINESTYLE
  5
1B
102
{ACAD_REACTORS
330
1A
102
}
330
1A
100
AcDbMlineStyle
  2
STANDARD
 70
     0
  3

 62
   256
 51
90.0
 52
90.0
 71
     2
 49
0.5
 62
   256
  6
BYLAYER
 49
-0.5
 62
   256
  6
BYLAYER
  0
ACDBPLACEHOLDER
  5
7A
102
{ACAD_REACTORS
330
79
102
}
330
79
  0
SCALE
  5
1671
102
{ACAD_REACTORS
330
1670
102
}
330
1670
100
AcDbScale
 70
     0
300
1:1
140
1.0
141
1.0
290
     1
  0
SCALE
  5
1672
102
{ACAD_REACTORS
330
1670
102
}
330
1670
100
AcDbScale
 70
     0
300
1:2
140
1.0
141
2.0
290
     0
  0
SCALE
  5
1673
102
{ACAD_REACTORS
330
1670
102
}
330
1670
100
AcDbScale
 70
     0
300
1:4
140
1.0
141
4.0
290
     0
  0
SCALE
  5
1674
102
{ACAD_REACTORS
330
1670
102
}
330
1670
100
AcDbScale
 70
     0
300
1:5
140
1.0
141
5.0
290
     0
  0
SCALE
  5
1675
102
{ACAD_REACTORS
330
1670
102
}
330
1670
100
AcDbScale
 70
     0
300
1:8
140
1.0
141
8.0
290
     0
  0
SCALE
  5
1676
102
{ACAD_REACTORS
330
1670
102
}
330
1670
100
AcDbScale
 70
     0
300
1:10
140
1.0
141
10.0
290
     0
  0
SCALE
  5
1677
102
{ACAD_REACTORS
330
1670
102
}
330
1670
100
AcDbScale
 70
     0
300
1:16
140
1.0
141
16.0
290
     0
  0
SCALE
  5
1678
102
{ACAD_REACTORS
330
1670
102
}
330
1670
100
AcDbScale
 70
     0
300
1:20
140
1.0
141
20.0
290
     0
  0
SCALE
  5
1679
102
{ACAD_REACTORS
330
1670
102
}
330
1670
100
AcDbScale
 70
     0
300
1:30
140
1.0
141
30.0
290
     0
  0
SCALE
  5
167A
102
{ACAD_REACTORS
330
1670
102
}
330
1670
100
AcDbScale
 70
     0
300
1:40
140
1.0
141
40.0
290
     0
  0
SCALE
  5
167B
102
{ACAD_REACTORS
330
1670
102
}
330
1670
100
AcDbScale
 70
     0
300
1:50
140
1.0
141
50.0
290
     0
  0
SCALE
  5
167C
102
{ACAD_REACTORS
330
1670
102
}
330
1670
100
AcDbScale
 70
     0
300
1:100
140
1.0
141
100.0
290
     0
  0
SCALE
  5
167D
102
{ACAD_REACTORS
330
1670
102
}
330
1670
100
AcDbScale
 70
     0
300
2:1
140
2.0
141
1.0
290
     0
  0
SCALE
  5
167E
102
{ACAD_REACTORS
330
1670
102
}
330
1670
100
AcDbScale
 70
     0
300
4:1
140
4.0
141
1.0
290
     0
  0
SCALE
  5
167F
102
{ACAD_REACTORS
330
1670
102
}
330
1670
100
AcDbScale
 70
     0
300
8:1
140
8.0
141
1.0
290
     0
  0
SCALE
  5
1680
102
{ACAD_REACTORS
330
1670
102
}
330
1670
100
AcDbScale
 70
     0
300
10:1
140
10.0
141
1.0
290
     0
  0
SCALE
  5
1681
102
{ACAD_REACTORS
330
1670
102
}
330
1670
100
AcDbScale
 70
     0
300
100:1
140
100.0
141
1.0
290
     0
  0
SCALE
  5
1682
102
{ACAD_REACTORS
330
1670
102
}
330
1670
100
AcDbScale
 70
     0
300
1/128" = 1'-0"
140
0.0078125
141
12.0
290
     0
  0
SCALE
  5
1683
102
{ACAD_REACTORS
330
1670
102
}
330
1670
100
AcDbScale
 70
     0
300
1/64" = 1'-0"
140
0.015625
141
12.0
290
     0
  0
SCALE
  5
1684
102
{ACAD_REACTORS
330
1670
102
}
330
1670
100
AcDbScale
 70
     0
300
1/32" = 1'-0"
140
0.03125
141
12.0
290
     0
  0
SCALE
  5
1685
102
{ACAD_REACTORS
330
1670
102
}
330
1670
100
AcDbScale
 70
     0
300
1/16" = 1'-0"
140
0.0625
141
12.0
290
     0
  0
SCALE
  5
1686
102
{ACAD_REACTORS
330
1670
102
}
330
1670
100
AcDbScale
 70
     0
300
3/32" = 1'-0"
140
0.09375
141
12.0
290
     0
  0
SCALE
  5
1687
102
{ACAD_REACTORS
330
1670
102
}
330
1670
100
AcDbScale
 70
     0
300
1/8" = 1'-0"
140
0.125
141
12.0
290
     0
  0
SCALE
  5
1688
102
{ACAD_REACTORS
330
1670
102
}
330
1670
100
AcDbScale
 70
     0
300
3/16" = 1'-0"
140
0.1875
141
12.0
290
     0
  0
SCALE
  5
1689
102
{ACAD_REACTORS
330
1670
102
}
330
1670
100
AcDbScale
 70
     0
300
1/4" = 1'-0"
140
0.25
141
12.0
290
     0
  0
SCALE
  5
168A
102
{ACAD_REACTORS
330
1670
102
}
330
1670
100
AcDbScale
 70
     0
300
3/8" = 1'-0"
140
0.375
141
12.0
290
     0
  0
SCALE
  5
168B
102
{ACAD_REACTORS
330
1670
102
}
330
1670
100
AcDbScale
 70
     0
300
1/2" = 1'-0"
140
0.5
141
12.0
290
     0
  0
SCALE
  5
168C
102
{ACAD_REACTORS
330
1670
102
}
330
1670
100
AcDbScale
 70
     0
300
3/4" = 1'-0"
140
0.75
141
12.0
290
     0
  0
SCALE
  5
168D
102
{ACAD_REACTORS
330
1670
102
}
330
1670
100
AcDbScale
 70
     0
300
1" = 1'-0"
140
1.0
141
12.0
290
     0
  0
SCALE
  5
168E
102
{ACAD_REACTORS
330
1670
102
}
330
1670
100
AcDbScale
 70
     0
300
1-1/2" = 1'-0"
140
1.5
141
12.0
290
     0
  0
SCALE
  5
168F
102
{ACAD_REACTORS
330
1670
102
}
330
1670
100
AcDbScale
 70
     0
300
3" = 1'-0"
140
3.0
141
12.0
290
     0
  0
SCALE
  5
1690
102
{ACAD_REACTORS
330
1670
102
}
330
1670
100
AcDbScale
 70
     0
300
6" = 1'-0"
140
6.0
141
12.0
290
     0
  0
SCALE
  5
1691
102
{ACAD_REACTORS
330
1670
102
}
330
1670
100
AcDbScale
 70
     0
300
1'-0" = 1'-0"
140
12.0
141
12.0
290
     0
  0
TABLESTYLE
  5
9AC
102
{ACAD_REACTORS
330
9AB
102
}
102
{ACAD_XDICTIONARY
360
1693
102
}
330
9AB
100
AcDbTableStyle
  3
Standard
 70
     0
 71
     0
 40
0.06
 41
0.06
280
     0
281
     0
  7
STANDARD
140
0.18
170
     2
 62
     0
 63
   257
283
     0
274
    -2
284
     1
 64
     0
275
    -2
285
     1
 65
     0
276
    -2
286
     1
 66
     0
277
    -2
287
     1
 67
     0
278
    -2
288
     1
 68
     0
279
    -2
289
     1
 69
     0
  7
STANDARD
140
0.25
170
     5
 62
     0
 63
   257
283
     0
274
    -2
284
     1
 64
     0
275
    -2
285
     1
 65
     0
276
    -2
286
     1
 66
     0
277
    -2
287
     1
 67
     0
278
    -2
288
     1
 68
     0
279
    -2
289
     1
 69
     0
  7
STANDARD
140
0.18
170
     5
 62
     0
 63
   257
283
     0
274
    -2
284
     1
 64
     0
275
    -2
285
     1
 65
     0
276
    -2
286
     1
 66
     0
277
    -2
287
     1
 67
     0
278
    -2
288
     1
 68
     0
279
    -2
289
     1
 69
     0
  0
DICTIONARYVAR
  5
1692
102
{ACAD_REACTORS
330
946
102
}
330
946
100
DictionaryVariables
280
     0
  1
1:1
  0
DICTIONARYVAR
  5
CC1
102
{ACAD_REACTORS
330
946
102
}
330
946
100
DictionaryVariables
280
     0
  1
Standard
  0
DICTIONARYVAR
  5
947
102
{ACAD_REACTORS
330
946
102
}
330
946
100
DictionaryVariables
280
     0
  1
1
  0
DICTIONARYVAR
  5
CC2
102
{ACAD_REACTORS
330
946
102
}
330
946
100
DictionaryVariables
280
     0
  1

  0
DICTIONARY
  5
1693
330
9AC
100
AcDbDictionary
280
     1
281
     1
  3
ACAD_ROUNDTRIP_2008_TABLESTYLE_CELLSTYLEMAP
360
1695
  3
ACAD_XREC_ROUNDTRIP
360
1694
  0
CELLSTYLEMAP
  5
1695
102
{ACAD_REACTORS
330
1693
102
}
330
1693
100
AcDbCellStyleMap
 90
        3
300
CELLSTYLE
  1
TABLEFORMAT_BEGIN
 90
        5
170
     1
 91
        0
 92
    32768
 62
   257
 93
        1
300
CONTENTFORMAT
  1
CONTENTFORMAT_BEGIN
 90
        0
 91
        0
 92
        4
 93
        0
300

 40
0.0
140
1.0
 94
        5
 62
     0
340
F
144
0.25
309
CONTENTFORMAT_END
171
     1
301
MARGIN
  1
CELLMARGIN_BEGIN
 40
0.06
 40
0.06
 40
0.06
 40
0.06
 40
0.06
 40
0.06
309
CELLMARGIN_END
 94
        6
 95
        1
302
GRIDFORMAT
  1
GRIDFORMAT_BEGIN
 90
        0
 91
        1
 62
     0
 92
       -2
340
0
 93
        0
 40
0.045
309
GRIDFORMAT_END
 95
        2
302
GRIDFORMAT
  1
GRIDFORMAT_BEGIN
 90
        0
 91
        1
 62
     0
 92
       -2
340
0
 93
        0
 40
0.045
309
GRIDFORMAT_END
 95
        4
302
GRIDFORMAT
  1
GRIDFORMAT_BEGIN
 90
        0
 91
        1
 62
     0
 92
       -2
340
0
 93
        0
 40
0.045
309
GRIDFORMAT_END
 95
        8
302
GRIDFORMAT
  1
GRIDFORMAT_BEGIN
 90
        0
 91
        1
 62
     0
 92
       -2
340
0
 93
        0
 40
0.045
309
GRIDFORMAT_END
 95
       16
302
GRIDFORMAT
  1
GRIDFORMAT_BEGIN
 90
        0
 91
        1
 62
     0
 92
       -2
340
0
 93
        0
 40
0.045
309
GRIDFORMAT_END
 95
       32
302
GRIDFORMAT
  1
GRIDFORMAT_BEGIN
 90
        0
 91
        1
 62
     0
 92
       -2
340
0
 93
        0
 40
0.045
309
GRIDFORMAT_END
309
TABLEFORMAT_END
  1
CELLSTYLE_BEGIN
 90
        1
 91
        1
300
_TITLE
309
CELLSTYLE_END
300
CELLSTYLE
  1
TABLEFORMAT_BEGIN
 90
        5
170
     1
 91
        0
 92
        0
 62
   257
 93
        1
300
CONTENTFORMAT
  1
CONTENTFORMAT_BEGIN
 90
        0
 91
        0
 92
        4
 93
        0
300

 40
0.0
140
1.0
 94
        5
 62
     0
340
F
144
0.18
309
CONTENTFORMAT_END
171
     1
301
MARGIN
  1
CELLMARGIN_BEGIN
 40
0.06
 40
0.06
 40
0.06
 40
0.06
 40
0.06
 40
0.06
309
CELLMARGIN_END
 94
        6
 95
        1
302
GRIDFORMAT
  1
GRIDFORMAT_BEGIN
 90
        0
 91
        1
 62
     0
 92
       -2
340
0
 93
        0
 40
0.045
309
GRIDFORMAT_END
 95
        2
302
GRIDFORMAT
  1
GRIDFORMAT_BEGIN
 90
        0
 91
        1
 62
     0
 92
       -2
340
0
 93
        0
 40
0.045
309
GRIDFORMAT_END
 95
        4
302
GRIDFORMAT
  1
GRIDFORMAT_BEGIN
 90
        0
 91
        1
 62
     0
 92
       -2
340
0
 93
        0
 40
0.045
309
GRIDFORMAT_END
 95
        8
302
GRIDFORMAT
  1
GRIDFORMAT_BEGIN
 90
        0
 91
        1
 62
     0
 92
       -2
340
0
 93
        0
 40
0.045
309
GRIDFORMAT_END
 95
       16
302
GRIDFORMAT
  1
GRIDFORMAT_BEGIN
 90
        0
 91
        1
 62
     0
 92
       -2
340
0
 93
        0
 40
0.045
309
GRIDFORMAT_END
 95
       32
302
GRIDFORMAT
  1
GRIDFORMAT_BEGIN
 90
        0
 91
        1
 62
     0
 92
       -2
340
0
 93
        0
 40
0.045
309
GRIDFORMAT_END
309
TABLEFORMAT_END
  1
CELLSTYLE_BEGIN
 90
        2
 91
        1
300
_HEADER
309
CELLSTYLE_END
300
CELLSTYLE
  1
TABLEFORMAT_BEGIN
 90
        5
170
     1
 91
        0
 92
        0
 62
   257
 93
        1
300
CONTENTFORMAT
  1
CONTENTFORMAT_BEGIN
 90
        0
 91
        0
 92
        4
 93
        0
300

 40
0.0
140
1.0
 94
        2
 62
     0
340
F
144
0.18
309
CONTENTFORMAT_END
171
     1
301
MARGIN
  1
CELLMARGIN_BEGIN
 40
0.06
 40
0.06
 40
0.06
 40
0.06
 40
0.06
 40
0.06
309
CELLMARGIN_END
 94
        6
 95
        1
302
GRIDFORMAT
  1
GRIDFORMAT_BEGIN
 90
        0
 91
        1
 62
     0
 92
       -2
340
0
 93
        0
 40
0.045
309
GRIDFORMAT_END
 95
        2
302
GRIDFORMAT
  1
GRIDFORMAT_BEGIN
 90
        0
 91
        1
 62
     0
 92
       -2
340
0
 93
        0
 40
0.045
309
GRIDFORMAT_END
 95
        4
302
GRIDFORMAT
  1
GRIDFORMAT_BEGIN
 90
        0
 91
        1
 62
     0
 92
       -2
340
0
 93
        0
 40
0.045
309
GRIDFORMAT_END
 95
        8
302
GRIDFORMAT
  1
GRIDFORMAT_BEGIN
 90
        0
 91
        1
 62
     0
 92
       -2
340
0
 93
        0
 40
0.045
309
GRIDFORMAT_END
 95
       16
302
GRIDFORMAT
  1
GRIDFORMAT_BEGIN
 90
        0
 91
        1
 62
     0
 92
       -2
340
0
 93
        0
 40
0.045
309
GRIDFORMAT_END
 95
       32
302
GRIDFORMAT
  1
GRIDFORMAT_BEGIN
 90
        0
 91
        1
 62
     0
 92
       -2
340
0
 93
        0
 40
0.045
309
GRIDFORMAT_END
309
TABLEFORMAT_END
  1
CELLSTYLE_BEGIN
 90
        3
 91
        2
300
_DATA
309
CELLSTYLE_END
  0
XRECORD
  5
1694
102
{ACAD_REACTORS
330
1693
102
}
330
1693
100
AcDbXrecord
280
     1
102
ACAD_ROUNDTRIP_PRE2007_TABLESTYLE
 90
        4
 91
        0
  1

 92
        4
 93
        0
  2

 94
        4
 95
        0
  3

  0
ENDSEC
  0
EOF
