  0
SECTION
  2
HEADER
  9
$ACADVER
  1
AC1018
  9
$ACADMAINTVER
 70
     0
  9
$DWGCODEPAGE
  3
ANSI_932
  9
$INSBASE
 10
0.0
 20
0.0
 30
0.0
  9
$EXTMIN
 10
320.0
 20
-0.0000000000000142
 30
0.0
  9
$EXTMAX
 10
7980.0
 20
5540.0
 30
0.0
  9
$LIMMIN
 10
0.0
 20
0.0
  9
$LIMMAX
 10
8400.0
 20
5940.0
  9
$ORTHOMODE
 70
     1
  9
$REGENMODE
 70
     1
  9
$FILLMODE
 70
     1
  9
$QTEXTMODE
 70
     0
  9
$MIRRTEXT
 70
     1
  9
$LTSCALE
 40
200.0
  9
$ATTMODE
 70
     1
  9
$TEXTSIZE
 40
60.0
  9
$TRACEWID
 40
0.05
  9
$TEXTSTYLE
  7
STANDARD
  9
$CLAYER
  8
SUNPOU
  9
$CELTYPE
  6
BYLAYER
  9
$CECOLOR
 62
   256
  9
$CELTSCALE
 40
1.0
  9
$DISPSILH
 70
     0
  9
$DIMSCALE
 40
20.0
  9
$DIMASZ
 40
2.0
  9
$DIMEXO
 40
2.0
  9
$DIMDLI
 40
7.0
  9
$DIMRND
 40
0.0
  9
$DIMDLE
 40
0.0
  9
$DIMEXE
 40
0.5
  9
$DIMTP
 40
0.0
  9
$DIMTM
 40
0.0
  9
$DIMTXT
 40
3.0
  9
$DIMCEN
 40
0.0
  9
$DIMTSZ
 40
0.0
  9
$DIMTOL
 70
     0
  9
$DIMLIM
 70
     0
  9
$DIMTIH
 70
     0
  9
$DIMTOH
 70
     0
  9
$DIMSE1
 70
     0
  9
$DIMSE2
 70
     0
  9
$DIMTAD
 70
     1
  9
$DIMZIN
 70
     8
  9
$DIMBLK
  1

  9
$DIMASO
 70
     1
  9
$DIMSHO
 70
     1
  9
$DIMPOST
  1

  9
$DIMAPOST
  1

  9
$DIMALT
 70
     0
  9
$DIMALTD
 70
     2
  9
$DIMALTF
 40
25.4
  9
$DIMLFAC
 40
1.0
  9
$DIMTOFL
 70
     0
  9
$DIMTVP
 40
1.0
  9
$DIMTIX
 70
     1
  9
$DIMSOXD
 70
     0
  9
$DIMSAH
 70
     0
  9
$DIMBLK1
  1

  9
$DIMBLK2
  1

  9
$DIMSTYLE
  2
A3-20
  9
$DIMCLRD
 70
     0
  9
$DIMCLRE
 70
     0
  9
$DIMCLRT
 70
     0
  9
$DIMTFAC
 40
1.0
  9
$DIMGAP
 40
0.8
  9
$DIMJUST
 70
     0
  9
$DIMSD1
 70
     0
  9
$DIMSD2
 70
     0
  9
$DIMTOLJ
 70
     1
  9
$DIMTZIN
 70
     8
  9
$DIMALTZ
 70
     8
  9
$DIMALTTZ
 70
     8
  9
$DIMUPT
 70
     0
  9
$DIMDEC
 70
     0
  9
$DIMTDEC
 70
     0
  9
$DIMALTU
 70
     2
  9
$DIMALTTD
 70
     2
  9
$DIMTXSTY
  7
STANDARD
  9
$DIMAUNIT
 70
     0
  9
$DIMADEC
 70
     4
  9
$DIMALTRND
 40
0.0
  9
$DIMAZIN
 70
     0
  9
$DIMDSEP
 70
    46
  9
$DIMATFIT
 70
     3
  9
$DIMFRAC
 70
     0
  9
$DIMLDRBLK
  1

  9
$DIMLUNIT
 70
     2
  9
$DIMLWD
 70
    -2
  9
$DIMLWE
 70
    -2
  9
$DIMTMOVE
 70
     2
  9
$LUNITS
 70
     2
  9
$LUPREC
 70
     4
  9
$SKETCHINC
 40
0.1
  9
$FILLETRAD
 40
0.0
  9
$AUNITS
 70
     0
  9
$AUPREC
 70
     6
  9
$MENU
  1
acad
  9
$ELEVATION
 40
0.0
  9
$PELEVATION
 40
0.0
  9
$THICKNESS
 40
0.0
  9
$LIMCHECK
 70
     0
  9
$CHAMFERA
 40
0.0
  9
$CHAMFERB
 40
0.0
  9
$CHAMFERC
 40
0.0
  9
$CHAMFERD
 40
0.0
  9
$SKPOLY
 70
     0
  9
$TDCREATE
 40
2450014.656655093
  9
$TDUCREATE
 40
2450014.281655093
  9
$TDUPDATE
 40
2455350.698195891
  9
$TDUUPDATE
 40
2455350.323195891
  9
$TDINDWG
 40
0.0150793634
  9
$TDUSRTIMER
 40
0.0150793634
  9
$USRTIMER
 70
     1
  9
$ANGBASE
 50
0.0
  9
$ANGDIR
 70
     0
  9
$PDMODE
 70
     0
  9
$PDSIZE
 40
0.0
  9
$PLINEWID
 40
0.0
  9
$SPLFRAME
 70
     0
  9
$SPLINETYPE
 70
     6
  9
$SPLINESEGS
 70
     8
  9
$HANDSEED
  5
11DD
  9
$SURFTAB1
 70
     6
  9
$SURFTAB2
 70
     6
  9
$SURFTYPE
 70
     6
  9
$SURFU
 70
     6
  9
$SURFV
 70
     6
  9
$UCSBASE
  2

  9
$UCSNAME
  2

  9
$UCSORG
 10
0.0
 20
0.0
 30
0.0
  9
$UCSXDIR
 10
1.0
 20
0.0
 30
0.0
  9
$UCSYDIR
 10
0.0
 20
1.0
 30
0.0
  9
$UCSORTHOREF
  2

  9
$UCSORTHOVIEW
 70
     0
  9
$UCSORGTOP
 10
0.0
 20
0.0
 30
0.0
  9
$UCSORGBOTTOM
 10
0.0
 20
0.0
 30
0.0
  9
$UCSORGLEFT
 10
0.0
 20
0.0
 30
0.0
  9
$UCSORGRIGHT
 10
0.0
 20
0.0
 30
0.0
  9
$UCSORGFRONT
 10
0.0
 20
0.0
 30
0.0
  9
$UCSORGBACK
 10
0.0
 20
0.0
 30
0.0
  9
$PUCSBASE
  2

  9
$PUCSNAME
  2

  9
$PUCSORG
 10
0.0
 20
0.0
 30
0.0
  9
$PUCSXDIR
 10
1.0
 20
0.0
 30
0.0
  9
$PUCSYDIR
 10
0.0
 20
1.0
 30
0.0
  9
$PUCSORTHOREF
  2

  9
$PUCSORTHOVIEW
 70
     0
  9
$PUCSORGTOP
 10
0.0
 20
0.0
 30
0.0
  9
$PUCSORGBOTTOM
 10
0.0
 20
0.0
 30
0.0
  9
$PUCSORGLEFT
 10
0.0
 20
0.0
 30
0.0
  9
$PUCSORGRIGHT
 10
0.0
 20
0.0
 30
0.0
  9
$PUCSORGFRONT
 10
0.0
 20
0.0
 30
0.0
  9
$PUCSORGBACK
 10
0.0
 20
0.0
 30
0.0
  9
$USERI1
 70
     0
  9
$USERI2
 70
     0
  9
$USERI3
 70
     0
  9
$USERI4
 70
     0
  9
$USERI5
 70
     0
  9
$USERR1
 40
0.0
  9
$USERR2
 40
0.0
  9
$USERR3
 40
0.0
  9
$USERR4
 40
0.0
  9
$USERR5
 40
0.0
  9
$WORLDVIEW
 70
     1
  9
$SHADEDGE
 70
     3
  9
$SHADEDIF
 70
    70
  9
$TILEMODE
 70
     1
  9
$MAXACTVP
 70
    48
  9
$PINSBASE
 10
0.0
 20
0.0
 30
0.0
  9
$PLIMCHECK
 70
     0
  9
$PEXTMIN
 10
1.000000000000000E+20
 20
1.000000000000000E+20
 30
1.000000000000000E+20
  9
$PEXTMAX
 10
-1.000000000000000E+20
 20
-1.000000000000000E+20
 30
-1.000000000000000E+20
  9
$PLIMMIN
 10
0.0
 20
0.0
  9
$PLIMMAX
 10
12.0
 20
9.0
  9
$UNITMODE
 70
     0
  9
$VISRETAIN
 70
     0
  9
$PLINEGEN
 70
     0
  9
$PSLTSCALE
 70
     0
  9
$TREEDEPTH
 70
  3020
  9
$CMLSTYLE
  2
STANDARD
  9
$CMLJUST
 70
     0
  9
$CMLSCALE
 40
1.0
  9
$PROXYGRAPHICS
 70
     1
  9
$MEASUREMENT
 70
     0
  9
$CELWEIGHT
370
    -1
  9
$ENDCAPS
280
     0
  9
$JOINSTYLE
280
     0
  9
$LWDISPLAY
290
     0
  9
$INSUNITS
 70
     0
  9
$HYPERLINKBASE
  1

  9
$STYLESHEET
  1

  9
$XEDIT
290
     1
  9
$CEPSNTYPE
380
     0
  9
$PSTYLEMODE
290
     1
  9
$FINGERPRINTGUID
  2
{F67648C0-8D40-11D8-A1CD-0050FC45377D}
  9
$VERSIONGUID
  2
{0A4B855A-1E2C-4C90-A2F7-51B7CC3BF721}
  9
$EXTNAMES
290
     1
  9
$PSVPSCALE
 40
0.0
  9
$OLESTARTUP
290
     0
  9
$SORTENTS
280
   127
  9
$INDEXCTL
280
     0
  9
$HIDETEXT
280
     1
  9
$XCLIPFRAME
290
     0
  9
$HALOGAP
280
     0
  9
$OBSCOLOR
 70
   257
  9
$OBSLTYPE
280
     0
  9
$INTERSECTIONDISPLAY
280
     0
  9
$INTERSECTIONCOLOR
 70
   257
  9
$DIMASSOC
280
     1
  9
$PROJECTNAME
  1

  0
ENDSEC
  0
SECTION
  2
CLASSES
  0
CLASS
  1
ACDBDICTIONARYWDFLT
  2
AcDbDictionaryWithDefault
  3
ObjectDBX Classes
 90
        0
 91
        4
280
     0
281
     0
  0
CLASS
  1
ACDBPLACEHOLDER
  2
AcDbPlaceHolder
  3
ObjectDBX Classes
 90
        0
 91
        1
280
     0
281
     0
  0
CLASS
  1
LAYOUT
  2
AcDbLayout
  3
ObjectDBX Classes
 90
        0
 91
        1
280
     0
281
     0
  0
CLASS
  1
DICTIONARYVAR
  2
AcDbDictionaryVar
  3
ObjectDBX Classes
 90
        0
 91
        4
280
     0
281
     0
  0
CLASS
  1
DUMMY
  2
AcDbLongTransaction
  3
DUMMY
 90
        0
 91
        1
280
     0
281
     0
  0
CLASS
  1
LWPOLYLINE
  2
AcDbPolyline
  3
AutoCAD 2000
 90
        0
 91
        1
280
     0
281
     1
  0
CLASS
  1
HATCH
  2
AcDbHatch
  3
AutoCAD 2000
 90
        0
 91
        1
280
     0
281
     1
  0
CLASS
  1
XRECORD
  2
AcDbXrecord
  3
AutoCAD 2000
 90
        0
 91
        1
280
     0
281
     0
  0
CLASS
  1
TABLESTYLE
  2
AcDbTableStyle
  3
ObjectDBX Classes
 90
     4095
 91
        4
280
     0
281
     0
  0
CLASS
  1
SORTENTSTABLE
  2
AcDbSortentsTable
  3
ObjectDBX Classes
 90
        0
 91
        4
280
     0
281
     0
  0
CLASS
  1
SCALE
  2
AcDbScale
  3
ObjectDBX Classes
 90
     1153
 91
        4
280
     0
281
     0
  0
CLASS
  1
CELLSTYLEMAP
  2
AcDbCellStyleMap
  3
ObjectDBX Classes
 90
     1152
 91
        4
280
     0
281
     0
  0
ENDSEC
  0
SECTION
  2
TABLES
  0
TABLE
  2
VPORT
  5
8
330
0
100
AcDbSymbolTable
 70
     2
  0
VPORT
  5
11AF
330
8
100
AcDbSymbolTableRecord
100
AcDbViewportTableRecord
  2
*Active
 70
     0
 10
0.0
 20
0.0
 11
1.0
 21
1.0
 12
4245.438607104957
 22
2694.902798248792
 13
0.0
 23
0.0
 14
20.0
 24
20.0
 15
200.0
 25
200.0
 16
0.0
 26
0.0
 36
1.0
 17
0.0
 27
0.0
 37
0.0
 40
6575.01476301245
 41
1.507024265644955
 42
50.0
 43
0.0
 44
0.0
 50
0.0
 51
0.0
 71
     0
 72
   100
 73
     1
 74
     1
 75
     0
 76
     0
 77
     0
 78
     0
281
     0
 65
     1
110
0.0
120
0.0
130
0.0
111
1.0
121
0.0
131
0.0
112
0.0
122
1.0
132
0.0
 79
     0
146
0.0
  0
ENDTAB
  0
TABLE
  2
LTYPE
  5
5
330
0
100
AcDbSymbolTable
 70
     4
  0
LTYPE
  5
11
330
5
100
AcDbSymbolTableRecord
100
AcDbLinetypeTableRecord
  2
BYBLOCK
 70
     0
  3

 72
    65
 73
     0
 40
0.0
  0
LTYPE
  5
12
330
5
100
AcDbSymbolTableRecord
100
AcDbLinetypeTableRecord
  2
BYLAYER
 70
     0
  3

 72
    65
 73
     0
 40
0.0
  0
LTYPE
  5
13
330
5
100
AcDbSymbolTableRecord
100
AcDbLinetypeTableRecord
  2
CONTINUOUS
 70
     0
  3
Solid line
 72
    65
 73
     0
 40
0.0
  0
LTYPE
  5
1E
330
5
100
AcDbSymbolTableRecord
100
AcDbLinetypeTableRecord
  2
HIDDEN
 70
     0
  3
_ _ _ _ _ _ _ _ _ _ _ _ _ _ _ _ _ _ _ _ _ _ _
 72
    65
 73
     2
 40
0.375
 49
0.25
 74
     0
 49
-0.125
 74
     0
  0
LTYPE
  5
1F
330
5
100
AcDbSymbolTableRecord
100
AcDbLinetypeTableRecord
  2
CENTER
 70
     0
  3
____ _ ____ _ ____ _ ____ _ ____ _ ____ _ ____
 72
    65
 73
     4
 40
2.0
 49
1.25
 74
     0
 49
-0.25
 74
     0
 49
0.25
 74
     0
 49
-0.25
 74
     0
  0
LTYPE
  5
20
330
5
100
AcDbSymbolTableRecord
100
AcDbLinetypeTableRecord
  2
PHANTOM
 70
     0
  3
_____ _ _ _____ _ _ _____ _ _ _____ _ _ ____
 72
    65
 73
     6
 40
2.5
 49
1.25
 74
     0
 49
-0.25
 74
     0
 49
0.25
 74
     0
 49
-0.25
 74
     0
 49
0.25
 74
     0
 49
-0.25
 74
     0
  0
ENDTAB
  0
TABLE
  2
LAYER
  5
2
330
0
100
AcDbSymbolTable
 70
    10
  0
LAYER
  5
E
330
2
100
AcDbSymbolTableRecord
100
AcDbLayerTableRecord
  2
0
 70
     0
 62
     7
  6
CONTINUOUS
370
    -3
390
6E
  0
LAYER
  5
23
330
2
100
AcDbSymbolTableRecord
100
AcDbLayerTableRecord
  2
SUNPOU
 70
     0
 62
     1
  6
CONTINUOUS
370
    -3
390
6E
  0
LAYER
  5
24
330
2
100
AcDbSymbolTableRecord
100
AcDbLayerTableRecord
  2
HAIKIN
 70
     0
 62
     2
  6
CONTINUOUS
370
    -3
390
6E
  0
LAYER
  5
25
330
2
100
AcDbSymbolTableRecord
100
AcDbLayerTableRecord
  2
SEIHIN
 70
     0
 62
     3
  6
CONTINUOUS
370
    -3
390
6E
  0
LAYER
  5
26
330
2
100
AcDbSymbolTableRecord
100
AcDbLayerTableRecord
  2
HASEN
 70
     0
 62
     4
  6
HIDDEN
370
    -3
390
6E
  0
LAYER
  5
27
330
2
100
AcDbSymbolTableRecord
100
AcDbLayerTableRecord
  2
1HASEN
 70
     0
 62
     5
  6
CENTER
370
    -3
390
6E
  0
LAYER
  5
28
330
2
100
AcDbSymbolTableRecord
100
AcDbLayerTableRecord
  2
2HASEN
 70
     0
 62
     6
  6
PHANTOM
370
    -3
390
6E
  0
LAYER
  5
29
330
2
100
AcDbSymbolTableRecord
100
AcDbLayerTableRecord
  2
HOJO
 70
     0
 62
     7
  6
CONTINUOUS
370
    -3
390
6E
  0
LAYER
  5
2A
330
2
100
AcDbSymbolTableRecord
100
AcDbLayerTableRecord
  2
TEN
 70
     0
 62
     7
  6
CONTINUOUS
370
    -3
390
6E
  0
LAYER
  5
6F8
330
2
100
AcDbSymbolTableRecord
100
AcDbLayerTableRecord
  2
DEFPOINTS
 70
     0
 62
     7
  6
CONTINUOUS
290
     0
370
    -3
390
6E
  0
ENDTAB
  0
TABLE
  2
STYLE
  5
3
330
0
100
AcDbSymbolTable
 70
     2
  0
STYLE
  5
F
330
3
100
AcDbSymbolTableRecord
100
AcDbTextStyleTableRecord
  2
STANDARD
 70
     0
 40
0.0
 41
0.8
 50
0.0
 71
     0
 42
60.0
  3
TXT.shx
  4
BIGFONT.shx
  0
STYLE
  5
6F9
330
3
100
AcDbSymbolTableRecord
100
AcDbTextStyleTableRecord
  2
NIHONGO
 70
     0
 40
0.0
 41
1.0
 50
0.0
 71
     0
 42
80.0
  3
MS Mincho.ttf
  4

1001
ACAD
1000
MS Mincho
1071
    32785
  0
ENDTAB
  0
TABLE
  2
VIEW
  5
6
330
0
100
AcDbSymbolTable
 70
     0
  0
ENDTAB
  0
TABLE
  2
UCS
  5
7
330
0
100
AcDbSymbolTable
 70
     0
  0
ENDTAB
  0
TABLE
  2
APPID
  5
9
330
0
100
AcDbSymbolTable
 70
    10
  0
APPID
  5
10
330
9
100
AcDbSymbolTableRecord
100
AcDbRegAppTableRecord
  2
ACAD
 70
     0
  0
APPID
  5
B6
330
9
100
AcDbSymbolTableRecord
100
AcDbRegAppTableRecord
  2
ACAD_DSTYLE_DIMTEXT_FILL
 70
     0
  0
APPID
  5
B7
330
9
100
AcDbSymbolTableRecord
100
AcDbRegAppTableRecord
  2
ACAD_DSTYLE_DIMEXT_LENGTH
 70
     0
  0
APPID
  5
B8
330
9
100
AcDbSymbolTableRecord
100
AcDbRegAppTableRecord
  2
ACAD_DSTYLE_DIMEXT_ENABLED
 70
     0
  0
APPID
  5
B9
330
9
100
AcDbSymbolTableRecord
100
AcDbRegAppTableRecord
  2
ACAD_DSTYLE_DIM_LINETYPE
 70
     0
  0
APPID
  5
BA
330
9
100
AcDbSymbolTableRecord
100
AcDbRegAppTableRecord
  2
ACAD_DSTYLE_DIM_EXT1_LINETYPE
 70
     0
  0
APPID
  5
BB
330
9
100
AcDbSymbolTableRecord
100
AcDbRegAppTableRecord
  2
ACAD_DSTYLE_DIM_EXT2_LINETYPE
 70
     0
  0
APPID
  5
177
330
9
100
AcDbSymbolTableRecord
100
AcDbRegAppTableRecord
  2
ACAD_DSTYLE_DIMJOGGED_JOGANGLE_SYMBOL
 70
     0
  0
APPID
  5
35B
330
9
100
AcDbSymbolTableRecord
100
AcDbRegAppTableRecord
  2
ACAD_DSTYLE_DIMARC_LENGTH_SYMBOL
 70
     0
  0
APPID
  5
EF2
330
9
100
AcDbSymbolTableRecord
100
AcDbRegAppTableRecord
  2
ACAD_EXEMPT_FROM_CAD_STANDARDS
 70
     0
  0
ENDTAB
  0
TABLE
  2
DIMSTYLE
  5
A
330
0
100
AcDbSymbolTable
 70
     2
100
AcDbDimStyleTable
  0
DIMSTYLE
105
61
330
A
100
AcDbSymbolTableRecord
100
AcDbDimStyleTableRecord
  2
STANDARD
 70
     0
178
     0
340
F
  0
DIMSTYLE
105
360
102
{ACAD_REACTORS
330
88F
330
88E
330
88D
330
886
330
87A
330
879
330
878
330
86E
330
864
330
863
330
862
330
861
330
85E
330
85D
330
85C
330
85A
330
859
330
858
330
82C
330
823
330
822
330
821
330
820
330
81F
330
81E
330
7FB
330
1144
330
1152
330
116A
102
}
330
A
100
AcDbSymbolTableRecord
100
AcDbDimStyleTableRecord
  2
A3-20
 70
     0
 40
20.0
 41
2.0
 42
2.0
 43
7.0
 44
0.5
 73
     0
 74
     0
 77
     1
 78
     8
140
3.0
141
0.0
145
1.0
147
0.8
174
     1
178
     0
179
     4
271
     0
272
     0
279
     2
284
     8
285
     8
286
     8
340
F
  0
ENDTAB
  0
TABLE
  2
BLOCK_RECORD
  5
1
330
0
100
AcDbSymbolTable
 70
   109
  0
BLOCK_RECORD
  5
17
102
{ACAD_XDICTIONARY
360
9C
102
}
330
1
100
AcDbSymbolTableRecord
100
AcDbBlockTableRecord
  2
*MODEL_SPACE
340
71
  0
BLOCK_RECORD
  5
14
330
1
100
AcDbSymbolTableRecord
100
AcDbBlockTableRecord
  2
*PAPER_SPACE
340
72
  0
BLOCK_RECORD
  5
1C
330
1
100
AcDbSymbolTableRecord
100
AcDbBlockTableRecord
  2
BORDER
340
0
  0
BLOCK_RECORD
  5
1D
330
1
100
AcDbSymbolTableRecord
100
AcDbBlockTableRecord
  2
SA3
340
0
102
{BLKREFS
331
60
102
}
  0
BLOCK_RECORD
  5
8C3
330
1
100
AcDbSymbolTableRecord
100
AcDbBlockTableRecord
  2
*D53
340
0
  0
BLOCK_RECORD
  5
929
330
1
100
AcDbSymbolTableRecord
100
AcDbBlockTableRecord
  2
*D61
340
0
  0
BLOCK_RECORD
  5
935
330
1
100
AcDbSymbolTableRecord
100
AcDbBlockTableRecord
  2
*D62
340
0
  0
BLOCK_RECORD
  5
941
330
1
100
AcDbSymbolTableRecord
100
AcDbBlockTableRecord
  2
*D63
340
0
  0
BLOCK_RECORD
  5
94D
330
1
100
AcDbSymbolTableRecord
100
AcDbBlockTableRecord
  2
*D64
340
0
  0
BLOCK_RECORD
  5
959
330
1
100
AcDbSymbolTableRecord
100
AcDbBlockTableRecord
  2
*D65
340
0
  0
BLOCK_RECORD
  5
965
330
1
100
AcDbSymbolTableRecord
100
AcDbBlockTableRecord
  2
*D66
340
0
  0
BLOCK_RECORD
  5
9C9
330
1
100
AcDbSymbolTableRecord
100
AcDbBlockTableRecord
  2
*D74
340
0
  0
BLOCK_RECORD
  5
9E2
330
1
100
AcDbSymbolTableRecord
100
AcDbBlockTableRecord
  2
*D76
340
0
  0
BLOCK_RECORD
  5
9EE
330
1
100
AcDbSymbolTableRecord
100
AcDbBlockTableRecord
  2
*D77
340
0
  0
BLOCK_RECORD
  5
9FB
330
1
100
AcDbSymbolTableRecord
100
AcDbBlockTableRecord
  2
*D78
340
0
  0
BLOCK_RECORD
  5
A07
330
1
100
AcDbSymbolTableRecord
100
AcDbBlockTableRecord
  2
*D79
340
0
  0
BLOCK_RECORD
  5
A13
330
1
100
AcDbSymbolTableRecord
100
AcDbBlockTableRecord
  2
*D80
340
0
  0
BLOCK_RECORD
  5
A20
330
1
100
AcDbSymbolTableRecord
100
AcDbBlockTableRecord
  2
*D81
340
0
  0
BLOCK_RECORD
  5
A2C
330
1
100
AcDbSymbolTableRecord
100
AcDbBlockTableRecord
  2
*D82
340
0
  0
BLOCK_RECORD
  5
A39
330
1
100
AcDbSymbolTableRecord
100
AcDbBlockTableRecord
  2
*D83
340
0
  0
BLOCK_RECORD
  5
A46
330
1
100
AcDbSymbolTableRecord
100
AcDbBlockTableRecord
  2
*D84
340
0
  0
BLOCK_RECORD
  5
A52
330
1
100
AcDbSymbolTableRecord
100
AcDbBlockTableRecord
  2
*D85
340
0
  0
BLOCK_RECORD
  5
A78
330
1
100
AcDbSymbolTableRecord
100
AcDbBlockTableRecord
  2
*D88
340
0
  0
BLOCK_RECORD
  5
A84
330
1
100
AcDbSymbolTableRecord
100
AcDbBlockTableRecord
  2
*D89
340
0
  0
BLOCK_RECORD
  5
A90
330
1
100
AcDbSymbolTableRecord
100
AcDbBlockTableRecord
  2
*D90
340
0
  0
BLOCK_RECORD
  5
A9C
330
1
100
AcDbSymbolTableRecord
100
AcDbBlockTableRecord
  2
*D91
340
0
  0
BLOCK_RECORD
  5
AA8
330
1
100
AcDbSymbolTableRecord
100
AcDbBlockTableRecord
  2
*D92
340
0
  0
BLOCK_RECORD
  5
ACE
330
1
100
AcDbSymbolTableRecord
100
AcDbBlockTableRecord
  2
*D95
340
0
  0
BLOCK_RECORD
  5
ADB
330
1
100
AcDbSymbolTableRecord
100
AcDbBlockTableRecord
  2
*D96
340
0
  0
BLOCK_RECORD
  5
AE8
330
1
100
AcDbSymbolTableRecord
100
AcDbBlockTableRecord
  2
*D97
340
0
  0
BLOCK_RECORD
  5
1145
330
1
100
AcDbSymbolTableRecord
100
AcDbBlockTableRecord
  2
*D106
340
0
  0
BLOCK_RECORD
  5
1153
330
1
100
AcDbSymbolTableRecord
100
AcDbBlockTableRecord
  2
*D107
340
0
  0
BLOCK_RECORD
  5
116B
330
1
100
AcDbSymbolTableRecord
100
AcDbBlockTableRecord
  2
*D108
340
0
  0
ENDTAB
  0
ENDSEC
  0
SECTION
  2
BLOCKS
  0
BLOCK
  5
2D
330
17
100
AcDbEntity
  8
0
100
AcDbBlockBegin
  2
*MODEL_SPACE
 70
     0
 10
0.0
 20
0.0
 30
0.0
  3
*MODEL_SPACE
  1

  0
ENDBLK
  5
2E
330
17
100
AcDbEntity
  8
0
100
AcDbBlockEnd
  0
BLOCK
  5
2B
330
14
100
AcDbEntity
 67
     1
  8
0
100
AcDbBlockBegin
  2
*PAPER_SPACE
 70
     0
 10
0.0
 20
0.0
 30
0.0
  3
*PAPER_SPACE
  1

  0
ENDBLK
  5
2C
330
14
100
AcDbEntity
 67
     1
  8
0
100
AcDbBlockEnd
  0
BLOCK
  5
2F
330
1C
100
AcDbEntity
  8
0
100
AcDbBlockBegin
  2
BORDER
 70
     0
 10
0.0
 20
0.0
 30
0.0
  3
BORDER
  1

  0
LINE
  5
30
330
1C
100
AcDbEntity
  8
0
100
AcDbLine
 10
0.0
 20
0.0
 30
0.0
 11
1.00000000000004
 21
0.0
 31
0.0
  0
LINE
  5
31
330
1C
100
AcDbEntity
  8
0
100
AcDbLine
 10
1.00000000000004
 20
0.0
 30
0.0
 11
1.00000000000004
 21
1.00000000000004
 31
0.0
  0
LINE
  5
32
330
1C
100
AcDbEntity
  8
0
100
AcDbLine
 10
1.00000000000004
 20
1.00000000000004
 30
0.0
 11
0.0
 21
1.00000000000004
 31
0.0
  0
LINE
  5
33
330
1C
100
AcDbEntity
  8
0
100
AcDbLine
 10
0.0
 20
1.00000000000004
 30
0.0
 11
0.0
 21
0.0
 31
0.0
  0
ENDBLK
  5
34
330
1C
100
AcDbEntity
  8
0
100
AcDbBlockEnd
  0
BLOCK
  5
35
330
1D
100
AcDbEntity
  8
HAIKIN
100
AcDbBlockBegin
  2
SA3
 70
     0
 10
0.0
 20
0.0
 30
0.0
  3
SA3
  1

  0
TEXT
  5
36
330
1D
100
AcDbEntity
  8
SUNPOU
100
AcDbText
 10
340.0
 20
0.0
 30
0.0
 40
2.5
  1
新和コンクリート工業株式会社
100
AcDbText
  0
TEXT
  5
39
330
1D
100
AcDbEntity
  8
SUNPOU
100
AcDbText
 10
361.4166666666667
 20
6.25
 30
0.0
 40
2.5
  1
製図
 72
     4
 11
364.0
 21
7.5
 31
0.0
100
AcDbText
  0
TEXT
  5
3A
330
1D
100
AcDbEntity
  8
SUNPOU
100
AcDbText
 10
361.3333333333333
 20
11.25
 30
0.0
 40
2.5
  1
設計
 72
     4
 11
364.0
 21
12.5
 31
0.0
100
AcDbText
  0
TEXT
  5
3B
330
1D
100
AcDbEntity
  8
SUNPOU
100
AcDbText
 10
339.0833333333333
 20
6.250000000000014
 30
0.0
 40
2.5
  1
認
 72
     4
 11
340.25
 21
7.500000000000014
 31
0.0
100
AcDbText
  0
TEXT
  5
3C
330
1D
100
AcDbEntity
  8
SUNPOU
100
AcDbText
 10
339.0833333333333
 20
11.33333333333336
 30
0.0
 40
2.5
  1
承
 72
     4
 11
340.25
 21
12.50000000000003
 31
0.0
100
AcDbText
  0
TEXT
  5
3D
330
1D
100
AcDbEntity
  8
SUNPOU
100
AcDbText
 10
312.75
 20
11.75000000000001
 30
0.0
 40
2.5
  1
図　面　番　号
 72
     4
 11
323.0
 21
13.00000000000001
 31
0.0
100
AcDbText
  0
TEXT
  5
3E
330
1D
100
AcDbEntity
  8
SUNPOU
100
AcDbText
 10
362.0
 20
17.0
 30
0.0
 40
2.5
  1
１／
100
AcDbText
  0
TEXT
  5
3F
330
1D
100
AcDbEntity
  8
SUNPOU
100
AcDbText
 10
347.3333333333333
 20
16.25000000000001
 30
0.0
 40
2.5
  1
縮　　尺
 72
     4
 11
353.0
 21
17.50000000000001
 31
0.0
100
AcDbText
  0
TEXT
  5
40
330
1D
100
AcDbEntity
  8
SUNPOU
100
AcDbText
 10
347.3333333333333
 20
21.25
 30
0.0
 40
2.5
  1
鉄 筋 量
 72
     4
 11
353.0
 21
22.5
 31
0.0
100
AcDbText
  0
TEXT
  5
41
330
1D
100
AcDbEntity
  8
SUNPOU
100
AcDbText
 10
347.3333333333333
 20
26.25
 30
0.0
 40
2.5
  1
製 造 数
 72
     4
 11
353.0
 21
27.5
 31
0.0
100
AcDbText
  0
TEXT
  5
42
330
1D
100
AcDbEntity
  8
SUNPOU
100
AcDbText
 10
377.0
 20
21.0
 30
0.0
 40
2.5
  1
ｋｇ
 72
     2
 11
382.0
 21
21.0
 31
0.0
100
AcDbText
  0
TEXT
  5
43
330
1D
100
AcDbEntity
  8
SUNPOU
100
AcDbText
 10
339.5
 20
21.0
 30
0.0
 40
2.5
  1
ｋｇ
 72
     2
 11
344.5
 21
21.0
 31
0.0
100
AcDbText
  0
TEXT
  5
44
330
1D
100
AcDbEntity
  8
SUNPOU
100
AcDbText
 10
310.0
 20
16.25000000000001
 30
0.0
 40
2.5
  1
年 月 日
 72
     4
 11
315.5
 21
17.50000000000001
 31
0.0
100
AcDbText
  0
TEXT
  5
45
330
1D
100
AcDbEntity
  8
SUNPOU
100
AcDbText
 10
309.8333333333333
 20
21.25
 30
0.0
 40
2.5
  1
製品質量
 72
     4
 11
315.5
 21
22.5
 31
0.0
100
AcDbText
  0
TEXT
  5
46
330
1D
100
AcDbEntity
  8
SUNPOU
100
AcDbText
 10
309.9166666666667
 20
26.25
 30
0.0
 40
2.5
  1
業 者 名
 72
     4
 11
315.5
 21
27.5
 31
0.0
100
AcDbText
  0
TEXT
  5
47
330
1D
100
AcDbEntity
  8
SUNPOU
100
AcDbText
 10
309.8333333333333
 20
32.5
 30
0.0
 40
2.5
  1
名　　称
 72
     4
 11
315.5
 21
33.75
 31
0.0
100
AcDbText
  0
LINE
  5
48
330
1D
100
AcDbEntity
  8
SUNPOU
100
AcDbLine
 10
338.0
 20
11.00000000000001
 30
0.0
 11
308.0
 21
11.00000000000001
 31
0.0
  0
LINE
  5
49
330
1D
100
AcDbEntity
  8
SUNPOU
100
AcDbLine
 10
367.5
 20
4.999999999999986
 30
0.0
 11
367.5
 21
14.99999999999999
 31
0.0
  0
LINE
  5
4A
330
1D
100
AcDbEntity
  8
SUNPOU
100
AcDbLine
 10
360.5
 20
4.999999999999986
 30
0.0
 11
360.5
 21
14.99999999999999
 31
0.0
  0
LINE
  5
4B
330
1D
100
AcDbEntity
  8
SUNPOU
100
AcDbLine
 10
342.5
 20
4.999999999999995
 30
0.0
 11
342.5
 21
15.0
 31
0.0
  0
LINE
  5
4C
330
1D
100
AcDbEntity
  8
SUNPOU
100
AcDbLine
 10
338.0
 20
4.999999999999995
 30
0.0
 11
338.0
 21
15.0
 31
0.0
  0
LINE
  5
4D
330
1D
100
AcDbEntity
  8
SUNPOU
100
AcDbLine
 10
323.0
 20
15.00000000000001
 30
0.0
 11
323.0
 21
37.5
 31
0.0
  0
LINE
  5
4E
330
1D
100
AcDbEntity
  8
SUNPOU
100
AcDbLine
 10
360.5
 20
15.00000000000001
 30
0.0
 11
360.5
 21
30.0
 31
0.0
  0
LINE
  5
4F
330
1D
100
AcDbEntity
  8
SUNPOU
100
AcDbLine
 10
345.5
 20
15.00000000000001
 30
0.0
 11
345.5
 21
30.0
 31
0.0
  0
LINE
  5
50
330
1D
100
AcDbEntity
  8
SUNPOU
100
AcDbLine
 10
383.0
 20
30.0
 30
0.0
 11
308.0
 21
30.0
 31
0.0
  0
LINE
  5
51
330
1D
100
AcDbEntity
  8
SUNPOU
100
AcDbLine
 10
383.0
 20
25.0
 30
0.0
 11
308.0
 21
25.0
 31
0.0
  0
LINE
  5
52
330
1D
100
AcDbEntity
  8
SUNPOU
100
AcDbLine
 10
383.0
 20
20.0
 30
0.0
 11
308.0
 21
20.0
 31
0.0
  0
LINE
  5
53
330
1D
100
AcDbEntity
  8
SUNPOU
100
AcDbLine
 10
383.0
 20
14.99999999999999
 30
0.0
 11
308.0
 21
15.00000000000004
 31
0.0
  0
LINE
  5
54
330
1D
100
AcDbEntity
  8
HAIKIN
100
AcDbLine
 10
308.0
 20
37.5
 30
0.0
 11
383.0
 21
37.5
 31
0.0
  0
LINE
  5
55
330
1D
100
AcDbEntity
  8
HAIKIN
100
AcDbLine
 10
308.0
 20
5.000000000000009
 30
0.0
 11
308.0
 21
37.5
 31
0.0
  0
LINE
  5
56
330
1D
100
AcDbEntity
  8
SUNPOU
100
AcDbLine
 10
0.000000000000016
 20
277.0
 30
0.0
 11
0.000000000000016
 21
272.0
 31
0.0
  0
LINE
  5
57
330
1D
100
AcDbEntity
  8
SUNPOU
100
AcDbLine
 10
25.00000000000001
 20
277.0
 30
0.0
 11
0.000000000000016
 21
277.0
 31
0.0
  0
LINE
  5
58
330
1D
100
AcDbEntity
  8
SUNPOU
100
AcDbLine
 10
25.00000000000001
 20
272.0
 30
0.0
 11
25.00000000000001
 21
277.0
 31
0.0
  0
LINE
  5
59
330
1D
100
AcDbEntity
  8
HAIKIN
100
AcDbLine
 10
0.0000000000000004
 20
5.0
 30
0.0
 11
383.0
 21
5.0
 31
0.0
  0
LINE
  5
5A
330
1D
100
AcDbEntity
  8
HAIKIN
100
AcDbLine
 10
0.0000000000000158
 20
272.0
 30
0.0
 11
383.0
 21
272.0
 31
0.0
  0
LINE
  5
5B
330
1D
100
AcDbEntity
  8
HAIKIN
100
AcDbLine
 10
383.0
 20
272.0
 30
0.0
 11
383.0
 21
5.0
 31
0.0
  0
TEXT
  5
5C
330
1D
100
AcDbEntity
  8
SUNPOU
100
AcDbText
 10
3.700000000000017
 20
273.0
 30
0.0
 40
3.0
  1
Ｈ－２－共
 72
     4
 11
12.50000000000002
 21
274.5
 31
0.0
100
AcDbText
  0
LINE
  5
5D
330
1D
100
AcDbEntity
  8
HAIKIN
100
AcDbLine
 10
0.0000000000000004
 20
5.0
 30
0.0
 11
0.0000000000000158
 21
272.0
 31
0.0
  0
ENDBLK
  5
5E
330
1D
100
AcDbEntity
  8
HAIKIN
100
AcDbBlockEnd
  0
BLOCK
  5
8CD
330
8C3
100
AcDbEntity
  8
0
100
AcDbBlockBegin
  2
*D53
 70
     1
 10
0.0
 20
0.0
 30
0.0
  3
*D53
  1

  0
LINE
  5
1001
330
8C3
100
AcDbEntity
  8
SUNPOU
 62
     0
370
    -2
100
AcDbLine
 10
4245.590297209528
 20
4321.290585502211
 30
0.0
 11
4245.590297209528
 21
4720.725181012933
 31
0.0
  0
LINE
  5
1002
330
8C3
100
AcDbEntity
  8
SUNPOU
 62
     0
370
    -2
100
AcDbLine
 10
6245.590297209528
 20
4321.290585502211
 30
0.0
 11
6245.590297209528
 21
4720.725181012933
 31
0.0
  0
LINE
  5
1003
330
8C3
100
AcDbEntity
  8
SUNPOU
 62
     0
370
    -2
100
AcDbLine
 10
4285.590297209528
 20
4710.725181012933
 30
0.0
 11
6205.590297209528
 21
4710.725181012933
 31
0.0
  0
SOLID
  5
1004
330
8C3
100
AcDbEntity
  8
SUNPOU
 62
     0
100
AcDbTrace
 10
4285.590297209528
 20
4717.3918476796
 30
0.0
 11
4285.590297209528
 21
4704.058514346266
 31
0.0
 12
4245.590297209528
 22
4710.725181012933
 32
0.0
 13
4245.590297209528
 23
4710.725181012933
 33
0.0
  0
SOLID
  5
1005
330
8C3
100
AcDbEntity
  8
SUNPOU
 62
     0
100
AcDbTrace
 10
6205.590297209528
 20
4717.3918476796
 30
0.0
 11
6205.590297209528
 21
4704.058514346266
 31
0.0
 12
6245.590297209528
 22
4710.725181012933
 32
0.0
 13
6245.590297209528
 23
4710.725181012933
 33
0.0
  0
MTEXT
  5
1006
330
8C3
100
AcDbEntity
  8
SUNPOU
 62
     0
100
AcDbMText
 10
5245.590297209528
 20
4756.725181012933
 30
0.0
 40
60.0
 41
0.0
 71
     5
 72
     1
  1
\A1;2000
 73
     1
 44
1.0
  0
POINT
  5
1007
330
8C3
100
AcDbEntity
  8
DEFPOINTS
 62
     0
100
AcDbPoint
 10
4245.590297209528
 20
4281.290585502211
 30
0.0
  0
POINT
  5
1008
330
8C3
100
AcDbEntity
  8
DEFPOINTS
 62
     0
100
AcDbPoint
 10
6245.590297209528
 20
4281.290585502211
 30
0.0
  0
POINT
  5
1009
330
8C3
100
AcDbEntity
  8
DEFPOINTS
 62
     0
100
AcDbPoint
 10
6245.590297209528
 20
4710.725181012933
 30
0.0
  0
ENDBLK
  5
8CE
330
8C3
100
AcDbEntity
  8
0
100
AcDbBlockEnd
  0
BLOCK
  5
933
330
929
100
AcDbEntity
  8
0
100
AcDbBlockBegin
  2
*D61
 70
     1
 10
0.0
 20
0.0
 30
0.0
  3
*D61
  1

  0
LINE
  5
1049
330
929
100
AcDbEntity
  8
SUNPOU
 62
     0
370
    -2
100
AcDbLine
 10
4245.590297209528
 20
3741.290585502211
 30
0.0
 11
4245.590297209528
 21
3312.926886283733
 31
0.0
  0
LINE
  5
104A
330
929
100
AcDbEntity
  8
SUNPOU
 62
     0
370
    -2
100
AcDbLine
 10
6245.590297209528
 20
3741.290585502211
 30
0.0
 11
6245.590297209528
 21
3312.926886283733
 31
0.0
  0
LINE
  5
104B
330
929
100
AcDbEntity
  8
SUNPOU
 62
     0
370
    -2
100
AcDbLine
 10
4285.590297209528
 20
3322.926886283733
 30
0.0
 11
6205.590297209528
 21
3322.926886283733
 31
0.0
  0
SOLID
  5
104C
330
929
100
AcDbEntity
  8
SUNPOU
 62
     0
100
AcDbTrace
 10
4285.590297209528
 20
3329.593552950399
 30
0.0
 11
4285.590297209528
 21
3316.260219617066
 31
0.0
 12
4245.590297209528
 22
3322.926886283733
 32
0.0
 13
4245.590297209528
 23
3322.926886283733
 33
0.0
  0
SOLID
  5
104D
330
929
100
AcDbEntity
  8
SUNPOU
 62
     0
100
AcDbTrace
 10
6205.590297209528
 20
3329.593552950399
 30
0.0
 11
6205.590297209528
 21
3316.260219617066
 31
0.0
 12
6245.590297209528
 22
3322.926886283733
 32
0.0
 13
6245.590297209528
 23
3322.926886283733
 33
0.0
  0
MTEXT
  5
104E
330
929
100
AcDbEntity
  8
SUNPOU
 62
     0
100
AcDbMText
 10
5245.590297209528
 20
3368.926886283733
 30
0.0
 40
60.0
 41
0.0
 71
     5
 72
     1
  1
\A1;2000
 73
     1
 44
1.0
  0
POINT
  5
104F
330
929
100
AcDbEntity
  8
DEFPOINTS
 62
     0
100
AcDbPoint
 10
4245.590297209528
 20
3781.290585502211
 30
0.0
  0
POINT
  5
1050
330
929
100
AcDbEntity
  8
DEFPOINTS
 62
     0
100
AcDbPoint
 10
6245.590297209528
 20
3781.290585502211
 30
0.0
  0
POINT
  5
1051
330
929
100
AcDbEntity
  8
DEFPOINTS
 62
     0
100
AcDbPoint
 10
6245.590297209528
 20
3322.926886283733
 30
0.0
  0
ENDBLK
  5
934
330
929
100
AcDbEntity
  8
0
100
AcDbBlockEnd
  0
BLOCK
  5
93F
330
935
100
AcDbEntity
  8
0
100
AcDbBlockBegin
  2
*D62
 70
     1
 10
0.0
 20
0.0
 30
0.0
  3
*D62
  1

  0
LINE
  5
1040
330
935
100
AcDbEntity
  8
SUNPOU
 62
     0
370
    -2
100
AcDbLine
 10
6245.590297209528
 20
3741.290585502211
 30
0.0
 11
6245.590297209528
 21
3439.855310386252
 31
0.0
  0
LINE
  5
1041
330
935
100
AcDbEntity
  8
SUNPOU
 62
     0
370
    -2
100
AcDbLine
 10
5745.590297209528
 20
3741.290585502211
 30
0.0
 11
5745.590297209528
 21
3439.855310386252
 31
0.0
  0
LINE
  5
1042
330
935
100
AcDbEntity
  8
SUNPOU
 62
     0
370
    -2
100
AcDbLine
 10
6205.590297209528
 20
3449.855310386252
 30
0.0
 11
5785.590297209528
 21
3449.855310386252
 31
0.0
  0
SOLID
  5
1043
330
935
100
AcDbEntity
  8
SUNPOU
 62
     0
100
AcDbTrace
 10
6205.590297209528
 20
3456.521977052919
 30
0.0
 11
6205.590297209528
 21
3443.188643719586
 31
0.0
 12
6245.590297209528
 22
3449.855310386252
 32
0.0
 13
6245.590297209528
 23
3449.855310386252
 33
0.0
  0
SOLID
  5
1044
330
935
100
AcDbEntity
  8
SUNPOU
 62
     0
100
AcDbTrace
 10
5785.590297209528
 20
3456.521977052919
 30
0.0
 11
5785.590297209528
 21
3443.188643719586
 31
0.0
 12
5745.590297209528
 22
3449.855310386252
 32
0.0
 13
5745.590297209528
 23
3449.855310386252
 33
0.0
  0
MTEXT
  5
1045
330
935
100
AcDbEntity
  8
SUNPOU
 62
     0
100
AcDbMText
 10
5995.590297209528
 20
3495.855310386252
 30
0.0
 40
60.0
 41
0.0
 71
     5
 72
     1
  1
\A1;500
 73
     1
 44
1.0
  0
POINT
  5
1046
330
935
100
AcDbEntity
  8
DEFPOINTS
 62
     0
100
AcDbPoint
 10
6245.590297209528
 20
3781.290585502211
 30
0.0
  0
POINT
  5
1047
330
935
100
AcDbEntity
  8
DEFPOINTS
 62
     0
100
AcDbPoint
 10
5745.590297209528
 20
3781.290585502211
 30
0.0
  0
POINT
  5
1048
330
935
100
AcDbEntity
  8
DEFPOINTS
 62
     0
100
AcDbPoint
 10
5745.590297209528
 20
3449.855310386252
 30
0.0
  0
ENDBLK
  5
940
330
935
100
AcDbEntity
  8
0
100
AcDbBlockEnd
  0
BLOCK
  5
94B
330
941
100
AcDbEntity
  8
0
100
AcDbBlockBegin
  2
*D63
 70
     1
 10
0.0
 20
0.0
 30
0.0
  3
*D63
  1

  0
LINE
  5
102E
330
941
100
AcDbEntity
  8
SUNPOU
 62
     0
370
    -2
100
AcDbLine
 10
5245.590297209529
 20
3641.290585502211
 30
0.0
 11
5245.590297209529
 21
3439.855310386252
 31
0.0
  0
LINE
  5
102F
330
941
100
AcDbEntity
  8
SUNPOU
 62
     0
370
    -2
100
AcDbLine
 10
5745.590297209528
 20
3741.290585502211
 30
0.0
 11
5745.590297209528
 21
3439.855310386252
 31
0.0
  0
LINE
  5
1030
330
941
100
AcDbEntity
  8
SUNPOU
 62
     0
370
    -2
100
AcDbLine
 10
5285.590297209529
 20
3449.855310386252
 30
0.0
 11
5705.590297209528
 21
3449.855310386252
 31
0.0
  0
SOLID
  5
1031
330
941
100
AcDbEntity
  8
SUNPOU
 62
     0
100
AcDbTrace
 10
5285.590297209529
 20
3456.521977052919
 30
0.0
 11
5285.590297209529
 21
3443.188643719586
 31
0.0
 12
5245.590297209529
 22
3449.855310386252
 32
0.0
 13
5245.590297209529
 23
3449.855310386252
 33
0.0
  0
SOLID
  5
1032
330
941
100
AcDbEntity
  8
SUNPOU
 62
     0
100
AcDbTrace
 10
5705.590297209528
 20
3456.521977052919
 30
0.0
 11
5705.590297209528
 21
3443.188643719586
 31
0.0
 12
5745.590297209528
 22
3449.855310386252
 32
0.0
 13
5745.590297209528
 23
3449.855310386252
 33
0.0
  0
MTEXT
  5
1033
330
941
100
AcDbEntity
  8
SUNPOU
 62
     0
100
AcDbMText
 10
5495.590297209528
 20
3495.855310386252
 30
0.0
 40
60.0
 41
0.0
 71
     5
 72
     1
  1
\A1;500
 73
     1
 44
1.0
  0
POINT
  5
1034
330
941
100
AcDbEntity
  8
DEFPOINTS
 62
     0
100
AcDbPoint
 10
5245.590297209529
 20
3681.290585502211
 30
0.0
  0
POINT
  5
1035
330
941
100
AcDbEntity
  8
DEFPOINTS
 62
     0
100
AcDbPoint
 10
5745.590297209528
 20
3781.290585502211
 30
0.0
  0
POINT
  5
1036
330
941
100
AcDbEntity
  8
DEFPOINTS
 62
     0
100
AcDbPoint
 10
5745.590297209528
 20
3449.855310386252
 30
0.0
  0
ENDBLK
  5
94C
330
941
100
AcDbEntity
  8
0
100
AcDbBlockEnd
  0
BLOCK
  5
957
330
94D
100
AcDbEntity
  8
0
100
AcDbBlockBegin
  2
*D64
 70
     1
 10
0.0
 20
0.0
 30
0.0
  3
*D64
  1

  0
LINE
  5
1025
330
94D
100
AcDbEntity
  8
SUNPOU
 62
     0
370
    -2
100
AcDbLine
 10
5245.590297209529
 20
3641.290585502211
 30
0.0
 11
5245.590297209529
 21
3439.855310386252
 31
0.0
  0
LINE
  5
1026
330
94D
100
AcDbEntity
  8
SUNPOU
 62
     0
370
    -2
100
AcDbLine
 10
4745.59029720953
 20
3741.29058550221
 30
0.0
 11
4745.59029720953
 21
3439.855310386252
 31
0.0
  0
LINE
  5
1027
330
94D
100
AcDbEntity
  8
SUNPOU
 62
     0
370
    -2
100
AcDbLine
 10
5205.590297209529
 20
3449.855310386252
 30
0.0
 11
4785.59029720953
 21
3449.855310386252
 31
0.0
  0
SOLID
  5
1028
330
94D
100
AcDbEntity
  8
SUNPOU
 62
     0
100
AcDbTrace
 10
5205.590297209529
 20
3456.521977052919
 30
0.0
 11
5205.590297209529
 21
3443.188643719586
 31
0.0
 12
5245.590297209529
 22
3449.855310386252
 32
0.0
 13
5245.590297209529
 23
3449.855310386252
 33
0.0
  0
SOLID
  5
1029
330
94D
100
AcDbEntity
  8
SUNPOU
 62
     0
100
AcDbTrace
 10
4785.59029720953
 20
3456.521977052919
 30
0.0
 11
4785.59029720953
 21
3443.188643719586
 31
0.0
 12
4745.59029720953
 22
3449.855310386252
 32
0.0
 13
4745.59029720953
 23
3449.855310386252
 33
0.0
  0
MTEXT
  5
102A
330
94D
100
AcDbEntity
  8
SUNPOU
 62
     0
100
AcDbMText
 10
4995.59029720953
 20
3495.855310386252
 30
0.0
 40
60.0
 41
0.0
 71
     5
 72
     1
  1
\A1;500
 73
     1
 44
1.0
  0
POINT
  5
102B
330
94D
100
AcDbEntity
  8
DEFPOINTS
 62
     0
100
AcDbPoint
 10
5245.590297209529
 20
3681.290585502211
 30
0.0
  0
POINT
  5
102C
330
94D
100
AcDbEntity
  8
DEFPOINTS
 62
     0
100
AcDbPoint
 10
4745.59029720953
 20
3781.29058550221
 30
0.0
  0
POINT
  5
102D
330
94D
100
AcDbEntity
  8
DEFPOINTS
 62
     0
100
AcDbPoint
 10
4745.59029720953
 20
3449.855310386252
 30
0.0
  0
ENDBLK
  5
958
330
94D
100
AcDbEntity
  8
0
100
AcDbBlockEnd
  0
BLOCK
  5
963
330
959
100
AcDbEntity
  8
0
100
AcDbBlockBegin
  2
*D65
 70
     1
 10
0.0
 20
0.0
 30
0.0
  3
*D65
  1

  0
LINE
  5
1037
330
959
100
AcDbEntity
  8
SUNPOU
 62
     0
370
    -2
100
AcDbLine
 10
4245.59029720953
 20
3741.290585502209
 30
0.0
 11
4245.59029720953
 21
3439.855310386252
 31
0.0
  0
LINE
  5
1038
330
959
100
AcDbEntity
  8
SUNPOU
 62
     0
370
    -2
100
AcDbLine
 10
4745.59029720953
 20
3741.29058550221
 30
0.0
 11
4745.59029720953
 21
3439.855310386252
 31
0.0
  0
LINE
  5
1039
330
959
100
AcDbEntity
  8
SUNPOU
 62
     0
370
    -2
100
AcDbLine
 10
4285.59029720953
 20
3449.855310386252
 30
0.0
 11
4705.59029720953
 21
3449.855310386252
 31
0.0
  0
SOLID
  5
103A
330
959
100
AcDbEntity
  8
SUNPOU
 62
     0
100
AcDbTrace
 10
4285.59029720953
 20
3456.521977052919
 30
0.0
 11
4285.59029720953
 21
3443.188643719586
 31
0.0
 12
4245.59029720953
 22
3449.855310386252
 32
0.0
 13
4245.59029720953
 23
3449.855310386252
 33
0.0
  0
SOLID
  5
103B
330
959
100
AcDbEntity
  8
SUNPOU
 62
     0
100
AcDbTrace
 10
4705.59029720953
 20
3456.521977052919
 30
0.0
 11
4705.59029720953
 21
3443.188643719586
 31
0.0
 12
4745.59029720953
 22
3449.855310386252
 32
0.0
 13
4745.59029720953
 23
3449.855310386252
 33
0.0
  0
MTEXT
  5
103C
330
959
100
AcDbEntity
  8
SUNPOU
 62
     0
100
AcDbMText
 10
4495.59029720953
 20
3495.855310386252
 30
0.0
 40
60.0
 41
0.0
 71
     5
 72
     1
  1
\A1;500
 73
     1
 44
1.0
  0
POINT
  5
103D
330
959
100
AcDbEntity
  8
DEFPOINTS
 62
     0
100
AcDbPoint
 10
4245.59029720953
 20
3781.290585502209
 30
0.0
  0
POINT
  5
103E
330
959
100
AcDbEntity
  8
DEFPOINTS
 62
     0
100
AcDbPoint
 10
4745.59029720953
 20
3781.29058550221
 30
0.0
  0
POINT
  5
103F
330
959
100
AcDbEntity
  8
DEFPOINTS
 62
     0
100
AcDbPoint
 10
4745.59029720953
 20
3449.855310386252
 30
0.0
  0
ENDBLK
  5
964
330
959
100
AcDbEntity
  8
0
100
AcDbBlockEnd
  0
BLOCK
  5
96F
330
965
100
AcDbEntity
  8
0
100
AcDbBlockBegin
  2
*D66
 70
     1
 10
0.0
 20
0.0
 30
0.0
  3
*D66
  1

  0
LINE
  5
113B
330
965
100
AcDbEntity
  8
SUNPOU
 62
     0
370
    -2
100
AcDbLine
 10
4295.590297209528
 20
1636.831382031651
 30
0.0
 11
4295.590297209528
 21
1238.356635072263
 31
0.0
  0
LINE
  5
113C
330
965
100
AcDbEntity
  8
SUNPOU
 62
     0
370
    -2
100
AcDbLine
 10
6195.590297209526
 20
1636.831382031651
 30
0.0
 11
6195.590297209526
 21
1238.356635072263
 31
0.0
  0
LINE
  5
113D
330
965
100
AcDbEntity
  8
SUNPOU
 62
     0
370
    -2
100
AcDbLine
 10
4335.590297209528
 20
1248.356635072263
 30
0.0
 11
6155.590297209526
 21
1248.356635072263
 31
0.0
  0
SOLID
  5
113E
330
965
100
AcDbEntity
  8
SUNPOU
 62
     0
100
AcDbTrace
 10
4335.590297209528
 20
1255.02330173893
 30
0.0
 11
4335.590297209528
 21
1241.689968405596
 31
0.0
 12
4295.590297209528
 22
1248.356635072263
 32
0.0
 13
4295.590297209528
 23
1248.356635072263
 33
0.0
  0
SOLID
  5
113F
330
965
100
AcDbEntity
  8
SUNPOU
 62
     0
100
AcDbTrace
 10
6155.590297209526
 20
1255.02330173893
 30
0.0
 11
6155.590297209526
 21
1241.689968405596
 31
0.0
 12
6195.590297209526
 22
1248.356635072263
 32
0.0
 13
6195.590297209526
 23
1248.356635072263
 33
0.0
  0
MTEXT
  5
1140
330
965
100
AcDbEntity
  8
SUNPOU
 62
     0
100
AcDbMText
 10
5245.590297209527
 20
1294.356635072263
 30
0.0
 40
60.0
 41
0.0
 71
     5
 72
     1
  1
\A1;1900
 73
     1
 44
1.0
  0
POINT
  5
1141
330
965
100
AcDbEntity
  8
DEFPOINTS
 62
     0
100
AcDbPoint
 10
4295.590297209528
 20
1676.831382031651
 30
0.0
  0
POINT
  5
1142
330
965
100
AcDbEntity
  8
DEFPOINTS
 62
     0
100
AcDbPoint
 10
6195.590297209526
 20
1676.831382031651
 30
0.0
  0
POINT
  5
1143
330
965
100
AcDbEntity
  8
DEFPOINTS
 62
     0
100
AcDbPoint
 10
6195.590297209526
 20
1248.356635072263
 30
0.0
  0
ENDBLK
  5
970
330
965
100
AcDbEntity
  8
0
100
AcDbBlockEnd
  0
BLOCK
  5
9D3
330
9C9
100
AcDbEntity
  8
0
100
AcDbBlockBegin
  2
*D74
 70
     1
 10
0.0
 20
0.0
 30
0.0
  3
*D74
  1

  0
LINE
  5
10F9
330
9C9
100
AcDbEntity
  8
SUNPOU
 62
     0
370
    -2
100
AcDbLine
 10
4245.590297209528
 20
2366.831382031651
 30
0.0
 11
4245.590297209528
 21
2716.743730508531
 31
0.0
  0
LINE
  5
10FA
330
9C9
100
AcDbEntity
  8
SUNPOU
 62
     0
370
    -2
100
AcDbLine
 10
6245.590297209528
 20
2366.831382031651
 30
0.0
 11
6245.590297209528
 21
2716.743730508531
 31
0.0
  0
LINE
  5
10FB
330
9C9
100
AcDbEntity
  8
SUNPOU
 62
     0
370
    -2
100
AcDbLine
 10
4285.590297209528
 20
2706.743730508531
 30
0.0
 11
6205.590297209528
 21
2706.743730508531
 31
0.0
  0
SOLID
  5
10FC
330
9C9
100
AcDbEntity
  8
SUNPOU
 62
     0
100
AcDbTrace
 10
4285.590297209528
 20
2713.410397175198
 30
0.0
 11
4285.590297209528
 21
2700.077063841865
 31
0.0
 12
4245.590297209528
 22
2706.743730508531
 32
0.0
 13
4245.590297209528
 23
2706.743730508531
 33
0.0
  0
SOLID
  5
10FD
330
9C9
100
AcDbEntity
  8
SUNPOU
 62
     0
100
AcDbTrace
 10
6205.590297209528
 20
2713.410397175198
 30
0.0
 11
6205.590297209528
 21
2700.077063841865
 31
0.0
 12
6245.590297209528
 22
2706.743730508531
 32
0.0
 13
6245.590297209528
 23
2706.743730508531
 33
0.0
  0
MTEXT
  5
10FE
330
9C9
100
AcDbEntity
  8
SUNPOU
 62
     0
100
AcDbMText
 10
5245.590297209528
 20
2752.743730508531
 30
0.0
 40
60.0
 41
0.0
 71
     5
 72
     1
  1
\A1;2000
 73
     1
 44
1.0
  0
POINT
  5
10FF
330
9C9
100
AcDbEntity
  8
DEFPOINTS
 62
     0
100
AcDbPoint
 10
4245.590297209528
 20
2326.831382031651
 30
0.0
  0
POINT
  5
1100
330
9C9
100
AcDbEntity
  8
DEFPOINTS
 62
     0
100
AcDbPoint
 10
6245.590297209528
 20
2326.831382031651
 30
0.0
  0
POINT
  5
1101
330
9C9
100
AcDbEntity
  8
DEFPOINTS
 62
     0
100
AcDbPoint
 10
6245.590297209528
 20
2706.743730508531
 30
0.0
  0
ENDBLK
  5
9D4
330
9C9
100
AcDbEntity
  8
0
100
AcDbBlockEnd
  0
BLOCK
  5
9EC
330
9E2
100
AcDbEntity
  8
0
100
AcDbBlockBegin
  2
*D76
 70
     1
 10
0.0
 20
0.0
 30
0.0
  3
*D76
  1

  0
LINE
  5
F39
330
9E2
100
AcDbEntity
  8
SUNPOU
 62
     0
370
    -2
100
AcDbLine
 10
2143.046419946731
 20
3781.290585502211
 30
0.0
 11
1654.638297886246
 21
3781.290585502211
 31
0.0
  0
LINE
  5
F3A
330
9E2
100
AcDbEntity
  8
SUNPOU
 62
     0
370
    -2
100
AcDbLine
 10
2143.046419946731
 20
4281.290585502211
 30
0.0
 11
1654.638297886246
 21
4281.290585502212
 31
0.0
  0
LINE
  5
F3B
330
9E2
100
AcDbEntity
  8
SUNPOU
 62
     0
370
    -2
100
AcDbLine
 10
1664.638297886246
 20
3821.290585502211
 30
0.0
 11
1664.638297886246
 21
4241.290585502212
 31
0.0
  0
SOLID
  5
F3C
330
9E2
100
AcDbEntity
  8
SUNPOU
 62
     0
100
AcDbTrace
 10
1657.971631219579
 20
3821.290585502211
 30
0.0
 11
1671.304964552912
 21
3821.290585502211
 31
0.0
 12
1664.638297886246
 22
3781.290585502211
 32
0.0
 13
1664.638297886246
 23
3781.290585502211
 33
0.0
  0
SOLID
  5
F3D
330
9E2
100
AcDbEntity
  8
SUNPOU
 62
     0
100
AcDbTrace
 10
1657.971631219579
 20
4241.290585502212
 30
0.0
 11
1671.304964552912
 21
4241.290585502212
 31
0.0
 12
1664.638297886246
 22
4281.290585502212
 32
0.0
 13
1664.638297886246
 23
4281.290585502212
 33
0.0
  0
MTEXT
  5
F3E
330
9E2
100
AcDbEntity
  8
SUNPOU
 62
     0
100
AcDbMText
 10
1618.638297886245
 20
4031.290585502212
 30
0.0
 40
60.0
 41
0.0
 71
     5
 72
     1
  1
\A1;500
 11
6.123031769111886E-17
 21
1.0
 31
0.0
 73
     1
 44
1.0
  0
POINT
  5
F3F
330
9E2
100
AcDbEntity
  8
DEFPOINTS
 62
     0
100
AcDbPoint
 10
2183.046419946731
 20
3781.290585502211
 30
0.0
  0
POINT
  5
F40
330
9E2
100
AcDbEntity
  8
DEFPOINTS
 62
     0
100
AcDbPoint
 10
2183.046419946731
 20
4281.290585502211
 30
0.0
  0
POINT
  5
F41
330
9E2
100
AcDbEntity
  8
DEFPOINTS
 62
     0
100
AcDbPoint
 10
1664.638297886246
 20
4281.290585502212
 30
0.0
  0
ENDBLK
  5
9ED
330
9E2
100
AcDbEntity
  8
0
100
AcDbBlockEnd
  0
BLOCK
  5
9F9
330
9EE
100
AcDbEntity
  8
0
100
AcDbBlockBegin
  2
*D77
 70
     1
 10
0.0
 20
0.0
 30
0.0
  3
*D77
  1

  0
LINE
  5
F2F
330
9EE
100
AcDbEntity
  8
SUNPOU
 62
     0
370
    -2
100
AcDbLine
 10
2143.046419946731
 20
3781.290585502211
 30
0.0
 11
1780.526529842686
 21
3781.290585502211
 31
0.0
  0
LINE
  5
F30
330
9EE
100
AcDbEntity
  8
SUNPOU
 62
     0
370
    -2
100
AcDbLine
 10
2143.046419946731
 20
3841.290585502211
 30
0.0
 11
1780.526529842686
 21
3841.290585502211
 31
0.0
  0
LINE
  5
F31
330
9EE
100
AcDbEntity
  8
SUNPOU
 62
     0
370
    -2
100
AcDbLine
 10
1790.526529842686
 20
3741.290585502211
 30
0.0
 11
1790.526529842686
 21
3701.290585502211
 31
0.0
  0
LINE
  5
F32
330
9EE
100
AcDbEntity
  8
SUNPOU
 62
     0
370
    -2
100
AcDbLine
 10
1790.526529842686
 20
3881.290585502211
 30
0.0
 11
1790.526529842686
 21
3921.290585502211
 31
0.0
  0
SOLID
  5
F33
330
9EE
100
AcDbEntity
  8
SUNPOU
 62
     0
100
AcDbTrace
 10
1783.859863176019
 20
3741.290585502211
 30
0.0
 11
1797.193196509352
 21
3741.290585502211
 31
0.0
 12
1790.526529842686
 22
3781.290585502211
 32
0.0
 13
1790.526529842686
 23
3781.290585502211
 33
0.0
  0
SOLID
  5
F34
330
9EE
100
AcDbEntity
  8
SUNPOU
 62
     0
100
AcDbTrace
 10
1783.859863176019
 20
3881.290585502211
 30
0.0
 11
1797.193196509352
 21
3881.290585502211
 31
0.0
 12
1790.526529842686
 22
3841.290585502211
 32
0.0
 13
1790.526529842686
 23
3841.290585502211
 33
0.0
  0
MTEXT
  5
F35
330
9EE
100
AcDbEntity
  8
SUNPOU
 62
     0
100
AcDbMText
 10
1744.526529842685
 20
3811.290585502211
 30
0.0
 40
60.0
 41
0.0
 71
     5
 72
     1
  1
\A1;60
 11
6.123031769111886E-17
 21
1.0
 31
0.0
 73
     1
 44
1.0
  0
POINT
  5
F36
330
9EE
100
AcDbEntity
  8
DEFPOINTS
 62
     0
100
AcDbPoint
 10
2183.046419946731
 20
3781.290585502211
 30
0.0
  0
POINT
  5
F37
330
9EE
100
AcDbEntity
  8
DEFPOINTS
 62
     0
100
AcDbPoint
 10
2183.046419946731
 20
3841.290585502211
 30
0.0
  0
POINT
  5
F38
330
9EE
100
AcDbEntity
  8
DEFPOINTS
 62
     0
100
AcDbPoint
 10
1790.526529842686
 20
3841.290585502211
 30
0.0
  0
ENDBLK
  5
9FA
330
9EE
100
AcDbEntity
  8
0
100
AcDbBlockEnd
  0
BLOCK
  5
A05
330
9FB
100
AcDbEntity
  8
0
100
AcDbBlockBegin
  2
*D78
 70
     1
 10
0.0
 20
0.0
 30
0.0
  3
*D78
  1

  0
LINE
  5
F26
330
9FB
100
AcDbEntity
  8
SUNPOU
 62
     0
370
    -2
100
AcDbLine
 10
2143.046419946731
 20
4281.290585502211
 30
0.0
 11
1780.526529842686
 21
4281.290585502212
 31
0.0
  0
LINE
  5
F27
330
9FB
100
AcDbEntity
  8
SUNPOU
 62
     0
370
    -2
100
AcDbLine
 10
2143.046419946731
 20
3841.290585502211
 30
0.0
 11
1780.526529842686
 21
3841.290585502211
 31
0.0
  0
LINE
  5
F28
330
9FB
100
AcDbEntity
  8
SUNPOU
 62
     0
370
    -2
100
AcDbLine
 10
1790.526529842686
 20
4241.290585502212
 30
0.0
 11
1790.526529842686
 21
3881.290585502211
 31
0.0
  0
SOLID
  5
F29
330
9FB
100
AcDbEntity
  8
SUNPOU
 62
     0
100
AcDbTrace
 10
1783.859863176019
 20
4241.290585502212
 30
0.0
 11
1797.193196509352
 21
4241.290585502212
 31
0.0
 12
1790.526529842686
 22
4281.290585502212
 32
0.0
 13
1790.526529842686
 23
4281.290585502212
 33
0.0
  0
SOLID
  5
F2A
330
9FB
100
AcDbEntity
  8
SUNPOU
 62
     0
100
AcDbTrace
 10
1783.859863176019
 20
3881.290585502211
 30
0.0
 11
1797.193196509352
 21
3881.290585502211
 31
0.0
 12
1790.526529842686
 22
3841.290585502211
 32
0.0
 13
1790.526529842686
 23
3841.290585502211
 33
0.0
  0
MTEXT
  5
F2B
330
9FB
100
AcDbEntity
  8
SUNPOU
 62
     0
100
AcDbMText
 10
1744.526529842685
 20
4061.290585502212
 30
0.0
 40
60.0
 41
0.0
 71
     5
 72
     1
  1
\A1;440
 11
6.123031769111886E-17
 21
1.0
 31
0.0
 73
     1
 44
1.0
  0
POINT
  5
F2C
330
9FB
100
AcDbEntity
  8
DEFPOINTS
 62
     0
100
AcDbPoint
 10
2183.046419946731
 20
4281.290585502211
 30
0.0
  0
POINT
  5
F2D
330
9FB
100
AcDbEntity
  8
DEFPOINTS
 62
     0
100
AcDbPoint
 10
2183.046419946731
 20
3841.290585502211
 30
0.0
  0
POINT
  5
F2E
330
9FB
100
AcDbEntity
  8
DEFPOINTS
 62
     0
100
AcDbPoint
 10
1790.526529842686
 20
3841.290585502211
 30
0.0
  0
ENDBLK
  5
A06
330
9FB
100
AcDbEntity
  8
0
100
AcDbBlockEnd
  0
BLOCK
  5
A11
330
A07
100
AcDbEntity
  8
0
100
AcDbBlockBegin
  2
*D79
 70
     1
 10
0.0
 20
0.0
 30
0.0
  3
*D79
  1

  0
LINE
  5
F84
330
A07
100
AcDbEntity
  8
SUNPOU
 62
     0
370
    -2
100
AcDbLine
 10
2183.046419946731
 20
3741.290585502211
 30
0.0
 11
2183.046419946731
 21
3344.385344534954
 31
0.0
  0
LINE
  5
F85
330
A07
100
AcDbEntity
  8
SUNPOU
 62
     0
370
    -2
100
AcDbLine
 10
2833.046419946731
 20
3741.290585502211
 30
0.0
 11
2833.046419946731
 21
3344.385344534954
 31
0.0
  0
LINE
  5
F86
330
A07
100
AcDbEntity
  8
SUNPOU
 62
     0
370
    -2
100
AcDbLine
 10
2223.046419946731
 20
3354.385344534954
 30
0.0
 11
2793.046419946731
 21
3354.385344534954
 31
0.0
  0
SOLID
  5
F87
330
A07
100
AcDbEntity
  8
SUNPOU
 62
     0
100
AcDbTrace
 10
2223.046419946731
 20
3361.052011201621
 30
0.0
 11
2223.046419946731
 21
3347.718677868288
 31
0.0
 12
2183.046419946731
 22
3354.385344534954
 32
0.0
 13
2183.046419946731
 23
3354.385344534954
 33
0.0
  0
SOLID
  5
F88
330
A07
100
AcDbEntity
  8
SUNPOU
 62
     0
100
AcDbTrace
 10
2793.046419946731
 20
3361.052011201621
 30
0.0
 11
2793.046419946731
 21
3347.718677868288
 31
0.0
 12
2833.046419946731
 22
3354.385344534954
 32
0.0
 13
2833.046419946731
 23
3354.385344534954
 33
0.0
  0
MTEXT
  5
F89
330
A07
100
AcDbEntity
  8
SUNPOU
 62
     0
100
AcDbMText
 10
2508.046419946731
 20
3400.385344534954
 30
0.0
 40
60.0
 41
0.0
 71
     5
 72
     1
  1
\A1;650
 73
     1
 44
1.0
  0
POINT
  5
F8A
330
A07
100
AcDbEntity
  8
DEFPOINTS
 62
     0
100
AcDbPoint
 10
2183.046419946731
 20
3781.290585502211
 30
0.0
  0
POINT
  5
F8B
330
A07
100
AcDbEntity
  8
DEFPOINTS
 62
     0
100
AcDbPoint
 10
2833.046419946731
 20
3781.290585502211
 30
0.0
  0
POINT
  5
F8C
330
A07
100
AcDbEntity
  8
DEFPOINTS
 62
     0
100
AcDbPoint
 10
2833.046419946731
 20
3354.385344534954
 30
0.0
  0
ENDBLK
  5
A12
330
A07
100
AcDbEntity
  8
0
100
AcDbBlockEnd
  0
BLOCK
  5
A1E
330
A13
100
AcDbEntity
  8
0
100
AcDbBlockBegin
  2
*D80
 70
     1
 10
0.0
 20
0.0
 30
0.0
  3
*D80
  1

  0
LINE
  5
F7A
330
A13
100
AcDbEntity
  8
SUNPOU
 62
     0
370
    -2
100
AcDbLine
 10
2183.046419946731
 20
3741.290585502211
 30
0.0
 11
2183.046419946731
 21
3470.813888809926
 31
0.0
  0
LINE
  5
F7B
330
A13
100
AcDbEntity
  8
SUNPOU
 62
     0
370
    -2
100
AcDbLine
 10
2243.046419946731
 20
3741.290585502211
 30
0.0
 11
2243.046419946731
 21
3470.813888809926
 31
0.0
  0
LINE
  5
F7C
330
A13
100
AcDbEntity
  8
SUNPOU
 62
     0
370
    -2
100
AcDbLine
 10
2143.046419946731
 20
3480.813888809926
 30
0.0
 11
2103.046419946731
 21
3480.813888809926
 31
0.0
  0
LINE
  5
F7D
330
A13
100
AcDbEntity
  8
SUNPOU
 62
     0
370
    -2
100
AcDbLine
 10
2283.046419946731
 20
3480.813888809926
 30
0.0
 11
2323.046419946731
 21
3480.813888809926
 31
0.0
  0
SOLID
  5
F7E
330
A13
100
AcDbEntity
  8
SUNPOU
 62
     0
100
AcDbTrace
 10
2143.046419946731
 20
3487.480555476592
 30
0.0
 11
2143.046419946731
 21
3474.147222143259
 31
0.0
 12
2183.046419946731
 22
3480.813888809926
 32
0.0
 13
2183.046419946731
 23
3480.813888809926
 33
0.0
  0
SOLID
  5
F7F
330
A13
100
AcDbEntity
  8
SUNPOU
 62
     0
100
AcDbTrace
 10
2283.046419946731
 20
3487.480555476592
 30
0.0
 11
2283.046419946731
 21
3474.147222143259
 31
0.0
 12
2243.046419946731
 22
3480.813888809926
 32
0.0
 13
2243.046419946731
 23
3480.813888809926
 33
0.0
  0
MTEXT
  5
F80
330
A13
100
AcDbEntity
  8
SUNPOU
 62
     0
100
AcDbMText
 10
2213.046419946731
 20
3526.813888809926
 30
0.0
 40
60.0
 41
0.0
 71
     5
 72
     1
  1
\A1;60
 73
     1
 44
1.0
  0
POINT
  5
F81
330
A13
100
AcDbEntity
  8
DEFPOINTS
 62
     0
100
AcDbPoint
 10
2183.046419946731
 20
3781.290585502211
 30
0.0
  0
POINT
  5
F82
330
A13
100
AcDbEntity
  8
DEFPOINTS
 62
     0
100
AcDbPoint
 10
2243.046419946731
 20
3781.290585502211
 30
0.0
  0
POINT
  5
F83
330
A13
100
AcDbEntity
  8
DEFPOINTS
 62
     0
100
AcDbPoint
 10
2243.046419946731
 20
3480.813888809926
 30
0.0
  0
ENDBLK
  5
A1F
330
A13
100
AcDbEntity
  8
0
100
AcDbBlockEnd
  0
BLOCK
  5
A2A
330
A20
100
AcDbEntity
  8
0
100
AcDbBlockBegin
  2
*D81
 70
     1
 10
0.0
 20
0.0
 30
0.0
  3
*D81
  1

  0
LINE
  5
F71
330
A20
100
AcDbEntity
  8
SUNPOU
 62
     0
370
    -2
100
AcDbLine
 10
2243.046419946731
 20
3741.290585502211
 30
0.0
 11
2243.046419946731
 21
3470.813888809926
 31
0.0
  0
LINE
  5
F72
330
A20
100
AcDbEntity
  8
SUNPOU
 62
     0
370
    -2
100
AcDbLine
 10
2833.046419946731
 20
3741.290585502211
 30
0.0
 11
2833.046419946731
 21
3470.813888809926
 31
0.0
  0
LINE
  5
F73
330
A20
100
AcDbEntity
  8
SUNPOU
 62
     0
370
    -2
100
AcDbLine
 10
2283.046419946731
 20
3480.813888809926
 30
0.0
 11
2793.046419946731
 21
3480.813888809926
 31
0.0
  0
SOLID
  5
F74
330
A20
100
AcDbEntity
  8
SUNPOU
 62
     0
100
AcDbTrace
 10
2283.046419946731
 20
3487.480555476592
 30
0.0
 11
2283.046419946731
 21
3474.147222143259
 31
0.0
 12
2243.046419946731
 22
3480.813888809926
 32
0.0
 13
2243.046419946731
 23
3480.813888809926
 33
0.0
  0
SOLID
  5
F75
330
A20
100
AcDbEntity
  8
SUNPOU
 62
     0
100
AcDbTrace
 10
2793.046419946731
 20
3487.480555476592
 30
0.0
 11
2793.046419946731
 21
3474.147222143259
 31
0.0
 12
2833.046419946731
 22
3480.813888809926
 32
0.0
 13
2833.046419946731
 23
3480.813888809926
 33
0.0
  0
MTEXT
  5
F76
330
A20
100
AcDbEntity
  8
SUNPOU
 62
     0
100
AcDbMText
 10
2538.046419946731
 20
3526.813888809926
 30
0.0
 40
60.0
 41
0.0
 71
     5
 72
     1
  1
\A1;590
 73
     1
 44
1.0
  0
POINT
  5
F77
330
A20
100
AcDbEntity
  8
DEFPOINTS
 62
     0
100
AcDbPoint
 10
2243.046419946731
 20
3781.290585502211
 30
0.0
  0
POINT
  5
F78
330
A20
100
AcDbEntity
  8
DEFPOINTS
 62
     0
100
AcDbPoint
 10
2833.046419946731
 20
3781.290585502211
 30
0.0
  0
POINT
  5
F79
330
A20
100
AcDbEntity
  8
DEFPOINTS
 62
     0
100
AcDbPoint
 10
2833.046419946731
 20
3480.813888809926
 30
0.0
  0
ENDBLK
  5
A2B
330
A20
100
AcDbEntity
  8
0
100
AcDbBlockEnd
  0
BLOCK
  5
A37
330
A2C
100
AcDbEntity
  8
0
100
AcDbBlockBegin
  2
*D82
 70
     1
 10
0.0
 20
0.0
 30
0.0
  3
*D82
  1

  0
LINE
  5
F4B
330
A2C
100
AcDbEntity
  8
SUNPOU
 62
     0
370
    -2
100
AcDbLine
 10
2873.046419946731
 20
3781.290585502211
 30
0.0
 11
3143.046419946731
 21
3781.29058550221
 31
0.0
  0
LINE
  5
F4C
330
A2C
100
AcDbEntity
  8
SUNPOU
 62
     0
370
    -2
100
AcDbLine
 10
2873.046419946731
 20
3831.290585502211
 30
0.0
 11
3143.046419946731
 21
3831.29058550221
 31
0.0
  0
LINE
  5
F4D
330
A2C
100
AcDbEntity
  8
SUNPOU
 62
     0
370
    -2
100
AcDbLine
 10
3133.046419946731
 20
3741.29058550221
 30
0.0
 11
3133.046419946731
 21
3701.29058550221
 31
0.0
  0
LINE
  5
F4E
330
A2C
100
AcDbEntity
  8
SUNPOU
 62
     0
370
    -2
100
AcDbLine
 10
3133.046419946731
 20
3871.29058550221
 30
0.0
 11
3133.046419946731
 21
3911.29058550221
 31
0.0
  0
SOLID
  5
F4F
330
A2C
100
AcDbEntity
  8
SUNPOU
 62
     0
100
AcDbTrace
 10
3126.379753280065
 20
3741.29058550221
 30
0.0
 11
3139.713086613398
 21
3741.29058550221
 31
0.0
 12
3133.046419946731
 22
3781.29058550221
 32
0.0
 13
3133.046419946731
 23
3781.29058550221
 33
0.0
  0
SOLID
  5
F50
330
A2C
100
AcDbEntity
  8
SUNPOU
 62
     0
100
AcDbTrace
 10
3126.379753280065
 20
3871.29058550221
 30
0.0
 11
3139.713086613398
 21
3871.29058550221
 31
0.0
 12
3133.046419946731
 22
3831.29058550221
 32
0.0
 13
3133.046419946731
 23
3831.29058550221
 33
0.0
  0
MTEXT
  5
F51
330
A2C
100
AcDbEntity
  8
SUNPOU
 62
     0
100
AcDbMText
 10
3087.046419946731
 20
3806.290585502211
 30
0.0
 40
60.0
 41
0.0
 71
     5
 72
     1
  1
\A1;50
 11
6.123031769111886E-17
 21
1.0
 31
0.0
 73
     1
 44
1.0
  0
POINT
  5
F52
330
A2C
100
AcDbEntity
  8
DEFPOINTS
 62
     0
100
AcDbPoint
 10
2833.046419946731
 20
3781.290585502211
 30
0.0
  0
POINT
  5
F53
330
A2C
100
AcDbEntity
  8
DEFPOINTS
 62
     0
100
AcDbPoint
 10
2833.046419946731
 20
3831.290585502211
 30
0.0
  0
POINT
  5
F54
330
A2C
100
AcDbEntity
  8
DEFPOINTS
 62
     0
100
AcDbPoint
 10
3133.046419946731
 20
3831.29058550221
 30
0.0
  0
ENDBLK
  5
A38
330
A2C
100
AcDbEntity
  8
0
100
AcDbBlockEnd
  0
BLOCK
  5
A44
330
A39
100
AcDbEntity
  8
0
100
AcDbBlockBegin
  2
*D83
 70
     1
 10
0.0
 20
0.0
 30
0.0
  3
*D83
  1

  0
LINE
  5
DCB
330
A39
100
AcDbEntity
  8
SUNPOU
 62
     0
370
    -2
100
AcDbLine
 10
2183.046419946731
 20
4321.290585502211
 30
0.0
 11
2183.046419946731
 21
4591.290585502211
 31
0.0
  0
LINE
  5
DCC
330
A39
100
AcDbEntity
  8
SUNPOU
 62
     0
370
    -2
100
AcDbLine
 10
2233.046419946731
 20
4321.290585502211
 30
0.0
 11
2233.046419946731
 21
4591.290585502211
 31
0.0
  0
LINE
  5
DCD
330
A39
100
AcDbEntity
  8
SUNPOU
 62
     0
370
    -2
100
AcDbLine
 10
2143.046419946731
 20
4581.290585502211
 30
0.0
 11
2103.046419946731
 21
4581.290585502211
 31
0.0
  0
LINE
  5
DCE
330
A39
100
AcDbEntity
  8
SUNPOU
 62
     0
370
    -2
100
AcDbLine
 10
2273.046419946731
 20
4581.290585502211
 30
0.0
 11
2313.046419946731
 21
4581.290585502211
 31
0.0
  0
MTEXT
  5
DCF
330
A39
100
AcDbEntity
  8
SUNPOU
 62
     0
100
AcDbMText
 10
2208.046419946731
 20
4621.171126187939
 30
0.0
 40
60.0
 41
0.0
 71
     5
 72
     1
  1
\A1;50
 73
     1
 44
1.0
  0
SOLID
  5
DD0
330
A39
100
AcDbEntity
  8
SUNPOU
 62
     0
100
AcDbTrace
 10
2143.046419946731
 20
4587.957252168878
 30
0.0
 11
2143.046419946731
 21
4574.623918835544
 31
0.0
 12
2183.046419946731
 22
4581.290585502211
 32
0.0
 13
2183.046419946731
 23
4581.290585502211
 33
0.0
  0
SOLID
  5
DD1
330
A39
100
AcDbEntity
  8
SUNPOU
 62
     0
100
AcDbTrace
 10
2273.046419946731
 20
4587.957252168878
 30
0.0
 11
2273.046419946731
 21
4574.623918835544
 31
0.0
 12
2233.046419946731
 22
4581.290585502211
 32
0.0
 13
2233.046419946731
 23
4581.290585502211
 33
0.0
  0
POINT
  5
DD2
330
A39
100
AcDbEntity
  8
DEFPOINTS
 62
     0
100
AcDbPoint
 10
2183.046419946731
 20
4281.290585502211
 30
0.0
  0
POINT
  5
DD3
330
A39
100
AcDbEntity
  8
DEFPOINTS
 62
     0
100
AcDbPoint
 10
2233.046419946731
 20
4281.290585502211
 30
0.0
  0
POINT
  5
DD4
330
A39
100
AcDbEntity
  8
DEFPOINTS
 62
     0
100
AcDbPoint
 10
2233.046419946731
 20
4581.290585502211
 30
0.0
  0
ENDBLK
  5
A45
330
A39
100
AcDbEntity
  8
0
100
AcDbBlockEnd
  0
BLOCK
  5
A50
330
A46
100
AcDbEntity
  8
0
100
AcDbBlockBegin
  2
*D84
 70
     1
 10
0.0
 20
0.0
 30
0.0
  3
*D84
  1

  0
LINE
  5
F0A
330
A46
100
AcDbEntity
  8
SUNPOU
 62
     0
370
    -2
100
AcDbLine
 10
2143.046419946731
 20
3781.290585502211
 30
0.0
 11
1997.940726699868
 21
3781.290585502211
 31
0.0
  0
LINE
  5
F0B
330
A46
100
AcDbEntity
  8
SUNPOU
 62
     0
370
    -2
100
AcDbLine
 10
2095.039170125187
 20
3981.290585502211
 30
0.0
 11
1997.940726699868
 21
3981.290585502211
 31
0.0
  0
LINE
  5
F0C
330
A46
100
AcDbEntity
  8
SUNPOU
 62
     0
370
    -2
100
AcDbLine
 10
2007.940726699868
 20
3821.290585502211
 30
0.0
 11
2007.940726699868
 21
3941.290585502211
 31
0.0
  0
SOLID
  5
F0D
330
A46
100
AcDbEntity
  8
SUNPOU
 62
     0
100
AcDbTrace
 10
2001.274060033201
 20
3821.290585502211
 30
0.0
 11
2014.607393366535
 21
3821.290585502211
 31
0.0
 12
2007.940726699868
 22
3781.290585502211
 32
0.0
 13
2007.940726699868
 23
3781.290585502211
 33
0.0
  0
SOLID
  5
F0E
330
A46
100
AcDbEntity
  8
SUNPOU
 62
     0
100
AcDbTrace
 10
2001.274060033201
 20
3941.290585502211
 30
0.0
 11
2014.607393366535
 21
3941.290585502211
 31
0.0
 12
2007.940726699868
 22
3981.290585502211
 32
0.0
 13
2007.940726699868
 23
3981.290585502211
 33
0.0
  0
MTEXT
  5
F0F
330
A46
100
AcDbEntity
  8
SUNPOU
 62
     0
100
AcDbMText
 10
1961.940726699867
 20
3881.290585502211
 30
0.0
 40
60.0
 41
0.0
 71
     5
 72
     1
  1
\A1;200
 11
6.123031769111886E-17
 21
1.0
 31
0.0
 73
     1
 44
1.0
  0
POINT
  5
F10
330
A46
100
AcDbEntity
  8
DEFPOINTS
 62
     0
100
AcDbPoint
 10
2183.046419946731
 20
3781.290585502211
 30
0.0
  0
POINT
  5
F11
330
A46
100
AcDbEntity
  8
DEFPOINTS
 62
     0
100
AcDbPoint
 10
2135.039170125187
 20
3981.290585502211
 30
0.0
  0
POINT
  5
F12
330
A46
100
AcDbEntity
  8
DEFPOINTS
 62
     0
100
AcDbPoint
 10
2007.940726699868
 20
3981.290585502211
 30
0.0
  0
ENDBLK
  5
A51
330
A46
100
AcDbEntity
  8
0
100
AcDbBlockEnd
  0
BLOCK
  5
A5C
330
A52
100
AcDbEntity
  8
0
100
AcDbBlockBegin
  2
*D85
 70
     1
 10
0.0
 20
0.0
 30
0.0
  3
*D85
  1

  0
LINE
  5
F42
330
A52
100
AcDbEntity
  8
SUNPOU
 62
     0
370
    -2
100
AcDbLine
 10
2273.046419946731
 20
4281.290585502211
 30
0.0
 11
3143.046419946731
 21
4281.290585502211
 31
0.0
  0
LINE
  5
F43
330
A52
100
AcDbEntity
  8
SUNPOU
 62
     0
370
    -2
100
AcDbLine
 10
2873.046419946731
 20
3831.290585502211
 30
0.0
 11
3143.046419946731
 21
3831.29058550221
 31
0.0
  0
LINE
  5
F44
330
A52
100
AcDbEntity
  8
SUNPOU
 62
     0
370
    -2
100
AcDbLine
 10
3133.046419946731
 20
4241.290585502211
 30
0.0
 11
3133.046419946731
 21
3871.29058550221
 31
0.0
  0
SOLID
  5
F45
330
A52
100
AcDbEntity
  8
SUNPOU
 62
     0
100
AcDbTrace
 10
3126.379753280065
 20
4241.290585502211
 30
0.0
 11
3139.713086613398
 21
4241.290585502211
 31
0.0
 12
3133.046419946731
 22
4281.290585502211
 32
0.0
 13
3133.046419946731
 23
4281.290585502211
 33
0.0
  0
SOLID
  5
F46
330
A52
100
AcDbEntity
  8
SUNPOU
 62
     0
100
AcDbTrace
 10
3126.379753280065
 20
3871.29058550221
 30
0.0
 11
3139.713086613398
 21
3871.29058550221
 31
0.0
 12
3133.046419946731
 22
3831.29058550221
 32
0.0
 13
3133.046419946731
 23
3831.29058550221
 33
0.0
  0
MTEXT
  5
F47
330
A52
100
AcDbEntity
  8
SUNPOU
 62
     0
100
AcDbMText
 10
3087.046419946731
 20
4056.290585502212
 30
0.0
 40
60.0
 41
0.0
 71
     5
 72
     1
  1
\A1;450
 11
6.123031769111886E-17
 21
1.0
 31
0.0
 73
     1
 44
1.0
  0
POINT
  5
F48
330
A52
100
AcDbEntity
  8
DEFPOINTS
 62
     0
100
AcDbPoint
 10
2233.046419946731
 20
4281.290585502211
 30
0.0
  0
POINT
  5
F49
330
A52
100
AcDbEntity
  8
DEFPOINTS
 62
     0
100
AcDbPoint
 10
2833.046419946731
 20
3831.290585502211
 30
0.0
  0
POINT
  5
F4A
330
A52
100
AcDbEntity
  8
DEFPOINTS
 62
     0
100
AcDbPoint
 10
3133.046419946731
 20
3831.29058550221
 30
0.0
  0
ENDBLK
  5
A5D
330
A52
100
AcDbEntity
  8
0
100
AcDbBlockEnd
  0
BLOCK
  5
A82
330
A78
100
AcDbEntity
  8
0
100
AcDbBlockBegin
  2
*D88
 70
     1
 10
0.0
 20
0.0
 30
0.0
  3
*D88
  1

  0
LINE
  5
F8D
330
A78
100
AcDbEntity
  8
SUNPOU
 62
     0
370
    -2
100
AcDbLine
 10
2833.046419946731
 20
3871.290585502211
 30
0.0
 11
2833.046419946731
 21
3962.083630279167
 31
0.0
  0
LINE
  5
F8E
330
A78
100
AcDbEntity
  8
SUNPOU
 62
     0
370
    -2
100
AcDbLine
 10
2603.046419946731
 20
3871.290585502211
 30
0.0
 11
2603.046419946731
 21
3962.083630279167
 31
0.0
  0
LINE
  5
F8F
330
A78
100
AcDbEntity
  8
SUNPOU
 62
     0
370
    -2
100
AcDbLine
 10
2793.046419946731
 20
3952.083630279167
 30
0.0
 11
2643.046419946731
 21
3952.083630279167
 31
0.0
  0
SOLID
  5
F90
330
A78
100
AcDbEntity
  8
SUNPOU
 62
     0
100
AcDbTrace
 10
2793.046419946731
 20
3958.750296945833
 30
0.0
 11
2793.046419946731
 21
3945.4169636125
 31
0.0
 12
2833.046419946731
 22
3952.083630279167
 32
0.0
 13
2833.046419946731
 23
3952.083630279167
 33
0.0
  0
SOLID
  5
F91
330
A78
100
AcDbEntity
  8
SUNPOU
 62
     0
100
AcDbTrace
 10
2643.046419946731
 20
3958.750296945833
 30
0.0
 11
2643.046419946731
 21
3945.4169636125
 31
0.0
 12
2603.046419946731
 22
3952.083630279167
 32
0.0
 13
2603.046419946731
 23
3952.083630279167
 33
0.0
  0
MTEXT
  5
F92
330
A78
100
AcDbEntity
  8
SUNPOU
 62
     0
100
AcDbMText
 10
2718.046419946731
 20
3998.083630279167
 30
0.0
 40
60.0
 41
0.0
 71
     5
 72
     1
  1
\A1;230
 73
     1
 44
1.0
  0
POINT
  5
F93
330
A78
100
AcDbEntity
  8
DEFPOINTS
 62
     0
100
AcDbPoint
 10
2833.046419946731
 20
3831.290585502211
 30
0.0
  0
POINT
  5
F94
330
A78
100
AcDbEntity
  8
DEFPOINTS
 62
     0
100
AcDbPoint
 10
2603.046419946731
 20
3831.290585502211
 30
0.0
  0
POINT
  5
F95
330
A78
100
AcDbEntity
  8
DEFPOINTS
 62
     0
100
AcDbPoint
 10
2603.046419946731
 20
3952.083630279167
 30
0.0
  0
ENDBLK
  5
A83
330
A78
100
AcDbEntity
  8
0
100
AcDbBlockEnd
  0
BLOCK
  5
A8E
330
A84
100
AcDbEntity
  8
0
100
AcDbBlockBegin
  2
*D89
 70
     1
 10
0.0
 20
0.0
 30
0.0
  3
*D89
  1

  0
LINE
  5
101C
330
A84
100
AcDbEntity
  8
SUNPOU
 62
     0
370
    -2
100
AcDbLine
 10
4205.590297209528
 20
3781.290585502211
 30
0.0
 11
3776.73984232263
 21
3781.290585502211
 31
0.0
  0
LINE
  5
101D
330
A84
100
AcDbEntity
  8
SUNPOU
 62
     0
370
    -2
100
AcDbLine
 10
4205.590297209528
 20
4281.290585502211
 30
0.0
 11
3776.73984232263
 21
4281.290585502211
 31
0.0
  0
LINE
  5
101E
330
A84
100
AcDbEntity
  8
SUNPOU
 62
     0
370
    -2
100
AcDbLine
 10
3786.73984232263
 20
3821.290585502211
 30
0.0
 11
3786.73984232263
 21
4241.290585502211
 31
0.0
  0
SOLID
  5
101F
330
A84
100
AcDbEntity
  8
SUNPOU
 62
     0
100
AcDbTrace
 10
3780.073175655963
 20
3821.290585502211
 30
0.0
 11
3793.406508989296
 21
3821.290585502211
 31
0.0
 12
3786.73984232263
 22
3781.290585502211
 32
0.0
 13
3786.73984232263
 23
3781.290585502211
 33
0.0
  0
SOLID
  5
1020
330
A84
100
AcDbEntity
  8
SUNPOU
 62
     0
100
AcDbTrace
 10
3780.073175655963
 20
4241.290585502211
 30
0.0
 11
3793.406508989296
 21
4241.290585502211
 31
0.0
 12
3786.73984232263
 22
4281.290585502211
 32
0.0
 13
3786.73984232263
 23
4281.290585502211
 33
0.0
  0
MTEXT
  5
1021
330
A84
100
AcDbEntity
  8
SUNPOU
 62
     0
100
AcDbMText
 10
3740.739842322629
 20
4031.290585502211
 30
0.0
 40
60.0
 41
0.0
 71
     5
 72
     1
  1
\A1;500
 11
6.123031769111886E-17
 21
1.0
 31
0.0
 73
     1
 44
1.0
  0
POINT
  5
1022
330
A84
100
AcDbEntity
  8
DEFPOINTS
 62
     0
100
AcDbPoint
 10
4245.590297209528
 20
3781.290585502211
 30
0.0
  0
POINT
  5
1023
330
A84
100
AcDbEntity
  8
DEFPOINTS
 62
     0
100
AcDbPoint
 10
4245.590297209528
 20
4281.290585502211
 30
0.0
  0
POINT
  5
1024
330
A84
100
AcDbEntity
  8
DEFPOINTS
 62
     0
100
AcDbPoint
 10
3786.73984232263
 20
4281.290585502211
 30
0.0
  0
ENDBLK
  5
A8F
330
A84
100
AcDbEntity
  8
0
100
AcDbBlockEnd
  0
BLOCK
  5
A9A
330
A90
100
AcDbEntity
  8
0
100
AcDbBlockBegin
  2
*D90
 70
     1
 10
0.0
 20
0.0
 30
0.0
  3
*D90
  1

  0
LINE
  5
1013
330
A90
100
AcDbEntity
  8
SUNPOU
 62
     0
370
    -2
100
AcDbLine
 10
4205.59029720953
 20
3781.290585502209
 30
0.0
 11
3905.411615322479
 21
3781.290585502209
 31
0.0
  0
LINE
  5
1014
330
A90
100
AcDbEntity
  8
SUNPOU
 62
     0
370
    -2
100
AcDbLine
 10
4205.59029720953
 20
3981.290585502209
 30
0.0
 11
3905.411615322479
 21
3981.290585502209
 31
0.0
  0
LINE
  5
1015
330
A90
100
AcDbEntity
  8
SUNPOU
 62
     0
370
    -2
100
AcDbLine
 10
3915.411615322479
 20
3821.290585502209
 30
0.0
 11
3915.411615322479
 21
3941.290585502209
 31
0.0
  0
SOLID
  5
1016
330
A90
100
AcDbEntity
  8
SUNPOU
 62
     0
100
AcDbTrace
 10
3908.744948655812
 20
3821.290585502209
 30
0.0
 11
3922.078281989145
 21
3821.290585502209
 31
0.0
 12
3915.411615322479
 22
3781.290585502209
 32
0.0
 13
3915.411615322479
 23
3781.290585502209
 33
0.0
  0
SOLID
  5
1017
330
A90
100
AcDbEntity
  8
SUNPOU
 62
     0
100
AcDbTrace
 10
3908.744948655812
 20
3941.290585502209
 30
0.0
 11
3922.078281989145
 21
3941.290585502209
 31
0.0
 12
3915.411615322479
 22
3981.290585502209
 32
0.0
 13
3915.411615322479
 23
3981.290585502209
 33
0.0
  0
MTEXT
  5
1018
330
A90
100
AcDbEntity
  8
SUNPOU
 62
     0
100
AcDbMText
 10
3869.411615322478
 20
3881.29058550221
 30
0.0
 40
60.0
 41
0.0
 71
     5
 72
     1
  1
\A1;200
 11
6.123031769111886E-17
 21
1.0
 31
0.0
 73
     1
 44
1.0
  0
POINT
  5
1019
330
A90
100
AcDbEntity
  8
DEFPOINTS
 62
     0
100
AcDbPoint
 10
4245.59029720953
 20
3781.290585502209
 30
0.0
  0
POINT
  5
101A
330
A90
100
AcDbEntity
  8
DEFPOINTS
 62
     0
100
AcDbPoint
 10
4245.59029720953
 20
3981.290585502209
 30
0.0
  0
POINT
  5
101B
330
A90
100
AcDbEntity
  8
DEFPOINTS
 62
     0
100
AcDbPoint
 10
3915.411615322479
 20
3981.290585502209
 30
0.0
  0
ENDBLK
  5
A9B
330
A90
100
AcDbEntity
  8
0
100
AcDbBlockEnd
  0
BLOCK
  5
AA6
330
A9C
100
AcDbEntity
  8
0
100
AcDbBlockBegin
  2
*D91
 70
     1
 10
0.0
 20
0.0
 30
0.0
  3
*D91
  1

  0
LINE
  5
100A
330
A9C
100
AcDbEntity
  8
SUNPOU
 62
     0
370
    -2
100
AcDbLine
 10
4205.59029720953
 20
3981.290585502209
 30
0.0
 11
3905.411615322479
 21
3981.290585502209
 31
0.0
  0
LINE
  5
100B
330
A9C
100
AcDbEntity
  8
SUNPOU
 62
     0
370
    -2
100
AcDbLine
 10
4205.590297209528
 20
4281.290585502211
 30
0.0
 11
3905.411615322479
 21
4281.290585502211
 31
0.0
  0
LINE
  5
100C
330
A9C
100
AcDbEntity
  8
SUNPOU
 62
     0
370
    -2
100
AcDbLine
 10
3915.411615322479
 20
4021.290585502209
 30
0.0
 11
3915.411615322479
 21
4241.290585502211
 31
0.0
  0
SOLID
  5
100D
330
A9C
100
AcDbEntity
  8
SUNPOU
 62
     0
100
AcDbTrace
 10
3908.744948655812
 20
4021.290585502209
 30
0.0
 11
3922.078281989145
 21
4021.290585502209
 31
0.0
 12
3915.411615322479
 22
3981.290585502209
 32
0.0
 13
3915.411615322479
 23
3981.290585502209
 33
0.0
  0
SOLID
  5
100E
330
A9C
100
AcDbEntity
  8
SUNPOU
 62
     0
100
AcDbTrace
 10
3908.744948655812
 20
4241.290585502211
 30
0.0
 11
3922.078281989145
 21
4241.290585502211
 31
0.0
 12
3915.411615322479
 22
4281.290585502211
 32
0.0
 13
3915.411615322479
 23
4281.290585502211
 33
0.0
  0
MTEXT
  5
100F
330
A9C
100
AcDbEntity
  8
SUNPOU
 62
     0
100
AcDbMText
 10
3869.411615322478
 20
4131.290585502211
 30
0.0
 40
60.0
 41
0.0
 71
     5
 72
     1
  1
\A1;300
 11
6.123031769111886E-17
 21
1.0
 31
0.0
 73
     1
 44
1.0
  0
POINT
  5
1010
330
A9C
100
AcDbEntity
  8
DEFPOINTS
 62
     0
100
AcDbPoint
 10
4245.59029720953
 20
3981.290585502209
 30
0.0
  0
POINT
  5
1011
330
A9C
100
AcDbEntity
  8
DEFPOINTS
 62
     0
100
AcDbPoint
 10
4245.590297209528
 20
4281.290585502211
 30
0.0
  0
POINT
  5
1012
330
A9C
100
AcDbEntity
  8
DEFPOINTS
 62
     0
100
AcDbPoint
 10
3915.411615322479
 20
4281.290585502211
 30
0.0
  0
ENDBLK
  5
AA7
330
A9C
100
AcDbEntity
  8
0
100
AcDbBlockEnd
  0
BLOCK
  5
AB2
330
AA8
100
AcDbEntity
  8
0
100
AcDbBlockBegin
  2
*D92
 70
     1
 10
0.0
 20
0.0
 30
0.0
  3
*D92
  1

  0
LINE
  5
1128
330
AA8
100
AcDbEntity
  8
SUNPOU
 62
     0
370
    -2
100
AcDbLine
 10
4205.590297209528
 20
2326.831382031651
 30
0.0
 11
3763.670965487901
 21
2326.831382031651
 31
0.0
  0
LINE
  5
1129
330
AA8
100
AcDbEntity
  8
SUNPOU
 62
     0
370
    -2
100
AcDbLine
 10
4255.590297209528
 20
1676.831382031651
 30
0.0
 11
3763.670965487901
 21
1676.831382031651
 31
0.0
  0
LINE
  5
112A
330
AA8
100
AcDbEntity
  8
SUNPOU
 62
     0
370
    -2
100
AcDbLine
 10
3773.670965487901
 20
2286.831382031651
 30
0.0
 11
3773.670965487901
 21
1716.831382031651
 31
0.0
  0
SOLID
  5
112B
330
AA8
100
AcDbEntity
  8
SUNPOU
 62
     0
100
AcDbTrace
 10
3767.004298821235
 20
2286.831382031651
 30
0.0
 11
3780.337632154568
 21
2286.831382031651
 31
0.0
 12
3773.670965487901
 22
2326.831382031651
 32
0.0
 13
3773.670965487901
 23
2326.831382031651
 33
0.0
  0
SOLID
  5
112C
330
AA8
100
AcDbEntity
  8
SUNPOU
 62
     0
100
AcDbTrace
 10
3767.004298821235
 20
1716.831382031651
 30
0.0
 11
3780.337632154568
 21
1716.831382031651
 31
0.0
 12
3773.670965487901
 22
1676.831382031651
 32
0.0
 13
3773.670965487901
 23
1676.831382031651
 33
0.0
  0
MTEXT
  5
112D
330
AA8
100
AcDbEntity
  8
SUNPOU
 62
     0
100
AcDbMText
 10
3727.670965487901
 20
2001.831382031651
 30
0.0
 40
60.0
 41
0.0
 71
     5
 72
     1
  1
\A1;650
 11
6.123031769111886E-17
 21
1.0
 31
0.0
 73
     1
 44
1.0
  0
POINT
  5
112E
330
AA8
100
AcDbEntity
  8
DEFPOINTS
 62
     0
100
AcDbPoint
 10
4245.590297209528
 20
2326.831382031651
 30
0.0
  0
POINT
  5
112F
330
AA8
100
AcDbEntity
  8
DEFPOINTS
 62
     0
100
AcDbPoint
 10
4295.590297209528
 20
1676.831382031651
 30
0.0
  0
POINT
  5
1130
330
AA8
100
AcDbEntity
  8
DEFPOINTS
 62
     0
100
AcDbPoint
 10
3773.670965487901
 20
1676.831382031651
 30
0.0
  0
ENDBLK
  5
AB3
330
AA8
100
AcDbEntity
  8
0
100
AcDbBlockEnd
  0
BLOCK
  5
AD9
330
ACE
100
AcDbEntity
  8
0
100
AcDbBlockBegin
  2
*D95
 70
     1
 10
0.0
 20
0.0
 30
0.0
  3
*D95
  1

  0
LINE
  5
1131
330
ACE
100
AcDbEntity
  8
SUNPOU
 62
     0
370
    -2
100
AcDbLine
 10
4205.590297209528
 20
2326.831382031651
 30
0.0
 11
3886.036942312589
 21
2326.831382031651
 31
0.0
  0
LINE
  5
1132
330
ACE
100
AcDbEntity
  8
SUNPOU
 62
     0
370
    -2
100
AcDbLine
 10
4205.590297209528
 20
2216.831382031651
 30
0.0
 11
3886.036942312589
 21
2216.831382031651
 31
0.0
  0
LINE
  5
1133
330
ACE
100
AcDbEntity
  8
SUNPOU
 62
     0
370
    -2
100
AcDbLine
 10
3896.036942312589
 20
2366.831382031651
 30
0.0
 11
3896.036942312589
 21
2406.831382031651
 31
0.0
  0
LINE
  5
1134
330
ACE
100
AcDbEntity
  8
SUNPOU
 62
     0
370
    -2
100
AcDbLine
 10
3896.036942312589
 20
2176.831382031651
 30
0.0
 11
3896.036942312589
 21
2136.831382031651
 31
0.0
  0
MTEXT
  5
1135
330
ACE
100
AcDbEntity
  8
SUNPOU
 62
     0
100
AcDbMText
 10
3850.036942312588
 20
2282.515406318011
 30
0.0
 40
60.0
 41
0.0
 71
     5
 72
     1
  1
\A1;110
 11
6.123031769111886E-17
 21
1.0
 31
0.0
 73
     1
 44
1.0
  0
SOLID
  5
1136
330
ACE
100
AcDbEntity
  8
SUNPOU
 62
     0
100
AcDbTrace
 10
3889.370275645922
 20
2366.831382031651
 30
0.0
 11
3902.703608979255
 21
2366.831382031651
 31
0.0
 12
3896.036942312589
 22
2326.831382031651
 32
0.0
 13
3896.036942312589
 23
2326.831382031651
 33
0.0
  0
SOLID
  5
1137
330
ACE
100
AcDbEntity
  8
SUNPOU
 62
     0
100
AcDbTrace
 10
3889.370275645922
 20
2176.831382031651
 30
0.0
 11
3902.703608979255
 21
2176.831382031651
 31
0.0
 12
3896.036942312589
 22
2216.831382031651
 32
0.0
 13
3896.036942312589
 23
2216.831382031651
 33
0.0
  0
POINT
  5
1138
330
ACE
100
AcDbEntity
  8
DEFPOINTS
 62
     0
100
AcDbPoint
 10
4245.590297209528
 20
2326.831382031651
 30
0.0
  0
POINT
  5
1139
330
ACE
100
AcDbEntity
  8
DEFPOINTS
 62
     0
100
AcDbPoint
 10
4245.590297209528
 20
2216.831382031651
 30
0.0
  0
POINT
  5
113A
330
ACE
100
AcDbEntity
  8
DEFPOINTS
 62
     0
100
AcDbPoint
 10
3896.036942312589
 20
2216.831382031651
 30
0.0
  0
ENDBLK
  5
ADA
330
ACE
100
AcDbEntity
  8
0
100
AcDbBlockEnd
  0
BLOCK
  5
AE6
330
ADB
100
AcDbEntity
  8
0
100
AcDbBlockBegin
  2
*D96
 70
     1
 10
0.0
 20
0.0
 30
0.0
  3
*D96
  1

  0
LINE
  5
1115
330
ADB
100
AcDbEntity
  8
SUNPOU
 62
     0
370
    -2
100
AcDbLine
 10
4205.590297209528
 20
2216.831382031651
 30
0.0
 11
3886.036942312589
 21
2216.831382031651
 31
0.0
  0
LINE
  5
1116
330
ADB
100
AcDbEntity
  8
SUNPOU
 62
     0
370
    -2
100
AcDbLine
 10
4255.590297209528
 20
2130.228841653211
 30
0.0
 11
3886.036942312589
 21
2130.228841653211
 31
0.0
  0
LINE
  5
1117
330
ADB
100
AcDbEntity
  8
SUNPOU
 62
     0
370
    -2
100
AcDbLine
 10
3896.036942312589
 20
2256.831382031651
 30
0.0
 11
3896.036942312589
 21
2296.831382031651
 31
0.0
  0
LINE
  5
1118
330
ADB
100
AcDbEntity
  8
SUNPOU
 62
     0
370
    -2
100
AcDbLine
 10
3896.036942312589
 20
2090.228841653211
 30
0.0
 11
3896.036942312589
 21
2050.228841653211
 31
0.0
  0
SOLID
  5
1119
330
ADB
100
AcDbEntity
  8
SUNPOU
 62
     0
100
AcDbTrace
 10
3889.370275645922
 20
2256.831382031651
 30
0.0
 11
3902.703608979255
 21
2256.831382031651
 31
0.0
 12
3896.036942312589
 22
2216.831382031651
 32
0.0
 13
3896.036942312589
 23
2216.831382031651
 33
0.0
  0
SOLID
  5
111A
330
ADB
100
AcDbEntity
  8
SUNPOU
 62
     0
100
AcDbTrace
 10
3889.370275645922
 20
2090.228841653211
 30
0.0
 11
3902.703608979255
 21
2090.228841653211
 31
0.0
 12
3896.036942312589
 22
2130.228841653211
 32
0.0
 13
3896.036942312589
 23
2130.228841653211
 33
0.0
  0
MTEXT
  5
111B
330
ADB
100
AcDbEntity
  8
SUNPOU
 62
     0
100
AcDbMText
 10
3850.036942312588
 20
2173.530111842431
 30
0.0
 40
60.0
 41
0.0
 71
     5
 72
     1
  1
\A1;87
 11
6.123031769111886E-17
 21
1.0
 31
0.0
 73
     1
 44
1.0
  0
POINT
  5
111C
330
ADB
100
AcDbEntity
  8
DEFPOINTS
 62
     0
100
AcDbPoint
 10
4245.590297209528
 20
2216.831382031651
 30
0.0
  0
POINT
  5
111D
330
ADB
100
AcDbEntity
  8
DEFPOINTS
 62
     0
100
AcDbPoint
 10
4295.590297209528
 20
2130.228841653211
 30
0.0
  0
POINT
  5
111E
330
ADB
100
AcDbEntity
  8
DEFPOINTS
 62
     0
100
AcDbPoint
 10
3896.036942312589
 20
2130.228841653211
 30
0.0
  0
ENDBLK
  5
AE7
330
ADB
100
AcDbEntity
  8
0
100
AcDbBlockEnd
  0
BLOCK
  5
AF2
330
AE8
100
AcDbEntity
  8
0
100
AcDbBlockBegin
  2
*D97
 70
     1
 10
0.0
 20
0.0
 30
0.0
  3
*D97
  1

  0
LINE
  5
111F
330
AE8
100
AcDbEntity
  8
SUNPOU
 62
     0
370
    -2
100
AcDbLine
 10
4255.590297209527
 20
2130.228841653215
 30
0.0
 11
3886.036942312589
 21
2130.228841653215
 31
0.0
  0
LINE
  5
1120
330
AE8
100
AcDbEntity
  8
SUNPOU
 62
     0
370
    -2
100
AcDbLine
 10
4255.590297209528
 20
1676.831382031651
 30
0.0
 11
3886.036942312589
 21
1676.831382031651
 31
0.0
  0
LINE
  5
1121
330
AE8
100
AcDbEntity
  8
SUNPOU
 62
     0
370
    -2
100
AcDbLine
 10
3896.036942312589
 20
2090.228841653215
 30
0.0
 11
3896.036942312589
 21
1716.831382031651
 31
0.0
  0
SOLID
  5
1122
330
AE8
100
AcDbEntity
  8
SUNPOU
 62
     0
100
AcDbTrace
 10
3889.370275645922
 20
2090.228841653215
 30
0.0
 11
3902.703608979255
 21
2090.228841653215
 31
0.0
 12
3896.036942312589
 22
2130.228841653215
 32
0.0
 13
3896.036942312589
 23
2130.228841653215
 33
0.0
  0
SOLID
  5
1123
330
AE8
100
AcDbEntity
  8
SUNPOU
 62
     0
100
AcDbTrace
 10
3889.370275645922
 20
1716.831382031651
 30
0.0
 11
3902.703608979255
 21
1716.831382031651
 31
0.0
 12
3896.036942312589
 22
1676.831382031651
 32
0.0
 13
3896.036942312589
 23
1676.831382031651
 33
0.0
  0
MTEXT
  5
1124
330
AE8
100
AcDbEntity
  8
SUNPOU
 62
     0
100
AcDbMText
 10
3850.036942312588
 20
1903.530111842433
 30
0.0
 40
60.0
 41
0.0
 71
     5
 72
     1
  1
\A1;453
 11
6.123031769111886E-17
 21
1.0
 31
0.0
 73
     1
 44
1.0
  0
POINT
  5
1125
330
AE8
100
AcDbEntity
  8
DEFPOINTS
 62
     0
100
AcDbPoint
 10
4295.590297209527
 20
2130.228841653215
 30
0.0
  0
POINT
  5
1126
330
AE8
100
AcDbEntity
  8
DEFPOINTS
 62
     0
100
AcDbPoint
 10
4295.590297209528
 20
1676.831382031651
 30
0.0
  0
POINT
  5
1127
330
AE8
100
AcDbEntity
  8
DEFPOINTS
 62
     0
100
AcDbPoint
 10
3896.036942312589
 20
1676.831382031651
 30
0.0
  0
ENDBLK
  5
AF3
330
AE8
100
AcDbEntity
  8
0
100
AcDbBlockEnd
  0
BLOCK
  5
1150
330
1145
100
AcDbEntity
  8
0
100
AcDbBlockBegin
  2
*D106
 70
     1
 10
0.0
 20
0.0
 30
0.0
  3
*D106
  1

  0
LINE
  5
1146
330
1145
100
AcDbEntity
  8
SUNPOU
 62
     0
370
    -2
100
AcDbLine
 10
4295.590297209528
 20
1636.831382031651
 30
0.0
 11
4295.590297209528
 21
1238.356635072263
 31
0.0
  0
LINE
  5
1147
330
1145
100
AcDbEntity
  8
SUNPOU
 62
     0
370
    -2
100
AcDbLine
 10
4245.590297209528
 20
1636.831382031651
 30
0.0
 11
4245.590297209528
 21
1238.356635072263
 31
0.0
  0
LINE
  5
1148
330
1145
100
AcDbEntity
  8
SUNPOU
 62
     0
370
    -2
100
AcDbLine
 10
4335.590297209528
 20
1248.356635072263
 30
0.0
 11
4375.590297209528
 21
1248.356635072263
 31
0.0
  0
LINE
  5
1149
330
1145
100
AcDbEntity
  8
SUNPOU
 62
     0
370
    -2
100
AcDbLine
 10
4205.590297209528
 20
1248.356635072263
 30
0.0
 11
4165.590297209528
 21
1248.356635072263
 31
0.0
  0
SOLID
  5
114A
330
1145
100
AcDbEntity
  8
SUNPOU
 62
     0
100
AcDbTrace
 10
4335.590297209528
 20
1255.02330173893
 30
0.0
 11
4335.590297209528
 21
1241.689968405596
 31
0.0
 12
4295.590297209528
 22
1248.356635072263
 32
0.0
 13
4295.590297209528
 23
1248.356635072263
 33
0.0
  0
SOLID
  5
114B
330
1145
100
AcDbEntity
  8
SUNPOU
 62
     0
100
AcDbTrace
 10
4205.590297209528
 20
1255.02330173893
 30
0.0
 11
4205.590297209528
 21
1241.689968405596
 31
0.0
 12
4245.590297209528
 22
1248.356635072263
 32
0.0
 13
4245.590297209528
 23
1248.356635072263
 33
0.0
  0
MTEXT
  5
114C
330
1145
100
AcDbEntity
  8
SUNPOU
 62
     0
100
AcDbMText
 10
4270.590297209528
 20
1294.356635072263
 30
0.0
 40
60.0
 41
0.0
 71
     5
 72
     1
  1
\A1;50
 73
     1
 44
1.0
  0
POINT
  5
114D
330
1145
100
AcDbEntity
  8
DEFPOINTS
 62
     0
100
AcDbPoint
 10
4295.590297209528
 20
1676.831382031651
 30
0.0
  0
POINT
  5
114E
330
1145
100
AcDbEntity
  8
DEFPOINTS
 62
     0
100
AcDbPoint
 10
4245.590297209528
 20
1676.831382031651
 30
0.0
  0
POINT
  5
114F
330
1145
100
AcDbEntity
  8
DEFPOINTS
 62
     0
100
AcDbPoint
 10
4245.590297209528
 20
1248.356635072263
 30
0.0
  0
ENDBLK
  5
1151
330
1145
100
AcDbEntity
  8
0
100
AcDbBlockEnd
  0
BLOCK
  5
115E
330
1153
100
AcDbEntity
  8
0
100
AcDbBlockBegin
  2
*D107
 70
     1
 10
0.0
 20
0.0
 30
0.0
  3
*D107
  1

  0
LINE
  5
1160
330
1153
100
AcDbEntity
  8
SUNPOU
 62
     0
370
    -2
100
AcDbLine
 10
6195.590297209526
 20
1636.831382031651
 30
0.0
 11
6195.590297209526
 21
1238.356635072263
 31
0.0
  0
LINE
  5
1161
330
1153
100
AcDbEntity
  8
SUNPOU
 62
     0
370
    -2
100
AcDbLine
 10
6245.590297209526
 20
1636.831382031651
 30
0.0
 11
6245.590297209526
 21
1238.356635072263
 31
0.0
  0
LINE
  5
1162
330
1153
100
AcDbEntity
  8
SUNPOU
 62
     0
370
    -2
100
AcDbLine
 10
6155.590297209526
 20
1248.356635072263
 30
0.0
 11
6115.590297209526
 21
1248.356635072263
 31
0.0
  0
LINE
  5
1163
330
1153
100
AcDbEntity
  8
SUNPOU
 62
     0
370
    -2
100
AcDbLine
 10
6285.590297209526
 20
1248.356635072263
 30
0.0
 11
6325.590297209526
 21
1248.356635072263
 31
0.0
  0
SOLID
  5
1164
330
1153
100
AcDbEntity
  8
SUNPOU
 62
     0
100
AcDbTrace
 10
6155.590297209526
 20
1255.02330173893
 30
0.0
 11
6155.590297209526
 21
1241.689968405596
 31
0.0
 12
6195.590297209526
 22
1248.356635072263
 32
0.0
 13
6195.590297209526
 23
1248.356635072263
 33
0.0
  0
SOLID
  5
1165
330
1153
100
AcDbEntity
  8
SUNPOU
 62
     0
100
AcDbTrace
 10
6285.590297209526
 20
1255.02330173893
 30
0.0
 11
6285.590297209526
 21
1241.689968405596
 31
0.0
 12
6245.590297209526
 22
1248.356635072263
 32
0.0
 13
6245.590297209526
 23
1248.356635072263
 33
0.0
  0
MTEXT
  5
1166
330
1153
100
AcDbEntity
  8
SUNPOU
 62
     0
100
AcDbMText
 10
6220.590297209526
 20
1294.356635072263
 30
0.0
 40
60.0
 41
0.0
 71
     5
 72
     1
  1
\A1;50
 73
     1
 44
1.0
  0
POINT
  5
1167
330
1153
100
AcDbEntity
  8
DEFPOINTS
 62
     0
100
AcDbPoint
 10
6195.590297209526
 20
1676.831382031651
 30
0.0
  0
POINT
  5
1168
330
1153
100
AcDbEntity
  8
DEFPOINTS
 62
     0
100
AcDbPoint
 10
6245.590297209526
 20
1676.831382031651
 30
0.0
  0
POINT
  5
1169
330
1153
100
AcDbEntity
  8
DEFPOINTS
 62
     0
100
AcDbPoint
 10
6245.590297209526
 20
1248.356635072263
 30
0.0
  0
ENDBLK
  5
115F
330
1153
100
AcDbEntity
  8
0
100
AcDbBlockEnd
  0
BLOCK
  5
1177
330
116B
100
AcDbEntity
  8
0
100
AcDbBlockBegin
  2
*D108
 70
     1
 10
0.0
 20
0.0
 30
0.0
  3
*D108
  1

  0
LINE
  5
118F
330
116B
100
AcDbEntity
  8
SUNPOU
 62
     0
370
    -2
100
AcDbLine
 10
6175.590297209529
 20
2095.587825501835
 30
0.0
 11
6107.997365405205
 21
1978.513433384209
 31
0.0
  0
LINE
  5
1190
330
116B
100
AcDbEntity
  8
SUNPOU
 62
     0
370
    -2
100
AcDbLine
 10
6245.590297209529
 20
2176.831382031651
 30
0.0
 11
6245.590297209527
 21
1941.64551842301
 31
0.0
  0
ARC
  5
1191
330
116B
100
AcDbEntity
  8
SUNPOU
 62
     0
370
    -2
100
AcDbCircle
 10
6245.590297209528
 20
2216.831382031653
 30
0.0
 40
265.1858636086431
100
AcDbArc
 50
248.6505720313056
 51
261.3494279686937
  0
SOLID
  5
1192
330
116B
100
AcDbEntity
  8
SUNPOU
 62
     0
100
AcDbTrace
 10
6146.159688949941
 20
1963.834776959936
 30
0.0
 11
6151.936507286588
 21
1975.851687864289
 31
0.0
 12
6112.997365405206
 22
1987.173687422054
 32
0.0
 13
6112.997365405206
 23
1987.173687422054
 33
0.0
  0
SOLID
  5
1193
330
116B
100
AcDbEntity
  8
SUNPOU
 62
     0
100
AcDbTrace
 10
6206.207011359801
 20
1961.309950125041
 30
0.0
 11
6205.201427340209
 21
1948.014590838534
 31
0.0
 12
6245.590297209527
 22
1951.64551842301
 32
0.0
 13
6245.590297209527
 23
1951.64551842301
 33
0.0
  0
MTEXT
  5
1194
330
116B
100
AcDbEntity
  8
SUNPOU
 62
     0
100
AcDbMText
 10
6225.583858078804
 20
2015.397927225833
 30
0.0
 40
60.0
 41
0.0
 71
     5
 72
     1
  1
\A1;30°
 11
0.9951039285259166
 21
-0.0988340600819759
 31
0.0
 73
     1
 44
1.0
  0
POINT
  5
1195
330
116B
100
AcDbEntity
  8
DEFPOINTS
 62
     0
100
AcDbPoint
 10
6154.891390130158
 20
1967.638182861873
 30
0.0
  0
POINT
  5
1196
330
116B
100
AcDbEntity
  8
DEFPOINTS
 62
     0
100
AcDbPoint
 10
6245.590297209527
 20
2216.831382031652
 30
0.0
  0
POINT
  5
1197
330
116B
100
AcDbEntity
  8
DEFPOINTS
 62
     0
100
AcDbPoint
 10
6245.590297209529
 20
2326.831382031649
 30
0.0
  0
POINT
  5
1198
330
116B
100
AcDbEntity
  8
DEFPOINTS
 62
     0
100
AcDbPoint
 10
6245.590297209528
 20
2216.831382031652
 30
0.0
  0
POINT
  5
1199
330
116B
100
AcDbEntity
  8
DEFPOINTS
 62
     0
100
AcDbPoint
 10
6195.59029720953
 20
2130.228841653212
 30
0.0
  0
ENDBLK
  5
1178
330
116B
100
AcDbEntity
  8
0
100
AcDbBlockEnd
  0
ENDSEC
  0
SECTION
  2
ENTITIES
  0
TEXT
  5
5F
330
17
100
AcDbEntity
  8
SUNPOU
100
AcDbText
 10
7679.999999999996
 20
320.0
 30
0.0
 40
60.0
  1
20
100
AcDbText
  0
INSERT
  5
60
330
17
100
AcDbEntity
  8
HAIKIN
100
AcDbBlockReference
  2
SA3
 10
320.0
 20
0.0
 30
0.0
 41
20.0
 42
20.0
 43
20.0
  0
LINE
  5
7E1
330
17
100
AcDbEntity
  8
SEIHIN
100
AcDbLine
 10
2183.046419946731
 20
3781.290585502211
 30
0.0
 11
2183.046419946731
 21
4281.290585502211
 31
0.0
  0
LINE
  5
7E3
330
17
100
AcDbEntity
  8
1HASEN
100
AcDbLine
 10
2243.046419946731
 20
3811.290585502211
 30
0.0
 11
2243.046419946731
 21
3871.290585502211
 31
0.0
  0
LINE
  5
7E4
330
17
100
AcDbEntity
  8
1HASEN
100
AcDbLine
 10
2213.046419946731
 20
3841.290585502211
 30
0.0
 11
2273.046419946731
 21
3841.290585502211
 31
0.0
  0
LINE
  5
7E8
330
17
100
AcDbEntity
  8
1HASEN
 48
0.4
100
AcDbLine
 10
2135.039170125187
 20
3981.290585502211
 30
0.0
 11
2310.153184539606
 21
3981.290585502211
 31
0.0
  0
LINE
  5
7E9
330
17
100
AcDbEntity
  8
HASEN
 48
0.2
100
AcDbLine
 10
2229.955510855822
 20
4006.290585502211
 30
0.0
 11
2229.955510855822
 21
3956.290585502211
 31
0.0
  0
LINE
  5
7EA
330
17
100
AcDbEntity
  8
HASEN
 48
0.2
100
AcDbLine
 10
2218.046419946731
 20
4006.290585502211
 30
0.0
 11
2218.046419946731
 21
3956.290585502211
 31
0.0
  0
LINE
  5
7EB
330
17
100
AcDbEntity
  8
HASEN
 48
0.2
100
AcDbLine
 10
2218.046419946731
 20
3999.790585502211
 30
0.0
 11
2229.955510855822
 21
4000.36501385452
 31
0.0
  0
LINE
  5
7EC
330
17
100
AcDbEntity
  8
HASEN
 48
0.2
100
AcDbLine
 10
2218.046419946731
 20
3962.790585502211
 30
0.0
 11
2229.955510855822
 21
3962.216157149901
 31
0.0
  0
LINE
  5
7ED
330
17
100
AcDbEntity
  8
HASEN
 48
0.2
100
AcDbLine
 10
2218.046419946731
 20
3956.290585502211
 30
0.0
 11
2183.046419946731
 21
3941.290585502211
 31
0.0
  0
LINE
  5
7EE
330
17
100
AcDbEntity
  8
HASEN
 48
0.2
100
AcDbLine
 10
2229.955510855822
 20
3956.290585502211
 30
0.0
 11
2240.697993081508
 21
3944.621367572057
 31
0.0
  0
LINE
  5
7EF
330
17
100
AcDbEntity
  8
HASEN
 48
0.2
100
AcDbLine
 10
2183.046419946731
 20
4021.290585502211
 30
0.0
 11
2218.046419946731
 21
4006.290585502211
 31
0.0
  0
LINE
  5
7F0
330
17
100
AcDbEntity
  8
HASEN
 48
0.2
100
AcDbLine
 10
2238.955510855822
 20
4021.290585502211
 30
0.0
 11
2229.955510855822
 21
4006.290585502211
 31
0.0
  0
LINE
  5
7F7
330
17
100
AcDbEntity
  8
SEIHIN
100
AcDbLine
 10
4245.590297209528
 20
3781.290585502211
 30
0.0
 11
4245.590297209528
 21
4281.290585502211
 31
0.0
  0
LINE
  5
7F8
330
17
100
AcDbEntity
  8
SEIHIN
100
AcDbLine
 10
6245.590297209528
 20
3781.290585502211
 30
0.0
 11
6245.590297209528
 21
4281.290585502211
 31
0.0
  0
LINE
  5
7F9
330
17
100
AcDbEntity
  8
SEIHIN
100
AcDbLine
 10
4245.590297209528
 20
4281.290585502211
 30
0.0
 11
6245.590297209528
 21
4281.290585502211
 31
0.0
  0
LINE
  5
7FA
330
17
100
AcDbEntity
  8
SEIHIN
100
AcDbLine
 10
4245.590297209528
 20
3781.290585502211
 30
0.0
 11
6245.590297209528
 21
3781.290585502211
 31
0.0
  0
DIMENSION
  5
7FB
330
17
100
AcDbEntity
  8
SUNPOU
100
AcDbDimension
  2
*D53
 10
6245.590297209528
 20
4710.725181012933
 30
0.0
 11
5245.590297209528
 21
4756.725181012933
 31
0.0
 70
    32
 71
     5
 42
2000.0
  3
A3-20
100
AcDbAlignedDimension
 13
4245.590297209528
 23
4281.290585502211
 33
0.0
 14
6245.590297209528
 24
4281.290585502211
 34
0.0
100
AcDbRotatedDimension
  0
LINE
  5
7FE
330
17
100
AcDbEntity
  8
1HASEN
100
AcDbLine
 10
5245.590297209529
 20
4381.29058550221
 30
0.0
 11
5245.590297209529
 21
3681.290585502211
 31
0.0
  0
LINE
  5
807
330
17
100
AcDbEntity
  8
1HASEN
100
AcDbLine
 10
4745.590297209528
 20
3931.290585502211
 30
0.0
 11
4745.590297209528
 21
4031.290585502212
 31
0.0
  0
LINE
  5
808
330
17
100
AcDbEntity
  8
1HASEN
100
AcDbLine
 10
4695.590297209528
 20
3981.290585502211
 30
0.0
 11
4795.590297209528
 21
3981.290585502211
 31
0.0
  0
CIRCLE
  5
809
330
17
100
AcDbEntity
  8
SUNPOU
100
AcDbCircle
 10
4745.590297209528
 20
3981.290585502211
 30
0.0
 40
40.0
  0
CIRCLE
  5
80A
330
17
100
AcDbEntity
  8
SUNPOU
100
AcDbCircle
 10
4745.590297209528
 20
3981.290585502211
 30
0.0
 40
25.0
  0
LINE
  5
810
330
17
100
AcDbEntity
  8
SEIHIN
100
AcDbLine
 10
4245.590297209528
 20
2326.831382031651
 30
0.0
 11
6245.590297209528
 21
2326.831382031651
 31
0.0
  0
LINE
  5
811
330
17
100
AcDbEntity
  8
SEIHIN
100
AcDbLine
 10
4245.590297209528
 20
2326.831382031651
 30
0.0
 11
4245.590297209528
 21
2216.831382031651
 31
0.0
  0
LINE
  5
812
330
17
100
AcDbEntity
  8
SEIHIN
100
AcDbLine
 10
4295.590297209528
 20
2130.228841653211
 30
0.0
 11
4295.590297209528
 21
1676.831382031651
 31
0.0
  0
LINE
  5
813
330
17
100
AcDbEntity
  8
1HASEN
100
AcDbLine
 10
5245.590297209528
 20
2426.831382031651
 30
0.0
 11
5245.590297209527
 21
1576.831382031651
 31
0.0
  0
LINE
  5
814
330
17
100
AcDbEntity
  8
SEIHIN
100
AcDbLine
 10
4245.590297209528
 20
2216.831382031653
 30
0.0
 11
4295.590297209528
 21
2130.228841653211
 31
0.0
  0
LINE
  5
815
330
17
100
AcDbEntity
  8
SEIHIN
100
AcDbLine
 10
6245.590297209528
 20
2326.831382031648
 30
0.0
 11
6245.590297209528
 21
2216.831382031651
 31
0.0
  0
LINE
  5
816
330
17
100
AcDbEntity
  8
SEIHIN
100
AcDbLine
 10
6245.590297209527
 20
2216.831382031651
 30
0.0
 11
6195.590297209529
 21
2130.228841653212
 31
0.0
  0
LINE
  5
817
330
17
100
AcDbEntity
  8
SEIHIN
100
AcDbLine
 10
6195.590297209529
 20
2130.228841653212
 30
0.0
 11
6195.590297209527
 21
1676.831382031651
 31
0.0
  0
DIMENSION
  5
81E
330
17
100
AcDbEntity
  8
SUNPOU
100
AcDbDimension
  2
*D61
 10
6245.590297209528
 20
3322.926886283733
 30
0.0
 11
5245.590297209528
 21
3368.926886283733
 31
0.0
 70
    32
 71
     5
 42
2000.0
  3
A3-20
100
AcDbAlignedDimension
 13
4245.590297209528
 23
3781.290585502211
 33
0.0
 14
6245.590297209528
 24
3781.290585502211
 34
0.0
100
AcDbRotatedDimension
  0
DIMENSION
  5
81F
330
17
100
AcDbEntity
  8
SUNPOU
100
AcDbDimension
  2
*D62
 10
5745.590297209528
 20
3449.855310386252
 30
0.0
 11
5995.590297209528
 21
3495.855310386252
 31
0.0
 70
    32
 71
     5
 42
500.0
  3
A3-20
100
AcDbAlignedDimension
 13
6245.590297209528
 23
3781.290585502211
 33
0.0
 14
5745.590297209528
 24
3781.290585502211
 34
0.0
100
AcDbRotatedDimension
  0
DIMENSION
  5
820
330
17
100
AcDbEntity
  8
SUNPOU
100
AcDbDimension
  2
*D63
 10
5745.590297209528
 20
3449.855310386252
 30
0.0
 11
5495.590297209528
 21
3495.855310386252
 31
0.0
 70
    32
 71
     5
 42
499.9999999999991
  3
A3-20
100
AcDbAlignedDimension
 13
5245.590297209529
 23
3681.290585502211
 33
0.0
 14
5745.590297209528
 24
3781.290585502211
 34
0.0
100
AcDbRotatedDimension
  0
DIMENSION
  5
821
330
17
100
AcDbEntity
  8
SUNPOU
100
AcDbDimension
  2
*D64
 10
4745.59029720953
 20
3449.855310386252
 30
0.0
 11
4995.59029720953
 21
3495.855310386252
 31
0.0
 70
    32
 71
     5
 42
499.9999999999991
  3
A3-20
100
AcDbAlignedDimension
 13
5245.590297209529
 23
3681.290585502211
 33
0.0
 14
4745.59029720953
 24
3781.29058550221
 34
0.0
100
AcDbRotatedDimension
  0
DIMENSION
  5
822
330
17
100
AcDbEntity
  8
SUNPOU
100
AcDbDimension
  2
*D65
 10
4745.59029720953
 20
3449.855310386252
 30
0.0
 11
4495.59029720953
 21
3495.855310386252
 31
0.0
 70
    32
 71
     5
 42
500.0
  3
A3-20
100
AcDbAlignedDimension
 13
4245.59029720953
 23
3781.290585502209
 33
0.0
 14
4745.59029720953
 24
3781.29058550221
 34
0.0
100
AcDbRotatedDimension
  0
DIMENSION
  5
823
330
17
100
AcDbEntity
  8
SUNPOU
100
AcDbDimension
  2
*D66
 10
6195.590297209526
 20
1248.356635072263
 30
0.0
 11
5245.590297209527
 21
1294.356635072263
 31
0.0
 70
    32
 71
     5
 42
1899.999999999998
  3
A3-20
100
AcDbAlignedDimension
 13
4295.590297209528
 23
1676.831382031651
 33
0.0
 14
6195.590297209526
 24
1676.831382031651
 34
0.0
100
AcDbRotatedDimension
  0
DIMENSION
  5
82C
330
17
100
AcDbEntity
  8
SUNPOU
100
AcDbDimension
  2
*D74
 10
6245.590297209528
 20
2706.743730508531
 30
0.0
 11
5245.590297209528
 21
2752.743730508531
 31
0.0
 70
    32
 71
     5
 42
2000.0
  3
A3-20
100
AcDbAlignedDimension
 13
4245.590297209528
 23
2326.831382031651
 33
0.0
 14
6245.590297209528
 24
2326.831382031651
 34
0.0
100
AcDbRotatedDimension
  0
LINE
  5
857
330
17
100
AcDbEntity
  8
SEIHIN
100
AcDbLine
 10
4295.590297209528
 20
1676.831382031651
 30
0.0
 11
6195.590297209526
 21
1676.831382031651
 31
0.0
  0
DIMENSION
  5
858
330
17
100
AcDbEntity
  8
SUNPOU
100
AcDbDimension
  2
*D76
 10
1664.638297886246
 20
4281.290585502212
 30
0.0
 11
1618.638297886245
 21
4031.290585502212
 31
0.0
 70
    32
 71
     5
 42
500.0000000000005
  3
A3-20
100
AcDbAlignedDimension
 13
2183.046419946731
 23
3781.290585502211
 33
0.0
 14
2183.046419946731
 24
4281.290585502211
 34
0.0
 50
90.0
100
AcDbRotatedDimension
  0
DIMENSION
  5
859
330
17
100
AcDbEntity
  8
SUNPOU
100
AcDbDimension
  2
*D77
 10
1790.526529842686
 20
3841.290585502211
 30
0.0
 11
1744.526529842685
 21
3811.290585502211
 31
0.0
 70
    32
 71
     5
 42
60.0
  3
A3-20
100
AcDbAlignedDimension
 13
2183.046419946731
 23
3781.290585502211
 33
0.0
 14
2183.046419946731
 24
3841.290585502211
 34
0.0
 50
90.0
100
AcDbRotatedDimension
  0
DIMENSION
  5
85A
330
17
100
AcDbEntity
  8
SUNPOU
100
AcDbDimension
  2
*D78
 10
1790.526529842686
 20
3841.290585502211
 30
0.0
 11
1744.526529842685
 21
4061.290585502212
 31
0.0
 70
    32
 71
     5
 42
440.0000000000005
  3
A3-20
100
AcDbAlignedDimension
 13
2183.046419946731
 23
4281.290585502211
 33
0.0
 14
2183.046419946731
 24
3841.290585502211
 34
0.0
 50
90.0
100
AcDbRotatedDimension
  0
LINE
  5
85B
330
17
100
AcDbEntity
  8
SEIHIN
100
AcDbLine
 10
2183.046419946731
 20
4281.290585502211
 30
0.0
 11
2233.046419946731
 21
4281.290585502211
 31
0.0
  0
DIMENSION
  5
85C
330
17
100
AcDbEntity
  8
SUNPOU
100
AcDbDimension
  2
*D79
 10
2833.046419946731
 20
3354.385344534954
 30
0.0
 11
2508.046419946731
 21
3400.385344534954
 31
0.0
 70
    32
 71
     5
 42
650.0
  3
A3-20
100
AcDbAlignedDimension
 13
2183.046419946731
 23
3781.290585502211
 33
0.0
 14
2833.046419946731
 24
3781.290585502211
 34
0.0
100
AcDbRotatedDimension
  0
DIMENSION
  5
85D
330
17
100
AcDbEntity
  8
SUNPOU
100
AcDbDimension
  2
*D80
 10
2243.046419946731
 20
3480.813888809926
 30
0.0
 11
2213.046419946731
 21
3526.813888809926
 31
0.0
 70
    32
 71
     5
 42
60.0
  3
A3-20
100
AcDbAlignedDimension
 13
2183.046419946731
 23
3781.290585502211
 33
0.0
 14
2243.046419946731
 24
3781.290585502211
 34
0.0
100
AcDbRotatedDimension
  0
DIMENSION
  5
85E
330
17
100
AcDbEntity
  8
SUNPOU
100
AcDbDimension
  2
*D81
 10
2833.046419946731
 20
3480.813888809926
 30
0.0
 11
2538.046419946731
 21
3526.813888809926
 31
0.0
 70
    32
 71
     5
 42
590.0
  3
A3-20
100
AcDbAlignedDimension
 13
2243.046419946731
 23
3781.290585502211
 33
0.0
 14
2833.046419946731
 24
3781.290585502211
 34
0.0
100
AcDbRotatedDimension
  0
LINE
  5
85F
330
17
100
AcDbEntity
  8
SEIHIN
100
AcDbLine
 10
2183.046419946731
 20
3781.290585502211
 30
0.0
 11
2833.046419946731
 21
3781.290585502211
 31
0.0
  0
LINE
  5
860
330
17
100
AcDbEntity
  8
SEIHIN
100
AcDbLine
 10
2833.046419946731
 20
3781.290585502211
 30
0.0
 11
2833.046419946731
 21
3831.290585502211
 31
0.0
  0
DIMENSION
  5
861
330
17
100
AcDbEntity
  8
SUNPOU
100
AcDbDimension
  2
*D82
 10
3133.046419946731
 20
3831.29058550221
 30
0.0
 11
3087.046419946731
 21
3806.290585502211
 31
0.0
 70
    32
 71
     5
 42
50.0
  3
A3-20
100
AcDbAlignedDimension
 13
2833.046419946731
 23
3781.290585502211
 33
0.0
 14
2833.046419946731
 24
3831.290585502211
 34
0.0
 50
90.0
100
AcDbRotatedDimension
  0
DIMENSION
  5
862
330
17
100
AcDbEntity
  8
SUNPOU
100
AcDbDimension
  2
*D83
 10
2233.046419946731
 20
4581.290585502211
 30
0.0
 11
2208.046419946731
 21
4621.171126187939
 31
0.0
 70
   160
 71
     5
 42
50.0
  3
A3-20
100
AcDbAlignedDimension
 13
2183.046419946731
 23
4281.290585502211
 33
0.0
 14
2233.046419946731
 24
4281.290585502211
 34
0.0
100
AcDbRotatedDimension
  0
DIMENSION
  5
863
330
17
100
AcDbEntity
  8
SUNPOU
100
AcDbDimension
  2
*D84
 10
2007.940726699868
 20
3981.290585502211
 30
0.0
 11
1961.940726699867
 21
3881.290585502211
 31
0.0
 70
    32
 71
     5
 42
200.0
  3
A3-20
100
AcDbAlignedDimension
 13
2183.046419946731
 23
3781.290585502211
 33
0.0
 14
2135.039170125187
 24
3981.290585502211
 34
0.0
 50
90.0
100
AcDbRotatedDimension
  0
DIMENSION
  5
864
330
17
100
AcDbEntity
  8
SUNPOU
100
AcDbDimension
  2
*D85
 10
3133.046419946731
 20
3831.29058550221
 30
0.0
 11
3087.046419946731
 21
4056.290585502212
 31
0.0
 70
    32
 71
     5
 42
450.0000000000005
  3
A3-20
100
AcDbAlignedDimension
 13
2233.046419946731
 23
4281.290585502211
 33
0.0
 14
2833.046419946731
 24
3831.290585502211
 34
0.0
 50
90.0
100
AcDbRotatedDimension
  0
LINE
  5
865
330
17
100
AcDbEntity
  8
SEIHIN
100
AcDbLine
 10
2233.046419946731
 20
4281.290585502211
 30
0.0
 11
2241.910349679067
 21
3891.277677279458
 31
0.0
  0
LINE
  5
866
330
17
100
AcDbEntity
  8
SEIHIN
100
AcDbLine
 10
2833.046419946731
 20
3831.290585502211
 30
0.0
 11
2603.046419946731
 21
3831.290585502211
 31
0.0
  0
LINE
  5
867
330
17
100
AcDbEntity
  8
SEIHIN
100
AcDbLine
 10
2603.046419946731
 20
3831.290585502211
 30
0.0
 11
2293.027140979368
 21
3839.902232140193
 31
0.0
  0
LINE
  5
868
330
17
100
AcDbEntity
  8
SEIHIN
100
AcDbLine
 10
2241.910349679067
 20
3891.277677279458
 30
0.0
 11
2293.027140979368
 21
3839.902232140193
 31
0.0
  0
POINT
  5
869
330
17
100
AcDbEntity
  8
SUNPOU
100
AcDbPoint
 10
2218.592927339575
 20
3816.960205983842
 30
0.0
  0
DIMENSION
  5
86E
330
17
100
AcDbEntity
  8
SUNPOU
100
AcDbDimension
  2
*D88
 10
2603.046419946731
 20
3952.083630279167
 30
0.0
 11
2718.046419946731
 21
3998.083630279167
 31
0.0
 70
    32
 71
     5
 42
230.0
  3
A3-20
100
AcDbAlignedDimension
 13
2833.046419946731
 23
3831.290585502211
 33
0.0
 14
2603.046419946731
 24
3831.290585502211
 34
0.0
100
AcDbRotatedDimension
  0
DIMENSION
  5
878
330
17
100
AcDbEntity
  8
SUNPOU
100
AcDbDimension
  2
*D89
 10
3786.73984232263
 20
4281.290585502211
 30
0.0
 11
3740.739842322629
 21
4031.290585502211
 31
0.0
 70
    32
 71
     5
 42
500.0
  3
A3-20
100
AcDbAlignedDimension
 13
4245.590297209528
 23
3781.290585502211
 33
0.0
 14
4245.590297209528
 24
4281.290585502211
 34
0.0
 50
90.0
100
AcDbRotatedDimension
  0
DIMENSION
  5
879
330
17
100
AcDbEntity
  8
SUNPOU
100
AcDbDimension
  2
*D90
 10
3915.411615322479
 20
3981.290585502209
 30
0.0
 11
3869.411615322478
 21
3881.29058550221
 31
0.0
 70
    32
 71
     5
 42
200.0
  3
A3-20
100
AcDbAlignedDimension
 13
4245.59029720953
 23
3781.290585502209
 33
0.0
 14
4245.59029720953
 24
3981.290585502209
 34
0.0
 50
90.0
100
AcDbRotatedDimension
  0
DIMENSION
  5
87A
330
17
100
AcDbEntity
  8
SUNPOU
100
AcDbDimension
  2
*D91
 10
3915.411615322479
 20
4281.290585502211
 30
0.0
 11
3869.411615322478
 21
4131.290585502211
 31
0.0
 70
    32
 71
     5
 42
300.0000000000018
  3
A3-20
100
AcDbAlignedDimension
 13
4245.59029720953
 23
3981.290585502209
 33
0.0
 14
4245.590297209528
 24
4281.290585502211
 34
0.0
 50
90.0
100
AcDbRotatedDimension
  0
CIRCLE
  5
882
330
17
100
AcDbEntity
  8
SUNPOU
100
AcDbCircle
 10
5745.59029720953
 20
3981.290585502211
 30
0.0
 40
40.0
  0
LINE
  5
883
330
17
100
AcDbEntity
  8
1HASEN
100
AcDbLine
 10
5745.59029720953
 20
3931.290585502211
 30
0.0
 11
5745.59029720953
 21
4031.290585502212
 31
0.0
  0
LINE
  5
884
330
17
100
AcDbEntity
  8
1HASEN
100
AcDbLine
 10
5795.59029720953
 20
3981.290585502211
 30
0.0
 11
5695.59029720953
 21
3981.290585502211
 31
0.0
  0
CIRCLE
  5
885
330
17
100
AcDbEntity
  8
SUNPOU
100
AcDbCircle
 10
5745.59029720953
 20
3981.290585502211
 30
0.0
 40
25.0
  0
DIMENSION
  5
886
330
17
100
AcDbEntity
  8
SUNPOU
100
AcDbDimension
  2
*D92
 10
3773.670965487901
 20
1676.831382031651
 30
0.0
 11
3727.670965487901
 21
2001.831382031651
 31
0.0
 70
    32
 71
     5
 42
650.0
  3
A3-20
100
AcDbAlignedDimension
 13
4245.590297209528
 23
2326.831382031651
 33
0.0
 14
4295.590297209528
 24
1676.831382031651
 34
0.0
 50
90.0
100
AcDbRotatedDimension
  0
DIMENSION
  5
88D
330
17
100
AcDbEntity
  8
SUNPOU
100
AcDbDimension
  2
*D95
 10
3896.036942312589
 20
2216.831382031651
 30
0.0
 11
3850.036942312588
 21
2282.515406318011
 31
0.0
 70
   160
 71
     5
 42
110.0
  3
A3-20
100
AcDbAlignedDimension
 13
4245.590297209528
 23
2326.831382031651
 33
0.0
 14
4245.590297209528
 24
2216.831382031651
 34
0.0
 50
90.0
100
AcDbRotatedDimension
  0
DIMENSION
  5
88E
330
17
100
AcDbEntity
  8
SUNPOU
100
AcDbDimension
  2
*D96
 10
3896.036942312589
 20
2130.228841653211
 30
0.0
 11
3850.036942312588
 21
2173.530111842431
 31
0.0
 70
    32
  1
87
 71
     5
 42
86.60254037844015
  3
A3-20
100
AcDbAlignedDimension
 13
4245.590297209528
 23
2216.831382031651
 33
0.0
 14
4295.590297209528
 24
2130.228841653211
 34
0.0
 50
90.0
100
AcDbRotatedDimension
  0
DIMENSION
  5
88F
330
17
100
AcDbEntity
  8
SUNPOU
100
AcDbDimension
  2
*D97
 10
3896.036942312589
 20
1676.831382031651
 30
0.0
 11
3850.036942312588
 21
1903.530111842433
 31
0.0
 70
    32
  1
453
 71
     5
 42
453.3974596215639
  3
A3-20
100
AcDbAlignedDimension
 13
4295.590297209527
 23
2130.228841653215
 33
0.0
 14
4295.590297209528
 24
1676.831382031651
 34
0.0
 50
90.0
100
AcDbRotatedDimension
  0
TEXT
  5
D22
330
17
100
AcDbEntity
  8
HAIKIN
100
AcDbText
 10
3197.283252294685
 20
5221.101789426028
 30
0.0
 40
80.0
  1
デザインウォ－ル　H=500 ( L=2000 )
100
AcDbText
  0
TEXT
  5
D23
330
17
100
AcDbEntity
  8
SUNPOU
100
AcDbText
 10
6815.004607628562
 20
647.5882230564421
 30
0.0
 40
50.0
  1
デザインウォ－ル　H=500 (L=2000)
100
AcDbText
  0
TEXT
  5
F96
330
17
100
AcDbEntity
  8
SUNPOU
100
AcDbText
 10
1920.410986119441
 20
4096.344295778259
 30
0.0
 40
60.0
  1
水抜孔
 41
0.8
100
AcDbText
  0
LINE
  5
FAD
330
17
100
AcDbEntity
  8
SUNPOU
100
AcDbLine
 10
1893.364391420931
 20
4086.353165365914
 30
0.0
 11
2104.79265356818
 21
4086.353165365914
 31
0.0
  0
LEADER
  5
FAF
330
17
100
AcDbEntity
  8
SUNPOU
100
AcDbLeader
  3
A3-20
 76
     2
 10
2183.046419946731
 20
3981.290585502211
 30
0.0
 10
2104.79265356818
 20
4086.353165365914
 30
0.0
1001
ACAD
1000
DSTYLE
1002
{
1070
   147
1040
0.8
1070
    77
1070
     0
1002
}
  0
DIMENSION
  5
1144
330
17
100
AcDbEntity
  8
SUNPOU
100
AcDbDimension
  2
*D106
 10
4245.590297209528
 20
1248.356635072263
 30
0.0
 11
4270.590297209528
 21
1294.356635072263
 31
0.0
 70
    32
 71
     5
 42
50.0
  3
A3-20
100
AcDbAlignedDimension
 13
4295.590297209528
 23
1676.831382031651
 33
0.0
 14
4245.590297209528
 24
1676.831382031651
 34
0.0
100
AcDbRotatedDimension
  0
DIMENSION
  5
1152
330
17
100
AcDbEntity
  8
SUNPOU
100
AcDbDimension
  2
*D107
 10
6245.590297209526
 20
1248.356635072263
 30
0.0
 11
6220.590297209526
 21
1294.356635072263
 31
0.0
 70
    32
 71
     5
 42
50.0
  3
A3-20
100
AcDbAlignedDimension
 13
6195.590297209526
 23
1676.831382031651
 33
0.0
 14
6245.590297209526
 24
1676.831382031651
 34
0.0
 50
180.0
100
AcDbRotatedDimension
  0
DIMENSION
  5
116A
330
17
100
AcDbEntity
  8
SUNPOU
100
AcDbDimension
  2
*D108
 10
6195.590297209529
 20
2130.228841653212
 30
0.0
 11
6225.583858078804
 21
2015.397927225833
 31
0.0
 70
   162
 71
     5
 42
0.5235987755983027
  3
A3-20
100
AcDb2LineAngularDimension
 13
6245.590297209528
 23
2326.831382031648
 33
0.0
 14
6245.590297209528
 24
2216.831382031651
 34
0.0
 15
6245.590297209527
 25
2216.831382031651
 35
0.0
 16
6154.891390130158
 26
1967.638182861873
 36
0.0
1001
ACAD
1000
DSTYLE
1002
{
1070
   179
1070
     0
1002
}
  0
LINE
  5
11A5
330
17
100
AcDbEntity
  8
SEIHIN
100
AcDbLine
 10
4295.590297209529
 20
3831.290585502211
 30
0.0
 11
6195.590297209526
 21
3831.29058550221
 31
0.0
  0
LINE
  5
11A6
330
17
100
AcDbEntity
  8
SEIHIN
100
AcDbLine
 10
4245.590297209529
 20
3891.277677279458
 30
0.0
 11
6245.590297209528
 21
3891.277677279458
 31
0.0
  0
LINE
  5
11A7
330
17
100
AcDbEntity
  8
SEIHIN
100
AcDbLine
 10
4245.590297209528
 20
3839.902232140193
 30
0.0
 11
6245.590297209528
 21
3839.902232140193
 31
0.0
  0
LINE
  5
11A8
330
17
100
AcDbEntity
  8
SEIHIN
100
AcDbLine
 10
4295.590297209528
 20
3781.290585502211
 30
0.0
 11
4295.590297209528
 21
3831.290585502211
 31
0.0
  0
LINE
  5
11A9
330
17
100
AcDbEntity
  8
SEIHIN
100
AcDbLine
 10
4295.590297209528
 20
3831.290585502211
 30
0.0
 11
4245.590297209528
 21
3839.902232140193
 31
0.0
  0
LINE
  5
11AA
330
17
100
AcDbEntity
  8
SEIHIN
100
AcDbLine
 10
6195.590297209529
 20
3781.290585502211
 30
0.0
 11
6195.590297209529
 21
3831.290585502211
 31
0.0
  0
LINE
  5
11AB
330
17
100
AcDbEntity
  8
SEIHIN
100
AcDbLine
 10
6195.590297209529
 20
3831.290585502211
 30
0.0
 11
6245.590297209529
 21
3839.902232140193
 31
0.0
  0
LINE
  5
11AC
330
17
100
AcDbEntity
  8
SEIHIN
100
AcDbLine
 10
4245.590297209528
 20
2276.831382031651
 30
0.0
 11
6245.590297209528
 21
2276.831382031651
 31
0.0
  0
LINE
  5
11AD
330
17
100
AcDbEntity
  8
SEIHIN
100
AcDbLine
 10
4245.590297209528
 20
2266.831382031651
 30
0.0
 11
6245.590297209528
 21
2266.831382031651
 31
0.0
  0
LINE
  5
11AE
330
17
100
AcDbEntity
  8
SEIHIN
100
AcDbLine
 10
4245.590297209528
 20
2216.831382031651
 30
0.0
 11
6245.590297209528
 21
2216.831382031651
 31
0.0
  0
ENDSEC
  0
SECTION
  2
OBJECTS
  0
DICTIONARY
  5
C
330
0
100
AcDbDictionary
281
     1
  3
ACAD_COLOR
350
A4
  3
ACAD_GROUP
350
D
  3
ACAD_LAYOUT
350
6F
  3
ACAD_MATERIAL
350
A3
  3
ACAD_MLEADERSTYLE
350
11DC
  3
ACAD_MLINESTYLE
350
1A
  3
ACAD_PLOTSETTINGS
350
70
  3
ACAD_PLOTSTYLENAME
350
6D
  3
ACAD_SCALELIST
350
11B5
  3
ACAD_TABLESTYLE
350
A5
  3
ACDB_RECOMPOSE_DATA
350
11DB
  3
AcDbVariableDictionary
350
A0
  0
DICTIONARY
  5
9C
330
17
100
AcDbDictionary
280
     1
281
     1
  3
ACAD_SORTENTS
360
FAC
  0
DICTIONARY
  5
A4
102
{ACAD_REACTORS
330
C
102
}
330
C
100
AcDbDictionary
281
     1
  0
DICTIONARY
  5
D
102
{ACAD_REACTORS
330
C
102
}
330
C
100
AcDbDictionary
281
     1
  0
DICTIONARY
  5
6F
102
{ACAD_REACTORS
330
C
102
}
330
C
100
AcDbDictionary
281
     1
  3
Model
350
71
  3
ﾚｲｱｳﾄ1
350
72
  0
DICTIONARY
  5
A3
102
{ACAD_REACTORS
330
C
102
}
330
C
100
AcDbDictionary
281
     1
  0
DICTIONARY
  5
11DC
102
{ACAD_REACTORS
330
C
102
}
330
C
100
AcDbDictionary
281
     1
  0
DICTIONARY
  5
1A
102
{ACAD_REACTORS
330
C
102
}
330
C
100
AcDbDictionary
281
     1
  3
STANDARD
350
1B
  0
DICTIONARY
  5
70
102
{ACAD_REACTORS
330
C
102
}
330
C
100
AcDbDictionary
281
     1
  0
ACDBDICTIONARYWDFLT
  5
6D
102
{ACAD_REACTORS
330
C
102
}
330
C
100
AcDbDictionary
281
     1
  3
Normal
350
6E
100
AcDbDictionaryWithDefault
340
6E
  0
DICTIONARY
  5
11B5
102
{ACAD_REACTORS
330
C
102
}
330
C
100
AcDbDictionary
281
     1
  3
A0
350
11B6
  3
A1
350
11B7
  3
A2
350
11B8
  3
A3
350
11B9
  3
A4
350
11BA
  3
A5
350
11BB
  3
A6
350
11BC
  3
A7
350
11BD
  3
A8
350
11BE
  3
A9
350
11BF
  3
B0
350
11C0
  3
B1
350
11C1
  3
B2
350
11C2
  3
B3
350
11C3
  3
B4
350
11C4
  3
B5
350
11C5
  3
B6
350
11C6
  3
B7
350
11C7
  3
B8
350
11C8
  3
B9
350
11C9
  3
C0
350
11CA
  3
C1
350
11CB
  3
C2
350
11CC
  3
C3
350
11CD
  3
C4
350
11CE
  3
C5
350
11CF
  3
C6
350
11D0
  3
C7
350
11D1
  3
C8
350
11D2
  3
C9
350
11D3
  3
D0
350
11D4
  3
D1
350
11D5
  3
D2
350
11D6
  0
DICTIONARY
  5
A5
102
{ACAD_REACTORS
330
C
102
}
330
C
100
AcDbDictionary
281
     1
  3
Standard
350
A6
  0
XRECORD
  5
11DB
102
{ACAD_REACTORS
330
C
102
}
330
C
100
AcDbXrecord
280
     1
 90
        1
330
A6
  0
DICTIONARY
  5
A0
102
{ACAD_REACTORS
330
C
102
}
330
C
100
AcDbDictionary
281
     1
  3
CANNOSCALE
350
11D7
  3
CTABLESTYLE
350
B0
  3
DIMASSOC
350
A1
  3
PROJECTNAME
350
B1
  0
SORTENTSTABLE
  5
FAC
102
{ACAD_REACTORS
330
9C
102
}
330
9C
100
AcDbSortentsTable
330
17
331
5F
  5
5F
331
60
  5
60
331
7E1
  5
7E1
331
7E3
  5
7E3
331
7E4
  5
7E4
331
7E8
  5
7E8
331
7E9
  5
7E9
331
7EA
  5
7EA
331
7EB
  5
7EB
331
7EC
  5
7EC
331
7ED
  5
7ED
331
7EE
  5
7EE
331
7EF
  5
7EF
331
7F0
  5
7F0
331
7F7
  5
7F7
331
7F8
  5
7F8
331
7F9
  5
7F9
331
7FA
  5
7FA
331
7FB
  5
7FB
331
7FE
  5
7FE
331
807
  5
807
331
808
  5
808
331
809
  5
809
331
80A
  5
80A
331
810
  5
810
331
811
  5
811
331
812
  5
812
331
813
  5
813
331
814
  5
814
331
815
  5
815
331
816
  5
816
331
817
  5
817
331
81E
  5
81E
331
81F
  5
81F
331
820
  5
820
331
821
  5
821
331
822
  5
822
331
823
  5
823
331
82C
  5
82C
331
857
  5
857
331
858
  5
858
331
859
  5
859
331
85A
  5
85A
331
85B
  5
85B
331
85C
  5
85C
331
85D
  5
85D
331
85E
  5
85E
331
85F
  5
85F
331
860
  5
860
331
861
  5
861
331
862
  5
862
331
863
  5
863
331
864
  5
864
331
865
  5
865
331
866
  5
866
331
867
  5
867
331
868
  5
868
331
869
  5
869
331
86E
  5
86E
331
878
  5
878
331
879
  5
879
331
87A
  5
87A
331
882
  5
882
331
883
  5
883
331
884
  5
884
331
885
  5
885
331
886
  5
886
331
88D
  5
88D
331
88E
  5
88E
331
88F
  5
88F
331
D22
  5
D22
331
D23
  5
D23
331
F96
  5
F96
  0
LAYOUT
  5
71
102
{ACAD_REACTORS
330
6F
102
}
330
6F
100
AcDbPlotSettings
  1

  2
RICOH IPSiO NX850 RPCS
  4

  6

 40
0.0
 41
0.0
 42
0.0
 43
0.0
 44
0.0
 45
0.0
 46
0.0
 47
0.0
 48
0.0
 49
0.0
140
0.0
141
0.0
142
1.0
143
1.0
 70
  1712
 72
     0
 73
     0
 74
     0
  7
acad.ctb
 75
     0
 76
     0
 77
     2
 78
   300
147
1.0
148
0.0
149
0.0
100
AcDbLayout
  1
Model
 70
     1
 71
     0
 10
0.0
 20
0.0
 11
12.0
 21
9.0
 12
0.0
 22
0.0
 32
0.0
 14
0.0
 24
0.0
 34
0.0
 15
0.0
 25
0.0
 35
0.0
146
0.0
 13
0.0
 23
0.0
 33
0.0
 16
1.0
 26
0.0
 36
0.0
 17
0.0
 27
1.0
 37
0.0
 76
     0
330
17
331
11AF
  0
LAYOUT
  5
72
102
{ACAD_REACTORS
330
6F
102
}
330
6F
100
AcDbPlotSettings
  1

  2
RICOH IPSiO NX850 RPCS
  4

  6

 40
0.0
 41
0.0
 42
0.0
 43
0.0
 44
0.0
 45
0.0
 46
0.0
 47
0.0
 48
0.0
 49
0.0
140
0.0
141
0.0
142
1.0
143
1.0
 70
   688
 72
     0
 73
     0
 74
     5
  7
acad.ctb
 75
    16
 76
     0
 77
     2
 78
   300
147
1.0
148
0.0
149
0.0
100
AcDbLayout
  1
ﾚｲｱｳﾄ1
 70
     0
 71
     1
 10
0.0
 20
0.0
 11
12.0
 21
9.0
 12
0.0
 22
0.0
 32
0.0
 14
1.000000000000000E+20
 24
1.000000000000000E+20
 34
1.000000000000000E+20
 15
-1.000000000000000E+20
 25
-1.000000000000000E+20
 35
-1.000000000000000E+20
146
0.0
 13
0.0
 23
0.0
 33
0.0
 16
1.0
 26
0.0
 36
0.0
 17
0.0
 27
1.0
 37
0.0
 76
     0
330
14
  0
MLINESTYLE
  5
1B
102
{ACAD_REACTORS
330
1A
102
}
330
1A
100
AcDbMlineStyle
  2
STANDARD
 70
     0
  3

 62
   256
 51
90.0
 52
90.0
 71
     2
 49
0.5
 62
   256
  6
BYLAYER
 49
-0.5
 62
   256
  6
BYLAYER
  0
ACDBPLACEHOLDER
  5
6E
102
{ACAD_REACTORS
330
6D
102
}
330
6D
  0
SCALE
  5
11B6
102
{ACAD_REACTORS
330
11B5
102
}
330
11B5
100
AcDbScale
 70
     0
300
1:1
140
1.0
141
1.0
290
     1
  0
SCALE
  5
11B7
102
{ACAD_REACTORS
330
11B5
102
}
330
11B5
100
AcDbScale
 70
     0
300
1:2
140
1.0
141
2.0
290
     0
  0
SCALE
  5
11B8
102
{ACAD_REACTORS
330
11B5
102
}
330
11B5
100
AcDbScale
 70
     0
300
1:4
140
1.0
141
4.0
290
     0
  0
SCALE
  5
11B9
102
{ACAD_REACTORS
330
11B5
102
}
330
11B5
100
AcDbScale
 70
     0
300
1:5
140
1.0
141
5.0
290
     0
  0
SCALE
  5
11BA
102
{ACAD_REACTORS
330
11B5
102
}
330
11B5
100
AcDbScale
 70
     0
300
1:8
140
1.0
141
8.0
290
     0
  0
SCALE
  5
11BB
102
{ACAD_REACTORS
330
11B5
102
}
330
11B5
100
AcDbScale
 70
     0
300
1:10
140
1.0
141
10.0
290
     0
  0
SCALE
  5
11BC
102
{ACAD_REACTORS
330
11B5
102
}
330
11B5
100
AcDbScale
 70
     0
300
1:16
140
1.0
141
16.0
290
     0
  0
SCALE
  5
11BD
102
{ACAD_REACTORS
330
11B5
102
}
330
11B5
100
AcDbScale
 70
     0
300
1:20
140
1.0
141
20.0
290
     0
  0
SCALE
  5
11BE
102
{ACAD_REACTORS
330
11B5
102
}
330
11B5
100
AcDbScale
 70
     0
300
1:30
140
1.0
141
30.0
290
     0
  0
SCALE
  5
11BF
102
{ACAD_REACTORS
330
11B5
102
}
330
11B5
100
AcDbScale
 70
     0
300
1:40
140
1.0
141
40.0
290
     0
  0
SCALE
  5
11C0
102
{ACAD_REACTORS
330
11B5
102
}
330
11B5
100
AcDbScale
 70
     0
300
1:50
140
1.0
141
50.0
290
     0
  0
SCALE
  5
11C1
102
{ACAD_REACTORS
330
11B5
102
}
330
11B5
100
AcDbScale
 70
     0
300
1:100
140
1.0
141
100.0
290
     0
  0
SCALE
  5
11C2
102
{ACAD_REACTORS
330
11B5
102
}
330
11B5
100
AcDbScale
 70
     0
300
2:1
140
2.0
141
1.0
290
     0
  0
SCALE
  5
11C3
102
{ACAD_REACTORS
330
11B5
102
}
330
11B5
100
AcDbScale
 70
     0
300
4:1
140
4.0
141
1.0
290
     0
  0
SCALE
  5
11C4
102
{ACAD_REACTORS
330
11B5
102
}
330
11B5
100
AcDbScale
 70
     0
300
8:1
140
8.0
141
1.0
290
     0
  0
SCALE
  5
11C5
102
{ACAD_REACTORS
330
11B5
102
}
330
11B5
100
AcDbScale
 70
     0
300
10:1
140
10.0
141
1.0
290
     0
  0
SCALE
  5
11C6
102
{ACAD_REACTORS
330
11B5
102
}
330
11B5
100
AcDbScale
 70
     0
300
100:1
140
100.0
141
1.0
290
     0
  0
SCALE
  5
11C7
102
{ACAD_REACTORS
330
11B5
102
}
330
11B5
100
AcDbScale
 70
     0
300
1/128" = 1'-0"
140
0.0078125
141
12.0
290
     0
  0
SCALE
  5
11C8
102
{ACAD_REACTORS
330
11B5
102
}
330
11B5
100
AcDbScale
 70
     0
300
1/64" = 1'-0"
140
0.015625
141
12.0
290
     0
  0
SCALE
  5
11C9
102
{ACAD_REACTORS
330
11B5
102
}
330
11B5
100
AcDbScale
 70
     0
300
1/32" = 1'-0"
140
0.03125
141
12.0
290
     0
  0
SCALE
  5
11CA
102
{ACAD_REACTORS
330
11B5
102
}
330
11B5
100
AcDbScale
 70
     0
300
1/16" = 1'-0"
140
0.0625
141
12.0
290
     0
  0
SCALE
  5
11CB
102
{ACAD_REACTORS
330
11B5
102
}
330
11B5
100
AcDbScale
 70
     0
300
3/32" = 1'-0"
140
0.09375
141
12.0
290
     0
  0
SCALE
  5
11CC
102
{ACAD_REACTORS
330
11B5
102
}
330
11B5
100
AcDbScale
 70
     0
300
1/8" = 1'-0"
140
0.125
141
12.0
290
     0
  0
SCALE
  5
11CD
102
{ACAD_REACTORS
330
11B5
102
}
330
11B5
100
AcDbScale
 70
     0
300
3/16" = 1'-0"
140
0.1875
141
12.0
290
     0
  0
SCALE
  5
11CE
102
{ACAD_REACTORS
330
11B5
102
}
330
11B5
100
AcDbScale
 70
     0
300
1/4" = 1'-0"
140
0.25
141
12.0
290
     0
  0
SCALE
  5
11CF
102
{ACAD_REACTORS
330
11B5
102
}
330
11B5
100
AcDbScale
 70
     0
300
3/8" = 1'-0"
140
0.375
141
12.0
290
     0
  0
SCALE
  5
11D0
102
{ACAD_REACTORS
330
11B5
102
}
330
11B5
100
AcDbScale
 70
     0
300
1/2" = 1'-0"
140
0.5
141
12.0
290
     0
  0
SCALE
  5
11D1
102
{ACAD_REACTORS
330
11B5
102
}
330
11B5
100
AcDbScale
 70
     0
300
3/4" = 1'-0"
140
0.75
141
12.0
290
     0
  0
SCALE
  5
11D2
102
{ACAD_REACTORS
330
11B5
102
}
330
11B5
100
AcDbScale
 70
     0
300
1" = 1'-0"
140
1.0
141
12.0
290
     0
  0
SCALE
  5
11D3
102
{ACAD_REACTORS
330
11B5
102
}
330
11B5
100
AcDbScale
 70
     0
300
1-1/2" = 1'-0"
140
1.5
141
12.0
290
     0
  0
SCALE
  5
11D4
102
{ACAD_REACTORS
330
11B5
102
}
330
11B5
100
AcDbScale
 70
     0
300
3" = 1'-0"
140
3.0
141
12.0
290
     0
  0
SCALE
  5
11D5
102
{ACAD_REACTORS
330
11B5
102
}
330
11B5
100
AcDbScale
 70
     0
300
6" = 1'-0"
140
6.0
141
12.0
290
     0
  0
SCALE
  5
11D6
102
{ACAD_REACTORS
330
11B5
102
}
330
11B5
100
AcDbScale
 70
     0
300
1'-0" = 1'-0"
140
12.0
141
12.0
290
     0
  0
TABLESTYLE
  5
A6
102
{ACAD_REACTORS
330
A5
102
}
102
{ACAD_XDICTIONARY
360
11D8
102
}
330
A5
100
AcDbTableStyle
  3
Standard
 70
     0
 71
     0
 40
0.06
 41
0.06
280
     0
281
     0
  7
STANDARD
140
0.18
170
     2
 62
     0
 63
   257
283
     0
274
    -2
284
     1
 64
     0
275
    -2
285
     1
 65
     0
276
    -2
286
     1
 66
     0
277
    -2
287
     1
 67
     0
278
    -2
288
     1
 68
     0
279
    -2
289
     1
 69
     0
  7
STANDARD
140
0.25
170
     5
 62
     0
 63
   257
283
     0
274
    -2
284
     1
 64
     0
275
    -2
285
     1
 65
     0
276
    -2
286
     1
 66
     0
277
    -2
287
     1
 67
     0
278
    -2
288
     1
 68
     0
279
    -2
289
     1
 69
     0
  7
STANDARD
140
0.18
170
     5
 62
     0
 63
   257
283
     0
274
    -2
284
     1
 64
     0
275
    -2
285
     1
 65
     0
276
    -2
286
     1
 66
     0
277
    -2
287
     1
 67
     0
278
    -2
288
     1
 68
     0
279
    -2
289
     1
 69
     0
  0
DICTIONARYVAR
  5
11D7
102
{ACAD_REACTORS
330
A0
102
}
330
A0
100
DictionaryVariables
280
     0
  1
1:1
  0
DICTIONARYVAR
  5
B0
102
{ACAD_REACTORS
330
A0
102
}
330
A0
100
DictionaryVariables
280
     0
  1
Standard
  0
DICTIONARYVAR
  5
A1
102
{ACAD_REACTORS
330
A0
102
}
330
A0
100
DictionaryVariables
280
     0
  1
1
  0
DICTIONARYVAR
  5
B1
102
{ACAD_REACTORS
330
A0
102
}
330
A0
100
DictionaryVariables
280
     0
  1

  0
DICTIONARY
  5
11D8
330
A6
100
AcDbDictionary
280
     1
281
     1
  3
ACAD_ROUNDTRIP_2008_TABLESTYLE_CELLSTYLEMAP
360
11DA
  3
ACAD_XREC_ROUNDTRIP
360
11D9
  0
CELLSTYLEMAP
  5
11DA
102
{ACAD_REACTORS
330
11D8
102
}
330
11D8
100
AcDbCellStyleMap
 90
        3
300
CELLSTYLE
  1
TABLEFORMAT_BEGIN
 90
        5
170
     1
 91
        0
 92
    32768
 62
   257
 93
        1
300
CONTENTFORMAT
  1
CONTENTFORMAT_BEGIN
 90
        0
 91
        0
 92
        4
 93
        0
300

 40
0.0
140
1.0
 94
        5
 62
     0
340
F
144
0.25
309
CONTENTFORMAT_END
171
     1
301
MARGIN
  1
CELLMARGIN_BEGIN
 40
0.06
 40
0.06
 40
0.06
 40
0.06
 40
0.06
 40
0.06
309
CELLMARGIN_END
 94
        6
 95
        1
302
GRIDFORMAT
  1
GRIDFORMAT_BEGIN
 90
        0
 91
        1
 62
     0
 92
       -2
340
0
 93
        0
 40
0.045
309
GRIDFORMAT_END
 95
        2
302
GRIDFORMAT
  1
GRIDFORMAT_BEGIN
 90
        0
 91
        1
 62
     0
 92
       -2
340
0
 93
        0
 40
0.045
309
GRIDFORMAT_END
 95
        4
302
GRIDFORMAT
  1
GRIDFORMAT_BEGIN
 90
        0
 91
        1
 62
     0
 92
       -2
340
0
 93
        0
 40
0.045
309
GRIDFORMAT_END
 95
        8
302
GRIDFORMAT
  1
GRIDFORMAT_BEGIN
 90
        0
 91
        1
 62
     0
 92
       -2
340
0
 93
        0
 40
0.045
309
GRIDFORMAT_END
 95
       16
302
GRIDFORMAT
  1
GRIDFORMAT_BEGIN
 90
        0
 91
        1
 62
     0
 92
       -2
340
0
 93
        0
 40
0.045
309
GRIDFORMAT_END
 95
       32
302
GRIDFORMAT
  1
GRIDFORMAT_BEGIN
 90
        0
 91
        1
 62
     0
 92
       -2
340
0
 93
        0
 40
0.045
309
GRIDFORMAT_END
309
TABLEFORMAT_END
  1
CELLSTYLE_BEGIN
 90
        1
 91
        1
300
_TITLE
309
CELLSTYLE_END
300
CELLSTYLE
  1
TABLEFORMAT_BEGIN
 90
        5
170
     1
 91
        0
 92
        0
 62
   257
 93
        1
300
CONTENTFORMAT
  1
CONTENTFORMAT_BEGIN
 90
        0
 91
        0
 92
        4
 93
        0
300

 40
0.0
140
1.0
 94
        5
 62
     0
340
F
144
0.18
309
CONTENTFORMAT_END
171
     1
301
MARGIN
  1
CELLMARGIN_BEGIN
 40
0.06
 40
0.06
 40
0.06
 40
0.06
 40
0.06
 40
0.06
309
CELLMARGIN_END
 94
        6
 95
        1
302
GRIDFORMAT
  1
GRIDFORMAT_BEGIN
 90
        0
 91
        1
 62
     0
 92
       -2
340
0
 93
        0
 40
0.045
309
GRIDFORMAT_END
 95
        2
302
GRIDFORMAT
  1
GRIDFORMAT_BEGIN
 90
        0
 91
        1
 62
     0
 92
       -2
340
0
 93
        0
 40
0.045
309
GRIDFORMAT_END
 95
        4
302
GRIDFORMAT
  1
GRIDFORMAT_BEGIN
 90
        0
 91
        1
 62
     0
 92
       -2
340
0
 93
        0
 40
0.045
309
GRIDFORMAT_END
 95
        8
302
GRIDFORMAT
  1
GRIDFORMAT_BEGIN
 90
        0
 91
        1
 62
     0
 92
       -2
340
0
 93
        0
 40
0.045
309
GRIDFORMAT_END
 95
       16
302
GRIDFORMAT
  1
GRIDFORMAT_BEGIN
 90
        0
 91
        1
 62
     0
 92
       -2
340
0
 93
        0
 40
0.045
309
GRIDFORMAT_END
 95
       32
302
GRIDFORMAT
  1
GRIDFORMAT_BEGIN
 90
        0
 91
        1
 62
     0
 92
       -2
340
0
 93
        0
 40
0.045
309
GRIDFORMAT_END
309
TABLEFORMAT_END
  1
CELLSTYLE_BEGIN
 90
        2
 91
        1
300
_HEADER
309
CELLSTYLE_END
300
CELLSTYLE
  1
TABLEFORMAT_BEGIN
 90
        5
170
     1
 91
        0
 92
        0
 62
   257
 93
        1
300
CONTENTFORMAT
  1
CONTENTFORMAT_BEGIN
 90
        0
 91
        0
 92
        4
 93
        0
300

 40
0.0
140
1.0
 94
        2
 62
     0
340
F
144
0.18
309
CONTENTFORMAT_END
171
     1
301
MARGIN
  1
CELLMARGIN_BEGIN
 40
0.06
 40
0.06
 40
0.06
 40
0.06
 40
0.06
 40
0.06
309
CELLMARGIN_END
 94
        6
 95
        1
302
GRIDFORMAT
  1
GRIDFORMAT_BEGIN
 90
        0
 91
        1
 62
     0
 92
       -2
340
0
 93
        0
 40
0.045
309
GRIDFORMAT_END
 95
        2
302
GRIDFORMAT
  1
GRIDFORMAT_BEGIN
 90
        0
 91
        1
 62
     0
 92
       -2
340
0
 93
        0
 40
0.045
309
GRIDFORMAT_END
 95
        4
302
GRIDFORMAT
  1
GRIDFORMAT_BEGIN
 90
        0
 91
        1
 62
     0
 92
       -2
340
0
 93
        0
 40
0.045
309
GRIDFORMAT_END
 95
        8
302
GRIDFORMAT
  1
GRIDFORMAT_BEGIN
 90
        0
 91
        1
 62
     0
 92
       -2
340
0
 93
        0
 40
0.045
309
GRIDFORMAT_END
 95
       16
302
GRIDFORMAT
  1
GRIDFORMAT_BEGIN
 90
        0
 91
        1
 62
     0
 92
       -2
340
0
 93
        0
 40
0.045
309
GRIDFORMAT_END
 95
       32
302
GRIDFORMAT
  1
GRIDFORMAT_BEGIN
 90
        0
 91
        1
 62
     0
 92
       -2
340
0
 93
        0
 40
0.045
309
GRIDFORMAT_END
309
TABLEFORMAT_END
  1
CELLSTYLE_BEGIN
 90
        3
 91
        2
300
_DATA
309
CELLSTYLE_END
  0
XRECORD
  5
11D9
102
{ACAD_REACTORS
330
11D8
102
}
330
11D8
100
AcDbXrecord
280
     1
102
ACAD_ROUNDTRIP_PRE2007_TABLESTYLE
 90
        4
 91
        0
  1

 92
        4
 93
        0
  2

 94
        4
 95
        0
  3

  0
ENDSEC
  0
EOF
