  0
SECTION
  2
HEADER
  9
$ACADVER
  1
AC1018
  9
$ACADMAINTVER
 70
     0
  9
$DWGCODEPAGE
  3
ANSI_932
  9
$INSBASE
 10
0.0
 20
0.0
 30
0.0
  9
$EXTMIN
 10
320.0
 20
-0.0000000000000142
 30
0.0
  9
$EXTMAX
 10
7980.0
 20
5540.0
 30
0.0
  9
$LIMMIN
 10
0.0
 20
0.0
  9
$LIMMAX
 10
8400.0
 20
5940.0
  9
$ORTHOMODE
 70
     1
  9
$REGENMODE
 70
     1
  9
$FILLMODE
 70
     1
  9
$QTEXTMODE
 70
     0
  9
$MIRRTEXT
 70
     1
  9
$LTSCALE
 40
200.0
  9
$ATTMODE
 70
     1
  9
$TEXTSIZE
 40
60.0
  9
$TRACEWID
 40
0.05
  9
$TEXTSTYLE
  7
STANDARD
  9
$CLAYER
  8
SUNPOU
  9
$CELTYPE
  6
BYLAYER
  9
$CECOLOR
 62
   256
  9
$CELTSCALE
 40
1.0
  9
$DISPSILH
 70
     0
  9
$DIMSCALE
 40
20.0
  9
$DIMASZ
 40
2.0
  9
$DIMEXO
 40
2.0
  9
$DIMDLI
 40
7.0
  9
$DIMRND
 40
0.0
  9
$DIMDLE
 40
0.0
  9
$DIMEXE
 40
0.5
  9
$DIMTP
 40
0.0
  9
$DIMTM
 40
0.0
  9
$DIMTXT
 40
3.0
  9
$DIMCEN
 40
0.0
  9
$DIMTSZ
 40
0.0
  9
$DIMTOL
 70
     0
  9
$DIMLIM
 70
     0
  9
$DIMTIH
 70
     0
  9
$DIMTOH
 70
     0
  9
$DIMSE1
 70
     0
  9
$DIMSE2
 70
     0
  9
$DIMTAD
 70
     1
  9
$DIMZIN
 70
     8
  9
$DIMBLK
  1

  9
$DIMASO
 70
     1
  9
$DIMSHO
 70
     1
  9
$DIMPOST
  1

  9
$DIMAPOST
  1

  9
$DIMALT
 70
     0
  9
$DIMALTD
 70
     2
  9
$DIMALTF
 40
25.4
  9
$DIMLFAC
 40
1.0
  9
$DIMTOFL
 70
     0
  9
$DIMTVP
 40
1.0
  9
$DIMTIX
 70
     1
  9
$DIMSOXD
 70
     0
  9
$DIMSAH
 70
     0
  9
$DIMBLK1
  1

  9
$DIMBLK2
  1

  9
$DIMSTYLE
  2
A3-20
  9
$DIMCLRD
 70
     0
  9
$DIMCLRE
 70
     0
  9
$DIMCLRT
 70
     0
  9
$DIMTFAC
 40
1.0
  9
$DIMGAP
 40
0.8
  9
$DIMJUST
 70
     0
  9
$DIMSD1
 70
     0
  9
$DIMSD2
 70
     0
  9
$DIMTOLJ
 70
     1
  9
$DIMTZIN
 70
     8
  9
$DIMALTZ
 70
     8
  9
$DIMALTTZ
 70
     8
  9
$DIMUPT
 70
     0
  9
$DIMDEC
 70
     0
  9
$DIMTDEC
 70
     0
  9
$DIMALTU
 70
     2
  9
$DIMALTTD
 70
     2
  9
$DIMTXSTY
  7
STANDARD
  9
$DIMAUNIT
 70
     0
  9
$DIMADEC
 70
     4
  9
$DIMALTRND
 40
0.0
  9
$DIMAZIN
 70
     0
  9
$DIMDSEP
 70
    46
  9
$DIMATFIT
 70
     3
  9
$DIMFRAC
 70
     0
  9
$DIMLDRBLK
  1

  9
$DIMLUNIT
 70
     2
  9
$DIMLWD
 70
    -2
  9
$DIMLWE
 70
    -2
  9
$DIMTMOVE
 70
     2
  9
$LUNITS
 70
     2
  9
$LUPREC
 70
     4
  9
$SKETCHINC
 40
0.1
  9
$FILLETRAD
 40
0.0
  9
$AUNITS
 70
     0
  9
$AUPREC
 70
     6
  9
$MENU
  1
acad
  9
$ELEVATION
 40
0.0
  9
$PELEVATION
 40
0.0
  9
$THICKNESS
 40
0.0
  9
$LIMCHECK
 70
     0
  9
$CHAMFERA
 40
0.0
  9
$CHAMFERB
 40
0.0
  9
$CHAMFERC
 40
0.0
  9
$CHAMFERD
 40
0.0
  9
$SKPOLY
 70
     0
  9
$TDCREATE
 40
2450014.656655093
  9
$TDUCREATE
 40
2450014.281655093
  9
$TDUPDATE
 40
2455351.37704897
  9
$TDUUPDATE
 40
2455351.00204897
  9
$TDINDWG
 40
0.0191185301
  9
$TDUSRTIMER
 40
0.0191185301
  9
$USRTIMER
 70
     1
  9
$ANGBASE
 50
0.0
  9
$ANGDIR
 70
     0
  9
$PDMODE
 70
     0
  9
$PDSIZE
 40
0.0
  9
$PLINEWID
 40
0.0
  9
$SPLFRAME
 70
     0
  9
$SPLINETYPE
 70
     6
  9
$SPLINESEGS
 70
     8
  9
$HANDSEED
  5
1636
  9
$SURFTAB1
 70
     6
  9
$SURFTAB2
 70
     6
  9
$SURFTYPE
 70
     6
  9
$SURFU
 70
     6
  9
$SURFV
 70
     6
  9
$UCSBASE
  2

  9
$UCSNAME
  2

  9
$UCSORG
 10
0.0
 20
0.0
 30
0.0
  9
$UCSXDIR
 10
1.0
 20
0.0
 30
0.0
  9
$UCSYDIR
 10
0.0
 20
1.0
 30
0.0
  9
$UCSORTHOREF
  2

  9
$UCSORTHOVIEW
 70
     0
  9
$UCSORGTOP
 10
0.0
 20
0.0
 30
0.0
  9
$UCSORGBOTTOM
 10
0.0
 20
0.0
 30
0.0
  9
$UCSORGLEFT
 10
0.0
 20
0.0
 30
0.0
  9
$UCSORGRIGHT
 10
0.0
 20
0.0
 30
0.0
  9
$UCSORGFRONT
 10
0.0
 20
0.0
 30
0.0
  9
$UCSORGBACK
 10
0.0
 20
0.0
 30
0.0
  9
$PUCSBASE
  2

  9
$PUCSNAME
  2

  9
$PUCSORG
 10
0.0
 20
0.0
 30
0.0
  9
$PUCSXDIR
 10
1.0
 20
0.0
 30
0.0
  9
$PUCSYDIR
 10
0.0
 20
1.0
 30
0.0
  9
$PUCSORTHOREF
  2

  9
$PUCSORTHOVIEW
 70
     0
  9
$PUCSORGTOP
 10
0.0
 20
0.0
 30
0.0
  9
$PUCSORGBOTTOM
 10
0.0
 20
0.0
 30
0.0
  9
$PUCSORGLEFT
 10
0.0
 20
0.0
 30
0.0
  9
$PUCSORGRIGHT
 10
0.0
 20
0.0
 30
0.0
  9
$PUCSORGFRONT
 10
0.0
 20
0.0
 30
0.0
  9
$PUCSORGBACK
 10
0.0
 20
0.0
 30
0.0
  9
$USERI1
 70
     0
  9
$USERI2
 70
     0
  9
$USERI3
 70
     0
  9
$USERI4
 70
     0
  9
$USERI5
 70
     0
  9
$USERR1
 40
0.0
  9
$USERR2
 40
0.0
  9
$USERR3
 40
0.0
  9
$USERR4
 40
0.0
  9
$USERR5
 40
0.0
  9
$WORLDVIEW
 70
     1
  9
$SHADEDGE
 70
     3
  9
$SHADEDIF
 70
    70
  9
$TILEMODE
 70
     1
  9
$MAXACTVP
 70
    48
  9
$PINSBASE
 10
0.0
 20
0.0
 30
0.0
  9
$PLIMCHECK
 70
     0
  9
$PEXTMIN
 10
1.000000000000000E+20
 20
1.000000000000000E+20
 30
1.000000000000000E+20
  9
$PEXTMAX
 10
-1.000000000000000E+20
 20
-1.000000000000000E+20
 30
-1.000000000000000E+20
  9
$PLIMMIN
 10
0.0
 20
0.0
  9
$PLIMMAX
 10
12.0
 20
9.0
  9
$UNITMODE
 70
     0
  9
$VISRETAIN
 70
     0
  9
$PLINEGEN
 70
     0
  9
$PSLTSCALE
 70
     0
  9
$TREEDEPTH
 70
  3020
  9
$CMLSTYLE
  2
STANDARD
  9
$CMLJUST
 70
     0
  9
$CMLSCALE
 40
1.0
  9
$PROXYGRAPHICS
 70
     1
  9
$MEASUREMENT
 70
     0
  9
$CELWEIGHT
370
    -1
  9
$ENDCAPS
280
     0
  9
$JOINSTYLE
280
     0
  9
$LWDISPLAY
290
     0
  9
$INSUNITS
 70
     0
  9
$HYPERLINKBASE
  1

  9
$STYLESHEET
  1

  9
$XEDIT
290
     1
  9
$CEPSNTYPE
380
     0
  9
$PSTYLEMODE
290
     1
  9
$FINGERPRINTGUID
  2
{F67648C0-8D40-11D8-A1CD-0050FC45377D}
  9
$VERSIONGUID
  2
{D394D1DF-2733-4DFA-8E93-6CAFB31E0DC4}
  9
$EXTNAMES
290
     1
  9
$PSVPSCALE
 40
0.0
  9
$OLESTARTUP
290
     0
  9
$SORTENTS
280
   127
  9
$INDEXCTL
280
     0
  9
$HIDETEXT
280
     1
  9
$XCLIPFRAME
290
     0
  9
$HALOGAP
280
     0
  9
$OBSCOLOR
 70
   257
  9
$OBSLTYPE
280
     0
  9
$INTERSECTIONDISPLAY
280
     0
  9
$INTERSECTIONCOLOR
 70
   257
  9
$DIMASSOC
280
     1
  9
$PROJECTNAME
  1

  0
ENDSEC
  0
SECTION
  2
CLASSES
  0
CLASS
  1
ACDBDICTIONARYWDFLT
  2
AcDbDictionaryWithDefault
  3
ObjectDBX Classes
 90
        0
 91
        4
280
     0
281
     0
  0
CLASS
  1
ACDBPLACEHOLDER
  2
AcDbPlaceHolder
  3
ObjectDBX Classes
 90
        0
 91
        1
280
     0
281
     0
  0
CLASS
  1
LAYOUT
  2
AcDbLayout
  3
ObjectDBX Classes
 90
        0
 91
        1
280
     0
281
     0
  0
CLASS
  1
DICTIONARYVAR
  2
AcDbDictionaryVar
  3
ObjectDBX Classes
 90
        0
 91
        4
280
     0
281
     0
  0
CLASS
  1
DUMMY
  2
AcDbLongTransaction
  3
DUMMY
 90
        0
 91
        1
280
     0
281
     0
  0
CLASS
  1
LWPOLYLINE
  2
AcDbPolyline
  3
AutoCAD 2000
 90
        0
 91
        1
280
     0
281
     1
  0
CLASS
  1
HATCH
  2
AcDbHatch
  3
AutoCAD 2000
 90
        0
 91
        1
280
     0
281
     1
  0
CLASS
  1
XRECORD
  2
AcDbXrecord
  3
AutoCAD 2000
 90
        0
 91
        1
280
     0
281
     0
  0
CLASS
  1
TABLESTYLE
  2
AcDbTableStyle
  3
ObjectDBX Classes
 90
     4095
 91
        4
280
     0
281
     0
  0
CLASS
  1
SCALE
  2
AcDbScale
  3
ObjectDBX Classes
 90
     1153
 91
        4
280
     0
281
     0
  0
CLASS
  1
CELLSTYLEMAP
  2
AcDbCellStyleMap
  3
ObjectDBX Classes
 90
     1152
 91
        4
280
     0
281
     0
  0
ENDSEC
  0
SECTION
  2
TABLES
  0
TABLE
  2
VPORT
  5
8
330
0
100
AcDbSymbolTable
 70
     2
  0
VPORT
  5
1608
330
8
100
AcDbSymbolTableRecord
100
AcDbViewportTableRecord
  2
*Active
 70
     0
 10
0.0
 20
0.0
 11
1.0
 21
1.0
 12
4283.32436970762
 22
2779.915911584859
 13
0.0
 23
0.0
 14
20.0
 24
20.0
 15
200.0
 25
200.0
 16
0.0
 26
0.0
 36
1.0
 17
0.0
 27
0.0
 37
0.0
 40
5785.06505691341
 41
1.507024265644955
 42
50.0
 43
0.0
 44
0.0
 50
0.0
 51
0.0
 71
     0
 72
   100
 73
     1
 74
     1
 75
     0
 76
     0
 77
     0
 78
     0
281
     0
 65
     1
110
0.0
120
0.0
130
0.0
111
1.0
121
0.0
131
0.0
112
0.0
122
1.0
132
0.0
 79
     0
146
0.0
  0
ENDTAB
  0
TABLE
  2
LTYPE
  5
5
330
0
100
AcDbSymbolTable
 70
     4
  0
LTYPE
  5
11
330
5
100
AcDbSymbolTableRecord
100
AcDbLinetypeTableRecord
  2
BYBLOCK
 70
     0
  3

 72
    65
 73
     0
 40
0.0
  0
LTYPE
  5
12
330
5
100
AcDbSymbolTableRecord
100
AcDbLinetypeTableRecord
  2
BYLAYER
 70
     0
  3

 72
    65
 73
     0
 40
0.0
  0
LTYPE
  5
13
330
5
100
AcDbSymbolTableRecord
100
AcDbLinetypeTableRecord
  2
CONTINUOUS
 70
     0
  3
Solid line
 72
    65
 73
     0
 40
0.0
  0
LTYPE
  5
1E
330
5
100
AcDbSymbolTableRecord
100
AcDbLinetypeTableRecord
  2
HIDDEN
 70
     0
  3
_ _ _ _ _ _ _ _ _ _ _ _ _ _ _ _ _ _ _ _ _ _ _
 72
    65
 73
     2
 40
0.375
 49
0.25
 74
     0
 49
-0.125
 74
     0
  0
LTYPE
  5
1F
330
5
100
AcDbSymbolTableRecord
100
AcDbLinetypeTableRecord
  2
CENTER
 70
     0
  3
____ _ ____ _ ____ _ ____ _ ____ _ ____ _ ____
 72
    65
 73
     4
 40
2.0
 49
1.25
 74
     0
 49
-0.25
 74
     0
 49
0.25
 74
     0
 49
-0.25
 74
     0
  0
LTYPE
  5
20
330
5
100
AcDbSymbolTableRecord
100
AcDbLinetypeTableRecord
  2
PHANTOM
 70
     0
  3
_____ _ _ _____ _ _ _____ _ _ _____ _ _ ____
 72
    65
 73
     6
 40
2.5
 49
1.25
 74
     0
 49
-0.25
 74
     0
 49
0.25
 74
     0
 49
-0.25
 74
     0
 49
0.25
 74
     0
 49
-0.25
 74
     0
  0
ENDTAB
  0
TABLE
  2
LAYER
  5
2
330
0
100
AcDbSymbolTable
 70
    10
  0
LAYER
  5
E
330
2
100
AcDbSymbolTableRecord
100
AcDbLayerTableRecord
  2
0
 70
     0
 62
     7
  6
CONTINUOUS
370
    -3
390
6E
  0
LAYER
  5
23
330
2
100
AcDbSymbolTableRecord
100
AcDbLayerTableRecord
  2
SUNPOU
 70
     0
 62
     1
  6
CONTINUOUS
370
    -3
390
6E
  0
LAYER
  5
24
330
2
100
AcDbSymbolTableRecord
100
AcDbLayerTableRecord
  2
HAIKIN
 70
     0
 62
     2
  6
CONTINUOUS
370
    -3
390
6E
  0
LAYER
  5
25
330
2
100
AcDbSymbolTableRecord
100
AcDbLayerTableRecord
  2
SEIHIN
 70
     0
 62
     3
  6
CONTINUOUS
370
    -3
390
6E
  0
LAYER
  5
26
330
2
100
AcDbSymbolTableRecord
100
AcDbLayerTableRecord
  2
HASEN
 70
     0
 62
     4
  6
HIDDEN
370
    -3
390
6E
  0
LAYER
  5
27
330
2
100
AcDbSymbolTableRecord
100
AcDbLayerTableRecord
  2
1HASEN
 70
     0
 62
     5
  6
CENTER
370
    -3
390
6E
  0
LAYER
  5
28
330
2
100
AcDbSymbolTableRecord
100
AcDbLayerTableRecord
  2
2HASEN
 70
     0
 62
     6
  6
PHANTOM
370
    -3
390
6E
  0
LAYER
  5
29
330
2
100
AcDbSymbolTableRecord
100
AcDbLayerTableRecord
  2
HOJO
 70
     0
 62
     7
  6
CONTINUOUS
370
    -3
390
6E
  0
LAYER
  5
2A
330
2
100
AcDbSymbolTableRecord
100
AcDbLayerTableRecord
  2
TEN
 70
     0
 62
     7
  6
CONTINUOUS
370
    -3
390
6E
  0
LAYER
  5
71E
330
2
100
AcDbSymbolTableRecord
100
AcDbLayerTableRecord
  2
DEFPOINTS
 70
     0
 62
     7
  6
CONTINUOUS
290
     0
370
    -3
390
6E
  0
ENDTAB
  0
TABLE
  2
STYLE
  5
3
330
0
100
AcDbSymbolTable
 70
     2
  0
STYLE
  5
F
330
3
100
AcDbSymbolTableRecord
100
AcDbTextStyleTableRecord
  2
STANDARD
 70
     0
 40
0.0
 41
0.8
 50
0.0
 71
     0
 42
60.0
  3
TXT.shx
  4
BIGFONT.shx
  0
STYLE
  5
71F
330
3
100
AcDbSymbolTableRecord
100
AcDbTextStyleTableRecord
  2
NIHONGO
 70
     0
 40
0.0
 41
1.0
 50
0.0
 71
     0
 42
80.0
  3
MS Mincho.ttf
  4

1001
ACAD
1000
MS Mincho
1071
    32785
  0
ENDTAB
  0
TABLE
  2
VIEW
  5
6
330
0
100
AcDbSymbolTable
 70
     0
  0
ENDTAB
  0
TABLE
  2
UCS
  5
7
330
0
100
AcDbSymbolTable
 70
     0
  0
ENDTAB
  0
TABLE
  2
APPID
  5
9
330
0
100
AcDbSymbolTable
 70
    10
  0
APPID
  5
10
330
9
100
AcDbSymbolTableRecord
100
AcDbRegAppTableRecord
  2
ACAD
 70
     0
  0
APPID
  5
B6
330
9
100
AcDbSymbolTableRecord
100
AcDbRegAppTableRecord
  2
ACAD_DSTYLE_DIMTEXT_FILL
 70
     0
  0
APPID
  5
B7
330
9
100
AcDbSymbolTableRecord
100
AcDbRegAppTableRecord
  2
ACAD_DSTYLE_DIMEXT_LENGTH
 70
     0
  0
APPID
  5
B8
330
9
100
AcDbSymbolTableRecord
100
AcDbRegAppTableRecord
  2
ACAD_DSTYLE_DIMEXT_ENABLED
 70
     0
  0
APPID
  5
B9
330
9
100
AcDbSymbolTableRecord
100
AcDbRegAppTableRecord
  2
ACAD_DSTYLE_DIM_LINETYPE
 70
     0
  0
APPID
  5
BA
330
9
100
AcDbSymbolTableRecord
100
AcDbRegAppTableRecord
  2
ACAD_DSTYLE_DIM_EXT1_LINETYPE
 70
     0
  0
APPID
  5
BB
330
9
100
AcDbSymbolTableRecord
100
AcDbRegAppTableRecord
  2
ACAD_DSTYLE_DIM_EXT2_LINETYPE
 70
     0
  0
APPID
  5
177
330
9
100
AcDbSymbolTableRecord
100
AcDbRegAppTableRecord
  2
ACAD_DSTYLE_DIMJOGGED_JOGANGLE_SYMBOL
 70
     0
  0
APPID
  5
35B
330
9
100
AcDbSymbolTableRecord
100
AcDbRegAppTableRecord
  2
ACAD_DSTYLE_DIMARC_LENGTH_SYMBOL
 70
     0
  0
APPID
  5
12AE
330
9
100
AcDbSymbolTableRecord
100
AcDbRegAppTableRecord
  2
ACAD_EXEMPT_FROM_CAD_STANDARDS
 70
     0
  0
ENDTAB
  0
TABLE
  2
DIMSTYLE
  5
A
330
0
100
AcDbSymbolTable
 70
     2
100
AcDbDimStyleTable
  0
DIMSTYLE
105
61
330
A
100
AcDbSymbolTableRecord
100
AcDbDimStyleTableRecord
  2
STANDARD
 70
     0
178
     0
340
F
  0
DIMSTYLE
105
360
102
{ACAD_REACTORS
330
9D6
330
9D5
330
9D0
330
9CF
330
9CA
330
9C9
330
9C8
330
9C7
330
9C1
330
9C0
330
99B
330
992
330
991
330
990
330
98F
330
98E
330
98D
330
986
330
985
330
96E
330
962
330
925
330
924
330
923
330
920
330
91F
330
13E8
330
13F6
330
15DA
102
}
330
A
100
AcDbSymbolTableRecord
100
AcDbDimStyleTableRecord
  2
A3-20
 70
     0
 40
20.0
 41
2.0
 42
2.0
 43
7.0
 44
0.5
 73
     0
 74
     0
 77
     1
 78
     8
140
3.0
141
0.0
145
1.0
147
0.8
174
     1
178
     0
179
     4
271
     0
272
     0
279
     2
284
     8
285
     8
286
     8
340
F
  0
ENDTAB
  0
TABLE
  2
BLOCK_RECORD
  5
1
330
0
100
AcDbSymbolTable
 70
    36
  0
BLOCK_RECORD
  5
17
330
1
100
AcDbSymbolTableRecord
100
AcDbBlockTableRecord
  2
*MODEL_SPACE
340
71
  0
BLOCK_RECORD
  5
14
330
1
100
AcDbSymbolTableRecord
100
AcDbBlockTableRecord
  2
*PAPER_SPACE
340
72
  0
BLOCK_RECORD
  5
1C
330
1
100
AcDbSymbolTableRecord
100
AcDbBlockTableRecord
  2
BORDER
340
0
  0
BLOCK_RECORD
  5
1D
330
1
100
AcDbSymbolTableRecord
100
AcDbBlockTableRecord
  2
SA3
340
0
102
{BLKREFS
331
60
102
}
  0
BLOCK_RECORD
  5
A34
330
1
100
AcDbSymbolTableRecord
100
AcDbBlockTableRecord
  2
*D2
340
0
  0
BLOCK_RECORD
  5
A5A
330
1
100
AcDbSymbolTableRecord
100
AcDbBlockTableRecord
  2
*D3
340
0
  0
BLOCK_RECORD
  5
A66
330
1
100
AcDbSymbolTableRecord
100
AcDbBlockTableRecord
  2
*D4
340
0
  0
BLOCK_RECORD
  5
A72
330
1
100
AcDbSymbolTableRecord
100
AcDbBlockTableRecord
  2
*D5
340
0
  0
BLOCK_RECORD
  5
A7E
330
1
100
AcDbSymbolTableRecord
100
AcDbBlockTableRecord
  2
*D6
340
0
  0
BLOCK_RECORD
  5
A8A
330
1
100
AcDbSymbolTableRecord
100
AcDbBlockTableRecord
  2
*D7
340
0
  0
BLOCK_RECORD
  5
A96
330
1
100
AcDbSymbolTableRecord
100
AcDbBlockTableRecord
  2
*D8
340
0
  0
BLOCK_RECORD
  5
AA2
330
1
100
AcDbSymbolTableRecord
100
AcDbBlockTableRecord
  2
*D9
340
0
  0
BLOCK_RECORD
  5
AAE
330
1
100
AcDbSymbolTableRecord
100
AcDbBlockTableRecord
  2
*D10
340
0
  0
BLOCK_RECORD
  5
B12
330
1
100
AcDbSymbolTableRecord
100
AcDbBlockTableRecord
  2
*D11
340
0
  0
BLOCK_RECORD
  5
B38
330
1
100
AcDbSymbolTableRecord
100
AcDbBlockTableRecord
  2
*D12
340
0
  0
BLOCK_RECORD
  5
B44
330
1
100
AcDbSymbolTableRecord
100
AcDbBlockTableRecord
  2
*D13
340
0
  0
BLOCK_RECORD
  5
B5C
330
1
100
AcDbSymbolTableRecord
100
AcDbBlockTableRecord
  2
*D14
340
0
  0
BLOCK_RECORD
  5
B68
330
1
100
AcDbSymbolTableRecord
100
AcDbBlockTableRecord
  2
*D15
340
0
  0
BLOCK_RECORD
  5
B75
330
1
100
AcDbSymbolTableRecord
100
AcDbBlockTableRecord
  2
*D16
340
0
  0
BLOCK_RECORD
  5
B81
330
1
100
AcDbSymbolTableRecord
100
AcDbBlockTableRecord
  2
*D17
340
0
  0
BLOCK_RECORD
  5
B8D
330
1
100
AcDbSymbolTableRecord
100
AcDbBlockTableRecord
  2
*D18
340
0
  0
BLOCK_RECORD
  5
B99
330
1
100
AcDbSymbolTableRecord
100
AcDbBlockTableRecord
  2
*D19
340
0
  0
BLOCK_RECORD
  5
BA5
330
1
100
AcDbSymbolTableRecord
100
AcDbBlockTableRecord
  2
*D20
340
0
  0
BLOCK_RECORD
  5
BB1
330
1
100
AcDbSymbolTableRecord
100
AcDbBlockTableRecord
  2
*D21
340
0
  0
BLOCK_RECORD
  5
C12
330
1
100
AcDbSymbolTableRecord
100
AcDbBlockTableRecord
  2
*D22
340
0
  0
BLOCK_RECORD
  5
C1E
330
1
100
AcDbSymbolTableRecord
100
AcDbBlockTableRecord
  2
*D23
340
0
  0
BLOCK_RECORD
  5
C2A
330
1
100
AcDbSymbolTableRecord
100
AcDbBlockTableRecord
  2
*D24
340
0
  0
BLOCK_RECORD
  5
C37
330
1
100
AcDbSymbolTableRecord
100
AcDbBlockTableRecord
  2
*D25
340
0
  0
BLOCK_RECORD
  5
C44
330
1
100
AcDbSymbolTableRecord
100
AcDbBlockTableRecord
  2
*D26
340
0
  0
BLOCK_RECORD
  5
C85
330
1
100
AcDbSymbolTableRecord
100
AcDbBlockTableRecord
  2
*D27
340
0
  0
BLOCK_RECORD
  5
13E9
330
1
100
AcDbSymbolTableRecord
100
AcDbBlockTableRecord
  2
*D28
340
0
  0
BLOCK_RECORD
  5
13F7
330
1
100
AcDbSymbolTableRecord
100
AcDbBlockTableRecord
  2
*D29
340
0
  0
BLOCK_RECORD
  5
15DB
330
1
100
AcDbSymbolTableRecord
100
AcDbBlockTableRecord
  2
*D34
340
0
  0
ENDTAB
  0
ENDSEC
  0
SECTION
  2
BLOCKS
  0
BLOCK
  5
2D
330
17
100
AcDbEntity
  8
0
100
AcDbBlockBegin
  2
*MODEL_SPACE
 70
     0
 10
0.0
 20
0.0
 30
0.0
  3
*MODEL_SPACE
  1

  0
ENDBLK
  5
2E
330
17
100
AcDbEntity
  8
0
100
AcDbBlockEnd
  0
BLOCK
  5
2B
330
14
100
AcDbEntity
 67
     1
  8
0
100
AcDbBlockBegin
  2
*PAPER_SPACE
 70
     0
 10
0.0
 20
0.0
 30
0.0
  3
*PAPER_SPACE
  1

  0
ENDBLK
  5
2C
330
14
100
AcDbEntity
 67
     1
  8
0
100
AcDbBlockEnd
  0
BLOCK
  5
2F
330
1C
100
AcDbEntity
  8
0
100
AcDbBlockBegin
  2
BORDER
 70
     0
 10
0.0
 20
0.0
 30
0.0
  3
BORDER
  1

  0
LINE
  5
30
330
1C
100
AcDbEntity
  8
0
100
AcDbLine
 10
0.0
 20
0.0
 30
0.0
 11
1.00000000000004
 21
0.0
 31
0.0
  0
LINE
  5
31
330
1C
100
AcDbEntity
  8
0
100
AcDbLine
 10
1.00000000000004
 20
0.0
 30
0.0
 11
1.00000000000004
 21
1.00000000000004
 31
0.0
  0
LINE
  5
32
330
1C
100
AcDbEntity
  8
0
100
AcDbLine
 10
1.00000000000004
 20
1.00000000000004
 30
0.0
 11
0.0
 21
1.00000000000004
 31
0.0
  0
LINE
  5
33
330
1C
100
AcDbEntity
  8
0
100
AcDbLine
 10
0.0
 20
1.00000000000004
 30
0.0
 11
0.0
 21
0.0
 31
0.0
  0
ENDBLK
  5
34
330
1C
100
AcDbEntity
  8
0
100
AcDbBlockEnd
  0
BLOCK
  5
35
330
1D
100
AcDbEntity
  8
HAIKIN
100
AcDbBlockBegin
  2
SA3
 70
     0
 10
0.0
 20
0.0
 30
0.0
  3
SA3
  1

  0
TEXT
  5
36
330
1D
100
AcDbEntity
  8
SUNPOU
100
AcDbText
 10
340.0
 20
0.0
 30
0.0
 40
2.5
  1
新和コンクリート工業株式会社
100
AcDbText
  0
TEXT
  5
39
330
1D
100
AcDbEntity
  8
SUNPOU
100
AcDbText
 10
361.4166666666667
 20
6.25
 30
0.0
 40
2.5
  1
製図
 72
     4
 11
364.0
 21
7.5
 31
0.0
100
AcDbText
  0
TEXT
  5
3A
330
1D
100
AcDbEntity
  8
SUNPOU
100
AcDbText
 10
361.3333333333333
 20
11.25
 30
0.0
 40
2.5
  1
設計
 72
     4
 11
364.0
 21
12.5
 31
0.0
100
AcDbText
  0
TEXT
  5
3B
330
1D
100
AcDbEntity
  8
SUNPOU
100
AcDbText
 10
339.0833333333333
 20
6.250000000000014
 30
0.0
 40
2.5
  1
認
 72
     4
 11
340.25
 21
7.500000000000014
 31
0.0
100
AcDbText
  0
TEXT
  5
3C
330
1D
100
AcDbEntity
  8
SUNPOU
100
AcDbText
 10
339.0833333333333
 20
11.33333333333336
 30
0.0
 40
2.5
  1
承
 72
     4
 11
340.25
 21
12.50000000000003
 31
0.0
100
AcDbText
  0
TEXT
  5
3D
330
1D
100
AcDbEntity
  8
SUNPOU
100
AcDbText
 10
312.75
 20
11.75000000000001
 30
0.0
 40
2.5
  1
図　面　番　号
 72
     4
 11
323.0
 21
13.00000000000001
 31
0.0
100
AcDbText
  0
TEXT
  5
3E
330
1D
100
AcDbEntity
  8
SUNPOU
100
AcDbText
 10
362.0
 20
17.0
 30
0.0
 40
2.5
  1
１／
100
AcDbText
  0
TEXT
  5
3F
330
1D
100
AcDbEntity
  8
SUNPOU
100
AcDbText
 10
347.3333333333333
 20
16.25000000000001
 30
0.0
 40
2.5
  1
縮　　尺
 72
     4
 11
353.0
 21
17.50000000000001
 31
0.0
100
AcDbText
  0
TEXT
  5
40
330
1D
100
AcDbEntity
  8
SUNPOU
100
AcDbText
 10
347.3333333333333
 20
21.25
 30
0.0
 40
2.5
  1
鉄 筋 量
 72
     4
 11
353.0
 21
22.5
 31
0.0
100
AcDbText
  0
TEXT
  5
41
330
1D
100
AcDbEntity
  8
SUNPOU
100
AcDbText
 10
347.3333333333333
 20
26.25
 30
0.0
 40
2.5
  1
製 造 数
 72
     4
 11
353.0
 21
27.5
 31
0.0
100
AcDbText
  0
TEXT
  5
42
330
1D
100
AcDbEntity
  8
SUNPOU
100
AcDbText
 10
377.0
 20
21.0
 30
0.0
 40
2.5
  1
ｋｇ
 72
     2
 11
382.0
 21
21.0
 31
0.0
100
AcDbText
  0
TEXT
  5
43
330
1D
100
AcDbEntity
  8
SUNPOU
100
AcDbText
 10
339.5
 20
21.0
 30
0.0
 40
2.5
  1
ｋｇ
 72
     2
 11
344.5
 21
21.0
 31
0.0
100
AcDbText
  0
TEXT
  5
44
330
1D
100
AcDbEntity
  8
SUNPOU
100
AcDbText
 10
310.0
 20
16.25000000000001
 30
0.0
 40
2.5
  1
年 月 日
 72
     4
 11
315.5
 21
17.50000000000001
 31
0.0
100
AcDbText
  0
TEXT
  5
45
330
1D
100
AcDbEntity
  8
SUNPOU
100
AcDbText
 10
309.8333333333333
 20
21.25
 30
0.0
 40
2.5
  1
製品質量
 72
     4
 11
315.5
 21
22.5
 31
0.0
100
AcDbText
  0
TEXT
  5
46
330
1D
100
AcDbEntity
  8
SUNPOU
100
AcDbText
 10
309.9166666666667
 20
26.25
 30
0.0
 40
2.5
  1
業 者 名
 72
     4
 11
315.5
 21
27.5
 31
0.0
100
AcDbText
  0
TEXT
  5
47
330
1D
100
AcDbEntity
  8
SUNPOU
100
AcDbText
 10
309.8333333333333
 20
32.5
 30
0.0
 40
2.5
  1
名　　称
 72
     4
 11
315.5
 21
33.75
 31
0.0
100
AcDbText
  0
LINE
  5
48
330
1D
100
AcDbEntity
  8
SUNPOU
100
AcDbLine
 10
338.0
 20
11.00000000000001
 30
0.0
 11
308.0
 21
11.00000000000001
 31
0.0
  0
LINE
  5
49
330
1D
100
AcDbEntity
  8
SUNPOU
100
AcDbLine
 10
367.5
 20
4.999999999999986
 30
0.0
 11
367.5
 21
14.99999999999999
 31
0.0
  0
LINE
  5
4A
330
1D
100
AcDbEntity
  8
SUNPOU
100
AcDbLine
 10
360.5
 20
4.999999999999986
 30
0.0
 11
360.5
 21
14.99999999999999
 31
0.0
  0
LINE
  5
4B
330
1D
100
AcDbEntity
  8
SUNPOU
100
AcDbLine
 10
342.5
 20
4.999999999999995
 30
0.0
 11
342.5
 21
15.0
 31
0.0
  0
LINE
  5
4C
330
1D
100
AcDbEntity
  8
SUNPOU
100
AcDbLine
 10
338.0
 20
4.999999999999995
 30
0.0
 11
338.0
 21
15.0
 31
0.0
  0
LINE
  5
4D
330
1D
100
AcDbEntity
  8
SUNPOU
100
AcDbLine
 10
323.0
 20
15.00000000000001
 30
0.0
 11
323.0
 21
37.5
 31
0.0
  0
LINE
  5
4E
330
1D
100
AcDbEntity
  8
SUNPOU
100
AcDbLine
 10
360.5
 20
15.00000000000001
 30
0.0
 11
360.5
 21
30.0
 31
0.0
  0
LINE
  5
4F
330
1D
100
AcDbEntity
  8
SUNPOU
100
AcDbLine
 10
345.5
 20
15.00000000000001
 30
0.0
 11
345.5
 21
30.0
 31
0.0
  0
LINE
  5
50
330
1D
100
AcDbEntity
  8
SUNPOU
100
AcDbLine
 10
383.0
 20
30.0
 30
0.0
 11
308.0
 21
30.0
 31
0.0
  0
LINE
  5
51
330
1D
100
AcDbEntity
  8
SUNPOU
100
AcDbLine
 10
383.0
 20
25.0
 30
0.0
 11
308.0
 21
25.0
 31
0.0
  0
LINE
  5
52
330
1D
100
AcDbEntity
  8
SUNPOU
100
AcDbLine
 10
383.0
 20
20.0
 30
0.0
 11
308.0
 21
20.0
 31
0.0
  0
LINE
  5
53
330
1D
100
AcDbEntity
  8
SUNPOU
100
AcDbLine
 10
383.0
 20
14.99999999999999
 30
0.0
 11
308.0
 21
15.00000000000004
 31
0.0
  0
LINE
  5
54
330
1D
100
AcDbEntity
  8
HAIKIN
100
AcDbLine
 10
308.0
 20
37.5
 30
0.0
 11
383.0
 21
37.5
 31
0.0
  0
LINE
  5
55
330
1D
100
AcDbEntity
  8
HAIKIN
100
AcDbLine
 10
308.0
 20
5.000000000000009
 30
0.0
 11
308.0
 21
37.5
 31
0.0
  0
LINE
  5
56
330
1D
100
AcDbEntity
  8
SUNPOU
100
AcDbLine
 10
0.000000000000016
 20
277.0
 30
0.0
 11
0.000000000000016
 21
272.0
 31
0.0
  0
LINE
  5
57
330
1D
100
AcDbEntity
  8
SUNPOU
100
AcDbLine
 10
25.00000000000001
 20
277.0
 30
0.0
 11
0.000000000000016
 21
277.0
 31
0.0
  0
LINE
  5
58
330
1D
100
AcDbEntity
  8
SUNPOU
100
AcDbLine
 10
25.00000000000001
 20
272.0
 30
0.0
 11
25.00000000000001
 21
277.0
 31
0.0
  0
LINE
  5
59
330
1D
100
AcDbEntity
  8
HAIKIN
100
AcDbLine
 10
0.0000000000000004
 20
5.0
 30
0.0
 11
383.0
 21
5.0
 31
0.0
  0
LINE
  5
5A
330
1D
100
AcDbEntity
  8
HAIKIN
100
AcDbLine
 10
0.0000000000000158
 20
272.0
 30
0.0
 11
383.0
 21
272.0
 31
0.0
  0
LINE
  5
5B
330
1D
100
AcDbEntity
  8
HAIKIN
100
AcDbLine
 10
383.0
 20
272.0
 30
0.0
 11
383.0
 21
5.0
 31
0.0
  0
TEXT
  5
5C
330
1D
100
AcDbEntity
  8
SUNPOU
100
AcDbText
 10
3.700000000000017
 20
273.0
 30
0.0
 40
3.0
  1
Ｈ－２－共
 72
     4
 11
12.50000000000002
 21
274.5
 31
0.0
100
AcDbText
  0
LINE
  5
5D
330
1D
100
AcDbEntity
  8
HAIKIN
100
AcDbLine
 10
0.0000000000000004
 20
5.0
 30
0.0
 11
0.0000000000000158
 21
272.0
 31
0.0
  0
ENDBLK
  5
5E
330
1D
100
AcDbEntity
  8
HAIKIN
100
AcDbBlockEnd
  0
BLOCK
  5
A3E
330
A34
100
AcDbEntity
  8
0
100
AcDbBlockBegin
  2
*D2
 70
     1
 10
0.0
 20
0.0
 30
0.0
  3
*D2
  1

  0
LINE
  5
149C
330
A34
100
AcDbEntity
  8
SUNPOU
 62
     0
370
    -2
100
AcDbLine
 10
3750.507892500278
 20
3632.054268116341
 30
0.0
 11
3512.717827553406
 21
3632.054268116341
 31
0.0
  0
LINE
  5
149D
330
A34
100
AcDbEntity
  8
SUNPOU
 62
     0
370
    -2
100
AcDbLine
 10
3750.507892500278
 20
4032.054268116341
 30
0.0
 11
3512.717827553406
 21
4032.054268116341
 31
0.0
  0
LINE
  5
149E
330
A34
100
AcDbEntity
  8
SUNPOU
 62
     0
370
    -2
100
AcDbLine
 10
3522.717827553406
 20
3672.054268116341
 30
0.0
 11
3522.717827553406
 21
3992.054268116341
 31
0.0
  0
SOLID
  5
149F
330
A34
100
AcDbEntity
  8
SUNPOU
 62
     0
100
AcDbTrace
 10
3516.05116088674
 20
3672.054268116341
 30
0.0
 11
3529.384494220073
 21
3672.054268116341
 31
0.0
 12
3522.717827553406
 22
3632.054268116341
 32
0.0
 13
3522.717827553406
 23
3632.054268116341
 33
0.0
  0
SOLID
  5
14A0
330
A34
100
AcDbEntity
  8
SUNPOU
 62
     0
100
AcDbTrace
 10
3516.05116088674
 20
3992.054268116341
 30
0.0
 11
3529.384494220073
 21
3992.054268116341
 31
0.0
 12
3522.717827553406
 22
4032.054268116341
 32
0.0
 13
3522.717827553406
 23
4032.054268116341
 33
0.0
  0
MTEXT
  5
14A1
330
A34
100
AcDbEntity
  8
SUNPOU
 62
     0
100
AcDbMText
 10
3476.717827553406
 20
3832.054268116342
 30
0.0
 40
60.0
 41
0.0
 71
     5
 72
     1
  1
\A1;400
 11
6.123031769111886E-17
 21
1.0
 31
0.0
 73
     1
 44
1.0
  0
POINT
  5
14A2
330
A34
100
AcDbEntity
  8
DEFPOINTS
 62
     0
100
AcDbPoint
 10
3790.507892500278
 20
3632.054268116341
 30
0.0
  0
POINT
  5
14A3
330
A34
100
AcDbEntity
  8
DEFPOINTS
 62
     0
100
AcDbPoint
 10
3790.507892500278
 20
4032.054268116341
 30
0.0
  0
POINT
  5
14A4
330
A34
100
AcDbEntity
  8
DEFPOINTS
 62
     0
100
AcDbPoint
 10
3522.717827553406
 20
4032.054268116341
 30
0.0
  0
ENDBLK
  5
A3F
330
A34
100
AcDbEntity
  8
0
100
AcDbBlockEnd
  0
BLOCK
  5
A64
330
A5A
100
AcDbEntity
  8
0
100
AcDbBlockBegin
  2
*D3
 70
     1
 10
0.0
 20
0.0
 30
0.0
  3
*D3
  1

  0
LINE
  5
15C5
330
A5A
100
AcDbEntity
  8
SUNPOU
 62
     0
370
    -2
100
AcDbLine
 10
3750.507892500278
 20
2177.59506464578
 30
0.0
 11
3436.094939877974
 21
2177.59506464578
 31
0.0
  0
LINE
  5
15C6
330
A5A
100
AcDbEntity
  8
SUNPOU
 62
     0
370
    -2
100
AcDbLine
 10
3750.507892500278
 20
1974.09506464578
 30
0.0
 11
3436.094939877974
 21
1974.095064645781
 31
0.0
  0
LINE
  5
15C7
330
A5A
100
AcDbEntity
  8
SUNPOU
 62
     0
370
    -2
100
AcDbLine
 10
3446.094939877974
 20
2137.59506464578
 30
0.0
 11
3446.094939877974
 21
2014.095064645781
 31
0.0
  0
SOLID
  5
15C8
330
A5A
100
AcDbEntity
  8
SUNPOU
 62
     0
100
AcDbTrace
 10
3439.428273211307
 20
2137.59506464578
 30
0.0
 11
3452.76160654464
 21
2137.59506464578
 31
0.0
 12
3446.094939877974
 22
2177.59506464578
 32
0.0
 13
3446.094939877974
 23
2177.59506464578
 33
0.0
  0
SOLID
  5
15C9
330
A5A
100
AcDbEntity
  8
SUNPOU
 62
     0
100
AcDbTrace
 10
3439.428273211307
 20
2014.095064645781
 30
0.0
 11
3452.76160654464
 21
2014.095064645781
 31
0.0
 12
3446.094939877974
 22
1974.095064645781
 32
0.0
 13
3446.094939877974
 23
1974.095064645781
 33
0.0
  0
MTEXT
  5
15CA
330
A5A
100
AcDbEntity
  8
SUNPOU
 62
     0
100
AcDbMText
 10
3400.094939877974
 20
2075.845064645781
 30
0.0
 40
60.0
 41
0.0
 71
     5
 72
     1
  1
\A1;204
 11
6.123031769111886E-17
 21
1.0
 31
0.0
 73
     1
 44
1.0
  0
POINT
  5
15CB
330
A5A
100
AcDbEntity
  8
DEFPOINTS
 62
     0
100
AcDbPoint
 10
3790.507892500278
 20
2177.59506464578
 30
0.0
  0
POINT
  5
15CC
330
A5A
100
AcDbEntity
  8
DEFPOINTS
 62
     0
100
AcDbPoint
 10
3790.507892500278
 20
1974.09506464578
 30
0.0
  0
POINT
  5
15CD
330
A5A
100
AcDbEntity
  8
DEFPOINTS
 62
     0
100
AcDbPoint
 10
3446.094939877974
 20
1974.095064645781
 30
0.0
  0
ENDBLK
  5
A65
330
A5A
100
AcDbEntity
  8
0
100
AcDbBlockEnd
  0
BLOCK
  5
A70
330
A66
100
AcDbEntity
  8
0
100
AcDbBlockBegin
  2
*D4
 70
     1
 10
0.0
 20
0.0
 30
0.0
  3
*D4
  1

  0
LINE
  5
15BB
330
A66
100
AcDbEntity
  8
SUNPOU
 62
     0
370
    -2
100
AcDbLine
 10
3750.507892500278
 20
1974.09506464578
 30
0.0
 11
3436.094939877974
 21
1974.095064645781
 31
0.0
  0
LINE
  5
15BC
330
A66
100
AcDbEntity
  8
SUNPOU
 62
     0
370
    -2
100
AcDbLine
 10
3800.507892500278
 20
1887.492524267338
 30
0.0
 11
3436.094939877974
 21
1887.492524267339
 31
0.0
  0
LINE
  5
15BD
330
A66
100
AcDbEntity
  8
SUNPOU
 62
     0
370
    -2
100
AcDbLine
 10
3446.094939877974
 20
2014.095064645781
 30
0.0
 11
3446.094939877974
 21
2054.09506464578
 31
0.0
  0
LINE
  5
15BE
330
A66
100
AcDbEntity
  8
SUNPOU
 62
     0
370
    -2
100
AcDbLine
 10
3446.094939877974
 20
1847.492524267339
 30
0.0
 11
3446.094939877974
 21
1807.492524267339
 31
0.0
  0
SOLID
  5
15BF
330
A66
100
AcDbEntity
  8
SUNPOU
 62
     0
100
AcDbTrace
 10
3439.428273211307
 20
2014.095064645781
 30
0.0
 11
3452.76160654464
 21
2014.095064645781
 31
0.0
 12
3446.094939877974
 22
1974.095064645781
 32
0.0
 13
3446.094939877974
 23
1974.095064645781
 33
0.0
  0
SOLID
  5
15C0
330
A66
100
AcDbEntity
  8
SUNPOU
 62
     0
100
AcDbTrace
 10
3439.428273211307
 20
1847.492524267339
 30
0.0
 11
3452.76160654464
 21
1847.492524267339
 31
0.0
 12
3446.094939877974
 22
1887.492524267339
 32
0.0
 13
3446.094939877974
 23
1887.492524267339
 33
0.0
  0
MTEXT
  5
15C1
330
A66
100
AcDbEntity
  8
SUNPOU
 62
     0
100
AcDbMText
 10
3400.094939877974
 20
1930.79379445656
 30
0.0
 40
60.0
 41
0.0
 71
     5
 72
     1
  1
\A1;87
 11
6.123031769111886E-17
 21
1.0
 31
0.0
 73
     1
 44
1.0
  0
POINT
  5
15C2
330
A66
100
AcDbEntity
  8
DEFPOINTS
 62
     0
100
AcDbPoint
 10
3790.507892500278
 20
1974.09506464578
 30
0.0
  0
POINT
  5
15C3
330
A66
100
AcDbEntity
  8
DEFPOINTS
 62
     0
100
AcDbPoint
 10
3840.507892500278
 20
1887.492524267338
 30
0.0
  0
POINT
  5
15C4
330
A66
100
AcDbEntity
  8
DEFPOINTS
 62
     0
100
AcDbPoint
 10
3446.094939877974
 20
1887.492524267339
 30
0.0
  0
ENDBLK
  5
A71
330
A66
100
AcDbEntity
  8
0
100
AcDbBlockEnd
  0
BLOCK
  5
A7C
330
A72
100
AcDbEntity
  8
0
100
AcDbBlockBegin
  2
*D5
 70
     1
 10
0.0
 20
0.0
 30
0.0
  3
*D5
  1

  0
LINE
  5
14B8
330
A72
100
AcDbEntity
  8
SUNPOU
 62
     0
370
    -2
100
AcDbLine
 10
3790.507892500278
 20
3592.054268116341
 30
0.0
 11
3790.507892500278
 21
3100.769945161714
 31
0.0
  0
LINE
  5
14B9
330
A72
100
AcDbEntity
  8
SUNPOU
 62
     0
370
    -2
100
AcDbLine
 10
5790.507892500278
 20
3592.054268116341
 30
0.0
 11
5790.507892500278
 21
3100.769945161714
 31
0.0
  0
LINE
  5
14BA
330
A72
100
AcDbEntity
  8
SUNPOU
 62
     0
370
    -2
100
AcDbLine
 10
3830.507892500278
 20
3110.769945161714
 30
0.0
 11
5750.507892500278
 21
3110.769945161714
 31
0.0
  0
SOLID
  5
14BB
330
A72
100
AcDbEntity
  8
SUNPOU
 62
     0
100
AcDbTrace
 10
3830.507892500278
 20
3117.43661182838
 30
0.0
 11
3830.507892500278
 21
3104.103278495047
 31
0.0
 12
3790.507892500278
 22
3110.769945161714
 32
0.0
 13
3790.507892500278
 23
3110.769945161714
 33
0.0
  0
SOLID
  5
14BC
330
A72
100
AcDbEntity
  8
SUNPOU
 62
     0
100
AcDbTrace
 10
5750.507892500278
 20
3117.43661182838
 30
0.0
 11
5750.507892500278
 21
3104.103278495047
 31
0.0
 12
5790.507892500278
 22
3110.769945161714
 32
0.0
 13
5790.507892500278
 23
3110.769945161714
 33
0.0
  0
MTEXT
  5
14BD
330
A72
100
AcDbEntity
  8
SUNPOU
 62
     0
100
AcDbMText
 10
4790.507892500278
 20
3156.769945161714
 30
0.0
 40
60.0
 41
0.0
 71
     5
 72
     1
  1
\A1;2000
 73
     1
 44
1.0
  0
POINT
  5
14BE
330
A72
100
AcDbEntity
  8
DEFPOINTS
 62
     0
100
AcDbPoint
 10
3790.507892500278
 20
3632.054268116341
 30
0.0
  0
POINT
  5
14BF
330
A72
100
AcDbEntity
  8
DEFPOINTS
 62
     0
100
AcDbPoint
 10
5790.507892500278
 20
3632.054268116341
 30
0.0
  0
POINT
  5
14C0
330
A72
100
AcDbEntity
  8
DEFPOINTS
 62
     0
100
AcDbPoint
 10
5790.507892500278
 20
3110.769945161714
 30
0.0
  0
ENDBLK
  5
A7D
330
A72
100
AcDbEntity
  8
0
100
AcDbBlockEnd
  0
BLOCK
  5
A88
330
A7E
100
AcDbEntity
  8
0
100
AcDbBlockBegin
  2
*D6
 70
     1
 10
0.0
 20
0.0
 30
0.0
  3
*D6
  1

  0
LINE
  5
14C1
330
A7E
100
AcDbEntity
  8
SUNPOU
 62
     0
370
    -2
100
AcDbLine
 10
5790.507892500278
 20
3592.054268116341
 30
0.0
 11
5790.507892500278
 21
3234.124480896369
 31
0.0
  0
LINE
  5
14C2
330
A7E
100
AcDbEntity
  8
SUNPOU
 62
     0
370
    -2
100
AcDbLine
 10
5290.507892500278
 20
3592.054268116341
 30
0.0
 11
5290.507892500278
 21
3234.124480896369
 31
0.0
  0
LINE
  5
14C3
330
A7E
100
AcDbEntity
  8
SUNPOU
 62
     0
370
    -2
100
AcDbLine
 10
5750.507892500278
 20
3244.124480896369
 30
0.0
 11
5330.507892500278
 21
3244.124480896369
 31
0.0
  0
SOLID
  5
14C4
330
A7E
100
AcDbEntity
  8
SUNPOU
 62
     0
100
AcDbTrace
 10
5750.507892500278
 20
3250.791147563036
 30
0.0
 11
5750.507892500278
 21
3237.457814229703
 31
0.0
 12
5790.507892500278
 22
3244.124480896369
 32
0.0
 13
5790.507892500278
 23
3244.124480896369
 33
0.0
  0
SOLID
  5
14C5
330
A7E
100
AcDbEntity
  8
SUNPOU
 62
     0
100
AcDbTrace
 10
5330.507892500278
 20
3250.791147563036
 30
0.0
 11
5330.507892500278
 21
3237.457814229703
 31
0.0
 12
5290.507892500278
 22
3244.124480896369
 32
0.0
 13
5290.507892500278
 23
3244.124480896369
 33
0.0
  0
MTEXT
  5
14C6
330
A7E
100
AcDbEntity
  8
SUNPOU
 62
     0
100
AcDbMText
 10
5540.507892500278
 20
3290.124480896369
 30
0.0
 40
60.0
 41
0.0
 71
     5
 72
     1
  1
\A1;500
 73
     1
 44
1.0
  0
POINT
  5
14C7
330
A7E
100
AcDbEntity
  8
DEFPOINTS
 62
     0
100
AcDbPoint
 10
5790.507892500278
 20
3632.054268116341
 30
0.0
  0
POINT
  5
14C8
330
A7E
100
AcDbEntity
  8
DEFPOINTS
 62
     0
100
AcDbPoint
 10
5290.507892500278
 20
3632.054268116341
 30
0.0
  0
POINT
  5
14C9
330
A7E
100
AcDbEntity
  8
DEFPOINTS
 62
     0
100
AcDbPoint
 10
5290.507892500278
 20
3244.124480896369
 30
0.0
  0
ENDBLK
  5
A89
330
A7E
100
AcDbEntity
  8
0
100
AcDbBlockEnd
  0
BLOCK
  5
A94
330
A8A
100
AcDbEntity
  8
0
100
AcDbBlockBegin
  2
*D7
 70
     1
 10
0.0
 20
0.0
 30
0.0
  3
*D7
  1

  0
LINE
  5
14CA
330
A8A
100
AcDbEntity
  8
SUNPOU
 62
     0
370
    -2
100
AcDbLine
 10
4790.507892500279
 20
3492.054268116341
 30
0.0
 11
4790.507892500279
 21
3234.124480896369
 31
0.0
  0
LINE
  5
14CB
330
A8A
100
AcDbEntity
  8
SUNPOU
 62
     0
370
    -2
100
AcDbLine
 10
5290.507892500278
 20
3592.054268116341
 30
0.0
 11
5290.507892500278
 21
3234.124480896369
 31
0.0
  0
LINE
  5
14CC
330
A8A
100
AcDbEntity
  8
SUNPOU
 62
     0
370
    -2
100
AcDbLine
 10
4830.507892500279
 20
3244.124480896369
 30
0.0
 11
5250.507892500278
 21
3244.124480896369
 31
0.0
  0
SOLID
  5
14CD
330
A8A
100
AcDbEntity
  8
SUNPOU
 62
     0
100
AcDbTrace
 10
4830.507892500279
 20
3250.791147563036
 30
0.0
 11
4830.507892500279
 21
3237.457814229703
 31
0.0
 12
4790.507892500279
 22
3244.124480896369
 32
0.0
 13
4790.507892500279
 23
3244.124480896369
 33
0.0
  0
SOLID
  5
14CE
330
A8A
100
AcDbEntity
  8
SUNPOU
 62
     0
100
AcDbTrace
 10
5250.507892500278
 20
3250.791147563036
 30
0.0
 11
5250.507892500278
 21
3237.457814229703
 31
0.0
 12
5290.507892500278
 22
3244.124480896369
 32
0.0
 13
5290.507892500278
 23
3244.124480896369
 33
0.0
  0
MTEXT
  5
14CF
330
A8A
100
AcDbEntity
  8
SUNPOU
 62
     0
100
AcDbMText
 10
5040.507892500278
 20
3290.124480896369
 30
0.0
 40
60.0
 41
0.0
 71
     5
 72
     1
  1
\A1;500
 73
     1
 44
1.0
  0
POINT
  5
14D0
330
A8A
100
AcDbEntity
  8
DEFPOINTS
 62
     0
100
AcDbPoint
 10
4790.507892500279
 20
3532.054268116341
 30
0.0
  0
POINT
  5
14D1
330
A8A
100
AcDbEntity
  8
DEFPOINTS
 62
     0
100
AcDbPoint
 10
5290.507892500278
 20
3632.054268116341
 30
0.0
  0
POINT
  5
14D2
330
A8A
100
AcDbEntity
  8
DEFPOINTS
 62
     0
100
AcDbPoint
 10
5290.507892500278
 20
3244.124480896369
 30
0.0
  0
ENDBLK
  5
A95
330
A8A
100
AcDbEntity
  8
0
100
AcDbBlockEnd
  0
BLOCK
  5
AA0
330
A96
100
AcDbEntity
  8
0
100
AcDbBlockBegin
  2
*D8
 70
     1
 10
0.0
 20
0.0
 30
0.0
  3
*D8
  1

  0
LINE
  5
14D3
330
A96
100
AcDbEntity
  8
SUNPOU
 62
     0
370
    -2
100
AcDbLine
 10
4790.507892500279
 20
3492.054268116341
 30
0.0
 11
4790.507892500279
 21
3234.124480896369
 31
0.0
  0
LINE
  5
14D4
330
A96
100
AcDbEntity
  8
SUNPOU
 62
     0
370
    -2
100
AcDbLine
 10
4290.50789250028
 20
3592.05426811634
 30
0.0
 11
4290.50789250028
 21
3234.124480896369
 31
0.0
  0
LINE
  5
14D5
330
A96
100
AcDbEntity
  8
SUNPOU
 62
     0
370
    -2
100
AcDbLine
 10
4750.507892500279
 20
3244.124480896369
 30
0.0
 11
4330.50789250028
 21
3244.124480896369
 31
0.0
  0
SOLID
  5
14D6
330
A96
100
AcDbEntity
  8
SUNPOU
 62
     0
100
AcDbTrace
 10
4750.507892500279
 20
3250.791147563036
 30
0.0
 11
4750.507892500279
 21
3237.457814229703
 31
0.0
 12
4790.507892500279
 22
3244.124480896369
 32
0.0
 13
4790.507892500279
 23
3244.124480896369
 33
0.0
  0
SOLID
  5
14D7
330
A96
100
AcDbEntity
  8
SUNPOU
 62
     0
100
AcDbTrace
 10
4330.50789250028
 20
3250.791147563036
 30
0.0
 11
4330.50789250028
 21
3237.457814229703
 31
0.0
 12
4290.50789250028
 22
3244.124480896369
 32
0.0
 13
4290.50789250028
 23
3244.124480896369
 33
0.0
  0
MTEXT
  5
14D8
330
A96
100
AcDbEntity
  8
SUNPOU
 62
     0
100
AcDbMText
 10
4540.50789250028
 20
3290.124480896369
 30
0.0
 40
60.0
 41
0.0
 71
     5
 72
     1
  1
\A1;500
 73
     1
 44
1.0
  0
POINT
  5
14D9
330
A96
100
AcDbEntity
  8
DEFPOINTS
 62
     0
100
AcDbPoint
 10
4790.507892500279
 20
3532.054268116341
 30
0.0
  0
POINT
  5
14DA
330
A96
100
AcDbEntity
  8
DEFPOINTS
 62
     0
100
AcDbPoint
 10
4290.50789250028
 20
3632.05426811634
 30
0.0
  0
POINT
  5
14DB
330
A96
100
AcDbEntity
  8
DEFPOINTS
 62
     0
100
AcDbPoint
 10
4290.50789250028
 20
3244.124480896369
 30
0.0
  0
ENDBLK
  5
AA1
330
A96
100
AcDbEntity
  8
0
100
AcDbBlockEnd
  0
BLOCK
  5
AAC
330
AA2
100
AcDbEntity
  8
0
100
AcDbBlockBegin
  2
*D9
 70
     1
 10
0.0
 20
0.0
 30
0.0
  3
*D9
  1

  0
LINE
  5
14DC
330
AA2
100
AcDbEntity
  8
SUNPOU
 62
     0
370
    -2
100
AcDbLine
 10
3790.50789250028
 20
3592.054268116339
 30
0.0
 11
3790.50789250028
 21
3234.124480896369
 31
0.0
  0
LINE
  5
14DD
330
AA2
100
AcDbEntity
  8
SUNPOU
 62
     0
370
    -2
100
AcDbLine
 10
4290.50789250028
 20
3592.05426811634
 30
0.0
 11
4290.50789250028
 21
3234.124480896369
 31
0.0
  0
LINE
  5
14DE
330
AA2
100
AcDbEntity
  8
SUNPOU
 62
     0
370
    -2
100
AcDbLine
 10
3830.50789250028
 20
3244.124480896369
 30
0.0
 11
4250.50789250028
 21
3244.124480896369
 31
0.0
  0
SOLID
  5
14DF
330
AA2
100
AcDbEntity
  8
SUNPOU
 62
     0
100
AcDbTrace
 10
3830.50789250028
 20
3250.791147563036
 30
0.0
 11
3830.50789250028
 21
3237.457814229703
 31
0.0
 12
3790.50789250028
 22
3244.124480896369
 32
0.0
 13
3790.50789250028
 23
3244.124480896369
 33
0.0
  0
SOLID
  5
14E0
330
AA2
100
AcDbEntity
  8
SUNPOU
 62
     0
100
AcDbTrace
 10
4250.50789250028
 20
3250.791147563036
 30
0.0
 11
4250.50789250028
 21
3237.457814229703
 31
0.0
 12
4290.50789250028
 22
3244.124480896369
 32
0.0
 13
4290.50789250028
 23
3244.124480896369
 33
0.0
  0
MTEXT
  5
14E1
330
AA2
100
AcDbEntity
  8
SUNPOU
 62
     0
100
AcDbMText
 10
4040.50789250028
 20
3290.124480896369
 30
0.0
 40
60.0
 41
0.0
 71
     5
 72
     1
  1
\A1;500
 73
     1
 44
1.0
  0
POINT
  5
14E2
330
AA2
100
AcDbEntity
  8
DEFPOINTS
 62
     0
100
AcDbPoint
 10
3790.50789250028
 20
3632.054268116339
 30
0.0
  0
POINT
  5
14E3
330
AA2
100
AcDbEntity
  8
DEFPOINTS
 62
     0
100
AcDbPoint
 10
4290.50789250028
 20
3632.05426811634
 30
0.0
  0
POINT
  5
14E4
330
AA2
100
AcDbEntity
  8
DEFPOINTS
 62
     0
100
AcDbPoint
 10
4290.50789250028
 20
3244.124480896369
 30
0.0
  0
ENDBLK
  5
AAD
330
AA2
100
AcDbEntity
  8
0
100
AcDbBlockEnd
  0
BLOCK
  5
AB8
330
AAE
100
AcDbEntity
  8
0
100
AcDbBlockBegin
  2
*D10
 70
     1
 10
0.0
 20
0.0
 30
0.0
  3
*D10
  1

  0
LINE
  5
14E5
330
AAE
100
AcDbEntity
  8
SUNPOU
 62
     0
370
    -2
100
AcDbLine
 10
3840.507892500278
 20
1387.59506464578
 30
0.0
 11
3840.507892500278
 21
1005.345545304173
 31
0.0
  0
LINE
  5
14E6
330
AAE
100
AcDbEntity
  8
SUNPOU
 62
     0
370
    -2
100
AcDbLine
 10
5740.507892500276
 20
1387.59506464578
 30
0.0
 11
5740.507892500276
 21
1005.345545304173
 31
0.0
  0
LINE
  5
14E7
330
AAE
100
AcDbEntity
  8
SUNPOU
 62
     0
370
    -2
100
AcDbLine
 10
3880.507892500278
 20
1015.345545304173
 30
0.0
 11
5700.507892500276
 21
1015.345545304173
 31
0.0
  0
SOLID
  5
14E8
330
AAE
100
AcDbEntity
  8
SUNPOU
 62
     0
100
AcDbTrace
 10
3880.507892500278
 20
1022.01221197084
 30
0.0
 11
3880.507892500278
 21
1008.678878637507
 31
0.0
 12
3840.507892500278
 22
1015.345545304173
 32
0.0
 13
3840.507892500278
 23
1015.345545304173
 33
0.0
  0
SOLID
  5
14E9
330
AAE
100
AcDbEntity
  8
SUNPOU
 62
     0
100
AcDbTrace
 10
5700.507892500276
 20
1022.01221197084
 30
0.0
 11
5700.507892500276
 21
1008.678878637507
 31
0.0
 12
5740.507892500276
 22
1015.345545304173
 32
0.0
 13
5740.507892500276
 23
1015.345545304173
 33
0.0
  0
MTEXT
  5
14EA
330
AAE
100
AcDbEntity
  8
SUNPOU
 62
     0
100
AcDbMText
 10
4790.507892500277
 20
1061.345545304173
 30
0.0
 40
60.0
 41
0.0
 71
     5
 72
     1
  1
\A1;1900
 73
     1
 44
1.0
  0
POINT
  5
14EB
330
AAE
100
AcDbEntity
  8
DEFPOINTS
 62
     0
100
AcDbPoint
 10
3840.507892500278
 20
1427.59506464578
 30
0.0
  0
POINT
  5
14EC
330
AAE
100
AcDbEntity
  8
DEFPOINTS
 62
     0
100
AcDbPoint
 10
5740.507892500276
 20
1427.59506464578
 30
0.0
  0
POINT
  5
14ED
330
AAE
100
AcDbEntity
  8
DEFPOINTS
 62
     0
100
AcDbPoint
 10
5740.507892500276
 20
1015.345545304173
 30
0.0
  0
ENDBLK
  5
AB9
330
AAE
100
AcDbEntity
  8
0
100
AcDbBlockEnd
  0
BLOCK
  5
B1C
330
B12
100
AcDbEntity
  8
0
100
AcDbBlockBegin
  2
*D11
 70
     1
 10
0.0
 20
0.0
 30
0.0
  3
*D11
  1

  0
LINE
  5
14EE
330
B12
100
AcDbEntity
  8
SUNPOU
 62
     0
370
    -2
100
AcDbLine
 10
3790.507892500278
 20
2217.595064645781
 30
0.0
 11
3790.507892500278
 21
2556.87972975979
 31
0.0
  0
LINE
  5
14EF
330
B12
100
AcDbEntity
  8
SUNPOU
 62
     0
370
    -2
100
AcDbLine
 10
5790.507892500278
 20
2217.59506464578
 30
0.0
 11
5790.507892500278
 21
2556.87972975979
 31
0.0
  0
LINE
  5
14F0
330
B12
100
AcDbEntity
  8
SUNPOU
 62
     0
370
    -2
100
AcDbLine
 10
3830.507892500278
 20
2546.87972975979
 30
0.0
 11
5750.507892500278
 21
2546.87972975979
 31
0.0
  0
SOLID
  5
14F1
330
B12
100
AcDbEntity
  8
SUNPOU
 62
     0
100
AcDbTrace
 10
3830.507892500278
 20
2553.546396426457
 30
0.0
 11
3830.507892500278
 21
2540.213063093124
 31
0.0
 12
3790.507892500278
 22
2546.87972975979
 32
0.0
 13
3790.507892500278
 23
2546.87972975979
 33
0.0
  0
SOLID
  5
14F2
330
B12
100
AcDbEntity
  8
SUNPOU
 62
     0
100
AcDbTrace
 10
5750.507892500278
 20
2553.546396426457
 30
0.0
 11
5750.507892500278
 21
2540.213063093124
 31
0.0
 12
5790.507892500278
 22
2546.87972975979
 32
0.0
 13
5790.507892500278
 23
2546.87972975979
 33
0.0
  0
MTEXT
  5
14F3
330
B12
100
AcDbEntity
  8
SUNPOU
 62
     0
100
AcDbMText
 10
4790.507892500278
 20
2592.87972975979
 30
0.0
 40
60.0
 41
0.0
 71
     5
 72
     1
  1
\A1;2000
 73
     1
 44
1.0
  0
POINT
  5
14F4
330
B12
100
AcDbEntity
  8
DEFPOINTS
 62
     0
100
AcDbPoint
 10
3790.507892500278
 20
2177.595064645781
 30
0.0
  0
POINT
  5
14F5
330
B12
100
AcDbEntity
  8
DEFPOINTS
 62
     0
100
AcDbPoint
 10
5790.507892500278
 20
2177.59506464578
 30
0.0
  0
POINT
  5
14F6
330
B12
100
AcDbEntity
  8
DEFPOINTS
 62
     0
100
AcDbPoint
 10
5790.507892500278
 20
2546.87972975979
 30
0.0
  0
ENDBLK
  5
B1D
330
B12
100
AcDbEntity
  8
0
100
AcDbBlockEnd
  0
BLOCK
  5
B42
330
B38
100
AcDbEntity
  8
0
100
AcDbBlockBegin
  2
*D12
 70
     1
 10
0.0
 20
0.0
 30
0.0
  3
*D12
  1

  0
LINE
  5
14F7
330
B38
100
AcDbEntity
  8
SUNPOU
 62
     0
370
    -2
100
AcDbLine
 10
1687.964015237481
 20
3632.054268116341
 30
0.0
 11
1083.713318983642
 21
3632.054268116341
 31
0.0
  0
LINE
  5
14F8
330
B38
100
AcDbEntity
  8
SUNPOU
 62
     0
370
    -2
100
AcDbLine
 10
1687.964015237481
 20
4382.054268116341
 30
0.0
 11
1083.713318983642
 21
4382.054268116341
 31
0.0
  0
LINE
  5
14F9
330
B38
100
AcDbEntity
  8
SUNPOU
 62
     0
370
    -2
100
AcDbLine
 10
1093.713318983642
 20
3672.054268116341
 30
0.0
 11
1093.713318983642
 21
4342.054268116341
 31
0.0
  0
SOLID
  5
14FA
330
B38
100
AcDbEntity
  8
SUNPOU
 62
     0
100
AcDbTrace
 10
1087.046652316975
 20
3672.054268116341
 30
0.0
 11
1100.379985650309
 21
3672.054268116341
 31
0.0
 12
1093.713318983642
 22
3632.054268116341
 32
0.0
 13
1093.713318983642
 23
3632.054268116341
 33
0.0
  0
SOLID
  5
14FB
330
B38
100
AcDbEntity
  8
SUNPOU
 62
     0
100
AcDbTrace
 10
1087.046652316975
 20
4342.054268116341
 30
0.0
 11
1100.379985650309
 21
4342.054268116341
 31
0.0
 12
1093.713318983642
 22
4382.054268116341
 32
0.0
 13
1093.713318983642
 23
4382.054268116341
 33
0.0
  0
MTEXT
  5
14FC
330
B38
100
AcDbEntity
  8
SUNPOU
 62
     0
100
AcDbMText
 10
1047.713318983642
 20
4007.054268116341
 30
0.0
 40
60.0
 41
0.0
 71
     5
 72
     1
  1
\A1;750
 11
6.123031769111886E-17
 21
1.0
 31
0.0
 73
     1
 44
1.0
  0
POINT
  5
14FD
330
B38
100
AcDbEntity
  8
DEFPOINTS
 62
     0
100
AcDbPoint
 10
1727.964015237481
 20
3632.054268116341
 30
0.0
  0
POINT
  5
14FE
330
B38
100
AcDbEntity
  8
DEFPOINTS
 62
     0
100
AcDbPoint
 10
1727.964015237481
 20
4382.054268116341
 30
0.0
  0
POINT
  5
14FF
330
B38
100
AcDbEntity
  8
DEFPOINTS
 62
     0
100
AcDbPoint
 10
1093.713318983642
 20
4382.054268116341
 30
0.0
  0
ENDBLK
  5
B43
330
B38
100
AcDbEntity
  8
0
100
AcDbBlockEnd
  0
BLOCK
  5
B4E
330
B44
100
AcDbEntity
  8
0
100
AcDbBlockBegin
  2
*D13
 70
     1
 10
0.0
 20
0.0
 30
0.0
  3
*D13
  1

  0
LINE
  5
1500
330
B44
100
AcDbEntity
  8
SUNPOU
 62
     0
370
    -2
100
AcDbLine
 10
1687.964015237481
 20
4382.054268116341
 30
0.0
 11
1215.722531930696
 21
4382.054268116341
 31
0.0
  0
LINE
  5
1501
330
B44
100
AcDbEntity
  8
SUNPOU
 62
     0
370
    -2
100
AcDbLine
 10
1687.964015237481
 20
3742.054268116341
 30
0.0
 11
1215.722531930696
 21
3742.054268116341
 31
0.0
  0
LINE
  5
1502
330
B44
100
AcDbEntity
  8
SUNPOU
 62
     0
370
    -2
100
AcDbLine
 10
1225.722531930696
 20
4342.054268116341
 30
0.0
 11
1225.722531930696
 21
3782.054268116341
 31
0.0
  0
SOLID
  5
1503
330
B44
100
AcDbEntity
  8
SUNPOU
 62
     0
100
AcDbTrace
 10
1219.05586526403
 20
4342.054268116341
 30
0.0
 11
1232.389198597363
 21
4342.054268116341
 31
0.0
 12
1225.722531930696
 22
4382.054268116341
 32
0.0
 13
1225.722531930696
 23
4382.054268116341
 33
0.0
  0
SOLID
  5
1504
330
B44
100
AcDbEntity
  8
SUNPOU
 62
     0
100
AcDbTrace
 10
1219.05586526403
 20
3782.054268116341
 30
0.0
 11
1232.389198597363
 21
3782.054268116341
 31
0.0
 12
1225.722531930696
 22
3742.054268116341
 32
0.0
 13
1225.722531930696
 23
3742.054268116341
 33
0.0
  0
MTEXT
  5
1505
330
B44
100
AcDbEntity
  8
SUNPOU
 62
     0
100
AcDbMText
 10
1179.722531930696
 20
4062.054268116341
 30
0.0
 40
60.0
 41
0.0
 71
     5
 72
     1
  1
\A1;640
 11
6.123031769111886E-17
 21
1.0
 31
0.0
 73
     1
 44
1.0
  0
POINT
  5
1506
330
B44
100
AcDbEntity
  8
DEFPOINTS
 62
     0
100
AcDbPoint
 10
1727.964015237481
 20
4382.054268116341
 30
0.0
  0
POINT
  5
1507
330
B44
100
AcDbEntity
  8
DEFPOINTS
 62
     0
100
AcDbPoint
 10
1727.964015237481
 20
3742.054268116341
 30
0.0
  0
POINT
  5
1508
330
B44
100
AcDbEntity
  8
DEFPOINTS
 62
     0
100
AcDbPoint
 10
1225.722531930696
 20
3742.054268116341
 30
0.0
  0
ENDBLK
  5
B4F
330
B44
100
AcDbEntity
  8
0
100
AcDbBlockEnd
  0
BLOCK
  5
B66
330
B5C
100
AcDbEntity
  8
0
100
AcDbBlockBegin
  2
*D14
 70
     1
 10
0.0
 20
0.0
 30
0.0
  3
*D14
  1

  0
LINE
  5
1509
330
B5C
100
AcDbEntity
  8
SUNPOU
 62
     0
370
    -2
100
AcDbLine
 10
1837.964015237481
 20
4322.054268116341
 30
0.0
 11
2787.964015237481
 21
4322.05426811634
 31
0.0
  0
LINE
  5
150A
330
B5C
100
AcDbEntity
  8
SUNPOU
 62
     0
370
    -2
100
AcDbLine
 10
2517.964015237481
 20
3702.054268116342
 30
0.0
 11
2787.964015237481
 21
3702.054268116342
 31
0.0
  0
LINE
  5
150B
330
B5C
100
AcDbEntity
  8
SUNPOU
 62
     0
370
    -2
100
AcDbLine
 10
2777.964015237481
 20
4282.05426811634
 30
0.0
 11
2777.964015237481
 21
3742.054268116342
 31
0.0
  0
SOLID
  5
150C
330
B5C
100
AcDbEntity
  8
SUNPOU
 62
     0
100
AcDbTrace
 10
2771.297348570815
 20
4282.05426811634
 30
0.0
 11
2784.630681904148
 21
4282.05426811634
 31
0.0
 12
2777.964015237481
 22
4322.05426811634
 32
0.0
 13
2777.964015237481
 23
4322.05426811634
 33
0.0
  0
SOLID
  5
150D
330
B5C
100
AcDbEntity
  8
SUNPOU
 62
     0
100
AcDbTrace
 10
2771.297348570815
 20
3742.054268116342
 30
0.0
 11
2784.630681904148
 21
3742.054268116342
 31
0.0
 12
2777.964015237481
 22
3702.054268116342
 32
0.0
 13
2777.964015237481
 23
3702.054268116342
 33
0.0
  0
MTEXT
  5
150E
330
B5C
100
AcDbEntity
  8
SUNPOU
 62
     0
100
AcDbMText
 10
2731.964015237481
 20
4012.054268116342
 30
0.0
 40
60.0
 41
0.0
 71
     5
 72
     1
  1
\A1;620
 11
6.123031769111886E-17
 21
1.0
 31
0.0
 73
     1
 44
1.0
  0
POINT
  5
150F
330
B5C
100
AcDbEntity
  8
DEFPOINTS
 62
     0
100
AcDbPoint
 10
1797.964015237481
 20
4322.054268116341
 30
0.0
  0
POINT
  5
1510
330
B5C
100
AcDbEntity
  8
DEFPOINTS
 62
     0
100
AcDbPoint
 10
2477.964015237481
 20
3702.054268116342
 30
0.0
  0
POINT
  5
1511
330
B5C
100
AcDbEntity
  8
DEFPOINTS
 62
     0
100
AcDbPoint
 10
2777.964015237481
 20
3702.054268116342
 30
0.0
  0
ENDBLK
  5
B67
330
B5C
100
AcDbEntity
  8
0
100
AcDbBlockEnd
  0
BLOCK
  5
B73
330
B68
100
AcDbEntity
  8
0
100
AcDbBlockBegin
  2
*D15
 70
     1
 10
0.0
 20
0.0
 30
0.0
  3
*D15
  1

  0
LINE
  5
1512
330
B68
100
AcDbEntity
  8
SUNPOU
 62
     0
370
    -2
100
AcDbLine
 10
1837.964015237481
 20
4382.054268116341
 30
0.0
 11
2787.964015237481
 21
4382.05426811634
 31
0.0
  0
LINE
  5
1513
330
B68
100
AcDbEntity
  8
SUNPOU
 62
     0
370
    -2
100
AcDbLine
 10
1837.964015237481
 20
4322.054268116341
 30
0.0
 11
2787.964015237481
 21
4322.05426811634
 31
0.0
  0
LINE
  5
1514
330
B68
100
AcDbEntity
  8
SUNPOU
 62
     0
370
    -2
100
AcDbLine
 10
2777.964015237481
 20
4422.05426811634
 30
0.0
 11
2777.964015237481
 21
4462.05426811634
 31
0.0
  0
LINE
  5
1515
330
B68
100
AcDbEntity
  8
SUNPOU
 62
     0
370
    -2
100
AcDbLine
 10
2777.964015237481
 20
4282.05426811634
 30
0.0
 11
2777.964015237481
 21
4242.05426811634
 31
0.0
  0
SOLID
  5
1516
330
B68
100
AcDbEntity
  8
SUNPOU
 62
     0
100
AcDbTrace
 10
2771.297348570815
 20
4422.05426811634
 30
0.0
 11
2784.630681904148
 21
4422.05426811634
 31
0.0
 12
2777.964015237481
 22
4382.05426811634
 32
0.0
 13
2777.964015237481
 23
4382.05426811634
 33
0.0
  0
SOLID
  5
1517
330
B68
100
AcDbEntity
  8
SUNPOU
 62
     0
100
AcDbTrace
 10
2771.297348570815
 20
4282.05426811634
 30
0.0
 11
2784.630681904148
 21
4282.05426811634
 31
0.0
 12
2777.964015237481
 22
4322.05426811634
 32
0.0
 13
2777.964015237481
 23
4322.05426811634
 33
0.0
  0
MTEXT
  5
1518
330
B68
100
AcDbEntity
  8
SUNPOU
 62
     0
100
AcDbMText
 10
2731.964015237481
 20
4352.054268116341
 30
0.0
 40
60.0
 41
0.0
 71
     5
 72
     1
  1
\A1;60
 11
6.123031769111886E-17
 21
1.0
 31
0.0
 73
     1
 44
1.0
  0
POINT
  5
1519
330
B68
100
AcDbEntity
  8
DEFPOINTS
 62
     0
100
AcDbPoint
 10
1797.964015237481
 20
4382.054268116341
 30
0.0
  0
POINT
  5
151A
330
B68
100
AcDbEntity
  8
DEFPOINTS
 62
     0
100
AcDbPoint
 10
1797.964015237481
 20
4322.054268116341
 30
0.0
  0
POINT
  5
151B
330
B68
100
AcDbEntity
  8
DEFPOINTS
 62
     0
100
AcDbPoint
 10
2777.964015237481
 20
4322.05426811634
 30
0.0
  0
ENDBLK
  5
B74
330
B68
100
AcDbEntity
  8
0
100
AcDbBlockEnd
  0
BLOCK
  5
B7F
330
B75
100
AcDbEntity
  8
0
100
AcDbBlockBegin
  2
*D16
 70
     1
 10
0.0
 20
0.0
 30
0.0
  3
*D16
  1

  0
LINE
  5
151C
330
B75
100
AcDbEntity
  8
SUNPOU
 62
     0
370
    -2
100
AcDbLine
 10
1727.964015237481
 20
3592.054268116341
 30
0.0
 11
1727.964015237481
 21
3122.054268116341
 31
0.0
  0
LINE
  5
151D
330
B75
100
AcDbEntity
  8
SUNPOU
 62
     0
370
    -2
100
AcDbLine
 10
2477.964015237481
 20
3592.054268116342
 30
0.0
 11
2477.964015237481
 21
3122.054268116341
 31
0.0
  0
LINE
  5
151E
330
B75
100
AcDbEntity
  8
SUNPOU
 62
     0
370
    -2
100
AcDbLine
 10
1767.964015237481
 20
3132.054268116341
 30
0.0
 11
2437.964015237481
 21
3132.054268116341
 31
0.0
  0
SOLID
  5
151F
330
B75
100
AcDbEntity
  8
SUNPOU
 62
     0
100
AcDbTrace
 10
1767.964015237481
 20
3138.720934783007
 30
0.0
 11
1767.964015237481
 21
3125.387601449674
 31
0.0
 12
1727.964015237481
 22
3132.054268116341
 32
0.0
 13
1727.964015237481
 23
3132.054268116341
 33
0.0
  0
SOLID
  5
1520
330
B75
100
AcDbEntity
  8
SUNPOU
 62
     0
100
AcDbTrace
 10
2437.964015237481
 20
3138.720934783007
 30
0.0
 11
2437.964015237481
 21
3125.387601449674
 31
0.0
 12
2477.964015237481
 22
3132.054268116341
 32
0.0
 13
2477.964015237481
 23
3132.054268116341
 33
0.0
  0
MTEXT
  5
1521
330
B75
100
AcDbEntity
  8
SUNPOU
 62
     0
100
AcDbMText
 10
2102.964015237481
 20
3178.054268116341
 30
0.0
 40
60.0
 41
0.0
 71
     5
 72
     1
  1
\A1;750
 73
     1
 44
1.0
  0
POINT
  5
1522
330
B75
100
AcDbEntity
  8
DEFPOINTS
 62
     0
100
AcDbPoint
 10
1727.964015237481
 20
3632.054268116341
 30
0.0
  0
POINT
  5
1523
330
B75
100
AcDbEntity
  8
DEFPOINTS
 62
     0
100
AcDbPoint
 10
2477.964015237481
 20
3632.054268116342
 30
0.0
  0
POINT
  5
1524
330
B75
100
AcDbEntity
  8
DEFPOINTS
 62
     0
100
AcDbPoint
 10
2477.964015237481
 20
3132.054268116341
 30
0.0
  0
ENDBLK
  5
B80
330
B75
100
AcDbEntity
  8
0
100
AcDbBlockEnd
  0
BLOCK
  5
B8B
330
B81
100
AcDbEntity
  8
0
100
AcDbBlockBegin
  2
*D17
 70
     1
 10
0.0
 20
0.0
 30
0.0
  3
*D17
  1

  0
LINE
  5
1525
330
B81
100
AcDbEntity
  8
SUNPOU
 62
     0
370
    -2
100
AcDbLine
 10
1837.964015237481
 20
3592.054268116341
 30
0.0
 11
1837.964015237481
 21
3248.934666701987
 31
0.0
  0
LINE
  5
1526
330
B81
100
AcDbEntity
  8
SUNPOU
 62
     0
370
    -2
100
AcDbLine
 10
2477.964015237481
 20
3592.054268116342
 30
0.0
 11
2477.964015237481
 21
3248.934666701987
 31
0.0
  0
LINE
  5
1527
330
B81
100
AcDbEntity
  8
SUNPOU
 62
     0
370
    -2
100
AcDbLine
 10
1877.964015237481
 20
3258.934666701987
 30
0.0
 11
2437.964015237481
 21
3258.934666701987
 31
0.0
  0
SOLID
  5
1528
330
B81
100
AcDbEntity
  8
SUNPOU
 62
     0
100
AcDbTrace
 10
1877.964015237481
 20
3265.601333368654
 30
0.0
 11
1877.964015237481
 21
3252.268000035321
 31
0.0
 12
1837.964015237481
 22
3258.934666701987
 32
0.0
 13
1837.964015237481
 23
3258.934666701987
 33
0.0
  0
SOLID
  5
1529
330
B81
100
AcDbEntity
  8
SUNPOU
 62
     0
100
AcDbTrace
 10
2437.964015237481
 20
3265.601333368654
 30
0.0
 11
2437.964015237481
 21
3252.268000035321
 31
0.0
 12
2477.964015237481
 22
3258.934666701987
 32
0.0
 13
2477.964015237481
 23
3258.934666701987
 33
0.0
  0
MTEXT
  5
152A
330
B81
100
AcDbEntity
  8
SUNPOU
 62
     0
100
AcDbMText
 10
2157.964015237481
 20
3304.934666701987
 30
0.0
 40
60.0
 41
0.0
 71
     5
 72
     1
  1
\A1;640
 73
     1
 44
1.0
  0
POINT
  5
152B
330
B81
100
AcDbEntity
  8
DEFPOINTS
 62
     0
100
AcDbPoint
 10
1837.964015237481
 20
3632.054268116341
 30
0.0
  0
POINT
  5
152C
330
B81
100
AcDbEntity
  8
DEFPOINTS
 62
     0
100
AcDbPoint
 10
2477.964015237481
 20
3632.054268116342
 30
0.0
  0
POINT
  5
152D
330
B81
100
AcDbEntity
  8
DEFPOINTS
 62
     0
100
AcDbPoint
 10
2477.964015237481
 20
3258.934666701987
 30
0.0
  0
ENDBLK
  5
B8C
330
B81
100
AcDbEntity
  8
0
100
AcDbBlockEnd
  0
BLOCK
  5
B97
330
B8D
100
AcDbEntity
  8
0
100
AcDbBlockBegin
  2
*D18
 70
     1
 10
0.0
 20
0.0
 30
0.0
  3
*D18
  1

  0
LINE
  5
152E
330
B8D
100
AcDbEntity
  8
SUNPOU
 62
     0
370
    -2
100
AcDbLine
 10
3750.507892500278
 20
3632.054268116341
 30
0.0
 11
3383.349289899466
 21
3632.054268116341
 31
0.0
  0
LINE
  5
152F
330
B8D
100
AcDbEntity
  8
SUNPOU
 62
     0
370
    -2
100
AcDbLine
 10
3750.507892500278
 20
4382.054268116341
 30
0.0
 11
3383.349289899466
 21
4382.054268116341
 31
0.0
  0
LINE
  5
1530
330
B8D
100
AcDbEntity
  8
SUNPOU
 62
     0
370
    -2
100
AcDbLine
 10
3393.349289899466
 20
3672.054268116341
 30
0.0
 11
3393.349289899466
 21
4342.054268116341
 31
0.0
  0
SOLID
  5
1531
330
B8D
100
AcDbEntity
  8
SUNPOU
 62
     0
100
AcDbTrace
 10
3386.6826232328
 20
3672.054268116341
 30
0.0
 11
3400.015956566133
 21
3672.054268116341
 31
0.0
 12
3393.349289899466
 22
3632.054268116341
 32
0.0
 13
3393.349289899466
 23
3632.054268116341
 33
0.0
  0
SOLID
  5
1532
330
B8D
100
AcDbEntity
  8
SUNPOU
 62
     0
100
AcDbTrace
 10
3386.6826232328
 20
4342.054268116341
 30
0.0
 11
3400.015956566133
 21
4342.054268116341
 31
0.0
 12
3393.349289899466
 22
4382.054268116341
 32
0.0
 13
3393.349289899466
 23
4382.054268116341
 33
0.0
  0
MTEXT
  5
1533
330
B8D
100
AcDbEntity
  8
SUNPOU
 62
     0
100
AcDbMText
 10
3347.349289899466
 20
4007.054268116342
 30
0.0
 40
60.0
 41
0.0
 71
     5
 72
     1
  1
\A1;750
 11
6.123031769111886E-17
 21
1.0
 31
0.0
 73
     1
 44
1.0
  0
POINT
  5
1534
330
B8D
100
AcDbEntity
  8
DEFPOINTS
 62
     0
100
AcDbPoint
 10
3790.507892500278
 20
3632.054268116341
 30
0.0
  0
POINT
  5
1535
330
B8D
100
AcDbEntity
  8
DEFPOINTS
 62
     0
100
AcDbPoint
 10
3790.507892500278
 20
4382.054268116341
 30
0.0
  0
POINT
  5
1536
330
B8D
100
AcDbEntity
  8
DEFPOINTS
 62
     0
100
AcDbPoint
 10
3393.349289899466
 20
4382.054268116341
 30
0.0
  0
ENDBLK
  5
B98
330
B8D
100
AcDbEntity
  8
0
100
AcDbBlockEnd
  0
BLOCK
  5
BA3
330
B99
100
AcDbEntity
  8
0
100
AcDbBlockBegin
  2
*D19
 70
     1
 10
0.0
 20
0.0
 30
0.0
  3
*D19
  1

  0
LINE
  5
1537
330
B99
100
AcDbEntity
  8
SUNPOU
 62
     0
370
    -2
100
AcDbLine
 10
3750.507892500278
 20
4382.054268116341
 30
0.0
 11
3512.717827553406
 21
4382.054268116341
 31
0.0
  0
LINE
  5
1538
330
B99
100
AcDbEntity
  8
SUNPOU
 62
     0
370
    -2
100
AcDbLine
 10
3750.507892500278
 20
4032.054268116341
 30
0.0
 11
3512.717827553406
 21
4032.054268116341
 31
0.0
  0
LINE
  5
1539
330
B99
100
AcDbEntity
  8
SUNPOU
 62
     0
370
    -2
100
AcDbLine
 10
3522.717827553406
 20
4342.054268116341
 30
0.0
 11
3522.717827553406
 21
4072.054268116341
 31
0.0
  0
SOLID
  5
153A
330
B99
100
AcDbEntity
  8
SUNPOU
 62
     0
100
AcDbTrace
 10
3516.05116088674
 20
4342.054268116341
 30
0.0
 11
3529.384494220073
 21
4342.054268116341
 31
0.0
 12
3522.717827553406
 22
4382.054268116341
 32
0.0
 13
3522.717827553406
 23
4382.054268116341
 33
0.0
  0
SOLID
  5
153B
330
B99
100
AcDbEntity
  8
SUNPOU
 62
     0
100
AcDbTrace
 10
3516.05116088674
 20
4072.054268116341
 30
0.0
 11
3529.384494220073
 21
4072.054268116341
 31
0.0
 12
3522.717827553406
 22
4032.054268116341
 32
0.0
 13
3522.717827553406
 23
4032.054268116341
 33
0.0
  0
MTEXT
  5
153C
330
B99
100
AcDbEntity
  8
SUNPOU
 62
     0
100
AcDbMText
 10
3476.717827553406
 20
4207.054268116342
 30
0.0
 40
60.0
 41
0.0
 71
     5
 72
     1
  1
\A1;350
 11
6.123031769111886E-17
 21
1.0
 31
0.0
 73
     1
 44
1.0
  0
POINT
  5
153D
330
B99
100
AcDbEntity
  8
DEFPOINTS
 62
     0
100
AcDbPoint
 10
3790.507892500278
 20
4382.054268116341
 30
0.0
  0
POINT
  5
153E
330
B99
100
AcDbEntity
  8
DEFPOINTS
 62
     0
100
AcDbPoint
 10
3790.507892500278
 20
4032.054268116341
 30
0.0
  0
POINT
  5
153F
330
B99
100
AcDbEntity
  8
DEFPOINTS
 62
     0
100
AcDbPoint
 10
3522.717827553406
 20
4032.054268116341
 30
0.0
  0
ENDBLK
  5
BA4
330
B99
100
AcDbEntity
  8
0
100
AcDbBlockEnd
  0
BLOCK
  5
BAF
330
BA5
100
AcDbEntity
  8
0
100
AcDbBlockBegin
  2
*D20
 70
     1
 10
0.0
 20
0.0
 30
0.0
  3
*D20
  1

  0
LINE
  5
1540
330
BA5
100
AcDbEntity
  8
SUNPOU
 62
     0
370
    -2
100
AcDbLine
 10
3750.507892500278
 20
2177.59506464578
 30
0.0
 11
3311.089095851261
 21
2177.59506464578
 31
0.0
  0
LINE
  5
1541
330
BA5
100
AcDbEntity
  8
SUNPOU
 62
     0
370
    -2
100
AcDbLine
 10
3800.507892500278
 20
1427.59506464578
 30
0.0
 11
3311.089095851261
 21
1427.595064645781
 31
0.0
  0
LINE
  5
1542
330
BA5
100
AcDbEntity
  8
SUNPOU
 62
     0
370
    -2
100
AcDbLine
 10
3321.089095851261
 20
2137.59506464578
 30
0.0
 11
3321.089095851261
 21
1467.595064645781
 31
0.0
  0
SOLID
  5
1543
330
BA5
100
AcDbEntity
  8
SUNPOU
 62
     0
100
AcDbTrace
 10
3314.422429184594
 20
2137.59506464578
 30
0.0
 11
3327.755762517927
 21
2137.59506464578
 31
0.0
 12
3321.089095851261
 22
2177.59506464578
 32
0.0
 13
3321.089095851261
 23
2177.59506464578
 33
0.0
  0
SOLID
  5
1544
330
BA5
100
AcDbEntity
  8
SUNPOU
 62
     0
100
AcDbTrace
 10
3314.422429184594
 20
1467.595064645781
 30
0.0
 11
3327.755762517927
 21
1467.595064645781
 31
0.0
 12
3321.089095851261
 22
1427.595064645781
 32
0.0
 13
3321.089095851261
 23
1427.595064645781
 33
0.0
  0
MTEXT
  5
1545
330
BA5
100
AcDbEntity
  8
SUNPOU
 62
     0
100
AcDbMText
 10
3275.08909585126
 20
1802.595064645781
 30
0.0
 40
60.0
 41
0.0
 71
     5
 72
     1
  1
\A1;750
 11
6.123031769111886E-17
 21
1.0
 31
0.0
 73
     1
 44
1.0
  0
POINT
  5
1546
330
BA5
100
AcDbEntity
  8
DEFPOINTS
 62
     0
100
AcDbPoint
 10
3790.507892500278
 20
2177.59506464578
 30
0.0
  0
POINT
  5
1547
330
BA5
100
AcDbEntity
  8
DEFPOINTS
 62
     0
100
AcDbPoint
 10
3840.507892500278
 20
1427.59506464578
 30
0.0
  0
POINT
  5
1548
330
BA5
100
AcDbEntity
  8
DEFPOINTS
 62
     0
100
AcDbPoint
 10
3321.089095851261
 20
1427.595064645781
 30
0.0
  0
ENDBLK
  5
BB0
330
BA5
100
AcDbEntity
  8
0
100
AcDbBlockEnd
  0
BLOCK
  5
BBB
330
BB1
100
AcDbEntity
  8
0
100
AcDbBlockBegin
  2
*D21
 70
     1
 10
0.0
 20
0.0
 30
0.0
  3
*D21
  1

  0
LINE
  5
15CE
330
BB1
100
AcDbEntity
  8
SUNPOU
 62
     0
370
    -2
100
AcDbLine
 10
3800.507892500278
 20
1887.492524267338
 30
0.0
 11
3436.094939877974
 21
1887.492524267339
 31
0.0
  0
LINE
  5
15CF
330
BB1
100
AcDbEntity
  8
SUNPOU
 62
     0
370
    -2
100
AcDbLine
 10
3800.507892500278
 20
1427.59506464578
 30
0.0
 11
3436.094939877974
 21
1427.595064645781
 31
0.0
  0
LINE
  5
15D0
330
BB1
100
AcDbEntity
  8
SUNPOU
 62
     0
370
    -2
100
AcDbLine
 10
3446.094939877974
 20
1847.492524267339
 30
0.0
 11
3446.094939877974
 21
1467.595064645781
 31
0.0
  0
SOLID
  5
15D1
330
BB1
100
AcDbEntity
  8
SUNPOU
 62
     0
100
AcDbTrace
 10
3439.428273211307
 20
1847.492524267339
 30
0.0
 11
3452.76160654464
 21
1847.492524267339
 31
0.0
 12
3446.094939877974
 22
1887.492524267339
 32
0.0
 13
3446.094939877974
 23
1887.492524267339
 33
0.0
  0
SOLID
  5
15D2
330
BB1
100
AcDbEntity
  8
SUNPOU
 62
     0
100
AcDbTrace
 10
3439.428273211307
 20
1467.595064645781
 30
0.0
 11
3452.76160654464
 21
1467.595064645781
 31
0.0
 12
3446.094939877974
 22
1427.595064645781
 32
0.0
 13
3446.094939877974
 23
1427.595064645781
 33
0.0
  0
MTEXT
  5
15D3
330
BB1
100
AcDbEntity
  8
SUNPOU
 62
     0
100
AcDbMText
 10
3400.094939877974
 20
1657.54379445656
 30
0.0
 40
60.0
 41
0.0
 71
     5
 72
     1
  1
\A1;453
 11
6.123031769111886E-17
 21
1.0
 31
0.0
 73
     1
 44
1.0
  0
POINT
  5
15D4
330
BB1
100
AcDbEntity
  8
DEFPOINTS
 62
     0
100
AcDbPoint
 10
3840.507892500278
 20
1887.492524267338
 30
0.0
  0
POINT
  5
15D5
330
BB1
100
AcDbEntity
  8
DEFPOINTS
 62
     0
100
AcDbPoint
 10
3840.507892500278
 20
1427.59506464578
 30
0.0
  0
POINT
  5
15D6
330
BB1
100
AcDbEntity
  8
DEFPOINTS
 62
     0
100
AcDbPoint
 10
3446.094939877974
 20
1427.595064645781
 30
0.0
  0
ENDBLK
  5
BBC
330
BB1
100
AcDbEntity
  8
0
100
AcDbBlockEnd
  0
BLOCK
  5
C1C
330
C12
100
AcDbEntity
  8
0
100
AcDbBlockBegin
  2
*D22
 70
     1
 10
0.0
 20
0.0
 30
0.0
  3
*D22
  1

  0
LINE
  5
1462
330
C12
100
AcDbEntity
  8
SUNPOU
 62
     0
370
    -2
100
AcDbLine
 10
1687.964015237481
 20
3632.054268116341
 30
0.0
 11
1215.722531930696
 21
3632.054268116341
 31
0.0
  0
LINE
  5
1463
330
C12
100
AcDbEntity
  8
SUNPOU
 62
     0
370
    -2
100
AcDbLine
 10
1687.964015237481
 20
3742.054268116341
 30
0.0
 11
1215.722531930696
 21
3742.054268116341
 31
0.0
  0
LINE
  5
1464
330
C12
100
AcDbEntity
  8
SUNPOU
 62
     0
370
    -2
100
AcDbLine
 10
1225.722531930696
 20
3592.054268116341
 30
0.0
 11
1225.722531930696
 21
3552.054268116341
 31
0.0
  0
LINE
  5
1465
330
C12
100
AcDbEntity
  8
SUNPOU
 62
     0
370
    -2
100
AcDbLine
 10
1225.722531930696
 20
3782.054268116341
 30
0.0
 11
1225.722531930696
 21
3822.054268116341
 31
0.0
  0
SOLID
  5
1466
330
C12
100
AcDbEntity
  8
SUNPOU
 62
     0
100
AcDbTrace
 10
1219.05586526403
 20
3592.054268116341
 30
0.0
 11
1232.389198597363
 21
3592.054268116341
 31
0.0
 12
1225.722531930696
 22
3632.054268116341
 32
0.0
 13
1225.722531930696
 23
3632.054268116341
 33
0.0
  0
SOLID
  5
1467
330
C12
100
AcDbEntity
  8
SUNPOU
 62
     0
100
AcDbTrace
 10
1219.05586526403
 20
3782.054268116341
 30
0.0
 11
1232.389198597363
 21
3782.054268116341
 31
0.0
 12
1225.722531930696
 22
3742.054268116341
 32
0.0
 13
1225.722531930696
 23
3742.054268116341
 33
0.0
  0
MTEXT
  5
1468
330
C12
100
AcDbEntity
  8
SUNPOU
 62
     0
100
AcDbMText
 10
1179.722531930696
 20
3687.054268116341
 30
0.0
 40
60.0
 41
0.0
 71
     5
 72
     1
  1
\A1;110
 11
6.123031769111886E-17
 21
1.0
 31
0.0
 73
     1
 44
1.0
  0
POINT
  5
1469
330
C12
100
AcDbEntity
  8
DEFPOINTS
 62
     0
100
AcDbPoint
 10
1727.964015237481
 20
3632.054268116341
 30
0.0
  0
POINT
  5
146A
330
C12
100
AcDbEntity
  8
DEFPOINTS
 62
     0
100
AcDbPoint
 10
1727.964015237481
 20
3742.054268116341
 30
0.0
  0
POINT
  5
146B
330
C12
100
AcDbEntity
  8
DEFPOINTS
 62
     0
100
AcDbPoint
 10
1225.722531930696
 20
3742.054268116341
 30
0.0
  0
ENDBLK
  5
C1D
330
C12
100
AcDbEntity
  8
0
100
AcDbBlockEnd
  0
BLOCK
  5
C28
330
C1E
100
AcDbEntity
  8
0
100
AcDbBlockBegin
  2
*D23
 70
     1
 10
0.0
 20
0.0
 30
0.0
  3
*D23
  1

  0
LINE
  5
146C
330
C1E
100
AcDbEntity
  8
SUNPOU
 62
     0
370
    -2
100
AcDbLine
 10
1687.964015237481
 20
3632.054268116341
 30
0.0
 11
1444.130570321395
 21
3632.054268116341
 31
0.0
  0
LINE
  5
146D
330
C1E
100
AcDbEntity
  8
SUNPOU
 62
     0
370
    -2
100
AcDbLine
 10
1645.664495166802
 20
4032.054268116341
 30
0.0
 11
1444.130570321395
 21
4032.054268116341
 31
0.0
  0
LINE
  5
146E
330
C1E
100
AcDbEntity
  8
SUNPOU
 62
     0
370
    -2
100
AcDbLine
 10
1454.130570321395
 20
3672.054268116341
 30
0.0
 11
1454.130570321395
 21
3992.054268116341
 31
0.0
  0
SOLID
  5
146F
330
C1E
100
AcDbEntity
  8
SUNPOU
 62
     0
100
AcDbTrace
 10
1447.463903654728
 20
3672.054268116341
 30
0.0
 11
1460.797236988062
 21
3672.054268116341
 31
0.0
 12
1454.130570321395
 22
3632.054268116341
 32
0.0
 13
1454.130570321395
 23
3632.054268116341
 33
0.0
  0
SOLID
  5
1470
330
C1E
100
AcDbEntity
  8
SUNPOU
 62
     0
100
AcDbTrace
 10
1447.463903654728
 20
3992.054268116341
 30
0.0
 11
1460.797236988062
 21
3992.054268116341
 31
0.0
 12
1454.130570321395
 22
4032.054268116341
 32
0.0
 13
1454.130570321395
 23
4032.054268116341
 33
0.0
  0
MTEXT
  5
1471
330
C1E
100
AcDbEntity
  8
SUNPOU
 62
     0
100
AcDbMText
 10
1408.130570321394
 20
3832.054268116341
 30
0.0
 40
60.0
 41
0.0
 71
     5
 72
     1
  1
\A1;400
 11
6.123031769111886E-17
 21
1.0
 31
0.0
 73
     1
 44
1.0
  0
POINT
  5
1472
330
C1E
100
AcDbEntity
  8
DEFPOINTS
 62
     0
100
AcDbPoint
 10
1727.964015237481
 20
3632.054268116341
 30
0.0
  0
POINT
  5
1473
330
C1E
100
AcDbEntity
  8
DEFPOINTS
 62
     0
100
AcDbPoint
 10
1685.664495166802
 20
4032.054268116341
 30
0.0
  0
POINT
  5
1474
330
C1E
100
AcDbEntity
  8
DEFPOINTS
 62
     0
100
AcDbPoint
 10
1454.130570321395
 20
4032.054268116341
 30
0.0
  0
ENDBLK
  5
C29
330
C1E
100
AcDbEntity
  8
0
100
AcDbBlockEnd
  0
BLOCK
  5
C35
330
C2A
100
AcDbEntity
  8
0
100
AcDbBlockBegin
  2
*D24
 70
     1
 10
0.0
 20
0.0
 30
0.0
  3
*D24
  1

  0
LINE
  5
1475
330
C2A
100
AcDbEntity
  8
SUNPOU
 62
     0
370
    -2
100
AcDbLine
 10
2517.964015237481
 20
3632.054268116342
 30
0.0
 11
2787.964015237481
 21
3632.054268116342
 31
0.0
  0
LINE
  5
1476
330
C2A
100
AcDbEntity
  8
SUNPOU
 62
     0
370
    -2
100
AcDbLine
 10
2517.964015237481
 20
3702.054268116342
 30
0.0
 11
2787.964015237481
 21
3702.054268116342
 31
0.0
  0
LINE
  5
1477
330
C2A
100
AcDbEntity
  8
SUNPOU
 62
     0
370
    -2
100
AcDbLine
 10
2777.964015237481
 20
3592.054268116342
 30
0.0
 11
2777.964015237481
 21
3552.054268116342
 31
0.0
  0
LINE
  5
1478
330
C2A
100
AcDbEntity
  8
SUNPOU
 62
     0
370
    -2
100
AcDbLine
 10
2777.964015237481
 20
3742.054268116342
 30
0.0
 11
2777.964015237481
 21
3782.054268116342
 31
0.0
  0
SOLID
  5
1479
330
C2A
100
AcDbEntity
  8
SUNPOU
 62
     0
100
AcDbTrace
 10
2771.297348570815
 20
3592.054268116342
 30
0.0
 11
2784.630681904148
 21
3592.054268116342
 31
0.0
 12
2777.964015237481
 22
3632.054268116342
 32
0.0
 13
2777.964015237481
 23
3632.054268116342
 33
0.0
  0
SOLID
  5
147A
330
C2A
100
AcDbEntity
  8
SUNPOU
 62
     0
100
AcDbTrace
 10
2771.297348570815
 20
3742.054268116342
 30
0.0
 11
2784.630681904148
 21
3742.054268116342
 31
0.0
 12
2777.964015237481
 22
3702.054268116342
 32
0.0
 13
2777.964015237481
 23
3702.054268116342
 33
0.0
  0
MTEXT
  5
147B
330
C2A
100
AcDbEntity
  8
SUNPOU
 62
     0
100
AcDbMText
 10
2731.96401523748
 20
3667.054268116342
 30
0.0
 40
60.0
 41
0.0
 71
     5
 72
     1
  1
\A1;70
 11
6.123031769111886E-17
 21
1.0
 31
0.0
 73
     1
 44
1.0
  0
POINT
  5
147C
330
C2A
100
AcDbEntity
  8
DEFPOINTS
 62
     0
100
AcDbPoint
 10
2477.964015237481
 20
3632.054268116342
 30
0.0
  0
POINT
  5
147D
330
C2A
100
AcDbEntity
  8
DEFPOINTS
 62
     0
100
AcDbPoint
 10
2477.964015237481
 20
3702.054268116342
 30
0.0
  0
POINT
  5
147E
330
C2A
100
AcDbEntity
  8
DEFPOINTS
 62
     0
100
AcDbPoint
 10
2777.964015237481
 20
3702.054268116342
 30
0.0
  0
ENDBLK
  5
C36
330
C2A
100
AcDbEntity
  8
0
100
AcDbBlockEnd
  0
BLOCK
  5
C42
330
C37
100
AcDbEntity
  8
0
100
AcDbBlockBegin
  2
*D25
 70
     1
 10
0.0
 20
0.0
 30
0.0
  3
*D25
  1

  0
LINE
  5
147F
330
C37
100
AcDbEntity
  8
SUNPOU
 62
     0
370
    -2
100
AcDbLine
 10
1727.964015237481
 20
3592.054268116341
 30
0.0
 11
1727.964015237481
 21
3248.934666701987
 31
0.0
  0
LINE
  5
1480
330
C37
100
AcDbEntity
  8
SUNPOU
 62
     0
370
    -2
100
AcDbLine
 10
1837.964015237481
 20
3592.054268116341
 30
0.0
 11
1837.964015237481
 21
3248.934666701987
 31
0.0
  0
LINE
  5
1481
330
C37
100
AcDbEntity
  8
SUNPOU
 62
     0
370
    -2
100
AcDbLine
 10
1687.964015237481
 20
3258.934666701987
 30
0.0
 11
1647.964015237481
 21
3258.934666701987
 31
0.0
  0
LINE
  5
1482
330
C37
100
AcDbEntity
  8
SUNPOU
 62
     0
370
    -2
100
AcDbLine
 10
1877.964015237481
 20
3258.934666701987
 30
0.0
 11
1917.964015237481
 21
3258.934666701987
 31
0.0
  0
SOLID
  5
1483
330
C37
100
AcDbEntity
  8
SUNPOU
 62
     0
100
AcDbTrace
 10
1687.964015237481
 20
3265.601333368654
 30
0.0
 11
1687.964015237481
 21
3252.268000035321
 31
0.0
 12
1727.964015237481
 22
3258.934666701987
 32
0.0
 13
1727.964015237481
 23
3258.934666701987
 33
0.0
  0
SOLID
  5
1484
330
C37
100
AcDbEntity
  8
SUNPOU
 62
     0
100
AcDbTrace
 10
1877.964015237481
 20
3265.601333368654
 30
0.0
 11
1877.964015237481
 21
3252.268000035321
 31
0.0
 12
1837.964015237481
 22
3258.934666701987
 32
0.0
 13
1837.964015237481
 23
3258.934666701987
 33
0.0
  0
MTEXT
  5
1485
330
C37
100
AcDbEntity
  8
SUNPOU
 62
     0
100
AcDbMText
 10
1782.964015237481
 20
3304.934666701987
 30
0.0
 40
60.0
 41
0.0
 71
     5
 72
     1
  1
\A1;110
 73
     1
 44
1.0
  0
POINT
  5
1486
330
C37
100
AcDbEntity
  8
DEFPOINTS
 62
     0
100
AcDbPoint
 10
1727.964015237481
 20
3632.054268116341
 30
0.0
  0
POINT
  5
1487
330
C37
100
AcDbEntity
  8
DEFPOINTS
 62
     0
100
AcDbPoint
 10
1837.964015237481
 20
3632.054268116341
 30
0.0
  0
POINT
  5
1488
330
C37
100
AcDbEntity
  8
DEFPOINTS
 62
     0
100
AcDbPoint
 10
1837.964015237481
 20
3258.934666701987
 30
0.0
  0
ENDBLK
  5
C43
330
C37
100
AcDbEntity
  8
0
100
AcDbBlockEnd
  0
BLOCK
  5
C4F
330
C44
100
AcDbEntity
  8
0
100
AcDbBlockBegin
  2
*D26
 70
     1
 10
0.0
 20
0.0
 30
0.0
  3
*D26
  1

  0
LINE
  5
1489
330
C44
100
AcDbEntity
  8
SUNPOU
 62
     0
370
    -2
100
AcDbLine
 10
1727.964015237481
 20
4422.054268116341
 30
0.0
 11
1727.964015237481
 21
4692.054268116341
 31
0.0
  0
LINE
  5
148A
330
C44
100
AcDbEntity
  8
SUNPOU
 62
     0
370
    -2
100
AcDbLine
 10
1797.964015237481
 20
4422.054268116341
 30
0.0
 11
1797.964015237481
 21
4692.054268116341
 31
0.0
  0
LINE
  5
148B
330
C44
100
AcDbEntity
  8
SUNPOU
 62
     0
370
    -2
100
AcDbLine
 10
1687.964015237481
 20
4682.054268116341
 30
0.0
 11
1647.964015237481
 21
4682.054268116341
 31
0.0
  0
LINE
  5
148C
330
C44
100
AcDbEntity
  8
SUNPOU
 62
     0
370
    -2
100
AcDbLine
 10
1837.964015237481
 20
4682.054268116341
 30
0.0
 11
1877.964015237481
 21
4682.054268116341
 31
0.0
  0
MTEXT
  5
148D
330
C44
100
AcDbEntity
  8
SUNPOU
 62
     0
100
AcDbMText
 10
1762.840928316302
 20
4728.32350602752
 30
0.0
 40
60.0
 41
0.0
 71
     5
 72
     1
  1
\A1;70
 73
     1
 44
1.0
  0
SOLID
  5
148E
330
C44
100
AcDbEntity
  8
SUNPOU
 62
     0
100
AcDbTrace
 10
1687.964015237481
 20
4688.720934783008
 30
0.0
 11
1687.964015237481
 21
4675.387601449674
 31
0.0
 12
1727.964015237481
 22
4682.054268116341
 32
0.0
 13
1727.964015237481
 23
4682.054268116341
 33
0.0
  0
SOLID
  5
148F
330
C44
100
AcDbEntity
  8
SUNPOU
 62
     0
100
AcDbTrace
 10
1837.964015237481
 20
4688.720934783008
 30
0.0
 11
1837.964015237481
 21
4675.387601449674
 31
0.0
 12
1797.964015237481
 22
4682.054268116341
 32
0.0
 13
1797.964015237481
 23
4682.054268116341
 33
0.0
  0
POINT
  5
1490
330
C44
100
AcDbEntity
  8
DEFPOINTS
 62
     0
100
AcDbPoint
 10
1727.964015237481
 20
4382.054268116341
 30
0.0
  0
POINT
  5
1491
330
C44
100
AcDbEntity
  8
DEFPOINTS
 62
     0
100
AcDbPoint
 10
1797.964015237481
 20
4382.054268116341
 30
0.0
  0
POINT
  5
1492
330
C44
100
AcDbEntity
  8
DEFPOINTS
 62
     0
100
AcDbPoint
 10
1797.964015237481
 20
4682.054268116341
 30
0.0
  0
ENDBLK
  5
C50
330
C44
100
AcDbEntity
  8
0
100
AcDbBlockEnd
  0
BLOCK
  5
C8F
330
C85
100
AcDbEntity
  8
0
100
AcDbBlockBegin
  2
*D27
 70
     1
 10
0.0
 20
0.0
 30
0.0
  3
*D27
  1

  0
LINE
  5
1493
330
C85
100
AcDbEntity
  8
SUNPOU
 62
     0
370
    -2
100
AcDbLine
 10
3790.507892500278
 20
4422.054268116341
 30
0.0
 11
3790.507892500278
 21
4819.657574835566
 31
0.0
  0
LINE
  5
1494
330
C85
100
AcDbEntity
  8
SUNPOU
 62
     0
370
    -2
100
AcDbLine
 10
5790.507892500278
 20
4422.054268116341
 30
0.0
 11
5790.507892500278
 21
4819.657574835566
 31
0.0
  0
LINE
  5
1495
330
C85
100
AcDbEntity
  8
SUNPOU
 62
     0
370
    -2
100
AcDbLine
 10
3830.507892500278
 20
4809.657574835566
 30
0.0
 11
5750.507892500278
 21
4809.657574835566
 31
0.0
  0
SOLID
  5
1496
330
C85
100
AcDbEntity
  8
SUNPOU
 62
     0
100
AcDbTrace
 10
3830.507892500278
 20
4816.324241502233
 30
0.0
 11
3830.507892500278
 21
4802.990908168899
 31
0.0
 12
3790.507892500278
 22
4809.657574835566
 32
0.0
 13
3790.507892500278
 23
4809.657574835566
 33
0.0
  0
SOLID
  5
1497
330
C85
100
AcDbEntity
  8
SUNPOU
 62
     0
100
AcDbTrace
 10
5750.507892500278
 20
4816.324241502233
 30
0.0
 11
5750.507892500278
 21
4802.990908168899
 31
0.0
 12
5790.507892500278
 22
4809.657574835566
 32
0.0
 13
5790.507892500278
 23
4809.657574835566
 33
0.0
  0
MTEXT
  5
1498
330
C85
100
AcDbEntity
  8
SUNPOU
 62
     0
100
AcDbMText
 10
4790.507892500278
 20
4855.657574835566
 30
0.0
 40
60.0
 41
0.0
 71
     5
 72
     1
  1
\A1;2000
 73
     1
 44
1.0
  0
POINT
  5
1499
330
C85
100
AcDbEntity
  8
DEFPOINTS
 62
     0
100
AcDbPoint
 10
3790.507892500278
 20
4382.054268116341
 30
0.0
  0
POINT
  5
149A
330
C85
100
AcDbEntity
  8
DEFPOINTS
 62
     0
100
AcDbPoint
 10
5790.507892500278
 20
4382.054268116341
 30
0.0
  0
POINT
  5
149B
330
C85
100
AcDbEntity
  8
DEFPOINTS
 62
     0
100
AcDbPoint
 10
5790.507892500278
 20
4809.657574835566
 30
0.0
  0
ENDBLK
  5
C90
330
C85
100
AcDbEntity
  8
0
100
AcDbBlockEnd
  0
BLOCK
  5
13F4
330
13E9
100
AcDbEntity
  8
0
100
AcDbBlockBegin
  2
*D28
 70
     1
 10
0.0
 20
0.0
 30
0.0
  3
*D28
  1

  0
LINE
  5
1552
330
13E9
100
AcDbEntity
  8
SUNPOU
 62
     0
370
    -2
100
AcDbLine
 10
3840.507892500278
 20
1387.59506464578
 30
0.0
 11
3840.507892500278
 21
1005.345545304173
 31
0.0
  0
LINE
  5
1553
330
13E9
100
AcDbEntity
  8
SUNPOU
 62
     0
370
    -2
100
AcDbLine
 10
3790.507892500278
 20
1387.59506464578
 30
0.0
 11
3790.507892500278
 21
1005.345545304173
 31
0.0
  0
LINE
  5
1554
330
13E9
100
AcDbEntity
  8
SUNPOU
 62
     0
370
    -2
100
AcDbLine
 10
3880.507892500278
 20
1015.345545304173
 30
0.0
 11
3920.507892500278
 21
1015.345545304173
 31
0.0
  0
LINE
  5
1555
330
13E9
100
AcDbEntity
  8
SUNPOU
 62
     0
370
    -2
100
AcDbLine
 10
3750.507892500278
 20
1015.345545304173
 30
0.0
 11
3710.507892500278
 21
1015.345545304173
 31
0.0
  0
SOLID
  5
1556
330
13E9
100
AcDbEntity
  8
SUNPOU
 62
     0
100
AcDbTrace
 10
3880.507892500278
 20
1022.01221197084
 30
0.0
 11
3880.507892500278
 21
1008.678878637507
 31
0.0
 12
3840.507892500278
 22
1015.345545304173
 32
0.0
 13
3840.507892500278
 23
1015.345545304173
 33
0.0
  0
SOLID
  5
1557
330
13E9
100
AcDbEntity
  8
SUNPOU
 62
     0
100
AcDbTrace
 10
3750.507892500278
 20
1022.01221197084
 30
0.0
 11
3750.507892500278
 21
1008.678878637507
 31
0.0
 12
3790.507892500278
 22
1015.345545304173
 32
0.0
 13
3790.507892500278
 23
1015.345545304173
 33
0.0
  0
MTEXT
  5
1558
330
13E9
100
AcDbEntity
  8
SUNPOU
 62
     0
100
AcDbMText
 10
3815.507892500278
 20
1061.345545304173
 30
0.0
 40
60.0
 41
0.0
 71
     5
 72
     1
  1
\A1;50
 73
     1
 44
1.0
  0
POINT
  5
1559
330
13E9
100
AcDbEntity
  8
DEFPOINTS
 62
     0
100
AcDbPoint
 10
3840.507892500278
 20
1427.59506464578
 30
0.0
  0
POINT
  5
155A
330
13E9
100
AcDbEntity
  8
DEFPOINTS
 62
     0
100
AcDbPoint
 10
3790.507892500278
 20
1427.59506464578
 30
0.0
  0
POINT
  5
155B
330
13E9
100
AcDbEntity
  8
DEFPOINTS
 62
     0
100
AcDbPoint
 10
3790.507892500278
 20
1015.345545304173
 30
0.0
  0
ENDBLK
  5
13F5
330
13E9
100
AcDbEntity
  8
0
100
AcDbBlockEnd
  0
BLOCK
  5
1402
330
13F7
100
AcDbEntity
  8
0
100
AcDbBlockBegin
  2
*D29
 70
     1
 10
0.0
 20
0.0
 30
0.0
  3
*D29
  1

  0
LINE
  5
155C
330
13F7
100
AcDbEntity
  8
SUNPOU
 62
     0
370
    -2
100
AcDbLine
 10
5740.507892500276
 20
1387.59506464578
 30
0.0
 11
5740.507892500276
 21
1005.345545304173
 31
0.0
  0
LINE
  5
155D
330
13F7
100
AcDbEntity
  8
SUNPOU
 62
     0
370
    -2
100
AcDbLine
 10
5790.507892500276
 20
1387.59506464578
 30
0.0
 11
5790.507892500276
 21
1005.345545304173
 31
0.0
  0
LINE
  5
155E
330
13F7
100
AcDbEntity
  8
SUNPOU
 62
     0
370
    -2
100
AcDbLine
 10
5700.507892500276
 20
1015.345545304173
 30
0.0
 11
5660.507892500276
 21
1015.345545304173
 31
0.0
  0
LINE
  5
155F
330
13F7
100
AcDbEntity
  8
SUNPOU
 62
     0
370
    -2
100
AcDbLine
 10
5830.507892500276
 20
1015.345545304173
 30
0.0
 11
5870.507892500276
 21
1015.345545304173
 31
0.0
  0
SOLID
  5
1560
330
13F7
100
AcDbEntity
  8
SUNPOU
 62
     0
100
AcDbTrace
 10
5700.507892500276
 20
1022.01221197084
 30
0.0
 11
5700.507892500276
 21
1008.678878637507
 31
0.0
 12
5740.507892500276
 22
1015.345545304173
 32
0.0
 13
5740.507892500276
 23
1015.345545304173
 33
0.0
  0
SOLID
  5
1561
330
13F7
100
AcDbEntity
  8
SUNPOU
 62
     0
100
AcDbTrace
 10
5830.507892500276
 20
1022.01221197084
 30
0.0
 11
5830.507892500276
 21
1008.678878637507
 31
0.0
 12
5790.507892500276
 22
1015.345545304173
 32
0.0
 13
5790.507892500276
 23
1015.345545304173
 33
0.0
  0
MTEXT
  5
1562
330
13F7
100
AcDbEntity
  8
SUNPOU
 62
     0
100
AcDbMText
 10
5765.507892500276
 20
1061.345545304173
 30
0.0
 40
60.0
 41
0.0
 71
     5
 72
     1
  1
\A1;50
 73
     1
 44
1.0
  0
POINT
  5
1563
330
13F7
100
AcDbEntity
  8
DEFPOINTS
 62
     0
100
AcDbPoint
 10
5740.507892500276
 20
1427.59506464578
 30
0.0
  0
POINT
  5
1564
330
13F7
100
AcDbEntity
  8
DEFPOINTS
 62
     0
100
AcDbPoint
 10
5790.507892500276
 20
1427.59506464578
 30
0.0
  0
POINT
  5
1565
330
13F7
100
AcDbEntity
  8
DEFPOINTS
 62
     0
100
AcDbPoint
 10
5790.507892500276
 20
1015.345545304173
 30
0.0
  0
ENDBLK
  5
1403
330
13F7
100
AcDbEntity
  8
0
100
AcDbBlockEnd
  0
BLOCK
  5
15E7
330
15DB
100
AcDbEntity
  8
0
100
AcDbBlockBegin
  2
*D34
 70
     1
 10
0.0
 20
0.0
 30
0.0
  3
*D34
  1

  0
LINE
  5
15E9
330
15DB
100
AcDbEntity
  8
SUNPOU
 62
     0
370
    -2
100
AcDbLine
 10
5720.507892500278
 20
1852.851508115961
 30
0.0
 11
5650.927898115485
 21
1732.335422651144
 31
0.0
  0
LINE
  5
15EA
330
15DB
100
AcDbEntity
  8
SUNPOU
 62
     0
370
    -2
100
AcDbLine
 10
5790.507892500278
 20
1934.09506464578
 30
0.0
 11
5790.507892500278
 21
1694.935075876198
 31
0.0
  0
ARC
  5
15EB
330
15DB
100
AcDbEntity
  8
SUNPOU
 62
     0
370
    -2
100
AcDbCircle
 10
5790.507892500278
 20
1974.09506464578
 30
0.0
 40
269.1599887695835
100
AcDbArc
 50
248.5226092406447
 51
261.4773907593549
  0
SOLID
  5
15EC
330
15DB
100
AcDbEntity
  8
SUNPOU
 62
     0
100
AcDbTrace
 10
5689.064138754367
 20
1717.619748883519
 30
0.0
 11
5694.854372602689
 21
1729.630201404533
 31
0.0
 12
5655.927898115485
 22
1740.995676688988
 32
0.0
 13
5655.927898115485
 23
1740.995676688988
 33
0.0
  0
SOLID
  5
15ED
330
15DB
100
AcDbEntity
  8
SUNPOU
 62
     0
100
AcDbTrace
 10
5751.113839072366
 20
1714.555522797378
 30
0.0
 11
5750.123102418357
 21
1701.259048879072
 31
0.0
 12
5790.507892500278
 22
1704.935075876197
 32
0.0
 13
5790.507892500278
 23
1704.935075876197
 33
0.0
  0
MTEXT
  5
15EE
330
15DB
100
AcDbEntity
  8
SUNPOU
 62
     0
100
AcDbMText
 10
5732.749837301844
 20
1758.539068098862
 30
0.0
 40
60.0
 41
0.0
 71
     5
 72
     1
  1
\A1;30°
 11
0.965925826289067
 21
-0.2588190451025256
 31
0.0
 73
     1
 44
1.0
  0
POINT
  5
15EF
330
15DB
100
AcDbEntity
  8
DEFPOINTS
 62
     0
100
AcDbPoint
 10
5698.449754563769
 20
1721.167409388186
 30
0.0
  0
POINT
  5
15F0
330
15DB
100
AcDbEntity
  8
DEFPOINTS
 62
     0
100
AcDbPoint
 10
5790.507892500278
 20
2177.59506464578
 30
0.0
  0
POINT
  5
15F1
330
15DB
100
AcDbEntity
  8
DEFPOINTS
 62
     0
100
AcDbPoint
 10
5790.507892500278
 20
1974.09506464578
 30
0.0
  0
POINT
  5
15F2
330
15DB
100
AcDbEntity
  8
DEFPOINTS
 62
     0
100
AcDbPoint
 10
5740.507892500278
 20
1887.492524267338
 30
0.0
  0
POINT
  5
15F3
330
15DB
100
AcDbEntity
  8
DEFPOINTS
 62
     0
100
AcDbPoint
 10
5790.507892500278
 20
1974.09506464578
 30
0.0
  0
ENDBLK
  5
15E8
330
15DB
100
AcDbEntity
  8
0
100
AcDbBlockEnd
  0
ENDSEC
  0
SECTION
  2
ENTITIES
  0
TEXT
  5
5F
330
17
100
AcDbEntity
  8
SUNPOU
100
AcDbText
 10
7679.999999999996
 20
320.0
 30
0.0
 40
60.0
  1
20
100
AcDbText
  0
INSERT
  5
60
330
17
100
AcDbEntity
  8
HAIKIN
100
AcDbBlockReference
  2
SA3
 10
320.0
 20
0.0
 30
0.0
 41
20.0
 42
20.0
 43
20.0
  0
LINE
  5
8FA
330
17
100
AcDbEntity
  8
SEIHIN
100
AcDbLine
 10
1727.964015237481
 20
3632.054268116341
 30
0.0
 11
2477.964015237481
 21
3632.054268116342
 31
0.0
  0
LINE
  5
8FB
330
17
100
AcDbEntity
  8
SEIHIN
100
AcDbLine
 10
1727.964015237481
 20
3632.054268116341
 30
0.0
 11
1727.964015237481
 21
4382.054268116341
 31
0.0
  0
LINE
  5
8FD
330
17
100
AcDbEntity
  8
1HASEN
100
AcDbLine
 10
1837.964015237481
 20
3717.054268116342
 30
0.0
 11
1837.964015237481
 21
3767.054268116341
 31
0.0
  0
LINE
  5
8FE
330
17
100
AcDbEntity
  8
1HASEN
100
AcDbLine
 10
1812.964015237481
 20
3742.054268116341
 30
0.0
 11
1862.964015237481
 21
3742.054268116341
 31
0.0
  0
LINE
  5
902
330
17
100
AcDbEntity
  8
1HASEN
 48
0.4
100
AcDbLine
 10
1685.664495166802
 20
4032.054268116341
 30
0.0
 11
1874.128947751458
 21
4032.054268116341
 31
0.0
  0
LINE
  5
903
330
17
100
AcDbEntity
  8
HASEN
 48
0.2
100
AcDbLine
 10
1806.205394547826
 20
4057.054268116341
 30
0.0
 11
1806.205394547826
 21
4007.054268116341
 31
0.0
  0
LINE
  5
904
330
17
100
AcDbEntity
  8
HASEN
 48
0.2
100
AcDbLine
 10
1762.96401523748
 20
4057.054268116341
 30
0.0
 11
1762.96401523748
 21
4007.054268116341
 31
0.0
  0
LINE
  5
905
330
17
100
AcDbEntity
  8
HASEN
 48
0.2
100
AcDbLine
 10
1762.96401523748
 20
4050.554268116341
 30
0.0
 11
1806.205394547826
 21
4052.639991909908
 31
0.0
  0
LINE
  5
906
330
17
100
AcDbEntity
  8
HASEN
 48
0.2
100
AcDbLine
 10
1762.96401523748
 20
4013.554268116341
 30
0.0
 11
1806.205394547826
 21
4011.468544322772
 31
0.0
  0
LINE
  5
907
330
17
100
AcDbEntity
  8
HASEN
 48
0.2
100
AcDbLine
 10
1762.96401523748
 20
4007.054268116341
 30
0.0
 11
1727.96401523748
 21
3992.054268116341
 31
0.0
  0
LINE
  5
908
330
17
100
AcDbEntity
  8
HASEN
 48
0.2
100
AcDbLine
 10
1806.205394547826
 20
4007.054268116341
 30
0.0
 11
1820.780011396173
 21
3991.222323815311
 31
0.0
  0
LINE
  5
909
330
17
100
AcDbEntity
  8
HASEN
 48
0.2
100
AcDbLine
 10
1727.96401523748
 20
4072.054268116341
 30
0.0
 11
1762.96401523748
 21
4057.054268116341
 31
0.0
  0
LINE
  5
90A
330
17
100
AcDbEntity
  8
HASEN
 48
0.2
100
AcDbLine
 10
1815.205394547826
 20
4072.054268116341
 30
0.0
 11
1806.205394547826
 21
4057.054268116341
 31
0.0
  0
LINE
  5
910
330
17
100
AcDbEntity
  8
SEIHIN
100
AcDbLine
 10
1727.964015237481
 20
4382.054268116341
 30
0.0
 11
1797.964015237481
 21
4382.054268116341
 31
0.0
  0
LINE
  5
911
330
17
100
AcDbEntity
  8
SEIHIN
100
AcDbLine
 10
2477.964015237481
 20
3632.054268116342
 30
0.0
 11
2477.964015237481
 21
3702.054268116342
 31
0.0
  0
LINE
  5
912
330
17
100
AcDbEntity
  8
SEIHIN
100
AcDbLine
 10
1797.964015237481
 20
4382.054268116341
 30
0.0
 11
1797.964015237481
 21
4322.054268116341
 31
0.0
  0
LINE
  5
913
330
17
100
AcDbEntity
  8
SEIHIN
100
AcDbLine
 10
1797.964015237481
 20
4322.054268116341
 30
0.0
 11
1831.470480754722
 21
3836.210518116341
 31
0.0
  0
LINE
  5
914
330
17
100
AcDbEntity
  8
SEIHIN
100
AcDbLine
 10
1931.464015237481
 20
3736.210518116341
 30
0.0
 11
2477.964015237481
 21
3702.054268116342
 31
0.0
  0
DIMENSION
  5
91F
330
17
100
AcDbEntity
  8
SUNPOU
100
AcDbDimension
  2
*D22
 10
1225.722531930696
 20
3742.054268116341
 30
0.0
 11
1179.722531930696
 21
3687.054268116341
 31
0.0
 70
    32
 71
     5
 42
110.0
  3
A3-20
100
AcDbAlignedDimension
 13
1727.964015237481
 23
3632.054268116341
 33
0.0
 14
1727.964015237481
 24
3742.054268116341
 34
0.0
 50
90.0
100
AcDbRotatedDimension
  0
DIMENSION
  5
920
330
17
100
AcDbEntity
  8
SUNPOU
100
AcDbDimension
  2
*D23
 10
1454.130570321395
 20
4032.054268116341
 30
0.0
 11
1408.130570321394
 21
3832.054268116341
 31
0.0
 70
    32
 71
     5
 42
400.0
  3
A3-20
100
AcDbAlignedDimension
 13
1727.964015237481
 23
3632.054268116341
 33
0.0
 14
1685.664495166802
 24
4032.054268116341
 34
0.0
 50
90.0
100
AcDbRotatedDimension
  0
DIMENSION
  5
923
330
17
100
AcDbEntity
  8
SUNPOU
100
AcDbDimension
  2
*D24
 10
2777.964015237481
 20
3702.054268116342
 30
0.0
 11
2731.96401523748
 21
3667.054268116342
 31
0.0
 70
    32
 71
     5
 42
69.99999999999955
  3
A3-20
100
AcDbAlignedDimension
 13
2477.964015237481
 23
3632.054268116342
 33
0.0
 14
2477.964015237481
 24
3702.054268116342
 34
0.0
 50
90.0
100
AcDbRotatedDimension
  0
DIMENSION
  5
924
330
17
100
AcDbEntity
  8
SUNPOU
100
AcDbDimension
  2
*D25
 10
1837.964015237481
 20
3258.934666701987
 30
0.0
 11
1782.964015237481
 21
3304.934666701987
 31
0.0
 70
    32
 71
     5
 42
110.0
  3
A3-20
100
AcDbAlignedDimension
 13
1727.964015237481
 23
3632.054268116341
 33
0.0
 14
1837.964015237481
 24
3632.054268116341
 34
0.0
100
AcDbRotatedDimension
  0
DIMENSION
  5
925
330
17
100
AcDbEntity
  8
SUNPOU
100
AcDbDimension
  2
*D26
 10
1797.964015237481
 20
4682.054268116341
 30
0.0
 11
1762.840928316302
 21
4728.32350602752
 31
0.0
 70
   160
 71
     5
 42
70.0
  3
A3-20
100
AcDbAlignedDimension
 13
1727.964015237481
 23
4382.054268116341
 33
0.0
 14
1797.964015237481
 24
4382.054268116341
 34
0.0
100
AcDbRotatedDimension
  0
TEXT
  5
928
330
17
100
AcDbEntity
  8
HAIKIN
100
AcDbText
 10
3197.283252294685
 20
5221.101789426028
 30
0.0
 40
80.0
  1
デザインウォ－ル　H=750 ( L=2000 )
100
AcDbText
  0
TEXT
  5
929
330
17
100
AcDbEntity
  8
SUNPOU
100
AcDbText
 10
6815.004607628562
 20
647.5882230564421
 30
0.0
 40
50.0
  1
デザインウォ－ル　H=750 (L=2000)
100
AcDbText
  0
LINE
  5
94B
330
17
100
AcDbEntity
  8
0
  6
ByBlock
 62
     0
100
AcDbLine
 10
1837.964015237481
 20
4382.054268116341
 30
0.0
 11
2140.127999156361
 21
4382.054268116341
 31
0.0
  0
LINE
  5
95D
330
17
100
AcDbEntity
  8
SEIHIN
100
AcDbLine
 10
3790.507892500278
 20
3632.054268116341
 30
0.0
 11
3790.507892500278
 21
4382.054268116341
 31
0.0
  0
LINE
  5
95E
330
17
100
AcDbEntity
  8
SEIHIN
100
AcDbLine
 10
5790.507892500278
 20
3632.054268116341
 30
0.0
 11
5790.507892500278
 21
4382.054268116341
 31
0.0
  0
LINE
  5
95F
330
17
100
AcDbEntity
  8
SEIHIN
100
AcDbLine
 10
3790.507892500278
 20
4382.054268116341
 30
0.0
 11
5790.507892500278
 21
4382.054268116341
 31
0.0
  0
LINE
  5
960
330
17
100
AcDbEntity
  8
SEIHIN
100
AcDbLine
 10
3790.507892500278
 20
3632.054268116341
 30
0.0
 11
5790.507892500278
 21
3632.054268116341
 31
0.0
  0
DIMENSION
  5
962
330
17
100
AcDbEntity
  8
SUNPOU
100
AcDbDimension
  2
*D27
 10
5790.507892500278
 20
4809.657574835566
 30
0.0
 11
4790.507892500278
 21
4855.657574835566
 31
0.0
 70
    32
 71
     5
 42
2000.0
  3
A3-20
100
AcDbAlignedDimension
 13
3790.507892500278
 23
4382.054268116341
 33
0.0
 14
5790.507892500278
 24
4382.054268116341
 34
0.0
100
AcDbRotatedDimension
  0
LINE
  5
965
330
17
100
AcDbEntity
  8
1HASEN
100
AcDbLine
 10
4790.507892500278
 20
4482.054268116341
 30
0.0
 11
4790.507892500279
 21
3532.054268116341
 31
0.0
  0
DIMENSION
  5
96E
330
17
100
AcDbEntity
  8
SUNPOU
100
AcDbDimension
  2
*D2
 10
3522.717827553406
 20
4032.054268116341
 30
0.0
 11
3476.717827553406
 21
3832.054268116342
 31
0.0
 70
    32
 71
     5
 42
400.0
  3
A3-20
100
AcDbAlignedDimension
 13
3790.507892500278
 23
3632.054268116341
 33
0.0
 14
3790.507892500278
 24
4032.054268116341
 34
0.0
 50
90.0
100
AcDbRotatedDimension
  0
LINE
  5
971
330
17
100
AcDbEntity
  8
1HASEN
100
AcDbLine
 10
4240.507892500278
 20
4032.054268116341
 30
0.0
 11
4340.507892500278
 21
4032.054268116341
 31
0.0
  0
CIRCLE
  5
972
330
17
100
AcDbEntity
  8
SUNPOU
100
AcDbCircle
 10
4290.507892500278
 20
4032.054268116341
 30
0.0
 40
40.0
  0
CIRCLE
  5
973
330
17
100
AcDbEntity
  8
SUNPOU
100
AcDbCircle
 10
4290.507892500278
 20
4032.054268116341
 30
0.0
 40
25.0
  0
LINE
  5
977
330
17
100
AcDbEntity
  8
1HASEN
100
AcDbLine
 10
5340.507892500279
 20
4032.054268116342
 30
0.0
 11
5240.507892500279
 21
4032.054268116342
 31
0.0
  0
CIRCLE
  5
978
330
17
100
AcDbEntity
  8
SUNPOU
100
AcDbCircle
 10
5290.507892500279
 20
4032.054268116342
 30
0.0
 40
25.0
  0
CIRCLE
  5
979
330
17
100
AcDbEntity
  8
SUNPOU
100
AcDbCircle
 10
5290.507892500279
 20
4032.054268116342
 30
0.0
 40
40.0
  0
LINE
  5
97D
330
17
100
AcDbEntity
  8
SEIHIN
100
AcDbLine
 10
3790.507892500278
 20
2177.59506464578
 30
0.0
 11
5790.507892500278
 21
2177.59506464578
 31
0.0
  0
LINE
  5
97F
330
17
100
AcDbEntity
  8
SEIHIN
100
AcDbLine
 10
3840.507892500278
 20
1887.492524267338
 30
0.0
 11
3840.507892500278
 21
1427.59506464578
 31
0.0
  0
LINE
  5
980
330
17
100
AcDbEntity
  8
1HASEN
100
AcDbLine
 10
4790.507892500278
 20
2277.59506464578
 30
0.0
 11
4790.507892500277
 21
1329.537727829318
 31
0.0
  0
LINE
  5
981
330
17
100
AcDbEntity
  8
SEIHIN
100
AcDbLine
 10
3790.507892500278
 20
1974.09506464578
 30
0.0
 11
3840.507892500278
 21
1887.492524267338
 31
0.0
  0
DIMENSION
  5
985
330
17
100
AcDbEntity
  8
SUNPOU
100
AcDbDimension
  2
*D3
 10
3446.094939877974
 20
1974.095064645781
 30
0.0
 11
3400.094939877974
 21
2075.845064645781
 31
0.0
 70
    32
 71
     5
 42
203.5
  3
A3-20
100
AcDbAlignedDimension
 13
3790.507892500278
 23
2177.59506464578
 33
0.0
 14
3790.507892500278
 24
1974.09506464578
 34
0.0
 50
90.0
100
AcDbRotatedDimension
  0
DIMENSION
  5
986
330
17
100
AcDbEntity
  8
SUNPOU
100
AcDbDimension
  2
*D4
 10
3446.094939877974
 20
1887.492524267339
 30
0.0
 11
3400.094939877974
 21
1930.79379445656
 31
0.0
 70
    32
  1
87
 71
     5
 42
86.60254037844197
  3
A3-20
100
AcDbAlignedDimension
 13
3790.507892500278
 23
1974.09506464578
 33
0.0
 14
3840.507892500278
 24
1887.492524267338
 34
0.0
 50
90.0
100
AcDbRotatedDimension
  0
DIMENSION
  5
98D
330
17
100
AcDbEntity
  8
SUNPOU
100
AcDbDimension
  2
*D5
 10
5790.507892500278
 20
3110.769945161714
 30
0.0
 11
4790.507892500278
 21
3156.769945161714
 31
0.0
 70
    32
 71
     5
 42
2000.0
  3
A3-20
100
AcDbAlignedDimension
 13
3790.507892500278
 23
3632.054268116341
 33
0.0
 14
5790.507892500278
 24
3632.054268116341
 34
0.0
100
AcDbRotatedDimension
  0
DIMENSION
  5
98E
330
17
100
AcDbEntity
  8
SUNPOU
100
AcDbDimension
  2
*D6
 10
5290.507892500278
 20
3244.124480896369
 30
0.0
 11
5540.507892500278
 21
3290.124480896369
 31
0.0
 70
    32
 71
     5
 42
500.0
  3
A3-20
100
AcDbAlignedDimension
 13
5790.507892500278
 23
3632.054268116341
 33
0.0
 14
5290.507892500278
 24
3632.054268116341
 34
0.0
100
AcDbRotatedDimension
  0
DIMENSION
  5
98F
330
17
100
AcDbEntity
  8
SUNPOU
100
AcDbDimension
  2
*D7
 10
5290.507892500278
 20
3244.124480896369
 30
0.0
 11
5040.507892500278
 21
3290.124480896369
 31
0.0
 70
    32
 71
     5
 42
499.9999999999991
  3
A3-20
100
AcDbAlignedDimension
 13
4790.507892500279
 23
3532.054268116341
 33
0.0
 14
5290.507892500278
 24
3632.054268116341
 34
0.0
100
AcDbRotatedDimension
  0
DIMENSION
  5
990
330
17
100
AcDbEntity
  8
SUNPOU
100
AcDbDimension
  2
*D8
 10
4290.50789250028
 20
3244.124480896369
 30
0.0
 11
4540.50789250028
 21
3290.124480896369
 31
0.0
 70
    32
 71
     5
 42
499.9999999999991
  3
A3-20
100
AcDbAlignedDimension
 13
4790.507892500279
 23
3532.054268116341
 33
0.0
 14
4290.50789250028
 24
3632.05426811634
 34
0.0
100
AcDbRotatedDimension
  0
DIMENSION
  5
991
330
17
100
AcDbEntity
  8
SUNPOU
100
AcDbDimension
  2
*D9
 10
4290.50789250028
 20
3244.124480896369
 30
0.0
 11
4040.50789250028
 21
3290.124480896369
 31
0.0
 70
    32
 71
     5
 42
500.0
  3
A3-20
100
AcDbAlignedDimension
 13
3790.50789250028
 23
3632.054268116339
 33
0.0
 14
4290.50789250028
 24
3632.05426811634
 34
0.0
100
AcDbRotatedDimension
  0
DIMENSION
  5
992
330
17
100
AcDbEntity
  8
SUNPOU
100
AcDbDimension
  2
*D10
 10
5740.507892500276
 20
1015.345545304173
 30
0.0
 11
4790.507892500277
 21
1061.345545304173
 31
0.0
 70
    32
 71
     5
 42
1899.999999999998
  3
A3-20
100
AcDbAlignedDimension
 13
3840.507892500278
 23
1427.59506464578
 33
0.0
 14
5740.507892500276
 24
1427.59506464578
 34
0.0
100
AcDbRotatedDimension
  0
DIMENSION
  5
99B
330
17
100
AcDbEntity
  8
SUNPOU
100
AcDbDimension
  2
*D11
 10
5790.507892500278
 20
2546.87972975979
 30
0.0
 11
4790.507892500278
 21
2592.87972975979
 31
0.0
 70
    32
 71
     5
 42
2000.0
  3
A3-20
100
AcDbAlignedDimension
 13
3790.507892500278
 23
2177.595064645781
 33
0.0
 14
5790.507892500278
 24
2177.59506464578
 34
0.0
100
AcDbRotatedDimension
  0
DIMENSION
  5
9C0
330
17
100
AcDbEntity
  8
SUNPOU
100
AcDbDimension
  2
*D12
 10
1093.713318983642
 20
4382.054268116341
 30
0.0
 11
1047.713318983642
 21
4007.054268116341
 31
0.0
 70
    32
 71
     5
 42
749.9999999999995
  3
A3-20
100
AcDbAlignedDimension
 13
1727.964015237481
 23
3632.054268116341
 33
0.0
 14
1727.964015237481
 24
4382.054268116341
 34
0.0
 50
90.0
100
AcDbRotatedDimension
  0
DIMENSION
  5
9C1
330
17
100
AcDbEntity
  8
SUNPOU
100
AcDbDimension
  2
*D13
 10
1225.722531930696
 20
3742.054268116341
 30
0.0
 11
1179.722531930696
 21
4062.054268116341
 31
0.0
 70
    32
 71
     5
 42
639.9999999999995
  3
A3-20
100
AcDbAlignedDimension
 13
1727.964015237481
 23
4382.054268116341
 33
0.0
 14
1727.964015237481
 24
3742.054268116341
 34
0.0
 50
90.0
100
AcDbRotatedDimension
  0
DIMENSION
  5
9C7
330
17
100
AcDbEntity
  8
SUNPOU
100
AcDbDimension
  2
*D14
 10
2777.964015237481
 20
3702.054268116342
 30
0.0
 11
2731.964015237481
 21
4012.054268116342
 31
0.0
 70
    32
 71
     5
 42
619.9999999999982
  3
A3-20
100
AcDbAlignedDimension
 13
1797.964015237481
 23
4322.054268116341
 33
0.0
 14
2477.964015237481
 24
3702.054268116342
 34
0.0
 50
90.0
100
AcDbRotatedDimension
  0
DIMENSION
  5
9C8
330
17
100
AcDbEntity
  8
SUNPOU
100
AcDbDimension
  2
*D15
 10
2777.964015237481
 20
4322.05426811634
 30
0.0
 11
2731.964015237481
 21
4352.054268116341
 31
0.0
 70
    32
 71
     5
 42
60.0
  3
A3-20
100
AcDbAlignedDimension
 13
1797.964015237481
 23
4382.054268116341
 33
0.0
 14
1797.964015237481
 24
4322.054268116341
 34
0.0
 50
90.0
100
AcDbRotatedDimension
  0
DIMENSION
  5
9C9
330
17
100
AcDbEntity
  8
SUNPOU
100
AcDbDimension
  2
*D16
 10
2477.964015237481
 20
3132.054268116341
 30
0.0
 11
2102.964015237481
 21
3178.054268116341
 31
0.0
 70
    32
 71
     5
 42
750.0
  3
A3-20
100
AcDbAlignedDimension
 13
1727.964015237481
 23
3632.054268116341
 33
0.0
 14
2477.964015237481
 24
3632.054268116342
 34
0.0
100
AcDbRotatedDimension
  0
DIMENSION
  5
9CA
330
17
100
AcDbEntity
  8
SUNPOU
100
AcDbDimension
  2
*D17
 10
2477.964015237481
 20
3258.934666701987
 30
0.0
 11
2157.964015237481
 21
3304.934666701987
 31
0.0
 70
    32
 71
     5
 42
640.0
  3
A3-20
100
AcDbAlignedDimension
 13
1837.964015237481
 23
3632.054268116341
 33
0.0
 14
2477.964015237481
 24
3632.054268116342
 34
0.0
100
AcDbRotatedDimension
  0
DIMENSION
  5
9CF
330
17
100
AcDbEntity
  8
SUNPOU
100
AcDbDimension
  2
*D18
 10
3393.349289899466
 20
4382.054268116341
 30
0.0
 11
3347.349289899466
 21
4007.054268116342
 31
0.0
 70
    32
 71
     5
 42
750.0
  3
A3-20
100
AcDbAlignedDimension
 13
3790.507892500278
 23
3632.054268116341
 33
0.0
 14
3790.507892500278
 24
4382.054268116341
 34
0.0
 50
90.0
100
AcDbRotatedDimension
  0
DIMENSION
  5
9D0
330
17
100
AcDbEntity
  8
SUNPOU
100
AcDbDimension
  2
*D19
 10
3522.717827553406
 20
4032.054268116341
 30
0.0
 11
3476.717827553406
 21
4207.054268116342
 31
0.0
 70
    32
 71
     5
 42
350.0
  3
A3-20
100
AcDbAlignedDimension
 13
3790.507892500278
 23
4382.054268116341
 33
0.0
 14
3790.507892500278
 24
4032.054268116341
 34
0.0
 50
90.0
100
AcDbRotatedDimension
  0
LINE
  5
9D2
330
17
100
AcDbEntity
  8
SEIHIN
100
AcDbLine
 10
3840.507892500278
 20
1427.59506464578
 30
0.0
 11
5740.507892500276
 21
1427.59506464578
 31
0.0
  0
DIMENSION
  5
9D5
330
17
100
AcDbEntity
  8
SUNPOU
100
AcDbDimension
  2
*D20
 10
3321.089095851261
 20
1427.595064645781
 30
0.0
 11
3275.08909585126
 21
1802.595064645781
 31
0.0
 70
    32
 71
     5
 42
750.0
  3
A3-20
100
AcDbAlignedDimension
 13
3790.507892500278
 23
2177.59506464578
 33
0.0
 14
3840.507892500278
 24
1427.59506464578
 34
0.0
 50
90.0
100
AcDbRotatedDimension
  0
DIMENSION
  5
9D6
330
17
100
AcDbEntity
  8
SUNPOU
100
AcDbDimension
  2
*D21
 10
3446.094939877974
 20
1427.595064645781
 30
0.0
 11
3400.094939877974
 21
1657.54379445656
 31
0.0
 70
    32
  1
453
 71
     5
 42
459.897459621558
  3
A3-20
100
AcDbAlignedDimension
 13
3840.507892500278
 23
1887.492524267338
 33
0.0
 14
3840.507892500278
 24
1427.59506464578
 34
0.0
 50
90.0
100
AcDbRotatedDimension
  0
LINE
  5
A19
330
17
100
AcDbEntity
  8
1HASEN
100
AcDbLine
 10
4290.507892500278
 20
4082.054268116341
 30
0.0
 11
4290.507892500278
 21
3982.054268116341
 31
0.0
  0
LINE
  5
A1A
330
17
100
AcDbEntity
  8
1HASEN
100
AcDbLine
 10
5290.507892500279
 20
4082.054268116342
 30
0.0
 11
5290.507892500279
 21
3982.054268116342
 31
0.0
  0
TEXT
  5
1312
330
17
100
AcDbEntity
  8
SUNPOU
100
AcDbText
 10
1432.661871869812
 20
4174.392985970067
 30
0.0
 40
60.0
  1
水抜孔
 41
0.8
100
AcDbText
  0
LINE
  5
1313
330
17
100
AcDbEntity
  8
SUNPOU
100
AcDbLine
 10
1413.858590558961
 20
4160.766734372364
 30
0.0
 11
1632.873901063551
 21
4160.766734372364
 31
0.0
  0
LEADER
  5
1315
330
17
100
AcDbEntity
  8
SUNPOU
100
AcDbLeader
  3
A3-20
 76
     2
 10
1727.964015237481
 20
4032.054268116341
 30
0.0
 10
1632.873901063551
 20
4160.766734372364
 30
0.0
1001
ACAD
1000
DSTYLE
1002
{
1070
   147
1040
0.8
1070
    77
1070
     0
1002
}
  0
DIMENSION
  5
13E8
330
17
100
AcDbEntity
  8
SUNPOU
100
AcDbDimension
  2
*D28
 10
3790.507892500278
 20
1015.345545304173
 30
0.0
 11
3815.507892500278
 21
1061.345545304173
 31
0.0
 70
    32
 71
     5
 42
50.0
  3
A3-20
100
AcDbAlignedDimension
 13
3840.507892500278
 23
1427.59506464578
 33
0.0
 14
3790.507892500278
 24
1427.59506464578
 34
0.0
100
AcDbRotatedDimension
  0
DIMENSION
  5
13F6
330
17
100
AcDbEntity
  8
SUNPOU
100
AcDbDimension
  2
*D29
 10
5790.507892500276
 20
1015.345545304173
 30
0.0
 11
5765.507892500276
 21
1061.345545304173
 31
0.0
 70
    32
 71
     5
 42
50.0
  3
A3-20
100
AcDbAlignedDimension
 13
5740.507892500276
 23
1427.59506464578
 33
0.0
 14
5790.507892500276
 24
1427.59506464578
 34
0.0
 50
180.0
100
AcDbRotatedDimension
  0
LINE
  5
157C
330
17
100
AcDbEntity
  8
SEIHIN
100
AcDbLine
 10
3840.507892500279
 20
3702.054268116341
 30
0.0
 11
5740.50789250028
 21
3702.054268116341
 31
0.0
  0
LINE
  5
157E
330
17
100
AcDbEntity
  8
SEIHIN
100
AcDbLine
 10
3790.507892500279
 20
3836.210518116341
 30
0.0
 11
5790.507892500277
 21
3836.21051811634
 31
0.0
  0
LINE
  5
157F
330
17
100
AcDbEntity
  8
SEIHIN
100
AcDbLine
 10
3840.507892500278
 20
3632.054268116341
 30
0.0
 11
3840.507892500279
 21
3730.810518116341
 31
0.0
  0
LINE
  5
1581
330
17
100
AcDbEntity
  8
SEIHIN
100
AcDbLine
 10
3840.507892500279
 20
3730.810518116341
 30
0.0
 11
3790.507892500278
 21
3735.816439500823
 31
0.0
  0
LINE
  5
1584
330
17
100
AcDbEntity
  8
SEIHIN
100
AcDbLine
 10
3790.507892500278
 20
2107.59506464578
 30
0.0
 11
5790.507892500278
 21
2107.59506464578
 31
0.0
  0
LINE
  5
1586
330
17
100
AcDbEntity
  8
SEIHIN
100
AcDbLine
 10
3790.507892500278
 20
1974.09506464578
 30
0.0
 11
5790.507892500278
 21
1974.09506464578
 31
0.0
  0
LINE
  5
1595
330
17
100
AcDbEntity
  8
SEIHIN
100
AcDbLine
 10
1831.470480754722
 20
3836.210518116341
 30
0.0
 11
1931.464015237481
 21
3736.210518116341
 31
0.0
  0
LINE
  5
15B2
330
17
100
AcDbEntity
  8
SEIHIN
100
AcDbLine
 10
3790.507892500278
 20
2177.59506464578
 30
0.0
 11
3790.507892500278
 21
1974.09506464578
 31
0.0
  0
LINE
  5
15BA
330
17
100
AcDbEntity
  8
SEIHIN
100
AcDbLine
 10
3790.507892500278
 20
2074.09506464578
 30
0.0
 11
5790.507892500278
 21
2074.09506464578
 31
0.0
  0
LINE
  5
15D7
330
17
100
AcDbEntity
  8
SEIHIN
100
AcDbLine
 10
5740.507892500279
 20
1887.492524267338
 30
0.0
 11
5740.507892500279
 21
1427.59506464578
 31
0.0
  0
LINE
  5
15D8
330
17
100
AcDbEntity
  8
SEIHIN
100
AcDbLine
 10
5790.507892500279
 20
1974.09506464578
 30
0.0
 11
5740.507892500279
 21
1887.492524267338
 31
0.0
  0
LINE
  5
15D9
330
17
100
AcDbEntity
  8
SEIHIN
100
AcDbLine
 10
5790.507892500279
 20
2177.59506464578
 30
0.0
 11
5790.507892500279
 21
1974.09506464578
 31
0.0
  0
DIMENSION
  5
15DA
330
17
100
AcDbEntity
  8
SUNPOU
100
AcDbDimension
  2
*D34
 10
5790.507892500279
 20
1974.09506464578
 30
0.0
 11
5732.749837301844
 21
1758.539068098863
 31
0.0
 70
    34
 71
     5
 42
0.5235987755983054
  3
A3-20
100
AcDb2LineAngularDimension
 13
5790.507892500279
 23
1974.09506464578
 33
0.0
 14
5740.507892500279
 24
1887.492524267338
 34
0.0
 15
5790.507892500279
 25
2177.59506464578
 35
0.0
 16
5698.449754563769
 26
1721.167409388186
 36
0.0
1001
ACAD
1000
DSTYLE
1002
{
1070
   179
1070
     0
1002
}
  0
LINE
  5
15F5
330
17
100
AcDbEntity
  8
SEIHIN
100
AcDbLine
 10
3790.507892500279
 20
3736.210518116341
 30
0.0
 11
5790.507892500277
 21
3736.21051811634
 31
0.0
  0
LINE
  5
1606
330
17
100
AcDbEntity
  8
SEIHIN
100
AcDbLine
 10
5740.507892500279
 20
3632.054268116341
 30
0.0
 11
5740.507892500278
 21
3730.810518116341
 31
0.0
  0
LINE
  5
1607
330
17
100
AcDbEntity
  8
SEIHIN
100
AcDbLine
 10
5740.507892500278
 20
3730.810518116341
 30
0.0
 11
5790.507892500279
 21
3735.816439500823
 31
0.0
  0
ENDSEC
  0
SECTION
  2
OBJECTS
  0
DICTIONARY
  5
C
330
0
100
AcDbDictionary
281
     1
  3
ACAD_COLOR
350
A4
  3
ACAD_GROUP
350
D
  3
ACAD_LAYOUT
350
6F
  3
ACAD_MATERIAL
350
A3
  3
ACAD_MLEADERSTYLE
350
1635
  3
ACAD_MLINESTYLE
350
1A
  3
ACAD_PLOTSETTINGS
350
70
  3
ACAD_PLOTSTYLENAME
350
6D
  3
ACAD_SCALELIST
350
160E
  3
ACAD_TABLESTYLE
350
A5
  3
ACDB_RECOMPOSE_DATA
350
1634
  3
AcDbVariableDictionary
350
A0
  0
DICTIONARY
  5
A4
102
{ACAD_REACTORS
330
C
102
}
330
C
100
AcDbDictionary
281
     1
  0
DICTIONARY
  5
D
102
{ACAD_REACTORS
330
C
102
}
330
C
100
AcDbDictionary
281
     1
  0
DICTIONARY
  5
6F
102
{ACAD_REACTORS
330
C
102
}
330
C
100
AcDbDictionary
281
     1
  3
Model
350
71
  3
ﾚｲｱｳﾄ1
350
72
  0
DICTIONARY
  5
A3
102
{ACAD_REACTORS
330
C
102
}
330
C
100
AcDbDictionary
281
     1
  0
DICTIONARY
  5
1635
102
{ACAD_REACTORS
330
C
102
}
330
C
100
AcDbDictionary
281
     1
  0
DICTIONARY
  5
1A
102
{ACAD_REACTORS
330
C
102
}
330
C
100
AcDbDictionary
281
     1
  3
STANDARD
350
1B
  0
DICTIONARY
  5
70
102
{ACAD_REACTORS
330
C
102
}
330
C
100
AcDbDictionary
281
     1
  0
ACDBDICTIONARYWDFLT
  5
6D
102
{ACAD_REACTORS
330
C
102
}
330
C
100
AcDbDictionary
281
     1
  3
Normal
350
6E
100
AcDbDictionaryWithDefault
340
6E
  0
DICTIONARY
  5
160E
102
{ACAD_REACTORS
330
C
102
}
330
C
100
AcDbDictionary
281
     1
  3
A0
350
160F
  3
A1
350
1610
  3
A2
350
1611
  3
A3
350
1612
  3
A4
350
1613
  3
A5
350
1614
  3
A6
350
1615
  3
A7
350
1616
  3
A8
350
1617
  3
A9
350
1618
  3
B0
350
1619
  3
B1
350
161A
  3
B2
350
161B
  3
B3
350
161C
  3
B4
350
161D
  3
B5
350
161E
  3
B6
350
161F
  3
B7
350
1620
  3
B8
350
1621
  3
B9
350
1622
  3
C0
350
1623
  3
C1
350
1624
  3
C2
350
1625
  3
C3
350
1626
  3
C4
350
1627
  3
C5
350
1628
  3
C6
350
1629
  3
C7
350
162A
  3
C8
350
162B
  3
C9
350
162C
  3
D0
350
162D
  3
D1
350
162E
  3
D2
350
162F
  0
DICTIONARY
  5
A5
102
{ACAD_REACTORS
330
C
102
}
330
C
100
AcDbDictionary
281
     1
  3
Standard
350
A6
  0
XRECORD
  5
1634
102
{ACAD_REACTORS
330
C
102
}
330
C
100
AcDbXrecord
280
     1
 90
        1
330
A6
  0
DICTIONARY
  5
A0
102
{ACAD_REACTORS
330
C
102
}
330
C
100
AcDbDictionary
281
     1
  3
CANNOSCALE
350
1630
  3
CTABLESTYLE
350
B0
  3
DIMASSOC
350
A1
  3
PROJECTNAME
350
B1
  0
LAYOUT
  5
71
102
{ACAD_REACTORS
330
6F
102
}
330
6F
100
AcDbPlotSettings
  1

  2
RICOH IPSiO NX850 RPCS
  4

  6

 40
0.0
 41
0.0
 42
0.0
 43
0.0
 44
0.0
 45
0.0
 46
0.0
 47
0.0
 48
0.0
 49
0.0
140
0.0
141
0.0
142
1.0
143
1.0
 70
  1712
 72
     0
 73
     0
 74
     0
  7
acad.ctb
 75
     0
 76
     0
 77
     2
 78
   300
147
1.0
148
0.0
149
0.0
100
AcDbLayout
  1
Model
 70
     1
 71
     0
 10
0.0
 20
0.0
 11
12.0
 21
9.0
 12
0.0
 22
0.0
 32
0.0
 14
0.0
 24
0.0
 34
0.0
 15
0.0
 25
0.0
 35
0.0
146
0.0
 13
0.0
 23
0.0
 33
0.0
 16
1.0
 26
0.0
 36
0.0
 17
0.0
 27
1.0
 37
0.0
 76
     0
330
17
331
1608
  0
LAYOUT
  5
72
102
{ACAD_REACTORS
330
6F
102
}
330
6F
100
AcDbPlotSettings
  1

  2
RICOH IPSiO NX850 RPCS
  4

  6

 40
0.0
 41
0.0
 42
0.0
 43
0.0
 44
0.0
 45
0.0
 46
0.0
 47
0.0
 48
0.0
 49
0.0
140
0.0
141
0.0
142
1.0
143
1.0
 70
   688
 72
     0
 73
     0
 74
     5
  7
acad.ctb
 75
    16
 76
     0
 77
     2
 78
   300
147
1.0
148
0.0
149
0.0
100
AcDbLayout
  1
ﾚｲｱｳﾄ1
 70
     0
 71
     1
 10
0.0
 20
0.0
 11
12.0
 21
9.0
 12
0.0
 22
0.0
 32
0.0
 14
1.000000000000000E+20
 24
1.000000000000000E+20
 34
1.000000000000000E+20
 15
-1.000000000000000E+20
 25
-1.000000000000000E+20
 35
-1.000000000000000E+20
146
0.0
 13
0.0
 23
0.0
 33
0.0
 16
1.0
 26
0.0
 36
0.0
 17
0.0
 27
1.0
 37
0.0
 76
     0
330
14
  0
MLINESTYLE
  5
1B
102
{ACAD_REACTORS
330
1A
102
}
330
1A
100
AcDbMlineStyle
  2
STANDARD
 70
     0
  3

 62
   256
 51
90.0
 52
90.0
 71
     2
 49
0.5
 62
   256
  6
BYLAYER
 49
-0.5
 62
   256
  6
BYLAYER
  0
ACDBPLACEHOLDER
  5
6E
102
{ACAD_REACTORS
330
6D
102
}
330
6D
  0
SCALE
  5
160F
102
{ACAD_REACTORS
330
160E
102
}
330
160E
100
AcDbScale
 70
     0
300
1:1
140
1.0
141
1.0
290
     1
  0
SCALE
  5
1610
102
{ACAD_REACTORS
330
160E
102
}
330
160E
100
AcDbScale
 70
     0
300
1:2
140
1.0
141
2.0
290
     0
  0
SCALE
  5
1611
102
{ACAD_REACTORS
330
160E
102
}
330
160E
100
AcDbScale
 70
     0
300
1:4
140
1.0
141
4.0
290
     0
  0
SCALE
  5
1612
102
{ACAD_REACTORS
330
160E
102
}
330
160E
100
AcDbScale
 70
     0
300
1:5
140
1.0
141
5.0
290
     0
  0
SCALE
  5
1613
102
{ACAD_REACTORS
330
160E
102
}
330
160E
100
AcDbScale
 70
     0
300
1:8
140
1.0
141
8.0
290
     0
  0
SCALE
  5
1614
102
{ACAD_REACTORS
330
160E
102
}
330
160E
100
AcDbScale
 70
     0
300
1:10
140
1.0
141
10.0
290
     0
  0
SCALE
  5
1615
102
{ACAD_REACTORS
330
160E
102
}
330
160E
100
AcDbScale
 70
     0
300
1:16
140
1.0
141
16.0
290
     0
  0
SCALE
  5
1616
102
{ACAD_REACTORS
330
160E
102
}
330
160E
100
AcDbScale
 70
     0
300
1:20
140
1.0
141
20.0
290
     0
  0
SCALE
  5
1617
102
{ACAD_REACTORS
330
160E
102
}
330
160E
100
AcDbScale
 70
     0
300
1:30
140
1.0
141
30.0
290
     0
  0
SCALE
  5
1618
102
{ACAD_REACTORS
330
160E
102
}
330
160E
100
AcDbScale
 70
     0
300
1:40
140
1.0
141
40.0
290
     0
  0
SCALE
  5
1619
102
{ACAD_REACTORS
330
160E
102
}
330
160E
100
AcDbScale
 70
     0
300
1:50
140
1.0
141
50.0
290
     0
  0
SCALE
  5
161A
102
{ACAD_REACTORS
330
160E
102
}
330
160E
100
AcDbScale
 70
     0
300
1:100
140
1.0
141
100.0
290
     0
  0
SCALE
  5
161B
102
{ACAD_REACTORS
330
160E
102
}
330
160E
100
AcDbScale
 70
     0
300
2:1
140
2.0
141
1.0
290
     0
  0
SCALE
  5
161C
102
{ACAD_REACTORS
330
160E
102
}
330
160E
100
AcDbScale
 70
     0
300
4:1
140
4.0
141
1.0
290
     0
  0
SCALE
  5
161D
102
{ACAD_REACTORS
330
160E
102
}
330
160E
100
AcDbScale
 70
     0
300
8:1
140
8.0
141
1.0
290
     0
  0
SCALE
  5
161E
102
{ACAD_REACTORS
330
160E
102
}
330
160E
100
AcDbScale
 70
     0
300
10:1
140
10.0
141
1.0
290
     0
  0
SCALE
  5
161F
102
{ACAD_REACTORS
330
160E
102
}
330
160E
100
AcDbScale
 70
     0
300
100:1
140
100.0
141
1.0
290
     0
  0
SCALE
  5
1620
102
{ACAD_REACTORS
330
160E
102
}
330
160E
100
AcDbScale
 70
     0
300
1/128" = 1'-0"
140
0.0078125
141
12.0
290
     0
  0
SCALE
  5
1621
102
{ACAD_REACTORS
330
160E
102
}
330
160E
100
AcDbScale
 70
     0
300
1/64" = 1'-0"
140
0.015625
141
12.0
290
     0
  0
SCALE
  5
1622
102
{ACAD_REACTORS
330
160E
102
}
330
160E
100
AcDbScale
 70
     0
300
1/32" = 1'-0"
140
0.03125
141
12.0
290
     0
  0
SCALE
  5
1623
102
{ACAD_REACTORS
330
160E
102
}
330
160E
100
AcDbScale
 70
     0
300
1/16" = 1'-0"
140
0.0625
141
12.0
290
     0
  0
SCALE
  5
1624
102
{ACAD_REACTORS
330
160E
102
}
330
160E
100
AcDbScale
 70
     0
300
3/32" = 1'-0"
140
0.09375
141
12.0
290
     0
  0
SCALE
  5
1625
102
{ACAD_REACTORS
330
160E
102
}
330
160E
100
AcDbScale
 70
     0
300
1/8" = 1'-0"
140
0.125
141
12.0
290
     0
  0
SCALE
  5
1626
102
{ACAD_REACTORS
330
160E
102
}
330
160E
100
AcDbScale
 70
     0
300
3/16" = 1'-0"
140
0.1875
141
12.0
290
     0
  0
SCALE
  5
1627
102
{ACAD_REACTORS
330
160E
102
}
330
160E
100
AcDbScale
 70
     0
300
1/4" = 1'-0"
140
0.25
141
12.0
290
     0
  0
SCALE
  5
1628
102
{ACAD_REACTORS
330
160E
102
}
330
160E
100
AcDbScale
 70
     0
300
3/8" = 1'-0"
140
0.375
141
12.0
290
     0
  0
SCALE
  5
1629
102
{ACAD_REACTORS
330
160E
102
}
330
160E
100
AcDbScale
 70
     0
300
1/2" = 1'-0"
140
0.5
141
12.0
290
     0
  0
SCALE
  5
162A
102
{ACAD_REACTORS
330
160E
102
}
330
160E
100
AcDbScale
 70
     0
300
3/4" = 1'-0"
140
0.75
141
12.0
290
     0
  0
SCALE
  5
162B
102
{ACAD_REACTORS
330
160E
102
}
330
160E
100
AcDbScale
 70
     0
300
1" = 1'-0"
140
1.0
141
12.0
290
     0
  0
SCALE
  5
162C
102
{ACAD_REACTORS
330
160E
102
}
330
160E
100
AcDbScale
 70
     0
300
1-1/2" = 1'-0"
140
1.5
141
12.0
290
     0
  0
SCALE
  5
162D
102
{ACAD_REACTORS
330
160E
102
}
330
160E
100
AcDbScale
 70
     0
300
3" = 1'-0"
140
3.0
141
12.0
290
     0
  0
SCALE
  5
162E
102
{ACAD_REACTORS
330
160E
102
}
330
160E
100
AcDbScale
 70
     0
300
6" = 1'-0"
140
6.0
141
12.0
290
     0
  0
SCALE
  5
162F
102
{ACAD_REACTORS
330
160E
102
}
330
160E
100
AcDbScale
 70
     0
300
1'-0" = 1'-0"
140
12.0
141
12.0
290
     0
  0
TABLESTYLE
  5
A6
102
{ACAD_REACTORS
330
A5
102
}
102
{ACAD_XDICTIONARY
360
1631
102
}
330
A5
100
AcDbTableStyle
  3
Standard
 70
     0
 71
     0
 40
0.06
 41
0.06
280
     0
281
     0
  7
STANDARD
140
0.18
170
     2
 62
     0
 63
   257
283
     0
274
    -2
284
     1
 64
     0
275
    -2
285
     1
 65
     0
276
    -2
286
     1
 66
     0
277
    -2
287
     1
 67
     0
278
    -2
288
     1
 68
     0
279
    -2
289
     1
 69
     0
  7
STANDARD
140
0.25
170
     5
 62
     0
 63
   257
283
     0
274
    -2
284
     1
 64
     0
275
    -2
285
     1
 65
     0
276
    -2
286
     1
 66
     0
277
    -2
287
     1
 67
     0
278
    -2
288
     1
 68
     0
279
    -2
289
     1
 69
     0
  7
STANDARD
140
0.18
170
     5
 62
     0
 63
   257
283
     0
274
    -2
284
     1
 64
     0
275
    -2
285
     1
 65
     0
276
    -2
286
     1
 66
     0
277
    -2
287
     1
 67
     0
278
    -2
288
     1
 68
     0
279
    -2
289
     1
 69
     0
  0
DICTIONARYVAR
  5
1630
102
{ACAD_REACTORS
330
A0
102
}
330
A0
100
DictionaryVariables
280
     0
  1
1:1
  0
DICTIONARYVAR
  5
B0
102
{ACAD_REACTORS
330
A0
102
}
330
A0
100
DictionaryVariables
280
     0
  1
Standard
  0
DICTIONARYVAR
  5
A1
102
{ACAD_REACTORS
330
A0
102
}
330
A0
100
DictionaryVariables
280
     0
  1
1
  0
DICTIONARYVAR
  5
B1
102
{ACAD_REACTORS
330
A0
102
}
330
A0
100
DictionaryVariables
280
     0
  1

  0
DICTIONARY
  5
1631
330
A6
100
AcDbDictionary
280
     1
281
     1
  3
ACAD_ROUNDTRIP_2008_TABLESTYLE_CELLSTYLEMAP
360
1633
  3
ACAD_XREC_ROUNDTRIP
360
1632
  0
CELLSTYLEMAP
  5
1633
102
{ACAD_REACTORS
330
1631
102
}
330
1631
100
AcDbCellStyleMap
 90
        3
300
CELLSTYLE
  1
TABLEFORMAT_BEGIN
 90
        5
170
     1
 91
        0
 92
    32768
 62
   257
 93
        1
300
CONTENTFORMAT
  1
CONTENTFORMAT_BEGIN
 90
        0
 91
        0
 92
        4
 93
        0
300

 40
0.0
140
1.0
 94
        5
 62
     0
340
F
144
0.25
309
CONTENTFORMAT_END
171
     1
301
MARGIN
  1
CELLMARGIN_BEGIN
 40
0.06
 40
0.06
 40
0.06
 40
0.06
 40
0.06
 40
0.06
309
CELLMARGIN_END
 94
        6
 95
        1
302
GRIDFORMAT
  1
GRIDFORMAT_BEGIN
 90
        0
 91
        1
 62
     0
 92
       -2
340
0
 93
        0
 40
0.045
309
GRIDFORMAT_END
 95
        2
302
GRIDFORMAT
  1
GRIDFORMAT_BEGIN
 90
        0
 91
        1
 62
     0
 92
       -2
340
0
 93
        0
 40
0.045
309
GRIDFORMAT_END
 95
        4
302
GRIDFORMAT
  1
GRIDFORMAT_BEGIN
 90
        0
 91
        1
 62
     0
 92
       -2
340
0
 93
        0
 40
0.045
309
GRIDFORMAT_END
 95
        8
302
GRIDFORMAT
  1
GRIDFORMAT_BEGIN
 90
        0
 91
        1
 62
     0
 92
       -2
340
0
 93
        0
 40
0.045
309
GRIDFORMAT_END
 95
       16
302
GRIDFORMAT
  1
GRIDFORMAT_BEGIN
 90
        0
 91
        1
 62
     0
 92
       -2
340
0
 93
        0
 40
0.045
309
GRIDFORMAT_END
 95
       32
302
GRIDFORMAT
  1
GRIDFORMAT_BEGIN
 90
        0
 91
        1
 62
     0
 92
       -2
340
0
 93
        0
 40
0.045
309
GRIDFORMAT_END
309
TABLEFORMAT_END
  1
CELLSTYLE_BEGIN
 90
        1
 91
        1
300
_TITLE
309
CELLSTYLE_END
300
CELLSTYLE
  1
TABLEFORMAT_BEGIN
 90
        5
170
     1
 91
        0
 92
        0
 62
   257
 93
        1
300
CONTENTFORMAT
  1
CONTENTFORMAT_BEGIN
 90
        0
 91
        0
 92
        4
 93
        0
300

 40
0.0
140
1.0
 94
        5
 62
     0
340
F
144
0.18
309
CONTENTFORMAT_END
171
     1
301
MARGIN
  1
CELLMARGIN_BEGIN
 40
0.06
 40
0.06
 40
0.06
 40
0.06
 40
0.06
 40
0.06
309
CELLMARGIN_END
 94
        6
 95
        1
302
GRIDFORMAT
  1
GRIDFORMAT_BEGIN
 90
        0
 91
        1
 62
     0
 92
       -2
340
0
 93
        0
 40
0.045
309
GRIDFORMAT_END
 95
        2
302
GRIDFORMAT
  1
GRIDFORMAT_BEGIN
 90
        0
 91
        1
 62
     0
 92
       -2
340
0
 93
        0
 40
0.045
309
GRIDFORMAT_END
 95
        4
302
GRIDFORMAT
  1
GRIDFORMAT_BEGIN
 90
        0
 91
        1
 62
     0
 92
       -2
340
0
 93
        0
 40
0.045
309
GRIDFORMAT_END
 95
        8
302
GRIDFORMAT
  1
GRIDFORMAT_BEGIN
 90
        0
 91
        1
 62
     0
 92
       -2
340
0
 93
        0
 40
0.045
309
GRIDFORMAT_END
 95
       16
302
GRIDFORMAT
  1
GRIDFORMAT_BEGIN
 90
        0
 91
        1
 62
     0
 92
       -2
340
0
 93
        0
 40
0.045
309
GRIDFORMAT_END
 95
       32
302
GRIDFORMAT
  1
GRIDFORMAT_BEGIN
 90
        0
 91
        1
 62
     0
 92
       -2
340
0
 93
        0
 40
0.045
309
GRIDFORMAT_END
309
TABLEFORMAT_END
  1
CELLSTYLE_BEGIN
 90
        2
 91
        1
300
_HEADER
309
CELLSTYLE_END
300
CELLSTYLE
  1
TABLEFORMAT_BEGIN
 90
        5
170
     1
 91
        0
 92
        0
 62
   257
 93
        1
300
CONTENTFORMAT
  1
CONTENTFORMAT_BEGIN
 90
        0
 91
        0
 92
        4
 93
        0
300

 40
0.0
140
1.0
 94
        2
 62
     0
340
F
144
0.18
309
CONTENTFORMAT_END
171
     1
301
MARGIN
  1
CELLMARGIN_BEGIN
 40
0.06
 40
0.06
 40
0.06
 40
0.06
 40
0.06
 40
0.06
309
CELLMARGIN_END
 94
        6
 95
        1
302
GRIDFORMAT
  1
GRIDFORMAT_BEGIN
 90
        0
 91
        1
 62
     0
 92
       -2
340
0
 93
        0
 40
0.045
309
GRIDFORMAT_END
 95
        2
302
GRIDFORMAT
  1
GRIDFORMAT_BEGIN
 90
        0
 91
        1
 62
     0
 92
       -2
340
0
 93
        0
 40
0.045
309
GRIDFORMAT_END
 95
        4
302
GRIDFORMAT
  1
GRIDFORMAT_BEGIN
 90
        0
 91
        1
 62
     0
 92
       -2
340
0
 93
        0
 40
0.045
309
GRIDFORMAT_END
 95
        8
302
GRIDFORMAT
  1
GRIDFORMAT_BEGIN
 90
        0
 91
        1
 62
     0
 92
       -2
340
0
 93
        0
 40
0.045
309
GRIDFORMAT_END
 95
       16
302
GRIDFORMAT
  1
GRIDFORMAT_BEGIN
 90
        0
 91
        1
 62
     0
 92
       -2
340
0
 93
        0
 40
0.045
309
GRIDFORMAT_END
 95
       32
302
GRIDFORMAT
  1
GRIDFORMAT_BEGIN
 90
        0
 91
        1
 62
     0
 92
       -2
340
0
 93
        0
 40
0.045
309
GRIDFORMAT_END
309
TABLEFORMAT_END
  1
CELLSTYLE_BEGIN
 90
        3
 91
        2
300
_DATA
309
CELLSTYLE_END
  0
XRECORD
  5
1632
102
{ACAD_REACTORS
330
1631
102
}
330
1631
100
AcDbXrecord
280
     1
102
ACAD_ROUNDTRIP_PRE2007_TABLESTYLE
 90
        4
 91
        0
  1

 92
        4
 93
        0
  2

 94
        4
 95
        0
  3

  0
ENDSEC
  0
EOF
