  0
SECTION
  2
HEADER
  9
$ACADVER
  1
AC1018
  9
$ACADMAINTVER
 70
     0
  9
$DWGCODEPAGE
  3
ANSI_932
  9
$LASTSAVEDBY
  1
shinwa
  9
$INSBASE
 10
0.0
 20
0.0
 30
0.0
  9
$EXTMIN
 10
376.7808576631921
 20
53.18824234306877
 30
0.0
  9
$EXTMAX
 10
11304.78343630826
 20
7982.039940919411
 30
0.0
  9
$LIMMIN
 10
0.0
 20
0.0
  9
$LIMMAX
 10
11880.0
 20
8400.0
  9
$ORTHOMODE
 70
     1
  9
$REGENMODE
 70
     1
  9
$FILLMODE
 70
     1
  9
$QTEXTMODE
 70
     0
  9
$MIRRTEXT
 70
     1
  9
$LTSCALE
 40
100.0
  9
$ATTMODE
 70
     1
  9
$TEXTSIZE
 40
60.0
  9
$TRACEWID
 40
0.05
  9
$TEXTSTYLE
  7
A
  9
$CLAYER
  8
SUNPOU
  9
$CELTYPE
  6
BYLAYER
  9
$CECOLOR
 62
   256
  9
$CELTSCALE
 40
1.0
  9
$DISPSILH
 70
     0
  9
$DIMSCALE
 40
1.0
  9
$DIMASZ
 40
40.0
  9
$DIMEXO
 40
40.0
  9
$DIMDLI
 40
140.0
  9
$DIMRND
 40
0.0
  9
$DIMDLE
 40
0.0
  9
$DIMEXE
 40
20.0
  9
$DIMTP
 40
0.0
  9
$DIMTM
 40
0.0
  9
$DIMTXT
 40
60.0
  9
$DIMCEN
 40
0.09
  9
$DIMTSZ
 40
0.0
  9
$DIMTOL
 70
     0
  9
$DIMLIM
 70
     0
  9
$DIMTIH
 70
     0
  9
$DIMTOH
 70
     0
  9
$DIMSE1
 70
     0
  9
$DIMSE2
 70
     0
  9
$DIMTAD
 70
     0
  9
$DIMZIN
 70
     0
  9
$DIMBLK
  1

  9
$DIMASO
 70
     1
  9
$DIMSHO
 70
     0
  9
$DIMPOST
  1

  9
$DIMAPOST
  1

  9
$DIMALT
 70
     0
  9
$DIMALTD
 70
     2
  9
$DIMALTF
 40
25.4
  9
$DIMLFAC
 40
1.0
  9
$DIMTOFL
 70
     1
  9
$DIMTVP
 40
1.0
  9
$DIMTIX
 70
     0
  9
$DIMSOXD
 70
     0
  9
$DIMSAH
 70
     0
  9
$DIMBLK1
  1

  9
$DIMBLK2
  1

  9
$DIMSTYLE
  2
STANDARD
  9
$DIMCLRD
 70
     0
  9
$DIMCLRE
 70
     0
  9
$DIMCLRT
 70
     0
  9
$DIMTFAC
 40
1.0
  9
$DIMGAP
 40
0.09
  9
$DIMJUST
 70
     0
  9
$DIMSD1
 70
     0
  9
$DIMSD2
 70
     0
  9
$DIMTOLJ
 70
     1
  9
$DIMTZIN
 70
     0
  9
$DIMALTZ
 70
     0
  9
$DIMALTTZ
 70
     0
  9
$DIMUPT
 70
     0
  9
$DIMDEC
 70
     0
  9
$DIMTDEC
 70
     0
  9
$DIMALTU
 70
     2
  9
$DIMALTTD
 70
     2
  9
$DIMTXSTY
  7
A
  9
$DIMAUNIT
 70
     1
  9
$DIMADEC
 70
     0
  9
$DIMALTRND
 40
0.0
  9
$DIMAZIN
 70
     0
  9
$DIMDSEP
 70
    46
  9
$DIMATFIT
 70
     3
  9
$DIMFRAC
 70
     0
  9
$DIMLDRBLK
  1

  9
$DIMLUNIT
 70
     2
  9
$DIMLWD
 70
    -2
  9
$DIMLWE
 70
    -2
  9
$DIMTMOVE
 70
     2
  9
$LUNITS
 70
     2
  9
$LUPREC
 70
     0
  9
$SKETCHINC
 40
0.1
  9
$FILLETRAD
 40
0.0
  9
$AUNITS
 70
     1
  9
$AUPREC
 70
     4
  9
$MENU
  1
acad
  9
$ELEVATION
 40
0.0
  9
$PELEVATION
 40
0.0
  9
$THICKNESS
 40
0.0
  9
$LIMCHECK
 70
     0
  9
$CHAMFERA
 40
0.0
  9
$CHAMFERB
 40
0.0
  9
$CHAMFERC
 40
0.0
  9
$CHAMFERD
 40
0.0
  9
$SKPOLY
 70
     0
  9
$TDCREATE
 40
2448721.803668981
  9
$TDUCREATE
 40
2448721.428668981
  9
$TDUPDATE
 40
2457794.735804977
  9
$TDUUPDATE
 40
2457794.360804977
  9
$TDINDWG
 40
2.3344137963
  9
$TDUSRTIMER
 40
2.3344137963
  9
$USRTIMER
 70
     1
  9
$ANGBASE
 50
0.0
  9
$ANGDIR
 70
     0
  9
$PDMODE
 70
    32
  9
$PDSIZE
 40
1.0
  9
$PLINEWID
 40
0.0
  9
$SPLFRAME
 70
     0
  9
$SPLINETYPE
 70
     6
  9
$SPLINESEGS
 70
     8
  9
$HANDSEED
  5
6B3E
  9
$SURFTAB1
 70
     6
  9
$SURFTAB2
 70
     6
  9
$SURFTYPE
 70
     6
  9
$SURFU
 70
     6
  9
$SURFV
 70
     6
  9
$UCSBASE
  2

  9
$UCSNAME
  2

  9
$UCSORG
 10
0.0
 20
0.0
 30
0.0
  9
$UCSXDIR
 10
1.0
 20
0.0
 30
0.0
  9
$UCSYDIR
 10
0.0
 20
1.0
 30
0.0
  9
$UCSORTHOREF
  2

  9
$UCSORTHOVIEW
 70
     0
  9
$UCSORGTOP
 10
0.0
 20
0.0
 30
0.0
  9
$UCSORGBOTTOM
 10
0.0
 20
0.0
 30
0.0
  9
$UCSORGLEFT
 10
0.0
 20
0.0
 30
0.0
  9
$UCSORGRIGHT
 10
0.0
 20
0.0
 30
0.0
  9
$UCSORGFRONT
 10
0.0
 20
0.0
 30
0.0
  9
$UCSORGBACK
 10
0.0
 20
0.0
 30
0.0
  9
$PUCSBASE
  2

  9
$PUCSNAME
  2

  9
$PUCSORG
 10
0.0
 20
0.0
 30
0.0
  9
$PUCSXDIR
 10
1.0
 20
0.0
 30
0.0
  9
$PUCSYDIR
 10
0.0
 20
1.0
 30
0.0
  9
$PUCSORTHOREF
  2

  9
$PUCSORTHOVIEW
 70
     0
  9
$PUCSORGTOP
 10
0.0
 20
0.0
 30
0.0
  9
$PUCSORGBOTTOM
 10
0.0
 20
0.0
 30
0.0
  9
$PUCSORGLEFT
 10
0.0
 20
0.0
 30
0.0
  9
$PUCSORGRIGHT
 10
0.0
 20
0.0
 30
0.0
  9
$PUCSORGFRONT
 10
0.0
 20
0.0
 30
0.0
  9
$PUCSORGBACK
 10
0.0
 20
0.0
 30
0.0
  9
$USERI1
 70
     0
  9
$USERI2
 70
     0
  9
$USERI3
 70
     0
  9
$USERI4
 70
     0
  9
$USERI5
 70
     0
  9
$USERR1
 40
0.0
  9
$USERR2
 40
0.0
  9
$USERR3
 40
0.0
  9
$USERR4
 40
0.0
  9
$USERR5
 40
0.0
  9
$WORLDVIEW
 70
     1
  9
$SHADEDGE
 70
     3
  9
$SHADEDIF
 70
    70
  9
$TILEMODE
 70
     1
  9
$MAXACTVP
 70
    48
  9
$PINSBASE
 10
0.0
 20
0.0
 30
0.0
  9
$PLIMCHECK
 70
     0
  9
$PEXTMIN
 10
1.000000000000000E+20
 20
1.000000000000000E+20
 30
1.000000000000000E+20
  9
$PEXTMAX
 10
-1.000000000000000E+20
 20
-1.000000000000000E+20
 30
-1.000000000000000E+20
  9
$PLIMMIN
 10
0.0
 20
0.0
  9
$PLIMMAX
 10
12.0
 20
9.0
  9
$UNITMODE
 70
     0
  9
$VISRETAIN
 70
     0
  9
$PLINEGEN
 70
     0
  9
$PSLTSCALE
 70
     0
  9
$TREEDEPTH
 70
  3020
  9
$CMLSTYLE
  2
STANDARD
  9
$CMLJUST
 70
     0
  9
$CMLSCALE
 40
1.0
  9
$PROXYGRAPHICS
 70
     1
  9
$MEASUREMENT
 70
     0
  9
$CELWEIGHT
370
    -1
  9
$ENDCAPS
280
     0
  9
$JOINSTYLE
280
     0
  9
$LWDISPLAY
290
     0
  9
$INSUNITS
 70
     0
  9
$HYPERLINKBASE
  1

  9
$STYLESHEET
  1
acad.ctb
  9
$XEDIT
290
     1
  9
$CEPSNTYPE
380
     0
  9
$PSTYLEMODE
290
     1
  9
$FINGERPRINTGUID
  2
{0A1EBB63-90A8-11D6-916A-00E02956DA86}
  9
$VERSIONGUID
  2
{77BD798A-4103-4CA6-A4CB-78F04B70D004}
  9
$EXTNAMES
290
     1
  9
$PSVPSCALE
 40
0.0
  9
$OLESTARTUP
290
     0
  9
$SORTENTS
280
   127
  9
$INDEXCTL
280
     0
  9
$HIDETEXT
280
     0
  9
$XCLIPFRAME
290
     0
  9
$HALOGAP
280
     0
  9
$OBSCOLOR
 70
   257
  9
$OBSLTYPE
280
     0
  9
$INTERSECTIONDISPLAY
280
     0
  9
$INTERSECTIONCOLOR
 70
   257
  9
$DIMASSOC
280
     1
  9
$PROJECTNAME
  1

  0
ENDSEC
  0
SECTION
  2
CLASSES
  0
CLASS
  1
DICTIONARYVAR
  2
AcDbDictionaryVar
  3
ObjectDBX Classes
 90
        0
 91
        4
280
     0
281
     0
  0
CLASS
  1
LWPOLYLINE
  2
AcDbPolyline
  3
AutoCAD 2000
 90
        0
 91
        1
280
     0
281
     1
  0
CLASS
  1
ACDBDICTIONARYWDFLT
  2
AcDbDictionaryWithDefault
  3
ObjectDBX Classes
 90
        0
 91
        4
280
     0
281
     0
  0
CLASS
  1
ACDBPLACEHOLDER
  2
AcDbPlaceHolder
  3
ObjectDBX Classes
 90
        0
 91
        1
280
     0
281
     0
  0
CLASS
  1
LAYOUT
  2
AcDbLayout
  3
ObjectDBX Classes
 90
        0
 91
        1
280
     0
281
     0
  0
CLASS
  1
DUMMY
  2
AcDbLongTransaction
  3
DUMMY
 90
        0
 91
        1
280
     0
281
     0
  0
CLASS
  1
LWPOLYLINE
  2
AcDbPolyline
  3
AutoCAD 2000
 90
        0
 91
        1
280
     0
281
     1
  0
CLASS
  1
HATCH
  2
AcDbHatch
  3
AutoCAD 2000
 90
        0
 91
        1
280
     0
281
     1
  0
CLASS
  1
XRECORD
  2
AcDbXrecord
  3
AutoCAD 2000
 90
        0
 91
        1
280
     0
281
     0
  0
CLASS
  1
DUMMY
  2
AcDbLongTransaction
  3
DUMMY
 90
        0
 91
        1
280
     0
281
     0
  0
CLASS
  1
LWPOLYLINE
  2
AcDbPolyline
  3
AutoCAD 2000
 90
        0
 91
        1
280
     0
281
     1
  0
CLASS
  1
HATCH
  2
AcDbHatch
  3
AutoCAD 2000
 90
        0
 91
        1
280
     0
281
     1
  0
CLASS
  1
XRECORD
  2
AcDbXrecord
  3
AutoCAD 2000
 90
        0
 91
        1
280
     0
281
     0
  0
CLASS
  1
DUMMY
  2
AcDbLongTransaction
  3
DUMMY
 90
        0
 91
        1
280
     0
281
     0
  0
CLASS
  1
LWPOLYLINE
  2
AcDbPolyline
  3
AutoCAD 2000
 90
        0
 91
        1
280
     0
281
     1
  0
CLASS
  1
HATCH
  2
AcDbHatch
  3
AutoCAD 2000
 90
        0
 91
        1
280
     0
281
     1
  0
CLASS
  1
XRECORD
  2
AcDbXrecord
  3
AutoCAD 2000
 90
        0
 91
        1
280
     0
281
     0
  0
CLASS
  1
DUMMY
  2
AcDbLongTransaction
  3
DUMMY
 90
        0
 91
        1
280
     0
281
     0
  0
CLASS
  1
LWPOLYLINE
  2
AcDbPolyline
  3
AutoCAD 2000
 90
        0
 91
        1
280
     0
281
     1
  0
CLASS
  1
HATCH
  2
AcDbHatch
  3
AutoCAD 2000
 90
        0
 91
        1
280
     0
281
     1
  0
CLASS
  1
XRECORD
  2
AcDbXrecord
  3
AutoCAD 2000
 90
        0
 91
        1
280
     0
281
     0
  0
CLASS
  1
TABLESTYLE
  2
AcDbTableStyle
  3
ObjectDBX Classes
 90
     4095
 91
        4
280
     0
281
     0
  0
CLASS
  1
SORTENTSTABLE
  2
AcDbSortentsTable
  3
ObjectDBX Classes
 90
        0
 91
        4
280
     0
281
     0
  0
CLASS
  1
MATERIAL
  2
AcDbMaterial
  3
ObjectDBX Classes
 90
     1153
 91
        4
280
     0
281
     0
  0
CLASS
  1
VISUALSTYLE
  2
AcDbVisualStyle
  3
ObjectDBX Classes
 90
     4095
 91
        4
280
     0
281
     0
  0
CLASS
  1
SCALE
  2
AcDbScale
  3
ObjectDBX Classes
 90
     1153
 91
        4
280
     0
281
     0
  0
CLASS
  1
MLEADERSTYLE
  2
AcDbMLeaderStyle
  3
ACDB_MLEADERSTYLE_CLASS
 90
     4095
 91
        4
280
     0
281
     0
  0
CLASS
  1
ACDBSECTIONVIEWSTYLE
  2
AcDbSectionViewStyle
  3
ObjectDBX Classes
 90
     1025
 91
        2
280
     1
281
     0
  0
CLASS
  1
ACDBDETAILVIEWSTYLE
  2
AcDbDetailViewStyle
  3
ObjectDBX Classes
 90
     1025
 91
        2
280
     1
281
     0
  0
CLASS
  1
CELLSTYLEMAP
  2
AcDbCellStyleMap
  3
ObjectDBX Classes
 90
     1152
 91
        4
280
     0
281
     0
  0
ENDSEC
  0
SECTION
  2
TABLES
  0
TABLE
  2
VPORT
  5
8
102
{ACAD_XDICTIONARY
360
6B02
102
}
330
0
100
AcDbSymbolTable
 70
     1
  0
VPORT
  5
6A44
330
8
100
AcDbSymbolTableRecord
100
AcDbViewportTableRecord
  2
*Active
 70
     0
 10
0.0
 20
0.0
 11
1.0
 21
1.0
 12
6881.075919311512
 22
4076.365187373776
 13
0.0
 23
0.0
 14
10.0
 24
10.0
 15
100.0
 25
100.0
 16
0.0
 26
0.0
 36
1.0
 17
0.0
 27
0.0
 37
0.0
 40
9310.207554561595
 41
1.560747663551402
 42
50.0
 43
0.0
 44
0.0
 50
0.0
 51
0.0
 71
     0
 72
   100
 73
     1
 74
     0
 75
     0
 76
     0
 77
     0
 78
     2
281
     0
 65
     1
110
0.0
120
0.0
130
0.0
111
1.0
121
0.0
131
0.0
112
0.0
122
1.0
132
0.0
 79
     0
146
0.0
1001
ACAD_NAV_VCDISPLAY
1070
     3
  0
ENDTAB
  0
TABLE
  2
LTYPE
  5
5
330
0
100
AcDbSymbolTable
 70
     5
  0
LTYPE
  5
11
330
5
100
AcDbSymbolTableRecord
100
AcDbLinetypeTableRecord
  2
BYBLOCK
 70
     0
  3

 72
    65
 73
     0
 40
0.0
  0
LTYPE
  5
12
330
5
100
AcDbSymbolTableRecord
100
AcDbLinetypeTableRecord
  2
BYLAYER
 70
     0
  3

 72
    65
 73
     0
 40
0.0
  0
LTYPE
  5
13
330
5
100
AcDbSymbolTableRecord
100
AcDbLinetypeTableRecord
  2
CONTINUOUS
 70
     0
  3
実線
 72
    65
 73
     0
 40
0.0
  0
LTYPE
  5
A0
330
5
100
AcDbSymbolTableRecord
100
AcDbLinetypeTableRecord
  2
HIDDEN
 70
     0
  3
_ _ _ _ _ _ _ _ _ _ _ _ _ _ _ _ _ _ _ _ _ _ _
 72
    65
 73
     2
 40
0.375
 49
0.25
 74
     0
 49
-0.125
 74
     0
  0
LTYPE
  5
A1
330
5
100
AcDbSymbolTableRecord
100
AcDbLinetypeTableRecord
  2
CENTER
 70
     0
  3
____ _ ____ _ ____ _ ____ _ ____ _ ____ _ ____
 72
    65
 73
     4
 40
2.0
 49
1.25
 74
     0
 49
-0.25
 74
     0
 49
0.25
 74
     0
 49
-0.25
 74
     0
  0
LTYPE
  5
A2
330
5
100
AcDbSymbolTableRecord
100
AcDbLinetypeTableRecord
  2
PHANTOM
 70
     0
  3
_____ _ _ _____ _ _ _____ _ _ _____ _ _ ____
 72
    65
 73
     6
 40
2.5
 49
1.25
 74
     0
 49
-0.25
 74
     0
 49
0.25
 74
     0
 49
-0.25
 74
     0
 49
0.25
 74
     0
 49
-0.25
 74
     0
  0
LTYPE
  5
A3
330
5
100
AcDbSymbolTableRecord
100
AcDbLinetypeTableRecord
  2
DOT
 70
     0
  3
...............................................
 72
    65
 73
     2
 40
0.25
 49
0.0
 74
     0
 49
-0.25
 74
     0
  0
ENDTAB
  0
TABLE
  2
LAYER
  5
2
102
{ACAD_XDICTIONARY
360
6AAF
102
}
330
0
100
AcDbSymbolTable
 70
    10
  0
LAYER
  5
E
102
{ACAD_XDICTIONARY
360
6A9A
102
}
330
2
100
AcDbSymbolTableRecord
100
AcDbLayerTableRecord
  2
0
 70
     0
 62
     7
  6
CONTINUOUS
370
    -3
390
A64
  0
LAYER
  5
A6
102
{ACAD_XDICTIONARY
360
6A9C
102
}
330
2
100
AcDbSymbolTableRecord
100
AcDbLayerTableRecord
  2
SUNPOU
 70
     0
 62
     1
  6
CONTINUOUS
370
    -3
390
A64
  0
LAYER
  5
A7
102
{ACAD_XDICTIONARY
360
6A9E
102
}
330
2
100
AcDbSymbolTableRecord
100
AcDbLayerTableRecord
  2
SEIHIN
 70
     0
 62
     3
  6
CONTINUOUS
370
    -3
390
A64
  0
LAYER
  5
A8
102
{ACAD_XDICTIONARY
360
6AA0
102
}
330
2
100
AcDbSymbolTableRecord
100
AcDbLayerTableRecord
  2
HAIKIN
 70
     0
 62
     2
  6
CONTINUOUS
370
    -3
390
A64
  0
LAYER
  5
A9
102
{ACAD_XDICTIONARY
360
6AA2
102
}
330
2
100
AcDbSymbolTableRecord
100
AcDbLayerTableRecord
  2
HASEN
 70
     0
 62
     4
  6
HIDDEN
370
    -3
390
A64
  0
LAYER
  5
AA
102
{ACAD_XDICTIONARY
360
6AA4
102
}
330
2
100
AcDbSymbolTableRecord
100
AcDbLayerTableRecord
  2
1HASEN
 70
     0
 62
     5
  6
CENTER
370
    -3
390
A64
  0
LAYER
  5
AB
102
{ACAD_XDICTIONARY
360
6AA6
102
}
330
2
100
AcDbSymbolTableRecord
100
AcDbLayerTableRecord
  2
2HASEN
 70
     0
 62
     6
  6
PHANTOM
370
    -3
390
A64
  0
LAYER
  5
AC
102
{ACAD_XDICTIONARY
360
6AA8
102
}
330
2
100
AcDbSymbolTableRecord
100
AcDbLayerTableRecord
  2
TEN
 70
     0
 62
     7
  6
DOT
370
    -3
390
A64
  0
LAYER
  5
AD
102
{ACAD_XDICTIONARY
360
6AAA
102
}
330
2
100
AcDbSymbolTableRecord
100
AcDbLayerTableRecord
  2
HOJO
 70
     0
 62
     7
  6
CONTINUOUS
370
    -3
390
A64
  0
LAYER
  5
AE
330
2
100
AcDbSymbolTableRecord
100
AcDbLayerTableRecord
  2
DEFPOINTS
 70
     0
 62
     7
  6
CONTINUOUS
290
     0
370
    -3
390
A64
  0
ENDTAB
  0
TABLE
  2
STYLE
  5
3
330
0
100
AcDbSymbolTable
 70
     3
  0
STYLE
  5
F
330
3
100
AcDbSymbolTableRecord
100
AcDbTextStyleTableRecord
  2
STANDARD
 70
     0
 40
0.0
 41
1.0
 50
0.0
 71
     0
 42
0.2
  3
txt
  4

  0
STYLE
  5
9E
330
3
100
AcDbSymbolTableRecord
100
AcDbTextStyleTableRecord
  2
A
 70
     0
 40
0.0
 41
1.0
 50
0.0
 71
     0
 42
60.0
  3
txt
  4
bigfont
  0
STYLE
  5
9F
330
3
100
AcDbSymbolTableRecord
100
AcDbTextStyleTableRecord
  2
NIHONGO
 70
     0
 40
0.0
 41
1.0
 50
0.0
 71
     0
 42
3.0
  3
TXT
  4
BIGFONT
  0
ENDTAB
  0
TABLE
  2
VIEW
  5
6
330
0
100
AcDbSymbolTable
 70
     0
  0
ENDTAB
  0
TABLE
  2
UCS
  5
7
330
0
100
AcDbSymbolTable
 70
     0
  0
ENDTAB
  0
TABLE
  2
APPID
  5
9
330
0
100
AcDbSymbolTable
 70
     4
  0
APPID
  5
10
330
9
100
AcDbSymbolTableRecord
100
AcDbRegAppTableRecord
  2
ACAD
 70
     0
  0
APPID
  5
5962
330
9
100
AcDbSymbolTableRecord
100
AcDbRegAppTableRecord
  2
ACAD_PSEXT
 70
     0
  0
APPID
  5
6A99
330
9
100
AcDbSymbolTableRecord
100
AcDbRegAppTableRecord
  2
ACAD_NAV_VCDISPLAY
 70
     0
  0
APPID
  5
6AF2
330
9
100
AcDbSymbolTableRecord
100
AcDbRegAppTableRecord
  2
ACAD_MLEADERVER
 70
     0
  0
ENDTAB
  0
TABLE
  2
DIMSTYLE
  5
A
330
0
100
AcDbSymbolTable
 70
     1
100
AcDbDimStyleTable
  0
DIMSTYLE
105
A5F
102
{ACAD_REACTORS
330
A0E
330
A0D
330
A10
330
A0F
330
A54
330
8F0
330
8EF
330
8F9
330
8F8
330
A3E
330
A3F
330
742
330
740
330
741
330
96D
330
968
330
73C
330
73D
330
73B
330
746
330
747
330
745
330
A42
330
927
330
926
330
925
330
91E
330
6955
330
6956
330
6957
330
699F
330
69A0
102
}
330
A
100
AcDbSymbolTableRecord
100
AcDbDimStyleTableRecord
  2
STANDARD
 70
     0
178
     0
340
F
  0
ENDTAB
  0
TABLE
  2
BLOCK_RECORD
  5
1
330
0
100
AcDbSymbolTable
 70
   286
  0
BLOCK_RECORD
  5
17
102
{ACAD_XDICTIONARY
360
3E69
102
}
330
1
100
AcDbSymbolTableRecord
100
AcDbBlockTableRecord
  2
*MODEL_SPACE
340
A67
  0
BLOCK_RECORD
  5
14
330
1
100
AcDbSymbolTableRecord
100
AcDbBlockTableRecord
  2
*PAPER_SPACE
340
A68
  0
BLOCK_RECORD
  5
1C
330
1
100
AcDbSymbolTableRecord
100
AcDbBlockTableRecord
  2
BORDER
340
0
  0
BLOCK_RECORD
  5
1D
330
1
100
AcDbSymbolTableRecord
100
AcDbBlockTableRecord
  2
SA3-10
340
0
  0
BLOCK_RECORD
  5
1E
330
1
100
AcDbSymbolTableRecord
100
AcDbBlockTableRecord
  2
SA4
340
0
102
{BLKREFS
331
BC
102
}
  0
BLOCK_RECORD
  5
1A94
330
1
100
AcDbSymbolTableRecord
100
AcDbBlockTableRecord
  2
*D4
340
0
  0
BLOCK_RECORD
  5
1B03
330
1
100
AcDbSymbolTableRecord
100
AcDbBlockTableRecord
  2
*D9
340
0
  0
BLOCK_RECORD
  5
1B6F
330
1
100
AcDbSymbolTableRecord
100
AcDbBlockTableRecord
  2
*D11
340
0
  0
BLOCK_RECORD
  5
1B7D
330
1
100
AcDbSymbolTableRecord
100
AcDbBlockTableRecord
  2
*D12
340
0
  0
BLOCK_RECORD
  5
1B89
330
1
100
AcDbSymbolTableRecord
100
AcDbBlockTableRecord
  2
*D13
340
0
  0
BLOCK_RECORD
  5
1C21
330
1
100
AcDbSymbolTableRecord
100
AcDbBlockTableRecord
  2
*D14
340
0
  0
BLOCK_RECORD
  5
1C39
330
1
100
AcDbSymbolTableRecord
100
AcDbBlockTableRecord
  2
*D16
340
0
  0
BLOCK_RECORD
  5
1C81
330
1
100
AcDbSymbolTableRecord
100
AcDbBlockTableRecord
  2
*D22
340
0
  0
BLOCK_RECORD
  5
1C8D
330
1
100
AcDbSymbolTableRecord
100
AcDbBlockTableRecord
  2
*D23
340
0
  0
BLOCK_RECORD
  5
2540
330
1
100
AcDbSymbolTableRecord
100
AcDbBlockTableRecord
  2
*D44
340
0
  0
BLOCK_RECORD
  5
2555
330
1
100
AcDbSymbolTableRecord
100
AcDbBlockTableRecord
  2
*D45
340
0
  0
BLOCK_RECORD
  5
25BF
330
1
100
AcDbSymbolTableRecord
100
AcDbBlockTableRecord
  2
*D51
340
0
  0
BLOCK_RECORD
  5
25CB
330
1
100
AcDbSymbolTableRecord
100
AcDbBlockTableRecord
  2
*D52
340
0
  0
BLOCK_RECORD
  5
2614
330
1
100
AcDbSymbolTableRecord
100
AcDbBlockTableRecord
  2
*D54
340
0
  0
BLOCK_RECORD
  5
262C
330
1
100
AcDbSymbolTableRecord
100
AcDbBlockTableRecord
  2
*D56
340
0
  0
BLOCK_RECORD
  5
2644
330
1
100
AcDbSymbolTableRecord
100
AcDbBlockTableRecord
  2
*D58
340
0
  0
BLOCK_RECORD
  5
2722
330
1
100
AcDbSymbolTableRecord
100
AcDbBlockTableRecord
  2
*D72
340
0
  0
BLOCK_RECORD
  5
272E
330
1
100
AcDbSymbolTableRecord
100
AcDbBlockTableRecord
  2
*D73
340
0
  0
BLOCK_RECORD
  5
273A
330
1
100
AcDbSymbolTableRecord
100
AcDbBlockTableRecord
  2
*D74
340
0
  0
BLOCK_RECORD
  5
276C
330
1
100
AcDbSymbolTableRecord
100
AcDbBlockTableRecord
  2
*D78
340
0
  0
BLOCK_RECORD
  5
2792
330
1
100
AcDbSymbolTableRecord
100
AcDbBlockTableRecord
  2
*D81
340
0
  0
BLOCK_RECORD
  5
27A0
330
1
100
AcDbSymbolTableRecord
100
AcDbBlockTableRecord
  2
*D82
340
0
  0
BLOCK_RECORD
  5
27B8
330
1
100
AcDbSymbolTableRecord
100
AcDbBlockTableRecord
  2
*D84
340
0
  0
BLOCK_RECORD
  5
29AB
330
1
100
AcDbSymbolTableRecord
100
AcDbBlockTableRecord
  2
*D114
340
0
  0
BLOCK_RECORD
  5
29B7
330
1
100
AcDbSymbolTableRecord
100
AcDbBlockTableRecord
  2
*D115
340
0
  0
BLOCK_RECORD
  5
29C3
330
1
100
AcDbSymbolTableRecord
100
AcDbBlockTableRecord
  2
*D116
340
0
  0
BLOCK_RECORD
  5
29CF
330
1
100
AcDbSymbolTableRecord
100
AcDbBlockTableRecord
  2
*D117
340
0
  0
BLOCK_RECORD
  5
6958
330
1
100
AcDbSymbolTableRecord
100
AcDbBlockTableRecord
  2
*D281
340
0
  0
BLOCK_RECORD
  5
6964
330
1
100
AcDbSymbolTableRecord
100
AcDbBlockTableRecord
  2
*D282
340
0
  0
BLOCK_RECORD
  5
6972
330
1
100
AcDbSymbolTableRecord
100
AcDbBlockTableRecord
  2
*D283
340
0
  0
BLOCK_RECORD
  5
69A1
330
1
100
AcDbSymbolTableRecord
100
AcDbBlockTableRecord
  2
*D284
340
0
  0
BLOCK_RECORD
  5
69AD
330
1
100
AcDbSymbolTableRecord
100
AcDbBlockTableRecord
  2
*D285
340
0
  0
ENDTAB
  0
ENDSEC
  0
SECTION
  2
BLOCKS
  0
BLOCK
  5
B1
330
17
100
AcDbEntity
  8
0
100
AcDbBlockBegin
  2
*MODEL_SPACE
 70
     0
 10
0.0
 20
0.0
 30
0.0
  3
*MODEL_SPACE
  1

  0
ENDBLK
  5
B2
330
17
100
AcDbEntity
  8
0
100
AcDbBlockEnd
  0
BLOCK
  5
AF
330
14
100
AcDbEntity
 67
     1
  8
0
100
AcDbBlockBegin
  2
*PAPER_SPACE
 70
     0
 10
0.0
 20
0.0
 30
0.0
  3
*PAPER_SPACE
  1

  0
ENDBLK
  5
B0
330
14
100
AcDbEntity
 67
     1
  8
0
100
AcDbBlockEnd
  0
BLOCK
  5
B5
330
1C
100
AcDbEntity
  8
0
100
AcDbBlockBegin
  2
BORDER
 70
     0
 10
0.0
 20
0.0
 30
0.0
  3
BORDER
  1

  0
LINE
  5
B6
330
1C
100
AcDbEntity
  8
0
100
AcDbLine
 10
0.0
 20
0.0
 30
0.0
 11
1.00000000000004
 21
0.0
 31
0.0
  0
LINE
  5
B7
330
1C
100
AcDbEntity
  8
0
100
AcDbLine
 10
1.00000000000004
 20
0.0
 30
0.0
 11
1.00000000000004
 21
1.00000000000004
 31
0.0
  0
LINE
  5
B8
330
1C
100
AcDbEntity
  8
0
100
AcDbLine
 10
1.00000000000004
 20
1.00000000000004
 30
0.0
 11
0.0
 21
1.00000000000004
 31
0.0
  0
LINE
  5
B9
330
1C
100
AcDbEntity
  8
0
100
AcDbLine
 10
0.0
 20
1.00000000000004
 30
0.0
 11
0.0
 21
0.0
 31
0.0
  0
ENDBLK
  5
BA
330
1C
100
AcDbEntity
  8
0
100
AcDbBlockEnd
  0
BLOCK
  5
BB
330
1D
100
AcDbEntity
  8
SUNPOU
100
AcDbBlockBegin
  2
SA3-10
 70
     0
 10
0.0
 20
0.0
 30
0.0
  3
SA3-10
  1

  0
INSERT
  5
BC
330
1D
100
AcDbEntity
  8
HAIKIN
100
AcDbBlockReference
  2
SA4
 10
0.0
 20
0.0
 30
0.0
  0
ENDBLK
  5
BD
330
1D
100
AcDbEntity
  8
SUNPOU
100
AcDbBlockEnd
  0
BLOCK
  5
BE
330
1E
100
AcDbEntity
  8
HAIKIN
100
AcDbBlockBegin
  2
SA4
 70
     0
 10
0.0
 20
0.0
 30
0.0
  3
SA4
  1

  0
TEXT
  5
BF
330
1E
100
AcDbEntity
  8
SUNPOU
100
AcDbText
 10
3400.0
 20
0.0
 30
0.0
 40
25.0
  1
新和コンクリート工業株式会社
  7
NIHONGO
100
AcDbText
  0
TEXT
  5
C2
330
1E
100
AcDbEntity
  8
SUNPOU
100
AcDbText
 10
3614.166666666667
 20
62.5
 30
0.0
 40
25.0
  1
製図
  7
NIHONGO
 72
     4
 11
3640.0
 21
75.0
 31
0.0
100
AcDbText
  0
TEXT
  5
C3
330
1E
100
AcDbEntity
  8
SUNPOU
100
AcDbText
 10
3613.333333333333
 20
112.5
 30
0.0
 40
25.0
  1
設計
  7
NIHONGO
 72
     4
 11
3640.0
 21
125.0
 31
0.0
100
AcDbText
  0
TEXT
  5
C4
330
1E
100
AcDbEntity
  8
SUNPOU
100
AcDbText
 10
3390.833333333333
 20
62.50000000000014
 30
0.0
 40
25.0
  1
認
  7
NIHONGO
 72
     4
 11
3402.5
 21
75.00000000000014
 31
0.0
100
AcDbText
  0
TEXT
  5
C5
330
1E
100
AcDbEntity
  8
SUNPOU
100
AcDbText
 10
3390.833333333333
 20
113.3333333333337
 30
0.0
 40
25.0
  1
承
  7
NIHONGO
 72
     4
 11
3402.5
 21
125.0000000000003
 31
0.0
100
AcDbText
  0
TEXT
  5
C6
330
1E
100
AcDbEntity
  8
SUNPOU
100
AcDbText
 10
3127.5
 20
117.5000000000001
 30
0.0
 40
25.0
  1
図　面　番　号
  7
NIHONGO
 72
     4
 11
3230.0
 21
130.0000000000001
 31
0.0
100
AcDbText
  0
TEXT
  5
C7
330
1E
100
AcDbEntity
  8
SUNPOU
100
AcDbText
 10
3620.0
 20
170.0
 30
0.0
 40
25.0
  1
１／
  7
NIHONGO
100
AcDbText
  0
TEXT
  5
C8
330
1E
100
AcDbEntity
  8
SUNPOU
100
AcDbText
 10
3473.333333333333
 20
162.5000000000001
 30
0.0
 40
25.0
  1
縮　　尺
  7
NIHONGO
 72
     4
 11
3530.0
 21
175.0000000000001
 31
0.0
100
AcDbText
  0
TEXT
  5
C9
330
1E
100
AcDbEntity
  8
SUNPOU
100
AcDbText
 10
3473.333333333333
 20
212.5
 30
0.0
 40
25.0
  1
鉄 筋 量
  7
NIHONGO
 72
     4
 11
3530.0
 21
225.0
 31
0.0
100
AcDbText
  0
TEXT
  5
CA
330
1E
100
AcDbEntity
  8
SUNPOU
100
AcDbText
 10
3473.333333333333
 20
262.5
 30
0.0
 40
25.0
  1
製 造 数
  7
NIHONGO
 72
     4
 11
3530.0
 21
275.0
 31
0.0
100
AcDbText
  0
TEXT
  5
CB
330
1E
100
AcDbEntity
  8
SUNPOU
100
AcDbText
 10
3770.0
 20
210.0
 30
0.0
 40
25.0
  1
ｋｇ
  7
NIHONGO
 72
     2
 11
3820.0
 21
210.0
 31
0.0
100
AcDbText
  0
TEXT
  5
CC
330
1E
100
AcDbEntity
  8
SUNPOU
100
AcDbText
 10
3395.0
 20
210.0
 30
0.0
 40
25.0
  1
ｋｇ
  7
NIHONGO
 72
     2
 11
3445.0
 21
210.0
 31
0.0
100
AcDbText
  0
TEXT
  5
CD
330
1E
100
AcDbEntity
  8
SUNPOU
100
AcDbText
 10
3100.0
 20
162.5000000000001
 30
0.0
 40
25.0
  1
年 月 日
  7
NIHONGO
 72
     4
 11
3155.0
 21
175.0000000000001
 31
0.0
100
AcDbText
  0
TEXT
  5
CE
330
1E
100
AcDbEntity
  8
SUNPOU
100
AcDbText
 10
3098.333333333333
 20
212.5
 30
0.0
 40
25.0
  1
製品質量
  7
NIHONGO
 72
     4
 11
3155.0
 21
225.0
 31
0.0
100
AcDbText
  0
TEXT
  5
CF
330
1E
100
AcDbEntity
  8
SUNPOU
100
AcDbText
 10
3099.166666666667
 20
262.5
 30
0.0
 40
25.0
  1
業 者 名
  7
NIHONGO
 72
     4
 11
3155.0
 21
275.0
 31
0.0
100
AcDbText
  0
TEXT
  5
D0
330
1E
100
AcDbEntity
  8
SUNPOU
100
AcDbText
 10
3098.333333333333
 20
325.0
 30
0.0
 40
25.0
  1
名　　称
  7
NIHONGO
 72
     4
 11
3155.0
 21
337.5
 31
0.0
100
AcDbText
  0
LINE
  5
D1
330
1E
100
AcDbEntity
  8
SUNPOU
100
AcDbLine
 10
3380.0
 20
110.0000000000001
 30
0.0
 11
3080.0
 21
110.0000000000001
 31
0.0
  0
LINE
  5
D2
330
1E
100
AcDbEntity
  8
SUNPOU
100
AcDbLine
 10
3675.0
 20
49.99999999999986
 30
0.0
 11
3675.0
 21
149.9999999999999
 31
0.0
  0
LINE
  5
D3
330
1E
100
AcDbEntity
  8
SUNPOU
100
AcDbLine
 10
3605.0
 20
49.99999999999986
 30
0.0
 11
3605.0
 21
149.9999999999999
 31
0.0
  0
LINE
  5
D4
330
1E
100
AcDbEntity
  8
SUNPOU
100
AcDbLine
 10
3425.0
 20
49.99999999999994
 30
0.0
 11
3425.0
 21
150.0
 31
0.0
  0
LINE
  5
D5
330
1E
100
AcDbEntity
  8
SUNPOU
100
AcDbLine
 10
3380.0
 20
49.99999999999994
 30
0.0
 11
3380.0
 21
150.0
 31
0.0
  0
LINE
  5
D6
330
1E
100
AcDbEntity
  8
SUNPOU
100
AcDbLine
 10
3230.0
 20
150.0000000000001
 30
0.0
 11
3230.0
 21
375.0
 31
0.0
  0
LINE
  5
D7
330
1E
100
AcDbEntity
  8
SUNPOU
100
AcDbLine
 10
3605.0
 20
150.0000000000001
 30
0.0
 11
3605.0
 21
300.0
 31
0.0
  0
LINE
  5
D8
330
1E
100
AcDbEntity
  8
SUNPOU
100
AcDbLine
 10
3455.0
 20
150.0000000000001
 30
0.0
 11
3455.0
 21
300.0
 31
0.0
  0
LINE
  5
D9
330
1E
100
AcDbEntity
  8
SUNPOU
100
AcDbLine
 10
3830.0
 20
300.0
 30
0.0
 11
3080.0
 21
300.0
 31
0.0
  0
LINE
  5
DA
330
1E
100
AcDbEntity
  8
SUNPOU
100
AcDbLine
 10
3830.0
 20
250.0
 30
0.0
 11
3080.0
 21
250.0
 31
0.0
  0
LINE
  5
DB
330
1E
100
AcDbEntity
  8
SUNPOU
100
AcDbLine
 10
3830.0
 20
200.0
 30
0.0
 11
3080.0
 21
200.0
 31
0.0
  0
LINE
  5
DC
330
1E
100
AcDbEntity
  8
SUNPOU
100
AcDbLine
 10
3830.0
 20
149.9999999999999
 30
0.0
 11
3080.0
 21
150.0000000000004
 31
0.0
  0
LINE
  5
DD
330
1E
100
AcDbEntity
  8
HAIKIN
100
AcDbLine
 10
3080.0
 20
375.0
 30
0.0
 11
3830.0
 21
375.0
 31
0.0
  0
LINE
  5
DE
330
1E
100
AcDbEntity
  8
HAIKIN
100
AcDbLine
 10
3080.0
 20
50.00000000000009
 30
0.0
 11
3080.0
 21
375.0
 31
0.0
  0
LINE
  5
DF
330
1E
100
AcDbEntity
  8
SUNPOU
100
AcDbLine
 10
0.0000000000001599
 20
2770.0
 30
0.0
 11
0.0000000000001599
 21
2720.0
 31
0.0
  0
LINE
  5
E0
330
1E
100
AcDbEntity
  8
SUNPOU
100
AcDbLine
 10
250.0000000000001
 20
2770.0
 30
0.0
 11
0.0000000000001599
 21
2770.0
 31
0.0
  0
LINE
  5
E1
330
1E
100
AcDbEntity
  8
SUNPOU
100
AcDbLine
 10
250.0000000000001
 20
2720.0
 30
0.0
 11
250.0000000000001
 21
2770.0
 31
0.0
  0
LINE
  5
E2
330
1E
100
AcDbEntity
  8
HAIKIN
100
AcDbLine
 10
0.0000000000000037
 20
50.0
 30
0.0
 11
3830.0
 21
50.0
 31
0.0
  0
LINE
  5
E3
330
1E
100
AcDbEntity
  8
HAIKIN
100
AcDbLine
 10
0.0000000000001584
 20
2720.0
 30
0.0
 11
3830.0
 21
2720.0
 31
0.0
  0
LINE
  5
E4
330
1E
100
AcDbEntity
  8
HAIKIN
100
AcDbLine
 10
3830.0
 20
2720.0
 30
0.0
 11
3830.0
 21
50.0
 31
0.0
  0
TEXT
  5
E5
330
1E
100
AcDbEntity
  8
SUNPOU
100
AcDbText
 10
37.00000000000016
 20
2730.0
 30
0.0
 40
30.0
  1
Ｈ－２－共
  7
NIHONGO
 72
     4
 11
125.0000000000002
 21
2745.0
 31
0.0
100
AcDbText
  0
LINE
  5
E6
330
1E
100
AcDbEntity
  8
HAIKIN
100
AcDbLine
 10
0.0000000000000037
 20
50.0
 30
0.0
 11
0.0000000000001584
 21
2720.0
 31
0.0
  0
ENDBLK
  5
E7
330
1E
100
AcDbEntity
  8
HAIKIN
100
AcDbBlockEnd
  0
BLOCK
  5
1A9E
330
1A94
100
AcDbEntity
  8
0
100
AcDbBlockBegin
  2
*D4
 70
     1
 10
0.0
 20
0.0
 30
0.0
  3
*D4
  1

  0
LINE
  5
5862
330
1A94
100
AcDbEntity
  8
SUNPOU
 62
     0
440
 16777216
100
AcDbLine
 10
9383.69597814597
 20
5584.99632079107
 30
0.0
 11
10513.87269753551
 21
5584.996320791069
 31
0.0
  0
LINE
  5
5863
330
1A94
100
AcDbEntity
  8
SUNPOU
 62
     0
440
 16777216
100
AcDbLine
 10
9433.69597814597
 20
3984.99632079107
 30
0.0
 11
10513.87269753551
 21
3984.99632079107
 31
0.0
  0
LINE
  5
5864
330
1A94
100
AcDbEntity
  8
SUNPOU
 62
     0
440
 16777216
100
AcDbLine
 10
10493.87269753551
 20
5544.996320791069
 30
0.0
 11
10493.87269753551
 21
4024.99632079107
 31
0.0
  0
MTEXT
  5
5865
330
1A94
100
AcDbEntity
  8
SUNPOU
 62
     0
440
 16777216
100
AcDbMText
 10
10433.87269753551
 20
4759.99632079107
 30
0.0
 40
60.0
 41
0.0
 71
     5
 72
     1
  1
\A1;1600
  7
A
 11
6.123031769111886E-17
 21
1.0
 31
0.0
 73
     1
 44
1.0
  0
SOLID
  5
5866
330
1A94
100
AcDbEntity
  8
SUNPOU
 62
     0
440
 16777216
100
AcDbTrace
 10
10487.20603086885
 20
5544.996320791069
 30
0.0
 11
10500.53936420218
 21
5544.996320791069
 31
0.0
 12
10493.87269753551
 22
5584.996320791069
 32
0.0
 13
10493.87269753551
 23
5584.996320791069
 33
0.0
  0
SOLID
  5
5867
330
1A94
100
AcDbEntity
  8
SUNPOU
 62
     0
440
 16777216
100
AcDbTrace
 10
10487.20603086884
 20
4024.99632079107
 30
0.0
 11
10500.53936420218
 21
4024.99632079107
 31
0.0
 12
10493.87269753551
 22
3984.99632079107
 32
0.0
 13
10493.87269753551
 23
3984.99632079107
 33
0.0
  0
POINT
  5
5868
330
1A94
100
AcDbEntity
  8
DEFPOINTS
 62
     0
440
 16777216
100
AcDbPoint
 10
9343.69597814597
 20
5584.99632079107
 30
0.0
  0
POINT
  5
5869
330
1A94
100
AcDbEntity
  8
DEFPOINTS
 62
     0
440
 16777216
100
AcDbPoint
 10
9393.69597814597
 20
3984.99632079107
 30
0.0
  0
POINT
  5
586A
330
1A94
100
AcDbEntity
  8
DEFPOINTS
 62
     0
440
 16777216
100
AcDbPoint
 10
10493.87269753551
 20
3984.99632079107
 30
0.0
  0
ENDBLK
  5
1A9F
330
1A94
100
AcDbEntity
  8
0
100
AcDbBlockEnd
  0
BLOCK
  5
1B0D
330
1B03
100
AcDbEntity
  8
0
100
AcDbBlockBegin
  2
*D9
 70
     1
 10
0.0
 20
0.0
 30
0.0
  3
*D9
  1

  0
LINE
  5
5859
330
1B03
100
AcDbEntity
  8
SUNPOU
 62
     0
440
 16777216
100
AcDbLine
 10
6393.695978145974
 20
7024.99632079107
 30
0.0
 11
6393.695978145974
 21
7695.955658636951
 31
0.0
  0
LINE
  5
585A
330
1B03
100
AcDbEntity
  8
SUNPOU
 62
     0
440
 16777216
100
AcDbLine
 10
7993.695978145974
 20
6974.99632079107
 30
0.0
 11
7993.695978145974
 21
7695.955658636951
 31
0.0
  0
LINE
  5
585B
330
1B03
100
AcDbEntity
  8
SUNPOU
 62
     0
440
 16777216
100
AcDbLine
 10
6433.695978145974
 20
7675.955658636951
 30
0.0
 11
7953.695978145974
 21
7675.955658636951
 31
0.0
  0
SOLID
  5
585C
330
1B03
100
AcDbEntity
  8
SUNPOU
 62
     0
440
 16777216
100
AcDbTrace
 10
6433.695978145974
 20
7682.622325303618
 30
0.0
 11
6433.695978145974
 21
7669.288991970284
 31
0.0
 12
6393.695978145974
 22
7675.955658636951
 32
0.0
 13
6393.695978145974
 23
7675.955658636951
 33
0.0
  0
SOLID
  5
585D
330
1B03
100
AcDbEntity
  8
SUNPOU
 62
     0
440
 16777216
100
AcDbTrace
 10
7953.695978145974
 20
7682.622325303618
 30
0.0
 11
7953.695978145974
 21
7669.288991970284
 31
0.0
 12
7993.695978145974
 22
7675.955658636951
 32
0.0
 13
7993.695978145974
 23
7675.955658636951
 33
0.0
  0
MTEXT
  5
585E
330
1B03
100
AcDbEntity
  8
SUNPOU
 62
     0
440
 16777216
100
AcDbMText
 10
7193.695978145974
 20
7735.955658636951
 30
0.0
 40
60.0
 41
0.0
 71
     5
 72
     1
  1
\A1;1600
  7
A
 73
     1
 44
1.0
  0
POINT
  5
585F
330
1B03
100
AcDbEntity
  8
DEFPOINTS
 62
     0
440
 16777216
100
AcDbPoint
 10
6393.695978145974
 20
6984.99632079107
 30
0.0
  0
POINT
  5
5860
330
1B03
100
AcDbEntity
  8
DEFPOINTS
 62
     0
440
 16777216
100
AcDbPoint
 10
7993.695978145974
 20
6934.99632079107
 30
0.0
  0
POINT
  5
5861
330
1B03
100
AcDbEntity
  8
DEFPOINTS
 62
     0
440
 16777216
100
AcDbPoint
 10
7993.695978145974
 20
7675.955658636951
 30
0.0
  0
ENDBLK
  5
1B0E
330
1B03
100
AcDbEntity
  8
0
100
AcDbBlockEnd
  0
BLOCK
  5
1B7B
330
1B6F
100
AcDbEntity
  8
0
100
AcDbBlockBegin
  2
*D11
 70
     1
 10
0.0
 20
0.0
 30
0.0
  3
*D11
  1

  0
LINE
  5
5874
330
1B6F
100
AcDbEntity
  8
SUNPOU
 62
     0
440
 16777216
100
AcDbLine
 10
6813.695978145974
 20
6984.99632079107
 30
0.0
 11
9081.824182902441
 21
6984.99632079107
 31
0.0
  0
LINE
  5
5875
330
1B6F
100
AcDbEntity
  8
SUNPOU
 62
     0
440
 16777216
100
AcDbLine
 10
8033.695978145975
 20
6938.764439326568
 30
0.0
 11
9081.824182902441
 21
6938.764439326568
 31
0.0
  0
LINE
  5
5876
330
1B6F
100
AcDbEntity
  8
SUNPOU
 62
     0
440
 16777216
100
AcDbLine
 10
9061.824182902441
 20
7024.99632079107
 30
0.0
 11
9061.824182902441
 21
7064.99632079107
 31
0.0
  0
LINE
  5
5877
330
1B6F
100
AcDbEntity
  8
SUNPOU
 62
     0
440
 16777216
100
AcDbLine
 10
9061.824182902441
 20
6898.764439326568
 30
0.0
 11
9061.824182902441
 21
6858.764439326568
 31
0.0
  0
MTEXT
  5
5878
330
1B6F
100
AcDbEntity
  8
SUNPOU
 62
     0
440
 16777216
100
AcDbMText
 10
9001.824182902441
 20
7059.938597665095
 30
0.0
 40
60.0
 41
0.0
 71
     5
 72
     1
  1
\A1;46
  7
A
 11
6.123031769111886E-17
 21
1.0
 31
0.0
 73
     1
 44
1.0
  0
LINE
  5
5879
330
1B6F
100
AcDbEntity
  8
SUNPOU
 62
     0
440
 16777216
100
AcDbLine
 10
9061.824182902441
 20
6984.99632079107
 30
0.0
 11
9061.824182902441
 21
6938.764439326568
 31
0.0
  0
SOLID
  5
587A
330
1B6F
100
AcDbEntity
  8
SUNPOU
 62
     0
440
 16777216
100
AcDbTrace
 10
9055.157516235775
 20
7024.99632079107
 30
0.0
 11
9068.490849569107
 21
7024.99632079107
 31
0.0
 12
9061.824182902441
 22
6984.99632079107
 32
0.0
 13
9061.824182902441
 23
6984.99632079107
 33
0.0
  0
SOLID
  5
587B
330
1B6F
100
AcDbEntity
  8
SUNPOU
 62
     0
440
 16777216
100
AcDbTrace
 10
9055.157516235775
 20
6898.764439326568
 30
0.0
 11
9068.490849569107
 21
6898.764439326568
 31
0.0
 12
9061.824182902441
 22
6938.764439326568
 32
0.0
 13
9061.824182902441
 23
6938.764439326568
 33
0.0
  0
POINT
  5
587C
330
1B6F
100
AcDbEntity
  8
DEFPOINTS
 62
     0
440
 16777216
100
AcDbPoint
 10
6773.695978145974
 20
6984.99632079107
 30
0.0
  0
POINT
  5
587D
330
1B6F
100
AcDbEntity
  8
DEFPOINTS
 62
     0
440
 16777216
100
AcDbPoint
 10
7993.695978145975
 20
6938.764439326568
 30
0.0
  0
POINT
  5
587E
330
1B6F
100
AcDbEntity
  8
DEFPOINTS
 62
     0
440
 16777216
100
AcDbPoint
 10
9061.824182902441
 20
6938.764439326568
 30
0.0
  0
ENDBLK
  5
1B7C
330
1B6F
100
AcDbEntity
  8
0
100
AcDbBlockEnd
  0
BLOCK
  5
1B87
330
1B7D
100
AcDbEntity
  8
0
100
AcDbBlockBegin
  2
*D12
 70
     1
 10
0.0
 20
0.0
 30
0.0
  3
*D12
  1

  0
LINE
  5
586B
330
1B7D
100
AcDbEntity
  8
SUNPOU
 62
     0
440
 16777216
100
AcDbLine
 10
8033.695978145975
 20
6938.764439326568
 30
0.0
 11
9081.824182902441
 21
6938.764439326568
 31
0.0
  0
LINE
  5
586C
330
1B7D
100
AcDbEntity
  8
SUNPOU
 62
     0
440
 16777216
100
AcDbLine
 10
8033.695978145974
 20
5620.351659850394
 30
0.0
 11
9081.824182902441
 21
5620.351659850394
 31
0.0
  0
LINE
  5
586D
330
1B7D
100
AcDbEntity
  8
SUNPOU
 62
     0
440
 16777216
100
AcDbLine
 10
9061.824182902441
 20
6898.764439326568
 30
0.0
 11
9061.824182902441
 21
5660.351659850394
 31
0.0
  0
SOLID
  5
586E
330
1B7D
100
AcDbEntity
  8
SUNPOU
 62
     0
440
 16777216
100
AcDbTrace
 10
9055.157516235775
 20
6898.764439326568
 30
0.0
 11
9068.490849569107
 21
6898.764439326568
 31
0.0
 12
9061.824182902441
 22
6938.764439326568
 32
0.0
 13
9061.824182902441
 23
6938.764439326568
 33
0.0
  0
SOLID
  5
586F
330
1B7D
100
AcDbEntity
  8
SUNPOU
 62
     0
440
 16777216
100
AcDbTrace
 10
9055.157516235775
 20
5660.351659850394
 30
0.0
 11
9068.490849569107
 21
5660.351659850394
 31
0.0
 12
9061.824182902441
 22
5620.351659850394
 32
0.0
 13
9061.824182902441
 23
5620.351659850394
 33
0.0
  0
MTEXT
  5
5870
330
1B7D
100
AcDbEntity
  8
SUNPOU
 62
     0
440
 16777216
100
AcDbMText
 10
9001.82418290244
 20
6279.558049588481
 30
0.0
 40
60.0
 41
0.0
 71
     5
 72
     1
  1
\A1;1319
  7
A
 11
6.123031769111886E-17
 21
1.0
 31
0.0
 73
     1
 44
1.0
  0
POINT
  5
5871
330
1B7D
100
AcDbEntity
  8
DEFPOINTS
 62
     0
440
 16777216
100
AcDbPoint
 10
7993.695978145975
 20
6938.764439326568
 30
0.0
  0
POINT
  5
5872
330
1B7D
100
AcDbEntity
  8
DEFPOINTS
 62
     0
440
 16777216
100
AcDbPoint
 10
7993.695978145974
 20
5620.351659850394
 30
0.0
  0
POINT
  5
5873
330
1B7D
100
AcDbEntity
  8
DEFPOINTS
 62
     0
440
 16777216
100
AcDbPoint
 10
9061.824182902441
 20
5620.351659850394
 30
0.0
  0
ENDBLK
  5
1B88
330
1B7D
100
AcDbEntity
  8
0
100
AcDbBlockEnd
  0
BLOCK
  5
1B95
330
1B89
100
AcDbEntity
  8
0
100
AcDbBlockBegin
  2
*D13
 70
     1
 10
0.0
 20
0.0
 30
0.0
  3
*D13
  1

  0
LINE
  5
58F5
330
1B89
100
AcDbEntity
  8
SUNPOU
 62
     0
440
 16777216
100
AcDbLine
 10
9017.195100011024
 20
5620.351659850393
 30
0.0
 11
9081.824182902441
 21
5620.351659850393
 31
0.0
  0
LINE
  5
58F6
330
1B89
100
AcDbEntity
  8
SUNPOU
 62
     0
440
 16777216
100
AcDbLine
 10
9036.89004195933
 20
5584.996320791065
 30
0.0
 11
9081.824182902441
 21
5584.996320791065
 31
0.0
  0
LINE
  5
58F7
330
1B89
100
AcDbEntity
  8
SUNPOU
 62
     0
440
 16777216
100
AcDbLine
 10
9061.824182902441
 20
5660.351659850393
 30
0.0
 11
9061.824182902441
 21
5700.351659850393
 31
0.0
  0
LINE
  5
58F8
330
1B89
100
AcDbEntity
  8
SUNPOU
 62
     0
440
 16777216
100
AcDbLine
 10
9061.824182902441
 20
5544.996320791065
 30
0.0
 11
9061.824182902441
 21
5504.996320791065
 31
0.0
  0
MTEXT
  5
58F9
330
1B89
100
AcDbEntity
  8
SUNPOU
 62
     0
440
 16777216
100
AcDbMText
 10
9001.824182902441
 20
5701.091144079578
 30
0.0
 40
60.0
 41
0.0
 71
     5
 72
     1
  1
\A1;35
  7
A
 11
6.123031769111886E-17
 21
1.0
 31
0.0
 73
     1
 44
1.0
  0
LINE
  5
58FA
330
1B89
100
AcDbEntity
  8
SUNPOU
 62
     0
440
 16777216
100
AcDbLine
 10
9061.824182902441
 20
5620.351659850393
 30
0.0
 11
9061.824182902441
 21
5584.996320791065
 31
0.0
  0
SOLID
  5
58FB
330
1B89
100
AcDbEntity
  8
SUNPOU
 62
     0
440
 16777216
100
AcDbTrace
 10
9055.157516235775
 20
5660.351659850393
 30
0.0
 11
9068.490849569107
 21
5660.351659850393
 31
0.0
 12
9061.824182902441
 22
5620.351659850393
 32
0.0
 13
9061.824182902441
 23
5620.351659850393
 33
0.0
  0
SOLID
  5
58FC
330
1B89
100
AcDbEntity
  8
SUNPOU
 62
     0
440
 16777216
100
AcDbTrace
 10
9055.157516235775
 20
5544.996320791065
 30
0.0
 11
9068.490849569107
 21
5544.996320791065
 31
0.0
 12
9061.824182902441
 22
5584.996320791065
 32
0.0
 13
9061.824182902441
 23
5584.996320791065
 33
0.0
  0
POINT
  5
58FD
330
1B89
100
AcDbEntity
  8
DEFPOINTS
 62
     0
440
 16777216
100
AcDbPoint
 10
8977.195100011024
 20
5620.351659850393
 30
0.0
  0
POINT
  5
58FE
330
1B89
100
AcDbEntity
  8
DEFPOINTS
 62
     0
440
 16777216
100
AcDbPoint
 10
8996.89004195933
 20
5584.996320791065
 30
0.0
  0
POINT
  5
58FF
330
1B89
100
AcDbEntity
  8
DEFPOINTS
 62
     0
440
 16777216
100
AcDbPoint
 10
9061.824182902441
 20
5584.996320791065
 30
0.0
  0
ENDBLK
  5
1B96
330
1B89
100
AcDbEntity
  8
0
100
AcDbBlockEnd
  0
BLOCK
  5
1C2B
330
1C21
100
AcDbEntity
  8
0
100
AcDbBlockBegin
  2
*D14
 70
     1
 10
0.0
 20
0.0
 30
0.0
  3
*D14
  1

  0
LINE
  5
557F
330
1C21
100
AcDbEntity
  8
SUNPOU
 62
     0
440
 16777216
100
AcDbLine
 10
7393.69597814597
 20
3944.99632079107
 30
0.0
 11
7393.69597814597
 21
3162.7651711945
 31
0.0
  0
LINE
  5
5580
330
1C21
100
AcDbEntity
  8
SUNPOU
 62
     0
440
 16777216
100
AcDbLine
 10
9393.69597814597
 20
3944.99632079107
 30
0.0
 11
9393.69597814597
 21
3162.7651711945
 31
0.0
  0
LINE
  5
5581
330
1C21
100
AcDbEntity
  8
SUNPOU
 62
     0
440
 16777216
100
AcDbLine
 10
7433.69597814597
 20
3182.7651711945
 30
0.0
 11
9353.69597814597
 21
3182.7651711945
 31
0.0
  0
MTEXT
  5
5582
330
1C21
100
AcDbEntity
  8
SUNPOU
 62
     0
440
 16777216
100
AcDbMText
 10
8393.69597814597
 20
3242.7651711945
 30
0.0
 40
60.0
 41
0.0
 71
     5
 72
     1
  1
\A1;2000
  7
A
 73
     1
 44
1.0
  0
SOLID
  5
5583
330
1C21
100
AcDbEntity
  8
SUNPOU
 62
     0
440
 16777216
100
AcDbTrace
 10
7433.69597814597
 20
3189.431837861167
 30
0.0
 11
7433.69597814597
 21
3176.098504527833
 31
0.0
 12
7393.69597814597
 22
3182.7651711945
 32
0.0
 13
7393.69597814597
 23
3182.7651711945
 33
0.0
  0
SOLID
  5
5584
330
1C21
100
AcDbEntity
  8
SUNPOU
 62
     0
440
 16777216
100
AcDbTrace
 10
9353.69597814597
 20
3189.431837861167
 30
0.0
 11
9353.69597814597
 21
3176.098504527833
 31
0.0
 12
9393.69597814597
 22
3182.7651711945
 32
0.0
 13
9393.69597814597
 23
3182.7651711945
 33
0.0
  0
POINT
  5
5585
330
1C21
100
AcDbEntity
  8
DEFPOINTS
 62
     0
440
 16777216
100
AcDbPoint
 10
7393.69597814597
 20
3984.99632079107
 30
0.0
  0
POINT
  5
5586
330
1C21
100
AcDbEntity
  8
DEFPOINTS
 62
     0
440
 16777216
100
AcDbPoint
 10
9393.69597814597
 20
3984.99632079107
 30
0.0
  0
POINT
  5
5587
330
1C21
100
AcDbEntity
  8
DEFPOINTS
 62
     0
440
 16777216
100
AcDbPoint
 10
9393.69597814597
 20
3182.7651711945
 30
0.0
  0
ENDBLK
  5
1C2C
330
1C21
100
AcDbEntity
  8
0
100
AcDbBlockEnd
  0
BLOCK
  5
1C43
330
1C39
100
AcDbEntity
  8
0
100
AcDbBlockBegin
  2
*D16
 70
     1
 10
0.0
 20
0.0
 30
0.0
  3
*D16
  1

  0
LINE
  5
5576
330
1C39
100
AcDbEntity
  8
SUNPOU
 62
     0
440
 16777216
100
AcDbLine
 10
6393.69597814597
 20
3969.99632079107
 30
0.0
 11
6393.69597814597
 21
3162.7651711945
 31
0.0
  0
LINE
  5
5577
330
1C39
100
AcDbEntity
  8
SUNPOU
 62
     0
440
 16777216
100
AcDbLine
 10
7393.69597814597
 20
3944.99632079107
 30
0.0
 11
7393.69597814597
 21
3162.7651711945
 31
0.0
  0
LINE
  5
5578
330
1C39
100
AcDbEntity
  8
SUNPOU
 62
     0
440
 16777216
100
AcDbLine
 10
6433.69597814597
 20
3182.7651711945
 30
0.0
 11
7353.69597814597
 21
3182.7651711945
 31
0.0
  0
MTEXT
  5
5579
330
1C39
100
AcDbEntity
  8
SUNPOU
 62
     0
440
 16777216
100
AcDbMText
 10
6893.69597814597
 20
3242.7651711945
 30
0.0
 40
60.0
 41
0.0
 71
     5
 72
     1
  1
\A1;1000
  7
A
 73
     1
 44
1.0
  0
SOLID
  5
557A
330
1C39
100
AcDbEntity
  8
SUNPOU
 62
     0
440
 16777216
100
AcDbTrace
 10
6433.69597814597
 20
3189.431837861167
 30
0.0
 11
6433.69597814597
 21
3176.098504527834
 31
0.0
 12
6393.69597814597
 22
3182.7651711945
 32
0.0
 13
6393.69597814597
 23
3182.7651711945
 33
0.0
  0
SOLID
  5
557B
330
1C39
100
AcDbEntity
  8
SUNPOU
 62
     0
440
 16777216
100
AcDbTrace
 10
7353.69597814597
 20
3189.431837861167
 30
0.0
 11
7353.69597814597
 21
3176.098504527834
 31
0.0
 12
7393.69597814597
 22
3182.7651711945
 32
0.0
 13
7393.69597814597
 23
3182.7651711945
 33
0.0
  0
POINT
  5
557C
330
1C39
100
AcDbEntity
  8
DEFPOINTS
 62
     0
440
 16777216
100
AcDbPoint
 10
6393.69597814597
 20
4009.99632079107
 30
0.0
  0
POINT
  5
557D
330
1C39
100
AcDbEntity
  8
DEFPOINTS
 62
     0
440
 16777216
100
AcDbPoint
 10
7393.69597814597
 20
3984.99632079107
 30
0.0
  0
POINT
  5
557E
330
1C39
100
AcDbEntity
  8
DEFPOINTS
 62
     0
440
 16777216
100
AcDbPoint
 10
7393.69597814597
 20
3182.7651711945
 30
0.0
  0
ENDBLK
  5
1C44
330
1C39
100
AcDbEntity
  8
0
100
AcDbBlockEnd
  0
BLOCK
  5
1C8B
330
1C81
100
AcDbEntity
  8
0
100
AcDbBlockBegin
  2
*D22
 70
     1
 10
0.0
 20
0.0
 30
0.0
  3
*D22
  1

  0
LINE
  5
55D8
330
1C81
100
AcDbEntity
  8
SUNPOU
 62
     0
440
 16777216
100
AcDbLine
 10
6353.695978145974
 20
4984.996320791066
 30
0.0
 11
5385.966578387869
 21
4984.996320791067
 31
0.0
  0
LINE
  5
55D9
330
1C81
100
AcDbEntity
  8
SUNPOU
 62
     0
440
 16777216
100
AcDbLine
 10
6353.695978145974
 20
6984.996320791066
 30
0.0
 11
5385.96657838787
 21
6984.996320791067
 31
0.0
  0
LINE
  5
55DA
330
1C81
100
AcDbEntity
  8
SUNPOU
 62
     0
440
 16777216
100
AcDbLine
 10
5405.966578387869
 20
5024.996320791067
 30
0.0
 11
5405.96657838787
 21
6944.996320791067
 31
0.0
  0
SOLID
  5
55DB
330
1C81
100
AcDbEntity
  8
SUNPOU
 62
     0
440
 16777216
100
AcDbTrace
 10
5399.299911721202
 20
5024.996320791067
 30
0.0
 11
5412.633245054536
 21
5024.996320791067
 31
0.0
 12
5405.966578387869
 22
4984.996320791067
 32
0.0
 13
5405.966578387869
 23
4984.996320791067
 33
0.0
  0
SOLID
  5
55DC
330
1C81
100
AcDbEntity
  8
SUNPOU
 62
     0
440
 16777216
100
AcDbTrace
 10
5399.299911721203
 20
6944.996320791067
 30
0.0
 11
5412.633245054537
 21
6944.996320791067
 31
0.0
 12
5405.96657838787
 22
6984.996320791067
 32
0.0
 13
5405.96657838787
 23
6984.996320791067
 33
0.0
  0
MTEXT
  5
55DD
330
1C81
100
AcDbEntity
  8
SUNPOU
 62
     0
440
 16777216
100
AcDbMText
 10
5345.966578387868
 20
5984.996320791068
 30
0.0
 40
60.0
 41
0.0
 71
     5
 72
     1
  1
\A1;2000
  7
A
 11
6.123031769111886E-17
 21
1.0
 31
0.0
 73
     1
 44
1.0
  0
POINT
  5
55DE
330
1C81
100
AcDbEntity
  8
DEFPOINTS
 62
     0
440
 16777216
100
AcDbPoint
 10
6393.695978145974
 20
4984.996320791066
 30
0.0
  0
POINT
  5
55DF
330
1C81
100
AcDbEntity
  8
DEFPOINTS
 62
     0
440
 16777216
100
AcDbPoint
 10
6393.695978145974
 20
6984.996320791066
 30
0.0
  0
POINT
  5
55E0
330
1C81
100
AcDbEntity
  8
DEFPOINTS
 62
     0
440
 16777216
100
AcDbPoint
 10
5405.96657838787
 20
6984.996320791067
 30
0.0
  0
ENDBLK
  5
1C8C
330
1C81
100
AcDbEntity
  8
0
100
AcDbBlockEnd
  0
BLOCK
  5
1C97
330
1C8D
100
AcDbEntity
  8
0
100
AcDbBlockBegin
  2
*D23
 70
     1
 10
0.0
 20
0.0
 30
0.0
  3
*D23
  1

  0
LINE
  5
55CF
330
1C8D
100
AcDbEntity
  8
SUNPOU
 62
     0
440
 16777216
100
AcDbLine
 10
6378.69597814597
 20
3984.996320791065
 30
0.0
 11
5385.96657838787
 21
3984.996320791065
 31
0.0
  0
LINE
  5
55D0
330
1C8D
100
AcDbEntity
  8
SUNPOU
 62
     0
440
 16777216
100
AcDbLine
 10
6353.695978145974
 20
4984.996320791066
 30
0.0
 11
5385.96657838787
 21
4984.996320791067
 31
0.0
  0
LINE
  5
55D1
330
1C8D
100
AcDbEntity
  8
SUNPOU
 62
     0
440
 16777216
100
AcDbLine
 10
5405.96657838787
 20
4024.996320791065
 30
0.0
 11
5405.96657838787
 21
4944.996320791067
 31
0.0
  0
SOLID
  5
55D2
330
1C8D
100
AcDbEntity
  8
SUNPOU
 62
     0
440
 16777216
100
AcDbTrace
 10
5399.299911721203
 20
4024.996320791065
 30
0.0
 11
5412.633245054537
 21
4024.996320791065
 31
0.0
 12
5405.96657838787
 22
3984.996320791065
 32
0.0
 13
5405.96657838787
 23
3984.996320791065
 33
0.0
  0
SOLID
  5
55D3
330
1C8D
100
AcDbEntity
  8
SUNPOU
 62
     0
440
 16777216
100
AcDbTrace
 10
5399.299911721203
 20
4944.996320791067
 30
0.0
 11
5412.633245054537
 21
4944.996320791067
 31
0.0
 12
5405.96657838787
 22
4984.996320791067
 32
0.0
 13
5405.96657838787
 23
4984.996320791067
 33
0.0
  0
MTEXT
  5
55D4
330
1C8D
100
AcDbEntity
  8
SUNPOU
 62
     0
440
 16777216
100
AcDbMText
 10
5345.966578387869
 20
4484.996320791067
 30
0.0
 40
60.0
 41
0.0
 71
     5
 72
     1
  1
\A1;1000
  7
A
 11
6.123031769111886E-17
 21
1.0
 31
0.0
 73
     1
 44
1.0
  0
POINT
  5
55D5
330
1C8D
100
AcDbEntity
  8
DEFPOINTS
 62
     0
440
 16777216
100
AcDbPoint
 10
6418.69597814597
 20
3984.996320791065
 30
0.0
  0
POINT
  5
55D6
330
1C8D
100
AcDbEntity
  8
DEFPOINTS
 62
     0
440
 16777216
100
AcDbPoint
 10
6393.695978145974
 20
4984.996320791066
 30
0.0
  0
POINT
  5
55D7
330
1C8D
100
AcDbEntity
  8
DEFPOINTS
 62
     0
440
 16777216
100
AcDbPoint
 10
5405.96657838787
 20
4984.996320791067
 30
0.0
  0
ENDBLK
  5
1C98
330
1C8D
100
AcDbEntity
  8
0
100
AcDbBlockEnd
  0
BLOCK
  5
254A
330
2540
100
AcDbEntity
  8
0
100
AcDbBlockBegin
  2
*D44
 70
     1
 10
0.0
 20
0.0
 30
0.0
  3
*D44
  1

  0
LINE
  5
58AB
330
2540
100
AcDbEntity
  8
SUNPOU
 62
     0
440
 16777216
100
AcDbLine
 10
3977.96097767145
 20
4545.087275416287
 30
0.0
 11
3977.96097767145
 21
4797.684411138598
 31
0.0
  0
LINE
  5
58AC
330
2540
100
AcDbEntity
  8
SUNPOU
 62
     0
440
 16777216
100
AcDbLine
 10
3677.960977671449
 20
4244.99632079107
 30
0.0
 11
3677.960977671449
 21
4797.684411138598
 31
0.0
  0
LINE
  5
58AD
330
2540
100
AcDbEntity
  8
SUNPOU
 62
     0
440
 16777216
100
AcDbLine
 10
3937.96097767145
 20
4777.684411138598
 30
0.0
 11
3717.960977671449
 21
4777.684411138598
 31
0.0
  0
SOLID
  5
58AE
330
2540
100
AcDbEntity
  8
SUNPOU
 62
     0
440
 16777216
100
AcDbTrace
 10
3937.96097767145
 20
4784.351077805265
 30
0.0
 11
3937.96097767145
 21
4771.017744471931
 31
0.0
 12
3977.96097767145
 22
4777.684411138598
 32
0.0
 13
3977.96097767145
 23
4777.684411138598
 33
0.0
  0
SOLID
  5
58AF
330
2540
100
AcDbEntity
  8
SUNPOU
 62
     0
440
 16777216
100
AcDbTrace
 10
3717.960977671449
 20
4784.351077805265
 30
0.0
 11
3717.960977671449
 21
4771.017744471931
 31
0.0
 12
3677.960977671449
 22
4777.684411138598
 32
0.0
 13
3677.960977671449
 23
4777.684411138598
 33
0.0
  0
MTEXT
  5
58B0
330
2540
100
AcDbEntity
  8
SUNPOU
 62
     0
440
 16777216
100
AcDbMText
 10
3827.96097767145
 20
4837.684411138598
 30
0.0
 40
60.0
 41
0.0
 71
     5
 72
     1
  1
\A1;300
  7
A
 73
     1
 44
1.0
  0
POINT
  5
58B1
330
2540
100
AcDbEntity
  8
DEFPOINTS
 62
     0
440
 16777216
100
AcDbPoint
 10
3977.96097767145
 20
4505.087275416287
 30
0.0
  0
POINT
  5
58B2
330
2540
100
AcDbEntity
  8
DEFPOINTS
 62
     0
440
 16777216
100
AcDbPoint
 10
3677.960977671449
 20
4204.99632079107
 30
0.0
  0
POINT
  5
58B3
330
2540
100
AcDbEntity
  8
DEFPOINTS
 62
     0
440
 16777216
100
AcDbPoint
 10
3677.960977671449
 20
4777.684411138598
 30
0.0
  0
ENDBLK
  5
254B
330
2540
100
AcDbEntity
  8
0
100
AcDbBlockEnd
  0
BLOCK
  5
255F
330
2555
100
AcDbEntity
  8
0
100
AcDbBlockBegin
  2
*D45
 70
     1
 10
0.0
 20
0.0
 30
0.0
  3
*D45
  1

  0
LINE
  5
58B4
330
2555
100
AcDbEntity
  8
SUNPOU
 62
     0
440
 16777216
100
AcDbLine
 10
3655.732579869162
 20
4204.996320791071
 30
0.0
 11
3471.346311608428
 21
4204.996320791071
 31
0.0
  0
LINE
  5
58B5
330
2555
100
AcDbEntity
  8
SUNPOU
 62
     0
440
 16777216
100
AcDbLine
 10
3937.960977671449
 20
4504.99632079107
 30
0.0
 11
3471.346311608428
 21
4504.99632079107
 31
0.0
  0
LINE
  5
58B6
330
2555
100
AcDbEntity
  8
SUNPOU
 62
     0
440
 16777216
100
AcDbLine
 10
3491.346311608428
 20
4244.996320791071
 30
0.0
 11
3491.346311608428
 21
4464.99632079107
 31
0.0
  0
SOLID
  5
58B7
330
2555
100
AcDbEntity
  8
SUNPOU
 62
     0
440
 16777216
100
AcDbTrace
 10
3484.679644941762
 20
4244.996320791071
 30
0.0
 11
3498.012978275095
 21
4244.996320791071
 31
0.0
 12
3491.346311608428
 22
4204.996320791071
 32
0.0
 13
3491.346311608428
 23
4204.996320791071
 33
0.0
  0
SOLID
  5
58B8
330
2555
100
AcDbEntity
  8
SUNPOU
 62
     0
440
 16777216
100
AcDbTrace
 10
3484.679644941762
 20
4464.99632079107
 30
0.0
 11
3498.012978275095
 21
4464.99632079107
 31
0.0
 12
3491.346311608428
 22
4504.99632079107
 32
0.0
 13
3491.346311608428
 23
4504.99632079107
 33
0.0
  0
MTEXT
  5
58B9
330
2555
100
AcDbEntity
  8
SUNPOU
 62
     0
440
 16777216
100
AcDbMText
 10
3431.346311608428
 20
4354.996320791071
 30
0.0
 40
60.0
 41
0.0
 71
     5
 72
     1
  1
\A1;300
  7
A
 11
6.123031769111886E-17
 21
1.0
 31
0.0
 73
     1
 44
1.0
  0
POINT
  5
58BA
330
2555
100
AcDbEntity
  8
DEFPOINTS
 62
     0
440
 16777216
100
AcDbPoint
 10
3695.732579869162
 20
4204.996320791071
 30
0.0
  0
POINT
  5
58BB
330
2555
100
AcDbEntity
  8
DEFPOINTS
 62
     0
440
 16777216
100
AcDbPoint
 10
3977.960977671449
 20
4504.99632079107
 30
0.0
  0
POINT
  5
58BC
330
2555
100
AcDbEntity
  8
DEFPOINTS
 62
     0
440
 16777216
100
AcDbPoint
 10
3491.346311608428
 20
4504.99632079107
 30
0.0
  0
ENDBLK
  5
2560
330
2555
100
AcDbEntity
  8
0
100
AcDbBlockEnd
  0
BLOCK
  5
25C9
330
25BF
100
AcDbEntity
  8
0
100
AcDbBlockBegin
  2
*D51
 70
     1
 10
0.0
 20
0.0
 30
0.0
  3
*D51
  1

  0
LINE
  5
54BB
330
25BF
100
AcDbEntity
  8
SUNPOU
 62
     0
440
 16777216
100
AcDbLine
 10
4712.952337057226
 20
4204.99632079107
 30
0.0
 11
4850.88079932299
 21
4204.99632079107
 31
0.0
  0
LINE
  5
54BC
330
25BF
100
AcDbEntity
  8
SUNPOU
 62
     0
440
 16777216
100
AcDbLine
 10
4806.722361527523
 20
4984.99632079107
 30
0.0
 11
4850.88079932299
 21
4984.99632079107
 31
0.0
  0
LINE
  5
54BD
330
25BF
100
AcDbEntity
  8
SUNPOU
 62
     0
440
 16777216
100
AcDbLine
 10
4830.88079932299
 20
4244.99632079107
 30
0.0
 11
4830.88079932299
 21
4944.99632079107
 31
0.0
  0
SOLID
  5
54BE
330
25BF
100
AcDbEntity
  8
SUNPOU
 62
     0
440
 16777216
100
AcDbTrace
 10
4824.214132656323
 20
4244.99632079107
 30
0.0
 11
4837.547465989657
 21
4244.99632079107
 31
0.0
 12
4830.88079932299
 22
4204.99632079107
 32
0.0
 13
4830.88079932299
 23
4204.99632079107
 33
0.0
  0
SOLID
  5
54BF
330
25BF
100
AcDbEntity
  8
SUNPOU
 62
     0
440
 16777216
100
AcDbTrace
 10
4824.214132656323
 20
4944.99632079107
 30
0.0
 11
4837.547465989657
 21
4944.99632079107
 31
0.0
 12
4830.88079932299
 22
4984.99632079107
 32
0.0
 13
4830.88079932299
 23
4984.99632079107
 33
0.0
  0
MTEXT
  5
54C0
330
25BF
100
AcDbEntity
  8
SUNPOU
 62
     0
440
 16777216
100
AcDbMText
 10
4770.880799322989
 20
4594.996320791071
 30
0.0
 40
60.0
 41
0.0
 71
     5
 72
     1
  1
\A1;780
  7
A
 11
6.123031769111886E-17
 21
1.0
 31
0.0
 73
     1
 44
1.0
  0
POINT
  5
54C1
330
25BF
100
AcDbEntity
  8
DEFPOINTS
 62
     0
440
 16777216
100
AcDbPoint
 10
4672.952337057226
 20
4204.99632079107
 30
0.0
  0
POINT
  5
54C2
330
25BF
100
AcDbEntity
  8
DEFPOINTS
 62
     0
440
 16777216
100
AcDbPoint
 10
4766.722361527523
 20
4984.99632079107
 30
0.0
  0
POINT
  5
54C3
330
25BF
100
AcDbEntity
  8
DEFPOINTS
 62
     0
440
 16777216
100
AcDbPoint
 10
4830.88079932299
 20
4984.99632079107
 30
0.0
  0
ENDBLK
  5
25CA
330
25BF
100
AcDbEntity
  8
0
100
AcDbBlockEnd
  0
BLOCK
  5
25D5
330
25CB
100
AcDbEntity
  8
0
100
AcDbBlockBegin
  2
*D52
 70
     1
 10
0.0
 20
0.0
 30
0.0
  3
*D52
  1

  0
LINE
  5
54A9
330
25CB
100
AcDbEntity
  8
SUNPOU
 62
     0
440
 16777216
100
AcDbLine
 10
4237.96097767145
 20
4984.99632079107
 30
0.0
 11
5068.032434938416
 21
4984.99632079107
 31
0.0
  0
LINE
  5
54AA
330
25CB
100
AcDbEntity
  8
SUNPOU
 62
     0
440
 16777216
100
AcDbLine
 10
4237.96097767145
 20
3984.99632079107
 30
0.0
 11
5068.032434938416
 21
3984.99632079107
 31
0.0
  0
LINE
  5
54AB
330
25CB
100
AcDbEntity
  8
SUNPOU
 62
     0
440
 16777216
100
AcDbLine
 10
5048.032434938416
 20
4944.99632079107
 30
0.0
 11
5048.032434938416
 21
4024.99632079107
 31
0.0
  0
SOLID
  5
54AC
330
25CB
100
AcDbEntity
  8
SUNPOU
 62
     0
440
 16777216
100
AcDbTrace
 10
5041.365768271749
 20
4944.99632079107
 30
0.0
 11
5054.699101605083
 21
4944.99632079107
 31
0.0
 12
5048.032434938416
 22
4984.99632079107
 32
0.0
 13
5048.032434938416
 23
4984.99632079107
 33
0.0
  0
SOLID
  5
54AD
330
25CB
100
AcDbEntity
  8
SUNPOU
 62
     0
440
 16777216
100
AcDbTrace
 10
5041.365768271749
 20
4024.99632079107
 30
0.0
 11
5054.699101605083
 21
4024.99632079107
 31
0.0
 12
5048.032434938416
 22
3984.99632079107
 32
0.0
 13
5048.032434938416
 23
3984.99632079107
 33
0.0
  0
MTEXT
  5
54AE
330
25CB
100
AcDbEntity
  8
SUNPOU
 62
     0
440
 16777216
100
AcDbMText
 10
4988.032434938415
 20
4484.996320791071
 30
0.0
 40
60.0
 41
0.0
 71
     5
 72
     1
  1
\A1;1000
  7
A
 11
6.123031769111886E-17
 21
1.0
 31
0.0
 73
     1
 44
1.0
  0
POINT
  5
54AF
330
25CB
100
AcDbEntity
  8
DEFPOINTS
 62
     0
440
 16777216
100
AcDbPoint
 10
4197.96097767145
 20
4984.99632079107
 30
0.0
  0
POINT
  5
54B0
330
25CB
100
AcDbEntity
  8
DEFPOINTS
 62
     0
440
 16777216
100
AcDbPoint
 10
4197.96097767145
 20
3984.99632079107
 30
0.0
  0
POINT
  5
54B1
330
25CB
100
AcDbEntity
  8
DEFPOINTS
 62
     0
440
 16777216
100
AcDbPoint
 10
5048.032434938416
 20
3984.99632079107
 30
0.0
  0
ENDBLK
  5
25D6
330
25CB
100
AcDbEntity
  8
0
100
AcDbBlockEnd
  0
BLOCK
  5
261E
330
2614
100
AcDbEntity
  8
0
100
AcDbBlockBegin
  2
*D54
 70
     1
 10
0.0
 20
0.0
 30
0.0
  3
*D54
  1

  0
LINE
  5
54B2
330
2614
100
AcDbEntity
  8
SUNPOU
 62
     0
440
 16777216
100
AcDbLine
 10
4237.96097767145
 20
3984.99632079107
 30
0.0
 11
4850.88079932299
 21
3984.99632079107
 31
0.0
  0
LINE
  5
54B3
330
2614
100
AcDbEntity
  8
SUNPOU
 62
     0
440
 16777216
100
AcDbLine
 10
4237.96097767145
 20
4204.99632079107
 30
0.0
 11
4850.88079932299
 21
4204.99632079107
 31
0.0
  0
LINE
  5
54B4
330
2614
100
AcDbEntity
  8
SUNPOU
 62
     0
440
 16777216
100
AcDbLine
 10
4830.88079932299
 20
4024.99632079107
 30
0.0
 11
4830.88079932299
 21
4164.99632079107
 31
0.0
  0
SOLID
  5
54B5
330
2614
100
AcDbEntity
  8
SUNPOU
 62
     0
440
 16777216
100
AcDbTrace
 10
4824.214132656323
 20
4024.99632079107
 30
0.0
 11
4837.547465989657
 21
4024.99632079107
 31
0.0
 12
4830.88079932299
 22
3984.99632079107
 32
0.0
 13
4830.88079932299
 23
3984.99632079107
 33
0.0
  0
SOLID
  5
54B6
330
2614
100
AcDbEntity
  8
SUNPOU
 62
     0
440
 16777216
100
AcDbTrace
 10
4824.214132656323
 20
4164.99632079107
 30
0.0
 11
4837.547465989657
 21
4164.99632079107
 31
0.0
 12
4830.88079932299
 22
4204.99632079107
 32
0.0
 13
4830.88079932299
 23
4204.99632079107
 33
0.0
  0
MTEXT
  5
54B7
330
2614
100
AcDbEntity
  8
SUNPOU
 62
     0
440
 16777216
100
AcDbMText
 10
4770.880799322989
 20
4094.99632079107
 30
0.0
 40
60.0
 41
0.0
 71
     5
 72
     1
  1
\A1;220
  7
A
 11
6.123031769111886E-17
 21
1.0
 31
0.0
 73
     1
 44
1.0
  0
POINT
  5
54B8
330
2614
100
AcDbEntity
  8
DEFPOINTS
 62
     0
440
 16777216
100
AcDbPoint
 10
4197.96097767145
 20
3984.99632079107
 30
0.0
  0
POINT
  5
54B9
330
2614
100
AcDbEntity
  8
DEFPOINTS
 62
     0
440
 16777216
100
AcDbPoint
 10
4197.96097767145
 20
4204.99632079107
 30
0.0
  0
POINT
  5
54BA
330
2614
100
AcDbEntity
  8
DEFPOINTS
 62
     0
440
 16777216
100
AcDbPoint
 10
4830.88079932299
 20
4204.99632079107
 30
0.0
  0
ENDBLK
  5
261F
330
2614
100
AcDbEntity
  8
0
100
AcDbBlockEnd
  0
BLOCK
  5
2636
330
262C
100
AcDbEntity
  8
0
100
AcDbBlockBegin
  2
*D56
 70
     1
 10
0.0
 20
0.0
 30
0.0
  3
*D56
  1

  0
LINE
  5
5751
330
262C
100
AcDbEntity
  8
SUNPOU
 62
     0
440
 16777216
100
AcDbLine
 10
4237.96097767145
 20
1906.087275416288
 30
0.0
 11
5009.255193011264
 21
1906.087275416288
 31
0.0
  0
LINE
  5
5752
330
262C
100
AcDbEntity
  8
SUNPOU
 62
     0
440
 16777216
100
AcDbLine
 10
4237.96097767145
 20
906.0872754162879
 30
0.0
 11
5009.255193011264
 21
906.0872754162876
 31
0.0
  0
LINE
  5
5753
330
262C
100
AcDbEntity
  8
SUNPOU
 62
     0
440
 16777216
100
AcDbLine
 10
4989.255193011264
 20
1866.087275416288
 30
0.0
 11
4989.255193011264
 21
946.0872754162876
 31
0.0
  0
SOLID
  5
5754
330
262C
100
AcDbEntity
  8
SUNPOU
 62
     0
440
 16777216
100
AcDbTrace
 10
4982.588526344597
 20
1866.087275416288
 30
0.0
 11
4995.921859677931
 21
1866.087275416288
 31
0.0
 12
4989.255193011264
 22
1906.087275416288
 32
0.0
 13
4989.255193011264
 23
1906.087275416288
 33
0.0
  0
SOLID
  5
5755
330
262C
100
AcDbEntity
  8
SUNPOU
 62
     0
440
 16777216
100
AcDbTrace
 10
4982.588526344597
 20
946.0872754162876
 30
0.0
 11
4995.921859677931
 21
946.0872754162876
 31
0.0
 12
4989.255193011264
 22
906.0872754162876
 32
0.0
 13
4989.255193011264
 23
906.0872754162876
 33
0.0
  0
MTEXT
  5
5756
330
262C
100
AcDbEntity
  8
SUNPOU
 62
     0
440
 16777216
100
AcDbMText
 10
4929.255193011264
 20
1406.087275416289
 30
0.0
 40
60.0
 41
0.0
 71
     5
 72
     1
  1
\A1;1000
  7
A
 11
6.123031769111886E-17
 21
1.0
 31
0.0
 73
     1
 44
1.0
  0
POINT
  5
5757
330
262C
100
AcDbEntity
  8
DEFPOINTS
 62
     0
440
 16777216
100
AcDbPoint
 10
4197.96097767145
 20
1906.087275416288
 30
0.0
  0
POINT
  5
5758
330
262C
100
AcDbEntity
  8
DEFPOINTS
 62
     0
440
 16777216
100
AcDbPoint
 10
4197.96097767145
 20
906.0872754162879
 30
0.0
  0
POINT
  5
5759
330
262C
100
AcDbEntity
  8
DEFPOINTS
 62
     0
440
 16777216
100
AcDbPoint
 10
4989.255193011264
 20
906.0872754162876
 30
0.0
  0
ENDBLK
  5
2637
330
262C
100
AcDbEntity
  8
0
100
AcDbBlockEnd
  0
BLOCK
  5
264E
330
2644
100
AcDbEntity
  8
0
100
AcDbBlockBegin
  2
*D58
 70
     1
 10
0.0
 20
0.0
 30
0.0
  3
*D58
  1

  0
LINE
  5
572D
330
2644
100
AcDbEntity
  8
SUNPOU
 62
     0
440
 16777216
100
AcDbLine
 10
1947.96097767145
 20
866.0872754162883
 30
0.0
 11
1947.96097767145
 21
304.0016302637778
 31
0.0
  0
LINE
  5
572E
330
2644
100
AcDbEntity
  8
SUNPOU
 62
     0
440
 16777216
100
AcDbLine
 10
4197.96097767145
 20
866.0872754162879
 30
0.0
 11
4197.96097767145
 21
304.0016302637778
 31
0.0
  0
LINE
  5
572F
330
2644
100
AcDbEntity
  8
SUNPOU
 62
     0
440
 16777216
100
AcDbLine
 10
1987.96097767145
 20
324.0016302637777
 30
0.0
 11
4157.96097767145
 21
324.0016302637777
 31
0.0
  0
SOLID
  5
5730
330
2644
100
AcDbEntity
  8
SUNPOU
 62
     0
440
 16777216
100
AcDbTrace
 10
1987.96097767145
 20
330.6682969304444
 30
0.0
 11
1987.96097767145
 21
317.334963597111
 31
0.0
 12
1947.96097767145
 22
324.0016302637777
 32
0.0
 13
1947.96097767145
 23
324.0016302637777
 33
0.0
  0
SOLID
  5
5731
330
2644
100
AcDbEntity
  8
SUNPOU
 62
     0
440
 16777216
100
AcDbTrace
 10
4157.96097767145
 20
330.6682969304444
 30
0.0
 11
4157.96097767145
 21
317.334963597111
 31
0.0
 12
4197.96097767145
 22
324.0016302637777
 32
0.0
 13
4197.96097767145
 23
324.0016302637777
 33
0.0
  0
MTEXT
  5
5732
330
2644
100
AcDbEntity
  8
SUNPOU
 62
     0
440
 16777216
100
AcDbMText
 10
3072.96097767145
 20
384.0016302637777
 30
0.0
 40
60.0
 41
0.0
 71
     5
 72
     1
  1
\A1;2250
  7
A
 73
     1
 44
1.0
  0
POINT
  5
5733
330
2644
100
AcDbEntity
  8
DEFPOINTS
 62
     0
440
 16777216
100
AcDbPoint
 10
1947.96097767145
 20
906.0872754162883
 30
0.0
  0
POINT
  5
5734
330
2644
100
AcDbEntity
  8
DEFPOINTS
 62
     0
440
 16777216
100
AcDbPoint
 10
4197.96097767145
 20
906.0872754162879
 30
0.0
  0
POINT
  5
5735
330
2644
100
AcDbEntity
  8
DEFPOINTS
 62
     0
440
 16777216
100
AcDbPoint
 10
4197.96097767145
 20
324.0016302637777
 30
0.0
  0
ENDBLK
  5
264F
330
2644
100
AcDbEntity
  8
0
100
AcDbBlockEnd
  0
BLOCK
  5
272C
330
2722
100
AcDbEntity
  8
0
100
AcDbBlockBegin
  2
*D72
 70
     1
 10
0.0
 20
0.0
 30
0.0
  3
*D72
  1

  0
LINE
  5
5485
330
2722
100
AcDbEntity
  8
SUNPOU
 62
     0
440
 16777216
100
AcDbLine
 10
4197.96097767145
 20
3944.99632079107
 30
0.0
 11
4197.96097767145
 21
3358.184291065701
 31
0.0
  0
LINE
  5
5486
330
2722
100
AcDbEntity
  8
SUNPOU
 62
     0
440
 16777216
100
AcDbLine
 10
3977.96097767145
 20
3944.99632079107
 30
0.0
 11
3977.96097767145
 21
3358.184291065701
 31
0.0
  0
LINE
  5
5487
330
2722
100
AcDbEntity
  8
SUNPOU
 62
     0
440
 16777216
100
AcDbLine
 10
4157.96097767145
 20
3378.184291065701
 30
0.0
 11
4017.96097767145
 21
3378.184291065701
 31
0.0
  0
MTEXT
  5
5488
330
2722
100
AcDbEntity
  8
SUNPOU
 62
     0
440
 16777216
100
AcDbMText
 10
4087.96097767145
 20
3438.184291065701
 30
0.0
 40
60.0
 41
0.0
 71
     5
 72
     1
  1
\A1;220
  7
A
 73
     1
 44
1.0
  0
SOLID
  5
5489
330
2722
100
AcDbEntity
  8
SUNPOU
 62
     0
440
 16777216
100
AcDbTrace
 10
4157.96097767145
 20
3384.850957732367
 30
0.0
 11
4157.96097767145
 21
3371.517624399034
 31
0.0
 12
4197.96097767145
 22
3378.184291065701
 32
0.0
 13
4197.96097767145
 23
3378.184291065701
 33
0.0
  0
SOLID
  5
548A
330
2722
100
AcDbEntity
  8
SUNPOU
 62
     0
440
 16777216
100
AcDbTrace
 10
4017.96097767145
 20
3384.850957732367
 30
0.0
 11
4017.96097767145
 21
3371.517624399034
 31
0.0
 12
3977.96097767145
 22
3378.184291065701
 32
0.0
 13
3977.96097767145
 23
3378.184291065701
 33
0.0
  0
POINT
  5
548B
330
2722
100
AcDbEntity
  8
DEFPOINTS
 62
     0
440
 16777216
100
AcDbPoint
 10
4197.96097767145
 20
3984.99632079107
 30
0.0
  0
POINT
  5
548C
330
2722
100
AcDbEntity
  8
DEFPOINTS
 62
     0
440
 16777216
100
AcDbPoint
 10
3977.96097767145
 20
3984.99632079107
 30
0.0
  0
POINT
  5
548D
330
2722
100
AcDbEntity
  8
DEFPOINTS
 62
     0
440
 16777216
100
AcDbPoint
 10
3977.96097767145
 20
3378.184291065701
 30
0.0
  0
ENDBLK
  5
272D
330
2722
100
AcDbEntity
  8
0
100
AcDbBlockEnd
  0
BLOCK
  5
2738
330
272E
100
AcDbEntity
  8
0
100
AcDbBlockBegin
  2
*D73
 70
     1
 10
0.0
 20
0.0
 30
0.0
  3
*D73
  1

  0
LINE
  5
548E
330
272E
100
AcDbEntity
  8
SUNPOU
 62
     0
440
 16777216
100
AcDbLine
 10
1947.96097767145
 20
3387.625067866913
 30
0.0
 11
1947.96097767145
 21
3358.184291065701
 31
0.0
  0
LINE
  5
548F
330
272E
100
AcDbEntity
  8
SUNPOU
 62
     0
440
 16777216
100
AcDbLine
 10
3977.96097767145
 20
3437.065844668125
 30
0.0
 11
3977.96097767145
 21
3358.184291065701
 31
0.0
  0
LINE
  5
5490
330
272E
100
AcDbEntity
  8
SUNPOU
 62
     0
440
 16777216
100
AcDbLine
 10
1987.96097767145
 20
3378.184291065701
 30
0.0
 11
3937.96097767145
 21
3378.184291065701
 31
0.0
  0
MTEXT
  5
5491
330
272E
100
AcDbEntity
  8
SUNPOU
 62
     0
440
 16777216
100
AcDbMText
 10
2962.96097767145
 20
3438.184291065701
 30
0.0
 40
60.0
 41
0.0
 71
     5
 72
     1
  1
\A1;2030
  7
A
 73
     1
 44
1.0
  0
SOLID
  5
5492
330
272E
100
AcDbEntity
  8
SUNPOU
 62
     0
440
 16777216
100
AcDbTrace
 10
1987.96097767145
 20
3384.850957732367
 30
0.0
 11
1987.96097767145
 21
3371.517624399034
 31
0.0
 12
1947.96097767145
 22
3378.184291065701
 32
0.0
 13
1947.96097767145
 23
3378.184291065701
 33
0.0
  0
SOLID
  5
5493
330
272E
100
AcDbEntity
  8
SUNPOU
 62
     0
440
 16777216
100
AcDbTrace
 10
3937.96097767145
 20
3384.850957732367
 30
0.0
 11
3937.96097767145
 21
3371.517624399034
 31
0.0
 12
3977.96097767145
 22
3378.184291065701
 32
0.0
 13
3977.96097767145
 23
3378.184291065701
 33
0.0
  0
POINT
  5
5494
330
272E
100
AcDbEntity
  8
DEFPOINTS
 62
     0
440
 16777216
100
AcDbPoint
 10
1947.96097767145
 20
3427.625067866913
 30
0.0
  0
POINT
  5
5495
330
272E
100
AcDbEntity
  8
DEFPOINTS
 62
     0
440
 16777216
100
AcDbPoint
 10
3977.96097767145
 20
3477.065844668125
 30
0.0
  0
POINT
  5
5496
330
272E
100
AcDbEntity
  8
DEFPOINTS
 62
     0
440
 16777216
100
AcDbPoint
 10
3977.96097767145
 20
3378.184291065701
 30
0.0
  0
ENDBLK
  5
2739
330
272E
100
AcDbEntity
  8
0
100
AcDbBlockEnd
  0
BLOCK
  5
2744
330
273A
100
AcDbEntity
  8
0
100
AcDbBlockBegin
  2
*D74
 70
     1
 10
0.0
 20
0.0
 30
0.0
  3
*D74
  1

  0
LINE
  5
547C
330
273A
100
AcDbEntity
  8
SUNPOU
 62
     0
440
 16777216
100
AcDbLine
 10
1947.96097767145
 20
3944.99632079107
 30
0.0
 11
1947.96097767145
 21
3160.421183860853
 31
0.0
  0
LINE
  5
547D
330
273A
100
AcDbEntity
  8
SUNPOU
 62
     0
440
 16777216
100
AcDbLine
 10
4197.96097767145
 20
3944.99632079107
 30
0.0
 11
4197.96097767145
 21
3160.421183860853
 31
0.0
  0
LINE
  5
547E
330
273A
100
AcDbEntity
  8
SUNPOU
 62
     0
440
 16777216
100
AcDbLine
 10
1987.96097767145
 20
3180.421183860853
 30
0.0
 11
4157.96097767145
 21
3180.421183860853
 31
0.0
  0
MTEXT
  5
547F
330
273A
100
AcDbEntity
  8
SUNPOU
 62
     0
440
 16777216
100
AcDbMText
 10
3072.96097767145
 20
3240.421183860853
 30
0.0
 40
60.0
 41
0.0
 71
     5
 72
     1
  1
\A1;2250
  7
A
 73
     1
 44
1.0
  0
SOLID
  5
5480
330
273A
100
AcDbEntity
  8
SUNPOU
 62
     0
440
 16777216
100
AcDbTrace
 10
1987.96097767145
 20
3187.087850527519
 30
0.0
 11
1987.96097767145
 21
3173.754517194186
 31
0.0
 12
1947.96097767145
 22
3180.421183860853
 32
0.0
 13
1947.96097767145
 23
3180.421183860853
 33
0.0
  0
SOLID
  5
5481
330
273A
100
AcDbEntity
  8
SUNPOU
 62
     0
440
 16777216
100
AcDbTrace
 10
4157.96097767145
 20
3187.087850527519
 30
0.0
 11
4157.96097767145
 21
3173.754517194186
 31
0.0
 12
4197.96097767145
 22
3180.421183860853
 32
0.0
 13
4197.96097767145
 23
3180.421183860853
 33
0.0
  0
POINT
  5
5482
330
273A
100
AcDbEntity
  8
DEFPOINTS
 62
     0
440
 16777216
100
AcDbPoint
 10
1947.96097767145
 20
3984.99632079107
 30
0.0
  0
POINT
  5
5483
330
273A
100
AcDbEntity
  8
DEFPOINTS
 62
     0
440
 16777216
100
AcDbPoint
 10
4197.96097767145
 20
3984.99632079107
 30
0.0
  0
POINT
  5
5484
330
273A
100
AcDbEntity
  8
DEFPOINTS
 62
     0
440
 16777216
100
AcDbPoint
 10
4197.96097767145
 20
3180.421183860853
 30
0.0
  0
ENDBLK
  5
2745
330
273A
100
AcDbEntity
  8
0
100
AcDbBlockEnd
  0
BLOCK
  5
2778
330
276C
100
AcDbEntity
  8
0
100
AcDbBlockBegin
  2
*D78
 70
     1
 10
0.0
 20
0.0
 30
0.0
  3
*D78
  1

  0
LINE
  5
54DF
330
276C
100
AcDbEntity
  8
SUNPOU
 62
     0
440
 16777216
100
AcDbLine
 10
1907.96097767145
 20
3984.99632079107
 30
0.0
 11
1588.153116212241
 21
3984.99632079107
 31
0.0
  0
LINE
  5
54E0
330
276C
100
AcDbEntity
  8
SUNPOU
 62
     0
440
 16777216
100
AcDbLine
 10
1907.96097767145
 20
4054.99632079107
 30
0.0
 11
1588.153116212241
 21
4054.99632079107
 31
0.0
  0
LINE
  5
54E1
330
276C
100
AcDbEntity
  8
SUNPOU
 62
     0
440
 16777216
100
AcDbLine
 10
1608.153116212241
 20
3944.99632079107
 30
0.0
 11
1608.153116212241
 21
3904.99632079107
 31
0.0
  0
LINE
  5
54E2
330
276C
100
AcDbEntity
  8
SUNPOU
 62
     0
440
 16777216
100
AcDbLine
 10
1608.153116212241
 20
4094.99632079107
 30
0.0
 11
1608.153116212241
 21
4134.996320791071
 31
0.0
  0
MTEXT
  5
54E3
330
276C
100
AcDbEntity
  8
SUNPOU
 62
     0
440
 16777216
100
AcDbMText
 10
1548.153116212241
 20
3908.519426943434
 30
0.0
 40
60.0
 41
0.0
 71
     5
 72
     1
  1
\A1;70
  7
A
 11
6.123031769111886E-17
 21
1.0
 31
0.0
 73
     1
 44
1.0
  0
LINE
  5
54E4
330
276C
100
AcDbEntity
  8
SUNPOU
 62
     0
440
 16777216
100
AcDbLine
 10
1608.153116212241
 20
3984.99632079107
 30
0.0
 11
1608.153116212241
 21
4054.99632079107
 31
0.0
  0
SOLID
  5
54E5
330
276C
100
AcDbEntity
  8
SUNPOU
 62
     0
440
 16777216
100
AcDbTrace
 10
1601.486449545574
 20
3944.99632079107
 30
0.0
 11
1614.819782878908
 21
3944.99632079107
 31
0.0
 12
1608.153116212241
 22
3984.99632079107
 32
0.0
 13
1608.153116212241
 23
3984.99632079107
 33
0.0
  0
SOLID
  5
54E6
330
276C
100
AcDbEntity
  8
SUNPOU
 62
     0
440
 16777216
100
AcDbTrace
 10
1601.486449545574
 20
4094.99632079107
 30
0.0
 11
1614.819782878908
 21
4094.99632079107
 31
0.0
 12
1608.153116212241
 22
4054.99632079107
 32
0.0
 13
1608.153116212241
 23
4054.99632079107
 33
0.0
  0
POINT
  5
54E7
330
276C
100
AcDbEntity
  8
DEFPOINTS
 62
     0
440
 16777216
100
AcDbPoint
 10
1947.96097767145
 20
3984.99632079107
 30
0.0
  0
POINT
  5
54E8
330
276C
100
AcDbEntity
  8
DEFPOINTS
 62
     0
440
 16777216
100
AcDbPoint
 10
1947.96097767145
 20
4054.99632079107
 30
0.0
  0
POINT
  5
54E9
330
276C
100
AcDbEntity
  8
DEFPOINTS
 62
     0
440
 16777216
100
AcDbPoint
 10
1608.153116212241
 20
4054.99632079107
 30
0.0
  0
ENDBLK
  5
2779
330
276C
100
AcDbEntity
  8
0
100
AcDbBlockEnd
  0
BLOCK
  5
279E
330
2792
100
AcDbEntity
  8
0
100
AcDbBlockBegin
  2
*D81
 70
     1
 10
0.0
 20
0.0
 30
0.0
  3
*D81
  1

  0
LINE
  5
54EA
330
2792
100
AcDbEntity
  8
SUNPOU
 62
     0
440
 16777216
100
AcDbLine
 10
1597.764702887071
 20
4054.99632079107
 30
0.0
 11
1588.153116212241
 21
4054.99632079107
 31
0.0
  0
LINE
  5
54EB
330
2792
100
AcDbEntity
  8
SUNPOU
 62
     0
440
 16777216
100
AcDbLine
 10
1632.311554007707
 20
4104.99632079107
 30
0.0
 11
1588.153116212241
 21
4104.99632079107
 31
0.0
  0
LINE
  5
54EC
330
2792
100
AcDbEntity
  8
SUNPOU
 62
     0
440
 16777216
100
AcDbLine
 10
1608.153116212241
 20
4014.99632079107
 30
0.0
 11
1608.153116212241
 21
3974.99632079107
 31
0.0
  0
LINE
  5
54ED
330
2792
100
AcDbEntity
  8
SUNPOU
 62
     0
440
 16777216
100
AcDbLine
 10
1608.153116212241
 20
4144.99632079107
 30
0.0
 11
1608.153116212241
 21
4184.99632079107
 31
0.0
  0
MTEXT
  5
54EE
330
2792
100
AcDbEntity
  8
SUNPOU
 62
     0
440
 16777216
100
AcDbMText
 10
1558.01811621224
 20
4079.99632079107
 30
0.0
 40
60.0
 41
0.0
 71
     5
 72
     1
  1
\A1;50
  7
A
 11
6.123031769111886E-17
 21
1.0
 31
0.0
 73
     1
 44
1.0
  0
LINE
  5
54EF
330
2792
100
AcDbEntity
  8
SUNPOU
 62
     0
440
 16777216
100
AcDbLine
 10
1608.153116212241
 20
4054.99632079107
 30
0.0
 11
1608.153116212241
 21
4104.99632079107
 31
0.0
  0
SOLID
  5
54F0
330
2792
100
AcDbEntity
  8
SUNPOU
 62
     0
440
 16777216
100
AcDbTrace
 10
1601.486449545574
 20
4014.99632079107
 30
0.0
 11
1614.819782878908
 21
4014.99632079107
 31
0.0
 12
1608.153116212241
 22
4054.99632079107
 32
0.0
 13
1608.153116212241
 23
4054.99632079107
 33
0.0
  0
SOLID
  5
54F1
330
2792
100
AcDbEntity
  8
SUNPOU
 62
     0
440
 16777216
100
AcDbTrace
 10
1601.486449545574
 20
4144.99632079107
 30
0.0
 11
1614.819782878908
 21
4144.99632079107
 31
0.0
 12
1608.153116212241
 22
4104.99632079107
 32
0.0
 13
1608.153116212241
 23
4104.99632079107
 33
0.0
  0
POINT
  5
54F2
330
2792
100
AcDbEntity
  8
DEFPOINTS
 62
     0
440
 16777216
100
AcDbPoint
 10
1637.764702887071
 20
4054.99632079107
 30
0.0
  0
POINT
  5
54F3
330
2792
100
AcDbEntity
  8
DEFPOINTS
 62
     0
440
 16777216
100
AcDbPoint
 10
1672.311554007707
 20
4104.99632079107
 30
0.0
  0
POINT
  5
54F4
330
2792
100
AcDbEntity
  8
DEFPOINTS
 62
     0
440
 16777216
100
AcDbPoint
 10
1608.153116212241
 20
4104.99632079107
 30
0.0
  0
ENDBLK
  5
279F
330
2792
100
AcDbEntity
  8
0
100
AcDbBlockEnd
  0
BLOCK
  5
27AA
330
27A0
100
AcDbEntity
  8
0
100
AcDbBlockBegin
  2
*D82
 70
     1
 10
0.0
 20
0.0
 30
0.0
  3
*D82
  1

  0
LINE
  5
54D6
330
27A0
100
AcDbEntity
  8
SUNPOU
 62
     0
440
 16777216
100
AcDbLine
 10
1907.96097767145
 20
3984.99632079107
 30
0.0
 11
1371.001480596815
 21
3984.99632079107
 31
0.0
  0
LINE
  5
54D7
330
27A0
100
AcDbEntity
  8
SUNPOU
 62
     0
440
 16777216
100
AcDbLine
 10
1907.96097767145
 20
4104.99632079107
 30
0.0
 11
1371.001480596815
 21
4104.99632079107
 31
0.0
  0
LINE
  5
54D8
330
27A0
100
AcDbEntity
  8
SUNPOU
 62
     0
440
 16777216
100
AcDbLine
 10
1391.001480596815
 20
4024.99632079107
 30
0.0
 11
1391.001480596815
 21
4064.996320791069
 31
0.0
  0
MTEXT
  5
54D9
330
27A0
100
AcDbEntity
  8
SUNPOU
 62
     0
440
 16777216
100
AcDbMText
 10
1331.001480596815
 20
4057.624669825374
 30
0.0
 40
60.0
 41
0.0
 71
     5
 72
     1
  1
\A1;120
  7
A
 11
6.123031769111886E-17
 21
1.0
 31
0.0
 73
     1
 44
1.0
  0
SOLID
  5
54DA
330
27A0
100
AcDbEntity
  8
SUNPOU
 62
     0
440
 16777216
100
AcDbTrace
 10
1384.334813930148
 20
4024.99632079107
 30
0.0
 11
1397.668147263482
 21
4024.99632079107
 31
0.0
 12
1391.001480596815
 22
3984.99632079107
 32
0.0
 13
1391.001480596815
 23
3984.99632079107
 33
0.0
  0
SOLID
  5
54DB
330
27A0
100
AcDbEntity
  8
SUNPOU
 62
     0
440
 16777216
100
AcDbTrace
 10
1384.334813930148
 20
4064.996320791069
 30
0.0
 11
1397.668147263482
 21
4064.996320791069
 31
0.0
 12
1391.001480596815
 22
4104.99632079107
 32
0.0
 13
1391.001480596815
 23
4104.99632079107
 33
0.0
  0
POINT
  5
54DC
330
27A0
100
AcDbEntity
  8
DEFPOINTS
 62
     0
440
 16777216
100
AcDbPoint
 10
1947.96097767145
 20
3984.99632079107
 30
0.0
  0
POINT
  5
54DD
330
27A0
100
AcDbEntity
  8
DEFPOINTS
 62
     0
440
 16777216
100
AcDbPoint
 10
1947.96097767145
 20
4104.99632079107
 30
0.0
  0
POINT
  5
54DE
330
27A0
100
AcDbEntity
  8
DEFPOINTS
 62
     0
440
 16777216
100
AcDbPoint
 10
1391.001480596815
 20
4104.99632079107
 30
0.0
  0
ENDBLK
  5
27AB
330
27A0
100
AcDbEntity
  8
0
100
AcDbBlockEnd
  0
BLOCK
  5
27C4
330
27B8
100
AcDbEntity
  8
0
100
AcDbBlockBegin
  2
*D84
 70
     1
 10
0.0
 20
0.0
 30
0.0
  3
*D84
  1

  0
LINE
  5
58C6
330
27B8
100
AcDbEntity
  8
SUNPOU
 62
     0
440
 16777216
100
AcDbLine
 10
1947.96097767145
 20
4378.910000229675
 30
0.0
 11
1947.96097767145
 21
4358.910000229675
 31
0.0
  0
LINE
  5
58C7
330
27B8
100
AcDbEntity
  8
SUNPOU
 62
     0
440
 16777216
100
AcDbLine
 10
1997.96097767145
 20
4378.910000229675
 30
0.0
 11
1997.96097767145
 21
4358.910000229675
 31
0.0
  0
LINE
  5
58C8
330
27B8
100
AcDbEntity
  8
SUNPOU
 62
     0
440
 16777216
100
AcDbLine
 10
1907.96097767145
 20
4338.910000229675
 30
0.0
 11
1867.96097767145
 21
4338.910000229675
 31
0.0
  0
LINE
  5
58C9
330
27B8
100
AcDbEntity
  8
SUNPOU
 62
     0
440
 16777216
100
AcDbLine
 10
2037.96097767145
 20
4338.910000229675
 30
0.0
 11
2077.96097767145
 21
4338.910000229675
 31
0.0
  0
MTEXT
  5
58CA
330
27B8
100
AcDbEntity
  8
SUNPOU
 62
     0
440
 16777216
100
AcDbMText
 10
1862.403198899899
 20
4398.910000229675
 30
0.0
 40
60.0
 41
0.0
 71
     5
 72
     1
  1
\A1;50
  7
A
 73
     1
 44
1.0
  0
LINE
  5
58CB
330
27B8
100
AcDbEntity
  8
SUNPOU
 62
     0
440
 16777216
100
AcDbLine
 10
1947.96097767145
 20
4338.910000229675
 30
0.0
 11
1997.96097767145
 21
4338.910000229675
 31
0.0
  0
SOLID
  5
58CC
330
27B8
100
AcDbEntity
  8
SUNPOU
 62
     0
440
 16777216
100
AcDbTrace
 10
1907.96097767145
 20
4345.576666896342
 30
0.0
 11
1907.96097767145
 21
4332.243333563008
 31
0.0
 12
1947.96097767145
 22
4338.910000229675
 32
0.0
 13
1947.96097767145
 23
4338.910000229675
 33
0.0
  0
SOLID
  5
58CD
330
27B8
100
AcDbEntity
  8
SUNPOU
 62
     0
440
 16777216
100
AcDbTrace
 10
2037.96097767145
 20
4345.576666896342
 30
0.0
 11
2037.96097767145
 21
4332.243333563008
 31
0.0
 12
1997.96097767145
 22
4338.910000229675
 32
0.0
 13
1997.96097767145
 23
4338.910000229675
 33
0.0
  0
POINT
  5
58CE
330
27B8
100
AcDbEntity
  8
DEFPOINTS
 62
     0
440
 16777216
100
AcDbPoint
 10
1947.96097767145
 20
4338.910000229675
 30
0.0
  0
POINT
  5
58CF
330
27B8
100
AcDbEntity
  8
DEFPOINTS
 62
     0
440
 16777216
100
AcDbPoint
 10
1997.96097767145
 20
4338.910000229675
 30
0.0
  0
POINT
  5
58D0
330
27B8
100
AcDbEntity
  8
DEFPOINTS
 62
     0
440
 16777216
100
AcDbPoint
 10
1997.96097767145
 20
4338.910000229675
 30
0.0
  0
ENDBLK
  5
27C5
330
27B8
100
AcDbEntity
  8
0
100
AcDbBlockEnd
  0
BLOCK
  5
29B5
330
29AB
100
AcDbEntity
  8
0
100
AcDbBlockBegin
  2
*D114
 70
     1
 10
0.0
 20
0.0
 30
0.0
  3
*D114
  1

  0
LINE
  5
56B3
330
29AB
100
AcDbEntity
  8
SUNPOU
 62
     0
440
 16777216
100
AcDbLine
 10
4237.96097767145
 20
5484.99632079107
 30
0.0
 11
4850.88079932299
 21
5484.99632079107
 31
0.0
  0
LINE
  5
56B4
330
29AB
100
AcDbEntity
  8
SUNPOU
 62
     0
440
 16777216
100
AcDbLine
 10
4800.160426263413
 20
4984.99632079107
 30
0.0
 11
4850.88079932299
 21
4984.99632079107
 31
0.0
  0
LINE
  5
56B5
330
29AB
100
AcDbEntity
  8
SUNPOU
 62
     0
440
 16777216
100
AcDbLine
 10
4830.88079932299
 20
5444.99632079107
 30
0.0
 11
4830.88079932299
 21
5024.99632079107
 31
0.0
  0
SOLID
  5
56B6
330
29AB
100
AcDbEntity
  8
SUNPOU
 62
     0
440
 16777216
100
AcDbTrace
 10
4824.214132656323
 20
5444.99632079107
 30
0.0
 11
4837.547465989657
 21
5444.99632079107
 31
0.0
 12
4830.88079932299
 22
5484.99632079107
 32
0.0
 13
4830.88079932299
 23
5484.99632079107
 33
0.0
  0
SOLID
  5
56B7
330
29AB
100
AcDbEntity
  8
SUNPOU
 62
     0
440
 16777216
100
AcDbTrace
 10
4824.214132656323
 20
5024.99632079107
 30
0.0
 11
4837.547465989657
 21
5024.99632079107
 31
0.0
 12
4830.88079932299
 22
4984.99632079107
 32
0.0
 13
4830.88079932299
 23
4984.99632079107
 33
0.0
  0
MTEXT
  5
56B8
330
29AB
100
AcDbEntity
  8
SUNPOU
 62
     0
440
 16777216
100
AcDbMText
 10
4770.880799322989
 20
5234.996320791071
 30
0.0
 40
60.0
 41
0.0
 71
     5
 72
     1
  1
\A1;500
  7
A
 11
6.123031769111886E-17
 21
1.0
 31
0.0
 73
     1
 44
1.0
  0
POINT
  5
56B9
330
29AB
100
AcDbEntity
  8
DEFPOINTS
 62
     0
440
 16777216
100
AcDbPoint
 10
4197.96097767145
 20
5484.99632079107
 30
0.0
  0
POINT
  5
56BA
330
29AB
100
AcDbEntity
  8
DEFPOINTS
 62
     0
440
 16777216
100
AcDbPoint
 10
4760.160426263413
 20
4984.99632079107
 30
0.0
  0
POINT
  5
56BB
330
29AB
100
AcDbEntity
  8
DEFPOINTS
 62
     0
440
 16777216
100
AcDbPoint
 10
4830.88079932299
 20
4984.99632079107
 30
0.0
  0
ENDBLK
  5
29B6
330
29AB
100
AcDbEntity
  8
0
100
AcDbBlockEnd
  0
BLOCK
  5
29C1
330
29B7
100
AcDbEntity
  8
0
100
AcDbBlockBegin
  2
*D115
 70
     1
 10
0.0
 20
0.0
 30
0.0
  3
*D115
  1

  0
LINE
  5
56AA
330
29B7
100
AcDbEntity
  8
SUNPOU
 62
     0
440
 16777216
100
AcDbLine
 10
4237.96097767145
 20
6484.99632079107
 30
0.0
 11
4850.880799322991
 21
6484.99632079107
 31
0.0
  0
LINE
  5
56AB
330
29B7
100
AcDbEntity
  8
SUNPOU
 62
     0
440
 16777216
100
AcDbLine
 10
4237.96097767145
 20
5484.99632079107
 30
0.0
 11
4850.88079932299
 21
5484.99632079107
 31
0.0
  0
LINE
  5
56AC
330
29B7
100
AcDbEntity
  8
SUNPOU
 62
     0
440
 16777216
100
AcDbLine
 10
4830.880799322991
 20
6444.99632079107
 30
0.0
 11
4830.88079932299
 21
5524.99632079107
 31
0.0
  0
SOLID
  5
56AD
330
29B7
100
AcDbEntity
  8
SUNPOU
 62
     0
440
 16777216
100
AcDbTrace
 10
4824.214132656324
 20
6444.99632079107
 30
0.0
 11
4837.547465989658
 21
6444.99632079107
 31
0.0
 12
4830.880799322991
 22
6484.99632079107
 32
0.0
 13
4830.880799322991
 23
6484.99632079107
 33
0.0
  0
SOLID
  5
56AE
330
29B7
100
AcDbEntity
  8
SUNPOU
 62
     0
440
 16777216
100
AcDbTrace
 10
4824.214132656323
 20
5524.99632079107
 30
0.0
 11
4837.547465989657
 21
5524.99632079107
 31
0.0
 12
4830.88079932299
 22
5484.99632079107
 32
0.0
 13
4830.88079932299
 23
5484.99632079107
 33
0.0
  0
MTEXT
  5
56AF
330
29B7
100
AcDbEntity
  8
SUNPOU
 62
     0
440
 16777216
100
AcDbMText
 10
4770.880799322989
 20
5984.996320791071
 30
0.0
 40
60.0
 41
0.0
 71
     5
 72
     1
  1
\A1;1000
  7
A
 11
6.123031769111886E-17
 21
1.0
 31
0.0
 73
     1
 44
1.0
  0
POINT
  5
56B0
330
29B7
100
AcDbEntity
  8
DEFPOINTS
 62
     0
440
 16777216
100
AcDbPoint
 10
4197.96097767145
 20
6484.99632079107
 30
0.0
  0
POINT
  5
56B1
330
29B7
100
AcDbEntity
  8
DEFPOINTS
 62
     0
440
 16777216
100
AcDbPoint
 10
4197.96097767145
 20
5484.99632079107
 30
0.0
  0
POINT
  5
56B2
330
29B7
100
AcDbEntity
  8
DEFPOINTS
 62
     0
440
 16777216
100
AcDbPoint
 10
4830.88079932299
 20
5484.99632079107
 30
0.0
  0
ENDBLK
  5
29C2
330
29B7
100
AcDbEntity
  8
0
100
AcDbBlockEnd
  0
BLOCK
  5
29CD
330
29C3
100
AcDbEntity
  8
0
100
AcDbBlockBegin
  2
*D116
 70
     1
 10
0.0
 20
0.0
 30
0.0
  3
*D116
  1

  0
LINE
  5
56A1
330
29C3
100
AcDbEntity
  8
SUNPOU
 62
     0
440
 16777216
100
AcDbLine
 10
4237.96097767145
 20
6984.99632079107
 30
0.0
 11
4850.88079932299
 21
6984.99632079107
 31
0.0
  0
LINE
  5
56A2
330
29C3
100
AcDbEntity
  8
SUNPOU
 62
     0
440
 16777216
100
AcDbLine
 10
4237.96097767145
 20
6484.99632079107
 30
0.0
 11
4850.88079932299
 21
6484.99632079107
 31
0.0
  0
LINE
  5
56A3
330
29C3
100
AcDbEntity
  8
SUNPOU
 62
     0
440
 16777216
100
AcDbLine
 10
4830.88079932299
 20
6944.99632079107
 30
0.0
 11
4830.88079932299
 21
6524.99632079107
 31
0.0
  0
SOLID
  5
56A4
330
29C3
100
AcDbEntity
  8
SUNPOU
 62
     0
440
 16777216
100
AcDbTrace
 10
4824.214132656323
 20
6944.99632079107
 30
0.0
 11
4837.547465989657
 21
6944.99632079107
 31
0.0
 12
4830.88079932299
 22
6984.99632079107
 32
0.0
 13
4830.88079932299
 23
6984.99632079107
 33
0.0
  0
SOLID
  5
56A5
330
29C3
100
AcDbEntity
  8
SUNPOU
 62
     0
440
 16777216
100
AcDbTrace
 10
4824.214132656323
 20
6524.99632079107
 30
0.0
 11
4837.547465989657
 21
6524.99632079107
 31
0.0
 12
4830.88079932299
 22
6484.99632079107
 32
0.0
 13
4830.88079932299
 23
6484.99632079107
 33
0.0
  0
MTEXT
  5
56A6
330
29C3
100
AcDbEntity
  8
SUNPOU
 62
     0
440
 16777216
100
AcDbMText
 10
4770.880799322988
 20
6734.996320791071
 30
0.0
 40
60.0
 41
0.0
 71
     5
 72
     1
  1
\A1;500
  7
A
 11
6.123031769111886E-17
 21
1.0
 31
0.0
 73
     1
 44
1.0
  0
POINT
  5
56A7
330
29C3
100
AcDbEntity
  8
DEFPOINTS
 62
     0
440
 16777216
100
AcDbPoint
 10
4197.96097767145
 20
6984.99632079107
 30
0.0
  0
POINT
  5
56A8
330
29C3
100
AcDbEntity
  8
DEFPOINTS
 62
     0
440
 16777216
100
AcDbPoint
 10
4197.96097767145
 20
6484.99632079107
 30
0.0
  0
POINT
  5
56A9
330
29C3
100
AcDbEntity
  8
DEFPOINTS
 62
     0
440
 16777216
100
AcDbPoint
 10
4830.88079932299
 20
6484.99632079107
 30
0.0
  0
ENDBLK
  5
29CE
330
29C3
100
AcDbEntity
  8
0
100
AcDbBlockEnd
  0
BLOCK
  5
29D9
330
29CF
100
AcDbEntity
  8
0
100
AcDbBlockBegin
  2
*D117
 70
     1
 10
0.0
 20
0.0
 30
0.0
  3
*D117
  1

  0
LINE
  5
5662
330
29CF
100
AcDbEntity
  8
SUNPOU
 62
     0
440
 16777216
100
AcDbLine
 10
4237.96097767145
 20
6984.99632079107
 30
0.0
 11
5068.032434938417
 21
6984.99632079107
 31
0.0
  0
LINE
  5
5663
330
29CF
100
AcDbEntity
  8
SUNPOU
 62
     0
440
 16777216
100
AcDbLine
 10
4237.96097767145
 20
4984.99632079107
 30
0.0
 11
5068.032434938416
 21
4984.99632079107
 31
0.0
  0
LINE
  5
5664
330
29CF
100
AcDbEntity
  8
SUNPOU
 62
     0
440
 16777216
100
AcDbLine
 10
5048.032434938417
 20
6944.99632079107
 30
0.0
 11
5048.032434938416
 21
5024.99632079107
 31
0.0
  0
SOLID
  5
5665
330
29CF
100
AcDbEntity
  8
SUNPOU
 62
     0
440
 16777216
100
AcDbTrace
 10
5041.36576827175
 20
6944.99632079107
 30
0.0
 11
5054.699101605084
 21
6944.99632079107
 31
0.0
 12
5048.032434938417
 22
6984.99632079107
 32
0.0
 13
5048.032434938417
 23
6984.99632079107
 33
0.0
  0
SOLID
  5
5666
330
29CF
100
AcDbEntity
  8
SUNPOU
 62
     0
440
 16777216
100
AcDbTrace
 10
5041.365768271749
 20
5024.99632079107
 30
0.0
 11
5054.699101605083
 21
5024.99632079107
 31
0.0
 12
5048.032434938416
 22
4984.99632079107
 32
0.0
 13
5048.032434938416
 23
4984.99632079107
 33
0.0
  0
MTEXT
  5
5667
330
29CF
100
AcDbEntity
  8
SUNPOU
 62
     0
440
 16777216
100
AcDbMText
 10
4988.032434938415
 20
5984.996320791071
 30
0.0
 40
60.0
 41
0.0
 71
     5
 72
     1
  1
\A1;2000
  7
A
 11
6.123031769111886E-17
 21
1.0
 31
0.0
 73
     1
 44
1.0
  0
POINT
  5
5668
330
29CF
100
AcDbEntity
  8
DEFPOINTS
 62
     0
440
 16777216
100
AcDbPoint
 10
4197.96097767145
 20
6984.99632079107
 30
0.0
  0
POINT
  5
5669
330
29CF
100
AcDbEntity
  8
DEFPOINTS
 62
     0
440
 16777216
100
AcDbPoint
 10
4197.96097767145
 20
4984.99632079107
 30
0.0
  0
POINT
  5
566A
330
29CF
100
AcDbEntity
  8
DEFPOINTS
 62
     0
440
 16777216
100
AcDbPoint
 10
5048.032434938416
 20
4984.99632079107
 30
0.0
  0
ENDBLK
  5
29DA
330
29CF
100
AcDbEntity
  8
0
100
AcDbBlockEnd
  0
BLOCK
  5
6962
330
6958
100
AcDbEntity
  8
0
100
AcDbBlockBegin
  2
*D281
 70
     1
 10
0.0
 20
0.0
 30
0.0
  3
*D281
  1

  0
LINE
  5
6980
330
6958
100
AcDbEntity
  8
SUNPOU
 62
     0
440
 16777216
370
    -2
100
AcDbLine
 10
1907.96097767145
 20
906.0872754162883
 30
0.0
 11
1371.001480596815
 21
906.0872754162884
 31
0.0
  0
LINE
  5
6981
330
6958
100
AcDbEntity
  8
SUNPOU
 62
     0
440
 16777216
370
    -2
100
AcDbLine
 10
1907.96097767145
 20
1026.087275416288
 30
0.0
 11
1371.001480596815
 21
1026.087275416288
 31
0.0
  0
LINE
  5
6982
330
6958
100
AcDbEntity
  8
SUNPOU
 62
     0
440
 16777216
370
    -2
100
AcDbLine
 10
1391.001480596815
 20
946.0872754162884
 30
0.0
 11
1391.001480596815
 21
986.087275416288
 31
0.0
  0
MTEXT
  5
6983
330
6958
100
AcDbEntity
  8
SUNPOU
 62
     0
440
 16777216
100
AcDbMText
 10
1331.001480596815
 20
978.7156244505923
 30
0.0
 40
60.0
 41
0.0
 71
     5
 72
     1
  1
\A1;120
  7
A
 11
6.123031769111886E-17
 21
1.0
 31
0.0
 73
     1
 44
1.0
  0
SOLID
  5
6984
330
6958
100
AcDbEntity
  8
SUNPOU
 62
     0
440
 16777216
100
AcDbTrace
 10
1384.334813930148
 20
946.0872754162884
 30
0.0
 11
1397.668147263482
 21
946.0872754162884
 31
0.0
 12
1391.001480596815
 22
906.0872754162884
 32
0.0
 13
1391.001480596815
 23
906.0872754162884
 33
0.0
  0
SOLID
  5
6985
330
6958
100
AcDbEntity
  8
SUNPOU
 62
     0
440
 16777216
100
AcDbTrace
 10
1384.334813930148
 20
986.087275416288
 30
0.0
 11
1397.668147263482
 21
986.087275416288
 31
0.0
 12
1391.001480596815
 22
1026.087275416288
 32
0.0
 13
1391.001480596815
 23
1026.087275416288
 33
0.0
  0
POINT
  5
6986
330
6958
100
AcDbEntity
  8
DEFPOINTS
 62
     0
440
 16777216
100
AcDbPoint
 10
1947.96097767145
 20
906.0872754162883
 30
0.0
  0
POINT
  5
6987
330
6958
100
AcDbEntity
  8
DEFPOINTS
 62
     0
440
 16777216
100
AcDbPoint
 10
1947.96097767145
 20
1026.087275416288
 30
0.0
  0
POINT
  5
6988
330
6958
100
AcDbEntity
  8
DEFPOINTS
 62
     0
440
 16777216
100
AcDbPoint
 10
1391.001480596815
 20
1026.087275416288
 30
0.0
  0
ENDBLK
  5
6963
330
6958
100
AcDbEntity
  8
0
100
AcDbBlockEnd
  0
BLOCK
  5
6970
330
6964
100
AcDbEntity
  8
0
100
AcDbBlockBegin
  2
*D282
 70
     1
 10
0.0
 20
0.0
 30
0.0
  3
*D282
  1

  0
LINE
  5
6989
330
6964
100
AcDbEntity
  8
SUNPOU
 62
     0
440
 16777216
370
    -2
100
AcDbLine
 10
1907.96097767145
 20
906.0872754162883
 30
0.0
 11
1588.153116212241
 21
906.0872754162884
 31
0.0
  0
LINE
  5
698A
330
6964
100
AcDbEntity
  8
SUNPOU
 62
     0
440
 16777216
370
    -2
100
AcDbLine
 10
1907.96097767145
 20
976.0872754162883
 30
0.0
 11
1588.153116212241
 21
976.0872754162884
 31
0.0
  0
LINE
  5
698B
330
6964
100
AcDbEntity
  8
SUNPOU
 62
     0
440
 16777216
370
    -2
100
AcDbLine
 10
1608.153116212241
 20
866.0872754162884
 30
0.0
 11
1608.153116212241
 21
826.0872754162884
 31
0.0
  0
LINE
  5
698C
330
6964
100
AcDbEntity
  8
SUNPOU
 62
     0
440
 16777216
370
    -2
100
AcDbLine
 10
1608.153116212241
 20
1016.087275416288
 30
0.0
 11
1608.153116212241
 21
1056.087275416288
 31
0.0
  0
MTEXT
  5
698D
330
6964
100
AcDbEntity
  8
SUNPOU
 62
     0
440
 16777216
100
AcDbMText
 10
1548.153116212241
 20
829.6103815686524
 30
0.0
 40
60.0
 41
0.0
 71
     5
 72
     1
  1
\A1;70
  7
A
 11
6.123031769111886E-17
 21
1.0
 31
0.0
 73
     1
 44
1.0
  0
LINE
  5
698E
330
6964
100
AcDbEntity
  8
SUNPOU
 62
     0
440
 16777216
370
    -2
100
AcDbLine
 10
1608.153116212241
 20
906.0872754162884
 30
0.0
 11
1608.153116212241
 21
976.0872754162884
 31
0.0
  0
SOLID
  5
698F
330
6964
100
AcDbEntity
  8
SUNPOU
 62
     0
440
 16777216
100
AcDbTrace
 10
1601.486449545574
 20
866.0872754162884
 30
0.0
 11
1614.819782878908
 21
866.0872754162884
 31
0.0
 12
1608.153116212241
 22
906.0872754162884
 32
0.0
 13
1608.153116212241
 23
906.0872754162884
 33
0.0
  0
SOLID
  5
6990
330
6964
100
AcDbEntity
  8
SUNPOU
 62
     0
440
 16777216
100
AcDbTrace
 10
1601.486449545574
 20
1016.087275416288
 30
0.0
 11
1614.819782878908
 21
1016.087275416288
 31
0.0
 12
1608.153116212241
 22
976.0872754162884
 32
0.0
 13
1608.153116212241
 23
976.0872754162884
 33
0.0
  0
POINT
  5
6991
330
6964
100
AcDbEntity
  8
DEFPOINTS
 62
     0
440
 16777216
100
AcDbPoint
 10
1947.96097767145
 20
906.0872754162883
 30
0.0
  0
POINT
  5
6992
330
6964
100
AcDbEntity
  8
DEFPOINTS
 62
     0
440
 16777216
100
AcDbPoint
 10
1947.96097767145
 20
976.0872754162883
 30
0.0
  0
POINT
  5
6993
330
6964
100
AcDbEntity
  8
DEFPOINTS
 62
     0
440
 16777216
100
AcDbPoint
 10
1608.153116212241
 20
976.0872754162884
 30
0.0
  0
ENDBLK
  5
6971
330
6964
100
AcDbEntity
  8
0
100
AcDbBlockEnd
  0
BLOCK
  5
697E
330
6972
100
AcDbEntity
  8
0
100
AcDbBlockBegin
  2
*D283
 70
     1
 10
0.0
 20
0.0
 30
0.0
  3
*D283
  1

  0
LINE
  5
6994
330
6972
100
AcDbEntity
  8
SUNPOU
 62
     0
440
 16777216
370
    -2
100
AcDbLine
 10
1597.764702887071
 20
976.0872754162883
 30
0.0
 11
1588.153116212241
 21
976.0872754162883
 31
0.0
  0
LINE
  5
6995
330
6972
100
AcDbEntity
  8
SUNPOU
 62
     0
440
 16777216
370
    -2
100
AcDbLine
 10
1632.311554007707
 20
1026.087275416288
 30
0.0
 11
1588.153116212241
 21
1026.087275416288
 31
0.0
  0
LINE
  5
6996
330
6972
100
AcDbEntity
  8
SUNPOU
 62
     0
440
 16777216
370
    -2
100
AcDbLine
 10
1608.153116212241
 20
936.0872754162883
 30
0.0
 11
1608.153116212241
 21
896.0872754162883
 31
0.0
  0
LINE
  5
6997
330
6972
100
AcDbEntity
  8
SUNPOU
 62
     0
440
 16777216
370
    -2
100
AcDbLine
 10
1608.153116212241
 20
1066.087275416288
 30
0.0
 11
1608.153116212241
 21
1106.087275416288
 31
0.0
  0
MTEXT
  5
6998
330
6972
100
AcDbEntity
  8
SUNPOU
 62
     0
440
 16777216
100
AcDbMText
 10
1558.018116212241
 20
1001.087275416288
 30
0.0
 40
60.0
 41
0.0
 71
     5
 72
     1
  1
\A1;50
  7
A
 11
6.123031769111886E-17
 21
1.0
 31
0.0
 73
     1
 44
1.0
  0
LINE
  5
6999
330
6972
100
AcDbEntity
  8
SUNPOU
 62
     0
440
 16777216
370
    -2
100
AcDbLine
 10
1608.153116212241
 20
976.0872754162883
 30
0.0
 11
1608.153116212241
 21
1026.087275416288
 31
0.0
  0
SOLID
  5
699A
330
6972
100
AcDbEntity
  8
SUNPOU
 62
     0
440
 16777216
100
AcDbTrace
 10
1601.486449545574
 20
936.0872754162883
 30
0.0
 11
1614.819782878908
 21
936.0872754162883
 31
0.0
 12
1608.153116212241
 22
976.0872754162883
 32
0.0
 13
1608.153116212241
 23
976.0872754162883
 33
0.0
  0
SOLID
  5
699B
330
6972
100
AcDbEntity
  8
SUNPOU
 62
     0
440
 16777216
100
AcDbTrace
 10
1601.486449545574
 20
1066.087275416288
 30
0.0
 11
1614.819782878908
 21
1066.087275416288
 31
0.0
 12
1608.153116212241
 22
1026.087275416288
 32
0.0
 13
1608.153116212241
 23
1026.087275416288
 33
0.0
  0
POINT
  5
699C
330
6972
100
AcDbEntity
  8
DEFPOINTS
 62
     0
440
 16777216
100
AcDbPoint
 10
1637.764702887071
 20
976.0872754162883
 30
0.0
  0
POINT
  5
699D
330
6972
100
AcDbEntity
  8
DEFPOINTS
 62
     0
440
 16777216
100
AcDbPoint
 10
1672.311554007707
 20
1026.087275416288
 30
0.0
  0
POINT
  5
699E
330
6972
100
AcDbEntity
  8
DEFPOINTS
 62
     0
440
 16777216
100
AcDbPoint
 10
1608.153116212241
 20
1026.087275416288
 30
0.0
  0
ENDBLK
  5
697F
330
6972
100
AcDbEntity
  8
0
100
AcDbBlockEnd
  0
BLOCK
  5
69AB
330
69A1
100
AcDbEntity
  8
0
100
AcDbBlockBegin
  2
*D284
 70
     1
 10
0.0
 20
0.0
 30
0.0
  3
*D284
  1

  0
LINE
  5
69BB
330
69A1
100
AcDbEntity
  8
SUNPOU
 62
     0
440
 16777216
370
    -2
100
AcDbLine
 10
4197.96097767145
 20
1946.087275416288
 30
0.0
 11
4197.96097767145
 21
2117.305049610059
 31
0.0
  0
LINE
  5
69BC
330
69A1
100
AcDbEntity
  8
SUNPOU
 62
     0
440
 16777216
370
    -2
100
AcDbLine
 10
3977.96097767145
 20
1946.087275416288
 30
0.0
 11
3977.96097767145
 21
2117.305049610059
 31
0.0
  0
LINE
  5
69BD
330
69A1
100
AcDbEntity
  8
SUNPOU
 62
     0
440
 16777216
370
    -2
100
AcDbLine
 10
4157.96097767145
 20
2097.305049610059
 30
0.0
 11
4017.96097767145
 21
2097.305049610059
 31
0.0
  0
SOLID
  5
69BE
330
69A1
100
AcDbEntity
  8
SUNPOU
 62
     0
440
 16777216
100
AcDbTrace
 10
4157.96097767145
 20
2103.971716276725
 30
0.0
 11
4157.96097767145
 21
2090.638382943392
 31
0.0
 12
4197.96097767145
 22
2097.305049610059
 32
0.0
 13
4197.96097767145
 23
2097.305049610059
 33
0.0
  0
SOLID
  5
69BF
330
69A1
100
AcDbEntity
  8
SUNPOU
 62
     0
440
 16777216
100
AcDbTrace
 10
4017.96097767145
 20
2103.971716276725
 30
0.0
 11
4017.96097767145
 21
2090.638382943392
 31
0.0
 12
3977.96097767145
 22
2097.305049610059
 32
0.0
 13
3977.96097767145
 23
2097.305049610059
 33
0.0
  0
MTEXT
  5
69C0
330
69A1
100
AcDbEntity
  8
SUNPOU
 62
     0
440
 16777216
100
AcDbMText
 10
4087.96097767145
 20
2157.305049610059
 30
0.0
 40
60.0
 41
0.0
 71
     5
 72
     1
  1
\A1;220
  7
A
 73
     1
 44
1.0
  0
POINT
  5
69C1
330
69A1
100
AcDbEntity
  8
DEFPOINTS
 62
     0
440
 16777216
100
AcDbPoint
 10
4197.96097767145
 20
1906.087275416288
 30
0.0
  0
POINT
  5
69C2
330
69A1
100
AcDbEntity
  8
DEFPOINTS
 62
     0
440
 16777216
100
AcDbPoint
 10
3977.96097767145
 20
1906.087275416288
 30
0.0
  0
POINT
  5
69C3
330
69A1
100
AcDbEntity
  8
DEFPOINTS
 62
     0
440
 16777216
100
AcDbPoint
 10
3977.96097767145
 20
2097.305049610059
 30
0.0
  0
ENDBLK
  5
69AC
330
69A1
100
AcDbEntity
  8
0
100
AcDbBlockEnd
  0
BLOCK
  5
69B9
330
69AD
100
AcDbEntity
  8
0
100
AcDbBlockBegin
  2
*D285
 70
     1
 10
0.0
 20
0.0
 30
0.0
  3
*D285
  1

  0
LINE
  5
69C4
330
69AD
100
AcDbEntity
  8
SUNPOU
 62
     0
440
 16777216
370
    -2
100
AcDbLine
 10
4197.96097767145
 20
2546.087275416288
 30
0.0
 11
4197.96097767145
 21
2834.769519207624
 31
0.0
  0
LINE
  5
69C5
330
69AD
100
AcDbEntity
  8
SUNPOU
 62
     0
440
 16777216
370
    -2
100
AcDbLine
 10
4120.96097767145
 20
2546.087275416288
 30
0.0
 11
4120.96097767145
 21
2834.769519207624
 31
0.0
  0
LINE
  5
69C6
330
69AD
100
AcDbEntity
  8
SUNPOU
 62
     0
440
 16777216
370
    -2
100
AcDbLine
 10
4237.96097767145
 20
2814.769519207624
 30
0.0
 11
4277.96097767145
 21
2814.769519207624
 31
0.0
  0
LINE
  5
69C7
330
69AD
100
AcDbEntity
  8
SUNPOU
 62
     0
440
 16777216
370
    -2
100
AcDbLine
 10
4080.96097767145
 20
2814.769519207624
 30
0.0
 11
4040.96097767145
 21
2814.769519207624
 31
0.0
  0
MTEXT
  5
69C8
330
69AD
100
AcDbEntity
  8
SUNPOU
 62
     0
440
 16777216
100
AcDbMText
 10
4159.46097767145
 20
2864.904519207625
 30
0.0
 40
60.0
 41
0.0
 71
     5
 72
     1
  1
\A1;77
  7
A
 73
     1
 44
1.0
  0
LINE
  5
69C9
330
69AD
100
AcDbEntity
  8
SUNPOU
 62
     0
440
 16777216
370
    -2
100
AcDbLine
 10
4197.96097767145
 20
2814.769519207624
 30
0.0
 11
4120.96097767145
 21
2814.769519207624
 31
0.0
  0
SOLID
  5
69CA
330
69AD
100
AcDbEntity
  8
SUNPOU
 62
     0
440
 16777216
100
AcDbTrace
 10
4237.96097767145
 20
2821.436185874291
 30
0.0
 11
4237.96097767145
 21
2808.102852540958
 31
0.0
 12
4197.96097767145
 22
2814.769519207624
 32
0.0
 13
4197.96097767145
 23
2814.769519207624
 33
0.0
  0
SOLID
  5
69CB
330
69AD
100
AcDbEntity
  8
SUNPOU
 62
     0
440
 16777216
100
AcDbTrace
 10
4080.96097767145
 20
2821.436185874291
 30
0.0
 11
4080.96097767145
 21
2808.102852540958
 31
0.0
 12
4120.96097767145
 22
2814.769519207624
 32
0.0
 13
4120.96097767145
 23
2814.769519207624
 33
0.0
  0
POINT
  5
69CC
330
69AD
100
AcDbEntity
  8
DEFPOINTS
 62
     0
440
 16777216
100
AcDbPoint
 10
4197.96097767145
 20
2506.087275416288
 30
0.0
  0
POINT
  5
69CD
330
69AD
100
AcDbEntity
  8
DEFPOINTS
 62
     0
440
 16777216
100
AcDbPoint
 10
4120.96097767145
 20
2506.087275416288
 30
0.0
  0
POINT
  5
69CE
330
69AD
100
AcDbEntity
  8
DEFPOINTS
 62
     0
440
 16777216
100
AcDbPoint
 10
4120.96097767145
 20
2814.769519207624
 30
0.0
  0
ENDBLK
  5
69BA
330
69AD
100
AcDbEntity
  8
0
100
AcDbBlockEnd
  0
ENDSEC
  0
SECTION
  2
ENTITIES
  0
TEXT
  5
6CB
330
17
100
AcDbEntity
  8
SUNPOU
100
AcDbText
 10
10440.76093427418
 20
53.18824234306885
 30
0.0
 40
50.0
  1
新和コンクリート工業株式会社
  7
NIHONGO
100
AcDbText
  0
TEXT
  5
6CC
330
17
100
AcDbEntity
  8
SUNPOU
100
AcDbText
 10
10869.09426760752
 20
178.1882423430689
 30
0.0
 40
50.0
  1
製図
  7
NIHONGO
 72
     4
 11
10920.76093427418
 21
203.1882423430689
 31
0.0
100
AcDbText
  0
TEXT
  5
6CD
330
17
100
AcDbEntity
  8
SUNPOU
100
AcDbText
 10
10867.42760094085
 20
278.1882423430689
 30
0.0
 40
50.0
  1
設計
  7
NIHONGO
 72
     4
 11
10920.76093427418
 21
303.1882423430689
 31
0.0
100
AcDbText
  0
TEXT
  5
6CE
330
17
100
AcDbEntity
  8
SUNPOU
100
AcDbText
 10
10422.42760094085
 20
178.1882423430689
 30
0.0
 40
50.0
  1
認
  7
NIHONGO
 72
     4
 11
10445.76093427418
 21
203.1882423430689
 31
0.0
100
AcDbText
  0
TEXT
  5
6CF
330
17
100
AcDbEntity
  8
SUNPOU
100
AcDbText
 10
10422.42760094085
 20
279.8549090097364
 30
0.0
 40
50.0
  1
承
  7
NIHONGO
 72
     4
 11
10445.76093427418
 21
303.1882423430698
 31
0.0
100
AcDbText
  0
TEXT
  5
6D0
330
17
100
AcDbEntity
  8
SUNPOU
100
AcDbText
 10
9895.760934274182
 20
288.1882423430689
 30
0.0
 40
50.0
  1
図　面　番　号
  7
NIHONGO
 72
     4
 11
10100.76093427418
 21
313.1882423430689
 31
0.0
100
AcDbText
  0
TEXT
  5
6D1
330
17
100
AcDbEntity
  8
SUNPOU
100
AcDbText
 10
10880.76093427418
 20
393.1882423430689
 30
0.0
 40
50.0
  1
１／
  7
NIHONGO
100
AcDbText
  0
TEXT
  5
6D2
330
17
100
AcDbEntity
  8
SUNPOU
100
AcDbText
 10
10587.42760094085
 20
378.1882423430689
 30
0.0
 40
50.0
  1
縮　　尺
  7
NIHONGO
 72
     4
 11
10700.76093427418
 21
403.1882423430689
 31
0.0
100
AcDbText
  0
TEXT
  5
6D3
330
17
100
AcDbEntity
  8
SUNPOU
100
AcDbText
 10
10587.42760094085
 20
478.1882423430689
 30
0.0
 40
50.0
  1
鉄 筋 量
  7
NIHONGO
 72
     4
 11
10700.76093427418
 21
503.1882423430689
 31
0.0
100
AcDbText
  0
TEXT
  5
6D4
330
17
100
AcDbEntity
  8
SUNPOU
100
AcDbText
 10
10587.42760094085
 20
578.1882423430689
 30
0.0
 40
50.0
  1
製 造 数
  7
NIHONGO
 72
     4
 11
10700.76093427418
 21
603.1882423430689
 31
0.0
100
AcDbText
  0
TEXT
  5
6D5
330
17
100
AcDbEntity
  8
SUNPOU
100
AcDbText
 10
11180.76093427418
 20
473.1882423430689
 30
0.0
 40
50.0
  1
ｋｇ
  7
NIHONGO
 72
     2
 11
11280.76093427418
 21
473.1882423430689
 31
0.0
100
AcDbText
  0
TEXT
  5
6D6
330
17
100
AcDbEntity
  8
SUNPOU
100
AcDbText
 10
10430.76093427418
 20
473.1882423430689
 30
0.0
 40
50.0
  1
ｋｇ
  7
NIHONGO
 72
     2
 11
10530.76093427418
 21
473.1882423430689
 31
0.0
100
AcDbText
  0
TEXT
  5
6D7
330
17
100
AcDbEntity
  8
SUNPOU
100
AcDbText
 10
9840.760934274182
 20
378.1882423430689
 30
0.0
 40
50.0
  1
年 月 日
  7
NIHONGO
 72
     4
 11
9950.760934274182
 21
403.1882423430689
 31
0.0
100
AcDbText
  0
TEXT
  5
6D8
330
17
100
AcDbEntity
  8
SUNPOU
100
AcDbText
 10
9837.427600940848
 20
478.1882423430689
 30
0.0
 40
50.0
  1
製品質量
  7
NIHONGO
 72
     4
 11
9950.760934274182
 21
503.1882423430689
 31
0.0
100
AcDbText
  0
TEXT
  5
6D9
330
17
100
AcDbEntity
  8
SUNPOU
100
AcDbText
 10
9839.094267607516
 20
578.1882423430689
 30
0.0
 40
50.0
  1
業 者 名
  7
NIHONGO
 72
     4
 11
9950.760934274182
 21
603.1882423430689
 31
0.0
100
AcDbText
  0
TEXT
  5
6DA
330
17
100
AcDbEntity
  8
SUNPOU
100
AcDbText
 10
9837.427600940848
 20
703.1882423430689
 30
0.0
 40
50.0
  1
名　　称
  7
NIHONGO
 72
     4
 11
9950.760934274182
 21
728.1882423430689
 31
0.0
100
AcDbText
  0
LINE
  5
6DB
330
17
100
AcDbEntity
  8
SUNPOU
100
AcDbLine
 10
10400.76093427418
 20
273.1882423430693
 30
0.0
 11
9800.760934274182
 21
273.1882423430693
 31
0.0
  0
LINE
  5
6DC
330
17
100
AcDbEntity
  8
SUNPOU
100
AcDbLine
 10
10990.76093427418
 20
153.1882423430684
 30
0.0
 11
10990.76093427418
 21
353.1882423430689
 31
0.0
  0
LINE
  5
6DD
330
17
100
AcDbEntity
  8
SUNPOU
100
AcDbLine
 10
10850.76093427418
 20
153.1882423430684
 30
0.0
 11
10850.76093427418
 21
353.1882423430689
 31
0.0
  0
LINE
  5
6DE
330
17
100
AcDbEntity
  8
SUNPOU
100
AcDbLine
 10
10490.76093427418
 20
153.1882423430689
 30
0.0
 11
10490.76093427418
 21
353.1882423430689
 31
0.0
  0
LINE
  5
6DF
330
17
100
AcDbEntity
  8
SUNPOU
100
AcDbLine
 10
10400.76093427418
 20
153.1882423430689
 30
0.0
 11
10400.76093427418
 21
353.1882423430689
 31
0.0
  0
LINE
  5
6E0
330
17
100
AcDbEntity
  8
SUNPOU
100
AcDbLine
 10
10100.76093427418
 20
353.1882423430689
 30
0.0
 11
10100.76093427418
 21
803.1882423430689
 31
0.0
  0
LINE
  5
6E1
330
17
100
AcDbEntity
  8
SUNPOU
100
AcDbLine
 10
10850.76093427418
 20
353.1882423430689
 30
0.0
 11
10850.76093427418
 21
653.1882423430689
 31
0.0
  0
LINE
  5
6E2
330
17
100
AcDbEntity
  8
SUNPOU
100
AcDbLine
 10
10550.76093427418
 20
353.1882423430689
 30
0.0
 11
10550.76093427418
 21
653.1882423430689
 31
0.0
  0
LINE
  5
6E3
330
17
100
AcDbEntity
  8
SUNPOU
100
AcDbLine
 10
11300.76093427418
 20
653.1882423430689
 30
0.0
 11
9800.760934274182
 21
653.1882423430689
 31
0.0
  0
LINE
  5
6E4
330
17
100
AcDbEntity
  8
SUNPOU
100
AcDbLine
 10
11300.76093427418
 20
553.1882423430689
 30
0.0
 11
9800.760934274182
 21
553.1882423430689
 31
0.0
  0
LINE
  5
6E5
330
17
100
AcDbEntity
  8
SUNPOU
100
AcDbLine
 10
11300.76093427418
 20
453.1882423430689
 30
0.0
 11
9800.760934274182
 21
453.1882423430689
 31
0.0
  0
LINE
  5
6E6
330
17
100
AcDbEntity
  8
SUNPOU
100
AcDbLine
 10
11300.76093427418
 20
353.1882423430689
 30
0.0
 11
9800.760934274182
 21
353.1882423430698
 31
0.0
  0
LINE
  5
6E7
330
17
100
AcDbEntity
  8
HAIKIN
100
AcDbLine
 10
9800.760934274182
 20
803.1882423430689
 30
0.0
 11
11300.76093427418
 21
803.1882423430689
 31
0.0
  0
LINE
  5
6E8
330
17
100
AcDbEntity
  8
HAIKIN
100
AcDbLine
 10
9800.760934274182
 20
153.1882423430693
 30
0.0
 11
9800.760934274182
 21
803.1882423430689
 31
0.0
  0
TEXT
  5
6E9
330
17
100
AcDbEntity
  8
SUNPOU
100
AcDbText
 10
11000.76093427418
 20
373.1882423430689
 30
0.0
 40
60.0
  1
 20
  7
A
100
AcDbText
  0
TEXT
  5
6EB
330
17
100
AcDbEntity
  8
SUNPOU
100
AcDbText
 10
10165.51034993406
 20
690.1012266024927
 30
0.0
 40
70.0
  1
デザインウォールコーナー　H=2250
 41
0.7131511588180484
  7
A
 72
     5
 11
11218.83461150831
 21
690.1012266024927
 31
0.0
100
AcDbText
  0
LWPOLYLINE
  5
6ED
330
17
100
AcDbEntity
  8
HAIKIN
100
AcDbPolyline
 90
        4
 70
     1
 43
0.0
 10
11304.78343630826
 20
7982.039940919411
 10
376.7808576631921
 20
7982.039940919411
 10
376.7808576631921
 20
150.0
 10
11304.78343630826
 20
150.0
  0
TEXT
  5
6F3
330
17
100
AcDbEntity
  8
SUNPOU
100
AcDbText
 10
8483.290085810027
 20
3977.040928626652
 30
0.0
 40
60.0
  1
        
  7
A
100
AcDbText
  0
TEXT
  5
6F4
330
17
100
AcDbEntity
  8
SUNPOU
100
AcDbText
 10
8179.290085810027
 20
3964.945264685842
 30
0.0
 40
60.0
  1
      
  7
A
100
AcDbText
  0
TEXT
  5
6F5
330
17
100
AcDbEntity
  8
SUNPOU
100
AcDbText
 10
2451.856152230769
 20
3880.638544059962
 30
0.0
 40
60.0
  1
        
  7
A
100
AcDbText
  0
TEXT
  5
6F6
330
17
100
AcDbEntity
  8
SUNPOU
100
AcDbText
 10
2633.180408178521
 20
3880.638544059962
 30
0.0
 40
60.0
  1
        
  7
A
100
AcDbText
  0
TEXT
  5
6F7
330
17
100
AcDbEntity
  8
SUNPOU
100
AcDbText
 10
6061.770217380291
 20
3834.556802440616
 30
0.0
 40
60.0
  1
   
  7
A
100
AcDbText
  0
TEXT
  5
6F8
330
17
100
AcDbEntity
  8
SUNPOU
100
AcDbText
 10
5745.082194249918
 20
4001.545985117913
 30
0.0
 40
60.0
  1
     
  7
A
100
AcDbText
  0
TEXT
  5
6F9
330
17
100
AcDbEntity
  8
SUNPOU
100
AcDbText
 10
2734.670711343414
 20
3880.63854405996
 30
0.0
 40
60.0
  1
    
  7
A
100
AcDbText
  0
TEXT
  5
6FA
330
17
100
AcDbEntity
  8
SUNPOU
100
AcDbText
 10
2824.062725563335
 20
3880.63854405996
 30
0.0
 40
60.0
  1
    
  7
A
100
AcDbText
  0
TEXT
  5
6FB
330
17
100
AcDbEntity
  8
SUNPOU
100
AcDbText
 10
2114.468887493882
 20
4119.795362913077
 30
0.0
 40
60.0
  1
   
  7
A
100
AcDbText
  0
TEXT
  5
6FC
330
17
100
AcDbEntity
  8
SUNPOU
100
AcDbText
 10
2617.049640001411
 20
3880.63854405996
 30
0.0
 40
60.0
  1
    
  7
A
100
AcDbText
  0
LINE
  5
6FD
330
17
100
AcDbEntity
  8
SEIHIN
100
AcDbLine
 10
4197.96097767145
 20
3984.99632079107
 30
0.0
 11
1947.96097767145
 21
3984.99632079107
 31
0.0
  0
LINE
  5
6FE
330
17
100
AcDbEntity
  8
SEIHIN
100
AcDbLine
 10
1947.96097767145
 20
3984.99632079107
 30
0.0
 11
1947.96097767145
 21
4054.99632079107
 31
0.0
  0
LINE
  5
6FF
330
17
100
AcDbEntity
  8
SEIHIN
100
AcDbLine
 10
1947.96097767145
 20
4054.99632079107
 30
0.0
 11
1997.96097767145
 21
4054.99632079107
 31
0.0
  0
LINE
  5
700
330
17
100
AcDbEntity
  8
SEIHIN
100
AcDbLine
 10
1997.96097767145
 20
4054.99632079107
 30
0.0
 11
1997.96097767145
 21
4104.99632079107
 31
0.0
  0
LINE
  5
701
330
17
100
AcDbEntity
  8
SEIHIN
100
AcDbLine
 10
4197.96097767145
 20
4984.99632079107
 30
0.0
 11
3977.96097767145
 21
4984.99632079107
 31
0.0
  0
LINE
  5
702
330
17
100
AcDbEntity
  8
SEIHIN
100
AcDbLine
 10
3977.96097767145
 20
4984.99632079107
 30
0.0
 11
1947.96097767145
 21
4984.99632079107
 31
0.0
  0
LINE
  5
703
330
17
100
AcDbEntity
  8
SEIHIN
100
AcDbLine
 10
1947.96097767145
 20
4054.99632079107
 30
0.0
 11
1947.96097767145
 21
6984.99632079107
 31
0.0
  0
LINE
  5
704
330
17
100
AcDbEntity
  8
SUNPOU
100
AcDbLine
 10
1997.96097767145
 20
4104.99632079107
 30
0.0
 11
1997.96097767145
 21
4984.996320791069
 31
0.0
  0
LINE
  5
705
330
17
100
AcDbEntity
  8
SEIHIN
100
AcDbLine
 10
4197.96097767145
 20
6984.99632079107
 30
0.0
 11
4197.96097767145
 21
3984.99632079107
 31
0.0
  0
DIMENSION
  5
73B
330
17
100
AcDbEntity
  8
SUNPOU
100
AcDbDimension
  2
*D74
 10
4197.96097767145
 20
3180.421183860853
 30
0.0
 11
3072.96097767145
 21
3240.421183860853
 31
0.0
 70
   160
 71
     5
 42
-1.0
  3
STANDARD
100
AcDbAlignedDimension
 13
1947.96097767145
 23
3984.99632079107
 33
0.0
 14
4197.96097767145
 24
3984.99632079107
 34
0.0
100
AcDbRotatedDimension
1001
ACAD
1000
DSTYLE
1002
{
1070
   287
1070
     5
1070
   287
1070
     5
1070
   287
1070
     5
1070
   287
1070
     5
1070
    41
1040
40.0
1070
    42
1040
40.0
1070
    43
1040
140.0
1070
    44
1040
20.0
1070
    73
1070
     0
1070
    74
1070
     0
1070
   140
1040
60.0
1070
   145
1040
1.0
1070
   172
1070
     1
1070
   271
1070
     0
1070
   272
1070
     0
1070
   275
1070
     1
1070
   279
1070
     2
1070
   340
1005
9E
1002
}
  0
DIMENSION
  5
73C
330
17
100
AcDbEntity
  8
SUNPOU
100
AcDbDimension
  2
*D72
 10
3977.96097767145
 20
3378.184291065701
 30
0.0
 11
4087.96097767145
 21
3438.184291065701
 31
0.0
 70
   160
 71
     5
 42
-1.0
  3
STANDARD
100
AcDbAlignedDimension
 13
4197.96097767145
 23
3984.99632079107
 33
0.0
 14
3977.96097767145
 24
3984.99632079107
 34
0.0
100
AcDbRotatedDimension
1001
ACAD
1000
DSTYLE
1002
{
1070
   287
1070
     5
1070
   287
1070
     5
1070
   287
1070
     5
1070
   287
1070
     5
1070
    41
1040
40.0
1070
    42
1040
40.0
1070
    43
1040
140.0
1070
    44
1040
20.0
1070
    73
1070
     0
1070
    74
1070
     0
1070
   140
1040
60.0
1070
   145
1040
1.0
1070
   172
1070
     1
1070
   271
1070
     0
1070
   272
1070
     0
1070
   275
1070
     1
1070
   279
1070
     2
1070
   340
1005
9E
1002
}
  0
DIMENSION
  5
73D
330
17
100
AcDbEntity
  8
SUNPOU
100
AcDbDimension
  2
*D73
 10
3977.96097767145
 20
3378.184291065701
 30
0.0
 11
2962.96097767145
 21
3438.184291065701
 31
0.0
 70
   160
 71
     5
 42
-1.0
  3
STANDARD
100
AcDbAlignedDimension
 13
1947.96097767145
 23
3427.625067866913
 33
0.0
 14
3977.96097767145
 24
3477.065844668125
 34
0.0
100
AcDbRotatedDimension
1001
ACAD
1000
DSTYLE
1002
{
1070
   287
1070
     5
1070
   287
1070
     5
1070
   287
1070
     5
1070
   287
1070
     5
1070
    41
1040
40.0
1070
    42
1040
40.0
1070
    43
1040
140.0
1070
    44
1040
20.0
1070
    73
1070
     0
1070
    74
1070
     0
1070
   140
1040
60.0
1070
   145
1040
1.0
1070
   172
1070
     1
1070
   271
1070
     0
1070
   272
1070
     0
1070
   275
1070
     1
1070
   279
1070
     2
1070
   340
1005
9E
1002
}
  0
DIMENSION
  5
740
330
17
100
AcDbEntity
  8
SUNPOU
100
AcDbDimension
  2
*D52
 10
5048.032434938416
 20
3984.99632079107
 30
0.0
 11
4988.032434938415
 21
4484.996320791071
 31
0.0
 70
    32
 71
     5
 42
-1.0
  3
STANDARD
100
AcDbAlignedDimension
 13
4197.96097767145
 23
4984.99632079107
 33
0.0
 14
4197.96097767145
 24
3984.99632079107
 34
0.0
 50
90.0
100
AcDbRotatedDimension
1001
ACAD
1000
DSTYLE
1002
{
1070
   287
1070
     5
1070
   287
1070
     5
1070
   287
1070
     5
1070
   287
1070
     5
1070
    41
1040
40.0
1070
    42
1040
40.0
1070
    43
1040
140.0
1070
    44
1040
20.0
1070
    73
1070
     0
1070
    74
1070
     0
1070
   140
1040
60.0
1070
   145
1040
1.0
1070
   172
1070
     1
1070
   271
1070
     0
1070
   272
1070
     0
1070
   275
1070
     1
1070
   279
1070
     2
1070
   340
1005
9E
1002
}
  0
DIMENSION
  5
741
330
17
100
AcDbEntity
  8
SUNPOU
100
AcDbDimension
  2
*D54
 10
4830.88079932299
 20
4204.99632079107
 30
0.0
 11
4770.880799322989
 21
4094.99632079107
 31
0.0
 70
    32
 71
     5
 42
-1.0
  3
STANDARD
100
AcDbAlignedDimension
 13
4197.96097767145
 23
3984.99632079107
 33
0.0
 14
4197.96097767145
 24
4204.99632079107
 34
0.0
 50
90.0
100
AcDbRotatedDimension
1001
ACAD
1000
DSTYLE
1002
{
1070
   287
1070
     5
1070
   287
1070
     5
1070
   287
1070
     5
1070
   287
1070
     5
1070
    41
1040
40.0
1070
    42
1040
40.0
1070
    43
1040
140.0
1070
    44
1040
20.0
1070
    73
1070
     0
1070
    74
1070
     0
1070
   140
1040
60.0
1070
   145
1040
1.0
1070
   172
1070
     1
1070
   271
1070
     0
1070
   272
1070
     0
1070
   275
1070
     1
1070
   279
1070
     2
1070
   340
1005
9E
1002
}
  0
DIMENSION
  5
742
330
17
100
AcDbEntity
  8
SUNPOU
100
AcDbDimension
  2
*D51
 10
4830.88079932299
 20
4984.99632079107
 30
0.0
 11
4770.880799322989
 21
4594.996320791071
 31
0.0
 70
    32
 71
     5
 42
-1.0
  3
STANDARD
100
AcDbAlignedDimension
 13
4672.952337057226
 23
4204.99632079107
 33
0.0
 14
4766.722361527523
 24
4984.99632079107
 34
0.0
 50
90.0
100
AcDbRotatedDimension
1001
ACAD
1000
DSTYLE
1002
{
1070
   287
1070
     5
1070
   287
1070
     5
1070
   287
1070
     5
1070
   287
1070
     5
1070
    41
1040
40.0
1070
    42
1040
40.0
1070
    43
1040
140.0
1070
    44
1040
20.0
1070
    73
1070
     0
1070
    74
1070
     0
1070
   140
1040
60.0
1070
   145
1040
1.0
1070
   172
1070
     1
1070
   271
1070
     0
1070
   272
1070
     0
1070
   275
1070
     1
1070
   279
1070
     2
1070
   340
1005
9E
1002
}
  0
DIMENSION
  5
745
330
17
100
AcDbEntity
  8
SUNPOU
100
AcDbDimension
  2
*D82
 10
1391.001480596815
 20
4104.99632079107
 30
0.0
 11
1331.001480596815
 21
4057.624669825374
 31
0.0
 70
   160
 71
     5
 42
-1.0
  3
STANDARD
100
AcDbAlignedDimension
 13
1947.96097767145
 23
3984.99632079107
 33
0.0
 14
1947.96097767145
 24
4104.99632079107
 34
0.0
 50
90.0
100
AcDbRotatedDimension
1001
ACAD
1000
DSTYLE
1002
{
1070
   287
1070
     5
1070
   287
1070
     5
1070
   287
1070
     5
1070
   287
1070
     5
1070
    41
1040
40.0
1070
    42
1040
40.0
1070
    43
1040
140.0
1070
    44
1040
20.0
1070
    73
1070
     0
1070
    74
1070
     0
1070
   140
1040
60.0
1070
   145
1040
1.0
1070
   172
1070
     1
1070
   271
1070
     0
1070
   272
1070
     0
1070
   275
1070
     1
1070
   279
1070
     2
1070
   340
1005
9E
1002
}
  0
DIMENSION
  5
746
330
17
100
AcDbEntity
  8
SUNPOU
100
AcDbDimension
  2
*D78
 10
1608.153116212241
 20
4054.99632079107
 30
0.0
 11
1548.153116212241
 21
3908.519426943434
 31
0.0
 70
   160
 71
     5
 42
-1.0
  3
STANDARD
100
AcDbAlignedDimension
 13
1947.96097767145
 23
3984.99632079107
 33
0.0
 14
1947.96097767145
 24
4054.99632079107
 34
0.0
 50
90.0
100
AcDbRotatedDimension
1001
ACAD
1000
DSTYLE
1002
{
1070
   287
1070
     5
1070
   287
1070
     5
1070
   287
1070
     5
1070
   287
1070
     5
1070
    41
1040
40.0
1070
    42
1040
40.0
1070
    43
1040
140.0
1070
    44
1040
20.0
1070
    73
1070
     0
1070
    74
1070
     0
1070
   140
1040
60.0
1070
   145
1040
1.0
1070
   172
1070
     1
1070
   271
1070
     0
1070
   272
1070
     0
1070
   275
1070
     1
1070
   279
1070
     2
1070
   340
1005
9E
1002
}
  0
DIMENSION
  5
747
330
17
100
AcDbEntity
  8
SUNPOU
100
AcDbDimension
  2
*D81
 10
1608.153116212241
 20
4104.99632079107
 30
0.0
 11
1558.01811621224
 21
4079.99632079107
 31
0.0
 70
    32
 71
     5
 42
-1.0
  3
STANDARD
100
AcDbAlignedDimension
 13
1637.764702887071
 23
4054.99632079107
 33
0.0
 14
1672.311554007707
 24
4104.99632079107
 34
0.0
 50
90.0
100
AcDbRotatedDimension
1001
ACAD
1000
DSTYLE
1002
{
1070
   287
1070
     5
1070
   287
1070
     5
1070
   287
1070
     5
1070
   287
1070
     5
1070
    41
1040
40.0
1070
    42
1040
40.0
1070
    43
1040
140.0
1070
    44
1040
20.0
1070
    73
1070
     0
1070
    74
1070
     0
1070
   140
1040
60.0
1070
   145
1040
1.0
1070
   172
1070
     1
1070
   271
1070
     0
1070
   272
1070
     0
1070
   275
1070
     1
1070
   279
1070
     2
1070
   340
1005
9E
1002
}
  0
TEXT
  5
749
330
17
100
AcDbEntity
  8
SUNPOU
100
AcDbText
 10
2894.832954375092
 20
3396.108236114574
 30
0.0
 40
60.0
  1
    
  7
A
100
AcDbText
  0
LINE
  5
785
330
17
100
AcDbEntity
  8
SEIHIN
100
AcDbLine
 10
3977.96097767145
 20
6984.99632079107
 30
0.0
 11
1947.96097767145
 21
6984.99632079107
 31
0.0
  0
LINE
  5
786
330
17
100
AcDbEntity
  8
SEIHIN
100
AcDbLine
 10
4197.96097767145
 20
6984.99632079107
 30
0.0
 11
3977.96097767145
 21
6984.99632079107
 31
0.0
  0
LINE
  5
787
330
17
100
AcDbEntity
  8
SEIHIN
100
AcDbLine
 10
2467.96097767145
 20
4984.99632079107
 30
0.0
 11
2467.96097767145
 21
5159.99632079107
 31
0.0
  0
LINE
  5
788
330
17
100
AcDbEntity
  8
SEIHIN
100
AcDbLine
 10
2527.96097767145
 20
4984.99632079107
 30
0.0
 11
2527.96097767145
 21
5159.99632079107
 31
0.0
  0
LINE
  5
789
330
17
100
AcDbEntity
  8
SEIHIN
100
AcDbLine
 10
2527.96097767145
 20
5159.99632079107
 30
0.0
 11
2467.96097767145
 21
5159.99632079107
 31
0.0
  0
LINE
  5
78A
330
17
100
AcDbEntity
  8
SEIHIN
100
AcDbLine
 10
3527.96097767145
 20
4984.996320791071
 30
0.0
 11
3527.96097767145
 21
5159.996320791071
 31
0.0
  0
LINE
  5
78B
330
17
100
AcDbEntity
  8
SEIHIN
100
AcDbLine
 10
3527.96097767145
 20
5159.996320791071
 30
0.0
 11
3467.96097767145
 21
5159.996320791071
 31
0.0
  0
LINE
  5
78C
330
17
100
AcDbEntity
  8
SEIHIN
100
AcDbLine
 10
3467.96097767145
 20
4984.996320791071
 30
0.0
 11
3467.96097767145
 21
5159.996320791071
 31
0.0
  0
LINE
  5
78D
330
17
100
AcDbEntity
  8
1HASEN
100
AcDbLine
 10
3597.96097767145
 20
6724.721244949909
 30
0.0
 11
3597.96097767145
 21
5219.2802511944
 31
0.0
  0
LINE
  5
78E
330
17
100
AcDbEntity
  8
1HASEN
100
AcDbLine
 10
3977.96097767145
 20
6484.99632079107
 30
0.0
 11
3311.179575593389
 21
6484.996320791069
 31
0.0
  0
LINE
  5
78F
330
17
100
AcDbEntity
  8
1HASEN
100
AcDbLine
 10
3977.96097767145
 20
5484.99632079107
 30
0.0
 11
3311.179575593389
 21
5484.99632079107
 31
0.0
  0
LWPOLYLINE
  5
7D9
330
17
100
AcDbEntity
  8
SEIHIN
100
AcDbPolyline
 90
        4
 70
     0
 43
0.0
 10
2467.96097767145
 20
4984.99632079107
 10
2467.96097767145
 20
4809.99632079107
 10
2527.96097767145
 20
4809.99632079107
 10
2527.96097767145
 20
4984.99632079107
  0
LWPOLYLINE
  5
7DF
330
17
100
AcDbEntity
  8
SUNPOU
100
AcDbPolyline
 90
        4
 70
     0
 43
0.0
 10
2457.96097767145
 20
4984.99632079107
 10
2457.96097767145
 20
4799.99632079107
 10
2537.96097767145
 20
4799.99632079107
 10
2537.96097767145
 20
4984.99632079107
  0
LWPOLYLINE
  5
7E5
330
17
100
AcDbEntity
  8
SUNPOU
100
AcDbPolyline
 90
        4
 70
     0
 43
0.0
 10
2442.96097767145
 20
4984.99632079107
 10
2442.96097767145
 20
4784.99632079107
 10
2552.96097767145
 20
4784.99632079107
 10
2552.96097767145
 20
4984.99632079107
  0
LWPOLYLINE
  5
7EB
330
17
100
AcDbEntity
  8
SEIHIN
100
AcDbPolyline
 90
        4
 70
     0
 43
0.0
 10
3527.96097767145
 20
4984.996320791069
 10
3527.960977671449
 20
4809.996320791069
 10
3467.96097767145
 20
4809.996320791069
 10
3467.960977671449
 20
4984.996320791069
  0
LWPOLYLINE
  5
7F1
330
17
100
AcDbEntity
  8
SUNPOU
100
AcDbPolyline
 90
        4
 70
     0
 43
0.0
 10
3537.96097767145
 20
4984.996320791069
 10
3537.96097767145
 20
4799.996320791069
 10
3457.96097767145
 20
4799.996320791069
 10
3457.960977671449
 20
4984.996320791069
  0
LWPOLYLINE
  5
7F7
330
17
100
AcDbEntity
  8
SUNPOU
100
AcDbPolyline
 90
        4
 70
     0
 43
0.0
 10
3552.96097767145
 20
4984.996320791069
 10
3552.960977671449
 20
4784.996320791069
 10
3442.96097767145
 20
4784.996320791069
 10
3442.960977671449
 20
4984.996320791069
  0
LINE
  5
7FD
330
17
100
AcDbEntity
  8
SUNPOU
100
AcDbLine
 10
2442.96097767145
 20
4784.996320791069
 30
0.0
 11
2457.96097767145
 21
4799.99632079107
 31
0.0
  0
LINE
  5
7FE
330
17
100
AcDbEntity
  8
SUNPOU
100
AcDbLine
 10
2537.96097767145
 20
4799.99632079107
 30
0.0
 11
2552.96097767145
 21
4784.996320791069
 31
0.0
  0
LINE
  5
7FF
330
17
100
AcDbEntity
  8
SUNPOU
100
AcDbLine
 10
3442.96097767145
 20
4784.996320791069
 30
0.0
 11
3457.96097767145
 21
4799.996320791069
 31
0.0
  0
LINE
  5
800
330
17
100
AcDbEntity
  8
SUNPOU
100
AcDbLine
 10
3537.96097767145
 20
4799.996320791069
 30
0.0
 11
3552.96097767145
 21
4784.996320791069
 31
0.0
  0
TEXT
  5
840
330
17
100
AcDbEntity
  8
SUNPOU
100
AcDbText
 10
2820.075858805928
 20
4155.631763183543
 30
0.0
 40
60.0
  1
    
  7
A
100
AcDbText
  0
TEXT
  5
843
330
17
100
AcDbEntity
  8
SUNPOU
100
AcDbText
 10
3221.06147140403
 20
4046.76911207157
 30
0.0
 40
60.0
  1
    
  7
A
100
AcDbText
  0
TEXT
  5
849
330
17
100
AcDbEntity
  8
SUNPOU
100
AcDbText
 10
2235.399243958018
 20
4133.985127297313
 30
0.0
 40
60.0
  1
    
  7
A
100
AcDbText
  0
TEXT
  5
84C
330
17
100
AcDbEntity
  8
SUNPOU
100
AcDbText
 10
2745.527423258528
 20
4082.252141712426
 30
0.0
 40
60.0
  1
   
  7
A
100
AcDbText
  0
TEXT
  5
850
330
17
100
AcDbEntity
  8
SUNPOU
100
AcDbText
 10
2235.399243958018
 20
4069.921404744181
 30
0.0
 40
60.0
  1
    
  7
A
100
AcDbText
  0
TEXT
  5
859
330
17
100
AcDbEntity
  8
SUNPOU
100
AcDbText
 10
3486.777349761856
 20
3899.113594070004
 30
0.0
 40
60.0
  1
   
  7
A
100
AcDbText
  0
LINE
  5
8DA
330
17
100
AcDbEntity
  8
SUNPOU
100
AcDbLine
 10
4017.96097767145
 20
6984.99632079107
 30
0.0
 11
4017.96097767145
 21
4984.99632079107
 31
0.0
  0
LINE
  5
8DB
330
17
100
AcDbEntity
  8
SUNPOU
100
AcDbLine
 10
3817.96097767145
 20
6984.99632079107
 30
0.0
 11
3817.96097767145
 21
4984.99632079107
 31
0.0
  0
LINE
  5
8DC
330
17
100
AcDbEntity
  8
SUNPOU
100
AcDbLine
 10
4197.96097767145
 20
6934.99632079107
 30
0.0
 11
4116.96097767145
 21
6934.99632079107
 31
0.0
  0
LINE
  5
8DD
330
17
100
AcDbEntity
  8
SUNPOU
100
AcDbLine
 10
4197.96097767145
 20
5034.99632079107
 30
0.0
 11
4116.96097767145
 21
5034.99632079107
 31
0.0
  0
LINE
  5
8DE
330
17
100
AcDbEntity
  8
SUNPOU
100
AcDbLine
 10
4116.96097767145
 20
6934.99632079107
 30
0.0
 11
4116.96097767145
 21
5034.996320791071
 31
0.0
  0
LINE
  5
8DF
330
17
100
AcDbEntity
  8
SUNPOU
100
AcDbLine
 10
4116.96097767145
 20
6934.99632079107
 30
0.0
 11
4017.96097767145
 21
6984.99632079107
 31
0.0
  0
LINE
  5
8E0
330
17
100
AcDbEntity
  8
SUNPOU
100
AcDbLine
 10
4116.96097767145
 20
5034.996320791071
 30
0.0
 11
4017.96097767145
 21
4984.99632079107
 31
0.0
  0
CIRCLE
  5
8E1
330
17
100
AcDbEntity
  8
SUNPOU
100
AcDbCircle
 10
4064.022320771568
 20
5984.821552912977
 30
0.0
 40
25.0
  0
SOLID
  5
8E2
330
17
100
AcDbEntity
  8
SUNPOU
100
AcDbTrace
 10
3539.995925135061
 20
5508.010140694679
 30
0.0
 11
3532.480848852265
 21
5496.996448932081
 31
0.0
 12
3569.279462281458
 22
5479.958065964991
 32
0.0
 13
3569.279462281458
 23
5479.958065964991
 33
0.0
  0
LINE
  5
8E3
330
17
100
AcDbEntity
  8
SUNPOU
100
AcDbLine
 10
3536.238386993664
 20
5502.50329481338
 30
0.0
 11
3250.239675030827
 21
5697.651496116874
 31
0.0
  0
LINE
  5
8E4
330
17
100
AcDbEntity
  8
SUNPOU
100
AcDbLine
 10
3250.239675030827
 20
5697.651496116875
 30
0.0
 11
3250.239675030827
 21
6025.406061653569
 31
0.0
  0
TEXT
  5
8E5
330
17
100
AcDbEntity
  8
SUNPOU
100
AcDbText
 10
2948.239675030827
 20
5060.89769486348
 30
0.0
 40
60.0
  1
   
  7
A
100
AcDbText
  0
TEXT
  5
8E6
330
17
100
AcDbEntity
  8
SUNPOU
100
AcDbText
 10
3222.497084835119
 20
5744.041660416488
 30
0.0
 40
60.0
  1
水抜き穴
 50
90.0
  7
A
100
AcDbText
  0
TEXT
  5
8E7
330
17
100
AcDbEntity
  8
SUNPOU
100
AcDbText
 10
2936.794013595641
 20
3974.143023889141
 30
0.0
 40
60.0
  1
   
  7
A
100
AcDbText
  0
TEXT
  5
8EE
330
17
100
AcDbEntity
  8
SUNPOU
100
AcDbText
 10
7282.681355339049
 20
3663.752965077905
 30
0.0
 40
60.0
  1
   
  7
A
100
AcDbText
  0
DIMENSION
  5
8EF
330
17
100
AcDbEntity
  8
SUNPOU
100
AcDbDimension
  2
*D16
 10
7393.69597814597
 20
3182.7651711945
 30
0.0
 11
6893.69597814597
 21
3242.7651711945
 31
0.0
 70
   160
 71
     5
 42
-1.0
  3
STANDARD
100
AcDbAlignedDimension
 13
6393.69597814597
 23
4009.99632079107
 33
0.0
 14
7393.69597814597
 24
3984.99632079107
 34
0.0
100
AcDbRotatedDimension
1001
ACAD
1000
DSTYLE
1002
{
1070
   287
1070
     5
1070
   287
1070
     5
1070
   287
1070
     5
1070
   287
1070
     5
1070
    41
1040
40.0
1070
    42
1040
40.0
1070
    43
1040
140.0
1070
    44
1040
20.0
1070
    73
1070
     0
1070
    74
1070
     0
1070
   140
1040
60.0
1070
   145
1040
1.0
1070
   172
1070
     1
1070
   271
1070
     0
1070
   272
1070
     0
1070
   275
1070
     1
1070
   279
1070
     2
1070
   340
1005
9E
1002
}
  0
DIMENSION
  5
8F0
330
17
100
AcDbEntity
  8
SUNPOU
100
AcDbDimension
  2
*D14
 10
9393.69597814597
 20
3182.7651711945
 30
0.0
 11
8393.69597814597
 21
3242.7651711945
 31
0.0
 70
   160
 71
     5
 42
-1.0
  3
STANDARD
100
AcDbAlignedDimension
 13
7393.69597814597
 23
3984.99632079107
 33
0.0
 14
9393.69597814597
 24
3984.99632079107
 34
0.0
100
AcDbRotatedDimension
1001
ACAD
1000
DSTYLE
1002
{
1070
   287
1070
     5
1070
   287
1070
     5
1070
   287
1070
     5
1070
   287
1070
     5
1070
    41
1040
40.0
1070
    42
1040
40.0
1070
    43
1040
140.0
1070
    44
1040
20.0
1070
    73
1070
     0
1070
    74
1070
     0
1070
   140
1040
60.0
1070
   145
1040
1.0
1070
   172
1070
     1
1070
   271
1070
     0
1070
   272
1070
     0
1070
   275
1070
     1
1070
   279
1070
     2
1070
   340
1005
9E
1002
}
  0
DIMENSION
  5
8F8
330
17
100
AcDbEntity
  8
SUNPOU
100
AcDbDimension
  2
*D23
 10
5405.96657838787
 20
4984.996320791067
 30
0.0
 11
5345.966578387869
 21
4484.996320791067
 31
0.0
 70
    32
 71
     5
 42
-1.0
  3
STANDARD
100
AcDbAlignedDimension
 13
6418.69597814597
 23
3984.996320791065
 33
0.0
 14
6393.695978145974
 24
4984.996320791066
 34
0.0
 50
90.0
100
AcDbRotatedDimension
1001
ACAD
1000
DSTYLE
1002
{
1070
   287
1070
     5
1070
   287
1070
     5
1070
   287
1070
     5
1070
   287
1070
     5
1070
    41
1040
40.0
1070
    42
1040
40.0
1070
    43
1040
140.0
1070
    44
1040
20.0
1070
    73
1070
     0
1070
    74
1070
     0
1070
   140
1040
60.0
1070
   145
1040
1.0
1070
   172
1070
     1
1070
   271
1070
     0
1070
   272
1070
     0
1070
   275
1070
     1
1070
   279
1070
     2
1070
   340
1005
9E
1002
}
  0
DIMENSION
  5
8F9
330
17
100
AcDbEntity
  8
SUNPOU
100
AcDbDimension
  2
*D22
 10
5405.96657838787
 20
6984.996320791067
 30
0.0
 11
5345.966578387868
 21
5984.996320791068
 31
0.0
 70
    32
 71
     5
 42
-1.0
  3
STANDARD
100
AcDbAlignedDimension
 13
6393.695978145974
 23
4984.996320791066
 33
0.0
 14
6393.695978145974
 24
6984.996320791066
 34
0.0
 50
90.0
100
AcDbRotatedDimension
1001
ACAD
1000
DSTYLE
1002
{
1070
   287
1070
     5
1070
   287
1070
     5
1070
   287
1070
     5
1070
   287
1070
     5
1070
    41
1040
40.0
1070
    42
1040
40.0
1070
    43
1040
140.0
1070
    44
1040
20.0
1070
    73
1070
     0
1070
    74
1070
     0
1070
   140
1040
60.0
1070
   145
1040
1.0
1070
   172
1070
     1
1070
   271
1070
     0
1070
   272
1070
     0
1070
   275
1070
     1
1070
   279
1070
     2
1070
   340
1005
9E
1002
}
  0
TEXT
  5
91A
330
17
100
AcDbEntity
  8
SUNPOU
100
AcDbText
 10
8825.500345753597
 20
3618.119712766431
 30
0.0
 40
60.0
  1
    
  7
A
100
AcDbText
  0
TEXT
  5
91D
330
17
100
AcDbEntity
  8
SUNPOU
100
AcDbText
 10
8825.500345753597
 20
3618.119712766431
 30
0.0
 40
60.0
  1
    
  7
A
100
AcDbText
  0
DIMENSION
  5
91E
330
17
100
AcDbEntity
  8
SUNPOU
100
AcDbDimension
  2
*D117
 10
5048.032434938416
 20
4984.99632079107
 30
0.0
 11
4988.032434938415
 21
5984.996320791071
 31
0.0
 70
    32
 71
     5
 42
-1.0
  3
STANDARD
100
AcDbAlignedDimension
 13
4197.96097767145
 23
6984.99632079107
 33
0.0
 14
4197.96097767145
 24
4984.99632079107
 34
0.0
 50
90.0
100
AcDbRotatedDimension
1001
ACAD
1000
DSTYLE
1002
{
1070
   287
1070
     5
1070
   287
1070
     5
1070
   287
1070
     5
1070
   287
1070
     5
1070
    41
1040
40.0
1070
    42
1040
40.0
1070
    43
1040
140.0
1070
    44
1040
20.0
1070
    73
1070
     0
1070
    74
1070
     0
1070
   140
1040
60.0
1070
   145
1040
1.0
1070
   172
1070
     1
1070
   271
1070
     0
1070
   272
1070
     0
1070
   275
1070
     1
1070
   279
1070
     2
1070
   340
1005
9E
1002
}
  0
DIMENSION
  5
925
330
17
100
AcDbEntity
  8
SUNPOU
100
AcDbDimension
  2
*D116
 10
4830.88079932299
 20
6484.99632079107
 30
0.0
 11
4770.880799322988
 21
6734.996320791071
 31
0.0
 70
    32
 71
     5
 42
-1.0
  3
STANDARD
100
AcDbAlignedDimension
 13
4197.96097767145
 23
6984.99632079107
 33
0.0
 14
4197.96097767145
 24
6484.99632079107
 34
0.0
 50
90.0
100
AcDbRotatedDimension
1001
ACAD
1000
DSTYLE
1002
{
1070
   287
1070
     5
1070
   287
1070
     5
1070
   287
1070
     5
1070
   287
1070
     5
1070
    41
1040
40.0
1070
    42
1040
40.0
1070
    43
1040
140.0
1070
    44
1040
20.0
1070
    73
1070
     0
1070
    74
1070
     0
1070
   140
1040
60.0
1070
   145
1040
1.0
1070
   172
1070
     1
1070
   271
1070
     0
1070
   272
1070
     0
1070
   275
1070
     1
1070
   279
1070
     2
1070
   340
1005
9E
1002
}
  0
DIMENSION
  5
926
330
17
100
AcDbEntity
  8
SUNPOU
100
AcDbDimension
  2
*D115
 10
4830.88079932299
 20
5484.99632079107
 30
0.0
 11
4770.880799322989
 21
5984.996320791071
 31
0.0
 70
    32
 71
     5
 42
-1.0
  3
STANDARD
100
AcDbAlignedDimension
 13
4197.96097767145
 23
6484.99632079107
 33
0.0
 14
4197.96097767145
 24
5484.99632079107
 34
0.0
 50
90.0
100
AcDbRotatedDimension
1001
ACAD
1000
DSTYLE
1002
{
1070
   287
1070
     5
1070
   287
1070
     5
1070
   287
1070
     5
1070
   287
1070
     5
1070
    41
1040
40.0
1070
    42
1040
40.0
1070
    43
1040
140.0
1070
    44
1040
20.0
1070
    73
1070
     0
1070
    74
1070
     0
1070
   140
1040
60.0
1070
   145
1040
1.0
1070
   172
1070
     1
1070
   271
1070
     0
1070
   272
1070
     0
1070
   275
1070
     1
1070
   279
1070
     2
1070
   340
1005
9E
1002
}
  0
DIMENSION
  5
927
330
17
100
AcDbEntity
  8
SUNPOU
100
AcDbDimension
  2
*D114
 10
4830.88079932299
 20
4984.99632079107
 30
0.0
 11
4770.880799322989
 21
5234.996320791071
 31
0.0
 70
    32
 71
     5
 42
-1.0
  3
STANDARD
100
AcDbAlignedDimension
 13
4197.96097767145
 23
5484.99632079107
 33
0.0
 14
4760.160426263413
 24
4984.99632079107
 34
0.0
 50
90.0
100
AcDbRotatedDimension
1001
ACAD
1000
DSTYLE
1002
{
1070
   287
1070
     5
1070
   287
1070
     5
1070
   287
1070
     5
1070
   287
1070
     5
1070
    41
1040
40.0
1070
    42
1040
40.0
1070
    43
1040
140.0
1070
    44
1040
20.0
1070
    73
1070
     0
1070
    74
1070
     0
1070
   140
1040
60.0
1070
   145
1040
1.0
1070
   172
1070
     1
1070
   271
1070
     0
1070
   272
1070
     0
1070
   275
1070
     1
1070
   279
1070
     2
1070
   340
1005
9E
1002
}
  0
CIRCLE
  5
92A
330
17
100
AcDbEntity
  8
SUNPOU
100
AcDbCircle
 10
3497.96097767145
 20
5119.996320791069
 30
0.0
 40
15.0
  0
CIRCLE
  5
92B
330
17
100
AcDbEntity
  8
SUNPOU
100
AcDbCircle
 10
3497.96097767145
 20
5059.996320791069
 30
0.0
 40
15.0
  0
CIRCLE
  5
92C
330
17
100
AcDbEntity
  8
SUNPOU
100
AcDbCircle
 10
3497.96097767145
 20
4909.996320791069
 30
0.0
 40
15.0
  0
CIRCLE
  5
92D
330
17
100
AcDbEntity
  8
SUNPOU
100
AcDbCircle
 10
3497.96097767145
 20
4849.99632079107
 30
0.0
 40
15.0
  0
CIRCLE
  5
92E
330
17
100
AcDbEntity
  8
SUNPOU
100
AcDbCircle
 10
2497.96097767145
 20
5119.99632079107
 30
0.0
 40
15.0
  0
CIRCLE
  5
92F
330
17
100
AcDbEntity
  8
SUNPOU
100
AcDbCircle
 10
2497.96097767145
 20
5059.996320791069
 30
0.0
 40
15.0
  0
CIRCLE
  5
930
330
17
100
AcDbEntity
  8
SUNPOU
100
AcDbCircle
 10
2497.96097767145
 20
4909.996320791069
 30
0.0
 40
15.0
  0
CIRCLE
  5
931
330
17
100
AcDbEntity
  8
SUNPOU
100
AcDbCircle
 10
2497.96097767145
 20
4849.996320791071
 30
0.0
 40
15.0
  0
LINE
  5
932
330
17
100
AcDbEntity
  8
SEIHIN
100
AcDbLine
 10
4197.96097767145
 20
906.0872754162879
 30
0.0
 11
1947.96097767145
 21
906.0872754162883
 31
0.0
  0
LINE
  5
933
330
17
100
AcDbEntity
  8
SEIHIN
100
AcDbLine
 10
4197.96097767145
 20
1906.087275416288
 30
0.0
 11
4197.96097767145
 21
906.0872754162879
 31
0.0
  0
LINE
  5
934
330
17
100
AcDbEntity
  8
SEIHIN
100
AcDbLine
 10
4077.216452124005
 20
1906.087275416288
 30
0.0
 11
3977.96097767145
 21
1906.087275416288
 31
0.0
  0
LINE
  5
935
330
17
100
AcDbEntity
  8
SEIHIN
100
AcDbLine
 10
3977.96097767145
 20
1906.087275416288
 30
0.0
 11
3977.96097767145
 21
1426.087275416288
 31
0.0
  0
LINE
  5
936
330
17
100
AcDbEntity
  8
SEIHIN
100
AcDbLine
 10
1947.96097767145
 20
906.0872754162883
 30
0.0
 11
1947.96097767145
 21
976.0872754162883
 31
0.0
  0
LINE
  5
937
330
17
100
AcDbEntity
  8
SEIHIN
100
AcDbLine
 10
1997.96097767145
 20
976.0872754162883
 30
0.0
 11
1997.96097767145
 21
1026.087275416288
 31
0.0
  0
LINE
  5
938
330
17
100
AcDbEntity
  8
SEIHIN
100
AcDbLine
 10
1947.96097767145
 20
976.0872754162883
 30
0.0
 11
1997.96097767145
 21
976.0872754162883
 31
0.0
  0
LINE
  5
93A
330
17
100
AcDbEntity
  8
SEIHIN
100
AcDbLine
 10
4197.96097767145
 20
1906.087275416288
 30
0.0
 11
4197.96097767145
 21
2506.087275416288
 31
0.0
  0
LINE
  5
93C
330
17
100
AcDbEntity
  8
SEIHIN
100
AcDbLine
 10
1997.96097767145
 20
976.0872754162883
 30
0.0
 11
2107.96097767145
 21
976.0872754162883
 31
0.0
  0
LINE
  5
93D
330
17
100
AcDbEntity
  8
SEIHIN
100
AcDbLine
 10
4052.697819776713
 20
1566.087275416288
 30
0.0
 11
3977.96097767145
 21
1551.087275416288
 31
0.0
  0
LINE
  5
93E
330
17
100
AcDbEntity
  8
SEIHIN
100
AcDbLine
 10
4058.487293460923
 20
1646.087275416288
 30
0.0
 11
3977.96097767145
 21
1661.087275416288
 31
0.0
  0
LINE
  5
944
330
17
100
AcDbEntity
  8
SEIHIN
100
AcDbLine
 10
2553.888410558652
 20
1035.956100282567
 30
0.0
 11
2537.894806332728
 21
1000.847862407252
 31
0.0
  0
LINE
  5
945
330
17
100
AcDbEntity
  8
SEIHIN
100
AcDbLine
 10
2442.780859445637
 20
1028.923976794401
 30
0.0
 11
2458.027149010171
 21
996.2481543939109
 31
0.0
  0
LINE
  5
946
330
17
100
AcDbEntity
  8
1HASEN
100
AcDbLine
 10
3494.774944837609
 20
1122.408511739487
 30
0.0
 11
3503.255568923687
 21
975.1540389721504
 31
0.0
  0
LINE
  5
947
330
17
100
AcDbEntity
  8
HASEN
100
AcDbLine
 10
3486.634014128582
 20
1065.08061217857
 30
0.0
 11
3492.368067372052
 21
965.5165967692512
 31
0.0
  0
LINE
  5
948
330
17
100
AcDbEntity
  8
HASEN
100
AcDbLine
 10
3506.60092845922
 20
1066.230539181906
 30
0.0
 11
3512.334981702688
 21
966.6665237725863
 31
0.0
  0
LINE
  5
949
330
17
100
AcDbEntity
  8
SUNPOU
100
AcDbLine
 10
3474.868485551238
 20
1080.65763853887
 30
0.0
 11
3475.73093080374
 21
1065.682452790892
 31
0.0
  0
LINE
  5
94A
330
17
100
AcDbEntity
  8
SUNPOU
100
AcDbLine
 10
3514.802314212513
 20
1082.95749254554
 30
0.0
 11
3515.664759465015
 21
1067.982306797563
 31
0.0
  0
LINE
  5
94B
330
17
100
AcDbEntity
  8
SUNPOU
100
AcDbLine
 10
3474.868485551238
 20
1080.65763853887
 30
0.0
 11
3514.802314212513
 21
1082.95749254554
 31
0.0
  0
LINE
  5
94C
330
17
100
AcDbEntity
  8
HASEN
100
AcDbLine
 10
3492.368067372052
 20
965.5165967692512
 30
0.0
 11
3512.334981702688
 21
966.6665237725863
 31
0.0
  0
LINE
  5
94D
330
17
100
AcDbEntity
  8
SUNPOU
100
AcDbLine
 10
3466.134050873237
 20
1063.899986022504
 30
0.0
 11
3526.034793865148
 21
1067.349767032509
 31
0.0
  0
LINE
  5
94E
330
17
100
AcDbEntity
  8
HASEN
100
AcDbLine
 10
2492.289746768638
 20
923.0971161590246
 30
0.0
 11
2512.256661099274
 21
924.2470431623599
 31
0.0
  0
LINE
  5
94F
330
17
100
AcDbEntity
  8
1HASEN
100
AcDbLine
 10
2495.737627462764
 20
1040.405345562437
 30
0.0
 11
2502.460485708416
 21
923.6720796606924
 31
0.0
  0
LINE
  5
950
330
17
100
AcDbEntity
  8
HASEN
100
AcDbLine
 10
2487.762327829423
 20
1004.961464914637
 30
0.0
 11
2492.477028543097
 21
923.0971161590246
 31
0.0
  0
LINE
  5
951
330
17
100
AcDbEntity
  8
SUNPOU
100
AcDbLine
 10
2476.916425411602
 20
1019.361687160947
 30
0.0
 11
2477.778870664104
 21
1004.386501412969
 31
0.0
  0
LINE
  5
952
330
17
100
AcDbEntity
  8
HASEN
100
AcDbLine
 10
2507.729242160059
 20
1006.111391917972
 30
0.0
 11
2512.443942873733
 21
924.2470431623601
 31
0.0
  0
LINE
  5
953
330
17
100
AcDbEntity
  8
SUNPOU
100
AcDbLine
 10
2516.850254072877
 20
1021.661541167618
 30
0.0
 11
2517.712699325379
 21
1006.68635541964
 31
0.0
  0
LINE
  5
954
330
17
100
AcDbEntity
  8
SUNPOU
100
AcDbLine
 10
2467.795413498785
 20
1003.811537911302
 30
0.0
 11
2527.696156490696
 21
1007.261318921307
 31
0.0
  0
LINE
  5
955
330
17
100
AcDbEntity
  8
SUNPOU
100
AcDbLine
 10
2476.916425411602
 20
1019.361687160947
 30
0.0
 11
2516.850254072877
 21
1021.661541167617
 31
0.0
  0
LINE
  5
956
330
17
100
AcDbEntity
  8
SUNPOU
100
AcDbLine
 10
2467.608131724326
 20
1003.811537911302
 30
0.0
 11
2468.010606175494
 21
996.8231178955789
 31
0.0
  0
LINE
  5
957
330
17
100
AcDbEntity
  8
SUNPOU
100
AcDbLine
 10
2527.696156490696
 20
1007.261318921307
 30
0.0
 11
2528.098011820102
 21
1000.283649110713
 31
0.0
  0
DIMENSION
  5
968
330
17
100
AcDbEntity
  8
SUNPOU
100
AcDbDimension
  2
*D58
 10
4197.96097767145
 20
324.0016302637777
 30
0.0
 11
3072.96097767145
 21
384.0016302637777
 31
0.0
 70
    32
 71
     5
 42
-1.0
  3
STANDARD
100
AcDbAlignedDimension
 13
1947.96097767145
 23
906.0872754162883
 33
0.0
 14
4197.96097767145
 24
906.0872754162879
 34
0.0
100
AcDbRotatedDimension
1001
ACAD
1000
DSTYLE
1002
{
1070
   287
1070
     5
1070
   287
1070
     5
1070
   287
1070
     5
1070
   287
1070
     5
1070
    41
1040
40.0
1070
    42
1040
40.0
1070
    43
1040
140.0
1070
    44
1040
20.0
1070
    73
1070
     0
1070
    74
1070
     0
1070
   140
1040
60.0
1070
   145
1040
1.0
1070
   172
1070
     1
1070
   271
1070
     0
1070
   272
1070
     0
1070
   275
1070
     1
1070
   279
1070
     2
1070
   340
1005
9E
1002
}
  0
LINE
  5
96C
330
17
100
AcDbEntity
  8
HASEN
100
AcDbLine
 10
4077.216452124005
 20
1906.087275416288
 30
0.0
 11
4197.96097767145
 21
1906.087275416288
 31
0.0
  0
DIMENSION
  5
96D
330
17
100
AcDbEntity
  8
SUNPOU
100
AcDbDimension
  2
*D56
 10
4989.255193011264
 20
906.0872754162876
 30
0.0
 11
4929.255193011264
 21
1406.087275416289
 31
0.0
 70
    32
 71
     5
 42
-1.0
  3
STANDARD
100
AcDbAlignedDimension
 13
4197.96097767145
 23
1906.087275416288
 33
0.0
 14
4197.96097767145
 24
906.0872754162879
 34
0.0
 50
90.0
100
AcDbRotatedDimension
1001
ACAD
1000
DSTYLE
1002
{
1070
   287
1070
     5
1070
   287
1070
     5
1070
   287
1070
     5
1070
   287
1070
     5
1070
    41
1040
40.0
1070
    42
1040
40.0
1070
    43
1040
140.0
1070
    44
1040
20.0
1070
    73
1070
     0
1070
    74
1070
     0
1070
   140
1040
60.0
1070
   145
1040
1.0
1070
   172
1070
     1
1070
   271
1070
     0
1070
   272
1070
     0
1070
   275
1070
     1
1070
   279
1070
     2
1070
   340
1005
9E
1002
}
  0
TEXT
  5
9EC
330
17
100
AcDbEntity
  8
SUNPOU
100
AcDbText
 10
3524.644095239569
 20
2212.364667320421
 30
0.0
 40
60.0
  1
    
  7
A
100
AcDbText
  0
TEXT
  5
9F0
330
17
100
AcDbEntity
  8
SUNPOU
100
AcDbText
 10
3244.234773003313
 20
2345.418627070887
 30
0.0
 40
60.0
  1
   
  7
A
100
AcDbText
  0
SOLID
  5
9F8
330
17
100
AcDbEntity
  8
SUNPOU
100
AcDbTrace
 10
2476.519656049899
 20
4145.693825645325
 30
0.0
 11
2466.467111686738
 21
4136.934594537262
 31
0.0
 12
2497.771077192509
 22
4111.156577001812
 32
0.0
 13
2497.771077192509
 23
4111.156577001812
 33
0.0
  0
TEXT
  5
9FB
330
17
100
AcDbEntity
  8
SUNPOU
100
AcDbText
 10
1610.152116053044
 20
5526.131554257222
 30
0.0
 40
60.0
  1
    
  7
A
100
AcDbText
  0
TEXT
  5
A02
330
17
100
AcDbEntity
  8
SUNPOU
100
AcDbText
 10
6962.59036212926
 20
6310.881810366238
 30
0.0
 40
60.0
  1
デザインウォールコーナー左
  7
A
100
AcDbText
  0
TEXT
  5
A07
330
17
100
AcDbEntity
  8
SUNPOU
100
AcDbText
 10
8092.592955336833
 20
4942.480395726927
 30
0.0
 40
60.0
  1
デザインウォールコーナー右
  7
A
100
AcDbText
  0
TEXT
  5
A0C
330
17
100
AcDbEntity
  8
SUNPOU
100
AcDbText
 10
6334.020502066644
 20
4373.806371955484
 30
0.0
 40
60.0
  1
デザインウォールコーナー
  7
A
100
AcDbText
  0
DIMENSION
  5
A0D
330
17
100
AcDbEntity
  8
SUNPOU
100
AcDbDimension
  2
*D9
 10
7993.695978145974
 20
7675.955658636951
 30
0.0
 11
7193.695978145974
 21
7735.955658636951
 31
0.0
 70
    32
 71
     5
 42
-1.0
  3
STANDARD
100
AcDbAlignedDimension
 13
6393.695978145974
 23
6984.99632079107
 33
0.0
 14
7993.695978145974
 24
6934.99632079107
 34
0.0
100
AcDbRotatedDimension
1001
ACAD
1000
DSTYLE
1002
{
1070
   287
1070
     5
1070
   287
1070
     5
1070
   287
1070
     5
1070
   287
1070
     5
1070
    41
1040
40.0
1070
    42
1040
40.0
1070
    43
1040
140.0
1070
    44
1040
20.0
1070
    73
1070
     0
1070
    74
1070
     0
1070
   140
1040
60.0
1070
   145
1040
1.0
1070
   172
1070
     1
1070
   271
1070
     0
1070
   272
1070
     0
1070
   275
1070
     1
1070
   279
1070
     2
1070
   340
1005
9E
1002
}
  0
DIMENSION
  5
A0E
330
17
100
AcDbEntity
  8
SUNPOU
100
AcDbDimension
  2
*D4
 10
10493.87269753551
 20
3984.99632079107
 30
0.0
 11
10433.87269753551
 21
4759.99632079107
 31
0.0
 70
   160
 71
     5
 42
-1.0
  3
STANDARD
100
AcDbAlignedDimension
 13
9343.69597814597
 23
5584.99632079107
 33
0.0
 14
9393.69597814597
 24
3984.99632079107
 34
0.0
 50
90.0
100
AcDbRotatedDimension
1001
ACAD
1000
DSTYLE
1002
{
1070
   287
1070
     5
1070
   287
1070
     5
1070
   287
1070
     5
1070
   287
1070
     5
1070
    41
1040
40.0
1070
    42
1040
40.0
1070
    43
1040
140.0
1070
    44
1040
20.0
1070
    73
1070
     0
1070
    74
1070
     0
1070
   140
1040
60.0
1070
   145
1040
1.0
1070
   172
1070
     1
1070
   271
1070
     0
1070
   272
1070
     0
1070
   275
1070
     1
1070
   279
1070
     2
1070
   340
1005
9E
1002
}
  0
DIMENSION
  5
A0F
330
17
100
AcDbEntity
  8
SUNPOU
100
AcDbDimension
  2
*D12
 10
9061.824182902441
 20
5620.351659850394
 30
0.0
 11
9001.82418290244
 21
6279.558049588481
 31
0.0
 70
    32
  1
1319
 71
     5
 42
-1.0
  3
STANDARD
100
AcDbAlignedDimension
 13
7993.695978145975
 23
6938.764439326568
 33
0.0
 14
7993.695978145974
 24
5620.351659850394
 34
0.0
 50
90.0
100
AcDbRotatedDimension
1001
ACAD
1000
DSTYLE
1002
{
1070
   287
1070
     5
1070
   287
1070
     5
1070
   287
1070
     5
1070
   287
1070
     5
1070
    41
1040
40.0
1070
    42
1040
40.0
1070
    43
1040
140.0
1070
    44
1040
20.0
1070
    73
1070
     0
1070
    74
1070
     0
1070
   140
1040
60.0
1070
   145
1040
1.0
1070
   172
1070
     1
1070
   271
1070
     0
1070
   272
1070
     0
1070
   275
1070
     1
1070
   279
1070
     2
1070
   340
1005
9E
1002
}
  0
DIMENSION
  5
A10
330
17
100
AcDbEntity
  8
SUNPOU
100
AcDbDimension
  2
*D11
 10
9061.824182902441
 20
6938.764439326568
 30
0.0
 11
9001.824182902441
 21
7059.938597665095
 31
0.0
 70
   160
 71
     5
 42
-1.0
  3
STANDARD
100
AcDbAlignedDimension
 13
6773.695978145974
 23
6984.99632079107
 33
0.0
 14
7993.695978145975
 24
6938.764439326568
 34
0.0
 50
90.0
100
AcDbRotatedDimension
1001
ACAD
1000
DSTYLE
1002
{
1070
   287
1070
     5
1070
   287
1070
     5
1070
   287
1070
     5
1070
   287
1070
     5
1070
    41
1040
40.0
1070
    42
1040
40.0
1070
    43
1040
140.0
1070
    44
1040
20.0
1070
    73
1070
     0
1070
    74
1070
     0
1070
   140
1040
60.0
1070
   145
1040
1.0
1070
   172
1070
     1
1070
   271
1070
     0
1070
   272
1070
     0
1070
   275
1070
     1
1070
   279
1070
     2
1070
   340
1005
9E
1002
}
  0
LINE
  5
A16
330
17
100
AcDbEntity
  8
SEIHIN
100
AcDbLine
 10
3977.96097767145
 20
1906.087275416288
 30
0.0
 11
3977.96097767145
 21
1426.087275416288
 31
0.0
  0
LINE
  5
A17
330
17
100
AcDbEntity
  8
SEIHIN
100
AcDbLine
 10
3444.146913099836
 20
1092.301575126945
 30
0.0
 11
3454.629314079113
 21
1053.710739339231
 31
0.0
  0
LINE
  5
A18
330
17
100
AcDbEntity
  8
SEIHIN
100
AcDbLine
 10
3549.757483929399
 20
1098.985788470589
 30
0.0
 11
3539.56442199835
 21
1059.174401252164
 31
0.0
  0
LINE
  5
A19
330
17
100
AcDbEntity
  8
SUNPOU
100
AcDbLine
 10
3466.134050873237
 20
1063.899986022504
 30
0.0
 11
3466.651518024739
 21
1054.914874573717
 31
0.0
  0
LINE
  5
A1A
330
17
100
AcDbEntity
  8
SUNPOU
100
AcDbLine
 10
3526.034793865148
 20
1067.349767032509
 30
0.0
 11
3526.55226101665
 21
1058.364655583722
 31
0.0
  0
LINE
  5
A1C
330
17
100
AcDbEntity
  8
SEIHIN
100
AcDbLine
 10
4077.216452124005
 20
4985.087275416288
 30
0.0
 11
3977.96097767145
 21
4985.087275416288
 31
0.0
  0
LINE
  5
A1D
330
17
100
AcDbEntity
  8
SEIHIN
100
AcDbLine
 10
1997.96097767145
 20
1026.087275416288
 30
0.0
 11
2397.96097767145
 21
1026.087275416288
 31
0.0
  0
LINE
  5
A1E
330
17
100
AcDbEntity
  8
1HASEN
100
AcDbLine
 10
4129.720116680179
 20
1599.76371877902
 30
0.0
 11
3980.720418576988
 21
1612.371385541597
 31
0.0
  0
LINE
  5
A1F
330
17
100
AcDbEntity
  8
HASEN
100
AcDbLine
 10
4128.876975795209
 20
1589.799326502112
 30
0.0
 11
4045.176080669186
 21
1596.881709935853
 31
0.0
  0
LINE
  5
A20
330
17
100
AcDbEntity
  8
SUNPOU
100
AcDbLine
 10
4044.332939784217
 20
1586.917317658945
 30
0.0
 11
4029.386351368856
 21
1588.182028986399
 31
0.0
  0
LINE
  5
A21
330
17
100
AcDbEntity
  8
HASEN
100
AcDbLine
 10
4130.563257565147
 20
1609.728111055927
 30
0.0
 11
4046.862362439124
 21
1616.810494489667
 31
0.0
  0
LINE
  5
A22
330
17
100
AcDbEntity
  8
SUNPOU
100
AcDbLine
 10
4047.705503324094
 20
1626.774886766575
 30
0.0
 11
4032.758914908733
 21
1628.039598094029
 31
0.0
  0
LINE
  5
A23
330
17
100
AcDbEntity
  8
HASEN
100
AcDbLine
 10
4128.87697579521
 20
1589.799326502112
 30
0.0
 11
4130.563257565147
 21
1609.728111055927
 31
0.0
  0
LINE
  5
A24
330
17
100
AcDbEntity
  8
SUNPOU
100
AcDbLine
 10
4043.489798899249
 20
1576.952925382038
 30
0.0
 11
4048.548644209062
 21
1636.739279043483
 31
0.0
  0
LINE
  5
A25
330
17
100
AcDbEntity
  8
SUNPOU
100
AcDbLine
 10
4029.386351368856
 20
1588.182028986399
 30
0.0
 11
4032.758914908733
 21
1628.039598094029
 31
0.0
  0
LINE
  5
A26
330
17
100
AcDbEntity
  8
SEIHIN
100
AcDbLine
 10
4052.457751948465
 20
1576.194098585565
 30
0.0
 11
4043.489798899249
 21
1576.952925382037
 31
0.0
  0
LINE
  5
A27
330
17
100
AcDbEntity
  8
SUNPOU
100
AcDbLine
 10
4057.51659725828
 20
1635.98045224701
 30
0.0
 11
4048.548644209062
 21
1636.739279043482
 31
0.0
  0
LINE
  5
A28
330
17
100
AcDbEntity
  8
SEIHIN
100
AcDbLine
 10
2107.96097767145
 20
976.0872754162883
 30
0.0
 11
3817.96097767145
 21
1074.568950808958
 31
0.0
  0
LINE
  5
A2A
330
17
100
AcDbEntity
  8
SEIHIN
100
AcDbLine
 10
3817.96097767145
 20
1074.568950808958
 30
0.0
 11
4032.413532415976
 21
1286.087275416288
 31
0.0
  0
LINE
  5
A2B
330
17
100
AcDbEntity
  8
SEIHIN
100
AcDbLine
 10
2397.96097767145
 20
1026.087275416288
 30
0.0
 11
3657.69070740118
 21
1105.817005146018
 31
0.0
  0
LINE
  5
A2C
330
17
100
AcDbEntity
  8
SEIHIN
100
AcDbLine
 10
3657.69070740118
 20
1105.817005146018
 30
0.0
 11
3977.96097767145
 21
1426.087275416288
 31
0.0
  0
LINE
  5
A30
330
17
100
AcDbEntity
  8
SEIHIN
100
AcDbLine
 10
1997.96097767145
 20
4105.087275416288
 30
0.0
 11
2397.96097767145
 21
4105.087275416288
 31
0.0
  0
LINE
  5
A31
330
17
100
AcDbEntity
  8
SEIHIN
100
AcDbLine
 10
2397.96097767145
 20
4105.087275416288
 30
0.0
 11
3677.96097767145
 21
4186.099933644135
 31
0.0
  0
LINE
  5
A32
330
17
100
AcDbEntity
  8
SEIHIN
100
AcDbLine
 10
3977.96097767145
 20
4985.087275416287
 30
0.0
 11
3977.96097767145
 21
4505.087275416287
 31
0.0
  0
LINE
  5
A33
330
17
100
AcDbEntity
  8
SEIHIN
100
AcDbLine
 10
4077.216452124005
 20
4985.087275416287
 30
0.0
 11
3977.96097767145
 21
4985.087275416287
 31
0.0
  0
LINE
  5
A34
330
17
100
AcDbEntity
  8
SUNPOU
100
AcDbLine
 10
4058.388299760843
 20
4724.536076047289
 30
0.0
 11
3977.96097767145
 21
4740.087275416287
 31
0.0
  0
LINE
  5
A35
330
17
100
AcDbEntity
  8
SUNPOU
100
AcDbLine
 10
4052.606149005263
 20
4644.520454480175
 30
0.0
 11
3977.96097767145
 21
4630.087275416287
 31
0.0
  0
LINE
  5
A36
330
17
100
AcDbEntity
  8
SUNPOU
100
AcDbLine
 10
3549.757483929399
 20
4177.985788470589
 30
0.0
 11
3539.56442199835
 21
4138.174401252163
 31
0.0
  0
LINE
  5
A37
330
17
100
AcDbEntity
  8
SUNPOU
100
AcDbLine
 10
3444.146913099836
 20
4171.301575126945
 30
0.0
 11
3454.629314079113
 21
4132.710739339231
 31
0.0
  0
LINE
  5
A38
330
17
100
AcDbEntity
  8
SUNPOU
100
AcDbLine
 10
2442.481555028671
 20
4108.565445522321
 30
0.0
 11
2458.027149010171
 21
4075.24815439391
 31
0.0
  0
LINE
  5
A39
330
17
100
AcDbEntity
  8
SUNPOU
100
AcDbLine
 10
2553.888410558655
 20
4114.956100282567
 30
0.0
 11
2537.894806332728
 21
4079.847862407251
 31
0.0
  0
LINE
  5
A3A
330
17
100
AcDbEntity
  8
SUNPOU
100
AcDbLine
 10
2458.027149010171
 20
4075.24815439391
 30
0.0
 11
2537.894806332728
 21
4079.847862407251
 31
0.0
  0
LINE
  5
A3B
330
17
100
AcDbEntity
  8
SUNPOU
100
AcDbLine
 10
3454.629314079113
 20
4132.710739339231
 30
0.0
 11
3539.56442199835
 21
4138.174401252163
 31
0.0
  0
LINE
  5
A3C
330
17
100
AcDbEntity
  8
SUNPOU
100
AcDbLine
 10
4058.388299760843
 20
4724.536076047289
 30
0.0
 11
4052.606149005263
 21
4644.520454480175
 31
0.0
  0
LINE
  5
A3D
330
17
100
AcDbEntity
  8
SEIHIN
100
AcDbLine
 10
3977.96097767145
 20
4984.996320791071
 30
0.0
 11
3977.96097767145
 21
4505.087275416287
 31
0.0
  0
DIMENSION
  5
A3E
330
17
100
AcDbEntity
  8
SUNPOU
100
AcDbDimension
  2
*D44
 10
3677.960977671449
 20
4777.684411138598
 30
0.0
 11
3827.96097767145
 21
4837.684411138598
 31
0.0
 70
    32
 71
     5
 42
-1.0
  3
STANDARD
100
AcDbAlignedDimension
 13
3977.96097767145
 23
4505.087275416287
 33
0.0
 14
3677.960977671449
 24
4204.99632079107
 34
0.0
100
AcDbRotatedDimension
1001
ACAD
1000
DSTYLE
1002
{
1070
   287
1070
     5
1070
   287
1070
     5
1070
   287
1070
     5
1070
   287
1070
     5
1070
    41
1040
40.0
1070
    42
1040
40.0
1070
    43
1040
140.0
1070
    44
1040
20.0
1070
    73
1070
     0
1070
    74
1070
     0
1070
   140
1040
60.0
1070
   145
1040
1.0
1070
   172
1070
     1
1070
   271
1070
     0
1070
   272
1070
     0
1070
   275
1070
     1
1070
   279
1070
     2
1070
   340
1005
9E
1002
}
  0
DIMENSION
  5
A3F
330
17
100
AcDbEntity
  8
SUNPOU
100
AcDbDimension
  2
*D45
 10
3491.346311608428
 20
4504.99632079107
 30
0.0
 11
3431.346311608428
 21
4354.996320791071
 31
0.0
 70
    32
 71
     5
 42
-1.0
  3
STANDARD
100
AcDbAlignedDimension
 13
3695.732579869162
 23
4204.996320791071
 33
0.0
 14
3977.960977671449
 24
4504.99632079107
 34
0.0
 50
90.0
100
AcDbRotatedDimension
1001
ACAD
1000
DSTYLE
1002
{
1070
   287
1070
     5
1070
   287
1070
     5
1070
   287
1070
     5
1070
   287
1070
     5
1070
    41
1040
40.0
1070
    42
1040
40.0
1070
    43
1040
140.0
1070
    44
1040
20.0
1070
    73
1070
     0
1070
    74
1070
     0
1070
   140
1040
60.0
1070
   145
1040
1.0
1070
   172
1070
     1
1070
   271
1070
     0
1070
   272
1070
     0
1070
   275
1070
     1
1070
   279
1070
     2
1070
   340
1005
9E
1002
}
  0
LINE
  5
A40
330
17
100
AcDbEntity
  8
SEIHIN
100
AcDbLine
 10
3677.96097767145
 20
4186.099933644135
 30
0.0
 11
3977.96097767145
 21
4505.087275416287
 31
0.0
  0
DIMENSION
  5
A42
330
17
100
AcDbEntity
  8
SUNPOU
100
AcDbDimension
  2
*D84
 10
1997.96097767145
 20
4338.910000229675
 30
0.0
 11
1862.403198899899
 21
4398.910000229675
 31
0.0
 70
   160
 71
     5
 42
-1.0
  3
STANDARD
100
AcDbAlignedDimension
 13
1947.96097767145
 23
4338.910000229675
 33
0.0
 14
1997.96097767145
 24
4338.910000229675
 34
0.0
100
AcDbRotatedDimension
1001
ACAD
1000
DSTYLE
1002
{
1070
   287
1070
     5
1070
   287
1070
     5
1070
   287
1070
     5
1070
   287
1070
     5
1070
    41
1040
40.0
1070
    42
1040
40.0
1070
    43
1040
140.0
1070
    44
1040
20.0
1070
    73
1070
     0
1070
    74
1070
     0
1070
   140
1040
60.0
1070
   145
1040
1.0
1070
   172
1070
     1
1070
   271
1070
     0
1070
   272
1070
     0
1070
   275
1070
     1
1070
   279
1070
     2
1070
   340
1005
9E
1002
}
  0
TEXT
  5
A4C
330
17
100
AcDbEntity
  8
SUNPOU
100
AcDbText
 10
1165.300105875949
 20
3259.493618294126
 30
0.0
 40
60.0
  1
    
  7
A
100
AcDbText
  0
DIMENSION
  5
A54
330
17
100
AcDbEntity
  8
SUNPOU
100
AcDbDimension
  2
*D13
 10
9061.824182902441
 20
5584.996320791065
 30
0.0
 11
9001.824182902441
 21
5701.091144079578
 31
0.0
 70
   160
 71
     5
 42
-1.0
  3
STANDARD
100
AcDbAlignedDimension
 13
8977.195100011024
 23
5620.351659850393
 33
0.0
 14
8996.89004195933
 24
5584.996320791065
 34
0.0
 50
90.0
100
AcDbRotatedDimension
1001
ACAD
1000
DSTYLE
1002
{
1070
   287
1070
     5
1070
   287
1070
     5
1070
   287
1070
     5
1070
   287
1070
     5
1070
    41
1040
40.0
1070
    42
1040
40.0
1070
    43
1040
140.0
1070
    44
1040
20.0
1070
    73
1070
     0
1070
    74
1070
     0
1070
   140
1040
60.0
1070
   145
1040
1.0
1070
   172
1070
     1
1070
   271
1070
     0
1070
   272
1070
     0
1070
   275
1070
     1
1070
   279
1070
     2
1070
   340
1005
9E
1002
}
  0
LINE
  5
A6E
330
17
100
AcDbEntity
  8
SUNPOU
100
AcDbLine
 10
6418.69597814597
 20
3984.99632079107
 30
0.0
 11
6938.695978145972
 21
4504.996320791071
 31
0.0
  0
LINE
  5
A6F
330
17
100
AcDbEntity
  8
SUNPOU
100
AcDbLine
 10
6393.69597814597
 20
4009.996320791071
 30
0.0
 11
6913.69597814597
 21
4529.996320791071
 31
0.0
  0
LINE
  5
A70
330
17
100
AcDbEntity
  8
SUNPOU
100
AcDbLine
 10
6613.695978145972
 20
4984.99632079107
 30
0.0
 11
6613.695978145972
 21
4229.996320791071
 31
0.0
  0
LINE
  5
A71
330
17
100
AcDbEntity
  8
SUNPOU
100
AcDbLine
 10
6513.695978145972
 20
4984.99632079107
 30
0.0
 11
6513.69597814597
 21
4129.996320791071
 31
0.0
  0
LINE
  5
A72
330
17
100
AcDbEntity
  8
SUNPOU
100
AcDbLine
 10
6463.695978145972
 20
4984.99632079107
 30
0.0
 11
6463.69597814597
 21
4079.996320791071
 31
0.0
  0
LINE
  5
A73
330
17
100
AcDbEntity
  8
SEIHIN
100
AcDbLine
 10
7393.69597814597
 20
4504.996320791071
 30
0.0
 11
7393.69597814597
 21
3984.99632079107
 31
0.0
  0
LINE
  5
A74
330
17
100
AcDbEntity
  8
SEIHIN
100
AcDbLine
 10
6393.695978145972
 20
4984.99632079107
 30
0.0
 11
6393.69597814597
 21
4009.99632079107
 31
0.0
  0
LINE
  5
A75
330
17
100
AcDbEntity
  8
SUNPOU
100
AcDbLine
 10
7393.69597814597
 20
4204.99632079107
 30
0.0
 11
6638.69597814597
 21
4204.99632079107
 31
0.0
  0
LINE
  5
A76
330
17
100
AcDbEntity
  8
SUNPOU
100
AcDbLine
 10
7192.097506974042
 20
4104.99632079107
 30
0.0
 11
6538.69597814597
 21
4104.99632079107
 31
0.0
  0
LINE
  5
A77
330
17
100
AcDbEntity
  8
SUNPOU
100
AcDbLine
 10
7393.69597814597
 20
4054.99632079107
 30
0.0
 11
6488.695978145972
 21
4054.99632079107
 31
0.0
  0
LINE
  5
A78
330
17
100
AcDbEntity
  8
SEIHIN
100
AcDbLine
 10
7393.69597814597
 20
3984.99632079107
 30
0.0
 11
6418.69597814597
 21
3984.99632079107
 31
0.0
  0
LINE
  5
A79
330
17
100
AcDbEntity
  8
SEIHIN
100
AcDbLine
 10
6418.69597814597
 20
3984.99632079107
 30
0.0
 11
6393.69597814597
 21
4009.996320791071
 31
0.0
  0
LINE
  5
A7B
330
17
100
AcDbEntity
  8
SUNPOU
100
AcDbLine
 10
6463.69597814597
 20
4079.99632079107
 30
0.0
 11
6488.69597814597
 21
4054.99632079107
 31
0.0
  0
LINE
  5
A7C
330
17
100
AcDbEntity
  8
SUNPOU
100
AcDbLine
 10
6513.69597814597
 20
4129.996320791071
 30
0.0
 11
6538.69597814597
 21
4104.99632079107
 31
0.0
  0
LINE
  5
A7D
330
17
100
AcDbEntity
  8
SUNPOU
100
AcDbLine
 10
6613.69597814597
 20
4229.996320791071
 30
0.0
 11
6638.69597814597
 21
4204.99632079107
 31
0.0
  0
LINE
  5
A82
330
17
100
AcDbEntity
  8
SEIHIN
100
AcDbLine
 10
7192.097506974042
 20
4104.99632079107
 30
0.0
 11
7393.69597814597
 21
4104.99632079107
 31
0.0
  0
LINE
  5
A91
330
17
100
AcDbEntity
  8
1HASEN
100
AcDbLine
 10
6913.695978145966
 20
4984.996320791071
 30
0.0
 11
7393.695978145972
 21
4984.996320791071
 31
0.0
  0
LINE
  5
A92
330
17
100
AcDbEntity
  8
SEIHIN
100
AcDbLine
 10
7343.69597814597
 20
4934.996320791071
 30
0.0
 11
6913.69597814597
 21
4984.99632079107
 31
0.0
  0
LINE
  5
A96
330
17
100
AcDbEntity
  8
SEIHIN
100
AcDbLine
 10
7393.69597814597
 20
4504.996320791071
 30
0.0
 11
6938.695978145972
 21
4504.996320791071
 31
0.0
  0
LINE
  5
A97
330
17
100
AcDbEntity
  8
SEIHIN
100
AcDbLine
 10
6913.695978145972
 20
4984.996320791069
 30
0.0
 11
6913.69597814597
 21
4529.996320791071
 31
0.0
  0
LINE
  5
AA9
330
17
100
AcDbEntity
  8
SEIHIN
100
AcDbLine
 10
6913.69597814597
 20
4529.996320791071
 30
0.0
 11
6938.695978145972
 21
4504.996320791071
 31
0.0
  0
LINE
  5
AAA
330
17
100
AcDbEntity
  8
SEIHIN
100
AcDbLine
 10
6913.69597814597
 20
4984.996320791071
 30
0.0
 11
6393.695978145972
 21
4984.99632079107
 31
0.0
  0
LINE
  5
AAB
330
17
100
AcDbEntity
  8
1HASEN
100
AcDbLine
 10
7393.69597814597
 20
4504.996320791072
 30
0.0
 11
7393.69597814597
 21
4984.996320791071
 31
0.0
  0
LINE
  5
AAC
330
17
100
AcDbEntity
  8
SUNPOU
100
AcDbLine
 10
7053.695978145974
 20
4968.717251023628
 30
0.0
 11
7053.695978145972
 21
4799.996320791071
 31
0.0
  0
LINE
  5
AAD
330
17
100
AcDbEntity
  8
SUNPOU
100
AcDbLine
 10
7038.695978145974
 20
4970.461437070139
 30
0.0
 11
7038.695978145974
 21
4784.996320791071
 31
0.0
  0
LINE
  5
AAE
330
17
100
AcDbEntity
  8
SEIHIN
100
AcDbLine
 10
7343.69597814597
 20
4934.996320791071
 30
0.0
 11
7393.69597814597
 21
4504.996320791071
 31
0.0
  0
LINE
  5
AAF
330
17
100
AcDbEntity
  8
SUNPOU
100
AcDbLine
 10
7193.69597814597
 20
4629.996320791069
 30
0.0
 11
7208.69597814597
 21
4644.996320791069
 31
0.0
  0
LINE
  5
AB0
330
17
100
AcDbEntity
  8
SUNPOU
100
AcDbLine
 10
7193.695978145974
 20
4739.996320791071
 30
0.0
 11
7193.69597814597
 21
4629.996320791069
 31
0.0
  0
LINE
  5
AB3
330
17
100
AcDbEntity
  8
SUNPOU
100
AcDbLine
 10
7193.69597814597
 20
4629.996320791069
 30
0.0
 11
7379.161094425039
 21
4629.996320791069
 31
0.0
  0
LINE
  5
AB4
330
17
100
AcDbEntity
  8
SUNPOU
100
AcDbLine
 10
7208.69597814597
 20
4644.996320791069
 30
0.0
 11
7377.416908378527
 21
4644.996320791069
 31
0.0
  0
LINE
  5
AB5
330
17
100
AcDbEntity
  8
SUNPOU
100
AcDbLine
 10
7368.114582797134
 20
4724.99632079107
 30
0.0
 11
7208.695978145972
 21
4724.99632079107
 31
0.0
  0
LINE
  5
AB6
330
17
100
AcDbEntity
  8
SUNPOU
100
AcDbLine
 10
7366.370396750623
 20
4739.996320791071
 30
0.0
 11
7193.695978145974
 21
4739.996320791071
 31
0.0
  0
CIRCLE
  5
AB7
330
17
100
AcDbEntity
  8
SUNPOU
100
AcDbCircle
 10
7258.69597814597
 20
4684.99632079107
 30
0.0
 40
15.0
  0
LINE
  5
AB8
330
17
100
AcDbEntity
  8
SUNPOU
100
AcDbLine
 10
7133.695978145974
 20
4799.996320791071
 30
0.0
 11
7148.695978145974
 21
4784.996320791071
 31
0.0
  0
LINE
  5
AB9
330
17
100
AcDbEntity
  8
SUNPOU
100
AcDbLine
 10
7038.695978145974
 20
4784.996320791071
 30
0.0
 11
7053.69597814597
 21
4799.996320791071
 31
0.0
  0
LINE
  5
ABA
330
17
100
AcDbEntity
  8
SUNPOU
100
AcDbLine
 10
7148.695978145974
 20
4784.996320791071
 30
0.0
 11
7148.695978145974
 21
4957.670739395721
 31
0.0
  0
LINE
  5
ABB
330
17
100
AcDbEntity
  8
SUNPOU
100
AcDbLine
 10
7038.695978145974
 20
4784.996320791071
 30
0.0
 11
7148.695978145974
 21
4784.996320791071
 31
0.0
  0
LINE
  5
ABD
330
17
100
AcDbEntity
  8
SUNPOU
100
AcDbLine
 10
7193.695978145974
 20
4739.996320791071
 30
0.0
 11
7208.695978145972
 21
4724.99632079107
 31
0.0
  0
LINE
  5
ABE
330
17
100
AcDbEntity
  8
SUNPOU
100
AcDbLine
 10
7208.695978145972
 20
4724.99632079107
 30
0.0
 11
7208.69597814597
 21
4644.996320791069
 31
0.0
  0
LINE
  5
ABF
330
17
100
AcDbEntity
  8
SUNPOU
100
AcDbLine
 10
7133.695978145974
 20
4799.996320791071
 30
0.0
 11
7133.695978145974
 21
4959.414925442233
 31
0.0
  0
LINE
  5
AC0
330
17
100
AcDbEntity
  8
SUNPOU
100
AcDbLine
 10
7053.695978145972
 20
4799.996320791071
 30
0.0
 11
7133.695978145974
 21
4799.996320791071
 31
0.0
  0
CIRCLE
  5
AC1
330
17
100
AcDbEntity
  8
SUNPOU
100
AcDbCircle
 10
7093.695978145974
 20
4849.996320791071
 30
0.0
 40
15.0
  0
CIRCLE
  5
AC2
330
17
100
AcDbEntity
  8
SUNPOU
100
AcDbCircle
 10
7093.695978145974
 20
4909.996320791071
 30
0.0
 40
15.0
  0
CIRCLE
  5
AC3
330
17
100
AcDbEntity
  8
SUNPOU
100
AcDbCircle
 10
7318.69597814597
 20
4684.99632079107
 30
0.0
 40
15.0
  0
LINE
  5
127C
330
17
100
AcDbEntity
  8
SEIHIN
100
AcDbLine
 10
9347.483856933846
 20
5584.996320791069
 30
0.0
 11
8029.051317205303
 21
5584.996320791071
 31
0.0
  0
LINE
  5
127D
330
17
100
AcDbEntity
  8
SEIHIN
100
AcDbLine
 10
9393.69597814597
 20
3984.99632079107
 30
0.0
 11
7393.69597814597
 21
3984.99632079107
 31
0.0
  0
LINE
  5
12A2
330
17
100
AcDbEntity
  8
SEIHIN
100
AcDbLine
 10
9393.69597814597
 20
3984.99632079107
 30
0.0
 11
9393.69597814597
 21
4364.99632079107
 31
0.0
  0
LINE
  5
12E0
330
17
100
AcDbEntity
  8
SEIHIN
100
AcDbLine
 10
7393.695978145974
 20
3984.99632079107
 30
0.0
 11
7393.69597814597
 21
4364.99632079107
 31
0.0
  0
LINE
  5
1A49
330
17
100
AcDbEntity
  8
SUNPOU
100
AcDbLine
 10
9393.69597814597
 20
4054.99632079107
 30
0.0
 11
7393.69597814597
 21
4054.99632079107
 31
0.0
  0
LINE
  5
1A4A
330
17
100
AcDbEntity
  8
SUNPOU
100
AcDbLine
 10
7393.695978145974
 20
4153.497050757716
 30
0.0
 11
9393.69597814597
 21
4153.497050757718
 31
0.0
  0
LINE
  5
1A4B
330
17
100
AcDbEntity
  8
SEIHIN
100
AcDbLine
 10
7393.69597814597
 20
4364.474650128204
 30
0.0
 11
9393.69597814597
 21
4364.474650128208
 31
0.0
  0
LINE
  5
1A4C
330
17
100
AcDbEntity
  8
1HASEN
100
AcDbLine
 10
7376.018308616309
 20
4967.318651261407
 30
0.0
 11
8014.406656264631
 21
5605.706998909727
 31
0.0
  0
LINE
  5
1A4F
330
17
100
AcDbEntity
  8
SEIHIN
100
AcDbLine
 10
6773.174307483108
 20
6984.99632079107
 30
0.0
 11
6773.174307483112
 21
4984.99632079107
 31
0.0
  0
LINE
  5
1A50
330
17
100
AcDbEntity
  8
SUNPOU
100
AcDbLine
 10
6562.19670811262
 20
6984.996320791066
 30
0.0
 11
6562.196708112622
 21
4984.99632079107
 31
0.0
  0
LINE
  5
1A51
330
17
100
AcDbEntity
  8
SUNPOU
100
AcDbLine
 10
6463.695978145972
 20
4984.99632079107
 30
0.0
 11
6463.695978145974
 21
6984.99632079107
 31
0.0
  0
LINE
  5
1A52
330
17
100
AcDbEntity
  8
SEIHIN
100
AcDbLine
 10
6393.695978145972
 20
4984.99632079107
 30
0.0
 11
6393.695978145974
 21
6984.99632079107
 31
0.0
  0
LINE
  5
1A53
330
17
100
AcDbEntity
  8
SEIHIN
100
AcDbLine
 10
6393.695978145974
 20
6984.996320791066
 30
0.0
 11
6773.695978145974
 21
6984.99632079107
 31
0.0
  0
LINE
  5
1A54
330
17
100
AcDbEntity
  8
SEIHIN
100
AcDbLine
 10
6393.695978145972
 20
4984.99632079107
 30
0.0
 11
6773.695978145972
 21
4984.99632079107
 31
0.0
  0
LINE
  5
1A57
330
17
100
AcDbEntity
  8
SEIHIN
100
AcDbLine
 10
7993.695978145972
 20
5620.351659850395
 30
0.0
 11
7993.695978145975
 21
6938.764439326568
 31
0.0
  0
LINE
  5
1A58
330
17
100
AcDbEntity
  8
SEIHIN
100
AcDbLine
 10
7381.378683637967
 20
5008.03436534239
 30
0.0
 11
7993.695978145974
 21
5620.351659850394
 31
0.0
  0
LINE
  5
1A59
330
17
100
AcDbEntity
  8
SEIHIN
100
AcDbLine
 10
7416.713484482215
 20
4972.658488067986
 30
0.0
 11
8029.051317205302
 21
5584.996320791071
 31
0.0
  0
LINE
  5
1A64
330
17
100
AcDbEntity
  8
SEIHIN
100
AcDbLine
 10
7791.165494873923
 20
5629.953210934314
 30
0.0
 11
8038.652868289213
 21
5382.465837519021
 31
0.0
  0
LINE
  5
1A65
330
17
100
AcDbEntity
  8
SEIHIN
100
AcDbLine
 10
7748.739088002731
 20
5587.526804063121
 30
0.0
 11
7996.226461418022
 21
5340.039430647829
 31
0.0
  0
CIRCLE
  5
1A66
330
17
100
AcDbEntity
  8
SUNPOU
100
AcDbCircle
 10
7946.728986734963
 20
5431.96331220208
 30
0.0
 40
15.0
  0
LINE
  5
1A67
330
17
100
AcDbEntity
  8
1HASEN
100
AcDbLine
 10
7798.236562685786
 20
5580.455736251251
 30
0.0
 11
7989.155393606152
 21
5389.536905330884
 31
0.0
  0
LINE
  5
1A68
330
17
100
AcDbEntity
  8
SEIHIN
100
AcDbLine
 10
7748.739088002731
 20
5587.526804063122
 30
0.0
 11
7791.165494873923
 21
5629.953210934314
 31
0.0
  0
CIRCLE
  5
1A69
330
17
100
AcDbEntity
  8
SUNPOU
100
AcDbCircle
 10
7840.662969556983
 20
5538.029329380063
 30
0.0
 40
15.0
  0
CIRCLE
  5
1A6A
330
17
100
AcDbEntity
  8
SUNPOU
100
AcDbCircle
 10
7798.23656268579
 20
5580.455736251256
 30
0.0
 40
15.0
  0
LINE
  5
1A6B
330
17
100
AcDbEntity
  8
SEIHIN
100
AcDbLine
 10
7996.226461418022
 20
5340.03943064783
 30
0.0
 11
8038.652868289215
 21
5382.465837519022
 31
0.0
  0
CIRCLE
  5
1A6C
330
17
100
AcDbEntity
  8
SUNPOU
100
AcDbCircle
 10
7989.155393606155
 20
5389.536905330888
 30
0.0
 40
15.0
  0
CIRCLE
  5
1A6D
330
17
100
AcDbEntity
  8
SUNPOU
100
AcDbCircle
 10
7498.236562685794
 20
5280.455736251256
 30
0.0
 40
15.0
  0
LINE
  5
1A6E
330
17
100
AcDbEntity
  8
1HASEN
100
AcDbLine
 10
7498.236562685794
 20
5280.455736251256
 30
0.0
 11
7689.155393606159
 21
5089.536905330888
 31
0.0
  0
LINE
  5
1A6F
330
17
100
AcDbEntity
  8
SEIHIN
100
AcDbLine
 10
7448.739088002734
 20
5287.526804063121
 30
0.0
 11
7696.226461418026
 21
5040.039430647829
 31
0.0
  0
LINE
  5
1A70
330
17
100
AcDbEntity
  8
SEIHIN
100
AcDbLine
 10
7491.165494873927
 20
5329.953210934314
 30
0.0
 11
7738.652868289217
 21
5082.465837519021
 31
0.0
  0
CIRCLE
  5
1A71
330
17
100
AcDbEntity
  8
SUNPOU
100
AcDbCircle
 10
7540.662969556986
 20
5238.029329380063
 30
0.0
 40
15.0
  0
CIRCLE
  5
1A72
330
17
100
AcDbEntity
  8
SUNPOU
100
AcDbCircle
 10
7646.728986734966
 20
5131.96331220208
 30
0.0
 40
15.0
  0
CIRCLE
  5
1A73
330
17
100
AcDbEntity
  8
SUNPOU
100
AcDbCircle
 10
7689.155393606159
 20
5089.536905330888
 30
0.0
 40
15.0
  0
LINE
  5
1A74
330
17
100
AcDbEntity
  8
SEIHIN
100
AcDbLine
 10
7696.226461418026
 20
5040.03943064783
 30
0.0
 11
7738.652868289219
 21
5082.465837519022
 31
0.0
  0
LINE
  5
1A75
330
17
100
AcDbEntity
  8
SEIHIN
100
AcDbLine
 10
7448.739088002734
 20
5287.526804063122
 30
0.0
 11
7491.165494873927
 21
5329.953210934314
 31
0.0
  0
LWPOLYLINE
  5
1A7A
330
17
100
AcDbEntity
  8
SEIHIN
100
AcDbPolyline
 90
        4
 70
     1
 43
0.0
 10
7063.695978145974
 20
5159.996320791071
 10
7063.695978145972
 20
4809.996320791071
 10
7123.695978145974
 20
4809.996320791071
 10
7123.695978145974
 20
5159.996320791071
  0
CIRCLE
  5
1A7B
330
17
100
AcDbEntity
  8
SUNPOU
100
AcDbCircle
 10
7093.695978145974
 20
5119.996320791071
 30
0.0
 40
15.0
  0
CIRCLE
  5
1A7C
330
17
100
AcDbEntity
  8
SUNPOU
100
AcDbCircle
 10
7093.695978145974
 20
5059.996320791071
 30
0.0
 40
15.0
  0
LWPOLYLINE
  5
1A80
330
17
100
AcDbEntity
  8
SEIHIN
100
AcDbPolyline
 90
        4
 70
     1
 43
0.0
 10
7568.69597814597
 20
4714.99632079107
 10
7218.695978145972
 20
4714.99632079107
 10
7218.69597814597
 20
4654.996320791069
 10
7568.69597814597
 20
4654.99632079107
  0
CIRCLE
  5
1A81
330
17
100
AcDbEntity
  8
SUNPOU
100
AcDbCircle
 10
7468.69597814597
 20
4684.99632079107
 30
0.0
 40
15.0
  0
CIRCLE
  5
1A82
330
17
100
AcDbEntity
  8
SUNPOU
100
AcDbCircle
 10
7528.69597814597
 20
4684.99632079107
 30
0.0
 40
15.0
  0
LINE
  5
1C99
330
17
100
AcDbEntity
  8
SUNPOU
100
AcDbLine
 10
7448.69597814597
 20
4089.885293841293
 30
0.0
 11
7488.69597814597
 21
4089.885293841294
 31
0.0
  0
LINE
  5
1C9A
330
17
100
AcDbEntity
  8
SEIHIN
100
AcDbLine
 10
7218.69597814597
 20
4074.885293841293
 30
0.0
 11
7568.69597814597
 21
4074.885293841294
 31
0.0
  0
LINE
  5
1C9B
330
17
100
AcDbEntity
  8
SEIHIN
100
AcDbLine
 10
7218.69597814597
 20
4065.885293841293
 30
0.0
 11
7568.69597814597
 21
4065.885293841294
 31
0.0
  0
LINE
  5
1C9C
330
17
100
AcDbEntity
  8
SUNPOU
100
AcDbLine
 10
7238.69597814597
 20
4089.885293841293
 30
0.0
 11
7278.69597814597
 21
4089.885293841293
 31
0.0
  0
LINE
  5
1C9D
330
17
100
AcDbEntity
  8
SEIHIN
100
AcDbLine
 10
7192.097506974042
 20
4104.99632079107
 30
0.0
 11
7393.69597814597
 21
4104.99632079107
 31
0.0
  0
LINE
  5
1C9E
330
17
100
AcDbEntity
  8
SUNPOU
100
AcDbLine
 10
7238.69597814597
 20
4089.885293841293
 30
0.0
 11
7238.69597814597
 21
4074.885293841293
 31
0.0
  0
LINE
  5
1C9F
330
17
100
AcDbEntity
  8
SUNPOU
100
AcDbLine
 10
7248.69597814597
 20
4089.885293841293
 30
0.0
 11
7248.69597814597
 21
4054.99632079107
 31
0.0
  0
LINE
  5
1CA0
330
17
100
AcDbEntity
  8
SUNPOU
100
AcDbLine
 10
7208.69597814597
 20
4065.885293841293
 30
0.0
 11
7192.097506974042
 21
4104.99632079107
 31
0.0
  0
LINE
  5
1CA1
330
17
100
AcDbEntity
  8
SUNPOU
100
AcDbLine
 10
7218.69597814597
 20
4065.885293841293
 30
0.0
 11
7208.69597814597
 21
4065.885293841293
 31
0.0
  0
LINE
  5
1CA2
330
17
100
AcDbEntity
  8
SEIHIN
100
AcDbLine
 10
7218.69597814597
 20
4074.885293841293
 30
0.0
 11
7218.69597814597
 21
4065.885293841293
 31
0.0
  0
LINE
  5
1CA3
330
17
100
AcDbEntity
  8
SUNPOU
100
AcDbLine
 10
7298.69597814597
 20
4089.885293841293
 30
0.0
 11
7338.69597814597
 21
4089.885293841293
 31
0.0
  0
LINE
  5
1CA4
330
17
100
AcDbEntity
  8
SUNPOU
100
AcDbLine
 10
7338.69597814597
 20
4089.885293841293
 30
0.0
 11
7338.69597814597
 21
4074.885293841293
 31
0.0
  0
LINE
  5
1CA5
330
17
100
AcDbEntity
  8
SUNPOU
100
AcDbLine
 10
7298.69597814597
 20
4089.885293841293
 30
0.0
 11
7298.69597814597
 21
4074.885293841293
 31
0.0
  0
LINE
  5
1CA6
330
17
100
AcDbEntity
  8
SUNPOU
100
AcDbLine
 10
7278.69597814597
 20
4089.885293841293
 30
0.0
 11
7278.69597814597
 21
4074.885293841293
 31
0.0
  0
LINE
  5
1CA7
330
17
100
AcDbEntity
  8
SUNPOU
100
AcDbLine
 10
7328.69597814597
 20
4089.885293841293
 30
0.0
 11
7328.69597814597
 21
4054.99632079107
 31
0.0
  0
LINE
  5
1CA8
330
17
100
AcDbEntity
  8
SUNPOU
100
AcDbLine
 10
7308.69597814597
 20
4089.885293841293
 30
0.0
 11
7308.69597814597
 21
4054.99632079107
 31
0.0
  0
LINE
  5
1CA9
330
17
100
AcDbEntity
  8
SUNPOU
100
AcDbLine
 10
7268.69597814597
 20
4089.885293841293
 30
0.0
 11
7268.695978145972
 21
4054.99632079107
 31
0.0
  0
LINE
  5
1CAA
330
17
100
AcDbEntity
  8
SUNPOU
100
AcDbLine
 10
7448.69597814597
 20
4089.885293841294
 30
0.0
 11
7448.69597814597
 21
4074.885293841294
 31
0.0
  0
LINE
  5
1CAB
330
17
100
AcDbEntity
  8
SUNPOU
100
AcDbLine
 10
7478.69597814597
 20
4089.885293841294
 30
0.0
 11
7478.69597814597
 21
4065.885293841294
 31
0.0
  0
LINE
  5
1CAC
330
17
100
AcDbEntity
  8
SUNPOU
100
AcDbLine
 10
7458.69597814597
 20
4089.885293841294
 30
0.0
 11
7458.69597814597
 21
4065.885293841294
 31
0.0
  0
LINE
  5
1CAD
330
17
100
AcDbEntity
  8
SUNPOU
100
AcDbLine
 10
7508.695978145972
 20
4089.885293841294
 30
0.0
 11
7548.69597814597
 21
4089.885293841294
 31
0.0
  0
LINE
  5
1CAE
330
17
100
AcDbEntity
  8
SUNPOU
100
AcDbLine
 10
7548.69597814597
 20
4089.885293841294
 30
0.0
 11
7548.69597814597
 21
4074.885293841294
 31
0.0
  0
LINE
  5
1CAF
330
17
100
AcDbEntity
  8
SUNPOU
100
AcDbLine
 10
7508.695978145972
 20
4089.885293841294
 30
0.0
 11
7508.69597814597
 21
4074.885293841294
 31
0.0
  0
LINE
  5
1CB0
330
17
100
AcDbEntity
  8
SUNPOU
100
AcDbLine
 10
7488.69597814597
 20
4089.885293841294
 30
0.0
 11
7488.69597814597
 21
4074.885293841294
 31
0.0
  0
LINE
  5
1CB1
330
17
100
AcDbEntity
  8
SUNPOU
100
AcDbLine
 10
7538.69597814597
 20
4089.885293841294
 30
0.0
 11
7538.69597814597
 21
4065.885293841294
 31
0.0
  0
LINE
  5
1CB2
330
17
100
AcDbEntity
  8
SUNPOU
100
AcDbLine
 10
7518.695978145972
 20
4089.885293841294
 30
0.0
 11
7518.69597814597
 21
4065.885293841294
 31
0.0
  0
LINE
  5
1CB3
330
17
100
AcDbEntity
  8
SEIHIN
100
AcDbLine
 10
7568.69597814597
 20
4065.885293841294
 30
0.0
 11
7568.69597814597
 21
4074.885293841294
 31
0.0
  0
LINE
  5
1CB8
330
17
100
AcDbEntity
  8
SEIHIN
100
AcDbLine
 10
6487.633951813219
 20
5159.99632079107
 30
0.0
 11
6487.633951813219
 21
4809.99632079107
 31
0.0
  0
LINE
  5
1CB9
330
17
100
AcDbEntity
  8
SEIHIN
100
AcDbLine
 10
6478.633951813219
 20
5159.99632079107
 30
0.0
 11
6478.633951813219
 21
4809.99632079107
 31
0.0
  0
LINE
  5
1CBA
330
17
100
AcDbEntity
  8
SEIHIN
100
AcDbLine
 10
6478.633951813219
 20
4799.99632079107
 30
0.0
 11
6513.695978145972
 21
4785.757957502573
 31
0.0
  0
LINE
  5
1CBB
330
17
100
AcDbEntity
  8
SUNPOU
100
AcDbLine
 10
6502.633951813219
 20
4872.182438784615
 30
0.0
 11
6502.633951813219
 21
4832.182438784615
 31
0.0
  0
LINE
  5
1CBC
330
17
100
AcDbEntity
  8
SUNPOU
100
AcDbLine
 10
6502.633951813219
 20
4932.182438784615
 30
0.0
 11
6502.633951813219
 21
4892.182438784615
 31
0.0
  0
LINE
  5
1CBD
330
17
100
AcDbEntity
  8
SUNPOU
100
AcDbLine
 10
6502.633951813219
 20
4832.182438784615
 30
0.0
 11
6487.633951813219
 21
4832.182438784615
 31
0.0
  0
LINE
  5
1CBE
330
17
100
AcDbEntity
  8
SUNPOU
100
AcDbLine
 10
6502.633951813219
 20
4842.182438784615
 30
0.0
 11
6463.69597814597
 21
4842.182438784615
 31
0.0
  0
LINE
  5
1CBF
330
17
100
AcDbEntity
  8
SUNPOU
100
AcDbLine
 10
6502.633951813219
 20
4872.182438784615
 30
0.0
 11
6487.633951813219
 21
4872.182438784615
 31
0.0
  0
LINE
  5
1CC0
330
17
100
AcDbEntity
  8
SUNPOU
100
AcDbLine
 10
6502.633951813219
 20
4862.182438784615
 30
0.0
 11
6463.69597814597
 21
4862.182438784615
 31
0.0
  0
LINE
  5
1CC1
330
17
100
AcDbEntity
  8
SUNPOU
100
AcDbLine
 10
6502.633951813219
 20
4892.182438784615
 30
0.0
 11
6487.633951813219
 21
4892.182438784615
 31
0.0
  0
LINE
  5
1CC2
330
17
100
AcDbEntity
  8
SUNPOU
100
AcDbLine
 10
6502.633951813219
 20
4902.182438784615
 30
0.0
 11
6463.69597814597
 21
4902.182438784615
 31
0.0
  0
LINE
  5
1CC3
330
17
100
AcDbEntity
  8
SUNPOU
100
AcDbLine
 10
6502.633951813219
 20
4932.182438784615
 30
0.0
 11
6487.633951813219
 21
4932.182438784615
 31
0.0
  0
LINE
  5
1CC4
330
17
100
AcDbEntity
  8
SUNPOU
100
AcDbLine
 10
6502.633951813219
 20
4922.182438784615
 30
0.0
 11
6463.69597814597
 21
4922.182438784615
 31
0.0
  0
LINE
  5
1CC5
330
17
100
AcDbEntity
  8
SEIHIN
100
AcDbLine
 10
6478.633951813219
 20
4809.99632079107
 30
0.0
 11
6478.633951813219
 21
4799.99632079107
 31
0.0
  0
LINE
  5
1CC6
330
17
100
AcDbEntity
  8
SEIHIN
100
AcDbLine
 10
6478.633951813219
 20
4809.99632079107
 30
0.0
 11
6487.633951813219
 21
4809.99632079107
 31
0.0
  0
LINE
  5
1CC7
330
17
100
AcDbEntity
  8
SUNPOU
100
AcDbLine
 10
6502.633951813219
 20
5142.182438784615
 30
0.0
 11
6502.633951813219
 21
5102.182438784615
 31
0.0
  0
LINE
  5
1CC8
330
17
100
AcDbEntity
  8
SUNPOU
100
AcDbLine
 10
6502.633951813219
 20
5082.182438784615
 30
0.0
 11
6502.633951813219
 21
5042.182438784615
 31
0.0
  0
LINE
  5
1CC9
330
17
100
AcDbEntity
  8
SUNPOU
100
AcDbLine
 10
6502.633951813219
 20
5042.182438784615
 30
0.0
 11
6487.633951813219
 21
5042.182438784615
 31
0.0
  0
LINE
  5
1CCA
330
17
100
AcDbEntity
  8
SUNPOU
100
AcDbLine
 10
6502.633951813219
 20
5052.182438784615
 30
0.0
 11
6463.69597814597
 21
5052.182438784615
 31
0.0
  0
LINE
  5
1CCB
330
17
100
AcDbEntity
  8
SUNPOU
100
AcDbLine
 10
6502.633951813219
 20
5082.182438784615
 30
0.0
 11
6487.633951813219
 21
5082.182438784615
 31
0.0
  0
LINE
  5
1CCC
330
17
100
AcDbEntity
  8
SUNPOU
100
AcDbLine
 10
6502.633951813219
 20
5072.182438784615
 30
0.0
 11
6463.69597814597
 21
5072.182438784615
 31
0.0
  0
LINE
  5
1CCD
330
17
100
AcDbEntity
  8
SUNPOU
100
AcDbLine
 10
6502.633951813219
 20
5102.182438784615
 30
0.0
 11
6487.633951813219
 21
5102.182438784615
 31
0.0
  0
LINE
  5
1CCE
330
17
100
AcDbEntity
  8
SUNPOU
100
AcDbLine
 10
6502.633951813219
 20
5112.182438784615
 30
0.0
 11
6463.695978145972
 21
5112.182438784615
 31
0.0
  0
LINE
  5
1CCF
330
17
100
AcDbEntity
  8
SUNPOU
100
AcDbLine
 10
6502.633951813219
 20
5142.182438784615
 30
0.0
 11
6487.633951813219
 21
5142.182438784615
 31
0.0
  0
LINE
  5
1CD0
330
17
100
AcDbEntity
  8
SUNPOU
100
AcDbLine
 10
6502.633951813219
 20
5132.182438784615
 30
0.0
 11
6463.695978145972
 21
5132.182438784615
 31
0.0
  0
LINE
  5
1CD1
330
17
100
AcDbEntity
  8
SEIHIN
100
AcDbLine
 10
6487.633951813219
 20
5159.99632079107
 30
0.0
 11
6478.633951813219
 21
5159.99632079107
 31
0.0
  0
LINE
  5
252D
330
17
100
AcDbEntity
  8
SEIHIN
100
AcDbLine
 10
4032.396909399795
 20
1285.565604753421
 30
0.0
 11
4120.96097767145
 21
2506.087275416288
 31
0.0
  0
CIRCLE
  5
2538
330
17
100
AcDbEntity
  8
SUNPOU
100
AcDbCircle
 10
3597.96097767145
 20
6484.996320791071
 30
0.0
 40
25.0
  0
CIRCLE
  5
2539
330
17
100
AcDbEntity
  8
SUNPOU
100
AcDbCircle
 10
3597.96097767145
 20
6484.996320791071
 30
0.0
 40
40.0
  0
CIRCLE
  5
253B
330
17
100
AcDbEntity
  8
SUNPOU
100
AcDbCircle
 10
3597.96097767145
 20
5484.996320791071
 30
0.0
 40
40.0
  0
CIRCLE
  5
253C
330
17
100
AcDbEntity
  8
SUNPOU
100
AcDbCircle
 10
3597.96097767145
 20
5484.996320791071
 30
0.0
 40
25.0
  0
LINE
  5
4956
330
17
100
AcDbEntity
  8
SEIHIN
100
AcDbLine
 10
9393.695978145966
 20
4364.99632079107
 30
0.0
 11
9347.483856933846
 21
5584.996320791069
 31
0.0
  0
LINE
  5
4957
330
17
100
AcDbEntity
  8
SEIHIN
100
AcDbLine
 10
7393.69597814597
 20
4364.99632079107
 30
0.0
 11
7416.713484482216
 21
4972.658488067985
 31
0.0
  0
LINE
  5
4958
330
17
100
AcDbEntity
  8
SEIHIN
100
AcDbLine
 10
6773.174307483112
 20
6984.996320791068
 30
0.0
 11
7993.695978145975
 21
6938.764439326568
 31
0.0
  0
LINE
  5
4959
330
17
100
AcDbEntity
  8
SEIHIN
100
AcDbLine
 10
6773.174307483112
 20
4984.99632079107
 30
0.0
 11
7381.378683637967
 21
5008.03436534239
 31
0.0
  0
LINE
  5
4F13
330
17
100
AcDbEntity
  8
SEIHIN
100
AcDbLine
 10
4197.96097767145
 20
2506.087275416288
 30
0.0
 11
4120.96097767145
 21
2506.087275416288
 31
0.0
  0
DIMENSION
  5
6955
330
17
100
AcDbEntity
  8
SUNPOU
100
AcDbDimension
  2
*D281
 10
1391.001480596815
 20
1026.087275416288
 30
0.0
 11
1331.001480596815
 21
978.7156244505923
 31
0.0
 70
   160
 71
     5
 42
119.9999999999995
  3
STANDARD
100
AcDbAlignedDimension
 13
1947.96097767145
 23
906.0872754162883
 33
0.0
 14
1947.96097767145
 24
1026.087275416288
 34
0.0
 50
90.0
100
AcDbRotatedDimension
1001
ACAD
1000
DSTYLE
1002
{
1070
   287
1070
     5
1070
   287
1070
     5
1070
   287
1070
     5
1070
   287
1070
     5
1070
    41
1040
40.0
1070
    42
1040
40.0
1070
    43
1040
140.0
1070
    44
1040
20.0
1070
    73
1070
     0
1070
    74
1070
     0
1070
   140
1040
60.0
1070
   145
1040
1.0
1070
   172
1070
     1
1070
   271
1070
     0
1070
   272
1070
     0
1070
   275
1070
     1
1070
   279
1070
     2
1070
   340
1005
9E
1002
}
  0
DIMENSION
  5
6956
330
17
100
AcDbEntity
  8
SUNPOU
100
AcDbDimension
  2
*D282
 10
1608.153116212241
 20
976.0872754162884
 30
0.0
 11
1548.153116212241
 21
829.6103815686524
 31
0.0
 70
   160
 71
     5
 42
70.0
  3
STANDARD
100
AcDbAlignedDimension
 13
1947.96097767145
 23
906.0872754162883
 33
0.0
 14
1947.96097767145
 24
976.0872754162883
 34
0.0
 50
90.0
100
AcDbRotatedDimension
1001
ACAD
1000
DSTYLE
1002
{
1070
   287
1070
     5
1070
   287
1070
     5
1070
   287
1070
     5
1070
   287
1070
     5
1070
    41
1040
40.0
1070
    42
1040
40.0
1070
    43
1040
140.0
1070
    44
1040
20.0
1070
    73
1070
     0
1070
    74
1070
     0
1070
   140
1040
60.0
1070
   145
1040
1.0
1070
   172
1070
     1
1070
   271
1070
     0
1070
   272
1070
     0
1070
   275
1070
     1
1070
   279
1070
     2
1070
   340
1005
9E
1002
}
  0
DIMENSION
  5
6957
330
17
100
AcDbEntity
  8
SUNPOU
100
AcDbDimension
  2
*D283
 10
1608.153116212241
 20
1026.087275416288
 30
0.0
 11
1558.018116212241
 21
1001.087275416288
 31
0.0
 70
    32
 71
     5
 42
49.99999999999966
  3
STANDARD
100
AcDbAlignedDimension
 13
1637.764702887071
 23
976.0872754162883
 33
0.0
 14
1672.311554007707
 24
1026.087275416288
 34
0.0
 50
90.0
100
AcDbRotatedDimension
1001
ACAD
1000
DSTYLE
1002
{
1070
   287
1070
     5
1070
   287
1070
     5
1070
   287
1070
     5
1070
   287
1070
     5
1070
    41
1040
40.0
1070
    42
1040
40.0
1070
    43
1040
140.0
1070
    44
1040
20.0
1070
    73
1070
     0
1070
    74
1070
     0
1070
   140
1040
60.0
1070
   145
1040
1.0
1070
   172
1070
     1
1070
   271
1070
     0
1070
   272
1070
     0
1070
   275
1070
     1
1070
   279
1070
     2
1070
   340
1005
9E
1002
}
  0
DIMENSION
  5
699F
330
17
100
AcDbEntity
  8
SUNPOU
100
AcDbDimension
  2
*D284
 10
3977.96097767145
 20
2097.305049610059
 30
0.0
 11
4087.96097767145
 21
2157.305049610059
 31
0.0
 70
    32
 71
     5
 42
220.0
  3
STANDARD
100
AcDbAlignedDimension
 13
4197.96097767145
 23
1906.087275416288
 33
0.0
 14
3977.96097767145
 24
1906.087275416288
 34
0.0
100
AcDbRotatedDimension
1001
ACAD
1000
DSTYLE
1002
{
1070
    41
1040
40.0
1070
    42
1040
40.0
1070
    43
1040
140.0
1070
    44
1040
20.0
1070
    73
1070
     0
1070
    74
1070
     0
1070
   140
1040
60.0
1070
   145
1040
1.0
1070
   172
1070
     1
1070
   271
1070
     0
1070
   272
1070
     0
1070
   275
1070
     1
1070
   279
1070
     2
1070
   340
1005
9E
1002
}
  0
DIMENSION
  5
69A0
330
17
100
AcDbEntity
  8
SUNPOU
100
AcDbDimension
  2
*D285
 10
4120.96097767145
 20
2814.769519207624
 30
0.0
 11
4159.46097767145
 21
2864.904519207625
 31
0.0
 70
    32
 71
     5
 42
77.0
  3
STANDARD
100
AcDbAlignedDimension
 13
4197.96097767145
 23
2506.087275416288
 33
0.0
 14
4120.96097767145
 24
2506.087275416288
 34
0.0
100
AcDbRotatedDimension
1001
ACAD
1000
DSTYLE
1002
{
1070
    41
1040
40.0
1070
    42
1040
40.0
1070
    43
1040
140.0
1070
    44
1040
20.0
1070
    73
1070
     0
1070
    74
1070
     0
1070
   140
1040
60.0
1070
   145
1040
1.0
1070
   172
1070
     1
1070
   271
1070
     0
1070
   272
1070
     0
1070
   275
1070
     1
1070
   279
1070
     2
1070
   340
1005
9E
1002
}
  0
LINE
  5
6A1C
330
17
100
AcDbEntity
  8
1HASEN
100
AcDbLine
 10
3494.774944837609
 20
4201.317557114268
 30
0.0
 11
3503.255568923687
 21
4054.063084346932
 31
0.0
  0
LINE
  5
6A1D
330
17
100
AcDbEntity
  8
HASEN
100
AcDbLine
 10
3486.634014128582
 20
4143.989657553352
 30
0.0
 11
3492.368067372052
 21
4044.425642144033
 31
0.0
  0
LINE
  5
6A1E
330
17
100
AcDbEntity
  8
HASEN
100
AcDbLine
 10
3506.60092845922
 20
4145.139584556688
 30
0.0
 11
3512.334981702688
 21
4045.575569147368
 31
0.0
  0
LINE
  5
6A1F
330
17
100
AcDbEntity
  8
SUNPOU
100
AcDbLine
 10
3474.868485551238
 20
4159.566683913652
 30
0.0
 11
3475.73093080374
 21
4144.591498165674
 31
0.0
  0
LINE
  5
6A20
330
17
100
AcDbEntity
  8
SUNPOU
100
AcDbLine
 10
3514.802314212513
 20
4161.866537920322
 30
0.0
 11
3515.664759465015
 21
4146.891352172344
 31
0.0
  0
LINE
  5
6A21
330
17
100
AcDbEntity
  8
SUNPOU
100
AcDbLine
 10
3474.868485551238
 20
4159.566683913652
 30
0.0
 11
3514.802314212513
 21
4161.866537920322
 31
0.0
  0
LINE
  5
6A22
330
17
100
AcDbEntity
  8
HASEN
100
AcDbLine
 10
3492.368067372052
 20
4044.425642144033
 30
0.0
 11
3512.334981702688
 21
4045.575569147368
 31
0.0
  0
LINE
  5
6A23
330
17
100
AcDbEntity
  8
SUNPOU
100
AcDbLine
 10
3466.134050873237
 20
4142.809031397285
 30
0.0
 11
3526.034793865148
 21
4146.25881240729
 31
0.0
  0
LINE
  5
6A24
330
17
100
AcDbEntity
  8
HASEN
100
AcDbLine
 10
2492.289746768638
 20
4002.006161533806
 30
0.0
 11
2512.256661099274
 21
4003.156088537142
 31
0.0
  0
LINE
  5
6A25
330
17
100
AcDbEntity
  8
HASEN
100
AcDbLine
 10
2487.762327829423
 20
4083.870510289419
 30
0.0
 11
2492.477028543097
 21
4002.006161533806
 31
0.0
  0
LINE
  5
6A26
330
17
100
AcDbEntity
  8
SUNPOU
100
AcDbLine
 10
2476.916425411602
 20
4098.270732535729
 30
0.0
 11
2477.778870664104
 21
4083.295546787751
 31
0.0
  0
LINE
  5
6A27
330
17
100
AcDbEntity
  8
HASEN
100
AcDbLine
 10
2507.729242160059
 20
4085.020437292754
 30
0.0
 11
2512.443942873733
 21
4003.156088537142
 31
0.0
  0
LINE
  5
6A28
330
17
100
AcDbEntity
  8
SUNPOU
100
AcDbLine
 10
2516.850254072877
 20
4100.570586542399
 30
0.0
 11
2517.712699325379
 21
4085.595400794421
 31
0.0
  0
LINE
  5
6A29
330
17
100
AcDbEntity
  8
SUNPOU
100
AcDbLine
 10
2467.795413498785
 20
4082.720583286084
 30
0.0
 11
2527.696156490696
 21
4086.170364296089
 31
0.0
  0
LINE
  5
6A2A
330
17
100
AcDbEntity
  8
SUNPOU
100
AcDbLine
 10
2476.916425411602
 20
4098.270732535729
 30
0.0
 11
2516.850254072877
 21
4100.570586542399
 31
0.0
  0
LINE
  5
6A2B
330
17
100
AcDbEntity
  8
SUNPOU
100
AcDbLine
 10
2467.608131724326
 20
4082.720583286084
 30
0.0
 11
2468.010606175494
 21
4075.732163270361
 31
0.0
  0
LINE
  5
6A2C
330
17
100
AcDbEntity
  8
SUNPOU
100
AcDbLine
 10
3466.134050873237
 20
4142.809031397285
 30
0.0
 11
3466.651518024739
 21
4133.823919948499
 31
0.0
  0
LINE
  5
6A2D
330
17
100
AcDbEntity
  8
SUNPOU
100
AcDbLine
 10
3526.034793865148
 20
4146.25881240729
 30
0.0
 11
3526.55226101665
 21
4137.273700958503
 31
0.0
  0
LINE
  5
6A2E
330
17
100
AcDbEntity
  8
1HASEN
100
AcDbLine
 10
4129.720116680179
 20
4678.672764153802
 30
0.0
 11
3980.720418576988
 21
4691.280430916378
 31
0.0
  0
LINE
  5
6A2F
330
17
100
AcDbEntity
  8
HASEN
100
AcDbLine
 10
4128.876975795209
 20
4668.708371876894
 30
0.0
 11
4045.176080669186
 21
4675.790755310634
 31
0.0
  0
LINE
  5
6A30
330
17
100
AcDbEntity
  8
SUNPOU
100
AcDbLine
 10
4044.332939784217
 20
4665.826363033727
 30
0.0
 11
4029.386351368856
 21
4667.09107436118
 31
0.0
  0
LINE
  5
6A31
330
17
100
AcDbEntity
  8
HASEN
100
AcDbLine
 10
4130.563257565147
 20
4688.637156430709
 30
0.0
 11
4046.862362439124
 21
4695.719539864449
 31
0.0
  0
LINE
  5
6A32
330
17
100
AcDbEntity
  8
SUNPOU
100
AcDbLine
 10
4047.705503324094
 20
4705.683932141357
 30
0.0
 11
4032.758914908733
 21
4706.948643468811
 31
0.0
  0
LINE
  5
6A33
330
17
100
AcDbEntity
  8
HASEN
100
AcDbLine
 10
4128.87697579521
 20
4668.708371876894
 30
0.0
 11
4130.563257565147
 21
4688.637156430709
 31
0.0
  0
LINE
  5
6A34
330
17
100
AcDbEntity
  8
SUNPOU
100
AcDbLine
 10
4043.489798899249
 20
4655.86197075682
 30
0.0
 11
4048.548644209062
 21
4715.648324418265
 31
0.0
  0
LINE
  5
6A35
330
17
100
AcDbEntity
  8
SUNPOU
100
AcDbLine
 10
4029.386351368856
 20
4667.09107436118
 30
0.0
 11
4032.758914908733
 21
4706.948643468811
 31
0.0
  0
LINE
  5
6A36
330
17
100
AcDbEntity
  8
SEIHIN
100
AcDbLine
 10
4052.457751948465
 20
4655.103143960347
 30
0.0
 11
4043.489798899249
 21
4655.86197075682
 31
0.0
  0
LINE
  5
6A37
330
17
100
AcDbEntity
  8
SUNPOU
100
AcDbLine
 10
4057.51659725828
 20
4714.889497621792
 30
0.0
 11
4048.548644209062
 21
4715.648324418264
 31
0.0
  0
ENDSEC
  0
SECTION
  2
OBJECTS
  0
DICTIONARY
  5
C
330
0
100
AcDbDictionary
281
     1
  3
ACAD_CIP_PREVIOUS_PRODUCT_INFO
350
6A98
  3
ACAD_COLOR
350
5954
  3
ACAD_DETAILVIEWSTYLE
350
6A93
  3
ACAD_GROUP
350
D
  3
ACAD_LAYOUT
350
A65
  3
ACAD_MATERIAL
350
5953
  3
ACAD_MLEADERSTYLE
350
6A8F
  3
ACAD_MLINESTYLE
350
1A
  3
ACAD_PLOTSETTINGS
350
A66
  3
ACAD_PLOTSTYLENAME
350
A63
  3
ACAD_SCALELIST
350
6A7D
  3
ACAD_SECTIONVIEWSTYLE
350
6A91
  3
ACAD_TABLESTYLE
350
5955
  3
ACAD_VISUALSTYLE
350
6A64
  3
ACDB_RECOMPOSE_DATA
350
6B0D
  3
ACDBVARIABLEDICTIONARY
350
B3
  3
AcDsDecomposeData
350
6ABD
  0
DICTIONARY
  5
6B02
330
8
100
AcDbDictionary
280
     1
281
     1
  3
ACAD_XREC_ROUNDTRIP
360
6B03
  0
DICTIONARY
  5
6AAF
330
2
100
AcDbDictionary
280
     1
281
     1
  3
ACAD_LAYERSTATES
360
6AB0
  0
DICTIONARY
  5
6A9A
330
E
100
AcDbDictionary
280
     1
281
     1
  3
ADSK_XREC_LAYER_RECONCILED
360
6A9B
  0
DICTIONARY
  5
6A9C
330
A6
100
AcDbDictionary
280
     1
281
     1
  3
ADSK_XREC_LAYER_RECONCILED
360
6A9D
  0
DICTIONARY
  5
6A9E
330
A7
100
AcDbDictionary
280
     1
281
     1
  3
ADSK_XREC_LAYER_RECONCILED
360
6A9F
  0
DICTIONARY
  5
6AA0
330
A8
100
AcDbDictionary
280
     1
281
     1
  3
ADSK_XREC_LAYER_RECONCILED
360
6AA1
  0
DICTIONARY
  5
6AA2
330
A9
100
AcDbDictionary
280
     1
281
     1
  3
ADSK_XREC_LAYER_RECONCILED
360
6AA3
  0
DICTIONARY
  5
6AA4
330
AA
100
AcDbDictionary
280
     1
281
     1
  3
ADSK_XREC_LAYER_RECONCILED
360
6AA5
  0
DICTIONARY
  5
6AA6
330
AB
100
AcDbDictionary
280
     1
281
     1
  3
ADSK_XREC_LAYER_RECONCILED
360
6AA7
  0
DICTIONARY
  5
6AA8
330
AC
100
AcDbDictionary
280
     1
281
     1
  3
ADSK_XREC_LAYER_RECONCILED
360
6AA9
  0
DICTIONARY
  5
6AAA
330
AD
100
AcDbDictionary
280
     1
281
     1
  3
ADSK_XREC_LAYER_RECONCILED
360
6AAB
  0
DICTIONARY
  5
3E69
330
17
100
AcDbDictionary
280
     1
281
     1
  3
ACAD_SORTENTS
360
5967
  0
XRECORD
  5
6A98
102
{ACAD_REACTORS
330
C
102
}
330
C
100
AcDbXrecord
280
     1
300
ACD
300
2014
300
ACD_F_S
  0
DICTIONARY
  5
5954
102
{ACAD_REACTORS
330
C
102
}
330
C
100
AcDbDictionary
281
     1
  0
DICTIONARY
  5
6A93
102
{ACAD_REACTORS
330
C
102
}
330
C
100
AcDbDictionary
281
     1
  3
Imperial24
350
6A94
  0
DICTIONARY
  5
D
102
{ACAD_REACTORS
330
C
102
}
330
C
100
AcDbDictionary
281
     1
  0
DICTIONARY
  5
A65
102
{ACAD_REACTORS
330
C
102
}
330
C
100
AcDbDictionary
281
     1
  3
Model
350
A67
  3
ﾚｲｱｳﾄ1
350
A68
  0
DICTIONARY
  5
5953
102
{ACAD_REACTORS
330
C
102
}
330
C
100
AcDbDictionary
281
     1
  3
ByBlock
350
6A54
  3
ByLayer
350
6A4C
  3
Global
350
6A5C
  0
DICTIONARY
  5
6A8F
102
{ACAD_REACTORS
330
C
102
}
330
C
100
AcDbDictionary
281
     1
  3
Standard
350
6A90
  0
DICTIONARY
  5
1A
102
{ACAD_REACTORS
330
C
102
}
330
C
100
AcDbDictionary
281
     1
  3
STANDARD
350
1B
  0
DICTIONARY
  5
A66
102
{ACAD_REACTORS
330
C
102
}
330
C
100
AcDbDictionary
281
     1
  0
ACDBDICTIONARYWDFLT
  5
A63
102
{ACAD_REACTORS
330
C
102
}
330
C
100
AcDbDictionary
281
     1
  3
Normal
350
A64
100
AcDbDictionaryWithDefault
340
A64
  0
DICTIONARY
  5
6A7D
102
{ACAD_REACTORS
330
C
102
}
330
C
100
AcDbDictionary
281
     1
  3
A0
350
6A7E
  3
A1
350
6A7F
  3
A2
350
6A80
  3
A3
350
6A81
  3
A4
350
6A82
  3
A5
350
6A83
  3
A6
350
6A84
  3
A7
350
6A85
  3
A8
350
6A86
  3
A9
350
6A87
  3
B0
350
6A88
  3
B1
350
6A89
  3
B2
350
6A8A
  3
B3
350
6A8B
  3
B4
350
6A8C
  3
B5
350
6A8D
  3
B6
350
6A8E
  0
DICTIONARY
  5
6A91
102
{ACAD_REACTORS
330
C
102
}
330
C
100
AcDbDictionary
281
     1
  3
Imperial24
350
6A92
  0
DICTIONARY
  5
5955
102
{ACAD_REACTORS
330
C
102
}
330
C
100
AcDbDictionary
281
     1
  3
Standard
350
5956
  0
DICTIONARY
  5
6A64
102
{ACAD_REACTORS
330
C
102
}
330
C
100
AcDbDictionary
281
     1
  3
2dWireframe
350
6A6A
  3
Basic
350
6A69
  3
Brighten
350
6A70
  3
ColorChange
350
6A74
  3
Conceptual
350
6A6D
  3
Dim
350
6A6F
  3
EdgeColorOff
350
6A7C
  3
Facepattern
350
6A73
  3
Flat
350
6A65
  3
FlatWithEdges
350
6A66
  3
Gouraud
350
6A67
  3
GouraudWithEdges
350
6A68
  3
Hidden
350
6A6C
  3
JitterOff
350
6A7A
  3
Linepattern
350
6A72
  3
OverhangOff
350
6A7B
  3
Realistic
350
6A6E
  3
Shaded
350
6A79
  3
Shaded with edges
350
6A78
  3
Shades of Gray
350
6A75
  3
Sketchy
350
6A76
  3
Thicken
350
6A71
  3
Wireframe
350
6A6B
  3
X-Ray
350
6A77
  0
XRECORD
  5
6B0D
102
{ACAD_REACTORS
330
C
102
}
330
C
100
AcDbXrecord
280
     1
 90
        1
330
5956
  0
DICTIONARY
  5
B3
102
{ACAD_REACTORS
330
C
102
}
330
C
100
AcDbDictionary
281
     1
  3
CANNOSCALE
350
6AFD
  3
CMLEADERSTYLE
350
6AF9
  3
CTABLESTYLE
350
5964
  3
CVIEWDETAILSTYLE
350
6AFA
  3
CVIEWSECTIONSTYLE
350
6AFB
  3
DIMADEC
350
B4
  3
DIMASSOC
350
4333
  3
LAYEREVAL
350
6AFF
  3
LAYERNOTIFY
350
6B00
  3
LIGHTINGUNITS
350
6AFE
  3
MSLTSCALE
350
6AFC
  3
PROJECTNAME
350
6A4A
  3
XCLIPFRAME
350
6B01
  0
DICTIONARY
  5
6ABD
102
{ACAD_REACTORS
330
C
102
}
330
C
100
AcDbDictionary
281
     1
  3
AcDsRecords
350
6ABF
  3
AcDsSchemas
350
6ABE
1001
ACAD
1070
     2
  0
XRECORD
  5
6B03
102
{ACAD_REACTORS
330
6B02
102
}
330
6B02
100
AcDbXrecord
280
     1
102
VTR_0.000_0.000_1.000_1.000_VISUALSTYLE
340
6A6A
102
VTR_0.000_0.000_1.000_1.000_GRIDDISPLAY
 70
     3
102
VTR_0.000_0.000_1.000_1.000_GRIDMAJOR
 70
     5
102
VTR_0.000_0.000_1.000_1.000_DEFAULTLIGHTING
280
     1
102
VTR_0.000_0.000_1.000_1.000_DEFAULTLIGHTINGTYPE
 70
     1
102
VTR_0.000_0.000_1.000_1.000_BRIGHTNESS
141
0.0
102
VTR_0.000_0.000_1.000_1.000_CONTRAST
142
0.0
  0
DICTIONARY
  5
6AB0
102
{ACAD_REACTORS
330
6AAF
102
}
330
6AAF
100
AcDbDictionary
281
     1
  0
XRECORD
  5
6A9B
102
{ACAD_REACTORS
330
6A9A
102
}
330
6A9A
100
AcDbXrecord
280
     1
290
     1
  0
XRECORD
  5
6A9D
102
{ACAD_REACTORS
330
6A9C
102
}
330
6A9C
100
AcDbXrecord
280
     1
290
     1
  0
XRECORD
  5
6A9F
102
{ACAD_REACTORS
330
6A9E
102
}
330
6A9E
100
AcDbXrecord
280
     1
290
     1
  0
XRECORD
  5
6AA1
102
{ACAD_REACTORS
330
6AA0
102
}
330
6AA0
100
AcDbXrecord
280
     1
290
     1
  0
XRECORD
  5
6AA3
102
{ACAD_REACTORS
330
6AA2
102
}
330
6AA2
100
AcDbXrecord
280
     1
290
     1
  0
XRECORD
  5
6AA5
102
{ACAD_REACTORS
330
6AA4
102
}
330
6AA4
100
AcDbXrecord
280
     1
290
     1
  0
XRECORD
  5
6AA7
102
{ACAD_REACTORS
330
6AA6
102
}
330
6AA6
100
AcDbXrecord
280
     1
290
     1
  0
XRECORD
  5
6AA9
102
{ACAD_REACTORS
330
6AA8
102
}
330
6AA8
100
AcDbXrecord
280
     1
290
     1
  0
XRECORD
  5
6AAB
102
{ACAD_REACTORS
330
6AAA
102
}
330
6AAA
100
AcDbXrecord
280
     1
290
     1
  0
SORTENTSTABLE
  5
5967
102
{ACAD_REACTORS
330
3E69
102
}
330
3E69
100
AcDbSortentsTable
330
17
331
0
  5
939
331
6CB
  5
6CB
331
6CC
  5
6CC
331
6CD
  5
6CD
331
6CE
  5
6CE
331
6CF
  5
6CF
331
6D0
  5
6D0
331
6D1
  5
6D1
331
6D2
  5
6D2
331
6D3
  5
6D3
331
6D4
  5
6D4
331
6D5
  5
6D5
331
6D6
  5
6D6
331
6D7
  5
6D7
331
6D8
  5
6D8
331
6D9
  5
6D9
331
6DA
  5
6DA
331
6DB
  5
6DB
331
6DC
  5
6DC
331
6DD
  5
6DD
331
6DE
  5
6DE
331
6DF
  5
6DF
331
6E0
  5
6E0
331
6E1
  5
6E1
331
6E2
  5
6E2
331
6E3
  5
6E3
331
6E4
  5
6E4
331
6E5
  5
6E5
331
6E6
  5
6E6
331
6E7
  5
6E7
331
6E8
  5
6E8
331
6E9
  5
6E9
331
6EB
  5
6EB
331
6ED
  5
6ED
331
6F3
  5
6F3
331
6F4
  5
6F4
331
6F5
  5
6F5
331
6F6
  5
6F6
331
6F7
  5
6F7
331
6F8
  5
6F8
331
6F9
  5
6F9
331
6FA
  5
6FA
331
6FB
  5
6FB
331
6FC
  5
6FC
331
6FD
  5
6FD
331
6FE
  5
6FE
331
6FF
  5
6FF
331
700
  5
700
331
701
  5
701
331
702
  5
702
331
703
  5
703
331
704
  5
704
331
705
  5
705
331
73B
  5
73B
331
73C
  5
73C
331
73D
  5
73D
331
740
  5
740
331
741
  5
741
331
742
  5
742
331
745
  5
745
331
746
  5
746
331
747
  5
747
331
749
  5
749
331
785
  5
785
331
786
  5
786
331
787
  5
787
331
788
  5
788
331
789
  5
789
331
78A
  5
78A
331
78B
  5
78B
331
78C
  5
78C
331
78D
  5
78D
331
78E
  5
78E
331
78F
  5
78F
331
7D9
  5
7D9
331
7DF
  5
7DF
331
7E5
  5
7E5
331
7EB
  5
7EB
331
7F1
  5
7F1
331
7F7
  5
7F7
331
7FD
  5
7FD
331
7FE
  5
7FE
331
7FF
  5
7FF
331
800
  5
800
331
840
  5
840
331
843
  5
843
331
849
  5
849
331
84C
  5
84C
331
850
  5
850
331
859
  5
859
331
8DA
  5
8DA
331
8DB
  5
8DB
331
8DC
  5
8DC
331
8DD
  5
8DD
331
8DE
  5
8DE
331
8DF
  5
8DF
331
8E0
  5
8E0
331
8E1
  5
8E1
331
8E2
  5
8E2
331
8E3
  5
8E3
331
8E4
  5
8E4
331
8E5
  5
8E5
331
8E6
  5
8E6
331
8E7
  5
8E7
331
8EE
  5
8EE
331
8EF
  5
8EF
331
8F0
  5
8F0
331
8F8
  5
8F8
331
8F9
  5
8F9
331
91A
  5
91A
331
91D
  5
91D
331
91E
  5
91E
331
925
  5
925
331
926
  5
926
331
927
  5
927
331
92A
  5
92A
331
92B
  5
92B
331
92C
  5
92C
331
92D
  5
92D
331
92E
  5
92E
331
92F
  5
92F
331
930
  5
930
331
931
  5
931
331
932
  5
932
331
933
  5
933
331
934
  5
934
331
935
  5
935
331
936
  5
936
331
937
  5
937
331
938
  5
938
331
93A
  5
93A
331
93C
  5
93C
331
93D
  5
93D
331
93E
  5
93E
331
944
  5
944
331
945
  5
945
331
946
  5
946
331
947
  5
947
331
948
  5
948
331
949
  5
949
331
94A
  5
94A
331
94B
  5
94B
331
94C
  5
94C
331
94D
  5
94D
331
94E
  5
94E
331
94F
  5
94F
331
950
  5
950
331
951
  5
951
331
952
  5
952
331
953
  5
953
331
954
  5
954
331
955
  5
955
331
956
  5
956
331
957
  5
957
331
968
  5
968
331
96C
  5
96C
331
96D
  5
96D
331
9EC
  5
9EC
331
9F0
  5
9F0
331
9F8
  5
9F8
331
9FB
  5
9FB
331
A02
  5
A02
331
A07
  5
A07
331
A0C
  5
A0C
331
A0D
  5
A0D
331
A0E
  5
A0E
331
A0F
  5
A0F
331
A10
  5
A10
331
A16
  5
A16
331
A17
  5
A17
331
A18
  5
A18
331
A19
  5
A19
331
A1A
  5
A1A
331
A1C
  5
A1C
331
A1D
  5
A1D
331
A1E
  5
A1E
331
A1F
  5
A1F
331
A20
  5
A20
331
A21
  5
A21
331
A22
  5
A22
331
A23
  5
A23
331
A24
  5
A24
331
A25
  5
A25
331
A26
  5
A26
331
A27
  5
A27
331
A28
  5
A28
331
A2A
  5
A2A
331
A2B
  5
A2B
331
A2C
  5
A2C
331
A30
  5
A30
331
A31
  5
A31
331
A32
  5
A32
331
A33
  5
A33
331
A34
  5
A34
331
A35
  5
A35
331
A36
  5
A36
331
A37
  5
A37
331
A38
  5
A38
331
A39
  5
A39
331
A3A
  5
A3A
331
A3B
  5
A3B
331
A3C
  5
A3C
331
A3D
  5
A3D
331
A3E
  5
A3E
331
A3F
  5
A3F
331
A40
  5
A40
331
A42
  5
A42
331
A4C
  5
A4C
331
A54
  5
A54
331
A6E
  5
A6E
331
A6F
  5
A6F
331
A70
  5
A70
331
A71
  5
A71
331
A72
  5
A72
331
A73
  5
A73
331
A74
  5
A74
331
A75
  5
A75
331
A76
  5
A76
331
A77
  5
A77
331
A78
  5
A78
331
A79
  5
A79
331
A7B
  5
A7B
331
A7C
  5
A7C
331
A7D
  5
A7D
331
A82
  5
A82
331
A91
  5
A91
331
A92
  5
A92
331
A96
  5
A96
331
A97
  5
A97
331
AA9
  5
AA9
331
AAA
  5
AAA
331
AAB
  5
AAB
331
AAC
  5
AAC
331
AAD
  5
AAD
331
AAE
  5
AAE
331
AAF
  5
AAF
331
AB0
  5
AB0
331
AB3
  5
AB3
331
AB4
  5
AB4
331
AB5
  5
AB5
331
AB6
  5
AB6
331
AB7
  5
AB7
331
AB8
  5
AB8
331
AB9
  5
AB9
331
ABA
  5
ABA
331
ABB
  5
ABB
331
ABD
  5
ABD
331
ABE
  5
ABE
331
ABF
  5
ABF
331
AC0
  5
AC0
331
AC1
  5
AC1
331
AC2
  5
AC2
331
AC3
  5
AC3
331
127C
  5
127C
331
127D
  5
127D
331
12A2
  5
12A2
331
12E0
  5
12E0
331
1A49
  5
1A49
331
1A4A
  5
1A4A
331
1A4B
  5
1A4B
331
1A4C
  5
1A4C
331
1A4F
  5
1A4F
331
1A50
  5
1A50
331
1A51
  5
1A51
331
1A52
  5
1A52
331
1A53
  5
1A53
331
1A54
  5
1A54
331
1A57
  5
1A57
331
1A58
  5
1A58
331
1A59
  5
1A59
331
1A64
  5
1A64
331
1A65
  5
1A65
331
1A66
  5
1A66
331
1A67
  5
1A67
331
1A68
  5
1A68
331
1A69
  5
1A69
331
1A6A
  5
1A6A
331
1A6B
  5
1A6B
331
1A6C
  5
1A6C
331
1A6D
  5
1A6D
331
1A6E
  5
1A6E
331
1A6F
  5
1A6F
331
1A70
  5
1A70
331
1A71
  5
1A71
331
1A72
  5
1A72
331
1A73
  5
1A73
331
1A74
  5
1A74
331
1A75
  5
1A75
331
1A7A
  5
1A7A
331
1A7B
  5
1A7B
331
1A7C
  5
1A7C
331
1A80
  5
1A80
331
1A81
  5
1A81
331
1A82
  5
1A82
331
1C99
  5
1C99
331
1C9A
  5
1C9A
331
1C9B
  5
1C9B
331
1C9C
  5
1C9C
331
1C9D
  5
1C9D
331
1C9E
  5
1C9E
331
1C9F
  5
1C9F
331
1CA0
  5
1CA0
331
1CA1
  5
1CA1
331
1CA2
  5
1CA2
331
1CA3
  5
1CA3
331
1CA4
  5
1CA4
331
1CA5
  5
1CA5
331
1CA6
  5
1CA6
331
1CA7
  5
1CA7
331
1CA8
  5
1CA8
331
1CA9
  5
1CA9
331
1CAA
  5
1CAA
331
1CAB
  5
1CAB
331
1CAC
  5
1CAC
331
1CAD
  5
1CAD
331
1CAE
  5
1CAE
331
1CAF
  5
1CAF
331
1CB0
  5
1CB0
331
1CB1
  5
1CB1
331
1CB2
  5
1CB2
331
1CB3
  5
1CB3
331
1CB8
  5
1CB8
331
1CB9
  5
1CB9
331
1CBA
  5
1CBA
331
1CBB
  5
1CBB
331
1CBC
  5
1CBC
331
1CBD
  5
1CBD
331
1CBE
  5
1CBE
331
1CBF
  5
1CBF
331
1CC0
  5
1CC0
331
1CC1
  5
1CC1
331
1CC2
  5
1CC2
331
1CC3
  5
1CC3
331
1CC4
  5
1CC4
331
1CC5
  5
1CC5
331
1CC6
  5
1CC6
331
1CC7
  5
1CC7
331
1CC8
  5
1CC8
331
1CC9
  5
1CC9
331
1CCA
  5
1CCA
331
1CCB
  5
1CCB
331
1CCC
  5
1CCC
331
1CCD
  5
1CCD
331
1CCE
  5
1CCE
331
1CCF
  5
1CCF
331
1CD0
  5
1CD0
331
1CD1
  5
1CD1
331
252D
  5
252D
331
2538
  5
2538
331
2539
  5
2539
331
253B
  5
253B
331
253C
  5
253C
331
4956
  5
4956
331
4957
  5
4957
331
4958
  5
4958
331
4959
  5
4959
331
4F13
  5
4F13
  0
ACAD_PROXY_OBJECT
  5
6A94
102
{ACAD_REACTORS
330
6A93
102
}
102
{ACAD_XDICTIONARY
360
6AF7
102
}
330
6A93
100
AcDbProxyObject
 90
      499
 91
      528
 95
  3276827
 70
     0
 93
     2314
310
9207000000180005C0F42F5A8DC671F815AF46E07A15AE7E07000000180005C0F42F5A8DC671FA3300000018001000000180005C0F42F5A8DC671FA02000000000000741FA028CC00000060002330000001800000852480368038003280390034803080360019001A004AD12801E002E00208031802B003080390010002B00
310
348032803B802A003C803800328010002E0033001000110012803A003180188011001F001280100012801E002E00208031802B003080390010002B00348032803B80220032803A00308034803600248032001F0012802E00280029802180208026002280100012801E002E00208031802B003080390010002B00348032803B
310
802980318030803600328010002E0033001000110012803980370011001F0012802B035E
340
F
340
0
340
13
340
F
340
13
340
13
 94
        0
  0
LAYOUT
  5
A67
102
{ACAD_REACTORS
330
A65
102
}
102
{ACAD_XDICTIONARY
360
6AC0
102
}
330
A65
100
AcDbPlotSettings
  1

  2
DocuWorks Printer
  4
A3
  6

 40
5.408083438873291
 41
5.408078670501709
 42
5.4080810546875
 43
5.4080810546875
 44
297.0106506347656
 45
419.9889831542969
 46
7.467019885310407
 47
17.1630117101123
 48
222.1824433844304
 49
-6.858212341790932
140
11467.58644365092
141
8130.95517877573
142
1.0
143
30.0
 70
 11940
 72
     1
 73
     1
 74
     4
  7
acad.ctb
 75
     0
 76
     0
 77
     2
 78
   300
147
0.0351684749190228
148
-222.1824433844304
149
6.858212341790932
100
AcDbLayout
  1
Model
 70
     1
 71
     0
 10
0.0
 20
0.0
 11
12.0
 21
9.0
 12
0.0
 22
0.0
 32
0.0
 14
0.0
 24
0.0
 34
0.0
 15
0.0
 25
0.0
 35
0.0
146
0.0
 13
0.0
 23
0.0
 33
0.0
 16
1.0
 26
0.0
 36
0.0
 17
0.0
 27
1.0
 37
0.0
 76
     0
330
17
331
6A44
1001
ACAD_PSEXT
1000
DocuWorks Printer
1000
DocuWorks Printer Driver
1000
DocuWorks Port
1000

1070
     0
  0
LAYOUT
  5
A68
102
{ACAD_REACTORS
330
A65
102
}
330
A65
100
AcDbPlotSettings
  1

  2
C:\PROGRAM FILES\MDT6\plotters\RICOH SP9II RPDL.pc3
  4

  6

 40
0.0
 41
0.0
 42
0.0
 43
0.0
 44
0.0
 45
0.0
 46
0.0
 47
0.0
 48
0.0
 49
0.0
140
0.0
141
0.0
142
1.0
143
1.0
 70
   688
 72
     0
 73
     0
 74
     5
  7
acad.ctb
 75
    16
 76
     0
 77
     2
 78
   300
147
1.0
148
0.0
149
0.0
100
AcDbLayout
  1
ﾚｲｱｳﾄ1
 70
     0
 71
     1
 10
0.0
 20
0.0
 11
12.0
 21
9.0
 12
0.0
 22
0.0
 32
0.0
 14
1.000000000000000E+20
 24
1.000000000000000E+20
 34
1.000000000000000E+20
 15
-1.000000000000000E+20
 25
-1.000000000000000E+20
 35
-1.000000000000000E+20
146
0.0
 13
0.0
 23
0.0
 33
0.0
 16
1.0
 26
0.0
 36
0.0
 17
0.0
 27
1.0
 37
0.0
 76
     0
330
14
  0
MATERIAL
  5
6A54
102
{ACAD_REACTORS
330
5953
102
}
102
{ACAD_XDICTIONARY
360
6B04
102
}
330
5953
100
AcDbMaterial
  1
ByBlock
 72
     0
 73
     2
 43
0.0208333333333333
 43
0.0
 43
0.0
 43
0.0
 43
0.0
 43
0.0208333333333333
 43
0.0
 43
0.0
 43
0.0
 43
0.0
 43
1.0
 43
0.0
 43
0.0
 43
0.0
 43
0.0
 43
1.0
 77
     0
 78
     2
 47
0.0208333333333333
 47
0.0
 47
0.0
 47
0.0
 47
0.0
 47
0.0208333333333333
 47
0.0
 47
0.0
 47
0.0
 47
0.0
 47
1.0
 47
0.0
 47
0.0
 47
0.0
 47
0.0
 47
1.0
171
     0
172
     2
 49
0.0208333333333333
 49
0.0
 49
0.0
 49
0.0
 49
0.0
 49
0.0208333333333333
 49
0.0
 49
0.0
 49
0.0
 49
0.0
 49
1.0
 49
0.0
 49
0.0
 49
0.0
 49
0.0
 49
1.0
175
     0
176
     2
142
0.0208333333333333
142
0.0
142
0.0
142
0.0
142
0.0
142
0.0208333333333333
142
0.0
142
0.0
142
0.0
142
0.0
142
1.0
142
0.0
142
0.0
142
0.0
142
0.0
142
1.0
179
     0
270
     2
144
0.0208333333333333
144
0.0
144
0.0
144
0.0
144
0.0
144
0.0208333333333333
144
0.0
144
0.0
144
0.0
144
0.0
144
1.0
144
0.0
144
0.0
144
0.0
144
0.0
144
1.0
274
     2
147
0.0208333333333333
147
0.0
147
0.0
147
0.0
147
0.0
147
0.0208333333333333
147
0.0
147
0.0
147
0.0
147
0.0
147
1.0
147
0.0
147
0.0
147
0.0
147
0.0
147
1.0
  0
MATERIAL
  5
6A4C
102
{ACAD_REACTORS
330
5953
102
}
102
{ACAD_XDICTIONARY
360
6B06
102
}
330
5953
100
AcDbMaterial
  1
ByLayer
 72
     0
 73
     2
 43
0.0208333333333333
 43
0.0
 43
0.0
 43
0.0
 43
0.0
 43
0.0208333333333333
 43
0.0
 43
0.0
 43
0.0
 43
0.0
 43
1.0
 43
0.0
 43
0.0
 43
0.0
 43
0.0
 43
1.0
 77
     0
 78
     2
 47
0.0208333333333333
 47
0.0
 47
0.0
 47
0.0
 47
0.0
 47
0.0208333333333333
 47
0.0
 47
0.0
 47
0.0
 47
0.0
 47
1.0
 47
0.0
 47
0.0
 47
0.0
 47
0.0
 47
1.0
171
     0
172
     2
 49
0.0208333333333333
 49
0.0
 49
0.0
 49
0.0
 49
0.0
 49
0.0208333333333333
 49
0.0
 49
0.0
 49
0.0
 49
0.0
 49
1.0
 49
0.0
 49
0.0
 49
0.0
 49
0.0
 49
1.0
175
     0
176
     2
142
0.0208333333333333
142
0.0
142
0.0
142
0.0
142
0.0
142
0.0208333333333333
142
0.0
142
0.0
142
0.0
142
0.0
142
1.0
142
0.0
142
0.0
142
0.0
142
0.0
142
1.0
179
     0
270
     2
144
0.0208333333333333
144
0.0
144
0.0
144
0.0
144
0.0
144
0.0208333333333333
144
0.0
144
0.0
144
0.0
144
0.0
144
1.0
144
0.0
144
0.0
144
0.0
144
0.0
144
1.0
274
     2
147
0.0208333333333333
147
0.0
147
0.0
147
0.0
147
0.0
147
0.0208333333333333
147
0.0
147
0.0
147
0.0
147
0.0
147
1.0
147
0.0
147
0.0
147
0.0
147
0.0
147
1.0
  0
MATERIAL
  5
6A5C
102
{ACAD_REACTORS
330
5953
102
}
102
{ACAD_XDICTIONARY
360
6B08
102
}
330
5953
100
AcDbMaterial
  1
Global
 72
     0
 73
     2
 43
0.0208333333333333
 43
0.0
 43
0.0
 43
0.0
 43
0.0
 43
0.0208333333333333
 43
0.0
 43
0.0
 43
0.0
 43
0.0
 43
1.0
 43
0.0
 43
0.0
 43
0.0
 43
0.0
 43
1.0
 77
     0
 78
     2
 47
0.0208333333333333
 47
0.0
 47
0.0
 47
0.0
 47
0.0
 47
0.0208333333333333
 47
0.0
 47
0.0
 47
0.0
 47
0.0
 47
1.0
 47
0.0
 47
0.0
 47
0.0
 47
0.0
 47
1.0
171
     0
172
     2
 49
0.0208333333333333
 49
0.0
 49
0.0
 49
0.0
 49
0.0
 49
0.0208333333333333
 49
0.0
 49
0.0
 49
0.0
 49
0.0
 49
1.0
 49
0.0
 49
0.0
 49
0.0
 49
0.0
 49
1.0
175
     0
176
     2
142
0.0208333333333333
142
0.0
142
0.0
142
0.0
142
0.0
142
0.0208333333333333
142
0.0
142
0.0
142
0.0
142
0.0
142
1.0
142
0.0
142
0.0
142
0.0
142
0.0
142
1.0
179
     0
270
     2
144
0.0208333333333333
144
0.0
144
0.0
144
0.0
144
0.0
144
0.0208333333333333
144
0.0
144
0.0
144
0.0
144
0.0
144
1.0
144
0.0
144
0.0
144
0.0
144
0.0
144
1.0
274
     2
147
0.0208333333333333
147
0.0
147
0.0
147
0.0
147
0.0
147
0.0208333333333333
147
0.0
147
0.0
147
0.0
147
0.0
147
1.0
147
0.0
147
0.0
147
0.0
147
0.0
147
1.0
  0
MLEADERSTYLE
  5
6A90
102
{ACAD_REACTORS
330
6A8F
102
}
330
6A8F
100
AcDbMLeaderStyle
170
     2
171
     1
172
     0
 90
        2
 40
0.0
 41
0.0
173
     1
 91
-1056964608
340
11
 92
       -2
290
     1
 42
0.09
291
     1
 43
0.36
  3
Standard
341
0
 44
0.18
300

342
F
174
     1
178
     6
175
     1
176
     0
 93
-1056964608
 45
0.18
292
     0
297
     0
 46
0.18
343
0
 94
-1056964608
 47
1.0
 49
1.0
140
1.0
293
     1
141
0.0
294
     1
177
     0
142
1.0
295
     0
296
     0
143
0.125
1001
ACAD_MLEADERVER
1070
     2
  0
MLINESTYLE
  5
1B
102
{ACAD_REACTORS
330
1A
102
}
330
1A
100
AcDbMlineStyle
  2
STANDARD
 70
     0
  3

 62
   256
 51
90.0
 52
90.0
 71
     2
 49
0.5
 62
   256
  6
BYLAYER
 49
-0.5
 62
   256
  6
BYLAYER
  0
ACDBPLACEHOLDER
  5
A64
102
{ACAD_REACTORS
330
A63
102
}
330
A63
  0
SCALE
  5
6A7E
102
{ACAD_REACTORS
330
6A7D
102
}
330
6A7D
100
AcDbScale
 70
     0
300
1:1
140
1.0
141
1.0
290
     1
  0
SCALE
  5
6A7F
102
{ACAD_REACTORS
330
6A7D
102
}
330
6A7D
100
AcDbScale
 70
     0
300
1/128" = 1'-0"
140
0.0078125
141
12.0
290
     0
  0
SCALE
  5
6A80
102
{ACAD_REACTORS
330
6A7D
102
}
330
6A7D
100
AcDbScale
 70
     0
300
1/64" = 1'-0"
140
0.015625
141
12.0
290
     0
  0
SCALE
  5
6A81
102
{ACAD_REACTORS
330
6A7D
102
}
330
6A7D
100
AcDbScale
 70
     0
300
1/32" = 1'-0"
140
0.03125
141
12.0
290
     0
  0
SCALE
  5
6A82
102
{ACAD_REACTORS
330
6A7D
102
}
330
6A7D
100
AcDbScale
 70
     0
300
1/16" = 1'-0"
140
0.0625
141
12.0
290
     0
  0
SCALE
  5
6A83
102
{ACAD_REACTORS
330
6A7D
102
}
330
6A7D
100
AcDbScale
 70
     0
300
3/32" = 1'-0"
140
0.09375
141
12.0
290
     0
  0
SCALE
  5
6A84
102
{ACAD_REACTORS
330
6A7D
102
}
330
6A7D
100
AcDbScale
 70
     0
300
1/8" = 1'-0"
140
0.125
141
12.0
290
     0
  0
SCALE
  5
6A85
102
{ACAD_REACTORS
330
6A7D
102
}
330
6A7D
100
AcDbScale
 70
     0
300
3/16" = 1'-0"
140
0.1875
141
12.0
290
     0
  0
SCALE
  5
6A86
102
{ACAD_REACTORS
330
6A7D
102
}
330
6A7D
100
AcDbScale
 70
     0
300
1/4" = 1'-0"
140
0.25
141
12.0
290
     0
  0
SCALE
  5
6A87
102
{ACAD_REACTORS
330
6A7D
102
}
330
6A7D
100
AcDbScale
 70
     0
300
3/8" = 1'-0"
140
0.375
141
12.0
290
     0
  0
SCALE
  5
6A88
102
{ACAD_REACTORS
330
6A7D
102
}
330
6A7D
100
AcDbScale
 70
     0
300
1/2" = 1'-0"
140
0.5
141
12.0
290
     0
  0
SCALE
  5
6A89
102
{ACAD_REACTORS
330
6A7D
102
}
330
6A7D
100
AcDbScale
 70
     0
300
3/4" = 1'-0"
140
0.75
141
12.0
290
     0
  0
SCALE
  5
6A8A
102
{ACAD_REACTORS
330
6A7D
102
}
330
6A7D
100
AcDbScale
 70
     0
300
1" = 1'-0"
140
1.0
141
12.0
290
     0
  0
SCALE
  5
6A8B
102
{ACAD_REACTORS
330
6A7D
102
}
330
6A7D
100
AcDbScale
 70
     0
300
1-1/2" = 1'-0"
140
1.5
141
12.0
290
     0
  0
SCALE
  5
6A8C
102
{ACAD_REACTORS
330
6A7D
102
}
330
6A7D
100
AcDbScale
 70
     0
300
3" = 1'-0"
140
3.0
141
12.0
290
     0
  0
SCALE
  5
6A8D
102
{ACAD_REACTORS
330
6A7D
102
}
330
6A7D
100
AcDbScale
 70
     0
300
6" = 1'-0"
140
6.0
141
12.0
290
     0
  0
SCALE
  5
6A8E
102
{ACAD_REACTORS
330
6A7D
102
}
330
6A7D
100
AcDbScale
 70
     0
300
1'-0" = 1'-0"
140
12.0
141
12.0
290
     0
  0
ACAD_PROXY_OBJECT
  5
6A92
102
{ACAD_REACTORS
330
6A91
102
}
102
{ACAD_XDICTIONARY
360
6AF5
102
}
330
6A91
100
AcDbProxyObject
 90
      499
 91
      527
 95
  3276827
 70
     0
 93
     3814
310
929D000000180005C0F42F5A8DC671FC00000060001703D0BD6A3719C7E5C0F42F5A8DC6F1FA330000001800099400000060001703D0BD6A3719C7E5C0F42F5A8DC671FC00000060001703D0BD6A3719C7E808000000000001D07E80C0000006000400000064003081815AF46E07A158E7E80C8340C16A22A7D90FC9F8CAE6
310
5A70A583A07E1FE81C635378FA1F8CAE65A70A583A17E7944A7F127A97E9FA149200DA00E000CA00E400D200C200D80064006800882480160010002780160010002880160010002980160010002C00160010002D002F84A007800B8008200C600AC00C200E4004000AC00D200CA00EE00A800F200E000CA004000B800CC004
310
00044004A00E800C600620044007C004A0040004A007800B8008200C600AC00C200E4004000AC00D200CA00EE00A600CA00C600E800D200DE00DC00A600E800C200E400E8009200C8007C004A005A004A007800B8008200C600AC00C200E4004000AC00D200CA00EE00A600CA00C600E800D200DE00DC008A00DC00C800920
310
0C8007C004A00B800A000A6008600820098008A0040004A007800B8008200C600AC00C200E4004000AC00D200CA00EE00A600C600C200D800CA004000B800CC00400044004A00E600DC0044007C004A00832080270029802480198018807404C
340
F
340
0
340
0
340
13
340
13
340
F
 94
        0
  0
TABLESTYLE
  5
5956
102
{ACAD_REACTORS
330
5955
102
}
102
{ACAD_XDICTIONARY
360
6B0A
102
}
330
5955
100
AcDbTableStyle
  3
Standard
 70
     0
 71
     0
 40
0.06
 41
0.06
280
     0
281
     0
  7
STANDARD
140
0.18
170
     2
 62
     0
 63
   257
283
     0
274
    -2
284
     1
 64
     0
275
    -2
285
     1
 65
     0
276
    -2
286
     1
 66
     0
277
    -2
287
     1
 67
     0
278
    -2
288
     1
 68
     0
279
    -2
289
     1
 69
     0
  7
STANDARD
140
0.25
170
     5
 62
     0
 63
   257
283
     0
274
    -2
284
     1
 64
     0
275
    -2
285
     1
 65
     0
276
    -2
286
     1
 66
     0
277
    -2
287
     1
 67
     0
278
    -2
288
     1
 68
     0
279
    -2
289
     1
 69
     0
  7
STANDARD
140
0.18
170
     5
 62
     0
 63
   257
283
     0
274
    -2
284
     1
 64
     0
275
    -2
285
     1
 65
     0
276
    -2
286
     1
 66
     0
277
    -2
287
     1
 67
     0
278
    -2
288
     1
 68
     0
279
    -2
289
     1
 69
     0
  0
VISUALSTYLE
  5
6A6A
102
{ACAD_REACTORS
330
6A64
102
}
102
{ACAD_XDICTIONARY
360
6B0E
102
}
330
6A64
100
AcDbVisualStyle
  2
2dWireframe
 70
     4
 71
     0
 72
     2
 73
     0
 90
        0
 40
-0.6
 41
-30.0
 62
     5
 63
     7
421
 16777215
 74
     1
 91
        4
 64
     7
 65
   257
 75
     1
175
     1
 42
1.0
 92
        0
 66
   257
 43
1.0
 76
     1
 77
     6
 78
     2
 67
     7
 79
     5
170
     0
171
     0
290
     0
174
     0
 93
        1
 44
0.0
173
     0
291
     0
 45
0.0
1001
ACAD
1000
AcDbSavedByObjectVersion
1070
     0
  0
VISUALSTYLE
  5
6A69
102
{ACAD_REACTORS
330
6A64
102
}
102
{ACAD_XDICTIONARY
360
6B10
102
}
330
6A64
100
AcDbVisualStyle
  2
Basic
 70
     7
 71
     1
 72
     0
 73
     1
 90
        0
 40
-0.6
 41
-30.0
 62
     5
 63
     7
421
 16777215
 74
     0
 91
        4
 64
     7
 65
   257
 75
     1
175
     1
 42
1.0
 92
        8
 66
     7
 43
1.0
 76
     1
 77
     6
 78
     2
 67
     7
 79
     5
170
     0
171
     0
290
     0
174
     0
 93
        1
 44
0.0
173
     0
291
     1
 45
0.0
1001
ACAD
1000
AcDbSavedByObjectVersion
1070
     0
  0
VISUALSTYLE
  5
6A70
102
{ACAD_REACTORS
330
6A64
102
}
102
{ACAD_XDICTIONARY
360
6B12
102
}
330
6A64
100
AcDbVisualStyle
  2
Brighten
 70
    12
 71
     2
 72
     2
 73
     0
 90
        0
 40
-0.6
 41
-30.0
 62
     5
 63
     7
421
 16777215
 74
     1
 91
        4
 64
     7
 65
   257
 75
     1
175
     1
 42
1.0
 92
        8
 66
     7
 43
1.0
 76
     1
 77
     6
 78
     2
 67
     7
 79
     5
170
     0
171
     0
290
     0
174
     0
 93
        1
 44
50.0
173
     0
291
     1
 45
0.0
1001
ACAD
1000
AcDbSavedByObjectVersion
1070
     0
  0
VISUALSTYLE
  5
6A74
102
{ACAD_REACTORS
330
6A64
102
}
102
{ACAD_XDICTIONARY
360
6B14
102
}
330
6A64
100
AcDbVisualStyle
  2
ColorChange
 70
    16
 71
     2
 72
     2
 73
     3
 90
        0
 40
-0.6
 41
-30.0
 62
     5
 63
     8
421
  8421504
 74
     1
 91
        4
 64
     7
 65
   257
 75
     1
175
     1
 42
1.0
 92
        8
 66
     8
424
  8421504
 43
1.0
 76
     1
 77
     6
 78
     2
 67
     7
 79
     5
170
     0
171
     0
290
     0
174
     0
 93
        1
 44
0.0
173
     0
291
     1
 45
0.0
1001
ACAD
1000
AcDbSavedByObjectVersion
1070
     0
  0
VISUALSTYLE
  5
6A6D
102
{ACAD_REACTORS
330
6A64
102
}
102
{ACAD_XDICTIONARY
360
6B16
102
}
330
6A64
100
AcDbVisualStyle
  2
Conceptual
 70
     9
 71
     3
 72
     2
 73
     0
 90
        0
 40
-0.6
 41
-30.0
 62
     5
 63
     7
421
 16777215
 74
     2
 91
        2
 64
     7
 65
   257
 75
     1
175
     1
 42
179.0
 92
        8
 66
     7
 43
1.0
 76
     1
 77
     6
 78
     2
 67
     7
 79
     3
170
     0
171
     0
290
     0
174
     0
 93
        1
 44
0.0
173
     0
291
     0
 45
0.0
1001
ACAD
1000
AcDbSavedByObjectVersion
1070
     0
  0
VISUALSTYLE
  5
6A6F
102
{ACAD_REACTORS
330
6A64
102
}
102
{ACAD_XDICTIONARY
360
6B18
102
}
330
6A64
100
AcDbVisualStyle
  2
Dim
 70
    11
 71
     2
 72
     2
 73
     0
 90
        0
 40
-0.6
 41
-30.0
 62
     5
 63
     7
421
 16777215
 74
     1
 91
        4
 64
     7
 65
   257
 75
     1
175
     1
 42
1.0
 92
        8
 66
     7
 43
1.0
 76
     1
 77
     6
 78
     2
 67
     7
 79
     5
170
     0
171
     0
290
     0
174
     0
 93
        1
 44
-50.0
173
     0
291
     1
 45
0.0
1001
ACAD
1000
AcDbSavedByObjectVersion
1070
     0
  0
VISUALSTYLE
  5
6A7C
102
{ACAD_REACTORS
330
6A64
102
}
102
{ACAD_XDICTIONARY
360
6B1A
102
}
330
6A64
100
AcDbVisualStyle
  2
EdgeColorOff
 70
    22
 71
     2
 72
     2
 73
     0
 90
        0
 40
-0.6
 41
-30.0
 62
     5
 63
     7
421
 16777215
 74
     1
 91
        4
 64
     7
 65
   257
 75
     1
175
     1
 42
1.0
 92
        8
 66
     7
 43
1.0
 76
     1
 77
     6
 78
     2
 67
     7
 79
     5
170
     0
171
     0
290
     0
174
     0
 93
        1
 44
0.0
173
     0
291
     1
 45
0.0
1001
ACAD
1000
AcDbSavedByObjectVersion
1070
     0
  0
VISUALSTYLE
  5
6A73
102
{ACAD_REACTORS
330
6A64
102
}
102
{ACAD_XDICTIONARY
360
6B1C
102
}
330
6A64
100
AcDbVisualStyle
  2
Facepattern
 70
    15
 71
     2
 72
     2
 73
     0
 90
        0
 40
-0.6
 41
-30.0
 62
     5
 63
     7
421
 16777215
 74
     1
 91
        4
 64
     7
 65
   257
 75
     1
175
     1
 42
1.0
 92
        8
 66
     7
 43
1.0
 76
     1
 77
     6
 78
     2
 67
     7
 79
     5
170
     0
171
     0
290
     0
174
     0
 93
        1
 44
0.0
173
     0
291
     1
 45
0.0
1001
ACAD
1000
AcDbSavedByObjectVersion
1070
     0
  0
VISUALSTYLE
  5
6A65
102
{ACAD_REACTORS
330
6A64
102
}
102
{ACAD_XDICTIONARY
360
6B1E
102
}
330
6A64
100
AcDbVisualStyle
  2
Flat
 70
     0
 71
     2
 72
     1
 73
     1
 90
        2
 40
-0.6
 41
30.0
 62
     5
 63
     7
421
 16777215
 74
     0
 91
        0
 64
     7
 65
   257
 75
     1
175
     1
 42
1.0
 92
        8
 66
     7
 43
1.0
 76
     1
 77
     6
 78
     2
 67
     7
 79
     5
170
     0
171
     0
290
     0
174
     0
 93
       13
 44
0.0
173
     0
291
     1
 45
0.0
1001
ACAD
1000
AcDbSavedByObjectVersion
1070
     0
  0
VISUALSTYLE
  5
6A66
102
{ACAD_REACTORS
330
6A64
102
}
102
{ACAD_XDICTIONARY
360
6B20
102
}
330
6A64
100
AcDbVisualStyle
  2
FlatWithEdges
 70
     1
 71
     2
 72
     1
 73
     1
 90
        2
 40
-0.6
 41
30.0
 62
     5
 63
     7
421
 16777215
 74
     1
 91
        0
 64
     7
 65
   257
 75
     1
175
     1
 42
1.0
 92
        0
 66
   257
 43
1.0
 76
     1
 77
     6
 78
     2
 67
     7
 79
     5
170
     0
171
     0
290
     0
174
     0
 93
       13
 44
0.0
173
     0
291
     1
 45
0.0
1001
ACAD
1000
AcDbSavedByObjectVersion
1070
     0
  0
VISUALSTYLE
  5
6A67
102
{ACAD_REACTORS
330
6A64
102
}
102
{ACAD_XDICTIONARY
360
6B22
102
}
330
6A64
100
AcDbVisualStyle
  2
Gouraud
 70
     2
 71
     2
 72
     2
 73
     1
 90
        2
 40
-0.6
 41
30.0
 62
     5
 63
     7
421
 16777215
 74
     0
 91
        0
 64
     7
 65
   257
 75
     1
175
     1
 42
1.0
 92
        0
 66
     7
 43
1.0
 76
     1
 77
     6
 78
     2
 67
     7
 79
     5
170
     0
171
     0
290
     0
174
     0
 93
       13
 44
0.0
173
     0
291
     1
 45
0.0
1001
ACAD
1000
AcDbSavedByObjectVersion
1070
     0
  0
VISUALSTYLE
  5
6A68
102
{ACAD_REACTORS
330
6A64
102
}
102
{ACAD_XDICTIONARY
360
6B24
102
}
330
6A64
100
AcDbVisualStyle
  2
GouraudWithEdges
 70
     3
 71
     2
 72
     2
 73
     1
 90
        2
 40
-0.6
 41
30.0
 62
     5
 63
     7
421
 16777215
 74
     1
 91
        0
 64
     7
 65
   257
 75
     1
175
     1
 42
1.0
 92
        0
 66
   257
 43
1.0
 76
     1
 77
     6
 78
     2
 67
     7
 79
     5
170
     0
171
     0
290
     0
174
     0
 93
       13
 44
0.0
173
     0
291
     1
 45
0.0
1001
ACAD
1000
AcDbSavedByObjectVersion
1070
     0
  0
VISUALSTYLE
  5
6A6C
102
{ACAD_REACTORS
330
6A64
102
}
102
{ACAD_XDICTIONARY
360
6B26
102
}
330
6A64
100
AcDbVisualStyle
  2
Hidden
 70
     6
 71
     1
 72
     2
 73
     2
 90
        0
 40
-0.6
 41
-30.0
 62
     5
 63
     7
421
 16777215
 74
     2
 91
        2
 64
     7
 65
   257
 75
     2
175
     1
 42
40.0
 92
        0
 66
   257
 43
1.0
 76
     1
 77
     6
 78
     2
 67
     7
 79
     3
170
     0
171
     0
290
     0
174
     0
 93
        1
 44
0.0
173
     0
291
     0
 45
0.0
1001
ACAD
1000
AcDbSavedByObjectVersion
1070
     0
  0
VISUALSTYLE
  5
6A7A
102
{ACAD_REACTORS
330
6A64
102
}
102
{ACAD_XDICTIONARY
360
6B28
102
}
330
6A64
100
AcDbVisualStyle
  2
JitterOff
 70
    20
 71
     2
 72
     2
 73
     0
 90
        0
 40
-0.6
 41
-30.0
 62
     5
 63
     7
421
 16777215
 74
     1
 91
        4
 64
     7
 65
   257
 75
     1
175
     1
 42
1.0
 92
       10
 66
     7
 43
1.0
 76
     1
 77
     6
 78
     2
 67
     7
 79
     5
170
     0
171
     0
290
     0
174
     0
 93
        1
 44
0.0
173
     0
291
     1
 45
0.0
1001
ACAD
1000
AcDbSavedByObjectVersion
1070
     0
  0
VISUALSTYLE
  5
6A72
102
{ACAD_REACTORS
330
6A64
102
}
102
{ACAD_XDICTIONARY
360
6B2A
102
}
330
6A64
100
AcDbVisualStyle
  2
Linepattern
 70
    14
 71
     2
 72
     2
 73
     0
 90
        0
 40
-0.6
 41
-30.0
 62
     5
 63
     7
421
 16777215
 74
     1
 91
        4
 64
     7
 65
   257
 75
     7
175
     7
 42
1.0
 92
        8
 66
     7
 43
1.0
 76
     1
 77
     6
 78
     2
 67
     7
 79
     5
170
     0
171
     0
290
     0
174
     0
 93
        1
 44
0.0
173
     0
291
     1
 45
0.0
1001
ACAD
1000
AcDbSavedByObjectVersion
1070
     0
  0
VISUALSTYLE
  5
6A7B
102
{ACAD_REACTORS
330
6A64
102
}
102
{ACAD_XDICTIONARY
360
6B2C
102
}
330
6A64
100
AcDbVisualStyle
  2
OverhangOff
 70
    21
 71
     2
 72
     2
 73
     0
 90
        0
 40
-0.6
 41
-30.0
 62
     5
 63
     7
421
 16777215
 74
     1
 91
        4
 64
     7
 65
   257
 75
     1
175
     1
 42
1.0
 92
        9
 66
     7
 43
1.0
 76
     1
 77
     6
 78
     2
 67
     7
 79
     5
170
     0
171
     0
290
     0
174
     0
 93
        1
 44
0.0
173
     0
291
     1
 45
0.0
1001
ACAD
1000
AcDbSavedByObjectVersion
1070
     0
  0
VISUALSTYLE
  5
6A6E
102
{ACAD_REACTORS
330
6A64
102
}
102
{ACAD_XDICTIONARY
360
6B2E
102
}
330
6A64
100
AcDbVisualStyle
  2
Realistic
 70
     8
 71
     2
 72
     2
 73
     0
 90
        2
 40
-0.6
 41
30.0
 62
     5
 63
     7
421
 16777215
 74
     0
 91
        0
 64
     7
 65
   257
 75
     1
175
     1
 42
1.0
 92
        8
 66
   257
 43
1.0
 76
     1
 77
     6
 78
     2
 67
     7
 79
     3
170
     0
171
     0
290
     0
174
     0
 93
       13
 44
0.0
173
     0
291
     0
 45
0.0
1001
ACAD
1000
AcDbSavedByObjectVersion
1070
     0
  0
VISUALSTYLE
  5
6A79
102
{ACAD_REACTORS
330
6A64
102
}
102
{ACAD_XDICTIONARY
360
6B30
102
}
330
6A64
100
AcDbVisualStyle
  2
Shaded
 70
    27
 71
     2
 72
     2
 73
     1
 90
        2
 40
-0.6
 41
30.0
 62
     5
 63
     7
421
 16777215
 74
     0
 91
        4
 64
     7
 65
   257
 75
     1
175
     1
 42
1.0
 92
        8
 66
   257
 43
1.0
 76
     1
 77
     6
 78
     2
 67
     8
425
  7895160
 79
     3
170
     0
171
     0
290
     0
174
     0
 93
        5
 44
0.0
173
     0
291
     0
 45
0.0
1001
ACAD
1000
AcDbSavedByObjectVersion
1070
     0
  0
VISUALSTYLE
  5
6A78
102
{ACAD_REACTORS
330
6A64
102
}
102
{ACAD_XDICTIONARY
360
6B32
102
}
330
6A64
100
AcDbVisualStyle
  2
Shaded with edges
 70
    26
 71
     2
 72
     2
 73
     1
 90
        2
 40
-0.6
 41
30.0
 62
     5
 63
     7
421
 16777215
 74
     1
 91
       10
 64
     7
 65
   257
 75
     2
175
     1
 42
1.0
 92
        8
 66
   257
 43
1.0
 76
     1
 77
     6
 78
     2
 67
     7
 79
     3
170
     0
171
     0
290
     0
174
     0
 93
        5
 44
0.0
173
     0
291
     0
 45
0.0
1001
ACAD
1000
AcDbSavedByObjectVersion
1070
     0
  0
VISUALSTYLE
  5
6A75
102
{ACAD_REACTORS
330
6A64
102
}
102
{ACAD_XDICTIONARY
360
6B34
102
}
330
6A64
100
AcDbVisualStyle
  2
Shades of Gray
 70
    23
 71
     2
 72
     2
 73
     3
 90
        0
 40
-0.6
 41
-30.0
 62
     5
 63
     7
421
 16777215
 74
     2
 91
        2
 64
     7
 65
     7
 75
     1
175
     1
 42
40.0
 92
        8
 66
     7
 43
1.0
 76
     1
 77
     6
 78
     2
 67
     7
 79
     3
170
     0
171
     0
290
     0
174
     0
 93
        1
 44
0.0
173
     0
291
     0
 45
0.0
1001
ACAD
1000
AcDbSavedByObjectVersion
1070
     0
  0
VISUALSTYLE
  5
6A76
102
{ACAD_REACTORS
330
6A64
102
}
102
{ACAD_XDICTIONARY
360
6B36
102
}
330
6A64
100
AcDbVisualStyle
  2
Sketchy
 70
    24
 71
     1
 72
     2
 73
     2
 90
        0
 40
-0.6
 41
-30.0
 62
     5
 63
     7
421
 16777215
 74
     2
 91
        2
 64
     7
 65
     7
 75
     1
175
     1
 42
40.0
 92
       11
 66
     7
 43
1.0
 76
     1
 77
     6
 78
     2
 67
     7
 79
     6
170
     0
171
     0
290
     0
174
     0
 93
        1
 44
0.0
173
     0
291
     0
 45
0.0
1001
ACAD
1000
AcDbSavedByObjectVersion
1070
     0
  0
VISUALSTYLE
  5
6A71
102
{ACAD_REACTORS
330
6A64
102
}
102
{ACAD_XDICTIONARY
360
6B38
102
}
330
6A64
100
AcDbVisualStyle
  2
Thicken
 70
    13
 71
     2
 72
     2
 73
     0
 90
        0
 40
-0.6
 41
-30.0
 62
     5
 63
     7
421
 16777215
 74
     1
 91
        4
 64
     7
 65
   257
 75
     1
175
     1
 42
1.0
 92
       12
 66
     7
 43
1.0
 76
     1
 77
     6
 78
     2
 67
     7
 79
     5
170
     0
171
     0
290
     0
174
     0
 93
        1
 44
0.0
173
     0
291
     1
 45
0.0
1001
ACAD
1000
AcDbSavedByObjectVersion
1070
     0
  0
VISUALSTYLE
  5
6A6B
102
{ACAD_REACTORS
330
6A64
102
}
102
{ACAD_XDICTIONARY
360
6B3A
102
}
330
6A64
100
AcDbVisualStyle
  2
Wireframe
 70
     5
 71
     0
 72
     2
 73
     0
 90
        0
 40
-0.6
 41
-30.0
 62
     5
 63
     7
421
 16777215
 74
     1
 91
        4
 64
     7
 65
   257
 75
     1
175
     1
 42
1.0
 92
        0
 66
   257
 43
1.0
 76
     1
 77
     6
 78
     2
 67
     7
 79
     3
170
     0
171
     0
290
     0
174
     0
 93
        1
 44
0.0
173
     0
291
     0
 45
0.0
1001
ACAD
1000
AcDbSavedByObjectVersion
1070
     0
  0
VISUALSTYLE
  5
6A77
102
{ACAD_REACTORS
330
6A64
102
}
102
{ACAD_XDICTIONARY
360
6B3C
102
}
330
6A64
100
AcDbVisualStyle
  2
X-Ray
 70
    25
 71
     2
 72
     2
 73
     1
 90
        1
 40
0.5
 41
-30.0
 62
     5
 63
     7
421
 16777215
 74
     1
 91
        0
 64
     7
 65
   257
 75
     1
175
     1
 42
1.0
 92
        8
 66
     7
 43
1.0
 76
     1
 77
     6
 78
     2
 67
     7
 79
     3
170
     0
171
     0
290
     0
174
     0
 93
       13
 44
0.0
173
     0
291
     0
 45
0.0
1001
ACAD
1000
AcDbSavedByObjectVersion
1070
     0
  0
DICTIONARYVAR
  5
6AFD
102
{ACAD_REACTORS
330
B3
102
}
330
B3
100
DictionaryVariables
280
     0
  1
1:1
  0
DICTIONARYVAR
  5
6AF9
102
{ACAD_REACTORS
330
B3
102
}
330
B3
100
DictionaryVariables
280
     0
  1
Standard
  0
DICTIONARYVAR
  5
5964
102
{ACAD_REACTORS
330
B3
102
}
330
B3
100
DictionaryVariables
280
     0
  1
Standard
  0
DICTIONARYVAR
  5
6AFA
102
{ACAD_REACTORS
330
B3
102
}
330
B3
100
DictionaryVariables
280
     0
  1
Imperial24
  0
DICTIONARYVAR
  5
6AFB
102
{ACAD_REACTORS
330
B3
102
}
330
B3
100
DictionaryVariables
280
     0
  1
Imperial24
  0
DICTIONARYVAR
  5
B4
102
{ACAD_REACTORS
330
B3
102
}
330
B3
100
DictionaryVariables
280
     0
  1
4
  0
DICTIONARYVAR
  5
4333
102
{ACAD_REACTORS
330
B3
102
}
330
B3
100
DictionaryVariables
280
     0
  1
1
  0
DICTIONARYVAR
  5
6AFF
102
{ACAD_REACTORS
330
B3
102
}
330
B3
100
DictionaryVariables
280
     0
  1
1
  0
DICTIONARYVAR
  5
6B00
102
{ACAD_REACTORS
330
B3
102
}
330
B3
100
DictionaryVariables
280
     0
  1
15
  0
DICTIONARYVAR
  5
6AFE
102
{ACAD_REACTORS
330
B3
102
}
330
B3
100
DictionaryVariables
280
     0
  1
0
  0
DICTIONARYVAR
  5
6AFC
102
{ACAD_REACTORS
330
B3
102
}
330
B3
100
DictionaryVariables
280
     0
  1
0
  0
DICTIONARYVAR
  5
6A4A
102
{ACAD_REACTORS
330
B3
102
}
330
B3
100
DictionaryVariables
280
     0
  1

  0
DICTIONARYVAR
  5
6B01
102
{ACAD_REACTORS
330
B3
102
}
330
B3
100
DictionaryVariables
280
     0
  1
2
  0
DICTIONARY
  5
6ABF
102
{ACAD_REACTORS
330
6ABD
102
}
330
6ABD
100
AcDbDictionary
281
     1
  0
DICTIONARY
  5
6ABE
102
{ACAD_REACTORS
330
6ABD
102
}
330
6ABD
100
AcDbDictionary
281
     1
  3
2129745920
350
6AB8
  3
2129745928
350
6AB9
  3
2129745936
350
6ABA
  3
2129745944
350
6ABB
  3
2129745952
350
6ABC
  0
DICTIONARY
  5
6AF7
330
6A94
100
AcDbDictionary
280
     1
281
     1
  3
ACAD_XREC_ROUNDTRIP
360
6AF8
  0
DICTIONARY
  5
6AC0
330
A67
100
AcDbDictionary
280
     1
281
     1
  3
ADSK_XREC_LAYOUTTHUMBNAIL
360
6AC1
  0
DICTIONARY
  5
6B04
330
6A54
100
AcDbDictionary
280
     1
281
     1
  3
ACAD_XREC_ROUNDTRIP
360
6B05
  0
DICTIONARY
  5
6B06
330
6A4C
100
AcDbDictionary
280
     1
281
     1
  3
ACAD_XREC_ROUNDTRIP
360
6B07
  0
DICTIONARY
  5
6B08
330
6A5C
100
AcDbDictionary
280
     1
281
     1
  3
ACAD_XREC_ROUNDTRIP
360
6B09
  0
DICTIONARY
  5
6AF5
330
6A92
100
AcDbDictionary
280
     1
281
     1
  3
ACAD_XREC_ROUNDTRIP
360
6AF6
  0
DICTIONARY
  5
6B0A
330
5956
100
AcDbDictionary
280
     1
281
     1
  3
ACAD_ROUNDTRIP_2008_TABLESTYLE_CELLSTYLEMAP
360
6B0C
  3
ACAD_XREC_ROUNDTRIP
360
6B0B
  0
DICTIONARY
  5
6B0E
330
6A6A
100
AcDbDictionary
280
     1
281
     1
  3
ACAD_XREC_ROUNDTRIP
360
6B0F
  0
DICTIONARY
  5
6B10
330
6A69
100
AcDbDictionary
280
     1
281
     1
  3
ACAD_XREC_ROUNDTRIP
360
6B11
  0
DICTIONARY
  5
6B12
330
6A70
100
AcDbDictionary
280
     1
281
     1
  3
ACAD_XREC_ROUNDTRIP
360
6B13
  0
DICTIONARY
  5
6B14
330
6A74
100
AcDbDictionary
280
     1
281
     1
  3
ACAD_XREC_ROUNDTRIP
360
6B15
  0
DICTIONARY
  5
6B16
330
6A6D
100
AcDbDictionary
280
     1
281
     1
  3
ACAD_XREC_ROUNDTRIP
360
6B17
  0
DICTIONARY
  5
6B18
330
6A6F
100
AcDbDictionary
280
     1
281
     1
  3
ACAD_XREC_ROUNDTRIP
360
6B19
  0
DICTIONARY
  5
6B1A
330
6A7C
100
AcDbDictionary
280
     1
281
     1
  3
ACAD_XREC_ROUNDTRIP
360
6B1B
  0
DICTIONARY
  5
6B1C
330
6A73
100
AcDbDictionary
280
     1
281
     1
  3
ACAD_XREC_ROUNDTRIP
360
6B1D
  0
DICTIONARY
  5
6B1E
330
6A65
100
AcDbDictionary
280
     1
281
     1
  3
ACAD_XREC_ROUNDTRIP
360
6B1F
  0
DICTIONARY
  5
6B20
330
6A66
100
AcDbDictionary
280
     1
281
     1
  3
ACAD_XREC_ROUNDTRIP
360
6B21
  0
DICTIONARY
  5
6B22
330
6A67
100
AcDbDictionary
280
     1
281
     1
  3
ACAD_XREC_ROUNDTRIP
360
6B23
  0
DICTIONARY
  5
6B24
330
6A68
100
AcDbDictionary
280
     1
281
     1
  3
ACAD_XREC_ROUNDTRIP
360
6B25
  0
DICTIONARY
  5
6B26
330
6A6C
100
AcDbDictionary
280
     1
281
     1
  3
ACAD_XREC_ROUNDTRIP
360
6B27
  0
DICTIONARY
  5
6B28
330
6A7A
100
AcDbDictionary
280
     1
281
     1
  3
ACAD_XREC_ROUNDTRIP
360
6B29
  0
DICTIONARY
  5
6B2A
330
6A72
100
AcDbDictionary
280
     1
281
     1
  3
ACAD_XREC_ROUNDTRIP
360
6B2B
  0
DICTIONARY
  5
6B2C
330
6A7B
100
AcDbDictionary
280
     1
281
     1
  3
ACAD_XREC_ROUNDTRIP
360
6B2D
  0
DICTIONARY
  5
6B2E
330
6A6E
100
AcDbDictionary
280
     1
281
     1
  3
ACAD_XREC_ROUNDTRIP
360
6B2F
  0
DICTIONARY
  5
6B30
330
6A79
100
AcDbDictionary
280
     1
281
     1
  3
ACAD_XREC_ROUNDTRIP
360
6B31
  0
DICTIONARY
  5
6B32
330
6A78
100
AcDbDictionary
280
     1
281
     1
  3
ACAD_XREC_ROUNDTRIP
360
6B33
  0
DICTIONARY
  5
6B34
330
6A75
100
AcDbDictionary
280
     1
281
     1
  3
ACAD_XREC_ROUNDTRIP
360
6B35
  0
DICTIONARY
  5
6B36
330
6A76
100
AcDbDictionary
280
     1
281
     1
  3
ACAD_XREC_ROUNDTRIP
360
6B37
  0
DICTIONARY
  5
6B38
330
6A71
100
AcDbDictionary
280
     1
281
     1
  3
ACAD_XREC_ROUNDTRIP
360
6B39
  0
DICTIONARY
  5
6B3A
330
6A6B
100
AcDbDictionary
280
     1
281
     1
  3
ACAD_XREC_ROUNDTRIP
360
6B3B
  0
DICTIONARY
  5
6B3C
330
6A77
100
AcDbDictionary
280
     1
281
     1
  3
ACAD_XREC_ROUNDTRIP
360
6B3D
  0
XRECORD
  5
6AB8
102
{ACAD_REACTORS
330
6ABE
102
}
330
6ABE
100
AcDbXrecord
280
     1
  1
AcDb_Thumbnail_Schema
102
{ATTRRECORD
341
6AB9
  2
AcDbDs::TreatedAsObjectData
280
     1
291
     1
102
ATTRRECORD}
102
{ATTRRECORD
341
6ABA
  2
AcDbDs::Legacy
280
     1
291
     1
102
ATTRRECORD}
  2
AcDbDs::ID
280
    10
 91
        8
102
{ATTRRECORD
341
6ABB
  2
AcDs:Indexable
280
     1
291
     1
102
ATTRRECORD}
102
{ATTRRECORD
341
6ABC
  2
AcDbDs::HandleAttribute
280
     7
282
     1
102
ATTRRECORD}
  2
Thumbnail_Data
280
    15
 91
        0
  0
XRECORD
  5
6AB9
102
{ACAD_REACTORS
330
6ABE
102
}
330
6ABE
100
AcDbXrecord
280
     1
  1
AcDbDs::TreatedAsObjectDataSchema
  2
AcDbDs::TreatedAsObjectData
280
     1
 91
        0
  0
XRECORD
  5
6ABA
102
{ACAD_REACTORS
330
6ABE
102
}
330
6ABE
100
AcDbXrecord
280
     1
  1
AcDbDs::LegacySchema
  2
AcDbDs::Legacy
280
     1
 91
        0
  0
XRECORD
  5
6ABB
102
{ACAD_REACTORS
330
6ABE
102
}
330
6ABE
100
AcDbXrecord
280
     1
  1
AcDbDs::IndexedPropertySchema
  2
AcDs:Indexable
280
     1
 91
        0
  0
XRECORD
  5
6ABC
102
{ACAD_REACTORS
330
6ABE
102
}
330
6ABE
100
AcDbXrecord
280
     1
  1
AcDbDs::HandleAttributeSchema
  2
AcDbDs::HandleAttribute
280
     7
 91
        1
284
     1
  0
XRECORD
  5
6AF8
102
{ACAD_REACTORS
330
6AF7
102
}
330
6AF7
100
AcDbXrecord
280
     1
102
DISPLAYNAME
  1
Imperial24
102
FLAGS
 90
        0
  0
XRECORD
  5
6AC1
102
{ACAD_REACTORS
330
6AC0
102
}
330
6AC0
100
AcDbXrecord
280
     1
310
2800000000010000A4000000010008000000000000A4000001000000010000000001000000000000292929FF000000FFC8C8C8FF000000FF000000FF000000FF000000FF000000FF000000FF000000FF000000FF330000FF660000FF990000FFCC0000FFFF0000FF003300FF333300FF663300FF993300FFCC3300FFFF3300
310
FF006600FF336600FF666600FF996600FFCC6600FFFF6600FF009900FF339900FF669900FF999900FFCC9900FFFF9900FF00CC00FF33CC00FF66CC00FF99CC00FFCCCC00FFFFCC00FF00FF00FF33FF00FF66FF00FF99FF00FFCCFF00FFFFFF00FF000033FF330033FF660033FF990033FFCC0033FFFF0033FF003333FF3333
310
33FF663333FF993333FFCC3333FFFF3333FF006633FF336633FF666633FF996633FFCC6633FFFF6633FF009933FF339933FF669933FF999933FFCC9933FFFF9933FF00CC33FF33CC33FF66CC33FF99CC33FFCCCC33FFFFCC33FF00FF33FF33FF33FF66FF33FF99FF33FFCCFF33FFFFFF33FF000066FF330066FF660066FF99
310
0066FFCC0066FFFF0066FF003366FF333366FF663366FF993366FFCC3366FFFF3366FF006666FF336666FF666666FF996666FFCC6666FFFF6666FF009966FF339966FF669966FF999966FFCC9966FFFF9966FF00CC66FF33CC66FF66CC66FF99CC66FFCCCC66FFFFCC66FF00FF66FF33FF66FF66FF66FF99FF66FFCCFF66FF
310
FFFF66FF000099FF330099FF660099FF990099FFCC0099FFFF0099FF003399FF333399FF663399FF993399FFCC3399FFFF3399FF006699FF336699FF666699FF996699FFCC6699FFFF6699FF009999FF339999FF669999FF999999FFCC9999FFFF9999FF00CC99FF33CC99FF66CC99FF99CC99FFCCCC99FFFFCC99FF00FF99
310
FF33FF99FF66FF99FF99FF99FFCCFF99FFFFFF99FF0000CCFF3300CCFF6600CCFF9900CCFFCC00CCFFFF00CCFF0033CCFF3333CCFF6633CCFF9933CCFFCC33CCFFFF33CCFF0066CCFF3366CCFF6666CCFF9966CCFFCC66CCFFFF66CCFF0099CCFF3399CCFF6699CCFF9999CCFFCC99CCFFFF99CCFF00CCCCFF33CCCCFF66CC
310
CCFF99CCCCFFCCCCCCFFFFCCCCFF00FFCCFF33FFCCFF66FFCCFF99FFCCFFCCFFCCFFFFFFCCFF0000FFFF3300FFFF6600FFFF9900FFFFCC00FFFFFF00FFFF0033FFFF3333FFFF6633FFFF9933FFFFCC33FFFFFF33FFFF0066FFFF3366FFFF6666FFFF9966FFFFCC66FFFFFF66FFFF0099FFFF3399FFFF6699FFFF9999FFFFCC
310
99FFFFFF99FFFF00CCFFFF33CCFFFF66CCFFFF99CCFFFFCCCCFFFFFFCCFFFF00FFFFFF33FFFFFF66FFFFFF99FFFFFFCCFFFFFFFFFFFFFF000000FF0D0D0DFF1A1A1AFF282828FF353535FF434343FF505050FF5D5D5DFF6B6B6BFF787878FF868686FF939393FFA1A1A1FFAEAEAEFFBBBBBBFFC9C9C9FFD6D6D6FFE4E4E4FF
310
F1F1F1FFFFFFFFFF000000FF000000FF000000FF000000FF000000FF000000FF000000FF000000FF000000FF0000000000000000000000000000000000000000000000000000000000000000000000000000000000000000000000000000000000000000000000000000000000000000000000000000000000000000000000
310
00000000000000000000000000000000000000000000000000000000000000000000000000000000000000000000000000000000000000000000000000000000000000000000000000000000000000000000000000000000000000000000000000000000000000000000000000000000000000000000000000000000000000
310
00000000000000000000000000000000000000000000000000000000000000000000000000000000000000000000000000000000000000000000000000000000000000000000000000000000000000000000000000000000000000000000000000000000000000000000000000000000000000000000000000000000000000
310
00000000000000000000000000000000000000000000000000000000000000000000000000000000000000000000000000000000000000000000000000000000000000000000000000000000000000000000000000000000000000000000000000000000000000000000000000000000000000000000000000000000000000
310
00000000000000000000000000000000000000000000000000000000000000000000000000000000000000000000000000000000000000000000000000000000000000000000000000000000000000000000000000000000000000000000000000000000000000000000000000000000000000000000000000000000000000
310
00000000000000000000000000000000000000000000000000000000000000000000000000000000000000000000000000000000000000000000000000000000000000000000000000000000000000000000000000000000000000000000000000000000000000000000000000000000000000000000000000000000000000
310
00000000000000000000000000000000000000000000000000000000000000000000000000000000000000000000000000000000000000000000000000000000000000000000000000000000000000000000000000000000000000000000000000000000000000000000000000000000000000000000000000000000000000
310
00000000000000000000000000000000000000000000000000000000000000000000000000000000000000000000000000000000000000000000000000000000000000000000000000000000000000000000000000000000000000000000000000000000000000000000000000000000000000000000000000000000000000
310
00000000000000000000000000000000000000000000000000000000000000000000000000000000000000000000000000000000000000000000000000000000000000000000000000000000000000000000000000000000000000000000000000000000000000000000000000000000000000000000000000000000000000
310
00000000000000000000000000000000000000000000000000000000000000000000000000000000000000000000000000000000000000000000000000000000000000000000000000000000000000000000000000000000000000000000000000000000000000000000000000000000000000000000000000000000000000
310
00000000000000000000000000000000000000000000000000000000000000000000000000000000000000000000000000000000000000000000000000000000000000000000000000000000000000000000000000000000000000000000000000000000000000000000000000000000000000000000000000000000000000
310
00000000000000000000000000000000000000000000000000000000000000000000000000000000000000000000000000000000000000000000000000000000000000000000000000000000000000000000000000000000000000000000000000000000000000000000000000000000000000000000000000000000000000
310
00000000000000000000000000000000000000000000000000000000000000000000000000000000000000000000000000000000000000000000000000000000000000000000000000000000000000000000000000000000000000000000000000000000000000000000000000000000000000000000000000000000000000
310
00000000000000000000000000000000000000000000000000000000000000000000000000000000000000000000000000000000000000000000000000000000000000000000000000000000000000000000000000000000000000000000000000000000000000000000000000000000000000000000000000000000000000
310
00000000000000000000000000000000000000000000000000000000000000000000000000000000000000000000000000000000000000000000000000000000000000000000000000000000000000000000000000000000000000000000000000000000000000000000000000000000000000000000000000000000000000
310
00000000000000000000000000000000000000000000000000000000000000000000000000000000000000000000000000000000000000000000000000000000000000000000000000000000000000000000000000000000000000000000000000000000000000000000000000000000000000000000000000000000000000
310
00000000000000000000000000000000000000000000000000000000000000000000000000000000000000000000000000000000000000000000000000000000000000000000000000000000000000000000000000000000000000000000000000000000000000000000000000000000000000000000000000000000000000
310
00000000000000000000000000000000000000000000000000000000000000000000000000000000000000000000000000000000000000000000000000000000000000000000000000000000000000000000000000000000000000000000000000000000000000000000000000000000000000000000000000000000000000
310
00000000000000000000000000000000000000000000000000000000000000000000000000000000000000000000000000000000000000000000000000000000000000000000000000000000000000000000000000000000000000000000000000000000000000000000000000000000000000000000000000000000000000
310
00000000000000000000000000000000000000000000000000000000000000000000000000000000000000000000000000000000000000000000000000000000000000000000000000000000000000000000000000000000000000000000000000000000000000000000000000000000000000000000000000000000000000
310
00000000000000000000000000000000000000000000000000000000000000000000000000000000000000000000000000000000000000000000000000000000000000000000000000000000000000000000000000000000000000000000000000000000000000000000000000000000000000000000000000000000000000
310
00000000000000000000000000000000000000000000000000000000000000000000000000000000000000000000000000000000000000000000000000000000000000000000000000000000000000000000000000000000000000000000000000000000000000000000000000000000000000000000000000000000000000
310
00000000000000000000000000000000000000000000000000000000000000000000000000000000000000000000000000000000000000000000000000000000000000000000000000000000000000000000000000000000000000000000000000000000000000000000000000000000000000000000000000000000000000
310
00000000000000000000000000000000000000000000000000000000000000000000000000000000000000000000000000000000000000000000000000000000000000000000000000000000000000000000000000000000000000000000000000000000000000000000000000000000000000000000000000000000000000
310
000000000000BEBEBEBEBEBEBE00BEBEBEBEBEBEBE00000000000000000000000000000000000000000000000000000000000000000000000000000000000000000000000000000000000000000000000000000000000000000000000000000000000000000000000000000000000000000000000000000000000000000000
310
00000000000000000000000000000000000000000000000000000000000000000000000000000000000000000000000000000000000000000000000000000000000000000000000000000000000000000000000000000000000000000000000000000000000000000000000000000000000000000000000000000000000000
310
0000000000000000BEBEBEBEBEBEBEBEBEBEBEBEBEBEBE00000000000000000000000000000000000000000000000000000000000000000000000000000000000000000000000000000000000000000000000000000000DCDCDCDCDCDCDCDCDCDCDCDCDCDCDCDCDCDCDCDCDCDCDCDCDCDCDCDCDCDCDCDCDCDCDCDCDCDCDCDC
310
DCDCDCDCDCDCDCDCDCDCDCDCDCDCDCDCDCDCDCDCDCDCDCDCDCDCDCDCDCDCDCDCDCDCDCDCDCDCDCDCDCDCDCDCDCDCDCDCDCDCDCDCDCDCDCDCDCDCDCDCDCDCDCDCDCDCDCDCDCDCDCDCDCDCDCDCDCDCDCDCDCDCDCDCDCDCDCDCDCDCDCDCDCDCDCDCDCDCDCDCDCDCDCDCDCDCDCDCDCDCDCDCDCDCDCDCDCDCDCDCDCDCDCDCDCDCDC
310
DCDCDCDCDCDCDCDCDCDCDCDCDCDCDCDCDCDCDCDCDCDCDCDCDCDC000000000000000000000000000000000000000000000000000000000000000000000000000000000000000000000000000000000000000000000000000000DC00000000000000000000000000000000000000000000000000000000000000000000000000
310
00000000000000000000000000000000000000000000000000000000000000000000000000000000000000000000000000000000000000000000000000000000000000000000000000000000000000000000000000000000000000000000000000000000000000000000000000000000000000000000000000000000000000
310
00DC000000000000000000BEBEBE0000000000BEBEBEBE00000000DC000000000000000000000000000000000000000000000000000000000000000000000000000000000000000000000000000000000000000000000000000000DC000000000000000000000000000000000000000000000000000000BE00000000000000
310
00000000000000000000000000000000000000000000000000000000000000BE0000000000000000000000000000000000000000000000000000000000000000000000000000000000000000000000000000000000000000000000000000000000000000000000000000000000000000000000000000000000000000000000
310
000000DCBEBEBEBEBEBEBEBEBEBEBEBE0000000000BEBEBEBE00000000DC000000000000000000000000000000000000000000000000000000000000000000000000000000000000000000000000000000000000000000000000000000DC000000000000000000000000000000000000000000000000000000BEBEBEBEBEBE
310
BEBEBEBEBEBEBEBEBEBEBEBEBEBEBEBEBEBEBEBEBEBEBEBEBEBEBEBEBEBEBEBEBEBE000000000000000000000000000000000000000000000000000000000000000000000000000000000000000000000000000000000000000000000000000000000000000000000000000000000000000000000000000000000000000000
310
0000000000DCBEBEBEBEBEBEBEBEBEBEBEBEBEBEBEBEBEBEBEBEBEBEBEBEBEDC000000000000000000000000000000000000000000000000000000000000000000000000000000000000000000000000000000000000000000000000000000DC000000000000000000000000000000000000000000000000000000BE000000
310
0000000000000000000000000000BEBEBEBEBE00000000000000000000000000000000BE00000000000000000000000000000000000000000000000000000000000000000000000000000000000000000000000000000000000000000000000000000000000000000000000000000000000000000000000000000000000000
310
00000000000000DCBEBEBEBEBE00000000000000BEBE0000BEBEBEBEBEBEBE0000DC000000000000000000000000000000000000000000000000000000000000000000000000000000000000000000000000000000000000000000000000000000DC000000000000000000000000000000000000000000000000000000BE00
310
00000000000000000000000000000000000000000000000000000000000000000000000000BE0000000000000000000000000000000000000000000000000000000000000000000000000000000000000000000000000000000000000000000000000000000000000000000000000000000000000000000000000000000000
310
000000000000000000DCBEBEBEBEBEBEBEBEBEBEBEBEBEBEBEBEBEBEBEBEBEBEBEBEBEDC000000000000000000000000000000000000000000000000000000000000000000000000000000000000000000000000000000000000000000000000000000DC000000000000000000000000000000000000000000000000000000
310
BE0000000000000000000000000000000000000000000000000000000000000000000000000000BE000000000000000000000000000000000000000000000000000000000000000000000000000000000000000000000000000000000000000000000000000000000000000000000000000000000000000000000000000000
310
0000000000000000000000DCBEBEBEBEBE0000000000BEBEBEBEBEBEBEBE0000000000BEBEDC000000000000000000000000000000000000000000000000000000000000000000000000000000000000000000000000000000000000000000000000000000DC00000000000000000000000000000000000000000000000000
310
0000BE0000000000000000000000000000000000000000000000000000000000000000000000000000BE00000000000000000000000000000000000000000000000000000000000000000000000000000000000000000000000000000000000000000000000000000000000000000000000000000000000000000000000000
310
00000000000000000000000000DCBEBEBEBEBEBEBEBEBEBEBEBEBEBEBEBEBEBEBEBEBEBEBEBEBEDC000000000000000000000000000000000000000000000000000000000000000000000000000000000000000000000000000000000000000000000000000000DC0000000000000000000000000000000000000000000000
310
00000000BE0000000000000000000000000000000000000000000000000000000000000000000000000000BE0000000000000000000000000000000000000000000000000000000000000000000000000000000000000000000000000000000000000000000000000000000000000000000000000000000000000000000000
310
000000000000000000000000000000DCBEBEBEBEBE00000000000000BEBEBEBEBEBE00000000000000DC000000000000000000000000000000000000000000000000000000000000000000000000000000000000000000000000000000000000000000000000000000DC000000000000000000000000000000000000000000
310
000000000000BE0000000000000000000000000000000000000000000000000000000000000000000000000000BE000000000000000000000000000000000000000000000000000000000000000000000000000000000000000000000000000000000000000000000000000000000000000000000000000000000000000000
310
0000000000000000000000000000000000DCBEBEBEBEBEBEBEBEBEBEBEBEBEBEBEBEBEBEBEBEBEBEBEBEBEDC000000000000000000000000000000000000000000000000000000000000000000000000000000000000000000000000000000000000000000000000000000DC00000000000000000000000000000000000000
310
0000000000000000BE0000000000000000000000000000000000000000000000000000000000000000000000000000BE00000000000000000000000000000000000000000000000000000000000000000000000000000000000000000000000000000000000000000000000000000000000000000000000000000000000000
310
00000000000000000000000000000000000000DCBE0000BEBEBEBEBEBEBEBEBEBEBEBEBEBEBE00BEBEBEBEBEBEDC000000000000000000000000000000000000000000000000000000000000000000000000000000000000000000000000000000000000000000000000000000DC0000000000000000000000000000000000
310
0000BEBE000000000000BE0000000000000000000000000000000000000000000000000000000000000000000000000000BE0000000000000000000000000000000000000000000000000000000000000000000000000000000000000000000000000000000000000000000000000000000000000000000000000000000000
310
000000000000000000000000000000000000000000DCDCDCDCDCDCDCDCDCDCDCDCDCDCDCDCDCDCDCDCDCDCDCDCDCDCDC000000000000000000000000000000000000000000000000000000000000000000000000000000000000000000000000000000000000000000000000000000DC000000000000000000000000000000
310
00000000BEBEBE0000000000BE0000000000000000000000000000000000000000000000000000000000000000000000000000BE000000000000000000000000000000000000000000000000000000000000000000000000000000000000000000000000000000000000000000000000000000000000000000000000000000
310
00000000000000000000000000000000000000000000000000000000000000000000000000000000000000000000000000DC000000000000000000000000000000000000000000000000000000000000000000000000000000000000000000000000000000000000000000000000000000DC00000000000000000000000000
310
000000BEBEBEBEBEBEBEBEBEBEBEBE28282828282828282D2D28282828282828282828282828282828282828282828282828282828BEBEBEBEBEBEBEBEBEBEBEBEBEBEBEBE00000000000000000000000000000000000000000000000000000000000000000000000000000000000000000000000000000000000000000000
310
000000000000000000000000000000000000000000000000000000000000000000000000000000000000000000000000000000DC000000000000000000000000000000000000000000000000000000000000000000000000000000000000000000000000000000000000000000000000000000DC0000000000000000000000
310
0000000000BEBE0000BEBEBEBEBEBEBEBE28282828282828282828000000000000000000000000000000002D00000000000000000000002800000000000000000000000000BE000000000000000000000000000000000000000000000000000000000000000000000000000000000000000000000000000000000000000000
310
0000000000000000000000000000000000000000000000000000000000000000000000000000000000000000000000000000000000DC000000000000000000000000000000000000000000000000000000000000000000000000000000000000000000000000000000000000000000000000000000DC000000000000000000
310
00000000000000BEBEBEBEBEBEBEBEBEBEBEBE28282828282828282828282828282828282828282828282828002D00000000000000000000002800000000000000000000000000BE00000000000000000000000000000000000000000000000000000000000000000000000000000000000000000000000000000000000000
310
00000000000000000000000000000000000000000000000000000000000000000000000000000000000000000000000000000000000000DC000000000000000000000000000000000000000000000000000000000000000000000000000000000000000000000000000000000000000000000000000000DC00000000000000
310
0000000000000000000000000000BE00000000000000000000000000000000000000000000000028282828282828282828282828282800000000002800000000000000000000000000BE0000000000000000000000000000000000000000000000000000000000000000000000000000000000000000000000000000000000
310
000000000000000000000000000000000000000000000000000000000000000000000000000000000000000000000000000000000000000000DC000000000000000000000000000000000000000000000000000000000000000000000000000000000000000000000000000000000000000000000000000000DC0000000000
310
000000000000000000000000000000000000000000000000000000000000000000000000000000000000000000000000000F00000028000028000000002800000000000000000000000000BE000000000000000000000000000000000000000000000000000000000000000000000000000000000000000000000000000000
310
0000000000000000000000000000000000000000000000000000000000000000000000000000000000000000000000000000000000000000000000DC000000000000000000000000000000000000000000000000000000000000000000000000000000000000000000000000000000000000000000000000000000DC000000
310
0000000000000000000000000000000000000000000000000000000000000000000000000000000000000000000000000000000000000000280000280000002800000000000000000000000000BE00000000000000000000000000000000000000000000000000000000000000000000000000000000000000000000000000
310
00000000000000000000000000000000000000000000000000000000000000000000000000000000000000000000000000000000000000000000000000DC000000000000000000000000000000000000000000000000000000000000000000000000000000000000000000000000000000000000000000000000000000DC00
310
00000000000000000000000000000000000000000000000000000000000000000000000000000000000000000000000000000000000000000000002800002800002800000000000000000000000000BE0000000000000000000000000000000000000000000000000000000000000000000000000000000000000000000000
310
000000000000000000000000000000000000000000000000000000000000000000000000000000000000000000000000000000000000000000000000000000DC000000000000000000000000000000000000000000000000000000000000000000000000000000000000000000000000000000000000000000000000000000
310
DC00000000000000000000000000000000000000000000000000000000000000000000000000000000000000000000000000000000000000000000000000280000280028000000000000000000000000BEBE000000000000000000000000000000000000000000000000000000000000000000000000000000000000000000
310
0000000000000000000000000000000000000000000000000000000000000000000000000000000000000000000000000000000000000000000000000000000000DC00000000000000000000000000000000000000000000000000000000000000000000000000000000000000000000000000000000000000000000000000
310
0000DC00000000000000000000000000000000000000000000000000000000000000000000000000000000000000000000000000000000000000000000000000002800280028000000000000000000000000BEBE00000000000000000000000000000000000000000000000000000000000000000000000000000000000000
310
00000000000000000000000000000000000000000000000000000000000000000000000000000000000000000000000000000000000000000000000000000000000000DC0000000000000000000000000000000000000000000000000000000000000000000000000000000000000000000000000000000000000000000000
310
00000000DC00000000000000000000000000000000000000000000000000000000000000000000000000000000000000000000000000000000000000000000000000000028280028000000000000000000000000BEBE0000000000000000000000000000000000000000000000000000000000000000000000000000000000
310
000000000000000000000000000000000000000000000000000000000000000000000000000000000000000000000000000000000000000000000000000000000000000000DC000000000000000000000000000000000000000000000000000000000000000000000000000000000000000000000000000000000000000000
310
000000000000DC00000000000000000000000000000000000000000000000000000000000000000000000000000000000000000000000000000000000000000000000000000028280028000000000000000000000000BEBE000000000000000000000000000000000000000000000000000000000000000000000000000000
310
0000000000000000000000000000000000000000000000000000000000000000000000000000000000000000000000000000000000000000000000000000000000000000000000DC00000000000000000000000000000000000000000000000000000000000000000000000000000000000000000000000000000000000000
310
0000000000000000DC0000000000000000000000000000000000000000000000000000000000000000000000000000000000000000000000000000000000000000000000000000002828002800000000000000000000000000BE00000000000000000000000000000000000000000000000000000000000000000000000000
310
00000000000000000000000000000000000000000000000000000000000000000000000000000000000000000000000000000000000000000000000000000000000000000000000000DC0000000000000000000000000000000000000000000000000000000000000000000000000000000000000000000000000000000000
310
00000000000000000000DC000000000000000000000000000000000000000000000000000000000000000000000000000000000000000000000000000000000000000000000000000000BE282D2800000000000000000000000000BE0000000000000000000000000000000000000000000000000000000000000000000000
310
000000000000000000000000000000000000000000000000000000000000000000000000000000000000000000000000000000000000000000000000000000000000000000000000000000DC000000000000000000000000000000000000000000000000000000000000000000000000000000000000000000000000000000
310
000000000000000000000000DC0000000000000000000000000000000000000000000000000000000000000000000000000000000000000000000000000000000000000000000000000000002828002800000000000000000000000000BE000000000000000000000000000000000000000000000000000000000000000000
310
0000000000000000000000000000000000000000000000000000000000000000000000000000000000000000000000000000000000000000000000000000000000000000000000000000000000DC00000000000000000000000000000000000000000000000000000000000000000000000000000000000000000000000000
310
0000000000000000000000000000DC0000000000000000000000000000000000000000000000000000000000000000000000000000000000000000000000000000000000000000000000000000002828002800000000000000000000000000BE00000000000000000000000000000000000000000000000000000000000000
310
00000000000000000000000000000000000000000000000000000000000000000000000000000000000000000000000000000000000000000000000000000000000000000000000000000000000000DC0000000000000000000000000000000000000000000000000000000000000000000000000000000000000000000000
310
00000000000000000000000000000000DC0000000000000000000000000000000000000000000000000000000000000000000000000000000000000000000000000000000000000000000000000000002828002800000000000000000000000000BE0000000000000000000000000000000000000000000000000000000000
310
000000000000000000000000000000000000000000000000000000000000000000000000000000000000000000000000000000000000000000000000000000000000000000000000000000000000000000DC000000000000000000000000000000000000000000000000000000000000000000000000000000000000000000
310
000000000000000000000000000000000000DC0000000000000000000000000000000000000000000000000000000000000000000000000000000000000000000000000000000000000000000000000000002828002800000000000000000000000000BE000000000000000000000000000000000000000000000000000000
310
0000000000000000000000000000000000000000000000000000000000000000000000000000000000000000000000000000000000000000000000000000000000000000000000000000000000000000000000DC00000000000000000000000000000000000000000000000000000000000000000000000000000000000000
310
0000000000000000000000000000000000000000DC0000000000000000000000000000000000000000000000000000000000000000000000000000000000000000000000000000000000000000000000000000002828002800000000000000000000000000BE00000000000000000000000000000000000000000000000000
310
00000000000000000000000000000000000000000000000000000000000000000000000000000000000000000000000000000000000000000000000000000000000000000000000000000000000000000000000000DC0000000000000000000000000000000000000000000000000000000000000000000000000000000000
310
00000000000000000000000000000000000000000000DC000000000000000000000000000000000000000000000000000000000000000000000000000000000000000000000000000000000000000000000000000000BE2D28BEBEBEBEBEBEBEBEBEBEBEBEBEBEBEBE00000000000000000000000000000000000000000000
310
000000000000000000000000000000000000000000000000000000000000000000000000000000000000000000000000000000000000000000000000000000000000000000000000000000000000000000000000000000DC000000000000000000000000000000000000000000000000000000000000000000000000000000
310
000000000000000000000000000000000000000000000000DC000000000000000000000000000000000000000000000000000000000000000000000000000000000000000000000000000000000000000000000000000000BE0028BE0000000000000000000000000000000000000000000000000000000000000000000000
310
0000000000000000000000000000000000000000000000000000000000000000000000000000000000000000000000000000000000000000000000000000000000000000000000000000000000000000000000000000000000DC00000000000000000000000000000000000000000000000000000000000000000000000000
310
0000000000000000000000000000000000000000000000000000DC000000000000000000000000000000000000000000000000000000000000000000000000000000000000000000000000000000000000000000000000000000BE0028BE000000000000000000000000000000000000000000000000000000000000000000
310
00000000000000000000000000000000000000000000000000000000000000000000000000000000000000000000000000000000000000000000000000000000000000000000000000000000000000000000000000000000000000DC0000000000000000000000000000000000000000000000000000000000000000000000
310
00000000000000000000000000000000000000000000000000000000DC000000000000000000000000000000000000000000000000000000000000000000000000000000000000000000000000000000000000000000000000000000BEBEBEBE00000000000000000000000000000000000000000000000000000000000000
310
000000000000000000000000000000000000000000000000000000000000000000000000000000000000000000000000000000000000000000000000000000000000000000000000000000000000000000000000000000000000000000DC000000000000000000000000000000000000000000000000000000000000000000
310
000000000000000000000000000000000000000000000000000000000000DC000000000000000000000000000000000000000000000000000000000000000000000000000000000000000000000000000000000000000000000000000000BEBEBEBE0000000000000000000000000000000000000000000000000000000000
310
0000000000000000000000000000000000000000000000000000000000000000000000000000000000000000000000000000000000000000000000000000000000000000000000000000000000000000000000000000000000000000000000DC00000000000000000000000000000000000000000000000000000000000000
310
0000000000000000000000000000000000000000000000000000000000000000DC00000000000000000000000000000000000000000000000000000000000000000000000000000000000000000000000000000000000000000000000000000000002828000000000000000000000000000000000000000000000000000000
310
00000000000000000000000000000000000000000000000000000000000000000000000000000000000000000000000000000000000000000000000000000000000000000000000000000000000000000000000000000000000000000000000000DC0000000000000000000000000000000000000000000000000000000000
310
00000000000000000000000000000000000000000000000000000000000000000000DC0000000000000000000000000000000000000000000000000000000000000000000000000000000000000000000000000000000000000000000000000000000000282800000000000000000000000000000000000000000000000000
310
000000000000000000000000000000000000000000000000000000000000000000000000000000000000000000000000000000000000000000000000000000000000000000000000000000000000000000000000000000000000000000000000000000DC000000000000000000000000000000000000000000000000000000
310
000000000000000000000000000000000000000000000000000000000000000000000000DC000000000000000000000000000000000000000000000000000000000000000000000000000000000000000000000000000000000000000000000000000000000028280000000000000000000000000000000000000000000000
310
0000000000000000000000000000000000000000000000000000000000000000000000000000000000000000000000000000000000000000000000000000000000000000000000000000000000000000000000000000000000000000000000000000000000DC00000000000000000000000000000000000000000000000000
310
0000000000000000000000000000000000000000000000000000000000000000000000000000DC00000000000000000000000000000000000000000000000000000000000000000000000000000000000000000000000000000000000000000000000000000000002828000000000000000000000000000000000000000000
310
00000000000000000000000000000000000000000000000000000000000000000000000000000000000000000000000000000000000000000000000000000000000000000000000000000000000000000000000000000000000000000000000000000000000000DC0000000000000000000000000000000000000000000000
310
00000000000000000000000000000000000000000000000000000000000000000000000000000000DC0000000000000000000000000000000000000000000000000000000000000000000000000000000000000000000000000000000000000000000000000000000000282800000000000000000000000000000000000000
310
000000000000000000000000000000000000000000000000000000000000000000000000000000000000000000000000000000000000000000000000000000000000000000000000000000000000000000000000000000000000000000000000000000000000000000DC000000000000000000000000000000000000000000
310
000000000000000000000000000000000000000000000000000000000000000000000000000000000000DC0000000000000000000000000000000000000000000000000000000000000000000000000000000000000000000000000000000000000000000000000000000000BEBE0000000000000000000000000000000000
310
0000000000000000000000000000000000000000000000000000000000000000000000000000000000000000000000000000000000000000000000000000000000000000000000000000000000000000000000000000000000000000000000000000000000000000000000DC00000000000000000000000000000000000000
310
0000000000000000000000000000000000000000000000000000000000000000000000000000000000000000DC0000000000000000000000000000000000000000000000000000000000000000000000000000000000000000000000000000000000000000000000000000000000BEBE000000000000000000000000000000
310
00000000000000000000000000000000000000000000000000000000000000000000000000000000000000000000000000000000000000000000000000000000000000000000000000000000000000000000000000000000000000000000000000000000000000000000000000DC0000000000000000000000000000000000
310
00000000000000000000000000000000000000000000000000000000000000000000000000000000000000000000DC0000000000000000000000000000000000000000000000000000000000000000000000000000000000000000000000000000000000000000000000000000000000BEBE00000000000000000000000000
310
000000000000000000000000000000000000000000000000000000000000000000000000000000000000000000000000000000000000000000000000000000000000000000000000000000000000000000000000000000000000000000000000000000000000000000000000000000DC000000000000000000000000000000
310
000000000000000000000000000000000000000000000000000000000000000000000000000000000000000000000000DC0000000000000000000000000000000000000000000000000000000000000000000000000000000000000000000000000000000000000000000000000000000000BEBE0000000000000000000000
310
0000000000000000000000000000000000000000000000000000000000000000000000000000000000000000000000000000000000000000000000000000000000000000000000000000000000000000000000000000000000000000000000000000000000000000000000000000000000DC00000000000000000000000000
310
0000000000000000000000000000000000000000000000000000000000000000000000000000000000000000000000000000DC0000000000000000000000000000000000000000000000000000000000000000000000000000000000000000000000000000000000000000000000000000000000BEBE000000000000000000
310
00000000000000000000000000000000000000000000000000000000000000000000000000000000000000000000000000000000000000000000000000000000000000000000000000000000000000000000000000000000000000000000000000000000000000000000000000000000000000DC0000000000000000000000
310
00000000000000000000000000000000000000000000000000000000000000000000000000000000000000000000000000000000DC00000000000000000000000000000000000000000000000000000000000000000000000000000000000000000000000000000000000000000000000000000000BEBEBEBEBE0000000000
310
000000000000000000000000000000000000000000000000000000000000000000000000000000000000000000000000000000000000000000000000000000000000000000000000000000000000000000000000000000000000000000000000000000000000000000000000000000000000000000DC000000000000000000
310
000000000000000000000000000000000000000000000000000000000000000000000000000000000000000000000000000000000000DC00000000000000000000000000000000000000000000000000000000000000000000000000000000000000000000000000000000000000000000000000000000BEBEBEBE00000000
310
0000000000000000000000000000000000000000000000000000000000000000000000000000000000000000000000000000000000000000000000000000000000000000000000000000000000000000000000000000000000000000000000000000000000000000000000000000000000000000000000DC00000000000000
310
0000000000000000000000000000000000000000000000000000000000000000000000000000000000000000000000000000000000000000DC0000000000000000000000000000000000000000000000000000000000000000000000000000000000000000000000000000000000000000000000000000000000BEBEBE0000
310
00000000000000000000000000000000000000000000000000000000000000000000000000000000000000000000000000000000000000000000000000000000000000000000000000000000000000000000000000000000000000000000000000000000000000000000000000000000000000000000000000DC0000000000
310
00000000000000000000000000000000000000000000000000000000000000000000000000000000000000000000000000000000000000000000DC0000000000000000000000000000000000000000000000000000000000000000000000000000000000000000000000000000000000000000000000000000000000000000
310
000000000000000000000000000000000000000000000000000000000000000000000000000000000000000000000000000000000000000000000000000000000000000000000000000000000000000000000000000000000000000000000000000000000000000000000000000000000000000000000000000000DC000000
310
000000000000000000000000000000000000000000000000000000000000000000000000000000000000000000000000000000000000000000000000DC000000000000000000000000000000000000000000000000000000000000000000000000000000000000000000000000000000000000000000000000000000000000
310
0000000000000000000000000000000000000000000000000000000000000000000000000000000000000000000000000000000000000000000000000000000000000000000000000000000000000000000000000000000000000000000000000000000000000000000000000000000000000000000000000000000000DC00
310
0000000000000000000000000000000000000000000000000000000000000000000000000000000000000000000000000000000000000000000000000000DC00000000000000000000000000000000000000000000000000000000000000000000000000000000000000000000000000000000000000000000000000000000
310
00000000000000000000000000000000000000000000000000000000000000000000000000000000000000000000000000000000000000000000000000000000000000000000000000000000000000000000000000000000000000000000000000000000000000000000000000000000000000000000000000000000000000
310
DC000000000000000000000000000000000000000000000000000000000000000000000000000000000000000000000000000000000000000000000000000000DC000000000000000000000000000000000000000000000000000000BE00000000000000000000000000000000000000000000000000000000000000000000
310
00000000BE0000000000000000000000000000000000000000000000000000000000000000000000000000000000000000000000000000000000000000000000000000000000000000000000000000000000000000000000000000000000000000000000000000000000000000000000000000000000000000000000000000
310
0000DC000000000000000000000000000000000000000000000000000000000000000000000000000000000000000000000000000000000000000000000000000000DC000000000000000000000000000000000000000000000000000000BEBEBEBEBEBEBEBEBEBEBEBEBEBEBEBEBEBEBEBEBEBEBEBEBEBEBEBEBEBEBEBEBE
310
BEBEBEBEBEBEBE0000000000000000000000000000000000000000000000000000000000000000000000000000BEBEBEBEBEBEBEBEBEBEBEBEBEBEBEBEBEBEBEBEBEBEBEBEBEBEBEBEBEBEBEBEBEBEBEBEBEBEBEBEBEBEBEBEBEBEBEBEBEBEBEBEBEBE00000000000000000000000000000000000000000000000000000000
310
00000000DC000000000000000000000000000000000000000000000000000000000000000000000000000000000000000000000000000000000000000000000000000000DC000000000000000000000000000000000000000000000000000000BE0000000000000000000000000000000000BEBEBEBEBE0000000000000000
310
0000000000000000BE0000000000000000000000000000000000000000000000000000000000000000000000000000BE000000000000BEBEBEBE000000000000BE000000000000000000000000000000BEBEBEBEBE000000000000000000000000000000BE0000000000000000000000000000000000000000000000000000
310
000000000000DC000000000000000000000000000000000000000000000000000000000000000000000000000000000000000000000000000000000000000000000000000000DC000000000000000000000000000000000000000000000000000000BE00000000000000000000000000000000000000000000000000000000
310
00000000000000000000BE0000000000000000000000000000000000000000000000000000000000000000000000000000BE00000000000000000000000000000000BE0000000000000000000000000000000000000000000000000000000000000000000000BE000000000000000000000000000000000000000000000000
310
0000000000000000DC000000000000000000000000000000000000000000000000000000000000000000000000000000000000000000000000000000000000000000000000000000DC000000000000000000000000000000000000000000000000000000BEBEBEBEBEBEBEBEBEBEBEBEBEBEBEBEBEBEBEBEBEBEBEBEBEBEBE
310
BEBEBEBEBEBEBEBEBEBEBEBEBE0000000000000000000000000000000000000000000000000000000000000000000000000000BE00000000000000000000000000000000BE0000000000000000000000000000000000000000000000000000000000000000000000BE00000000000000000000000000000000000000000000
310
00000000000000000000DC000000000000000000000000000000000000000000000000000000000000000000000000000000000000000000000000000000000000000000000000000000DC000000000000000000000000000000000000000000000000000000BE000000000000000000000000000000BEBEBEBE0000000000
310
0000000000000000000000BEBEBEBE0000000000000000000000000000000000000000000000000000000000000000000000000000BE00000000000000000000000000000000BE0000000000000000000000000000000000000000000000000000000000000000000000BE0000000000000000000000000000000000000000
310
000000000000000000000000DC000000000000000000000000000000000000000000000000000000000000000000000000000000000000000000000000000000000000000000000000000000DC000000000000000000000000000000000000000000000000000000BE000000000000000000000000000000BEBEBEBE000000
310
00000000000000000000000000BEBEBEBE0000000000000000000000000000000000000000000000000000000000000000000000000000BE00000000000000000000000000000000BE0000000000000000000000000000000000000000000000000000000000000000000000BE000000000000000000000000000000000000
310
0000000000000000000000000000DC000000000000000000000000000000000000000000000000000000000000000000000000000000000000000000000000000000000000000000000000000000DC000000000000000000000000000000000000000000000000000000BE0000000000000000000000000000000000000000
310
000000000000000000000000000000BE0000BE0000000000000000000000000000000000000000000000000000000000000000000000000000BE00000000000000000000000000000000BE0000000000000000000000000000000000000000000000000000000000000000000000BE00000000000000000000000000000000
310
00000000000000000000000000000000DC000000000000000000000000000000000000000000000000000000000000000000000000000000000000000000000000000000000000000000000000000000DC000000000000000000000000000000000000000000000000000000BE000000000000000000000000000000000000
310
0000000000000000000000000000000000BE0000BE0000000000000000000000000000000000000000000000000000000000000000000000000000BE00000000000000000000000000000000BE0000000000000000000000000000000000000000000000000000000000000000000000BE0000000000000000000000000000
310
000000000000000000000000000000000000DC000000000000000000000000000000000000000000000000000000000000000000000000000000000000000000000000000000000000000000000000000000DC000000000000000000000000000000000000000000000000000000BE00000000000000000000000000000000
310
00000000000000000000000000000000000000BE0000BE0000000000000000000000000000000000000000000000000000000000000000000000000000BE00000000000000000000000000000000BE0000000000000000000000000000000000000000000000000000000000000000000000BE000000000000000000000000
310
0000000000000000000000000000000000000000DC000000000000000000000000000000000000000000000000000000000000000000000000000000000000000000000000000000000000000000000000000000DC000000000000000000000000000000000000000000000000000000BE0000000000000000000000000000
310
000000000000000000000000000000000000000000BE0000BE0000000000000000000000000000000000000000000000000000000000000000000000000000BE00000000000000000000000000000000BE0000000000000000000000000000000000000000000000000000000000000000000000BE00000000000000000000
310
00000000000000000000000000000000000000000000DC000000000000000000000000000000000000000000000000000000000000000000000000000000000000000000000000000000000000000000000000000000DC000000000000000000000000000000000000000000000000000000BE000000000000000000000000
310
0000000000000000000000000000000000000000000000BE0000BE0000000000000000000000000000000000000000000000000000000000000000000000000000BE00000000000000000000000000000000BE0000000000000000000000000000000000000000000000000000000000000000000000BE0000000000000000
310
000000000000000000000000000000000000000000000000DC000000000000000000000000000000000000000000000000000000000000000000000000000000000000000000000000000000000000000000000000000000DC000000000000000000000000000000000000000000000000000000BE00000000000000000000
310
00000000000000000000000000000000000000000000000000BE0000BE0000000000000000000000000000000000000000000000000000000000000000000000000000BE00000000000000000000000000000000BE0000000000000000000000000000000000000000000000000000000000000000000000BE000000000000
310
0000000000000000000000000000000000000000000000000000DC000000000000000000000000000000000000000000000000000000000000000000000000000000000000000000000000000000000000000000000000000000DC00000000000000000000000000000000000000BEBEBE0000000000BE0000000000000000
310
000000000000000000000000000000000000000000000000000000BE0000BE0000000000000000000000000000000000000000000000000000000000000000000000000000BE00000000000000000000000000000000BE0000000000000000000000000000000000000000000000000000000000000000000000BE00000000
310
00000000000000000000000000000000000000000000000000000000DC000000000000000000000000000000000000000000000000000000000000000000000000000000000000000000000000000000000000000000000000000000DC00000000000000000000000000000000000000BEBEBE0000000000BE000000000000
310
0000000000000000000000000000000000000000000000000000000000BE0000BE0000000000000000000000000000000000000000000000000000000000000000000000000000BE00000000000000000000000000000000BE0000000000000000000000000000000000000000000000000000000000000000000000BE0000
310
000000000000000000000000000000000000000000000000000000000000DC000000000000000000000000000000000000000000000000000000000000000000000000000000000000000000000000000000000000000000000000000000DC00000000000000000000000000000000BEBEBEBEBEBEBEBEBEBEBEBE28282828
310
282828282D2D28282828282828282828282828282828282828282828282828BE2828BEBEBEBEBEBEBEBEBEBEBEBEBEBEBEBEBE00000000BEBEBEBEBEBEBEBEBEBEBEBEBEBEBEBEBEBE282828282828282828282828282828282828282828282828282828282828282828282828282828282828282828282828282828282828
310
BEBEBEBEBEBEBEBEBEBEBEBEBEBEBEBEBEBEBE00000000000000000000000000DC000000000000000000000000000000000000000000000000000000000000000000000000000000000000000000000000000000000000000000000000000000DC00000000000000000000000000000000BEBE0000BEBEBEBEBEBEBEBE2800
310
000000000000BE2D000000000000000000000000000000002D000000000000000000000028000000000000000000BEBEBE0000BE0000000000BEBE0000000000000000000000000000000028BEBEBEBEBEBEBEBEBEBEBEBEBE28BEBEBEBEBEBE28BEBEBEBEBEBEBEBEBEBEBEBEBEBEBEBEBEBEBEBEBEBEBEBEBEBEBEBEBEBE
310
BEBE000000000000000000000000000000000000BE00000000000000000000000000DC000000000000000000000000000000000000000000000000000000000000000000000000000000000000000000000000000000000000000000000000000000DC00000000000000000000000000000000BEBEBEBEBEBEBEBEBEBEBEBE
310
2828282828282828BEBEBE2828282828282800000000000000BE2D000000000000000000000028000000000000000000BEBEBE0000BE000000000000BE0000000000000000000000000000000028BEBEBEBEBEBEBEBEBEBEBEBEBEBEBEBEBEBEBEBE0000000000000000000000000000000000000000000000000000000000
310
00000028000000000000000000000000000000000000BE00000000000000000000000000DC000000000000000000000000000000000000000000000000000000000000000000000000000000000000000000000000000000000000000000000000000000DC000000000000000000000000000000000000000000BE00000000
310
0028BE00000000000000BE00000000000000000028282828282828BEBEBE2828000000000000000028000000000000000000BEBEBE0000BE000000000000BE0000000000000000000000000000000028BEBEBE00000000000000000000000000BEBEBEBEBEBEBEBEBEBEBEBEBEBEBEBEBEBEBEBEBEBEBEBEBEBEBEBEBEBEBE
310
BEBEBEBEBEBE000000000000000000000000000000000000BE00000000000000000000000000DC000000000000000000000000000000000000000000000000000000000000000000000000000000000000000000000000000000000000000000000000000000DC000000000000000000000000000000000000000000000000
310
00000028BE000000000000000000000000000000000000000000000000000FBEBEBE2800000000000000BEBEBEBEBEBEBEBEBEBEBEBEBE0000BE000000000000BE0000000000000000000000000000000028BEBE00BEBEBEBEBEBEBEBEBEBEBEBEBE2800000000000000000000000000000000000000000000000000000000
310
0000000000000028000000000000000000000000000000000000BE00000000000000000000000000DC000000000000000000000000000000000000000000000000000000000000000000000000000000000000000000000000000000000000000000000000000000DC00000000000000000000000000000000000000000000
310
000000000028BE0000000000000000000000000000000000000000000000BEBEBE0000BE0028000000000000280000000000000000000000BE0000BE000000000000BE0000000000000000000000000000000028BEBE00BEBEBE00000000000000000000280000000000000000000000000000000000000000000000000000
310
00000000000000000028000000000000000000000000000000000000BE00000000000000000000000000DC000000000000000000000000000000000000000000000000000000000000000000000000000000000000000000000000000000000000000000000000000000DC0000000000000000000000000000000000000000
310
000000000000BEBEBEBE00000000000000000000000000000000000000000000BEBEBE0000BE0000280000000000280000000000000000000000BE0000BE000000000000BE0000000000000000000000000000000028BEBE00BE00BEBE00000000000000000028000000000000000000000000000000000000000000000000
310
000000000000000000000028000000000000000000000000000000000000BE00000000000000000000000000DC000000000000000000000000000000000000000000000000000000000000000000000000000000000000000000000000000000000000000000000000000000DC000000000000000000000000000000000000
310
00000000000000BEBEBEBE0000000000000000000000000000000000000000000000BEBEBE0000BE0000002800000000280000000000000000000000BE00BEBE00000000BEBEBE000000000000000000000000000000BE28BEBEBEBEBEBEBEBEBEBEBEBEBEBE00002828282828282828282828282828282828282828282828
310
2828282828282828282828282828000000000000000000000000000000000000BE00000000000000000000000000DC000000000000000000000000000000000000000000000000000000000000000000000000000000000000000000000000000000000000000000000000000000DC00000000000000000000000000000000
310
000000000000000000BEBE28BE000000000000000000000000000000000000000000000000BEBE0000BE0000000028000000280000000000000000000000BE00BEBE00000000BEBEBE000000000000000000000000000000BE28BEBEBEBEBE0000BEBEBE00BE00000000280000000000000000000000000000000000000000
310
00000000000000000000000000000028000000000000000000000000000000000000BE00000000000000000000000000DC000000000000000000000000000000000000000000000000000000000000000000000000000000000000000000000000000000000000000000000000000000DC0000000000000000000000000000
310
0000000000000000000000000028BE00000000000000000000000000000000000000000000000000BEBEBEBEBEBEBEBEBE28000028000000000000000000BEBEBE00BEBE00000000BEBEBE0000000000000000000000000000000028BEBE00BE00000000282828282828282828000000000000000000000000000000000000
310
000000000000000000000000000000000028000000000000000000000000000000000000BE00000000000000000000000000DC000000000000000000000000000000000000000000000000000000000000000000000000000000000000000000000000000000000000000000000000000000DC000000000000000000000000
310
00000000000000000000000000000028BE00000000000000000000000000000000000000000000000000000000BE0000000000BE000028000000000000000000BEBEBE00BEBE00000000BEBEBE0000000000000000000000000000000028BEBE00BE0000000028000000000000002800000000000000000000000000000000
310
0000000000000000000000000000000000000028000000000000000000000000000000000000BE00000000000000000000000000DC000000000000000000000000000000000000000000000000000000000000000000000000000000000000000000000000000000000000000000000000000000DC00000000000000000000
310
000000000000000000000000000000000028BE00000000000000000000000000000000000000000000000000000000BE0000000000BEBE0028000000000000000000BEBEBE0000BE000000000000BE0000000000000000000000000000000028BEBE00BE000000002800000000BEBEBE280000000000000000000000000000
310
00000000000000000000000000000000000000000028000000000000000000000000000000000000BE00000000000000000000000000DC000000000000000000000000000000000000000000000000000000000000000000000000000000000000000000000000000000000000000000000000000000DC0000000000000000
310
0000000000000000000000000000000000000028BE00000000000000000000000000000000000000000000000000000000BE0000000000BE282D28000000000000000000BEBEBE0000BE000000000000BE0000000000000000000000000000000028BEBE00BE0000000028000000002828282828BEBE280000000000000000
310
00000000000000000000000000000000000000000000002800000000000000000000000000000000BEBEBE00000000000000000000000000DC000000000000000000000000000000000000000000000000000000000000000000000000000000000000000000000000000000000000000000000000000000DC000000000000
310
00000000000000000000000000000000000000000028BE00000000000000000000000000000000000000000000000000000000BE0000000000BEBE00280000000000000000000000BE0000BE000000000000BE0000000000000000000000000000000028BEBE00BE0000000028000000002828282828282828000000000000
310
000000000000000000000000000000000000000000000000002800000000000000000000000000000000BEBEBE00000000000000000000000000DC000000000000000000000000000000000000000000000000000000000000000000000000000000000000000000000000000000000000000000000000000000DC00000000
310
000000000000000000000000000000000000000000000028BE00000000000000BEBEBE0000000000000000000000000000BEBEBE00BEBEBEBEBEBEBE0000280000000000000000000000BE0000BE000000000000BE0000000000000000000000000000000028282800BE000000002800BE2828000000282800000000000000
310
0000000000000000000000000000000000000000000000000000002800000000000000000000000000000000BEBEBE00000000000000000000000000DC000000000000000000000000000000000000000000000000000000000000000000000000000000000000000000000000000000000000000000000000000000DC0000
310
0000000000000000000000000000000000000000000000000028BE00000000000000BEBEBE0000000000000000000000000000BEBEBE000000BEBEBE00280000280000000000000000000000BE0000BE000000000000BE0000000000000000000000000000000028BEBE00BE000000002800BE282800000028280000000000
310
00000000000000000000000000000000000000000000000000000000002800000000000000000000000000000000BEBEBE00000000000000000000000000DC000000000000000000000000000000000000000000000000000000000000000000000000000000000000000000000000000000000000000000000000000000DC
310
00000000000000000000000000000000000000000000000000000028BE00000000000000BEBEBE0000000000000000000000000000BEBEBE00000000000000280000280000000000000000000000BE0000BE000000000000BE0000000000000000000000000000000028BEBE00BE000000002800BE28280000002828000000
310
0000000000000000000000000000000000000000000000000000000000000028000000000000000000000000000000000000BE00000000000000000000000000DC0000000000000000000000000000000000000000000000000000000000000000000000000000000000000000000000000000000000000000000000000000
310
00DC00000000000000000000000000000000000000000000000000000028BE28282828282828BEBEBE2828282828282828282828282828BE28BE28282828BE2828282828BEBEBEBEBEBEBEBEBEBEBEBEBEBEBEBEBE00000000BEBEBEBEBEBEBEBEBEBEBEBEBEBEBEBEBEBE28282828282828282828282828282828280F2800
310
00000000000000000000BEBEBEBEBEBEBEBEBEBEBEBEBEBEBEBEBE00000000000028000000000000000000000000000000000000BE00000000000000000000000000DC000000000000000000000000000000000000000000000000000000000000000000000000000000000000000000000000000000000000000000000000
310
000000DC00000000000000000000000000000000000000000000000000000028000000000000000028BE00000000000000000000000000000000BE2800000000BE0000BEBEBEBE00000000000000000000BEBE0000BE0000000000BEBE000000000000000000000000000000002828BEBE0000002800000000282828282828
310
0F2800000028000000000000BEBEBEBEBEBEBE0000BEBEBE00BE00BE0000000000002800000000000000000000000000000000000000BE00000000000000000000000000DC00000000000000000000000000000000000000000000000000000000000000000000000000000000000000000000000000000000000000000000
310
0000000000DC000000000000000000000000000000000000000000000000000000280000000000000000BEBE00000000000000000000000000000000BE2800000000BE0000BE00BE280000000000000000000000BE0000BE000000000000BE0000000000000000000000000000000028BEBEBE0000002800000000BE280000
310
0000280F2800BEBE280000000000000000000000000000000000000000000000000000002800000000000000000000000000000000000000BE00000000000000000000000000DC0000000000000000000000000000000000000000000000000000000000000000000000000000000000000000000000000000000000000000
310
00000000000000DC000000000000000000000000000000000000000000000000000000280000000000000000BEBE00000000000000000000000000000000BE2800000000BE0000BE00BE280000000000000000000000BE0000BE000000000000BE00000000000000000000000000000000282828BE0000002800000000BE28
310
0000000000280028BEBE000000000000000000000000000000000000000000000000000000002800000000000000000000000000000000000000BE00000000000000000000000000DC000000000000000000000000000000000000000000000000000000000000000000000000000000000000000000000000000000000000
310
000000000000000000DC000000000000000000000000000000000000000000000000000000280000000000000000000000000000000000000000000000000000000000000000BE0000BE00BE28000000000000000000BEBEBE0000BE000000000000BE0000000000000000000000000000000028BE00BE0000002800000000
310
000000000000000028282800000000000000000000000000000000000000000000000000000000002800000000000000000000000000000000000000BE00000000000000000000000000DC00000000000000000000000000000000000000000000000000000000000000000000000000000000000000000000000000000000
310
0000000000000000000000DC00000000000000000000000000000000000000000000000000000028000000000000000000000000000000000000000000000000000000000F000000BE0000BE00BE28000000000000000000BEBEBE0000BE000000000000BE0000000000000000000000000000000028BE00BE000000280000
310
00000000000000000028BE280F28000000000000000000000000000000000000000000000000000000002800000000000000000000000000000000000000BE00000000000000000000000000DC0000000000000000000000000000000000000000000000000000000000000000000000000000000000000000000000000000
310
00000000000000000000000000DC00000000000000000000000000000000000000000000000000000028000000000000000000000000000000000000000000000000000000000F000000BE0000BE00BE28000000000000000000BEBEBE0000BE000000000000BE0000000000000000000000000000000028BE00BE00000028
310
000000000000000000002828BE00280F280000000000000000000000000000000000000000000000000000002800000000000000000000000000000000000000BE00000000000000000000000000DC000000000000000000000000000000000000000000000000000000000000000000000000000000000000000000000000
310
000000000000000000000000000000DC00000000000000000000000000000000000000000000000000000028000000000000000000000000000000000000000000000000000000000F000000BE0000BE00BE280000000000000000000000BE0000BE000000000000BE0000000000000000000000000000000028BE00BE0000
310
0028000000000000000000000000000000280F280000BE28000000000000000000000000000000000000000000002800000000000000000000000000000000000000BE00000000000000000000000000DC00000000000000000000000000000000000000000000000000000000000000000000000000000000000000000000
310
0000000000000000000000000000000000DC0000000000000000000000000000000000000000000000000000002800000000000000000000000000000000000000000000000000000000BE000000BE0000BE00BE2800000000000000000000BEBE0000BE000000000000BE0000000000000000000000000000000028BE00BE
310
0000002800000000000000000000000000000000280F28BEBE00000000000000000000000000000000000000000000002800000000000000000000000000000000000000BE00000000000000000000000000DC0000000000000000000000000000000000000000000000000000000000000000000000000000000000000000
310
00000000000000000000000000000000000000DC0000000000000000000000000000000000000000000000000000002800000000000000000000000000000000000000000000000F0F0F0FBEBEBE0F0FBE0F0FBE00BEBEBEBEBEBEBEBEBEBEBEBEBEBE0000BE000000000000BE0000000000000000000000000000000028BE
310
00BE000000280000000000000000000000000000000000280F0F0000000000000000000000000000000000000000000000002800000000000000000000000000000000000000BE00000000000000000000000000DC000000000000000000000000000000000000000000000000000000000000000000000000000000000000
310
000000000000000000000000000000000000000000DC000000000000000000000000000000000000000000000000000000280000000000000000000000000000000000000000000000000000BEBEBE000000BE0000BE00BE2800000000000000000000BEBE0000BE000000000000BE00000000000000000000000000000000
310
28BE00BE000000280000000000000000000000000000000000BEBE0F28000000000000000000000000000000000000BE000000002800000000000000000000000000000000000000BE00000000000000000000000000DC00000000000000000000000000000000000000000000000000000000000000000000000000000000
310
0000000000000000000000000000000000000000000000DC00000000000000000000000000000000000000000000000000000028000000000000000000000000000000000000000000000000BEBE00000F000000BE0000BE00BE280000000000000000000000BE0000BE000000000000BE0000000000000000000000000000
310
000028BE00BE0000002800000000000000000000000000000000BEBE00280F282828282828282828282828282828282828282828282828BEBEBEBEBEBEBEBEBEBEBEBEBEBEBEBEBEBEBEBE00000000000000000000000000DC0000000000000000000000000000000000000000000000000000000000000000000000000000
310
00000000000000000000000000000000000000000000000000DC000000000000000000000000000000000000000000000000000000280000000000000000000000000000000000000000000000BE000000000F000000BE0000BE00BE280000000000000000000000BE0000BE000000000000BE000000000000000000000000
310
0000000028BE00BE00000028000000000000000000000000000000002800000028BEBEBEBEBEBEBEBEBEBEBEBEBEBEBEBEBEBEBE0000000000000000000000000000000000000000000000000000000000000000000000000000DC000000000000000000000000000000000000000000000000000000000000000000000000
310
000000000000000000000000000000000000000000000000000000DC0000000000000000000000000000000000000000000000000000002800000000000000000000000000000000000000000000BE00000000000F000000BE0000BE00BE280000000000000000000000BE0000BE000000000000BE00000000000000000000
310
00000000000028BE00BE0000002800000000000000000000000000000000000000002800000000000000000000000000000000BEBEBE0000000000000000000000000000000000000000000000000000000000000000000000000000DC00000000000000000000000000000000000000000000000000000000000000000000
310
0000000000000000000000000000000000000000000000000000000000DC000000000000000000000000000000000000000000000000000000280000000000000000000000000000000000000000BEBEBE00000000000F000000BE0000BE00BE280000000000000000000000BE0000BE000000000000BE0000000000000000
310
000000000000000028BE00BE0000002800000000000000000000000000000000000000002800000000000000000000000000000000BEBEBE0000000000000000000000000000000000000000000000000000000000000000000000000000DC0000000000000000000000000000000000000000000000000000000000000000
310
00000000000000000000000000000000000000000000000000000000000000DC000000000000000000000000000000000000000000000000000000280000000000000000000000000000000000000000BEBEBE00000000000F000000BE0000BE00BE280000000000000000000000BE0000BE000000000000BE000000000000
310
0000000000000000000028BE00BE00000028000000000000000000000000000000000000000028000000000000000000000000000000000000BE0000000000000000000000000000000000000000000000000000000000000000000000000000DC000000000000000000000000000000000000000000000000000000000000
310
000000000000000000000000000000000000000000000000000000000000000000DC000000000000000000000000000000000000000000000000000000280000000000000000000000000000000000000000BEBEBE00000000000F000000BE0000BE00BE28000000000000000000BEBEBE00BEBE00000000BEBEBE00000000
310
00000000000000000000000028BE00BE00000028000000000000000000000000000000000000000028000000000000000000000000000000000000BE0000000000000000000000000000000000000000000000000000000000000000000000000000DC00000000000000000000000000000000000000000000000000000000
310
0000000000000000000000000000000000000000000000000000000000000000000000DC000000000000000000000000000000000000000000000000000000280000000000000000000000000000000000000000BEBEBE00000000000F000000BE0000BEBEBE28000000000000000000BEBEBE00BEBE00000000BEBEBE0000
310
000000000000000000000000000028BE00BE00000028000000000000000000000000000000000000000028000000000000000000000000000000000000BE0000000000000000000000000000000000000000000000000000000000000000000000000000DC0000000000000000000000000000000000000000000000000000
310
00000000000000000000000000000000000000000000000000000000000000000000000000DC000000000000000000000000000000000000000000000000000000280000000000000000000000000000000000000000BEBEBE00000000000F000000BE0000BEBEBE28000000000000000000BEBEBE00BEBE00000000BEBEBE
310
0000000000000000000000000000000028BE00BE00000028000000000000000000000000000000000000000028000000000000000000000000000000000000BE0000000000000000000000000000000000000000000000000000000000000000000000000000DC000000000000000000000000000000000000000000000000
310
000000000000000000000000000000000000000000000000000000000000000000000000000000DC0000000000000000000000000000000000000000000000000000002800000000000000000000000000000000000000000000BE00000000000F000000BE0000BE00BE28000000000000000000BEBEBE00BEBE00000000BE
310
BEBE0000000000000000000000000000000028BE00BE00000028000000000000000000000000000000000000000028000000000000000000000000000000000000BE0000000000000000000000000000000000000000000000000000000000000000000000000000DC00000000000000000000000000000000000000000000
310
0000000000000000000000000000000000000000000000000000000000000000000000000000000000DC00000000000000000000000000000000000000000000000000000028000000000000000000000000000000000000000000000000000000000F000000BE0000BE00BE280000000000000000000000BE00BEBE000000
310
00BEBEBE0000000000000000000000000000000028BE00BE00000028000000000000000000000000000000000000000028000000000000000000000000000000000000BE0000000000000000000000000000000000000000000000000000000000000000000000000000DC0000000000000000000000000000000000000000
310
00000000000000000000000000000000000000000000000000000000000000000000000000000000000000DC00000000000000000000000000000000000000000000000000000028000000000000000000000000000000000000000000000000000000000F000000BE0000BE00BE280000000000000000000000BE0000BE00
310
0000000000BE0000000000000000000000000000000028BE00BE0000002800000000000000000000000000000000000000002800000000000000000000000000000000BEBEBE0000000000000000000000000000000000000000000000000000000000000000000000000000DC000000000000000000000000000000000000
310
000000000000000000000000000000000000000000000000000000000000000000000000000000000000000000DC00000000000000000000000000000000000000000000000000000028000000000000000000000000000000000000000000000000000000000F000000BE0000BE00BE280000000000000000000000BE0000
310
BE000000000000BE0000000000000000000000000000000028BE00BE0000002800000000000000000000000000000000000000002800000000000000000000000000000000BEBEBE0000000000000000000000000000000000000000000000000000000000000000000000000000DC00000000000000000000000000000000
310
0000000000000000000000000000000000000000000000000000000000000000000000000000000000000000000000DC00000000000000000000000000000000000000000000000000000028000000000000000000000000000000000000000000000000000000000F000000BE0000BE00BE280000000000000000000000BE
310
0000BE000000000000BE0000000000000000000000000000000028BE00BE0000002800000000000000000000000000000000000000002800000000000000000000000000000000BEBEBE0000000000000000000000000000000000000000000000000000000000000000000000000000DC0000000000000000000000000000
310
00000000000000000000000000000000000000000000000000000000000000000000000000000000000000000000000000DC00000000000000000000000000000000000000000000000000000028000000000000000000000000000000000000000000000000000000000F000000BE0000BE00BE2800000000000000000000
310
00BE0000BE000000000000BE0000000000000000000000000000000028BE00BE000000280000BEBEBEBEBEBEBEBEBEBEBEBEBEBEBEBEBE002800000000000000000000000000000000BEBEBE0000000000000000000000000000000000000000000000000000000000000000000000000000DC000000000000000000000000
310
000000000000000000000000000000000000000000000000000000000000000000000000000000000000000000000000000000DC00000000000000000000000000000000000000000000000000000028000000000000000000000000000000000000000000000000000000000F000000BE0000BE00BE280000000000000000
310
000000BE0000BE000000000000BE0000000000000000000000000000000028BE00BE000000280000BEBEBEBEBEBE000000BE000000BE00BE00002800000000000000000000000000000000BEBEBE0000000000000000000000000000000000000000000000000000000000000000000000000000DC00000000000000000000
310
0000000000000000000000000000000000000000000000000000000000000000000000000000000000000000000000000000000000DC00000000000000000000000000000000000000000000000000000028000000000000000000000000000000000000000000000000000000BEBE000000BE0000BE00BE28000000000000
310
00000000BEBE0000BE000000000000BE0000000000000000000000000000000028BE00BE00000028000000000000000000000000000000000000000028000000000000000000000000000000000000BE0000000000000000000000000000000000000000000000000000000000000000000000000000DC0000000000000000
310
00000000000000000000000000000000000000000000000000000000000000000000000000000000000000000000000000000000000000DC0000000000000000000000000000000000000000000000000000002800000000000000000000000000000000000000000000000F0F0F0FBEBEBE0F0FBE0F0FBE00BEBEBEBEBEBE
310
BEBEBEBEBEBEBEBE0000BE000000000000BE0000000000000000000000000000000028BE00BE00000028000000000000000000000000000000000000000028000000000000000000000000000000000000BE0000000000000000000000000000000000000000000000000000000000000000000000000000DC000000000000
310
000000000000000000000000000000000000000000000000000000000000000000000000000000000000000000000000000000000000000000DC00000000000000000000000000000000000000000000000000000028000000000000000000000000000000000000000000000000000000000F000000BE0000BE00BE280000
310
000000000000000000BE0000BE000000000000BE0000000000000000000000000000000028BE00BE00000028000000000000000000000000000000000000000028000000000000000000000000000000000000BE0000000000000000000000000000000000000000000000000000000000000000000000000000DC00000000
310
0000000000000000000000000000000000000000000000000000000000000000000000000000000000000000000000000000000000000000000000DC00000000000000000000000000000000000000000000000000000028000000000000000000000000000000000000000000000000000000000F000000BE0000BE00BE28
310
0000000000000000000000BE0000BE000000000000BE0000000000000000000000000000000028BE00BE00000028000000000000000000000000000000000000000028000000000000000000000000000000000000BE0000000000000000000000000000000000000000000000000000000000000000000000000000DC0000
310
00000000000000000000000000000000000000000000000000000000000000000000000000000000000000000000000000000000000000000000000000DC00000000000000000000000000000000000000000000000000000028000000000000000000000000000000000000000000000000000000000F000000BE0000BE00
310
BE28000000000000000000BEBEBE0000BE000000000000BE0000000000000000000000000000000028BE00BE00000028000000000000000000000000000000000000000028000000000000000000000000000000000000BE0000000000000000000000000000000000000000000000000000000000000000000000000000DC
310
000000000000000000000000000000000000000000000000000000000000000000000000000000000000000000000000000000000000000000000000000000DC00000000000000000000000000000000000000000000000000000028000000000000000000000000000000000000000000000000000000000F000000BE0000
310
BE00BE28000000000000000000BEBEBE0000BE000000000000BE0000000000000000000000000000000028BE00BE00000028000000000000000000000000000000000000000028000000000000000000000000000000000000BE00000000000000000000000000000000000000000000000000000000000000000000000000
310
00DC000000000000000000000000000000000000000000000000000000000000000000000000000000000000000000000000000000000000000000000000000000DC000000000000000000000000000000000000000000000000000000280000000000000000000000000000000000000000000000000000000000000000BE
310
0000BE00BE28000000000000000000BEBEBE0000BE000000000000BE0000000000000000000000000000000028BE00BE00000028000000000000000000000000000000000000000028000000000000000000000000000000000000BE0000000000000000000000000000000000000000000000000000000000000000000000
310
000000DC000000000000000000000000000000000000000000000000000000000000000000000000000000000000000000000000000000000000000000000000000000DC0000000000000000000000000000000000000000000000000000002800000000000000000000000000000000000000000000000000000000000000
310
00BE0000BE00BE280000000000000000000000BE0000BE000000000000BE0000000000000000000000000000000028BE00BE00000028000000000000000000000000000000000000000028000000000000000000000000000000000000BE000000000000000000000000000000000000000000000000000000000000000000
310
0000000000DC000000000000000000000000000000000000000000000000000000000000000000000000000000000000000000000000000000000000000000000000000000DC000000000000000000000000000000000000000000000000000000280000000000000000000000000000000000000000000000000000000000
310
000000BE0000BE00BE280000000000000000000000BE0000BE000000000000BE0000000000000000000000000000000028BE00BE00000028000000000000000000000000000000000000000028000000000000000000000000000000000000BE00000000000000000000000000000000000000000000000000000000000000
310
00000000000000DC000000000000000000000000000000000000000000000000000000000000000000000000000000000000000000000000000000000000000000000000000000DC00000000000000000000000000000000000000000000000000000028282828282828282828282828282828282828282828282828282828
310
2828282828BE2828BEBEBEBEBEBEBEBEBEBEBEBEBEBEBEBEBEBEBEBE00000000BEBEBEBEBEBEBEBEBEBEBEBEBEBEBEBEBEBE2828282828282828282828282828282828282828282828282828282828BEBEBEBEBEBEBEBEBEBEBEBEBEBEBEBEBEBEBE0000000000000000000000000000000000000000000000000000000000
310
000000000000000000DC000000000000000000000000000000000000000000000000000000000000000000000000000000000000000000000000000000000000000000000000000000DC0000000000000000000000000000000000000000000000000000000000000000000000000000000000000000000000000000000000
310
00000000000000000000000000000000000000000000000000000000000000000000000000000000000000000000000000000000BE000000000000000000000000000000000000000000000000000000BE00000000000000000000000000000000BEBEBE000000000000000000000000000000000000000000000000000000
310
0000000000000000000000DC000000000000000000000000000000000000000000000000000000000000000000000000000000000000000000000000000000000000000000000000000000DC000000000000000000000000000000000000000000000000000000000000000000000000000000000000000000000000000000
310
000000000000000000000000000000000000000000000000000000000000000000000000000000000000000000000000000000000000BE000000000000000000000000000000000000000000000000000000BE00000000000000000000000000000000BEBEBE00000000000000000000000000000000000000000000000000
310
00000000000000000000000000DC000000000000000000000000000000000000000000000000000000000000000000000000000000000000000000000000000000000000000000000000000000DC00000000000000000000000000000000000000000000000000000000000000000000000000000000000000000000000000
310
0000000000000000000000000000000000000000000000000000000000000000000000000000000000000000000000000000000000000000BE000000000000000000000000000000000000000000000000000000BE0000000000000000000000000000000000BE000000000000000000000000000000000000000000000000
310
000000000000000000000000000000DC000000000000000000000000000000000000000000000000000000000000000000000000000000000000000000000000000000000000000000000000000000DC0000000000000000000000000000000000000000000000000000000000000000000000000000000000000000000000
310
00000000000000000000000000000000000000000000000000000000000000000000000000000000000000000000000000000000000000000000BE000000000000000000000000000000000000000000000000000000BE00000000000000000000000000000000000000000000000000000000000000000000000000000000
310
0000000000000000000000000000000000DC000000000000000000000000000000000000000000000000000000000000000000000000000000000000000000000000000000000000000000000000000000DC000000000000000000000000000000000000000000000000000000000000000000000000000000000000000000
310
000000000000000000000000000000000000000000000000000000000000000000000000000000000000000000000000000000000000000000000000BE000000000000000000000000000000000000000000000000000000BE0000000000000000000000000000000000000000000000000000000000000000000000000000
310
00000000000000000000000000000000000000DC000000000000000000000000000000000000000000000000000000000000000000000000000000000000000000000000000000000000000000000000000000DC00000000000000000000000000000000000000000000000000000000000000000000000000000000000000
310
0000000000000000000000000000000000000000000000000000000000000000000000000000000000000000000000000000000000000000000000000000BE000000000000000000000000000000000000000000000000000000BE000000000000000000000000000000000000000000000000000000000000000000000000
310
000000000000000000000000000000000000000000DC000000000000000000000000000000000000000000000000000000000000000000000000000000000000000000000000000000000000000000000000000000DC0000000000000000000000000000000000000000000000000000000000000000000000000000000000
310
00000000000000000000000000000000000000000000000000000000000000000000000000000000000000000000000000000000000000000000000000000000BE000000000000000000000000000000000000000000000000000000BE00000000000000000000000000000000000000000000000000000000000000000000
310
0000000000000000000000000000000000000000000000DC000000000000000000000000000000000000000000000000000000000000000000000000000000000000000000000000000000000000000000000000000000DC000000000000000000000000000000000000000000000000000000000000000000000000000000
310
000000000000000000000000000000000000000000000000000000000000000000000000000000000000000000000000000000000000000000000000000000000000BE000000000000000000000000000000000000000000000000000000BE0000000000000000000000000000000000000000000000000000000000000000
310
00000000000000000000000000000000000000000000000000DC000000000000000000000000000000000000000000000000000000000000000000000000000000000000000000000000000000000000000000000000000000DC00000000000000000000000000000000000000000000000000000000000000000000000000
310
0000000000000000000000000000000000000000000000000000000000000000000000000000000000000000000000000000000000000000000000000000000000000000BE000000000000000000000000000000000000000000000000000000BE000000000000000000000000000000000000000000000000000000000000
310
000000000000000000000000000000000000000000000000000000DC000000000000000000000000000000000000000000000000000000000000000000000000000000000000000000000000000000000000000000000000000000DC0000000000000000000000000000000000000000000000000000000000000000000000
310
00000000000000000000000000000000000000000000000000000000000000000000000000000000000000000000000000000000000000000000000000000000000000000000BE000000000000000000000000000000000000000000000000000000BE00000000000000000000000000000000000000000000000000000000
310
0000000000000000000000000000000000000000000000000000000000DC000000000000000000000000000000000000000000000000000000000000000000000000000000000000000000000000000000000000000000000000000000DC000000000000000000000000000000000000000000000000000000000000000000
310
000000000000000000000000000000000000000000000000000000000000000000000000000000000000000000000000000000000000000000000000000000000000000000000000BE000000000000000000000000000000000000000000000000000000BE0000000000000000000000000000000000000000000000000000
310
00000000000000000000000000000000000000000000000000000000000000DC000000000000000000000000000000000000000000000000000000000000000000000000000000000000000000000000000000000000000000000000000000DC00000000000000000000000000000000000000000000000000000000000000
310
0000000000000000000000000000000000000000000000000000000000000000000000000000000000000000000000000000000000000000000000000000000000000000000000000000BEBE00000000000000000000000000000000000000000000000000BEBE000000000000000000000000000000000000000000000000
310
000000000000000000000000000000000000000000000000000000000000000000DC000000000000000000000000000000000000000000000000000000000000000000000000000000000000000000000000000000000000000000000000000000DC0000000000000000000000000000000000000000000000000000000000
310
00000000000000000000000000000000000000000000000000000000000000000000000000000000000000000000000000000000000000000000000000000000000000000000000000000000BEBEBEBEBEBEBEBEBEBEBEBEBEBEBEBEBEBEBEBEBEBEBEBEBEBEBEBEBE00000000000000000000000000000000000000000000
310
0000000000000000000000000000000000000000000000000000000000000000000000DC000000000000000000000000000000000000000000000000000000000000000000000000000000000000000000000000000000000000000000000000000000DC000000000000000000000000000000000000000000000000000000
310
000000000000000000000000000000000000000000000000000000000000000000000000000000000000000000000000000000000000000000000000000000000000000000000000000000000000000000000000000000000000BEBEBEBEBE0000000000000000000000000000000000000000000000000000000000000000
310
00000000000000000000000000000000000000000000000000000000000000000000000000DC000000000000000000000000000000000000000000000000000000000000000000000000000000000000000000000000000000000000000000000000000000DC00000000000000000000000000000000000000000000000000
310
00000000000000000000000000000000000000000000000000000000000000000000000000000000000000000000000000000000000000000000000000000000000000000000000000000000000000000000000000000000000000000000000000000000000000000000000000000000000000000000000000000000000000
310
000000000000000000000000000000000000000000000000000000000000000000000000000000DC000000000000000000000000000000000000000000000000000000000000000000000000000000000000000000000000000000000000000000000000000000DC0000000000000000000000000000000000000000000000
310
00000000000000000000000000000000000000000000000000000000000000000000000000000000000000000000000000000000000000000000000000000000000000000000000000000000000000000000000000000000000000000000000000000000000000000000000000000000000000000000000000000000000000
310
0000000000000000000000000000000000000000000000000000000000000000000000000000000000DC000000000000000000000000000000000000000000000000000000000000000000000000000000000000000000000000000000000000000000000000000000DC000000000000000000000000000000000000000000
310
00000000000000000000000000000000000000000000000000000000000000000000000000000000000000000000000000000000000000000000000000000000000000000000000000000000000000000000000000000000000000000000000000000000000000000000000000000000000000000000000000000000000000
310
00000000000000000000000000000000000000000000000000000000000000000000000000000000000000DC000000000000000000000000000000000000000000000000000000000000000000000000000000000000000000000000000000000000000000000000000000DCDCDCDCDCDCDCDCDCDCDCDCDCDCDCDCDCDCDCDC
310
DCDCDCDCDCDCDCDCDCDCDCDCDCDCDCDCDCDCDCDCDCDCDCDCDCDCDCDCDCDCDCDCDCDCDCDCDCDCDCDCDCDCDCDCDCDCDCDCDCDCDCDCDCDCDCDCDCDCDCDCDCDCDCDCDCDCDCDCDCDCDCDCDCDCDCDCDCDCDCDCDCDCDCDCDCDCDCDCDCDCDCDCDCDCDCDCDCDCDCDCDCDCDCDCDCDCDCDCDCDCDCDCDCDCDCDCDCDCDCDCDCDCDCDCDCDCDC
310
DCDCDCDCDCDCDCDCDCDCDCDCDCDCDCDCDCDCDCDCDCDCDCDCDCDCDCDCDCDCDCDCDCDCDCDCDCDCDCDCDCDCDCDCDCDC000000000000000000000000000000000000000000000000000000000000000000000000000000000000000000000000000000000000000000000000000000000000000000000000000000000000000000
310
00000000000000000000000000000000000000000000000000000000000000000000000000000000000000000000000000000000000000000000000000000000000000000000000000000000000000000000000000000000000000000000000000000000000000000000000000000000000000000000000000000000000000
310
00000000000000000000000000000000000000000000000000000000000000000000000000000000000000000000000000000000000000000000000000000000000000000000000000000000000000000000000000000000000000000000000000000000000000000000000000000000000000000000000000000000000000
310
00000000000000000000000000000000000000000000000000000000000000000000000000000000000000000000000000000000000000000000000000000000000000000000000000000000000000000000000000000000000000000000000000000000000000000000000000000000000000000000000000000000000000
310
00000000000000000000000000000000000000000000000000000000000000000000000000000000000000000000000000000000000000000000000000000000000000000000000000000000000000000000000000000000000000000000000000000000000000000000000000000000000000000000000000000000000000
310
00000000000000000000000000000000000000000000000000000000000000000000000000000000000000000000000000000000000000000000000000000000000000000000000000000000000000000000000000000000000000000000000000000000000000000000000000000000000000000000000000000000000000
310
00000000000000000000000000000000000000000000000000000000000000000000000000000000000000000000000000000000000000000000000000000000000000000000000000000000000000000000000000000000000000000000000000000000000000000000000000000000000000000000000000000000000000
310
00000000000000000000000000000000000000000000000000000000000000000000000000000000000000000000000000000000000000000000000000000000000000000000000000000000000000000000000000000000000000000000000000000000000000000000000000000000000000000000000000000000000000
310
00000000000000000000000000000000000000000000000000000000000000000000000000000000000000000000000000000000000000000000000000000000000000000000000000000000000000000000000000000000000000000000000000000000000000000000000000000000000000000000000000000000000000
310
00000000000000000000000000000000000000000000000000000000000000000000000000000000000000000000000000000000000000000000000000000000000000000000000000000000000000000000000000000000000000000000000000000000000000000000000000000000000000000000000000000000000000
310
00000000000000000000000000000000000000000000000000000000000000000000000000000000000000000000000000000000000000000000000000000000000000000000000000000000000000000000000000000000000000000000000000000000000000000000000000000000000000000000000000000000000000
310
00000000000000000000000000000000000000000000000000000000000000000000000000000000000000000000000000000000000000000000000000000000000000000000000000000000000000000000000000000000000000000000000000000000000000000000000000000000000000000000000000000000000000
310
00000000000000000000000000000000000000000000000000000000000000000000000000000000000000000000000000000000000000000000000000000000000000000000000000000000000000000000000000000000000000000000000000000000000000000000000000000000000000000000000000000000000000
310
00000000000000000000000000000000000000000000000000000000000000000000000000000000000000000000000000000000000000000000000000000000000000000000000000000000000000000000000000000000000000000000000000000000000000000000000000000000000000000000000000000000000000
310
00000000000000000000000000000000000000000000000000000000000000000000000000000000000000000000000000000000000000000000000000000000000000000000000000000000000000000000000000000000000000000000000000000000000000000000000000000000000000000000000000000000000000
310
00000000000000000000000000000000000000000000000000000000000000000000000000000000000000000000000000000000000000000000000000000000000000000000000000000000000000000000000000000000000000000000000000000000000000000000000000000000000000000000000000000000000000
310
00000000000000000000000000000000000000000000000000000000000000000000000000000000000000000000000000000000000000000000000000000000000000000000000000000000000000000000000000000000000000000000000000000000000000000000000000000000000000000000000000000000000000
310
00000000000000000000000000000000000000000000000000000000000000000000000000000000000000000000000000000000000000000000000000000000000000000000000000000000000000000000000000000000000000000000000000000000000000000000000000000000000000000000000000000000000000
310
00000000000000000000000000000000000000000000000000000000000000000000000000000000000000000000000000000000000000000000000000000000000000000000000000000000000000000000000000000000000000000000000000000000000000000000000000000000000000000000000000000000000000
310
00000000000000000000000000000000000000000000000000000000000000000000000000000000000000000000000000000000000000000000000000000000000000000000000000000000000000000000000000000000000000000000000000000000000000000000000000000000000000000000000000000000000000
310
00000000000000000000000000000000000000000000000000000000000000000000000000000000000000000000000000000000000000000000000000000000000000000000000000000000000000000000000000000000000000000000000000000000000000000000000000000000000000000000000000000000000000
310
00000000000000000000000000000000000000000000000000000000000000000000000000000000000000000000000000000000000000000000000000000000000000000000000000000000000000000000000000000000000000000000000000000000000000000000000000000000000000000000000000000000000000
310
00000000000000000000000000000000000000000000000000000000000000000000000000000000000000000000000000000000000000000000000000000000000000000000000000000000000000000000000000000000000000000000000000000000000000000000000000000000000000000000000000000000000000
310
00000000000000000000000000000000000000000000000000000000000000000000000000000000000000000000000000000000000000000000000000000000000000000000000000000000000000000000000000000000000000000000000000000000000000000000000000000000000000000000000000000000000000
310
00000000000000000000000000000000000000000000000000000000000000000000000000000000000000000000000000000000000000000000000000000000000000000000000000000000000000000000000000000000000000000000000000000000000000000000000000000000000000000000000000000000000000
310
00000000000000000000000000000000000000000000000000000000000000000000000000000000000000000000000000000000000000000000000000000000000000000000000000000000000000000000000000000000000000000000000000000000000000000000000000000000000000000000000000000000000000
310
0000000000000000000000000000000000000000000000000000000000000000000000000000000000000000000000000000000000000000000000000000000000000000000000000000000000000000000000000000000000000000000000000000000000000000000000000000000000000000000000000000
  0
XRECORD
  5
6B05
102
{ACAD_REACTORS
330
6B04
102
}
330
6B04
100
AcDbXrecord
280
     1
102
MATERIAL
148
0.0
149
0.0
149
0.0
 93
        0
 94
      127
282
     0
 72
     0
 77
     0
171
     0
175
     0
179
     0
273
     0
  0
XRECORD
  5
6B07
102
{ACAD_REACTORS
330
6B06
102
}
330
6B06
100
AcDbXrecord
280
     1
102
MATERIAL
148
0.0
149
0.0
149
0.0
 93
        0
 94
      127
282
     0
 72
     0
 77
     0
171
     0
175
     0
179
     0
273
     0
  0
XRECORD
  5
6B09
102
{ACAD_REACTORS
330
6B08
102
}
330
6B08
100
AcDbXrecord
280
     1
102
MATERIAL
148
0.0
149
0.0
149
0.0
 93
        0
 94
      127
282
     0
 72
     0
 77
     0
171
     0
175
     0
179
     0
273
     0
  0
XRECORD
  5
6AF6
102
{ACAD_REACTORS
330
6AF5
102
}
330
6AF5
100
AcDbXrecord
280
     1
102
DISPLAYNAME
  1
Imperial24
102
FLAGS
 90
        0
  0
CELLSTYLEMAP
  5
6B0C
102
{ACAD_REACTORS
330
6B0A
102
}
330
6B0A
100
AcDbCellStyleMap
 90
        3
300
CELLSTYLE
  1
TABLEFORMAT_BEGIN
 90
        5
170
     1
 91
        0
 92
    32768
 62
   257
 93
        1
300
CONTENTFORMAT
  1
CONTENTFORMAT_BEGIN
 90
        0
 91
        0
 92
        4
 93
        0
300

 40
0.0
140
1.0
 94
        5
 62
     0
340
F
144
0.25
309
CONTENTFORMAT_END
171
     0
 94
        6
 95
        1
302
GRIDFORMAT
  1
GRIDFORMAT_BEGIN
 90
        0
 91
        1
 62
     0
 92
       -2
340
0
 93
        0
 40
0.045
309
GRIDFORMAT_END
 95
        2
302
GRIDFORMAT
  1
GRIDFORMAT_BEGIN
 90
        0
 91
        1
 62
     0
 92
       -2
340
0
 93
        0
 40
0.045
309
GRIDFORMAT_END
 95
        4
302
GRIDFORMAT
  1
GRIDFORMAT_BEGIN
 90
        0
 91
        1
 62
     0
 92
       -2
340
0
 93
        0
 40
0.045
309
GRIDFORMAT_END
 95
        8
302
GRIDFORMAT
  1
GRIDFORMAT_BEGIN
 90
        0
 91
        1
 62
     0
 92
       -2
340
0
 93
        0
 40
0.045
309
GRIDFORMAT_END
 95
       16
302
GRIDFORMAT
  1
GRIDFORMAT_BEGIN
 90
        0
 91
        1
 62
     0
 92
       -2
340
0
 93
        0
 40
0.045
309
GRIDFORMAT_END
 95
       32
302
GRIDFORMAT
  1
GRIDFORMAT_BEGIN
 90
        0
 91
        1
 62
     0
 92
       -2
340
0
 93
        0
 40
0.045
309
GRIDFORMAT_END
309
TABLEFORMAT_END
  1
CELLSTYLE_BEGIN
 90
        1
 91
        1
300
_TITLE
309
CELLSTYLE_END
300
CELLSTYLE
  1
TABLEFORMAT_BEGIN
 90
        5
170
     1
 91
        0
 92
        0
 62
   257
 93
        1
300
CONTENTFORMAT
  1
CONTENTFORMAT_BEGIN
 90
        0
 91
        0
 92
        4
 93
        0
300

 40
0.0
140
1.0
 94
        5
 62
     0
340
F
144
0.18
309
CONTENTFORMAT_END
171
     0
 94
        6
 95
        1
302
GRIDFORMAT
  1
GRIDFORMAT_BEGIN
 90
        0
 91
        1
 62
     0
 92
       -2
340
0
 93
        0
 40
0.045
309
GRIDFORMAT_END
 95
        2
302
GRIDFORMAT
  1
GRIDFORMAT_BEGIN
 90
        0
 91
        1
 62
     0
 92
       -2
340
0
 93
        0
 40
0.045
309
GRIDFORMAT_END
 95
        4
302
GRIDFORMAT
  1
GRIDFORMAT_BEGIN
 90
        0
 91
        1
 62
     0
 92
       -2
340
0
 93
        0
 40
0.045
309
GRIDFORMAT_END
 95
        8
302
GRIDFORMAT
  1
GRIDFORMAT_BEGIN
 90
        0
 91
        1
 62
     0
 92
       -2
340
0
 93
        0
 40
0.045
309
GRIDFORMAT_END
 95
       16
302
GRIDFORMAT
  1
GRIDFORMAT_BEGIN
 90
        0
 91
        1
 62
     0
 92
       -2
340
0
 93
        0
 40
0.045
309
GRIDFORMAT_END
 95
       32
302
GRIDFORMAT
  1
GRIDFORMAT_BEGIN
 90
        0
 91
        1
 62
     0
 92
       -2
340
0
 93
        0
 40
0.045
309
GRIDFORMAT_END
309
TABLEFORMAT_END
  1
CELLSTYLE_BEGIN
 90
        2
 91
        1
300
_HEADER
309
CELLSTYLE_END
300
CELLSTYLE
  1
TABLEFORMAT_BEGIN
 90
        5
170
     1
 91
        0
 92
        0
 62
   257
 93
        1
300
CONTENTFORMAT
  1
CONTENTFORMAT_BEGIN
 90
        0
 91
        0
 92
        4
 93
        0
300

 40
0.0
140
1.0
 94
        2
 62
     0
340
F
144
0.18
309
CONTENTFORMAT_END
171
     0
 94
        6
 95
        1
302
GRIDFORMAT
  1
GRIDFORMAT_BEGIN
 90
        0
 91
        1
 62
     0
 92
       -2
340
0
 93
        0
 40
0.045
309
GRIDFORMAT_END
 95
        2
302
GRIDFORMAT
  1
GRIDFORMAT_BEGIN
 90
        0
 91
        1
 62
     0
 92
       -2
340
0
 93
        0
 40
0.045
309
GRIDFORMAT_END
 95
        4
302
GRIDFORMAT
  1
GRIDFORMAT_BEGIN
 90
        0
 91
        1
 62
     0
 92
       -2
340
0
 93
        0
 40
0.045
309
GRIDFORMAT_END
 95
        8
302
GRIDFORMAT
  1
GRIDFORMAT_BEGIN
 90
        0
 91
        1
 62
     0
 92
       -2
340
0
 93
        0
 40
0.045
309
GRIDFORMAT_END
 95
       16
302
GRIDFORMAT
  1
GRIDFORMAT_BEGIN
 90
        0
 91
        1
 62
     0
 92
       -2
340
0
 93
        0
 40
0.045
309
GRIDFORMAT_END
 95
       32
302
GRIDFORMAT
  1
GRIDFORMAT_BEGIN
 90
        0
 91
        1
 62
     0
 92
       -2
340
0
 93
        0
 40
0.045
309
GRIDFORMAT_END
309
TABLEFORMAT_END
  1
CELLSTYLE_BEGIN
 90
        3
 91
        2
300
_DATA
309
CELLSTYLE_END
  0
XRECORD
  5
6B0B
102
{ACAD_REACTORS
330
6B0A
102
}
330
6B0A
100
AcDbXrecord
280
     1
102
ACAD_ROUNDTRIP_PRE2007_TABLESTYLE
 90
        4
 91
        0
  1

 92
        4
 93
        0
  2

 94
        4
 95
        0
  3

  0
XRECORD
  5
6B0F
102
{ACAD_REACTORS
330
6B0E
102
}
330
6B0E
100
AcDbXrecord
280
     1
102
RTVSPropertyOp0
 70
     1
102
RTVSPropertyOp1
 70
     1
102
RTVSPropertyOp2
 70
     1
102
RTVSPropertyOp3
 70
     1
102
RTVSPropertyOp4
 70
     1
102
RTVSPropertyOp5
 70
     1
102
RTVSPropertyOp6
 70
     1
102
RTVSPropertyOp7
 70
     1
102
RTVSPropertyOp8
 70
     1
102
RTVSPropertyOp9
 70
     1
102
RTVSPropertyOp10
 70
     1
102
RTVSPropertyOp11
 70
     1
102
RTVSPropertyOp12
 70
     1
102
RTVSPropertyOp13
 70
     1
102
RTVSPropertyOp14
 70
     1
102
RTVSPropertyOp15
 70
     1
102
RTVSPropertyOp16
 70
     1
102
RTVSPropertyOp17
 70
     1
102
RTVSPropertyOp18
 70
     1
102
RTVSPropertyOp19
 70
     1
102
RTVSPropertyOp20
 70
     1
102
RTVSPropertyOp21
 70
     1
102
RTVSPropertyOp22
 70
     1
102
RTVSPropertyOp23
 70
     1
102
RTVSPropertyOp24
 70
     1
102
RTVSPropertyOp25
 70
     1
102
RTVSPropertyOp26
 70
     1
102
RTVSPropertyOp27
 70
     1
  0
XRECORD
  5
6B11
102
{ACAD_REACTORS
330
6B10
102
}
330
6B10
100
AcDbXrecord
280
     1
102
RTVSPropertyOp0
 70
     1
102
RTVSPropertyOp1
 70
     1
102
RTVSPropertyOp2
 70
     1
102
RTVSPropertyOp3
 70
     1
102
RTVSPropertyOp4
 70
     1
102
RTVSPropertyOp5
 70
     1
102
RTVSPropertyOp6
 70
     1
102
RTVSPropertyOp7
 70
     1
102
RTVSPropertyOp8
 70
     1
102
RTVSPropertyOp9
 70
     1
102
RTVSPropertyOp10
 70
     1
102
RTVSPropertyOp11
 70
     1
102
RTVSPropertyOp12
 70
     1
102
RTVSPropertyOp13
 70
     1
102
RTVSPropertyOp14
 70
     1
102
RTVSPropertyOp15
 70
     1
102
RTVSPropertyOp16
 70
     1
102
RTVSPropertyOp17
 70
     1
102
RTVSPropertyOp18
 70
     1
102
RTVSPropertyOp19
 70
     1
102
RTVSPropertyOp20
 70
     1
102
RTVSPropertyOp21
 70
     1
102
RTVSPropertyOp22
 70
     1
102
RTVSPropertyOp23
 70
     1
102
RTVSPropertyOp24
 70
     1
102
RTVSPropertyOp25
 70
     1
102
RTVSPropertyOp26
 70
     1
102
RTVSPropertyOp27
 70
     1
  0
XRECORD
  5
6B13
102
{ACAD_REACTORS
330
6B12
102
}
330
6B12
100
AcDbXrecord
280
     1
102
RTVSPropertyOp0
 70
     1
102
RTVSPropertyOp1
 70
     1
102
RTVSPropertyOp2
 70
     1
102
RTVSPropertyOp3
 70
     1
102
RTVSPropertyOp4
 70
     1
102
RTVSPropertyOp5
 70
     1
102
RTVSPropertyOp6
 70
     1
102
RTVSPropertyOp7
 70
     1
102
RTVSPropertyOp8
 70
     1
102
RTVSPropertyOp9
 70
     1
102
RTVSPropertyOp10
 70
     1
102
RTVSPropertyOp11
 70
     1
102
RTVSPropertyOp12
 70
     1
102
RTVSPropertyOp13
 70
     1
102
RTVSPropertyOp14
 70
     1
102
RTVSPropertyOp15
 70
     1
102
RTVSPropertyOp16
 70
     1
102
RTVSPropertyOp17
 70
     1
102
RTVSPropertyOp18
 70
     1
102
RTVSPropertyOp19
 70
     1
102
RTVSPropertyOp20
 70
     1
102
RTVSPropertyOp21
 70
     1
102
RTVSPropertyOp22
 70
     1
102
RTVSPropertyOp23
 70
     1
102
RTVSPropertyOp24
 70
     1
102
RTVSPropertyOp25
 70
     1
102
RTVSPropertyOp26
 70
     1
102
RTVSPropertyOp27
 70
     1
  0
XRECORD
  5
6B15
102
{ACAD_REACTORS
330
6B14
102
}
330
6B14
100
AcDbXrecord
280
     1
102
RTVSPropertyOp0
 70
     1
102
RTVSPropertyOp1
 70
     1
102
RTVSPropertyOp2
 70
     1
102
RTVSPropertyOp3
 70
     1
102
RTVSPropertyOp4
 70
     1
102
RTVSPropertyOp5
 70
     1
102
RTVSPropertyOp6
 70
     1
102
RTVSPropertyOp7
 70
     1
102
RTVSPropertyOp8
 70
     1
102
RTVSPropertyOp9
 70
     1
102
RTVSPropertyOp10
 70
     1
102
RTVSPropertyOp11
 70
     1
102
RTVSPropertyOp12
 70
     1
102
RTVSPropertyOp13
 70
     1
102
RTVSPropertyOp14
 70
     1
102
RTVSPropertyOp15
 70
     1
102
RTVSPropertyOp16
 70
     1
102
RTVSPropertyOp17
 70
     1
102
RTVSPropertyOp18
 70
     1
102
RTVSPropertyOp19
 70
     1
102
RTVSPropertyOp20
 70
     1
102
RTVSPropertyOp21
 70
     1
102
RTVSPropertyOp22
 70
     1
102
RTVSPropertyOp23
 70
     1
102
RTVSPropertyOp24
 70
     1
102
RTVSPropertyOp25
 70
     1
102
RTVSPropertyOp26
 70
     1
102
RTVSPropertyOp27
 70
     1
  0
XRECORD
  5
6B17
102
{ACAD_REACTORS
330
6B16
102
}
330
6B16
100
AcDbXrecord
280
     1
102
RTVSPropertyOp0
 70
     1
102
RTVSPropertyOp1
 70
     1
102
RTVSPropertyOp2
 70
     1
102
RTVSPropertyOp3
 70
     1
102
RTVSPropertyOp4
 70
     1
102
RTVSPropertyOp5
 70
     1
102
RTVSPropertyOp6
 70
     1
102
RTVSPropertyOp7
 70
     1
102
RTVSPropertyOp8
 70
     1
102
RTVSPropertyOp9
 70
     1
102
RTVSPropertyOp10
 70
     1
102
RTVSPropertyOp11
 70
     1
102
RTVSPropertyOp12
 70
     1
102
RTVSPropertyOp13
 70
     1
102
RTVSPropertyOp14
 70
     1
102
RTVSPropertyOp15
 70
     1
102
RTVSPropertyOp16
 70
     1
102
RTVSPropertyOp17
 70
     1
102
RTVSPropertyOp18
 70
     1
102
RTVSPropertyOp19
 70
     1
102
RTVSPropertyOp20
 70
     1
102
RTVSPropertyOp21
 70
     1
102
RTVSPropertyOp22
 70
     1
102
RTVSPropertyOp23
 70
     1
102
RTVSPropertyOp24
 70
     1
102
RTVSPropertyOp25
 70
     1
102
RTVSPropertyOp26
 70
     1
102
RTVSPropertyOp27
 70
     1
  0
XRECORD
  5
6B19
102
{ACAD_REACTORS
330
6B18
102
}
330
6B18
100
AcDbXrecord
280
     1
102
RTVSPropertyOp0
 70
     1
102
RTVSPropertyOp1
 70
     1
102
RTVSPropertyOp2
 70
     1
102
RTVSPropertyOp3
 70
     1
102
RTVSPropertyOp4
 70
     1
102
RTVSPropertyOp5
 70
     1
102
RTVSPropertyOp6
 70
     1
102
RTVSPropertyOp7
 70
     1
102
RTVSPropertyOp8
 70
     1
102
RTVSPropertyOp9
 70
     1
102
RTVSPropertyOp10
 70
     1
102
RTVSPropertyOp11
 70
     1
102
RTVSPropertyOp12
 70
     1
102
RTVSPropertyOp13
 70
     1
102
RTVSPropertyOp14
 70
     1
102
RTVSPropertyOp15
 70
     1
102
RTVSPropertyOp16
 70
     1
102
RTVSPropertyOp17
 70
     1
102
RTVSPropertyOp18
 70
     1
102
RTVSPropertyOp19
 70
     1
102
RTVSPropertyOp20
 70
     1
102
RTVSPropertyOp21
 70
     1
102
RTVSPropertyOp22
 70
     1
102
RTVSPropertyOp23
 70
     1
102
RTVSPropertyOp24
 70
     1
102
RTVSPropertyOp25
 70
     1
102
RTVSPropertyOp26
 70
     1
102
RTVSPropertyOp27
 70
     1
  0
XRECORD
  5
6B1B
102
{ACAD_REACTORS
330
6B1A
102
}
330
6B1A
100
AcDbXrecord
280
     1
102
RTVSPropertyOp0
 70
     1
102
RTVSPropertyOp1
 70
     1
102
RTVSPropertyOp2
 70
     1
102
RTVSPropertyOp3
 70
     1
102
RTVSPropertyOp4
 70
     1
102
RTVSPropertyOp5
 70
     1
102
RTVSPropertyOp6
 70
     1
102
RTVSPropertyOp7
 70
     1
102
RTVSPropertyOp8
 70
     1
102
RTVSPropertyOp9
 70
     1
102
RTVSPropertyOp10
 70
     1
102
RTVSPropertyOp11
 70
     1
102
RTVSPropertyOp12
 70
     1
102
RTVSPropertyOp13
 70
     1
102
RTVSPropertyOp14
 70
     1
102
RTVSPropertyOp15
 70
     1
102
RTVSPropertyOp16
 70
     1
102
RTVSPropertyOp17
 70
     1
102
RTVSPropertyOp18
 70
     1
102
RTVSPropertyOp19
 70
     1
102
RTVSPropertyOp20
 70
     1
102
RTVSPropertyOp21
 70
     1
102
RTVSPropertyOp22
 70
     1
102
RTVSPropertyOp23
 70
     1
102
RTVSPropertyOp24
 70
     1
102
RTVSPropertyOp25
 70
     1
102
RTVSPropertyOp26
 70
     1
102
RTVSPropertyOp27
 70
     1
  0
XRECORD
  5
6B1D
102
{ACAD_REACTORS
330
6B1C
102
}
330
6B1C
100
AcDbXrecord
280
     1
102
RTVSPropertyOp0
 70
     1
102
RTVSPropertyOp1
 70
     1
102
RTVSPropertyOp2
 70
     1
102
RTVSPropertyOp3
 70
     1
102
RTVSPropertyOp4
 70
     1
102
RTVSPropertyOp5
 70
     1
102
RTVSPropertyOp6
 70
     1
102
RTVSPropertyOp7
 70
     1
102
RTVSPropertyOp8
 70
     1
102
RTVSPropertyOp9
 70
     1
102
RTVSPropertyOp10
 70
     1
102
RTVSPropertyOp11
 70
     1
102
RTVSPropertyOp12
 70
     1
102
RTVSPropertyOp13
 70
     1
102
RTVSPropertyOp14
 70
     1
102
RTVSPropertyOp15
 70
     1
102
RTVSPropertyOp16
 70
     1
102
RTVSPropertyOp17
 70
     1
102
RTVSPropertyOp18
 70
     1
102
RTVSPropertyOp19
 70
     1
102
RTVSPropertyOp20
 70
     1
102
RTVSPropertyOp21
 70
     1
102
RTVSPropertyOp22
 70
     1
102
RTVSPropertyOp23
 70
     1
102
RTVSPropertyOp24
 70
     1
102
RTVSPropertyOp25
 70
     1
102
RTVSPropertyOp26
 70
     1
102
RTVSPropertyOp27
 70
     1
  0
XRECORD
  5
6B1F
102
{ACAD_REACTORS
330
6B1E
102
}
330
6B1E
100
AcDbXrecord
280
     1
102
RTVSPropertyOp0
 70
     1
102
RTVSPropertyOp1
 70
     1
102
RTVSPropertyOp2
 70
     1
102
RTVSPropertyOp3
 70
     1
102
RTVSPropertyOp4
 70
     1
102
RTVSPropertyOp5
 70
     1
102
RTVSPropertyOp6
 70
     1
102
RTVSPropertyOp7
 70
     1
102
RTVSPropertyOp8
 70
     1
102
RTVSPropertyOp9
 70
     1
102
RTVSPropertyOp10
 70
     1
102
RTVSPropertyOp11
 70
     1
102
RTVSPropertyOp12
 70
     1
102
RTVSPropertyOp13
 70
     1
102
RTVSPropertyOp14
 70
     1
102
RTVSPropertyOp15
 70
     1
102
RTVSPropertyOp16
 70
     1
102
RTVSPropertyOp17
 70
     1
102
RTVSPropertyOp18
 70
     1
102
RTVSPropertyOp19
 70
     1
102
RTVSPropertyOp20
 70
     1
102
RTVSPropertyOp21
 70
     1
102
RTVSPropertyOp22
 70
     1
102
RTVSPropertyOp23
 70
     1
102
RTVSPropertyOp24
 70
     1
102
RTVSPropertyOp25
 70
     1
102
RTVSPropertyOp26
 70
     1
102
RTVSPropertyOp27
 70
     1
  0
XRECORD
  5
6B21
102
{ACAD_REACTORS
330
6B20
102
}
330
6B20
100
AcDbXrecord
280
     1
102
RTVSPropertyOp0
 70
     1
102
RTVSPropertyOp1
 70
     1
102
RTVSPropertyOp2
 70
     1
102
RTVSPropertyOp3
 70
     1
102
RTVSPropertyOp4
 70
     1
102
RTVSPropertyOp5
 70
     1
102
RTVSPropertyOp6
 70
     1
102
RTVSPropertyOp7
 70
     1
102
RTVSPropertyOp8
 70
     1
102
RTVSPropertyOp9
 70
     1
102
RTVSPropertyOp10
 70
     1
102
RTVSPropertyOp11
 70
     1
102
RTVSPropertyOp12
 70
     1
102
RTVSPropertyOp13
 70
     1
102
RTVSPropertyOp14
 70
     1
102
RTVSPropertyOp15
 70
     1
102
RTVSPropertyOp16
 70
     1
102
RTVSPropertyOp17
 70
     1
102
RTVSPropertyOp18
 70
     1
102
RTVSPropertyOp19
 70
     1
102
RTVSPropertyOp20
 70
     1
102
RTVSPropertyOp21
 70
     1
102
RTVSPropertyOp22
 70
     1
102
RTVSPropertyOp23
 70
     1
102
RTVSPropertyOp24
 70
     1
102
RTVSPropertyOp25
 70
     1
102
RTVSPropertyOp26
 70
     1
102
RTVSPropertyOp27
 70
     1
  0
XRECORD
  5
6B23
102
{ACAD_REACTORS
330
6B22
102
}
330
6B22
100
AcDbXrecord
280
     1
102
RTVSPropertyOp0
 70
     1
102
RTVSPropertyOp1
 70
     1
102
RTVSPropertyOp2
 70
     1
102
RTVSPropertyOp3
 70
     1
102
RTVSPropertyOp4
 70
     1
102
RTVSPropertyOp5
 70
     1
102
RTVSPropertyOp6
 70
     1
102
RTVSPropertyOp7
 70
     1
102
RTVSPropertyOp8
 70
     1
102
RTVSPropertyOp9
 70
     1
102
RTVSPropertyOp10
 70
     1
102
RTVSPropertyOp11
 70
     1
102
RTVSPropertyOp12
 70
     1
102
RTVSPropertyOp13
 70
     1
102
RTVSPropertyOp14
 70
     1
102
RTVSPropertyOp15
 70
     1
102
RTVSPropertyOp16
 70
     1
102
RTVSPropertyOp17
 70
     1
102
RTVSPropertyOp18
 70
     1
102
RTVSPropertyOp19
 70
     1
102
RTVSPropertyOp20
 70
     1
102
RTVSPropertyOp21
 70
     1
102
RTVSPropertyOp22
 70
     1
102
RTVSPropertyOp23
 70
     1
102
RTVSPropertyOp24
 70
     1
102
RTVSPropertyOp25
 70
     1
102
RTVSPropertyOp26
 70
     1
102
RTVSPropertyOp27
 70
     1
  0
XRECORD
  5
6B25
102
{ACAD_REACTORS
330
6B24
102
}
330
6B24
100
AcDbXrecord
280
     1
102
RTVSPropertyOp0
 70
     1
102
RTVSPropertyOp1
 70
     1
102
RTVSPropertyOp2
 70
     1
102
RTVSPropertyOp3
 70
     1
102
RTVSPropertyOp4
 70
     1
102
RTVSPropertyOp5
 70
     1
102
RTVSPropertyOp6
 70
     1
102
RTVSPropertyOp7
 70
     1
102
RTVSPropertyOp8
 70
     1
102
RTVSPropertyOp9
 70
     1
102
RTVSPropertyOp10
 70
     1
102
RTVSPropertyOp11
 70
     1
102
RTVSPropertyOp12
 70
     1
102
RTVSPropertyOp13
 70
     1
102
RTVSPropertyOp14
 70
     1
102
RTVSPropertyOp15
 70
     1
102
RTVSPropertyOp16
 70
     1
102
RTVSPropertyOp17
 70
     1
102
RTVSPropertyOp18
 70
     1
102
RTVSPropertyOp19
 70
     1
102
RTVSPropertyOp20
 70
     1
102
RTVSPropertyOp21
 70
     1
102
RTVSPropertyOp22
 70
     1
102
RTVSPropertyOp23
 70
     1
102
RTVSPropertyOp24
 70
     1
102
RTVSPropertyOp25
 70
     1
102
RTVSPropertyOp26
 70
     1
102
RTVSPropertyOp27
 70
     1
  0
XRECORD
  5
6B27
102
{ACAD_REACTORS
330
6B26
102
}
330
6B26
100
AcDbXrecord
280
     1
102
RTVSPropertyOp0
 70
     1
102
RTVSPropertyOp1
 70
     1
102
RTVSPropertyOp2
 70
     1
102
RTVSPropertyOp3
 70
     1
102
RTVSPropertyOp4
 70
     1
102
RTVSPropertyOp5
 70
     1
102
RTVSPropertyOp6
 70
     1
102
RTVSPropertyOp7
 70
     1
102
RTVSPropertyOp8
 70
     1
102
RTVSPropertyOp9
 70
     1
102
RTVSPropertyOp10
 70
     1
102
RTVSPropertyOp11
 70
     1
102
RTVSPropertyOp12
 70
     1
102
RTVSPropertyOp13
 70
     1
102
RTVSPropertyOp14
 70
     1
102
RTVSPropertyOp15
 70
     1
102
RTVSPropertyOp16
 70
     1
102
RTVSPropertyOp17
 70
     1
102
RTVSPropertyOp18
 70
     1
102
RTVSPropertyOp19
 70
     1
102
RTVSPropertyOp20
 70
     1
102
RTVSPropertyOp21
 70
     1
102
RTVSPropertyOp22
 70
     1
102
RTVSPropertyOp23
 70
     1
102
RTVSPropertyOp24
 70
     1
102
RTVSPropertyOp25
 70
     1
102
RTVSPropertyOp26
 70
     1
102
RTVSPropertyOp27
 70
     1
  0
XRECORD
  5
6B29
102
{ACAD_REACTORS
330
6B28
102
}
330
6B28
100
AcDbXrecord
280
     1
102
RTVSPropertyOp0
 70
     1
102
RTVSPropertyOp1
 70
     1
102
RTVSPropertyOp2
 70
     1
102
RTVSPropertyOp3
 70
     1
102
RTVSPropertyOp4
 70
     1
102
RTVSPropertyOp5
 70
     1
102
RTVSPropertyOp6
 70
     1
102
RTVSPropertyOp7
 70
     1
102
RTVSPropertyOp8
 70
     1
102
RTVSPropertyOp9
 70
     1
102
RTVSPropertyOp10
 70
     1
102
RTVSPropertyOp11
 70
     1
102
RTVSPropertyOp12
 70
     1
102
RTVSPropertyOp13
 70
     1
102
RTVSPropertyOp14
 70
     1
102
RTVSPropertyOp15
 70
     1
102
RTVSPropertyOp16
 70
     1
102
RTVSPropertyOp17
 70
     1
102
RTVSPropertyOp18
 70
     1
102
RTVSPropertyOp19
 70
     1
102
RTVSPropertyOp20
 70
     1
102
RTVSPropertyOp21
 70
     1
102
RTVSPropertyOp22
 70
     1
102
RTVSPropertyOp23
 70
     1
102
RTVSPropertyOp24
 70
     1
102
RTVSPropertyOp25
 70
     1
102
RTVSPropertyOp26
 70
     1
102
RTVSPropertyOp27
 70
     1
  0
XRECORD
  5
6B2B
102
{ACAD_REACTORS
330
6B2A
102
}
330
6B2A
100
AcDbXrecord
280
     1
102
RTVSPropertyOp0
 70
     1
102
RTVSPropertyOp1
 70
     1
102
RTVSPropertyOp2
 70
     1
102
RTVSPropertyOp3
 70
     1
102
RTVSPropertyOp4
 70
     1
102
RTVSPropertyOp5
 70
     1
102
RTVSPropertyOp6
 70
     1
102
RTVSPropertyOp7
 70
     1
102
RTVSPropertyOp8
 70
     1
102
RTVSPropertyOp9
 70
     1
102
RTVSPropertyOp10
 70
     1
102
RTVSPropertyOp11
 70
     1
102
RTVSPropertyOp12
 70
     1
102
RTVSPropertyOp13
 70
     1
102
RTVSPropertyOp14
 70
     1
102
RTVSPropertyOp15
 70
     1
102
RTVSPropertyOp16
 70
     1
102
RTVSPropertyOp17
 70
     1
102
RTVSPropertyOp18
 70
     1
102
RTVSPropertyOp19
 70
     1
102
RTVSPropertyOp20
 70
     1
102
RTVSPropertyOp21
 70
     1
102
RTVSPropertyOp22
 70
     1
102
RTVSPropertyOp23
 70
     1
102
RTVSPropertyOp24
 70
     1
102
RTVSPropertyOp25
 70
     1
102
RTVSPropertyOp26
 70
     1
102
RTVSPropertyOp27
 70
     1
  0
XRECORD
  5
6B2D
102
{ACAD_REACTORS
330
6B2C
102
}
330
6B2C
100
AcDbXrecord
280
     1
102
RTVSPropertyOp0
 70
     1
102
RTVSPropertyOp1
 70
     1
102
RTVSPropertyOp2
 70
     1
102
RTVSPropertyOp3
 70
     1
102
RTVSPropertyOp4
 70
     1
102
RTVSPropertyOp5
 70
     1
102
RTVSPropertyOp6
 70
     1
102
RTVSPropertyOp7
 70
     1
102
RTVSPropertyOp8
 70
     1
102
RTVSPropertyOp9
 70
     1
102
RTVSPropertyOp10
 70
     1
102
RTVSPropertyOp11
 70
     1
102
RTVSPropertyOp12
 70
     1
102
RTVSPropertyOp13
 70
     1
102
RTVSPropertyOp14
 70
     1
102
RTVSPropertyOp15
 70
     1
102
RTVSPropertyOp16
 70
     1
102
RTVSPropertyOp17
 70
     1
102
RTVSPropertyOp18
 70
     1
102
RTVSPropertyOp19
 70
     1
102
RTVSPropertyOp20
 70
     1
102
RTVSPropertyOp21
 70
     1
102
RTVSPropertyOp22
 70
     1
102
RTVSPropertyOp23
 70
     1
102
RTVSPropertyOp24
 70
     1
102
RTVSPropertyOp25
 70
     1
102
RTVSPropertyOp26
 70
     1
102
RTVSPropertyOp27
 70
     1
  0
XRECORD
  5
6B2F
102
{ACAD_REACTORS
330
6B2E
102
}
330
6B2E
100
AcDbXrecord
280
     1
102
RTVSPropertyOp0
 70
     1
102
RTVSPropertyOp1
 70
     1
102
RTVSPropertyOp2
 70
     1
102
RTVSPropertyOp3
 70
     1
102
RTVSPropertyOp4
 70
     1
102
RTVSPropertyOp5
 70
     1
102
RTVSPropertyOp6
 70
     1
102
RTVSPropertyOp7
 70
     1
102
RTVSPropertyOp8
 70
     1
102
RTVSPropertyOp9
 70
     1
102
RTVSPropertyOp10
 70
     1
102
RTVSPropertyOp11
 70
     1
102
RTVSPropertyOp12
 70
     1
102
RTVSPropertyOp13
 70
     1
102
RTVSPropertyOp14
 70
     1
102
RTVSPropertyOp15
 70
     1
102
RTVSPropertyOp16
 70
     1
102
RTVSPropertyOp17
 70
     1
102
RTVSPropertyOp18
 70
     1
102
RTVSPropertyOp19
 70
     1
102
RTVSPropertyOp20
 70
     1
102
RTVSPropertyOp21
 70
     1
102
RTVSPropertyOp22
 70
     1
102
RTVSPropertyOp23
 70
     1
102
RTVSPropertyOp24
 70
     1
102
RTVSPropertyOp25
 70
     1
102
RTVSPropertyOp26
 70
     1
102
RTVSPropertyOp27
 70
     1
  0
XRECORD
  5
6B31
102
{ACAD_REACTORS
330
6B30
102
}
330
6B30
100
AcDbXrecord
280
     1
102
RTVSPropertyOp0
 70
     1
102
RTVSPropertyOp1
 70
     1
102
RTVSPropertyOp2
 70
     1
102
RTVSPropertyOp3
 70
     1
102
RTVSPropertyOp4
 70
     1
102
RTVSPropertyOp5
 70
     1
102
RTVSPropertyOp6
 70
     1
102
RTVSPropertyOp7
 70
     1
102
RTVSPropertyOp8
 70
     1
102
RTVSPropertyOp9
 70
     1
102
RTVSPropertyOp10
 70
     1
102
RTVSPropertyOp11
 70
     1
102
RTVSPropertyOp12
 70
     1
102
RTVSPropertyOp13
 70
     1
102
RTVSPropertyOp14
 70
     1
102
RTVSPropertyOp15
 70
     1
102
RTVSPropertyOp16
 70
     1
102
RTVSPropertyOp17
 70
     1
102
RTVSPropertyOp18
 70
     1
102
RTVSPropertyOp19
 70
     1
102
RTVSPropertyOp20
 70
     1
102
RTVSPropertyOp21
 70
     1
102
RTVSPropertyOp22
 70
     1
102
RTVSPropertyOp23
 70
     1
102
RTVSPropertyOp24
 70
     1
102
RTVSPropertyOp25
 70
     1
102
RTVSPropertyOp26
 70
     1
102
RTVSPropertyOp27
 70
     1
  0
XRECORD
  5
6B33
102
{ACAD_REACTORS
330
6B32
102
}
330
6B32
100
AcDbXrecord
280
     1
102
RTVSPropertyOp0
 70
     1
102
RTVSPropertyOp1
 70
     1
102
RTVSPropertyOp2
 70
     1
102
RTVSPropertyOp3
 70
     1
102
RTVSPropertyOp4
 70
     1
102
RTVSPropertyOp5
 70
     1
102
RTVSPropertyOp6
 70
     1
102
RTVSPropertyOp7
 70
     1
102
RTVSPropertyOp8
 70
     1
102
RTVSPropertyOp9
 70
     1
102
RTVSPropertyOp10
 70
     1
102
RTVSPropertyOp11
 70
     1
102
RTVSPropertyOp12
 70
     1
102
RTVSPropertyOp13
 70
     1
102
RTVSPropertyOp14
 70
     1
102
RTVSPropertyOp15
 70
     1
102
RTVSPropertyOp16
 70
     1
102
RTVSPropertyOp17
 70
     1
102
RTVSPropertyOp18
 70
     1
102
RTVSPropertyOp19
 70
     1
102
RTVSPropertyOp20
 70
     1
102
RTVSPropertyOp21
 70
     1
102
RTVSPropertyOp22
 70
     1
102
RTVSPropertyOp23
 70
     1
102
RTVSPropertyOp24
 70
     1
102
RTVSPropertyOp25
 70
     1
102
RTVSPropertyOp26
 70
     1
102
RTVSPropertyOp27
 70
     1
  0
XRECORD
  5
6B35
102
{ACAD_REACTORS
330
6B34
102
}
330
6B34
100
AcDbXrecord
280
     1
102
RTVSPropertyOp0
 70
     1
102
RTVSPropertyOp1
 70
     1
102
RTVSPropertyOp2
 70
     1
102
RTVSPropertyOp3
 70
     1
102
RTVSPropertyOp4
 70
     1
102
RTVSPropertyOp5
 70
     1
102
RTVSPropertyOp6
 70
     1
102
RTVSPropertyOp7
 70
     1
102
RTVSPropertyOp8
 70
     1
102
RTVSPropertyOp9
 70
     1
102
RTVSPropertyOp10
 70
     1
102
RTVSPropertyOp11
 70
     1
102
RTVSPropertyOp12
 70
     1
102
RTVSPropertyOp13
 70
     1
102
RTVSPropertyOp14
 70
     1
102
RTVSPropertyOp15
 70
     1
102
RTVSPropertyOp16
 70
     1
102
RTVSPropertyOp17
 70
     1
102
RTVSPropertyOp18
 70
     1
102
RTVSPropertyOp19
 70
     1
102
RTVSPropertyOp20
 70
     1
102
RTVSPropertyOp21
 70
     1
102
RTVSPropertyOp22
 70
     1
102
RTVSPropertyOp23
 70
     1
102
RTVSPropertyOp24
 70
     1
102
RTVSPropertyOp25
 70
     1
102
RTVSPropertyOp26
 70
     1
102
RTVSPropertyOp27
 70
     1
  0
XRECORD
  5
6B37
102
{ACAD_REACTORS
330
6B36
102
}
330
6B36
100
AcDbXrecord
280
     1
102
RTVSPropertyOp0
 70
     1
102
RTVSPropertyOp1
 70
     1
102
RTVSPropertyOp2
 70
     1
102
RTVSPropertyOp3
 70
     1
102
RTVSPropertyOp4
 70
     1
102
RTVSPropertyOp5
 70
     1
102
RTVSPropertyOp6
 70
     1
102
RTVSPropertyOp7
 70
     1
102
RTVSPropertyOp8
 70
     1
102
RTVSPropertyOp9
 70
     1
102
RTVSPropertyOp10
 70
     1
102
RTVSPropertyOp11
 70
     1
102
RTVSPropertyOp12
 70
     1
102
RTVSPropertyOp13
 70
     1
102
RTVSPropertyOp14
 70
     1
102
RTVSPropertyOp15
 70
     1
102
RTVSPropertyOp16
 70
     1
102
RTVSPropertyOp17
 70
     1
102
RTVSPropertyOp18
 70
     1
102
RTVSPropertyOp19
 70
     1
102
RTVSPropertyOp20
 70
     1
102
RTVSPropertyOp21
 70
     1
102
RTVSPropertyOp22
 70
     1
102
RTVSPropertyOp23
 70
     1
102
RTVSPropertyOp24
 70
     1
102
RTVSPropertyOp25
 70
     1
102
RTVSPropertyOp26
 70
     1
102
RTVSPropertyOp27
 70
     1
  0
XRECORD
  5
6B39
102
{ACAD_REACTORS
330
6B38
102
}
330
6B38
100
AcDbXrecord
280
     1
102
RTVSPropertyOp0
 70
     1
102
RTVSPropertyOp1
 70
     1
102
RTVSPropertyOp2
 70
     1
102
RTVSPropertyOp3
 70
     1
102
RTVSPropertyOp4
 70
     1
102
RTVSPropertyOp5
 70
     1
102
RTVSPropertyOp6
 70
     1
102
RTVSPropertyOp7
 70
     1
102
RTVSPropertyOp8
 70
     1
102
RTVSPropertyOp9
 70
     1
102
RTVSPropertyOp10
 70
     1
102
RTVSPropertyOp11
 70
     1
102
RTVSPropertyOp12
 70
     1
102
RTVSPropertyOp13
 70
     1
102
RTVSPropertyOp14
 70
     1
102
RTVSPropertyOp15
 70
     1
102
RTVSPropertyOp16
 70
     1
102
RTVSPropertyOp17
 70
     1
102
RTVSPropertyOp18
 70
     1
102
RTVSPropertyOp19
 70
     1
102
RTVSPropertyOp20
 70
     1
102
RTVSPropertyOp21
 70
     1
102
RTVSPropertyOp22
 70
     1
102
RTVSPropertyOp23
 70
     1
102
RTVSPropertyOp24
 70
     1
102
RTVSPropertyOp25
 70
     1
102
RTVSPropertyOp26
 70
     1
102
RTVSPropertyOp27
 70
     1
  0
XRECORD
  5
6B3B
102
{ACAD_REACTORS
330
6B3A
102
}
330
6B3A
100
AcDbXrecord
280
     1
102
RTVSPropertyOp0
 70
     1
102
RTVSPropertyOp1
 70
     1
102
RTVSPropertyOp2
 70
     1
102
RTVSPropertyOp3
 70
     1
102
RTVSPropertyOp4
 70
     1
102
RTVSPropertyOp5
 70
     1
102
RTVSPropertyOp6
 70
     1
102
RTVSPropertyOp7
 70
     1
102
RTVSPropertyOp8
 70
     1
102
RTVSPropertyOp9
 70
     1
102
RTVSPropertyOp10
 70
     1
102
RTVSPropertyOp11
 70
     1
102
RTVSPropertyOp12
 70
     1
102
RTVSPropertyOp13
 70
     1
102
RTVSPropertyOp14
 70
     1
102
RTVSPropertyOp15
 70
     1
102
RTVSPropertyOp16
 70
     1
102
RTVSPropertyOp17
 70
     1
102
RTVSPropertyOp18
 70
     1
102
RTVSPropertyOp19
 70
     1
102
RTVSPropertyOp20
 70
     1
102
RTVSPropertyOp21
 70
     1
102
RTVSPropertyOp22
 70
     1
102
RTVSPropertyOp23
 70
     1
102
RTVSPropertyOp24
 70
     1
102
RTVSPropertyOp25
 70
     1
102
RTVSPropertyOp26
 70
     1
102
RTVSPropertyOp27
 70
     1
  0
XRECORD
  5
6B3D
102
{ACAD_REACTORS
330
6B3C
102
}
330
6B3C
100
AcDbXrecord
280
     1
102
RTVSPropertyOp0
 70
     1
102
RTVSPropertyOp1
 70
     1
102
RTVSPropertyOp2
 70
     1
102
RTVSPropertyOp3
 70
     1
102
RTVSPropertyOp4
 70
     1
102
RTVSPropertyOp5
 70
     1
102
RTVSPropertyOp6
 70
     1
102
RTVSPropertyOp7
 70
     1
102
RTVSPropertyOp8
 70
     1
102
RTVSPropertyOp9
 70
     1
102
RTVSPropertyOp10
 70
     1
102
RTVSPropertyOp11
 70
     1
102
RTVSPropertyOp12
 70
     1
102
RTVSPropertyOp13
 70
     1
102
RTVSPropertyOp14
 70
     1
102
RTVSPropertyOp15
 70
     1
102
RTVSPropertyOp16
 70
     1
102
RTVSPropertyOp17
 70
     1
102
RTVSPropertyOp18
 70
     1
102
RTVSPropertyOp19
 70
     1
102
RTVSPropertyOp20
 70
     1
102
RTVSPropertyOp21
 70
     1
102
RTVSPropertyOp22
 70
     1
102
RTVSPropertyOp23
 70
     1
102
RTVSPropertyOp24
 70
     1
102
RTVSPropertyOp25
 70
     1
102
RTVSPropertyOp26
 70
     1
102
RTVSPropertyOp27
 70
     1
  0
ENDSEC
  0
EOF
