  0
SECTION
  2
HEADER
  9
$ACADVER
  1
AC1018
  9
$ACADMAINTVER
 70
     0
  9
$DWGCODEPAGE
  3
ANSI_932
  9
$LASTSAVEDBY
  1
shinwa
  9
$INSBASE
 10
0.0
 20
0.0
 30
0.0
  9
$EXTMIN
 10
426.7808576631921
 20
53.18824234306877
 30
0.0
  9
$EXTMAX
 10
11354.78343630826
 20
7982.039940919411
 30
0.0
  9
$LIMMIN
 10
0.0
 20
0.0
  9
$LIMMAX
 10
11880.0
 20
8400.0
  9
$ORTHOMODE
 70
     1
  9
$REGENMODE
 70
     1
  9
$FILLMODE
 70
     1
  9
$QTEXTMODE
 70
     0
  9
$MIRRTEXT
 70
     1
  9
$LTSCALE
 40
100.0
  9
$ATTMODE
 70
     1
  9
$TEXTSIZE
 40
60.0
  9
$TRACEWID
 40
0.05
  9
$TEXTSTYLE
  7
A
  9
$CLAYER
  8
SUNPOU
  9
$CELTYPE
  6
BYLAYER
  9
$CECOLOR
 62
   256
  9
$CELTSCALE
 40
1.0
  9
$DISPSILH
 70
     0
  9
$DIMSCALE
 40
1.0
  9
$DIMASZ
 40
40.0
  9
$DIMEXO
 40
40.0
  9
$DIMDLI
 40
140.0
  9
$DIMRND
 40
0.0
  9
$DIMDLE
 40
0.0
  9
$DIMEXE
 40
20.0
  9
$DIMTP
 40
0.0
  9
$DIMTM
 40
0.0
  9
$DIMTXT
 40
60.0
  9
$DIMCEN
 40
0.09
  9
$DIMTSZ
 40
0.0
  9
$DIMTOL
 70
     0
  9
$DIMLIM
 70
     0
  9
$DIMTIH
 70
     0
  9
$DIMTOH
 70
     0
  9
$DIMSE1
 70
     0
  9
$DIMSE2
 70
     0
  9
$DIMTAD
 70
     0
  9
$DIMZIN
 70
     0
  9
$DIMBLK
  1

  9
$DIMASO
 70
     1
  9
$DIMSHO
 70
     0
  9
$DIMPOST
  1

  9
$DIMAPOST
  1

  9
$DIMALT
 70
     0
  9
$DIMALTD
 70
     2
  9
$DIMALTF
 40
25.4
  9
$DIMLFAC
 40
1.0
  9
$DIMTOFL
 70
     1
  9
$DIMTVP
 40
1.0
  9
$DIMTIX
 70
     0
  9
$DIMSOXD
 70
     0
  9
$DIMSAH
 70
     0
  9
$DIMBLK1
  1

  9
$DIMBLK2
  1

  9
$DIMSTYLE
  2
STANDARD
  9
$DIMCLRD
 70
     0
  9
$DIMCLRE
 70
     0
  9
$DIMCLRT
 70
     0
  9
$DIMTFAC
 40
1.0
  9
$DIMGAP
 40
0.09
  9
$DIMJUST
 70
     0
  9
$DIMSD1
 70
     0
  9
$DIMSD2
 70
     0
  9
$DIMTOLJ
 70
     1
  9
$DIMTZIN
 70
     0
  9
$DIMALTZ
 70
     0
  9
$DIMALTTZ
 70
     0
  9
$DIMUPT
 70
     0
  9
$DIMDEC
 70
     0
  9
$DIMTDEC
 70
     0
  9
$DIMALTU
 70
     2
  9
$DIMALTTD
 70
     2
  9
$DIMTXSTY
  7
A
  9
$DIMAUNIT
 70
     1
  9
$DIMADEC
 70
     0
  9
$DIMALTRND
 40
0.0
  9
$DIMAZIN
 70
     0
  9
$DIMDSEP
 70
    46
  9
$DIMATFIT
 70
     3
  9
$DIMFRAC
 70
     0
  9
$DIMLDRBLK
  1

  9
$DIMLUNIT
 70
     2
  9
$DIMLWD
 70
    -2
  9
$DIMLWE
 70
    -2
  9
$DIMTMOVE
 70
     2
  9
$LUNITS
 70
     2
  9
$LUPREC
 70
     0
  9
$SKETCHINC
 40
0.1
  9
$FILLETRAD
 40
0.0
  9
$AUNITS
 70
     1
  9
$AUPREC
 70
     4
  9
$MENU
  1
acad
  9
$ELEVATION
 40
0.0
  9
$PELEVATION
 40
0.0
  9
$THICKNESS
 40
0.0
  9
$LIMCHECK
 70
     0
  9
$CHAMFERA
 40
0.0
  9
$CHAMFERB
 40
0.0
  9
$CHAMFERC
 40
0.0
  9
$CHAMFERD
 40
0.0
  9
$SKPOLY
 70
     0
  9
$TDCREATE
 40
2448730.854594907
  9
$TDUCREATE
 40
2448730.479594907
  9
$TDUPDATE
 40
2457794.738362373
  9
$TDUUPDATE
 40
2457794.363362373
  9
$TDINDWG
 40
0.8551166782
  9
$TDUSRTIMER
 40
0.8551166782
  9
$USRTIMER
 70
     1
  9
$ANGBASE
 50
0.0
  9
$ANGDIR
 70
     0
  9
$PDMODE
 70
    32
  9
$PDSIZE
 40
1.0
  9
$PLINEWID
 40
0.0
  9
$SPLFRAME
 70
     0
  9
$SPLINETYPE
 70
     6
  9
$SPLINESEGS
 70
     8
  9
$HANDSEED
  5
4889
  9
$SURFTAB1
 70
     6
  9
$SURFTAB2
 70
     6
  9
$SURFTYPE
 70
     6
  9
$SURFU
 70
     6
  9
$SURFV
 70
     6
  9
$UCSBASE
  2

  9
$UCSNAME
  2

  9
$UCSORG
 10
0.0
 20
0.0
 30
0.0
  9
$UCSXDIR
 10
1.0
 20
0.0
 30
0.0
  9
$UCSYDIR
 10
0.0
 20
1.0
 30
0.0
  9
$UCSORTHOREF
  2

  9
$UCSORTHOVIEW
 70
     0
  9
$UCSORGTOP
 10
0.0
 20
0.0
 30
0.0
  9
$UCSORGBOTTOM
 10
0.0
 20
0.0
 30
0.0
  9
$UCSORGLEFT
 10
0.0
 20
0.0
 30
0.0
  9
$UCSORGRIGHT
 10
0.0
 20
0.0
 30
0.0
  9
$UCSORGFRONT
 10
0.0
 20
0.0
 30
0.0
  9
$UCSORGBACK
 10
0.0
 20
0.0
 30
0.0
  9
$PUCSBASE
  2

  9
$PUCSNAME
  2

  9
$PUCSORG
 10
0.0
 20
0.0
 30
0.0
  9
$PUCSXDIR
 10
1.0
 20
0.0
 30
0.0
  9
$PUCSYDIR
 10
0.0
 20
1.0
 30
0.0
  9
$PUCSORTHOREF
  2

  9
$PUCSORTHOVIEW
 70
     0
  9
$PUCSORGTOP
 10
0.0
 20
0.0
 30
0.0
  9
$PUCSORGBOTTOM
 10
0.0
 20
0.0
 30
0.0
  9
$PUCSORGLEFT
 10
0.0
 20
0.0
 30
0.0
  9
$PUCSORGRIGHT
 10
0.0
 20
0.0
 30
0.0
  9
$PUCSORGFRONT
 10
0.0
 20
0.0
 30
0.0
  9
$PUCSORGBACK
 10
0.0
 20
0.0
 30
0.0
  9
$USERI1
 70
     0
  9
$USERI2
 70
     0
  9
$USERI3
 70
     0
  9
$USERI4
 70
     0
  9
$USERI5
 70
     0
  9
$USERR1
 40
0.0
  9
$USERR2
 40
0.0
  9
$USERR3
 40
0.0
  9
$USERR4
 40
0.0
  9
$USERR5
 40
0.0
  9
$WORLDVIEW
 70
     1
  9
$SHADEDGE
 70
     3
  9
$SHADEDIF
 70
    70
  9
$TILEMODE
 70
     1
  9
$MAXACTVP
 70
    48
  9
$PINSBASE
 10
0.0
 20
0.0
 30
0.0
  9
$PLIMCHECK
 70
     0
  9
$PEXTMIN
 10
1.000000000000000E+20
 20
1.000000000000000E+20
 30
1.000000000000000E+20
  9
$PEXTMAX
 10
-1.000000000000000E+20
 20
-1.000000000000000E+20
 30
-1.000000000000000E+20
  9
$PLIMMIN
 10
0.0
 20
0.0
  9
$PLIMMAX
 10
12.0
 20
9.0
  9
$UNITMODE
 70
     0
  9
$VISRETAIN
 70
     0
  9
$PLINEGEN
 70
     0
  9
$PSLTSCALE
 70
     0
  9
$TREEDEPTH
 70
  3020
  9
$CMLSTYLE
  2
STANDARD
  9
$CMLJUST
 70
     0
  9
$CMLSCALE
 40
1.0
  9
$PROXYGRAPHICS
 70
     1
  9
$MEASUREMENT
 70
     0
  9
$CELWEIGHT
370
    -1
  9
$ENDCAPS
280
     0
  9
$JOINSTYLE
280
     0
  9
$LWDISPLAY
290
     0
  9
$INSUNITS
 70
     0
  9
$HYPERLINKBASE
  1

  9
$STYLESHEET
  1
monochrome.ctb
  9
$XEDIT
290
     1
  9
$CEPSNTYPE
380
     0
  9
$PSTYLEMODE
290
     1
  9
$FINGERPRINTGUID
  2
{0A1EBB68-90A8-11D6-916A-00E02956DA86}
  9
$VERSIONGUID
  2
{1FE27430-CB48-4B6D-9A12-30E8CFFA72FF}
  9
$EXTNAMES
290
     1
  9
$PSVPSCALE
 40
0.0
  9
$OLESTARTUP
290
     0
  9
$SORTENTS
280
   127
  9
$INDEXCTL
280
     0
  9
$HIDETEXT
280
     0
  9
$XCLIPFRAME
290
     0
  9
$HALOGAP
280
     0
  9
$OBSCOLOR
 70
   257
  9
$OBSLTYPE
280
     0
  9
$INTERSECTIONDISPLAY
280
     0
  9
$INTERSECTIONCOLOR
 70
   257
  9
$DIMASSOC
280
     1
  9
$PROJECTNAME
  1

  0
ENDSEC
  0
SECTION
  2
CLASSES
  0
CLASS
  1
DICTIONARYVAR
  2
AcDbDictionaryVar
  3
ObjectDBX Classes
 90
        0
 91
        4
280
     0
281
     0
  0
CLASS
  1
LWPOLYLINE
  2
AcDbPolyline
  3
AutoCAD 2000
 90
        0
 91
        1
280
     0
281
     1
  0
CLASS
  1
ACDBDICTIONARYWDFLT
  2
AcDbDictionaryWithDefault
  3
ObjectDBX Classes
 90
        0
 91
        4
280
     0
281
     0
  0
CLASS
  1
ACDBPLACEHOLDER
  2
AcDbPlaceHolder
  3
ObjectDBX Classes
 90
        0
 91
        1
280
     0
281
     0
  0
CLASS
  1
LAYOUT
  2
AcDbLayout
  3
ObjectDBX Classes
 90
        0
 91
        1
280
     0
281
     0
  0
CLASS
  1
DUMMY
  2
AcDbLongTransaction
  3
DUMMY
 90
        0
 91
        1
280
     0
281
     0
  0
CLASS
  1
LWPOLYLINE
  2
AcDbPolyline
  3
AutoCAD 2000
 90
        0
 91
        1
280
     0
281
     1
  0
CLASS
  1
HATCH
  2
AcDbHatch
  3
AutoCAD 2000
 90
        0
 91
        1
280
     0
281
     1
  0
CLASS
  1
XRECORD
  2
AcDbXrecord
  3
AutoCAD 2000
 90
        0
 91
        1
280
     0
281
     0
  0
CLASS
  1
DUMMY
  2
AcDbLongTransaction
  3
DUMMY
 90
        0
 91
        1
280
     0
281
     0
  0
CLASS
  1
LWPOLYLINE
  2
AcDbPolyline
  3
AutoCAD 2000
 90
        0
 91
        1
280
     0
281
     1
  0
CLASS
  1
HATCH
  2
AcDbHatch
  3
AutoCAD 2000
 90
        0
 91
        1
280
     0
281
     1
  0
CLASS
  1
XRECORD
  2
AcDbXrecord
  3
AutoCAD 2000
 90
        0
 91
        1
280
     0
281
     0
  0
CLASS
  1
DUMMY
  2
AcDbLongTransaction
  3
DUMMY
 90
        0
 91
        1
280
     0
281
     0
  0
CLASS
  1
LWPOLYLINE
  2
AcDbPolyline
  3
AutoCAD 2000
 90
        0
 91
        1
280
     0
281
     1
  0
CLASS
  1
HATCH
  2
AcDbHatch
  3
AutoCAD 2000
 90
        0
 91
        1
280
     0
281
     1
  0
CLASS
  1
XRECORD
  2
AcDbXrecord
  3
AutoCAD 2000
 90
        0
 91
        1
280
     0
281
     0
  0
CLASS
  1
MATERIAL
  2
AcDbMaterial
  3
ObjectDBX Classes
 90
     1153
 91
        4
280
     0
281
     0
  0
CLASS
  1
VISUALSTYLE
  2
AcDbVisualStyle
  3
ObjectDBX Classes
 90
     4095
 91
        4
280
     0
281
     0
  0
CLASS
  1
TABLESTYLE
  2
AcDbTableStyle
  3
ObjectDBX Classes
 90
     4095
 91
        4
280
     0
281
     0
  0
CLASS
  1
SCALE
  2
AcDbScale
  3
ObjectDBX Classes
 90
     1153
 91
        4
280
     0
281
     0
  0
CLASS
  1
MLEADERSTYLE
  2
AcDbMLeaderStyle
  3
ACDB_MLEADERSTYLE_CLASS
 90
     4095
 91
        4
280
     0
281
     0
  0
CLASS
  1
ACDBSECTIONVIEWSTYLE
  2
AcDbSectionViewStyle
  3
ObjectDBX Classes
 90
     1025
 91
        2
280
     1
281
     0
  0
CLASS
  1
ACDBDETAILVIEWSTYLE
  2
AcDbDetailViewStyle
  3
ObjectDBX Classes
 90
     1025
 91
        2
280
     1
281
     0
  0
CLASS
  1
CELLSTYLEMAP
  2
AcDbCellStyleMap
  3
ObjectDBX Classes
 90
     1152
 91
        4
280
     0
281
     0
  0
ENDSEC
  0
SECTION
  2
TABLES
  0
TABLE
  2
VPORT
  5
8
102
{ACAD_XDICTIONARY
360
484D
102
}
330
0
100
AcDbSymbolTable
 70
     1
  0
VPORT
  5
4783
330
8
100
AcDbSymbolTableRecord
100
AcDbViewportTableRecord
  2
*Active
 70
     0
 10
0.0
 20
0.0
 11
1.0
 21
1.0
 12
6247.702804898387
 22
4157.568375432126
 13
0.0
 23
0.0
 14
10.0
 24
10.0
 15
100.0
 25
100.0
 16
0.0
 26
0.0
 36
1.0
 17
0.0
 27
0.0
 37
0.0
 40
11229.26193087577
 41
1.560747663551402
 42
50.0
 43
0.0
 44
0.0
 50
0.0
 51
0.0
 71
     0
 72
   100
 73
     1
 74
     1
 75
     0
 76
     0
 77
     0
 78
     2
281
     0
 65
     1
110
0.0
120
0.0
130
0.0
111
1.0
121
0.0
131
0.0
112
0.0
122
1.0
132
0.0
 79
     0
146
0.0
1001
ACAD_NAV_VCDISPLAY
1070
     3
  0
ENDTAB
  0
TABLE
  2
LTYPE
  5
5
330
0
100
AcDbSymbolTable
 70
     5
  0
LTYPE
  5
11
330
5
100
AcDbSymbolTableRecord
100
AcDbLinetypeTableRecord
  2
BYBLOCK
 70
     0
  3

 72
    65
 73
     0
 40
0.0
  0
LTYPE
  5
12
330
5
100
AcDbSymbolTableRecord
100
AcDbLinetypeTableRecord
  2
BYLAYER
 70
     0
  3

 72
    65
 73
     0
 40
0.0
  0
LTYPE
  5
13
330
5
100
AcDbSymbolTableRecord
100
AcDbLinetypeTableRecord
  2
CONTINUOUS
 70
     0
  3
実線
 72
    65
 73
     0
 40
0.0
  0
LTYPE
  5
A0
330
5
100
AcDbSymbolTableRecord
100
AcDbLinetypeTableRecord
  2
HIDDEN
 70
     0
  3
_ _ _ _ _ _ _ _ _ _ _ _ _ _ _ _ _ _ _ _ _ _ _
 72
    65
 73
     2
 40
0.375
 49
0.25
 74
     0
 49
-0.125
 74
     0
  0
LTYPE
  5
A1
330
5
100
AcDbSymbolTableRecord
100
AcDbLinetypeTableRecord
  2
CENTER
 70
     0
  3
____ _ ____ _ ____ _ ____ _ ____ _ ____ _ ____
 72
    65
 73
     4
 40
2.0
 49
1.25
 74
     0
 49
-0.25
 74
     0
 49
0.25
 74
     0
 49
-0.25
 74
     0
  0
LTYPE
  5
A2
330
5
100
AcDbSymbolTableRecord
100
AcDbLinetypeTableRecord
  2
PHANTOM
 70
     0
  3
_____ _ _ _____ _ _ _____ _ _ _____ _ _ ____
 72
    65
 73
     6
 40
2.5
 49
1.25
 74
     0
 49
-0.25
 74
     0
 49
0.25
 74
     0
 49
-0.25
 74
     0
 49
0.25
 74
     0
 49
-0.25
 74
     0
  0
LTYPE
  5
A3
330
5
100
AcDbSymbolTableRecord
100
AcDbLinetypeTableRecord
  2
DOT
 70
     0
  3
...............................................
 72
    65
 73
     2
 40
0.25
 49
0.0
 74
     0
 49
-0.25
 74
     0
  0
ENDTAB
  0
TABLE
  2
LAYER
  5
2
102
{ACAD_XDICTIONARY
360
47F9
102
}
330
0
100
AcDbSymbolTable
 70
    10
  0
LAYER
  5
E
102
{ACAD_XDICTIONARY
360
47E4
102
}
330
2
100
AcDbSymbolTableRecord
100
AcDbLayerTableRecord
  2
0
 70
     0
 62
     7
  6
CONTINUOUS
370
    -3
390
A64
  0
LAYER
  5
A6
102
{ACAD_XDICTIONARY
360
47E6
102
}
330
2
100
AcDbSymbolTableRecord
100
AcDbLayerTableRecord
  2
SUNPOU
 70
     0
 62
     1
  6
CONTINUOUS
370
    -3
390
A64
  0
LAYER
  5
A7
102
{ACAD_XDICTIONARY
360
47E8
102
}
330
2
100
AcDbSymbolTableRecord
100
AcDbLayerTableRecord
  2
SEIHIN
 70
     0
 62
     3
  6
CONTINUOUS
370
    -3
390
A64
  0
LAYER
  5
A8
102
{ACAD_XDICTIONARY
360
47EA
102
}
330
2
100
AcDbSymbolTableRecord
100
AcDbLayerTableRecord
  2
HAIKIN
 70
     0
 62
     2
  6
CONTINUOUS
370
    -3
390
A64
  0
LAYER
  5
A9
102
{ACAD_XDICTIONARY
360
47EC
102
}
330
2
100
AcDbSymbolTableRecord
100
AcDbLayerTableRecord
  2
HASEN
 70
     0
 62
     4
  6
HIDDEN
370
    -3
390
A64
  0
LAYER
  5
AA
102
{ACAD_XDICTIONARY
360
47EE
102
}
330
2
100
AcDbSymbolTableRecord
100
AcDbLayerTableRecord
  2
1HASEN
 70
     0
 62
     5
  6
CENTER
370
    -3
390
A64
  0
LAYER
  5
AB
102
{ACAD_XDICTIONARY
360
47F0
102
}
330
2
100
AcDbSymbolTableRecord
100
AcDbLayerTableRecord
  2
2HASEN
 70
     0
 62
     6
  6
PHANTOM
370
    -3
390
A64
  0
LAYER
  5
AC
102
{ACAD_XDICTIONARY
360
47F2
102
}
330
2
100
AcDbSymbolTableRecord
100
AcDbLayerTableRecord
  2
TEN
 70
     0
 62
     7
  6
DOT
370
    -3
390
A64
  0
LAYER
  5
AD
102
{ACAD_XDICTIONARY
360
47F4
102
}
330
2
100
AcDbSymbolTableRecord
100
AcDbLayerTableRecord
  2
HOJO
 70
     0
 62
     7
  6
CONTINUOUS
370
    -3
390
A64
  0
LAYER
  5
AE
330
2
100
AcDbSymbolTableRecord
100
AcDbLayerTableRecord
  2
DEFPOINTS
 70
     0
 62
     7
  6
CONTINUOUS
290
     0
370
    -3
390
A64
  0
ENDTAB
  0
TABLE
  2
STYLE
  5
3
330
0
100
AcDbSymbolTable
 70
     3
  0
STYLE
  5
F
330
3
100
AcDbSymbolTableRecord
100
AcDbTextStyleTableRecord
  2
STANDARD
 70
     0
 40
0.0
 41
1.0
 50
0.0
 71
     0
 42
0.2
  3
txt
  4

  0
STYLE
  5
9E
330
3
100
AcDbSymbolTableRecord
100
AcDbTextStyleTableRecord
  2
A
 70
     0
 40
0.0
 41
1.0
 50
0.0
 71
     0
 42
60.0
  3
txt
  4
bigfont
  0
STYLE
  5
9F
330
3
100
AcDbSymbolTableRecord
100
AcDbTextStyleTableRecord
  2
NIHONGO
 70
     0
 40
0.0
 41
1.0
 50
0.0
 71
     0
 42
3.0
  3
TXT
  4
BIGFONT
  0
ENDTAB
  0
TABLE
  2
VIEW
  5
6
330
0
100
AcDbSymbolTable
 70
     0
  0
ENDTAB
  0
TABLE
  2
UCS
  5
7
330
0
100
AcDbSymbolTable
 70
     0
  0
ENDTAB
  0
TABLE
  2
APPID
  5
9
330
0
100
AcDbSymbolTable
 70
     3
  0
APPID
  5
10
330
9
100
AcDbSymbolTableRecord
100
AcDbRegAppTableRecord
  2
ACAD
 70
     0
  0
APPID
  5
47D6
330
9
100
AcDbSymbolTableRecord
100
AcDbRegAppTableRecord
  2
ACAD_NAV_VCDISPLAY
 70
     0
  0
APPID
  5
483C
330
9
100
AcDbSymbolTableRecord
100
AcDbRegAppTableRecord
  2
ACAD_MLEADERVER
 70
     0
  0
ENDTAB
  0
TABLE
  2
DIMSTYLE
  5
A
330
0
100
AcDbSymbolTable
 70
     1
100
AcDbDimStyleTable
  0
DIMSTYLE
105
A5F
102
{ACAD_REACTORS
330
A52
330
A07
330
A56
330
A57
330
A58
330
8EC
330
8EB
330
8F5
330
8F4
330
A35
330
A36
330
745
330
A39
330
740
330
73E
330
962
330
73B
330
739
330
744
330
743
330
967
330
73F
330
73A
330
919
330
47D7
102
}
330
A
100
AcDbSymbolTableRecord
100
AcDbDimStyleTableRecord
  2
STANDARD
 70
     0
178
     0
340
F
  0
ENDTAB
  0
TABLE
  2
BLOCK_RECORD
  5
1
330
0
100
AcDbSymbolTable
 70
   133
  0
BLOCK_RECORD
  5
17
330
1
100
AcDbSymbolTableRecord
100
AcDbBlockTableRecord
  2
*MODEL_SPACE
340
A67
  0
BLOCK_RECORD
  5
14
330
1
100
AcDbSymbolTableRecord
100
AcDbBlockTableRecord
  2
*PAPER_SPACE
340
A68
  0
BLOCK_RECORD
  5
1C
330
1
100
AcDbSymbolTableRecord
100
AcDbBlockTableRecord
  2
BORDER
340
0
  0
BLOCK_RECORD
  5
1D
330
1
100
AcDbSymbolTableRecord
100
AcDbBlockTableRecord
  2
SA3-10
340
0
  0
BLOCK_RECORD
  5
1E
330
1
100
AcDbSymbolTableRecord
100
AcDbBlockTableRecord
  2
SA4
340
0
102
{BLKREFS
331
BC
102
}
  0
BLOCK_RECORD
  5
1D14
330
1
100
AcDbSymbolTableRecord
100
AcDbBlockTableRecord
  2
*D4
340
0
  0
BLOCK_RECORD
  5
1D74
330
1
100
AcDbSymbolTableRecord
100
AcDbBlockTableRecord
  2
*D9
340
0
  0
BLOCK_RECORD
  5
1DB0
330
1
100
AcDbSymbolTableRecord
100
AcDbBlockTableRecord
  2
*D11
340
0
  0
BLOCK_RECORD
  5
1DBE
330
1
100
AcDbSymbolTableRecord
100
AcDbBlockTableRecord
  2
*D12
340
0
  0
BLOCK_RECORD
  5
1DCA
330
1
100
AcDbSymbolTableRecord
100
AcDbBlockTableRecord
  2
*D13
340
0
  0
BLOCK_RECORD
  5
20D1
330
1
100
AcDbSymbolTableRecord
100
AcDbBlockTableRecord
  2
*D27
340
0
  0
BLOCK_RECORD
  5
20E9
330
1
100
AcDbSymbolTableRecord
100
AcDbBlockTableRecord
  2
*D29
340
0
  0
BLOCK_RECORD
  5
2169
330
1
100
AcDbSymbolTableRecord
100
AcDbBlockTableRecord
  2
*D39
340
0
  0
BLOCK_RECORD
  5
2175
330
1
100
AcDbSymbolTableRecord
100
AcDbBlockTableRecord
  2
*D40
340
0
  0
BLOCK_RECORD
  5
26D3
330
1
100
AcDbSymbolTableRecord
100
AcDbBlockTableRecord
  2
*D49
340
0
  0
BLOCK_RECORD
  5
26E8
330
1
100
AcDbSymbolTableRecord
100
AcDbBlockTableRecord
  2
*D50
340
0
  0
BLOCK_RECORD
  5
26FD
330
1
100
AcDbSymbolTableRecord
100
AcDbBlockTableRecord
  2
*D51
340
0
  0
BLOCK_RECORD
  5
2797
330
1
100
AcDbSymbolTableRecord
100
AcDbBlockTableRecord
  2
*D54
340
0
  0
BLOCK_RECORD
  5
27C9
330
1
100
AcDbSymbolTableRecord
100
AcDbBlockTableRecord
  2
*D58
340
0
  0
BLOCK_RECORD
  5
27D5
330
1
100
AcDbSymbolTableRecord
100
AcDbBlockTableRecord
  2
*D59
340
0
  0
BLOCK_RECORD
  5
27FB
330
1
100
AcDbSymbolTableRecord
100
AcDbBlockTableRecord
  2
*D61
340
0
  0
BLOCK_RECORD
  5
282D
330
1
100
AcDbSymbolTableRecord
100
AcDbBlockTableRecord
  2
*D65
340
0
  0
BLOCK_RECORD
  5
2839
330
1
100
AcDbSymbolTableRecord
100
AcDbBlockTableRecord
  2
*D66
340
0
  0
BLOCK_RECORD
  5
2851
330
1
100
AcDbSymbolTableRecord
100
AcDbBlockTableRecord
  2
*D68
340
0
  0
BLOCK_RECORD
  5
285F
330
1
100
AcDbSymbolTableRecord
100
AcDbBlockTableRecord
  2
*D69
340
0
  0
BLOCK_RECORD
  5
288E
330
1
100
AcDbSymbolTableRecord
100
AcDbBlockTableRecord
  2
*D72
340
0
  0
BLOCK_RECORD
  5
2950
330
1
100
AcDbSymbolTableRecord
100
AcDbBlockTableRecord
  2
*D85
340
0
  0
BLOCK_RECORD
  5
2976
330
1
100
AcDbSymbolTableRecord
100
AcDbBlockTableRecord
  2
*D88
340
0
  0
BLOCK_RECORD
  5
29BE
330
1
100
AcDbSymbolTableRecord
100
AcDbBlockTableRecord
  2
*D94
340
0
  0
BLOCK_RECORD
  5
47D8
330
1
100
AcDbSymbolTableRecord
100
AcDbBlockTableRecord
  2
*D132
340
0
  0
ENDTAB
  0
ENDSEC
  0
SECTION
  2
BLOCKS
  0
BLOCK
  5
B1
330
17
100
AcDbEntity
  8
0
100
AcDbBlockBegin
  2
*MODEL_SPACE
 70
     0
 10
0.0
 20
0.0
 30
0.0
  3
*MODEL_SPACE
  1

  0
ENDBLK
  5
B2
330
17
100
AcDbEntity
  8
0
100
AcDbBlockEnd
  0
BLOCK
  5
AF
330
14
100
AcDbEntity
 67
     1
  8
0
100
AcDbBlockBegin
  2
*PAPER_SPACE
 70
     0
 10
0.0
 20
0.0
 30
0.0
  3
*PAPER_SPACE
  1

  0
ENDBLK
  5
B0
330
14
100
AcDbEntity
 67
     1
  8
0
100
AcDbBlockEnd
  0
BLOCK
  5
B5
330
1C
100
AcDbEntity
  8
0
100
AcDbBlockBegin
  2
BORDER
 70
     0
 10
0.0
 20
0.0
 30
0.0
  3
BORDER
  1

  0
LINE
  5
B6
330
1C
100
AcDbEntity
  8
0
100
AcDbLine
 10
0.0
 20
0.0
 30
0.0
 11
1.00000000000004
 21
0.0
 31
0.0
  0
LINE
  5
B7
330
1C
100
AcDbEntity
  8
0
100
AcDbLine
 10
1.00000000000004
 20
0.0
 30
0.0
 11
1.00000000000004
 21
1.00000000000004
 31
0.0
  0
LINE
  5
B8
330
1C
100
AcDbEntity
  8
0
100
AcDbLine
 10
1.00000000000004
 20
1.00000000000004
 30
0.0
 11
0.0
 21
1.00000000000004
 31
0.0
  0
LINE
  5
B9
330
1C
100
AcDbEntity
  8
0
100
AcDbLine
 10
0.0
 20
1.00000000000004
 30
0.0
 11
0.0
 21
0.0
 31
0.0
  0
ENDBLK
  5
BA
330
1C
100
AcDbEntity
  8
0
100
AcDbBlockEnd
  0
BLOCK
  5
BB
330
1D
100
AcDbEntity
  8
SUNPOU
100
AcDbBlockBegin
  2
SA3-10
 70
     0
 10
0.0
 20
0.0
 30
0.0
  3
SA3-10
  1

  0
INSERT
  5
BC
330
1D
100
AcDbEntity
  8
HAIKIN
100
AcDbBlockReference
  2
SA4
 10
0.0
 20
0.0
 30
0.0
  0
ENDBLK
  5
BD
330
1D
100
AcDbEntity
  8
SUNPOU
100
AcDbBlockEnd
  0
BLOCK
  5
BE
330
1E
100
AcDbEntity
  8
HAIKIN
100
AcDbBlockBegin
  2
SA4
 70
     0
 10
0.0
 20
0.0
 30
0.0
  3
SA4
  1

  0
TEXT
  5
BF
330
1E
100
AcDbEntity
  8
SUNPOU
100
AcDbText
 10
3400.0
 20
0.0
 30
0.0
 40
25.0
  1
新和コンクリート工業株式会社
  7
NIHONGO
100
AcDbText
  0
TEXT
  5
C2
330
1E
100
AcDbEntity
  8
SUNPOU
100
AcDbText
 10
3614.166666666667
 20
62.5
 30
0.0
 40
25.0
  1
製図
  7
NIHONGO
 72
     4
 11
3640.0
 21
75.0
 31
0.0
100
AcDbText
  0
TEXT
  5
C3
330
1E
100
AcDbEntity
  8
SUNPOU
100
AcDbText
 10
3613.333333333333
 20
112.5
 30
0.0
 40
25.0
  1
設計
  7
NIHONGO
 72
     4
 11
3640.0
 21
125.0
 31
0.0
100
AcDbText
  0
TEXT
  5
C4
330
1E
100
AcDbEntity
  8
SUNPOU
100
AcDbText
 10
3390.833333333333
 20
62.50000000000014
 30
0.0
 40
25.0
  1
認
  7
NIHONGO
 72
     4
 11
3402.5
 21
75.00000000000014
 31
0.0
100
AcDbText
  0
TEXT
  5
C5
330
1E
100
AcDbEntity
  8
SUNPOU
100
AcDbText
 10
3390.833333333333
 20
113.3333333333337
 30
0.0
 40
25.0
  1
承
  7
NIHONGO
 72
     4
 11
3402.5
 21
125.0000000000003
 31
0.0
100
AcDbText
  0
TEXT
  5
C6
330
1E
100
AcDbEntity
  8
SUNPOU
100
AcDbText
 10
3127.5
 20
117.5000000000001
 30
0.0
 40
25.0
  1
図　面　番　号
  7
NIHONGO
 72
     4
 11
3230.0
 21
130.0000000000001
 31
0.0
100
AcDbText
  0
TEXT
  5
C7
330
1E
100
AcDbEntity
  8
SUNPOU
100
AcDbText
 10
3620.0
 20
170.0
 30
0.0
 40
25.0
  1
１／
  7
NIHONGO
100
AcDbText
  0
TEXT
  5
C8
330
1E
100
AcDbEntity
  8
SUNPOU
100
AcDbText
 10
3473.333333333333
 20
162.5000000000001
 30
0.0
 40
25.0
  1
縮　　尺
  7
NIHONGO
 72
     4
 11
3530.0
 21
175.0000000000001
 31
0.0
100
AcDbText
  0
TEXT
  5
C9
330
1E
100
AcDbEntity
  8
SUNPOU
100
AcDbText
 10
3473.333333333333
 20
212.5
 30
0.0
 40
25.0
  1
鉄 筋 量
  7
NIHONGO
 72
     4
 11
3530.0
 21
225.0
 31
0.0
100
AcDbText
  0
TEXT
  5
CA
330
1E
100
AcDbEntity
  8
SUNPOU
100
AcDbText
 10
3473.333333333333
 20
262.5
 30
0.0
 40
25.0
  1
製 造 数
  7
NIHONGO
 72
     4
 11
3530.0
 21
275.0
 31
0.0
100
AcDbText
  0
TEXT
  5
CB
330
1E
100
AcDbEntity
  8
SUNPOU
100
AcDbText
 10
3770.0
 20
210.0
 30
0.0
 40
25.0
  1
ｋｇ
  7
NIHONGO
 72
     2
 11
3820.0
 21
210.0
 31
0.0
100
AcDbText
  0
TEXT
  5
CC
330
1E
100
AcDbEntity
  8
SUNPOU
100
AcDbText
 10
3395.0
 20
210.0
 30
0.0
 40
25.0
  1
ｋｇ
  7
NIHONGO
 72
     2
 11
3445.0
 21
210.0
 31
0.0
100
AcDbText
  0
TEXT
  5
CD
330
1E
100
AcDbEntity
  8
SUNPOU
100
AcDbText
 10
3100.0
 20
162.5000000000001
 30
0.0
 40
25.0
  1
年 月 日
  7
NIHONGO
 72
     4
 11
3155.0
 21
175.0000000000001
 31
0.0
100
AcDbText
  0
TEXT
  5
CE
330
1E
100
AcDbEntity
  8
SUNPOU
100
AcDbText
 10
3098.333333333333
 20
212.5
 30
0.0
 40
25.0
  1
製品質量
  7
NIHONGO
 72
     4
 11
3155.0
 21
225.0
 31
0.0
100
AcDbText
  0
TEXT
  5
CF
330
1E
100
AcDbEntity
  8
SUNPOU
100
AcDbText
 10
3099.166666666667
 20
262.5
 30
0.0
 40
25.0
  1
業 者 名
  7
NIHONGO
 72
     4
 11
3155.0
 21
275.0
 31
0.0
100
AcDbText
  0
TEXT
  5
D0
330
1E
100
AcDbEntity
  8
SUNPOU
100
AcDbText
 10
3098.333333333333
 20
325.0
 30
0.0
 40
25.0
  1
名　　称
  7
NIHONGO
 72
     4
 11
3155.0
 21
337.5
 31
0.0
100
AcDbText
  0
LINE
  5
D1
330
1E
100
AcDbEntity
  8
SUNPOU
100
AcDbLine
 10
3380.0
 20
110.0000000000001
 30
0.0
 11
3080.0
 21
110.0000000000001
 31
0.0
  0
LINE
  5
D2
330
1E
100
AcDbEntity
  8
SUNPOU
100
AcDbLine
 10
3675.0
 20
49.99999999999986
 30
0.0
 11
3675.0
 21
149.9999999999999
 31
0.0
  0
LINE
  5
D3
330
1E
100
AcDbEntity
  8
SUNPOU
100
AcDbLine
 10
3605.0
 20
49.99999999999986
 30
0.0
 11
3605.0
 21
149.9999999999999
 31
0.0
  0
LINE
  5
D4
330
1E
100
AcDbEntity
  8
SUNPOU
100
AcDbLine
 10
3425.0
 20
49.99999999999994
 30
0.0
 11
3425.0
 21
150.0
 31
0.0
  0
LINE
  5
D5
330
1E
100
AcDbEntity
  8
SUNPOU
100
AcDbLine
 10
3380.0
 20
49.99999999999994
 30
0.0
 11
3380.0
 21
150.0
 31
0.0
  0
LINE
  5
D6
330
1E
100
AcDbEntity
  8
SUNPOU
100
AcDbLine
 10
3230.0
 20
150.0000000000001
 30
0.0
 11
3230.0
 21
375.0
 31
0.0
  0
LINE
  5
D7
330
1E
100
AcDbEntity
  8
SUNPOU
100
AcDbLine
 10
3605.0
 20
150.0000000000001
 30
0.0
 11
3605.0
 21
300.0
 31
0.0
  0
LINE
  5
D8
330
1E
100
AcDbEntity
  8
SUNPOU
100
AcDbLine
 10
3455.0
 20
150.0000000000001
 30
0.0
 11
3455.0
 21
300.0
 31
0.0
  0
LINE
  5
D9
330
1E
100
AcDbEntity
  8
SUNPOU
100
AcDbLine
 10
3830.0
 20
300.0
 30
0.0
 11
3080.0
 21
300.0
 31
0.0
  0
LINE
  5
DA
330
1E
100
AcDbEntity
  8
SUNPOU
100
AcDbLine
 10
3830.0
 20
250.0
 30
0.0
 11
3080.0
 21
250.0
 31
0.0
  0
LINE
  5
DB
330
1E
100
AcDbEntity
  8
SUNPOU
100
AcDbLine
 10
3830.0
 20
200.0
 30
0.0
 11
3080.0
 21
200.0
 31
0.0
  0
LINE
  5
DC
330
1E
100
AcDbEntity
  8
SUNPOU
100
AcDbLine
 10
3830.0
 20
149.9999999999999
 30
0.0
 11
3080.0
 21
150.0000000000004
 31
0.0
  0
LINE
  5
DD
330
1E
100
AcDbEntity
  8
HAIKIN
100
AcDbLine
 10
3080.0
 20
375.0
 30
0.0
 11
3830.0
 21
375.0
 31
0.0
  0
LINE
  5
DE
330
1E
100
AcDbEntity
  8
HAIKIN
100
AcDbLine
 10
3080.0
 20
50.00000000000009
 30
0.0
 11
3080.0
 21
375.0
 31
0.0
  0
LINE
  5
DF
330
1E
100
AcDbEntity
  8
SUNPOU
100
AcDbLine
 10
0.0000000000001599
 20
2770.0
 30
0.0
 11
0.0000000000001599
 21
2720.0
 31
0.0
  0
LINE
  5
E0
330
1E
100
AcDbEntity
  8
SUNPOU
100
AcDbLine
 10
250.0000000000001
 20
2770.0
 30
0.0
 11
0.0000000000001599
 21
2770.0
 31
0.0
  0
LINE
  5
E1
330
1E
100
AcDbEntity
  8
SUNPOU
100
AcDbLine
 10
250.0000000000001
 20
2720.0
 30
0.0
 11
250.0000000000001
 21
2770.0
 31
0.0
  0
LINE
  5
E2
330
1E
100
AcDbEntity
  8
HAIKIN
100
AcDbLine
 10
0.0000000000000037
 20
50.0
 30
0.0
 11
3830.0
 21
50.0
 31
0.0
  0
LINE
  5
E3
330
1E
100
AcDbEntity
  8
HAIKIN
100
AcDbLine
 10
0.0000000000001584
 20
2720.0
 30
0.0
 11
3830.0
 21
2720.0
 31
0.0
  0
LINE
  5
E4
330
1E
100
AcDbEntity
  8
HAIKIN
100
AcDbLine
 10
3830.0
 20
2720.0
 30
0.0
 11
3830.0
 21
50.0
 31
0.0
  0
TEXT
  5
E5
330
1E
100
AcDbEntity
  8
SUNPOU
100
AcDbText
 10
37.00000000000016
 20
2730.0
 30
0.0
 40
30.0
  1
Ｈ－２－共
  7
NIHONGO
 72
     4
 11
125.0000000000002
 21
2745.0
 31
0.0
100
AcDbText
  0
LINE
  5
E6
330
1E
100
AcDbEntity
  8
HAIKIN
100
AcDbLine
 10
0.0000000000000037
 20
50.0
 30
0.0
 11
0.0000000000001584
 21
2720.0
 31
0.0
  0
ENDBLK
  5
E7
330
1E
100
AcDbEntity
  8
HAIKIN
100
AcDbBlockEnd
  0
BLOCK
  5
1D1E
330
1D14
100
AcDbEntity
  8
0
100
AcDbBlockBegin
  2
*D4
 70
     1
 10
0.0
 20
0.0
 30
0.0
  3
*D4
  1

  0
LINE
  5
46D8
330
1D14
100
AcDbEntity
  8
SUNPOU
 62
     0
440
 16777216
100
AcDbLine
 10
9433.69597814597
 20
5784.99632079107
 30
0.0
 11
10883.97714725798
 21
5784.996320791069
 31
0.0
  0
LINE
  5
46D9
330
1D14
100
AcDbEntity
  8
SUNPOU
 62
     0
440
 16777216
100
AcDbLine
 10
9483.69597814597
 20
3984.99632079107
 30
0.0
 11
10883.97714725798
 21
3984.99632079107
 31
0.0
  0
LINE
  5
46DA
330
1D14
100
AcDbEntity
  8
SUNPOU
 62
     0
440
 16777216
100
AcDbLine
 10
10863.97714725798
 20
5744.996320791069
 30
0.0
 11
10863.97714725798
 21
4024.99632079107
 31
0.0
  0
SOLID
  5
46DB
330
1D14
100
AcDbEntity
  8
SUNPOU
 62
     0
440
 16777216
100
AcDbTrace
 10
10857.31048059131
 20
5744.996320791069
 30
0.0
 11
10870.64381392464
 21
5744.996320791069
 31
0.0
 12
10863.97714725798
 22
5784.996320791069
 32
0.0
 13
10863.97714725798
 23
5784.996320791069
 33
0.0
  0
SOLID
  5
46DC
330
1D14
100
AcDbEntity
  8
SUNPOU
 62
     0
440
 16777216
100
AcDbTrace
 10
10857.31048059131
 20
4024.99632079107
 30
0.0
 11
10870.64381392464
 21
4024.99632079107
 31
0.0
 12
10863.97714725798
 22
3984.99632079107
 32
0.0
 13
10863.97714725798
 23
3984.99632079107
 33
0.0
  0
MTEXT
  5
46DD
330
1D14
100
AcDbEntity
  8
SUNPOU
 62
     0
440
 16777216
100
AcDbMText
 10
10803.97714725798
 20
4884.996320791071
 30
0.0
 40
60.0
 41
0.0
 71
     5
 72
     1
  1
\A1;1800
  7
A
 11
6.123031769111886E-17
 21
1.0
 31
0.0
 73
     1
 44
1.0
  0
POINT
  5
46DE
330
1D14
100
AcDbEntity
  8
DEFPOINTS
 62
     0
440
 16777216
100
AcDbPoint
 10
9393.69597814597
 20
5784.99632079107
 30
0.0
  0
POINT
  5
46DF
330
1D14
100
AcDbEntity
  8
DEFPOINTS
 62
     0
440
 16777216
100
AcDbPoint
 10
9443.69597814597
 20
3984.99632079107
 30
0.0
  0
POINT
  5
46E0
330
1D14
100
AcDbEntity
  8
DEFPOINTS
 62
     0
440
 16777216
100
AcDbPoint
 10
10863.97714725798
 20
3984.99632079107
 30
0.0
  0
ENDBLK
  5
1D1F
330
1D14
100
AcDbEntity
  8
0
100
AcDbBlockEnd
  0
BLOCK
  5
1D7E
330
1D74
100
AcDbEntity
  8
0
100
AcDbBlockBegin
  2
*D9
 70
     1
 10
0.0
 20
0.0
 30
0.0
  3
*D9
  1

  0
LINE
  5
4659
330
1D74
100
AcDbEntity
  8
SUNPOU
 62
     0
440
 16777216
100
AcDbLine
 10
6443.695978145972
 20
7024.996320791066
 30
0.0
 11
6443.695978145972
 21
7695.955658636947
 31
0.0
  0
LINE
  5
465A
330
1D74
100
AcDbEntity
  8
SUNPOU
 62
     0
440
 16777216
100
AcDbLine
 10
8243.695978145972
 20
6974.99632079107
 30
0.0
 11
8243.695978145972
 21
7695.955658636947
 31
0.0
  0
LINE
  5
465B
330
1D74
100
AcDbEntity
  8
SUNPOU
 62
     0
440
 16777216
100
AcDbLine
 10
6483.695978145972
 20
7675.955658636947
 30
0.0
 11
8203.695978145972
 21
7675.955658636947
 31
0.0
  0
SOLID
  5
465C
330
1D74
100
AcDbEntity
  8
SUNPOU
 62
     0
440
 16777216
100
AcDbTrace
 10
6483.695978145972
 20
7682.622325303614
 30
0.0
 11
6483.695978145972
 21
7669.28899197028
 31
0.0
 12
6443.695978145972
 22
7675.955658636947
 32
0.0
 13
6443.695978145972
 23
7675.955658636947
 33
0.0
  0
SOLID
  5
465D
330
1D74
100
AcDbEntity
  8
SUNPOU
 62
     0
440
 16777216
100
AcDbTrace
 10
8203.695978145972
 20
7682.622325303614
 30
0.0
 11
8203.695978145972
 21
7669.28899197028
 31
0.0
 12
8243.695978145972
 22
7675.955658636947
 32
0.0
 13
8243.695978145972
 23
7675.955658636947
 33
0.0
  0
MTEXT
  5
465E
330
1D74
100
AcDbEntity
  8
SUNPOU
 62
     0
440
 16777216
100
AcDbMText
 10
7343.695978145972
 20
7735.955658636947
 30
0.0
 40
60.0
 41
0.0
 71
     5
 72
     1
  1
\A1;1800
  7
A
 73
     1
 44
1.0
  0
POINT
  5
465F
330
1D74
100
AcDbEntity
  8
DEFPOINTS
 62
     0
440
 16777216
100
AcDbPoint
 10
6443.695978145972
 20
6984.996320791066
 30
0.0
  0
POINT
  5
4660
330
1D74
100
AcDbEntity
  8
DEFPOINTS
 62
     0
440
 16777216
100
AcDbPoint
 10
8243.695978145972
 20
6934.99632079107
 30
0.0
  0
POINT
  5
4661
330
1D74
100
AcDbEntity
  8
DEFPOINTS
 62
     0
440
 16777216
100
AcDbPoint
 10
8243.695978145972
 20
7675.955658636947
 30
0.0
  0
ENDBLK
  5
1D7F
330
1D74
100
AcDbEntity
  8
0
100
AcDbBlockEnd
  0
BLOCK
  5
1DBC
330
1DB0
100
AcDbEntity
  8
0
100
AcDbBlockBegin
  2
*D11
 70
     1
 10
0.0
 20
0.0
 30
0.0
  3
*D11
  1

  0
LINE
  5
46FC
330
1DB0
100
AcDbEntity
  8
SUNPOU
 62
     0
440
 16777216
100
AcDbLine
 10
6863.695978145972
 20
6984.99632079107
 30
0.0
 11
9038.90252213955
 21
6984.99632079107
 31
0.0
  0
LINE
  5
46FD
330
1DB0
100
AcDbEntity
  8
SUNPOU
 62
     0
440
 16777216
100
AcDbLine
 10
8283.695978146076
 20
6934.996320791066
 30
0.0
 11
9038.90252213955
 21
6934.996320791066
 31
0.0
  0
LINE
  5
46FE
330
1DB0
100
AcDbEntity
  8
SUNPOU
 62
     0
440
 16777216
100
AcDbLine
 10
9018.90252213955
 20
7024.99632079107
 30
0.0
 11
9018.90252213955
 21
7064.99632079107
 31
0.0
  0
LINE
  5
46FF
330
1DB0
100
AcDbEntity
  8
SUNPOU
 62
     0
440
 16777216
100
AcDbLine
 10
9018.90252213955
 20
6894.996320791066
 30
0.0
 11
9018.90252213955
 21
6854.996320791066
 31
0.0
  0
MTEXT
  5
4700
330
1DB0
100
AcDbEntity
  8
SUNPOU
 62
     0
440
 16777216
100
AcDbMText
 10
8958.90252213955
 20
7056.029111377218
 30
0.0
 40
60.0
 41
0.0
 71
     5
 72
     1
  1
\A1;50
  7
A
 11
6.123031769111886E-17
 21
1.0
 31
0.0
 73
     1
 44
1.0
  0
LINE
  5
4701
330
1DB0
100
AcDbEntity
  8
SUNPOU
 62
     0
440
 16777216
100
AcDbLine
 10
9018.90252213955
 20
6984.99632079107
 30
0.0
 11
9018.90252213955
 21
6934.996320791066
 31
0.0
  0
SOLID
  5
4702
330
1DB0
100
AcDbEntity
  8
SUNPOU
 62
     0
440
 16777216
100
AcDbTrace
 10
9012.235855472883
 20
7024.99632079107
 30
0.0
 11
9025.569188806216
 21
7024.99632079107
 31
0.0
 12
9018.90252213955
 22
6984.99632079107
 32
0.0
 13
9018.90252213955
 23
6984.99632079107
 33
0.0
  0
SOLID
  5
4703
330
1DB0
100
AcDbEntity
  8
SUNPOU
 62
     0
440
 16777216
100
AcDbTrace
 10
9012.235855472883
 20
6894.996320791066
 30
0.0
 11
9025.569188806216
 21
6894.996320791066
 31
0.0
 12
9018.90252213955
 22
6934.996320791066
 32
0.0
 13
9018.90252213955
 23
6934.996320791066
 33
0.0
  0
POINT
  5
4704
330
1DB0
100
AcDbEntity
  8
DEFPOINTS
 62
     0
440
 16777216
100
AcDbPoint
 10
6823.695978145972
 20
6984.99632079107
 30
0.0
  0
POINT
  5
4705
330
1DB0
100
AcDbEntity
  8
DEFPOINTS
 62
     0
440
 16777216
100
AcDbPoint
 10
8243.695978146076
 20
6934.996320791066
 30
0.0
  0
POINT
  5
4706
330
1DB0
100
AcDbEntity
  8
DEFPOINTS
 62
     0
440
 16777216
100
AcDbPoint
 10
9018.90252213955
 20
6934.996320791066
 30
0.0
  0
ENDBLK
  5
1DBD
330
1DB0
100
AcDbEntity
  8
0
100
AcDbBlockEnd
  0
BLOCK
  5
1DC8
330
1DBE
100
AcDbEntity
  8
0
100
AcDbBlockBegin
  2
*D12
 70
     1
 10
0.0
 20
0.0
 30
0.0
  3
*D12
  1

  0
LINE
  5
4707
330
1DBE
100
AcDbEntity
  8
SUNPOU
 62
     0
440
 16777216
100
AcDbLine
 10
8283.695978146076
 20
6934.996320791066
 30
0.0
 11
9038.90252213955
 21
6934.996320791066
 31
0.0
  0
LINE
  5
4708
330
1DBE
100
AcDbEntity
  8
SUNPOU
 62
     0
440
 16777216
100
AcDbLine
 10
8283.695978145972
 20
5820.351659850395
 30
0.0
 11
9038.90252213955
 21
5820.351659850395
 31
0.0
  0
LINE
  5
4709
330
1DBE
100
AcDbEntity
  8
SUNPOU
 62
     0
440
 16777216
100
AcDbLine
 10
9018.90252213955
 20
6894.996320791066
 30
0.0
 11
9018.90252213955
 21
5860.351659850395
 31
0.0
  0
SOLID
  5
470A
330
1DBE
100
AcDbEntity
  8
SUNPOU
 62
     0
440
 16777216
100
AcDbTrace
 10
9012.235855472883
 20
6894.996320791066
 30
0.0
 11
9025.569188806216
 21
6894.996320791066
 31
0.0
 12
9018.90252213955
 22
6934.996320791066
 32
0.0
 13
9018.90252213955
 23
6934.996320791066
 33
0.0
  0
SOLID
  5
470B
330
1DBE
100
AcDbEntity
  8
SUNPOU
 62
     0
440
 16777216
100
AcDbTrace
 10
9012.235855472883
 20
5860.351659850395
 30
0.0
 11
9025.569188806216
 21
5860.351659850395
 31
0.0
 12
9018.90252213955
 22
5820.351659850395
 32
0.0
 13
9018.90252213955
 23
5820.351659850395
 33
0.0
  0
MTEXT
  5
470C
330
1DBE
100
AcDbEntity
  8
SUNPOU
 62
     0
440
 16777216
100
AcDbMText
 10
8958.902522139548
 20
6377.673990320732
 30
0.0
 40
60.0
 41
0.0
 71
     5
 72
     1
  1
\A1;1115
  7
A
 11
6.123031769111886E-17
 21
1.0
 31
0.0
 73
     1
 44
1.0
  0
POINT
  5
470D
330
1DBE
100
AcDbEntity
  8
DEFPOINTS
 62
     0
440
 16777216
100
AcDbPoint
 10
8243.695978146076
 20
6934.996320791066
 30
0.0
  0
POINT
  5
470E
330
1DBE
100
AcDbEntity
  8
DEFPOINTS
 62
     0
440
 16777216
100
AcDbPoint
 10
8243.695978145972
 20
5820.351659850395
 30
0.0
  0
POINT
  5
470F
330
1DBE
100
AcDbEntity
  8
DEFPOINTS
 62
     0
440
 16777216
100
AcDbPoint
 10
9018.90252213955
 20
5820.351659850395
 30
0.0
  0
ENDBLK
  5
1DC9
330
1DBE
100
AcDbEntity
  8
0
100
AcDbBlockEnd
  0
BLOCK
  5
1DD6
330
1DCA
100
AcDbEntity
  8
0
100
AcDbBlockBegin
  2
*D13
 70
     1
 10
0.0
 20
0.0
 30
0.0
  3
*D13
  1

  0
LINE
  5
4710
330
1DCA
100
AcDbEntity
  8
SUNPOU
 62
     0
440
 16777216
100
AcDbLine
 10
8976.85114039776
 20
5820.351659850395
 30
0.0
 11
9038.90252213955
 21
5820.351659850395
 31
0.0
  0
LINE
  5
4711
330
1DCA
100
AcDbEntity
  8
SUNPOU
 62
     0
440
 16777216
100
AcDbLine
 10
8976.85114039776
 20
5784.996320791065
 30
0.0
 11
9038.90252213955
 21
5784.996320791065
 31
0.0
  0
LINE
  5
4712
330
1DCA
100
AcDbEntity
  8
SUNPOU
 62
     0
440
 16777216
100
AcDbLine
 10
9018.90252213955
 20
5860.351659850395
 30
0.0
 11
9018.90252213955
 21
5900.351659850395
 31
0.0
  0
LINE
  5
4713
330
1DCA
100
AcDbEntity
  8
SUNPOU
 62
     0
440
 16777216
100
AcDbLine
 10
9018.90252213955
 20
5744.996320791065
 30
0.0
 11
9018.90252213955
 21
5704.996320791065
 31
0.0
  0
MTEXT
  5
4714
330
1DCA
100
AcDbEntity
  8
SUNPOU
 62
     0
440
 16777216
100
AcDbMText
 10
8958.90252213955
 20
5703.765117869527
 30
0.0
 40
60.0
 41
0.0
 71
     5
 72
     1
  1
\A1;35
  7
A
 11
6.123031769111886E-17
 21
1.0
 31
0.0
 73
     1
 44
1.0
  0
LINE
  5
4715
330
1DCA
100
AcDbEntity
  8
SUNPOU
 62
     0
440
 16777216
100
AcDbLine
 10
9018.90252213955
 20
5820.351659850395
 30
0.0
 11
9018.90252213955
 21
5784.996320791065
 31
0.0
  0
SOLID
  5
4716
330
1DCA
100
AcDbEntity
  8
SUNPOU
 62
     0
440
 16777216
100
AcDbTrace
 10
9012.235855472883
 20
5860.351659850395
 30
0.0
 11
9025.569188806216
 21
5860.351659850395
 31
0.0
 12
9018.90252213955
 22
5820.351659850395
 32
0.0
 13
9018.90252213955
 23
5820.351659850395
 33
0.0
  0
SOLID
  5
4717
330
1DCA
100
AcDbEntity
  8
SUNPOU
 62
     0
440
 16777216
100
AcDbTrace
 10
9012.235855472883
 20
5744.996320791065
 30
0.0
 11
9025.569188806216
 21
5744.996320791065
 31
0.0
 12
9018.90252213955
 22
5784.996320791065
 32
0.0
 13
9018.90252213955
 23
5784.996320791065
 33
0.0
  0
POINT
  5
4718
330
1DCA
100
AcDbEntity
  8
DEFPOINTS
 62
     0
440
 16777216
100
AcDbPoint
 10
8936.85114039776
 20
5820.351659850395
 30
0.0
  0
POINT
  5
4719
330
1DCA
100
AcDbEntity
  8
DEFPOINTS
 62
     0
440
 16777216
100
AcDbPoint
 10
8936.85114039776
 20
5784.996320791065
 30
0.0
  0
POINT
  5
471A
330
1DCA
100
AcDbEntity
  8
DEFPOINTS
 62
     0
440
 16777216
100
AcDbPoint
 10
9018.90252213955
 20
5784.996320791065
 30
0.0
  0
ENDBLK
  5
1DD7
330
1DCA
100
AcDbEntity
  8
0
100
AcDbBlockEnd
  0
BLOCK
  5
20DB
330
20D1
100
AcDbEntity
  8
0
100
AcDbBlockBegin
  2
*D27
 70
     1
 10
0.0
 20
0.0
 30
0.0
  3
*D27
  1

  0
LINE
  5
43A3
330
20D1
100
AcDbEntity
  8
SUNPOU
 62
     0
440
 16777216
100
AcDbLine
 10
7443.69597814597
 20
3944.99632079107
 30
0.0
 11
7443.69597814597
 21
3162.7651711945
 31
0.0
  0
LINE
  5
43A4
330
20D1
100
AcDbEntity
  8
SUNPOU
 62
     0
440
 16777216
100
AcDbLine
 10
9443.69597814597
 20
3944.99632079107
 30
0.0
 11
9443.69597814597
 21
3162.7651711945
 31
0.0
  0
LINE
  5
43A5
330
20D1
100
AcDbEntity
  8
SUNPOU
 62
     0
440
 16777216
100
AcDbLine
 10
7483.69597814597
 20
3182.7651711945
 30
0.0
 11
9403.69597814597
 21
3182.7651711945
 31
0.0
  0
MTEXT
  5
43A6
330
20D1
100
AcDbEntity
  8
SUNPOU
 62
     0
440
 16777216
100
AcDbMText
 10
8443.69597814597
 20
3242.7651711945
 30
0.0
 40
60.0
 41
0.0
 71
     5
 72
     1
  1
\A1;2000
  7
A
 73
     1
 44
1.0
  0
SOLID
  5
43A7
330
20D1
100
AcDbEntity
  8
SUNPOU
 62
     0
440
 16777216
100
AcDbTrace
 10
7483.69597814597
 20
3189.431837861167
 30
0.0
 11
7483.69597814597
 21
3176.098504527833
 31
0.0
 12
7443.69597814597
 22
3182.7651711945
 32
0.0
 13
7443.69597814597
 23
3182.7651711945
 33
0.0
  0
SOLID
  5
43A8
330
20D1
100
AcDbEntity
  8
SUNPOU
 62
     0
440
 16777216
100
AcDbTrace
 10
9403.69597814597
 20
3189.431837861167
 30
0.0
 11
9403.69597814597
 21
3176.098504527833
 31
0.0
 12
9443.69597814597
 22
3182.7651711945
 32
0.0
 13
9443.69597814597
 23
3182.7651711945
 33
0.0
  0
POINT
  5
43A9
330
20D1
100
AcDbEntity
  8
DEFPOINTS
 62
     0
440
 16777216
100
AcDbPoint
 10
7443.69597814597
 20
3984.99632079107
 30
0.0
  0
POINT
  5
43AA
330
20D1
100
AcDbEntity
  8
DEFPOINTS
 62
     0
440
 16777216
100
AcDbPoint
 10
9443.69597814597
 20
3984.99632079107
 30
0.0
  0
POINT
  5
43AB
330
20D1
100
AcDbEntity
  8
DEFPOINTS
 62
     0
440
 16777216
100
AcDbPoint
 10
9443.69597814597
 20
3182.7651711945
 30
0.0
  0
ENDBLK
  5
20DC
330
20D1
100
AcDbEntity
  8
0
100
AcDbBlockEnd
  0
BLOCK
  5
20F3
330
20E9
100
AcDbEntity
  8
0
100
AcDbBlockBegin
  2
*D29
 70
     1
 10
0.0
 20
0.0
 30
0.0
  3
*D29
  1

  0
LINE
  5
439A
330
20E9
100
AcDbEntity
  8
SUNPOU
 62
     0
440
 16777216
100
AcDbLine
 10
6443.69597814597
 20
3969.99632079107
 30
0.0
 11
6443.69597814597
 21
3162.7651711945
 31
0.0
  0
LINE
  5
439B
330
20E9
100
AcDbEntity
  8
SUNPOU
 62
     0
440
 16777216
100
AcDbLine
 10
7443.69597814597
 20
3944.99632079107
 30
0.0
 11
7443.69597814597
 21
3162.7651711945
 31
0.0
  0
LINE
  5
439C
330
20E9
100
AcDbEntity
  8
SUNPOU
 62
     0
440
 16777216
100
AcDbLine
 10
6483.69597814597
 20
3182.7651711945
 30
0.0
 11
7403.69597814597
 21
3182.7651711945
 31
0.0
  0
MTEXT
  5
439D
330
20E9
100
AcDbEntity
  8
SUNPOU
 62
     0
440
 16777216
100
AcDbMText
 10
6943.69597814597
 20
3242.7651711945
 30
0.0
 40
60.0
 41
0.0
 71
     5
 72
     1
  1
\A1;1000
  7
A
 73
     1
 44
1.0
  0
SOLID
  5
439E
330
20E9
100
AcDbEntity
  8
SUNPOU
 62
     0
440
 16777216
100
AcDbTrace
 10
6483.69597814597
 20
3189.431837861167
 30
0.0
 11
6483.69597814597
 21
3176.098504527834
 31
0.0
 12
6443.69597814597
 22
3182.7651711945
 32
0.0
 13
6443.69597814597
 23
3182.7651711945
 33
0.0
  0
SOLID
  5
439F
330
20E9
100
AcDbEntity
  8
SUNPOU
 62
     0
440
 16777216
100
AcDbTrace
 10
7403.69597814597
 20
3189.431837861167
 30
0.0
 11
7403.69597814597
 21
3176.098504527834
 31
0.0
 12
7443.69597814597
 22
3182.7651711945
 32
0.0
 13
7443.69597814597
 23
3182.7651711945
 33
0.0
  0
POINT
  5
43A0
330
20E9
100
AcDbEntity
  8
DEFPOINTS
 62
     0
440
 16777216
100
AcDbPoint
 10
6443.69597814597
 20
4009.99632079107
 30
0.0
  0
POINT
  5
43A1
330
20E9
100
AcDbEntity
  8
DEFPOINTS
 62
     0
440
 16777216
100
AcDbPoint
 10
7443.69597814597
 20
3984.99632079107
 30
0.0
  0
POINT
  5
43A2
330
20E9
100
AcDbEntity
  8
DEFPOINTS
 62
     0
440
 16777216
100
AcDbPoint
 10
7443.69597814597
 20
3182.7651711945
 30
0.0
  0
ENDBLK
  5
20F4
330
20E9
100
AcDbEntity
  8
0
100
AcDbBlockEnd
  0
BLOCK
  5
2173
330
2169
100
AcDbEntity
  8
0
100
AcDbBlockBegin
  2
*D39
 70
     1
 10
0.0
 20
0.0
 30
0.0
  3
*D39
  1

  0
LINE
  5
43FC
330
2169
100
AcDbEntity
  8
SUNPOU
 62
     0
440
 16777216
100
AcDbLine
 10
6403.695978145972
 20
4984.99632079107
 30
0.0
 11
5435.966578387867
 21
4984.996320791071
 31
0.0
  0
LINE
  5
43FD
330
2169
100
AcDbEntity
  8
SUNPOU
 62
     0
440
 16777216
100
AcDbLine
 10
6403.695978145972
 20
6984.99632079107
 30
0.0
 11
5435.966578387868
 21
6984.996320791071
 31
0.0
  0
LINE
  5
43FE
330
2169
100
AcDbEntity
  8
SUNPOU
 62
     0
440
 16777216
100
AcDbLine
 10
5455.966578387867
 20
5024.996320791071
 30
0.0
 11
5455.966578387868
 21
6944.996320791071
 31
0.0
  0
SOLID
  5
43FF
330
2169
100
AcDbEntity
  8
SUNPOU
 62
     0
440
 16777216
100
AcDbTrace
 10
5449.2999117212
 20
5024.996320791071
 30
0.0
 11
5462.633245054534
 21
5024.996320791071
 31
0.0
 12
5455.966578387867
 22
4984.996320791071
 32
0.0
 13
5455.966578387867
 23
4984.996320791071
 33
0.0
  0
SOLID
  5
4400
330
2169
100
AcDbEntity
  8
SUNPOU
 62
     0
440
 16777216
100
AcDbTrace
 10
5449.299911721201
 20
6944.996320791071
 30
0.0
 11
5462.633245054535
 21
6944.996320791071
 31
0.0
 12
5455.966578387868
 22
6984.996320791071
 32
0.0
 13
5455.966578387868
 23
6984.996320791071
 33
0.0
  0
MTEXT
  5
4401
330
2169
100
AcDbEntity
  8
SUNPOU
 62
     0
440
 16777216
100
AcDbMText
 10
5395.966578387866
 20
5984.996320791071
 30
0.0
 40
60.0
 41
0.0
 71
     5
 72
     1
  1
\A1;2000
  7
A
 11
6.123031769111886E-17
 21
1.0
 31
0.0
 73
     1
 44
1.0
  0
POINT
  5
4402
330
2169
100
AcDbEntity
  8
DEFPOINTS
 62
     0
440
 16777216
100
AcDbPoint
 10
6443.695978145972
 20
4984.99632079107
 30
0.0
  0
POINT
  5
4403
330
2169
100
AcDbEntity
  8
DEFPOINTS
 62
     0
440
 16777216
100
AcDbPoint
 10
6443.695978145972
 20
6984.99632079107
 30
0.0
  0
POINT
  5
4404
330
2169
100
AcDbEntity
  8
DEFPOINTS
 62
     0
440
 16777216
100
AcDbPoint
 10
5455.966578387868
 20
6984.996320791071
 30
0.0
  0
ENDBLK
  5
2174
330
2169
100
AcDbEntity
  8
0
100
AcDbBlockEnd
  0
BLOCK
  5
217F
330
2175
100
AcDbEntity
  8
0
100
AcDbBlockBegin
  2
*D40
 70
     1
 10
0.0
 20
0.0
 30
0.0
  3
*D40
  1

  0
LINE
  5
43F3
330
2175
100
AcDbEntity
  8
SUNPOU
 62
     0
440
 16777216
100
AcDbLine
 10
6428.69597814597
 20
3984.996320791068
 30
0.0
 11
5435.966578387868
 21
3984.996320791068
 31
0.0
  0
LINE
  5
43F4
330
2175
100
AcDbEntity
  8
SUNPOU
 62
     0
440
 16777216
100
AcDbLine
 10
6403.695978145972
 20
4984.99632079107
 30
0.0
 11
5435.966578387868
 21
4984.996320791071
 31
0.0
  0
LINE
  5
43F5
330
2175
100
AcDbEntity
  8
SUNPOU
 62
     0
440
 16777216
100
AcDbLine
 10
5455.966578387868
 20
4024.996320791068
 30
0.0
 11
5455.966578387868
 21
4944.996320791071
 31
0.0
  0
SOLID
  5
43F6
330
2175
100
AcDbEntity
  8
SUNPOU
 62
     0
440
 16777216
100
AcDbTrace
 10
5449.299911721201
 20
4024.996320791068
 30
0.0
 11
5462.633245054535
 21
4024.996320791068
 31
0.0
 12
5455.966578387868
 22
3984.996320791068
 32
0.0
 13
5455.966578387868
 23
3984.996320791068
 33
0.0
  0
SOLID
  5
43F7
330
2175
100
AcDbEntity
  8
SUNPOU
 62
     0
440
 16777216
100
AcDbTrace
 10
5449.299911721201
 20
4944.996320791071
 30
0.0
 11
5462.633245054535
 21
4944.996320791071
 31
0.0
 12
5455.966578387868
 22
4984.996320791071
 32
0.0
 13
5455.966578387868
 23
4984.996320791071
 33
0.0
  0
MTEXT
  5
43F8
330
2175
100
AcDbEntity
  8
SUNPOU
 62
     0
440
 16777216
100
AcDbMText
 10
5395.966578387867
 20
4484.996320791071
 30
0.0
 40
60.0
 41
0.0
 71
     5
 72
     1
  1
\A1;1000
  7
A
 11
6.123031769111886E-17
 21
1.0
 31
0.0
 73
     1
 44
1.0
  0
POINT
  5
43F9
330
2175
100
AcDbEntity
  8
DEFPOINTS
 62
     0
440
 16777216
100
AcDbPoint
 10
6468.69597814597
 20
3984.996320791068
 30
0.0
  0
POINT
  5
43FA
330
2175
100
AcDbEntity
  8
DEFPOINTS
 62
     0
440
 16777216
100
AcDbPoint
 10
6443.695978145972
 20
4984.99632079107
 30
0.0
  0
POINT
  5
43FB
330
2175
100
AcDbEntity
  8
DEFPOINTS
 62
     0
440
 16777216
100
AcDbPoint
 10
5455.966578387868
 20
4984.996320791071
 30
0.0
  0
ENDBLK
  5
2180
330
2175
100
AcDbEntity
  8
0
100
AcDbBlockEnd
  0
BLOCK
  5
26DD
330
26D3
100
AcDbEntity
  8
0
100
AcDbBlockBegin
  2
*D49
 70
     1
 10
0.0
 20
0.0
 30
0.0
  3
*D49
  1

  0
LINE
  5
468E
330
26D3
100
AcDbEntity
  8
SUNPOU
 62
     0
440
 16777216
100
AcDbLine
 10
4027.960977671449
 20
4545.087275416287
 30
0.0
 11
4027.960977671449
 21
4782.41841667386
 31
0.0
  0
LINE
  5
468F
330
26D3
100
AcDbEntity
  8
SUNPOU
 62
     0
440
 16777216
100
AcDbLine
 10
3727.960977671449
 20
4244.99632079107
 30
0.0
 11
3727.960977671449
 21
4782.41841667386
 31
0.0
  0
LINE
  5
4690
330
26D3
100
AcDbEntity
  8
SUNPOU
 62
     0
440
 16777216
100
AcDbLine
 10
3987.960977671449
 20
4762.41841667386
 30
0.0
 11
3767.960977671449
 21
4762.41841667386
 31
0.0
  0
SOLID
  5
4691
330
26D3
100
AcDbEntity
  8
SUNPOU
 62
     0
440
 16777216
100
AcDbTrace
 10
3987.960977671449
 20
4769.085083340527
 30
0.0
 11
3987.960977671449
 21
4755.751750007193
 31
0.0
 12
4027.960977671449
 22
4762.41841667386
 32
0.0
 13
4027.960977671449
 23
4762.41841667386
 33
0.0
  0
SOLID
  5
4692
330
26D3
100
AcDbEntity
  8
SUNPOU
 62
     0
440
 16777216
100
AcDbTrace
 10
3767.960977671449
 20
4769.085083340527
 30
0.0
 11
3767.960977671449
 21
4755.751750007193
 31
0.0
 12
3727.960977671449
 22
4762.41841667386
 32
0.0
 13
3727.960977671449
 23
4762.41841667386
 33
0.0
  0
MTEXT
  5
4693
330
26D3
100
AcDbEntity
  8
SUNPOU
 62
     0
440
 16777216
100
AcDbMText
 10
3877.960977671449
 20
4822.41841667386
 30
0.0
 40
60.0
 41
0.0
 71
     5
 72
     1
  1
\A1;300
  7
A
 73
     1
 44
1.0
  0
POINT
  5
4694
330
26D3
100
AcDbEntity
  8
DEFPOINTS
 62
     0
440
 16777216
100
AcDbPoint
 10
4027.960977671449
 20
4505.087275416287
 30
0.0
  0
POINT
  5
4695
330
26D3
100
AcDbEntity
  8
DEFPOINTS
 62
     0
440
 16777216
100
AcDbPoint
 10
3727.960977671449
 20
4204.99632079107
 30
0.0
  0
POINT
  5
4696
330
26D3
100
AcDbEntity
  8
DEFPOINTS
 62
     0
440
 16777216
100
AcDbPoint
 10
3727.960977671449
 20
4762.41841667386
 30
0.0
  0
ENDBLK
  5
26DE
330
26D3
100
AcDbEntity
  8
0
100
AcDbBlockEnd
  0
BLOCK
  5
26F2
330
26E8
100
AcDbEntity
  8
0
100
AcDbBlockBegin
  2
*D50
 70
     1
 10
0.0
 20
0.0
 30
0.0
  3
*D50
  1

  0
LINE
  5
4697
330
26E8
100
AcDbEntity
  8
SUNPOU
 62
     0
440
 16777216
100
AcDbLine
 10
3705.732579869162
 20
4204.996320791071
 30
0.0
 11
3501.346311608428
 21
4204.996320791071
 31
0.0
  0
LINE
  5
4698
330
26E8
100
AcDbEntity
  8
SUNPOU
 62
     0
440
 16777216
100
AcDbLine
 10
3987.960977671449
 20
4504.99632079107
 30
0.0
 11
3501.346311608428
 21
4504.99632079107
 31
0.0
  0
LINE
  5
4699
330
26E8
100
AcDbEntity
  8
SUNPOU
 62
     0
440
 16777216
100
AcDbLine
 10
3521.346311608428
 20
4244.996320791071
 30
0.0
 11
3521.346311608428
 21
4464.99632079107
 31
0.0
  0
SOLID
  5
469A
330
26E8
100
AcDbEntity
  8
SUNPOU
 62
     0
440
 16777216
100
AcDbTrace
 10
3514.679644941762
 20
4244.996320791071
 30
0.0
 11
3528.012978275095
 21
4244.996320791071
 31
0.0
 12
3521.346311608428
 22
4204.996320791071
 32
0.0
 13
3521.346311608428
 23
4204.996320791071
 33
0.0
  0
SOLID
  5
469B
330
26E8
100
AcDbEntity
  8
SUNPOU
 62
     0
440
 16777216
100
AcDbTrace
 10
3514.679644941762
 20
4464.99632079107
 30
0.0
 11
3528.012978275095
 21
4464.99632079107
 31
0.0
 12
3521.346311608428
 22
4504.99632079107
 32
0.0
 13
3521.346311608428
 23
4504.99632079107
 33
0.0
  0
MTEXT
  5
469C
330
26E8
100
AcDbEntity
  8
SUNPOU
 62
     0
440
 16777216
100
AcDbMText
 10
3461.346311608428
 20
4354.996320791071
 30
0.0
 40
60.0
 41
0.0
 71
     5
 72
     1
  1
\A1;300
  7
A
 11
6.123031769111886E-17
 21
1.0
 31
0.0
 73
     1
 44
1.0
  0
POINT
  5
469D
330
26E8
100
AcDbEntity
  8
DEFPOINTS
 62
     0
440
 16777216
100
AcDbPoint
 10
3745.732579869162
 20
4204.996320791071
 30
0.0
  0
POINT
  5
469E
330
26E8
100
AcDbEntity
  8
DEFPOINTS
 62
     0
440
 16777216
100
AcDbPoint
 10
4027.960977671449
 20
4504.99632079107
 30
0.0
  0
POINT
  5
469F
330
26E8
100
AcDbEntity
  8
DEFPOINTS
 62
     0
440
 16777216
100
AcDbPoint
 10
3521.346311608428
 20
4504.99632079107
 30
0.0
  0
ENDBLK
  5
26F3
330
26E8
100
AcDbEntity
  8
0
100
AcDbBlockEnd
  0
BLOCK
  5
2709
330
26FD
100
AcDbEntity
  8
0
100
AcDbBlockBegin
  2
*D51
 70
     1
 10
0.0
 20
0.0
 30
0.0
  3
*D51
  1

  0
LINE
  5
430E
330
26FD
100
AcDbEntity
  8
SUNPOU
 62
     0
440
 16777216
100
AcDbLine
 10
1397.764702887071
 20
4054.99632079107
 30
0.0
 11
1388.153116212241
 21
4054.99632079107
 31
0.0
  0
LINE
  5
430F
330
26FD
100
AcDbEntity
  8
SUNPOU
 62
     0
440
 16777216
100
AcDbLine
 10
1432.311554007707
 20
4104.99632079107
 30
0.0
 11
1388.153116212241
 21
4104.99632079107
 31
0.0
  0
LINE
  5
4310
330
26FD
100
AcDbEntity
  8
SUNPOU
 62
     0
440
 16777216
100
AcDbLine
 10
1408.153116212241
 20
4014.99632079107
 30
0.0
 11
1408.153116212241
 21
3974.99632079107
 31
0.0
  0
LINE
  5
4311
330
26FD
100
AcDbEntity
  8
SUNPOU
 62
     0
440
 16777216
100
AcDbLine
 10
1408.153116212241
 20
4144.99632079107
 30
0.0
 11
1408.153116212241
 21
4184.99632079107
 31
0.0
  0
MTEXT
  5
4312
330
26FD
100
AcDbEntity
  8
SUNPOU
 62
     0
440
 16777216
100
AcDbMText
 10
1348.153116212241
 20
4182.816001790459
 30
0.0
 40
60.0
 41
0.0
 71
     5
 72
     1
  1
\A1;50
  7
A
 11
6.123031769111886E-17
 21
1.0
 31
0.0
 73
     1
 44
1.0
  0
LINE
  5
4313
330
26FD
100
AcDbEntity
  8
SUNPOU
 62
     0
440
 16777216
100
AcDbLine
 10
1408.153116212241
 20
4054.99632079107
 30
0.0
 11
1408.153116212241
 21
4104.99632079107
 31
0.0
  0
SOLID
  5
4314
330
26FD
100
AcDbEntity
  8
SUNPOU
 62
     0
440
 16777216
100
AcDbTrace
 10
1401.486449545574
 20
4014.99632079107
 30
0.0
 11
1414.819782878908
 21
4014.99632079107
 31
0.0
 12
1408.153116212241
 22
4054.99632079107
 32
0.0
 13
1408.153116212241
 23
4054.99632079107
 33
0.0
  0
SOLID
  5
4315
330
26FD
100
AcDbEntity
  8
SUNPOU
 62
     0
440
 16777216
100
AcDbTrace
 10
1401.486449545574
 20
4144.99632079107
 30
0.0
 11
1414.819782878908
 21
4144.99632079107
 31
0.0
 12
1408.153116212241
 22
4104.99632079107
 32
0.0
 13
1408.153116212241
 23
4104.99632079107
 33
0.0
  0
POINT
  5
4316
330
26FD
100
AcDbEntity
  8
DEFPOINTS
 62
     0
440
 16777216
100
AcDbPoint
 10
1437.764702887071
 20
4054.99632079107
 30
0.0
  0
POINT
  5
4317
330
26FD
100
AcDbEntity
  8
DEFPOINTS
 62
     0
440
 16777216
100
AcDbPoint
 10
1472.311554007707
 20
4104.99632079107
 30
0.0
  0
POINT
  5
4318
330
26FD
100
AcDbEntity
  8
DEFPOINTS
 62
     0
440
 16777216
100
AcDbPoint
 10
1408.153116212241
 20
4104.99632079107
 30
0.0
  0
ENDBLK
  5
270A
330
26FD
100
AcDbEntity
  8
0
100
AcDbBlockEnd
  0
BLOCK
  5
27A3
330
2797
100
AcDbEntity
  8
0
100
AcDbBlockBegin
  2
*D54
 70
     1
 10
0.0
 20
0.0
 30
0.0
  3
*D54
  1

  0
LINE
  5
46A9
330
2797
100
AcDbEntity
  8
SUNPOU
 62
     0
440
 16777216
100
AcDbLine
 10
1747.96097767145
 20
4378.910000229675
 30
0.0
 11
1747.96097767145
 21
4358.910000229675
 31
0.0
  0
LINE
  5
46AA
330
2797
100
AcDbEntity
  8
SUNPOU
 62
     0
440
 16777216
100
AcDbLine
 10
1797.96097767145
 20
4378.910000229675
 30
0.0
 11
1797.96097767145
 21
4358.910000229675
 31
0.0
  0
LINE
  5
46AB
330
2797
100
AcDbEntity
  8
SUNPOU
 62
     0
440
 16777216
100
AcDbLine
 10
1707.96097767145
 20
4338.910000229675
 30
0.0
 11
1667.96097767145
 21
4338.910000229675
 31
0.0
  0
LINE
  5
46AC
330
2797
100
AcDbEntity
  8
SUNPOU
 62
     0
440
 16777216
100
AcDbLine
 10
1837.96097767145
 20
4338.910000229675
 30
0.0
 11
1877.96097767145
 21
4338.910000229675
 31
0.0
  0
MTEXT
  5
46AD
330
2797
100
AcDbEntity
  8
SUNPOU
 62
     0
440
 16777216
100
AcDbMText
 10
1662.403198899899
 20
4398.910000229675
 30
0.0
 40
60.0
 41
0.0
 71
     5
 72
     1
  1
\A1;50
  7
A
 73
     1
 44
1.0
  0
LINE
  5
46AE
330
2797
100
AcDbEntity
  8
SUNPOU
 62
     0
440
 16777216
100
AcDbLine
 10
1747.96097767145
 20
4338.910000229675
 30
0.0
 11
1797.96097767145
 21
4338.910000229675
 31
0.0
  0
SOLID
  5
46AF
330
2797
100
AcDbEntity
  8
SUNPOU
 62
     0
440
 16777216
100
AcDbTrace
 10
1707.96097767145
 20
4345.576666896342
 30
0.0
 11
1707.96097767145
 21
4332.243333563008
 31
0.0
 12
1747.96097767145
 22
4338.910000229675
 32
0.0
 13
1747.96097767145
 23
4338.910000229675
 33
0.0
  0
SOLID
  5
46B0
330
2797
100
AcDbEntity
  8
SUNPOU
 62
     0
440
 16777216
100
AcDbTrace
 10
1837.96097767145
 20
4345.576666896342
 30
0.0
 11
1837.96097767145
 21
4332.243333563008
 31
0.0
 12
1797.96097767145
 22
4338.910000229675
 32
0.0
 13
1797.96097767145
 23
4338.910000229675
 33
0.0
  0
POINT
  5
46B1
330
2797
100
AcDbEntity
  8
DEFPOINTS
 62
     0
440
 16777216
100
AcDbPoint
 10
1747.96097767145
 20
4338.910000229675
 30
0.0
  0
POINT
  5
46B2
330
2797
100
AcDbEntity
  8
DEFPOINTS
 62
     0
440
 16777216
100
AcDbPoint
 10
1797.96097767145
 20
4338.910000229675
 30
0.0
  0
POINT
  5
46B3
330
2797
100
AcDbEntity
  8
DEFPOINTS
 62
     0
440
 16777216
100
AcDbPoint
 10
1797.96097767145
 20
4338.910000229675
 30
0.0
  0
ENDBLK
  5
27A4
330
2797
100
AcDbEntity
  8
0
100
AcDbBlockEnd
  0
BLOCK
  5
27D3
330
27C9
100
AcDbEntity
  8
0
100
AcDbBlockBegin
  2
*D58
 70
     1
 10
0.0
 20
0.0
 30
0.0
  3
*D58
  1

  0
LINE
  5
42DF
330
27C9
100
AcDbEntity
  8
SUNPOU
 62
     0
440
 16777216
100
AcDbLine
 10
4762.952337057226
 20
4204.99632079107
 30
0.0
 11
4900.88079932299
 21
4204.99632079107
 31
0.0
  0
LINE
  5
42E0
330
27C9
100
AcDbEntity
  8
SUNPOU
 62
     0
440
 16777216
100
AcDbLine
 10
4856.722361527523
 20
4984.99632079107
 30
0.0
 11
4900.88079932299
 21
4984.99632079107
 31
0.0
  0
LINE
  5
42E1
330
27C9
100
AcDbEntity
  8
SUNPOU
 62
     0
440
 16777216
100
AcDbLine
 10
4880.88079932299
 20
4244.99632079107
 30
0.0
 11
4880.88079932299
 21
4944.99632079107
 31
0.0
  0
SOLID
  5
42E2
330
27C9
100
AcDbEntity
  8
SUNPOU
 62
     0
440
 16777216
100
AcDbTrace
 10
4874.214132656323
 20
4244.99632079107
 30
0.0
 11
4887.547465989657
 21
4244.99632079107
 31
0.0
 12
4880.88079932299
 22
4204.99632079107
 32
0.0
 13
4880.88079932299
 23
4204.99632079107
 33
0.0
  0
SOLID
  5
42E3
330
27C9
100
AcDbEntity
  8
SUNPOU
 62
     0
440
 16777216
100
AcDbTrace
 10
4874.214132656323
 20
4944.99632079107
 30
0.0
 11
4887.547465989657
 21
4944.99632079107
 31
0.0
 12
4880.88079932299
 22
4984.99632079107
 32
0.0
 13
4880.88079932299
 23
4984.99632079107
 33
0.0
  0
MTEXT
  5
42E4
330
27C9
100
AcDbEntity
  8
SUNPOU
 62
     0
440
 16777216
100
AcDbMText
 10
4820.880799322989
 20
4594.996320791071
 30
0.0
 40
60.0
 41
0.0
 71
     5
 72
     1
  1
\A1;780
  7
A
 11
6.123031769111886E-17
 21
1.0
 31
0.0
 73
     1
 44
1.0
  0
POINT
  5
42E5
330
27C9
100
AcDbEntity
  8
DEFPOINTS
 62
     0
440
 16777216
100
AcDbPoint
 10
4722.952337057226
 20
4204.99632079107
 30
0.0
  0
POINT
  5
42E6
330
27C9
100
AcDbEntity
  8
DEFPOINTS
 62
     0
440
 16777216
100
AcDbPoint
 10
4816.722361527523
 20
4984.99632079107
 30
0.0
  0
POINT
  5
42E7
330
27C9
100
AcDbEntity
  8
DEFPOINTS
 62
     0
440
 16777216
100
AcDbPoint
 10
4880.88079932299
 20
4984.99632079107
 30
0.0
  0
ENDBLK
  5
27D4
330
27C9
100
AcDbEntity
  8
0
100
AcDbBlockEnd
  0
BLOCK
  5
27DF
330
27D5
100
AcDbEntity
  8
0
100
AcDbBlockBegin
  2
*D59
 70
     1
 10
0.0
 20
0.0
 30
0.0
  3
*D59
  1

  0
LINE
  5
42CD
330
27D5
100
AcDbEntity
  8
SUNPOU
 62
     0
440
 16777216
100
AcDbLine
 10
4287.96097767145
 20
4984.99632079107
 30
0.0
 11
5118.032434938416
 21
4984.99632079107
 31
0.0
  0
LINE
  5
42CE
330
27D5
100
AcDbEntity
  8
SUNPOU
 62
     0
440
 16777216
100
AcDbLine
 10
4287.96097767145
 20
3984.99632079107
 30
0.0
 11
5118.032434938416
 21
3984.99632079107
 31
0.0
  0
LINE
  5
42CF
330
27D5
100
AcDbEntity
  8
SUNPOU
 62
     0
440
 16777216
100
AcDbLine
 10
5098.032434938416
 20
4944.99632079107
 30
0.0
 11
5098.032434938416
 21
4024.99632079107
 31
0.0
  0
SOLID
  5
42D0
330
27D5
100
AcDbEntity
  8
SUNPOU
 62
     0
440
 16777216
100
AcDbTrace
 10
5091.365768271749
 20
4944.99632079107
 30
0.0
 11
5104.699101605083
 21
4944.99632079107
 31
0.0
 12
5098.032434938416
 22
4984.99632079107
 32
0.0
 13
5098.032434938416
 23
4984.99632079107
 33
0.0
  0
SOLID
  5
42D1
330
27D5
100
AcDbEntity
  8
SUNPOU
 62
     0
440
 16777216
100
AcDbTrace
 10
5091.365768271749
 20
4024.99632079107
 30
0.0
 11
5104.699101605083
 21
4024.99632079107
 31
0.0
 12
5098.032434938416
 22
3984.99632079107
 32
0.0
 13
5098.032434938416
 23
3984.99632079107
 33
0.0
  0
MTEXT
  5
42D2
330
27D5
100
AcDbEntity
  8
SUNPOU
 62
     0
440
 16777216
100
AcDbMText
 10
5038.032434938415
 20
4484.996320791071
 30
0.0
 40
60.0
 41
0.0
 71
     5
 72
     1
  1
\A1;1000
  7
A
 11
6.123031769111886E-17
 21
1.0
 31
0.0
 73
     1
 44
1.0
  0
POINT
  5
42D3
330
27D5
100
AcDbEntity
  8
DEFPOINTS
 62
     0
440
 16777216
100
AcDbPoint
 10
4247.96097767145
 20
4984.99632079107
 30
0.0
  0
POINT
  5
42D4
330
27D5
100
AcDbEntity
  8
DEFPOINTS
 62
     0
440
 16777216
100
AcDbPoint
 10
4247.96097767145
 20
3984.99632079107
 30
0.0
  0
POINT
  5
42D5
330
27D5
100
AcDbEntity
  8
DEFPOINTS
 62
     0
440
 16777216
100
AcDbPoint
 10
5098.032434938416
 20
3984.99632079107
 30
0.0
  0
ENDBLK
  5
27E0
330
27D5
100
AcDbEntity
  8
0
100
AcDbBlockEnd
  0
BLOCK
  5
2805
330
27FB
100
AcDbEntity
  8
0
100
AcDbBlockBegin
  2
*D61
 70
     1
 10
0.0
 20
0.0
 30
0.0
  3
*D61
  1

  0
LINE
  5
452D
330
27FB
100
AcDbEntity
  8
SUNPOU
 62
     0
440
 16777216
100
AcDbLine
 10
1747.96097767145
 20
866.0872754162883
 30
0.0
 11
1747.96097767145
 21
304.0016302637778
 31
0.0
  0
LINE
  5
452E
330
27FB
100
AcDbEntity
  8
SUNPOU
 62
     0
440
 16777216
100
AcDbLine
 10
4247.96097767145
 20
866.0872754162879
 30
0.0
 11
4247.96097767145
 21
304.0016302637778
 31
0.0
  0
LINE
  5
452F
330
27FB
100
AcDbEntity
  8
SUNPOU
 62
     0
440
 16777216
100
AcDbLine
 10
1787.96097767145
 20
324.0016302637777
 30
0.0
 11
4207.96097767145
 21
324.0016302637777
 31
0.0
  0
SOLID
  5
4530
330
27FB
100
AcDbEntity
  8
SUNPOU
 62
     0
440
 16777216
100
AcDbTrace
 10
1787.96097767145
 20
330.6682969304444
 30
0.0
 11
1787.96097767145
 21
317.334963597111
 31
0.0
 12
1747.96097767145
 22
324.0016302637777
 32
0.0
 13
1747.96097767145
 23
324.0016302637777
 33
0.0
  0
SOLID
  5
4531
330
27FB
100
AcDbEntity
  8
SUNPOU
 62
     0
440
 16777216
100
AcDbTrace
 10
4207.96097767145
 20
330.6682969304444
 30
0.0
 11
4207.96097767145
 21
317.334963597111
 31
0.0
 12
4247.96097767145
 22
324.0016302637777
 32
0.0
 13
4247.96097767145
 23
324.0016302637777
 33
0.0
  0
MTEXT
  5
4532
330
27FB
100
AcDbEntity
  8
SUNPOU
 62
     0
440
 16777216
100
AcDbMText
 10
2997.96097767145
 20
384.0016302637777
 30
0.0
 40
60.0
 41
0.0
 71
     5
 72
     1
  1
\A1;2500
  7
A
 73
     1
 44
1.0
  0
POINT
  5
4533
330
27FB
100
AcDbEntity
  8
DEFPOINTS
 62
     0
440
 16777216
100
AcDbPoint
 10
1747.96097767145
 20
906.0872754162883
 30
0.0
  0
POINT
  5
4534
330
27FB
100
AcDbEntity
  8
DEFPOINTS
 62
     0
440
 16777216
100
AcDbPoint
 10
4247.96097767145
 20
906.0872754162879
 30
0.0
  0
POINT
  5
4535
330
27FB
100
AcDbEntity
  8
DEFPOINTS
 62
     0
440
 16777216
100
AcDbPoint
 10
4247.96097767145
 20
324.0016302637777
 30
0.0
  0
ENDBLK
  5
2806
330
27FB
100
AcDbEntity
  8
0
100
AcDbBlockEnd
  0
BLOCK
  5
2837
330
282D
100
AcDbEntity
  8
0
100
AcDbBlockBegin
  2
*D65
 70
     1
 10
0.0
 20
0.0
 30
0.0
  3
*D65
  1

  0
LINE
  5
42B2
330
282D
100
AcDbEntity
  8
SUNPOU
 62
     0
440
 16777216
100
AcDbLine
 10
1747.96097767145
 20
3387.625067866913
 30
0.0
 11
1747.96097767145
 21
3358.184291065701
 31
0.0
  0
LINE
  5
42B3
330
282D
100
AcDbEntity
  8
SUNPOU
 62
     0
440
 16777216
100
AcDbLine
 10
4027.96097767145
 20
3437.065844668125
 30
0.0
 11
4027.96097767145
 21
3358.184291065701
 31
0.0
  0
LINE
  5
42B4
330
282D
100
AcDbEntity
  8
SUNPOU
 62
     0
440
 16777216
100
AcDbLine
 10
1787.96097767145
 20
3378.184291065701
 30
0.0
 11
3987.96097767145
 21
3378.184291065701
 31
0.0
  0
MTEXT
  5
42B5
330
282D
100
AcDbEntity
  8
SUNPOU
 62
     0
440
 16777216
100
AcDbMText
 10
3012.96097767145
 20
3438.184291065701
 30
0.0
 40
60.0
 41
0.0
 71
     5
 72
     1
  1
\A1;2280
  7
A
 73
     1
 44
1.0
  0
SOLID
  5
42B6
330
282D
100
AcDbEntity
  8
SUNPOU
 62
     0
440
 16777216
100
AcDbTrace
 10
1787.96097767145
 20
3384.850957732367
 30
0.0
 11
1787.96097767145
 21
3371.517624399034
 31
0.0
 12
1747.96097767145
 22
3378.184291065701
 32
0.0
 13
1747.96097767145
 23
3378.184291065701
 33
0.0
  0
SOLID
  5
42B7
330
282D
100
AcDbEntity
  8
SUNPOU
 62
     0
440
 16777216
100
AcDbTrace
 10
3987.96097767145
 20
3384.850957732367
 30
0.0
 11
3987.96097767145
 21
3371.517624399034
 31
0.0
 12
4027.96097767145
 22
3378.184291065701
 32
0.0
 13
4027.96097767145
 23
3378.184291065701
 33
0.0
  0
POINT
  5
42B8
330
282D
100
AcDbEntity
  8
DEFPOINTS
 62
     0
440
 16777216
100
AcDbPoint
 10
1747.96097767145
 20
3427.625067866913
 30
0.0
  0
POINT
  5
42B9
330
282D
100
AcDbEntity
  8
DEFPOINTS
 62
     0
440
 16777216
100
AcDbPoint
 10
4027.96097767145
 20
3477.065844668125
 30
0.0
  0
POINT
  5
42BA
330
282D
100
AcDbEntity
  8
DEFPOINTS
 62
     0
440
 16777216
100
AcDbPoint
 10
4027.96097767145
 20
3378.184291065701
 30
0.0
  0
ENDBLK
  5
2838
330
282D
100
AcDbEntity
  8
0
100
AcDbBlockEnd
  0
BLOCK
  5
2843
330
2839
100
AcDbEntity
  8
0
100
AcDbBlockBegin
  2
*D66
 70
     1
 10
0.0
 20
0.0
 30
0.0
  3
*D66
  1

  0
LINE
  5
42A0
330
2839
100
AcDbEntity
  8
SUNPOU
 62
     0
440
 16777216
100
AcDbLine
 10
1747.96097767145
 20
3944.99632079107
 30
0.0
 11
1747.96097767145
 21
3160.421183860853
 31
0.0
  0
LINE
  5
42A1
330
2839
100
AcDbEntity
  8
SUNPOU
 62
     0
440
 16777216
100
AcDbLine
 10
4247.96097767145
 20
3944.99632079107
 30
0.0
 11
4247.96097767145
 21
3160.421183860853
 31
0.0
  0
LINE
  5
42A2
330
2839
100
AcDbEntity
  8
SUNPOU
 62
     0
440
 16777216
100
AcDbLine
 10
1787.96097767145
 20
3180.421183860853
 30
0.0
 11
4207.96097767145
 21
3180.421183860853
 31
0.0
  0
MTEXT
  5
42A3
330
2839
100
AcDbEntity
  8
SUNPOU
 62
     0
440
 16777216
100
AcDbMText
 10
3122.96097767145
 20
3240.421183860853
 30
0.0
 40
60.0
 41
0.0
 71
     5
 72
     1
  1
\A1;2500
  7
A
 73
     1
 44
1.0
  0
SOLID
  5
42A4
330
2839
100
AcDbEntity
  8
SUNPOU
 62
     0
440
 16777216
100
AcDbTrace
 10
1787.96097767145
 20
3187.087850527519
 30
0.0
 11
1787.96097767145
 21
3173.754517194186
 31
0.0
 12
1747.96097767145
 22
3180.421183860853
 32
0.0
 13
1747.96097767145
 23
3180.421183860853
 33
0.0
  0
SOLID
  5
42A5
330
2839
100
AcDbEntity
  8
SUNPOU
 62
     0
440
 16777216
100
AcDbTrace
 10
4207.96097767145
 20
3187.087850527519
 30
0.0
 11
4207.96097767145
 21
3173.754517194186
 31
0.0
 12
4247.96097767145
 22
3180.421183860853
 32
0.0
 13
4247.96097767145
 23
3180.421183860853
 33
0.0
  0
POINT
  5
42A6
330
2839
100
AcDbEntity
  8
DEFPOINTS
 62
     0
440
 16777216
100
AcDbPoint
 10
1747.96097767145
 20
3984.99632079107
 30
0.0
  0
POINT
  5
42A7
330
2839
100
AcDbEntity
  8
DEFPOINTS
 62
     0
440
 16777216
100
AcDbPoint
 10
4247.96097767145
 20
3984.99632079107
 30
0.0
  0
POINT
  5
42A8
330
2839
100
AcDbEntity
  8
DEFPOINTS
 62
     0
440
 16777216
100
AcDbPoint
 10
4247.96097767145
 20
3180.421183860853
 30
0.0
  0
ENDBLK
  5
2844
330
2839
100
AcDbEntity
  8
0
100
AcDbBlockEnd
  0
BLOCK
  5
285D
330
2851
100
AcDbEntity
  8
0
100
AcDbBlockBegin
  2
*D68
 70
     1
 10
0.0
 20
0.0
 30
0.0
  3
*D68
  1

  0
LINE
  5
4303
330
2851
100
AcDbEntity
  8
SUNPOU
 62
     0
440
 16777216
100
AcDbLine
 10
1707.96097767145
 20
3984.99632079107
 30
0.0
 11
1388.153116212241
 21
3984.99632079107
 31
0.0
  0
LINE
  5
4304
330
2851
100
AcDbEntity
  8
SUNPOU
 62
     0
440
 16777216
100
AcDbLine
 10
1707.96097767145
 20
4054.99632079107
 30
0.0
 11
1388.153116212241
 21
4054.99632079107
 31
0.0
  0
LINE
  5
4305
330
2851
100
AcDbEntity
  8
SUNPOU
 62
     0
440
 16777216
100
AcDbLine
 10
1408.153116212241
 20
3944.99632079107
 30
0.0
 11
1408.153116212241
 21
3904.99632079107
 31
0.0
  0
LINE
  5
4306
330
2851
100
AcDbEntity
  8
SUNPOU
 62
     0
440
 16777216
100
AcDbLine
 10
1408.153116212241
 20
4094.99632079107
 30
0.0
 11
1408.153116212241
 21
4134.996320791071
 31
0.0
  0
MTEXT
  5
4307
330
2851
100
AcDbEntity
  8
SUNPOU
 62
     0
440
 16777216
100
AcDbMText
 10
1348.153116212241
 20
3908.519426943434
 30
0.0
 40
60.0
 41
0.0
 71
     5
 72
     1
  1
\A1;70
  7
A
 11
6.123031769111886E-17
 21
1.0
 31
0.0
 73
     1
 44
1.0
  0
LINE
  5
4308
330
2851
100
AcDbEntity
  8
SUNPOU
 62
     0
440
 16777216
100
AcDbLine
 10
1408.153116212241
 20
3984.99632079107
 30
0.0
 11
1408.153116212241
 21
4054.99632079107
 31
0.0
  0
SOLID
  5
4309
330
2851
100
AcDbEntity
  8
SUNPOU
 62
     0
440
 16777216
100
AcDbTrace
 10
1401.486449545574
 20
3944.99632079107
 30
0.0
 11
1414.819782878908
 21
3944.99632079107
 31
0.0
 12
1408.153116212241
 22
3984.99632079107
 32
0.0
 13
1408.153116212241
 23
3984.99632079107
 33
0.0
  0
SOLID
  5
430A
330
2851
100
AcDbEntity
  8
SUNPOU
 62
     0
440
 16777216
100
AcDbTrace
 10
1401.486449545574
 20
4094.99632079107
 30
0.0
 11
1414.819782878908
 21
4094.99632079107
 31
0.0
 12
1408.153116212241
 22
4054.99632079107
 32
0.0
 13
1408.153116212241
 23
4054.99632079107
 33
0.0
  0
POINT
  5
430B
330
2851
100
AcDbEntity
  8
DEFPOINTS
 62
     0
440
 16777216
100
AcDbPoint
 10
1747.96097767145
 20
3984.99632079107
 30
0.0
  0
POINT
  5
430C
330
2851
100
AcDbEntity
  8
DEFPOINTS
 62
     0
440
 16777216
100
AcDbPoint
 10
1747.96097767145
 20
4054.99632079107
 30
0.0
  0
POINT
  5
430D
330
2851
100
AcDbEntity
  8
DEFPOINTS
 62
     0
440
 16777216
100
AcDbPoint
 10
1408.153116212241
 20
4054.99632079107
 30
0.0
  0
ENDBLK
  5
285E
330
2851
100
AcDbEntity
  8
0
100
AcDbBlockEnd
  0
BLOCK
  5
2869
330
285F
100
AcDbEntity
  8
0
100
AcDbBlockBegin
  2
*D69
 70
     1
 10
0.0
 20
0.0
 30
0.0
  3
*D69
  1

  0
LINE
  5
42FA
330
285F
100
AcDbEntity
  8
SUNPOU
 62
     0
440
 16777216
100
AcDbLine
 10
1707.96097767145
 20
3984.99632079107
 30
0.0
 11
1171.001480596815
 21
3984.99632079107
 31
0.0
  0
LINE
  5
42FB
330
285F
100
AcDbEntity
  8
SUNPOU
 62
     0
440
 16777216
100
AcDbLine
 10
1707.96097767145
 20
4104.99632079107
 30
0.0
 11
1171.001480596815
 21
4104.99632079107
 31
0.0
  0
LINE
  5
42FC
330
285F
100
AcDbEntity
  8
SUNPOU
 62
     0
440
 16777216
100
AcDbLine
 10
1191.001480596815
 20
4024.99632079107
 30
0.0
 11
1191.001480596815
 21
4064.996320791069
 31
0.0
  0
MTEXT
  5
42FD
330
285F
100
AcDbEntity
  8
SUNPOU
 62
     0
440
 16777216
100
AcDbMText
 10
1131.001480596815
 20
4057.624669825374
 30
0.0
 40
60.0
 41
0.0
 71
     5
 72
     1
  1
\A1;120
  7
A
 11
6.123031769111886E-17
 21
1.0
 31
0.0
 73
     1
 44
1.0
  0
SOLID
  5
42FE
330
285F
100
AcDbEntity
  8
SUNPOU
 62
     0
440
 16777216
100
AcDbTrace
 10
1184.334813930148
 20
4024.99632079107
 30
0.0
 11
1197.668147263482
 21
4024.99632079107
 31
0.0
 12
1191.001480596815
 22
3984.99632079107
 32
0.0
 13
1191.001480596815
 23
3984.99632079107
 33
0.0
  0
SOLID
  5
42FF
330
285F
100
AcDbEntity
  8
SUNPOU
 62
     0
440
 16777216
100
AcDbTrace
 10
1184.334813930148
 20
4064.996320791069
 30
0.0
 11
1197.668147263482
 21
4064.996320791069
 31
0.0
 12
1191.001480596815
 22
4104.99632079107
 32
0.0
 13
1191.001480596815
 23
4104.99632079107
 33
0.0
  0
POINT
  5
4300
330
285F
100
AcDbEntity
  8
DEFPOINTS
 62
     0
440
 16777216
100
AcDbPoint
 10
1747.96097767145
 20
3984.99632079107
 30
0.0
  0
POINT
  5
4301
330
285F
100
AcDbEntity
  8
DEFPOINTS
 62
     0
440
 16777216
100
AcDbPoint
 10
1747.96097767145
 20
4104.99632079107
 30
0.0
  0
POINT
  5
4302
330
285F
100
AcDbEntity
  8
DEFPOINTS
 62
     0
440
 16777216
100
AcDbPoint
 10
1191.001480596815
 20
4104.99632079107
 30
0.0
  0
ENDBLK
  5
286A
330
285F
100
AcDbEntity
  8
0
100
AcDbBlockEnd
  0
BLOCK
  5
2898
330
288E
100
AcDbEntity
  8
0
100
AcDbBlockBegin
  2
*D72
 70
     1
 10
0.0
 20
0.0
 30
0.0
  3
*D72
  1

  0
LINE
  5
4551
330
288E
100
AcDbEntity
  8
SUNPOU
 62
     0
440
 16777216
100
AcDbLine
 10
4287.96097767145
 20
1906.087275416288
 30
0.0
 11
5059.255193011264
 21
1906.087275416288
 31
0.0
  0
LINE
  5
4552
330
288E
100
AcDbEntity
  8
SUNPOU
 62
     0
440
 16777216
100
AcDbLine
 10
4287.96097767145
 20
906.0872754162879
 30
0.0
 11
5059.255193011264
 21
906.0872754162876
 31
0.0
  0
LINE
  5
4553
330
288E
100
AcDbEntity
  8
SUNPOU
 62
     0
440
 16777216
100
AcDbLine
 10
5039.255193011264
 20
1866.087275416288
 30
0.0
 11
5039.255193011264
 21
946.0872754162876
 31
0.0
  0
SOLID
  5
4554
330
288E
100
AcDbEntity
  8
SUNPOU
 62
     0
440
 16777216
100
AcDbTrace
 10
5032.588526344597
 20
1866.087275416288
 30
0.0
 11
5045.921859677931
 21
1866.087275416288
 31
0.0
 12
5039.255193011264
 22
1906.087275416288
 32
0.0
 13
5039.255193011264
 23
1906.087275416288
 33
0.0
  0
SOLID
  5
4555
330
288E
100
AcDbEntity
  8
SUNPOU
 62
     0
440
 16777216
100
AcDbTrace
 10
5032.588526344597
 20
946.0872754162876
 30
0.0
 11
5045.921859677931
 21
946.0872754162876
 31
0.0
 12
5039.255193011264
 22
906.0872754162876
 32
0.0
 13
5039.255193011264
 23
906.0872754162876
 33
0.0
  0
MTEXT
  5
4556
330
288E
100
AcDbEntity
  8
SUNPOU
 62
     0
440
 16777216
100
AcDbMText
 10
4979.255193011264
 20
1406.087275416289
 30
0.0
 40
60.0
 41
0.0
 71
     5
 72
     1
  1
\A1;1000
  7
A
 11
6.123031769111886E-17
 21
1.0
 31
0.0
 73
     1
 44
1.0
  0
POINT
  5
4557
330
288E
100
AcDbEntity
  8
DEFPOINTS
 62
     0
440
 16777216
100
AcDbPoint
 10
4247.96097767145
 20
1906.087275416288
 30
0.0
  0
POINT
  5
4558
330
288E
100
AcDbEntity
  8
DEFPOINTS
 62
     0
440
 16777216
100
AcDbPoint
 10
4247.96097767145
 20
906.0872754162879
 30
0.0
  0
POINT
  5
4559
330
288E
100
AcDbEntity
  8
DEFPOINTS
 62
     0
440
 16777216
100
AcDbPoint
 10
5039.255193011264
 20
906.0872754162876
 30
0.0
  0
ENDBLK
  5
2899
330
288E
100
AcDbEntity
  8
0
100
AcDbBlockEnd
  0
BLOCK
  5
295A
330
2950
100
AcDbEntity
  8
0
100
AcDbBlockBegin
  2
*D85
 70
     1
 10
0.0
 20
0.0
 30
0.0
  3
*D85
  1

  0
LINE
  5
42D6
330
2950
100
AcDbEntity
  8
SUNPOU
 62
     0
440
 16777216
100
AcDbLine
 10
4287.96097767145
 20
3984.99632079107
 30
0.0
 11
4900.88079932299
 21
3984.99632079107
 31
0.0
  0
LINE
  5
42D7
330
2950
100
AcDbEntity
  8
SUNPOU
 62
     0
440
 16777216
100
AcDbLine
 10
4287.96097767145
 20
4204.99632079107
 30
0.0
 11
4900.88079932299
 21
4204.99632079107
 31
0.0
  0
LINE
  5
42D8
330
2950
100
AcDbEntity
  8
SUNPOU
 62
     0
440
 16777216
100
AcDbLine
 10
4880.88079932299
 20
4024.99632079107
 30
0.0
 11
4880.88079932299
 21
4164.99632079107
 31
0.0
  0
SOLID
  5
42D9
330
2950
100
AcDbEntity
  8
SUNPOU
 62
     0
440
 16777216
100
AcDbTrace
 10
4874.214132656323
 20
4024.99632079107
 30
0.0
 11
4887.547465989657
 21
4024.99632079107
 31
0.0
 12
4880.88079932299
 22
3984.99632079107
 32
0.0
 13
4880.88079932299
 23
3984.99632079107
 33
0.0
  0
SOLID
  5
42DA
330
2950
100
AcDbEntity
  8
SUNPOU
 62
     0
440
 16777216
100
AcDbTrace
 10
4874.214132656323
 20
4164.99632079107
 30
0.0
 11
4887.547465989657
 21
4164.99632079107
 31
0.0
 12
4880.88079932299
 22
4204.99632079107
 32
0.0
 13
4880.88079932299
 23
4204.99632079107
 33
0.0
  0
MTEXT
  5
42DB
330
2950
100
AcDbEntity
  8
SUNPOU
 62
     0
440
 16777216
100
AcDbMText
 10
4820.880799322989
 20
4094.99632079107
 30
0.0
 40
60.0
 41
0.0
 71
     5
 72
     1
  1
\A1;220
  7
A
 11
6.123031769111886E-17
 21
1.0
 31
0.0
 73
     1
 44
1.0
  0
POINT
  5
42DC
330
2950
100
AcDbEntity
  8
DEFPOINTS
 62
     0
440
 16777216
100
AcDbPoint
 10
4247.96097767145
 20
3984.99632079107
 30
0.0
  0
POINT
  5
42DD
330
2950
100
AcDbEntity
  8
DEFPOINTS
 62
     0
440
 16777216
100
AcDbPoint
 10
4247.96097767145
 20
4204.99632079107
 30
0.0
  0
POINT
  5
42DE
330
2950
100
AcDbEntity
  8
DEFPOINTS
 62
     0
440
 16777216
100
AcDbPoint
 10
4880.88079932299
 20
4204.99632079107
 30
0.0
  0
ENDBLK
  5
295B
330
2950
100
AcDbEntity
  8
0
100
AcDbBlockEnd
  0
BLOCK
  5
2980
330
2976
100
AcDbEntity
  8
0
100
AcDbBlockBegin
  2
*D88
 70
     1
 10
0.0
 20
0.0
 30
0.0
  3
*D88
  1

  0
LINE
  5
42A9
330
2976
100
AcDbEntity
  8
SUNPOU
 62
     0
440
 16777216
100
AcDbLine
 10
4247.96097767145
 20
3944.99632079107
 30
0.0
 11
4247.96097767145
 21
3358.184291065701
 31
0.0
  0
LINE
  5
42AA
330
2976
100
AcDbEntity
  8
SUNPOU
 62
     0
440
 16777216
100
AcDbLine
 10
4027.96097767145
 20
3944.99632079107
 30
0.0
 11
4027.96097767145
 21
3358.184291065701
 31
0.0
  0
LINE
  5
42AB
330
2976
100
AcDbEntity
  8
SUNPOU
 62
     0
440
 16777216
100
AcDbLine
 10
4207.96097767145
 20
3378.184291065701
 30
0.0
 11
4067.96097767145
 21
3378.184291065701
 31
0.0
  0
MTEXT
  5
42AC
330
2976
100
AcDbEntity
  8
SUNPOU
 62
     0
440
 16777216
100
AcDbMText
 10
4137.96097767145
 20
3438.184291065701
 30
0.0
 40
60.0
 41
0.0
 71
     5
 72
     1
  1
\A1;220
  7
A
 73
     1
 44
1.0
  0
SOLID
  5
42AD
330
2976
100
AcDbEntity
  8
SUNPOU
 62
     0
440
 16777216
100
AcDbTrace
 10
4207.96097767145
 20
3384.850957732367
 30
0.0
 11
4207.96097767145
 21
3371.517624399034
 31
0.0
 12
4247.96097767145
 22
3378.184291065701
 32
0.0
 13
4247.96097767145
 23
3378.184291065701
 33
0.0
  0
SOLID
  5
42AE
330
2976
100
AcDbEntity
  8
SUNPOU
 62
     0
440
 16777216
100
AcDbTrace
 10
4067.96097767145
 20
3384.850957732367
 30
0.0
 11
4067.96097767145
 21
3371.517624399034
 31
0.0
 12
4027.96097767145
 22
3378.184291065701
 32
0.0
 13
4027.96097767145
 23
3378.184291065701
 33
0.0
  0
POINT
  5
42AF
330
2976
100
AcDbEntity
  8
DEFPOINTS
 62
     0
440
 16777216
100
AcDbPoint
 10
4247.96097767145
 20
3984.99632079107
 30
0.0
  0
POINT
  5
42B0
330
2976
100
AcDbEntity
  8
DEFPOINTS
 62
     0
440
 16777216
100
AcDbPoint
 10
4027.96097767145
 20
3984.99632079107
 30
0.0
  0
POINT
  5
42B1
330
2976
100
AcDbEntity
  8
DEFPOINTS
 62
     0
440
 16777216
100
AcDbPoint
 10
4027.96097767145
 20
3378.184291065701
 30
0.0
  0
ENDBLK
  5
2981
330
2976
100
AcDbEntity
  8
0
100
AcDbBlockEnd
  0
BLOCK
  5
29C8
330
29BE
100
AcDbEntity
  8
0
100
AcDbBlockBegin
  2
*D94
 70
     1
 10
0.0
 20
0.0
 30
0.0
  3
*D94
  1

  0
LINE
  5
4462
330
29BE
100
AcDbEntity
  8
SUNPOU
 62
     0
440
 16777216
100
AcDbLine
 10
4287.96097767145
 20
6984.99632079107
 30
0.0
 11
5118.032434938417
 21
6984.99632079107
 31
0.0
  0
LINE
  5
4463
330
29BE
100
AcDbEntity
  8
SUNPOU
 62
     0
440
 16777216
100
AcDbLine
 10
4287.96097767145
 20
4984.99632079107
 30
0.0
 11
5118.032434938416
 21
4984.99632079107
 31
0.0
  0
LINE
  5
4464
330
29BE
100
AcDbEntity
  8
SUNPOU
 62
     0
440
 16777216
100
AcDbLine
 10
5098.032434938417
 20
6944.99632079107
 30
0.0
 11
5098.032434938416
 21
5024.99632079107
 31
0.0
  0
SOLID
  5
4465
330
29BE
100
AcDbEntity
  8
SUNPOU
 62
     0
440
 16777216
100
AcDbTrace
 10
5091.36576827175
 20
6944.99632079107
 30
0.0
 11
5104.699101605084
 21
6944.99632079107
 31
0.0
 12
5098.032434938417
 22
6984.99632079107
 32
0.0
 13
5098.032434938417
 23
6984.99632079107
 33
0.0
  0
SOLID
  5
4466
330
29BE
100
AcDbEntity
  8
SUNPOU
 62
     0
440
 16777216
100
AcDbTrace
 10
5091.365768271749
 20
5024.99632079107
 30
0.0
 11
5104.699101605083
 21
5024.99632079107
 31
0.0
 12
5098.032434938416
 22
4984.99632079107
 32
0.0
 13
5098.032434938416
 23
4984.99632079107
 33
0.0
  0
MTEXT
  5
4467
330
29BE
100
AcDbEntity
  8
SUNPOU
 62
     0
440
 16777216
100
AcDbMText
 10
5038.032434938415
 20
5984.996320791071
 30
0.0
 40
60.0
 41
0.0
 71
     5
 72
     1
  1
\A1;2000
  7
A
 11
6.123031769111886E-17
 21
1.0
 31
0.0
 73
     1
 44
1.0
  0
POINT
  5
4468
330
29BE
100
AcDbEntity
  8
DEFPOINTS
 62
     0
440
 16777216
100
AcDbPoint
 10
4247.96097767145
 20
6984.99632079107
 30
0.0
  0
POINT
  5
4469
330
29BE
100
AcDbEntity
  8
DEFPOINTS
 62
     0
440
 16777216
100
AcDbPoint
 10
4247.96097767145
 20
4984.99632079107
 30
0.0
  0
POINT
  5
446A
330
29BE
100
AcDbEntity
  8
DEFPOINTS
 62
     0
440
 16777216
100
AcDbPoint
 10
5098.032434938416
 20
4984.99632079107
 30
0.0
  0
ENDBLK
  5
29C9
330
29BE
100
AcDbEntity
  8
0
100
AcDbBlockEnd
  0
BLOCK
  5
47D9
330
47D8
100
AcDbEntity
  8
0
100
AcDbBlockBegin
  2
*D132
 70
     1
 10
0.0
 20
0.0
 30
0.0
  3
*D132
  1

  0
LINE
  5
47DB
330
47D8
100
AcDbEntity
  8
SUNPOU
 62
     0
440
 16777216
370
    -2
100
AcDbLine
 10
4287.96097767145
 20
906.0872754162879
 30
0.0
 11
5264.677194366405
 21
906.0872754162875
 31
0.0
  0
LINE
  5
47DC
330
47D8
100
AcDbEntity
  8
SUNPOU
 62
     0
440
 16777216
370
    -2
100
AcDbLine
 10
4287.96097767145
 20
2706.087275416288
 30
0.0
 11
5264.677194366406
 21
2706.087275416288
 31
0.0
  0
LINE
  5
47DD
330
47D8
100
AcDbEntity
  8
SUNPOU
 62
     0
440
 16777216
370
    -2
100
AcDbLine
 10
5244.677194366405
 20
946.0872754162875
 30
0.0
 11
5244.677194366406
 21
2666.087275416288
 31
0.0
  0
SOLID
  5
47DE
330
47D8
100
AcDbEntity
  8
SUNPOU
 62
     0
440
 16777216
100
AcDbTrace
 10
5238.010527699738
 20
946.0872754162875
 30
0.0
 11
5251.343861033072
 21
946.0872754162875
 31
0.0
 12
5244.677194366405
 22
906.0872754162875
 32
0.0
 13
5244.677194366405
 23
906.0872754162875
 33
0.0
  0
SOLID
  5
47DF
330
47D8
100
AcDbEntity
  8
SUNPOU
 62
     0
440
 16777216
100
AcDbTrace
 10
5238.010527699739
 20
2666.087275416288
 30
0.0
 11
5251.343861033073
 21
2666.087275416288
 31
0.0
 12
5244.677194366406
 22
2706.087275416288
 32
0.0
 13
5244.677194366406
 23
2706.087275416288
 33
0.0
  0
MTEXT
  5
47E0
330
47D8
100
AcDbEntity
  8
SUNPOU
 62
     0
440
 16777216
100
AcDbMText
 10
5184.677194366405
 20
1806.087275416289
 30
0.0
 40
60.0
 41
0.0
 71
     5
 72
     1
  1
\A1;1800
  7
A
 11
6.123031769111886E-17
 21
1.0
 31
0.0
 73
     1
 44
1.0
  0
POINT
  5
47E1
330
47D8
100
AcDbEntity
  8
DEFPOINTS
 62
     0
440
 16777216
100
AcDbPoint
 10
4247.96097767145
 20
906.0872754162879
 30
0.0
  0
POINT
  5
47E2
330
47D8
100
AcDbEntity
  8
DEFPOINTS
 62
     0
440
 16777216
100
AcDbPoint
 10
4247.96097767145
 20
2706.087275416288
 30
0.0
  0
POINT
  5
47E3
330
47D8
100
AcDbEntity
  8
DEFPOINTS
 62
     0
440
 16777216
100
AcDbPoint
 10
5244.677194366406
 20
2706.087275416288
 30
0.0
  0
ENDBLK
  5
47DA
330
47D8
100
AcDbEntity
  8
0
100
AcDbBlockEnd
  0
ENDSEC
  0
SECTION
  2
ENTITIES
  0
TEXT
  5
6C9
330
17
100
AcDbEntity
  8
SUNPOU
100
AcDbText
 10
10490.76093427418
 20
53.18824234306885
 30
0.0
 40
50.0
  1
新和コンクリート工業株式会社
  7
NIHONGO
100
AcDbText
  0
TEXT
  5
6CA
330
17
100
AcDbEntity
  8
SUNPOU
100
AcDbText
 10
10919.09426760752
 20
178.1882423430689
 30
0.0
 40
50.0
  1
製図
  7
NIHONGO
 72
     4
 11
10970.76093427418
 21
203.1882423430689
 31
0.0
100
AcDbText
  0
TEXT
  5
6CB
330
17
100
AcDbEntity
  8
SUNPOU
100
AcDbText
 10
10917.42760094085
 20
278.1882423430689
 30
0.0
 40
50.0
  1
設計
  7
NIHONGO
 72
     4
 11
10970.76093427418
 21
303.1882423430689
 31
0.0
100
AcDbText
  0
TEXT
  5
6CC
330
17
100
AcDbEntity
  8
SUNPOU
100
AcDbText
 10
10472.42760094085
 20
178.1882423430691
 30
0.0
 40
50.0
  1
認
  7
NIHONGO
 72
     4
 11
10495.76093427418
 21
203.1882423430691
 31
0.0
100
AcDbText
  0
TEXT
  5
6CD
330
17
100
AcDbEntity
  8
SUNPOU
100
AcDbText
 10
10472.42760094085
 20
279.8549090097362
 30
0.0
 40
50.0
  1
承
  7
NIHONGO
 72
     4
 11
10495.76093427418
 21
303.1882423430695
 31
0.0
100
AcDbText
  0
TEXT
  5
6CE
330
17
100
AcDbEntity
  8
SUNPOU
100
AcDbText
 10
9945.760934274182
 20
288.1882423430691
 30
0.0
 40
50.0
  1
図　面　番　号
  7
NIHONGO
 72
     4
 11
10150.76093427418
 21
313.1882423430691
 31
0.0
100
AcDbText
  0
TEXT
  5
6CF
330
17
100
AcDbEntity
  8
SUNPOU
100
AcDbText
 10
10930.76093427418
 20
393.1882423430689
 30
0.0
 40
50.0
  1
１／
  7
NIHONGO
100
AcDbText
  0
TEXT
  5
6D0
330
17
100
AcDbEntity
  8
SUNPOU
100
AcDbText
 10
10637.42760094085
 20
378.1882423430691
 30
0.0
 40
50.0
  1
縮　　尺
  7
NIHONGO
 72
     4
 11
10750.76093427418
 21
403.1882423430691
 31
0.0
100
AcDbText
  0
TEXT
  5
6D1
330
17
100
AcDbEntity
  8
SUNPOU
100
AcDbText
 10
10637.42760094085
 20
478.1882423430689
 30
0.0
 40
50.0
  1
鉄 筋 量
  7
NIHONGO
 72
     4
 11
10750.76093427418
 21
503.1882423430689
 31
0.0
100
AcDbText
  0
TEXT
  5
6D2
330
17
100
AcDbEntity
  8
SUNPOU
100
AcDbText
 10
10637.42760094085
 20
578.1882423430689
 30
0.0
 40
50.0
  1
製 造 数
  7
NIHONGO
 72
     4
 11
10750.76093427418
 21
603.1882423430689
 31
0.0
100
AcDbText
  0
TEXT
  5
6D3
330
17
100
AcDbEntity
  8
SUNPOU
100
AcDbText
 10
11230.76093427418
 20
473.1882423430689
 30
0.0
 40
50.0
  1
ｋｇ
  7
NIHONGO
 72
     2
 11
11330.76093427418
 21
473.1882423430689
 31
0.0
100
AcDbText
  0
TEXT
  5
6D4
330
17
100
AcDbEntity
  8
SUNPOU
100
AcDbText
 10
10480.76093427418
 20
473.1882423430689
 30
0.0
 40
50.0
  1
ｋｇ
  7
NIHONGO
 72
     2
 11
10580.76093427418
 21
473.1882423430689
 31
0.0
100
AcDbText
  0
TEXT
  5
6D5
330
17
100
AcDbEntity
  8
SUNPOU
100
AcDbText
 10
9890.760934274182
 20
378.1882423430691
 30
0.0
 40
50.0
  1
年 月 日
  7
NIHONGO
 72
     4
 11
10000.76093427418
 21
403.1882423430691
 31
0.0
100
AcDbText
  0
TEXT
  5
6D6
330
17
100
AcDbEntity
  8
SUNPOU
100
AcDbText
 10
9887.427600940848
 20
478.1882423430689
 30
0.0
 40
50.0
  1
製品質量
  7
NIHONGO
 72
     4
 11
10000.76093427418
 21
503.1882423430689
 31
0.0
100
AcDbText
  0
TEXT
  5
6D7
330
17
100
AcDbEntity
  8
SUNPOU
100
AcDbText
 10
9889.094267607516
 20
578.1882423430689
 30
0.0
 40
50.0
  1
業 者 名
  7
NIHONGO
 72
     4
 11
10000.76093427418
 21
603.1882423430689
 31
0.0
100
AcDbText
  0
TEXT
  5
6D8
330
17
100
AcDbEntity
  8
SUNPOU
100
AcDbText
 10
9887.427600940848
 20
703.1882423430689
 30
0.0
 40
50.0
  1
名　　称
  7
NIHONGO
 72
     4
 11
10000.76093427418
 21
728.1882423430689
 31
0.0
100
AcDbText
  0
LINE
  5
6D9
330
17
100
AcDbEntity
  8
SUNPOU
100
AcDbLine
 10
10450.76093427418
 20
273.1882423430693
 30
0.0
 11
9850.760934274182
 21
273.1882423430693
 31
0.0
  0
LINE
  5
6DA
330
17
100
AcDbEntity
  8
SUNPOU
100
AcDbLine
 10
11040.76093427418
 20
153.1882423430684
 30
0.0
 11
11040.76093427418
 21
353.1882423430689
 31
0.0
  0
LINE
  5
6DB
330
17
100
AcDbEntity
  8
SUNPOU
100
AcDbLine
 10
10900.76093427418
 20
153.1882423430684
 30
0.0
 11
10900.76093427418
 21
353.1882423430689
 31
0.0
  0
LINE
  5
6DC
330
17
100
AcDbEntity
  8
SUNPOU
100
AcDbLine
 10
10540.76093427418
 20
153.1882423430689
 30
0.0
 11
10540.76093427418
 21
353.1882423430689
 31
0.0
  0
LINE
  5
6DD
330
17
100
AcDbEntity
  8
SUNPOU
100
AcDbLine
 10
10450.76093427418
 20
153.1882423430689
 30
0.0
 11
10450.76093427418
 21
353.1882423430689
 31
0.0
  0
LINE
  5
6DE
330
17
100
AcDbEntity
  8
SUNPOU
100
AcDbLine
 10
10150.76093427418
 20
353.1882423430689
 30
0.0
 11
10150.76093427418
 21
803.1882423430689
 31
0.0
  0
LINE
  5
6DF
330
17
100
AcDbEntity
  8
SUNPOU
100
AcDbLine
 10
10900.76093427418
 20
353.1882423430689
 30
0.0
 11
10900.76093427418
 21
653.1882423430689
 31
0.0
  0
LINE
  5
6E0
330
17
100
AcDbEntity
  8
SUNPOU
100
AcDbLine
 10
10600.76093427418
 20
353.1882423430689
 30
0.0
 11
10600.76093427418
 21
653.1882423430689
 31
0.0
  0
LINE
  5
6E1
330
17
100
AcDbEntity
  8
SUNPOU
100
AcDbLine
 10
11350.76093427418
 20
653.1882423430689
 30
0.0
 11
9850.760934274182
 21
653.1882423430689
 31
0.0
  0
LINE
  5
6E2
330
17
100
AcDbEntity
  8
SUNPOU
100
AcDbLine
 10
11350.76093427418
 20
553.1882423430689
 30
0.0
 11
9850.760934274182
 21
553.1882423430689
 31
0.0
  0
LINE
  5
6E3
330
17
100
AcDbEntity
  8
SUNPOU
100
AcDbLine
 10
11350.76093427418
 20
453.1882423430689
 30
0.0
 11
9850.760934274182
 21
453.1882423430689
 31
0.0
  0
LINE
  5
6E4
330
17
100
AcDbEntity
  8
SUNPOU
100
AcDbLine
 10
11350.76093427418
 20
353.1882423430689
 30
0.0
 11
9850.760934274182
 21
353.1882423430698
 31
0.0
  0
LINE
  5
6E5
330
17
100
AcDbEntity
  8
HAIKIN
100
AcDbLine
 10
9850.760934274182
 20
803.1882423430689
 30
0.0
 11
11350.76093427418
 21
803.1882423430689
 31
0.0
  0
LINE
  5
6E6
330
17
100
AcDbEntity
  8
HAIKIN
100
AcDbLine
 10
9850.760934274182
 20
153.1882423430693
 30
0.0
 11
9850.760934274182
 21
803.1882423430689
 31
0.0
  0
TEXT
  5
6E7
330
17
100
AcDbEntity
  8
SUNPOU
100
AcDbText
 10
11050.76093427418
 20
373.1882423430689
 30
0.0
 40
60.0
  1
 20
  7
A
100
AcDbText
  0
TEXT
  5
6E9
330
17
100
AcDbEntity
  8
SUNPOU
100
AcDbText
 10
10219.07944893454
 20
695.4865097941702
 30
0.0
 40
60.0
  1
デザインウォールコーナー　H=2500
 41
0.8274710957658428
  7
A
 72
     5
 11
11258.38314521644
 21
695.4865097941702
 31
0.0
100
AcDbText
  0
LWPOLYLINE
  5
6EB
330
17
100
AcDbEntity
  8
HAIKIN
100
AcDbPolyline
 90
        4
 70
     1
 43
0.0
 10
11354.78343630826
 20
7982.039940919411
 10
426.7808576631921
 20
7982.039940919411
 10
426.7808576631921
 20
150.0
 10
11354.78343630826
 20
150.0
  0
TEXT
  5
6F1
330
17
100
AcDbEntity
  8
SUNPOU
100
AcDbText
 10
8483.290085810027
 20
3977.040928626652
 30
0.0
 40
60.0
  1
        
  7
A
100
AcDbText
  0
TEXT
  5
6F2
330
17
100
AcDbEntity
  8
SUNPOU
100
AcDbText
 10
8179.290085810027
 20
3964.945264685842
 30
0.0
 40
60.0
  1
      
  7
A
100
AcDbText
  0
TEXT
  5
6F3
330
17
100
AcDbEntity
  8
SUNPOU
100
AcDbText
 10
2451.856152230769
 20
3880.638544059962
 30
0.0
 40
60.0
  1
        
  7
A
100
AcDbText
  0
TEXT
  5
6F4
330
17
100
AcDbEntity
  8
SUNPOU
100
AcDbText
 10
2633.180408178521
 20
3880.638544059962
 30
0.0
 40
60.0
  1
        
  7
A
100
AcDbText
  0
TEXT
  5
6F5
330
17
100
AcDbEntity
  8
SUNPOU
100
AcDbText
 10
6061.770217380291
 20
3834.556802440616
 30
0.0
 40
60.0
  1
   
  7
A
100
AcDbText
  0
TEXT
  5
6F6
330
17
100
AcDbEntity
  8
SUNPOU
100
AcDbText
 10
5745.082194249918
 20
4001.545985117913
 30
0.0
 40
60.0
  1
     
  7
A
100
AcDbText
  0
TEXT
  5
6F7
330
17
100
AcDbEntity
  8
SUNPOU
100
AcDbText
 10
2734.670711343414
 20
3880.63854405996
 30
0.0
 40
60.0
  1
    
  7
A
100
AcDbText
  0
TEXT
  5
6F8
330
17
100
AcDbEntity
  8
SUNPOU
100
AcDbText
 10
2824.062725563335
 20
3880.63854405996
 30
0.0
 40
60.0
  1
    
  7
A
100
AcDbText
  0
TEXT
  5
6F9
330
17
100
AcDbEntity
  8
SUNPOU
100
AcDbText
 10
2114.468887493882
 20
4119.795362913077
 30
0.0
 40
60.0
  1
   
  7
A
100
AcDbText
  0
TEXT
  5
6FA
330
17
100
AcDbEntity
  8
SUNPOU
100
AcDbText
 10
2617.049640001411
 20
3880.63854405996
 30
0.0
 40
60.0
  1
    
  7
A
100
AcDbText
  0
LINE
  5
6FB
330
17
100
AcDbEntity
  8
SEIHIN
100
AcDbLine
 10
4247.96097767145
 20
3984.99632079107
 30
0.0
 11
1747.96097767145
 21
3984.99632079107
 31
0.0
  0
LINE
  5
6FC
330
17
100
AcDbEntity
  8
SEIHIN
100
AcDbLine
 10
1747.96097767145
 20
3984.99632079107
 30
0.0
 11
1747.96097767145
 21
4054.99632079107
 31
0.0
  0
LINE
  5
6FD
330
17
100
AcDbEntity
  8
SEIHIN
100
AcDbLine
 10
1747.96097767145
 20
4054.99632079107
 30
0.0
 11
1797.96097767145
 21
4054.99632079107
 31
0.0
  0
LINE
  5
6FE
330
17
100
AcDbEntity
  8
SEIHIN
100
AcDbLine
 10
1797.96097767145
 20
4054.99632079107
 30
0.0
 11
1797.96097767145
 21
4104.99632079107
 31
0.0
  0
LINE
  5
6FF
330
17
100
AcDbEntity
  8
SEIHIN
100
AcDbLine
 10
4247.96097767145
 20
4984.99632079107
 30
0.0
 11
4027.96097767145
 21
4984.99632079107
 31
0.0
  0
LINE
  5
700
330
17
100
AcDbEntity
  8
SEIHIN
100
AcDbLine
 10
4027.96097767145
 20
4984.99632079107
 30
0.0
 11
1747.96097767145
 21
4984.99632079107
 31
0.0
  0
LINE
  5
701
330
17
100
AcDbEntity
  8
SEIHIN
100
AcDbLine
 10
1747.96097767145
 20
4054.99632079107
 30
0.0
 11
1747.96097767145
 21
6984.99632079107
 31
0.0
  0
LINE
  5
702
330
17
100
AcDbEntity
  8
SEIHIN
100
AcDbLine
 10
1797.96097767145
 20
4104.99632079107
 30
0.0
 11
1797.96097767145
 21
4984.996320791069
 31
0.0
  0
LINE
  5
703
330
17
100
AcDbEntity
  8
SEIHIN
100
AcDbLine
 10
4247.96097767145
 20
6984.99632079107
 30
0.0
 11
4247.96097767145
 21
3984.99632079107
 31
0.0
  0
DIMENSION
  5
739
330
17
100
AcDbEntity
  8
SUNPOU
100
AcDbDimension
  2
*D66
 10
4247.96097767145
 20
3180.421183860853
 30
0.0
 11
3122.96097767145
 21
3240.421183860853
 31
0.0
 70
   160
 71
     5
 42
-1.0
  3
STANDARD
100
AcDbAlignedDimension
 13
1747.96097767145
 23
3984.99632079107
 33
0.0
 14
4247.96097767145
 24
3984.99632079107
 34
0.0
100
AcDbRotatedDimension
1001
ACAD
1000
DSTYLE
1002
{
1070
   287
1070
     5
1070
   287
1070
     5
1070
   287
1070
     5
1070
    41
1040
40.0
1070
    42
1040
40.0
1070
    43
1040
140.0
1070
    44
1040
20.0
1070
    73
1070
     0
1070
    74
1070
     0
1070
   140
1040
60.0
1070
   145
1040
1.0
1070
   172
1070
     1
1070
   271
1070
     0
1070
   272
1070
     0
1070
   275
1070
     1
1070
   279
1070
     2
1070
   340
1005
9E
1002
}
  0
DIMENSION
  5
73A
330
17
100
AcDbEntity
  8
SUNPOU
100
AcDbDimension
  2
*D88
 10
4027.96097767145
 20
3378.184291065701
 30
0.0
 11
4137.96097767145
 21
3438.184291065701
 31
0.0
 70
   160
 71
     5
 42
-1.0
  3
STANDARD
100
AcDbAlignedDimension
 13
4247.96097767145
 23
3984.99632079107
 33
0.0
 14
4027.96097767145
 24
3984.99632079107
 34
0.0
100
AcDbRotatedDimension
1001
ACAD
1000
DSTYLE
1002
{
1070
   287
1070
     5
1070
   287
1070
     5
1070
   287
1070
     5
1070
    41
1040
40.0
1070
    42
1040
40.0
1070
    43
1040
140.0
1070
    44
1040
20.0
1070
    73
1070
     0
1070
    74
1070
     0
1070
   140
1040
60.0
1070
   145
1040
1.0
1070
   172
1070
     1
1070
   271
1070
     0
1070
   272
1070
     0
1070
   275
1070
     1
1070
   279
1070
     2
1070
   340
1005
9E
1002
}
  0
DIMENSION
  5
73B
330
17
100
AcDbEntity
  8
SUNPOU
100
AcDbDimension
  2
*D65
 10
4027.96097767145
 20
3378.184291065701
 30
0.0
 11
3012.96097767145
 21
3438.184291065701
 31
0.0
 70
   160
 71
     5
 42
-1.0
  3
STANDARD
100
AcDbAlignedDimension
 13
1747.96097767145
 23
3427.625067866913
 33
0.0
 14
4027.96097767145
 24
3477.065844668125
 34
0.0
100
AcDbRotatedDimension
1001
ACAD
1000
DSTYLE
1002
{
1070
   287
1070
     5
1070
   287
1070
     5
1070
   287
1070
     5
1070
    41
1040
40.0
1070
    42
1040
40.0
1070
    43
1040
140.0
1070
    44
1040
20.0
1070
    73
1070
     0
1070
    74
1070
     0
1070
   140
1040
60.0
1070
   145
1040
1.0
1070
   172
1070
     1
1070
   271
1070
     0
1070
   272
1070
     0
1070
   275
1070
     1
1070
   279
1070
     2
1070
   340
1005
9E
1002
}
  0
DIMENSION
  5
73E
330
17
100
AcDbEntity
  8
SUNPOU
100
AcDbDimension
  2
*D59
 10
5098.032434938416
 20
3984.99632079107
 30
0.0
 11
5038.032434938415
 21
4484.996320791071
 31
0.0
 70
    32
 71
     5
 42
-1.0
  3
STANDARD
100
AcDbAlignedDimension
 13
4247.96097767145
 23
4984.99632079107
 33
0.0
 14
4247.96097767145
 24
3984.99632079107
 34
0.0
 50
90.0
100
AcDbRotatedDimension
1001
ACAD
1000
DSTYLE
1002
{
1070
   287
1070
     5
1070
   287
1070
     5
1070
   287
1070
     5
1070
    41
1040
40.0
1070
    42
1040
40.0
1070
    43
1040
140.0
1070
    44
1040
20.0
1070
    73
1070
     0
1070
    74
1070
     0
1070
   140
1040
60.0
1070
   145
1040
1.0
1070
   172
1070
     1
1070
   271
1070
     0
1070
   272
1070
     0
1070
   275
1070
     1
1070
   279
1070
     2
1070
   340
1005
9E
1002
}
  0
DIMENSION
  5
73F
330
17
100
AcDbEntity
  8
SUNPOU
100
AcDbDimension
  2
*D85
 10
4880.88079932299
 20
4204.99632079107
 30
0.0
 11
4820.880799322989
 21
4094.99632079107
 31
0.0
 70
    32
 71
     5
 42
-1.0
  3
STANDARD
100
AcDbAlignedDimension
 13
4247.96097767145
 23
3984.99632079107
 33
0.0
 14
4247.96097767145
 24
4204.99632079107
 34
0.0
 50
90.0
100
AcDbRotatedDimension
1001
ACAD
1000
DSTYLE
1002
{
1070
   287
1070
     5
1070
   287
1070
     5
1070
   287
1070
     5
1070
    41
1040
40.0
1070
    42
1040
40.0
1070
    43
1040
140.0
1070
    44
1040
20.0
1070
    73
1070
     0
1070
    74
1070
     0
1070
   140
1040
60.0
1070
   145
1040
1.0
1070
   172
1070
     1
1070
   271
1070
     0
1070
   272
1070
     0
1070
   275
1070
     1
1070
   279
1070
     2
1070
   340
1005
9E
1002
}
  0
DIMENSION
  5
740
330
17
100
AcDbEntity
  8
SUNPOU
100
AcDbDimension
  2
*D58
 10
4880.88079932299
 20
4984.99632079107
 30
0.0
 11
4820.880799322989
 21
4594.996320791071
 31
0.0
 70
    32
 71
     5
 42
-1.0
  3
STANDARD
100
AcDbAlignedDimension
 13
4722.952337057226
 23
4204.99632079107
 33
0.0
 14
4816.722361527523
 24
4984.99632079107
 34
0.0
 50
90.0
100
AcDbRotatedDimension
1001
ACAD
1000
DSTYLE
1002
{
1070
   287
1070
     5
1070
   287
1070
     5
1070
   287
1070
     5
1070
    41
1040
40.0
1070
    42
1040
40.0
1070
    43
1040
140.0
1070
    44
1040
20.0
1070
    73
1070
     0
1070
    74
1070
     0
1070
   140
1040
60.0
1070
   145
1040
1.0
1070
   172
1070
     1
1070
   271
1070
     0
1070
   272
1070
     0
1070
   275
1070
     1
1070
   279
1070
     2
1070
   340
1005
9E
1002
}
  0
DIMENSION
  5
743
330
17
100
AcDbEntity
  8
SUNPOU
100
AcDbDimension
  2
*D69
 10
1191.001480596815
 20
4104.99632079107
 30
0.0
 11
1131.001480596815
 21
4057.624669825374
 31
0.0
 70
   160
 71
     5
 42
-1.0
  3
STANDARD
100
AcDbAlignedDimension
 13
1747.96097767145
 23
3984.99632079107
 33
0.0
 14
1747.96097767145
 24
4104.99632079107
 34
0.0
 50
90.0
100
AcDbRotatedDimension
1001
ACAD
1000
DSTYLE
1002
{
1070
   287
1070
     5
1070
   287
1070
     5
1070
   287
1070
     5
1070
    41
1040
40.0
1070
    42
1040
40.0
1070
    43
1040
140.0
1070
    44
1040
20.0
1070
    73
1070
     0
1070
    74
1070
     0
1070
   140
1040
60.0
1070
   145
1040
1.0
1070
   172
1070
     1
1070
   271
1070
     0
1070
   272
1070
     0
1070
   275
1070
     1
1070
   279
1070
     2
1070
   340
1005
9E
1002
}
  0
DIMENSION
  5
744
330
17
100
AcDbEntity
  8
SUNPOU
100
AcDbDimension
  2
*D68
 10
1408.153116212241
 20
4054.99632079107
 30
0.0
 11
1348.153116212241
 21
3908.519426943434
 31
0.0
 70
   160
 71
     5
 42
-1.0
  3
STANDARD
100
AcDbAlignedDimension
 13
1747.96097767145
 23
3984.99632079107
 33
0.0
 14
1747.96097767145
 24
4054.99632079107
 34
0.0
 50
90.0
100
AcDbRotatedDimension
1001
ACAD
1000
DSTYLE
1002
{
1070
   287
1070
     5
1070
   287
1070
     5
1070
   287
1070
     5
1070
    41
1040
40.0
1070
    42
1040
40.0
1070
    43
1040
140.0
1070
    44
1040
20.0
1070
    73
1070
     0
1070
    74
1070
     0
1070
   140
1040
60.0
1070
   145
1040
1.0
1070
   172
1070
     1
1070
   271
1070
     0
1070
   272
1070
     0
1070
   275
1070
     1
1070
   279
1070
     2
1070
   340
1005
9E
1002
}
  0
DIMENSION
  5
745
330
17
100
AcDbEntity
  8
SUNPOU
100
AcDbDimension
  2
*D51
 10
1408.153116212241
 20
4104.99632079107
 30
0.0
 11
1348.153116212241
 21
4182.816001790459
 31
0.0
 70
   160
 71
     5
 42
-1.0
  3
STANDARD
100
AcDbAlignedDimension
 13
1437.764702887071
 23
4054.99632079107
 33
0.0
 14
1472.311554007707
 24
4104.99632079107
 34
0.0
 50
90.0
100
AcDbRotatedDimension
1001
ACAD
1000
DSTYLE
1002
{
1070
   287
1070
     5
1070
   287
1070
     5
1070
   287
1070
     5
1070
    41
1040
40.0
1070
    42
1040
40.0
1070
    43
1040
140.0
1070
    44
1040
20.0
1070
    73
1070
     0
1070
    74
1070
     0
1070
   140
1040
60.0
1070
   145
1040
1.0
1070
   172
1070
     1
1070
   271
1070
     0
1070
   272
1070
     0
1070
   275
1070
     1
1070
   279
1070
     2
1070
   340
1005
9E
1002
}
  0
TEXT
  5
747
330
17
100
AcDbEntity
  8
SUNPOU
100
AcDbText
 10
2894.832954375092
 20
3396.108236114574
 30
0.0
 40
60.0
  1
    
  7
A
100
AcDbText
  0
LINE
  5
781
330
17
100
AcDbEntity
  8
SEIHIN
100
AcDbLine
 10
4027.96097767145
 20
6984.99632079107
 30
0.0
 11
1747.96097767145
 21
6984.99632079107
 31
0.0
  0
LINE
  5
782
330
17
100
AcDbEntity
  8
SEIHIN
100
AcDbLine
 10
4247.96097767145
 20
6984.99632079107
 30
0.0
 11
4027.96097767145
 21
6984.99632079107
 31
0.0
  0
LINE
  5
783
330
17
100
AcDbEntity
  8
SEIHIN
100
AcDbLine
 10
2517.96097767145
 20
4984.99632079107
 30
0.0
 11
2517.96097767145
 21
5159.99632079107
 31
0.0
  0
LINE
  5
784
330
17
100
AcDbEntity
  8
SEIHIN
100
AcDbLine
 10
2577.96097767145
 20
4984.99632079107
 30
0.0
 11
2577.96097767145
 21
5159.99632079107
 31
0.0
  0
LINE
  5
785
330
17
100
AcDbEntity
  8
SEIHIN
100
AcDbLine
 10
2577.96097767145
 20
5159.99632079107
 30
0.0
 11
2517.96097767145
 21
5159.99632079107
 31
0.0
  0
LINE
  5
786
330
17
100
AcDbEntity
  8
SEIHIN
100
AcDbLine
 10
3577.96097767145
 20
4984.996320791071
 30
0.0
 11
3577.96097767145
 21
5159.996320791071
 31
0.0
  0
LINE
  5
787
330
17
100
AcDbEntity
  8
SEIHIN
100
AcDbLine
 10
3577.96097767145
 20
5159.996320791071
 30
0.0
 11
3517.96097767145
 21
5159.996320791071
 31
0.0
  0
LINE
  5
788
330
17
100
AcDbEntity
  8
SEIHIN
100
AcDbLine
 10
3517.96097767145
 20
4984.996320791071
 30
0.0
 11
3517.96097767145
 21
5159.996320791071
 31
0.0
  0
LWPOLYLINE
  5
7D5
330
17
100
AcDbEntity
  8
SEIHIN
100
AcDbPolyline
 90
        4
 70
     0
 43
0.0
 10
2517.96097767145
 20
4984.99632079107
 10
2517.96097767145
 20
4809.99632079107
 10
2577.96097767145
 20
4809.99632079107
 10
2577.96097767145
 20
4984.99632079107
  0
LWPOLYLINE
  5
7DB
330
17
100
AcDbEntity
  8
SEIHIN
100
AcDbPolyline
 90
        4
 70
     0
 43
0.0
 10
2507.96097767145
 20
4984.99632079107
 10
2507.96097767145
 20
4799.99632079107
 10
2587.96097767145
 20
4799.99632079107
 10
2587.96097767145
 20
4984.99632079107
  0
LWPOLYLINE
  5
7E1
330
17
100
AcDbEntity
  8
SEIHIN
100
AcDbPolyline
 90
        4
 70
     0
 43
0.0
 10
2492.96097767145
 20
4984.99632079107
 10
2492.96097767145
 20
4784.99632079107
 10
2602.96097767145
 20
4784.99632079107
 10
2602.96097767145
 20
4984.99632079107
  0
LWPOLYLINE
  5
7E7
330
17
100
AcDbEntity
  8
SEIHIN
100
AcDbPolyline
 90
        4
 70
     0
 43
0.0
 10
3577.96097767145
 20
4984.996320791069
 10
3577.960977671449
 20
4809.996320791069
 10
3517.96097767145
 20
4809.996320791069
 10
3517.960977671449
 20
4984.996320791069
  0
LWPOLYLINE
  5
7ED
330
17
100
AcDbEntity
  8
SEIHIN
100
AcDbPolyline
 90
        4
 70
     0
 43
0.0
 10
3587.96097767145
 20
4984.996320791069
 10
3587.96097767145
 20
4799.996320791069
 10
3507.96097767145
 20
4799.996320791069
 10
3507.960977671449
 20
4984.996320791069
  0
LWPOLYLINE
  5
7F3
330
17
100
AcDbEntity
  8
SEIHIN
100
AcDbPolyline
 90
        4
 70
     0
 43
0.0
 10
3602.96097767145
 20
4984.996320791069
 10
3602.960977671449
 20
4784.996320791069
 10
3492.96097767145
 20
4784.996320791069
 10
3492.960977671449
 20
4984.996320791069
  0
LINE
  5
7F9
330
17
100
AcDbEntity
  8
SEIHIN
100
AcDbLine
 10
2492.96097767145
 20
4784.996320791069
 30
0.0
 11
2507.96097767145
 21
4799.99632079107
 31
0.0
  0
LINE
  5
7FA
330
17
100
AcDbEntity
  8
SEIHIN
100
AcDbLine
 10
2587.96097767145
 20
4799.99632079107
 30
0.0
 11
2602.96097767145
 21
4784.996320791069
 31
0.0
  0
LINE
  5
7FB
330
17
100
AcDbEntity
  8
SEIHIN
100
AcDbLine
 10
3492.96097767145
 20
4784.996320791069
 30
0.0
 11
3507.96097767145
 21
4799.996320791069
 31
0.0
  0
LINE
  5
7FC
330
17
100
AcDbEntity
  8
SEIHIN
100
AcDbLine
 10
3587.96097767145
 20
4799.996320791069
 30
0.0
 11
3602.96097767145
 21
4784.996320791069
 31
0.0
  0
TEXT
  5
83C
330
17
100
AcDbEntity
  8
SUNPOU
100
AcDbText
 10
2820.075858805928
 20
4155.631763183543
 30
0.0
 40
60.0
  1
    
  7
A
100
AcDbText
  0
TEXT
  5
83F
330
17
100
AcDbEntity
  8
SUNPOU
100
AcDbText
 10
3221.06147140403
 20
4046.76911207157
 30
0.0
 40
60.0
  1
    
  7
A
100
AcDbText
  0
TEXT
  5
845
330
17
100
AcDbEntity
  8
SUNPOU
100
AcDbText
 10
2235.399243958018
 20
4133.985127297313
 30
0.0
 40
60.0
  1
    
  7
A
100
AcDbText
  0
TEXT
  5
848
330
17
100
AcDbEntity
  8
SUNPOU
100
AcDbText
 10
2745.527423258528
 20
4082.252141712426
 30
0.0
 40
60.0
  1
   
  7
A
100
AcDbText
  0
TEXT
  5
84C
330
17
100
AcDbEntity
  8
SUNPOU
100
AcDbText
 10
2235.399243958018
 20
4069.921404744181
 30
0.0
 40
60.0
  1
    
  7
A
100
AcDbText
  0
TEXT
  5
855
330
17
100
AcDbEntity
  8
SUNPOU
100
AcDbText
 10
3486.777349761856
 20
3899.113594070004
 30
0.0
 40
60.0
  1
   
  7
A
100
AcDbText
  0
LINE
  5
887
330
17
100
AcDbEntity
  8
SEIHIN
100
AcDbLine
 10
7268.69597814597
 20
4074.885293841293
 30
0.0
 11
7268.69597814597
 21
4065.885293841293
 31
0.0
  0
LINE
  5
888
330
17
100
AcDbEntity
  8
SEIHIN
100
AcDbLine
 10
7268.69597814597
 20
4065.885293841293
 30
0.0
 11
7618.69597814597
 21
4065.885293841294
 31
0.0
  0
LINE
  5
889
330
17
100
AcDbEntity
  8
SEIHIN
100
AcDbLine
 10
7618.69597814597
 20
4065.885293841294
 30
0.0
 11
7618.69597814597
 21
4074.885293841294
 31
0.0
  0
LINE
  5
88A
330
17
100
AcDbEntity
  8
SEIHIN
100
AcDbLine
 10
7268.69597814597
 20
4074.885293841293
 30
0.0
 11
7618.69597814597
 21
4074.885293841294
 31
0.0
  0
LINE
  5
88B
330
17
100
AcDbEntity
  8
SEIHIN
100
AcDbLine
 10
7268.69597814597
 20
4065.885293841293
 30
0.0
 11
7258.69597814597
 21
4065.885293841293
 31
0.0
  0
LINE
  5
88C
330
17
100
AcDbEntity
  8
SEIHIN
100
AcDbLine
 10
7258.69597814597
 20
4065.885293841293
 30
0.0
 11
7242.097506974042
 21
4104.99632079107
 31
0.0
  0
LINE
  5
88E
330
17
100
AcDbEntity
  8
SUNPOU
100
AcDbLine
 10
7288.69597814597
 20
4089.885293841293
 30
0.0
 11
7328.69597814597
 21
4089.885293841293
 31
0.0
  0
LINE
  5
88F
330
17
100
AcDbEntity
  8
SUNPOU
100
AcDbLine
 10
7298.69597814597
 20
4089.885293841293
 30
0.0
 11
7298.69597814597
 21
4054.99632079107
 31
0.0
  0
LINE
  5
890
330
17
100
AcDbEntity
  8
SUNPOU
100
AcDbLine
 10
7318.69597814597
 20
4089.885293841293
 30
0.0
 11
7318.695978145972
 21
4054.99632079107
 31
0.0
  0
LINE
  5
891
330
17
100
AcDbEntity
  8
SUNPOU
100
AcDbLine
 10
7358.69597814597
 20
4089.885293841293
 30
0.0
 11
7358.69597814597
 21
4054.99632079107
 31
0.0
  0
LINE
  5
892
330
17
100
AcDbEntity
  8
SUNPOU
100
AcDbLine
 10
7378.69597814597
 20
4089.885293841293
 30
0.0
 11
7378.69597814597
 21
4054.99632079107
 31
0.0
  0
LINE
  5
893
330
17
100
AcDbEntity
  8
SUNPOU
100
AcDbLine
 10
7508.69597814597
 20
4089.885293841294
 30
0.0
 11
7508.69597814597
 21
4065.885293841294
 31
0.0
  0
LINE
  5
894
330
17
100
AcDbEntity
  8
SUNPOU
100
AcDbLine
 10
7528.69597814597
 20
4089.885293841294
 30
0.0
 11
7528.69597814597
 21
4065.885293841294
 31
0.0
  0
LINE
  5
895
330
17
100
AcDbEntity
  8
SUNPOU
100
AcDbLine
 10
7568.695978145972
 20
4089.885293841294
 30
0.0
 11
7568.69597814597
 21
4065.885293841294
 31
0.0
  0
LINE
  5
896
330
17
100
AcDbEntity
  8
SUNPOU
100
AcDbLine
 10
7588.69597814597
 20
4089.885293841294
 30
0.0
 11
7588.69597814597
 21
4065.885293841294
 31
0.0
  0
LINE
  5
897
330
17
100
AcDbEntity
  8
SUNPOU
100
AcDbLine
 10
7288.69597814597
 20
4089.885293841293
 30
0.0
 11
7288.69597814597
 21
4074.885293841293
 31
0.0
  0
LINE
  5
898
330
17
100
AcDbEntity
  8
SUNPOU
100
AcDbLine
 10
7328.69597814597
 20
4089.885293841293
 30
0.0
 11
7328.69597814597
 21
4074.885293841293
 31
0.0
  0
LINE
  5
899
330
17
100
AcDbEntity
  8
SUNPOU
100
AcDbLine
 10
7348.69597814597
 20
4089.885293841293
 30
0.0
 11
7348.69597814597
 21
4074.885293841293
 31
0.0
  0
LINE
  5
89A
330
17
100
AcDbEntity
  8
SUNPOU
100
AcDbLine
 10
7388.69597814597
 20
4089.885293841293
 30
0.0
 11
7388.69597814597
 21
4074.885293841293
 31
0.0
  0
LINE
  5
89B
330
17
100
AcDbEntity
  8
SUNPOU
100
AcDbLine
 10
7498.69597814597
 20
4089.885293841294
 30
0.0
 11
7498.69597814597
 21
4074.885293841294
 31
0.0
  0
LINE
  5
89C
330
17
100
AcDbEntity
  8
SUNPOU
100
AcDbLine
 10
7538.69597814597
 20
4089.885293841294
 30
0.0
 11
7538.69597814597
 21
4074.885293841294
 31
0.0
  0
LINE
  5
89D
330
17
100
AcDbEntity
  8
SUNPOU
100
AcDbLine
 10
7558.695978145972
 20
4089.885293841294
 30
0.0
 11
7558.69597814597
 21
4074.885293841294
 31
0.0
  0
LINE
  5
89E
330
17
100
AcDbEntity
  8
SUNPOU
100
AcDbLine
 10
7598.69597814597
 20
4089.885293841294
 30
0.0
 11
7598.69597814597
 21
4074.885293841294
 31
0.0
  0
LINE
  5
89F
330
17
100
AcDbEntity
  8
SUNPOU
100
AcDbLine
 10
7348.69597814597
 20
4089.885293841293
 30
0.0
 11
7388.69597814597
 21
4089.885293841293
 31
0.0
  0
LINE
  5
8A0
330
17
100
AcDbEntity
  8
SUNPOU
100
AcDbLine
 10
7498.69597814597
 20
4089.885293841293
 30
0.0
 11
7538.69597814597
 21
4089.885293841294
 31
0.0
  0
LINE
  5
8A1
330
17
100
AcDbEntity
  8
SUNPOU
100
AcDbLine
 10
7558.695978145972
 20
4089.885293841294
 30
0.0
 11
7598.69597814597
 21
4089.885293841294
 31
0.0
  0
LINE
  5
8A6
330
17
100
AcDbEntity
  8
SEIHIN
100
AcDbLine
 10
6528.633951813219
 20
5159.99632079107
 30
0.0
 11
6528.633951813219
 21
4809.99632079107
 31
0.0
  0
LINE
  5
8A7
330
17
100
AcDbEntity
  8
SEIHIN
100
AcDbLine
 10
6528.633951813219
 20
4809.99632079107
 30
0.0
 11
6537.633951813219
 21
4809.99632079107
 31
0.0
  0
LINE
  5
8A8
330
17
100
AcDbEntity
  8
SEIHIN
100
AcDbLine
 10
6537.633951813219
 20
5159.99632079107
 30
0.0
 11
6528.633951813219
 21
5159.99632079107
 31
0.0
  0
LINE
  5
8A9
330
17
100
AcDbEntity
  8
SEIHIN
100
AcDbLine
 10
6537.633951813219
 20
5159.99632079107
 30
0.0
 11
6537.633951813219
 21
4809.99632079107
 31
0.0
  0
LINE
  5
8AA
330
17
100
AcDbEntity
  8
SEIHIN
100
AcDbLine
 10
6528.633951813219
 20
4809.99632079107
 30
0.0
 11
6528.633951813219
 21
4799.99632079107
 31
0.0
  0
LINE
  5
8AB
330
17
100
AcDbEntity
  8
SEIHIN
100
AcDbLine
 10
6528.633951813219
 20
4799.99632079107
 30
0.0
 11
6563.695978145972
 21
4785.757957502573
 31
0.0
  0
LINE
  5
8AC
330
17
100
AcDbEntity
  8
SUNPOU
100
AcDbLine
 10
6552.633951813219
 20
5142.182438784615
 30
0.0
 11
6552.633951813219
 21
5102.182438784615
 31
0.0
  0
LINE
  5
8AD
330
17
100
AcDbEntity
  8
SUNPOU
100
AcDbLine
 10
6552.633951813219
 20
5132.182438784615
 30
0.0
 11
6513.695978145972
 21
5132.182438784615
 31
0.0
  0
LINE
  5
8AE
330
17
100
AcDbEntity
  8
SUNPOU
100
AcDbLine
 10
6552.633951813219
 20
5112.182438784615
 30
0.0
 11
6513.695978145972
 21
5112.182438784615
 31
0.0
  0
LINE
  5
8AF
330
17
100
AcDbEntity
  8
SUNPOU
100
AcDbLine
 10
6552.633951813219
 20
5142.182438784615
 30
0.0
 11
6537.633951813219
 21
5142.182438784615
 31
0.0
  0
LINE
  5
8B0
330
17
100
AcDbEntity
  8
SUNPOU
100
AcDbLine
 10
6552.633951813219
 20
5102.182438784615
 30
0.0
 11
6537.633951813219
 21
5102.182438784615
 31
0.0
  0
LINE
  5
8B1
330
17
100
AcDbEntity
  8
SUNPOU
100
AcDbLine
 10
6552.633951813219
 20
5072.182438784615
 30
0.0
 11
6513.69597814597
 21
5072.182438784615
 31
0.0
  0
LINE
  5
8B2
330
17
100
AcDbEntity
  8
SUNPOU
100
AcDbLine
 10
6552.633951813219
 20
5082.182438784615
 30
0.0
 11
6537.633951813219
 21
5082.182438784615
 31
0.0
  0
LINE
  5
8B3
330
17
100
AcDbEntity
  8
SUNPOU
100
AcDbLine
 10
6552.633951813219
 20
5052.182438784615
 30
0.0
 11
6513.69597814597
 21
5052.182438784615
 31
0.0
  0
LINE
  5
8B4
330
17
100
AcDbEntity
  8
SUNPOU
100
AcDbLine
 10
6552.633951813219
 20
5042.182438784615
 30
0.0
 11
6537.633951813219
 21
5042.182438784615
 31
0.0
  0
LINE
  5
8B5
330
17
100
AcDbEntity
  8
SUNPOU
100
AcDbLine
 10
6552.633951813219
 20
4922.182438784615
 30
0.0
 11
6513.69597814597
 21
4922.182438784615
 31
0.0
  0
LINE
  5
8B6
330
17
100
AcDbEntity
  8
SUNPOU
100
AcDbLine
 10
6552.633951813219
 20
4932.182438784615
 30
0.0
 11
6537.633951813219
 21
4932.182438784615
 31
0.0
  0
LINE
  5
8B7
330
17
100
AcDbEntity
  8
SUNPOU
100
AcDbLine
 10
6552.633951813219
 20
4902.182438784615
 30
0.0
 11
6513.69597814597
 21
4902.182438784615
 31
0.0
  0
LINE
  5
8B8
330
17
100
AcDbEntity
  8
SUNPOU
100
AcDbLine
 10
6552.633951813219
 20
4892.182438784615
 30
0.0
 11
6537.633951813219
 21
4892.182438784615
 31
0.0
  0
LINE
  5
8B9
330
17
100
AcDbEntity
  8
SUNPOU
100
AcDbLine
 10
6552.633951813219
 20
4862.182438784615
 30
0.0
 11
6513.69597814597
 21
4862.182438784615
 31
0.0
  0
LINE
  5
8BA
330
17
100
AcDbEntity
  8
SUNPOU
100
AcDbLine
 10
6552.633951813219
 20
4872.182438784615
 30
0.0
 11
6537.633951813219
 21
4872.182438784615
 31
0.0
  0
LINE
  5
8BB
330
17
100
AcDbEntity
  8
SUNPOU
100
AcDbLine
 10
6552.633951813219
 20
4842.182438784615
 30
0.0
 11
6513.69597814597
 21
4842.182438784615
 31
0.0
  0
LINE
  5
8BC
330
17
100
AcDbEntity
  8
SUNPOU
100
AcDbLine
 10
6552.633951813219
 20
4832.182438784615
 30
0.0
 11
6537.633951813219
 21
4832.182438784615
 31
0.0
  0
LINE
  5
8BD
330
17
100
AcDbEntity
  8
SUNPOU
100
AcDbLine
 10
6552.633951813219
 20
5082.182438784615
 30
0.0
 11
6552.633951813219
 21
5042.182438784615
 31
0.0
  0
LINE
  5
8BE
330
17
100
AcDbEntity
  8
SUNPOU
100
AcDbLine
 10
6552.633951813219
 20
4932.182438784615
 30
0.0
 11
6552.633951813219
 21
4892.182438784615
 31
0.0
  0
LINE
  5
8BF
330
17
100
AcDbEntity
  8
SUNPOU
100
AcDbLine
 10
6552.633951813219
 20
4872.182438784615
 30
0.0
 11
6552.633951813219
 21
4832.182438784615
 31
0.0
  0
SOLID
  5
8DE
330
17
100
AcDbEntity
  8
SUNPOU
100
AcDbTrace
 10
3589.995925135061
 20
5508.010140694679
 30
0.0
 11
3582.480848852265
 21
5496.996448932081
 31
0.0
 12
3619.279462281458
 22
5479.958065964991
 32
0.0
 13
3619.279462281458
 23
5479.958065964991
 33
0.0
  0
LINE
  5
8DF
330
17
100
AcDbEntity
  8
SUNPOU
100
AcDbLine
 10
3586.238386993664
 20
5502.50329481338
 30
0.0
 11
3403.669675572065
 21
5627.077127344665
 31
0.0
  0
LINE
  5
8E0
330
17
100
AcDbEntity
  8
SUNPOU
100
AcDbLine
 10
3403.669675572065
 20
5627.077127344664
 30
0.0
 11
3403.669675572065
 21
5975.858177876266
 31
0.0
  0
TEXT
  5
8E1
330
17
100
AcDbEntity
  8
SUNPOU
100
AcDbText
 10
2948.239675030827
 20
5060.89769486348
 30
0.0
 40
60.0
  1
   
  7
A
100
AcDbText
  0
TEXT
  5
8E2
330
17
100
AcDbEntity
  8
SUNPOU
100
AcDbText
 10
3375.927085376356
 20
5702.103413165284
 30
0.0
 40
60.0
  1
水抜き穴
 50
90.0
  7
A
100
AcDbText
  0
TEXT
  5
8E3
330
17
100
AcDbEntity
  8
SUNPOU
100
AcDbText
 10
2936.794013595641
 20
3974.143023889141
 30
0.0
 40
60.0
  1
   
  7
A
100
AcDbText
  0
TEXT
  5
8EA
330
17
100
AcDbEntity
  8
SUNPOU
100
AcDbText
 10
7282.681355339049
 20
3663.752965077905
 30
0.0
 40
60.0
  1
   
  7
A
100
AcDbText
  0
DIMENSION
  5
8EB
330
17
100
AcDbEntity
  8
SUNPOU
100
AcDbDimension
  2
*D29
 10
7443.69597814597
 20
3182.7651711945
 30
0.0
 11
6943.69597814597
 21
3242.7651711945
 31
0.0
 70
   160
 71
     5
 42
-1.0
  3
STANDARD
100
AcDbAlignedDimension
 13
6443.69597814597
 23
4009.99632079107
 33
0.0
 14
7443.69597814597
 24
3984.99632079107
 34
0.0
100
AcDbRotatedDimension
1001
ACAD
1000
DSTYLE
1002
{
1070
   287
1070
     5
1070
   287
1070
     5
1070
   287
1070
     5
1070
    41
1040
40.0
1070
    42
1040
40.0
1070
    43
1040
140.0
1070
    44
1040
20.0
1070
    73
1070
     0
1070
    74
1070
     0
1070
   140
1040
60.0
1070
   145
1040
1.0
1070
   172
1070
     1
1070
   271
1070
     0
1070
   272
1070
     0
1070
   275
1070
     1
1070
   279
1070
     2
1070
   340
1005
9E
1002
}
  0
DIMENSION
  5
8EC
330
17
100
AcDbEntity
  8
SUNPOU
100
AcDbDimension
  2
*D27
 10
9443.69597814597
 20
3182.7651711945
 30
0.0
 11
8443.69597814597
 21
3242.7651711945
 31
0.0
 70
   160
 71
     5
 42
-1.0
  3
STANDARD
100
AcDbAlignedDimension
 13
7443.69597814597
 23
3984.99632079107
 33
0.0
 14
9443.69597814597
 24
3984.99632079107
 34
0.0
100
AcDbRotatedDimension
1001
ACAD
1000
DSTYLE
1002
{
1070
   287
1070
     5
1070
   287
1070
     5
1070
   287
1070
     5
1070
    41
1040
40.0
1070
    42
1040
40.0
1070
    43
1040
140.0
1070
    44
1040
20.0
1070
    73
1070
     0
1070
    74
1070
     0
1070
   140
1040
60.0
1070
   145
1040
1.0
1070
   172
1070
     1
1070
   271
1070
     0
1070
   272
1070
     0
1070
   275
1070
     1
1070
   279
1070
     2
1070
   340
1005
9E
1002
}
  0
DIMENSION
  5
8F4
330
17
100
AcDbEntity
  8
SUNPOU
100
AcDbDimension
  2
*D40
 10
5455.966578387868
 20
4984.996320791071
 30
0.0
 11
5395.966578387867
 21
4484.996320791071
 31
0.0
 70
    32
 71
     5
 42
-1.0
  3
STANDARD
100
AcDbAlignedDimension
 13
6468.69597814597
 23
3984.996320791068
 33
0.0
 14
6443.695978145972
 24
4984.99632079107
 34
0.0
 50
90.0
100
AcDbRotatedDimension
1001
ACAD
1000
DSTYLE
1002
{
1070
   287
1070
     5
1070
   287
1070
     5
1070
   287
1070
     5
1070
    41
1040
40.0
1070
    42
1040
40.0
1070
    43
1040
140.0
1070
    44
1040
20.0
1070
    73
1070
     0
1070
    74
1070
     0
1070
   140
1040
60.0
1070
   145
1040
1.0
1070
   172
1070
     1
1070
   271
1070
     0
1070
   272
1070
     0
1070
   275
1070
     1
1070
   279
1070
     2
1070
   340
1005
9E
1002
}
  0
DIMENSION
  5
8F5
330
17
100
AcDbEntity
  8
SUNPOU
100
AcDbDimension
  2
*D39
 10
5455.966578387868
 20
6984.996320791071
 30
0.0
 11
5395.966578387866
 21
5984.996320791071
 31
0.0
 70
    32
 71
     5
 42
-1.0
  3
STANDARD
100
AcDbAlignedDimension
 13
6443.695978145972
 23
4984.99632079107
 33
0.0
 14
6443.695978145972
 24
6984.99632079107
 34
0.0
 50
90.0
100
AcDbRotatedDimension
1001
ACAD
1000
DSTYLE
1002
{
1070
   287
1070
     5
1070
   287
1070
     5
1070
   287
1070
     5
1070
    41
1040
40.0
1070
    42
1040
40.0
1070
    43
1040
140.0
1070
    44
1040
20.0
1070
    73
1070
     0
1070
    74
1070
     0
1070
   140
1040
60.0
1070
   145
1040
1.0
1070
   172
1070
     1
1070
   271
1070
     0
1070
   272
1070
     0
1070
   275
1070
     1
1070
   279
1070
     2
1070
   340
1005
9E
1002
}
  0
TEXT
  5
914
330
17
100
AcDbEntity
  8
SUNPOU
100
AcDbText
 10
8825.500345753597
 20
3618.119712766431
 30
0.0
 40
60.0
  1
    
  7
A
100
AcDbText
  0
TEXT
  5
917
330
17
100
AcDbEntity
  8
SUNPOU
100
AcDbText
 10
8825.500345753597
 20
3618.119712766431
 30
0.0
 40
60.0
  1
    
  7
A
100
AcDbText
  0
DIMENSION
  5
919
330
17
100
AcDbEntity
  8
SUNPOU
100
AcDbDimension
  2
*D94
 10
5098.032434938416
 20
4984.99632079107
 30
0.0
 11
5038.032434938415
 21
5984.996320791071
 31
0.0
 70
    32
 71
     5
 42
-1.0
  3
STANDARD
100
AcDbAlignedDimension
 13
4247.96097767145
 23
6984.99632079107
 33
0.0
 14
4247.96097767145
 24
4984.99632079107
 34
0.0
 50
90.0
100
AcDbRotatedDimension
1001
ACAD
1000
DSTYLE
1002
{
1070
   287
1070
     5
1070
   287
1070
     5
1070
   287
1070
     5
1070
    41
1040
40.0
1070
    42
1040
40.0
1070
    43
1040
140.0
1070
    44
1040
20.0
1070
    73
1070
     0
1070
    74
1070
     0
1070
   140
1040
60.0
1070
   145
1040
1.0
1070
   172
1070
     1
1070
   271
1070
     0
1070
   272
1070
     0
1070
   275
1070
     1
1070
   279
1070
     2
1070
   340
1005
9E
1002
}
  0
CIRCLE
  5
925
330
17
100
AcDbEntity
  8
SUNPOU
100
AcDbCircle
 10
3547.96097767145
 20
5119.996320791069
 30
0.0
 40
15.0
  0
CIRCLE
  5
926
330
17
100
AcDbEntity
  8
SUNPOU
100
AcDbCircle
 10
3547.96097767145
 20
5059.996320791069
 30
0.0
 40
15.0
  0
CIRCLE
  5
927
330
17
100
AcDbEntity
  8
SUNPOU
100
AcDbCircle
 10
3547.96097767145
 20
4909.996320791069
 30
0.0
 40
15.0
  0
CIRCLE
  5
928
330
17
100
AcDbEntity
  8
SUNPOU
100
AcDbCircle
 10
3547.96097767145
 20
4849.99632079107
 30
0.0
 40
15.0
  0
CIRCLE
  5
929
330
17
100
AcDbEntity
  8
SUNPOU
100
AcDbCircle
 10
2547.96097767145
 20
5119.99632079107
 30
0.0
 40
15.0
  0
CIRCLE
  5
92A
330
17
100
AcDbEntity
  8
SUNPOU
100
AcDbCircle
 10
2547.96097767145
 20
5059.996320791069
 30
0.0
 40
15.0
  0
CIRCLE
  5
92B
330
17
100
AcDbEntity
  8
SUNPOU
100
AcDbCircle
 10
2547.96097767145
 20
4909.996320791069
 30
0.0
 40
15.0
  0
CIRCLE
  5
92C
330
17
100
AcDbEntity
  8
SUNPOU
100
AcDbCircle
 10
2547.96097767145
 20
4849.996320791071
 30
0.0
 40
15.0
  0
LINE
  5
92D
330
17
100
AcDbEntity
  8
SEIHIN
100
AcDbLine
 10
4247.96097767145
 20
906.0872754162879
 30
0.0
 11
1747.96097767145
 21
906.0872754162883
 31
0.0
  0
LINE
  5
92E
330
17
100
AcDbEntity
  8
SEIHIN
100
AcDbLine
 10
4247.96097767145
 20
1906.087275416288
 30
0.0
 11
4247.96097767145
 21
906.0872754162879
 31
0.0
  0
LINE
  5
92F
330
17
100
AcDbEntity
  8
SEIHIN
100
AcDbLine
 10
4127.216452124005
 20
1906.087275416288
 30
0.0
 11
4027.96097767145
 21
1906.087275416288
 31
0.0
  0
LINE
  5
930
330
17
100
AcDbEntity
  8
SEIHIN
100
AcDbLine
 10
4027.96097767145
 20
1906.087275416288
 30
0.0
 11
4027.96097767145
 21
1426.087275416288
 31
0.0
  0
LINE
  5
931
330
17
100
AcDbEntity
  8
SEIHIN
100
AcDbLine
 10
1747.96097767145
 20
906.0872754162883
 30
0.0
 11
1747.96097767145
 21
976.0872754162883
 31
0.0
  0
LINE
  5
932
330
17
100
AcDbEntity
  8
SEIHIN
100
AcDbLine
 10
1797.96097767145
 20
976.0872754162883
 30
0.0
 11
1797.96097767145
 21
1026.087275416288
 31
0.0
  0
LINE
  5
933
330
17
100
AcDbEntity
  8
SEIHIN
100
AcDbLine
 10
1747.96097767145
 20
976.0872754162883
 30
0.0
 11
1797.96097767145
 21
976.0872754162883
 31
0.0
  0
LINE
  5
935
330
17
100
AcDbEntity
  8
SEIHIN
100
AcDbLine
 10
4247.96097767145
 20
1906.087275416288
 30
0.0
 11
4247.96097767145
 21
2706.087275416288
 31
0.0
  0
LINE
  5
936
330
17
100
AcDbEntity
  8
SEIHIN
100
AcDbLine
 10
1797.96097767145
 20
976.0872754162883
 30
0.0
 11
2157.96097767145
 21
976.0872754162883
 31
0.0
  0
LINE
  5
937
330
17
100
AcDbEntity
  8
SEIHIN
100
AcDbLine
 10
4102.606149005263
 20
1565.520454480175
 30
0.0
 11
4027.96097767145
 21
1551.087275416288
 31
0.0
  0
LINE
  5
938
330
17
100
AcDbEntity
  8
SEIHIN
100
AcDbLine
 10
4108.388299760843
 20
1645.53607604729
 30
0.0
 11
4027.96097767145
 21
1661.087275416288
 31
0.0
  0
LINE
  5
93E
330
17
100
AcDbEntity
  8
SEIHIN
100
AcDbLine
 10
2604.980988205309
 20
1038.354463739246
 30
0.0
 11
2587.894806332728
 21
1000.847862407252
 31
0.0
  0
LINE
  5
93F
330
17
100
AcDbEntity
  8
SEIHIN
100
AcDbLine
 10
2492.481555028671
 20
1029.565445522321
 30
0.0
 11
2508.027149010171
 21
996.2481543939109
 31
0.0
  0
LINE
  5
941
330
17
100
AcDbEntity
  8
HASEN
100
AcDbLine
 10
3535.755987102873
 20
1080.326354170414
 30
0.0
 11
3542.368067372052
 21
965.5165967692512
 31
0.0
  0
LINE
  5
942
330
17
100
AcDbEntity
  8
HASEN
100
AcDbLine
 10
3555.722901433512
 20
1081.47628117375
 30
0.0
 11
3562.334981702688
 21
966.6665237725863
 31
0.0
  0
LINE
  5
943
330
17
100
AcDbEntity
  8
SUNPOU
100
AcDbLine
 10
3524.868485551238
 20
1080.65763853887
 30
0.0
 11
3525.73093080374
 21
1065.682452790892
 31
0.0
  0
LINE
  5
944
330
17
100
AcDbEntity
  8
SUNPOU
100
AcDbLine
 10
3564.802314212513
 20
1082.95749254554
 30
0.0
 11
3565.664759465015
 21
1067.982306797563
 31
0.0
  0
LINE
  5
945
330
17
100
AcDbEntity
  8
SUNPOU
100
AcDbLine
 10
3524.868485551238
 20
1080.65763853887
 30
0.0
 11
3564.802314212513
 21
1082.95749254554
 31
0.0
  0
LINE
  5
946
330
17
100
AcDbEntity
  8
HASEN
100
AcDbLine
 10
3542.368067372052
 20
965.5165967692512
 30
0.0
 11
3562.334981702688
 21
966.6665237725863
 31
0.0
  0
LINE
  5
947
330
17
100
AcDbEntity
  8
SEIHIN
100
AcDbLine
 10
3516.134050873237
 20
1063.899986022504
 30
0.0
 11
3576.034793865148
 21
1067.349767032509
 31
0.0
  0
LINE
  5
948
330
17
100
AcDbEntity
  8
HASEN
100
AcDbLine
 10
2542.289746768638
 20
923.0971161590246
 30
0.0
 11
2562.256661099274
 21
924.2470431623599
 31
0.0
  0
LINE
  5
94A
330
17
100
AcDbEntity
  8
HASEN
100
AcDbLine
 10
2536.899882576921
 20
1019.936650662615
 30
0.0
 11
2542.477028543097
 21
923.0971161590246
 31
0.0
  0
LINE
  5
94B
330
17
100
AcDbEntity
  8
SUNPOU
100
AcDbLine
 10
2526.916425411602
 20
1019.361687160947
 30
0.0
 11
2527.778870664104
 21
1004.386501412969
 31
0.0
  0
LINE
  5
94C
330
17
100
AcDbEntity
  8
HASEN
100
AcDbLine
 10
2556.866796907558
 20
1021.08657766595
 30
0.0
 11
2562.443942873733
 21
924.2470431623601
 31
0.0
  0
LINE
  5
94D
330
17
100
AcDbEntity
  8
SUNPOU
100
AcDbLine
 10
2566.850254072877
 20
1021.661541167617
 30
0.0
 11
2567.712699325379
 21
1006.68635541964
 31
0.0
  0
LINE
  5
94E
330
17
100
AcDbEntity
  8
SEIHIN
100
AcDbLine
 10
2517.795413498785
 20
1003.811537911302
 30
0.0
 11
2577.696156490696
 21
1007.261318921307
 31
0.0
  0
LINE
  5
94F
330
17
100
AcDbEntity
  8
SUNPOU
100
AcDbLine
 10
2526.916425411602
 20
1019.361687160947
 30
0.0
 11
2566.850254072877
 21
1021.661541167617
 31
0.0
  0
LINE
  5
950
330
17
100
AcDbEntity
  8
SEIHIN
100
AcDbLine
 10
2517.608131724326
 20
1003.811537911302
 30
0.0
 11
2518.010606175494
 21
996.8231178955788
 31
0.0
  0
LINE
  5
951
330
17
100
AcDbEntity
  8
SEIHIN
100
AcDbLine
 10
2577.696156490696
 20
1007.261318921307
 30
0.0
 11
2578.098011820102
 21
1000.283649110713
 31
0.0
  0
DIMENSION
  5
962
330
17
100
AcDbEntity
  8
SUNPOU
100
AcDbDimension
  2
*D61
 10
4247.96097767145
 20
324.0016302637777
 30
0.0
 11
2997.96097767145
 21
384.0016302637777
 31
0.0
 70
    32
 71
     5
 42
-1.0
  3
STANDARD
100
AcDbAlignedDimension
 13
1747.96097767145
 23
906.0872754162883
 33
0.0
 14
4247.96097767145
 24
906.0872754162879
 34
0.0
100
AcDbRotatedDimension
1001
ACAD
1000
DSTYLE
1002
{
1070
   287
1070
     5
1070
   287
1070
     5
1070
   287
1070
     5
1070
    41
1040
40.0
1070
    42
1040
40.0
1070
    43
1040
140.0
1070
    44
1040
20.0
1070
    73
1070
     0
1070
    74
1070
     0
1070
   140
1040
60.0
1070
   145
1040
1.0
1070
   172
1070
     1
1070
   271
1070
     0
1070
   272
1070
     0
1070
   275
1070
     1
1070
   279
1070
     2
1070
   340
1005
9E
1002
}
  0
LINE
  5
966
330
17
100
AcDbEntity
  8
HASEN
100
AcDbLine
 10
4127.216452124005
 20
1906.087275416288
 30
0.0
 11
4247.96097767145
 21
1906.087275416288
 31
0.0
  0
DIMENSION
  5
967
330
17
100
AcDbEntity
  8
SUNPOU
100
AcDbDimension
  2
*D72
 10
5039.255193011264
 20
906.0872754162876
 30
0.0
 11
4979.255193011264
 21
1406.087275416289
 31
0.0
 70
    32
 71
     5
 42
-1.0
  3
STANDARD
100
AcDbAlignedDimension
 13
4247.96097767145
 23
1906.087275416288
 33
0.0
 14
4247.96097767145
 24
906.0872754162879
 34
0.0
 50
90.0
100
AcDbRotatedDimension
1001
ACAD
1000
DSTYLE
1002
{
1070
   287
1070
     5
1070
   287
1070
     5
1070
   287
1070
     5
1070
    41
1040
40.0
1070
    42
1040
40.0
1070
    43
1040
140.0
1070
    44
1040
20.0
1070
    73
1070
     0
1070
    74
1070
     0
1070
   140
1040
60.0
1070
   145
1040
1.0
1070
   172
1070
     1
1070
   271
1070
     0
1070
   272
1070
     0
1070
   275
1070
     1
1070
   279
1070
     2
1070
   340
1005
9E
1002
}
  0
TEXT
  5
9E6
330
17
100
AcDbEntity
  8
SUNPOU
100
AcDbText
 10
3524.644095239569
 20
2212.364667320421
 30
0.0
 40
60.0
  1
    
  7
A
100
AcDbText
  0
TEXT
  5
9EA
330
17
100
AcDbEntity
  8
SUNPOU
100
AcDbText
 10
3244.234773003313
 20
2345.418627070887
 30
0.0
 40
60.0
  1
   
  7
A
100
AcDbText
  0
TEXT
  5
9F5
330
17
100
AcDbEntity
  8
SUNPOU
100
AcDbText
 10
1610.152116053044
 20
5526.131554257222
 30
0.0
 40
60.0
  1
    
  7
A
100
AcDbText
  0
TEXT
  5
9FC
330
17
100
AcDbEntity
  8
SUNPOU
100
AcDbText
 10
7103.246850000432
 20
6226.855848581647
 30
0.0
 40
60.0
  1
デザインウォールコーナー左
  7
A
100
AcDbText
  0
TEXT
  5
A01
330
17
100
AcDbEntity
  8
SUNPOU
100
AcDbText
 10
8170.64548061083
 20
4944.328361750451
 30
0.0
 40
60.0
  1
デザインウォールコーナー右
  7
A
100
AcDbText
  0
DIMENSION
  5
A07
330
17
100
AcDbEntity
  8
SUNPOU
100
AcDbDimension
  2
*D9
 10
8243.695978145972
 20
7675.955658636947
 30
0.0
 11
7343.695978145972
 21
7735.955658636947
 31
0.0
 70
    32
 71
     5
 42
-1.0
  3
STANDARD
100
AcDbAlignedDimension
 13
6443.695978145972
 23
6984.996320791066
 33
0.0
 14
8243.695978145972
 24
6934.99632079107
 34
0.0
100
AcDbRotatedDimension
1001
ACAD
1000
DSTYLE
1002
{
1070
   287
1070
     5
1070
   287
1070
     5
1070
   287
1070
     5
1070
    41
1040
40.0
1070
    42
1040
40.0
1070
    43
1040
140.0
1070
    44
1040
20.0
1070
    73
1070
     0
1070
    74
1070
     0
1070
   140
1040
60.0
1070
   145
1040
1.0
1070
   172
1070
     1
1070
   271
1070
     0
1070
   272
1070
     0
1070
   275
1070
     1
1070
   279
1070
     2
1070
   340
1005
9E
1002
}
  0
LINE
  5
A0D
330
17
100
AcDbEntity
  8
SEIHIN
100
AcDbLine
 10
4027.96097767145
 20
1906.087275416288
 30
0.0
 11
4027.96097767145
 21
1426.087275416288
 31
0.0
  0
LINE
  5
A0E
330
17
100
AcDbEntity
  8
SEIHIN
100
AcDbLine
 10
3494.146913099836
 20
1092.301575126945
 30
0.0
 11
3504.629314079113
 21
1053.710739339231
 31
0.0
  0
LINE
  5
A0F
330
17
100
AcDbEntity
  8
SEIHIN
100
AcDbLine
 10
3599.757483929399
 20
1098.985788470589
 30
0.0
 11
3589.56442199835
 21
1059.174401252164
 31
0.0
  0
LINE
  5
A10
330
17
100
AcDbEntity
  8
SEIHIN
100
AcDbLine
 10
3516.134050873237
 20
1063.899986022504
 30
0.0
 11
3516.651518024739
 21
1054.914874573717
 31
0.0
  0
LINE
  5
A11
330
17
100
AcDbEntity
  8
SEIHIN
100
AcDbLine
 10
3576.034793865148
 20
1067.349767032509
 30
0.0
 11
3576.55226101665
 21
1058.364655583722
 31
0.0
  0
LINE
  5
A13
330
17
100
AcDbEntity
  8
SEIHIN
100
AcDbLine
 10
4127.216452124005
 20
4985.087275416288
 30
0.0
 11
4027.96097767145
 21
4985.087275416288
 31
0.0
  0
LINE
  5
A14
330
17
100
AcDbEntity
  8
SEIHIN
100
AcDbLine
 10
1797.96097767145
 20
1026.087275416288
 30
0.0
 11
2447.96097767145
 21
1026.087275416288
 31
0.0
  0
LINE
  5
A15
330
17
100
AcDbEntity
  8
SUNPOU
100
AcDbLine
 10
4179.720116680179
 20
1599.76371877902
 30
0.0
 11
4030.720418576988
 21
1612.371385541597
 31
0.0
  0
LINE
  5
A16
330
17
100
AcDbEntity
  8
HASEN
100
AcDbLine
 10
4178.876975795209
 20
1589.799326502112
 30
0.0
 11
4080.229492253826
 21
1598.146421263306
 31
0.0
  0
LINE
  5
A17
330
17
100
AcDbEntity
  8
SUNPOU
100
AcDbLine
 10
4094.332939784217
 20
1586.917317658945
 30
0.0
 11
4079.386351368856
 21
1588.182028986399
 31
0.0
  0
LINE
  5
A18
330
17
100
AcDbEntity
  8
HASEN
100
AcDbLine
 10
4180.563257565147
 20
1609.728111055927
 30
0.0
 11
4081.915774023764
 21
1618.075205817121
 31
0.0
  0
LINE
  5
A19
330
17
100
AcDbEntity
  8
SUNPOU
100
AcDbLine
 10
4097.705503324094
 20
1626.774886766575
 30
0.0
 11
4082.758914908733
 21
1628.039598094029
 31
0.0
  0
LINE
  5
A1A
330
17
100
AcDbEntity
  8
HASEN
100
AcDbLine
 10
4178.87697579521
 20
1589.799326502112
 30
0.0
 11
4180.563257565147
 21
1609.728111055927
 31
0.0
  0
LINE
  5
A1B
330
17
100
AcDbEntity
  8
SEIHIN
100
AcDbLine
 10
4093.489798899249
 20
1576.952925382038
 30
0.0
 11
4098.548644209062
 21
1636.739279043483
 31
0.0
  0
LINE
  5
A1C
330
17
100
AcDbEntity
  8
SUNPOU
100
AcDbLine
 10
4079.386351368856
 20
1588.182028986399
 30
0.0
 11
4082.758914908733
 21
1628.039598094029
 31
0.0
  0
LINE
  5
A1D
330
17
100
AcDbEntity
  8
SEIHIN
100
AcDbLine
 10
4102.457751948465
 20
1576.194098585565
 30
0.0
 11
4093.489798899249
 21
1576.952925382037
 31
0.0
  0
LINE
  5
A1E
330
17
100
AcDbEntity
  8
SEIHIN
100
AcDbLine
 10
4107.51659725828
 20
1635.98045224701
 30
0.0
 11
4098.548644209062
 21
1636.739279043482
 31
0.0
  0
LINE
  5
A1F
330
17
100
AcDbEntity
  8
SEIHIN
100
AcDbLine
 10
2157.96097767145
 20
976.0872754162883
 30
0.0
 11
3867.96097767145
 21
1074.568950808958
 31
0.0
  0
LINE
  5
A21
330
17
100
AcDbEntity
  8
SEIHIN
100
AcDbLine
 10
3867.96097767145
 20
1074.568950808958
 30
0.0
 11
4082.436285992344
 21
1286.109717668646
 31
0.0
  0
LINE
  5
A22
330
17
100
AcDbEntity
  8
SEIHIN
100
AcDbLine
 10
2447.96097767145
 20
1026.087275416288
 30
0.0
 11
3707.69070740118
 21
1105.817005146018
 31
0.0
  0
LINE
  5
A23
330
17
100
AcDbEntity
  8
SEIHIN
100
AcDbLine
 10
3707.69070740118
 20
1105.817005146018
 30
0.0
 11
4027.96097767145
 21
1426.087275416288
 31
0.0
  0
LINE
  5
A27
330
17
100
AcDbEntity
  8
SEIHIN
100
AcDbLine
 10
1797.96097767145
 20
4105.087275416288
 30
0.0
 11
2447.96097767145
 21
4105.087275416288
 31
0.0
  0
LINE
  5
A28
330
17
100
AcDbEntity
  8
SEIHIN
100
AcDbLine
 10
2447.96097767145
 20
4105.087275416288
 30
0.0
 11
3727.96097767145
 21
4186.099933644135
 31
0.0
  0
LINE
  5
A29
330
17
100
AcDbEntity
  8
SEIHIN
100
AcDbLine
 10
4027.96097767145
 20
4985.087275416287
 30
0.0
 11
4027.96097767145
 21
4505.087275416287
 31
0.0
  0
LINE
  5
A2A
330
17
100
AcDbEntity
  8
SEIHIN
100
AcDbLine
 10
4127.216452124005
 20
4985.087275416287
 30
0.0
 11
4027.96097767145
 21
4985.087275416287
 31
0.0
  0
LINE
  5
A2B
330
17
100
AcDbEntity
  8
SEIHIN
100
AcDbLine
 10
4108.388299760843
 20
4724.536076047289
 30
0.0
 11
4027.96097767145
 21
4740.087275416287
 31
0.0
  0
LINE
  5
A2C
330
17
100
AcDbEntity
  8
SEIHIN
100
AcDbLine
 10
4102.606149005263
 20
4644.520454480175
 30
0.0
 11
4027.96097767145
 21
4630.087275416287
 31
0.0
  0
LINE
  5
A2D
330
17
100
AcDbEntity
  8
SEIHIN
100
AcDbLine
 10
3599.757483929399
 20
4177.985788470589
 30
0.0
 11
3589.56442199835
 21
4138.174401252163
 31
0.0
  0
LINE
  5
A2E
330
17
100
AcDbEntity
  8
SEIHIN
100
AcDbLine
 10
3494.146913099836
 20
4171.301575126945
 30
0.0
 11
3504.629314079113
 21
4132.710739339231
 31
0.0
  0
LINE
  5
A2F
330
17
100
AcDbEntity
  8
SEIHIN
100
AcDbLine
 10
2492.481555028671
 20
4108.565445522321
 30
0.0
 11
2508.027149010171
 21
4075.24815439391
 31
0.0
  0
LINE
  5
A30
330
17
100
AcDbEntity
  8
SEIHIN
100
AcDbLine
 10
2603.888410558655
 20
4114.956100282567
 30
0.0
 11
2587.894806332728
 21
4079.847862407251
 31
0.0
  0
LINE
  5
A31
330
17
100
AcDbEntity
  8
SEIHIN
100
AcDbLine
 10
2508.027149010171
 20
4075.24815439391
 30
0.0
 11
2587.894806332728
 21
4079.847862407251
 31
0.0
  0
LINE
  5
A32
330
17
100
AcDbEntity
  8
SEIHIN
100
AcDbLine
 10
3504.629314079113
 20
4132.710739339231
 30
0.0
 11
3589.56442199835
 21
4138.174401252163
 31
0.0
  0
LINE
  5
A33
330
17
100
AcDbEntity
  8
SEIHIN
100
AcDbLine
 10
4108.388299760843
 20
4724.536076047289
 30
0.0
 11
4102.606149005263
 21
4644.520454480175
 31
0.0
  0
LINE
  5
A34
330
17
100
AcDbEntity
  8
SEIHIN
100
AcDbLine
 10
4027.96097767145
 20
4984.99632079107
 30
0.0
 11
4027.96097767145
 21
4505.087275416287
 31
0.0
  0
DIMENSION
  5
A35
330
17
100
AcDbEntity
  8
SUNPOU
100
AcDbDimension
  2
*D49
 10
3727.960977671449
 20
4762.41841667386
 30
0.0
 11
3877.960977671449
 21
4822.41841667386
 31
0.0
 70
    32
 71
     5
 42
-1.0
  3
STANDARD
100
AcDbAlignedDimension
 13
4027.960977671449
 23
4505.087275416287
 33
0.0
 14
3727.960977671449
 24
4204.99632079107
 34
0.0
100
AcDbRotatedDimension
1001
ACAD
1000
DSTYLE
1002
{
1070
   287
1070
     5
1070
   287
1070
     5
1070
   287
1070
     5
1070
    41
1040
40.0
1070
    42
1040
40.0
1070
    43
1040
140.0
1070
    44
1040
20.0
1070
    73
1070
     0
1070
    74
1070
     0
1070
   140
1040
60.0
1070
   145
1040
1.0
1070
   172
1070
     1
1070
   271
1070
     0
1070
   272
1070
     0
1070
   275
1070
     1
1070
   279
1070
     2
1070
   340
1005
9E
1002
}
  0
DIMENSION
  5
A36
330
17
100
AcDbEntity
  8
SUNPOU
100
AcDbDimension
  2
*D50
 10
3521.346311608428
 20
4504.99632079107
 30
0.0
 11
3461.346311608428
 21
4354.996320791071
 31
0.0
 70
    32
 71
     5
 42
-1.0
  3
STANDARD
100
AcDbAlignedDimension
 13
3745.732579869162
 23
4204.996320791071
 33
0.0
 14
4027.960977671449
 24
4504.99632079107
 34
0.0
 50
90.0
100
AcDbRotatedDimension
1001
ACAD
1000
DSTYLE
1002
{
1070
   287
1070
     5
1070
   287
1070
     5
1070
   287
1070
     5
1070
    41
1040
40.0
1070
    42
1040
40.0
1070
    43
1040
140.0
1070
    44
1040
20.0
1070
    73
1070
     0
1070
    74
1070
     0
1070
   140
1040
60.0
1070
   145
1040
1.0
1070
   172
1070
     1
1070
   271
1070
     0
1070
   272
1070
     0
1070
   275
1070
     1
1070
   279
1070
     2
1070
   340
1005
9E
1002
}
  0
LINE
  5
A37
330
17
100
AcDbEntity
  8
SEIHIN
100
AcDbLine
 10
3727.96097767145
 20
4186.099933644135
 30
0.0
 11
4027.96097767145
 21
4505.087275416287
 31
0.0
  0
DIMENSION
  5
A39
330
17
100
AcDbEntity
  8
SUNPOU
100
AcDbDimension
  2
*D54
 10
1797.96097767145
 20
4338.910000229675
 30
0.0
 11
1662.403198899899
 21
4398.910000229675
 31
0.0
 70
   160
 71
     5
 42
-1.0
  3
STANDARD
100
AcDbAlignedDimension
 13
1747.96097767145
 23
4338.910000229675
 33
0.0
 14
1797.96097767145
 24
4338.910000229675
 34
0.0
100
AcDbRotatedDimension
1001
ACAD
1000
DSTYLE
1002
{
1070
   287
1070
     5
1070
   287
1070
     5
1070
   287
1070
     5
1070
    41
1040
40.0
1070
    42
1040
40.0
1070
    43
1040
140.0
1070
    44
1040
20.0
1070
    73
1070
     0
1070
    74
1070
     0
1070
   140
1040
60.0
1070
   145
1040
1.0
1070
   172
1070
     1
1070
   271
1070
     0
1070
   272
1070
     0
1070
   275
1070
     1
1070
   279
1070
     2
1070
   340
1005
9E
1002
}
  0
TEXT
  5
A43
330
17
100
AcDbEntity
  8
SUNPOU
100
AcDbText
 10
1165.300105875949
 20
3259.493618294126
 30
0.0
 40
60.0
  1
    
  7
A
100
AcDbText
  0
DIMENSION
  5
A52
330
17
100
AcDbEntity
  8
SUNPOU
100
AcDbDimension
  2
*D4
 10
10863.97714725798
 20
3984.99632079107
 30
0.0
 11
10803.97714725798
 21
4884.996320791071
 31
0.0
 70
    32
 71
     5
 42
-1.0
  3
STANDARD
100
AcDbAlignedDimension
 13
9393.69597814597
 23
5784.99632079107
 33
0.0
 14
9443.69597814597
 24
3984.99632079107
 34
0.0
 50
90.0
100
AcDbRotatedDimension
1001
ACAD
1000
DSTYLE
1002
{
1070
   287
1070
     5
1070
   287
1070
     5
1070
   287
1070
     5
1070
    41
1040
40.0
1070
    42
1040
40.0
1070
    43
1040
140.0
1070
    44
1040
20.0
1070
    73
1070
     0
1070
    74
1070
     0
1070
   140
1040
60.0
1070
   145
1040
1.0
1070
   172
1070
     1
1070
   271
1070
     0
1070
   272
1070
     0
1070
   275
1070
     1
1070
   279
1070
     2
1070
   340
1005
9E
1002
}
  0
DIMENSION
  5
A56
330
17
100
AcDbEntity
  8
SUNPOU
100
AcDbDimension
  2
*D11
 10
9018.90252213955
 20
6934.996320791066
 30
0.0
 11
8958.90252213955
 21
7056.029111377218
 31
0.0
 70
   160
 71
     5
 42
-1.0
  3
STANDARD
100
AcDbAlignedDimension
 13
6823.695978145972
 23
6984.99632079107
 33
0.0
 14
8243.695978146076
 24
6934.996320791066
 34
0.0
 50
90.0
100
AcDbRotatedDimension
1001
ACAD
1000
DSTYLE
1002
{
1070
   287
1070
     5
1070
   287
1070
     5
1070
   287
1070
     5
1070
    41
1040
40.0
1070
    42
1040
40.0
1070
    43
1040
140.0
1070
    44
1040
20.0
1070
    73
1070
     0
1070
    74
1070
     0
1070
   140
1040
60.0
1070
   145
1040
1.0
1070
   172
1070
     1
1070
   271
1070
     0
1070
   272
1070
     0
1070
   275
1070
     1
1070
   279
1070
     2
1070
   340
1005
9E
1002
}
  0
DIMENSION
  5
A57
330
17
100
AcDbEntity
  8
SUNPOU
100
AcDbDimension
  2
*D12
 10
9018.90252213955
 20
5820.351659850395
 30
0.0
 11
8958.902522139548
 21
6377.673990320732
 31
0.0
 70
    32
 71
     5
 42
-1.0
  3
STANDARD
100
AcDbAlignedDimension
 13
8243.695978146076
 23
6934.996320791066
 33
0.0
 14
8243.695978145972
 24
5820.351659850395
 34
0.0
 50
90.0
100
AcDbRotatedDimension
1001
ACAD
1000
DSTYLE
1002
{
1070
   287
1070
     5
1070
   287
1070
     5
1070
   287
1070
     5
1070
    41
1040
40.0
1070
    42
1040
40.0
1070
    43
1040
140.0
1070
    44
1040
20.0
1070
    73
1070
     0
1070
    74
1070
     0
1070
   140
1040
60.0
1070
   145
1040
1.0
1070
   172
1070
     1
1070
   271
1070
     0
1070
   272
1070
     0
1070
   275
1070
     1
1070
   279
1070
     2
1070
   340
1005
9E
1002
}
  0
DIMENSION
  5
A58
330
17
100
AcDbEntity
  8
SUNPOU
100
AcDbDimension
  2
*D13
 10
9018.90252213955
 20
5784.996320791065
 30
0.0
 11
8958.90252213955
 21
5703.765117869527
 31
0.0
 70
   160
 71
     5
 42
-1.0
  3
STANDARD
100
AcDbAlignedDimension
 13
8936.85114039776
 23
5820.351659850395
 33
0.0
 14
8936.85114039776
 24
5784.996320791065
 34
0.0
 50
90.0
100
AcDbRotatedDimension
1001
ACAD
1000
DSTYLE
1002
{
1070
   287
1070
     5
1070
   287
1070
     5
1070
   287
1070
     5
1070
    41
1040
40.0
1070
    42
1040
40.0
1070
    43
1040
140.0
1070
    44
1040
20.0
1070
    73
1070
     0
1070
    74
1070
     0
1070
   140
1040
60.0
1070
   145
1040
1.0
1070
   172
1070
     1
1070
   271
1070
     0
1070
   272
1070
     0
1070
   275
1070
     1
1070
   279
1070
     2
1070
   340
1005
9E
1002
}
  0
TEXT
  5
A5D
330
17
100
AcDbEntity
  8
SUNPOU
100
AcDbText
 10
7475.274507950128
 20
4996.571921573919
 30
0.0
 40
60.0
  1
    
  7
A
100
AcDbText
  0
LINE
  5
12AE
330
17
100
AcDbEntity
  8
SEIHIN
100
AcDbLine
 10
9393.69597814597
 20
5784.99632079107
 30
0.0
 11
8279.0513172053
 21
5784.99632079107
 31
0.0
  0
LINE
  5
12AF
330
17
100
AcDbEntity
  8
SEIHIN
100
AcDbLine
 10
9443.69597814597
 20
3984.99632079107
 30
0.0
 11
7443.69597814597
 21
3984.99632079107
 31
0.0
  0
LINE
  5
12DE
330
17
100
AcDbEntity
  8
SEIHIN
100
AcDbLine
 10
9443.69597814597
 20
3984.99632079107
 30
0.0
 11
9443.69597814597
 21
4364.99632079107
 31
0.0
  0
LINE
  5
131F
330
17
100
AcDbEntity
  8
SEIHIN
100
AcDbLine
 10
7443.695978145974
 20
3984.99632079107
 30
0.0
 11
7443.69597814597
 21
4364.99632079107
 31
0.0
  0
LINE
  5
1B1E
330
17
100
AcDbEntity
  8
SEIHIN
100
AcDbLine
 10
6468.69597814597
 20
3984.99632079107
 30
0.0
 11
6988.695978145972
 21
4504.996320791071
 31
0.0
  0
LINE
  5
1B1F
330
17
100
AcDbEntity
  8
SEIHIN
100
AcDbLine
 10
6443.69597814597
 20
4009.996320791071
 30
0.0
 11
6963.69597814597
 21
4529.996320791071
 31
0.0
  0
LINE
  5
1B20
330
17
100
AcDbEntity
  8
SEIHIN
100
AcDbLine
 10
6663.695978145972
 20
4984.99632079107
 30
0.0
 11
6663.695978145972
 21
4229.996320791071
 31
0.0
  0
LINE
  5
1B21
330
17
100
AcDbEntity
  8
SEIHIN
100
AcDbLine
 10
6563.695978145972
 20
4984.99632079107
 30
0.0
 11
6563.69597814597
 21
4129.996320791071
 31
0.0
  0
LINE
  5
1B22
330
17
100
AcDbEntity
  8
SEIHIN
100
AcDbLine
 10
6513.695978145972
 20
4984.99632079107
 30
0.0
 11
6513.69597814597
 21
4079.996320791071
 31
0.0
  0
LINE
  5
1B23
330
17
100
AcDbEntity
  8
SEIHIN
100
AcDbLine
 10
7443.69597814597
 20
4504.996320791071
 30
0.0
 11
7443.69597814597
 21
3984.99632079107
 31
0.0
  0
LINE
  5
1B24
330
17
100
AcDbEntity
  8
SEIHIN
100
AcDbLine
 10
6443.695978145972
 20
4984.99632079107
 30
0.0
 11
6443.69597814597
 21
4009.99632079107
 31
0.0
  0
LINE
  5
1B25
330
17
100
AcDbEntity
  8
SEIHIN
100
AcDbLine
 10
7443.69597814597
 20
4204.99632079107
 30
0.0
 11
6688.69597814597
 21
4204.99632079107
 31
0.0
  0
LINE
  5
1B26
330
17
100
AcDbEntity
  8
SEIHIN
100
AcDbLine
 10
7443.695978145972
 20
4104.996320791071
 30
0.0
 11
6588.69597814597
 21
4104.99632079107
 31
0.0
  0
LINE
  5
1B27
330
17
100
AcDbEntity
  8
SEIHIN
100
AcDbLine
 10
7443.69597814597
 20
4054.99632079107
 30
0.0
 11
6538.695978145972
 21
4054.99632079107
 31
0.0
  0
LINE
  5
1B28
330
17
100
AcDbEntity
  8
SEIHIN
100
AcDbLine
 10
7443.69597814597
 20
3984.99632079107
 30
0.0
 11
6468.69597814597
 21
3984.99632079107
 31
0.0
  0
LINE
  5
1B29
330
17
100
AcDbEntity
  8
SEIHIN
100
AcDbLine
 10
6468.69597814597
 20
3984.99632079107
 30
0.0
 11
6443.69597814597
 21
4009.996320791071
 31
0.0
  0
LINE
  5
1B2B
330
17
100
AcDbEntity
  8
SEIHIN
100
AcDbLine
 10
6513.69597814597
 20
4079.99632079107
 30
0.0
 11
6538.69597814597
 21
4054.99632079107
 31
0.0
  0
LINE
  5
1B2C
330
17
100
AcDbEntity
  8
SEIHIN
100
AcDbLine
 10
6563.69597814597
 20
4129.996320791071
 30
0.0
 11
6588.69597814597
 21
4104.99632079107
 31
0.0
  0
LINE
  5
1B2D
330
17
100
AcDbEntity
  8
SEIHIN
100
AcDbLine
 10
6663.69597814597
 20
4229.996320791071
 30
0.0
 11
6688.69597814597
 21
4204.99632079107
 31
0.0
  0
LINE
  5
1B4F
330
17
100
AcDbEntity
  8
1HASEN
100
AcDbLine
 10
6963.695978145966
 20
4984.996320791071
 30
0.0
 11
7443.695978145972
 21
4984.996320791071
 31
0.0
  0
LINE
  5
1B50
330
17
100
AcDbEntity
  8
SEIHIN
100
AcDbLine
 10
7393.69597814597
 20
4934.996320791071
 30
0.0
 11
6963.69597814597
 21
4984.99632079107
 31
0.0
  0
LINE
  5
1B56
330
17
100
AcDbEntity
  8
SEIHIN
100
AcDbLine
 10
7443.69597814597
 20
4504.996320791071
 30
0.0
 11
6988.695978145972
 21
4504.996320791071
 31
0.0
  0
LINE
  5
1B57
330
17
100
AcDbEntity
  8
SEIHIN
100
AcDbLine
 10
6963.695978145972
 20
4984.996320791069
 30
0.0
 11
6963.69597814597
 21
4529.996320791071
 31
0.0
  0
LINE
  5
1B69
330
17
100
AcDbEntity
  8
SEIHIN
100
AcDbLine
 10
6963.69597814597
 20
4529.996320791071
 30
0.0
 11
6988.695978145972
 21
4504.996320791071
 31
0.0
  0
LINE
  5
1B6C
330
17
100
AcDbEntity
  8
SEIHIN
100
AcDbLine
 10
6963.69597814597
 20
4984.996320791071
 30
0.0
 11
6443.695978145972
 21
4984.99632079107
 31
0.0
  0
LINE
  5
1B75
330
17
100
AcDbEntity
  8
1HASEN
100
AcDbLine
 10
7443.69597814597
 20
4504.996320791072
 30
0.0
 11
7443.69597814597
 21
4984.996320791071
 31
0.0
  0
LINE
  5
1B76
330
17
100
AcDbEntity
  8
SEIHIN
100
AcDbLine
 10
7103.695978145974
 20
4968.717251023628
 30
0.0
 11
7103.695978145972
 21
4799.996320791071
 31
0.0
  0
LINE
  5
1B77
330
17
100
AcDbEntity
  8
SEIHIN
100
AcDbLine
 10
7088.695978145974
 20
4970.461437070139
 30
0.0
 11
7088.695978145974
 21
4784.996320791071
 31
0.0
  0
LINE
  5
1B7A
330
17
100
AcDbEntity
  8
SEIHIN
100
AcDbLine
 10
7393.69597814597
 20
4934.996320791071
 30
0.0
 11
7443.69597814597
 21
4504.996320791071
 31
0.0
  0
LINE
  5
1B7B
330
17
100
AcDbEntity
  8
SEIHIN
100
AcDbLine
 10
7243.69597814597
 20
4629.996320791069
 30
0.0
 11
7258.69597814597
 21
4644.996320791069
 31
0.0
  0
LINE
  5
1B7C
330
17
100
AcDbEntity
  8
SEIHIN
100
AcDbLine
 10
7243.695978145974
 20
4739.996320791071
 30
0.0
 11
7243.69597814597
 21
4629.996320791069
 31
0.0
  0
LINE
  5
1B80
330
17
100
AcDbEntity
  8
SEIHIN
100
AcDbLine
 10
7243.69597814597
 20
4629.996320791069
 30
0.0
 11
7429.161094425039
 21
4629.996320791069
 31
0.0
  0
LINE
  5
1B81
330
17
100
AcDbEntity
  8
SEIHIN
100
AcDbLine
 10
7258.69597814597
 20
4644.996320791069
 30
0.0
 11
7427.416908378527
 21
4644.996320791069
 31
0.0
  0
LINE
  5
1B82
330
17
100
AcDbEntity
  8
SEIHIN
100
AcDbLine
 10
7418.114582797134
 20
4724.99632079107
 30
0.0
 11
7258.695978145972
 21
4724.99632079107
 31
0.0
  0
LINE
  5
1B83
330
17
100
AcDbEntity
  8
SEIHIN
100
AcDbLine
 10
7416.370396750623
 20
4739.996320791071
 30
0.0
 11
7243.695978145974
 21
4739.996320791071
 31
0.0
  0
CIRCLE
  5
1B84
330
17
100
AcDbEntity
  8
SUNPOU
100
AcDbCircle
 10
7308.69597814597
 20
4684.99632079107
 30
0.0
 40
15.0
  0
LINE
  5
1B85
330
17
100
AcDbEntity
  8
SEIHIN
100
AcDbLine
 10
7183.695978145974
 20
4799.996320791071
 30
0.0
 11
7198.695978145974
 21
4784.996320791071
 31
0.0
  0
LINE
  5
1B86
330
17
100
AcDbEntity
  8
SEIHIN
100
AcDbLine
 10
7088.695978145974
 20
4784.996320791071
 30
0.0
 11
7103.69597814597
 21
4799.996320791071
 31
0.0
  0
LINE
  5
1B87
330
17
100
AcDbEntity
  8
SEIHIN
100
AcDbLine
 10
7198.695978145974
 20
4784.996320791071
 30
0.0
 11
7198.695978145974
 21
4957.670739395721
 31
0.0
  0
LINE
  5
1B88
330
17
100
AcDbEntity
  8
SEIHIN
100
AcDbLine
 10
7088.695978145974
 20
4784.996320791071
 30
0.0
 11
7198.695978145974
 21
4784.996320791071
 31
0.0
  0
LINE
  5
1B8A
330
17
100
AcDbEntity
  8
SEIHIN
100
AcDbLine
 10
7243.695978145974
 20
4739.996320791071
 30
0.0
 11
7258.695978145972
 21
4724.99632079107
 31
0.0
  0
LINE
  5
1B8B
330
17
100
AcDbEntity
  8
SEIHIN
100
AcDbLine
 10
7258.695978145972
 20
4724.99632079107
 30
0.0
 11
7258.69597814597
 21
4644.996320791069
 31
0.0
  0
LINE
  5
1B8C
330
17
100
AcDbEntity
  8
SEIHIN
100
AcDbLine
 10
7183.695978145974
 20
4799.996320791071
 30
0.0
 11
7183.695978145974
 21
4959.414925442233
 31
0.0
  0
LINE
  5
1B8D
330
17
100
AcDbEntity
  8
SEIHIN
100
AcDbLine
 10
7103.695978145972
 20
4799.996320791071
 30
0.0
 11
7183.695978145974
 21
4799.996320791071
 31
0.0
  0
CIRCLE
  5
1B8E
330
17
100
AcDbEntity
  8
SUNPOU
100
AcDbCircle
 10
7143.695978145974
 20
4849.996320791071
 30
0.0
 40
15.0
  0
CIRCLE
  5
1B8F
330
17
100
AcDbEntity
  8
SUNPOU
100
AcDbCircle
 10
7143.695978145974
 20
4909.996320791071
 30
0.0
 40
15.0
  0
CIRCLE
  5
1B90
330
17
100
AcDbEntity
  8
SUNPOU
100
AcDbCircle
 10
7368.69597814597
 20
4684.99632079107
 30
0.0
 40
15.0
  0
LINE
  5
1BC5
330
17
100
AcDbEntity
  8
SEIHIN
100
AcDbLine
 10
9443.69597814597
 20
4054.99632079107
 30
0.0
 11
7443.69597814597
 21
4054.99632079107
 31
0.0
  0
LINE
  5
1BC6
330
17
100
AcDbEntity
  8
SEIHIN
100
AcDbLine
 10
7443.695978145972
 20
4153.497050757718
 30
0.0
 11
9443.69597814597
 21
4153.49705075772
 31
0.0
  0
LINE
  5
1BC7
330
17
100
AcDbEntity
  8
SEIHIN
100
AcDbLine
 10
7443.695978145972
 20
4364.474650128204
 30
0.0
 11
9443.69597814597
 21
4364.474650128204
 31
0.0
  0
LINE
  5
1CEE
330
17
100
AcDbEntity
  8
SEIHIN
100
AcDbLine
 10
6612.19670811262
 20
6984.996320791069
 30
0.0
 11
6612.196708112622
 21
4984.99632079107
 31
0.0
  0
LINE
  5
1CEF
330
17
100
AcDbEntity
  8
SEIHIN
100
AcDbLine
 10
6823.174307483107
 20
6984.996320791069
 30
0.0
 11
6823.174307483107
 21
4984.99632079107
 31
0.0
  0
LINE
  5
1CF0
330
17
100
AcDbEntity
  8
SEIHIN
100
AcDbLine
 10
6513.695978145972
 20
4984.99632079107
 30
0.0
 11
6513.695978145972
 21
6984.99632079107
 31
0.0
  0
LINE
  5
1CF1
330
17
100
AcDbEntity
  8
SEIHIN
100
AcDbLine
 10
6443.695978145972
 20
4984.99632079107
 30
0.0
 11
6443.695978145972
 21
6984.99632079107
 31
0.0
  0
LINE
  5
1CF2
330
17
100
AcDbEntity
  8
SEIHIN
100
AcDbLine
 10
8243.695978145972
 20
5820.351659850395
 30
0.0
 11
8243.695978145972
 21
6934.99632079107
 31
0.0
  0
LINE
  5
1CF4
330
17
100
AcDbEntity
  8
SEIHIN
100
AcDbLine
 10
6443.695978145972
 20
4984.99632079107
 30
0.0
 11
6823.695978145972
 21
4984.99632079107
 31
0.0
  0
LINE
  5
1CFA
330
17
100
AcDbEntity
  8
SEIHIN
100
AcDbLine
 10
6443.695978145972
 20
6984.996320791066
 30
0.0
 11
6823.695978145972
 21
6984.99632079107
 31
0.0
  0
LINE
  5
1CFD
330
17
100
AcDbEntity
  8
1HASEN
100
AcDbLine
 10
7426.018308616305
 20
4967.318651261406
 30
0.0
 11
8261.373647675635
 21
5802.673990320734
 31
0.0
  0
LINE
  5
1CFE
330
17
100
AcDbEntity
  8
SEIHIN
100
AcDbLine
 10
7431.378683637964
 20
5008.034365342389
 30
0.0
 11
8243.695978145972
 21
5820.351659850395
 31
0.0
  0
LINE
  5
1CFF
330
17
100
AcDbEntity
  8
SEIHIN
100
AcDbLine
 10
7466.734022697292
 20
4972.679026283065
 30
0.0
 11
8279.0513172053
 21
5784.996320791071
 31
0.0
  0
LINE
  5
1E21
330
17
100
AcDbEntity
  8
SEIHIN
100
AcDbLine
 10
7798.73908800273
 20
5587.52680406312
 30
0.0
 11
7841.165494873922
 21
5629.953210934313
 31
0.0
  0
CIRCLE
  5
1E22
330
17
100
AcDbEntity
  8
SUNPOU
100
AcDbCircle
 10
7890.662969556982
 20
5538.029329380061
 30
0.0
 40
15.0
  0
CIRCLE
  5
1E23
330
17
100
AcDbEntity
  8
SUNPOU
100
AcDbCircle
 10
7848.236562685789
 20
5580.455736251254
 30
0.0
 40
15.0
  0
LINE
  5
1E24
330
17
100
AcDbEntity
  8
SEIHIN
100
AcDbLine
 10
7798.73908800273
 20
5587.526804063119
 30
0.0
 11
8046.226461418021
 21
5340.039430647827
 31
0.0
  0
LINE
  5
1E25
330
17
100
AcDbEntity
  8
SEIHIN
100
AcDbLine
 10
7841.165494873922
 20
5629.953210934312
 30
0.0
 11
8088.652868289212
 21
5382.465837519019
 31
0.0
  0
CIRCLE
  5
1E26
330
17
100
AcDbEntity
  8
SUNPOU
100
AcDbCircle
 10
7996.728986734962
 20
5431.963312202079
 30
0.0
 40
15.0
  0
CIRCLE
  5
1E27
330
17
100
AcDbEntity
  8
SUNPOU
100
AcDbCircle
 10
8039.155393606155
 20
5389.536905330886
 30
0.0
 40
15.0
  0
LINE
  5
1E28
330
17
100
AcDbEntity
  8
SEIHIN
100
AcDbLine
 10
8046.226461418021
 20
5340.039430647828
 30
0.0
 11
8088.652868289214
 21
5382.46583751902
 31
0.0
  0
CIRCLE
  5
1E2D
330
17
100
AcDbEntity
  8
SUNPOU
100
AcDbCircle
 10
7548.236562685785
 20
5280.455736251253
 30
0.0
 40
15.0
  0
CIRCLE
  5
1E2E
330
17
100
AcDbEntity
  8
SUNPOU
100
AcDbCircle
 10
7590.662969556977
 20
5238.029329380061
 30
0.0
 40
15.0
  0
LINE
  5
1E2F
330
17
100
AcDbEntity
  8
SEIHIN
100
AcDbLine
 10
7498.739088002727
 20
5287.526804063121
 30
0.0
 11
7541.16549487392
 21
5329.953210934313
 31
0.0
  0
LINE
  5
1E30
330
17
100
AcDbEntity
  8
SEIHIN
100
AcDbLine
 10
7498.739088002727
 20
5287.52680406312
 30
0.0
 11
7746.226461418017
 21
5040.039430647827
 31
0.0
  0
LINE
  5
1E31
330
17
100
AcDbEntity
  8
SEIHIN
100
AcDbLine
 10
7541.16549487392
 20
5329.953210934313
 30
0.0
 11
7788.652868289209
 21
5082.46583751902
 31
0.0
  0
CIRCLE
  5
1E32
330
17
100
AcDbEntity
  8
SUNPOU
100
AcDbCircle
 10
7696.728986734959
 20
5131.963312202079
 30
0.0
 40
15.0
  0
CIRCLE
  5
1E33
330
17
100
AcDbEntity
  8
SUNPOU
100
AcDbCircle
 10
7739.155393606152
 20
5089.536905330886
 30
0.0
 40
15.0
  0
LINE
  5
1E34
330
17
100
AcDbEntity
  8
SEIHIN
100
AcDbLine
 10
7746.226461418017
 20
5040.039430647827
 30
0.0
 11
7788.652868289209
 21
5082.46583751902
 31
0.0
  0
LWPOLYLINE
  5
21B9
330
17
100
AcDbEntity
  8
SEIHIN
100
AcDbPolyline
 90
        4
 70
     1
 43
0.0
 10
7113.695978145974
 20
5159.996320791071
 10
7113.69597814597
 20
4809.996320791071
 10
7173.695978145972
 20
4809.996320791071
 10
7173.695978145974
 20
5159.996320791071
  0
CIRCLE
  5
21BA
330
17
100
AcDbEntity
  8
SUNPOU
100
AcDbCircle
 10
7143.695978145974
 20
5119.996320791071
 30
0.0
 40
15.0
  0
CIRCLE
  5
21BB
330
17
100
AcDbEntity
  8
SUNPOU
100
AcDbCircle
 10
7143.695978145972
 20
5059.996320791071
 30
0.0
 40
15.0
  0
LWPOLYLINE
  5
21BE
330
17
100
AcDbEntity
  8
SEIHIN
100
AcDbPolyline
 90
        4
 70
     1
 43
0.0
 10
7618.69597814597
 20
4714.99632079107
 10
7268.69597814597
 20
4714.99632079107
 10
7268.69597814597
 20
4654.996320791069
 10
7618.69597814597
 20
4654.99632079107
  0
CIRCLE
  5
21BF
330
17
100
AcDbEntity
  8
SUNPOU
100
AcDbCircle
 10
7518.69597814597
 20
4684.99632079107
 30
0.0
 40
15.0
  0
CIRCLE
  5
21C0
330
17
100
AcDbEntity
  8
SUNPOU
100
AcDbCircle
 10
7578.69597814597
 20
4684.99632079107
 30
0.0
 40
15.0
  0
TEXT
  5
21CA
330
17
100
AcDbEntity
  8
SUNPOU
100
AcDbText
 10
6368.235294069516
 20
4368.706634146692
 30
0.0
 40
60.0
  1
デザインウォールコーナー
  7
A
100
AcDbText
  0
LINE
  5
2616
330
17
100
AcDbEntity
  8
SEIHIN
100
AcDbLine
 10
4082.436285992344
 20
1286.109717668646
 30
0.0
 11
4177.96097767145
 21
2606.087275416288
 31
0.0
  0
LINE
  5
261A
330
17
100
AcDbEntity
  8
SEIHIN
100
AcDbLine
 10
4247.96097767145
 20
2706.087275416288
 30
0.0
 11
4177.96097767145
 21
2706.087275416288
 31
0.0
  0
LINE
  5
261B
330
17
100
AcDbEntity
  8
SEIHIN
100
AcDbLine
 10
4177.96097767145
 20
2706.087275416288
 30
0.0
 11
4177.96097767145
 21
2606.087275416288
 31
0.0
  0
LINE
  5
262A
330
17
100
AcDbEntity
  8
SEIHIN
100
AcDbLine
 10
4185.197819776713
 20
5034.996320791077
 30
0.0
 11
4185.197819776717
 21
6934.99632079107
 31
0.0
  0
LINE
  5
262B
330
17
100
AcDbEntity
  8
SEIHIN
100
AcDbLine
 10
4082.396909399795
 20
4984.99632079107
 30
0.0
 11
4082.396909399795
 21
6984.99632079107
 31
0.0
  0
LINE
  5
262C
330
17
100
AcDbEntity
  8
SEIHIN
100
AcDbLine
 10
3868.291834365078
 20
4984.99632079107
 30
0.0
 11
3868.291834365082
 21
6984.99632079107
 31
0.0
  0
LINE
  5
262F
330
17
100
AcDbEntity
  8
SEIHIN
100
AcDbLine
 10
4082.396909399795
 20
4984.99632079107
 30
0.0
 11
4185.197819776713
 21
5034.99632079107
 31
0.0
  0
LINE
  5
2630
330
17
100
AcDbEntity
  8
SEIHIN
100
AcDbLine
 10
4247.96097767145
 20
5034.99632079107
 30
0.0
 11
4185.197819776713
 21
5034.996320791073
 31
0.0
  0
CIRCLE
  5
263A
330
17
100
AcDbEntity
  8
SUNPOU
100
AcDbCircle
 10
3647.96097767145
 20
6484.996320791069
 30
0.0
 40
25.0
  0
CIRCLE
  5
263B
330
17
100
AcDbEntity
  8
SUNPOU
100
AcDbCircle
 10
3647.96097767145
 20
6484.996320791069
 30
0.0
 40
40.0
  0
LINE
  5
2645
330
17
100
AcDbEntity
  8
SEIHIN
100
AcDbLine
 10
4185.197819776713
 20
6934.99632079107
 30
0.0
 11
4082.396909399795
 21
6984.99632079107
 31
0.0
  0
LINE
  5
2646
330
17
100
AcDbEntity
  8
SEIHIN
100
AcDbLine
 10
4247.96097767145
 20
6934.99632079107
 30
0.0
 11
4185.197819776717
 21
6934.996320791073
 31
0.0
  0
CIRCLE
  5
264F
330
17
100
AcDbEntity
  8
SUNPOU
100
AcDbCircle
 10
3647.96097767145
 20
5484.996320791069
 30
0.0
 40
40.0
  0
CIRCLE
  5
2650
330
17
100
AcDbEntity
  8
SUNPOU
100
AcDbCircle
 10
3647.96097767145
 20
5484.996320791069
 30
0.0
 40
25.0
  0
ARC
  5
26CE
330
17
100
AcDbEntity
  8
HASEN
100
AcDbCircle
 10
4027.96097767145
 20
4684.99632079107
 30
0.0
 40
49.0
100
AcDbArc
 50
270.0
 51
90.0
  0
LINE
  5
3CD1
330
17
100
AcDbEntity
  8
SEIHIN
100
AcDbLine
 10
9443.69597814597
 20
4364.474650128206
 30
0.0
 11
9393.695978145972
 21
5684.474650128206
 31
0.0
  0
LINE
  5
3CD2
330
17
100
AcDbEntity
  8
SEIHIN
100
AcDbLine
 10
9393.695978145972
 20
5784.474650128206
 30
0.0
 11
9393.695978145972
 21
5684.474650128206
 31
0.0
  0
LINE
  5
3CD3
330
17
100
AcDbEntity
  8
SEIHIN
100
AcDbLine
 10
7443.695978145972
 20
4364.474650128204
 30
0.0
 11
7466.734022697293
 21
4972.679026283066
 31
0.0
  0
LINE
  5
3CD6
330
17
100
AcDbEntity
  8
SEIHIN
100
AcDbLine
 10
6823.174307483105
 20
6984.996320791068
 30
0.0
 11
8143.174307483106
 21
6934.996320791068
 31
0.0
  0
LINE
  5
3CD7
330
17
100
AcDbEntity
  8
SEIHIN
100
AcDbLine
 10
8243.174307483107
 20
6934.996320791068
 30
0.0
 11
8143.174307483106
 21
6934.996320791068
 31
0.0
  0
LINE
  5
3CD8
330
17
100
AcDbEntity
  8
SEIHIN
100
AcDbLine
 10
6823.174307483107
 20
4984.99632079107
 30
0.0
 11
7431.378683637965
 21
5008.03436534239
 31
0.0
  0
DIMENSION
  5
47D7
330
17
100
AcDbEntity
  8
SUNPOU
100
AcDbDimension
  2
*D132
 10
5244.677194366406
 20
2706.087275416288
 30
0.0
 11
5184.677194366405
 21
1806.087275416289
 31
0.0
 70
    32
 71
     5
 42
1800.0
  3
STANDARD
100
AcDbAlignedDimension
 13
4247.96097767145
 23
906.0872754162879
 33
0.0
 14
4247.96097767145
 24
2706.087275416288
 34
0.0
 50
90.0
100
AcDbRotatedDimension
1001
ACAD
1000
DSTYLE
1002
{
1070
    41
1040
40.0
1070
    42
1040
40.0
1070
    43
1040
140.0
1070
    44
1040
20.0
1070
    73
1070
     0
1070
    74
1070
     0
1070
   140
1040
60.0
1070
   145
1040
1.0
1070
   172
1070
     1
1070
   271
1070
     0
1070
   272
1070
     0
1070
   275
1070
     1
1070
   279
1070
     2
1070
   340
1005
9E
1002
}
  0
ENDSEC
  0
SECTION
  2
OBJECTS
  0
DICTIONARY
  5
C
330
0
100
AcDbDictionary
281
     1
  3
ACAD_CIP_PREVIOUS_PRODUCT_INFO
350
47D5
  3
ACAD_COLOR
350
47B7
  3
ACAD_DETAILVIEWSTYLE
350
47D0
  3
ACAD_GROUP
350
D
  3
ACAD_LAYOUT
350
A65
  3
ACAD_MATERIAL
350
4785
  3
ACAD_MLEADERSTYLE
350
47CC
  3
ACAD_MLINESTYLE
350
1A
  3
ACAD_PLOTSETTINGS
350
A66
  3
ACAD_PLOTSTYLENAME
350
A63
  3
ACAD_SCALELIST
350
47BA
  3
ACAD_SECTIONVIEWSTYLE
350
47CE
  3
ACAD_TABLESTYLE
350
47B8
  3
ACAD_VISUALSTYLE
350
479E
  3
ACDB_RECOMPOSE_DATA
350
4858
  3
ACDBVARIABLEDICTIONARY
350
B3
  3
AcDsDecomposeData
350
4807
  0
DICTIONARY
  5
484D
330
8
100
AcDbDictionary
280
     1
281
     1
  3
ACAD_XREC_ROUNDTRIP
360
484E
  0
DICTIONARY
  5
47F9
330
2
100
AcDbDictionary
280
     1
281
     1
  3
ACAD_LAYERSTATES
360
47FA
  0
DICTIONARY
  5
47E4
330
E
100
AcDbDictionary
280
     1
281
     1
  3
ADSK_XREC_LAYER_RECONCILED
360
47E5
  0
DICTIONARY
  5
47E6
330
A6
100
AcDbDictionary
280
     1
281
     1
  3
ADSK_XREC_LAYER_RECONCILED
360
47E7
  0
DICTIONARY
  5
47E8
330
A7
100
AcDbDictionary
280
     1
281
     1
  3
ADSK_XREC_LAYER_RECONCILED
360
47E9
  0
DICTIONARY
  5
47EA
330
A8
100
AcDbDictionary
280
     1
281
     1
  3
ADSK_XREC_LAYER_RECONCILED
360
47EB
  0
DICTIONARY
  5
47EC
330
A9
100
AcDbDictionary
280
     1
281
     1
  3
ADSK_XREC_LAYER_RECONCILED
360
47ED
  0
DICTIONARY
  5
47EE
330
AA
100
AcDbDictionary
280
     1
281
     1
  3
ADSK_XREC_LAYER_RECONCILED
360
47EF
  0
DICTIONARY
  5
47F0
330
AB
100
AcDbDictionary
280
     1
281
     1
  3
ADSK_XREC_LAYER_RECONCILED
360
47F1
  0
DICTIONARY
  5
47F2
330
AC
100
AcDbDictionary
280
     1
281
     1
  3
ADSK_XREC_LAYER_RECONCILED
360
47F3
  0
DICTIONARY
  5
47F4
330
AD
100
AcDbDictionary
280
     1
281
     1
  3
ADSK_XREC_LAYER_RECONCILED
360
47F5
  0
XRECORD
  5
47D5
102
{ACAD_REACTORS
330
C
102
}
330
C
100
AcDbXrecord
280
     1
300
ACD
300
2014
300
ACD_F_S
  0
DICTIONARY
  5
47B7
102
{ACAD_REACTORS
330
C
102
}
330
C
100
AcDbDictionary
281
     1
  0
DICTIONARY
  5
47D0
102
{ACAD_REACTORS
330
C
102
}
330
C
100
AcDbDictionary
281
     1
  3
Imperial24
350
47D1
  0
DICTIONARY
  5
D
102
{ACAD_REACTORS
330
C
102
}
330
C
100
AcDbDictionary
281
     1
  0
DICTIONARY
  5
A65
102
{ACAD_REACTORS
330
C
102
}
330
C
100
AcDbDictionary
281
     1
  3
Model
350
A67
  3
ﾚｲｱｳﾄ1
350
A68
  0
DICTIONARY
  5
4785
102
{ACAD_REACTORS
330
C
102
}
330
C
100
AcDbDictionary
281
     1
  3
ByBlock
350
478E
  3
ByLayer
350
4786
  3
Global
350
4796
  0
DICTIONARY
  5
47CC
102
{ACAD_REACTORS
330
C
102
}
330
C
100
AcDbDictionary
281
     1
  3
Standard
350
47CD
  0
DICTIONARY
  5
1A
102
{ACAD_REACTORS
330
C
102
}
330
C
100
AcDbDictionary
281
     1
  3
STANDARD
350
1B
  0
DICTIONARY
  5
A66
102
{ACAD_REACTORS
330
C
102
}
330
C
100
AcDbDictionary
281
     1
  0
ACDBDICTIONARYWDFLT
  5
A63
102
{ACAD_REACTORS
330
C
102
}
330
C
100
AcDbDictionary
281
     1
  3
Normal
350
A64
100
AcDbDictionaryWithDefault
340
A64
  0
DICTIONARY
  5
47BA
102
{ACAD_REACTORS
330
C
102
}
330
C
100
AcDbDictionary
281
     1
  3
A0
350
47BB
  3
A1
350
47BC
  3
A2
350
47BD
  3
A3
350
47BE
  3
A4
350
47BF
  3
A5
350
47C0
  3
A6
350
47C1
  3
A7
350
47C2
  3
A8
350
47C3
  3
A9
350
47C4
  3
B0
350
47C5
  3
B1
350
47C6
  3
B2
350
47C7
  3
B3
350
47C8
  3
B4
350
47C9
  3
B5
350
47CA
  3
B6
350
47CB
  0
DICTIONARY
  5
47CE
102
{ACAD_REACTORS
330
C
102
}
330
C
100
AcDbDictionary
281
     1
  3
Imperial24
350
47CF
  0
DICTIONARY
  5
47B8
102
{ACAD_REACTORS
330
C
102
}
330
C
100
AcDbDictionary
281
     1
  3
Standard
350
47B9
  0
DICTIONARY
  5
479E
102
{ACAD_REACTORS
330
C
102
}
330
C
100
AcDbDictionary
281
     1
  3
2dWireframe
350
47A4
  3
Basic
350
47A3
  3
Brighten
350
47AA
  3
ColorChange
350
47AE
  3
Conceptual
350
47A7
  3
Dim
350
47A9
  3
EdgeColorOff
350
47B6
  3
Facepattern
350
47AD
  3
Flat
350
479F
  3
FlatWithEdges
350
47A0
  3
Gouraud
350
47A1
  3
GouraudWithEdges
350
47A2
  3
Hidden
350
47A6
  3
JitterOff
350
47B4
  3
Linepattern
350
47AC
  3
OverhangOff
350
47B5
  3
Realistic
350
47A8
  3
Shaded
350
47B3
  3
Shaded with edges
350
47B2
  3
Shades of Gray
350
47AF
  3
Sketchy
350
47B0
  3
Thicken
350
47AB
  3
Wireframe
350
47A5
  3
X-Ray
350
47B1
  0
XRECORD
  5
4858
102
{ACAD_REACTORS
330
C
102
}
330
C
100
AcDbXrecord
280
     1
 90
        1
330
47B9
  0
DICTIONARY
  5
B3
102
{ACAD_REACTORS
330
C
102
}
330
C
100
AcDbDictionary
281
     1
  3
CANNOSCALE
350
4848
  3
CMLEADERSTYLE
350
4844
  3
CTABLESTYLE
350
4843
  3
CVIEWDETAILSTYLE
350
4845
  3
CVIEWSECTIONSTYLE
350
4846
  3
DIMADEC
350
B4
  3
DIMASSOC
350
368E
  3
LAYEREVAL
350
484A
  3
LAYERNOTIFY
350
484B
  3
LIGHTINGUNITS
350
4849
  3
MSLTSCALE
350
4847
  3
XCLIPFRAME
350
484C
  0
DICTIONARY
  5
4807
102
{ACAD_REACTORS
330
C
102
}
330
C
100
AcDbDictionary
281
     1
  3
AcDsRecords
350
4809
  3
AcDsSchemas
350
4808
1001
ACAD
1070
     2
  0
XRECORD
  5
484E
102
{ACAD_REACTORS
330
484D
102
}
330
484D
100
AcDbXrecord
280
     1
102
VTR_0.000_0.000_1.000_1.000_VISUALSTYLE
340
47A4
102
VTR_0.000_0.000_1.000_1.000_GRIDDISPLAY
 70
     3
102
VTR_0.000_0.000_1.000_1.000_GRIDMAJOR
 70
     5
102
VTR_0.000_0.000_1.000_1.000_DEFAULTLIGHTING
280
     1
102
VTR_0.000_0.000_1.000_1.000_DEFAULTLIGHTINGTYPE
 70
     1
102
VTR_0.000_0.000_1.000_1.000_BRIGHTNESS
141
0.0
102
VTR_0.000_0.000_1.000_1.000_CONTRAST
142
0.0
  0
DICTIONARY
  5
47FA
102
{ACAD_REACTORS
330
47F9
102
}
330
47F9
100
AcDbDictionary
281
     1
  0
XRECORD
  5
47E5
102
{ACAD_REACTORS
330
47E4
102
}
330
47E4
100
AcDbXrecord
280
     1
290
     1
  0
XRECORD
  5
47E7
102
{ACAD_REACTORS
330
47E6
102
}
330
47E6
100
AcDbXrecord
280
     1
290
     1
  0
XRECORD
  5
47E9
102
{ACAD_REACTORS
330
47E8
102
}
330
47E8
100
AcDbXrecord
280
     1
290
     1
  0
XRECORD
  5
47EB
102
{ACAD_REACTORS
330
47EA
102
}
330
47EA
100
AcDbXrecord
280
     1
290
     1
  0
XRECORD
  5
47ED
102
{ACAD_REACTORS
330
47EC
102
}
330
47EC
100
AcDbXrecord
280
     1
290
     1
  0
XRECORD
  5
47EF
102
{ACAD_REACTORS
330
47EE
102
}
330
47EE
100
AcDbXrecord
280
     1
290
     1
  0
XRECORD
  5
47F1
102
{ACAD_REACTORS
330
47F0
102
}
330
47F0
100
AcDbXrecord
280
     1
290
     1
  0
XRECORD
  5
47F3
102
{ACAD_REACTORS
330
47F2
102
}
330
47F2
100
AcDbXrecord
280
     1
290
     1
  0
XRECORD
  5
47F5
102
{ACAD_REACTORS
330
47F4
102
}
330
47F4
100
AcDbXrecord
280
     1
290
     1
  0
ACAD_PROXY_OBJECT
  5
47D1
102
{ACAD_REACTORS
330
47D0
102
}
102
{ACAD_XDICTIONARY
360
4841
102
}
330
47D0
100
AcDbProxyObject
 90
      499
 91
      523
 95
  3276827
 70
     0
 93
     2314
310
9207000000180005C0F42F5A8DC671F815AF46E07A15AE7E07000000180005C0F42F5A8DC671FA3300000018001000000180005C0F42F5A8DC671FA02000000000000741FA028CC00000060002330000001800000852480368038003280390034803080360019001A004AD12801E002E00208031802B003080390010002B00
310
348032803B802A003C803800328010002E0033001000110012803A003180188011001F001280100012801E002E00208031802B003080390010002B00348032803B80220032803A00308034803600248032001F0012802E00280029802180208026002280100012801E002E00208031802B003080390010002B00348032803B
310
802980318030803600328010002E0033001000110012803980370011001F0012802B035E
340
F
340
0
340
13
340
F
340
13
340
13
 94
        0
  0
LAYOUT
  5
A67
102
{ACAD_REACTORS
330
A65
102
}
102
{ACAD_XDICTIONARY
360
480A
102
}
330
A65
100
AcDbPlotSettings
  1

  2
RICOH SP9II RPDL.pc3
  4
A3
  6

 40
5.873749732971191
 41
8.286766052246094
 42
4.222747802734375
 43
5.81024169921875
 44
419.9889831542969
 45
296.989501953125
 46
0.0
 47
0.0
 48
48.25472337849351
 49
-103.1346446281386
140
11698.801779908
141
8243.90060378733
142
1.0
143
30.0
 70
 11936
 72
     1
 73
     0
 74
     4
  7
monochrome.ctb
 75
     0
 76
     0
 77
     2
 78
   300
147
0.0333333333333333
148
-48.25472337849351
149
103.1346446281386
100
AcDbLayout
  1
Model
 70
     1
 71
     0
 10
0.0
 20
0.0
 11
12.0
 21
9.0
 12
0.0
 22
0.0
 32
0.0
 14
0.0
 24
0.0
 34
0.0
 15
0.0
 25
0.0
 35
0.0
146
0.0
 13
0.0
 23
0.0
 33
0.0
 16
1.0
 26
0.0
 36
0.0
 17
0.0
 27
1.0
 37
0.0
 76
     0
330
17
331
4783
  0
LAYOUT
  5
A68
102
{ACAD_REACTORS
330
A65
102
}
330
A65
100
AcDbPlotSettings
  1

  2
C:\PROGRAM FILES\MDT6\plotters\RICOH SP9II RPDL.pc3
  4

  6

 40
0.0
 41
0.0
 42
0.0
 43
0.0
 44
0.0
 45
0.0
 46
0.0
 47
0.0
 48
0.0
 49
0.0
140
0.0
141
0.0
142
1.0
143
1.0
 70
   688
 72
     0
 73
     0
 74
     5
  7
monochrome.ctb
 75
    16
 76
     0
 77
     2
 78
   300
147
1.0
148
0.0
149
0.0
100
AcDbLayout
  1
ﾚｲｱｳﾄ1
 70
     0
 71
     1
 10
0.0
 20
0.0
 11
12.0
 21
9.0
 12
0.0
 22
0.0
 32
0.0
 14
1.000000000000000E+20
 24
1.000000000000000E+20
 34
1.000000000000000E+20
 15
-1.000000000000000E+20
 25
-1.000000000000000E+20
 35
-1.000000000000000E+20
146
0.0
 13
0.0
 23
0.0
 33
0.0
 16
1.0
 26
0.0
 36
0.0
 17
0.0
 27
1.0
 37
0.0
 76
     0
330
14
  0
MATERIAL
  5
478E
102
{ACAD_REACTORS
330
4785
102
}
102
{ACAD_XDICTIONARY
360
484F
102
}
330
4785
100
AcDbMaterial
  1
ByBlock
 72
     0
 73
     2
 43
0.0208333333333333
 43
0.0
 43
0.0
 43
0.0
 43
0.0
 43
0.0208333333333333
 43
0.0
 43
0.0
 43
0.0
 43
0.0
 43
1.0
 43
0.0
 43
0.0
 43
0.0
 43
0.0
 43
1.0
 77
     0
 78
     2
 47
0.0208333333333333
 47
0.0
 47
0.0
 47
0.0
 47
0.0
 47
0.0208333333333333
 47
0.0
 47
0.0
 47
0.0
 47
0.0
 47
1.0
 47
0.0
 47
0.0
 47
0.0
 47
0.0
 47
1.0
171
     0
172
     2
 49
0.0208333333333333
 49
0.0
 49
0.0
 49
0.0
 49
0.0
 49
0.0208333333333333
 49
0.0
 49
0.0
 49
0.0
 49
0.0
 49
1.0
 49
0.0
 49
0.0
 49
0.0
 49
0.0
 49
1.0
175
     0
176
     2
142
0.0208333333333333
142
0.0
142
0.0
142
0.0
142
0.0
142
0.0208333333333333
142
0.0
142
0.0
142
0.0
142
0.0
142
1.0
142
0.0
142
0.0
142
0.0
142
0.0
142
1.0
179
     0
270
     2
144
0.0208333333333333
144
0.0
144
0.0
144
0.0
144
0.0
144
0.0208333333333333
144
0.0
144
0.0
144
0.0
144
0.0
144
1.0
144
0.0
144
0.0
144
0.0
144
0.0
144
1.0
274
     2
147
0.0208333333333333
147
0.0
147
0.0
147
0.0
147
0.0
147
0.0208333333333333
147
0.0
147
0.0
147
0.0
147
0.0
147
1.0
147
0.0
147
0.0
147
0.0
147
0.0
147
1.0
  0
MATERIAL
  5
4786
102
{ACAD_REACTORS
330
4785
102
}
102
{ACAD_XDICTIONARY
360
4851
102
}
330
4785
100
AcDbMaterial
  1
ByLayer
 72
     0
 73
     2
 43
0.0208333333333333
 43
0.0
 43
0.0
 43
0.0
 43
0.0
 43
0.0208333333333333
 43
0.0
 43
0.0
 43
0.0
 43
0.0
 43
1.0
 43
0.0
 43
0.0
 43
0.0
 43
0.0
 43
1.0
 77
     0
 78
     2
 47
0.0208333333333333
 47
0.0
 47
0.0
 47
0.0
 47
0.0
 47
0.0208333333333333
 47
0.0
 47
0.0
 47
0.0
 47
0.0
 47
1.0
 47
0.0
 47
0.0
 47
0.0
 47
0.0
 47
1.0
171
     0
172
     2
 49
0.0208333333333333
 49
0.0
 49
0.0
 49
0.0
 49
0.0
 49
0.0208333333333333
 49
0.0
 49
0.0
 49
0.0
 49
0.0
 49
1.0
 49
0.0
 49
0.0
 49
0.0
 49
0.0
 49
1.0
175
     0
176
     2
142
0.0208333333333333
142
0.0
142
0.0
142
0.0
142
0.0
142
0.0208333333333333
142
0.0
142
0.0
142
0.0
142
0.0
142
1.0
142
0.0
142
0.0
142
0.0
142
0.0
142
1.0
179
     0
270
     2
144
0.0208333333333333
144
0.0
144
0.0
144
0.0
144
0.0
144
0.0208333333333333
144
0.0
144
0.0
144
0.0
144
0.0
144
1.0
144
0.0
144
0.0
144
0.0
144
0.0
144
1.0
274
     2
147
0.0208333333333333
147
0.0
147
0.0
147
0.0
147
0.0
147
0.0208333333333333
147
0.0
147
0.0
147
0.0
147
0.0
147
1.0
147
0.0
147
0.0
147
0.0
147
0.0
147
1.0
  0
MATERIAL
  5
4796
102
{ACAD_REACTORS
330
4785
102
}
102
{ACAD_XDICTIONARY
360
4853
102
}
330
4785
100
AcDbMaterial
  1
Global
 72
     0
 73
     2
 43
0.0208333333333333
 43
0.0
 43
0.0
 43
0.0
 43
0.0
 43
0.0208333333333333
 43
0.0
 43
0.0
 43
0.0
 43
0.0
 43
1.0
 43
0.0
 43
0.0
 43
0.0
 43
0.0
 43
1.0
 77
     0
 78
     2
 47
0.0208333333333333
 47
0.0
 47
0.0
 47
0.0
 47
0.0
 47
0.0208333333333333
 47
0.0
 47
0.0
 47
0.0
 47
0.0
 47
1.0
 47
0.0
 47
0.0
 47
0.0
 47
0.0
 47
1.0
171
     0
172
     2
 49
0.0208333333333333
 49
0.0
 49
0.0
 49
0.0
 49
0.0
 49
0.0208333333333333
 49
0.0
 49
0.0
 49
0.0
 49
0.0
 49
1.0
 49
0.0
 49
0.0
 49
0.0
 49
0.0
 49
1.0
175
     0
176
     2
142
0.0208333333333333
142
0.0
142
0.0
142
0.0
142
0.0
142
0.0208333333333333
142
0.0
142
0.0
142
0.0
142
0.0
142
1.0
142
0.0
142
0.0
142
0.0
142
0.0
142
1.0
179
     0
270
     2
144
0.0208333333333333
144
0.0
144
0.0
144
0.0
144
0.0
144
0.0208333333333333
144
0.0
144
0.0
144
0.0
144
0.0
144
1.0
144
0.0
144
0.0
144
0.0
144
0.0
144
1.0
274
     2
147
0.0208333333333333
147
0.0
147
0.0
147
0.0
147
0.0
147
0.0208333333333333
147
0.0
147
0.0
147
0.0
147
0.0
147
1.0
147
0.0
147
0.0
147
0.0
147
0.0
147
1.0
  0
MLEADERSTYLE
  5
47CD
102
{ACAD_REACTORS
330
47CC
102
}
330
47CC
100
AcDbMLeaderStyle
170
     2
171
     1
172
     0
 90
        2
 40
0.0
 41
0.0
173
     1
 91
-1056964608
340
11
 92
       -2
290
     1
 42
0.09
291
     1
 43
0.36
  3
Standard
341
0
 44
0.18
300

342
F
174
     1
178
     6
175
     1
176
     0
 93
-1056964608
 45
0.18
292
     0
297
     0
 46
0.18
343
0
 94
-1056964608
 47
1.0
 49
1.0
140
1.0
293
     1
141
0.0
294
     1
177
     0
142
1.0
295
     0
296
     0
143
0.125
1001
ACAD_MLEADERVER
1070
     2
  0
MLINESTYLE
  5
1B
102
{ACAD_REACTORS
330
1A
102
}
330
1A
100
AcDbMlineStyle
  2
STANDARD
 70
     0
  3

 62
   256
 51
90.0
 52
90.0
 71
     2
 49
0.5
 62
   256
  6
BYLAYER
 49
-0.5
 62
   256
  6
BYLAYER
  0
ACDBPLACEHOLDER
  5
A64
102
{ACAD_REACTORS
330
A63
102
}
330
A63
  0
SCALE
  5
47BB
102
{ACAD_REACTORS
330
47BA
102
}
330
47BA
100
AcDbScale
 70
     0
300
1:1
140
1.0
141
1.0
290
     1
  0
SCALE
  5
47BC
102
{ACAD_REACTORS
330
47BA
102
}
330
47BA
100
AcDbScale
 70
     0
300
1/128" = 1'-0"
140
0.0078125
141
12.0
290
     0
  0
SCALE
  5
47BD
102
{ACAD_REACTORS
330
47BA
102
}
330
47BA
100
AcDbScale
 70
     0
300
1/64" = 1'-0"
140
0.015625
141
12.0
290
     0
  0
SCALE
  5
47BE
102
{ACAD_REACTORS
330
47BA
102
}
330
47BA
100
AcDbScale
 70
     0
300
1/32" = 1'-0"
140
0.03125
141
12.0
290
     0
  0
SCALE
  5
47BF
102
{ACAD_REACTORS
330
47BA
102
}
330
47BA
100
AcDbScale
 70
     0
300
1/16" = 1'-0"
140
0.0625
141
12.0
290
     0
  0
SCALE
  5
47C0
102
{ACAD_REACTORS
330
47BA
102
}
330
47BA
100
AcDbScale
 70
     0
300
3/32" = 1'-0"
140
0.09375
141
12.0
290
     0
  0
SCALE
  5
47C1
102
{ACAD_REACTORS
330
47BA
102
}
330
47BA
100
AcDbScale
 70
     0
300
1/8" = 1'-0"
140
0.125
141
12.0
290
     0
  0
SCALE
  5
47C2
102
{ACAD_REACTORS
330
47BA
102
}
330
47BA
100
AcDbScale
 70
     0
300
3/16" = 1'-0"
140
0.1875
141
12.0
290
     0
  0
SCALE
  5
47C3
102
{ACAD_REACTORS
330
47BA
102
}
330
47BA
100
AcDbScale
 70
     0
300
1/4" = 1'-0"
140
0.25
141
12.0
290
     0
  0
SCALE
  5
47C4
102
{ACAD_REACTORS
330
47BA
102
}
330
47BA
100
AcDbScale
 70
     0
300
3/8" = 1'-0"
140
0.375
141
12.0
290
     0
  0
SCALE
  5
47C5
102
{ACAD_REACTORS
330
47BA
102
}
330
47BA
100
AcDbScale
 70
     0
300
1/2" = 1'-0"
140
0.5
141
12.0
290
     0
  0
SCALE
  5
47C6
102
{ACAD_REACTORS
330
47BA
102
}
330
47BA
100
AcDbScale
 70
     0
300
3/4" = 1'-0"
140
0.75
141
12.0
290
     0
  0
SCALE
  5
47C7
102
{ACAD_REACTORS
330
47BA
102
}
330
47BA
100
AcDbScale
 70
     0
300
1" = 1'-0"
140
1.0
141
12.0
290
     0
  0
SCALE
  5
47C8
102
{ACAD_REACTORS
330
47BA
102
}
330
47BA
100
AcDbScale
 70
     0
300
1-1/2" = 1'-0"
140
1.5
141
12.0
290
     0
  0
SCALE
  5
47C9
102
{ACAD_REACTORS
330
47BA
102
}
330
47BA
100
AcDbScale
 70
     0
300
3" = 1'-0"
140
3.0
141
12.0
290
     0
  0
SCALE
  5
47CA
102
{ACAD_REACTORS
330
47BA
102
}
330
47BA
100
AcDbScale
 70
     0
300
6" = 1'-0"
140
6.0
141
12.0
290
     0
  0
SCALE
  5
47CB
102
{ACAD_REACTORS
330
47BA
102
}
330
47BA
100
AcDbScale
 70
     0
300
1'-0" = 1'-0"
140
12.0
141
12.0
290
     0
  0
ACAD_PROXY_OBJECT
  5
47CF
102
{ACAD_REACTORS
330
47CE
102
}
102
{ACAD_XDICTIONARY
360
483F
102
}
330
47CE
100
AcDbProxyObject
 90
      499
 91
      522
 95
  3276827
 70
     0
 93
     3814
310
929D000000180005C0F42F5A8DC671FC00000060001703D0BD6A3719C7E5C0F42F5A8DC6F1FA330000001800099400000060001703D0BD6A3719C7E5C0F42F5A8DC671FC00000060001703D0BD6A3719C7E808000000000001D07E80C0000006000400000064003081815AF46E07A158E7E80C8340C16A22A7D90FC9F8CAE6
310
5A70A583A07E1FE81C635378FA1F8CAE65A70A583A17E7944A7F127A97E9FA149200DA00E000CA00E400D200C200D80064006800882480160010002780160010002880160010002980160010002C00160010002D002F84A007800B8008200C600AC00C200E4004000AC00D200CA00EE00A800F200E000CA004000B800CC004
310
00044004A00E800C600620044007C004A0040004A007800B8008200C600AC00C200E4004000AC00D200CA00EE00A600CA00C600E800D200DE00DC00A600E800C200E400E8009200C8007C004A005A004A007800B8008200C600AC00C200E4004000AC00D200CA00EE00A600CA00C600E800D200DE00DC008A00DC00C800920
310
0C8007C004A00B800A000A6008600820098008A0040004A007800B8008200C600AC00C200E4004000AC00D200CA00EE00A600C600C200D800CA004000B800CC00400044004A00E600DC0044007C004A00832080270029802480198018807404C
340
F
340
0
340
0
340
13
340
13
340
F
 94
        0
  0
TABLESTYLE
  5
47B9
102
{ACAD_REACTORS
330
47B8
102
}
102
{ACAD_XDICTIONARY
360
4855
102
}
330
47B8
100
AcDbTableStyle
  3
Standard
 70
     0
 71
     0
 40
0.06
 41
0.06
280
     0
281
     0
  7
STANDARD
140
0.18
170
     2
 62
     0
 63
   257
283
     0
274
    -2
284
     1
 64
     0
275
    -2
285
     1
 65
     0
276
    -2
286
     1
 66
     0
277
    -2
287
     1
 67
     0
278
    -2
288
     1
 68
     0
279
    -2
289
     1
 69
     0
  7
STANDARD
140
0.25
170
     5
 62
     0
 63
   257
283
     0
274
    -2
284
     1
 64
     0
275
    -2
285
     1
 65
     0
276
    -2
286
     1
 66
     0
277
    -2
287
     1
 67
     0
278
    -2
288
     1
 68
     0
279
    -2
289
     1
 69
     0
  7
STANDARD
140
0.18
170
     5
 62
     0
 63
   257
283
     0
274
    -2
284
     1
 64
     0
275
    -2
285
     1
 65
     0
276
    -2
286
     1
 66
     0
277
    -2
287
     1
 67
     0
278
    -2
288
     1
 68
     0
279
    -2
289
     1
 69
     0
  0
VISUALSTYLE
  5
47A4
102
{ACAD_REACTORS
330
479E
102
}
102
{ACAD_XDICTIONARY
360
4859
102
}
330
479E
100
AcDbVisualStyle
  2
2dWireframe
 70
     4
 71
     0
 72
     2
 73
     0
 90
        0
 40
-0.6
 41
-30.0
 62
     5
 63
     7
421
 16777215
 74
     1
 91
        4
 64
     7
 65
   257
 75
     1
175
     1
 42
1.0
 92
        0
 66
   257
 43
1.0
 76
     1
 77
     6
 78
     2
 67
     7
 79
     5
170
     0
171
     0
290
     0
174
     0
 93
        1
 44
0.0
173
     0
291
     0
 45
0.0
1001
ACAD
1000
AcDbSavedByObjectVersion
1070
     0
  0
VISUALSTYLE
  5
47A3
102
{ACAD_REACTORS
330
479E
102
}
102
{ACAD_XDICTIONARY
360
485B
102
}
330
479E
100
AcDbVisualStyle
  2
Basic
 70
     7
 71
     1
 72
     0
 73
     1
 90
        0
 40
-0.6
 41
-30.0
 62
     5
 63
     7
421
 16777215
 74
     0
 91
        4
 64
     7
 65
   257
 75
     1
175
     1
 42
1.0
 92
        8
 66
     7
 43
1.0
 76
     1
 77
     6
 78
     2
 67
     7
 79
     5
170
     0
171
     0
290
     0
174
     0
 93
        1
 44
0.0
173
     0
291
     1
 45
0.0
1001
ACAD
1000
AcDbSavedByObjectVersion
1070
     0
  0
VISUALSTYLE
  5
47AA
102
{ACAD_REACTORS
330
479E
102
}
102
{ACAD_XDICTIONARY
360
485D
102
}
330
479E
100
AcDbVisualStyle
  2
Brighten
 70
    12
 71
     2
 72
     2
 73
     0
 90
        0
 40
-0.6
 41
-30.0
 62
     5
 63
     7
421
 16777215
 74
     1
 91
        4
 64
     7
 65
   257
 75
     1
175
     1
 42
1.0
 92
        8
 66
     7
 43
1.0
 76
     1
 77
     6
 78
     2
 67
     7
 79
     5
170
     0
171
     0
290
     0
174
     0
 93
        1
 44
50.0
173
     0
291
     1
 45
0.0
1001
ACAD
1000
AcDbSavedByObjectVersion
1070
     0
  0
VISUALSTYLE
  5
47AE
102
{ACAD_REACTORS
330
479E
102
}
102
{ACAD_XDICTIONARY
360
485F
102
}
330
479E
100
AcDbVisualStyle
  2
ColorChange
 70
    16
 71
     2
 72
     2
 73
     3
 90
        0
 40
-0.6
 41
-30.0
 62
     5
 63
     8
421
  8421504
 74
     1
 91
        4
 64
     7
 65
   257
 75
     1
175
     1
 42
1.0
 92
        8
 66
     8
424
  8421504
 43
1.0
 76
     1
 77
     6
 78
     2
 67
     7
 79
     5
170
     0
171
     0
290
     0
174
     0
 93
        1
 44
0.0
173
     0
291
     1
 45
0.0
1001
ACAD
1000
AcDbSavedByObjectVersion
1070
     0
  0
VISUALSTYLE
  5
47A7
102
{ACAD_REACTORS
330
479E
102
}
102
{ACAD_XDICTIONARY
360
4861
102
}
330
479E
100
AcDbVisualStyle
  2
Conceptual
 70
     9
 71
     3
 72
     2
 73
     0
 90
        0
 40
-0.6
 41
-30.0
 62
     5
 63
     7
421
 16777215
 74
     2
 91
        2
 64
     7
 65
   257
 75
     1
175
     1
 42
179.0
 92
        8
 66
     7
 43
1.0
 76
     1
 77
     6
 78
     2
 67
     7
 79
     3
170
     0
171
     0
290
     0
174
     0
 93
        1
 44
0.0
173
     0
291
     0
 45
0.0
1001
ACAD
1000
AcDbSavedByObjectVersion
1070
     0
  0
VISUALSTYLE
  5
47A9
102
{ACAD_REACTORS
330
479E
102
}
102
{ACAD_XDICTIONARY
360
4863
102
}
330
479E
100
AcDbVisualStyle
  2
Dim
 70
    11
 71
     2
 72
     2
 73
     0
 90
        0
 40
-0.6
 41
-30.0
 62
     5
 63
     7
421
 16777215
 74
     1
 91
        4
 64
     7
 65
   257
 75
     1
175
     1
 42
1.0
 92
        8
 66
     7
 43
1.0
 76
     1
 77
     6
 78
     2
 67
     7
 79
     5
170
     0
171
     0
290
     0
174
     0
 93
        1
 44
-50.0
173
     0
291
     1
 45
0.0
1001
ACAD
1000
AcDbSavedByObjectVersion
1070
     0
  0
VISUALSTYLE
  5
47B6
102
{ACAD_REACTORS
330
479E
102
}
102
{ACAD_XDICTIONARY
360
4865
102
}
330
479E
100
AcDbVisualStyle
  2
EdgeColorOff
 70
    22
 71
     2
 72
     2
 73
     0
 90
        0
 40
-0.6
 41
-30.0
 62
     5
 63
     7
421
 16777215
 74
     1
 91
        4
 64
     7
 65
   257
 75
     1
175
     1
 42
1.0
 92
        8
 66
     7
 43
1.0
 76
     1
 77
     6
 78
     2
 67
     7
 79
     5
170
     0
171
     0
290
     0
174
     0
 93
        1
 44
0.0
173
     0
291
     1
 45
0.0
1001
ACAD
1000
AcDbSavedByObjectVersion
1070
     0
  0
VISUALSTYLE
  5
47AD
102
{ACAD_REACTORS
330
479E
102
}
102
{ACAD_XDICTIONARY
360
4867
102
}
330
479E
100
AcDbVisualStyle
  2
Facepattern
 70
    15
 71
     2
 72
     2
 73
     0
 90
        0
 40
-0.6
 41
-30.0
 62
     5
 63
     7
421
 16777215
 74
     1
 91
        4
 64
     7
 65
   257
 75
     1
175
     1
 42
1.0
 92
        8
 66
     7
 43
1.0
 76
     1
 77
     6
 78
     2
 67
     7
 79
     5
170
     0
171
     0
290
     0
174
     0
 93
        1
 44
0.0
173
     0
291
     1
 45
0.0
1001
ACAD
1000
AcDbSavedByObjectVersion
1070
     0
  0
VISUALSTYLE
  5
479F
102
{ACAD_REACTORS
330
479E
102
}
102
{ACAD_XDICTIONARY
360
4869
102
}
330
479E
100
AcDbVisualStyle
  2
Flat
 70
     0
 71
     2
 72
     1
 73
     1
 90
        2
 40
-0.6
 41
30.0
 62
     5
 63
     7
421
 16777215
 74
     0
 91
        0
 64
     7
 65
   257
 75
     1
175
     1
 42
1.0
 92
        8
 66
     7
 43
1.0
 76
     1
 77
     6
 78
     2
 67
     7
 79
     5
170
     0
171
     0
290
     0
174
     0
 93
       13
 44
0.0
173
     0
291
     1
 45
0.0
1001
ACAD
1000
AcDbSavedByObjectVersion
1070
     0
  0
VISUALSTYLE
  5
47A0
102
{ACAD_REACTORS
330
479E
102
}
102
{ACAD_XDICTIONARY
360
486B
102
}
330
479E
100
AcDbVisualStyle
  2
FlatWithEdges
 70
     1
 71
     2
 72
     1
 73
     1
 90
        2
 40
-0.6
 41
30.0
 62
     5
 63
     7
421
 16777215
 74
     1
 91
        0
 64
     7
 65
   257
 75
     1
175
     1
 42
1.0
 92
        0
 66
   257
 43
1.0
 76
     1
 77
     6
 78
     2
 67
     7
 79
     5
170
     0
171
     0
290
     0
174
     0
 93
       13
 44
0.0
173
     0
291
     1
 45
0.0
1001
ACAD
1000
AcDbSavedByObjectVersion
1070
     0
  0
VISUALSTYLE
  5
47A1
102
{ACAD_REACTORS
330
479E
102
}
102
{ACAD_XDICTIONARY
360
486D
102
}
330
479E
100
AcDbVisualStyle
  2
Gouraud
 70
     2
 71
     2
 72
     2
 73
     1
 90
        2
 40
-0.6
 41
30.0
 62
     5
 63
     7
421
 16777215
 74
     0
 91
        0
 64
     7
 65
   257
 75
     1
175
     1
 42
1.0
 92
        0
 66
     7
 43
1.0
 76
     1
 77
     6
 78
     2
 67
     7
 79
     5
170
     0
171
     0
290
     0
174
     0
 93
       13
 44
0.0
173
     0
291
     1
 45
0.0
1001
ACAD
1000
AcDbSavedByObjectVersion
1070
     0
  0
VISUALSTYLE
  5
47A2
102
{ACAD_REACTORS
330
479E
102
}
102
{ACAD_XDICTIONARY
360
486F
102
}
330
479E
100
AcDbVisualStyle
  2
GouraudWithEdges
 70
     3
 71
     2
 72
     2
 73
     1
 90
        2
 40
-0.6
 41
30.0
 62
     5
 63
     7
421
 16777215
 74
     1
 91
        0
 64
     7
 65
   257
 75
     1
175
     1
 42
1.0
 92
        0
 66
   257
 43
1.0
 76
     1
 77
     6
 78
     2
 67
     7
 79
     5
170
     0
171
     0
290
     0
174
     0
 93
       13
 44
0.0
173
     0
291
     1
 45
0.0
1001
ACAD
1000
AcDbSavedByObjectVersion
1070
     0
  0
VISUALSTYLE
  5
47A6
102
{ACAD_REACTORS
330
479E
102
}
102
{ACAD_XDICTIONARY
360
4871
102
}
330
479E
100
AcDbVisualStyle
  2
Hidden
 70
     6
 71
     1
 72
     2
 73
     2
 90
        0
 40
-0.6
 41
-30.0
 62
     5
 63
     7
421
 16777215
 74
     2
 91
        2
 64
     7
 65
   257
 75
     2
175
     1
 42
40.0
 92
        0
 66
   257
 43
1.0
 76
     1
 77
     6
 78
     2
 67
     7
 79
     3
170
     0
171
     0
290
     0
174
     0
 93
        1
 44
0.0
173
     0
291
     0
 45
0.0
1001
ACAD
1000
AcDbSavedByObjectVersion
1070
     0
  0
VISUALSTYLE
  5
47B4
102
{ACAD_REACTORS
330
479E
102
}
102
{ACAD_XDICTIONARY
360
4873
102
}
330
479E
100
AcDbVisualStyle
  2
JitterOff
 70
    20
 71
     2
 72
     2
 73
     0
 90
        0
 40
-0.6
 41
-30.0
 62
     5
 63
     7
421
 16777215
 74
     1
 91
        4
 64
     7
 65
   257
 75
     1
175
     1
 42
1.0
 92
       10
 66
     7
 43
1.0
 76
     1
 77
     6
 78
     2
 67
     7
 79
     5
170
     0
171
     0
290
     0
174
     0
 93
        1
 44
0.0
173
     0
291
     1
 45
0.0
1001
ACAD
1000
AcDbSavedByObjectVersion
1070
     0
  0
VISUALSTYLE
  5
47AC
102
{ACAD_REACTORS
330
479E
102
}
102
{ACAD_XDICTIONARY
360
4875
102
}
330
479E
100
AcDbVisualStyle
  2
Linepattern
 70
    14
 71
     2
 72
     2
 73
     0
 90
        0
 40
-0.6
 41
-30.0
 62
     5
 63
     7
421
 16777215
 74
     1
 91
        4
 64
     7
 65
   257
 75
     7
175
     7
 42
1.0
 92
        8
 66
     7
 43
1.0
 76
     1
 77
     6
 78
     2
 67
     7
 79
     5
170
     0
171
     0
290
     0
174
     0
 93
        1
 44
0.0
173
     0
291
     1
 45
0.0
1001
ACAD
1000
AcDbSavedByObjectVersion
1070
     0
  0
VISUALSTYLE
  5
47B5
102
{ACAD_REACTORS
330
479E
102
}
102
{ACAD_XDICTIONARY
360
4877
102
}
330
479E
100
AcDbVisualStyle
  2
OverhangOff
 70
    21
 71
     2
 72
     2
 73
     0
 90
        0
 40
-0.6
 41
-30.0
 62
     5
 63
     7
421
 16777215
 74
     1
 91
        4
 64
     7
 65
   257
 75
     1
175
     1
 42
1.0
 92
        9
 66
     7
 43
1.0
 76
     1
 77
     6
 78
     2
 67
     7
 79
     5
170
     0
171
     0
290
     0
174
     0
 93
        1
 44
0.0
173
     0
291
     1
 45
0.0
1001
ACAD
1000
AcDbSavedByObjectVersion
1070
     0
  0
VISUALSTYLE
  5
47A8
102
{ACAD_REACTORS
330
479E
102
}
102
{ACAD_XDICTIONARY
360
4879
102
}
330
479E
100
AcDbVisualStyle
  2
Realistic
 70
     8
 71
     2
 72
     2
 73
     0
 90
        2
 40
-0.6
 41
30.0
 62
     5
 63
     7
421
 16777215
 74
     0
 91
        0
 64
     7
 65
   257
 75
     1
175
     1
 42
1.0
 92
        8
 66
   257
 43
1.0
 76
     1
 77
     6
 78
     2
 67
     7
 79
     3
170
     0
171
     0
290
     0
174
     0
 93
       13
 44
0.0
173
     0
291
     0
 45
0.0
1001
ACAD
1000
AcDbSavedByObjectVersion
1070
     0
  0
VISUALSTYLE
  5
47B3
102
{ACAD_REACTORS
330
479E
102
}
102
{ACAD_XDICTIONARY
360
487B
102
}
330
479E
100
AcDbVisualStyle
  2
Shaded
 70
    27
 71
     2
 72
     2
 73
     1
 90
        2
 40
-0.6
 41
30.0
 62
     5
 63
     7
421
 16777215
 74
     0
 91
        4
 64
     7
 65
   257
 75
     1
175
     1
 42
1.0
 92
        8
 66
   257
 43
1.0
 76
     1
 77
     6
 78
     2
 67
     8
425
  7895160
 79
     3
170
     0
171
     0
290
     0
174
     0
 93
        5
 44
0.0
173
     0
291
     0
 45
0.0
1001
ACAD
1000
AcDbSavedByObjectVersion
1070
     0
  0
VISUALSTYLE
  5
47B2
102
{ACAD_REACTORS
330
479E
102
}
102
{ACAD_XDICTIONARY
360
487D
102
}
330
479E
100
AcDbVisualStyle
  2
Shaded with edges
 70
    26
 71
     2
 72
     2
 73
     1
 90
        2
 40
-0.6
 41
30.0
 62
     5
 63
     7
421
 16777215
 74
     1
 91
       10
 64
     7
 65
   257
 75
     2
175
     1
 42
1.0
 92
        8
 66
   257
 43
1.0
 76
     1
 77
     6
 78
     2
 67
     7
 79
     3
170
     0
171
     0
290
     0
174
     0
 93
        5
 44
0.0
173
     0
291
     0
 45
0.0
1001
ACAD
1000
AcDbSavedByObjectVersion
1070
     0
  0
VISUALSTYLE
  5
47AF
102
{ACAD_REACTORS
330
479E
102
}
102
{ACAD_XDICTIONARY
360
487F
102
}
330
479E
100
AcDbVisualStyle
  2
Shades of Gray
 70
    23
 71
     2
 72
     2
 73
     3
 90
        0
 40
-0.6
 41
-30.0
 62
     5
 63
     7
421
 16777215
 74
     2
 91
        2
 64
     7
 65
     7
 75
     1
175
     1
 42
40.0
 92
        8
 66
     7
 43
1.0
 76
     1
 77
     6
 78
     2
 67
     7
 79
     3
170
     0
171
     0
290
     0
174
     0
 93
        1
 44
0.0
173
     0
291
     0
 45
0.0
1001
ACAD
1000
AcDbSavedByObjectVersion
1070
     0
  0
VISUALSTYLE
  5
47B0
102
{ACAD_REACTORS
330
479E
102
}
102
{ACAD_XDICTIONARY
360
4881
102
}
330
479E
100
AcDbVisualStyle
  2
Sketchy
 70
    24
 71
     1
 72
     2
 73
     2
 90
        0
 40
-0.6
 41
-30.0
 62
     5
 63
     7
421
 16777215
 74
     2
 91
        2
 64
     7
 65
     7
 75
     1
175
     1
 42
40.0
 92
       11
 66
     7
 43
1.0
 76
     1
 77
     6
 78
     2
 67
     7
 79
     6
170
     0
171
     0
290
     0
174
     0
 93
        1
 44
0.0
173
     0
291
     0
 45
0.0
1001
ACAD
1000
AcDbSavedByObjectVersion
1070
     0
  0
VISUALSTYLE
  5
47AB
102
{ACAD_REACTORS
330
479E
102
}
102
{ACAD_XDICTIONARY
360
4883
102
}
330
479E
100
AcDbVisualStyle
  2
Thicken
 70
    13
 71
     2
 72
     2
 73
     0
 90
        0
 40
-0.6
 41
-30.0
 62
     5
 63
     7
421
 16777215
 74
     1
 91
        4
 64
     7
 65
   257
 75
     1
175
     1
 42
1.0
 92
       12
 66
     7
 43
1.0
 76
     1
 77
     6
 78
     2
 67
     7
 79
     5
170
     0
171
     0
290
     0
174
     0
 93
        1
 44
0.0
173
     0
291
     1
 45
0.0
1001
ACAD
1000
AcDbSavedByObjectVersion
1070
     0
  0
VISUALSTYLE
  5
47A5
102
{ACAD_REACTORS
330
479E
102
}
102
{ACAD_XDICTIONARY
360
4885
102
}
330
479E
100
AcDbVisualStyle
  2
Wireframe
 70
     5
 71
     0
 72
     2
 73
     0
 90
        0
 40
-0.6
 41
-30.0
 62
     5
 63
     7
421
 16777215
 74
     1
 91
        4
 64
     7
 65
   257
 75
     1
175
     1
 42
1.0
 92
        0
 66
   257
 43
1.0
 76
     1
 77
     6
 78
     2
 67
     7
 79
     3
170
     0
171
     0
290
     0
174
     0
 93
        1
 44
0.0
173
     0
291
     0
 45
0.0
1001
ACAD
1000
AcDbSavedByObjectVersion
1070
     0
  0
VISUALSTYLE
  5
47B1
102
{ACAD_REACTORS
330
479E
102
}
102
{ACAD_XDICTIONARY
360
4887
102
}
330
479E
100
AcDbVisualStyle
  2
X-Ray
 70
    25
 71
     2
 72
     2
 73
     1
 90
        1
 40
0.5
 41
-30.0
 62
     5
 63
     7
421
 16777215
 74
     1
 91
        0
 64
     7
 65
   257
 75
     1
175
     1
 42
1.0
 92
        8
 66
     7
 43
1.0
 76
     1
 77
     6
 78
     2
 67
     7
 79
     3
170
     0
171
     0
290
     0
174
     0
 93
       13
 44
0.0
173
     0
291
     0
 45
0.0
1001
ACAD
1000
AcDbSavedByObjectVersion
1070
     0
  0
DICTIONARYVAR
  5
4848
102
{ACAD_REACTORS
330
B3
102
}
330
B3
100
DictionaryVariables
280
     0
  1
1:1
  0
DICTIONARYVAR
  5
4844
102
{ACAD_REACTORS
330
B3
102
}
330
B3
100
DictionaryVariables
280
     0
  1
Standard
  0
DICTIONARYVAR
  5
4843
102
{ACAD_REACTORS
330
B3
102
}
330
B3
100
DictionaryVariables
280
     0
  1
Standard
  0
DICTIONARYVAR
  5
4845
102
{ACAD_REACTORS
330
B3
102
}
330
B3
100
DictionaryVariables
280
     0
  1
Imperial24
  0
DICTIONARYVAR
  5
4846
102
{ACAD_REACTORS
330
B3
102
}
330
B3
100
DictionaryVariables
280
     0
  1
Imperial24
  0
DICTIONARYVAR
  5
B4
102
{ACAD_REACTORS
330
B3
102
}
330
B3
100
DictionaryVariables
280
     0
  1
4
  0
DICTIONARYVAR
  5
368E
102
{ACAD_REACTORS
330
B3
102
}
330
B3
100
DictionaryVariables
280
     0
  1
1
  0
DICTIONARYVAR
  5
484A
102
{ACAD_REACTORS
330
B3
102
}
330
B3
100
DictionaryVariables
280
     0
  1
1
  0
DICTIONARYVAR
  5
484B
102
{ACAD_REACTORS
330
B3
102
}
330
B3
100
DictionaryVariables
280
     0
  1
15
  0
DICTIONARYVAR
  5
4849
102
{ACAD_REACTORS
330
B3
102
}
330
B3
100
DictionaryVariables
280
     0
  1
0
  0
DICTIONARYVAR
  5
4847
102
{ACAD_REACTORS
330
B3
102
}
330
B3
100
DictionaryVariables
280
     0
  1
0
  0
DICTIONARYVAR
  5
484C
102
{ACAD_REACTORS
330
B3
102
}
330
B3
100
DictionaryVariables
280
     0
  1
2
  0
DICTIONARY
  5
4809
102
{ACAD_REACTORS
330
4807
102
}
330
4807
100
AcDbDictionary
281
     1
  0
DICTIONARY
  5
4808
102
{ACAD_REACTORS
330
4807
102
}
330
4807
100
AcDbDictionary
281
     1
  3
2130096720
350
4802
  3
2130096728
350
4803
  3
2130096736
350
4804
  3
2130096744
350
4805
  3
2130096752
350
4806
  0
DICTIONARY
  5
4841
330
47D1
100
AcDbDictionary
280
     1
281
     1
  3
ACAD_XREC_ROUNDTRIP
360
4842
  0
DICTIONARY
  5
480A
330
A67
100
AcDbDictionary
280
     1
281
     1
  3
ADSK_XREC_LAYOUTTHUMBNAIL
360
480B
  0
DICTIONARY
  5
484F
330
478E
100
AcDbDictionary
280
     1
281
     1
  3
ACAD_XREC_ROUNDTRIP
360
4850
  0
DICTIONARY
  5
4851
330
4786
100
AcDbDictionary
280
     1
281
     1
  3
ACAD_XREC_ROUNDTRIP
360
4852
  0
DICTIONARY
  5
4853
330
4796
100
AcDbDictionary
280
     1
281
     1
  3
ACAD_XREC_ROUNDTRIP
360
4854
  0
DICTIONARY
  5
483F
330
47CF
100
AcDbDictionary
280
     1
281
     1
  3
ACAD_XREC_ROUNDTRIP
360
4840
  0
DICTIONARY
  5
4855
330
47B9
100
AcDbDictionary
280
     1
281
     1
  3
ACAD_ROUNDTRIP_2008_TABLESTYLE_CELLSTYLEMAP
360
4857
  3
ACAD_XREC_ROUNDTRIP
360
4856
  0
DICTIONARY
  5
4859
330
47A4
100
AcDbDictionary
280
     1
281
     1
  3
ACAD_XREC_ROUNDTRIP
360
485A
  0
DICTIONARY
  5
485B
330
47A3
100
AcDbDictionary
280
     1
281
     1
  3
ACAD_XREC_ROUNDTRIP
360
485C
  0
DICTIONARY
  5
485D
330
47AA
100
AcDbDictionary
280
     1
281
     1
  3
ACAD_XREC_ROUNDTRIP
360
485E
  0
DICTIONARY
  5
485F
330
47AE
100
AcDbDictionary
280
     1
281
     1
  3
ACAD_XREC_ROUNDTRIP
360
4860
  0
DICTIONARY
  5
4861
330
47A7
100
AcDbDictionary
280
     1
281
     1
  3
ACAD_XREC_ROUNDTRIP
360
4862
  0
DICTIONARY
  5
4863
330
47A9
100
AcDbDictionary
280
     1
281
     1
  3
ACAD_XREC_ROUNDTRIP
360
4864
  0
DICTIONARY
  5
4865
330
47B6
100
AcDbDictionary
280
     1
281
     1
  3
ACAD_XREC_ROUNDTRIP
360
4866
  0
DICTIONARY
  5
4867
330
47AD
100
AcDbDictionary
280
     1
281
     1
  3
ACAD_XREC_ROUNDTRIP
360
4868
  0
DICTIONARY
  5
4869
330
479F
100
AcDbDictionary
280
     1
281
     1
  3
ACAD_XREC_ROUNDTRIP
360
486A
  0
DICTIONARY
  5
486B
330
47A0
100
AcDbDictionary
280
     1
281
     1
  3
ACAD_XREC_ROUNDTRIP
360
486C
  0
DICTIONARY
  5
486D
330
47A1
100
AcDbDictionary
280
     1
281
     1
  3
ACAD_XREC_ROUNDTRIP
360
486E
  0
DICTIONARY
  5
486F
330
47A2
100
AcDbDictionary
280
     1
281
     1
  3
ACAD_XREC_ROUNDTRIP
360
4870
  0
DICTIONARY
  5
4871
330
47A6
100
AcDbDictionary
280
     1
281
     1
  3
ACAD_XREC_ROUNDTRIP
360
4872
  0
DICTIONARY
  5
4873
330
47B4
100
AcDbDictionary
280
     1
281
     1
  3
ACAD_XREC_ROUNDTRIP
360
4874
  0
DICTIONARY
  5
4875
330
47AC
100
AcDbDictionary
280
     1
281
     1
  3
ACAD_XREC_ROUNDTRIP
360
4876
  0
DICTIONARY
  5
4877
330
47B5
100
AcDbDictionary
280
     1
281
     1
  3
ACAD_XREC_ROUNDTRIP
360
4878
  0
DICTIONARY
  5
4879
330
47A8
100
AcDbDictionary
280
     1
281
     1
  3
ACAD_XREC_ROUNDTRIP
360
487A
  0
DICTIONARY
  5
487B
330
47B3
100
AcDbDictionary
280
     1
281
     1
  3
ACAD_XREC_ROUNDTRIP
360
487C
  0
DICTIONARY
  5
487D
330
47B2
100
AcDbDictionary
280
     1
281
     1
  3
ACAD_XREC_ROUNDTRIP
360
487E
  0
DICTIONARY
  5
487F
330
47AF
100
AcDbDictionary
280
     1
281
     1
  3
ACAD_XREC_ROUNDTRIP
360
4880
  0
DICTIONARY
  5
4881
330
47B0
100
AcDbDictionary
280
     1
281
     1
  3
ACAD_XREC_ROUNDTRIP
360
4882
  0
DICTIONARY
  5
4883
330
47AB
100
AcDbDictionary
280
     1
281
     1
  3
ACAD_XREC_ROUNDTRIP
360
4884
  0
DICTIONARY
  5
4885
330
47A5
100
AcDbDictionary
280
     1
281
     1
  3
ACAD_XREC_ROUNDTRIP
360
4886
  0
DICTIONARY
  5
4887
330
47B1
100
AcDbDictionary
280
     1
281
     1
  3
ACAD_XREC_ROUNDTRIP
360
4888
  0
XRECORD
  5
4802
102
{ACAD_REACTORS
330
4808
102
}
330
4808
100
AcDbXrecord
280
     1
  1
AcDb_Thumbnail_Schema
102
{ATTRRECORD
341
4803
  2
AcDbDs::TreatedAsObjectData
280
     1
291
     1
102
ATTRRECORD}
102
{ATTRRECORD
341
4804
  2
AcDbDs::Legacy
280
     1
291
     1
102
ATTRRECORD}
  2
AcDbDs::ID
280
    10
 91
        8
102
{ATTRRECORD
341
4805
  2
AcDs:Indexable
280
     1
291
     1
102
ATTRRECORD}
102
{ATTRRECORD
341
4806
  2
AcDbDs::HandleAttribute
280
     7
282
     1
102
ATTRRECORD}
  2
Thumbnail_Data
280
    15
 91
        0
  0
XRECORD
  5
4803
102
{ACAD_REACTORS
330
4808
102
}
330
4808
100
AcDbXrecord
280
     1
  1
AcDbDs::TreatedAsObjectDataSchema
  2
AcDbDs::TreatedAsObjectData
280
     1
 91
        0
  0
XRECORD
  5
4804
102
{ACAD_REACTORS
330
4808
102
}
330
4808
100
AcDbXrecord
280
     1
  1
AcDbDs::LegacySchema
  2
AcDbDs::Legacy
280
     1
 91
        0
  0
XRECORD
  5
4805
102
{ACAD_REACTORS
330
4808
102
}
330
4808
100
AcDbXrecord
280
     1
  1
AcDbDs::IndexedPropertySchema
  2
AcDs:Indexable
280
     1
 91
        0
  0
XRECORD
  5
4806
102
{ACAD_REACTORS
330
4808
102
}
330
4808
100
AcDbXrecord
280
     1
  1
AcDbDs::HandleAttributeSchema
  2
AcDbDs::HandleAttribute
280
     7
 91
        1
284
     1
  0
XRECORD
  5
4842
102
{ACAD_REACTORS
330
4841
102
}
330
4841
100
AcDbXrecord
280
     1
102
DISPLAYNAME
  1
Imperial24
102
FLAGS
 90
        0
  0
XRECORD
  5
480B
102
{ACAD_REACTORS
330
480A
102
}
330
480A
100
AcDbXrecord
280
     1
310
2800000000010000A4000000010008000000000000A400000100000001000000000100000000000029292900000000FFC8C8C80000000033000000990000000000000066000000330000000000000066000000FF330000006600009999000099CC000000FF0000CC0033003333330000663300CC993300FFCC330000FF3300
310
FF00660099336600006666000099660033CC660033FF660000009900FF339900336699003399990099CC990033FF99006600CC003333CC003366CC006699CC00FFCCCC0033FFCC009900FF009933FF003366FF00CC99FF0033CCFF0033FFFF00CC000033FF33003333660033FF99003399CC003333FF003300003333333333
310
336666333300993333FFCC333366FF33333300663399336633666666336699663333CC663366FF663366009933FF339933666699339999993399CC993366FF9933CC00CC333333CC336666CC33CC99CC33FFCCCC3366FFCC33FF00FF339933FF336666FF330099FF3333CCFF3399FFFF3300000066FF330066996600663399
310
006699CC006699FF006666003366333333669966336666993366FFCC336699FF3366990066669933666699666666CC99666633CC666699FF6666CC009966FF33996699669966FF99996699CC996699FF99660000CC663333CC66CC66CC660099CC66FFCCCC66CCFFCC663300FF669933FF66CC66FF666699FF6633CCFF66CC
310
FFFF6666000099FF330099CC6600999999009999CC0099CCFF0099CC00339933333399CC663399CC993399FFCC3399CCFF3399FF00669999336699CC6666990099669933CC6699FFFF669900009999FF339999FF6699993399999999CC9999FFFF99996600CC993333CC99FF66CC996699CC99FFCCCC99FFFFCC999900FF99
310
9933FF99FF66FF99CC99FF9933CCFF99FFFFFF99CC0000CCFF3300CCFF6600CCFF9900CC99CC00CCFFFF00CC000033CC0D3333CC286633CC359933CC43CC33CC5DFF33CC6B0066CC783366CC936666CCA19966CCAECC66CCC9FF66CCD60099CCE43399CCFF6699CC009999CC00CC99CC00FF99CC0000CCCC0033CCCC0066CC
310
CC0099CCCC00CCCCCC38FFCCCC0000FFCC1F33FFCC1E66FFCC0099FFCC00CCFFCC00FFFFCC000000FF003300FF006600FFC09900FF00CC00FF32FF00FF000033FF1E3333FF206633FFFF9933FFFFCC33FFFFFF33FFFF0066FFFF3366FFFF6666FFFF9966FFFFCC66FFFFFF66FFFF0099FFFF3399FFFF6699FFFF9999FFFFCC
310
99FFFFFF99FFFF00CCFFFF33CCFFFF66CCFFFF99CCFFFFCCCCFFFFFFCCFFFF00FFFFFF33FFFFFF66FFFFFF99FFFFFFCCFFFFFFFFFFFFFF000000FF0D0D0DFF1A1A1AFF282828FF353535FF434343FF505050FF5D5D5DFF6B6B6BFF787878FF868686FF939393FFA1A1A1FFAEAEAEFFBBBBBBFFC9C9C9FFD6D6D6FFE4E4E4FF
310
F1F1F1FFFFFFFFFF000000FF000000FF000000FF000000FF000000FF000000FF000000FF000000FF000000FF0000000000000000000000000000000000000000000000000000000000000000000000000000000000000000000000000000000000000000000000000000000000000000000000000000000000000000000000
310
00000000000000000000000000000000000000000000000000000000000000000000000000000000000000000000000000000000000000000000000000000000000000000000000000000000000000000000000000000000000000000000000000000000000000000000000000000000000000000000000000000000000000
310
00000000000000000000000000000000000000000000000000000000000000000000000000000000000000000000000000000000000000000000000000000000000000000000000000000000000000000000000000000000000000000000000000000000000000000000000000000000000000000000000000000000000000
310
00000000000000000000000000000000000000000000000000000000000000000000000000000000000000000000000000000000000000000000000000000000000000000000000000000000000000000000000000000000000000000000000000000000000000000000000000000000000000000000000000000000000000
310
00000000000000000000000000000000000000000000000000000000000000000000000000000000000000000000000000000000000000000000000000000000000000000000000000000000000000000000000000000000000000000000000000000000000000000000000000000000000000000000000000000000000000
310
00000000000000000000000000000000000000000000000000000000000000000000000000000000000000000000000000000000000000000000000000000000000000000000000000000000000000000000000000000000000000000000000000000000000000000000000000000000000000000000000000000000000000
310
00000000000000000000000000000000000000000000000000000000000000000000000000000000000000000000000000000000000000000000000000000000000000000000000000000000000000000000000000000000000000000000000000000000000000000000000000000000000000000000000000000000000000
310
00000000000000000000000000000000000000000000000000000000000000000000000000000000000000000000000000000000000000000000000000000000000000000000000000000000000000000000000000000000000000000000000000000000000000000000000000000000000000000000000000000000000000
310
00000000000000000000000000000000000000000000000000000000000000000000000000000000000000000000000000000000000000000000000000000000000000000000000000000000000000000000000000000000000000000000000000000000000000000000000000000000000000000000000000000000000000
310
00000000000000000000000000000000000000000000000000000000000000000000000000000000000000000000000000000000000000000000000000000000000000000000000000000000000000000000000000000000000000000000000000000000000000000000000000000000000000000000000000000000000000
310
00000000000000000000000000000000000000000000000000000000000000000000000000000000000000000000000000000000000000000000000000000000000000000000000000000000000000000000000000000000000000000000000000000000000000000000000000000000000000000000000000000000000000
310
00000000000000000000000000000000000000000000000000000000000000000000000000000000000000000000000000000000000000000000000000000000000000000000000000000000000000000000000000000000000000000000000000000000000000000000000000000000000000000000000000000000000000
310
00000000000000000000000000000000000000000000000000000000000000000000000000000000000000000000000000000000000000000000000000000000000000000000000000000000000000000000000000000000000000000000000000000000000000000000000000000000000000000000000000000000000000
310
00000000000000000000000000000000000000000000000000000000000000000000000000000000000000000000000000000000000000000000000000000000000000000000000000000000000000000000000000000000000000000000000000000000000000000000000000000000000000000000000000000000000000
310
00000000000000000000000000000000000000000000000000000000000000000000000000000000000000000000000000000000000000000000000000000000000000000000000000000000000000000000000000000000000000000000000000000000000000000000000000000000000000000000000000000000000000
310
00000000000000000000000000000000000000000000000000000000000000000000000000000000000000000000000000000000000000000000000000000000000000000000000000000000000000000000000000000000000000000000000000000000000000000000000000000000000000000000000000000000000000
310
00000000000000000000000000000000000000000000000000000000000000000000000000000000000000000000000000000000000000000000000000000000000000000000000000000000000000000000000000000000000000000000000000000000000000000000000000000000000000000000000000000000000000
310
00000000000000000000000000000000000000000000000000000000000000000000000000000000000000000000000000000000000000000000000000000000000000000000000000000000000000000000000000000000000000000000000000000000000000000000000000000000000000000000000000000000000000
310
00000000000000000000000000000000000000000000000000000000000000000000000000000000000000000000000000000000000000000000000000000000000000000000000000000000000000000000000000000000000000000000000000000000000000000000000000000000000000000000000000000000000000
310
00000000000000000000000000000000000000000000000000000000000000000000000000000000000000000000000000000000000000000000000000000000000000000000000000000000000000000000000000000000000000000000000000000000000000000000000000000000000000000000000000000000000000
310
00000000000000000000000000000000000000000000000000000000000000000000000000000000000000000000000000000000000000000000000000000000000000000000000000000000000000000000000000000000000000000000000000000000000000000000000000000000000000000000000000000000000000
310
00000000000000000000000000000000000000000000000000000000000000000000000000000000000000000000000000000000000000000000000000000000000000000000000000000000000000000000000000000000000000000000000000000000000000000000000000000000000000000000000000000000000000
310
00000000000000000000000000000000000000000000000000000000000000000000000000000000000000000000000000000000000000000000000000000000000000000000000000000000000000000000000000000000000000000000000000000000000000000000000000000000000000000000000000000000000000
310
00000000000000000000000000000000000000000000000000000000000000000000000000000000000000000000000000000000000000000000000000000000000000000000000000000000000000000000000000000000000000000000000000000000000000000000000000000000000000000000000000000000000000
310
00000000000000000000000000000000000000000000000000000000000000000000000000000000000000000000000000000000000000000000000000000000000000000000000000000000000000000000000000000000000000000000000000000000000000000000000000000000000000000000000000000000000000
310
00000000000000000000000000000000000000000000000000000000000000000000000000000000000000000000000000000000000000000000000000000000000000000000000000000000000000000000000000000000000000000000000000000000000000000000000000000000000000000000000000000000000000
310
00000000000000000000000000000000000000000000000000000000000000000000000000000000000000000000000000000000000000000000000000000000000000000000000000000000000000000000000000000000000000000000000000000000000000000000000000000000000000000000000000000000000000
310
00000000000000000000000000000000000000000000000000000000000000000000000000000000000000000000000000000000000000000000000000000000000000000000000000000000000000000000000000000000000000000000000000000000000000000000000000000000000000000000000000000000000000
310
00000000000000000000000000000000000000000000000000000000000000000000000000000000000000000000000000000000000000000000000000000000000000000000000000000000000000000000000000000000000000000000000000000000000000000000000000000000000000000000000000000000000000
310
00000000000000000000000000000000000000000000000000000000000000000000000000000000000000000000000000000000000000000000000000000000000000000000000000000000000000000000000000000000000000000000000000000000000000000000000000000000000000000000000000000000000000
310
00000000000000000000000000000000000000000000000000000000000000000000000000000000000000000000000000000000000000000000000000000000000000000000000000000000000000000000000000000000000000000000000000000000000000000000000000000000000000000000000000000000000000
310
00000000000000000000000000000000000000000000000000000000000000000000000000000000000000000000000000000000000000000000000000000000000000000000000000000000000000000000000000000000000000000000000000000000000000000000000000000000000000000000000000000000000000
310
00000000000000000000000000000000000000000000000000000000000000000000000000000000000000000000000000000000000000000000000000000000000000000000000000000000000000000000000000000000000000000000000000000000000000000000000000000000000000000000000000000000000000
310
00000000000000000000000000000000000000000000000000000000000000000000000000000000000000000000000000000000000000000000000000000000000000000000000000000000000000000000000000000000000000000000000000000000000000000000000000000000000000000000000000000000000000
310
00000000000000000000000000000000000000000000000000000000000000000000000000000000000000000000000000000000000000000000000000000000000000000000000000000000000000000000000000000000000000000000000000000000000000000000000000000000000000000000000000000000000000
310
00000000000000000000000000000000000000000000000000000000000000000000000000000000000000000000000000000000000000000000000000000000000000000000000000000000000000000000000000000000000000000000000000000000000000000000000000000000000000000000000000000000000000
310
00000000000000000000000000000000000000000000000000000000000000000000000000000000000000000000000000000000000000000000000000000000000000000000000000000000000000000000000000000000000000000000000000000000000000000000000000000000000000000000000000000000000000
310
00000000000000000000000000000000000000000000000000000000000000000000000000000000000000000000000000000000000000000000000000000000000000000000000000000000000000000000000000000000000000000000000000000000000000000000000000000000000000000000000000000000000000
310
00000000000000000000000000000000000000000000000000000000000000000000000000000000000000000000000000000000000000000000000000000000000000000000000000000000000000000000000000000000000000000000000000000000000000000000000000000000000000000000000000000000000000
310
00000000000000000000000000000000000000000000000000000000000000000000000000000000000000000000000000000000000000000000000000000000000000000000000000000000000000000000000000000000000000000000000000000000000000000000000000000000000000000000000000000000000000
310
00000000000000000000000000000000000000000000000000000000000000000000000000000000000000000000000000000000000000000000000000000000000000000000000000000000000000000000000000000000000000000000000000000000000000000000000000000000000000000000000000000000000000
310
00000000000000000000000000000000000000000000000000000000000000000000000000000000000000000000000000000000000000000000000000000000000000000000000000000000000000000000000000000000000000000000000000000000000000000000000000000000000000000000000000000000000000
310
00000000000000000000000000000000000000000000000000000000000000000000000000000000000000000000000000000000000000000000000000000000000000000000000000000000000000000000000000000000000000000000000000000000000000000000000000000000000000000000000000000000000000
310
00000000000000000000000000000000000000000000000000000000000000000000000000000000000000000000000000000000000000000000000000000000000000000000000000000000000000000000000000000000000000000000000000000000000000000000000000000000000000000000000000000000000000
310
00000000000000000000000000000000000000000000000000000000000000000000000000000000000000000000000000000000000000000000000000000000000000000000000000000000000000000000000000000000000000000000000000000000000000000000000000000000000000000000000000000000000000
310
00000000000000000000000000000000000000000000000000000000000000000000000000000000000000000000000000000000000000000000000000000000000000000000000000000000000000000000000000000000000000000000000000000000000000000000000000000000000000000000000000000000000000
310
000000000000000000000000000000000000000000000000000000BEBEBEBEBEBEBEBEBEBEBEBEBE000000000000000000000000000000000000000000000000000000000000000000000000000000000000000000000000000000000000000000000000000000000000000000000000000000000000000000000000000000
310
00000000000000000000DCDCDCDCDCDCDCDCDCDCDCDCDCDCDCDCDCDCDCDCDCDCDCDCDCDCDCDCDCDCDCDCDCDCDCDCDCDCDCDCDCDCDCDCDCDCDCDCDCDCDCDCDCDCDCDCDCDCDCDCDCDCDCDCDCDCDCDCDCDCDCDCDCDCDCDCDCDCDCDCDCDCDCDCDCDCDCDCDCDCDCDCDCDCDCDCDCDCDCDCDCDCDCDCDCDCDCDCDCDCDCDCDCDCDCDCDC
310
DCDCDCDCDCDCDCDCDCDCDCDCDCDCDCDCDCDCDCDCDCDCDCDCDCDCDCDCDCDCDCDCDCDCDCDCDCDCDCDCDCDCDC000000000000000000000000000000000000000000000000000000000000000000000000000000000000000000000000000000000000000000000000000000000000000000000000000000000000000000000000
310
000000000000000000000000DC000000000000000000000000000000000000000000000000000000000000000000000000000000000000000000000000000000000000000000000000000000000000000000000000000000000000000000000000000000000000000000000000000000000000000000000000000000000000
310
00000000000000000000000000000000000000000000DC0000000000000000BEBE00000000BEBEBE00000000DC00000000000000000000000000000000000000000000000000000000000000000000000000000000000000000000000000000000000000000000000000000000000000000000000000000000000000000000
310
0000000000000000000000000000DC00000000000000000000000000000000000000000000000000000000000000000000000000000000000000000000000000000000000000000000000000000000000000000000000000000000000000000000000000000000000000000000000000000000000000000000000000000000
310
000000000000000000000000000000000000000000000000DCBEBEBEBEBEBEBEBEBEBE00000000BEBEBE00000000DC0000000000000000000000000000000000000000000000000000000000000000000000000000000000000000000000000000000000000000000000000000000000000000000000000000000000000000
310
00000000000000000000000000000000DC000000000000000000000000000000000000BEBEBEBEBEBEBEBEBEBEBEBEBEBEBEBEBEBEBEBEBEBEBEBEBEBEBEBEBEBEBEBEBEBEBEBEBE00000000000000000000000000000000000000000000000000000000000000000000000000000000000000000000000000000000000000
310
0000000000000000000000000000000000000000000000000000DCBEBEBEBEBEBEBEBEBEBEBEBEBEBEBEBEBEBEBEBEBEDC000000000000000000000000000000000000000000000000000000000000000000000000000000000000000000000000000000000000000000000000000000000000000000000000000000000000
310
000000000000000000000000000000000000DC000000000000000000000000000000000000BE00000000000000000000000000000000BEBEBEBE000000000000000000000000000000BE0000000000000000000000000000000000000000000000000000000000000000000000000000000000000000000000000000000000
310
00000000000000000000000000000000000000000000000000000000DCBEBEBEBE000000000000BEBE00BEBEBEBEBEBE0000DC00000000000000000000000000000000000000000000000000000000000000000000000000000000000000000000000000000000000000000000000000000000000000000000000000000000
310
0000000000000000000000000000000000000000DC000000000000000000000000000000000000BE0000000000000000000000000000000000000000000000000000000000000000000000BE000000000000000000000000000000000000000000000000000000000000000000000000000000000000000000000000000000
310
000000000000000000000000000000000000000000000000000000000000DCBEBEBEBEBEBEBEBEBEBEBEBEBEBEBEBEBEBEBEBEBEDC0000000000000000000000000000000000000000000000000000000000000000000000000000000000000000000000000000000000000000000000000000000000000000000000000000
310
00000000000000000000000000000000000000000000DC000000000000000000000000000000000000BE0000000000000000000000000000000000000000000000000000000000000000000000BE00000000000000000000000000000000000000000000000000000000000000000000000000000000000000000000000000
310
0000000000000000000000000000000000000000000000000000000000000000DCBEBEBEBEBEBEBEBEBEBEBEBEBEBEBEBEBEBEBEBEBEDC000000000000000000000000000000000000000000000000000000000000000000000000000000000000000000000000000000000000000000000000000000000000000000000000
310
000000000000000000000000000000000000000000000000DC000000000000000000000000000000000000BE0000000000000000000000000000000000000000000000000000000000000000000000BE0000000000000000000000000000000000000000000000000000000000000000000000000000000000000000000000
310
00000000000000000000000000000000000000000000000000000000000000000000DCBEBEBEBE000000000000BEBEBEBEBE000000000000DC00000000000000000000000000000000000000000000000000000000000000000000000000000000000000000000000000000000000000000000000000000000000000000000
310
0000000000000000000000000000000000000000000000000000DC000000000000000000000000000000000000BE0000000000000000000000000000000000000000000000000000000000000000000000BE000000000000000000000000000000000000000000000000000000000000000000000000000000000000000000
310
000000000000000000000000000000000000000000000000000000000000000000000000DCBEBEBEBEBEBEBEBEBEBEBEBEBEBEBEBEBEBEBEBEBEDC0000000000000000000000000000000000000000000000000000000000000000000000000000000000000000000000000000000000000000000000000000000000000000
310
00000000000000000000000000000000000000000000000000000000DC000000000000000000000000000000000000BE0000000000000000000000000000000000000000000000000000000000000000000000BE00000000000000000000000000000000000000000000000000000000000000000000000000000000000000
310
0000000000000000000000000000000000000000000000000000000000000000000000000000DCBE00BEBEBEBEBEBEBEBEBEBEBEBEBE00BEBEBEBE00DC000000000000000000000000000000000000000000000000000000000000000000000000000000000000000000000000000000000000000000000000000000000000
310
000000000000000000000000000000000000000000000000000000000000DC000000000000000000000000000000000000BE0000000000000000000000000000000000000000000000000000000000000000000000BE0000000000000000000000000000000000000000000000000000000000000000000000000000000000
310
00000000000000000000000000000000000000000000000000000000000000000000000000000000DCDCDCDCDCDCDCDCDCDCDCDCDCDCDCDCDCDCDCDCDCDCDC00000000000000000000000000000000000000000000000000000000000000000000000000000000000000000000000000000000000000000000000000000000
310
0000000000000000000000000000000000000000000000000000000000000000DC000000000000000000000000000000000000BE2828282828282828282828282828282828282828282828282828282828282828282828BEBEBEBEBEBEBEBEBEBEBEBEBEBEBEBE000000000000000000000000000000000000000000000000
310
00000000000000000000000000000000000000000000000000000000000000000000000000000000000000000000000000000000000000000000000000000000DC0000000000000000000000000000000000000000000000000000000000000000000000000000000000000000000000000000000000000000000000000000
310
00000000000000000000000000000000000000000000000000000000000000000000DC00000000000000000000000000000000000028282828282828282828282828000000000000000000000000002D000000000000000000280000000000000000000000BE0000BE00000000000000000000000000000000000000000000
310
000000000000000000000000000000000000000000000000000000000000000000000000000000000000000000000000000000000000000000000000000000000000DC000000000000000000000000000000000000000000000000000000000000000000000000000000000000000000000000000000000000000000000000
310
000000000000000000000000000000000000000000000000000000000000000000000000DC000000000000000000000000000000000000002828282828282828282828282828282828282828282828280028000000000000000000280000000000000000000000BE0000BE0000000000000000000000000000000000000000
310
0000000000000000000000000000000000000000000000000000000000000000000000000000000000000000000000000000000000000000000000000000000000000000DC00000000000000000000000000000000000000000000000000000000000000000000000000000000000000000000000000000000000000000000
310
0000000000000000000000000000000000000000000000000000000000000000000000000000DC000000000000000000000000000000000000000000000000000000000000000000000000000028282828282828282828282800000000280000000000000000000000BE0000BE000000000000000000000000000000000000
310
00000000000000000000000000000000000000000000000000000000000000000000000000000000000000000000000000000000000000000000000000000000000000000000DC0000000000000000000000000000000000000000000000000000000000000000000000000000000000000000000000000000000000000000
310
00000000000000000000000000000000000000000000000000000000000000000000000000000000DC000000000000000000000000000000000000000000000000000000000000000000000000000000000000000000000000280028000000280000000000000000000000BE0000BE00000000000000000000000000000000
310
000000000000000000000000000000000000000000000000000000000000000000000000000000000000000000000000000000000000000000000000000000000000000000000000DC000000000000000000000000000000000000000000000000000000000000000000000000000000000000000000000000000000000000
310
000000000000000000000000000000000000000000000000000000000000000000000000000000000000DC000000000000000000000000000000000000000000000000000000000000000000000000000000000000000000000000002800280000280000000000000000000000BE0000BE0000000000000000000000000000
310
0000000000000000000000000000000000000000000000000000000000000000000000000000000000000000000000000000000000000000000000000000000000000000000000000000DC00000000000000000000000000000000000000000000000000000000000000000000000000000000000000000000000000000000
310
0000000000000000000000000000000000000000000000000000000000000000000000000000000000000000DC0000000000000000000000000000000000000000000000000000000000000000000000000000000000000000000000000028000028002800000000000000000000BEBE0000BE000000000000000000000000
310
00000000000000000000000000000000000000000000000000000000000000000000000000000000000000000000000000000000000000000000000000000000000000000000000000000000DC0000000000000000000000000000000000000000000000000000000000000000000000000000000000000000000000000000
310
00000000000000000000000000000000000000000000000000000000000000000000000000000000000000000000DC0000000000000000000000000000000000000000000000000000000000000000000000000000000000000000000000000000280028002800000000000000000000BEBE0000BE00000000000000000000
310
000000000000000000000000000000000000000000000000000000000000000000000000000000000000000000000000000000000000000000000000000000000000000000000000000000000000DC000000000000000000000000000000000000000000000000000000000000000000000000000000000000000000000000
310
000000000000000000000000000000000000000000000000000000000000000000000000000000000000000000000000DC0000000000000000000000000000000000000000000000000000000000000000000000000000000000000000000000000000002828002800000000000000000000BEBE0000BE0000000000000000
310
0000000000000000000000000000000000000000000000000000000000000000000000000000000000000000000000000000000000000000000000000000000000000000000000000000000000000000DC00000000000000000000000000000000000000000000000000000000000000000000000000000000000000000000
310
0000000000000000000000000000000000000000000000000000000000000000000000000000000000000000000000000000DC0000000000000000000000000000000000000000000000000000000000000000000000000000000000000000000000000000002828002800000000000000000000BEBE0000BE000000000000
310
00000000000000000000000000000000000000000000000000000000000000000000000000000000000000000000000000000000000000000000000000000000000000000000000000000000000000000000DC0000000000000000000000000000000000000000000000000000000000000000000000000000000000000000
310
00000000000000000000000000000000000000000000000000000000000000000000000000000000000000000000000000000000DC00000000000000000000000000000000000000000000000000000000000000000000000000000000000000000000000000000028282D280000000000000000000000BE0000BE00000000
310
000000000000000000000000000000000000000000000000000000000000000000000000000000000000000000000000000000000000000000000000000000000000000000000000000000000000000000000000DC000000000000000000000000000000000000000000000000000000000000000000000000000000000000
310
000000000000000000000000000000000000000000000000000000000000000000000000000000000000000000000000000000000000DC000000000000000000000000000000000000000000000000000000000000000000000000000000000000000000000000000000BE282D280000000000000000000000BE0000BE0000
310
0000000000000000000000000000000000000000000000000000000000000000000000000000000000000000000000000000000000000000000000000000000000000000000000000000000000000000000000000000DC00000000000000000000000000000000000000000000000000000000000000000000000000000000
310
0000000000000000000000000000000000000000000000000000000000000000000000000000000000000000000000000000000000000000DC000000000000000000000000000000000000000000000000000000000000000000000000000000000000000000000000000000282800280000000000000000000000BE00BEBE
310
00000000000000000000000000000000000000000000000000000000000000000000000000000000000000000000000000000000000000000000000000000000000000000000000000000000000000000000000000000000DC0000000000000000000000000000000000000000000000000000000000000000000000000000
310
00000000000000000000000000000000000000000000000000000000000000000000000000000000000000000000000000000000000000000000DC000000000000000000000000000000000000000000000000000000000000000000000000000000000000000000000000000000282800280000000000000000000000BE00
310
BEBE00000000000000000000000000000000000000000000000000000000000000000000000000000000000000000000000000000000000000000000000000000000000000000000000000000000000000000000000000000000DC000000000000000000000000000000000000000000000000000000000000000000000000
310
000000000000000000000000000000000000000000000000000000000000000000000000000000000000000000000000000000000000000000000000DC000000000000000000000000000000000000000000000000000000000000000000000000000000000000000000000000000000282800280000000000000000000000
310
BE00BEBE00000000000000000000000000000000000000000000000000000000000000000000000000000000000000000000000000000000000000000000000000000000000000000000000000000000000000000000000000000000DC00000000000000000000000000000000000000000000000000000000000000000000
310
0000000000000000000000000000000000000000000000000000000000000000000000000000000000000000000000000000000000000000000000000000DC00000000000000000000000000000000000000000000000000000000000000000000000000000000000000000000000000000028282DBEBEBEBEBEBEBEBEBEBE
310
BEBEBE00BEBE00000000000000000000000000000000000000000000000000000000000000000000000000000000000000000000000000000000000000000000000000000000000000000000000000000000000000000000000000000000DC0000000000000000000000000000000000000000000000000000000000000000
310
00000000000000000000000000000000000000000000000000000000000000000000000000000000000000000000000000000000000000000000000000000000DC0000000000000000000000000000000000000000000000000000000000000000000000000000000000000000000000000000000000282800000000000000
310
00000000000000BE00000000000000000000000000000000000000000000000000000000000000000000000000000000000000000000000000000000000000000000000000000000000000000000000000000000000000000000000000000000DC000000000000000000000000000000000000000000000000000000000000
310
000000000000000000000000000000000000000000000000000000000000000000000000000000000000000000000000000000000000000000000000000000000000DC000000000000000000000000000000000000000000000000000000000000000000000000000000000000000000000000000000000028280000000000
310
000000000000000000BE00000000000000000000000000000000000000000000000000000000000000000000000000000000000000000000000000000000000000000000000000000000000000000000000000000000000000000000000000000000DC00000000000000000000000000000000000000000000000000000000
310
0000000000000000000000000000000000000000000000000000000000000000000000000000000000000000000000000000000000000000000000000000000000000000DC00000000000000000000000000000000000000000000000000000000000000000000000000000000000000000000000000000000002828000000
310
0000000000000000000000BE00000000000000000000000000000000000000000000000000000000000000000000000000000000000000000000000000000000000000000000000000000000000000000000000000000000000000000000000000000000DC0000000000000000000000000000000000000000000000000000
310
00000000000000000000000000000000000000000000000000000000000000000000000000000000000000000000000000000000000000000000000000000000000000000000DC0000000000000000000000000000000000000000000000000000000000000000000000000000000000000000000000000000000000282800
310
00000000000000000000000000BE00000000000000000000000000000000000000000000000000000000000000000000000000000000000000000000000000000000000000000000000000000000000000000000000000000000000000000000000000000000DC000000000000000000000000000000000000000000000000
310
000000000000000000000000000000000000000000000000000000000000000000000000000000000000000000000000000000000000000000000000000000000000000000000000DC000000000000000000000000000000000000000000000000000000000000000000000000000000000000000000000000000000000028
310
280000000000000000000000000000BE00000000000000000000000000000000000000000000000000000000000000000000000000000000000000000000000000000000000000000000000000000000000000000000000000000000000000000000000000000000DC00000000000000000000000000000000000000000000
310
0000000000000000000000000000000000000000000000000000000000000000000000000000000000000000000000000000000000000000000000000000000000000000000000000000DC00000000000000000000000000000000000000000000000000000000000000000000000000000000000000000000000000000000
310
0028280000000000000000000000000000BE00000000000000000000000000000000000000000000000000000000000000000000000000000000000000000000000000000000000000000000000000000000000000000000000000000000000000000000000000000000DC0000000000000000000000000000000000000000
310
00000000000000000000000000000000000000000000000000000000000000000000000000000000000000000000000000000000000000000000000000000000000000000000000000000000DC0000000000000000000000000000000000000000000000000000000000000000000000000000000000000000000000000000
310
00000028280000000000000000000000000000BE00000000000000000000000000000000000000000000000000000000000000000000000000000000000000000000000000000000000000000000000000000000000000000000000000000000000000000000000000000000DC000000000000000000000000000000000000
310
000000000000000000000000000000000000000000000000000000000000000000000000000000000000000000000000000000000000000000000000000000000000000000000000000000000000DC000000000000000000000000000000000000000000000000000000000000000000000000000000000000000000000000
310
000000000028280000000000000000000000000000BE00000000000000000000000000000000000000000000000000000000000000000000000000000000000000000000000000000000000000000000000000000000000000000000000000000000000000000000000000000000DC00000000000000000000000000000000
310
0000000000000000000000000000000000000000000000000000000000000000000000000000000000000000000000000000000000000000000000000000000000000000000000000000000000000000DC00000000000000000000000000000000000000000000000000000000000000000000000000000000000000000000
310
0000000000000028280000000000000000000000000000BE00000000000000000000000000000000000000000000000000000000000000000000000000000000000000000000000000000000000000000000000000000000000000000000000000000000000000000000000000000000DC0000000000000000000000000000
310
00000000000000000000000000000000000000000000000000000000000000000000000000000000000000000000000000000000000000000000000000000000000000000000000000000000000000000000DC0000000000000000000000000000000000000000000000000000000000000000000000000000000000000000
310
00000000000000000028280000000000000000000000000000BE00000000000000000000000000000000000000000000000000000000000000000000000000000000000000000000000000000000000000000000000000000000000000000000000000000000000000000000000000000000DC000000000000000000000000
310
000000000000000000000000000000000000000000000000000000000000000000000000000000000000000000000000000000000000000000000000000000000000000000000000000000000000000000000000DC000000000000000000000000000000000000000000000000000000000000000000000000000000000000
310
000000000000000000000028BEBEBEBEBEBEBEBEBEBEBEBEBEBEBEBE00000000000000000000000000000000000000000000000000000000000000000000000000000000000000000000000000000000000000000000000000000000000000000000000000000000000000000000000000000000DC00000000000000000000
310
0000000000000000000000000000000000000000000000000000000000000000000000000000000000000000000000000000000000000000000000000000000000000000000000000000000000000000000000000000DC00000000000000000000000000000000000000000000000000000000000000000000000000000000
310
00000000000000000000000000000000000000000000000000000000000000000000000000000000000000000000000000000000000000000000000000000000000000000000000000000000000000000000000000000000000000000000000000000000000000000000000000000000000000000000DC0000000000000000
310
00000000000000000000000000000000000000000000000000000000000000000000000000000000000000000000000000000000000000000000000000000000000000000000000000000000000000000000000000000000DC0000000000000000000000000000000000000000000000000000000000000000000000000000
310
000000000000000000000000000000000000000000000000000000000000000000000000000000000000000000000000000000000000000000000000000000000000000000000000000000000000000000000000000000000000000000000000000000000000000000000000000000000000000000000000DC000000000000
310
000000000000000000000000000000000000000000000000000000000000000000000000000000000000000000000000000000000000000000000000000000000000000000000000000000000000000000000000000000000000DC000000000000000000000000000000000000000000000000000000000000000000000000
310
0000000000000000000000000000000000000000000000000000000000000000000000000000000000000000000000000000000000000000000000000000000000000000000000000000000000000000000000000000000000000000000000000000000000000000000000000000000000000000000000000000DC00000000
310
0000000000000000000000000000000000000000000000000000000000000000000000000000000000000000000000000000000000000000000000000000000000000000000000000000000000000000000000000000000000000000DC00000000000000000000000000000000000000000000000000000000000000000000
310
00000000000000000000000000000000000000000000000000000000000000000000000000000000000000000000000000000000000000000000000000000000000000000000000000000000000000000000000000000000000000000000000000000000000000000000000000000000000000000000000000000000DC0000
310
00000000000000000000000000000000000000000000000000000000000000000000000000000000000000000000000000000000000000000000000000000000000000000000000000000000000000000000000000000000000000000000DC0000000000000000000000000000000000000000000000000000000000000000
310
000000000000000000000000000000000000000000000000000000000000000000000000000000000000000000000000000000000000000000000000000000000000000000000000000000000000000000000000000000000000000000000000000000000000000000000000000000000000000000000000000000000000DC
310
000000000000000000000000000000000000000000000000000000000000000000000000000000000000000000000000000000000000000000000000000000000000000000000000000000000000000000000000000000000000000000000000DC000000000000000000000000000000000000000000000000000000000000
310
00000000000000000000000000000000000000000000000000000000000000000000000000000000000000000000000000000000000000000000000000000000000000000000000000000000000000000000000000000000000000000000000000000000000000000000000000000000000000000000000000000000000000
310
00DC000000000000000000000000000000000000000000000000000000000000000000000000000000000000000000000000000000000000000000000000000000000000000000000000000000000000000000000000000000000000000000000000DC000000000000000000000000000000000000BEBEBEBEBEBEBEBEBEBE
310
BEBEBEBEBEBEBEBEBEBEBEBEBEBEBEBEBEBEBEBEBEBEBEBEBEBEBE00000000000000000000000000000000000000000000000000000000000000BEBEBEBEBEBEBEBEBEBEBEBEBEBEBEBEBEBEBEBEBEBEBEBEBEBEBEBEBEBEBEBEBEBEBEBEBEBEBEBEBEBEBEBEBE000000000000000000000000000000000000000000000000
310
000000DC000000000000000000000000000000000000000000000000000000000000000000000000000000000000000000000000000000000000000000000000000000000000000000000000000000000000000000000000000000000000000000000000DC000000000000000000000000000000000000BE00000000000000
310
0000000000000000000000BEBEBE0000000000000000000000000000BE00000000000000000000000000000000000000000000000000000000000000BE0000000000BEBEBEBE0000000000BE000000000000000000000000BEBEBEBE000000000000000000000000BE00000000000000000000000000000000000000000000
310
0000000000DC000000000000000000000000000000000000000000000000000000000000000000000000000000000000000000000000000000000000000000000000000000000000000000000000000000000000000000000000000000000000000000000000DC000000000000000000000000000000000000BE0000000000
310
00000000000000000000000000BEBEBE0000000000000000000000000000BE00000000000000000000000000000000000000000000000000000000000000BE0000000000BEBEBEBE0000000000BE000000000000000000000000BEBEBEBE000000000000000000000000BE0000000000000000000000000000000000000000
310
00000000000000DC000000000000000000000000000000000000000000000000000000000000000000000000000000000000000000000000000000000000000000000000000000000000000000000000000000000000000000000000000000000000000000000000DC000000000000000000000000000000000000BEBEBEBE
310
BEBEBEBEBEBEBEBEBEBEBEBEBEBEBEBEBEBEBEBEBEBEBEBEBEBEBEBEBEBEBEBEBE00000000000000000000000000000000000000000000000000000000000000BE0000000000000000000000000000BE00000000000000000000000000000000000000000000000000000000BE000000000000000000000000000000000000
310
000000000000000000DC000000000000000000000000000000000000000000000000000000000000000000000000000000000000000000000000000000000000000000000000000000000000000000000000000000000000000000000000000000000000000000000000DC000000000000000000000000000000000000BE00
310
000000000000000000000000000000BEBEBEBE000000000000000000000000BEBEBEBE00000000000000000000000000000000000000000000000000000000000000BE0000000000000000000000000000BE00000000000000000000000000000000000000000000000000000000BE00000000000000000000000000000000
310
0000000000000000000000DC000000000000000000000000000000000000000000000000000000000000000000000000000000000000000000000000000000000000000000000000000000000000000000000000000000000000000000000000000000000000000000000000DC000000000000000000000000000000000000
310
BE0000000000000000000000000000000000000000000000000000000000000000BE0000BE00000000000000000000000000000000000000000000000000000000000000BE0000000000000000000000000000BE00000000000000000000000000000000000000000000000000000000BE0000000000000000000000000000
310
00000000000000000000000000DC000000000000000000000000000000000000000000000000000000000000000000000000000000000000000000000000000000000000000000000000000000000000000000000000000000000000000000000000000000000000000000000000DC00000000000000000000000000000000
310
0000BE0000000000000000000000000000000000000000000000000000000000000000BE0000BE00000000000000000000000000000000000000000000000000000000000000BE0000000000000000000000000000BE00000000000000000000000000000000000000000000000000000000BE000000000000000000000000
310
000000000000000000000000000000DC000000000000000000000000000000000000000000000000000000000000000000000000000000000000000000000000000000000000000000000000000000000000000000000000000000000000000000000000000000000000000000000000DC0000000000000000000000000000
310
00000000BE0000000000000000000000000000000000000000000000000000000000000000BE0000BE00000000000000000000000000000000000000000000000000000000000000BE0000000000000000000000000000BE00000000000000000000000000000000000000000000000000000000BE00000000000000000000
310
0000000000000000000000000000000000DC000000000000000000000000000000000000000000000000000000000000000000000000000000000000000000000000000000000000000000000000000000000000000000000000000000000000000000000000000000000000000000000000DC000000000000000000000000
310
000000000000BE0000000000000000000000000000000000000000000000000000000000000000BE0000BE00000000000000000000000000000000000000000000000000000000000000BE0000000000000000000000000000BE00000000000000000000000000000000000000000000000000000000BE0000000000000000
310
00000000000000000000000000000000000000DC000000000000000000000000000000000000000000000000000000000000000000000000000000000000000000000000000000000000000000000000000000000000000000000000000000000000000000000000000000000000000000000000DC00000000000000000000
310
0000000000000000BE0000000000000000000000000000000000000000000000000000000000000000BE0000BE00000000000000000000000000000000000000000000000000000000000000BE0000000000000000000000000000BE00000000000000000000000000000000000000000000000000000000BE000000000000
310
000000000000000000000000000000000000000000DC000000000000000000000000000000000000000000000000000000000000000000000000000000000000000000000000000000000000000000000000000000000000000000000000000000000000000000000000000000000000000000000000DC0000000000000000
310
00000000BEBE00000000BE0000000000000000000000000000000000000000000000000000000000000000BE0000BE00000000000000000000000000000000000000000000000000000000000000BE0000000000000000000000000000BE00000000000000000000000000000000000000000000000000000000BE00000000
310
0000000000000000000000000000000000000000000000DC000000000000000000000000000000000000000000000000000000000000000000000000000000000000000000000000000000000000000000000000000000000000000000000000000000000000000000000000000000000000000000000000DC000000000000
310
000000000000BEBE00000000BE0000000000000000000000000000000000000000000000000000000000000000BE0000BE00000000000000000000000000000000000000000000000000000000000000BE0000000000000000000000000000BE00000000000000000000000000000000000000000000000000000000BE0000
310
00000000000000000000000000000000000000000000000000DC000000000000000000000000000000000000000000000000000000000000000000000000000000000000000000000000000000000000000000000000000000000000000000000000000000000000000000000000000000000000000000000000DC00000000
310
0000000000BEBEBEBEBEBEBEBEBEBE2828282828282828282828282828282828282828282828282828282828282828BE2828BEBEBEBEBEBEBEBEBEBEBEBEBEBE00000000BEBEBEBEBEBEBEBEBEBEBEBEBEBE282828282828282828282828282828282828282828282828282828282828282828282828282828282828282828
310
BEBEBEBEBEBEBEBEBEBEBEBEBEBEBEBEBEBEBEBEBE000000000000DC000000000000000000000000000000000000000000000000000000000000000000000000000000000000000000000000000000000000000000000000000000000000000000000000000000000000000000000000000000000000000000000000DC0000
310
00000000000000BEBE0000BEBEBEBEBEBE28000000000000000000282800000000000000000000000000000000000000000000002800000000000000BEBEBE0000BE00000000BE0000000000000000000000000028282828282828282828282828282828282828282828282828282828282828282828282828282828282828
310
28280000000000000000000000000000000000000000BE000000000000DC000000000000000000000000000000000000000000000000000000000000000000000000000000000000000000000000000000000000000000000000000000000000000000000000000000000000000000000000000000000000000000000000DC
310
000000000000000000BEBEBEBEBEBEBEBEBEBE28282828282828282828282828282828282828000000000000282800000000000000002800000000000000BEBEBE0000BE00000000BE000000000000000000000000002828282828282828282828282828282828282828282828282828282828282828282828282828282828
310
282828280000000000000000000000000000000000000000BE000000000000DC0000000000000000000000000000000000000000000000000000000000000000000000000000000000000000000000000000000000000000000000000000000000000000000000000000000000000000000000000000000000000000000000
310
00DC000000000000000000000000BEBE000000002828000000000000000000000000000000000000282828282828BEBEBE28000000000000BEBEBEBEBEBEBEBEBEBEBE0000BE00000000BE00000000000000000000000000282828282828282828282828282828280000000000000000000000000000000000000000000000
310
0000000000280000000000000000000000000000000000000000BE000000000000DC000000000000000000000000000000000000000000000000000000000000000000000000000000000000000000000000000000000000000000000000000000000000000000000000000000000000000000000000000000000000000000
310
000000DC000000000000000000000000BEBE0000000028280000000000000000000000000000000000000000000000BEBE0000BE28000000000028000000000000000000BE0000BE00000000BE0000000000000000000000000028282800282800000000000000000028000000000000000000000000000000000000000000
310
00000000000000280000000000000000000000000000000000000000BE000000000000DC00000000000000000000000000000000000000000000000000000000000000000000000000000000000000000000000000000000000000000000000000000000000000000000000000000000000000000000000000000000000000
310
0000000000DC0000000000000000000000000000000000BEBEBEBE00000000000000000000000000000000000000000000BEBE0000BE00280000000028000000000000000000BE0000BE00000000BE000000000000000000000000002828280028280000000000000000002800000000000000000000000000000000000000
310
000000000000000000280000000000000000000000000000000000000000BE000000000000DC0000000000000000000000000000000000000000000000000000000000000000000000000000000000000000000000000000000000000000000000000000000000000000000000000000000000000000000000000000000000
310
00000000000000DC00000000000000000000000000000000BEBEBEBE0000000000000000000000000000000000000000000000BEBE0000BE00280000000028000000000000000000BEBEBEBE000000BEBE000000000000000000000000BEBEBEBEBEBEBEBEBEBEBEBEBEBE0000282828282828282828282828282828282828
310
2828282828282828282828280000000000000000000000000000000000000000BE000000000000DC000000000000000000000000000000000000000000000000000000000000000000000000000000000000000000000000000000000000000000000000000000000000000000000000000000000000000000000000000000
310
000000000000000000DC0000000000000000000000000000000000002828000000000000000000000000000000000000000000000000BE0000BE00002800000028000000000000000000BEBEBEBE000000BEBE0000000000000000000000000028282800280000280000000000000028000000000000000000000000000000
310
00000000000000000000000000280000000000000000000000000000000000000000BE000000000000DC00000000000000000000000000000000000000000000000000000000000000000000000000000000000000000000000000000000000000000000000000000000000000000000000000000000000000000000000000
310
0000000000000000000000DC0000000000000000000000000000000000002828000000000000000000000000000000000000000000000000BEBEBEBEBEBEBE2800002800000000000000BEBEBEBEBEBE000000BEBE000000000000000000000000002828280028000000282828282828282800000000000000000000000000
310
000000000000000000000000000000280000000000000000000000000000000000000000BE000000000000DC0000000000000000000000000000000000000000000000000000000000000000000000000000000000000000000000000000000000000000000000000000000000000000000000000000000000000000000000
310
00000000000000000000000000DC0000000000000000000000000000000000002828000000000000000000000000000000000000000000000000000000BE0000002D00002800000000000000BEBEBE0000BE00000000BE00000000000000000000000000282828002800000028000000282828280000000000000000000000
310
0000000000000000000000000000000000280000000000000000000000000000000000000000BE000000000000DC000000000000000000000000000000000000000000000000000000000000000000000000000000000000000000000000000000000000000000000000000000000000000000000000000000000000000000
310
000000000000000000000000000000DC0000000000000000000000000000000000002828000000000000000000000000000000000000000000000000000000BE000000BE2D002800000000000000BEBEBE0000BE00000000BE0000000000000000000000000028282800280000002800000028282828BEBE00000000000000
310
00000000000000000000000000000000000000280000000000000000000000000000000000000000BE000000000000DC00000000000000000000000000000000000000000000000000000000000000000000000000000000000000000000000000000000000000000000000000000000000000000000000000000000000000
310
0000000000000000000000000000000000DC0000000000000000000000000000000000002828000000000000000000000000000000000000000000000000000000BEBEBEBE2D2D0028000000000000000000BE0000BE00000000BE000000000000000000000000002828280028000000280000002828282828280000000000
310
000000000000000000000000000000000000000000280000000000000000000000000000000000000000BE000000000000DC0000000000000000000000000000000000000000000000000000000000000000000000000000000000000000000000000000000000000000000000000000000000000000000000000000000000
310
00000000000000000000000000000000000000DC000000000000000000000000000000000000282800000000000000000028BE00000000000000000000000028BE2800BEBEBEBEBE000028000000000000000000BE0000BE00000000BE00000000000000000000000000282828002800000028002828000028280000000000
310
000000000000000000000000000000000000000000000028000000000000000000000000000000000000BEBEBE000000000000DC000000000000000000000000000000000000000000000000000000000000000000000000000000000000000000000000000000000000000000000000000000000000000000000000000000
310
000000000000000000000000000000000000000000DC0000000000000000000000000000000000002828000000000000000000BEBE00000000000000000000000028BE280000BEBEBE28000028000000000000000000BE0000BE00000000BE0000000000000000000000000028282800280000002800282800002828000000
310
0000000000000000000000000000000000000000000000000028000000000000000000000000000000000000BEBEBE000000000000DC00000000000000000000000000000000000000000000000000000000000000000000000000000000000000000000000000000000000000000000000000000000000000000000000000
310
0000000000000000000000000000000000000000000000DC000000000000000000000000000000000000282800000000000000000028BE00000000000000000000000028BE28000000000028000028000000000000000000BE0000BE00000000BE000000000000000000000000002828280028000000280028282828282800
310
0000000000000000BEBEBEBEBEBEBEBEBEBEBEBEBEBEBE0000000028000000000000000000000000000000000000BEBEBE000000000000DC0000000000000000000000000000000000000000000000000000000000000000000000000000000000000000000000000000000000000000000000000000000000000000000000
310
00000000000000000000000000000000000000000000000000DC000000000000000000000000000000000000282828282828282828282828BE28282828282828282828282828BE28282828282828282828BEBEBEBEBEBEBEBEBEBEBEBEBE00000000BEBEBEBEBEBEBEBEBEBEBEBEBEBE282828282828282828282828282828
310
2828000028000000000000BEBEBEBEBEBE00BEBEBEBEBEBEBE00000000280000000000000000000000000000000000000000BE000000000000DC000000000000000000000000000000000000000000000000000000000000000000000000000000000000000000000000000000000000000000000000000000000000000000
310
000000000000000000000000000000000000000000000000000000DC0000000000000000000000000000000000002800000000000000000000BEBE00000000000000000000000000BE28000000280000282828000000000000000000000000BE00000000BE000000000000000000000000002828BE28000028000000BEBE00
310
0000002828BEBE280000000000000000000000000000000000000000000028000000000000000000000000000000000000000000BE000000000000DC00000000000000000000000000000000000000000000000000000000000000000000000000000000000000000000000000000000000000000000000000000000000000
310
0000000000000000000000000000000000000000000000000000000000DC000000000000000000000000000000000000280000000000000000000028BE00000000000000000000000000BE28000000280000282828000000000000000000000000BE00000000BE000000000000000000000000002828BE28000028000000BE
310
BE000000000028BEBE000000000000000000000000000000000000000000000028000000000000000000000000000000000000000000BE000000000000DC0000000000000000000000000000000000000000000000000000000000000000000000000000000000000000000000000000000000000000000000000000000000
310
00000000000000000000000000000000000000000000000000000000000000DC00000000000000000000000000000000000028000000000000000000000000000000000000000000000000000000000000280000282828000000000000000000000000BE00000000BE00000000000000000000000000282800280000280000
310
0000000000000000282828000000000000000000000000000000000000000000000028000000000000000000000000000000000000000000BE000000000000DC000000000000000000000000000000000000000000000000000000000000000000000000000000000000000000000000000000000000000000000000000000
310
000000000000000000000000000000000000000000000000000000000000000000DC00000000000000000000000000000000000028000000000000000000000000000000000000000000000000000000000000280000282828000000000000000000000000BE00000000BE0000000000000000000000000028280028000028
310
00000000000000000028280028280000000000000000000000000000000000000000000028000000000000000000000000000000000000000000BE000000000000DC00000000000000000000000000000000000000000000000000000000000000000000000000000000000000000000000000000000000000000000000000
310
0000000000000000000000000000000000000000000000000000000000000000000000DC00000000000000000000000000000000000028000000000000000000000000000000000000000000000000000000000000280000282828000000000000000000000000BE00000000BE000000000000000000000000002828002800
310
002800000000000000000028000000282800BE2800000000000000000000000000000000000028000000000000000000000000000000000000000000BE000000000000DC0000000000000000000000000000000000000000000000000000000000000000000000000000000000000000000000000000000000000000000000
310
00000000000000000000000000000000000000000000000000000000000000000000000000DC000000000000000000000000000000000000280000000000000000000000000000000000000000000000000000BEBE0000280000282828000000000000000000000000BE00000000BE00000000000000000000000000282800
310
2800002800000000000000000000000000002828BEBE00000000000000000000000000000000000028000000000000000000000000000000000000000000BE000000000000DC000000000000000000000000000000000000000000000000000000000000000000000000000000000000000000000000000000000000000000
310
000000000000000000000000000000000000000000000000000000000000000000000000000000DC000000000000000000000000000000000000280000000000000000000000000000000000000000000000000000BEBE0000280000282828000000000000000000000000BE00000000BE0000000000000000000000000028
310
280028000028000000000000000000000000000028BE280000000000000000000000000000000000000028000000000000000000000000000000000000000000BE000000000000DC00000000000000000000000000000000000000000000000000000000000000000000000000000000000000000000000000000000000000
310
0000000000000000000000000000000000000000000000000000000000000000000000000000000000DC00000000000000000000000000000000000028000000000000000000000000000000000000000000000000BEBE00000000280000282828000000000000000000000000BE00000000BE000000000000000000000000
310
00282800280000280000000000000000000000000028BE28282800000000000000000000000000000000000028000000000000000000000000000000000000000000BE000000000000DC0000000000000000000000000000000000000000000000000000000000000000000000000000000000000000000000000000000000
310
00000000000000000000000000000000000000000000000000000000000000000000000000000000000000DC000000000000000000000000000000000000280000000000000000000000000000000000000000000000BE000000000000280000282828000000000000000000000000BE00000000BE00000000000000000000
310
00000028280028000028000000000000000000000000000028000028280000000000000000000000BE000000000028000000000000000000000000000000000000000000BE000000000000DC000000000000000000000000000000000000000000000000000000000000000000000000000000000000000000000000000000
310
000000000000000000000000000000000000000000000000000000000000000000000000000000000000000000DC0000000000000000000000000000000000002800000000000000000000000000000000000000000000BEBE000000000000280000282828000000000000000000000000BE00000000BE0000000000000000
310
000000000028280028000028000000000000000000000000000000000000282800000000000000000000BEBE0000000028000000000000000000000000000000000000000000BE000000000000DC00000000000000000000000000000000000000000000000000000000000000000000000000000000000000000000000000
310
0000000000000000000000000000000000000000000000000000000000000000000000000000000000000000000000DC0000000000000000000000000000000000002800000000000000000000000000000000000000000000BEBE000000000000280000282828000000000000000000000000BE00000000BE000000000000
310
000000000000002828002800002800000000000000000000000000000000000000282828282828282828282828282828282828BEBEBEBEBEBEBEBEBEBEBEBEBEBEBEBEBEBEBEBEBEBE000000000000DC0000000000000000000000000000000000000000000000000000000000000000000000000000000000000000000000
310
00000000000000000000000000000000000000000000000000000000000000000000000000000000000000000000000000DC0000000000000000000000000000000000002800000000000000000000000000000000000000000000BEBE000000000000280000282828000000000000000000000000BE00000000BE00000000
310
00000000000000000028280028000028000000000000000000000000000000000000000028BEBEBEBEBEBEBEBEBEBEBE000000000000000000000000000000000000000000000000000000000000000000DC000000000000000000000000000000000000000000000000000000000000000000000000000000000000000000
310
000000000000000000000000000000000000000000000000000000000000000000000000000000000000000000000000000000DC0000000000000000000000000000000000002800000000000000000000000000000000000000000000BEBE00000000000028000028282800000000000000000000BEBEBE000000BEBE0000
310
00000000000000000000002828002800002800000000000000000000000000000000000000002800000000000000000000BE000000000000000000000000000000000000000000000000000000000000000000DC00000000000000000000000000000000000000000000000000000000000000000000000000000000000000
310
0000000000000000000000000000000000000000000000000000000000000000000000000000000000000000000000000000000000DC0000000000000000000000000000000000002800000000000000000000000000000000000000000000BEBE00000000000028000028282800000000000000000000BEBEBE000000BEBE
310
000000000000000000000000002828002800002800000000000000000000000000000000000000002800000000000000000000BE000000000000000000000000000000000000000000000000000000000000000000DC0000000000000000000000000000000000000000000000000000000000000000000000000000000000
310
00000000000000000000000000000000000000000000000000000000000000000000000000000000000000000000000000000000000000DC0000000000000000000000000000000000002800000000000000000000000000000000000000000000000000000000000028000028282800000000000000000000BEBEBE000000
310
BEBE000000000000000000000000002828002800002800000000000000000000000000000000000000002800000000000000000000BE000000000000000000000000000000000000000000000000000000000000000000DC000000000000000000000000000000000000000000000000000000000000000000000000000000
310
000000000000000000000000000000000000000000000000000000000000000000000000000000000000000000000000000000000000000000DC00000000000000000000000000000000000028000000000000000000000000000000000000000000000000000000000000280000282828000000000000000000000000BE00
310
000000BE000000000000000000000000002828002800002800000000000000000000000000000000000000002800000000000000000000BE000000000000000000000000000000000000000000000000000000000000000000DC00000000000000000000000000000000000000000000000000000000000000000000000000
310
0000000000000000000000000000000000000000000000000000000000000000000000000000000000000000000000000000000000000000000000DC00000000000000000000000000000000000028000000000000000000000000000000000000000000000000000000000000280000282828000000000000000000000000
310
BE00000000BE000000000000000000000000002828002800002800000000000000000000000000000000000000002800000000000000000000BE000000000000000000000000000000000000000000000000000000000000000000DC0000000000000000000000000000000000000000000000000000000000000000000000
310
00000000000000000000000000000000000000000000000000000000000000000000000000000000000000000000000000000000000000000000000000DC0000000000000000000000000000000000002800000000000000000000000000000000000000000000000000000000000028000028282800000000000000000000
310
0000BE00000000BE0000000000000000000000000028280028000028000000BEBEBEBEBEBEBEBEBEBEBEBEBEBE0000002800000000000000000000BE000000000000000000000000000000000000000000000000000000000000000000DC000000000000000000000000000000000000000000000000000000000000000000
310
000000000000000000000000000000000000000000000000000000000000000000000000000000000000000000000000000000000000000000000000000000DC000000000000000000000000000000000000280000000000000000000000000000000000000000000000000000000000002800002828280000000000000000
310
00000000BE00000000BE0000000000000000000000000028280028000028000000000000000000000000000000000000000028000000000000000000BEBE000000000000000000000000000000000000000000000000000000000000000000DC00000000000000000000000000000000000000000000000000000000000000
310
0000000000000000000000000000000000000000000000000000000000000000000000000000000000000000000000000000000000000000000000000000000000DC00000000000000000000000000000000000028000000000000000000000000000000000000000000000000000000000000280000282828000000000000
310
000000000000BE00000000BE0000000000000000000000000028280028000028000000000000000000000000000000000000000028000000000000000000BEBE000000000000000000000000000000000000000000000000000000000000000000DC0000000000000000000000000000000000000000000000000000000000
310
00000000000000000000000000000000000000000000000000000000000000000000000000000000000000000000000000000000000000000000000000000000000000DC000000000000000000000000000000000000280000000000000000000000000000000000000000000000000000BEBE000028000028282800000000
310
0000000000000000BE00000000BE0000000000000000000000000028280028000028000000000000000000000000000000000000000028000000000000000000BEBE000000000000000000000000000000000000000000000000000000000000000000DC000000000000000000000000000000000000000000000000000000
310
000000000000000000000000000000000000000000000000000000000000000000000000000000000000000000000000000000000000000000000000000000000000000000DC000000000000000000000000000000000000280000000000000000000000000000000000000000000000000000BEBE00002800002828280000
310
00000000000000000000BE00000000BE000000000000000000000000002828002800002800000000000000000000000000000000000000002800000000000000000000BE000000000000000000000000000000000000000000000000000000000000000000DC00000000000000000000000000000000000000000000000000
310
0000000000000000000000000000000000000000000000000000000000000000000000000000000000000000000000000000000000000000000000000000000000000000000000DC00000000000000000000000000000000000028000000000000000000000000000000000000000000000000000000000000280000282828
310
000000000000000000000000BE00000000BE000000000000000000000000002828002800002800000000000000000000000000000000000000002800000000000000000000BE000000000000000000000000000000000000000000000000000000000000000000DC0000000000000000000000000000000000000000000000
310
00000000000000000000000000000000000000000000000000000000000000000000000000000000000000000000000000000000000000000000000000000000000000000000000000DC0000000000000000000000000000000000002800000000000000000000000000000000000000000000000000000000000028000028
310
2828000000000000000000000000BE00000000BE000000000000000000000000002828002800002800000000000000000000000000000000000000002800000000000000000000BE000000000000000000000000000000000000000000000000000000000000000000DC000000000000000000000000000000000000000000
310
000000000000000000000000000000000000000000000000000000000000000000000000000000000000000000000000000000000000000000000000000000000000000000000000000000DC000000000000000000000000000000000000280000000000000000000000000000000000000000000000000000000000002800
310
00282828000000000000000000000000BE00000000BE000000000000000000000000002828002800002800000000000000000000000000000000000000002800000000000000000000BE000000000000000000000000000000000000000000000000000000000000000000DC00000000000000000000000000000000000000
310
0000000000000000000000000000000000000000000000000000000000000000000000000000000000000000000000000000000000000000000000000000000000000000000000000000000000DC00000000000000000000000000000000000028000000000000000000000000000000000000000000000000000000000000
310
280000282828000000000000000000000000BE00000000BE000000000000000000000000002828002800002800000000000000000000000000000000000000002800000000000000000000BE000000000000000000000000000000000000000000000000000000000000000000DC0000000000000000000000000000000000
310
00000000000000000000000000000000000000000000000000000000000000000000000000000000000000000000000000000000000000000000000000000000000000000000000000000000000000DC0000000000000000000000000000000000002800000000000000000000000000000000000000000000000000000000
310
0000280000282828000000000000000000000000BE00000000BE000000000000000000000000002828002800002800000000000000000000000000000000000000002800000000000000000000BE000000000000000000000000000000000000000000000000000000000000000000DC000000000000000000000000000000
310
000000000000000000000000000000000000000000000000000000000000000000000000000000000000000000000000000000000000000000000000000000000000000000000000000000000000000000DC000000000000000000000000000000000000280000000000000000000000000000000000000000000000000000
310
00000000280000282828000000000000000000000000BE00000000BE0000000000000000000000000028280028000028000000000000000000282828282828282828282828BEBEBEBEBEBEBEBEBEBEBE000000000000000000000000000000000000000000000000000000000000000000DC00000000000000000000000000
310
0000000000000000000000000000000000000000000000000000000000000000000000000000000000000000000000000000000000000000000000000000000000000000000000000000000000000000000000DC00000000000000000000000000000000000028282828282828282828282828282828282828282828282828
310
2828282828282828282828BEBEBEBEBEBEBEBEBEBEBEBEBEBE00000000BEBEBEBEBEBEBEBEBEBEBEBEBEBE28282828282828282828282828282828BEBEBEBEBEBEBEBEBEBEBEBEBEBEBEBEBEBEBEBEBEBEBE000000000000000000000000000000000000000000000000000000000000000000DC0000000000000000000000
310
00000000000000000000000000000000000000000000000000000000000000000000000000000000000000000000000000000000000000000000000000000000000000000000000000000000000000000000000000DC0000000000000000000000000000000000000000000000000000000000000000000000000000000000
310
000000000000000000000000000000000000000000000000000000000000000000000000000000000000000000BE0000000000000000000000000000000000000000000000000000BE000000000000000000BEBE000000000000000000000000000000000000000000000000000000000000000000DC000000000000000000
310
000000000000000000000000000000000000000000000000000000000000000000000000000000000000000000000000000000000000000000000000000000000000000000000000000000000000000000000000000000DC000000000000000000000000000000000000000000000000000000000000000000000000000000
310
0000000000000000000000000000000000000000000000000000000000000000000000000000000000000000000000BE0000000000000000000000000000000000000000000000000000BE0000000000000000000000000000000000000000000000000000000000000000000000000000000000000000DC00000000000000
310
0000000000000000000000000000000000000000000000000000000000000000000000000000000000000000000000000000000000000000000000000000000000000000000000000000000000000000000000000000000000DC00000000000000000000000000000000000000000000000000000000000000000000000000
310
00000000000000000000000000000000000000000000000000000000000000000000000000000000000000000000000000BE0000000000000000000000000000000000000000000000000000BE0000000000000000000000000000000000000000000000000000000000000000000000000000000000000000DC0000000000
310
00000000000000000000000000000000000000000000000000000000000000000000000000000000000000000000000000000000000000000000000000000000000000000000000000000000000000000000000000000000000000DC0000000000000000000000000000000000000000000000000000000000000000000000
310
000000000000000000000000000000000000000000000000000000000000000000000000000000000000000000000000000000BE0000000000000000000000000000000000000000000000000000BE0000000000000000000000000000000000000000000000000000000000000000000000000000000000000000DC000000
310
000000000000000000000000000000000000000000000000000000000000000000000000000000000000000000000000000000000000000000000000000000000000000000000000000000000000000000000000000000000000000000DC000000000000000000000000000000000000000000000000000000000000000000
310
0000000000000000000000000000000000000000000000000000000000000000000000000000000000000000000000000000000000BE0000000000000000000000000000000000000000000000000000BE0000000000000000000000000000000000000000000000000000000000000000000000000000000000000000DC00
310
0000000000000000000000000000000000000000000000000000000000000000000000000000000000000000000000000000000000000000000000000000000000000000000000000000000000000000000000000000000000000000000000DC00000000000000000000000000000000000000000000000000000000000000
310
00000000000000000000000000000000000000000000000000000000000000000000000000000000000000000000000000000000000000BE0000000000000000000000000000000000000000000000000000BE0000000000000000000000000000000000000000000000000000000000000000000000000000000000000000
310
DC000000000000000000000000000000000000000000000000000000000000000000000000000000000000000000000000000000000000000000000000000000000000000000000000000000000000000000000000000000000000000000000000DC0000000000000000000000000000000000000000000000000000000000
310
000000000000000000000000000000000000000000000000000000000000000000000000000000000000000000000000000000000000000000BE0000000000000000000000000000000000000000000000000000BE000000000000000000000000000000000000000000000000000000000000000000000000000000000000
310
0000DC000000000000000000000000000000000000000000000000000000000000000000000000000000000000000000000000000000000000000000000000000000000000000000000000000000000000000000000000000000000000000000000000DC000000000000000000000000000000000000000000000000000000
310
0000000000000000000000000000000000000000000000000000000000000000000000000000000000000000000000000000000000000000000000BE0000000000000000000000000000000000000000000000000000BE00000000000000000000000000000000000000000000000000000000000000000000000000000000
310
00000000DC000000000000000000000000000000000000000000000000000000000000000000000000000000000000000000000000000000000000000000000000000000000000000000000000000000000000000000000000000000000000000000000000DC00000000000000000000000000000000000000000000000000
310
00000000000000000000000000000000000000000000000000000000000000000000000000000000000000000000000000000000000000000000000000BEBE000000000000000000000000000000000000000000000000BEBE0000000000000000000000000000000000000000000000000000000000000000000000000000
310
000000000000DC000000000000000000000000000000000000000000000000000000000000000000000000000000000000000000000000000000000000000000000000000000000000000000000000000000000000000000000000000000000000000000000000DC0000000000000000000000000000000000000000000000
310
000000000000000000000000000000000000000000000000000000000000000000000000000000000000000000000000000000000000000000000000000000BEBEBEBEBEBEBEBEBEBEBEBEBEBEBEBEBEBEBEBEBEBEBEBEBEBEBEBE000000000000000000000000000000000000000000000000000000000000000000000000
310
0000000000000000DC000000000000000000000000000000000000000000000000000000000000000000000000000000000000000000000000000000000000000000000000000000000000000000000000000000000000000000000000000000000000000000000000DC000000000000000000000000000000000000000000
310
0000000000000000000000000000000000000000000000000000000000000000000000000000000000000000000000000000000000000000000000000000000000000000000000000000000000BEBEBEBE00000000000000000000000000000000000000000000000000000000000000000000000000000000000000000000
310
00000000000000000000DC000000000000000000000000000000000000000000000000000000000000000000000000000000000000000000000000000000000000000000000000000000000000000000000000000000000000000000000000000000000000000000000000DC00000000000000000000000000000000000000
310
00000000000000000000000000000000000000000000000000000000000000000000000000000000000000000000000000000000000000000000000000000000000000000000000000000000000000000000000000000000000000000000000000000000000000000000000000000000000000000000000000000000000000
310
000000000000000000000000DC000000000000000000000000000000000000000000000000000000000000000000000000000000000000000000000000000000000000000000000000000000000000000000000000000000000000000000000000000000000000000000000000DC0000000000000000000000000000000000
310
00000000000000000000000000000000000000000000000000000000000000000000000000000000000000000000000000000000000000000000000000000000000000000000000000000000000000000000000000000000000000000000000000000000000000000000000000000000000000000000000000000000000000
310
0000000000000000000000000000DC000000000000000000000000000000000000000000000000000000000000000000000000000000000000000000000000000000000000000000000000000000000000000000000000000000000000000000000000000000000000000000000000DCDCDCDCDCDCDCDCDCDCDCDCDCDCDCDC
310
DCDCDCDCDCDCDCDCDCDCDCDCDCDCDCDCDCDCDCDCDCDCDCDCDCDCDCDCDCDCDCDCDCDCDCDCDCDCDCDCDCDCDCDCDCDCDCDCDCDCDCDCDCDCDCDCDCDCDCDCDCDCDCDCDCDCDCDCDCDCDCDCDCDCDCDCDCDCDCDCDCDCDCDCDCDCDCDCDCDCDCDCDCDCDCDCDCDCDCDCDCDCDCDCDCDCDCDCDCDCDCDCDCDCDCDCDCDCDCDCDCDCDCDCDCDCDC
310
DCDCDCDCDCDCDCDCDCDCDCDCDCDCDCDCDC0000000000000000000000000000000000000000000000000000000000000000000000000000000000000000000000000000000000000000000000000000000000000000000000000000000000000000000000000000000000000000000000000000000000000000000000000000
310
00000000000000000000000000000000000000000000000000000000000000000000000000000000000000000000000000000000000000000000000000000000000000000000000000000000000000000000000000000000000000000000000000000000000000000000000000000000000000000000000000000000000000
310
00000000000000000000000000000000000000000000000000000000000000000000000000000000000000000000000000000000000000000000000000000000000000000000000000000000000000000000000000000000000000000000000000000000000000000000000000000000000000000000000000000000000000
310
00000000000000000000000000000000000000000000000000000000000000000000000000000000000000000000000000000000000000000000000000000000000000000000000000000000000000000000000000000000000000000000000000000000000000000000000000000000000000000000000000000000000000
310
00000000000000000000000000000000000000000000000000000000000000000000000000000000000000000000000000000000000000000000000000000000000000000000000000000000000000000000000000000000000000000000000000000000000000000000000000000000000000000000000000000000000000
310
00000000000000000000000000000000000000000000000000000000000000000000000000000000000000000000000000000000000000000000000000000000000000000000000000000000000000000000000000000000000000000000000000000000000000000000000000000000000000000000000000000000000000
310
00000000000000000000000000000000000000000000000000000000000000000000000000000000000000000000000000000000000000000000000000000000000000000000000000000000000000000000000000000000000000000000000000000000000000000000000000000000000000000000000000000000000000
310
00000000000000000000000000000000000000000000000000000000000000000000000000000000000000000000000000000000000000000000000000000000000000000000000000000000000000000000000000000000000000000000000000000000000000000000000000000000000000000000000000000000000000
310
00000000000000000000000000000000000000000000000000000000000000000000000000000000000000000000000000000000000000000000000000000000000000000000000000000000000000000000000000000000000000000000000000000000000000000000000000000000000000000000000000000000000000
310
00000000000000000000000000000000000000000000000000000000000000000000000000000000000000000000000000000000000000000000000000000000000000000000000000000000000000000000000000000000000000000000000000000000000000000000000000000000000000000000000000000000000000
310
00000000000000000000000000000000000000000000000000000000000000000000000000000000000000000000000000000000000000000000000000000000000000000000000000000000000000000000000000000000000000000000000000000000000000000000000000000000000000000000000000000000000000
310
00000000000000000000000000000000000000000000000000000000000000000000000000000000000000000000000000000000000000000000000000000000000000000000000000000000000000000000000000000000000000000000000000000000000000000000000000000000000000000000000000000000000000
310
00000000000000000000000000000000000000000000000000000000000000000000000000000000000000000000000000000000000000000000000000000000000000000000000000000000000000000000000000000000000000000000000000000000000000000000000000000000000000000000000000000000000000
310
00000000000000000000000000000000000000000000000000000000000000000000000000000000000000000000000000000000000000000000000000000000000000000000000000000000000000000000000000000000000000000000000000000000000000000000000000000000000000000000000000000000000000
310
00000000000000000000000000000000000000000000000000000000000000000000000000000000000000000000000000000000000000000000000000000000000000000000000000000000000000000000000000000000000000000000000000000000000000000000000000000000000000000000000000000000000000
310
00000000000000000000000000000000000000000000000000000000000000000000000000000000000000000000000000000000000000000000000000000000000000000000000000000000000000000000000000000000000000000000000000000000000000000000000000000000000000000000000000000000000000
310
00000000000000000000000000000000000000000000000000000000000000000000000000000000000000000000000000000000000000000000000000000000000000000000000000000000000000000000000000000000000000000000000000000000000000000000000000000000000000000000000000000000000000
310
00000000000000000000000000000000000000000000000000000000000000000000000000000000000000000000000000000000000000000000000000000000000000000000000000000000000000000000000000000000000000000000000000000000000000000000000000000000000000000000000000000000000000
310
00000000000000000000000000000000000000000000000000000000000000000000000000000000000000000000000000000000000000000000000000000000000000000000000000000000000000000000000000000000000000000000000000000000000000000000000000000000000000000000000000000000000000
310
00000000000000000000000000000000000000000000000000000000000000000000000000000000000000000000000000000000000000000000000000000000000000000000000000000000000000000000000000000000000000000000000000000000000000000000000000000000000000000000000000000000000000
310
00000000000000000000000000000000000000000000000000000000000000000000000000000000000000000000000000000000000000000000000000000000000000000000000000000000000000000000000000000000000000000000000000000000000000000000000000000000000000000000000000000000000000
310
00000000000000000000000000000000000000000000000000000000000000000000000000000000000000000000000000000000000000000000000000000000000000000000000000000000000000000000000000000000000000000000000000000000000000000000000000000000000000000000000000000000000000
310
00000000000000000000000000000000000000000000000000000000000000000000000000000000000000000000000000000000000000000000000000000000000000000000000000000000000000000000000000000000000000000000000000000000000000000000000000000000000000000000000000000000000000
310
00000000000000000000000000000000000000000000000000000000000000000000000000000000000000000000000000000000000000000000000000000000000000000000000000000000000000000000000000000000000000000000000000000000000000000000000000000000000000000000000000000000000000
310
00000000000000000000000000000000000000000000000000000000000000000000000000000000000000000000000000000000000000000000000000000000000000000000000000000000000000000000000000000000000000000000000000000000000000000000000000000000000000000000000000000000000000
310
00000000000000000000000000000000000000000000000000000000000000000000000000000000000000000000000000000000000000000000000000000000000000000000000000000000000000000000000000000000000000000000000000000000000000000000000000000000000000000000000000000000000000
310
00000000000000000000000000000000000000000000000000000000000000000000000000000000000000000000000000000000000000000000000000000000000000000000000000000000000000000000000000000000000000000000000000000000000000000000000000000000000000000000000000000000000000
310
00000000000000000000000000000000000000000000000000000000000000000000000000000000000000000000000000000000000000000000000000000000000000000000000000000000000000000000000000000000000000000000000000000000000000000000000000000000000000000000000000000000000000
310
00000000000000000000000000000000000000000000000000000000000000000000000000000000000000000000000000000000000000000000000000000000000000000000000000000000000000000000000000000000000000000000000000000000000000000000000000000000000000000000000000000000000000
310
00000000000000000000000000000000000000000000000000000000000000000000000000000000000000000000000000000000000000000000000000000000000000000000000000000000000000000000000000000000000000000000000000000000000000000000000000000000000000000000000000000000000000
310
00000000000000000000000000000000000000000000000000000000000000000000000000000000000000000000000000000000000000000000000000000000000000000000000000000000000000000000000000000000000000000000000000000000000000000000000000000000000000000000000000000000000000
310
00000000000000000000000000000000000000000000000000000000000000000000000000000000000000000000000000000000000000000000000000000000000000000000000000000000000000000000000000000000000000000000000000000000000000000000000000000000000000000000000000000000000000
310
00000000000000000000000000000000000000000000000000000000000000000000000000000000000000000000000000000000000000000000000000000000000000000000000000000000000000000000000000000000000000000000000000000000000000000000000000000000000000000000000000000000000000
310
00000000000000000000000000000000000000000000000000000000000000000000000000000000000000000000000000000000000000000000000000000000000000000000000000000000000000000000000000000000000000000000000000000000000000000000000000000000000000000000000000000000000000
310
00000000000000000000000000000000000000000000000000000000000000000000000000000000000000000000000000000000000000000000000000000000000000000000000000000000000000000000000000000000000000000000000000000000000000000000000000000000000000000000000000000000000000
310
00000000000000000000000000000000000000000000000000000000000000000000000000000000000000000000000000000000000000000000000000000000000000000000000000000000000000000000000000000000000000000000000000000000000000000000000000000000000000000000000000000000000000
310
00000000000000000000000000000000000000000000000000000000000000000000000000000000000000000000000000000000000000000000000000000000000000000000000000000000000000000000000000000000000000000000000000000000000000000000000000000000000000000000000000000000000000
310
00000000000000000000000000000000000000000000000000000000000000000000000000000000000000000000000000000000000000000000000000000000000000000000000000000000000000000000000000000000000000000000000000000000000000000000000000000000000000000000000000000000000000
310
00000000000000000000000000000000000000000000000000000000000000000000000000000000000000000000000000000000000000000000000000000000000000000000000000000000000000000000000000000000000000000000000000000000000000000000000000000000000000000000000000000000000000
310
00000000000000000000000000000000000000000000000000000000000000000000000000000000000000000000000000000000000000000000000000000000000000000000000000000000000000000000000000000000000000000000000000000000000000000000000000000000000000000000000000000000000000
310
00000000000000000000000000000000000000000000000000000000000000000000000000000000000000000000000000000000000000000000000000000000000000000000000000000000000000000000000000000000000000000000000000000000000000000000000000000000000000000000000000000000000000
310
00000000000000000000000000000000000000000000000000000000000000000000000000000000000000000000000000000000000000000000000000000000000000000000000000000000000000000000000000000000000000000000000000000000000000000000000000000000000000000000000000000000000000
310
00000000000000000000000000000000000000000000000000000000000000000000000000000000000000000000000000000000000000000000000000000000000000000000000000000000000000000000000000000000000000000000000000000000000000000000000000000000000000000000000000000000000000
310
00000000000000000000000000000000000000000000000000000000000000000000000000000000000000000000000000000000000000000000000000000000000000000000000000000000000000000000000000000000000000000000000000000000000000000000000000000000000000000000000000000000000000
310
00000000000000000000000000000000000000000000000000000000000000000000000000000000000000000000000000000000000000000000000000000000000000000000000000000000000000000000000000000000000000000000000000000000000000000000000000000000000000000000000000000000000000
310
00000000000000000000000000000000000000000000000000000000000000000000000000000000000000000000000000000000000000000000000000000000000000000000000000000000000000000000000000000000000000000000000000000000000000000000000000000000000000000000000000000000000000
310
00000000000000000000000000000000000000000000000000000000000000000000000000000000000000000000000000000000000000000000000000000000000000000000000000000000000000000000000000000000000000000000000000000000000000000000000000000000000000000000000000000000000000
310
00000000000000000000000000000000000000000000000000000000000000000000000000000000000000000000000000000000000000000000000000000000000000000000000000000000000000000000000000000000000000000000000000000000000000000000000000000000000000000000000000000000000000
310
00000000000000000000000000000000000000000000000000000000000000000000000000000000000000000000000000000000000000000000000000000000000000000000000000000000000000000000000000000000000000000000000000000000000000000000000000000000000000000000000000000000000000
310
00000000000000000000000000000000000000000000000000000000000000000000000000000000000000000000000000000000000000000000000000000000000000000000000000000000000000000000000000000000000000000000000000000000000000000000000000000000000000000000000000000000000000
310
00000000000000000000000000000000000000000000000000000000000000000000000000000000000000000000000000000000000000000000000000000000000000000000000000000000000000000000000000000000000000000000000000000000000000000000000000000000000000000000000000000000000000
310
00000000000000000000000000000000000000000000000000000000000000000000000000000000000000000000000000000000000000000000000000000000000000000000000000000000000000000000000000000000000000000000000000000000000000000000000000000000000000000000000000000000000000
310
0000000000000000000000000000000000000000000000000000000000000000000000000000000000000000000000000000000000000000000000000000000000000000000000000000000000000000000000000000000000000000000000000000000000000000000000000000000000000000000000000000
  0
XRECORD
  5
4850
102
{ACAD_REACTORS
330
484F
102
}
330
484F
100
AcDbXrecord
280
     1
102
MATERIAL
148
0.0
149
0.0
149
0.0
 93
        0
 94
      127
282
     0
 72
     0
 77
     0
171
     0
175
     0
179
     0
273
     0
  0
XRECORD
  5
4852
102
{ACAD_REACTORS
330
4851
102
}
330
4851
100
AcDbXrecord
280
     1
102
MATERIAL
148
0.0
149
0.0
149
0.0
 93
        0
 94
      127
282
     0
 72
     0
 77
     0
171
     0
175
     0
179
     0
273
     0
  0
XRECORD
  5
4854
102
{ACAD_REACTORS
330
4853
102
}
330
4853
100
AcDbXrecord
280
     1
102
MATERIAL
148
0.0
149
0.0
149
0.0
 93
        0
 94
      127
282
     0
 72
     0
 77
     0
171
     0
175
     0
179
     0
273
     0
  0
XRECORD
  5
4840
102
{ACAD_REACTORS
330
483F
102
}
330
483F
100
AcDbXrecord
280
     1
102
DISPLAYNAME
  1
Imperial24
102
FLAGS
 90
        0
  0
CELLSTYLEMAP
  5
4857
102
{ACAD_REACTORS
330
4855
102
}
330
4855
100
AcDbCellStyleMap
 90
        3
300
CELLSTYLE
  1
TABLEFORMAT_BEGIN
 90
        5
170
     1
 91
        0
 92
    32768
 62
   257
 93
        1
300
CONTENTFORMAT
  1
CONTENTFORMAT_BEGIN
 90
        0
 91
        0
 92
      512
 93
        0
300

 40
0.0
140
1.0
 94
        5
 62
     0
340
F
144
0.25
309
CONTENTFORMAT_END
171
     0
 94
        0
309
TABLEFORMAT_END
  1
CELLSTYLE_BEGIN
 90
        1
 91
        1
300
_TITLE
309
CELLSTYLE_END
300
CELLSTYLE
  1
TABLEFORMAT_BEGIN
 90
        5
170
     1
 91
        0
 92
        0
 62
   257
 93
        1
300
CONTENTFORMAT
  1
CONTENTFORMAT_BEGIN
 90
        0
 91
        0
 92
      512
 93
        0
300

 40
0.0
140
1.0
 94
        5
 62
     0
340
F
144
0.18
309
CONTENTFORMAT_END
171
     0
 94
        0
309
TABLEFORMAT_END
  1
CELLSTYLE_BEGIN
 90
        2
 91
        1
300
_HEADER
309
CELLSTYLE_END
300
CELLSTYLE
  1
TABLEFORMAT_BEGIN
 90
        5
170
     1
 91
        0
 92
        0
 62
   257
 93
        1
300
CONTENTFORMAT
  1
CONTENTFORMAT_BEGIN
 90
        0
 91
        0
 92
      512
 93
        0
300

 40
0.0
140
1.0
 94
        2
 62
     0
340
F
144
0.18
309
CONTENTFORMAT_END
171
     0
 94
        0
309
TABLEFORMAT_END
  1
CELLSTYLE_BEGIN
 90
        3
 91
        2
300
_DATA
309
CELLSTYLE_END
  0
XRECORD
  5
4856
102
{ACAD_REACTORS
330
4855
102
}
330
4855
100
AcDbXrecord
280
     1
102
ACAD_ROUNDTRIP_PRE2007_TABLESTYLE
 90
      512
 91
        0
  1

 92
      512
 93
        0
  2

 94
      512
 95
        0
  3

  0
XRECORD
  5
485A
102
{ACAD_REACTORS
330
4859
102
}
330
4859
100
AcDbXrecord
280
     1
102
RTVSPropertyOp0
 70
     1
102
RTVSPropertyOp1
 70
     1
102
RTVSPropertyOp2
 70
     1
102
RTVSPropertyOp3
 70
     1
102
RTVSPropertyOp4
 70
     1
102
RTVSPropertyOp5
 70
     1
102
RTVSPropertyOp6
 70
     1
102
RTVSPropertyOp7
 70
     1
102
RTVSPropertyOp8
 70
     1
102
RTVSPropertyOp9
 70
     1
102
RTVSPropertyOp10
 70
     1
102
RTVSPropertyOp11
 70
     1
102
RTVSPropertyOp12
 70
     1
102
RTVSPropertyOp13
 70
     1
102
RTVSPropertyOp14
 70
     1
102
RTVSPropertyOp15
 70
     1
102
RTVSPropertyOp16
 70
     1
102
RTVSPropertyOp17
 70
     1
102
RTVSPropertyOp18
 70
     1
102
RTVSPropertyOp19
 70
     1
102
RTVSPropertyOp20
 70
     1
102
RTVSPropertyOp21
 70
     1
102
RTVSPropertyOp22
 70
     1
102
RTVSPropertyOp23
 70
     1
102
RTVSPropertyOp24
 70
     1
102
RTVSPropertyOp25
 70
     1
102
RTVSPropertyOp26
 70
     1
102
RTVSPropertyOp27
 70
     1
  0
XRECORD
  5
485C
102
{ACAD_REACTORS
330
485B
102
}
330
485B
100
AcDbXrecord
280
     1
102
RTVSPropertyOp0
 70
     1
102
RTVSPropertyOp1
 70
     1
102
RTVSPropertyOp2
 70
     1
102
RTVSPropertyOp3
 70
     1
102
RTVSPropertyOp4
 70
     1
102
RTVSPropertyOp5
 70
     1
102
RTVSPropertyOp6
 70
     1
102
RTVSPropertyOp7
 70
     1
102
RTVSPropertyOp8
 70
     1
102
RTVSPropertyOp9
 70
     1
102
RTVSPropertyOp10
 70
     1
102
RTVSPropertyOp11
 70
     1
102
RTVSPropertyOp12
 70
     1
102
RTVSPropertyOp13
 70
     1
102
RTVSPropertyOp14
 70
     1
102
RTVSPropertyOp15
 70
     1
102
RTVSPropertyOp16
 70
     1
102
RTVSPropertyOp17
 70
     1
102
RTVSPropertyOp18
 70
     1
102
RTVSPropertyOp19
 70
     1
102
RTVSPropertyOp20
 70
     1
102
RTVSPropertyOp21
 70
     1
102
RTVSPropertyOp22
 70
     1
102
RTVSPropertyOp23
 70
     1
102
RTVSPropertyOp24
 70
     1
102
RTVSPropertyOp25
 70
     1
102
RTVSPropertyOp26
 70
     1
102
RTVSPropertyOp27
 70
     1
  0
XRECORD
  5
485E
102
{ACAD_REACTORS
330
485D
102
}
330
485D
100
AcDbXrecord
280
     1
102
RTVSPropertyOp0
 70
     1
102
RTVSPropertyOp1
 70
     1
102
RTVSPropertyOp2
 70
     1
102
RTVSPropertyOp3
 70
     1
102
RTVSPropertyOp4
 70
     1
102
RTVSPropertyOp5
 70
     1
102
RTVSPropertyOp6
 70
     1
102
RTVSPropertyOp7
 70
     1
102
RTVSPropertyOp8
 70
     1
102
RTVSPropertyOp9
 70
     1
102
RTVSPropertyOp10
 70
     1
102
RTVSPropertyOp11
 70
     1
102
RTVSPropertyOp12
 70
     1
102
RTVSPropertyOp13
 70
     1
102
RTVSPropertyOp14
 70
     1
102
RTVSPropertyOp15
 70
     1
102
RTVSPropertyOp16
 70
     1
102
RTVSPropertyOp17
 70
     1
102
RTVSPropertyOp18
 70
     1
102
RTVSPropertyOp19
 70
     1
102
RTVSPropertyOp20
 70
     1
102
RTVSPropertyOp21
 70
     1
102
RTVSPropertyOp22
 70
     1
102
RTVSPropertyOp23
 70
     1
102
RTVSPropertyOp24
 70
     1
102
RTVSPropertyOp25
 70
     1
102
RTVSPropertyOp26
 70
     1
102
RTVSPropertyOp27
 70
     1
  0
XRECORD
  5
4860
102
{ACAD_REACTORS
330
485F
102
}
330
485F
100
AcDbXrecord
280
     1
102
RTVSPropertyOp0
 70
     1
102
RTVSPropertyOp1
 70
     1
102
RTVSPropertyOp2
 70
     1
102
RTVSPropertyOp3
 70
     1
102
RTVSPropertyOp4
 70
     1
102
RTVSPropertyOp5
 70
     1
102
RTVSPropertyOp6
 70
     1
102
RTVSPropertyOp7
 70
     1
102
RTVSPropertyOp8
 70
     1
102
RTVSPropertyOp9
 70
     1
102
RTVSPropertyOp10
 70
     1
102
RTVSPropertyOp11
 70
     1
102
RTVSPropertyOp12
 70
     1
102
RTVSPropertyOp13
 70
     1
102
RTVSPropertyOp14
 70
     1
102
RTVSPropertyOp15
 70
     1
102
RTVSPropertyOp16
 70
     1
102
RTVSPropertyOp17
 70
     1
102
RTVSPropertyOp18
 70
     1
102
RTVSPropertyOp19
 70
     1
102
RTVSPropertyOp20
 70
     1
102
RTVSPropertyOp21
 70
     1
102
RTVSPropertyOp22
 70
     1
102
RTVSPropertyOp23
 70
     1
102
RTVSPropertyOp24
 70
     1
102
RTVSPropertyOp25
 70
     1
102
RTVSPropertyOp26
 70
     1
102
RTVSPropertyOp27
 70
     1
  0
XRECORD
  5
4862
102
{ACAD_REACTORS
330
4861
102
}
330
4861
100
AcDbXrecord
280
     1
102
RTVSPropertyOp0
 70
     1
102
RTVSPropertyOp1
 70
     1
102
RTVSPropertyOp2
 70
     1
102
RTVSPropertyOp3
 70
     1
102
RTVSPropertyOp4
 70
     1
102
RTVSPropertyOp5
 70
     1
102
RTVSPropertyOp6
 70
     1
102
RTVSPropertyOp7
 70
     1
102
RTVSPropertyOp8
 70
     1
102
RTVSPropertyOp9
 70
     1
102
RTVSPropertyOp10
 70
     1
102
RTVSPropertyOp11
 70
     1
102
RTVSPropertyOp12
 70
     1
102
RTVSPropertyOp13
 70
     1
102
RTVSPropertyOp14
 70
     1
102
RTVSPropertyOp15
 70
     1
102
RTVSPropertyOp16
 70
     1
102
RTVSPropertyOp17
 70
     1
102
RTVSPropertyOp18
 70
     1
102
RTVSPropertyOp19
 70
     1
102
RTVSPropertyOp20
 70
     1
102
RTVSPropertyOp21
 70
     1
102
RTVSPropertyOp22
 70
     1
102
RTVSPropertyOp23
 70
     1
102
RTVSPropertyOp24
 70
     1
102
RTVSPropertyOp25
 70
     1
102
RTVSPropertyOp26
 70
     1
102
RTVSPropertyOp27
 70
     1
  0
XRECORD
  5
4864
102
{ACAD_REACTORS
330
4863
102
}
330
4863
100
AcDbXrecord
280
     1
102
RTVSPropertyOp0
 70
     1
102
RTVSPropertyOp1
 70
     1
102
RTVSPropertyOp2
 70
     1
102
RTVSPropertyOp3
 70
     1
102
RTVSPropertyOp4
 70
     1
102
RTVSPropertyOp5
 70
     1
102
RTVSPropertyOp6
 70
     1
102
RTVSPropertyOp7
 70
     1
102
RTVSPropertyOp8
 70
     1
102
RTVSPropertyOp9
 70
     1
102
RTVSPropertyOp10
 70
     1
102
RTVSPropertyOp11
 70
     1
102
RTVSPropertyOp12
 70
     1
102
RTVSPropertyOp13
 70
     1
102
RTVSPropertyOp14
 70
     1
102
RTVSPropertyOp15
 70
     1
102
RTVSPropertyOp16
 70
     1
102
RTVSPropertyOp17
 70
     1
102
RTVSPropertyOp18
 70
     1
102
RTVSPropertyOp19
 70
     1
102
RTVSPropertyOp20
 70
     1
102
RTVSPropertyOp21
 70
     1
102
RTVSPropertyOp22
 70
     1
102
RTVSPropertyOp23
 70
     1
102
RTVSPropertyOp24
 70
     1
102
RTVSPropertyOp25
 70
     1
102
RTVSPropertyOp26
 70
     1
102
RTVSPropertyOp27
 70
     1
  0
XRECORD
  5
4866
102
{ACAD_REACTORS
330
4865
102
}
330
4865
100
AcDbXrecord
280
     1
102
RTVSPropertyOp0
 70
     1
102
RTVSPropertyOp1
 70
     1
102
RTVSPropertyOp2
 70
     1
102
RTVSPropertyOp3
 70
     1
102
RTVSPropertyOp4
 70
     1
102
RTVSPropertyOp5
 70
     1
102
RTVSPropertyOp6
 70
     1
102
RTVSPropertyOp7
 70
     1
102
RTVSPropertyOp8
 70
     1
102
RTVSPropertyOp9
 70
     1
102
RTVSPropertyOp10
 70
     1
102
RTVSPropertyOp11
 70
     1
102
RTVSPropertyOp12
 70
     1
102
RTVSPropertyOp13
 70
     1
102
RTVSPropertyOp14
 70
     1
102
RTVSPropertyOp15
 70
     1
102
RTVSPropertyOp16
 70
     1
102
RTVSPropertyOp17
 70
     1
102
RTVSPropertyOp18
 70
     1
102
RTVSPropertyOp19
 70
     1
102
RTVSPropertyOp20
 70
     1
102
RTVSPropertyOp21
 70
     1
102
RTVSPropertyOp22
 70
     1
102
RTVSPropertyOp23
 70
     1
102
RTVSPropertyOp24
 70
     1
102
RTVSPropertyOp25
 70
     1
102
RTVSPropertyOp26
 70
     1
102
RTVSPropertyOp27
 70
     1
  0
XRECORD
  5
4868
102
{ACAD_REACTORS
330
4867
102
}
330
4867
100
AcDbXrecord
280
     1
102
RTVSPropertyOp0
 70
     1
102
RTVSPropertyOp1
 70
     1
102
RTVSPropertyOp2
 70
     1
102
RTVSPropertyOp3
 70
     1
102
RTVSPropertyOp4
 70
     1
102
RTVSPropertyOp5
 70
     1
102
RTVSPropertyOp6
 70
     1
102
RTVSPropertyOp7
 70
     1
102
RTVSPropertyOp8
 70
     1
102
RTVSPropertyOp9
 70
     1
102
RTVSPropertyOp10
 70
     1
102
RTVSPropertyOp11
 70
     1
102
RTVSPropertyOp12
 70
     1
102
RTVSPropertyOp13
 70
     1
102
RTVSPropertyOp14
 70
     1
102
RTVSPropertyOp15
 70
     1
102
RTVSPropertyOp16
 70
     1
102
RTVSPropertyOp17
 70
     1
102
RTVSPropertyOp18
 70
     1
102
RTVSPropertyOp19
 70
     1
102
RTVSPropertyOp20
 70
     1
102
RTVSPropertyOp21
 70
     1
102
RTVSPropertyOp22
 70
     1
102
RTVSPropertyOp23
 70
     1
102
RTVSPropertyOp24
 70
     1
102
RTVSPropertyOp25
 70
     1
102
RTVSPropertyOp26
 70
     1
102
RTVSPropertyOp27
 70
     1
  0
XRECORD
  5
486A
102
{ACAD_REACTORS
330
4869
102
}
330
4869
100
AcDbXrecord
280
     1
102
RTVSPropertyOp0
 70
     1
102
RTVSPropertyOp1
 70
     1
102
RTVSPropertyOp2
 70
     1
102
RTVSPropertyOp3
 70
     1
102
RTVSPropertyOp4
 70
     1
102
RTVSPropertyOp5
 70
     1
102
RTVSPropertyOp6
 70
     1
102
RTVSPropertyOp7
 70
     1
102
RTVSPropertyOp8
 70
     1
102
RTVSPropertyOp9
 70
     1
102
RTVSPropertyOp10
 70
     1
102
RTVSPropertyOp11
 70
     1
102
RTVSPropertyOp12
 70
     1
102
RTVSPropertyOp13
 70
     1
102
RTVSPropertyOp14
 70
     1
102
RTVSPropertyOp15
 70
     1
102
RTVSPropertyOp16
 70
     1
102
RTVSPropertyOp17
 70
     1
102
RTVSPropertyOp18
 70
     1
102
RTVSPropertyOp19
 70
     1
102
RTVSPropertyOp20
 70
     1
102
RTVSPropertyOp21
 70
     1
102
RTVSPropertyOp22
 70
     1
102
RTVSPropertyOp23
 70
     1
102
RTVSPropertyOp24
 70
     1
102
RTVSPropertyOp25
 70
     1
102
RTVSPropertyOp26
 70
     1
102
RTVSPropertyOp27
 70
     1
  0
XRECORD
  5
486C
102
{ACAD_REACTORS
330
486B
102
}
330
486B
100
AcDbXrecord
280
     1
102
RTVSPropertyOp0
 70
     1
102
RTVSPropertyOp1
 70
     1
102
RTVSPropertyOp2
 70
     1
102
RTVSPropertyOp3
 70
     1
102
RTVSPropertyOp4
 70
     1
102
RTVSPropertyOp5
 70
     1
102
RTVSPropertyOp6
 70
     1
102
RTVSPropertyOp7
 70
     1
102
RTVSPropertyOp8
 70
     1
102
RTVSPropertyOp9
 70
     1
102
RTVSPropertyOp10
 70
     1
102
RTVSPropertyOp11
 70
     1
102
RTVSPropertyOp12
 70
     1
102
RTVSPropertyOp13
 70
     1
102
RTVSPropertyOp14
 70
     1
102
RTVSPropertyOp15
 70
     1
102
RTVSPropertyOp16
 70
     1
102
RTVSPropertyOp17
 70
     1
102
RTVSPropertyOp18
 70
     1
102
RTVSPropertyOp19
 70
     1
102
RTVSPropertyOp20
 70
     1
102
RTVSPropertyOp21
 70
     1
102
RTVSPropertyOp22
 70
     1
102
RTVSPropertyOp23
 70
     1
102
RTVSPropertyOp24
 70
     1
102
RTVSPropertyOp25
 70
     1
102
RTVSPropertyOp26
 70
     1
102
RTVSPropertyOp27
 70
     1
  0
XRECORD
  5
486E
102
{ACAD_REACTORS
330
486D
102
}
330
486D
100
AcDbXrecord
280
     1
102
RTVSPropertyOp0
 70
     1
102
RTVSPropertyOp1
 70
     1
102
RTVSPropertyOp2
 70
     1
102
RTVSPropertyOp3
 70
     1
102
RTVSPropertyOp4
 70
     1
102
RTVSPropertyOp5
 70
     1
102
RTVSPropertyOp6
 70
     1
102
RTVSPropertyOp7
 70
     1
102
RTVSPropertyOp8
 70
     1
102
RTVSPropertyOp9
 70
     1
102
RTVSPropertyOp10
 70
     1
102
RTVSPropertyOp11
 70
     1
102
RTVSPropertyOp12
 70
     1
102
RTVSPropertyOp13
 70
     1
102
RTVSPropertyOp14
 70
     1
102
RTVSPropertyOp15
 70
     1
102
RTVSPropertyOp16
 70
     1
102
RTVSPropertyOp17
 70
     1
102
RTVSPropertyOp18
 70
     1
102
RTVSPropertyOp19
 70
     1
102
RTVSPropertyOp20
 70
     1
102
RTVSPropertyOp21
 70
     1
102
RTVSPropertyOp22
 70
     1
102
RTVSPropertyOp23
 70
     1
102
RTVSPropertyOp24
 70
     1
102
RTVSPropertyOp25
 70
     1
102
RTVSPropertyOp26
 70
     1
102
RTVSPropertyOp27
 70
     1
  0
XRECORD
  5
4870
102
{ACAD_REACTORS
330
486F
102
}
330
486F
100
AcDbXrecord
280
     1
102
RTVSPropertyOp0
 70
     1
102
RTVSPropertyOp1
 70
     1
102
RTVSPropertyOp2
 70
     1
102
RTVSPropertyOp3
 70
     1
102
RTVSPropertyOp4
 70
     1
102
RTVSPropertyOp5
 70
     1
102
RTVSPropertyOp6
 70
     1
102
RTVSPropertyOp7
 70
     1
102
RTVSPropertyOp8
 70
     1
102
RTVSPropertyOp9
 70
     1
102
RTVSPropertyOp10
 70
     1
102
RTVSPropertyOp11
 70
     1
102
RTVSPropertyOp12
 70
     1
102
RTVSPropertyOp13
 70
     1
102
RTVSPropertyOp14
 70
     1
102
RTVSPropertyOp15
 70
     1
102
RTVSPropertyOp16
 70
     1
102
RTVSPropertyOp17
 70
     1
102
RTVSPropertyOp18
 70
     1
102
RTVSPropertyOp19
 70
     1
102
RTVSPropertyOp20
 70
     1
102
RTVSPropertyOp21
 70
     1
102
RTVSPropertyOp22
 70
     1
102
RTVSPropertyOp23
 70
     1
102
RTVSPropertyOp24
 70
     1
102
RTVSPropertyOp25
 70
     1
102
RTVSPropertyOp26
 70
     1
102
RTVSPropertyOp27
 70
     1
  0
XRECORD
  5
4872
102
{ACAD_REACTORS
330
4871
102
}
330
4871
100
AcDbXrecord
280
     1
102
RTVSPropertyOp0
 70
     1
102
RTVSPropertyOp1
 70
     1
102
RTVSPropertyOp2
 70
     1
102
RTVSPropertyOp3
 70
     1
102
RTVSPropertyOp4
 70
     1
102
RTVSPropertyOp5
 70
     1
102
RTVSPropertyOp6
 70
     1
102
RTVSPropertyOp7
 70
     1
102
RTVSPropertyOp8
 70
     1
102
RTVSPropertyOp9
 70
     1
102
RTVSPropertyOp10
 70
     1
102
RTVSPropertyOp11
 70
     1
102
RTVSPropertyOp12
 70
     1
102
RTVSPropertyOp13
 70
     1
102
RTVSPropertyOp14
 70
     1
102
RTVSPropertyOp15
 70
     1
102
RTVSPropertyOp16
 70
     1
102
RTVSPropertyOp17
 70
     1
102
RTVSPropertyOp18
 70
     1
102
RTVSPropertyOp19
 70
     1
102
RTVSPropertyOp20
 70
     1
102
RTVSPropertyOp21
 70
     1
102
RTVSPropertyOp22
 70
     1
102
RTVSPropertyOp23
 70
     1
102
RTVSPropertyOp24
 70
     1
102
RTVSPropertyOp25
 70
     1
102
RTVSPropertyOp26
 70
     1
102
RTVSPropertyOp27
 70
     1
  0
XRECORD
  5
4874
102
{ACAD_REACTORS
330
4873
102
}
330
4873
100
AcDbXrecord
280
     1
102
RTVSPropertyOp0
 70
     1
102
RTVSPropertyOp1
 70
     1
102
RTVSPropertyOp2
 70
     1
102
RTVSPropertyOp3
 70
     1
102
RTVSPropertyOp4
 70
     1
102
RTVSPropertyOp5
 70
     1
102
RTVSPropertyOp6
 70
     1
102
RTVSPropertyOp7
 70
     1
102
RTVSPropertyOp8
 70
     1
102
RTVSPropertyOp9
 70
     1
102
RTVSPropertyOp10
 70
     1
102
RTVSPropertyOp11
 70
     1
102
RTVSPropertyOp12
 70
     1
102
RTVSPropertyOp13
 70
     1
102
RTVSPropertyOp14
 70
     1
102
RTVSPropertyOp15
 70
     1
102
RTVSPropertyOp16
 70
     1
102
RTVSPropertyOp17
 70
     1
102
RTVSPropertyOp18
 70
     1
102
RTVSPropertyOp19
 70
     1
102
RTVSPropertyOp20
 70
     1
102
RTVSPropertyOp21
 70
     1
102
RTVSPropertyOp22
 70
     1
102
RTVSPropertyOp23
 70
     1
102
RTVSPropertyOp24
 70
     1
102
RTVSPropertyOp25
 70
     1
102
RTVSPropertyOp26
 70
     1
102
RTVSPropertyOp27
 70
     1
  0
XRECORD
  5
4876
102
{ACAD_REACTORS
330
4875
102
}
330
4875
100
AcDbXrecord
280
     1
102
RTVSPropertyOp0
 70
     1
102
RTVSPropertyOp1
 70
     1
102
RTVSPropertyOp2
 70
     1
102
RTVSPropertyOp3
 70
     1
102
RTVSPropertyOp4
 70
     1
102
RTVSPropertyOp5
 70
     1
102
RTVSPropertyOp6
 70
     1
102
RTVSPropertyOp7
 70
     1
102
RTVSPropertyOp8
 70
     1
102
RTVSPropertyOp9
 70
     1
102
RTVSPropertyOp10
 70
     1
102
RTVSPropertyOp11
 70
     1
102
RTVSPropertyOp12
 70
     1
102
RTVSPropertyOp13
 70
     1
102
RTVSPropertyOp14
 70
     1
102
RTVSPropertyOp15
 70
     1
102
RTVSPropertyOp16
 70
     1
102
RTVSPropertyOp17
 70
     1
102
RTVSPropertyOp18
 70
     1
102
RTVSPropertyOp19
 70
     1
102
RTVSPropertyOp20
 70
     1
102
RTVSPropertyOp21
 70
     1
102
RTVSPropertyOp22
 70
     1
102
RTVSPropertyOp23
 70
     1
102
RTVSPropertyOp24
 70
     1
102
RTVSPropertyOp25
 70
     1
102
RTVSPropertyOp26
 70
     1
102
RTVSPropertyOp27
 70
     1
  0
XRECORD
  5
4878
102
{ACAD_REACTORS
330
4877
102
}
330
4877
100
AcDbXrecord
280
     1
102
RTVSPropertyOp0
 70
     1
102
RTVSPropertyOp1
 70
     1
102
RTVSPropertyOp2
 70
     1
102
RTVSPropertyOp3
 70
     1
102
RTVSPropertyOp4
 70
     1
102
RTVSPropertyOp5
 70
     1
102
RTVSPropertyOp6
 70
     1
102
RTVSPropertyOp7
 70
     1
102
RTVSPropertyOp8
 70
     1
102
RTVSPropertyOp9
 70
     1
102
RTVSPropertyOp10
 70
     1
102
RTVSPropertyOp11
 70
     1
102
RTVSPropertyOp12
 70
     1
102
RTVSPropertyOp13
 70
     1
102
RTVSPropertyOp14
 70
     1
102
RTVSPropertyOp15
 70
     1
102
RTVSPropertyOp16
 70
     1
102
RTVSPropertyOp17
 70
     1
102
RTVSPropertyOp18
 70
     1
102
RTVSPropertyOp19
 70
     1
102
RTVSPropertyOp20
 70
     1
102
RTVSPropertyOp21
 70
     1
102
RTVSPropertyOp22
 70
     1
102
RTVSPropertyOp23
 70
     1
102
RTVSPropertyOp24
 70
     1
102
RTVSPropertyOp25
 70
     1
102
RTVSPropertyOp26
 70
     1
102
RTVSPropertyOp27
 70
     1
  0
XRECORD
  5
487A
102
{ACAD_REACTORS
330
4879
102
}
330
4879
100
AcDbXrecord
280
     1
102
RTVSPropertyOp0
 70
     1
102
RTVSPropertyOp1
 70
     1
102
RTVSPropertyOp2
 70
     1
102
RTVSPropertyOp3
 70
     1
102
RTVSPropertyOp4
 70
     1
102
RTVSPropertyOp5
 70
     1
102
RTVSPropertyOp6
 70
     1
102
RTVSPropertyOp7
 70
     1
102
RTVSPropertyOp8
 70
     1
102
RTVSPropertyOp9
 70
     1
102
RTVSPropertyOp10
 70
     1
102
RTVSPropertyOp11
 70
     1
102
RTVSPropertyOp12
 70
     1
102
RTVSPropertyOp13
 70
     1
102
RTVSPropertyOp14
 70
     1
102
RTVSPropertyOp15
 70
     1
102
RTVSPropertyOp16
 70
     1
102
RTVSPropertyOp17
 70
     1
102
RTVSPropertyOp18
 70
     1
102
RTVSPropertyOp19
 70
     1
102
RTVSPropertyOp20
 70
     1
102
RTVSPropertyOp21
 70
     1
102
RTVSPropertyOp22
 70
     1
102
RTVSPropertyOp23
 70
     1
102
RTVSPropertyOp24
 70
     1
102
RTVSPropertyOp25
 70
     1
102
RTVSPropertyOp26
 70
     1
102
RTVSPropertyOp27
 70
     1
  0
XRECORD
  5
487C
102
{ACAD_REACTORS
330
487B
102
}
330
487B
100
AcDbXrecord
280
     1
102
RTVSPropertyOp0
 70
     1
102
RTVSPropertyOp1
 70
     1
102
RTVSPropertyOp2
 70
     1
102
RTVSPropertyOp3
 70
     1
102
RTVSPropertyOp4
 70
     1
102
RTVSPropertyOp5
 70
     1
102
RTVSPropertyOp6
 70
     1
102
RTVSPropertyOp7
 70
     1
102
RTVSPropertyOp8
 70
     1
102
RTVSPropertyOp9
 70
     1
102
RTVSPropertyOp10
 70
     1
102
RTVSPropertyOp11
 70
     1
102
RTVSPropertyOp12
 70
     1
102
RTVSPropertyOp13
 70
     1
102
RTVSPropertyOp14
 70
     1
102
RTVSPropertyOp15
 70
     1
102
RTVSPropertyOp16
 70
     1
102
RTVSPropertyOp17
 70
     1
102
RTVSPropertyOp18
 70
     1
102
RTVSPropertyOp19
 70
     1
102
RTVSPropertyOp20
 70
     1
102
RTVSPropertyOp21
 70
     1
102
RTVSPropertyOp22
 70
     1
102
RTVSPropertyOp23
 70
     1
102
RTVSPropertyOp24
 70
     1
102
RTVSPropertyOp25
 70
     1
102
RTVSPropertyOp26
 70
     1
102
RTVSPropertyOp27
 70
     1
  0
XRECORD
  5
487E
102
{ACAD_REACTORS
330
487D
102
}
330
487D
100
AcDbXrecord
280
     1
102
RTVSPropertyOp0
 70
     1
102
RTVSPropertyOp1
 70
     1
102
RTVSPropertyOp2
 70
     1
102
RTVSPropertyOp3
 70
     1
102
RTVSPropertyOp4
 70
     1
102
RTVSPropertyOp5
 70
     1
102
RTVSPropertyOp6
 70
     1
102
RTVSPropertyOp7
 70
     1
102
RTVSPropertyOp8
 70
     1
102
RTVSPropertyOp9
 70
     1
102
RTVSPropertyOp10
 70
     1
102
RTVSPropertyOp11
 70
     1
102
RTVSPropertyOp12
 70
     1
102
RTVSPropertyOp13
 70
     1
102
RTVSPropertyOp14
 70
     1
102
RTVSPropertyOp15
 70
     1
102
RTVSPropertyOp16
 70
     1
102
RTVSPropertyOp17
 70
     1
102
RTVSPropertyOp18
 70
     1
102
RTVSPropertyOp19
 70
     1
102
RTVSPropertyOp20
 70
     1
102
RTVSPropertyOp21
 70
     1
102
RTVSPropertyOp22
 70
     1
102
RTVSPropertyOp23
 70
     1
102
RTVSPropertyOp24
 70
     1
102
RTVSPropertyOp25
 70
     1
102
RTVSPropertyOp26
 70
     1
102
RTVSPropertyOp27
 70
     1
  0
XRECORD
  5
4880
102
{ACAD_REACTORS
330
487F
102
}
330
487F
100
AcDbXrecord
280
     1
102
RTVSPropertyOp0
 70
     1
102
RTVSPropertyOp1
 70
     1
102
RTVSPropertyOp2
 70
     1
102
RTVSPropertyOp3
 70
     1
102
RTVSPropertyOp4
 70
     1
102
RTVSPropertyOp5
 70
     1
102
RTVSPropertyOp6
 70
     1
102
RTVSPropertyOp7
 70
     1
102
RTVSPropertyOp8
 70
     1
102
RTVSPropertyOp9
 70
     1
102
RTVSPropertyOp10
 70
     1
102
RTVSPropertyOp11
 70
     1
102
RTVSPropertyOp12
 70
     1
102
RTVSPropertyOp13
 70
     1
102
RTVSPropertyOp14
 70
     1
102
RTVSPropertyOp15
 70
     1
102
RTVSPropertyOp16
 70
     1
102
RTVSPropertyOp17
 70
     1
102
RTVSPropertyOp18
 70
     1
102
RTVSPropertyOp19
 70
     1
102
RTVSPropertyOp20
 70
     1
102
RTVSPropertyOp21
 70
     1
102
RTVSPropertyOp22
 70
     1
102
RTVSPropertyOp23
 70
     1
102
RTVSPropertyOp24
 70
     1
102
RTVSPropertyOp25
 70
     1
102
RTVSPropertyOp26
 70
     1
102
RTVSPropertyOp27
 70
     1
  0
XRECORD
  5
4882
102
{ACAD_REACTORS
330
4881
102
}
330
4881
100
AcDbXrecord
280
     1
102
RTVSPropertyOp0
 70
     1
102
RTVSPropertyOp1
 70
     1
102
RTVSPropertyOp2
 70
     1
102
RTVSPropertyOp3
 70
     1
102
RTVSPropertyOp4
 70
     1
102
RTVSPropertyOp5
 70
     1
102
RTVSPropertyOp6
 70
     1
102
RTVSPropertyOp7
 70
     1
102
RTVSPropertyOp8
 70
     1
102
RTVSPropertyOp9
 70
     1
102
RTVSPropertyOp10
 70
     1
102
RTVSPropertyOp11
 70
     1
102
RTVSPropertyOp12
 70
     1
102
RTVSPropertyOp13
 70
     1
102
RTVSPropertyOp14
 70
     1
102
RTVSPropertyOp15
 70
     1
102
RTVSPropertyOp16
 70
     1
102
RTVSPropertyOp17
 70
     1
102
RTVSPropertyOp18
 70
     1
102
RTVSPropertyOp19
 70
     1
102
RTVSPropertyOp20
 70
     1
102
RTVSPropertyOp21
 70
     1
102
RTVSPropertyOp22
 70
     1
102
RTVSPropertyOp23
 70
     1
102
RTVSPropertyOp24
 70
     1
102
RTVSPropertyOp25
 70
     1
102
RTVSPropertyOp26
 70
     1
102
RTVSPropertyOp27
 70
     1
  0
XRECORD
  5
4884
102
{ACAD_REACTORS
330
4883
102
}
330
4883
100
AcDbXrecord
280
     1
102
RTVSPropertyOp0
 70
     1
102
RTVSPropertyOp1
 70
     1
102
RTVSPropertyOp2
 70
     1
102
RTVSPropertyOp3
 70
     1
102
RTVSPropertyOp4
 70
     1
102
RTVSPropertyOp5
 70
     1
102
RTVSPropertyOp6
 70
     1
102
RTVSPropertyOp7
 70
     1
102
RTVSPropertyOp8
 70
     1
102
RTVSPropertyOp9
 70
     1
102
RTVSPropertyOp10
 70
     1
102
RTVSPropertyOp11
 70
     1
102
RTVSPropertyOp12
 70
     1
102
RTVSPropertyOp13
 70
     1
102
RTVSPropertyOp14
 70
     1
102
RTVSPropertyOp15
 70
     1
102
RTVSPropertyOp16
 70
     1
102
RTVSPropertyOp17
 70
     1
102
RTVSPropertyOp18
 70
     1
102
RTVSPropertyOp19
 70
     1
102
RTVSPropertyOp20
 70
     1
102
RTVSPropertyOp21
 70
     1
102
RTVSPropertyOp22
 70
     1
102
RTVSPropertyOp23
 70
     1
102
RTVSPropertyOp24
 70
     1
102
RTVSPropertyOp25
 70
     1
102
RTVSPropertyOp26
 70
     1
102
RTVSPropertyOp27
 70
     1
  0
XRECORD
  5
4886
102
{ACAD_REACTORS
330
4885
102
}
330
4885
100
AcDbXrecord
280
     1
102
RTVSPropertyOp0
 70
     1
102
RTVSPropertyOp1
 70
     1
102
RTVSPropertyOp2
 70
     1
102
RTVSPropertyOp3
 70
     1
102
RTVSPropertyOp4
 70
     1
102
RTVSPropertyOp5
 70
     1
102
RTVSPropertyOp6
 70
     1
102
RTVSPropertyOp7
 70
     1
102
RTVSPropertyOp8
 70
     1
102
RTVSPropertyOp9
 70
     1
102
RTVSPropertyOp10
 70
     1
102
RTVSPropertyOp11
 70
     1
102
RTVSPropertyOp12
 70
     1
102
RTVSPropertyOp13
 70
     1
102
RTVSPropertyOp14
 70
     1
102
RTVSPropertyOp15
 70
     1
102
RTVSPropertyOp16
 70
     1
102
RTVSPropertyOp17
 70
     1
102
RTVSPropertyOp18
 70
     1
102
RTVSPropertyOp19
 70
     1
102
RTVSPropertyOp20
 70
     1
102
RTVSPropertyOp21
 70
     1
102
RTVSPropertyOp22
 70
     1
102
RTVSPropertyOp23
 70
     1
102
RTVSPropertyOp24
 70
     1
102
RTVSPropertyOp25
 70
     1
102
RTVSPropertyOp26
 70
     1
102
RTVSPropertyOp27
 70
     1
  0
XRECORD
  5
4888
102
{ACAD_REACTORS
330
4887
102
}
330
4887
100
AcDbXrecord
280
     1
102
RTVSPropertyOp0
 70
     1
102
RTVSPropertyOp1
 70
     1
102
RTVSPropertyOp2
 70
     1
102
RTVSPropertyOp3
 70
     1
102
RTVSPropertyOp4
 70
     1
102
RTVSPropertyOp5
 70
     1
102
RTVSPropertyOp6
 70
     1
102
RTVSPropertyOp7
 70
     1
102
RTVSPropertyOp8
 70
     1
102
RTVSPropertyOp9
 70
     1
102
RTVSPropertyOp10
 70
     1
102
RTVSPropertyOp11
 70
     1
102
RTVSPropertyOp12
 70
     1
102
RTVSPropertyOp13
 70
     1
102
RTVSPropertyOp14
 70
     1
102
RTVSPropertyOp15
 70
     1
102
RTVSPropertyOp16
 70
     1
102
RTVSPropertyOp17
 70
     1
102
RTVSPropertyOp18
 70
     1
102
RTVSPropertyOp19
 70
     1
102
RTVSPropertyOp20
 70
     1
102
RTVSPropertyOp21
 70
     1
102
RTVSPropertyOp22
 70
     1
102
RTVSPropertyOp23
 70
     1
102
RTVSPropertyOp24
 70
     1
102
RTVSPropertyOp25
 70
     1
102
RTVSPropertyOp26
 70
     1
102
RTVSPropertyOp27
 70
     1
  0
ENDSEC
  0
EOF
