  0
SECTION
  2
HEADER
  9
$ACADVER
  1
AC1018
  9
$ACADMAINTVER
 70
     0
  9
$DWGCODEPAGE
  3
ANSI_932
  9
$LASTSAVEDBY
  1
shinwa
  9
$INSBASE
 10
0.0
 20
0.0
 30
0.0
  9
$EXTMIN
 10
226.7808576631921
 20
-96.81175765693118
 30
0.0
  9
$EXTMAX
 10
11154.78343630826
 20
7832.039940919411
 30
0.0
  9
$LIMMIN
 10
0.0
 20
0.0
  9
$LIMMAX
 10
11880.0
 20
8400.0
  9
$ORTHOMODE
 70
     1
  9
$REGENMODE
 70
     1
  9
$FILLMODE
 70
     1
  9
$QTEXTMODE
 70
     0
  9
$MIRRTEXT
 70
     1
  9
$LTSCALE
 40
100.0
  9
$ATTMODE
 70
     1
  9
$TEXTSIZE
 40
60.0
  9
$TRACEWID
 40
0.05
  9
$TEXTSTYLE
  7
A
  9
$CLAYER
  8
SUNPOU
  9
$CELTYPE
  6
BYLAYER
  9
$CECOLOR
 62
   256
  9
$CELTSCALE
 40
1.0
  9
$DISPSILH
 70
     0
  9
$DIMSCALE
 40
1.0
  9
$DIMASZ
 40
40.0
  9
$DIMEXO
 40
40.0
  9
$DIMDLI
 40
140.0
  9
$DIMRND
 40
0.0
  9
$DIMDLE
 40
0.0
  9
$DIMEXE
 40
20.0
  9
$DIMTP
 40
0.0
  9
$DIMTM
 40
0.0
  9
$DIMTXT
 40
60.0
  9
$DIMCEN
 40
0.09
  9
$DIMTSZ
 40
0.0
  9
$DIMTOL
 70
     0
  9
$DIMLIM
 70
     0
  9
$DIMTIH
 70
     0
  9
$DIMTOH
 70
     0
  9
$DIMSE1
 70
     0
  9
$DIMSE2
 70
     0
  9
$DIMTAD
 70
     0
  9
$DIMZIN
 70
     0
  9
$DIMBLK
  1

  9
$DIMASO
 70
     1
  9
$DIMSHO
 70
     0
  9
$DIMPOST
  1

  9
$DIMAPOST
  1

  9
$DIMALT
 70
     0
  9
$DIMALTD
 70
     2
  9
$DIMALTF
 40
25.4
  9
$DIMLFAC
 40
1.0
  9
$DIMTOFL
 70
     1
  9
$DIMTVP
 40
1.0
  9
$DIMTIX
 70
     0
  9
$DIMSOXD
 70
     0
  9
$DIMSAH
 70
     0
  9
$DIMBLK1
  1

  9
$DIMBLK2
  1

  9
$DIMSTYLE
  2
STANDARD
  9
$DIMCLRD
 70
     0
  9
$DIMCLRE
 70
     0
  9
$DIMCLRT
 70
     0
  9
$DIMTFAC
 40
1.0
  9
$DIMGAP
 40
0.09
  9
$DIMJUST
 70
     0
  9
$DIMSD1
 70
     0
  9
$DIMSD2
 70
     0
  9
$DIMTOLJ
 70
     1
  9
$DIMTZIN
 70
     0
  9
$DIMALTZ
 70
     0
  9
$DIMALTTZ
 70
     0
  9
$DIMUPT
 70
     0
  9
$DIMDEC
 70
     0
  9
$DIMTDEC
 70
     0
  9
$DIMALTU
 70
     2
  9
$DIMALTTD
 70
     2
  9
$DIMTXSTY
  7
A
  9
$DIMAUNIT
 70
     1
  9
$DIMADEC
 70
     0
  9
$DIMALTRND
 40
0.0
  9
$DIMAZIN
 70
     0
  9
$DIMDSEP
 70
    46
  9
$DIMATFIT
 70
     3
  9
$DIMFRAC
 70
     0
  9
$DIMLDRBLK
  1

  9
$DIMLUNIT
 70
     2
  9
$DIMLWD
 70
    -2
  9
$DIMLWE
 70
    -2
  9
$DIMTMOVE
 70
     2
  9
$LUNITS
 70
     2
  9
$LUPREC
 70
     0
  9
$SKETCHINC
 40
0.1
  9
$FILLETRAD
 40
55.0
  9
$AUNITS
 70
     1
  9
$AUPREC
 70
     4
  9
$MENU
  1
acad
  9
$ELEVATION
 40
0.0
  9
$PELEVATION
 40
0.0
  9
$THICKNESS
 40
0.0
  9
$LIMCHECK
 70
     0
  9
$CHAMFERA
 40
0.0
  9
$CHAMFERB
 40
0.0
  9
$CHAMFERC
 40
0.0
  9
$CHAMFERD
 40
0.0
  9
$SKPOLY
 70
     0
  9
$TDCREATE
 40
2448735.689918981
  9
$TDUCREATE
 40
2448735.314918981
  9
$TDUPDATE
 40
2457794.741444132
  9
$TDUUPDATE
 40
2457794.366444132
  9
$TDINDWG
 40
0.1450131713
  9
$TDUSRTIMER
 40
0.1450131713
  9
$USRTIMER
 70
     1
  9
$ANGBASE
 50
0.0
  9
$ANGDIR
 70
     0
  9
$PDMODE
 70
    32
  9
$PDSIZE
 40
1.0
  9
$PLINEWID
 40
0.0
  9
$SPLFRAME
 70
     0
  9
$SPLINETYPE
 70
     6
  9
$SPLINESEGS
 70
     8
  9
$HANDSEED
  5
AEC
  9
$SURFTAB1
 70
     6
  9
$SURFTAB2
 70
     6
  9
$SURFTYPE
 70
     6
  9
$SURFU
 70
     6
  9
$SURFV
 70
     6
  9
$UCSBASE
  2

  9
$UCSNAME
  2

  9
$UCSORG
 10
0.0
 20
0.0
 30
0.0
  9
$UCSXDIR
 10
1.0
 20
0.0
 30
0.0
  9
$UCSYDIR
 10
0.0
 20
1.0
 30
0.0
  9
$UCSORTHOREF
  2

  9
$UCSORTHOVIEW
 70
     0
  9
$UCSORGTOP
 10
0.0
 20
0.0
 30
0.0
  9
$UCSORGBOTTOM
 10
0.0
 20
0.0
 30
0.0
  9
$UCSORGLEFT
 10
0.0
 20
0.0
 30
0.0
  9
$UCSORGRIGHT
 10
0.0
 20
0.0
 30
0.0
  9
$UCSORGFRONT
 10
0.0
 20
0.0
 30
0.0
  9
$UCSORGBACK
 10
0.0
 20
0.0
 30
0.0
  9
$PUCSBASE
  2

  9
$PUCSNAME
  2

  9
$PUCSORG
 10
0.0
 20
0.0
 30
0.0
  9
$PUCSXDIR
 10
1.0
 20
0.0
 30
0.0
  9
$PUCSYDIR
 10
0.0
 20
1.0
 30
0.0
  9
$PUCSORTHOREF
  2

  9
$PUCSORTHOVIEW
 70
     0
  9
$PUCSORGTOP
 10
0.0
 20
0.0
 30
0.0
  9
$PUCSORGBOTTOM
 10
0.0
 20
0.0
 30
0.0
  9
$PUCSORGLEFT
 10
0.0
 20
0.0
 30
0.0
  9
$PUCSORGRIGHT
 10
0.0
 20
0.0
 30
0.0
  9
$PUCSORGFRONT
 10
0.0
 20
0.0
 30
0.0
  9
$PUCSORGBACK
 10
0.0
 20
0.0
 30
0.0
  9
$USERI1
 70
     0
  9
$USERI2
 70
     0
  9
$USERI3
 70
     0
  9
$USERI4
 70
     0
  9
$USERI5
 70
     0
  9
$USERR1
 40
0.0
  9
$USERR2
 40
0.0
  9
$USERR3
 40
0.0
  9
$USERR4
 40
0.0
  9
$USERR5
 40
0.0
  9
$WORLDVIEW
 70
     1
  9
$SHADEDGE
 70
     3
  9
$SHADEDIF
 70
    70
  9
$TILEMODE
 70
     1
  9
$MAXACTVP
 70
    48
  9
$PINSBASE
 10
0.0
 20
0.0
 30
0.0
  9
$PLIMCHECK
 70
     0
  9
$PEXTMIN
 10
1.000000000000000E+20
 20
1.000000000000000E+20
 30
1.000000000000000E+20
  9
$PEXTMAX
 10
-1.000000000000000E+20
 20
-1.000000000000000E+20
 30
-1.000000000000000E+20
  9
$PLIMMIN
 10
0.0
 20
0.0
  9
$PLIMMAX
 10
12.0
 20
9.0
  9
$UNITMODE
 70
     0
  9
$VISRETAIN
 70
     0
  9
$PLINEGEN
 70
     0
  9
$PSLTSCALE
 70
     0
  9
$TREEDEPTH
 70
  3020
  9
$CMLSTYLE
  2
STANDARD
  9
$CMLJUST
 70
     0
  9
$CMLSCALE
 40
1.0
  9
$PROXYGRAPHICS
 70
     1
  9
$MEASUREMENT
 70
     0
  9
$CELWEIGHT
370
    -1
  9
$ENDCAPS
280
     0
  9
$JOINSTYLE
280
     0
  9
$LWDISPLAY
290
     0
  9
$INSUNITS
 70
     0
  9
$HYPERLINKBASE
  1

  9
$STYLESHEET
  1

  9
$XEDIT
290
     1
  9
$CEPSNTYPE
380
     0
  9
$PSTYLEMODE
290
     1
  9
$FINGERPRINTGUID
  2
{8A35556B-FDF7-4E9F-B1DD-5E9C1D478759}
  9
$VERSIONGUID
  2
{1F2CE482-E2D6-4DA1-A72B-A97E93B1A03F}
  9
$EXTNAMES
290
     1
  9
$PSVPSCALE
 40
0.0
  9
$OLESTARTUP
290
     0
  9
$SORTENTS
280
   127
  9
$INDEXCTL
280
     0
  9
$HIDETEXT
280
     0
  9
$XCLIPFRAME
290
     0
  9
$HALOGAP
280
     0
  9
$OBSCOLOR
 70
   257
  9
$OBSLTYPE
280
     0
  9
$INTERSECTIONDISPLAY
280
     0
  9
$INTERSECTIONCOLOR
 70
   257
  9
$DIMASSOC
280
     1
  9
$PROJECTNAME
  1

  0
ENDSEC
  0
SECTION
  2
CLASSES
  0
CLASS
  1
DICTIONARYVAR
  2
AcDbDictionaryVar
  3
ObjectDBX Classes
 90
        0
 91
        4
280
     0
281
     0
  0
CLASS
  1
LWPOLYLINE
  2
AcDbPolyline
  3
AutoCAD 2000
 90
        0
 91
        1
280
     0
281
     1
  0
CLASS
  1
ACDBDICTIONARYWDFLT
  2
AcDbDictionaryWithDefault
  3
ObjectDBX Classes
 90
        0
 91
        4
280
     0
281
     0
  0
CLASS
  1
MATERIAL
  2
AcDbMaterial
  3
ObjectDBX Classes
 90
     1153
 91
        4
280
     0
281
     0
  0
CLASS
  1
VISUALSTYLE
  2
AcDbVisualStyle
  3
ObjectDBX Classes
 90
     4095
 91
        4
280
     0
281
     0
  0
CLASS
  1
TABLESTYLE
  2
AcDbTableStyle
  3
ObjectDBX Classes
 90
     4095
 91
        4
280
     0
281
     0
  0
CLASS
  1
SCALE
  2
AcDbScale
  3
ObjectDBX Classes
 90
     1153
 91
        4
280
     0
281
     0
  0
CLASS
  1
MLEADERSTYLE
  2
AcDbMLeaderStyle
  3
ACDB_MLEADERSTYLE_CLASS
 90
     4095
 91
        4
280
     0
281
     0
  0
CLASS
  1
ACDBSECTIONVIEWSTYLE
  2
AcDbSectionViewStyle
  3
ObjectDBX Classes
 90
     1025
 91
        2
280
     1
281
     0
  0
CLASS
  1
ACDBDETAILVIEWSTYLE
  2
AcDbDetailViewStyle
  3
ObjectDBX Classes
 90
     1025
 91
        2
280
     1
281
     0
  0
CLASS
  1
CELLSTYLEMAP
  2
AcDbCellStyleMap
  3
ObjectDBX Classes
 90
     1152
 91
        4
280
     0
281
     0
  0
ENDSEC
  0
SECTION
  2
TABLES
  0
TABLE
  2
VPORT
  5
8
102
{ACAD_XDICTIONARY
360
AB0
102
}
330
0
100
AcDbSymbolTable
 70
     1
  0
VPORT
  5
9D1
330
8
100
AcDbSymbolTableRecord
100
AcDbViewportTableRecord
  2
*ACTIVE
 70
     0
 10
0.0
 20
0.0
 11
1.0
 21
1.0
 12
5453.538378853698
 22
4014.554495928496
 13
0.0
 23
0.0
 14
10.0
 24
10.0
 15
100.0
 25
100.0
 16
0.0
 26
0.0
 36
1.0
 17
0.0
 27
0.0
 37
0.0
 40
10103.66609527892
 41
1.560747663551402
 42
50.0
 43
0.0
 44
0.0
 50
0.0
 51
0.0
 71
     0
 72
   100
 73
     1
 74
     1
 75
     0
 76
     0
 77
     0
 78
     2
281
     0
 65
     1
110
0.0
120
0.0
130
0.0
111
1.0
121
0.0
131
0.0
112
0.0
122
1.0
132
0.0
 79
     0
146
0.0
1001
ACAD_NAV_VCDISPLAY
1070
     3
  0
ENDTAB
  0
TABLE
  2
LTYPE
  5
5
330
0
100
AcDbSymbolTable
 70
     5
  0
LTYPE
  5
11
330
5
100
AcDbSymbolTableRecord
100
AcDbLinetypeTableRecord
  2
BYBLOCK
 70
     0
  3

 72
    65
 73
     0
 40
0.0
  0
LTYPE
  5
12
330
5
100
AcDbSymbolTableRecord
100
AcDbLinetypeTableRecord
  2
BYLAYER
 70
     0
  3

 72
    65
 73
     0
 40
0.0
  0
LTYPE
  5
13
330
5
100
AcDbSymbolTableRecord
100
AcDbLinetypeTableRecord
  2
CONTINUOUS
 70
     0
  3
実線
 72
    65
 73
     0
 40
0.0
  0
LTYPE
  5
9B
330
5
100
AcDbSymbolTableRecord
100
AcDbLinetypeTableRecord
  2
HIDDEN
 70
     0
  3
_ _ _ _ _ _ _ _ _ _ _ _ _ _ _ _ _ _ _ _ _ _ _
 72
    65
 73
     2
 40
0.375
 49
0.25
 74
     0
 49
-0.125
 74
     0
  0
LTYPE
  5
9C
330
5
100
AcDbSymbolTableRecord
100
AcDbLinetypeTableRecord
  2
CENTER
 70
     0
  3
____ _ ____ _ ____ _ ____ _ ____ _ ____ _ ____
 72
    65
 73
     4
 40
2.0
 49
1.25
 74
     0
 49
-0.25
 74
     0
 49
0.25
 74
     0
 49
-0.25
 74
     0
  0
LTYPE
  5
9D
330
5
100
AcDbSymbolTableRecord
100
AcDbLinetypeTableRecord
  2
PHANTOM
 70
     0
  3
_____ _ _ _____ _ _ _____ _ _ _____ _ _ ____
 72
    65
 73
     6
 40
2.5
 49
1.25
 74
     0
 49
-0.25
 74
     0
 49
0.25
 74
     0
 49
-0.25
 74
     0
 49
0.25
 74
     0
 49
-0.25
 74
     0
  0
LTYPE
  5
9E
330
5
100
AcDbSymbolTableRecord
100
AcDbLinetypeTableRecord
  2
DOT
 70
     0
  3
...............................................
 72
    65
 73
     2
 40
0.25
 49
0.0
 74
     0
 49
-0.25
 74
     0
  0
ENDTAB
  0
TABLE
  2
LAYER
  5
2
102
{ACAD_XDICTIONARY
360
A54
102
}
330
0
100
AcDbSymbolTable
 70
    10
  0
LAYER
  5
E
102
{ACAD_XDICTIONARY
360
A3F
102
}
330
2
100
AcDbSymbolTableRecord
100
AcDbLayerTableRecord
  2
0
 70
     0
 62
     7
  6
CONTINUOUS
370
    -3
390
9D4
  0
LAYER
  5
A1
102
{ACAD_XDICTIONARY
360
A41
102
}
330
2
100
AcDbSymbolTableRecord
100
AcDbLayerTableRecord
  2
SUNPOU
 70
     0
 62
     1
  6
CONTINUOUS
370
    -3
390
9D4
  0
LAYER
  5
A2
102
{ACAD_XDICTIONARY
360
A43
102
}
330
2
100
AcDbSymbolTableRecord
100
AcDbLayerTableRecord
  2
SEIHIN
 70
     0
 62
     3
  6
CONTINUOUS
370
    -3
390
9D4
  0
LAYER
  5
A3
102
{ACAD_XDICTIONARY
360
A45
102
}
330
2
100
AcDbSymbolTableRecord
100
AcDbLayerTableRecord
  2
HAIKIN
 70
     0
 62
     2
  6
CONTINUOUS
370
    -3
390
9D4
  0
LAYER
  5
A4
102
{ACAD_XDICTIONARY
360
A47
102
}
330
2
100
AcDbSymbolTableRecord
100
AcDbLayerTableRecord
  2
HASEN
 70
     0
 62
     4
  6
HIDDEN
370
    -3
390
9D4
  0
LAYER
  5
A5
102
{ACAD_XDICTIONARY
360
A49
102
}
330
2
100
AcDbSymbolTableRecord
100
AcDbLayerTableRecord
  2
1HASEN
 70
     0
 62
     5
  6
CENTER
370
    -3
390
9D4
  0
LAYER
  5
A6
102
{ACAD_XDICTIONARY
360
A4B
102
}
330
2
100
AcDbSymbolTableRecord
100
AcDbLayerTableRecord
  2
2HASEN
 70
     0
 62
     6
  6
PHANTOM
370
    -3
390
9D4
  0
LAYER
  5
A7
102
{ACAD_XDICTIONARY
360
A4D
102
}
330
2
100
AcDbSymbolTableRecord
100
AcDbLayerTableRecord
  2
TEN
 70
     0
 62
     7
  6
DOT
370
    -3
390
9D4
  0
LAYER
  5
A8
102
{ACAD_XDICTIONARY
360
A4F
102
}
330
2
100
AcDbSymbolTableRecord
100
AcDbLayerTableRecord
  2
HOJO
 70
     0
 62
     7
  6
CONTINUOUS
370
    -3
390
9D4
  0
LAYER
  5
A9
330
2
100
AcDbSymbolTableRecord
100
AcDbLayerTableRecord
  2
DEFPOINTS
 70
     0
 62
     7
  6
CONTINUOUS
290
     0
370
    -3
390
9D4
  0
ENDTAB
  0
TABLE
  2
STYLE
  5
3
330
0
100
AcDbSymbolTable
 70
     3
  0
STYLE
  5
F
330
3
100
AcDbSymbolTableRecord
100
AcDbTextStyleTableRecord
  2
STANDARD
 70
     0
 40
0.0
 41
1.0
 50
0.0
 71
     0
 42
0.2
  3
txt
  4

  0
STYLE
  5
99
330
3
100
AcDbSymbolTableRecord
100
AcDbTextStyleTableRecord
  2
A
 70
     0
 40
0.0
 41
1.0
 50
0.0
 71
     0
 42
60.0
  3
txt
  4
bigfont
  0
STYLE
  5
9A
330
3
100
AcDbSymbolTableRecord
100
AcDbTextStyleTableRecord
  2
NIHONGO
 70
     0
 40
0.0
 41
1.0
 50
0.0
 71
     0
 42
3.0
  3
TXT
  4
BIGFONT
  0
ENDTAB
  0
TABLE
  2
VIEW
  5
6
330
0
100
AcDbSymbolTable
 70
     0
  0
ENDTAB
  0
TABLE
  2
UCS
  5
7
330
0
100
AcDbSymbolTable
 70
     0
  0
ENDTAB
  0
TABLE
  2
APPID
  5
9
330
0
100
AcDbSymbolTable
 70
    12
  0
APPID
  5
10
330
9
100
AcDbSymbolTableRecord
100
AcDbRegAppTableRecord
  2
ACAD
 70
     0
  0
APPID
  5
A2A
330
9
100
AcDbSymbolTableRecord
100
AcDbRegAppTableRecord
  2
ACAD_EXEMPT_FROM_CAD_STANDARDS
 70
     0
  0
APPID
  5
A31
330
9
100
AcDbSymbolTableRecord
100
AcDbRegAppTableRecord
  2
ACAD_NAV_VCDISPLAY
 70
     0
  0
APPID
  5
A95
330
9
100
AcDbSymbolTableRecord
100
AcDbRegAppTableRecord
  2
ACAD_MLEADERVER
 70
     0
  0
APPID
  5
AA8
330
9
100
AcDbSymbolTableRecord
100
AcDbRegAppTableRecord
  2
ACAD_DSTYLE_DIMARC_LENGTH_SYMBOL
 70
     0
  0
APPID
  5
AA9
330
9
100
AcDbSymbolTableRecord
100
AcDbRegAppTableRecord
  2
ACAD_DSTYLE_DIMJOGGED_JOGANGLE_SYMBOL
 70
     0
  0
APPID
  5
AAA
330
9
100
AcDbSymbolTableRecord
100
AcDbRegAppTableRecord
  2
ACAD_DSTYLE_DIMTEXT_FILL
 70
     0
  0
APPID
  5
AAB
330
9
100
AcDbSymbolTableRecord
100
AcDbRegAppTableRecord
  2
ACAD_DSTYLE_DIMEXT_ENABLED
 70
     0
  0
APPID
  5
AAC
330
9
100
AcDbSymbolTableRecord
100
AcDbRegAppTableRecord
  2
ACAD_DSTYLE_DIMEXT_LENGTH
 70
     0
  0
APPID
  5
AAD
330
9
100
AcDbSymbolTableRecord
100
AcDbRegAppTableRecord
  2
ACAD_DSTYLE_DIM_LINETYPE
 70
     0
  0
APPID
  5
AAE
330
9
100
AcDbSymbolTableRecord
100
AcDbRegAppTableRecord
  2
ACAD_DSTYLE_DIM_EXT1_LINETYPE
 70
     0
  0
APPID
  5
AAF
330
9
100
AcDbSymbolTableRecord
100
AcDbRegAppTableRecord
  2
ACAD_DSTYLE_DIM_EXT2_LINETYPE
 70
     0
  0
ENDTAB
  0
TABLE
  2
DIMSTYLE
  5
A
330
0
100
AcDbSymbolTable
 70
     1
100
AcDbDimStyleTable
  0
DIMSTYLE
105
9CF
102
{ACAD_REACTORS
330
A32
102
}
330
A
100
AcDbSymbolTableRecord
100
AcDbDimStyleTableRecord
  2
STANDARD
 70
     0
178
     0
340
F
  0
ENDTAB
  0
TABLE
  2
BLOCK_RECORD
  5
1
330
0
100
AcDbSymbolTable
 70
   125
  0
BLOCK_RECORD
  5
17
330
1
100
AcDbSymbolTableRecord
100
AcDbBlockTableRecord
  2
*MODEL_SPACE
340
A24
  0
BLOCK_RECORD
  5
14
330
1
100
AcDbSymbolTableRecord
100
AcDbBlockTableRecord
  2
*PAPER_SPACE
340
A25
  0
BLOCK_RECORD
  5
1C
330
1
100
AcDbSymbolTableRecord
100
AcDbBlockTableRecord
  2
BORDER
340
0
  0
BLOCK_RECORD
  5
1D
330
1
100
AcDbSymbolTableRecord
100
AcDbBlockTableRecord
  2
SA3-10
340
0
  0
BLOCK_RECORD
  5
1E
330
1
100
AcDbSymbolTableRecord
100
AcDbBlockTableRecord
  2
SA4
340
0
102
{BLKREFS
331
B7
102
}
  0
BLOCK_RECORD
  5
1F
330
1
100
AcDbSymbolTableRecord
100
AcDbBlockTableRecord
  2
*D3
340
0
  0
BLOCK_RECORD
  5
20
330
1
100
AcDbSymbolTableRecord
100
AcDbBlockTableRecord
  2
*D4
340
0
  0
BLOCK_RECORD
  5
21
330
1
100
AcDbSymbolTableRecord
100
AcDbBlockTableRecord
  2
*D5
340
0
  0
BLOCK_RECORD
  5
24
330
1
100
AcDbSymbolTableRecord
100
AcDbBlockTableRecord
  2
*D8
340
0
  0
BLOCK_RECORD
  5
25
330
1
100
AcDbSymbolTableRecord
100
AcDbBlockTableRecord
  2
*D9
340
0
  0
BLOCK_RECORD
  5
26
330
1
100
AcDbSymbolTableRecord
100
AcDbBlockTableRecord
  2
*D10
340
0
  0
BLOCK_RECORD
  5
2B
330
1
100
AcDbSymbolTableRecord
100
AcDbBlockTableRecord
  2
*D15
340
0
  0
BLOCK_RECORD
  5
35
330
1
100
AcDbSymbolTableRecord
100
AcDbBlockTableRecord
  2
*D25
340
0
  0
BLOCK_RECORD
  5
36
330
1
100
AcDbSymbolTableRecord
100
AcDbBlockTableRecord
  2
*D26
340
0
  0
BLOCK_RECORD
  5
37
330
1
100
AcDbSymbolTableRecord
100
AcDbBlockTableRecord
  2
*D27
340
0
  0
BLOCK_RECORD
  5
38
330
1
100
AcDbSymbolTableRecord
100
AcDbBlockTableRecord
  2
*D28
340
0
  0
BLOCK_RECORD
  5
45
330
1
100
AcDbSymbolTableRecord
100
AcDbBlockTableRecord
  2
*D40
340
0
  0
BLOCK_RECORD
  5
51
330
1
100
AcDbSymbolTableRecord
100
AcDbBlockTableRecord
  2
*D52
340
0
  0
BLOCK_RECORD
  5
71
330
1
100
AcDbSymbolTableRecord
100
AcDbBlockTableRecord
  2
*D84
340
0
  0
BLOCK_RECORD
  5
72
330
1
100
AcDbSymbolTableRecord
100
AcDbBlockTableRecord
  2
*D85
340
0
  0
BLOCK_RECORD
  5
73
330
1
100
AcDbSymbolTableRecord
100
AcDbBlockTableRecord
  2
*D86
340
0
  0
BLOCK_RECORD
  5
75
330
1
100
AcDbSymbolTableRecord
100
AcDbBlockTableRecord
  2
*D88
340
0
  0
BLOCK_RECORD
  5
7E
330
1
100
AcDbSymbolTableRecord
100
AcDbBlockTableRecord
  2
*D97
340
0
  0
BLOCK_RECORD
  5
80
330
1
100
AcDbSymbolTableRecord
100
AcDbBlockTableRecord
  2
*D99
340
0
  0
BLOCK_RECORD
  5
86
330
1
100
AcDbSymbolTableRecord
100
AcDbBlockTableRecord
  2
*D105
340
0
  0
BLOCK_RECORD
  5
87
330
1
100
AcDbSymbolTableRecord
100
AcDbBlockTableRecord
  2
*D106
340
0
  0
BLOCK_RECORD
  5
88
330
1
100
AcDbSymbolTableRecord
100
AcDbBlockTableRecord
  2
*D107
340
0
  0
BLOCK_RECORD
  5
89
330
1
100
AcDbSymbolTableRecord
100
AcDbBlockTableRecord
  2
*D108
340
0
  0
BLOCK_RECORD
  5
8A
330
1
100
AcDbSymbolTableRecord
100
AcDbBlockTableRecord
  2
*D109
340
0
  0
BLOCK_RECORD
  5
A33
330
1
100
AcDbSymbolTableRecord
100
AcDbBlockTableRecord
  2
*D124
340
0
  0
ENDTAB
  0
ENDSEC
  0
SECTION
  2
BLOCKS
  0
BLOCK
  5
AC
330
17
100
AcDbEntity
  8
0
100
AcDbBlockBegin
  2
*MODEL_SPACE
 70
     0
 10
0.0
 20
0.0
 30
0.0
  3
*MODEL_SPACE
  1

  0
ENDBLK
  5
AD
330
17
100
AcDbEntity
  8
0
100
AcDbBlockEnd
  0
BLOCK
  5
AA
330
14
100
AcDbEntity
 67
     1
  8
0
100
AcDbBlockBegin
  2
*PAPER_SPACE
 70
     0
 10
0.0
 20
0.0
 30
0.0
  3
*PAPER_SPACE
  1

  0
ENDBLK
  5
AB
330
14
100
AcDbEntity
 67
     1
  8
0
100
AcDbBlockEnd
  0
BLOCK
  5
B0
330
1C
100
AcDbEntity
  8
0
100
AcDbBlockBegin
  2
BORDER
 70
     0
 10
0.0
 20
0.0
 30
0.0
  3
BORDER
  1

  0
LINE
  5
B1
330
1C
100
AcDbEntity
  8
0
100
AcDbLine
 10
0.0
 20
0.0
 30
0.0
 11
1.00000000000004
 21
0.0
 31
0.0
  0
LINE
  5
B2
330
1C
100
AcDbEntity
  8
0
100
AcDbLine
 10
1.00000000000004
 20
0.0
 30
0.0
 11
1.00000000000004
 21
1.00000000000004
 31
0.0
  0
LINE
  5
B3
330
1C
100
AcDbEntity
  8
0
100
AcDbLine
 10
1.00000000000004
 20
1.00000000000004
 30
0.0
 11
0.0
 21
1.00000000000004
 31
0.0
  0
LINE
  5
B4
330
1C
100
AcDbEntity
  8
0
100
AcDbLine
 10
0.0
 20
1.00000000000004
 30
0.0
 11
0.0
 21
0.0
 31
0.0
  0
ENDBLK
  5
B5
330
1C
100
AcDbEntity
  8
0
100
AcDbBlockEnd
  0
BLOCK
  5
B6
330
1D
100
AcDbEntity
  8
SUNPOU
100
AcDbBlockBegin
  2
SA3-10
 70
     0
 10
0.0
 20
0.0
 30
0.0
  3
SA3-10
  1

  0
INSERT
  5
B7
330
1D
100
AcDbEntity
  8
HAIKIN
100
AcDbBlockReference
  2
SA4
 10
0.0
 20
0.0
 30
0.0
  0
ENDBLK
  5
B8
330
1D
100
AcDbEntity
  8
SUNPOU
100
AcDbBlockEnd
  0
BLOCK
  5
B9
330
1E
100
AcDbEntity
  8
HAIKIN
100
AcDbBlockBegin
  2
SA4
 70
     0
 10
0.0
 20
0.0
 30
0.0
  3
SA4
  1

  0
TEXT
  5
BA
330
1E
100
AcDbEntity
  8
SUNPOU
100
AcDbText
 10
3400.0
 20
0.0
 30
0.0
 40
25.0
  1
新和コンクリート工業株式会社
  7
NIHONGO
100
AcDbText
  0
TEXT
  5
BD
330
1E
100
AcDbEntity
  8
SUNPOU
100
AcDbText
 10
3614.166666666667
 20
62.5
 30
0.0
 40
25.0
  1
製図
  7
NIHONGO
 72
     4
 11
3640.0
 21
75.0
 31
0.0
100
AcDbText
  0
TEXT
  5
BE
330
1E
100
AcDbEntity
  8
SUNPOU
100
AcDbText
 10
3613.333333333333
 20
112.5
 30
0.0
 40
25.0
  1
設計
  7
NIHONGO
 72
     4
 11
3640.0
 21
125.0
 31
0.0
100
AcDbText
  0
TEXT
  5
BF
330
1E
100
AcDbEntity
  8
SUNPOU
100
AcDbText
 10
3390.833333333333
 20
62.50000000000014
 30
0.0
 40
25.0
  1
認
  7
NIHONGO
 72
     4
 11
3402.5
 21
75.00000000000014
 31
0.0
100
AcDbText
  0
TEXT
  5
C0
330
1E
100
AcDbEntity
  8
SUNPOU
100
AcDbText
 10
3390.833333333333
 20
113.3333333333337
 30
0.0
 40
25.0
  1
承
  7
NIHONGO
 72
     4
 11
3402.5
 21
125.0000000000003
 31
0.0
100
AcDbText
  0
TEXT
  5
C1
330
1E
100
AcDbEntity
  8
SUNPOU
100
AcDbText
 10
3127.5
 20
117.5000000000001
 30
0.0
 40
25.0
  1
図　面　番　号
  7
NIHONGO
 72
     4
 11
3230.0
 21
130.0000000000001
 31
0.0
100
AcDbText
  0
TEXT
  5
C2
330
1E
100
AcDbEntity
  8
SUNPOU
100
AcDbText
 10
3620.0
 20
170.0
 30
0.0
 40
25.0
  1
１／
  7
NIHONGO
100
AcDbText
  0
TEXT
  5
C3
330
1E
100
AcDbEntity
  8
SUNPOU
100
AcDbText
 10
3473.333333333333
 20
162.5000000000001
 30
0.0
 40
25.0
  1
縮　　尺
  7
NIHONGO
 72
     4
 11
3530.0
 21
175.0000000000001
 31
0.0
100
AcDbText
  0
TEXT
  5
C4
330
1E
100
AcDbEntity
  8
SUNPOU
100
AcDbText
 10
3473.333333333333
 20
212.5
 30
0.0
 40
25.0
  1
鉄 筋 量
  7
NIHONGO
 72
     4
 11
3530.0
 21
225.0
 31
0.0
100
AcDbText
  0
TEXT
  5
C5
330
1E
100
AcDbEntity
  8
SUNPOU
100
AcDbText
 10
3473.333333333333
 20
262.5
 30
0.0
 40
25.0
  1
製 造 数
  7
NIHONGO
 72
     4
 11
3530.0
 21
275.0
 31
0.0
100
AcDbText
  0
TEXT
  5
C6
330
1E
100
AcDbEntity
  8
SUNPOU
100
AcDbText
 10
3770.0
 20
210.0
 30
0.0
 40
25.0
  1
ｋｇ
  7
NIHONGO
 72
     2
 11
3820.0
 21
210.0
 31
0.0
100
AcDbText
  0
TEXT
  5
C7
330
1E
100
AcDbEntity
  8
SUNPOU
100
AcDbText
 10
3395.0
 20
210.0
 30
0.0
 40
25.0
  1
ｋｇ
  7
NIHONGO
 72
     2
 11
3445.0
 21
210.0
 31
0.0
100
AcDbText
  0
TEXT
  5
C8
330
1E
100
AcDbEntity
  8
SUNPOU
100
AcDbText
 10
3100.0
 20
162.5000000000001
 30
0.0
 40
25.0
  1
年 月 日
  7
NIHONGO
 72
     4
 11
3155.0
 21
175.0000000000001
 31
0.0
100
AcDbText
  0
TEXT
  5
C9
330
1E
100
AcDbEntity
  8
SUNPOU
100
AcDbText
 10
3098.333333333333
 20
212.5
 30
0.0
 40
25.0
  1
製品質量
  7
NIHONGO
 72
     4
 11
3155.0
 21
225.0
 31
0.0
100
AcDbText
  0
TEXT
  5
CA
330
1E
100
AcDbEntity
  8
SUNPOU
100
AcDbText
 10
3099.166666666667
 20
262.5
 30
0.0
 40
25.0
  1
業 者 名
  7
NIHONGO
 72
     4
 11
3155.0
 21
275.0
 31
0.0
100
AcDbText
  0
TEXT
  5
CB
330
1E
100
AcDbEntity
  8
SUNPOU
100
AcDbText
 10
3098.333333333333
 20
325.0
 30
0.0
 40
25.0
  1
名　　称
  7
NIHONGO
 72
     4
 11
3155.0
 21
337.5
 31
0.0
100
AcDbText
  0
LINE
  5
CC
330
1E
100
AcDbEntity
  8
SUNPOU
100
AcDbLine
 10
3380.0
 20
110.0000000000001
 30
0.0
 11
3080.0
 21
110.0000000000001
 31
0.0
  0
LINE
  5
CD
330
1E
100
AcDbEntity
  8
SUNPOU
100
AcDbLine
 10
3675.0
 20
49.99999999999986
 30
0.0
 11
3675.0
 21
149.9999999999999
 31
0.0
  0
LINE
  5
CE
330
1E
100
AcDbEntity
  8
SUNPOU
100
AcDbLine
 10
3605.0
 20
49.99999999999986
 30
0.0
 11
3605.0
 21
149.9999999999999
 31
0.0
  0
LINE
  5
CF
330
1E
100
AcDbEntity
  8
SUNPOU
100
AcDbLine
 10
3425.0
 20
49.99999999999994
 30
0.0
 11
3425.0
 21
150.0
 31
0.0
  0
LINE
  5
D0
330
1E
100
AcDbEntity
  8
SUNPOU
100
AcDbLine
 10
3380.0
 20
49.99999999999994
 30
0.0
 11
3380.0
 21
150.0
 31
0.0
  0
LINE
  5
D1
330
1E
100
AcDbEntity
  8
SUNPOU
100
AcDbLine
 10
3230.0
 20
150.0000000000001
 30
0.0
 11
3230.0
 21
375.0
 31
0.0
  0
LINE
  5
D2
330
1E
100
AcDbEntity
  8
SUNPOU
100
AcDbLine
 10
3605.0
 20
150.0000000000001
 30
0.0
 11
3605.0
 21
300.0
 31
0.0
  0
LINE
  5
D3
330
1E
100
AcDbEntity
  8
SUNPOU
100
AcDbLine
 10
3455.0
 20
150.0000000000001
 30
0.0
 11
3455.0
 21
300.0
 31
0.0
  0
LINE
  5
D4
330
1E
100
AcDbEntity
  8
SUNPOU
100
AcDbLine
 10
3830.0
 20
300.0
 30
0.0
 11
3080.0
 21
300.0
 31
0.0
  0
LINE
  5
D5
330
1E
100
AcDbEntity
  8
SUNPOU
100
AcDbLine
 10
3830.0
 20
250.0
 30
0.0
 11
3080.0
 21
250.0
 31
0.0
  0
LINE
  5
D6
330
1E
100
AcDbEntity
  8
SUNPOU
100
AcDbLine
 10
3830.0
 20
200.0
 30
0.0
 11
3080.0
 21
200.0
 31
0.0
  0
LINE
  5
D7
330
1E
100
AcDbEntity
  8
SUNPOU
100
AcDbLine
 10
3830.0
 20
149.9999999999999
 30
0.0
 11
3080.0
 21
150.0000000000004
 31
0.0
  0
LINE
  5
D8
330
1E
100
AcDbEntity
  8
HAIKIN
100
AcDbLine
 10
3080.0
 20
375.0
 30
0.0
 11
3830.0
 21
375.0
 31
0.0
  0
LINE
  5
D9
330
1E
100
AcDbEntity
  8
HAIKIN
100
AcDbLine
 10
3080.0
 20
50.00000000000009
 30
0.0
 11
3080.0
 21
375.0
 31
0.0
  0
LINE
  5
DA
330
1E
100
AcDbEntity
  8
SUNPOU
100
AcDbLine
 10
0.0000000000001599
 20
2770.0
 30
0.0
 11
0.0000000000001599
 21
2720.0
 31
0.0
  0
LINE
  5
DB
330
1E
100
AcDbEntity
  8
SUNPOU
100
AcDbLine
 10
250.0000000000001
 20
2770.0
 30
0.0
 11
0.0000000000001599
 21
2770.0
 31
0.0
  0
LINE
  5
DC
330
1E
100
AcDbEntity
  8
SUNPOU
100
AcDbLine
 10
250.0000000000001
 20
2720.0
 30
0.0
 11
250.0000000000001
 21
2770.0
 31
0.0
  0
LINE
  5
DD
330
1E
100
AcDbEntity
  8
HAIKIN
100
AcDbLine
 10
0.0000000000000037
 20
50.0
 30
0.0
 11
3830.0
 21
50.0
 31
0.0
  0
LINE
  5
DE
330
1E
100
AcDbEntity
  8
HAIKIN
100
AcDbLine
 10
0.0000000000001584
 20
2720.0
 30
0.0
 11
3830.0
 21
2720.0
 31
0.0
  0
LINE
  5
DF
330
1E
100
AcDbEntity
  8
HAIKIN
100
AcDbLine
 10
3830.0
 20
2720.0
 30
0.0
 11
3830.0
 21
50.0
 31
0.0
  0
TEXT
  5
E0
330
1E
100
AcDbEntity
  8
SUNPOU
100
AcDbText
 10
37.00000000000016
 20
2730.0
 30
0.0
 40
30.0
  1
Ｈ－２－共
  7
NIHONGO
 72
     4
 11
125.0000000000002
 21
2745.0
 31
0.0
100
AcDbText
  0
LINE
  5
E1
330
1E
100
AcDbEntity
  8
HAIKIN
100
AcDbLine
 10
0.0000000000000037
 20
50.0
 30
0.0
 11
0.0000000000001584
 21
2720.0
 31
0.0
  0
ENDBLK
  5
E2
330
1E
100
AcDbEntity
  8
HAIKIN
100
AcDbBlockEnd
  0
BLOCK
  5
E3
330
1F
100
AcDbEntity
  8
SUNPOU
100
AcDbBlockBegin
  2
*D3
 70
     1
 10
0.0
 20
0.0
 30
0.0
  3
*D3
  1

  0
LINE
  5
E4
330
1F
100
AcDbEntity
  8
0
  6
ByBlock
 62
     0
440
 16777216
100
AcDbLine
 10
4087.96097767145
 20
3706.848205068553
 30
0.0
 11
4918.032434938416
 21
3706.848205068553
 31
0.0
  0
LINE
  5
E5
330
1F
100
AcDbEntity
  8
0
  6
ByBlock
 62
     0
440
 16777216
100
AcDbLine
 10
4087.96097767145
 20
2706.848205068553
 30
0.0
 11
4918.032434938416
 21
2706.848205068553
 31
0.0
  0
LINE
  5
E6
330
1F
100
AcDbEntity
  8
0
  6
ByBlock
 62
     0
440
 16777216
100
AcDbLine
 10
4898.032434938416
 20
3666.848205068553
 30
0.0
 11
4898.032434938416
 21
2746.848205068553
 31
0.0
  0
SOLID
  5
E7
330
1F
100
AcDbEntity
  8
0
  6
ByBlock
 62
     0
440
 16777216
100
AcDbTrace
 10
4904.699101605083
 20
3666.848205068553
 30
0.0
 11
4891.365768271749
 21
3666.848205068553
 31
0.0
 12
4898.032434938416
 22
3706.848205068553
 32
0.0
 13
4898.032434938416
 23
3706.848205068553
 33
0.0
  0
SOLID
  5
E8
330
1F
100
AcDbEntity
  8
0
  6
ByBlock
 62
     0
440
 16777216
100
AcDbTrace
 10
4904.699101605083
 20
2746.848205068553
 30
0.0
 11
4891.365768271749
 21
2746.848205068553
 31
0.0
 12
4898.032434938416
 22
2706.848205068553
 32
0.0
 13
4898.032434938416
 23
2706.848205068553
 33
0.0
  0
TEXT
  5
E9
330
1F
100
AcDbEntity
  8
0
  6
ByBlock
 62
     0
440
 16777216
100
AcDbText
 10
4868.032434938416
 20
3121.848205068553
 30
0.0
 40
60.0
  1
1000
 50
90.0
  7
A
100
AcDbText
  0
POINT
  5
EA
330
1F
100
AcDbEntity
  8
DEFPOINTS
  6
ByBlock
 62
     0
440
 16777216
100
AcDbPoint
 10
4047.96097767145
 20
3706.848205068553
 30
0.0
  0
POINT
  5
EB
330
1F
100
AcDbEntity
  8
DEFPOINTS
  6
ByBlock
 62
     0
440
 16777216
100
AcDbPoint
 10
4047.96097767145
 20
2706.848205068553
 30
0.0
  0
POINT
  5
EC
330
1F
100
AcDbEntity
  8
DEFPOINTS
  6
ByBlock
 62
     0
440
 16777216
100
AcDbPoint
 10
4898.032434938416
 20
2706.848205068553
 30
0.0
  0
ENDBLK
  5
ED
330
1F
100
AcDbEntity
  8
SUNPOU
100
AcDbBlockEnd
  0
BLOCK
  5
EE
330
20
100
AcDbEntity
  8
SUNPOU
100
AcDbBlockBegin
  2
*D4
 70
     1
 10
0.0
 20
0.0
 30
0.0
  3
*D4
  1

  0
LINE
  5
EF
330
20
100
AcDbEntity
  8
0
  6
ByBlock
 62
     0
440
 16777216
100
AcDbLine
 10
4087.96097767145
 20
2706.848205068553
 30
0.0
 11
4700.88079932299
 21
2706.848205068553
 31
0.0
  0
LINE
  5
F0
330
20
100
AcDbEntity
  8
0
  6
ByBlock
 62
     0
440
 16777216
100
AcDbLine
 10
4087.96097767145
 20
2926.848205068553
 30
0.0
 11
4700.88079932299
 21
2926.848205068553
 31
0.0
  0
LINE
  5
F1
330
20
100
AcDbEntity
  8
0
  6
ByBlock
 62
     0
440
 16777216
100
AcDbLine
 10
4680.88079932299
 20
2746.848205068553
 30
0.0
 11
4680.88079932299
 21
2886.848205068553
 31
0.0
  0
SOLID
  5
F2
330
20
100
AcDbEntity
  8
0
  6
ByBlock
 62
     0
440
 16777216
100
AcDbTrace
 10
4687.547465989657
 20
2746.848205068553
 30
0.0
 11
4674.214132656323
 21
2746.848205068553
 31
0.0
 12
4680.88079932299
 22
2706.848205068553
 32
0.0
 13
4680.88079932299
 23
2706.848205068553
 33
0.0
  0
SOLID
  5
F3
330
20
100
AcDbEntity
  8
0
  6
ByBlock
 62
     0
440
 16777216
100
AcDbTrace
 10
4687.547465989657
 20
2886.848205068553
 30
0.0
 11
4674.214132656323
 21
2886.848205068553
 31
0.0
 12
4680.88079932299
 22
2926.848205068553
 32
0.0
 13
4680.88079932299
 23
2926.848205068553
 33
0.0
  0
TEXT
  5
F4
330
20
100
AcDbEntity
  8
0
  6
ByBlock
 62
     0
440
 16777216
100
AcDbText
 10
4650.88079932299
 20
2741.848205068553
 30
0.0
 40
60.0
  1
220
 50
90.0
  7
A
100
AcDbText
  0
POINT
  5
F5
330
20
100
AcDbEntity
  8
DEFPOINTS
  6
ByBlock
 62
     0
440
 16777216
100
AcDbPoint
 10
4047.96097767145
 20
2706.848205068553
 30
0.0
  0
POINT
  5
F6
330
20
100
AcDbEntity
  8
DEFPOINTS
  6
ByBlock
 62
     0
440
 16777216
100
AcDbPoint
 10
4047.96097767145
 20
2926.848205068553
 30
0.0
  0
POINT
  5
F7
330
20
100
AcDbEntity
  8
DEFPOINTS
  6
ByBlock
 62
     0
440
 16777216
100
AcDbPoint
 10
4680.88079932299
 20
2926.848205068553
 30
0.0
  0
ENDBLK
  5
F8
330
20
100
AcDbEntity
  8
SUNPOU
100
AcDbBlockEnd
  0
BLOCK
  5
F9
330
21
100
AcDbEntity
  8
SUNPOU
100
AcDbBlockBegin
  2
*D5
 70
     1
 10
0.0
 20
0.0
 30
0.0
  3
*D5
  1

  0
LINE
  5
FA
330
21
100
AcDbEntity
  8
0
  6
ByBlock
 62
     0
440
 16777216
100
AcDbLine
 10
4562.952337057226
 20
2926.848205068553
 30
0.0
 11
4700.88079932299
 21
2926.848205068553
 31
0.0
  0
LINE
  5
FB
330
21
100
AcDbEntity
  8
0
  6
ByBlock
 62
     0
440
 16777216
100
AcDbLine
 10
4656.722361527523
 20
3706.848205068553
 30
0.0
 11
4700.88079932299
 21
3706.848205068553
 31
0.0
  0
LINE
  5
FC
330
21
100
AcDbEntity
  8
0
  6
ByBlock
 62
     0
440
 16777216
100
AcDbLine
 10
4680.88079932299
 20
2966.848205068553
 30
0.0
 11
4680.88079932299
 21
3666.848205068553
 31
0.0
  0
SOLID
  5
FD
330
21
100
AcDbEntity
  8
0
  6
ByBlock
 62
     0
440
 16777216
100
AcDbTrace
 10
4687.547465989657
 20
2966.848205068553
 30
0.0
 11
4674.214132656323
 21
2966.848205068553
 31
0.0
 12
4680.88079932299
 22
2926.848205068553
 32
0.0
 13
4680.88079932299
 23
2926.848205068553
 33
0.0
  0
SOLID
  5
FE
330
21
100
AcDbEntity
  8
0
  6
ByBlock
 62
     0
440
 16777216
100
AcDbTrace
 10
4687.547465989657
 20
3666.848205068553
 30
0.0
 11
4674.214132656323
 21
3666.848205068553
 31
0.0
 12
4680.88079932299
 22
3706.848205068553
 32
0.0
 13
4680.88079932299
 23
3706.848205068553
 33
0.0
  0
TEXT
  5
FF
330
21
100
AcDbEntity
  8
0
  6
ByBlock
 62
     0
440
 16777216
100
AcDbText
 10
4650.88079932299
 20
3241.848205068553
 30
0.0
 40
60.0
  1
780
 50
90.0
  7
A
100
AcDbText
  0
POINT
  5
100
330
21
100
AcDbEntity
  8
DEFPOINTS
  6
ByBlock
 62
     0
440
 16777216
100
AcDbPoint
 10
4522.952337057226
 20
2926.848205068553
 30
0.0
  0
POINT
  5
101
330
21
100
AcDbEntity
  8
DEFPOINTS
  6
ByBlock
 62
     0
440
 16777216
100
AcDbPoint
 10
4616.722361527523
 20
3706.848205068553
 30
0.0
  0
POINT
  5
102
330
21
100
AcDbEntity
  8
DEFPOINTS
  6
ByBlock
 62
     0
440
 16777216
100
AcDbPoint
 10
4680.88079932299
 20
3706.848205068553
 30
0.0
  0
ENDBLK
  5
103
330
21
100
AcDbEntity
  8
SUNPOU
100
AcDbBlockEnd
  0
BLOCK
  5
11A
330
24
100
AcDbEntity
  8
SUNPOU
100
AcDbBlockBegin
  2
*D8
 70
     1
 10
0.0
 20
0.0
 30
0.0
  3
*D8
  1

  0
LINE
  5
11B
330
24
100
AcDbEntity
  8
0
  6
ByBlock
 62
     0
440
 16777216
100
AcDbLine
 10
1757.96097767145
 20
2706.848205068554
 30
0.0
 11
1221.001480596815
 21
2706.848205068554
 31
0.0
  0
LINE
  5
11C
330
24
100
AcDbEntity
  8
0
  6
ByBlock
 62
     0
440
 16777216
100
AcDbLine
 10
1757.96097767145
 20
2826.848205068554
 30
0.0
 11
1221.001480596815
 21
2826.848205068554
 31
0.0
  0
LINE
  5
11D
330
24
100
AcDbEntity
  8
0
  6
ByBlock
 62
     0
440
 16777216
100
AcDbLine
 10
1241.001480596815
 20
2746.848205068554
 30
0.0
 11
1241.001480596815
 21
2766.848205068554
 31
0.0
  0
LINE
  5
11E
330
24
100
AcDbEntity
  8
0
  6
ByBlock
 62
     0
440
 16777216
100
AcDbLine
 10
1241.001480596815
 20
2786.848205068554
 30
0.0
 11
1241.001480596815
 21
2766.848205068554
 31
0.0
  0
SOLID
  5
11F
330
24
100
AcDbEntity
  8
0
  6
ByBlock
 62
     0
440
 16777216
100
AcDbTrace
 10
1247.668147263482
 20
2746.848205068554
 30
0.0
 11
1234.334813930148
 21
2746.848205068554
 31
0.0
 12
1241.001480596815
 22
2706.848205068554
 32
0.0
 13
1241.001480596815
 23
2706.848205068554
 33
0.0
  0
SOLID
  5
120
330
24
100
AcDbEntity
  8
0
  6
ByBlock
 62
     0
440
 16777216
100
AcDbTrace
 10
1247.668147263482
 20
2786.848205068554
 30
0.0
 11
1234.334813930148
 21
2786.848205068554
 31
0.0
 12
1241.001480596815
 22
2826.848205068554
 32
0.0
 13
1241.001480596815
 23
2826.848205068554
 33
0.0
  0
TEXT
  5
121
330
24
100
AcDbEntity
  8
0
  6
ByBlock
 62
     0
440
 16777216
100
AcDbText
 10
1211.001480596815
 20
2714.476554102858
 30
0.0
 40
60.0
  1
120
 50
90.0
  7
A
100
AcDbText
  0
POINT
  5
122
330
24
100
AcDbEntity
  8
DEFPOINTS
  6
ByBlock
 62
     0
440
 16777216
100
AcDbPoint
 10
1797.96097767145
 20
2706.848205068554
 30
0.0
  0
POINT
  5
123
330
24
100
AcDbEntity
  8
DEFPOINTS
  6
ByBlock
 62
     0
440
 16777216
100
AcDbPoint
 10
1797.96097767145
 20
2826.848205068554
 30
0.0
  0
POINT
  5
124
330
24
100
AcDbEntity
  8
DEFPOINTS
  6
ByBlock
 62
     0
440
 16777216
100
AcDbPoint
 10
1241.001480596815
 20
2826.848205068554
 30
0.0
  0
ENDBLK
  5
125
330
24
100
AcDbEntity
  8
SUNPOU
100
AcDbBlockEnd
  0
BLOCK
  5
126
330
25
100
AcDbEntity
  8
SUNPOU
100
AcDbBlockBegin
  2
*D9
 70
     1
 10
0.0
 20
0.0
 30
0.0
  3
*D9
  1

  0
LINE
  5
127
330
25
100
AcDbEntity
  8
0
  6
ByBlock
 62
     0
440
 16777216
100
AcDbLine
 10
1757.96097767145
 20
2706.848205068554
 30
0.0
 11
1438.153116212241
 21
2706.848205068554
 31
0.0
  0
LINE
  5
128
330
25
100
AcDbEntity
  8
0
  6
ByBlock
 62
     0
440
 16777216
100
AcDbLine
 10
1757.96097767145
 20
2776.848205068554
 30
0.0
 11
1438.153116212241
 21
2776.848205068554
 31
0.0
  0
LINE
  5
129
330
25
100
AcDbEntity
  8
0
  6
ByBlock
 62
     0
440
 16777216
100
AcDbLine
 10
1458.153116212241
 20
2816.848205068554
 30
0.0
 11
1458.153116212241
 21
2856.848205068554
 31
0.0
  0
LINE
  5
12A
330
25
100
AcDbEntity
  8
0
  6
ByBlock
 62
     0
440
 16777216
100
AcDbLine
 10
1458.153116212241
 20
2666.848205068554
 30
0.0
 11
1458.153116212241
 21
2626.848205068554
 31
0.0
  0
SOLID
  5
12B
330
25
100
AcDbEntity
  8
0
  6
ByBlock
 62
     0
440
 16777216
100
AcDbTrace
 10
1464.819782878907
 20
2816.848205068554
 30
0.0
 11
1451.486449545574
 21
2816.848205068554
 31
0.0
 12
1458.153116212241
 22
2776.848205068554
 32
0.0
 13
1458.153116212241
 23
2776.848205068554
 33
0.0
  0
SOLID
  5
12C
330
25
100
AcDbEntity
  8
0
  6
ByBlock
 62
     0
440
 16777216
100
AcDbTrace
 10
1464.819782878907
 20
2666.848205068554
 30
0.0
 11
1451.486449545574
 21
2666.848205068554
 31
0.0
 12
1458.153116212241
 22
2706.848205068554
 32
0.0
 13
1458.153116212241
 23
2706.848205068554
 33
0.0
  0
LINE
  5
12D
330
25
100
AcDbEntity
  8
0
  6
ByBlock
 62
     0
440
 16777216
100
AcDbLine
 10
1458.153116212241
 20
2776.848205068554
 30
0.0
 11
1458.153116212241
 21
2706.848205068554
 31
0.0
  0
TEXT
  5
12E
330
25
100
AcDbEntity
  8
0
  6
ByBlock
 62
     0
440
 16777216
100
AcDbText
 10
1428.153116212241
 20
2585.371311220918
 30
0.0
 40
60.0
  1
70
 50
90.0
  7
A
100
AcDbText
  0
POINT
  5
12F
330
25
100
AcDbEntity
  8
DEFPOINTS
  6
ByBlock
 62
     0
440
 16777216
100
AcDbPoint
 10
1797.96097767145
 20
2706.848205068554
 30
0.0
  0
POINT
  5
130
330
25
100
AcDbEntity
  8
DEFPOINTS
  6
ByBlock
 62
     0
440
 16777216
100
AcDbPoint
 10
1797.96097767145
 20
2776.848205068554
 30
0.0
  0
POINT
  5
131
330
25
100
AcDbEntity
  8
DEFPOINTS
  6
ByBlock
 62
     0
440
 16777216
100
AcDbPoint
 10
1458.153116212241
 20
2776.848205068554
 30
0.0
  0
ENDBLK
  5
132
330
25
100
AcDbEntity
  8
SUNPOU
100
AcDbBlockEnd
  0
BLOCK
  5
133
330
26
100
AcDbEntity
  8
SUNPOU
100
AcDbBlockBegin
  2
*D10
 70
     1
 10
0.0
 20
0.0
 30
0.0
  3
*D10
  1

  0
LINE
  5
134
330
26
100
AcDbEntity
  8
0
  6
ByBlock
 62
     0
440
 16777216
100
AcDbLine
 10
1447.764702887071
 20
2776.848205068554
 30
0.0
 11
1438.153116212241
 21
2776.848205068554
 31
0.0
  0
LINE
  5
135
330
26
100
AcDbEntity
  8
0
  6
ByBlock
 62
     0
440
 16777216
100
AcDbLine
 10
1482.311554007707
 20
2826.848205068554
 30
0.0
 11
1438.153116212241
 21
2826.848205068554
 31
0.0
  0
LINE
  5
136
330
26
100
AcDbEntity
  8
0
  6
ByBlock
 62
     0
440
 16777216
100
AcDbLine
 10
1458.153116212241
 20
2866.848205068554
 30
0.0
 11
1458.153116212241
 21
2906.848205068554
 31
0.0
  0
LINE
  5
137
330
26
100
AcDbEntity
  8
0
  6
ByBlock
 62
     0
440
 16777216
100
AcDbLine
 10
1458.153116212241
 20
2736.848205068554
 30
0.0
 11
1458.153116212241
 21
2696.848205068554
 31
0.0
  0
LINE
  5
138
330
26
100
AcDbEntity
  8
0
  6
ByBlock
 62
     0
440
 16777216
100
AcDbLine
 10
1458.153116212241
 20
2906.848205068554
 30
0.0
 11
1458.153116212241
 21
3036.848205068554
 31
0.0
  0
SOLID
  5
139
330
26
100
AcDbEntity
  8
0
  6
ByBlock
 62
     0
440
 16777216
100
AcDbTrace
 10
1464.819782878907
 20
2866.848205068554
 30
0.0
 11
1451.486449545574
 21
2866.848205068554
 31
0.0
 12
1458.153116212241
 22
2826.848205068554
 32
0.0
 13
1458.153116212241
 23
2826.848205068554
 33
0.0
  0
SOLID
  5
13A
330
26
100
AcDbEntity
  8
0
  6
ByBlock
 62
     0
440
 16777216
100
AcDbTrace
 10
1464.819782878907
 20
2736.848205068554
 30
0.0
 11
1451.486449545574
 21
2736.848205068554
 31
0.0
 12
1458.153116212241
 22
2776.848205068554
 32
0.0
 13
1458.153116212241
 23
2776.848205068554
 33
0.0
  0
LINE
  5
13B
330
26
100
AcDbEntity
  8
0
  6
ByBlock
 62
     0
440
 16777216
100
AcDbLine
 10
1458.153116212241
 20
2826.848205068554
 30
0.0
 11
1458.153116212241
 21
2776.848205068554
 31
0.0
  0
TEXT
  5
13C
330
26
100
AcDbEntity
  8
0
  6
ByBlock
 62
     0
440
 16777216
100
AcDbText
 10
1428.153116212241
 20
2946.848205068554
 30
0.0
 40
60.0
  1
50
 50
90.0
  7
A
100
AcDbText
  0
POINT
  5
13D
330
26
100
AcDbEntity
  8
DEFPOINTS
  6
ByBlock
 62
     0
440
 16777216
100
AcDbPoint
 10
1487.764702887071
 20
2776.848205068554
 30
0.0
  0
POINT
  5
13E
330
26
100
AcDbEntity
  8
DEFPOINTS
  6
ByBlock
 62
     0
440
 16777216
100
AcDbPoint
 10
1522.311554007707
 20
2826.848205068554
 30
0.0
  0
POINT
  5
13F
330
26
100
AcDbEntity
  8
DEFPOINTS
  6
ByBlock
 62
     0
440
 16777216
100
AcDbPoint
 10
1458.153116212241
 20
2826.848205068554
 30
0.0
  0
ENDBLK
  5
140
330
26
100
AcDbEntity
  8
SUNPOU
100
AcDbBlockEnd
  0
BLOCK
  5
16E
330
2B
100
AcDbEntity
  8
SUNPOU
100
AcDbBlockBegin
  2
*D15
 70
     1
 10
0.0
 20
0.0
 30
0.0
  3
*D15
  1

  0
LINE
  5
16F
330
2B
100
AcDbEntity
  8
0
  6
ByBlock
 62
     0
440
 16777216
100
AcDbLine
 10
4047.96097767145
 20
2666.848205068553
 30
0.0
 11
4047.96097767145
 21
2080.036175343184
 31
0.0
  0
LINE
  5
170
330
2B
100
AcDbEntity
  8
0
  6
ByBlock
 62
     0
440
 16777216
100
AcDbLine
 10
3827.96097767145
 20
2666.848205068553
 30
0.0
 11
3827.96097767145
 21
2080.036175343184
 31
0.0
  0
LINE
  5
171
330
2B
100
AcDbEntity
  8
0
  6
ByBlock
 62
     0
440
 16777216
100
AcDbLine
 10
4007.96097767145
 20
2100.036175343184
 30
0.0
 11
3937.96097767145
 21
2100.036175343184
 31
0.0
  0
LINE
  5
172
330
2B
100
AcDbEntity
  8
0
  6
ByBlock
 62
     0
440
 16777216
100
AcDbLine
 10
3867.96097767145
 20
2100.036175343184
 30
0.0
 11
3937.96097767145
 21
2100.036175343184
 31
0.0
  0
SOLID
  5
173
330
2B
100
AcDbEntity
  8
0
  6
ByBlock
 62
     0
440
 16777216
100
AcDbTrace
 10
4007.96097767145
 20
2093.369508676518
 30
0.0
 11
4007.96097767145
 21
2106.702842009851
 31
0.0
 12
4047.96097767145
 22
2100.036175343184
 32
0.0
 13
4047.96097767145
 23
2100.036175343184
 33
0.0
  0
SOLID
  5
174
330
2B
100
AcDbEntity
  8
0
  6
ByBlock
 62
     0
440
 16777216
100
AcDbTrace
 10
3867.96097767145
 20
2093.369508676518
 30
0.0
 11
3867.96097767145
 21
2106.702842009851
 31
0.0
 12
3827.96097767145
 22
2100.036175343184
 32
0.0
 13
3827.96097767145
 23
2100.036175343184
 33
0.0
  0
TEXT
  5
175
330
2B
100
AcDbEntity
  8
0
  6
ByBlock
 62
     0
440
 16777216
100
AcDbText
 10
3862.96097767145
 20
2130.036175343184
 30
0.0
 40
60.0
  1
220
  7
A
100
AcDbText
  0
POINT
  5
176
330
2B
100
AcDbEntity
  8
DEFPOINTS
  6
ByBlock
 62
     0
440
 16777216
100
AcDbPoint
 10
4047.96097767145
 20
2706.848205068553
 30
0.0
  0
POINT
  5
177
330
2B
100
AcDbEntity
  8
DEFPOINTS
  6
ByBlock
 62
     0
440
 16777216
100
AcDbPoint
 10
3827.96097767145
 20
2706.848205068553
 30
0.0
  0
POINT
  5
178
330
2B
100
AcDbEntity
  8
DEFPOINTS
  6
ByBlock
 62
     0
440
 16777216
100
AcDbPoint
 10
3827.96097767145
 20
2100.036175343184
 30
0.0
  0
ENDBLK
  5
179
330
2B
100
AcDbEntity
  8
SUNPOU
100
AcDbBlockEnd
  0
BLOCK
  5
1E7
330
35
100
AcDbEntity
  8
SUNPOU
100
AcDbBlockBegin
  2
*D25
 70
     1
 10
0.0
 20
0.0
 30
0.0
  3
*D25
  1

  0
LINE
  5
1E8
330
35
100
AcDbEntity
  8
0
  6
ByBlock
 62
     0
440
 16777216
100
AcDbLine
 10
7243.69597814597
 20
2666.848205068554
 30
0.0
 11
7243.69597814597
 21
1884.617055471984
 31
0.0
  0
LINE
  5
1E9
330
35
100
AcDbEntity
  8
0
  6
ByBlock
 62
     0
440
 16777216
100
AcDbLine
 10
9243.69597814597
 20
2666.848205068554
 30
0.0
 11
9243.69597814597
 21
1884.617055471984
 31
0.0
  0
LINE
  5
1EA
330
35
100
AcDbEntity
  8
0
  6
ByBlock
 62
     0
440
 16777216
100
AcDbLine
 10
7283.69597814597
 20
1904.617055471984
 30
0.0
 11
8243.69597814597
 21
1904.617055471984
 31
0.0
  0
LINE
  5
1EB
330
35
100
AcDbEntity
  8
0
  6
ByBlock
 62
     0
440
 16777216
100
AcDbLine
 10
9203.69597814597
 20
1904.617055471984
 30
0.0
 11
8243.69597814597
 21
1904.617055471984
 31
0.0
  0
SOLID
  5
1EC
330
35
100
AcDbEntity
  8
0
  6
ByBlock
 62
     0
440
 16777216
100
AcDbTrace
 10
7283.69597814597
 20
1897.950388805318
 30
0.0
 11
7283.69597814597
 21
1911.283722138651
 31
0.0
 12
7243.69597814597
 22
1904.617055471984
 32
0.0
 13
7243.69597814597
 23
1904.617055471984
 33
0.0
  0
SOLID
  5
1ED
330
35
100
AcDbEntity
  8
0
  6
ByBlock
 62
     0
440
 16777216
100
AcDbTrace
 10
9203.69597814597
 20
1897.950388805318
 30
0.0
 11
9203.69597814597
 21
1911.283722138651
 31
0.0
 12
9243.69597814597
 22
1904.617055471984
 32
0.0
 13
9243.69597814597
 23
1904.617055471984
 33
0.0
  0
TEXT
  5
1EE
330
35
100
AcDbEntity
  8
0
  6
ByBlock
 62
     0
440
 16777216
100
AcDbText
 10
8148.69597814597
 20
1934.617055471984
 30
0.0
 40
60.0
  1
2000
  7
A
100
AcDbText
  0
POINT
  5
1EF
330
35
100
AcDbEntity
  8
DEFPOINTS
  6
ByBlock
 62
     0
440
 16777216
100
AcDbPoint
 10
7243.69597814597
 20
2706.848205068554
 30
0.0
  0
POINT
  5
1F0
330
35
100
AcDbEntity
  8
DEFPOINTS
  6
ByBlock
 62
     0
440
 16777216
100
AcDbPoint
 10
9243.69597814597
 20
2706.848205068554
 30
0.0
  0
POINT
  5
1F1
330
35
100
AcDbEntity
  8
DEFPOINTS
  6
ByBlock
 62
     0
440
 16777216
100
AcDbPoint
 10
9243.69597814597
 20
1904.617055471984
 30
0.0
  0
ENDBLK
  5
1F2
330
35
100
AcDbEntity
  8
SUNPOU
100
AcDbBlockEnd
  0
BLOCK
  5
1F3
330
36
100
AcDbEntity
  8
SUNPOU
100
AcDbBlockBegin
  2
*D26
 70
     1
 10
0.0
 20
0.0
 30
0.0
  3
*D26
  1

  0
LINE
  5
1F4
330
36
100
AcDbEntity
  8
0
  6
ByBlock
 62
     0
440
 16777216
100
AcDbLine
 10
6243.69597814597
 20
2691.848205068554
 30
0.0
 11
6243.69597814597
 21
1884.617055471984
 31
0.0
  0
LINE
  5
1F5
330
36
100
AcDbEntity
  8
0
  6
ByBlock
 62
     0
440
 16777216
100
AcDbLine
 10
7243.69597814597
 20
2666.848205068554
 30
0.0
 11
7243.69597814597
 21
1884.617055471984
 31
0.0
  0
LINE
  5
1F6
330
36
100
AcDbEntity
  8
0
  6
ByBlock
 62
     0
440
 16777216
100
AcDbLine
 10
6283.69597814597
 20
1904.617055471984
 30
0.0
 11
6743.69597814597
 21
1904.617055471984
 31
0.0
  0
LINE
  5
1F7
330
36
100
AcDbEntity
  8
0
  6
ByBlock
 62
     0
440
 16777216
100
AcDbLine
 10
7203.69597814597
 20
1904.617055471984
 30
0.0
 11
6743.69597814597
 21
1904.617055471984
 31
0.0
  0
SOLID
  5
1F8
330
36
100
AcDbEntity
  8
0
  6
ByBlock
 62
     0
440
 16777216
100
AcDbTrace
 10
6283.69597814597
 20
1897.950388805318
 30
0.0
 11
6283.69597814597
 21
1911.283722138651
 31
0.0
 12
6243.69597814597
 22
1904.617055471984
 32
0.0
 13
6243.69597814597
 23
1904.617055471984
 33
0.0
  0
SOLID
  5
1F9
330
36
100
AcDbEntity
  8
0
  6
ByBlock
 62
     0
440
 16777216
100
AcDbTrace
 10
7203.69597814597
 20
1897.950388805318
 30
0.0
 11
7203.69597814597
 21
1911.283722138651
 31
0.0
 12
7243.69597814597
 22
1904.617055471984
 32
0.0
 13
7243.69597814597
 23
1904.617055471984
 33
0.0
  0
TEXT
  5
1FA
330
36
100
AcDbEntity
  8
0
  6
ByBlock
 62
     0
440
 16777216
100
AcDbText
 10
6658.69597814597
 20
1934.617055471984
 30
0.0
 40
60.0
  1
1000
  7
A
100
AcDbText
  0
POINT
  5
1FB
330
36
100
AcDbEntity
  8
DEFPOINTS
  6
ByBlock
 62
     0
440
 16777216
100
AcDbPoint
 10
6243.69597814597
 20
2731.848205068554
 30
0.0
  0
POINT
  5
1FC
330
36
100
AcDbEntity
  8
DEFPOINTS
  6
ByBlock
 62
     0
440
 16777216
100
AcDbPoint
 10
7243.69597814597
 20
2706.848205068554
 30
0.0
  0
POINT
  5
1FD
330
36
100
AcDbEntity
  8
DEFPOINTS
  6
ByBlock
 62
     0
440
 16777216
100
AcDbPoint
 10
7243.69597814597
 20
1904.617055471984
 30
0.0
  0
ENDBLK
  5
1FE
330
36
100
AcDbEntity
  8
SUNPOU
100
AcDbBlockEnd
  0
BLOCK
  5
1FF
330
37
100
AcDbEntity
  8
SUNPOU
100
AcDbBlockBegin
  2
*D27
 70
     1
 10
0.0
 20
0.0
 30
0.0
  3
*D27
  1

  0
LINE
  5
200
330
37
100
AcDbEntity
  8
0
  6
ByBlock
 62
     0
440
 16777216
100
AcDbLine
 10
6228.69597814597
 20
2706.848205068553
 30
0.0
 11
5235.966578387869
 21
2706.848205068553
 31
0.0
  0
LINE
  5
201
330
37
100
AcDbEntity
  8
0
  6
ByBlock
 62
     0
440
 16777216
100
AcDbLine
 10
6203.695978145973
 20
3706.848205068554
 30
0.0
 11
5235.966578387869
 21
3706.848205068554
 31
0.0
  0
LINE
  5
202
330
37
100
AcDbEntity
  8
0
  6
ByBlock
 62
     0
440
 16777216
100
AcDbLine
 10
5255.966578387869
 20
2746.848205068553
 30
0.0
 11
5255.966578387869
 21
3666.848205068554
 31
0.0
  0
SOLID
  5
203
330
37
100
AcDbEntity
  8
0
  6
ByBlock
 62
     0
440
 16777216
100
AcDbTrace
 10
5262.633245054536
 20
2746.848205068553
 30
0.0
 11
5249.299911721202
 21
2746.848205068553
 31
0.0
 12
5255.966578387869
 22
2706.848205068553
 32
0.0
 13
5255.966578387869
 23
2706.848205068553
 33
0.0
  0
SOLID
  5
204
330
37
100
AcDbEntity
  8
0
  6
ByBlock
 62
     0
440
 16777216
100
AcDbTrace
 10
5262.633245054536
 20
3666.848205068554
 30
0.0
 11
5249.299911721202
 21
3666.848205068554
 31
0.0
 12
5255.966578387869
 22
3706.848205068554
 32
0.0
 13
5255.966578387869
 23
3706.848205068554
 33
0.0
  0
TEXT
  5
205
330
37
100
AcDbEntity
  8
0
  6
ByBlock
 62
     0
440
 16777216
100
AcDbText
 10
5225.966578387869
 20
3121.848205068553
 30
0.0
 40
60.0
  1
1000
 50
90.0
  7
A
100
AcDbText
  0
POINT
  5
206
330
37
100
AcDbEntity
  8
DEFPOINTS
  6
ByBlock
 62
     0
440
 16777216
100
AcDbPoint
 10
6268.69597814597
 20
2706.848205068553
 30
0.0
  0
POINT
  5
207
330
37
100
AcDbEntity
  8
DEFPOINTS
  6
ByBlock
 62
     0
440
 16777216
100
AcDbPoint
 10
6243.695978145973
 20
3706.848205068554
 30
0.0
  0
POINT
  5
208
330
37
100
AcDbEntity
  8
DEFPOINTS
  6
ByBlock
 62
     0
440
 16777216
100
AcDbPoint
 10
5255.966578387869
 20
3706.848205068554
 30
0.0
  0
ENDBLK
  5
209
330
37
100
AcDbEntity
  8
SUNPOU
100
AcDbBlockEnd
  0
BLOCK
  5
20A
330
38
100
AcDbEntity
  8
SUNPOU
100
AcDbBlockBegin
  2
*D28
 70
     1
 10
0.0
 20
0.0
 30
0.0
  3
*D28
  1

  0
LINE
  5
20B
330
38
100
AcDbEntity
  8
0
  6
ByBlock
 62
     0
440
 16777216
100
AcDbLine
 10
6203.695978145973
 20
3706.848205068554
 30
0.0
 11
5235.966578387869
 21
3706.848205068554
 31
0.0
  0
LINE
  5
20C
330
38
100
AcDbEntity
  8
0
  6
ByBlock
 62
     0
440
 16777216
100
AcDbLine
 10
6203.695978145973
 20
5706.848205068554
 30
0.0
 11
5235.966578387869
 21
5706.848205068554
 31
0.0
  0
LINE
  5
20D
330
38
100
AcDbEntity
  8
0
  6
ByBlock
 62
     0
440
 16777216
100
AcDbLine
 10
5255.966578387869
 20
3746.848205068554
 30
0.0
 11
5255.966578387869
 21
5666.848205068554
 31
0.0
  0
SOLID
  5
20E
330
38
100
AcDbEntity
  8
0
  6
ByBlock
 62
     0
440
 16777216
100
AcDbTrace
 10
5262.633245054536
 20
3746.848205068554
 30
0.0
 11
5249.299911721202
 21
3746.848205068554
 31
0.0
 12
5255.966578387869
 22
3706.848205068554
 32
0.0
 13
5255.966578387869
 23
3706.848205068554
 33
0.0
  0
SOLID
  5
20F
330
38
100
AcDbEntity
  8
0
  6
ByBlock
 62
     0
440
 16777216
100
AcDbTrace
 10
5262.633245054536
 20
5666.848205068554
 30
0.0
 11
5249.299911721202
 21
5666.848205068554
 31
0.0
 12
5255.966578387869
 22
5706.848205068554
 32
0.0
 13
5255.966578387869
 23
5706.848205068554
 33
0.0
  0
TEXT
  5
210
330
38
100
AcDbEntity
  8
0
  6
ByBlock
 62
     0
440
 16777216
100
AcDbText
 10
5225.966578387869
 20
4611.848205068554
 30
0.0
 40
60.0
  1
2000
 50
90.0
  7
A
100
AcDbText
  0
POINT
  5
211
330
38
100
AcDbEntity
  8
DEFPOINTS
  6
ByBlock
 62
     0
440
 16777216
100
AcDbPoint
 10
6243.695978145973
 20
3706.848205068554
 30
0.0
  0
POINT
  5
212
330
38
100
AcDbEntity
  8
DEFPOINTS
  6
ByBlock
 62
     0
440
 16777216
100
AcDbPoint
 10
6243.695978145973
 20
5706.848205068554
 30
0.0
  0
POINT
  5
213
330
38
100
AcDbEntity
  8
DEFPOINTS
  6
ByBlock
 62
     0
440
 16777216
100
AcDbPoint
 10
5255.966578387869
 20
5706.848205068554
 30
0.0
  0
ENDBLK
  5
214
330
38
100
AcDbEntity
  8
SUNPOU
100
AcDbBlockEnd
  0
BLOCK
  5
29E
330
45
100
AcDbEntity
  8
SUNPOU
100
AcDbBlockBegin
  2
*D40
 70
     1
 10
0.0
 20
0.0
 30
0.0
  3
*D40
  1

  0
LINE
  5
29F
330
45
100
AcDbEntity
  8
0
  6
ByBlock
 62
     0
440
 16777216
100
AcDbLine
 10
4087.960977671449
 20
5706.848205068553
 30
0.0
 11
4918.032434938416
 21
5706.848205068553
 31
0.0
  0
LINE
  5
2A0
330
45
100
AcDbEntity
  8
0
  6
ByBlock
 62
     0
440
 16777216
100
AcDbLine
 10
4087.960977671449
 20
3706.848205068553
 30
0.0
 11
4918.032434938416
 21
3706.848205068553
 31
0.0
  0
LINE
  5
2A1
330
45
100
AcDbEntity
  8
0
  6
ByBlock
 62
     0
440
 16777216
100
AcDbLine
 10
4898.032434938416
 20
5666.848205068553
 30
0.0
 11
4898.032434938416
 21
3746.848205068553
 31
0.0
  0
SOLID
  5
2A2
330
45
100
AcDbEntity
  8
0
  6
ByBlock
 62
     0
440
 16777216
100
AcDbTrace
 10
4904.699101605083
 20
5666.848205068553
 30
0.0
 11
4891.365768271749
 21
5666.848205068553
 31
0.0
 12
4898.032434938416
 22
5706.848205068553
 32
0.0
 13
4898.032434938416
 23
5706.848205068553
 33
0.0
  0
SOLID
  5
2A3
330
45
100
AcDbEntity
  8
0
  6
ByBlock
 62
     0
440
 16777216
100
AcDbTrace
 10
4904.699101605083
 20
3746.848205068553
 30
0.0
 11
4891.365768271749
 21
3746.848205068553
 31
0.0
 12
4898.032434938416
 22
3706.848205068553
 32
0.0
 13
4898.032434938416
 23
3706.848205068553
 33
0.0
  0
TEXT
  5
2A4
330
45
100
AcDbEntity
  8
0
  6
ByBlock
 62
     0
440
 16777216
100
AcDbText
 10
4868.032434938416
 20
4611.848205068553
 30
0.0
 40
60.0
  1
2000
 50
90.0
  7
A
100
AcDbText
  0
POINT
  5
2A5
330
45
100
AcDbEntity
  8
DEFPOINTS
  6
ByBlock
 62
     0
440
 16777216
100
AcDbPoint
 10
4047.960977671449
 20
5706.848205068553
 30
0.0
  0
POINT
  5
2A6
330
45
100
AcDbEntity
  8
DEFPOINTS
  6
ByBlock
 62
     0
440
 16777216
100
AcDbPoint
 10
4047.960977671449
 20
3706.848205068553
 30
0.0
  0
POINT
  5
2A7
330
45
100
AcDbEntity
  8
DEFPOINTS
  6
ByBlock
 62
     0
440
 16777216
100
AcDbPoint
 10
4898.032434938416
 20
3706.848205068553
 30
0.0
  0
ENDBLK
  5
2A8
330
45
100
AcDbEntity
  8
SUNPOU
100
AcDbBlockEnd
  0
BLOCK
  5
32A
330
51
100
AcDbEntity
  8
SUNPOU
100
AcDbBlockBegin
  2
*D52
 70
     1
 10
0.0
 20
0.0
 30
0.0
  3
*D52
  1

  0
LINE
  5
32B
330
51
100
AcDbEntity
  8
0
  6
ByBlock
 62
     0
440
 16777216
100
AcDbLine
 10
4087.96097767145
 20
1756.087275416288
 30
0.0
 11
4859.255193011264
 21
1756.087275416288
 31
0.0
  0
LINE
  5
32C
330
51
100
AcDbEntity
  8
0
  6
ByBlock
 62
     0
440
 16777216
100
AcDbLine
 10
4087.96097767145
 20
756.0872754162879
 30
0.0
 11
4859.255193011264
 21
756.0872754162878
 31
0.0
  0
LINE
  5
32D
330
51
100
AcDbEntity
  8
0
  6
ByBlock
 62
     0
440
 16777216
100
AcDbLine
 10
4839.255193011264
 20
1716.087275416288
 30
0.0
 11
4839.255193011264
 21
796.0872754162878
 31
0.0
  0
SOLID
  5
32E
330
51
100
AcDbEntity
  8
0
  6
ByBlock
 62
     0
440
 16777216
100
AcDbTrace
 10
4845.921859677931
 20
1716.087275416288
 30
0.0
 11
4832.588526344597
 21
1716.087275416288
 31
0.0
 12
4839.255193011264
 22
1756.087275416288
 32
0.0
 13
4839.255193011264
 23
1756.087275416288
 33
0.0
  0
SOLID
  5
32F
330
51
100
AcDbEntity
  8
0
  6
ByBlock
 62
     0
440
 16777216
100
AcDbTrace
 10
4845.921859677931
 20
796.0872754162878
 30
0.0
 11
4832.588526344597
 21
796.0872754162878
 31
0.0
 12
4839.255193011264
 22
756.0872754162878
 32
0.0
 13
4839.255193011264
 23
756.0872754162878
 33
0.0
  0
TEXT
  5
330
330
51
100
AcDbEntity
  8
0
  6
ByBlock
 62
     0
440
 16777216
100
AcDbText
 10
4809.255193011264
 20
1171.087275416288
 30
0.0
 40
60.0
  1
1000
 50
90.0
  7
A
100
AcDbText
  0
POINT
  5
331
330
51
100
AcDbEntity
  8
DEFPOINTS
  6
ByBlock
 62
     0
440
 16777216
100
AcDbPoint
 10
4047.96097767145
 20
1756.087275416288
 30
0.0
  0
POINT
  5
332
330
51
100
AcDbEntity
  8
DEFPOINTS
  6
ByBlock
 62
     0
440
 16777216
100
AcDbPoint
 10
4047.96097767145
 20
756.0872754162879
 30
0.0
  0
POINT
  5
333
330
51
100
AcDbEntity
  8
DEFPOINTS
  6
ByBlock
 62
     0
440
 16777216
100
AcDbPoint
 10
4839.255193011264
 20
756.0872754162878
 30
0.0
  0
ENDBLK
  5
334
330
51
100
AcDbEntity
  8
SUNPOU
100
AcDbBlockEnd
  0
BLOCK
  5
4A0
330
71
100
AcDbEntity
  8
SUNPOU
100
AcDbBlockBegin
  2
*D84
 70
     1
 10
0.0
 20
0.0
 30
0.0
  3
*D84
  1

  0
LINE
  5
4A1
330
71
100
AcDbEntity
  8
0
  6
ByBlock
 62
     0
440
 16777216
100
AcDbLine
 10
3827.960977671449
 20
4094.99632079107
 30
0.0
 11
3827.960977671449
 21
4407.11517956629
 31
0.0
  0
LINE
  5
4A2
330
71
100
AcDbEntity
  8
0
  6
ByBlock
 62
     0
440
 16777216
100
AcDbLine
 10
3527.960977671449
 20
4094.99632079107
 30
0.0
 11
3527.960977671449
 21
4407.11517956629
 31
0.0
  0
LINE
  5
4A3
330
71
100
AcDbEntity
  8
0
  6
ByBlock
 62
     0
440
 16777216
100
AcDbLine
 10
3787.960977671449
 20
4387.11517956629
 30
0.0
 11
3567.960977671449
 21
4387.11517956629
 31
0.0
  0
SOLID
  5
4A4
330
71
100
AcDbEntity
  8
0
  6
ByBlock
 62
     0
440
 16777216
100
AcDbTrace
 10
3787.960977671449
 20
4380.448512899623
 30
0.0
 11
3787.960977671449
 21
4393.781846232957
 31
0.0
 12
3827.960977671449
 22
4387.11517956629
 32
0.0
 13
3827.960977671449
 23
4387.11517956629
 33
0.0
  0
SOLID
  5
4A5
330
71
100
AcDbEntity
  8
0
  6
ByBlock
 62
     0
440
 16777216
100
AcDbTrace
 10
3567.960977671449
 20
4380.448512899623
 30
0.0
 11
3567.960977671449
 21
4393.781846232957
 31
0.0
 12
3527.960977671449
 22
4387.11517956629
 32
0.0
 13
3527.960977671449
 23
4387.11517956629
 33
0.0
  0
TEXT
  5
4A6
330
71
100
AcDbEntity
  8
0
  6
ByBlock
 62
     0
440
 16777216
100
AcDbText
 10
3607.960977671449
 20
4417.11517956629
 30
0.0
 40
60.0
  1
300
  7
A
100
AcDbText
  0
POINT
  5
4A7
330
71
100
AcDbEntity
  8
DEFPOINTS
  6
ByBlock
 62
     0
440
 16777216
100
AcDbPoint
 10
3827.960977671449
 20
4054.99632079107
 30
0.0
  0
POINT
  5
4A8
330
71
100
AcDbEntity
  8
DEFPOINTS
  6
ByBlock
 62
     0
440
 16777216
100
AcDbPoint
 10
3527.960977671449
 20
4054.99632079107
 30
0.0
  0
POINT
  5
4A9
330
71
100
AcDbEntity
  8
DEFPOINTS
  6
ByBlock
 62
     0
440
 16777216
100
AcDbPoint
 10
3527.960977671449
 20
4387.11517956629
 30
0.0
  0
ENDBLK
  5
4AA
330
71
100
AcDbEntity
  8
SUNPOU
100
AcDbBlockEnd
  0
BLOCK
  5
4AB
330
72
100
AcDbEntity
  8
SUNPOU
100
AcDbBlockBegin
  2
*D85
 70
     1
 10
0.0
 20
0.0
 30
0.0
  3
*D85
  1

  0
LINE
  5
4AC
330
72
100
AcDbEntity
  8
0
  6
ByBlock
 62
     0
440
 16777216
100
AcDbLine
 10
3787.960977671449
 20
4054.99632079107
 30
0.0
 11
3321.346311608428
 21
4054.996320791071
 31
0.0
  0
LINE
  5
4AD
330
72
100
AcDbEntity
  8
0
  6
ByBlock
 62
     0
440
 16777216
100
AcDbLine
 10
3787.960977671449
 20
4354.99632079107
 30
0.0
 11
3321.346311608428
 21
4354.99632079107
 31
0.0
  0
LINE
  5
4AE
330
72
100
AcDbEntity
  8
0
  6
ByBlock
 62
     0
440
 16777216
100
AcDbLine
 10
3341.346311608428
 20
4094.996320791071
 30
0.0
 11
3341.346311608428
 21
4314.99632079107
 31
0.0
  0
SOLID
  5
4AF
330
72
100
AcDbEntity
  8
0
  6
ByBlock
 62
     0
440
 16777216
100
AcDbTrace
 10
3348.012978275095
 20
4094.996320791071
 30
0.0
 11
3334.679644941762
 21
4094.996320791071
 31
0.0
 12
3341.346311608428
 22
4054.996320791071
 32
0.0
 13
3341.346311608428
 23
4054.996320791071
 33
0.0
  0
SOLID
  5
4B0
330
72
100
AcDbEntity
  8
0
  6
ByBlock
 62
     0
440
 16777216
100
AcDbTrace
 10
3348.012978275095
 20
4314.99632079107
 30
0.0
 11
3334.679644941762
 21
4314.99632079107
 31
0.0
 12
3341.346311608428
 22
4354.99632079107
 32
0.0
 13
3341.346311608428
 23
4354.99632079107
 33
0.0
  0
TEXT
  5
4B1
330
72
100
AcDbEntity
  8
0
  6
ByBlock
 62
     0
440
 16777216
100
AcDbText
 10
3311.346311608428
 20
4134.99632079107
 30
0.0
 40
60.0
  1
300
 50
90.0
  7
A
100
AcDbText
  0
POINT
  5
4B2
330
72
100
AcDbEntity
  8
DEFPOINTS
  6
ByBlock
 62
     0
440
 16777216
100
AcDbPoint
 10
3827.960977671449
 20
4054.99632079107
 30
0.0
  0
POINT
  5
4B3
330
72
100
AcDbEntity
  8
DEFPOINTS
  6
ByBlock
 62
     0
440
 16777216
100
AcDbPoint
 10
3827.960977671449
 20
4354.99632079107
 30
0.0
  0
POINT
  5
4B4
330
72
100
AcDbEntity
  8
DEFPOINTS
  6
ByBlock
 62
     0
440
 16777216
100
AcDbPoint
 10
3341.346311608428
 20
4354.99632079107
 30
0.0
  0
ENDBLK
  5
4B5
330
72
100
AcDbEntity
  8
SUNPOU
100
AcDbBlockEnd
  0
BLOCK
  5
4B6
330
73
100
AcDbEntity
  8
SUNPOU
100
AcDbBlockBegin
  2
*D86
 70
     1
 10
0.0
 20
0.0
 30
0.0
  3
*D86
  1

  0
LINE
  5
4B7
330
73
100
AcDbEntity
  8
0
  6
ByBlock
 62
     0
440
 16777216
100
AcDbLine
 10
1797.96097767145
 20
4148.910000229675
 30
0.0
 11
1797.96097767145
 21
4168.910000229675
 31
0.0
  0
LINE
  5
4B8
330
73
100
AcDbEntity
  8
0
  6
ByBlock
 62
     0
440
 16777216
100
AcDbLine
 10
1847.96097767145
 20
4148.910000229675
 30
0.0
 11
1847.96097767145
 21
4168.910000229675
 31
0.0
  0
LINE
  5
4B9
330
73
100
AcDbEntity
  8
0
  6
ByBlock
 62
     0
440
 16777216
100
AcDbLine
 10
1887.96097767145
 20
4188.910000229675
 30
0.0
 11
1927.96097767145
 21
4188.910000229675
 31
0.0
  0
LINE
  5
4BA
330
73
100
AcDbEntity
  8
0
  6
ByBlock
 62
     0
440
 16777216
100
AcDbLine
 10
1757.96097767145
 20
4188.910000229675
 30
0.0
 11
1717.96097767145
 21
4188.910000229675
 31
0.0
  0
SOLID
  5
4BB
330
73
100
AcDbEntity
  8
0
  6
ByBlock
 62
     0
440
 16777216
100
AcDbTrace
 10
1887.96097767145
 20
4182.243333563008
 30
0.0
 11
1887.96097767145
 21
4195.576666896342
 31
0.0
 12
1847.96097767145
 22
4188.910000229675
 32
0.0
 13
1847.96097767145
 23
4188.910000229675
 33
0.0
  0
SOLID
  5
4BC
330
73
100
AcDbEntity
  8
0
  6
ByBlock
 62
     0
440
 16777216
100
AcDbTrace
 10
1757.96097767145
 20
4182.243333563008
 30
0.0
 11
1757.96097767145
 21
4195.576666896342
 31
0.0
 12
1797.96097767145
 22
4188.910000229675
 32
0.0
 13
1797.96097767145
 23
4188.910000229675
 33
0.0
  0
LINE
  5
4BD
330
73
100
AcDbEntity
  8
0
  6
ByBlock
 62
     0
440
 16777216
100
AcDbLine
 10
1847.96097767145
 20
4188.910000229675
 30
0.0
 11
1797.96097767145
 21
4188.910000229675
 31
0.0
  0
TEXT
  5
4BE
330
73
100
AcDbEntity
  8
0
  6
ByBlock
 62
     0
440
 16777216
100
AcDbText
 10
1667.403198899899
 20
4218.910000229675
 30
0.0
 40
60.0
  1
50
  7
A
100
AcDbText
  0
POINT
  5
4BF
330
73
100
AcDbEntity
  8
DEFPOINTS
  6
ByBlock
 62
     0
440
 16777216
100
AcDbPoint
 10
1797.96097767145
 20
4188.910000229675
 30
0.0
  0
POINT
  5
4C0
330
73
100
AcDbEntity
  8
DEFPOINTS
  6
ByBlock
 62
     0
440
 16777216
100
AcDbPoint
 10
1847.96097767145
 20
4188.910000229675
 30
0.0
  0
POINT
  5
4C1
330
73
100
AcDbEntity
  8
DEFPOINTS
  6
ByBlock
 62
     0
440
 16777216
100
AcDbPoint
 10
1847.96097767145
 20
4188.910000229675
 30
0.0
  0
ENDBLK
  5
4C2
330
73
100
AcDbEntity
  8
SUNPOU
100
AcDbBlockEnd
  0
BLOCK
  5
4CE
330
75
100
AcDbEntity
  8
SUNPOU
100
AcDbBlockBegin
  2
*D88
 70
     1
 10
0.0
 20
0.0
 30
0.0
  3
*D88
  1

  0
LINE
  5
4CF
330
75
100
AcDbEntity
  8
0
  6
ByBlock
 62
     0
440
 16777216
100
AcDbLine
 10
1297.96097767145
 20
716.0872754162883
 30
0.0
 11
1297.96097767145
 21
154.0016302637777
 31
0.0
  0
LINE
  5
4D0
330
75
100
AcDbEntity
  8
0
  6
ByBlock
 62
     0
440
 16777216
100
AcDbLine
 10
4047.96097767145
 20
716.0872754162879
 30
0.0
 11
4047.96097767145
 21
154.0016302637777
 31
0.0
  0
LINE
  5
4D1
330
75
100
AcDbEntity
  8
0
  6
ByBlock
 62
     0
440
 16777216
100
AcDbLine
 10
1337.96097767145
 20
174.0016302637777
 30
0.0
 11
4007.96097767145
 21
174.0016302637777
 31
0.0
  0
SOLID
  5
4D2
330
75
100
AcDbEntity
  8
0
  6
ByBlock
 62
     0
440
 16777216
100
AcDbTrace
 10
1337.96097767145
 20
167.3349635971111
 30
0.0
 11
1337.96097767145
 21
180.6682969304444
 31
0.0
 12
1297.96097767145
 22
174.0016302637777
 32
0.0
 13
1297.96097767145
 23
174.0016302637777
 33
0.0
  0
SOLID
  5
4D3
330
75
100
AcDbEntity
  8
0
  6
ByBlock
 62
     0
440
 16777216
100
AcDbTrace
 10
4007.96097767145
 20
167.3349635971111
 30
0.0
 11
4007.96097767145
 21
180.6682969304444
 31
0.0
 12
4047.96097767145
 22
174.0016302637777
 32
0.0
 13
4047.96097767145
 23
174.0016302637777
 33
0.0
  0
TEXT
  5
4D4
330
75
100
AcDbEntity
  8
0
  6
ByBlock
 62
     0
440
 16777216
100
AcDbText
 10
2567.96097767145
 20
204.0016302637777
 30
0.0
 40
60.0
  1
2750
  7
A
100
AcDbText
  0
POINT
  5
4D5
330
75
100
AcDbEntity
  8
DEFPOINTS
  6
ByBlock
 62
     0
440
 16777216
100
AcDbPoint
 10
1297.96097767145
 20
756.0872754162883
 30
0.0
  0
POINT
  5
4D6
330
75
100
AcDbEntity
  8
DEFPOINTS
  6
ByBlock
 62
     0
440
 16777216
100
AcDbPoint
 10
4047.96097767145
 20
756.0872754162879
 30
0.0
  0
POINT
  5
4D7
330
75
100
AcDbEntity
  8
DEFPOINTS
  6
ByBlock
 62
     0
440
 16777216
100
AcDbPoint
 10
4047.96097767145
 20
174.0016302637777
 30
0.0
  0
ENDBLK
  5
4D8
330
75
100
AcDbEntity
  8
SUNPOU
100
AcDbBlockEnd
  0
BLOCK
  5
537
330
7E
100
AcDbEntity
  8
SUNPOU
100
AcDbBlockBegin
  2
*D97
 70
     1
 10
0.0
 20
0.0
 30
0.0
  3
*D97
  1

  0
LINE
  5
538
330
7E
100
AcDbEntity
  8
0
  6
ByBlock
 62
     0
440
 16777216
100
AcDbLine
 10
1297.96097767145
 20
3237.625067866913
 30
0.0
 11
1297.96097767145
 21
3208.184291065701
 31
0.0
  0
LINE
  5
539
330
7E
100
AcDbEntity
  8
0
  6
ByBlock
 62
     0
440
 16777216
100
AcDbLine
 10
3827.96097767145
 20
3287.065844668125
 30
0.0
 11
3827.96097767145
 21
3208.184291065701
 31
0.0
  0
LINE
  5
53A
330
7E
100
AcDbEntity
  8
0
  6
ByBlock
 62
     0
440
 16777216
100
AcDbLine
 10
1337.96097767145
 20
3228.184291065701
 30
0.0
 11
2562.96097767145
 21
3228.184291065701
 31
0.0
  0
LINE
  5
53B
330
7E
100
AcDbEntity
  8
0
  6
ByBlock
 62
     0
440
 16777216
100
AcDbLine
 10
3787.96097767145
 20
3228.184291065701
 30
0.0
 11
2562.96097767145
 21
3228.184291065701
 31
0.0
  0
SOLID
  5
53C
330
7E
100
AcDbEntity
  8
0
  6
ByBlock
 62
     0
440
 16777216
100
AcDbTrace
 10
1337.96097767145
 20
3221.517624399034
 30
0.0
 11
1337.96097767145
 21
3234.850957732367
 31
0.0
 12
1297.96097767145
 22
3228.184291065701
 32
0.0
 13
1297.96097767145
 23
3228.184291065701
 33
0.0
  0
SOLID
  5
53D
330
7E
100
AcDbEntity
  8
0
  6
ByBlock
 62
     0
440
 16777216
100
AcDbTrace
 10
3787.96097767145
 20
3221.517624399034
 30
0.0
 11
3787.96097767145
 21
3234.850957732367
 31
0.0
 12
3827.96097767145
 22
3228.184291065701
 32
0.0
 13
3827.96097767145
 23
3228.184291065701
 33
0.0
  0
TEXT
  5
53E
330
7E
100
AcDbEntity
  8
0
  6
ByBlock
 62
     0
440
 16777216
100
AcDbText
 10
2707.96097767145
 20
3258.184291065701
 30
0.0
 40
60.0
  1
2530
  7
A
100
AcDbText
  0
POINT
  5
53F
330
7E
100
AcDbEntity
  8
DEFPOINTS
  6
ByBlock
 62
     0
440
 16777216
100
AcDbPoint
 10
1297.96097767145
 20
3277.625067866913
 30
0.0
  0
POINT
  5
540
330
7E
100
AcDbEntity
  8
DEFPOINTS
  6
ByBlock
 62
     0
440
 16777216
100
AcDbPoint
 10
3827.96097767145
 20
3327.065844668125
 30
0.0
  0
POINT
  5
541
330
7E
100
AcDbEntity
  8
DEFPOINTS
  6
ByBlock
 62
     0
440
 16777216
100
AcDbPoint
 10
3827.96097767145
 20
3228.184291065701
 30
0.0
  0
ENDBLK
  5
542
330
7E
100
AcDbEntity
  8
SUNPOU
100
AcDbBlockEnd
  0
BLOCK
  5
54E
330
80
100
AcDbEntity
  8
SUNPOU
100
AcDbBlockBegin
  2
*D99
 70
     1
 10
0.0
 20
0.0
 30
0.0
  3
*D99
  1

  0
LINE
  5
54F
330
80
100
AcDbEntity
  8
0
  6
ByBlock
 62
     0
440
 16777216
100
AcDbLine
 10
1297.96097767145
 20
3794.99632079107
 30
0.0
 11
1297.96097767145
 21
3010.421183860853
 31
0.0
  0
LINE
  5
550
330
80
100
AcDbEntity
  8
0
  6
ByBlock
 62
     0
440
 16777216
100
AcDbLine
 10
4047.96097767145
 20
3794.99632079107
 30
0.0
 11
4047.96097767145
 21
3010.421183860853
 31
0.0
  0
LINE
  5
551
330
80
100
AcDbEntity
  8
0
  6
ByBlock
 62
     0
440
 16777216
100
AcDbLine
 10
1337.96097767145
 20
3030.421183860853
 30
0.0
 11
2672.96097767145
 21
3030.421183860853
 31
0.0
  0
LINE
  5
552
330
80
100
AcDbEntity
  8
0
  6
ByBlock
 62
     0
440
 16777216
100
AcDbLine
 10
4007.96097767145
 20
3030.421183860853
 30
0.0
 11
2672.96097767145
 21
3030.421183860853
 31
0.0
  0
SOLID
  5
553
330
80
100
AcDbEntity
  8
0
  6
ByBlock
 62
     0
440
 16777216
100
AcDbTrace
 10
1337.96097767145
 20
3023.754517194186
 30
0.0
 11
1337.96097767145
 21
3037.087850527519
 31
0.0
 12
1297.96097767145
 22
3030.421183860853
 32
0.0
 13
1297.96097767145
 23
3030.421183860853
 33
0.0
  0
SOLID
  5
554
330
80
100
AcDbEntity
  8
0
  6
ByBlock
 62
     0
440
 16777216
100
AcDbTrace
 10
4007.96097767145
 20
3023.754517194186
 30
0.0
 11
4007.96097767145
 21
3037.087850527519
 31
0.0
 12
4047.96097767145
 22
3030.421183860853
 32
0.0
 13
4047.96097767145
 23
3030.421183860853
 33
0.0
  0
TEXT
  5
555
330
80
100
AcDbEntity
  8
0
  6
ByBlock
 62
     0
440
 16777216
100
AcDbText
 10
2560.69523290631
 20
3060.421183860853
 30
0.0
 40
60.0
  1
2750
  7
A
100
AcDbText
  0
POINT
  5
556
330
80
100
AcDbEntity
  8
DEFPOINTS
  6
ByBlock
 62
     0
440
 16777216
100
AcDbPoint
 10
1297.96097767145
 20
3834.99632079107
 30
0.0
  0
POINT
  5
557
330
80
100
AcDbEntity
  8
DEFPOINTS
  6
ByBlock
 62
     0
440
 16777216
100
AcDbPoint
 10
4047.96097767145
 20
3834.99632079107
 30
0.0
  0
POINT
  5
558
330
80
100
AcDbEntity
  8
DEFPOINTS
  6
ByBlock
 62
     0
440
 16777216
100
AcDbPoint
 10
4047.96097767145
 20
3030.421183860853
 30
0.0
  0
ENDBLK
  5
559
330
80
100
AcDbEntity
  8
SUNPOU
100
AcDbBlockEnd
  0
BLOCK
  5
59A
330
86
100
AcDbEntity
  8
SUNPOU
100
AcDbBlockBegin
  2
*D105
 70
     1
 10
0.0
 20
0.0
 30
0.0
  3
*D105
  1

  0
LINE
  5
59B
330
86
100
AcDbEntity
  8
0
  6
ByBlock
 62
     0
440
 16777216
100
AcDbLine
 10
6243.695978145973
 20
6874.996320791071
 30
0.0
 11
6243.695978145973
 21
7534.617934496253
 31
0.0
  0
LINE
  5
59C
330
86
100
AcDbEntity
  8
0
  6
ByBlock
 62
     0
440
 16777216
100
AcDbLine
 10
8193.695978145974
 20
6824.996320791071
 30
0.0
 11
8193.695978145974
 21
7534.617934496253
 31
0.0
  0
LINE
  5
59D
330
86
100
AcDbEntity
  8
0
  6
ByBlock
 62
     0
440
 16777216
100
AcDbLine
 10
6283.695978145973
 20
7514.617934496253
 30
0.0
 11
8153.695978145974
 21
7514.617934496253
 31
0.0
  0
SOLID
  5
59E
330
86
100
AcDbEntity
  8
0
  6
ByBlock
 62
     0
440
 16777216
100
AcDbTrace
 10
6283.695978145973
 20
7507.951267829586
 30
0.0
 11
6283.695978145973
 21
7521.28460116292
 31
0.0
 12
6243.695978145973
 22
7514.617934496253
 32
0.0
 13
6243.695978145973
 23
7514.617934496253
 33
0.0
  0
SOLID
  5
59F
330
86
100
AcDbEntity
  8
0
  6
ByBlock
 62
     0
440
 16777216
100
AcDbTrace
 10
8153.695978145974
 20
7507.951267829586
 30
0.0
 11
8153.695978145974
 21
7521.28460116292
 31
0.0
 12
8193.695978145974
 22
7514.617934496253
 32
0.0
 13
8193.695978145974
 23
7514.617934496253
 33
0.0
  0
TEXT
  5
5A0
330
86
100
AcDbEntity
  8
0
  6
ByBlock
 62
     0
440
 16777216
100
AcDbText
 10
7123.695978145974
 20
7544.617934496253
 30
0.0
 40
60.0
  1
1950
  7
A
100
AcDbText
  0
POINT
  5
5A1
330
86
100
AcDbEntity
  8
DEFPOINTS
  6
ByBlock
 62
     0
440
 16777216
100
AcDbPoint
 10
6243.695978145973
 20
6834.996320791071
 30
0.0
  0
POINT
  5
5A2
330
86
100
AcDbEntity
  8
DEFPOINTS
  6
ByBlock
 62
     0
440
 16777216
100
AcDbPoint
 10
8193.695978145974
 20
6784.996320791071
 30
0.0
  0
POINT
  5
5A3
330
86
100
AcDbEntity
  8
DEFPOINTS
  6
ByBlock
 62
     0
440
 16777216
100
AcDbPoint
 10
8193.695978145974
 20
7514.617934496253
 30
0.0
  0
ENDBLK
  5
5A4
330
86
100
AcDbEntity
  8
SUNPOU
100
AcDbBlockEnd
  0
BLOCK
  5
5A5
330
87
100
AcDbEntity
  8
SUNPOU
100
AcDbBlockBegin
  2
*D106
 70
     1
 10
0.0
 20
0.0
 30
0.0
  3
*D106
  1

  0
LINE
  5
5A6
330
87
100
AcDbEntity
  8
0
  6
ByBlock
 62
     0
440
 16777216
100
AcDbLine
 10
6353.695978145973
 20
6834.996320791071
 30
0.0
 11
9043.85695447548
 21
6834.99632079107
 31
0.0
  0
LINE
  5
5A7
330
87
100
AcDbEntity
  8
0
  6
ByBlock
 62
     0
440
 16777216
100
AcDbLine
 10
8233.695978145974
 20
6784.996320791071
 30
0.0
 11
9043.85695447548
 21
6784.996320791071
 31
0.0
  0
LINE
  5
5A8
330
87
100
AcDbEntity
  8
0
  6
ByBlock
 62
     0
440
 16777216
100
AcDbLine
 10
9023.85695447548
 20
6744.996320791071
 30
0.0
 11
9023.85695447548
 21
6704.996320791071
 31
0.0
  0
LINE
  5
5A9
330
87
100
AcDbEntity
  8
0
  6
ByBlock
 62
     0
440
 16777216
100
AcDbLine
 10
9023.85695447548
 20
6874.99632079107
 30
0.0
 11
9023.85695447548
 21
6914.99632079107
 31
0.0
  0
SOLID
  5
5AA
330
87
100
AcDbEntity
  8
0
  6
ByBlock
 62
     0
440
 16777216
100
AcDbTrace
 10
9030.523621142145
 20
6744.996320791071
 30
0.0
 11
9017.190287808813
 21
6744.996320791071
 31
0.0
 12
9023.85695447548
 22
6784.996320791071
 32
0.0
 13
9023.85695447548
 23
6784.996320791071
 33
0.0
  0
SOLID
  5
5AB
330
87
100
AcDbEntity
  8
0
  6
ByBlock
 62
     0
440
 16777216
100
AcDbTrace
 10
9030.523621142145
 20
6874.99632079107
 30
0.0
 11
9017.190287808813
 21
6874.99632079107
 31
0.0
 12
9023.85695447548
 22
6834.99632079107
 32
0.0
 13
9023.85695447548
 23
6834.99632079107
 33
0.0
  0
LINE
  5
5AC
330
87
100
AcDbEntity
  8
0
  6
ByBlock
 62
     0
440
 16777216
100
AcDbLine
 10
9023.85695447548
 20
6784.996320791071
 30
0.0
 11
9023.85695447548
 21
6834.99632079107
 31
0.0
  0
TEXT
  5
5AD
330
87
100
AcDbEntity
  8
0
  6
ByBlock
 62
     0
440
 16777216
100
AcDbText
 10
8993.85695447548
 20
6898.556757246872
 30
0.0
 40
60.0
  1
50
 50
90.0
  7
A
100
AcDbText
  0
POINT
  5
5AE
330
87
100
AcDbEntity
  8
DEFPOINTS
  6
ByBlock
 62
     0
440
 16777216
100
AcDbPoint
 10
6313.695978145973
 20
6834.996320791071
 30
0.0
  0
POINT
  5
5AF
330
87
100
AcDbEntity
  8
DEFPOINTS
  6
ByBlock
 62
     0
440
 16777216
100
AcDbPoint
 10
8193.695978145974
 20
6784.996320791071
 30
0.0
  0
POINT
  5
5B0
330
87
100
AcDbEntity
  8
DEFPOINTS
  6
ByBlock
 62
     0
440
 16777216
100
AcDbPoint
 10
9023.85695447548
 20
6784.996320791071
 30
0.0
  0
ENDBLK
  5
5B1
330
87
100
AcDbEntity
  8
SUNPOU
100
AcDbBlockEnd
  0
BLOCK
  5
5B2
330
88
100
AcDbEntity
  8
SUNPOU
100
AcDbBlockBegin
  2
*D107
 70
     1
 10
0.0
 20
0.0
 30
0.0
  3
*D107
  1

  0
LINE
  5
5B3
330
88
100
AcDbEntity
  8
0
  6
ByBlock
 62
     0
440
 16777216
100
AcDbLine
 10
8935.68973782049
 20
6784.996320791071
 30
0.0
 11
9043.85695447548
 21
6784.996320791071
 31
0.0
  0
LINE
  5
5B4
330
88
100
AcDbEntity
  8
0
  6
ByBlock
 62
     0
440
 16777216
100
AcDbLine
 10
8233.695978145974
 20
5820.351659850399
 30
0.0
 11
9043.85695447548
 21
5820.351659850399
 31
0.0
  0
LINE
  5
5B5
330
88
100
AcDbEntity
  8
0
  6
ByBlock
 62
     0
440
 16777216
100
AcDbLine
 10
9023.85695447548
 20
6744.996320791071
 30
0.0
 11
9023.85695447548
 21
5860.351659850399
 31
0.0
  0
SOLID
  5
5B6
330
88
100
AcDbEntity
  8
0
  6
ByBlock
 62
     0
440
 16777216
100
AcDbTrace
 10
9030.523621142145
 20
6744.996320791071
 30
0.0
 11
9017.190287808813
 21
6744.996320791071
 31
0.0
 12
9023.85695447548
 22
6784.996320791071
 32
0.0
 13
9023.85695447548
 23
6784.996320791071
 33
0.0
  0
SOLID
  5
5B7
330
88
100
AcDbEntity
  8
0
  6
ByBlock
 62
     0
440
 16777216
100
AcDbTrace
 10
9030.523621142145
 20
5860.351659850399
 30
0.0
 11
9017.190287808813
 21
5860.351659850399
 31
0.0
 12
9023.85695447548
 22
5820.351659850399
 32
0.0
 13
9023.85695447548
 23
5820.351659850399
 33
0.0
  0
TEXT
  5
5B8
330
88
100
AcDbEntity
  8
0
  6
ByBlock
 62
     0
440
 16777216
100
AcDbText
 10
8993.85695447548
 20
6222.673990320735
 30
0.0
 40
60.0
  1
965
 50
90.0
  7
A
100
AcDbText
  0
POINT
  5
5B9
330
88
100
AcDbEntity
  8
DEFPOINTS
  6
ByBlock
 62
     0
440
 16777216
100
AcDbPoint
 10
8895.68973782049
 20
6784.996320791071
 30
0.0
  0
POINT
  5
5BA
330
88
100
AcDbEntity
  8
DEFPOINTS
  6
ByBlock
 62
     0
440
 16777216
100
AcDbPoint
 10
8193.695978145974
 20
5820.351659850399
 30
0.0
  0
POINT
  5
5BB
330
88
100
AcDbEntity
  8
DEFPOINTS
  6
ByBlock
 62
     0
440
 16777216
100
AcDbPoint
 10
9023.85695447548
 20
5820.351659850399
 30
0.0
  0
ENDBLK
  5
5BC
330
88
100
AcDbEntity
  8
SUNPOU
100
AcDbBlockEnd
  0
BLOCK
  5
5BD
330
89
100
AcDbEntity
  8
SUNPOU
100
AcDbBlockBegin
  2
*D108
 70
     1
 10
0.0
 20
0.0
 30
0.0
  3
*D108
  1

  0
LINE
  5
5BE
330
89
100
AcDbEntity
  8
0
  6
ByBlock
 62
     0
440
 16777216
100
AcDbLine
 10
8935.68973782049
 20
5820.351659850399
 30
0.0
 11
9043.85695447548
 21
5820.351659850399
 31
0.0
  0
LINE
  5
5BF
330
89
100
AcDbEntity
  8
0
  6
ByBlock
 62
     0
440
 16777216
100
AcDbLine
 10
8807.522521165503
 20
5784.99632079107
 30
0.0
 11
9043.85695447548
 21
5784.99632079107
 31
0.0
  0
LINE
  5
5C0
330
89
100
AcDbEntity
  8
0
  6
ByBlock
 62
     0
440
 16777216
100
AcDbLine
 10
9023.85695447548
 20
5744.99632079107
 30
0.0
 11
9023.85695447548
 21
5704.99632079107
 31
0.0
  0
LINE
  5
5C1
330
89
100
AcDbEntity
  8
0
  6
ByBlock
 62
     0
440
 16777216
100
AcDbLine
 10
9023.85695447548
 20
5860.351659850399
 30
0.0
 11
9023.85695447548
 21
5900.351659850399
 31
0.0
  0
SOLID
  5
5C2
330
89
100
AcDbEntity
  8
0
  6
ByBlock
 62
     0
440
 16777216
100
AcDbTrace
 10
9030.523621142145
 20
5744.99632079107
 30
0.0
 11
9017.190287808813
 21
5744.99632079107
 31
0.0
 12
9023.85695447548
 22
5784.99632079107
 32
0.0
 13
9023.85695447548
 23
5784.99632079107
 33
0.0
  0
SOLID
  5
5C3
330
89
100
AcDbEntity
  8
0
  6
ByBlock
 62
     0
440
 16777216
100
AcDbTrace
 10
9030.523621142145
 20
5860.351659850399
 30
0.0
 11
9017.190287808813
 21
5860.351659850399
 31
0.0
 12
9023.85695447548
 22
5820.351659850399
 32
0.0
 13
9023.85695447548
 23
5820.351659850399
 33
0.0
  0
LINE
  5
5C4
330
89
100
AcDbEntity
  8
0
  6
ByBlock
 62
     0
440
 16777216
100
AcDbLine
 10
9023.85695447548
 20
5784.99632079107
 30
0.0
 11
9023.85695447548
 21
5820.351659850399
 31
0.0
  0
TEXT
  5
5C5
330
89
100
AcDbEntity
  8
0
  6
ByBlock
 62
     0
440
 16777216
100
AcDbText
 10
8993.85695447548
 20
5652.306279834698
 30
0.0
 40
60.0
  1
35
 50
90.0
  7
A
100
AcDbText
  0
POINT
  5
5C6
330
89
100
AcDbEntity
  8
DEFPOINTS
  6
ByBlock
 62
     0
440
 16777216
100
AcDbPoint
 10
8895.68973782049
 20
5820.351659850399
 30
0.0
  0
POINT
  5
5C7
330
89
100
AcDbEntity
  8
DEFPOINTS
  6
ByBlock
 62
     0
440
 16777216
100
AcDbPoint
 10
8767.522521165503
 20
5784.99632079107
 30
0.0
  0
POINT
  5
5C8
330
89
100
AcDbEntity
  8
DEFPOINTS
  6
ByBlock
 62
     0
440
 16777216
100
AcDbPoint
 10
9023.85695447548
 20
5784.99632079107
 30
0.0
  0
ENDBLK
  5
5C9
330
89
100
AcDbEntity
  8
SUNPOU
100
AcDbBlockEnd
  0
BLOCK
  5
5CA
330
8A
100
AcDbEntity
  8
SUNPOU
100
AcDbBlockBegin
  2
*D109
 70
     1
 10
0.0
 20
0.0
 30
0.0
  3
*D109
  1

  0
LINE
  5
5CB
330
8A
100
AcDbEntity
  8
0
  6
ByBlock
 62
     0
440
 16777216
100
AcDbLine
 10
9233.69597814597
 20
5784.99632079107
 30
0.0
 11
10525.94505911776
 21
5784.99632079107
 31
0.0
  0
LINE
  5
5CC
330
8A
100
AcDbEntity
  8
0
  6
ByBlock
 62
     0
440
 16777216
100
AcDbLine
 10
9283.69597814597
 20
3834.99632079107
 30
0.0
 11
10525.94505911776
 21
3834.99632079107
 31
0.0
  0
LINE
  5
5CD
330
8A
100
AcDbEntity
  8
0
  6
ByBlock
 62
     0
440
 16777216
100
AcDbLine
 10
10505.94505911776
 20
5744.99632079107
 30
0.0
 11
10505.94505911776
 21
4809.99632079107
 31
0.0
  0
LINE
  5
5CE
330
8A
100
AcDbEntity
  8
0
  6
ByBlock
 62
     0
440
 16777216
100
AcDbLine
 10
10505.94505911776
 20
3874.99632079107
 30
0.0
 11
10505.94505911776
 21
4809.99632079107
 31
0.0
  0
SOLID
  5
5CF
330
8A
100
AcDbEntity
  8
0
  6
ByBlock
 62
     0
440
 16777216
100
AcDbTrace
 10
10512.61172578443
 20
5744.99632079107
 30
0.0
 11
10499.2783924511
 21
5744.99632079107
 31
0.0
 12
10505.94505911776
 22
5784.99632079107
 32
0.0
 13
10505.94505911776
 23
5784.99632079107
 33
0.0
  0
SOLID
  5
5D0
330
8A
100
AcDbEntity
  8
0
  6
ByBlock
 62
     0
440
 16777216
100
AcDbTrace
 10
10512.61172578443
 20
3874.99632079107
 30
0.0
 11
10499.2783924511
 21
3874.99632079107
 31
0.0
 12
10505.94505911776
 22
3834.99632079107
 32
0.0
 13
10505.94505911776
 23
3834.99632079107
 33
0.0
  0
TEXT
  5
5D1
330
8A
100
AcDbEntity
  8
0
  6
ByBlock
 62
     0
440
 16777216
100
AcDbText
 10
10475.94505911776
 20
4714.99632079107
 30
0.0
 40
60.0
  1
1950
 50
90.0
  7
A
100
AcDbText
  0
POINT
  5
5D2
330
8A
100
AcDbEntity
  8
DEFPOINTS
  6
ByBlock
 62
     0
440
 16777216
100
AcDbPoint
 10
9193.69597814597
 20
5784.99632079107
 30
0.0
  0
POINT
  5
5D3
330
8A
100
AcDbEntity
  8
DEFPOINTS
  6
ByBlock
 62
     0
440
 16777216
100
AcDbPoint
 10
9243.69597814597
 20
3834.99632079107
 30
0.0
  0
POINT
  5
5D4
330
8A
100
AcDbEntity
  8
DEFPOINTS
  6
ByBlock
 62
     0
440
 16777216
100
AcDbPoint
 10
10505.94505911776
 20
3834.99632079107
 30
0.0
  0
ENDBLK
  5
5D5
330
8A
100
AcDbEntity
  8
SUNPOU
100
AcDbBlockEnd
  0
BLOCK
  5
A34
330
A33
100
AcDbEntity
  8
0
100
AcDbBlockBegin
  2
*D124
 70
     1
 10
0.0
 20
0.0
 30
0.0
  3
*D124
  1

  0
LINE
  5
A36
330
A33
100
AcDbEntity
  8
SUNPOU
 62
     0
440
 16777216
370
    -2
100
AcDbLine
 10
4087.96097767145
 20
756.0872754162879
 30
0.0
 11
5081.908035904908
 21
756.0872754162875
 31
0.0
  0
LINE
  5
A37
330
A33
100
AcDbEntity
  8
SUNPOU
 62
     0
440
 16777216
370
    -2
100
AcDbLine
 10
4087.960977671449
 20
2706.087275416288
 30
0.0
 11
5081.908035904909
 21
2706.087275416288
 31
0.0
  0
LINE
  5
A38
330
A33
100
AcDbEntity
  8
SUNPOU
 62
     0
440
 16777216
370
    -2
100
AcDbLine
 10
5061.908035904908
 20
796.0872754162875
 30
0.0
 11
5061.908035904909
 21
2666.087275416288
 31
0.0
  0
SOLID
  5
A39
330
A33
100
AcDbEntity
  8
SUNPOU
 62
     0
440
 16777216
100
AcDbTrace
 10
5055.241369238241
 20
796.0872754162875
 30
0.0
 11
5068.574702571575
 21
796.0872754162875
 31
0.0
 12
5061.908035904908
 22
756.0872754162875
 32
0.0
 13
5061.908035904908
 23
756.0872754162875
 33
0.0
  0
SOLID
  5
A3A
330
A33
100
AcDbEntity
  8
SUNPOU
 62
     0
440
 16777216
100
AcDbTrace
 10
5055.241369238242
 20
2666.087275416288
 30
0.0
 11
5068.574702571575
 21
2666.087275416288
 31
0.0
 12
5061.908035904909
 22
2706.087275416288
 32
0.0
 13
5061.908035904909
 23
2706.087275416288
 33
0.0
  0
MTEXT
  5
A3B
330
A33
100
AcDbEntity
  8
SUNPOU
 62
     0
440
 16777216
100
AcDbMText
 10
5001.908035904908
 20
1731.087275416289
 30
0.0
 40
60.0
 41
0.0
 71
     5
 72
     1
  1
\A1;1950
  7
A
 11
6.123031769111886E-17
 21
1.0
 31
0.0
 73
     1
 44
1.0
  0
POINT
  5
A3C
330
A33
100
AcDbEntity
  8
DEFPOINTS
 62
     0
440
 16777216
100
AcDbPoint
 10
4047.96097767145
 20
756.0872754162879
 30
0.0
  0
POINT
  5
A3D
330
A33
100
AcDbEntity
  8
DEFPOINTS
 62
     0
440
 16777216
100
AcDbPoint
 10
4047.960977671449
 20
2706.087275416288
 30
0.0
  0
POINT
  5
A3E
330
A33
100
AcDbEntity
  8
DEFPOINTS
 62
     0
440
 16777216
100
AcDbPoint
 10
5061.908035904909
 20
2706.087275416288
 30
0.0
  0
ENDBLK
  5
A35
330
A33
100
AcDbEntity
  8
0
100
AcDbBlockEnd
  0
ENDSEC
  0
SECTION
  2
ENTITIES
  0
TEXT
  5
663
330
17
100
AcDbEntity
  8
SUNPOU
100
AcDbText
 10
10290.76093427418
 20
-96.81175765693115
 30
0.0
 40
50.0
  1
新和コンクリート工業株式会社
  7
NIHONGO
100
AcDbText
  0
TEXT
  5
664
330
17
100
AcDbEntity
  8
SUNPOU
100
AcDbText
 10
10719.09426760752
 20
28.18824234306886
 30
0.0
 40
50.0
  1
製図
  7
NIHONGO
 72
     4
 11
10770.76093427418
 21
53.18824234306885
 31
0.0
100
AcDbText
  0
TEXT
  5
665
330
17
100
AcDbEntity
  8
SUNPOU
100
AcDbText
 10
10717.42760094085
 20
128.1882423430689
 30
0.0
 40
50.0
  1
設計
  7
NIHONGO
 72
     4
 11
10770.76093427418
 21
153.1882423430689
 31
0.0
100
AcDbText
  0
TEXT
  5
666
330
17
100
AcDbEntity
  8
SUNPOU
100
AcDbText
 10
10272.42760094085
 20
28.18824234306913
 30
0.0
 40
50.0
  1
認
  7
NIHONGO
 72
     4
 11
10295.76093427418
 21
53.18824234306913
 31
0.0
100
AcDbText
  0
TEXT
  5
667
330
17
100
AcDbEntity
  8
SUNPOU
100
AcDbText
 10
10272.42760094085
 20
129.8549090097362
 30
0.0
 40
50.0
  1
承
  7
NIHONGO
 72
     4
 11
10295.76093427418
 21
153.1882423430695
 31
0.0
100
AcDbText
  0
TEXT
  5
668
330
17
100
AcDbEntity
  8
SUNPOU
100
AcDbText
 10
9745.760934274182
 20
138.188242343069
 30
0.0
 40
50.0
  1
図　面　番　号
  7
NIHONGO
 72
     4
 11
9950.760934274182
 21
163.188242343069
 31
0.0
100
AcDbText
  0
TEXT
  5
669
330
17
100
AcDbEntity
  8
SUNPOU
100
AcDbText
 10
10730.76093427418
 20
243.1882423430689
 30
0.0
 40
50.0
  1
１／
  7
NIHONGO
100
AcDbText
  0
TEXT
  5
66A
330
17
100
AcDbEntity
  8
SUNPOU
100
AcDbText
 10
10437.42760094085
 20
228.188242343069
 30
0.0
 40
50.0
  1
縮　　尺
  7
NIHONGO
 72
     4
 11
10550.76093427418
 21
253.188242343069
 31
0.0
100
AcDbText
  0
TEXT
  5
66B
330
17
100
AcDbEntity
  8
SUNPOU
100
AcDbText
 10
10437.42760094085
 20
328.1882423430688
 30
0.0
 40
50.0
  1
鉄 筋 量
  7
NIHONGO
 72
     4
 11
10550.76093427418
 21
353.1882423430688
 31
0.0
100
AcDbText
  0
TEXT
  5
66C
330
17
100
AcDbEntity
  8
SUNPOU
100
AcDbText
 10
10437.42760094085
 20
428.1882423430689
 30
0.0
 40
50.0
  1
製 造 数
  7
NIHONGO
 72
     4
 11
10550.76093427418
 21
453.1882423430689
 31
0.0
100
AcDbText
  0
TEXT
  5
66D
330
17
100
AcDbEntity
  8
SUNPOU
100
AcDbText
 10
11030.76093427418
 20
323.1882423430688
 30
0.0
 40
50.0
  1
ｋｇ
  7
NIHONGO
 72
     2
 11
11130.76093427418
 21
323.1882423430688
 31
0.0
100
AcDbText
  0
TEXT
  5
66E
330
17
100
AcDbEntity
  8
SUNPOU
100
AcDbText
 10
10280.76093427418
 20
323.1882423430688
 30
0.0
 40
50.0
  1
ｋｇ
  7
NIHONGO
 72
     2
 11
10380.76093427418
 21
323.1882423430688
 31
0.0
100
AcDbText
  0
TEXT
  5
66F
330
17
100
AcDbEntity
  8
SUNPOU
100
AcDbText
 10
9690.760934274182
 20
228.188242343069
 30
0.0
 40
50.0
  1
年 月 日
  7
NIHONGO
 72
     4
 11
9800.760934274182
 21
253.188242343069
 31
0.0
100
AcDbText
  0
TEXT
  5
670
330
17
100
AcDbEntity
  8
SUNPOU
100
AcDbText
 10
9687.427600940848
 20
328.1882423430688
 30
0.0
 40
50.0
  1
製品質量
  7
NIHONGO
 72
     4
 11
9800.760934274182
 21
353.1882423430688
 31
0.0
100
AcDbText
  0
TEXT
  5
671
330
17
100
AcDbEntity
  8
SUNPOU
100
AcDbText
 10
9689.094267607516
 20
428.1882423430689
 30
0.0
 40
50.0
  1
業 者 名
  7
NIHONGO
 72
     4
 11
9800.760934274182
 21
453.1882423430689
 31
0.0
100
AcDbText
  0
TEXT
  5
672
330
17
100
AcDbEntity
  8
SUNPOU
100
AcDbText
 10
9687.427600940848
 20
553.1882423430689
 30
0.0
 40
50.0
  1
名　　称
  7
NIHONGO
 72
     4
 11
9800.760934274182
 21
578.1882423430689
 31
0.0
100
AcDbText
  0
LINE
  5
673
330
17
100
AcDbEntity
  8
SUNPOU
100
AcDbLine
 10
10250.76093427418
 20
123.1882423430693
 30
0.0
 11
9650.760934274182
 21
123.1882423430693
 31
0.0
  0
LINE
  5
674
330
17
100
AcDbEntity
  8
SUNPOU
100
AcDbLine
 10
10840.76093427418
 20
3.188242343068396
 30
0.0
 11
10840.76093427418
 21
203.1882423430689
 31
0.0
  0
LINE
  5
675
330
17
100
AcDbEntity
  8
SUNPOU
100
AcDbLine
 10
10700.76093427418
 20
3.188242343068396
 30
0.0
 11
10700.76093427418
 21
203.1882423430689
 31
0.0
  0
LINE
  5
676
330
17
100
AcDbEntity
  8
SUNPOU
100
AcDbLine
 10
10340.76093427418
 20
3.18824234306885
 30
0.0
 11
10340.76093427418
 21
203.1882423430689
 31
0.0
  0
LINE
  5
677
330
17
100
AcDbEntity
  8
SUNPOU
100
AcDbLine
 10
10250.76093427418
 20
3.18824234306885
 30
0.0
 11
10250.76093427418
 21
203.1882423430689
 31
0.0
  0
LINE
  5
678
330
17
100
AcDbEntity
  8
SUNPOU
100
AcDbLine
 10
9950.760934274182
 20
203.1882423430689
 30
0.0
 11
9950.760934274182
 21
653.1882423430689
 31
0.0
  0
LINE
  5
679
330
17
100
AcDbEntity
  8
SUNPOU
100
AcDbLine
 10
10700.76093427418
 20
203.1882423430689
 30
0.0
 11
10700.76093427418
 21
503.1882423430689
 31
0.0
  0
LINE
  5
67A
330
17
100
AcDbEntity
  8
SUNPOU
100
AcDbLine
 10
10400.76093427418
 20
203.1882423430689
 30
0.0
 11
10400.76093427418
 21
503.1882423430689
 31
0.0
  0
LINE
  5
67B
330
17
100
AcDbEntity
  8
SUNPOU
100
AcDbLine
 10
11150.76093427418
 20
503.1882423430689
 30
0.0
 11
9650.760934274182
 21
503.1882423430689
 31
0.0
  0
LINE
  5
67C
330
17
100
AcDbEntity
  8
SUNPOU
100
AcDbLine
 10
11150.76093427418
 20
403.1882423430689
 30
0.0
 11
9650.760934274182
 21
403.1882423430689
 31
0.0
  0
LINE
  5
67D
330
17
100
AcDbEntity
  8
SUNPOU
100
AcDbLine
 10
11150.76093427418
 20
303.1882423430689
 30
0.0
 11
9650.760934274182
 21
303.1882423430689
 31
0.0
  0
LINE
  5
67E
330
17
100
AcDbEntity
  8
SUNPOU
100
AcDbLine
 10
11150.76093427418
 20
203.1882423430689
 30
0.0
 11
9650.760934274182
 21
203.1882423430698
 31
0.0
  0
LINE
  5
67F
330
17
100
AcDbEntity
  8
HAIKIN
100
AcDbLine
 10
9650.760934274182
 20
653.1882423430689
 30
0.0
 11
11150.76093427418
 21
653.1882423430689
 31
0.0
  0
LINE
  5
680
330
17
100
AcDbEntity
  8
HAIKIN
100
AcDbLine
 10
9650.760934274182
 20
3.188242343069305
 30
0.0
 11
9650.760934274182
 21
653.1882423430689
 31
0.0
  0
TEXT
  5
681
330
17
100
AcDbEntity
  8
SUNPOU
100
AcDbText
 10
10850.76093427418
 20
223.1882423430689
 30
0.0
 40
60.0
  1
 20
  7
A
100
AcDbText
  0
TEXT
  5
683
330
17
100
AcDbEntity
  8
SUNPOU
100
AcDbText
 10
9987.20107205724
 20
527.0471021242492
 30
0.0
 40
80.0
  1
デザインウォールコーナー　H=2750
 41
0.6697853893435823
  7
A
 72
     5
 11
11117.79880926921
 21
527.0471021242492
 31
0.0
100
AcDbText
  0
LWPOLYLINE
  5
685
330
17
100
AcDbEntity
  8
HAIKIN
100
AcDbPolyline
 90
        4
 70
     1
 43
0.0
 10
11154.78343630826
 20
7832.039940919411
 10
226.7808576631921
 20
7832.039940919411
 10
226.7808576631921
 20
0.0
 10
11154.78343630826
 20
0.0
  0
TEXT
  5
68B
330
17
100
AcDbEntity
  8
SUNPOU
100
AcDbText
 10
8483.290085810027
 20
3977.040928626652
 30
0.0
 40
60.0
  1
        
  7
A
100
AcDbText
  0
TEXT
  5
68C
330
17
100
AcDbEntity
  8
SUNPOU
100
AcDbText
 10
8179.290085810027
 20
3964.945264685842
 30
0.0
 40
60.0
  1
      
  7
A
100
AcDbText
  0
TEXT
  5
68D
330
17
100
AcDbEntity
  8
SUNPOU
100
AcDbText
 10
2451.856152230769
 20
3880.638544059962
 30
0.0
 40
60.0
  1
        
  7
A
100
AcDbText
  0
TEXT
  5
68E
330
17
100
AcDbEntity
  8
SUNPOU
100
AcDbText
 10
2633.180408178521
 20
3880.638544059962
 30
0.0
 40
60.0
  1
        
  7
A
100
AcDbText
  0
TEXT
  5
68F
330
17
100
AcDbEntity
  8
SUNPOU
100
AcDbText
 10
6061.770217380291
 20
3834.556802440616
 30
0.0
 40
60.0
  1
   
  7
A
100
AcDbText
  0
TEXT
  5
690
330
17
100
AcDbEntity
  8
SUNPOU
100
AcDbText
 10
5745.082194249918
 20
4001.545985117913
 30
0.0
 40
60.0
  1
     
  7
A
100
AcDbText
  0
TEXT
  5
691
330
17
100
AcDbEntity
  8
SUNPOU
100
AcDbText
 10
2734.670711343414
 20
3880.63854405996
 30
0.0
 40
60.0
  1
    
  7
A
100
AcDbText
  0
TEXT
  5
692
330
17
100
AcDbEntity
  8
SUNPOU
100
AcDbText
 10
2824.062725563335
 20
3880.63854405996
 30
0.0
 40
60.0
  1
    
  7
A
100
AcDbText
  0
TEXT
  5
693
330
17
100
AcDbEntity
  8
SUNPOU
100
AcDbText
 10
2114.468887493882
 20
4119.795362913077
 30
0.0
 40
60.0
  1
   
  7
A
100
AcDbText
  0
TEXT
  5
694
330
17
100
AcDbEntity
  8
SUNPOU
100
AcDbText
 10
2617.049640001411
 20
3880.63854405996
 30
0.0
 40
60.0
  1
    
  7
A
100
AcDbText
  0
LINE
  5
695
330
17
100
AcDbEntity
  8
SEIHIN
100
AcDbLine
 10
4047.96097767145
 20
3834.99632079107
 30
0.0
 11
1297.96097767145
 21
3834.99632079107
 31
0.0
  0
LINE
  5
696
330
17
100
AcDbEntity
  8
SEIHIN
100
AcDbLine
 10
1297.96097767145
 20
3834.99632079107
 30
0.0
 11
1297.96097767145
 21
3904.99632079107
 31
0.0
  0
LINE
  5
697
330
17
100
AcDbEntity
  8
SEIHIN
100
AcDbLine
 10
1297.96097767145
 20
3904.99632079107
 30
0.0
 11
1347.96097767145
 21
3904.99632079107
 31
0.0
  0
LINE
  5
698
330
17
100
AcDbEntity
  8
SEIHIN
100
AcDbLine
 10
1347.96097767145
 20
3904.99632079107
 30
0.0
 11
1347.96097767145
 21
3954.99632079107
 31
0.0
  0
LINE
  5
699
330
17
100
AcDbEntity
  8
SEIHIN
100
AcDbLine
 10
4047.96097767145
 20
4834.99632079107
 30
0.0
 11
3827.96097767145
 21
4834.99632079107
 31
0.0
  0
LINE
  5
69A
330
17
100
AcDbEntity
  8
SEIHIN
100
AcDbLine
 10
3827.96097767145
 20
4834.99632079107
 30
0.0
 11
1297.96097767145
 21
4834.99632079107
 31
0.0
  0
LINE
  5
69B
330
17
100
AcDbEntity
  8
SEIHIN
100
AcDbLine
 10
1297.96097767145
 20
3904.99632079107
 30
0.0
 11
1297.96097767145
 21
6834.99632079107
 31
0.0
  0
LINE
  5
69C
330
17
100
AcDbEntity
  8
SEIHIN
100
AcDbLine
 10
1347.96097767145
 20
3954.99632079107
 30
0.0
 11
1347.96097767145
 21
4834.996320791069
 31
0.0
  0
LINE
  5
69D
330
17
100
AcDbEntity
  8
SEIHIN
100
AcDbLine
 10
4047.96097767145
 20
6834.99632079107
 30
0.0
 11
4047.96097767145
 21
3834.99632079107
 31
0.0
  0
LINE
  5
69E
330
17
100
AcDbEntity
  8
SEIHIN
100
AcDbLine
 10
6763.695978145971
 20
4834.996320791071
 30
0.0
 11
6243.695978145972
 21
4834.99632079107
 31
0.0
  0
LINE
  5
69F
330
17
100
AcDbEntity
  8
SEIHIN
100
AcDbLine
 10
7243.69597814597
 20
3834.99632079107
 30
0.0
 11
6268.69597814597
 21
3834.99632079107
 31
0.0
  0
LINE
  5
6A0
330
17
100
AcDbEntity
  8
SEIHIN
100
AcDbLine
 10
6243.695978145972
 20
4834.99632079107
 30
0.0
 11
6243.69597814597
 21
3859.99632079107
 31
0.0
  0
LINE
  5
6A1
330
17
100
AcDbEntity
  8
SEIHIN
100
AcDbLine
 10
7243.69597814597
 20
4354.996320791071
 30
0.0
 11
7243.69597814597
 21
3834.99632079107
 31
0.0
  0
LINE
  5
6A2
330
17
100
AcDbEntity
  8
SEIHIN
100
AcDbLine
 10
6268.695978145971
 20
3834.99632079107
 30
0.0
 11
6243.695978145971
 21
3859.996320791071
 31
0.0
  0
LINE
  5
6A3
330
17
100
AcDbEntity
  8
SEIHIN
100
AcDbLine
 10
7243.69597814597
 20
3904.99632079107
 30
0.0
 11
6338.695978145972
 21
3904.99632079107
 31
0.0
  0
LINE
  5
6A4
330
17
100
AcDbEntity
  8
SEIHIN
100
AcDbLine
 10
6313.695978145972
 20
4834.99632079107
 30
0.0
 11
6313.69597814597
 21
3929.996320791071
 31
0.0
  0
LINE
  5
6A5
330
17
100
AcDbEntity
  8
SEIHIN
100
AcDbLine
 10
7042.097506974041
 20
3954.99632079107
 30
0.0
 11
6388.695978145971
 21
3954.99632079107
 31
0.0
  0
LINE
  5
6A6
330
17
100
AcDbEntity
  8
SEIHIN
100
AcDbLine
 10
6363.695978145972
 20
4834.99632079107
 30
0.0
 11
6363.695978145971
 21
3979.996320791071
 31
0.0
  0
LINE
  5
6A7
330
17
100
AcDbEntity
  8
SEIHIN
100
AcDbLine
 10
7243.69597814597
 20
4054.99632079107
 30
0.0
 11
6488.695978145971
 21
4054.99632079107
 31
0.0
  0
LINE
  5
6A8
330
17
100
AcDbEntity
  8
SEIHIN
100
AcDbLine
 10
6463.695978145972
 20
4834.99632079107
 30
0.0
 11
6463.695978145972
 21
4079.996320791071
 31
0.0
  0
LINE
  5
6A9
330
17
100
AcDbEntity
  8
SEIHIN
100
AcDbLine
 10
7243.69597814597
 20
4354.996320791071
 30
0.0
 11
6788.695978145972
 21
4354.996320791071
 31
0.0
  0
LINE
  5
6AA
330
17
100
AcDbEntity
  8
SEIHIN
100
AcDbLine
 10
6763.695978145972
 20
4834.996320791069
 30
0.0
 11
6763.695978145971
 21
4379.996320791071
 31
0.0
  0
LINE
  5
6AB
330
17
100
AcDbEntity
  8
SEIHIN
100
AcDbLine
 10
6243.695978145971
 20
3859.996320791071
 30
0.0
 11
6763.695978145971
 21
4379.996320791071
 31
0.0
  0
LINE
  5
6AC
330
17
100
AcDbEntity
  8
SEIHIN
100
AcDbLine
 10
6268.695978145971
 20
3834.99632079107
 30
0.0
 11
6788.695978145972
 21
4354.996320791071
 31
0.0
  0
LINE
  5
6AD
330
17
100
AcDbEntity
  8
SEIHIN
100
AcDbLine
 10
6763.695978145971
 20
4379.996320791071
 30
0.0
 11
6788.695978145972
 21
4354.996320791071
 31
0.0
  0
LINE
  5
6AE
330
17
100
AcDbEntity
  8
SEIHIN
100
AcDbLine
 10
6463.695978145971
 20
4079.996320791071
 30
0.0
 11
6488.695978145971
 21
4054.99632079107
 31
0.0
  0
LINE
  5
6AF
330
17
100
AcDbEntity
  8
SEIHIN
100
AcDbLine
 10
6363.695978145971
 20
3979.996320791071
 30
0.0
 11
6388.695978145971
 21
3954.996320791069
 31
0.0
  0
LINE
  5
6B0
330
17
100
AcDbEntity
  8
SEIHIN
100
AcDbLine
 10
6313.69597814597
 20
3929.99632079107
 30
0.0
 11
6338.695978145971
 21
3904.99632079107
 31
0.0
  0
LINE
  5
6B1
330
17
100
AcDbEntity
  8
SEIHIN
100
AcDbLine
 10
7243.69597814597
 20
3834.99632079107
 30
0.0
 11
9243.69597814597
 21
3834.99632079107
 31
0.0
  0
LINE
  5
6B2
330
17
100
AcDbEntity
  8
SEIHIN
100
AcDbLine
 10
6243.695978145973
 20
4834.996320791071
 30
0.0
 11
6243.695978145973
 21
6834.996320791071
 31
0.0
  0
DIMENSION
  5
6D3
330
17
100
AcDbEntity
  8
SUNPOU
100
AcDbDimension
  2
*D99
 10
4047.96097767145
 20
3030.421183860853
 30
0.0
 11
2665.69523290631
 21
3090.421183860853
 31
0.0
 70
   128
 71
     5
 42
-1.0
100
AcDbAlignedDimension
 13
1297.96097767145
 23
3834.99632079107
 33
0.0
 14
4047.96097767145
 24
3834.99632079107
 34
0.0
100
AcDbRotatedDimension
1001
ACAD_DSTYLE_DIMARC_LENGTH_SYMBOL
1070
   379
1070
     0
1001
ACAD_DSTYLE_DIMJOGGED_JOGANGLE_SYMBOL
1070
   384
1040
0.7853981633974483
1001
ACAD_DSTYLE_DIMTEXT_FILL
1070
   376
1070
     0
1001
ACAD_DSTYLE_DIMEXT_ENABLED
1070
   383
1070
     0
1001
ACAD_DSTYLE_DIMEXT_LENGTH
1070
   378
1040
1.0
1001
ACAD_DSTYLE_DIM_LINETYPE
1070
   380
1005
0
1001
ACAD_DSTYLE_DIM_EXT1_LINETYPE
1070
   381
1005
0
1001
ACAD_DSTYLE_DIM_EXT2_LINETYPE
1070
   382
1005
0
  0
DIMENSION
  5
6D4
330
17
100
AcDbEntity
  8
SUNPOU
100
AcDbDimension
  2
*D15
 10
3827.96097767145
 20
3228.184291065701
 30
0.0
 11
3937.96097767145
 21
3288.184291065701
 31
0.0
 12
0.0
 22
1128.148115722516
 32
0.0
 70
   128
 71
     5
 42
-1.0
100
AcDbAlignedDimension
 13
4047.96097767145
 23
3834.99632079107
 33
0.0
 14
3827.96097767145
 24
3834.99632079107
 34
0.0
100
AcDbRotatedDimension
1001
ACAD_DSTYLE_DIMARC_LENGTH_SYMBOL
1070
   379
1070
     0
1001
ACAD_DSTYLE_DIMJOGGED_JOGANGLE_SYMBOL
1070
   384
1040
0.7853981633974483
1001
ACAD_DSTYLE_DIMTEXT_FILL
1070
   376
1070
     0
1001
ACAD_DSTYLE_DIMEXT_ENABLED
1070
   383
1070
     0
1001
ACAD_DSTYLE_DIMEXT_LENGTH
1070
   378
1040
1.0
1001
ACAD_DSTYLE_DIM_LINETYPE
1070
   380
1005
0
1001
ACAD_DSTYLE_DIM_EXT1_LINETYPE
1070
   381
1005
0
1001
ACAD_DSTYLE_DIM_EXT2_LINETYPE
1070
   382
1005
0
  0
DIMENSION
  5
6D5
330
17
100
AcDbEntity
  8
SUNPOU
100
AcDbDimension
  2
*D97
 10
3827.96097767145
 20
3228.184291065701
 30
0.0
 11
2812.96097767145
 21
3288.184291065701
 31
0.0
 70
   128
 71
     5
 42
-1.0
100
AcDbAlignedDimension
 13
1297.96097767145
 23
3277.625067866913
 33
0.0
 14
3827.96097767145
 24
3327.065844668125
 34
0.0
100
AcDbRotatedDimension
1001
ACAD_DSTYLE_DIMARC_LENGTH_SYMBOL
1070
   379
1070
     0
1001
ACAD_DSTYLE_DIMJOGGED_JOGANGLE_SYMBOL
1070
   384
1040
0.7853981633974483
1001
ACAD_DSTYLE_DIMTEXT_FILL
1070
   376
1070
     0
1001
ACAD_DSTYLE_DIMEXT_ENABLED
1070
   383
1070
     0
1001
ACAD_DSTYLE_DIMEXT_LENGTH
1070
   378
1040
1.0
1001
ACAD_DSTYLE_DIM_LINETYPE
1070
   380
1005
0
1001
ACAD_DSTYLE_DIM_EXT1_LINETYPE
1070
   381
1005
0
1001
ACAD_DSTYLE_DIM_EXT2_LINETYPE
1070
   382
1005
0
  0
DIMENSION
  5
6D8
330
17
100
AcDbEntity
  8
SUNPOU
100
AcDbDimension
  2
*D3
 10
4898.032434938416
 20
3834.99632079107
 30
0.0
 11
4838.032434938416
 21
4334.99632079107
 31
0.0
 12
0.0
 22
1128.148115722516
 32
0.0
 71
     5
 42
-1.0
100
AcDbAlignedDimension
 13
4047.96097767145
 23
4834.99632079107
 33
0.0
 14
4047.96097767145
 24
3834.99632079107
 34
0.0
 50
90.0
100
AcDbRotatedDimension
1001
ACAD_DSTYLE_DIMARC_LENGTH_SYMBOL
1070
   379
1070
     0
1001
ACAD_DSTYLE_DIMJOGGED_JOGANGLE_SYMBOL
1070
   384
1040
0.7853981633974483
1001
ACAD_DSTYLE_DIMTEXT_FILL
1070
   376
1070
     0
1001
ACAD_DSTYLE_DIMEXT_ENABLED
1070
   383
1070
     0
1001
ACAD_DSTYLE_DIMEXT_LENGTH
1070
   378
1040
1.0
1001
ACAD_DSTYLE_DIM_LINETYPE
1070
   380
1005
0
1001
ACAD_DSTYLE_DIM_EXT1_LINETYPE
1070
   381
1005
0
1001
ACAD_DSTYLE_DIM_EXT2_LINETYPE
1070
   382
1005
0
  0
DIMENSION
  5
6D9
330
17
100
AcDbEntity
  8
SUNPOU
100
AcDbDimension
  2
*D4
 10
4680.88079932299
 20
4054.99632079107
 30
0.0
 11
4620.88079932299
 21
3944.99632079107
 31
0.0
 12
0.0
 22
1128.148115722516
 32
0.0
 71
     5
 42
-1.0
100
AcDbAlignedDimension
 13
4047.96097767145
 23
3834.99632079107
 33
0.0
 14
4047.96097767145
 24
4054.99632079107
 34
0.0
 50
90.0
100
AcDbRotatedDimension
1001
ACAD_DSTYLE_DIMARC_LENGTH_SYMBOL
1070
   379
1070
     0
1001
ACAD_DSTYLE_DIMJOGGED_JOGANGLE_SYMBOL
1070
   384
1040
0.7853981633974483
1001
ACAD_DSTYLE_DIMTEXT_FILL
1070
   376
1070
     0
1001
ACAD_DSTYLE_DIMEXT_ENABLED
1070
   383
1070
     0
1001
ACAD_DSTYLE_DIMEXT_LENGTH
1070
   378
1040
1.0
1001
ACAD_DSTYLE_DIM_LINETYPE
1070
   380
1005
0
1001
ACAD_DSTYLE_DIM_EXT1_LINETYPE
1070
   381
1005
0
1001
ACAD_DSTYLE_DIM_EXT2_LINETYPE
1070
   382
1005
0
  0
DIMENSION
  5
6DA
330
17
100
AcDbEntity
  8
SUNPOU
100
AcDbDimension
  2
*D5
 10
4680.88079932299
 20
4834.99632079107
 30
0.0
 11
4620.88079932299
 21
4444.99632079107
 31
0.0
 12
0.0
 22
1128.148115722516
 32
0.0
 71
     5
 42
-1.0
100
AcDbAlignedDimension
 13
4522.952337057226
 23
4054.99632079107
 33
0.0
 14
4616.722361527523
 24
4834.99632079107
 34
0.0
 50
90.0
100
AcDbRotatedDimension
1001
ACAD_DSTYLE_DIMARC_LENGTH_SYMBOL
1070
   379
1070
     0
1001
ACAD_DSTYLE_DIMJOGGED_JOGANGLE_SYMBOL
1070
   384
1040
0.7853981633974483
1001
ACAD_DSTYLE_DIMTEXT_FILL
1070
   376
1070
     0
1001
ACAD_DSTYLE_DIMEXT_ENABLED
1070
   383
1070
     0
1001
ACAD_DSTYLE_DIMEXT_LENGTH
1070
   378
1040
1.0
1001
ACAD_DSTYLE_DIM_LINETYPE
1070
   380
1005
0
1001
ACAD_DSTYLE_DIM_EXT1_LINETYPE
1070
   381
1005
0
1001
ACAD_DSTYLE_DIM_EXT2_LINETYPE
1070
   382
1005
0
  0
DIMENSION
  5
6DD
330
17
100
AcDbEntity
  8
SUNPOU
100
AcDbDimension
  2
*D8
 10
741.0014805968149
 20
3954.99632079107
 30
0.0
 11
681.0014805968149
 21
3907.624669825374
 31
0.0
 12
-500.0
 22
1128.148115722516
 32
0.0
 70
   128
 71
     5
 42
-1.0
100
AcDbAlignedDimension
 13
1297.96097767145
 23
3834.99632079107
 33
0.0
 14
1297.96097767145
 24
3954.99632079107
 34
0.0
 50
90.0
100
AcDbRotatedDimension
1001
ACAD_DSTYLE_DIMARC_LENGTH_SYMBOL
1070
   379
1070
     0
1001
ACAD_DSTYLE_DIMJOGGED_JOGANGLE_SYMBOL
1070
   384
1040
0.7853981633974483
1001
ACAD_DSTYLE_DIMTEXT_FILL
1070
   376
1070
     0
1001
ACAD_DSTYLE_DIMEXT_ENABLED
1070
   383
1070
     0
1001
ACAD_DSTYLE_DIMEXT_LENGTH
1070
   378
1040
1.0
1001
ACAD_DSTYLE_DIM_LINETYPE
1070
   380
1005
0
1001
ACAD_DSTYLE_DIM_EXT1_LINETYPE
1070
   381
1005
0
1001
ACAD_DSTYLE_DIM_EXT2_LINETYPE
1070
   382
1005
0
  0
DIMENSION
  5
6DE
330
17
100
AcDbEntity
  8
SUNPOU
100
AcDbDimension
  2
*D9
 10
958.153116212241
 20
3904.99632079107
 30
0.0
 11
898.1531162122405
 21
3758.519426943434
 31
0.0
 12
-500.0
 22
1128.148115722516
 32
0.0
 70
   128
 71
     5
 42
-1.0
100
AcDbAlignedDimension
 13
1297.96097767145
 23
3834.99632079107
 33
0.0
 14
1297.96097767145
 24
3904.99632079107
 34
0.0
 50
90.0
100
AcDbRotatedDimension
1001
ACAD_DSTYLE_DIMARC_LENGTH_SYMBOL
1070
   379
1070
     0
1001
ACAD_DSTYLE_DIMJOGGED_JOGANGLE_SYMBOL
1070
   384
1040
0.7853981633974483
1001
ACAD_DSTYLE_DIMTEXT_FILL
1070
   376
1070
     0
1001
ACAD_DSTYLE_DIMEXT_ENABLED
1070
   383
1070
     0
1001
ACAD_DSTYLE_DIMEXT_LENGTH
1070
   378
1040
1.0
1001
ACAD_DSTYLE_DIM_LINETYPE
1070
   380
1005
0
1001
ACAD_DSTYLE_DIM_EXT1_LINETYPE
1070
   381
1005
0
1001
ACAD_DSTYLE_DIM_EXT2_LINETYPE
1070
   382
1005
0
  0
DIMENSION
  5
6DF
330
17
100
AcDbEntity
  8
SUNPOU
100
AcDbDimension
  2
*D10
 10
958.153116212241
 20
3954.99632079107
 30
0.0
 11
898.1531162122405
 21
4119.99632079107
 31
0.0
 12
-500.0
 22
1128.148115722516
 32
0.0
 70
   128
 71
     5
 42
-1.0
100
AcDbAlignedDimension
 13
987.7647028870706
 23
3904.99632079107
 33
0.0
 14
1022.311554007707
 24
3954.99632079107
 34
0.0
 50
90.0
100
AcDbRotatedDimension
1001
ACAD_DSTYLE_DIMARC_LENGTH_SYMBOL
1070
   379
1070
     0
1001
ACAD_DSTYLE_DIMJOGGED_JOGANGLE_SYMBOL
1070
   384
1040
0.7853981633974483
1001
ACAD_DSTYLE_DIMTEXT_FILL
1070
   376
1070
     0
1001
ACAD_DSTYLE_DIMEXT_ENABLED
1070
   383
1070
     0
1001
ACAD_DSTYLE_DIMEXT_LENGTH
1070
   378
1040
1.0
1001
ACAD_DSTYLE_DIM_LINETYPE
1070
   380
1005
0
1001
ACAD_DSTYLE_DIM_EXT1_LINETYPE
1070
   381
1005
0
1001
ACAD_DSTYLE_DIM_EXT2_LINETYPE
1070
   382
1005
0
  0
TEXT
  5
6E1
330
17
100
AcDbEntity
  8
SUNPOU
100
AcDbText
 10
2894.832954375092
 20
3396.108236114574
 30
0.0
 40
60.0
  1
    
  7
A
100
AcDbText
  0
LINE
  5
6E2
330
17
100
AcDbEntity
  8
SEIHIN
100
AcDbLine
 10
7243.69597814597
 20
3904.99632079107
 30
0.0
 11
9243.69597814597
 21
3904.99632079107
 31
0.0
  0
LINE
  5
6E3
330
17
100
AcDbEntity
  8
SEIHIN
100
AcDbLine
 10
6313.695978145973
 20
4834.996320791071
 30
0.0
 11
6313.695978145973
 21
6834.996320791071
 31
0.0
  0
LINE
  5
6E4
330
17
100
AcDbEntity
  8
SEIHIN
100
AcDbLine
 10
7243.69597814597
 20
3904.99632079107
 30
0.0
 11
9243.69597814597
 21
3904.99632079107
 31
0.0
  0
LINE
  5
6E5
330
17
100
AcDbEntity
  8
SEIHIN
100
AcDbLine
 10
7243.69597814597
 20
4014.99632079107
 30
0.0
 11
9243.69597814597
 21
4014.99632079107
 31
0.0
  0
LINE
  5
6E6
330
17
100
AcDbEntity
  8
SEIHIN
100
AcDbLine
 10
6423.695978145973
 20
4834.996320791071
 30
0.0
 11
6423.695978145973
 21
6834.996320791071
 31
0.0
  0
LINE
  5
6E7
330
17
100
AcDbEntity
  8
SEIHIN
100
AcDbLine
 10
7251.176293106601
 20
4214.99632079107
 30
0.0
 11
9236.21566318534
 21
4214.99632079107
 31
0.0
  0
LINE
  5
6E8
330
17
100
AcDbEntity
  8
SEIHIN
100
AcDbLine
 10
6623.695978145973
 20
4842.476635751701
 30
0.0
 11
6623.695978145974
 21
6827.516005830441
 31
0.0
  0
LINE
  5
6E9
330
17
100
AcDbEntity
  8
SEIHIN
100
AcDbLine
 10
7275.443710151735
 20
4831.388713737506
 30
0.0
 11
8229.051317205302
 21
5784.99632079107
 31
0.0
  0
LINE
  5
6EA
330
17
100
AcDbEntity
  8
SEIHIN
100
AcDbLine
 10
7240.088371092409
 20
4866.744052796836
 30
0.0
 11
8193.695978145974
 21
5820.351659850399
 31
0.0
  0
CIRCLE
  5
6F7
330
17
100
AcDbEntity
  8
SUNPOU
100
AcDbCircle
 10
7108.69597814597
 20
4534.99632079107
 30
0.0
 40
15.0
  0
CIRCLE
  5
6F8
330
17
100
AcDbEntity
  8
SUNPOU
100
AcDbCircle
 10
7168.69597814597
 20
4534.99632079107
 30
0.0
 40
15.0
  0
CIRCLE
  5
6F9
330
17
100
AcDbEntity
  8
SUNPOU
100
AcDbCircle
 10
7318.69597814597
 20
4534.99632079107
 30
0.0
 40
15.0
  0
CIRCLE
  5
6FA
330
17
100
AcDbEntity
  8
SUNPOU
100
AcDbCircle
 10
7378.69597814597
 20
4534.99632079107
 30
0.0
 40
15.0
  0
CIRCLE
  5
6FB
330
17
100
AcDbEntity
  8
SUNPOU
100
AcDbCircle
 10
6943.695978145974
 20
4969.996320791071
 30
0.0
 40
15.0
  0
CIRCLE
  5
6FC
330
17
100
AcDbEntity
  8
SUNPOU
100
AcDbCircle
 10
6943.695978145973
 20
4909.996320791071
 30
0.0
 40
15.0
  0
CIRCLE
  5
6FD
330
17
100
AcDbEntity
  8
SUNPOU
100
AcDbCircle
 10
6943.695978145973
 20
4759.996320791071
 30
0.0
 40
15.0
  0
CIRCLE
  5
6FE
330
17
100
AcDbEntity
  8
SUNPOU
100
AcDbCircle
 10
6943.695978145973
 20
4699.996320791071
 30
0.0
 40
15.0
  0
LINE
  5
713
330
17
100
AcDbEntity
  8
SEIHIN
100
AcDbLine
 10
3827.96097767145
 20
6834.99632079107
 30
0.0
 11
1297.96097767145
 21
6834.99632079107
 31
0.0
  0
LINE
  5
714
330
17
100
AcDbEntity
  8
SEIHIN
100
AcDbLine
 10
4047.96097767145
 20
6834.99632079107
 30
0.0
 11
3827.96097767145
 21
6834.99632079107
 31
0.0
  0
LINE
  5
715
330
17
100
AcDbEntity
  8
SEIHIN
100
AcDbLine
 10
2317.96097767145
 20
4834.99632079107
 30
0.0
 11
2317.96097767145
 21
5009.99632079107
 31
0.0
  0
LINE
  5
716
330
17
100
AcDbEntity
  8
SEIHIN
100
AcDbLine
 10
2377.96097767145
 20
4834.99632079107
 30
0.0
 11
2377.96097767145
 21
5009.99632079107
 31
0.0
  0
LINE
  5
717
330
17
100
AcDbEntity
  8
SEIHIN
100
AcDbLine
 10
2377.96097767145
 20
5009.99632079107
 30
0.0
 11
2317.96097767145
 21
5009.99632079107
 31
0.0
  0
LINE
  5
718
330
17
100
AcDbEntity
  8
SEIHIN
100
AcDbLine
 10
3377.96097767145
 20
4834.996320791071
 30
0.0
 11
3377.96097767145
 21
5009.996320791071
 31
0.0
  0
LINE
  5
719
330
17
100
AcDbEntity
  8
SEIHIN
100
AcDbLine
 10
3377.96097767145
 20
5009.996320791071
 30
0.0
 11
3317.96097767145
 21
5009.996320791071
 31
0.0
  0
LINE
  5
71A
330
17
100
AcDbEntity
  8
SEIHIN
100
AcDbLine
 10
3317.96097767145
 20
4834.996320791071
 30
0.0
 11
3317.96097767145
 21
5009.996320791071
 31
0.0
  0
CIRCLE
  5
71E
330
17
100
AcDbEntity
  8
SUNPOU
100
AcDbCircle
 10
3347.960977671449
 20
6334.996320791069
 30
0.0
 40
30.0
  0
CIRCLE
  5
71F
330
17
100
AcDbEntity
  8
SUNPOU
100
AcDbCircle
 10
3347.960977671449
 20
5334.99632079107
 30
0.0
 40
30.0
  0
CIRCLE
  5
720
330
17
100
AcDbEntity
  8
SUNPOU
100
AcDbCircle
 10
3347.960977671449
 20
6334.996320791069
 30
0.0
 40
20.0
  0
CIRCLE
  5
721
330
17
100
AcDbEntity
  8
SUNPOU
100
AcDbCircle
 10
3347.960977671449
 20
5334.99632079107
 30
0.0
 40
20.0
  0
LINE
  5
747
330
17
100
AcDbEntity
  8
SEIHIN
100
AcDbLine
 10
7275.443710151735
 20
4831.388713737507
 30
0.0
 11
7243.695978145971
 21
4024.99632079107
 31
0.0
  0
LINE
  5
748
330
17
100
AcDbEntity
  8
SEIHIN
100
AcDbLine
 10
7240.088371092408
 20
4866.744052796836
 30
0.0
 11
6433.695978145973
 21
4834.996320791071
 31
0.0
  0
LWPOLYLINE
  5
749
330
17
100
AcDbEntity
  8
SEIHIN
100
AcDbPolyline
 90
        4
 70
     1
 43
0.0
 10
6913.695978145974
 20
5009.996320791071
 10
6913.695978145972
 20
4659.996320791071
 10
6973.695978145973
 20
4659.996320791071
 10
6973.695978145975
 20
5009.996320791071
  0
LWPOLYLINE
  5
74F
330
17
100
AcDbEntity
  8
SEIHIN
100
AcDbPolyline
 90
        4
 70
     1
 43
0.0
 10
7418.695978145971
 20
4564.99632079107
 10
7068.695978145972
 20
4564.99632079107
 10
7068.69597814597
 20
4504.996320791069
 10
7418.695978145971
 20
4504.99632079107
  0
LINE
  5
755
330
17
100
AcDbEntity
  8
SEIHIN
100
AcDbLine
 10
7216.370396750622
 20
4589.996320791071
 30
0.0
 11
7043.695978145973
 21
4589.996320791071
 31
0.0
  0
LINE
  5
756
330
17
100
AcDbEntity
  8
SEIHIN
100
AcDbLine
 10
7043.695978145973
 20
4589.996320791071
 30
0.0
 11
7043.69597814597
 21
4479.996320791069
 31
0.0
  0
LINE
  5
757
330
17
100
AcDbEntity
  8
SEIHIN
100
AcDbLine
 10
7043.69597814597
 20
4479.996320791069
 30
0.0
 11
7229.16109442504
 21
4479.996320791069
 31
0.0
  0
LINE
  5
758
330
17
100
AcDbEntity
  8
SEIHIN
100
AcDbLine
 10
7218.114582797133
 20
4574.99632079107
 30
0.0
 11
7058.695978145972
 21
4574.99632079107
 31
0.0
  0
LINE
  5
759
330
17
100
AcDbEntity
  8
SEIHIN
100
AcDbLine
 10
7058.695978145972
 20
4574.99632079107
 30
0.0
 11
7058.69597814597
 21
4494.996320791069
 31
0.0
  0
LINE
  5
75A
330
17
100
AcDbEntity
  8
SEIHIN
100
AcDbLine
 10
7058.69597814597
 20
4494.996320791069
 30
0.0
 11
7227.416908378528
 21
4494.996320791069
 31
0.0
  0
LINE
  5
75B
330
17
100
AcDbEntity
  8
SEIHIN
100
AcDbLine
 10
6888.695978145973
 20
4820.461437070139
 30
0.0
 11
6888.695978145973
 21
4634.996320791071
 31
0.0
  0
LINE
  5
75C
330
17
100
AcDbEntity
  8
SEIHIN
100
AcDbLine
 10
6888.695978145973
 20
4634.996320791071
 30
0.0
 11
6998.695978145974
 21
4634.996320791071
 31
0.0
  0
LINE
  5
75D
330
17
100
AcDbEntity
  8
SEIHIN
100
AcDbLine
 10
6998.695978145974
 20
4634.996320791071
 30
0.0
 11
6998.695978145975
 21
4807.670739395721
 31
0.0
  0
LINE
  5
75E
330
17
100
AcDbEntity
  8
SEIHIN
100
AcDbLine
 10
6903.695978145974
 20
4818.717251023628
 30
0.0
 11
6903.695978145972
 21
4649.996320791071
 31
0.0
  0
LINE
  5
75F
330
17
100
AcDbEntity
  8
SEIHIN
100
AcDbLine
 10
6903.695978145972
 20
4649.996320791071
 30
0.0
 11
6983.695978145974
 21
4649.996320791071
 31
0.0
  0
LINE
  5
760
330
17
100
AcDbEntity
  8
SEIHIN
100
AcDbLine
 10
6983.695978145974
 20
4649.996320791071
 30
0.0
 11
6983.695978145974
 21
4809.414925442233
 31
0.0
  0
LINE
  5
761
330
17
100
AcDbEntity
  8
SEIHIN
100
AcDbLine
 10
6888.695978145973
 20
4634.996320791071
 30
0.0
 11
6903.695978145971
 21
4649.996320791071
 31
0.0
  0
LINE
  5
762
330
17
100
AcDbEntity
  8
SEIHIN
100
AcDbLine
 10
6983.695978145974
 20
4649.996320791071
 30
0.0
 11
6998.695978145974
 21
4634.996320791071
 31
0.0
  0
LINE
  5
763
330
17
100
AcDbEntity
  8
SEIHIN
100
AcDbLine
 10
7043.695978145973
 20
4589.996320791071
 30
0.0
 11
7058.695978145972
 21
4574.99632079107
 31
0.0
  0
LINE
  5
764
330
17
100
AcDbEntity
  8
SEIHIN
100
AcDbLine
 10
7043.695978145971
 20
4479.996320791069
 30
0.0
 11
7058.69597814597
 21
4494.996320791069
 31
0.0
  0
LWPOLYLINE
  5
767
330
17
100
AcDbEntity
  8
SEIHIN
100
AcDbPolyline
 90
        4
 70
     0
 43
0.0
 10
2317.96097767145
 20
4834.99632079107
 10
2317.96097767145
 20
4659.99632079107
 10
2377.96097767145
 20
4659.99632079107
 10
2377.96097767145
 20
4834.99632079107
  0
LWPOLYLINE
  5
76D
330
17
100
AcDbEntity
  8
SEIHIN
100
AcDbPolyline
 90
        4
 70
     0
 43
0.0
 10
3377.96097767145
 20
4834.996320791069
 10
3377.960977671449
 20
4659.996320791069
 10
3317.96097767145
 20
4659.996320791069
 10
3317.960977671449
 20
4834.996320791069
  0
TEXT
  5
7B2
330
17
100
AcDbEntity
  8
SUNPOU
100
AcDbText
 10
2820.075858805928
 20
4155.631763183543
 30
0.0
 40
60.0
  1
    
  7
A
100
AcDbText
  0
TEXT
  5
7B5
330
17
100
AcDbEntity
  8
SUNPOU
100
AcDbText
 10
3221.06147140403
 20
4046.76911207157
 30
0.0
 40
60.0
  1
    
  7
A
100
AcDbText
  0
TEXT
  5
7BB
330
17
100
AcDbEntity
  8
SUNPOU
100
AcDbText
 10
2235.399243958018
 20
4133.985127297313
 30
0.0
 40
60.0
  1
    
  7
A
100
AcDbText
  0
TEXT
  5
7BE
330
17
100
AcDbEntity
  8
SUNPOU
100
AcDbText
 10
2745.527423258528
 20
4082.252141712426
 30
0.0
 40
60.0
  1
   
  7
A
100
AcDbText
  0
TEXT
  5
7C2
330
17
100
AcDbEntity
  8
SUNPOU
100
AcDbText
 10
2235.399243958018
 20
4069.921404744181
 30
0.0
 40
60.0
  1
    
  7
A
100
AcDbText
  0
TEXT
  5
7CB
330
17
100
AcDbEntity
  8
SUNPOU
100
AcDbText
 10
3486.777349761856
 20
3899.113594070004
 30
0.0
 40
60.0
  1
   
  7
A
100
AcDbText
  0
LINE
  5
7FC
330
17
100
AcDbEntity
  8
SEIHIN
100
AcDbLine
 10
7068.69597814597
 20
3924.885293841294
 30
0.0
 11
7068.69597814597
 21
3915.885293841294
 31
0.0
  0
LINE
  5
7FD
330
17
100
AcDbEntity
  8
SEIHIN
100
AcDbLine
 10
7068.69597814597
 20
3915.885293841294
 30
0.0
 11
7418.695978145971
 21
3915.885293841294
 31
0.0
  0
LINE
  5
7FE
330
17
100
AcDbEntity
  8
SEIHIN
100
AcDbLine
 10
7418.695978145971
 20
3915.885293841294
 30
0.0
 11
7418.695978145971
 21
3924.885293841294
 31
0.0
  0
LINE
  5
7FF
330
17
100
AcDbEntity
  8
SEIHIN
100
AcDbLine
 10
7068.69597814597
 20
3924.885293841294
 30
0.0
 11
7418.695978145971
 21
3924.885293841294
 31
0.0
  0
LINE
  5
800
330
17
100
AcDbEntity
  8
SEIHIN
100
AcDbLine
 10
7068.69597814597
 20
3915.885293841294
 30
0.0
 11
7058.69597814597
 21
3915.885293841294
 31
0.0
  0
LINE
  5
801
330
17
100
AcDbEntity
  8
SEIHIN
100
AcDbLine
 10
7058.69597814597
 20
3915.885293841294
 30
0.0
 11
7042.097506974041
 21
3954.99632079107
 31
0.0
  0
LINE
  5
802
330
17
100
AcDbEntity
  8
SEIHIN
100
AcDbLine
 10
7042.097506974041
 20
3954.99632079107
 30
0.0
 11
7243.69597814597
 21
3954.99632079107
 31
0.0
  0
LINE
  5
803
330
17
100
AcDbEntity
  8
SUNPOU
100
AcDbLine
 10
7088.695978145971
 20
3939.885293841294
 30
0.0
 11
7128.695978145971
 21
3939.885293841294
 31
0.0
  0
LINE
  5
804
330
17
100
AcDbEntity
  8
SUNPOU
100
AcDbLine
 10
7098.695978145971
 20
3939.885293841294
 30
0.0
 11
7098.695978145971
 21
3904.996320791071
 31
0.0
  0
LINE
  5
805
330
17
100
AcDbEntity
  8
SUNPOU
100
AcDbLine
 10
7118.695978145971
 20
3939.885293841294
 30
0.0
 11
7118.695978145972
 21
3904.996320791071
 31
0.0
  0
LINE
  5
806
330
17
100
AcDbEntity
  8
SUNPOU
100
AcDbLine
 10
7158.695978145971
 20
3939.885293841294
 30
0.0
 11
7158.695978145971
 21
3904.996320791071
 31
0.0
  0
LINE
  5
807
330
17
100
AcDbEntity
  8
SUNPOU
100
AcDbLine
 10
7178.695978145971
 20
3939.885293841294
 30
0.0
 11
7178.695978145971
 21
3904.996320791071
 31
0.0
  0
LINE
  5
808
330
17
100
AcDbEntity
  8
SUNPOU
100
AcDbLine
 10
7308.695978145971
 20
3939.885293841294
 30
0.0
 11
7308.695978145971
 21
3915.885293841294
 31
0.0
  0
LINE
  5
809
330
17
100
AcDbEntity
  8
SUNPOU
100
AcDbLine
 10
7328.69597814597
 20
3939.885293841294
 30
0.0
 11
7328.69597814597
 21
3915.885293841294
 31
0.0
  0
LINE
  5
80A
330
17
100
AcDbEntity
  8
SUNPOU
100
AcDbLine
 10
7368.695978145972
 20
3939.885293841294
 30
0.0
 11
7368.695978145971
 21
3915.885293841294
 31
0.0
  0
LINE
  5
80B
330
17
100
AcDbEntity
  8
SUNPOU
100
AcDbLine
 10
7388.695978145971
 20
3939.885293841294
 30
0.0
 11
7388.695978145971
 21
3915.885293841294
 31
0.0
  0
LINE
  5
80C
330
17
100
AcDbEntity
  8
SUNPOU
100
AcDbLine
 10
7088.695978145971
 20
3939.885293841294
 30
0.0
 11
7088.695978145971
 21
3924.885293841294
 31
0.0
  0
LINE
  5
80D
330
17
100
AcDbEntity
  8
SUNPOU
100
AcDbLine
 10
7128.695978145971
 20
3939.885293841294
 30
0.0
 11
7128.695978145971
 21
3924.885293841294
 31
0.0
  0
LINE
  5
80E
330
17
100
AcDbEntity
  8
SUNPOU
100
AcDbLine
 10
7148.695978145971
 20
3939.885293841294
 30
0.0
 11
7148.69597814597
 21
3924.885293841294
 31
0.0
  0
LINE
  5
80F
330
17
100
AcDbEntity
  8
SUNPOU
100
AcDbLine
 10
7188.695978145971
 20
3939.885293841294
 30
0.0
 11
7188.695978145971
 21
3924.885293841294
 31
0.0
  0
LINE
  5
810
330
17
100
AcDbEntity
  8
SUNPOU
100
AcDbLine
 10
7298.695978145971
 20
3939.885293841294
 30
0.0
 11
7298.695978145971
 21
3924.885293841294
 31
0.0
  0
LINE
  5
811
330
17
100
AcDbEntity
  8
SUNPOU
100
AcDbLine
 10
7338.69597814597
 20
3939.885293841294
 30
0.0
 11
7338.69597814597
 21
3924.885293841294
 31
0.0
  0
LINE
  5
812
330
17
100
AcDbEntity
  8
SUNPOU
100
AcDbLine
 10
7358.695978145972
 20
3939.885293841294
 30
0.0
 11
7358.695978145971
 21
3924.885293841294
 31
0.0
  0
LINE
  5
813
330
17
100
AcDbEntity
  8
SUNPOU
100
AcDbLine
 10
7398.695978145971
 20
3939.885293841294
 30
0.0
 11
7398.695978145971
 21
3924.885293841294
 31
0.0
  0
LINE
  5
814
330
17
100
AcDbEntity
  8
SUNPOU
100
AcDbLine
 10
7148.695978145971
 20
3939.885293841294
 30
0.0
 11
7188.695978145971
 21
3939.885293841294
 31
0.0
  0
LINE
  5
815
330
17
100
AcDbEntity
  8
SUNPOU
100
AcDbLine
 10
7298.695978145971
 20
3939.885293841294
 30
0.0
 11
7338.69597814597
 21
3939.885293841294
 31
0.0
  0
LINE
  5
816
330
17
100
AcDbEntity
  8
SUNPOU
100
AcDbLine
 10
7358.695978145972
 20
3939.885293841294
 30
0.0
 11
7398.695978145971
 21
3939.885293841294
 31
0.0
  0
LINE
  5
81B
330
17
100
AcDbEntity
  8
SEIHIN
100
AcDbLine
 10
6328.633951813221
 20
5009.996320791071
 30
0.0
 11
6328.633951813219
 21
4659.996320791071
 31
0.0
  0
LINE
  5
81C
330
17
100
AcDbEntity
  8
SEIHIN
100
AcDbLine
 10
6328.633951813219
 20
4659.996320791071
 30
0.0
 11
6337.633951813219
 21
4659.996320791071
 31
0.0
  0
LINE
  5
81D
330
17
100
AcDbEntity
  8
SEIHIN
100
AcDbLine
 10
6337.633951813221
 20
5009.996320791071
 30
0.0
 11
6328.633951813221
 21
5009.996320791071
 31
0.0
  0
LINE
  5
81E
330
17
100
AcDbEntity
  8
SEIHIN
100
AcDbLine
 10
6337.633951813221
 20
5009.996320791071
 30
0.0
 11
6337.633951813219
 21
4659.996320791071
 31
0.0
  0
LINE
  5
81F
330
17
100
AcDbEntity
  8
SEIHIN
100
AcDbLine
 10
6328.633951813219
 20
4659.996320791071
 30
0.0
 11
6328.633951813219
 21
4649.996320791071
 31
0.0
  0
LINE
  5
820
330
17
100
AcDbEntity
  8
SEIHIN
100
AcDbLine
 10
6328.633951813219
 20
4649.996320791071
 30
0.0
 11
6363.695978145973
 21
4635.757957502574
 31
0.0
  0
LINE
  5
821
330
17
100
AcDbEntity
  8
SUNPOU
100
AcDbLine
 10
6352.633951813221
 20
4992.182438784616
 30
0.0
 11
6352.63395181322
 21
4952.182438784616
 31
0.0
  0
LINE
  5
822
330
17
100
AcDbEntity
  8
SUNPOU
100
AcDbLine
 10
6352.633951813221
 20
4982.182438784616
 30
0.0
 11
6313.695978145973
 21
4982.182438784616
 31
0.0
  0
LINE
  5
823
330
17
100
AcDbEntity
  8
SUNPOU
100
AcDbLine
 10
6352.633951813221
 20
4962.182438784616
 30
0.0
 11
6313.695978145973
 21
4962.182438784616
 31
0.0
  0
LINE
  5
824
330
17
100
AcDbEntity
  8
SUNPOU
100
AcDbLine
 10
6352.633951813221
 20
4992.182438784616
 30
0.0
 11
6337.633951813221
 21
4992.182438784616
 31
0.0
  0
LINE
  5
825
330
17
100
AcDbEntity
  8
SUNPOU
100
AcDbLine
 10
6352.633951813221
 20
4952.182438784616
 30
0.0
 11
6337.63395181322
 21
4952.182438784616
 31
0.0
  0
LINE
  5
826
330
17
100
AcDbEntity
  8
SUNPOU
100
AcDbLine
 10
6352.63395181322
 20
4922.182438784616
 30
0.0
 11
6313.695978145972
 21
4922.182438784616
 31
0.0
  0
LINE
  5
827
330
17
100
AcDbEntity
  8
SUNPOU
100
AcDbLine
 10
6352.633951813221
 20
4932.182438784616
 30
0.0
 11
6337.63395181322
 21
4932.182438784616
 31
0.0
  0
LINE
  5
828
330
17
100
AcDbEntity
  8
SUNPOU
100
AcDbLine
 10
6352.63395181322
 20
4902.182438784616
 30
0.0
 11
6313.695978145972
 21
4902.182438784616
 31
0.0
  0
LINE
  5
829
330
17
100
AcDbEntity
  8
SUNPOU
100
AcDbLine
 10
6352.63395181322
 20
4892.182438784616
 30
0.0
 11
6337.63395181322
 21
4892.182438784616
 31
0.0
  0
LINE
  5
82A
330
17
100
AcDbEntity
  8
SUNPOU
100
AcDbLine
 10
6352.63395181322
 20
4772.182438784616
 30
0.0
 11
6313.695978145972
 21
4772.182438784616
 31
0.0
  0
LINE
  5
82B
330
17
100
AcDbEntity
  8
SUNPOU
100
AcDbLine
 10
6352.63395181322
 20
4782.182438784616
 30
0.0
 11
6337.63395181322
 21
4782.182438784616
 31
0.0
  0
LINE
  5
82C
330
17
100
AcDbEntity
  8
SUNPOU
100
AcDbLine
 10
6352.633951813219
 20
4752.182438784616
 30
0.0
 11
6313.695978145972
 21
4752.182438784616
 31
0.0
  0
LINE
  5
82D
330
17
100
AcDbEntity
  8
SUNPOU
100
AcDbLine
 10
6352.633951813219
 20
4742.182438784616
 30
0.0
 11
6337.633951813219
 21
4742.182438784616
 31
0.0
  0
LINE
  5
82E
330
17
100
AcDbEntity
  8
SUNPOU
100
AcDbLine
 10
6352.633951813219
 20
4712.182438784616
 30
0.0
 11
6313.695978145972
 21
4712.182438784616
 31
0.0
  0
LINE
  5
82F
330
17
100
AcDbEntity
  8
SUNPOU
100
AcDbLine
 10
6352.633951813219
 20
4722.182438784616
 30
0.0
 11
6337.633951813219
 21
4722.182438784616
 31
0.0
  0
LINE
  5
830
330
17
100
AcDbEntity
  8
SUNPOU
100
AcDbLine
 10
6352.633951813219
 20
4692.182438784616
 30
0.0
 11
6313.695978145972
 21
4692.182438784616
 31
0.0
  0
LINE
  5
831
330
17
100
AcDbEntity
  8
SUNPOU
100
AcDbLine
 10
6352.633951813219
 20
4682.182438784616
 30
0.0
 11
6337.633951813219
 21
4682.182438784616
 31
0.0
  0
LINE
  5
832
330
17
100
AcDbEntity
  8
SUNPOU
100
AcDbLine
 10
6352.63395181322
 20
4932.182438784616
 30
0.0
 11
6352.63395181322
 21
4892.182438784616
 31
0.0
  0
LINE
  5
833
330
17
100
AcDbEntity
  8
SUNPOU
100
AcDbLine
 10
6352.63395181322
 20
4782.182438784616
 30
0.0
 11
6352.63395181322
 21
4742.182438784616
 31
0.0
  0
LINE
  5
834
330
17
100
AcDbEntity
  8
SUNPOU
100
AcDbLine
 10
6352.63395181322
 20
4722.182438784616
 30
0.0
 11
6352.633951813219
 21
4682.182438784616
 31
0.0
  0
LINE
  5
83A
330
17
100
AcDbEntity
  8
1HASEN
100
AcDbLine
 10
7226.018308616306
 20
4817.318651261406
 30
0.0
 11
8284.514131234935
 21
5875.814473880028
 31
0.0
  0
LINE
  5
83F
330
17
100
AcDbEntity
  8
SEIHIN
100
AcDbLine
 10
3867.96097767145
 20
6834.99632079107
 30
0.0
 11
3867.96097767145
 21
4834.99632079107
 31
0.0
  0
LINE
  5
840
330
17
100
AcDbEntity
  8
SEIHIN
100
AcDbLine
 10
3667.96097767145
 20
6834.99632079107
 30
0.0
 11
3667.96097767145
 21
4834.99632079107
 31
0.0
  0
LINE
  5
841
330
17
100
AcDbEntity
  8
SEIHIN
100
AcDbLine
 10
4047.96097767145
 20
6784.99632079107
 30
0.0
 11
3966.96097767145
 21
6784.99632079107
 31
0.0
  0
LINE
  5
842
330
17
100
AcDbEntity
  8
SEIHIN
100
AcDbLine
 10
4047.96097767145
 20
4884.99632079107
 30
0.0
 11
3966.96097767145
 21
4884.99632079107
 31
0.0
  0
LINE
  5
843
330
17
100
AcDbEntity
  8
SEIHIN
100
AcDbLine
 10
3966.96097767145
 20
6784.99632079107
 30
0.0
 11
3966.96097767145
 21
4884.996320791071
 31
0.0
  0
LINE
  5
844
330
17
100
AcDbEntity
  8
SEIHIN
100
AcDbLine
 10
3966.96097767145
 20
6784.99632079107
 30
0.0
 11
3867.96097767145
 21
6834.99632079107
 31
0.0
  0
LINE
  5
845
330
17
100
AcDbEntity
  8
SEIHIN
100
AcDbLine
 10
3966.96097767145
 20
4884.996320791071
 30
0.0
 11
3867.96097767145
 21
4834.99632079107
 31
0.0
  0
SOLID
  5
847
330
17
100
AcDbEntity
  8
SUNPOU
100
AcDbTrace
 10
3289.995925135061
 20
5358.010140694679
 30
0.0
 11
3282.480848852265
 21
5346.996448932081
 31
0.0
 12
3319.279462281459
 22
5329.958065964991
 32
0.0
 13
3319.279462281459
 23
5329.958065964991
 33
0.0
  0
LINE
  5
848
330
17
100
AcDbEntity
  8
SUNPOU
100
AcDbLine
 10
3286.238386993664
 20
5352.50329481338
 30
0.0
 11
3000.239675030827
 21
5547.651496116874
 31
0.0
  0
LINE
  5
849
330
17
100
AcDbEntity
  8
SUNPOU
100
AcDbLine
 10
3000.239675030827
 20
5547.651496116874
 30
0.0
 11
3000.239675030827
 21
5959.87948087257
 31
0.0
  0
TEXT
  5
84A
330
17
100
AcDbEntity
  8
SUNPOU
100
AcDbText
 10
2948.239675030827
 20
5060.89769486348
 30
0.0
 40
60.0
  1
   
  7
A
100
AcDbText
  0
TEXT
  5
84B
330
17
100
AcDbEntity
  8
SUNPOU
100
AcDbText
 10
2972.497084835119
 20
5607.864572541864
 30
0.0
 40
60.0
  1
水抜き穴
 50
90.0
  7
A
100
AcDbText
  0
TEXT
  5
84C
330
17
100
AcDbEntity
  8
SUNPOU
100
AcDbText
 10
2936.794013595641
 20
3974.143023889141
 30
0.0
 40
60.0
  1
   
  7
A
100
AcDbText
  0
TEXT
  5
851
330
17
100
AcDbEntity
  8
SUNPOU
100
AcDbText
 10
7282.681355339049
 20
3663.752965077905
 30
0.0
 40
60.0
  1
   
  7
A
100
AcDbText
  0
DIMENSION
  5
852
330
17
100
AcDbEntity
  8
SUNPOU
100
AcDbDimension
  2
*D26
 10
7243.69597814597
 20
3032.765171194501
 30
0.0
 11
6743.69597814597
 21
3092.765171194501
 31
0.0
 12
0.0
 22
1128.148115722516
 32
0.0
 70
   128
 71
     5
 42
-1.0
100
AcDbAlignedDimension
 13
6243.69597814597
 23
3859.996320791071
 33
0.0
 14
7243.69597814597
 24
3834.99632079107
 34
0.0
100
AcDbRotatedDimension
1001
ACAD_DSTYLE_DIMARC_LENGTH_SYMBOL
1070
   379
1070
     0
1001
ACAD_DSTYLE_DIMJOGGED_JOGANGLE_SYMBOL
1070
   384
1040
0.7853981633974483
1001
ACAD_DSTYLE_DIMTEXT_FILL
1070
   376
1070
     0
1001
ACAD_DSTYLE_DIMEXT_ENABLED
1070
   383
1070
     0
1001
ACAD_DSTYLE_DIMEXT_LENGTH
1070
   378
1040
1.0
1001
ACAD_DSTYLE_DIM_LINETYPE
1070
   380
1005
0
1001
ACAD_DSTYLE_DIM_EXT1_LINETYPE
1070
   381
1005
0
1001
ACAD_DSTYLE_DIM_EXT2_LINETYPE
1070
   382
1005
0
  0
DIMENSION
  5
853
330
17
100
AcDbEntity
  8
SUNPOU
100
AcDbDimension
  2
*D25
 10
9243.69597814597
 20
3032.7651711945
 30
0.0
 11
8243.69597814597
 21
3092.7651711945
 31
0.0
 12
0.0
 22
1128.148115722516
 32
0.0
 70
   128
 71
     5
 42
-1.0
100
AcDbAlignedDimension
 13
7243.69597814597
 23
3834.99632079107
 33
0.0
 14
9243.69597814597
 24
3834.99632079107
 34
0.0
100
AcDbRotatedDimension
1001
ACAD_DSTYLE_DIMARC_LENGTH_SYMBOL
1070
   379
1070
     0
1001
ACAD_DSTYLE_DIMJOGGED_JOGANGLE_SYMBOL
1070
   384
1040
0.7853981633974483
1001
ACAD_DSTYLE_DIMTEXT_FILL
1070
   376
1070
     0
1001
ACAD_DSTYLE_DIMEXT_ENABLED
1070
   383
1070
     0
1001
ACAD_DSTYLE_DIMEXT_LENGTH
1070
   378
1040
1.0
1001
ACAD_DSTYLE_DIM_LINETYPE
1070
   380
1005
0
1001
ACAD_DSTYLE_DIM_EXT1_LINETYPE
1070
   381
1005
0
1001
ACAD_DSTYLE_DIM_EXT2_LINETYPE
1070
   382
1005
0
  0
DIMENSION
  5
85B
330
17
100
AcDbEntity
  8
SUNPOU
100
AcDbDimension
  2
*D27
 10
5255.966578387869
 20
4834.996320791071
 30
0.0
 11
5195.966578387869
 21
4334.99632079107
 31
0.0
 12
0.0
 22
1128.148115722516
 32
0.0
 71
     5
 42
-1.0
100
AcDbAlignedDimension
 13
6268.69597814597
 23
3834.996320791069
 33
0.0
 14
6243.695978145973
 24
4834.996320791071
 34
0.0
 50
90.0
100
AcDbRotatedDimension
1001
ACAD_DSTYLE_DIMARC_LENGTH_SYMBOL
1070
   379
1070
     0
1001
ACAD_DSTYLE_DIMJOGGED_JOGANGLE_SYMBOL
1070
   384
1040
0.7853981633974483
1001
ACAD_DSTYLE_DIMTEXT_FILL
1070
   376
1070
     0
1001
ACAD_DSTYLE_DIMEXT_ENABLED
1070
   383
1070
     0
1001
ACAD_DSTYLE_DIMEXT_LENGTH
1070
   378
1040
1.0
1001
ACAD_DSTYLE_DIM_LINETYPE
1070
   380
1005
0
1001
ACAD_DSTYLE_DIM_EXT1_LINETYPE
1070
   381
1005
0
1001
ACAD_DSTYLE_DIM_EXT2_LINETYPE
1070
   382
1005
0
  0
DIMENSION
  5
85C
330
17
100
AcDbEntity
  8
SUNPOU
100
AcDbDimension
  2
*D28
 10
5255.966578387869
 20
6834.996320791071
 30
0.0
 11
5195.966578387869
 21
5834.996320791071
 31
0.0
 12
0.0
 22
1128.148115722516
 32
0.0
 71
     5
 42
-1.0
100
AcDbAlignedDimension
 13
6243.695978145973
 23
4834.996320791071
 33
0.0
 14
6243.695978145973
 24
6834.996320791071
 34
0.0
 50
90.0
100
AcDbRotatedDimension
1001
ACAD_DSTYLE_DIMARC_LENGTH_SYMBOL
1070
   379
1070
     0
1001
ACAD_DSTYLE_DIMJOGGED_JOGANGLE_SYMBOL
1070
   384
1040
0.7853981633974483
1001
ACAD_DSTYLE_DIMTEXT_FILL
1070
   376
1070
     0
1001
ACAD_DSTYLE_DIMEXT_ENABLED
1070
   383
1070
     0
1001
ACAD_DSTYLE_DIMEXT_LENGTH
1070
   378
1040
1.0
1001
ACAD_DSTYLE_DIM_LINETYPE
1070
   380
1005
0
1001
ACAD_DSTYLE_DIM_EXT1_LINETYPE
1070
   381
1005
0
1001
ACAD_DSTYLE_DIM_EXT2_LINETYPE
1070
   382
1005
0
  0
TEXT
  5
86F
330
17
100
AcDbEntity
  8
SUNPOU
100
AcDbText
 10
8825.500345753597
 20
3618.119712766431
 30
0.0
 40
60.0
  1
    
  7
A
100
AcDbText
  0
TEXT
  5
870
330
17
100
AcDbEntity
  8
SUNPOU
100
AcDbText
 10
8825.500345753597
 20
3618.119712766431
 30
0.0
 40
60.0
  1
    
  7
A
100
AcDbText
  0
DIMENSION
  5
871
330
17
100
AcDbEntity
  8
SUNPOU
100
AcDbDimension
  2
*D40
 10
4898.032434938416
 20
4834.99632079107
 30
0.0
 11
4838.032434938416
 21
5834.99632079107
 31
0.0
 12
0.0
 22
1128.148115722516
 32
0.0
 71
     5
 42
-1.0
100
AcDbAlignedDimension
 13
4047.96097767145
 23
6834.99632079107
 33
0.0
 14
4047.96097767145
 24
4834.99632079107
 34
0.0
 50
90.0
100
AcDbRotatedDimension
1001
ACAD_DSTYLE_DIMARC_LENGTH_SYMBOL
1070
   379
1070
     0
1001
ACAD_DSTYLE_DIMJOGGED_JOGANGLE_SYMBOL
1070
   384
1040
0.7853981633974483
1001
ACAD_DSTYLE_DIMTEXT_FILL
1070
   376
1070
     0
1001
ACAD_DSTYLE_DIMEXT_ENABLED
1070
   383
1070
     0
1001
ACAD_DSTYLE_DIMEXT_LENGTH
1070
   378
1040
1.0
1001
ACAD_DSTYLE_DIM_LINETYPE
1070
   380
1005
0
1001
ACAD_DSTYLE_DIM_EXT1_LINETYPE
1070
   381
1005
0
1001
ACAD_DSTYLE_DIM_EXT2_LINETYPE
1070
   382
1005
0
  0
CIRCLE
  5
87A
330
17
100
AcDbEntity
  8
SUNPOU
100
AcDbCircle
 10
3347.960977671449
 20
4969.996320791069
 30
0.0
 40
15.0
  0
CIRCLE
  5
87B
330
17
100
AcDbEntity
  8
SUNPOU
100
AcDbCircle
 10
3347.960977671449
 20
4909.996320791069
 30
0.0
 40
15.0
  0
CIRCLE
  5
87C
330
17
100
AcDbEntity
  8
SUNPOU
100
AcDbCircle
 10
3347.960977671449
 20
4759.996320791069
 30
0.0
 40
15.0
  0
CIRCLE
  5
87D
330
17
100
AcDbEntity
  8
SUNPOU
100
AcDbCircle
 10
3347.960977671449
 20
4699.99632079107
 30
0.0
 40
15.0
  0
CIRCLE
  5
87E
330
17
100
AcDbEntity
  8
SUNPOU
100
AcDbCircle
 10
2347.96097767145
 20
4969.99632079107
 30
0.0
 40
15.0
  0
CIRCLE
  5
87F
330
17
100
AcDbEntity
  8
SUNPOU
100
AcDbCircle
 10
2347.96097767145
 20
4909.996320791069
 30
0.0
 40
15.0
  0
CIRCLE
  5
880
330
17
100
AcDbEntity
  8
SUNPOU
100
AcDbCircle
 10
2347.96097767145
 20
4759.996320791069
 30
0.0
 40
15.0
  0
CIRCLE
  5
881
330
17
100
AcDbEntity
  8
SUNPOU
100
AcDbCircle
 10
2347.96097767145
 20
4699.996320791071
 30
0.0
 40
15.0
  0
LINE
  5
882
330
17
100
AcDbEntity
  8
SEIHIN
100
AcDbLine
 10
4047.96097767145
 20
756.0872754162879
 30
0.0
 11
1297.96097767145
 21
756.0872754162883
 31
0.0
  0
LINE
  5
883
330
17
100
AcDbEntity
  8
SEIHIN
100
AcDbLine
 10
4047.960977671449
 20
1756.087275416288
 30
0.0
 11
4047.96097767145
 21
756.0872754162879
 31
0.0
  0
LINE
  5
884
330
17
100
AcDbEntity
  8
SEIHIN
100
AcDbLine
 10
3927.216452124004
 20
1756.087275416288
 30
0.0
 11
3827.96097767145
 21
1756.087275416288
 31
0.0
  0
LINE
  5
885
330
17
100
AcDbEntity
  8
SEIHIN
100
AcDbLine
 10
3827.96097767145
 20
1756.087275416288
 30
0.0
 11
3827.96097767145
 21
1276.087275416288
 31
0.0
  0
LINE
  5
886
330
17
100
AcDbEntity
  8
SEIHIN
100
AcDbLine
 10
1297.96097767145
 20
756.0872754162883
 30
0.0
 11
1297.96097767145
 21
826.0872754162883
 31
0.0
  0
LINE
  5
887
330
17
100
AcDbEntity
  8
SEIHIN
100
AcDbLine
 10
1347.96097767145
 20
826.0872754162883
 30
0.0
 11
1347.96097767145
 21
876.0872754162883
 31
0.0
  0
LINE
  5
888
330
17
100
AcDbEntity
  8
SEIHIN
100
AcDbLine
 10
1297.96097767145
 20
826.0872754162883
 30
0.0
 11
1347.96097767145
 21
826.0872754162883
 31
0.0
  0
LINE
  5
88A
330
17
100
AcDbEntity
  8
SEIHIN
100
AcDbLine
 10
3861.380571323287
 20
1407.549193458678
 30
0.0
 11
3827.96097767145
 21
1401.087275416288
 31
0.0
  0
LINE
  5
88B
330
17
100
AcDbEntity
  8
SEIHIN
100
AcDbLine
 10
3868.788813770948
 20
1503.192920581467
 30
0.0
 11
3827.96097767145
 21
1511.087275416288
 31
0.0
  0
LINE
  5
892
330
17
100
AcDbEntity
  8
HASEN
100
AcDbLine
 10
3334.963746446829
 20
969.2182584456057
 30
0.0
 11
3341.575826716006
 21
854.4085010444426
 31
0.0
  0
LINE
  5
893
330
17
100
AcDbEntity
  8
HASEN
100
AcDbLine
 10
3354.930660777466
 20
970.3681854489408
 30
0.0
 11
3361.542741046643
 21
855.5584280477776
 31
0.0
  0
LINE
  5
894
330
17
100
AcDbEntity
  8
SUNPOU
100
AcDbLine
 10
3324.076244895193
 20
969.5495428140614
 30
0.0
 11
3324.938690147695
 21
954.5743570660836
 31
0.0
  0
LINE
  5
895
330
17
100
AcDbEntity
  8
SUNPOU
100
AcDbLine
 10
3364.010073556468
 20
971.8493968207316
 30
0.0
 11
3364.872518808969
 21
956.8742110727538
 31
0.0
  0
LINE
  5
896
330
17
100
AcDbEntity
  8
SUNPOU
100
AcDbLine
 10
3324.076244895193
 20
969.5495428140613
 30
0.0
 11
3364.010073556468
 21
971.8493968207316
 31
0.0
  0
LINE
  5
897
330
17
100
AcDbEntity
  8
HASEN
100
AcDbLine
 10
3341.575826716006
 20
854.4085010444426
 30
0.0
 11
3361.542741046643
 21
855.5584280477776
 31
0.0
  0
LINE
  5
898
330
17
100
AcDbEntity
  8
SEIHIN
100
AcDbLine
 10
3315.341810217193
 20
952.7918902976947
 30
0.0
 11
3375.242553209103
 21
956.2416713077
 31
0.0
  0
LINE
  5
899
330
17
100
AcDbEntity
  8
SUNPOU
100
AcDbLine
 10
2341.497506112593
 20
808.0204587734821
 30
0.0
 11
2361.46442044323
 21
809.1703857768173
 31
0.0
  0
LINE
  5
89B
330
17
100
AcDbEntity
  8
HASEN
100
AcDbLine
 10
2336.107641920876
 20
904.8599932770721
 30
0.0
 11
2341.684787887051
 21
808.0204587734821
 31
0.0
  0
LINE
  5
89C
330
17
100
AcDbEntity
  8
SUNPOU
100
AcDbLine
 10
2326.124184755557
 20
904.2850297754046
 30
0.0
 11
2326.986630008058
 21
889.3098440274266
 31
0.0
  0
LINE
  5
89D
330
17
100
AcDbEntity
  8
HASEN
100
AcDbLine
 10
2356.074556251513
 20
906.0099202804072
 30
0.0
 11
2361.651702217689
 21
809.1703857768174
 31
0.0
  0
LINE
  5
89E
330
17
100
AcDbEntity
  8
SUNPOU
100
AcDbLine
 10
2366.058013416832
 20
906.5848837820748
 30
0.0
 11
2366.920458669333
 21
891.6096980340969
 31
0.0
  0
LINE
  5
89F
330
17
100
AcDbEntity
  8
SEIHIN
100
AcDbLine
 10
2317.00317284274
 20
888.7348805257591
 30
0.0
 11
2376.903915834651
 21
892.1846615357645
 31
0.0
  0
LINE
  5
8A0
330
17
100
AcDbEntity
  8
SUNPOU
100
AcDbLine
 10
2326.124184755557
 20
904.2850297754045
 30
0.0
 11
2366.058013416832
 21
906.5848837820747
 31
0.0
  0
LINE
  5
8A1
330
17
100
AcDbEntity
  8
SEIHIN
100
AcDbLine
 10
2316.815891068282
 20
888.7348805257591
 30
0.0
 11
2317.218365519449
 21
881.7464605100362
 31
0.0
  0
LINE
  5
8A2
330
17
100
AcDbEntity
  8
SEIHIN
100
AcDbLine
 10
2376.903915834651
 20
892.1846615357645
 30
0.0
 11
2377.305771164057
 21
885.2069917251706
 31
0.0
  0
DIMENSION
  5
8AB
330
17
100
AcDbEntity
  8
SUNPOU
100
AcDbDimension
  2
*D88
 10
4047.96097767145
 20
174.0016302637777
 30
0.0
 11
2672.96097767145
 21
234.0016302637777
 31
0.0
 71
     5
 42
-1.0
100
AcDbAlignedDimension
 13
1297.96097767145
 23
756.0872754162883
 33
0.0
 14
4047.96097767145
 24
756.0872754162879
 34
0.0
100
AcDbRotatedDimension
1001
ACAD_DSTYLE_DIMARC_LENGTH_SYMBOL
1070
   379
1070
     0
1001
ACAD_DSTYLE_DIMJOGGED_JOGANGLE_SYMBOL
1070
   384
1040
0.7853981633974483
1001
ACAD_DSTYLE_DIMTEXT_FILL
1070
   376
1070
     0
1001
ACAD_DSTYLE_DIMEXT_ENABLED
1070
   383
1070
     0
1001
ACAD_DSTYLE_DIMEXT_LENGTH
1070
   378
1040
1.0
1001
ACAD_DSTYLE_DIM_LINETYPE
1070
   380
1005
0
1001
ACAD_DSTYLE_DIM_EXT1_LINETYPE
1070
   381
1005
0
1001
ACAD_DSTYLE_DIM_EXT2_LINETYPE
1070
   382
1005
0
  0
LINE
  5
8AF
330
17
100
AcDbEntity
  8
HASEN
100
AcDbLine
 10
3927.216452124004
 20
1756.087275416288
 30
0.0
 11
4047.960977671449
 21
1756.087275416288
 31
0.0
  0
DIMENSION
  5
8B0
330
17
100
AcDbEntity
  8
SUNPOU
100
AcDbDimension
  2
*D52
 10
4839.255193011264
 20
756.0872754162878
 30
0.0
 11
4779.255193011264
 21
1256.087275416288
 31
0.0
 71
     5
 42
-1.0
100
AcDbAlignedDimension
 13
4047.96097767145
 23
1756.087275416288
 33
0.0
 14
4047.96097767145
 24
756.0872754162879
 34
0.0
 50
90.0
100
AcDbRotatedDimension
1001
ACAD_DSTYLE_DIMARC_LENGTH_SYMBOL
1070
   379
1070
     0
1001
ACAD_DSTYLE_DIMJOGGED_JOGANGLE_SYMBOL
1070
   384
1040
0.7853981633974483
1001
ACAD_DSTYLE_DIMTEXT_FILL
1070
   376
1070
     0
1001
ACAD_DSTYLE_DIMEXT_ENABLED
1070
   383
1070
     0
1001
ACAD_DSTYLE_DIMEXT_LENGTH
1070
   378
1040
1.0
1001
ACAD_DSTYLE_DIM_LINETYPE
1070
   380
1005
0
1001
ACAD_DSTYLE_DIM_EXT1_LINETYPE
1070
   381
1005
0
1001
ACAD_DSTYLE_DIM_EXT2_LINETYPE
1070
   382
1005
0
  0
TEXT
  5
92F
330
17
100
AcDbEntity
  8
SUNPOU
100
AcDbText
 10
3524.644095239569
 20
2212.364667320421
 30
0.0
 40
60.0
  1
    
  7
A
100
AcDbText
  0
TEXT
  5
933
330
17
100
AcDbEntity
  8
SUNPOU
100
AcDbText
 10
3244.234773003313
 20
2345.418627070887
 30
0.0
 40
60.0
  1
   
  7
A
100
AcDbText
  0
LINE
  5
939
330
17
100
AcDbEntity
  8
SEIHIN
100
AcDbLine
 10
7193.695978145971
 20
4784.996320791071
 30
0.0
 11
6763.695978145971
 21
4834.99632079107
 31
0.0
  0
LINE
  5
93A
330
17
100
AcDbEntity
  8
SEIHIN
100
AcDbLine
 10
7193.69597814597
 20
4784.996320791071
 30
0.0
 11
7243.69597814597
 21
4354.996320791071
 31
0.0
  0
TEXT
  5
93B
330
17
100
AcDbEntity
  8
SUNPOU
100
AcDbText
 10
1610.152116053044
 20
5526.131554257222
 30
0.0
 40
60.0
  1
    
  7
A
100
AcDbText
  0
TEXT
  5
940
330
17
100
AcDbEntity
  8
SUNPOU
100
AcDbText
 10
6870.359077442125
 20
6080.663573305476
 30
0.0
 40
60.0
  1
デザインウォールコーナー左
  7
A
100
AcDbText
  0
TEXT
  5
945
330
17
100
AcDbEntity
  8
SUNPOU
100
AcDbText
 10
8005.237653085625
 20
4828.51258479909
 30
0.0
 40
60.0
  1
デザインウォールコーナー右
  7
A
100
AcDbText
  0
TEXT
  5
94A
330
17
100
AcDbEntity
  8
SUNPOU
100
AcDbText
 10
6144.556969247275
 20
4192.845207494595
 30
0.0
 40
60.0
  1
デザインウォールコーナー
  7
A
100
AcDbText
  0
LINE
  5
950
330
17
100
AcDbEntity
  8
SEIHIN
100
AcDbLine
 10
3827.960977671449
 20
1756.087275416288
 30
0.0
 11
3827.960977671449
 21
1253.155781962711
 31
0.0
  0
LINE
  5
951
330
17
100
AcDbEntity
  8
SEIHIN
100
AcDbLine
 10
3315.341810217193
 20
952.7918902976947
 30
0.0
 11
3315.859277368694
 21
943.8067788489082
 31
0.0
  0
LINE
  5
952
330
17
100
AcDbEntity
  8
SEIHIN
100
AcDbLine
 10
3375.242553209103
 20
956.2416713077
 30
0.0
 11
3375.760020360604
 21
947.2565598589134
 31
0.0
  0
LINE
  5
954
330
17
100
AcDbEntity
  8
SEIHIN
100
AcDbLine
 10
3927.216452124004
 20
4835.087275416288
 30
0.0
 11
3827.96097767145
 21
4835.087275416288
 31
0.0
  0
LINE
  5
955
330
17
100
AcDbEntity
  8
SEIHIN
100
AcDbLine
 10
1347.96097767145
 20
876.0872754162883
 30
0.0
 11
2247.96097767145
 21
876.0872754162883
 31
0.0
  0
LINE
  5
957
330
17
100
AcDbEntity
  8
HASEN
100
AcDbLine
 10
3938.472702336902
 20
1439.799326502112
 30
0.0
 11
3839.825218795519
 21
1448.146421263306
 31
0.0
  0
LINE
  5
958
330
17
100
AcDbEntity
  8
SUNPOU
100
AcDbLine
 10
3853.92866632591
 20
1436.917317658945
 30
0.0
 11
3838.98207791055
 21
1438.182028986399
 31
0.0
  0
LINE
  5
959
330
17
100
AcDbEntity
  8
HASEN
100
AcDbLine
 10
3940.158984106841
 20
1459.728111055927
 30
0.0
 11
3841.511500565457
 21
1468.075205817121
 31
0.0
  0
LINE
  5
95A
330
17
100
AcDbEntity
  8
SUNPOU
100
AcDbLine
 10
3857.301229865786
 20
1476.774886766575
 30
0.0
 11
3842.354641450426
 21
1478.039598094029
 31
0.0
  0
LINE
  5
95B
330
17
100
AcDbEntity
  8
HASEN
100
AcDbLine
 10
3938.472702336903
 20
1439.799326502112
 30
0.0
 11
3940.158984106841
 21
1459.728111055927
 31
0.0
  0
LINE
  5
95C
330
17
100
AcDbEntity
  8
SEIHIN
100
AcDbLine
 10
3853.085525440941
 20
1426.952925382038
 30
0.0
 11
3858.144370750756
 21
1486.739279043483
 31
0.0
  0
LINE
  5
95D
330
17
100
AcDbEntity
  8
SUNPOU
100
AcDbLine
 10
3838.982077910549
 20
1438.182028986399
 30
0.0
 11
3842.354641450426
 21
1478.039598094029
 31
0.0
  0
LINE
  5
95E
330
17
100
AcDbEntity
  8
SEIHIN
100
AcDbLine
 10
3862.053478490158
 20
1426.194098585565
 30
0.0
 11
3853.085525440941
 21
1426.952925382037
 31
0.0
  0
LINE
  5
95F
330
17
100
AcDbEntity
  8
SEIHIN
100
AcDbLine
 10
3867.112323799973
 20
1485.98045224701
 30
0.0
 11
3858.144370750756
 21
1486.739279043482
 31
0.0
  0
LINE
  5
960
330
17
100
AcDbEntity
  8
SEIHIN
100
AcDbLine
 10
2247.96097767145
 20
876.0872754162883
 30
0.0
 11
3507.690707401179
 21
955.8170051460178
 31
0.0
  0
LINE
  5
961
330
17
100
AcDbEntity
  8
SEIHIN
100
AcDbLine
 10
1347.96097767145
 20
3955.087275416288
 30
0.0
 11
2247.96097767145
 21
3955.087275416288
 31
0.0
  0
LINE
  5
962
330
17
100
AcDbEntity
  8
SEIHIN
100
AcDbLine
 10
2247.96097767145
 20
3955.087275416288
 30
0.0
 11
3527.96097767145
 21
4036.099933644135
 31
0.0
  0
LINE
  5
963
330
17
100
AcDbEntity
  8
SEIHIN
100
AcDbLine
 10
3827.960977671449
 20
4835.087275416287
 30
0.0
 11
3827.960977671449
 21
4355.087275416287
 31
0.0
  0
LINE
  5
964
330
17
100
AcDbEntity
  8
SEIHIN
100
AcDbLine
 10
3927.216452124004
 20
4835.087275416287
 30
0.0
 11
3827.96097767145
 21
4835.087275416287
 31
0.0
  0
LINE
  5
965
330
17
100
AcDbEntity
  8
SEIHIN
100
AcDbLine
 10
3827.96097767145
 20
6834.99632079107
 30
0.0
 11
3827.96097767145
 21
4355.087275416287
 31
0.0
  0
DIMENSION
  5
966
330
17
100
AcDbEntity
  8
SUNPOU
100
AcDbDimension
  2
*D84
 10
3527.960977671449
 20
4387.11517956629
 30
0.0
 11
3677.960977671449
 21
4447.11517956629
 31
0.0
 71
     5
 42
-1.0
100
AcDbAlignedDimension
 13
3827.960977671449
 23
4054.99632079107
 33
0.0
 14
3527.960977671449
 24
4054.99632079107
 34
0.0
100
AcDbRotatedDimension
1001
ACAD_DSTYLE_DIMARC_LENGTH_SYMBOL
1070
   379
1070
     0
1001
ACAD_DSTYLE_DIMJOGGED_JOGANGLE_SYMBOL
1070
   384
1040
0.7853981633974483
1001
ACAD_DSTYLE_DIMTEXT_FILL
1070
   376
1070
     0
1001
ACAD_DSTYLE_DIMEXT_ENABLED
1070
   383
1070
     0
1001
ACAD_DSTYLE_DIMEXT_LENGTH
1070
   378
1040
1.0
1001
ACAD_DSTYLE_DIM_LINETYPE
1070
   380
1005
0
1001
ACAD_DSTYLE_DIM_EXT1_LINETYPE
1070
   381
1005
0
1001
ACAD_DSTYLE_DIM_EXT2_LINETYPE
1070
   382
1005
0
  0
DIMENSION
  5
967
330
17
100
AcDbEntity
  8
SUNPOU
100
AcDbDimension
  2
*D85
 10
3341.346311608428
 20
4354.99632079107
 30
0.0
 11
3281.346311608428
 21
4204.99632079107
 31
0.0
 71
     5
 42
-1.0
100
AcDbAlignedDimension
 13
3827.960977671449
 23
4054.99632079107
 33
0.0
 14
3827.960977671449
 24
4354.99632079107
 34
0.0
 50
90.0
100
AcDbRotatedDimension
1001
ACAD_DSTYLE_DIMARC_LENGTH_SYMBOL
1070
   379
1070
     0
1001
ACAD_DSTYLE_DIMJOGGED_JOGANGLE_SYMBOL
1070
   384
1040
0.7853981633974483
1001
ACAD_DSTYLE_DIMTEXT_FILL
1070
   376
1070
     0
1001
ACAD_DSTYLE_DIMEXT_ENABLED
1070
   383
1070
     0
1001
ACAD_DSTYLE_DIMEXT_LENGTH
1070
   378
1040
1.0
1001
ACAD_DSTYLE_DIM_LINETYPE
1070
   380
1005
0
1001
ACAD_DSTYLE_DIM_EXT1_LINETYPE
1070
   381
1005
0
1001
ACAD_DSTYLE_DIM_EXT2_LINETYPE
1070
   382
1005
0
  0
LINE
  5
968
330
17
100
AcDbEntity
  8
SEIHIN
100
AcDbLine
 10
3527.96097767145
 20
4036.099933644135
 30
0.0
 11
3827.960977671449
 21
4355.087275416287
 31
0.0
  0
DIMENSION
  5
96A
330
17
100
AcDbEntity
  8
SUNPOU
100
AcDbDimension
  2
*D86
 10
1347.96097767145
 20
4188.910000229675
 30
0.0
 11
1212.403198899899
 21
4248.910000229675
 31
0.0
 12
-500.0
 22
0.0
 32
0.0
 70
   128
 71
     5
 42
-1.0
100
AcDbAlignedDimension
 13
1297.96097767145
 23
4188.910000229675
 33
0.0
 14
1347.96097767145
 24
4188.910000229675
 34
0.0
100
AcDbRotatedDimension
1001
ACAD_DSTYLE_DIMARC_LENGTH_SYMBOL
1070
   379
1070
     0
1001
ACAD_DSTYLE_DIMJOGGED_JOGANGLE_SYMBOL
1070
   384
1040
0.7853981633974483
1001
ACAD_DSTYLE_DIMTEXT_FILL
1070
   376
1070
     0
1001
ACAD_DSTYLE_DIMEXT_ENABLED
1070
   383
1070
     0
1001
ACAD_DSTYLE_DIMEXT_LENGTH
1070
   378
1040
1.0
1001
ACAD_DSTYLE_DIM_LINETYPE
1070
   380
1005
0
1001
ACAD_DSTYLE_DIM_EXT1_LINETYPE
1070
   381
1005
0
1001
ACAD_DSTYLE_DIM_EXT2_LINETYPE
1070
   382
1005
0
  0
LINE
  5
96C
330
17
100
AcDbEntity
  8
HASEN
100
AcDbLine
 10
3874.99245413661
 20
4516.803402950241
 30
0.0
 11
3874.208202796825
 21
4556.795714084207
 31
0.0
  0
LINE
  5
96D
330
17
100
AcDbEntity
  8
HASEN
100
AcDbLine
 10
3828.670333483434
 20
4585.906404291756
 30
0.0
 11
3843.667450158671
 21
4586.200498544174
 31
0.0
  0
LINE
  5
96E
330
17
100
AcDbEntity
  8
HASEN
100
AcDbLine
 10
3830.630961832896
 20
4485.925626456837
 30
0.0
 11
3845.628078508133
 21
4486.219720709257
 31
0.0
  0
ARC
  5
96F
330
17
100
AcDbEntity
  8
HASEN
100
AcDbCircle
 10
3844.998220786134
 20
4516.2152144454
 30
0.0
 40
30.0
100
AcDbArc
 50
271.123429279578
 51
1.123429279578201
  0
ARC
  5
970
330
17
100
AcDbEntity
  8
HASEN
100
AcDbCircle
 10
3844.213969446349
 20
4556.207525579368
 30
0.0
 40
30.0
100
AcDbArc
 50
1.123429279578404
 51
91.12342927957803
  0
TEXT
  5
974
330
17
100
AcDbEntity
  8
SUNPOU
100
AcDbText
 10
1165.300105875949
 20
3259.493618294126
 30
0.0
 40
60.0
  1
    
  7
A
100
AcDbText
  0
LINE
  5
977
330
17
100
AcDbEntity
  8
1HASEN
100
AcDbLine
 10
6763.695978145965
 20
4834.996320791071
 30
0.0
 11
7243.695978145972
 21
4834.996320791071
 31
0.0
  0
LINE
  5
978
330
17
100
AcDbEntity
  8
1HASEN
100
AcDbLine
 10
7243.69597814597
 20
4354.996320791072
 30
0.0
 11
7243.69597814597
 21
4834.996320791071
 31
0.0
  0
TEXT
  5
979
330
17
100
AcDbEntity
  8
SUNPOU
100
AcDbText
 10
7475.274507950128
 20
4996.571921573919
 30
0.0
 40
60.0
  1
    
  7
A
100
AcDbText
  0
LINE
  5
97A
330
17
100
AcDbEntity
  8
SEIHIN
100
AcDbLine
 10
4047.960977671449
 20
1756.087275416288
 30
0.0
 11
4047.960977671449
 21
2706.087275416288
 31
0.0
  0
LINE
  5
97B
330
17
100
AcDbEntity
  8
SEIHIN
100
AcDbLine
 10
4047.960977671449
 20
2706.087275416288
 30
0.0
 11
3961.960977671449
 21
2706.087275416288
 31
0.0
  0
LINE
  5
97C
330
17
100
AcDbEntity
  8
SEIHIN
100
AcDbLine
 10
1347.96097767145
 20
826.0872754162883
 30
0.0
 11
1457.96097767145
 21
826.0872754162883
 31
0.0
  0
LINE
  5
97D
330
17
100
AcDbEntity
  8
SEIHIN
100
AcDbLine
 10
1457.96097767145
 20
826.0872754162883
 30
0.0
 11
3527.96097767145
 21
957.0999336441362
 31
0.0
  0
LINE
  5
97E
330
17
100
AcDbEntity
  8
SEIHIN
100
AcDbLine
 10
3851.197971891102
 20
1276.087275416288
 30
0.0
 11
3961.960977671449
 21
2706.087275416288
 31
0.0
  0
LINE
  5
97F
330
17
100
AcDbEntity
  8
SEIHIN
100
AcDbLine
 10
3527.96097767145
 20
957.0999336441362
 30
0.0
 11
3851.197971891102
 21
1276.087275416288
 31
0.0
  0
LINE
  5
987
330
17
100
AcDbEntity
  8
SEIHIN
100
AcDbLine
 10
3868.788813770948
 20
4582.192920581468
 30
0.0
 11
3827.96097767145
 21
4590.087275416288
 31
0.0
  0
LINE
  5
988
330
17
100
AcDbEntity
  8
SEIHIN
100
AcDbLine
 10
3861.380571323287
 20
4486.549193458679
 30
0.0
 11
3827.96097767145
 21
4480.087275416288
 31
0.0
  0
LINE
  5
989
330
17
100
AcDbEntity
  8
SEIHIN
100
AcDbLine
 10
3868.788813770948
 20
4582.192920581468
 30
0.0
 11
3861.380571323287
 21
4486.549193458679
 31
0.0
  0
LINE
  5
98A
330
17
100
AcDbEntity
  8
SEIHIN
100
AcDbLine
 10
9243.69597814597
 20
3834.99632079107
 30
0.0
 11
9243.69597814597
 21
4068.99632079107
 31
0.0
  0
LINE
  5
98B
330
17
100
AcDbEntity
  8
SEIHIN
100
AcDbLine
 10
9243.69597814597
 20
4068.99632079107
 30
0.0
 11
9193.69597814597
 21
5624.99632079107
 31
0.0
  0
LINE
  5
98C
330
17
100
AcDbEntity
  8
SEIHIN
100
AcDbLine
 10
9193.69597814597
 20
5624.99632079107
 30
0.0
 11
9193.69597814597
 21
5784.99632079107
 31
0.0
  0
LINE
  5
98D
330
17
100
AcDbEntity
  8
SEIHIN
100
AcDbLine
 10
9193.69597814597
 20
5784.99632079107
 30
0.0
 11
8229.051317205303
 21
5784.996320791071
 31
0.0
  0
LINE
  5
98E
330
17
100
AcDbEntity
  8
SEIHIN
100
AcDbLine
 10
6243.695978145973
 20
6834.996320791071
 30
0.0
 11
6477.695978145973
 21
6834.996320791071
 31
0.0
  0
LINE
  5
98F
330
17
100
AcDbEntity
  8
SEIHIN
100
AcDbLine
 10
6477.695978145973
 20
6834.996320791071
 30
0.0
 11
8033.695978145973
 21
6784.996320791071
 31
0.0
  0
LINE
  5
990
330
17
100
AcDbEntity
  8
SEIHIN
100
AcDbLine
 10
8033.695978145973
 20
6784.996320791071
 30
0.0
 11
8193.695978145974
 21
6784.996320791071
 31
0.0
  0
LINE
  5
991
330
17
100
AcDbEntity
  8
SEIHIN
100
AcDbLine
 10
8193.695978145974
 20
6784.996320791071
 30
0.0
 11
8193.695978145974
 21
5820.3516598504
 31
0.0
  0
DIMENSION
  5
996
330
17
100
AcDbEntity
  8
SUNPOU
100
AcDbDimension
  2
*D109
 10
10505.94505911776
 20
3834.99632079107
 30
0.0
 11
10445.94505911776
 21
4809.99632079107
 31
0.0
 70
   128
 71
     5
 42
-1.0
100
AcDbAlignedDimension
 13
9193.69597814597
 23
5784.99632079107
 33
0.0
 14
9243.69597814597
 24
3834.99632079107
 34
0.0
 50
90.0
100
AcDbRotatedDimension
1001
ACAD_DSTYLE_DIMARC_LENGTH_SYMBOL
1070
   379
1070
     0
1001
ACAD_DSTYLE_DIMJOGGED_JOGANGLE_SYMBOL
1070
   384
1040
0.7853981633974483
1001
ACAD_DSTYLE_DIMTEXT_FILL
1070
   376
1070
     0
1001
ACAD_DSTYLE_DIMEXT_ENABLED
1070
   383
1070
     0
1001
ACAD_DSTYLE_DIMEXT_LENGTH
1070
   378
1040
1.0
1001
ACAD_DSTYLE_DIM_LINETYPE
1070
   380
1005
0
1001
ACAD_DSTYLE_DIM_EXT1_LINETYPE
1070
   381
1005
0
1001
ACAD_DSTYLE_DIM_EXT2_LINETYPE
1070
   382
1005
0
  0
DIMENSION
  5
997
330
17
100
AcDbEntity
  8
SUNPOU
100
AcDbDimension
  2
*D105
 10
8193.695978145974
 20
7514.617934496253
 30
0.0
 11
7218.695978145974
 21
7574.617934496253
 31
0.0
 71
     5
 42
-1.0
100
AcDbAlignedDimension
 13
6243.695978145973
 23
6834.996320791071
 33
0.0
 14
8193.695978145974
 24
6784.996320791071
 34
0.0
100
AcDbRotatedDimension
1001
ACAD_DSTYLE_DIMARC_LENGTH_SYMBOL
1070
   379
1070
     0
1001
ACAD_DSTYLE_DIMJOGGED_JOGANGLE_SYMBOL
1070
   384
1040
0.7853981633974483
1001
ACAD_DSTYLE_DIMTEXT_FILL
1070
   376
1070
     0
1001
ACAD_DSTYLE_DIMEXT_ENABLED
1070
   383
1070
     0
1001
ACAD_DSTYLE_DIMEXT_LENGTH
1070
   378
1040
1.0
1001
ACAD_DSTYLE_DIM_LINETYPE
1070
   380
1005
0
1001
ACAD_DSTYLE_DIM_EXT1_LINETYPE
1070
   381
1005
0
1001
ACAD_DSTYLE_DIM_EXT2_LINETYPE
1070
   382
1005
0
  0
TEXT
  5
99A
330
17
100
AcDbEntity
  8
SUNPOU
100
AcDbText
 10
8645.664251573786
 20
4873.105453288689
 30
0.0
 40
60.0
  1
    
  7
A
100
AcDbText
  0
DIMENSION
  5
99B
330
17
100
AcDbEntity
  8
SUNPOU
100
AcDbDimension
  2
*D106
 10
9023.85695447548
 20
6784.996320791071
 30
0.0
 11
8963.85695447548
 21
6943.556757246872
 31
0.0
 70
   128
 71
     5
 42
-1.0
100
AcDbAlignedDimension
 13
6313.695978145973
 23
6834.996320791071
 33
0.0
 14
8193.695978145974
 24
6784.996320791071
 34
0.0
 50
90.0
100
AcDbRotatedDimension
1001
ACAD_DSTYLE_DIMARC_LENGTH_SYMBOL
1070
   379
1070
     0
1001
ACAD_DSTYLE_DIMJOGGED_JOGANGLE_SYMBOL
1070
   384
1040
0.7853981633974483
1001
ACAD_DSTYLE_DIMTEXT_FILL
1070
   376
1070
     0
1001
ACAD_DSTYLE_DIMEXT_ENABLED
1070
   383
1070
     0
1001
ACAD_DSTYLE_DIMEXT_LENGTH
1070
   378
1040
1.0
1001
ACAD_DSTYLE_DIM_LINETYPE
1070
   380
1005
0
1001
ACAD_DSTYLE_DIM_EXT1_LINETYPE
1070
   381
1005
0
1001
ACAD_DSTYLE_DIM_EXT2_LINETYPE
1070
   382
1005
0
  0
DIMENSION
  5
99C
330
17
100
AcDbEntity
  8
SUNPOU
100
AcDbDimension
  2
*D107
 10
9023.85695447548
 20
5820.351659850399
 30
0.0
 11
8963.85695447548
 21
6302.673990320735
 31
0.0
 71
     5
 42
-1.0
100
AcDbAlignedDimension
 13
8895.68973782049
 23
6784.996320791071
 33
0.0
 14
8193.695978145974
 24
5820.351659850399
 34
0.0
 50
90.0
100
AcDbRotatedDimension
1001
ACAD_DSTYLE_DIMARC_LENGTH_SYMBOL
1070
   379
1070
     0
1001
ACAD_DSTYLE_DIMJOGGED_JOGANGLE_SYMBOL
1070
   384
1040
0.7853981633974483
1001
ACAD_DSTYLE_DIMTEXT_FILL
1070
   376
1070
     0
1001
ACAD_DSTYLE_DIMEXT_ENABLED
1070
   383
1070
     0
1001
ACAD_DSTYLE_DIMEXT_LENGTH
1070
   378
1040
1.0
1001
ACAD_DSTYLE_DIM_LINETYPE
1070
   380
1005
0
1001
ACAD_DSTYLE_DIM_EXT1_LINETYPE
1070
   381
1005
0
1001
ACAD_DSTYLE_DIM_EXT2_LINETYPE
1070
   382
1005
0
  0
DIMENSION
  5
99D
330
17
100
AcDbEntity
  8
SUNPOU
100
AcDbDimension
  2
*D108
 10
9023.85695447548
 20
5784.99632079107
 30
0.0
 11
8963.85695447548
 21
5702.306279834698
 31
0.0
 70
   128
 71
     5
 42
-1.0
100
AcDbAlignedDimension
 13
8895.68973782049
 23
5820.351659850399
 33
0.0
 14
8767.522521165503
 24
5784.99632079107
 34
0.0
 50
90.0
100
AcDbRotatedDimension
1001
ACAD_DSTYLE_DIMARC_LENGTH_SYMBOL
1070
   379
1070
     0
1001
ACAD_DSTYLE_DIMJOGGED_JOGANGLE_SYMBOL
1070
   384
1040
0.7853981633974483
1001
ACAD_DSTYLE_DIMTEXT_FILL
1070
   376
1070
     0
1001
ACAD_DSTYLE_DIMEXT_ENABLED
1070
   383
1070
     0
1001
ACAD_DSTYLE_DIMEXT_LENGTH
1070
   378
1040
1.0
1001
ACAD_DSTYLE_DIM_LINETYPE
1070
   380
1005
0
1001
ACAD_DSTYLE_DIM_EXT1_LINETYPE
1070
   381
1005
0
1001
ACAD_DSTYLE_DIM_EXT2_LINETYPE
1070
   382
1005
0
  0
TEXT
  5
9A4
330
17
100
AcDbEntity
  8
SUNPOU
100
AcDbText
 10
7692.312219836293
 20
5100.296304077899
 30
0.0
 40
60.0
  1
   
  7
A
100
AcDbText
  0
LINE
  5
9A9
330
17
100
AcDbEntity
  8
1HASEN
100
AcDbLine
 10
7543.695978145973
 20
5134.996320791071
 30
0.0
 11
7685.117334383282
 21
4993.574964553761
 31
0.0
  0
CIRCLE
  5
9AB
330
17
100
AcDbEntity
  8
SUNPOU
100
AcDbCircle
 10
7448.236562685789
 20
5230.455736251254
 30
0.0
 40
15.0
  0
CIRCLE
  5
9AC
330
17
100
AcDbEntity
  8
SUNPOU
100
AcDbCircle
 10
7490.662969556981
 20
5188.029329380061
 30
0.0
 40
15.0
  0
CIRCLE
  5
9AD
330
17
100
AcDbEntity
  8
SUNPOU
100
AcDbCircle
 10
7596.728986734963
 20
5081.96331220208
 30
0.0
 40
15.0
  0
CIRCLE
  5
9AE
330
17
100
AcDbEntity
  8
SUNPOU
100
AcDbCircle
 10
7639.155393606155
 20
5039.536905330887
 30
0.0
 40
15.0
  0
CIRCLE
  5
9AF
330
17
100
AcDbEntity
  8
SUNPOU
100
AcDbCircle
 10
7998.236562685792
 20
5780.455736251255
 30
0.0
 40
15.0
  0
CIRCLE
  5
9B0
330
17
100
AcDbEntity
  8
SUNPOU
100
AcDbCircle
 10
8040.662969556986
 20
5738.029329380063
 30
0.0
 40
15.0
  0
CIRCLE
  5
9B1
330
17
100
AcDbEntity
  8
SUNPOU
100
AcDbCircle
 10
8146.728986734967
 20
5631.963312202081
 30
0.0
 40
15.0
  0
CIRCLE
  5
9B2
330
17
100
AcDbEntity
  8
SUNPOU
100
AcDbCircle
 10
8189.15539360616
 20
5589.536905330888
 30
0.0
 40
15.0
  0
LINE
  5
9B3
330
17
100
AcDbEntity
  8
SEIHIN
100
AcDbLine
 10
7398.739088002731
 20
5237.526804063121
 30
0.0
 11
7441.165494873923
 21
5279.953210934313
 31
0.0
  0
LINE
  5
9B4
330
17
100
AcDbEntity
  8
SEIHIN
100
AcDbLine
 10
7646.226461418021
 20
4990.039430647829
 30
0.0
 11
7688.652868289214
 21
5032.465837519021
 31
0.0
  0
LINE
  5
9B5
330
17
100
AcDbEntity
  8
SEIHIN
100
AcDbLine
 10
8196.226461418026
 20
5540.039430647829
 30
0.0
 11
8238.652868289219
 21
5582.465837519022
 31
0.0
  0
LINE
  5
9B6
330
17
100
AcDbEntity
  8
SEIHIN
100
AcDbLine
 10
7948.739088002734
 20
5787.526804063122
 30
0.0
 11
7991.165494873926
 21
5829.953210934314
 31
0.0
  0
LINE
  5
9B7
330
17
100
AcDbEntity
  8
SEIHIN
100
AcDbLine
 10
7522.482774710377
 20
5113.783117355474
 30
0.0
 11
7398.73908800273
 21
5237.52680406312
 31
0.0
  0
LINE
  5
9B8
330
17
100
AcDbEntity
  8
SEIHIN
100
AcDbLine
 10
7522.482774710376
 20
5113.783117355475
 30
0.0
 11
7646.226461418021
 21
4990.039430647829
 31
0.0
  0
LINE
  5
9B9
330
17
100
AcDbEntity
  8
SEIHIN
100
AcDbLine
 10
7564.909181581569
 20
5156.209524226668
 30
0.0
 11
7688.652868289215
 21
5032.465837519021
 31
0.0
  0
LINE
  5
9BA
330
17
100
AcDbEntity
  8
SEIHIN
100
AcDbLine
 10
7564.90918158157
 20
5156.209524226667
 30
0.0
 11
7441.165494873923
 21
5279.953210934313
 31
0.0
  0
LINE
  5
9BB
330
17
100
AcDbEntity
  8
SEIHIN
100
AcDbLine
 10
8072.48277471038
 20
5663.783117355476
 30
0.0
 11
8196.226461418026
 21
5540.039430647829
 31
0.0
  0
LINE
  5
9BC
330
17
100
AcDbEntity
  8
SEIHIN
100
AcDbLine
 10
8114.909181581573
 20
5706.209524226669
 30
0.0
 11
8238.652868289219
 21
5582.465837519022
 31
0.0
  0
LINE
  5
9BD
330
17
100
AcDbEntity
  8
SEIHIN
100
AcDbLine
 10
8072.482774710381
 20
5663.783117355475
 30
0.0
 11
7948.739088002734
 21
5787.526804063122
 31
0.0
  0
LINE
  5
9BE
330
17
100
AcDbEntity
  8
SEIHIN
100
AcDbLine
 10
8114.909181581574
 20
5706.209524226668
 30
0.0
 11
7991.165494873927
 21
5829.953210934314
 31
0.0
  0
DIMENSION
  5
A32
330
17
100
AcDbEntity
  8
SUNPOU
100
AcDbDimension
  2
*D124
 10
5061.908035904909
 20
2706.087275416288
 30
0.0
 11
5001.908035904908
 21
1731.087275416289
 31
0.0
 70
    32
 71
     5
 42
1950.0
  3
STANDARD
100
AcDbAlignedDimension
 13
4047.96097767145
 23
756.0872754162879
 33
0.0
 14
4047.960977671449
 24
2706.087275416288
 34
0.0
 50
90.0
100
AcDbRotatedDimension
1001
ACAD
1000
DSTYLE
1002
{
1070
    41
1040
40.0
1070
    42
1040
40.0
1070
    43
1040
140.0
1070
    44
1040
20.0
1070
    73
1070
     0
1070
    74
1070
     0
1070
   140
1040
60.0
1070
   145
1040
1.0
1070
   172
1070
     1
1070
   271
1070
     0
1070
   272
1070
     0
1070
   275
1070
     1
1070
   279
1070
     2
1070
   340
1005
99
1002
}
  0
ENDSEC
  0
SECTION
  2
OBJECTS
  0
DICTIONARY
  5
C
330
0
100
AcDbDictionary
281
     1
  3
ACAD_CIP_PREVIOUS_PRODUCT_INFO
350
A29
  3
ACAD_COLOR
350
A07
  3
ACAD_DETAILVIEWSTYLE
350
A20
  3
ACAD_GROUP
350
D
  3
ACAD_LAYOUT
350
A22
  3
ACAD_MATERIAL
350
9D5
  3
ACAD_MLEADERSTYLE
350
A1C
  3
ACAD_MLINESTYLE
350
1A
  3
ACAD_PLOTSETTINGS
350
A23
  3
ACAD_PLOTSTYLENAME
350
9D3
  3
ACAD_SCALELIST
350
A0A
  3
ACAD_SECTIONVIEWSTYLE
350
A1E
  3
ACAD_TABLESTYLE
350
A08
  3
ACAD_VISUALSTYLE
350
9EE
  3
ACDB_RECOMPOSE_DATA
350
ABB
  3
ACDBVARIABLEDICTIONARY
350
AE
  3
AcDsDecomposeData
350
A62
  0
DICTIONARY
  5
AB0
330
8
100
AcDbDictionary
280
     1
281
     1
  3
ACAD_XREC_ROUNDTRIP
360
AB1
  0
DICTIONARY
  5
A54
330
2
100
AcDbDictionary
280
     1
281
     1
  3
ACAD_LAYERSTATES
360
A55
  0
DICTIONARY
  5
A3F
330
E
100
AcDbDictionary
280
     1
281
     1
  3
ADSK_XREC_LAYER_RECONCILED
360
A40
  0
DICTIONARY
  5
A41
330
A1
100
AcDbDictionary
280
     1
281
     1
  3
ADSK_XREC_LAYER_RECONCILED
360
A42
  0
DICTIONARY
  5
A43
330
A2
100
AcDbDictionary
280
     1
281
     1
  3
ADSK_XREC_LAYER_RECONCILED
360
A44
  0
DICTIONARY
  5
A45
330
A3
100
AcDbDictionary
280
     1
281
     1
  3
ADSK_XREC_LAYER_RECONCILED
360
A46
  0
DICTIONARY
  5
A47
330
A4
100
AcDbDictionary
280
     1
281
     1
  3
ADSK_XREC_LAYER_RECONCILED
360
A48
  0
DICTIONARY
  5
A49
330
A5
100
AcDbDictionary
280
     1
281
     1
  3
ADSK_XREC_LAYER_RECONCILED
360
A4A
  0
DICTIONARY
  5
A4B
330
A6
100
AcDbDictionary
280
     1
281
     1
  3
ADSK_XREC_LAYER_RECONCILED
360
A4C
  0
DICTIONARY
  5
A4D
330
A7
100
AcDbDictionary
280
     1
281
     1
  3
ADSK_XREC_LAYER_RECONCILED
360
A4E
  0
DICTIONARY
  5
A4F
330
A8
100
AcDbDictionary
280
     1
281
     1
  3
ADSK_XREC_LAYER_RECONCILED
360
A50
  0
XRECORD
  5
A29
102
{ACAD_REACTORS
330
C
102
}
330
C
100
AcDbXrecord
280
     1
300
ACD
300
2014
300
ACD_F_S
  0
DICTIONARY
  5
A07
102
{ACAD_REACTORS
330
C
102
}
330
C
100
AcDbDictionary
281
     1
  0
DICTIONARY
  5
A20
102
{ACAD_REACTORS
330
C
102
}
330
C
100
AcDbDictionary
281
     1
  3
Imperial24
350
A21
  0
DICTIONARY
  5
D
102
{ACAD_REACTORS
330
C
102
}
330
C
100
AcDbDictionary
281
     1
  0
DICTIONARY
  5
A22
102
{ACAD_REACTORS
330
C
102
}
330
C
100
AcDbDictionary
281
     1
  3
Model
350
A24
  3
レイアウト1
350
A25
  0
DICTIONARY
  5
9D5
102
{ACAD_REACTORS
330
C
102
}
330
C
100
AcDbDictionary
281
     1
  3
ByBlock
350
9DE
  3
ByLayer
350
9D6
  3
Global
350
9E6
  0
DICTIONARY
  5
A1C
102
{ACAD_REACTORS
330
C
102
}
330
C
100
AcDbDictionary
281
     1
  3
Standard
350
A1D
  0
DICTIONARY
  5
1A
102
{ACAD_REACTORS
330
C
102
}
330
C
100
AcDbDictionary
281
     1
  3
STANDARD
350
1B
  0
DICTIONARY
  5
A23
102
{ACAD_REACTORS
330
C
102
}
330
C
100
AcDbDictionary
281
     1
  0
ACDBDICTIONARYWDFLT
  5
9D3
102
{ACAD_REACTORS
330
C
102
}
330
C
100
AcDbDictionary
281
     1
  3
Normal
350
9D4
100
AcDbDictionaryWithDefault
340
9D4
  0
DICTIONARY
  5
A0A
102
{ACAD_REACTORS
330
C
102
}
330
C
100
AcDbDictionary
281
     1
  3
A0
350
A0B
  3
A1
350
A0C
  3
A2
350
A0D
  3
A3
350
A0E
  3
A4
350
A0F
  3
A5
350
A10
  3
A6
350
A11
  3
A7
350
A12
  3
A8
350
A13
  3
A9
350
A14
  3
B0
350
A15
  3
B1
350
A16
  3
B2
350
A17
  3
B3
350
A18
  3
B4
350
A19
  3
B5
350
A1A
  3
B6
350
A1B
  0
DICTIONARY
  5
A1E
102
{ACAD_REACTORS
330
C
102
}
330
C
100
AcDbDictionary
281
     1
  3
Imperial24
350
A1F
  0
DICTIONARY
  5
A08
102
{ACAD_REACTORS
330
C
102
}
330
C
100
AcDbDictionary
281
     1
  3
Standard
350
A09
  0
DICTIONARY
  5
9EE
102
{ACAD_REACTORS
330
C
102
}
330
C
100
AcDbDictionary
281
     1
  3
2dWireframe
350
9F4
  3
Basic
350
9F3
  3
Brighten
350
9FA
  3
ColorChange
350
9FE
  3
Conceptual
350
9F7
  3
Dim
350
9F9
  3
EdgeColorOff
350
A06
  3
Facepattern
350
9FD
  3
Flat
350
9EF
  3
FlatWithEdges
350
9F0
  3
Gouraud
350
9F1
  3
GouraudWithEdges
350
9F2
  3
Hidden
350
9F6
  3
JitterOff
350
A04
  3
Linepattern
350
9FC
  3
OverhangOff
350
A05
  3
Realistic
350
9F8
  3
Shaded
350
A03
  3
Shaded with edges
350
A02
  3
Shades of Gray
350
9FF
  3
Sketchy
350
A00
  3
Thicken
350
9FB
  3
Wireframe
350
9F5
  3
X-Ray
350
A01
  0
XRECORD
  5
ABB
102
{ACAD_REACTORS
330
C
102
}
330
C
100
AcDbXrecord
280
     1
 90
        1
330
A09
  0
DICTIONARY
  5
AE
102
{ACAD_REACTORS
330
C
102
}
330
C
100
AcDbDictionary
281
     1
  3
CANNOSCALE
350
AA3
  3
CMLEADERSTYLE
350
A9F
  3
CTABLESTYLE
350
A9E
  3
CVIEWDETAILSTYLE
350
AA0
  3
CVIEWSECTIONSTYLE
350
AA1
  3
DIMADEC
350
AF
  3
LAYEREVAL
350
AA5
  3
LAYERNOTIFY
350
AA6
  3
LIGHTINGUNITS
350
AA4
  3
MSLTSCALE
350
AA2
  3
XCLIPFRAME
350
AA7
  0
DICTIONARY
  5
A62
102
{ACAD_REACTORS
330
C
102
}
330
C
100
AcDbDictionary
281
     1
  3
AcDsRecords
350
A64
  3
AcDsSchemas
350
A63
1001
ACAD
1070
     2
  0
XRECORD
  5
AB1
102
{ACAD_REACTORS
330
AB0
102
}
330
AB0
100
AcDbXrecord
280
     1
102
VTR_0.000_0.000_1.000_1.000_VISUALSTYLE
340
9F4
102
VTR_0.000_0.000_1.000_1.000_GRIDDISPLAY
 70
     3
102
VTR_0.000_0.000_1.000_1.000_GRIDMAJOR
 70
     5
102
VTR_0.000_0.000_1.000_1.000_DEFAULTLIGHTING
280
     1
102
VTR_0.000_0.000_1.000_1.000_DEFAULTLIGHTINGTYPE
 70
     1
102
VTR_0.000_0.000_1.000_1.000_BRIGHTNESS
141
0.0
102
VTR_0.000_0.000_1.000_1.000_CONTRAST
142
0.0
  0
DICTIONARY
  5
A55
102
{ACAD_REACTORS
330
A54
102
}
330
A54
100
AcDbDictionary
281
     1
  0
XRECORD
  5
A40
102
{ACAD_REACTORS
330
A3F
102
}
330
A3F
100
AcDbXrecord
280
     1
290
     1
  0
XRECORD
  5
A42
102
{ACAD_REACTORS
330
A41
102
}
330
A41
100
AcDbXrecord
280
     1
290
     1
  0
XRECORD
  5
A44
102
{ACAD_REACTORS
330
A43
102
}
330
A43
100
AcDbXrecord
280
     1
290
     1
  0
XRECORD
  5
A46
102
{ACAD_REACTORS
330
A45
102
}
330
A45
100
AcDbXrecord
280
     1
290
     1
  0
XRECORD
  5
A48
102
{ACAD_REACTORS
330
A47
102
}
330
A47
100
AcDbXrecord
280
     1
290
     1
  0
XRECORD
  5
A4A
102
{ACAD_REACTORS
330
A49
102
}
330
A49
100
AcDbXrecord
280
     1
290
     1
  0
XRECORD
  5
A4C
102
{ACAD_REACTORS
330
A4B
102
}
330
A4B
100
AcDbXrecord
280
     1
290
     1
  0
XRECORD
  5
A4E
102
{ACAD_REACTORS
330
A4D
102
}
330
A4D
100
AcDbXrecord
280
     1
290
     1
  0
XRECORD
  5
A50
102
{ACAD_REACTORS
330
A4F
102
}
330
A4F
100
AcDbXrecord
280
     1
290
     1
  0
ACAD_PROXY_OBJECT
  5
A21
102
{ACAD_REACTORS
330
A20
102
}
102
{ACAD_XDICTIONARY
360
A9A
102
}
330
A20
100
AcDbProxyObject
 90
      499
 91
      509
 95
  3276827
 70
     0
 93
     2314
310
9207000000180005C0F42F5A8DC671F815AF46E07A15AE7E07000000180005C0F42F5A8DC671FA3300000018001000000180005C0F42F5A8DC671FA02000000000000741FA028CC00000060002330000001800000852480368038003280390034803080360019001A004AD12801E002E00208031802B003080390010002B00
310
348032803B802A003C803800328010002E0033001000110012803A003180188011001F001280100012801E002E00208031802B003080390010002B00348032803B80220032803A00308034803600248032001F0012802E00280029802180208026002280100012801E002E00208031802B003080390010002B00348032803B
310
802980318030803600328010002E0033001000110012803980370011001F0012802B0371
340
F
340
0
340
13
340
F
340
13
340
13
 94
        0
  0
LAYOUT
  5
A24
102
{ACAD_REACTORS
330
A22
102
}
102
{ACAD_XDICTIONARY
360
A9C
102
}
330
A22
100
AcDbPlotSettings
  1

  2
DocuWorks Printer
  4

  6

 40
0.0
 41
0.0
 42
0.0
 43
0.0
 44
0.0
 45
0.0
 46
0.0
 47
0.0
 48
0.0
 49
0.0
140
0.0
141
0.0
142
1.0
143
1.0
 70
  1712
 72
     0
 73
     0
 74
     0
  7

 75
     0
 76
     0
 77
     2
 78
   300
147
1.0
148
0.0
149
0.0
100
AcDbLayout
  1
Model
 70
     1
 71
     0
 10
0.0
 20
0.0
 11
12.0
 21
9.0
 12
0.0
 22
0.0
 32
0.0
 14
0.0
 24
0.0
 34
0.0
 15
0.0
 25
0.0
 35
0.0
146
0.0
 13
0.0
 23
0.0
 33
0.0
 16
1.0
 26
0.0
 36
0.0
 17
0.0
 27
1.0
 37
0.0
 76
     0
330
17
331
9D1
  0
LAYOUT
  5
A25
102
{ACAD_REACTORS
330
A22
102
}
330
A22
100
AcDbPlotSettings
  1

  2
DocuWorks Printer
  4

  6

 40
0.0
 41
0.0
 42
0.0
 43
0.0
 44
0.0
 45
0.0
 46
0.0
 47
0.0
 48
0.0
 49
0.0
140
0.0
141
0.0
142
1.0
143
1.0
 70
   688
 72
     0
 73
     0
 74
     5
  7

 75
    16
 76
     0
 77
     2
 78
   300
147
1.0
148
0.0
149
0.0
100
AcDbLayout
  1
レイアウト1
 70
     0
 71
     1
 10
0.0
 20
0.0
 11
12.0
 21
9.0
 12
0.0
 22
0.0
 32
0.0
 14
1.000000000000000E+20
 24
1.000000000000000E+20
 34
1.000000000000000E+20
 15
-1.000000000000000E+20
 25
-1.000000000000000E+20
 35
-1.000000000000000E+20
146
0.0
 13
0.0
 23
0.0
 33
0.0
 16
1.0
 26
0.0
 36
0.0
 17
0.0
 27
1.0
 37
0.0
 76
     0
330
14
  0
MATERIAL
  5
9DE
102
{ACAD_REACTORS
330
9D5
102
}
102
{ACAD_XDICTIONARY
360
AB2
102
}
330
9D5
100
AcDbMaterial
  1
ByBlock
 72
     0
 73
     2
 43
0.0208333333333333
 43
0.0
 43
0.0
 43
0.0
 43
0.0
 43
0.0208333333333333
 43
0.0
 43
0.0
 43
0.0
 43
0.0
 43
1.0
 43
0.0
 43
0.0
 43
0.0
 43
0.0
 43
1.0
 77
     0
 78
     2
 47
0.0208333333333333
 47
0.0
 47
0.0
 47
0.0
 47
0.0
 47
0.0208333333333333
 47
0.0
 47
0.0
 47
0.0
 47
0.0
 47
1.0
 47
0.0
 47
0.0
 47
0.0
 47
0.0
 47
1.0
171
     0
172
     2
 49
0.0208333333333333
 49
0.0
 49
0.0
 49
0.0
 49
0.0
 49
0.0208333333333333
 49
0.0
 49
0.0
 49
0.0
 49
0.0
 49
1.0
 49
0.0
 49
0.0
 49
0.0
 49
0.0
 49
1.0
175
     0
176
     2
142
0.0208333333333333
142
0.0
142
0.0
142
0.0
142
0.0
142
0.0208333333333333
142
0.0
142
0.0
142
0.0
142
0.0
142
1.0
142
0.0
142
0.0
142
0.0
142
0.0
142
1.0
179
     0
270
     2
144
0.0208333333333333
144
0.0
144
0.0
144
0.0
144
0.0
144
0.0208333333333333
144
0.0
144
0.0
144
0.0
144
0.0
144
1.0
144
0.0
144
0.0
144
0.0
144
0.0
144
1.0
274
     2
147
0.0208333333333333
147
0.0
147
0.0
147
0.0
147
0.0
147
0.0208333333333333
147
0.0
147
0.0
147
0.0
147
0.0
147
1.0
147
0.0
147
0.0
147
0.0
147
0.0
147
1.0
  0
MATERIAL
  5
9D6
102
{ACAD_REACTORS
330
9D5
102
}
102
{ACAD_XDICTIONARY
360
AB4
102
}
330
9D5
100
AcDbMaterial
  1
ByLayer
 72
     0
 73
     2
 43
0.0208333333333333
 43
0.0
 43
0.0
 43
0.0
 43
0.0
 43
0.0208333333333333
 43
0.0
 43
0.0
 43
0.0
 43
0.0
 43
1.0
 43
0.0
 43
0.0
 43
0.0
 43
0.0
 43
1.0
 77
     0
 78
     2
 47
0.0208333333333333
 47
0.0
 47
0.0
 47
0.0
 47
0.0
 47
0.0208333333333333
 47
0.0
 47
0.0
 47
0.0
 47
0.0
 47
1.0
 47
0.0
 47
0.0
 47
0.0
 47
0.0
 47
1.0
171
     0
172
     2
 49
0.0208333333333333
 49
0.0
 49
0.0
 49
0.0
 49
0.0
 49
0.0208333333333333
 49
0.0
 49
0.0
 49
0.0
 49
0.0
 49
1.0
 49
0.0
 49
0.0
 49
0.0
 49
0.0
 49
1.0
175
     0
176
     2
142
0.0208333333333333
142
0.0
142
0.0
142
0.0
142
0.0
142
0.0208333333333333
142
0.0
142
0.0
142
0.0
142
0.0
142
1.0
142
0.0
142
0.0
142
0.0
142
0.0
142
1.0
179
     0
270
     2
144
0.0208333333333333
144
0.0
144
0.0
144
0.0
144
0.0
144
0.0208333333333333
144
0.0
144
0.0
144
0.0
144
0.0
144
1.0
144
0.0
144
0.0
144
0.0
144
0.0
144
1.0
274
     2
147
0.0208333333333333
147
0.0
147
0.0
147
0.0
147
0.0
147
0.0208333333333333
147
0.0
147
0.0
147
0.0
147
0.0
147
1.0
147
0.0
147
0.0
147
0.0
147
0.0
147
1.0
  0
MATERIAL
  5
9E6
102
{ACAD_REACTORS
330
9D5
102
}
102
{ACAD_XDICTIONARY
360
AB6
102
}
330
9D5
100
AcDbMaterial
  1
Global
 72
     0
 73
     2
 43
0.0208333333333333
 43
0.0
 43
0.0
 43
0.0
 43
0.0
 43
0.0208333333333333
 43
0.0
 43
0.0
 43
0.0
 43
0.0
 43
1.0
 43
0.0
 43
0.0
 43
0.0
 43
0.0
 43
1.0
 77
     0
 78
     2
 47
0.0208333333333333
 47
0.0
 47
0.0
 47
0.0
 47
0.0
 47
0.0208333333333333
 47
0.0
 47
0.0
 47
0.0
 47
0.0
 47
1.0
 47
0.0
 47
0.0
 47
0.0
 47
0.0
 47
1.0
171
     0
172
     2
 49
0.0208333333333333
 49
0.0
 49
0.0
 49
0.0
 49
0.0
 49
0.0208333333333333
 49
0.0
 49
0.0
 49
0.0
 49
0.0
 49
1.0
 49
0.0
 49
0.0
 49
0.0
 49
0.0
 49
1.0
175
     0
176
     2
142
0.0208333333333333
142
0.0
142
0.0
142
0.0
142
0.0
142
0.0208333333333333
142
0.0
142
0.0
142
0.0
142
0.0
142
1.0
142
0.0
142
0.0
142
0.0
142
0.0
142
1.0
179
     0
270
     2
144
0.0208333333333333
144
0.0
144
0.0
144
0.0
144
0.0
144
0.0208333333333333
144
0.0
144
0.0
144
0.0
144
0.0
144
1.0
144
0.0
144
0.0
144
0.0
144
0.0
144
1.0
274
     2
147
0.0208333333333333
147
0.0
147
0.0
147
0.0
147
0.0
147
0.0208333333333333
147
0.0
147
0.0
147
0.0
147
0.0
147
1.0
147
0.0
147
0.0
147
0.0
147
0.0
147
1.0
  0
MLEADERSTYLE
  5
A1D
102
{ACAD_REACTORS
330
A1C
102
}
330
A1C
100
AcDbMLeaderStyle
170
     2
171
     1
172
     0
 90
        2
 40
0.0
 41
0.0
173
     1
 91
-1056964608
340
11
 92
       -2
290
     1
 42
0.09
291
     1
 43
0.36
  3
Standard
341
0
 44
0.18
300

342
F
174
     1
178
     6
175
     1
176
     0
 93
-1056964608
 45
0.18
292
     0
297
     0
 46
0.18
343
0
 94
-1056964608
 47
1.0
 49
1.0
140
1.0
293
     1
141
0.0
294
     1
177
     0
142
1.0
295
     0
296
     0
143
0.125
1001
ACAD_MLEADERVER
1070
     2
  0
MLINESTYLE
  5
1B
102
{ACAD_REACTORS
330
1A
102
}
330
1A
100
AcDbMlineStyle
  2
STANDARD
 70
     0
  3

 62
   256
 51
90.0
 52
90.0
 71
     2
 49
0.5
 62
   256
  6
BYLAYER
 49
-0.5
 62
   256
  6
BYLAYER
  0
ACDBPLACEHOLDER
  5
9D4
102
{ACAD_REACTORS
330
9D3
102
}
330
9D3
  0
SCALE
  5
A0B
102
{ACAD_REACTORS
330
A0A
102
}
330
A0A
100
AcDbScale
 70
     0
300
1:1
140
1.0
141
1.0
290
     1
  0
SCALE
  5
A0C
102
{ACAD_REACTORS
330
A0A
102
}
330
A0A
100
AcDbScale
 70
     0
300
1/128" = 1'-0"
140
0.0078125
141
12.0
290
     0
  0
SCALE
  5
A0D
102
{ACAD_REACTORS
330
A0A
102
}
330
A0A
100
AcDbScale
 70
     0
300
1/64" = 1'-0"
140
0.015625
141
12.0
290
     0
  0
SCALE
  5
A0E
102
{ACAD_REACTORS
330
A0A
102
}
330
A0A
100
AcDbScale
 70
     0
300
1/32" = 1'-0"
140
0.03125
141
12.0
290
     0
  0
SCALE
  5
A0F
102
{ACAD_REACTORS
330
A0A
102
}
330
A0A
100
AcDbScale
 70
     0
300
1/16" = 1'-0"
140
0.0625
141
12.0
290
     0
  0
SCALE
  5
A10
102
{ACAD_REACTORS
330
A0A
102
}
330
A0A
100
AcDbScale
 70
     0
300
3/32" = 1'-0"
140
0.09375
141
12.0
290
     0
  0
SCALE
  5
A11
102
{ACAD_REACTORS
330
A0A
102
}
330
A0A
100
AcDbScale
 70
     0
300
1/8" = 1'-0"
140
0.125
141
12.0
290
     0
  0
SCALE
  5
A12
102
{ACAD_REACTORS
330
A0A
102
}
330
A0A
100
AcDbScale
 70
     0
300
3/16" = 1'-0"
140
0.1875
141
12.0
290
     0
  0
SCALE
  5
A13
102
{ACAD_REACTORS
330
A0A
102
}
330
A0A
100
AcDbScale
 70
     0
300
1/4" = 1'-0"
140
0.25
141
12.0
290
     0
  0
SCALE
  5
A14
102
{ACAD_REACTORS
330
A0A
102
}
330
A0A
100
AcDbScale
 70
     0
300
3/8" = 1'-0"
140
0.375
141
12.0
290
     0
  0
SCALE
  5
A15
102
{ACAD_REACTORS
330
A0A
102
}
330
A0A
100
AcDbScale
 70
     0
300
1/2" = 1'-0"
140
0.5
141
12.0
290
     0
  0
SCALE
  5
A16
102
{ACAD_REACTORS
330
A0A
102
}
330
A0A
100
AcDbScale
 70
     0
300
3/4" = 1'-0"
140
0.75
141
12.0
290
     0
  0
SCALE
  5
A17
102
{ACAD_REACTORS
330
A0A
102
}
330
A0A
100
AcDbScale
 70
     0
300
1" = 1'-0"
140
1.0
141
12.0
290
     0
  0
SCALE
  5
A18
102
{ACAD_REACTORS
330
A0A
102
}
330
A0A
100
AcDbScale
 70
     0
300
1-1/2" = 1'-0"
140
1.5
141
12.0
290
     0
  0
SCALE
  5
A19
102
{ACAD_REACTORS
330
A0A
102
}
330
A0A
100
AcDbScale
 70
     0
300
3" = 1'-0"
140
3.0
141
12.0
290
     0
  0
SCALE
  5
A1A
102
{ACAD_REACTORS
330
A0A
102
}
330
A0A
100
AcDbScale
 70
     0
300
6" = 1'-0"
140
6.0
141
12.0
290
     0
  0
SCALE
  5
A1B
102
{ACAD_REACTORS
330
A0A
102
}
330
A0A
100
AcDbScale
 70
     0
300
1'-0" = 1'-0"
140
12.0
141
12.0
290
     0
  0
ACAD_PROXY_OBJECT
  5
A1F
102
{ACAD_REACTORS
330
A1E
102
}
102
{ACAD_XDICTIONARY
360
A98
102
}
330
A1E
100
AcDbProxyObject
 90
      499
 91
      508
 95
  3276827
 70
     0
 93
     3814
310
929D000000180005C0F42F5A8DC671FC00000060001703D0BD6A3719C7E5C0F42F5A8DC6F1FA330000001800099400000060001703D0BD6A3719C7E5C0F42F5A8DC671FC00000060001703D0BD6A3719C7E808000000000001D07E80C0000006000400000064003081815AF46E07A158E7E80C8340C16A22A7D90FC9F8CAE6
310
5A70A583A07E1FE81C635378FA1F8CAE65A70A583A17E7944A7F127A97E9FA149200DA00E000CA00E400D200C200D80064006800882480160010002780160010002880160010002980160010002C00160010002D002F84A007800B8008200C600AC00C200E4004000AC00D200CA00EE00A800F200E000CA004000B800CC004
310
00044004A00E800C600620044007C004A0040004A007800B8008200C600AC00C200E4004000AC00D200CA00EE00A600CA00C600E800D200DE00DC00A600E800C200E400E8009200C8007C004A005A004A007800B8008200C600AC00C200E4004000AC00D200CA00EE00A600CA00C600E800D200DE00DC008A00DC00C800920
310
0C8007C004A00B800A000A6008600820098008A0040004A007800B8008200C600AC00C200E4004000AC00D200CA00EE00A600C600C200D800CA004000B800CC00400044004A00E600DC0044007C004A00832080270029802480198018807404C
340
F
340
0
340
0
340
13
340
13
340
F
 94
        0
  0
TABLESTYLE
  5
A09
102
{ACAD_REACTORS
330
A08
102
}
102
{ACAD_XDICTIONARY
360
AB8
102
}
330
A08
100
AcDbTableStyle
  3
Standard
 70
     0
 71
     0
 40
0.06
 41
0.06
280
     0
281
     0
  7
STANDARD
140
0.18
170
     2
 62
     0
 63
   257
283
     0
274
    -2
284
     1
 64
     0
275
    -2
285
     1
 65
     0
276
    -2
286
     1
 66
     0
277
    -2
287
     1
 67
     0
278
    -2
288
     1
 68
     0
279
    -2
289
     1
 69
     0
  7
STANDARD
140
0.25
170
     5
 62
     0
 63
   257
283
     0
274
    -2
284
     1
 64
     0
275
    -2
285
     1
 65
     0
276
    -2
286
     1
 66
     0
277
    -2
287
     1
 67
     0
278
    -2
288
     1
 68
     0
279
    -2
289
     1
 69
     0
  7
STANDARD
140
0.18
170
     5
 62
     0
 63
   257
283
     0
274
    -2
284
     1
 64
     0
275
    -2
285
     1
 65
     0
276
    -2
286
     1
 66
     0
277
    -2
287
     1
 67
     0
278
    -2
288
     1
 68
     0
279
    -2
289
     1
 69
     0
  0
VISUALSTYLE
  5
9F4
102
{ACAD_REACTORS
330
9EE
102
}
102
{ACAD_XDICTIONARY
360
ABC
102
}
330
9EE
100
AcDbVisualStyle
  2
2dWireframe
 70
     4
 71
     0
 72
     2
 73
     0
 90
        0
 40
-0.6
 41
-30.0
 62
     5
 63
     7
421
 16777215
 74
     1
 91
        4
 64
     7
 65
   257
 75
     1
175
     1
 42
1.0
 92
        0
 66
   257
 43
1.0
 76
     1
 77
     6
 78
     2
 67
     7
 79
     5
170
     0
171
     0
290
     0
174
     0
 93
        1
 44
0.0
173
     0
291
     0
 45
0.0
1001
ACAD
1000
AcDbSavedByObjectVersion
1070
     0
  0
VISUALSTYLE
  5
9F3
102
{ACAD_REACTORS
330
9EE
102
}
102
{ACAD_XDICTIONARY
360
ABE
102
}
330
9EE
100
AcDbVisualStyle
  2
Basic
 70
     7
 71
     1
 72
     0
 73
     1
 90
        0
 40
-0.6
 41
-30.0
 62
     5
 63
     7
421
 16777215
 74
     0
 91
        4
 64
     7
 65
   257
 75
     1
175
     1
 42
1.0
 92
        8
 66
     7
 43
1.0
 76
     1
 77
     6
 78
     2
 67
     7
 79
     5
170
     0
171
     0
290
     0
174
     0
 93
        1
 44
0.0
173
     0
291
     1
 45
0.0
1001
ACAD
1000
AcDbSavedByObjectVersion
1070
     0
  0
VISUALSTYLE
  5
9FA
102
{ACAD_REACTORS
330
9EE
102
}
102
{ACAD_XDICTIONARY
360
AC0
102
}
330
9EE
100
AcDbVisualStyle
  2
Brighten
 70
    12
 71
     2
 72
     2
 73
     0
 90
        0
 40
-0.6
 41
-30.0
 62
     5
 63
     7
421
 16777215
 74
     1
 91
        4
 64
     7
 65
   257
 75
     1
175
     1
 42
1.0
 92
        8
 66
     7
 43
1.0
 76
     1
 77
     6
 78
     2
 67
     7
 79
     5
170
     0
171
     0
290
     0
174
     0
 93
        1
 44
50.0
173
     0
291
     1
 45
0.0
1001
ACAD
1000
AcDbSavedByObjectVersion
1070
     0
  0
VISUALSTYLE
  5
9FE
102
{ACAD_REACTORS
330
9EE
102
}
102
{ACAD_XDICTIONARY
360
AC2
102
}
330
9EE
100
AcDbVisualStyle
  2
ColorChange
 70
    16
 71
     2
 72
     2
 73
     3
 90
        0
 40
-0.6
 41
-30.0
 62
     5
 63
     8
421
  8421504
 74
     1
 91
        4
 64
     7
 65
   257
 75
     1
175
     1
 42
1.0
 92
        8
 66
     8
424
  8421504
 43
1.0
 76
     1
 77
     6
 78
     2
 67
     7
 79
     5
170
     0
171
     0
290
     0
174
     0
 93
        1
 44
0.0
173
     0
291
     1
 45
0.0
1001
ACAD
1000
AcDbSavedByObjectVersion
1070
     0
  0
VISUALSTYLE
  5
9F7
102
{ACAD_REACTORS
330
9EE
102
}
102
{ACAD_XDICTIONARY
360
AC4
102
}
330
9EE
100
AcDbVisualStyle
  2
Conceptual
 70
     9
 71
     3
 72
     2
 73
     0
 90
        0
 40
-0.6
 41
-30.0
 62
     5
 63
     7
421
 16777215
 74
     2
 91
        2
 64
     7
 65
   257
 75
     1
175
     1
 42
179.0
 92
        8
 66
     7
 43
1.0
 76
     1
 77
     6
 78
     2
 67
     7
 79
     3
170
     0
171
     0
290
     0
174
     0
 93
        1
 44
0.0
173
     0
291
     0
 45
0.0
1001
ACAD
1000
AcDbSavedByObjectVersion
1070
     0
  0
VISUALSTYLE
  5
9F9
102
{ACAD_REACTORS
330
9EE
102
}
102
{ACAD_XDICTIONARY
360
AC6
102
}
330
9EE
100
AcDbVisualStyle
  2
Dim
 70
    11
 71
     2
 72
     2
 73
     0
 90
        0
 40
-0.6
 41
-30.0
 62
     5
 63
     7
421
 16777215
 74
     1
 91
        4
 64
     7
 65
   257
 75
     1
175
     1
 42
1.0
 92
        8
 66
     7
 43
1.0
 76
     1
 77
     6
 78
     2
 67
     7
 79
     5
170
     0
171
     0
290
     0
174
     0
 93
        1
 44
-50.0
173
     0
291
     1
 45
0.0
1001
ACAD
1000
AcDbSavedByObjectVersion
1070
     0
  0
VISUALSTYLE
  5
A06
102
{ACAD_REACTORS
330
9EE
102
}
102
{ACAD_XDICTIONARY
360
AC8
102
}
330
9EE
100
AcDbVisualStyle
  2
EdgeColorOff
 70
    22
 71
     2
 72
     2
 73
     0
 90
        0
 40
-0.6
 41
-30.0
 62
     5
 63
     7
421
 16777215
 74
     1
 91
        4
 64
     7
 65
   257
 75
     1
175
     1
 42
1.0
 92
        8
 66
     7
 43
1.0
 76
     1
 77
     6
 78
     2
 67
     7
 79
     5
170
     0
171
     0
290
     0
174
     0
 93
        1
 44
0.0
173
     0
291
     1
 45
0.0
1001
ACAD
1000
AcDbSavedByObjectVersion
1070
     0
  0
VISUALSTYLE
  5
9FD
102
{ACAD_REACTORS
330
9EE
102
}
102
{ACAD_XDICTIONARY
360
ACA
102
}
330
9EE
100
AcDbVisualStyle
  2
Facepattern
 70
    15
 71
     2
 72
     2
 73
     0
 90
        0
 40
-0.6
 41
-30.0
 62
     5
 63
     7
421
 16777215
 74
     1
 91
        4
 64
     7
 65
   257
 75
     1
175
     1
 42
1.0
 92
        8
 66
     7
 43
1.0
 76
     1
 77
     6
 78
     2
 67
     7
 79
     5
170
     0
171
     0
290
     0
174
     0
 93
        1
 44
0.0
173
     0
291
     1
 45
0.0
1001
ACAD
1000
AcDbSavedByObjectVersion
1070
     0
  0
VISUALSTYLE
  5
9EF
102
{ACAD_REACTORS
330
9EE
102
}
102
{ACAD_XDICTIONARY
360
ACC
102
}
330
9EE
100
AcDbVisualStyle
  2
Flat
 70
     0
 71
     2
 72
     1
 73
     1
 90
        2
 40
-0.6
 41
30.0
 62
     5
 63
     7
421
 16777215
 74
     0
 91
        0
 64
     7
 65
   257
 75
     1
175
     1
 42
1.0
 92
        8
 66
     7
 43
1.0
 76
     1
 77
     6
 78
     2
 67
     7
 79
     5
170
     0
171
     0
290
     0
174
     0
 93
       13
 44
0.0
173
     0
291
     1
 45
0.0
1001
ACAD
1000
AcDbSavedByObjectVersion
1070
     0
  0
VISUALSTYLE
  5
9F0
102
{ACAD_REACTORS
330
9EE
102
}
102
{ACAD_XDICTIONARY
360
ACE
102
}
330
9EE
100
AcDbVisualStyle
  2
FlatWithEdges
 70
     1
 71
     2
 72
     1
 73
     1
 90
        2
 40
-0.6
 41
30.0
 62
     5
 63
     7
421
 16777215
 74
     1
 91
        0
 64
     7
 65
   257
 75
     1
175
     1
 42
1.0
 92
        0
 66
   257
 43
1.0
 76
     1
 77
     6
 78
     2
 67
     7
 79
     5
170
     0
171
     0
290
     0
174
     0
 93
       13
 44
0.0
173
     0
291
     1
 45
0.0
1001
ACAD
1000
AcDbSavedByObjectVersion
1070
     0
  0
VISUALSTYLE
  5
9F1
102
{ACAD_REACTORS
330
9EE
102
}
102
{ACAD_XDICTIONARY
360
AD0
102
}
330
9EE
100
AcDbVisualStyle
  2
Gouraud
 70
     2
 71
     2
 72
     2
 73
     1
 90
        2
 40
-0.6
 41
30.0
 62
     5
 63
     7
421
 16777215
 74
     0
 91
        0
 64
     7
 65
   257
 75
     1
175
     1
 42
1.0
 92
        0
 66
     7
 43
1.0
 76
     1
 77
     6
 78
     2
 67
     7
 79
     5
170
     0
171
     0
290
     0
174
     0
 93
       13
 44
0.0
173
     0
291
     1
 45
0.0
1001
ACAD
1000
AcDbSavedByObjectVersion
1070
     0
  0
VISUALSTYLE
  5
9F2
102
{ACAD_REACTORS
330
9EE
102
}
102
{ACAD_XDICTIONARY
360
AD2
102
}
330
9EE
100
AcDbVisualStyle
  2
GouraudWithEdges
 70
     3
 71
     2
 72
     2
 73
     1
 90
        2
 40
-0.6
 41
30.0
 62
     5
 63
     7
421
 16777215
 74
     1
 91
        0
 64
     7
 65
   257
 75
     1
175
     1
 42
1.0
 92
        0
 66
   257
 43
1.0
 76
     1
 77
     6
 78
     2
 67
     7
 79
     5
170
     0
171
     0
290
     0
174
     0
 93
       13
 44
0.0
173
     0
291
     1
 45
0.0
1001
ACAD
1000
AcDbSavedByObjectVersion
1070
     0
  0
VISUALSTYLE
  5
9F6
102
{ACAD_REACTORS
330
9EE
102
}
102
{ACAD_XDICTIONARY
360
AD4
102
}
330
9EE
100
AcDbVisualStyle
  2
Hidden
 70
     6
 71
     1
 72
     2
 73
     2
 90
        0
 40
-0.6
 41
-30.0
 62
     5
 63
     7
421
 16777215
 74
     2
 91
        2
 64
     7
 65
   257
 75
     2
175
     1
 42
40.0
 92
        0
 66
   257
 43
1.0
 76
     1
 77
     6
 78
     2
 67
     7
 79
     3
170
     0
171
     0
290
     0
174
     0
 93
        1
 44
0.0
173
     0
291
     0
 45
0.0
1001
ACAD
1000
AcDbSavedByObjectVersion
1070
     0
  0
VISUALSTYLE
  5
A04
102
{ACAD_REACTORS
330
9EE
102
}
102
{ACAD_XDICTIONARY
360
AD6
102
}
330
9EE
100
AcDbVisualStyle
  2
JitterOff
 70
    20
 71
     2
 72
     2
 73
     0
 90
        0
 40
-0.6
 41
-30.0
 62
     5
 63
     7
421
 16777215
 74
     1
 91
        4
 64
     7
 65
   257
 75
     1
175
     1
 42
1.0
 92
       10
 66
     7
 43
1.0
 76
     1
 77
     6
 78
     2
 67
     7
 79
     5
170
     0
171
     0
290
     0
174
     0
 93
        1
 44
0.0
173
     0
291
     1
 45
0.0
1001
ACAD
1000
AcDbSavedByObjectVersion
1070
     0
  0
VISUALSTYLE
  5
9FC
102
{ACAD_REACTORS
330
9EE
102
}
102
{ACAD_XDICTIONARY
360
AD8
102
}
330
9EE
100
AcDbVisualStyle
  2
Linepattern
 70
    14
 71
     2
 72
     2
 73
     0
 90
        0
 40
-0.6
 41
-30.0
 62
     5
 63
     7
421
 16777215
 74
     1
 91
        4
 64
     7
 65
   257
 75
     7
175
     7
 42
1.0
 92
        8
 66
     7
 43
1.0
 76
     1
 77
     6
 78
     2
 67
     7
 79
     5
170
     0
171
     0
290
     0
174
     0
 93
        1
 44
0.0
173
     0
291
     1
 45
0.0
1001
ACAD
1000
AcDbSavedByObjectVersion
1070
     0
  0
VISUALSTYLE
  5
A05
102
{ACAD_REACTORS
330
9EE
102
}
102
{ACAD_XDICTIONARY
360
ADA
102
}
330
9EE
100
AcDbVisualStyle
  2
OverhangOff
 70
    21
 71
     2
 72
     2
 73
     0
 90
        0
 40
-0.6
 41
-30.0
 62
     5
 63
     7
421
 16777215
 74
     1
 91
        4
 64
     7
 65
   257
 75
     1
175
     1
 42
1.0
 92
        9
 66
     7
 43
1.0
 76
     1
 77
     6
 78
     2
 67
     7
 79
     5
170
     0
171
     0
290
     0
174
     0
 93
        1
 44
0.0
173
     0
291
     1
 45
0.0
1001
ACAD
1000
AcDbSavedByObjectVersion
1070
     0
  0
VISUALSTYLE
  5
9F8
102
{ACAD_REACTORS
330
9EE
102
}
102
{ACAD_XDICTIONARY
360
ADC
102
}
330
9EE
100
AcDbVisualStyle
  2
Realistic
 70
     8
 71
     2
 72
     2
 73
     0
 90
        2
 40
-0.6
 41
30.0
 62
     5
 63
     7
421
 16777215
 74
     0
 91
        0
 64
     7
 65
   257
 75
     1
175
     1
 42
1.0
 92
        8
 66
   257
 43
1.0
 76
     1
 77
     6
 78
     2
 67
     7
 79
     3
170
     0
171
     0
290
     0
174
     0
 93
       13
 44
0.0
173
     0
291
     0
 45
0.0
1001
ACAD
1000
AcDbSavedByObjectVersion
1070
     0
  0
VISUALSTYLE
  5
A03
102
{ACAD_REACTORS
330
9EE
102
}
102
{ACAD_XDICTIONARY
360
ADE
102
}
330
9EE
100
AcDbVisualStyle
  2
Shaded
 70
    27
 71
     2
 72
     2
 73
     1
 90
        2
 40
-0.6
 41
30.0
 62
     5
 63
     7
421
 16777215
 74
     0
 91
        4
 64
     7
 65
   257
 75
     1
175
     1
 42
1.0
 92
        8
 66
   257
 43
1.0
 76
     1
 77
     6
 78
     2
 67
     8
425
  7895160
 79
     3
170
     0
171
     0
290
     0
174
     0
 93
        5
 44
0.0
173
     0
291
     0
 45
0.0
1001
ACAD
1000
AcDbSavedByObjectVersion
1070
     0
  0
VISUALSTYLE
  5
A02
102
{ACAD_REACTORS
330
9EE
102
}
102
{ACAD_XDICTIONARY
360
AE0
102
}
330
9EE
100
AcDbVisualStyle
  2
Shaded with edges
 70
    26
 71
     2
 72
     2
 73
     1
 90
        2
 40
-0.6
 41
30.0
 62
     5
 63
     7
421
 16777215
 74
     1
 91
       10
 64
     7
 65
   257
 75
     2
175
     1
 42
1.0
 92
        8
 66
   257
 43
1.0
 76
     1
 77
     6
 78
     2
 67
     7
 79
     3
170
     0
171
     0
290
     0
174
     0
 93
        5
 44
0.0
173
     0
291
     0
 45
0.0
1001
ACAD
1000
AcDbSavedByObjectVersion
1070
     0
  0
VISUALSTYLE
  5
9FF
102
{ACAD_REACTORS
330
9EE
102
}
102
{ACAD_XDICTIONARY
360
AE2
102
}
330
9EE
100
AcDbVisualStyle
  2
Shades of Gray
 70
    23
 71
     2
 72
     2
 73
     3
 90
        0
 40
-0.6
 41
-30.0
 62
     5
 63
     7
421
 16777215
 74
     2
 91
        2
 64
     7
 65
     7
 75
     1
175
     1
 42
40.0
 92
        8
 66
     7
 43
1.0
 76
     1
 77
     6
 78
     2
 67
     7
 79
     3
170
     0
171
     0
290
     0
174
     0
 93
        1
 44
0.0
173
     0
291
     0
 45
0.0
1001
ACAD
1000
AcDbSavedByObjectVersion
1070
     0
  0
VISUALSTYLE
  5
A00
102
{ACAD_REACTORS
330
9EE
102
}
102
{ACAD_XDICTIONARY
360
AE4
102
}
330
9EE
100
AcDbVisualStyle
  2
Sketchy
 70
    24
 71
     1
 72
     2
 73
     2
 90
        0
 40
-0.6
 41
-30.0
 62
     5
 63
     7
421
 16777215
 74
     2
 91
        2
 64
     7
 65
     7
 75
     1
175
     1
 42
40.0
 92
       11
 66
     7
 43
1.0
 76
     1
 77
     6
 78
     2
 67
     7
 79
     6
170
     0
171
     0
290
     0
174
     0
 93
        1
 44
0.0
173
     0
291
     0
 45
0.0
1001
ACAD
1000
AcDbSavedByObjectVersion
1070
     0
  0
VISUALSTYLE
  5
9FB
102
{ACAD_REACTORS
330
9EE
102
}
102
{ACAD_XDICTIONARY
360
AE6
102
}
330
9EE
100
AcDbVisualStyle
  2
Thicken
 70
    13
 71
     2
 72
     2
 73
     0
 90
        0
 40
-0.6
 41
-30.0
 62
     5
 63
     7
421
 16777215
 74
     1
 91
        4
 64
     7
 65
   257
 75
     1
175
     1
 42
1.0
 92
       12
 66
     7
 43
1.0
 76
     1
 77
     6
 78
     2
 67
     7
 79
     5
170
     0
171
     0
290
     0
174
     0
 93
        1
 44
0.0
173
     0
291
     1
 45
0.0
1001
ACAD
1000
AcDbSavedByObjectVersion
1070
     0
  0
VISUALSTYLE
  5
9F5
102
{ACAD_REACTORS
330
9EE
102
}
102
{ACAD_XDICTIONARY
360
AE8
102
}
330
9EE
100
AcDbVisualStyle
  2
Wireframe
 70
     5
 71
     0
 72
     2
 73
     0
 90
        0
 40
-0.6
 41
-30.0
 62
     5
 63
     7
421
 16777215
 74
     1
 91
        4
 64
     7
 65
   257
 75
     1
175
     1
 42
1.0
 92
        0
 66
   257
 43
1.0
 76
     1
 77
     6
 78
     2
 67
     7
 79
     3
170
     0
171
     0
290
     0
174
     0
 93
        1
 44
0.0
173
     0
291
     0
 45
0.0
1001
ACAD
1000
AcDbSavedByObjectVersion
1070
     0
  0
VISUALSTYLE
  5
A01
102
{ACAD_REACTORS
330
9EE
102
}
102
{ACAD_XDICTIONARY
360
AEA
102
}
330
9EE
100
AcDbVisualStyle
  2
X-Ray
 70
    25
 71
     2
 72
     2
 73
     1
 90
        1
 40
0.5
 41
-30.0
 62
     5
 63
     7
421
 16777215
 74
     1
 91
        0
 64
     7
 65
   257
 75
     1
175
     1
 42
1.0
 92
        8
 66
     7
 43
1.0
 76
     1
 77
     6
 78
     2
 67
     7
 79
     3
170
     0
171
     0
290
     0
174
     0
 93
       13
 44
0.0
173
     0
291
     0
 45
0.0
1001
ACAD
1000
AcDbSavedByObjectVersion
1070
     0
  0
DICTIONARYVAR
  5
AA3
102
{ACAD_REACTORS
330
AE
102
}
330
AE
100
DictionaryVariables
280
     0
  1
1:1
  0
DICTIONARYVAR
  5
A9F
102
{ACAD_REACTORS
330
AE
102
}
330
AE
100
DictionaryVariables
280
     0
  1
Standard
  0
DICTIONARYVAR
  5
A9E
102
{ACAD_REACTORS
330
AE
102
}
330
AE
100
DictionaryVariables
280
     0
  1
Standard
  0
DICTIONARYVAR
  5
AA0
102
{ACAD_REACTORS
330
AE
102
}
330
AE
100
DictionaryVariables
280
     0
  1
Imperial24
  0
DICTIONARYVAR
  5
AA1
102
{ACAD_REACTORS
330
AE
102
}
330
AE
100
DictionaryVariables
280
     0
  1
Imperial24
  0
DICTIONARYVAR
  5
AF
102
{ACAD_REACTORS
330
AE
102
}
330
AE
100
DictionaryVariables
280
     0
  1
4
  0
DICTIONARYVAR
  5
AA5
102
{ACAD_REACTORS
330
AE
102
}
330
AE
100
DictionaryVariables
280
     0
  1
1
  0
DICTIONARYVAR
  5
AA6
102
{ACAD_REACTORS
330
AE
102
}
330
AE
100
DictionaryVariables
280
     0
  1
15
  0
DICTIONARYVAR
  5
AA4
102
{ACAD_REACTORS
330
AE
102
}
330
AE
100
DictionaryVariables
280
     0
  1
0
  0
DICTIONARYVAR
  5
AA2
102
{ACAD_REACTORS
330
AE
102
}
330
AE
100
DictionaryVariables
280
     0
  1
0
  0
DICTIONARYVAR
  5
AA7
102
{ACAD_REACTORS
330
AE
102
}
330
AE
100
DictionaryVariables
280
     0
  1
2
  0
DICTIONARY
  5
A64
102
{ACAD_REACTORS
330
A62
102
}
330
A62
100
AcDbDictionary
281
     1
  0
DICTIONARY
  5
A63
102
{ACAD_REACTORS
330
A62
102
}
330
A62
100
AcDbDictionary
281
     1
  3
2130108712
350
A5D
  3
2130108720
350
A5E
  3
2130108728
350
A5F
  3
2130108736
350
A60
  3
2130108744
350
A61
  0
DICTIONARY
  5
A9A
330
A21
100
AcDbDictionary
280
     1
281
     1
  3
ACAD_XREC_ROUNDTRIP
360
A9B
  0
DICTIONARY
  5
A9C
330
A24
100
AcDbDictionary
280
     1
281
     1
  3
ADSK_XREC_LAYOUTTHUMBNAIL
360
A9D
  0
DICTIONARY
  5
AB2
330
9DE
100
AcDbDictionary
280
     1
281
     1
  3
ACAD_XREC_ROUNDTRIP
360
AB3
  0
DICTIONARY
  5
AB4
330
9D6
100
AcDbDictionary
280
     1
281
     1
  3
ACAD_XREC_ROUNDTRIP
360
AB5
  0
DICTIONARY
  5
AB6
330
9E6
100
AcDbDictionary
280
     1
281
     1
  3
ACAD_XREC_ROUNDTRIP
360
AB7
  0
DICTIONARY
  5
A98
330
A1F
100
AcDbDictionary
280
     1
281
     1
  3
ACAD_XREC_ROUNDTRIP
360
A99
  0
DICTIONARY
  5
AB8
330
A09
100
AcDbDictionary
280
     1
281
     1
  3
ACAD_ROUNDTRIP_2008_TABLESTYLE_CELLSTYLEMAP
360
ABA
  3
ACAD_XREC_ROUNDTRIP
360
AB9
  0
DICTIONARY
  5
ABC
330
9F4
100
AcDbDictionary
280
     1
281
     1
  3
ACAD_XREC_ROUNDTRIP
360
ABD
  0
DICTIONARY
  5
ABE
330
9F3
100
AcDbDictionary
280
     1
281
     1
  3
ACAD_XREC_ROUNDTRIP
360
ABF
  0
DICTIONARY
  5
AC0
330
9FA
100
AcDbDictionary
280
     1
281
     1
  3
ACAD_XREC_ROUNDTRIP
360
AC1
  0
DICTIONARY
  5
AC2
330
9FE
100
AcDbDictionary
280
     1
281
     1
  3
ACAD_XREC_ROUNDTRIP
360
AC3
  0
DICTIONARY
  5
AC4
330
9F7
100
AcDbDictionary
280
     1
281
     1
  3
ACAD_XREC_ROUNDTRIP
360
AC5
  0
DICTIONARY
  5
AC6
330
9F9
100
AcDbDictionary
280
     1
281
     1
  3
ACAD_XREC_ROUNDTRIP
360
AC7
  0
DICTIONARY
  5
AC8
330
A06
100
AcDbDictionary
280
     1
281
     1
  3
ACAD_XREC_ROUNDTRIP
360
AC9
  0
DICTIONARY
  5
ACA
330
9FD
100
AcDbDictionary
280
     1
281
     1
  3
ACAD_XREC_ROUNDTRIP
360
ACB
  0
DICTIONARY
  5
ACC
330
9EF
100
AcDbDictionary
280
     1
281
     1
  3
ACAD_XREC_ROUNDTRIP
360
ACD
  0
DICTIONARY
  5
ACE
330
9F0
100
AcDbDictionary
280
     1
281
     1
  3
ACAD_XREC_ROUNDTRIP
360
ACF
  0
DICTIONARY
  5
AD0
330
9F1
100
AcDbDictionary
280
     1
281
     1
  3
ACAD_XREC_ROUNDTRIP
360
AD1
  0
DICTIONARY
  5
AD2
330
9F2
100
AcDbDictionary
280
     1
281
     1
  3
ACAD_XREC_ROUNDTRIP
360
AD3
  0
DICTIONARY
  5
AD4
330
9F6
100
AcDbDictionary
280
     1
281
     1
  3
ACAD_XREC_ROUNDTRIP
360
AD5
  0
DICTIONARY
  5
AD6
330
A04
100
AcDbDictionary
280
     1
281
     1
  3
ACAD_XREC_ROUNDTRIP
360
AD7
  0
DICTIONARY
  5
AD8
330
9FC
100
AcDbDictionary
280
     1
281
     1
  3
ACAD_XREC_ROUNDTRIP
360
AD9
  0
DICTIONARY
  5
ADA
330
A05
100
AcDbDictionary
280
     1
281
     1
  3
ACAD_XREC_ROUNDTRIP
360
ADB
  0
DICTIONARY
  5
ADC
330
9F8
100
AcDbDictionary
280
     1
281
     1
  3
ACAD_XREC_ROUNDTRIP
360
ADD
  0
DICTIONARY
  5
ADE
330
A03
100
AcDbDictionary
280
     1
281
     1
  3
ACAD_XREC_ROUNDTRIP
360
ADF
  0
DICTIONARY
  5
AE0
330
A02
100
AcDbDictionary
280
     1
281
     1
  3
ACAD_XREC_ROUNDTRIP
360
AE1
  0
DICTIONARY
  5
AE2
330
9FF
100
AcDbDictionary
280
     1
281
     1
  3
ACAD_XREC_ROUNDTRIP
360
AE3
  0
DICTIONARY
  5
AE4
330
A00
100
AcDbDictionary
280
     1
281
     1
  3
ACAD_XREC_ROUNDTRIP
360
AE5
  0
DICTIONARY
  5
AE6
330
9FB
100
AcDbDictionary
280
     1
281
     1
  3
ACAD_XREC_ROUNDTRIP
360
AE7
  0
DICTIONARY
  5
AE8
330
9F5
100
AcDbDictionary
280
     1
281
     1
  3
ACAD_XREC_ROUNDTRIP
360
AE9
  0
DICTIONARY
  5
AEA
330
A01
100
AcDbDictionary
280
     1
281
     1
  3
ACAD_XREC_ROUNDTRIP
360
AEB
  0
XRECORD
  5
A5D
102
{ACAD_REACTORS
330
A63
102
}
330
A63
100
AcDbXrecord
280
     1
  1
AcDb_Thumbnail_Schema
102
{ATTRRECORD
341
A5E
  2
AcDbDs::TreatedAsObjectData
280
     1
291
     1
102
ATTRRECORD}
102
{ATTRRECORD
341
A5F
  2
AcDbDs::Legacy
280
     1
291
     1
102
ATTRRECORD}
  2
AcDbDs::ID
280
    10
 91
        8
102
{ATTRRECORD
341
A60
  2
AcDs:Indexable
280
     1
291
     1
102
ATTRRECORD}
102
{ATTRRECORD
341
A61
  2
AcDbDs::HandleAttribute
280
     7
282
     1
102
ATTRRECORD}
  2
Thumbnail_Data
280
    15
 91
        0
  0
XRECORD
  5
A5E
102
{ACAD_REACTORS
330
A63
102
}
330
A63
100
AcDbXrecord
280
     1
  1
AcDbDs::TreatedAsObjectDataSchema
  2
AcDbDs::TreatedAsObjectData
280
     1
 91
        0
  0
XRECORD
  5
A5F
102
{ACAD_REACTORS
330
A63
102
}
330
A63
100
AcDbXrecord
280
     1
  1
AcDbDs::LegacySchema
  2
AcDbDs::Legacy
280
     1
 91
        0
  0
XRECORD
  5
A60
102
{ACAD_REACTORS
330
A63
102
}
330
A63
100
AcDbXrecord
280
     1
  1
AcDbDs::IndexedPropertySchema
  2
AcDs:Indexable
280
     1
 91
        0
  0
XRECORD
  5
A61
102
{ACAD_REACTORS
330
A63
102
}
330
A63
100
AcDbXrecord
280
     1
  1
AcDbDs::HandleAttributeSchema
  2
AcDbDs::HandleAttribute
280
     7
 91
        1
284
     1
  0
XRECORD
  5
A9B
102
{ACAD_REACTORS
330
A9A
102
}
330
A9A
100
AcDbXrecord
280
     1
102
DISPLAYNAME
  1
Imperial24
102
FLAGS
 90
        0
  0
XRECORD
  5
A9D
102
{ACAD_REACTORS
330
A9C
102
}
330
A9C
100
AcDbXrecord
280
     1
310
2800000000010000A4000000010008000000000000A4000001000000010000000001000000000000292929FF000000FFC8C8C8FF000000FF000000FF000000FF000000FF000000FF000000FF000000FF000000FF330000FF660000FF990000FFCC0000FFFF0000FF003300FF333300FF663300FF993300FFCC3300FFFF3300
310
FF006600FF336600FF666600FF996600FFCC6600FFFF6600FF009900FF339900FF669900FF999900FFCC9900FFFF9900FF00CC00FF33CC00FF66CC00FF99CC00FFCCCC00FFFFCC00FF00FF00FF33FF00FF66FF00FF99FF00FFCCFF00FFFFFF00FF000033FF330033FF660033FF990033FFCC0033FFFF0033FF003333FF3333
310
33FF663333FF993333FFCC3333FFFF3333FF006633FF336633FF666633FF996633FFCC6633FFFF6633FF009933FF339933FF669933FF999933FFCC9933FFFF9933FF00CC33FF33CC33FF66CC33FF99CC33FFCCCC33FFFFCC33FF00FF33FF33FF33FF66FF33FF99FF33FFCCFF33FFFFFF33FF000066FF330066FF660066FF99
310
0066FFCC0066FFFF0066FF003366FF333366FF663366FF993366FFCC3366FFFF3366FF006666FF336666FF666666FF996666FFCC6666FFFF6666FF009966FF339966FF669966FF999966FFCC9966FFFF9966FF00CC66FF33CC66FF66CC66FF99CC66FFCCCC66FFFFCC66FF00FF66FF33FF66FF66FF66FF99FF66FFCCFF66FF
310
FFFF66FF000099FF330099FF660099FF990099FFCC0099FFFF0099FF003399FF333399FF663399FF993399FFCC3399FFFF3399FF006699FF336699FF666699FF996699FFCC6699FFFF6699FF009999FF339999FF669999FF999999FFCC9999FFFF9999FF00CC99FF33CC99FF66CC99FF99CC99FFCCCC99FFFFCC99FF00FF99
310
FF33FF99FF66FF99FF99FF99FFCCFF99FFFFFF99FF0000CCFF3300CCFF6600CCFF9900CCFFCC00CCFFFF00CCFF0033CCFF3333CCFF6633CCFF9933CCFFCC33CCFFFF33CCFF0066CCFF3366CCFF6666CCFF9966CCFFCC66CCFFFF66CCFF0099CCFF3399CCFF6699CCFF9999CCFFCC99CCFFFF99CCFF00CCCCFF33CCCCFF66CC
310
CCFF99CCCCFFCCCCCCFFFFCCCCFF00FFCCFF33FFCCFF66FFCCFF99FFCCFFCCFFCCFFFFFFCCFF0000FFFF3300FFFF6600FFFF9900FFFFCC00FFFFFF00FFFF0033FFFF3333FFFF6633FFFF9933FFFFCC33FFFFFF33FFFF0066FFFF3366FFFF6666FFFF9966FFFFCC66FFFFFF66FFFF0099FFFF3399FFFF6699FFFF9999FFFFCC
310
99FFFFFF99FFFF00CCFFFF33CCFFFF66CCFFFF99CCFFFFCCCCFFFFFFCCFFFF00FFFFFF33FFFFFF66FFFFFF99FFFFFFCCFFFFFFFFFFFFFF000000FF0D0D0DFF1A1A1AFF282828FF353535FF434343FF505050FF5D5D5DFF6B6B6BFF787878FF868686FF939393FFA1A1A1FFAEAEAEFFBBBBBBFFC9C9C9FFD6D6D6FFE4E4E4FF
310
F1F1F1FFFFFFFFFF000000FF000000FF000000FF000000FF000000FF000000FF000000FF000000FF000000FF0000000000000000000000000000000000000000000000000000000000000000000000000000000000000000000000000000000000000000000000000000000000000000000000000000000000000000000000
310
00000000000000000000000000000000000000000000000000000000000000000000000000000000000000000000000000000000000000000000000000000000000000000000000000000000000000000000000000000000000000000000000000000000000000000000000000000000000000000000000000000000000000
310
00000000000000000000000000000000000000000000000000000000000000000000000000000000000000000000000000000000000000000000000000000000000000000000000000000000000000000000000000000000000000000000000000000000000000000000000000000000000000000000000000000000000000
310
00000000000000000000000000000000000000000000000000000000000000000000000000000000000000000000000000000000000000000000000000000000000000000000000000000000000000000000000000000000000000000000000000000000000000000000000000000000000000000000000000000000000000
310
00000000000000000000000000000000000000000000000000000000000000000000000000000000000000000000000000000000000000000000000000000000000000000000000000000000000000000000000000000000000000000000000000000000000000000000000000000000000000000000000000000000000000
310
00000000000000000000000000000000000000000000000000000000000000000000000000000000000000000000000000000000000000000000000000000000000000000000000000000000000000000000000000000000000000000000000000000000000000000000000000000000000000000000000000000000000000
310
00000000000000000000000000000000000000000000000000000000000000000000000000000000000000000000000000000000000000000000000000000000000000000000000000000000000000000000000000000000000000000000000000000000000000000000000000000000000000000000000000000000000000
310
00000000000000000000000000000000000000000000000000000000000000000000000000000000000000000000000000000000000000000000000000000000000000000000000000000000000000000000000000000000000000000000000000000000000000000000000000000000000000000000000000000000000000
310
00000000000000000000000000000000000000000000000000000000000000000000000000000000000000000000000000000000000000000000000000000000000000000000000000000000000000000000000000000000000000000000000000000000000000000000000000000000000000000000000000000000000000
310
00000000000000000000000000000000000000000000000000000000000000000000000000000000000000000000000000000000000000000000000000000000000000000000000000000000000000000000000000000000000000000000000000000000000000000000000000000000000000000000000000000000000000
310
00000000000000000000000000000000000000000000000000000000000000000000000000000000000000000000000000000000000000000000000000000000000000000000000000000000000000000000000000000000000000000000000000000000000000000000000000000000000000000000000000000000000000
310
00000000000000000000000000000000000000000000000000000000000000000000000000000000000000000000000000000000000000000000000000000000000000000000000000000000000000000000000000000000000000000000000000000000000000000000000000000000000000000000000000000000000000
310
00000000000000000000000000000000000000000000000000000000000000000000000000000000000000000000000000000000000000000000000000000000000000000000000000000000000000000000000000000000000000000000000000000000000000000000000000000000000000000000000000000000000000
310
00000000000000000000000000000000000000000000000000000000000000000000000000000000000000000000000000000000000000000000000000000000000000000000000000000000000000000000000000000000000000000000000000000000000000000000000000000000000000000000000000000000000000
310
00000000000000000000000000000000000000000000000000000000000000000000000000000000000000000000000000000000000000000000000000000000000000000000000000000000000000000000000000000000000000000000000000000000000000000000000000000000000000000000000000000000000000
310
00000000000000000000000000000000000000000000000000000000000000000000000000000000000000000000000000000000000000000000000000000000000000000000000000000000000000000000000000000000000000000000000000000000000000000000000000000000000000000000000000000000000000
310
00000000000000000000000000000000000000000000000000000000000000000000000000000000000000000000000000000000000000000000000000000000000000000000000000000000000000000000000000000000000000000000000000000000000000000000000000000000000000000000000000000000000000
310
00000000000000000000000000000000000000000000000000000000000000000000000000000000000000000000000000000000000000000000000000000000000000000000000000000000000000000000000000000000000000000000000000000000000000000000000000000000000000000000000000000000000000
310
00000000000000000000000000000000000000000000000000000000000000000000000000000000000000000000000000000000000000000000000000000000000000000000000000000000000000000000000000000000000000000000000000000000000000000000000000000000000000000000000000000000000000
310
00000000000000000000000000000000000000000000000000000000000000000000000000000000000000000000000000000000000000000000000000000000000000000000000000000000000000000000000000000000000000000000000000000000000000000000000000000000000000000000000000000000000000
310
00000000000000000000000000000000000000000000000000000000000000000000000000000000000000000000000000000000000000000000000000000000000000000000000000000000000000000000000000000000000000000000000000000000000000000000000000000000000000000000000000000000000000
310
00000000000000000000000000000000000000000000000000000000000000000000000000000000000000000000000000000000000000000000000000000000000000000000000000000000000000000000000000000000000000000000000000000000000000000000000000000000000000000000000000000000000000
310
00000000000000000000000000000000000000000000000000000000000000000000000000000000000000000000000000000000000000000000000000000000000000000000000000000000000000000000000000000000000000000000000000000000000000000000000000000000000000000000000000000000000000
310
00000000000000000000000000000000000000000000000000000000000000000000000000000000000000000000000000000000000000000000000000000000000000000000000000000000000000000000000000000000000000000000000000000000000000000000000000000000000000000000000000000000000000
310
00000000000000000000000000000000000000000000000000000000000000000000000000000000000000000000000000000000000000000000000000000000000000000000000000000000000000000000000000000000000000000000000000000000000000000000000000000000000000000000000000000000000000
310
00000000000000000000000000000000000000000000000000000000000000000000000000000000000000000000000000000000000000000000000000000000000000000000000000000000000000000000000000000000000000000000000000000000000000000000000000000000000000000000000000000000000000
310
00000000000000000000000000000000000000000000000000000000000000000000000000000000000000000000000000000000000000000000000000000000000000000000000000000000000000000000000000000000000000000000000000000000000000000000000000000000000000000000000000000000000000
310
00000000000000000000000000000000000000000000000000000000000000000000000000000000000000000000000000000000000000000000000000000000000000000000000000000000000000000000000000000000000000000000000000000000000000000000000000000000000000000000000000000000000000
310
00000000000000000000000000000000000000000000000000000000000000000000000000000000000000000000000000000000000000000000000000000000000000000000000000000000000000000000000000000000000000000000000000000000000000000000000000000000000000000000000000000000000000
310
00000000000000000000000000000000000000000000000000000000000000000000000000000000000000000000000000000000000000000000000000000000000000000000000000000000000000000000000000000000000000000000000000000000000000000000000000000000000000000000000000000000000000
310
00000000000000000000000000000000000000000000000000000000000000000000000000000000000000000000000000000000000000000000000000000000000000000000000000000000000000000000000000000000000000000000000000000000000000000000000000000000000000000000000000000000000000
310
00000000000000000000000000000000000000000000000000000000000000000000000000000000000000000000000000000000000000000000000000000000000000000000000000000000000000000000000000000000000000000000000000000000000000000000000000000000000000000000000000000000000000
310
000000000000000000000000000000000000000000000000000000000000BEBEBEBEBEBE00BEBEBEBEBEBEBE0000000000000000000000000000000000000000000000000000000000000000000000000000000000000000000000000000000000000000000000000000000000000000000000000000000000000000000000
310
00000000000000000000000000000000000000000000000000000000000000000000000000000000000000000000000000000000000000000000000000000000000000000000000000000000000000000000000000000000000000000000000000000000000000000000000000000000000000000000000000000000000000
310
0000000000000000000000000000000000000000000000000000000000000000BEBEBEBEBEBEBEBEBEBEBEBEBEBE00000000000000000000000000000000000000000000000000000000000000000000000000000000000000000000000000000000000000000000000000000000000000000000000000000000000000DCDC
310
DCDCDCDCDCDCDCDCDCDCDCDCDCDCDCDCDCDCDCDCDCDCDCDCDCDCDCDCDCDCDCDCDCDCDCDCDCDCDCDCDCDCDCDCDCDCDCDCDCDCDCDCDCDCDCDCDCDCDCDCDCDCDCDCDCDCDCDCDCDCDCDCDCDCDCDCDCDCDCDCDCDCDCDCDCDCDCDCDCDCDCDCDCDCDCDCDCDCDCDCDCDCDCDCDCDCDCDCDCDCDCDCDCDCDCDCDCDCDCDCDCDCDCDCDCDCDC
310
DCDCDCDCDCDCDCDCDCDCDCDCDCDCDCDCDCDCDCDCDCDCDCDCDCDCDCDCDCDCDCDCDCDCDCDCDCDCDCDCDCDCDCDCDCDCDCDCDC000000000000000000000000000000000000000000000000000000000000000000000000000000000000000000000000000000000000000000000000000000000000000000000000000000000000
310
DC000000000000000000000000000000000000000000000000000000000000000000000000000000000000000000000000000000000000000000000000000000000000000000000000000000000000000000000000000000000000000000000000000000000000000000000000000000000000000000000000000000000000
310
00000000000000000000000000000000000000000000000000DC000000000000000000BEBEBE00000000BEBEBEBE00000000DC00000000000000000000000000000000000000000000000000000000000000000000000000000000000000000000000000000000000000000000000000000000000000000000000000000000
310
0000DC00000000000000000000000000000000BEBE000000000000000000000000000000000000000000000000000000000000000000000000000000000000BEBE0000000000000000000000000000000000000000000000000000000000000000000000000000000000000000000000000000000000000000000000000000
310
000000000000000000000000000000000000000000000000000000DCBEBEBEBEBEBEBEBEBEBEBEBE00000000BEBEBEBE00000000DC0000000000000000000000000000000000000000000000000000000000000000000000000000000000000000000000000000000000000000000000000000000000000000000000000000
310
00000000DC00000000000000000000000000000000BEBEBEBEBEBEBEBEBEBEBEBEBEBEBEBEBEBEBEBEBEBEBEBEBEBEBEBEBEBEBEBEBEBEBEBEBEBEBEBEBEBEBEBEBEBE000000000000000000000000000000000000000000000000000000000000000000000000000000000000000000000000000000000000000000000000
310
0000000000000000000000000000000000000000000000000000000000DCBEBEBEBEBEBEBEBEBEBEBEBEBEBEBEBEBEBEBEBEBEBEBEBEDC000000000000000000000000000000000000000000000000000000000000000000000000000000000000000000000000000000000000000000000000000000000000000000000000
310
000000000000DC00000000000000000000000000000000BE0000000000000000000000000000000000000000BEBEBEBE0000000000000000000000000000000000000000BE00000000000000000000000000000000000000000000000000000000000000000000000000000000000000000000000000000000000000000000
310
00000000000000000000000000000000000000000000000000000000000000DCBEBEBEBEBE000000000000BEBEBE00BEBEBEBEBEBEBE0000DC00000000000000000000000000000000000000000000000000000000000000000000000000000000000000000000000000000000000000000000000000000000000000000000
310
0000000000000000DC00000000000000000000000000000000BE0000000000000000000000000000000000000000000000000000000000000000000000000000000000000000BE0000000000000000000000000000000000000000000000000000000000000000000000000000000000000000000000000000000000000000
310
000000000000000000000000000000000000000000000000000000000000000000DCBEBEBEBEBEBEBEBEBEBEBEBEBEBEBEBEBEBEBEBEBEBEBEBEDC0000000000000000000000000000000000000000000000000000000000000000000000000000000000000000000000000000000000000000000000000000000000000000
310
00000000000000000000DC00000000000000000000000000000000BE0000000000000000000000000000000000000000000000000000000000000000000000000000000000000000BE000000000000000000000000000000000000000000000000000000000000000000000000000000000000000000000000000000000000
310
0000000000000000000000000000000000000000000000000000000000000000000000DCBEBEBEBEBEBEBEBEBEBEBEBEBEBEBEBEBEBEBEBEBEBEBEBEDC000000000000000000000000000000000000000000000000000000000000000000000000000000000000000000000000000000000000000000000000000000000000
310
000000000000000000000000DC00000000000000000000000000000000BE0000000000000000000000000000000000000000000000000000000000000000000000000000000000000000BE00000000000000000000000000000000000000000000000000000000000000000000000000000000000000000000000000000000
310
00000000000000000000000000000000000000000000000000000000000000000000000000DCBEBEBEBEBE000000000000BEBEBEBEBEBE00000000000000DC00000000000000000000000000000000000000000000000000000000000000000000000000000000000000000000000000000000000000000000000000000000
310
0000000000000000000000000000DC00000000000000000000000000000000BE0000000000000000000000000000000000000000000000000000000000000000000000000000000000000000BE0000000000000000000000000000000000000000000000000000000000000000000000000000000000000000000000000000
310
000000000000000000000000000000000000000000000000000000000000000000000000000000DCBEBEBEBEBEBEBEBEBEBEBEBEBEBEBEBEBEBEBEBEBEBEBEBEDC0000000000000000000000000000000000000000000000000000000000000000000000000000000000000000000000000000000000000000000000000000
310
00000000000000000000000000000000DC00000000000000000000000000000000BE0000000000000000000000000000000000000000000000000000000000000000000000000000000000000000BE000000000000000000000000000000000000000000000000000000000000000000000000000000000000000000000000
310
0000000000000000000000000000000000000000000000000000000000000000000000000000000000DCBEBE00BEBEBEBEBEBEBEBEBEBEBEBEBEBEBEBEBEBEBEBEBEDC000000000000000000000000000000000000000000000000000000000000000000000000000000000000000000000000000000000000000000000000
310
000000000000000000000000000000000000DC00000000000000000000000000000000BE0000000000000000000000000000000000000000000000000000000000000000000000000000000000000000BE00000000000000000000000000000000000000000000000000000000000000000000000000000000000000000000
310
00000000000000000000000000000000000000000000000000000000000000000000000000000000000000DCDCDCDCDCDCDCBEBEDCDCDCDCDCDCDCDCDCDCBEBEBEBEBEBEDC00000000000000000000000000000000000000000000000000000000000000000000000000000000000000000000000000000000000000000000
310
0000000000000000000000000000000000000000DC00000000000000000000000000000000BE0000000000000000000000000000000000000000000000000000000000000000000000000000000000000000BE0000000000000000000000000000000000000000000000000000000000000000000000000000000000000000
310
00000000000000000000000000000000000000000000000000000000000000000000000000000000000000000000000000000000000000000000000000000000000000000000DC0000000000000000000000000000000000000000000000000000000000000000000000000000000000000000000000000000000000000000
310
00000000000000000000000000000000000000000000DC00000000000000000000000000000000BE2828282828282828282828282828282828282828282828282828282828282828282828282828282828282828BEBEBEBEBEBEBEBEBEBEBEBEBEBEBEBEBE0000000000000000000000000000000000000000000000000000
310
000000000000000000000000000000000000000000000000000000000000000000000000000000000000000000000000000000000000000000000000000000000000000000000000DC000000000000000000000000000000000000000000000000000000000000000000000000000000000000000000000000000000000000
310
000000000000000000000000000000000000000000000000DC0000000000000000000000000000000028282828282828282828282800000000002D2D0000000000000000000000000000000000000000000000000000280000000000000000000000BEBE0000BE000000000000000000000000000000000000000000000000
310
0000000000000000000000000000000000000000000000000000000000000000000000000000000000000000000000000000000000000000000000000000000000000000000000000000DC00000000000000000000000000000000000000000000000000000000000000000000000000000000000000000000000000000000
310
0000000000000000000000000000000000000000000000000000DC000000000000000000000000000000000028282828282828282828282828282828282828282828282828282800000000002D2D0000000000000000000028000000000000000000000000BE0000BE00000000000000000000000000000000000000000000
310
00000000000000000000000000000000000000000000000000000000000000000000000000000000000000000000000000000000000000000000000000000000000000000000000000000000DC0000000000000000000000000000000000000000000000000000000000000000000000000000000000000000000000000000
310
00000000000000000000000000000000000000000000000000000000DC0000000000000000000000000000000000000000000000000000000000000000000000000000000000002828282828282828282828000000000000000028000000000000000000000000BE0000BE0000000000000000000000000000000000000000
310
000000000000000000000000000000000000000000000000000000000000000000000000000000000000000000000000000000000000000000000000000000000000000000000000000000000000DC000000000000000000000000000000000000000000000000000000000000000000000000000000000000000000000000
310
000000000000000000000000000000000000000000000000000000000000DC0000000000000000000000000000000000000000000000000000000000000000000000000000000000000000000000000000000000280000000000000028000000000000000000000000BE0000BE000000000000000000000000000000000000
310
0000000000000000000000000000000000000000000000000000000000000000000000000000000000000000000000000000000000000000000000000000000000000000000000000000000000000000DC00000000000000000000000000000000000000000000000000000000000000000000000000000000000000000000
310
0000000000000000000000000000000000000000000000000000000000000000DC0000000000000000000000000000000000000000000000000000000000000000000000000000000000000000000000000000000000002800000000000028000000000000000000000000BE0000BE00000000000000000000000000000000
310
00000000000000000000000000000000000000000000000000000000000000000000000000000000000000000000000000000000000000000000000000000000000000000000000000000000000000000000DC0000000000000000000000000000000000000000000000000000000000000000000000000000000000000000
310
00000000000000000000000000000000000000000000000000000000000000000000DC0000000000000000000000000000000000000000000000000000000000000000000000000000000000000000000000000000000000000028280000000028000000000000000000000000BE0000BE0000000000000000000000000000
310
000000000000000000000000000000000000000000000000000000000000000000000000000000000000000000000000000000000000000000000000000000000000000000000000000000000000000000000000DC000000000000000000000000000000000000000000000000000000000000000000000000000000000000
310
000000000000000000000000000000000000000000000000000000000000000000000000DC000000000000000000000000000000000000000000000000000000000000000000000000000000000000000000000000000000000000000000280000002800000000000000000000BEBEBE0000BE000000000000000000000000
310
0000000000000000000000000000000000000000000000000000000000000000000000000000000000000000000000000000000000000000000000000000000000000000000000000000000000000000000000000000DC00000000000000000000000000000000000000000000000000000000000000000000000000000000
310
0000000000000000000000000000000000000000000000000000000000000000000000000000DC000000000000000000000000000000000000000000000000000000000000000000000000000000000000000000000000000000000000000000282800002800000000000000000000BEBEBE0000BE00000000000000000000
310
00000000000000000000000000000000000000000000000000000000000000000000000000000000000000000000000000000000000000000000000000000000000000000000000000000000000000000000000000000000DC0000000000000000000000000000000000000000000000000000000000000000000000000000
310
00000000000000000000000000000000000000000000000000000000000000000000000000000000DC000000000000000000000000000000000000000000000000000000000000000000000000000000000000000000000000000000000000000000282800002800000000000000000000BEBEBE0000BE0000000000000000
310
000000000000000000000000000000000000000000000000000000000000000000000000000000000000000000000000000000000000000000000000000000000000000000000000000000000000000000000000000000000000DC000000000000000000000000000000000000000000000000000000000000000000000000
310
000000000000000000000000000000000000000000000000000000000000000000000000000000000000DC0000000000000000000000000000000000000000000000000000000000000000000000000000000000000000000000000000000000000000002828000028000000000000000000000000BE0000BE000000000000
310
0000000000000000000000000000000000000000000000000000000000000000000000000000000000000000000000000000000000000000000000000000000000000000000000000000000000000000000000000000000000000000DC00000000000000000000000000000000000000000000000000000000000000000000
310
0000000000000000000000000000000000000000000000000000000000000000000000000000000000000000DC000000000000000000000000000000000000000000000000000000000000000000000000000000000000000000000000000000000000000000BE282D0028000000000000000000000000BE0000BE00000000
310
00000000000000000000000000000000000000000000000000000000000000000000000000000000000000000000000000000000000000000000000000000000000000000000000000000000000000000000000000000000000000000000DC0000000000000000000000000000000000000000000000000000000000000000
310
00000000000000000000000000000000000000000000000000000000000000000000000000000000000000000000DC000000000000000000000000000000000000000000000000000000000000000000000000000000000000000000000000000000000000000000BE28000028000000000000000000000000BE0000BE0000
310
000000000000000000000000000000000000000000000000000000000000000000000000000000000000000000000000000000000000000000000000000000000000000000000000000000000000000000000000000000000000000000000000DC000000000000000000000000000000000000000000000000000000000000
310
000000000000000000000000000000000000000000000000000000000000000000000000000000000000000000000000DC0000000000000000000000000000000000000000000000000000000000000000000000000000000000000000000000000000000000000000002828000028000000000000000000000000BE0000BE
310
0000000000000000000000000000000000000000000000000000000000000000000000000000000000000000000000000000000000000000000000000000000000000000000000000000000000000000000000000000000000000000000000000000DC00000000000000000000000000000000000000000000000000000000
310
0000000000000000000000000000000000000000000000000000000000000000000000000000000000000000000000000000DC0000000000000000000000000000000000000000000000000000000000000000000000000000000000000000000000000000000000000000002828000028000000000000000000000000BE00
310
BEBE0000000000000000000000000000000000000000000000000000000000000000000000000000000000000000000000000000000000000000000000000000000000000000000000000000000000000000000000000000000000000000000000000000DC0000000000000000000000000000000000000000000000000000
310
00000000000000000000000000000000000000000000000000000000000000000000000000000000000000000000000000000000DC00000000000000000000000000000000000000000000000000000000000000000000000000000000000000000000000000000000000000000028280000280000000000000000000000BE
310
BE00BEBE0000000000000000000000000000000000000000000000000000000000000000000000000000000000000000000000000000000000000000000000000000000000000000000000000000000000000000000000000000000000000000000000000000DC000000000000000000000000000000000000000000000000
310
000000000000000000000000000000000000000000000000000000000000000000000000000000000000000000000000000000000000DC00000000000000000000000000000000000000000000000000000000000000000000000000000000000000000000000000000000000000000028282D2D28BEBEBEBEBEBEBEBEBEBE
310
BEBEBE00BEBE0000000000000000000000000000000000000000000000000000000000000000000000000000000000000000000000000000000000000000000000000000000000000000000000000000000000000000000000000000000000000000000000000000DC00000000000000000000000000000000000000000000
310
0000000000000000000000000000000000000000000000000000000000000000000000000000000000000000000000000000000000000000DC00000000000000000000000000000000000000000000000000000000000000000000000000000000000000000000000000000000000000000000280000280000000000000000
310
000000000000BEBE0000000000000000000000000000000000000000000000000000000000000000000000000000000000000000000000000000000000000000000000000000000000000000000000000000000000000000000000000000000000000000000000000000DC0000000000000000000000000000000000000000
310
00000000000000000000000000000000000000000000000000000000000000000000000000000000000000000000000000000000000000000000DC0000000000000000000000000000000000000000000000000000000000000000000000000000000000000000000000000000000000000000000028000028000000000000
310
000000000000000000BE0000000000000000000000000000000000000000000000000000000000000000000000000000000000000000000000000000000000000000000000000000000000000000000000000000000000000000000000000000000000000000000000000000DC000000000000000000000000000000000000
310
000000000000000000000000000000000000000000000000000000000000000000000000000000000000000000000000000000000000000000000000DC000000000000000000000000000000000000000000000000000000000000000000000000000000000000000000000000000000000000000000002800002800000000
310
0000000000000000000000BE0000000000000000000000000000000000000000000000000000000000000000000000000000000000000000000000000000000000000000000000000000000000000000000000000000000000000000000000000000000000000000000000000000DC00000000000000000000000000000000
310
0000000000000000000000000000000000000000000000000000000000000000000000000000000000000000000000000000000000000000000000000000DC00000000000000000000000000000000000000000000000000000000000000000000000000000000000000000000000000000000000000000000002800280000
310
00000000000000000000000000BE0000000000000000000000000000000000000000000000000000000000000000000000000000000000000000000000000000000000000000000000000000000000000000000000000000000000000000000000000000000000000000000000000000DC0000000000000000000000000000
310
00000000000000000000000000000000000000000000000000000000000000000000000000000000000000000000000000000000000000000000000000000000DC0000000000000000000000000000000000000000000000000000000000000000000000000000000000000000000000000000000000000000000000280028
310
000000000000000000000000000000BE0000000000000000000000000000000000000000000000000000000000000000000000000000000000000000000000000000000000000000000000000000000000000000000000000000000000000000000000000000000000000000000000000000DC000000000000000000000000
310
000000000000000000000000000000000000000000000000000000000000000000000000000000000000000000000000000000000000000000000000000000000000DC000000000000000000000000000000000000000000000000000000000000000000000000000000000000000000000000000000000000000000000028
310
0028000000000000000000000000000000BE0000000000000000000000000000000000000000000000000000000000000000000000000000000000000000000000000000000000000000000000000000000000000000000000000000000000000000000000000000000000000000000000000000DC00000000000000000000
310
0000000000000000000000000000000000000000000000000000000000000000000000000000000000000000000000000000000000000000000000000000000000000000DC00000000000000000000000000000000000000000000000000000000000000000000000000000000000000000000000000000000000000000000
310
00280028000000000000000000000000000000BE0000000000000000000000000000000000000000000000000000000000000000000000000000000000000000000000000000000000000000000000000000000000000000000000000000000000000000000000000000000000000000000000000000DC0000000000000000
310
00000000000000000000000000000000000000000000000000000000000000000000000000000000000000000000000000000000000000000000000000000000000000000000DC0000000000000000000000000000000000000000000000000000000000000000000000000000000000000000000000000000000000000000
310
000000280028000000000000000000000000000000BE0000000000000000000000000000000000000000000000000000000000000000000000000000000000000000000000000000000000000000000000000000000000000000000000000000000000000000000000000000000000000000000000000000DC000000000000
310
000000000000000000000000000000000000000000000000000000000000000000000000000000000000000000000000000000000000000000000000000000000000000000000000DC000000000000000000000000000000000000000000000000000000000000000000000000000000000000000000000000000000000000
310
0000000000280028000000000000000000000000000000BE0000000000000000000000000000000000000000000000000000000000000000000000000000000000000000000000000000000000000000000000000000000000000000000000000000000000000000000000000000000000000000000000000000DC00000000
310
0000000000000000000000000000000000000000000000000000000000000000000000000000000000000000000000000000000000000000000000000000000000000000000000000000DC00000000000000000000000000000000000000000000000000000000000000000000000000000000000000000000000000000000
310
00000000000000280028000000000000000000000000000000BE0000000000000000000000000000000000000000000000000000000000000000000000000000000000000000000000000000000000000000000000000000000000000000000000000000000000000000000000000000000000000000000000000000DC0000
310
00000000000000000000000000000000000000000000000000000000000000000000000000000000000000000000000000000000000000000000000000000000000000000000000000000000DC0000000000000000000000000000000000000000000000000000000000000000000000000000000000000000000000000000
310
000000000000000000280028000000000000000000000000000000BE0000000000000000000000000000000000000000000000000000000000000000000000000000000000000000000000000000000000000000000000000000000000000000000000000000000000000000000000000000000000000000000000000000DC
310
000000000000000000000000000000000000000000000000000000000000000000000000000000000000000000000000000000000000000000000000000000000000000000000000000000000000DC000000000000000000000000000000000000000000000000000000000000000000000000000000000000000000000000
310
0000000000000000000000280028000000000000000000000000000000BE00000000000000000000000000000000000000000000000000000000000000000000000000000000000000000000000000000000000000000000000000000000000000000000000000000000000000000000000000000000000000000000000000
310
00DC000000000000000000000000000000000000000000000000000000000000000000000000000000000000000000000000000000000000000000000000000000000000000000000000000000000000DC00000000000000000000000000000000000000000000000000000000000000000000000000000000000000000000
310
00000000000000000000000000280028000000000000000000000000000000BE0000000000000000000000000000000000000000000000000000000000000000000000000000000000000000000000000000000000000000000000000000000000000000000000000000000000000000000000000000000000000000000000
310
000000DC000000000000000000000000000000000000000000000000000000000000000000000000000000000000000000000000000000000000000000000000000000000000000000000000000000000000DC0000000000000000000000000000000000000000000000000000000000000000000000000000000000000000
310
000000000000000000000000000000280028000000000000000000000000000000BE000000000000000000000000000000000000000000000000000000000000000000000000000000000000000000000000000000000000000000000000000000000000000000000000000000000000000000000000000000000000000000
310
0000000000DC000000000000000000000000000000000000000000000000000000000000000000000000000000000000000000000000000000000000000000000000000000000000000000000000000000000000DC000000000000000000000000000000000000000000000000000000000000000000000000000000000000
310
00000000000000000000000000000000002828BEBEBEBEBEBEBEBEBEBEBEBEBEBEBEBEBE00000000000000000000000000000000000000000000000000000000000000000000000000000000000000000000000000000000000000000000000000000000000000000000000000000000000000000000000000000000000000
310
00000000000000DC000000000000000000000000000000000000000000000000000000000000000000000000000000000000000000000000000000000000000000000000000000000000000000000000000000000000DC00000000000000000000000000000000000000000000000000000000000000000000000000000000
310
00000000000000000000000000000000000000000000000000000000000000000000000000000000000000000000000000000000000000000000000000000000000000000000000000000000000000000000000000000000000000000000000000000000000000000000000000000000000000000000000000000000000000
310
000000000000000000DC000000000000000000000000000000000000000000000000000000000000000000000000000000000000000000000000000000000000000000000000000000000000000000000000000000000000DC0000000000000000000000000000000000000000000000000000000000000000000000000000
310
00000000000000000000000000000000000000000000000000000000000000000000000000000000000000000000000000000000000000000000000000000000000000000000000000000000000000000000000000000000000000000000000000000000000000000000000000000000000000000000000000000000000000
310
0000000000000000000000DC000000000000000000000000000000000000000000000000000000000000000000000000000000000000000000000000000000000000000000000000000000000000000000000000000000000000DC000000000000000000000000000000000000000000000000000000000000000000000000
310
00000000000000000000000000000000000000000000000000000000000000000000000000000000000000000000000000000000000000000000000000000000000000000000000000000000000000000000000000000000000000000000000000000000000000000000000000000000000000000000000000000000000000
310
00000000000000000000000000DC000000000000000000000000000000000000000000000000000000000000000000000000000000000000000000000000000000000000000000000000000000000000000000000000000000000000DC00000000000000000000000000000000000000000000000000000000000000000000
310
00000000000000000000000000000000000000000000000000000000000000000000000000000000000000000000000000000000000000000000000000000000000000000000000000000000000000000000000000000000000000000000000000000000000000000000000000000000000000000000000000000000000000
310
000000000000000000000000000000DC000000000000000000000000000000000000000000000000000000000000000000000000000000000000000000000000000000000000000000000000000000000000000000000000000000000000DC00000000000000000000000000000000BE000000000000000000000000000000
310
0000000000000000000000000000000000000000000000000000000000BE00000000000000000000000000000000000000000000000000000000000000000000BE000000000000000000000000000000BE0000000000000000000000000000000000000000000000000000000000000000BE00000000000000000000000000
310
0000000000000000000000000000000000DC000000000000000000000000000000000000000000000000000000000000000000000000000000000000000000000000000000000000000000000000000000000000000000000000000000000000DC00000000000000000000000000000000BEBEBEBEBEBEBEBEBEBEBEBEBEBE
310
BEBEBEBEBEBEBEBEBEBEBEBEBEBEBEBEBEBEBEBEBEBEBEBEBEBEBEBEBEBEBEBE00000000000000000000000000000000000000000000000000000000000000000000BEBEBEBEBEBEBEBEBEBEBEBEBEBEBEBEBEBEBEBEBEBEBEBEBEBEBEBEBEBEBEBEBEBEBEBEBEBEBEBEBEBEBEBEBEBEBEBEBEBE0000000000000000000000
310
00000000000000000000000000000000000000DC000000000000000000000000000000000000000000000000000000000000000000000000000000000000000000000000000000000000000000000000000000000000000000000000000000000000DC00000000000000000000000000000000BE0000000000000000000000
310
000000000000000000BEBEBEBE0000000000000000000000000000000000000000BE00000000000000000000000000000000000000000000000000000000000000000000BE000000000000BEBEBEBE0000000000BE0000000000000000000000000000BEBEBEBE0000000000000000000000000000BE000000000000000000
310
000000000000000000000000000000000000000000DC000000000000000000000000000000000000000000000000000000000000000000000000000000000000000000000000000000000000000000000000000000000000000000000000000000000000DC00000000000000000000000000000000BE000000000000000000
310
00000000000000000000000000000000000000000000000000000000000000BE000000BE00000000000000000000000000000000000000000000000000000000000000000000BE000000000000000000000000000000BE0000000000000000000000000000000000000000000000000000000000000000BE00000000000000
310
0000000000000000000000000000000000000000000000DC000000000000000000000000000000000000000000000000000000000000000000000000000000000000000000000000000000000000000000000000000000000000000000000000000000000000DC00000000000000000000000000000000BEBEBEBEBEBEBEBE
310
BEBEBEBEBEBEBEBEBEBEBEBEBEBEBEBEBEBEBEBEBEBEBEBEBEBEBEBEBEBEBEBEBEBEBEBEBEBE00000000000000000000000000000000000000000000000000000000000000000000BE000000000000000000000000000000BE0000000000000000000000000000000000000000000000000000000000000000BE0000000000
310
00000000000000000000000000000000000000000000000000DC000000000000000000000000000000000000000000000000000000000000000000000000000000000000000000000000000000000000000000000000000000000000000000000000000000000000DC00000000000000000000000000000000BE0000000000
310
0000000000000000000000000000000000BEBEBEBE0000000000000000000000000000BEBEBEBEBE00000000000000000000000000000000000000000000000000000000000000000000BE000000000000000000000000000000BE0000000000000000000000000000000000000000000000000000000000000000BE000000
310
000000000000000000000000000000000000000000000000000000DC000000000000000000000000000000000000000000000000000000000000000000000000000000000000000000000000000000000000000000000000000000000000000000000000000000000000DC00000000000000000000000000000000BE000000
310
00000000000000000000000000000000000000000000000000000000000000000000000000BE000000BE00000000000000000000000000000000000000000000000000000000000000000000BE000000000000000000000000000000BE0000000000000000000000000000000000000000000000000000000000000000BE00
310
0000000000000000000000000000000000000000000000000000000000DC000000000000000000000000000000000000000000000000000000000000000000000000000000000000000000000000000000000000000000000000000000000000000000000000000000000000DC00000000000000000000000000000000BE00
310
000000000000000000000000000000000000000000000000000000000000000000000000000000BE000000BE00000000000000000000000000000000000000000000000000000000000000000000BE000000000000000000000000000000BE0000000000000000000000000000000000000000000000000000000000000000
310
BE000000000000000000000000000000000000000000000000000000000000DC000000000000000000000000000000000000000000000000000000000000000000000000000000000000000000000000000000000000000000000000000000000000000000000000000000000000DC00000000000000000000000000000000
310
BE00000000000000000000000000000000000000000000000000000000000000000000000000000000BE000000BE00000000000000000000000000000000000000000000000000000000000000000000BE000000000000000000000000000000BE000000000000000000000000000000000000000000000000000000000000
310
0000BE000000000000000000000000000000000000000000000000000000000000DC000000000000000000000000000000000000000000000000000000000000000000000000000000000000000000000000000000000000000000000000000000000000000000000000000000000000DC0000000000000000000000000000
310
0000BE00000000000000000000000000000000000000000000000000000000000000000000000000000000BE000000BE00000000000000000000000000000000000000000000000000000000000000000000BE000000000000000000000000000000BE00000000000000000000000000000000000000000000000000000000
310
00000000BE000000000000000000000000000000000000000000000000000000000000DC000000000000000000000000000000000000000000000000000000000000000000000000000000000000000000000000000000000000000000000000000000000000000000000000000000000000DC000000000000000000000000
310
00000000BE00000000000000000000000000000000000000000000000000000000000000000000000000000000BE000000BE00000000000000000000000000000000000000000000000000000000000000000000BE000000000000000000000000000000BE0000000000000000000000000000000000000000000000000000
310
000000000000BE000000000000000000000000000000000000000000000000000000000000DC000000000000000000000000000000000000000000000000000000000000000000000000000000000000000000000000000000000000000000000000000000000000000000000000000000000000DC00000000000000000000
310
000000000000BE00000000000000000000000000000000000000000000000000000000000000000000000000000000BE000000BE00000000000000000000000000000000000000000000000000000000000000000000BE000000000000000000000000000000BE000000000000000000000000000000000000000000000000
310
0000000000000000BE000000000000000000000000000000000000000000000000000000000000DC000000000000000000000000000000000000000000000000000000000000000000000000000000000000000000000000000000000000000000000000000000000000000000000000000000000000DC0000000000000000
310
00BEBEBE00000000BE00000000000000000000000000000000000000000000000000000000000000000000000000000000BE000000BE00000000000000000000000000000000000000000000000000000000000000000000BE000000000000000000000000000000BE00000000000000000000000000000000000000000000
310
00000000000000000000BE000000000000000000000000000000000000000000000000000000000000DC000000000000000000000000000000000000000000000000000000000000000000000000000000000000000000000000000000000000000000000000000000000000000000000000000000000000DC000000000000
310
000000BEBEBE00000000BE00000000000000000000000000000000000000000000000000000000000000000000000000000000BE000000BE00000000000000000000000000000000000000000000000000000000000000000000BE000000000000000000000000000000BE0000000000000000000000000000000000000000
310
000000000000000000000000BE000000000000000000000000000000000000000000000000000000000000DC000000000000000000000000000000000000000000000000000000000000000000000000000000000000000000000000000000000000000000000000000000000000000000000000000000000000DC00000000
310
0000BEBEBEBEBEBEBEBEBEBEBE28282828282828282828282828282828282828282828282828282828282828282828282828282828BE282828BEBEBEBEBEBEBEBEBEBEBEBEBEBEBE00000000BEBEBEBEBEBEBEBEBEBEBEBEBEBEBEBEBEBE2828282828282828282828282828BE282828282828282828282828282828282828
310
2828282828282828282828282828BEBEBEBEBEBEBEBEBEBEBEBEBEBEBEBEBEBEBEBEBEBE000000000000000000DC000000000000000000000000000000000000000000000000000000000000000000000000000000000000000000000000000000000000000000000000000000000000000000000000000000000000DC0000
310
00000000BEBE0000BEBEBEBEBEBEBE2800000000000000000000000000000000000000000000000000000000000000000000000000000000000000280000000000000000BEBE000000BE00000000BE0000000000000000000000000000002828282828282828282828282828BEBEBEBEBEBE28282828282828282828282828
310
282828282828282828282828282828282800000000000000000000000000000000000000BE00000000000000000000DC000000000000000000000000000000000000000000000000000000000000000000000000000000000000000000000000000000000000000000000000000000000000000000000000000000000000DC
310
000000000000BEBEBEBEBEBEBEBEBEBEBE2828282828282828282828282828282828282828282828282800000000000000000000000000000000000000280000000000000000BEBE000000BE00000000BE00000000000000000000000000000028282828282828282828282828282828280000000000000000000000000000
310
0000000000000000000000000000000000002800000000000000000000000000000000000000BE00000000000000000000DC0000000000000000000000000000000000000000000000000000000000000000000000000000000000000000000000000000000000000000000000000000000000000000000000000000000000
310
00DC000000000000000000BEBEBE00000000282800000000000000000000000000000000000000000000000028282828282828BEBEBE28BEBEBEBEBE000000BEBEBEBEBEBEBEBEBEBEBE000000BE00000000BE0000000000000000000000000000002828282828282828282828282828282828282828282828282828282828
310
28282828282828282828282828282828282828282800000000000000000000000000000000000000BE00000000000000000000DC000000000000000000000000000000000000000000000000000000000000000000000000000000000000000000000000000000000000000000000000000000000000000000000000000000
310
000000DC000000000000000000BEBEBE000000002828000000000000000000000000000000000000000000000000000000000000BEBE0000BE28000000BE00000028000000000000000000BE000000BE00000000BE000000000000000000000000000000282828002828000000000000000000002800000000000000000000
310
000000000000000000000000000000000000000000002800000000000000000000000000000000000000BE00000000000000000000DC00000000000000000000000000000000000000000000000000000000000000000000000000000000000000000000000000000000000000000000000000000000000000000000000000
310
0000000000DC000000000000000000BEBEBE000000BEBEBEBE0000000000000000000000000000000000000000000000000000000000BEBE0000BE00280000BE00000028000000000000000000BE000000BE00000000BE0000000000000000000000000000BEBE28BE00BEBE28BE0000BEBE00000000280000000000000000
310
0000000000000000000000000000000000000000000000002800000000000000000000000000000000000000BE00000000000000000000DC0000000000000000000000000000000000000000000000000000000000000000000000000000000000000000000000000000000000000000000000000000000000000000000000
310
00000000000000DC0000000000000000000000000000BEBEBE28000000000000000000000000000000000000000000000000000000000000BEBE0000BE00002800BE00000028000000000000000000BE00BEBEBE000000BEBE0000000000000000000000000000BEBEBEBEBEBEBEBEBEBEBEBEBEBE00000028282828282828
310
28282828282828282828282828282828282828282828282828282800000000000000000000000000000000000000BE00000000000000000000DC000000000000000000000000000000000000000000000000000000000000000000000000000000000000000000000000000000000000000000000000000000000000000000
310
000000000000000000DC0000000000000000000000000000BEBEBE28000000000000000000000000000000000000000000000000000000000000BEBE0000BE00000028BE00000028000000000000000000BE00BEBEBE000000BEBE000000000000000000000000000000282828002800000028000000000000002800000000
310
000000000000000000000000000000000000000000000000000000002800000000000000000000000000000000000000BE00000000000000000000DC00000000000000000000000000000000000000000000000000000000000000000000000000000000000000000000000000000000000000000000000000000000000000
310
0000000000000000000000DC00000000000000000000000000000000282800000000000000000000000000000000000000000000000000000000000000BEBEBEBEBEBEBEBE28000000280000000000000000BEBE00BEBEBE000000BEBE000000000000000000000000000000282828002800000000282828282828280F0000
310
0000000000000000000000000000000000000000000000000000000000002800000000000000000000000000000000000000BE00000000000000000000DC0000000000000000000000000000000000000000000000000000000000000000000000000000000000000000000000000000000000000000000000000000000000
310
00000000000000000000000000DC00000000000000000000000000000000282800000000000000000000000000000000000000000000000000000000000000000000BEBEBEBEBEBE000000280000000000000000BEBE00BEBEBE000000BEBE000000000000000000000000000000282828002800000000280000000000000F
310
00000000000000000000000000000000000000000000000000000000000000002800000000000000000000000000000000000000BE00000000000000000000DC000000000000000000000000000000000000000000000000000000000000000000000000000000000000000000000000000000000000000000000000000000
310
000000000000000000000000000000DC000000000000000000000000000000002828000000000000000000000000000000000000000000000000000000000000000000000000BEBEBE28280000280000000000000000BEBE000000BE00000000BE000000000000000000000000000000282828002800000000280000002828
310
280F28282800000000000000000000000000000000000000000000000000000000002800000000000000000000000000000000000000BE00000000000000000000DC00000000000000000000000000000000000000000000000000000000000000000000000000000000000000000000000000000000000000000000000000
310
0000000000000000000000000000000000DC00000000000000000000000000000000282800000000000000000000000000000000000000000000000000000000000000000000000000000028280000280000000000000000BEBE000000BE00000000BE00000000000000000000000000000028282800280000000028000000
310
2828280F28282800000000000000000000000000000000000000000000000000000000002800000000000000000000000000000000000000BE00000000000000000000DC0000000000000000000000000000000000000000000000000000000000000000000000000000000000000000000000000000000000000000000000
310
00000000000000000000000000000000000000DC0000000000000000000000000000000028280000000000000000000000000000000000000000000000000000000000000000000000000000002828000028000000000000000000BE000000BE00000000BE0000000000000000000000000000002828280028000000002800
310
00002828280F28000000000000000000000000000000000000000000000000000000000000002800000000000000000000000000000000000000BE00000000000000000000DC000000000000000000000000000000000000000000000000000000000000000000000000000000000000000000000000000000000000000000
310
000000000000000000000000000000000000000000DC000000000000000000000000000000002828000000000000000000000000000000BE280000000000000000000000000000BEBE0000000000002800000028000000000000000000BE000000BE00000000BE00000000000000000000000000000028BEBE002800000000
310
280028280000000F28000000000000000000000000000000000000000000000000000000000000002800000000000000000000000000000000000000BE00000000000000000000DC00000000000000000000000000000000000000000000000000000000000000000000000000000000000000000000000000000000000000
310
0000000000000000000000000000000000000000000000DC000000000000000000000000000000002828000000000000000000000000000000BEBE0000000000000000000000000000BEBE0000000000002800000028000000000000000000BE000000BE00000000BE00000000000000000000000000000028BEBE00280000
310
0000280028280000000F280000000000000000000000000000000000000000000000000000000000000028000000000000000000000000000000000000BEBE00000000000000000000DC0000000000000000000000000000000000000000000000000000000000000000000000000000000000000000000000000000000000
310
00000000000000000000000000000000000000000000000000DC000000000000000000000000000000002828000000000000000000000000000000BEBE0000000000000000000000000000BEBE0000000000002800000028000000000000000000BE0000BEBE00000000BE00000000000000000000000000000028BEBE0028
310
00000000280028282828280F280000000000000000000000000000000000000000000000000000000000000028000000000000000000000000000000000000BEBE00000000000000000000DC000000000000000000000000000000000000000000000000000000000000000000000000000000000000000000000000000000
310
000000000000000000000000000000000000000000000000000000DC00000000000000000000000000000000282828282828282828282828282828282828282828282828282828282828282828282828282828282828282828BEBEBEBEBEBEBEBEBEBEBEBEBEBEBE00000000BEBEBEBEBEBEBEBEBEBEBEBEBEBEBEBEBE2828
310
2828282828280F0F0F0F0F0F0F0F0F0000000000000000000000BEBEBEBEBEBEBEBEBEBEBEBEBEBEBEBE0000002800000000000000000000000000000000000000BEBE00000000000000000000DC00000000000000000000000000000000000000000000000000000000000000000000000000000000000000000000000000
310
0000000000000000000000000000000000000000000000000000000000DC000000000000000000000000000000002800000000000000000000000000000000BEBE0000000000000000000000000000BEBE000000002800282828282800000000000000000000000000BE00000000BE00000000000000000000000000000028
310
BEBE28000028000000002828000000000F0F0000000000000000000000BEBEBE00BE000000000000BE00BE000000002800000000000000000000000000000000000000BEBE00000000000000000000DC0000000000000000000000000000000000000000000000000000000000000000000000000000000000000000000000
310
00000000000000000000000000000000000000000000000000000000000000DC000000000000000000000000000000002800000000000000000000000000000000BEBE0000000000000000000000000000BEBE000000002800282828002800000000000000000000000000BE00000000BE0000000000000000000000000000
310
0028BEBE2800002800000000282800000000000F28000000280F0000000000000000000000000000000000000000000000280000000000000000000000000000000000000000BE00000000000000000000DC000000000000000000000000000000000000000000000000000000000000000000000000000000000000000000
310
000000000000000000000000000000000000000000000000000000000000000000DC000000000000000000000000000000002800000000000000000000000000000000282800000000000000000000000000002828000000002800282828002800000000000000000000000000BE00000000BE000000000000000000000000
310
000000282828280000280000000028280000000000000F0F0028BE280000000000000000000000000000000000000000000000280000000000000000000000000000000000000000BE00000000000000000000DC00000000000000000000000000000000000000000000000000000000000000000000000000000000000000
310
0000000000000000000000000000000000000000000000000000000000000000000000DC000000000000000000000000000000002800000000000000000000000000000000000000000000000000000000000000000000000000002800282828002800000000000000000000000000BE00000000BE00000000000000000000
310
000000000028280028000028000000000000000000000000000F28BE28000000000000000000000000000000000000000000000000280000000000000000000000000000000000000000BE00000000000000000000DC0000000000000000000000000000000000000000000000000000000000000000000000000000000000
310
00000000000000000000000000000000000000000000000000000000000000000000000000DC000000000000000000000000000000002800000000000000000000000000000000000000000000000000000000000000000000000000002800282828002800000000000000000000000000BE00000000BE0000000000000000
310
00000000000000282800280000280000000000000000000000000028BE2800000000000000000000000000000000000000000000000000280000000000000000000000000000000000000000BE00000000000000000000DC000000000000000000000000000000000000000000000000000000000000000000000000000000
310
000000000000000000000000000000000000000000000000000000000000000000000000000000DC000000000000000000000000000000002800000000000000000000000000000000000000000000000000000000000000000000000000002800282828002800000000000000000000000000BE00000000BE000000000000
310
0000000000000000002828002800002800000000000000000000000028BE280F0F000000000000000000000000000000000000000000000000280000000000000000000000000000000000000000BE00000000000000000000DC00000000000000000000000000000000000000000000000000000000000000000000000000
310
0000000000000000000000000000000000000000000000000000000000000000000000000000000000DC00000000000000000000000000000000280000000000000000000000000000000000000000000000000000000000000000BEBE000000002800282828002800000000000000000000000000BE00000000BE00000000
310
00000000000000000000002828002800002800000000000000000000000000280000280F0000000000000000000000000000000000000000000000280000000000000000000000000000000000000000BE00000000000000000000DC0000000000000000000000000000000000000000000000000000000000000000000000
310
00000000000000000000000000000000000000000000000000000000000000000000000000000000000000DC000000000000000000000000000000002800000000000000000000000000000000000000000000000000000000000000BEBEBE000000002800282828002800000000000000000000000000BE00000000BE0000
310
000000000000000000000000002828002800002800000000000000000000000000000000000F0F00000000000000000000000000000000000000000000280000000000000000000000000000000000000000BE00000000000000000000DC000000000000000000000000000000000000000000000000000000000000000000
310
000000000000000000000000000000000000000000000000000000000000000000000000000000000000000000DC0000000000000000000000000000000028000000000000000000000000000000000000000000000000000000000000BE000000000000002800282828002800000000000000000000000000BE00000000BE
310
00000000000000000000000000000028280028000028000000000000000000000000000000000000280F000000000000000000000000000000000000000000280000000000000000000000000000000000000000BE00000000000000000000DC00000000000000000000000000000000000000000000000000000000000000
310
0000000000000000000000000000000000000000000000000000000000000000000000000000000000000000000000DC000000000000000000000000000000002800000000000000000000000000000000000000000000000000000000BEBE00000000000000002800282828002800000000000000000000000000BE000000
310
00BE0000000000000000000000000000002828002800002800000000000000000000000000000000000000280F0000000000000000000000000000000000000000280000000000000000000000000000000000000000BE00000000000000000000DC0000000000000000000000000000000000000000000000000000000000
310
00000000000000000000000000000000000000000000000000000000000000000000000000000000000000000000000000DC0000000000000000000000000000000028000000000000000000000000000000000000000000000000000000BE000000000000000000002800282828002800000000000000000000000000BE00
310
000000BE0000000000000000000000000000002828002800002800000000000000000000000000000000000000000F2800000028000000000000000000000000000000280000000000000000000000000000000000000000BE00000000000000000000DC000000000000000000000000000000000000000000000000000000
310
000000000000000000000000000000000000000000000000000000000000000000000000000000000000000000000000000000DC00000000000000000000000000000000280000000000000000000000000000000000000000000000000000BEBE000000000000000000002800282828002800000000000000000000000000
310
BE00000000BE000000000000000000000000000000282800280000280000000000000000000000000000000000000000000F0F0028BE280000000000000000000000000000280000000000000000000000000000000000000000BE00000000000000000000DC00000000000000000000000000000000000000000000000000
310
0000000000000000000000000000000000000000000000000000000000000000000000000000000000000000000000000000000000DC000000000000000000000000000000002800000000000000000000000000000000000000000000000000BEBEBE00000000000000000000280028282800280000000000000000000000
310
0000BE00000000BE00000000000000000000000000000028280028000028000000000000000000000000000000000000000000000F28BE280000000000000000000000BEBE0000280000000000000000000000000000000000000000BE00000000000000000000DC0000000000000000000000000000000000000000000000
310
00000000000000000000000000000000000000000000000000000000000000000000000000000000000000000000000000000000000000DC000000000000000000000000000000002800000000000000000000000000000000000000000000000000BEBEBE0000000000000000000028002828280028000000000000000000
310
0000BEBEBE000000BEBE000000000000000000000000000000282800280000280000000000000000000000000000000000000000000028BE28000000000000000000000000BEBE0000280000000000000000000000000000000000000000BE00000000000000000000DC000000000000000000000000000000000000000000
310
000000000000000000000000000000000000000000000000000000000000000000000000000000000000000000000000000000000000000000DC000000000000000000000000000000002800000000000000000000000000000000000000000000000000BEBEBE000000000000000000002800282828002800000000000000
310
00000000BEBEBE000000BEBE0000000000000000000000000000002828002800002800000000000000000000000000000000000000000028BE280F282828282828282828BEBEBEBEBEBE28BEBEBEBEBEBEBEBEBEBEBEBEBEBEBEBEBEBEBEBEBEBEBE000000000000000000DC00000000000000000000000000000000000000
310
0000000000000000000000000000000000000000000000000000000000000000000000000000000000000000000000000000000000000000000000DC000000000000000000000000000000002800000000000000000000000000000000000000000000000000BEBEBE00000000000000000000280028282800280000000000
310
000000000000BEBEBE000000BEBE0000000000000000000000000000002828002800002800000000000000000000000000000000000000000000280000BEBEBEBEBEBEBEBEBEBEBEBEBEBEBE000000000000000000000000000000000000000000000000000000000000000000DC0000000000000000000000000000000000
310
00000000000000000000000000000000000000000000000000000000000000000000000000000000000000000000000000000000000000000000000000DC00000000000000000000000000000000280000000000000000000000000000000000000000000000000000BEBE0000000000000000000028002828280028000000
310
0000000000000000BEBEBE000000BEBE0000000000000000000000000000002828002800002800000000000000000000000000000000000000000000000000280F0000000000000000000000BE00000000000000000000000000000000000000000000000000000000000000000000DC000000000000000000000000000000
310
000000000000000000000000000000000000000000000000000000000000000000000000000000000000000000000000000000000000000000000000000000DC0000000000000000000000000000000028000000000000000000000000000000000000000000000000000000BE000000000000000000002800282828002800
310
000000000000000000000000BE00000000BE000000000000000000000000000000282800280000280000000000000000000000000000000000000000000000000028000000000000000000000000BE00000000000000000000000000000000000000000000000000000000000000000000DC00000000000000000000000000
310
0000000000000000000000000000000000000000000000000000000000000000000000000000000000000000000000000000000000000000000000000000000000DC00000000000000000000000000000000280000000000000000000000000000000000000000000000000000000000000000000000000000280028282800
310
2800000000000000000000000000BE00000000BE000000000000000000000000000000282800280000280000000000000000000000000000000000000000000000000028000000000000000000000000BE00000000000000000000000000000000000000000000000000000000000000000000DC0000000000000000000000
310
00000000000000000000000000000000000000000000000000000000000000000000000000000000000000000000000000000000000000000000000000000000000000DC0000000000000000000000000000000028000000000000000000000000000000000000000000000000000000000000000000000000000028002828
310
28002800000000000000000000000000BE00000000BE00000000000000000000000000000028280028000028000000BEBEBEBEBEBEBEBEBEBEBEBEBEBEBEBE00000000000028000000000000000000000000BE00000000000000000000000000000000000000000000000000000000000000000000DC000000000000000000
310
000000000000000000000000000000000000000000000000000000000000000000000000000000000000000000000000000000000000000000000000000000000000000000DC000000000000000000000000000000002800000000000000000000000000000000000000000000000000000000000000000000000000002800
310
282828002800000000000000000000000000BE00000000BE00000000000000000000000000000028280028000028000000BEBEBEBEBEBEBEBE00BEBEBE00BEBEBE00000000000028000000000000000000000000BE00000000000000000000000000000000000000000000000000000000000000000000DC00000000000000
310
0000000000000000000000000000000000000000000000000000000000000000000000000000000000000000000000000000000000000000000000000000000000000000000000DC00000000000000000000000000000000280000000000000000000000000000000000000000000000000000000000000000000000000000
310
2800282828002800000000000000000000000000BE00000000BE0000000000000000000000000000002828002800002800000000000000000000000000000000000000000000000000280000000000000000000000BEBE00000000000000000000000000000000000000000000000000000000000000000000DC0000000000
310
00000000000000000000000000000000000000000000000000000000000000000000000000000000000000000000000000000000000000000000000000000000000000000000000000DC00000000000000000000000000000000280000000000000000000000000000000000000000000000000000000000000000BE000000
310
00002800282828002800000000000000000000000000BE00000000BE0000000000000000000000000000002828002800002800000000000000000000000000000000000000000000000000280000000000000000000000BEBE00000000000000000000000000000000000000000000000000000000000000000000DC000000
310
000000000000000000000000000000000000000000000000000000000000000000000000000000000000000000000000000000000000000000000000000000000000000000000000000000DC00000000000000000000000000000000280000000000000000000000000000000000000000000000000000000000000000BEBE
310
000000002800282828002800000000000000000000000000BE00000000BE0000000000000000000000000000002828002800002800000000000000000000000000000000000000000000000000280000000000000000000000BEBE00000000000000000000000000000000000000000000000000000000000000000000DC00
310
0000000000000000000000000000000000000000000000000000000000000000000000000000000000000000000000000000000000000000000000000000000000000000000000000000000000DC00000000000000000000000000000000280000000000000000000000000000000000000000000000000000000000000000
310
0000000000002800282828002800000000000000000000000000BE00000000BE0000000000000000000000000000002828002800002800000000000000000000000000000000000000000000000000280000000000000000000000BEBE00000000000000000000000000000000000000000000000000000000000000000000
310
DC000000000000000000000000000000000000000000000000000000000000000000000000000000000000000000000000000000000000000000000000000000000000000000000000000000000000DC0000000000000000000000000000000028000000000000000000000000000000000000000000000000000000000000
310
00000000000000002800282828002800000000000000000000000000BE00000000BE000000000000000000000000000000282800280000280000000000000000000000000000000000000000000000000028000000000000000000000000BE0000000000000000000000000000000000000000000000000000000000000000
310
0000DC000000000000000000000000000000000000000000000000000000000000000000000000000000000000000000000000000000000000000000000000000000000000000000000000000000000000DC000000000000000000000000000000002800000000000000000000000000000000000000000000000000000000
310
000000000000000000002800282828002800000000000000000000000000BE00000000BE000000000000000000000000000000282800280000280000000000000000000000000000000000000000000000000028000000000000000000000000BE000000000000000000000000000000000000000000000000000000000000
310
00000000DC000000000000000000000000000000000000000000000000000000000000000000000000000000000000000000000000000000000000000000000000000000000000000000000000000000000000DC00000000000000000000000000000000280000000000000000000000000000000000000000000000000000
310
0000000000000000000000002800282828002800000000000000000000000000BE00000000BE000000000000000000000000000000282800280000280000000000000000000000000000000000000000000000000028000000000000000000000000BE00000000000000000000000000000000000000000000000000000000
310
000000000000DC000000000000000000000000000000000000000000000000000000000000000000000000000000000000000000000000000000000000000000000000000000000000000000000000000000000000DC0000000000000000000000000000000028000000000000000000000000000000000000000000000000
310
00000000000000000000000000002800282828002800000000000000000000000000BE00000000BE000000000000000000000000000000282800280000280000000000000000000000000000000000000000000000000028000000000000000000000000BE0000000000000000000000000000000000000000000000000000
310
0000000000000000DC000000000000000000000000000000000000000000000000000000000000000000000000000000000000000000000000000000000000000000000000000000000000000000000000000000000000DC000000000000000000000000000000002800000000000000000000000000000000000000000000
310
000000000000000000000000000000002800282828002800000000000000000000000000BE00000000BE000000000000000000000000000000282800280000280000000000000000000000000000000000000000000000000028000000000000000000000000BE000000000000000000000000000000000000000000000000
310
00000000000000000000DC000000000000000000000000000000000000000000000000000000000000000000000000000000000000000000000000000000000000000000000000000000000000000000000000000000000000DC00000000000000000000000000000000280000000000000000000000000000000000000000
310
00000000000000000000000000000000000028002828282828000000000000000000000000BEBE00000000BE0000000000000000000000000000002828002800002800000000000000000000282828282828282828282828282828BEBEBEBEBEBEBEBEBEBEBEBEBEBEBE000000000000000000000000000000000000000000
310
000000000000000000000000DC000000000000000000000000000000000000000000000000000000000000000000000000000000000000000000000000000000000000000000000000000000000000000000000000000000000000DC0000000000000000000000000000000028282828282828282828282828282828282828
310
2828282828282828282828282828282828282828282828282828BEBEBEBEBEBEBEBEBEBEBEBEBEBEBE00000000BEBEBEBEBEBEBEBEBEBEBEBEBEBEBEBEBEBEBEBEBEBEBEBEBEBEBEBEBEBEBEBEBEBEBEBEBEBEBEBEBEBEBEBEBEBEBEBEBEBEBEBEBEBEBEBEBEBEBEBEBEBEBE00000000000000000000000000000000000000
310
0000000000000000000000000000DC000000000000000000000000000000000000000000000000000000000000000000000000000000000000000000000000000000000000000000000000000000000000000000000000000000000000DC000000000000000000000000000000000000000000000000000000000000000000
310
000000000000000000000000000000000000000000000000000000000000000000000000000000000000000000000000000000000000000000000000000000BE00000000000000000000000000000000000000000000000000000000000000BE0000000000000000000000BEBE000000000000000000000000000000000000
310
00000000000000000000000000000000DC000000000000000000000000000000000000000000000000000000000000000000000000000000000000000000000000000000000000000000000000000000000000000000000000000000000000DC00000000000000000000000000000000000000000000000000000000000000
310
0000000000000000000000000000000000000000000000000000000000000000000000000000000000000000000000000000000000000000000000000000000000BE00000000000000000000000000000000000000000000000000000000000000BE0000000000000000000000BEBE00000000000000000000000000000000
310
000000000000000000000000000000000000DC000000000000000000000000000000000000000000000000000000000000000000000000000000000000000000000000000000000000000000000000000000000000000000000000000000000000DC0000000000000000000000000000000000000000000000000000000000
310
00000000000000000000000000000000000000000000000000000000000000000000000000000000000000000000000000000000000000000000000000000000000000BE00000000000000000000000000000000000000000000000000000000000000BE000000000000000000000000000000000000000000000000000000
310
0000000000000000000000000000000000000000DC000000000000000000000000000000000000000000000000000000000000000000000000000000000000000000000000000000000000000000000000000000000000000000000000000000000000DC000000000000000000000000000000000000000000000000000000
310
000000000000000000000000000000000000000000000000000000000000000000000000000000000000000000000000000000000000000000000000000000000000000000BE00000000000000000000000000000000000000000000000000000000000000BE00000000000000000000000000000000000000000000000000
310
00000000000000000000000000000000000000000000DC000000000000000000000000000000000000000000000000000000000000000000000000000000000000000000000000000000000000000000000000000000000000000000000000000000000000DC00000000000000000000000000000000000000000000000000
310
0000000000000000000000000000000000000000000000000000000000000000000000000000000000000000000000000000000000000000000000000000000000000000000000BE00000000000000000000000000000000000000000000000000000000000000BE0000000000000000000000000000000000000000000000
310
000000000000000000000000000000000000000000000000DC000000000000000000000000000000000000000000000000000000000000000000000000000000000000000000000000000000000000000000000000000000000000000000000000000000000000DC0000000000000000000000000000000000000000000000
310
00000000000000000000000000000000000000000000000000000000000000000000000000000000000000000000000000000000000000000000000000000000000000000000000000BE00000000000000000000000000000000000000000000000000000000000000BE000000000000000000000000000000000000000000
310
0000000000000000000000000000000000000000000000000000DC000000000000000000000000000000000000000000000000000000000000000000000000000000000000000000000000000000000000000000000000000000000000000000000000000000000000DC000000000000000000000000000000000000000000
310
000000000000000000000000000000000000000000000000000000000000000000000000000000000000000000000000000000000000000000000000000000000000000000000000000000BE00000000000000000000000000000000000000000000000000000000000000BE00000000000000000000000000000000000000
310
00000000000000000000000000000000000000000000000000000000DC000000000000000000000000000000000000000000000000000000000000000000000000000000000000000000000000000000000000000000000000000000000000000000000000000000000000DC00000000000000000000000000000000000000
310
0000000000000000000000000000000000000000000000000000000000000000000000000000000000000000000000000000000000000000000000000000000000000000000000000000000000BE00000000000000000000000000000000000000000000000000000000000000BE0000000000000000000000000000000000
310
000000000000000000000000000000000000000000000000000000000000DC000000000000000000000000000000000000000000000000000000000000000000000000000000000000000000000000000000000000000000000000000000000000000000000000000000000000DC0000000000000000000000000000000000
310
00000000000000000000000000000000000000000000000000000000000000000000000000000000000000000000000000000000000000000000000000000000000000000000000000000000000000BE00000000000000000000000000000000000000000000000000000000000000BE000000000000000000000000000000
310
0000000000000000000000000000000000000000000000000000000000000000DC000000000000000000000000000000000000000000000000000000000000000000000000000000000000000000000000000000000000000000000000000000000000000000000000000000000000DC000000000000000000000000000000
310
000000000000000000000000000000000000000000000000000000000000000000000000000000000000000000000000000000000000000000000000000000000000000000000000000000000000000000BE00000000000000000000000000000000000000000000000000000000000000BE00000000000000000000000000
310
00000000000000000000000000000000000000000000000000000000000000000000DC000000000000000000000000000000000000000000000000000000000000000000000000000000000000000000000000000000000000000000000000000000000000000000000000000000000000DC00000000000000000000000000
310
0000000000000000000000000000000000000000000000000000000000000000000000000000000000000000000000000000000000000000000000000000000000000000000000000000000000000000000000BEBEBEBEBEBEBEBEBEBEBEBEBEBEBEBEBEBEBEBEBEBEBEBEBEBEBEBEBEBEBEBEBE0000000000000000000000
310
000000000000000000000000000000000000000000000000000000000000000000000000DC000000000000000000000000000000000000000000000000000000000000000000000000000000000000000000000000000000000000000000000000000000000000000000000000000000000000DC0000000000000000000000
310
00000000000000000000000000000000000000000000000000000000000000000000000000000000000000000000000000000000000000000000000000000000000000000000000000000000000000000000000000000000000000000000000000000000BEBEBEBE0000000000000000000000000000000000000000000000
310
0000000000000000000000000000000000000000000000000000000000000000000000000000DC000000000000000000000000000000000000000000000000000000000000000000000000000000000000000000000000000000000000000000000000000000000000000000000000000000000000DC000000000000000000
310
00000000000000000000000000000000000000000000000000000000000000000000000000000000000000000000000000000000000000000000000000000000000000000000000000000000000000000000000000000000000000000000000000000000000000000000000000000000000000000000000000000000000000
310
00000000000000000000000000000000000000000000000000000000000000000000000000000000DC000000000000000000000000000000000000000000000000000000000000000000000000000000000000000000000000000000000000000000000000000000000000000000000000000000000000DC00000000000000
310
00000000000000000000000000000000000000000000000000000000000000000000000000000000000000000000000000000000000000000000000000000000000000000000000000000000000000000000000000000000000000000000000000000000000000000000000000000000000000000000000000000000000000
310
000000000000000000000000000000000000000000000000000000000000000000000000000000000000DC000000000000000000000000000000000000000000000000000000000000000000000000000000000000000000000000000000000000000000000000000000000000000000000000000000000000DC0000000000
310
00000000000000000000000000000000000000000000000000000000000000000000000000000000000000000000000000000000000000000000000000000000000000000000000000000000000000000000000000000000000000000000000000000000000000000000000000000000000000000000000000000000000000
310
0000000000000000000000000000000000000000000000000000000000000000000000000000000000000000DC000000000000000000000000000000000000000000000000000000000000000000000000000000000000000000000000000000000000000000000000000000000000000000000000000000000000DCDCDCDC
310
DCDCDCDCDCDCDCDCDCDCDCDCDCDCDCDCDCDCDCDCDCDCDCDCDCDCDCDCDCDCDCDCDCDCDCDCDCDCDCDCDCDCDCDCDCDCDCDCDCDCDCDCDCDCDCDCDCDCDCDCDCDCDCDCDCDCDCDCDCDCDCDCDCDCDCDCDCDCDCDCDCDCDCDCDCDCDCDCDCDCDCDCDCDCDCDCDCDCDCDCDCDCDCDCDCDCDCDCDCDCDCDCDCDCDCDCDCDCDCDCDCDCDCDCDCDCDC
310
DCDCDCDCDCDCDCDCDCDCDCDCDCDCDCDCDCDCDCDCDCDCDCDCDCDCDCDCDCDCDCDCDCDCDCDCDCDCDCDCDCDCDCDCDCDCDC0000000000000000000000000000000000000000000000000000000000000000000000000000000000000000000000000000000000000000000000000000000000000000000000000000000000000000
310
00000000000000000000000000000000000000000000000000000000000000000000000000000000000000000000000000000000000000000000000000000000000000000000000000000000000000000000000000000000000000000000000000000000000000000000000000000000000000000000000000000000000000
310
00000000000000000000000000000000000000000000000000000000000000000000000000000000000000000000000000000000000000000000000000000000000000000000000000000000000000000000000000000000000000000000000000000000000000000000000000000000000000000000000000000000000000
310
00000000000000000000000000000000000000000000000000000000000000000000000000000000000000000000000000000000000000000000000000000000000000000000000000000000000000000000000000000000000000000000000000000000000000000000000000000000000000000000000000000000000000
310
00000000000000000000000000000000000000000000000000000000000000000000000000000000000000000000000000000000000000000000000000000000000000000000000000000000000000000000000000000000000000000000000000000000000000000000000000000000000000000000000000000000000000
310
00000000000000000000000000000000000000000000000000000000000000000000000000000000000000000000000000000000000000000000000000000000000000000000000000000000000000000000000000000000000000000000000000000000000000000000000000000000000000000000000000000000000000
310
00000000000000000000000000000000000000000000000000000000000000000000000000000000000000000000000000000000000000000000000000000000000000000000000000000000000000000000000000000000000000000000000000000000000000000000000000000000000000000000000000000000000000
310
00000000000000000000000000000000000000000000000000000000000000000000000000000000000000000000000000000000000000000000000000000000000000000000000000000000000000000000000000000000000000000000000000000000000000000000000000000000000000000000000000000000000000
310
00000000000000000000000000000000000000000000000000000000000000000000000000000000000000000000000000000000000000000000000000000000000000000000000000000000000000000000000000000000000000000000000000000000000000000000000000000000000000000000000000000000000000
310
00000000000000000000000000000000000000000000000000000000000000000000000000000000000000000000000000000000000000000000000000000000000000000000000000000000000000000000000000000000000000000000000000000000000000000000000000000000000000000000000000000000000000
310
00000000000000000000000000000000000000000000000000000000000000000000000000000000000000000000000000000000000000000000000000000000000000000000000000000000000000000000000000000000000000000000000000000000000000000000000000000000000000000000000000000000000000
310
00000000000000000000000000000000000000000000000000000000000000000000000000000000000000000000000000000000000000000000000000000000000000000000000000000000000000000000000000000000000000000000000000000000000000000000000000000000000000000000000000000000000000
310
00000000000000000000000000000000000000000000000000000000000000000000000000000000000000000000000000000000000000000000000000000000000000000000000000000000000000000000000000000000000000000000000000000000000000000000000000000000000000000000000000000000000000
310
00000000000000000000000000000000000000000000000000000000000000000000000000000000000000000000000000000000000000000000000000000000000000000000000000000000000000000000000000000000000000000000000000000000000000000000000000000000000000000000000000000000000000
310
00000000000000000000000000000000000000000000000000000000000000000000000000000000000000000000000000000000000000000000000000000000000000000000000000000000000000000000000000000000000000000000000000000000000000000000000000000000000000000000000000000000000000
310
00000000000000000000000000000000000000000000000000000000000000000000000000000000000000000000000000000000000000000000000000000000000000000000000000000000000000000000000000000000000000000000000000000000000000000000000000000000000000000000000000000000000000
310
00000000000000000000000000000000000000000000000000000000000000000000000000000000000000000000000000000000000000000000000000000000000000000000000000000000000000000000000000000000000000000000000000000000000000000000000000000000000000000000000000000000000000
310
00000000000000000000000000000000000000000000000000000000000000000000000000000000000000000000000000000000000000000000000000000000000000000000000000000000000000000000000000000000000000000000000000000000000000000000000000000000000000000000000000000000000000
310
00000000000000000000000000000000000000000000000000000000000000000000000000000000000000000000000000000000000000000000000000000000000000000000000000000000000000000000000000000000000000000000000000000000000000000000000000000000000000000000000000000000000000
310
00000000000000000000000000000000000000000000000000000000000000000000000000000000000000000000000000000000000000000000000000000000000000000000000000000000000000000000000000000000000000000000000000000000000000000000000000000000000000000000000000000000000000
310
00000000000000000000000000000000000000000000000000000000000000000000000000000000000000000000000000000000000000000000000000000000000000000000000000000000000000000000000000000000000000000000000000000000000000000000000000000000000000000000000000000000000000
310
00000000000000000000000000000000000000000000000000000000000000000000000000000000000000000000000000000000000000000000000000000000000000000000000000000000000000000000000000000000000000000000000000000000000000000000000000000000000000000000000000000000000000
310
00000000000000000000000000000000000000000000000000000000000000000000000000000000000000000000000000000000000000000000000000000000000000000000000000000000000000000000000000000000000000000000000000000000000000000000000000000000000000000000000000000000000000
310
00000000000000000000000000000000000000000000000000000000000000000000000000000000000000000000000000000000000000000000000000000000000000000000000000000000000000000000000000000000000000000000000000000000000000000000000000000000000000000000000000000000000000
310
00000000000000000000000000000000000000000000000000000000000000000000000000000000000000000000000000000000000000000000000000000000000000000000000000000000000000000000000000000000000000000000000000000000000000000000000000000000000000000000000000000000000000
310
00000000000000000000000000000000000000000000000000000000000000000000000000000000000000000000000000000000000000000000000000000000000000000000000000000000000000000000000000000000000000000000000000000000000000000000000000000000000000000000000000000000000000
310
00000000000000000000000000000000000000000000000000000000000000000000000000000000000000000000000000000000000000000000000000000000000000000000000000000000000000000000000000000000000000000000000000000000000000000000000000000000000000000000000000000000000000
310
00000000000000000000000000000000000000000000000000000000000000000000000000000000000000000000000000000000000000000000000000000000000000000000000000000000000000000000000000000000000000000000000000000000000000000000000000000000000000000000000000000000000000
310
00000000000000000000000000000000000000000000000000000000000000000000000000000000000000000000000000000000000000000000000000000000000000000000000000000000000000000000000000000000000000000000000000000000000000000000000000000000000000000000000000000000000000
310
00000000000000000000000000000000000000000000000000000000000000000000000000000000000000000000000000000000000000000000000000000000000000000000000000000000000000000000000000000000000000000000000000000000000000000000000000000000000000000000000000000000000000
310
00000000000000000000000000000000000000000000000000000000000000000000000000000000000000000000000000000000000000000000000000000000000000000000000000000000000000000000000000000000000000000000000000000000000000000000000000000000000000000000000000000000000000
310
00000000000000000000000000000000000000000000000000000000000000000000000000000000000000000000000000000000000000000000000000000000000000000000000000000000000000000000000000000000000000000000000000000000000000000000000000000000000000000000000000000000000000
310
00000000000000000000000000000000000000000000000000000000000000000000000000000000000000000000000000000000000000000000000000000000000000000000000000000000000000000000000000000000000000000000000000000000000000000000000000000000000000000000000000000000000000
310
00000000000000000000000000000000000000000000000000000000000000000000000000000000000000000000000000000000000000000000000000000000000000000000000000000000000000000000000000000000000000000000000000000000000000000000000000000000000000000000000000000000000000
310
00000000000000000000000000000000000000000000000000000000000000000000000000000000000000000000000000000000000000000000000000000000000000000000000000000000000000000000000000000000000000000000000000000000000000000000000000000000000000000000000000000000000000
310
00000000000000000000000000000000000000000000000000000000000000000000000000000000000000000000000000000000000000000000000000000000000000000000000000000000000000000000000000000000000000000000000000000000000000000000000000000000000000000000000000000000000000
310
00000000000000000000000000000000000000000000000000000000000000000000000000000000000000000000000000000000000000000000000000000000000000000000000000000000000000000000000000000000000000000000000000000000000000000000000000000000000000000000000000000000000000
310
00000000000000000000000000000000000000000000000000000000000000000000000000000000000000000000000000000000000000000000000000000000000000000000000000000000000000000000000000000000000000000000000000000000000000000000000000000000000000000000000000000000000000
310
00000000000000000000000000000000000000000000000000000000000000000000000000000000000000000000000000000000000000000000000000000000000000000000000000000000000000000000000000000000000000000000000000000000000000000000000000000000000000000000000000000000000000
310
00000000000000000000000000000000000000000000000000000000000000000000000000000000000000000000000000000000000000000000000000000000000000000000000000000000000000000000000000000000000000000000000000000000000000000000000000000000000000000000000000000000000000
310
0000000000000000000000000000000000000000000000000000000000000000000000000000000000000000000000000000000000000000000000000000000000000000000000000000000000000000000000000000000000000000000000000000000000000000000000000000000000000000000000000000
  0
XRECORD
  5
AB3
102
{ACAD_REACTORS
330
AB2
102
}
330
AB2
100
AcDbXrecord
280
     1
102
MATERIAL
148
0.0
149
0.0
149
0.0
 93
        0
 94
      127
282
     0
 72
     0
 77
     0
171
     0
175
     0
179
     0
273
     0
  0
XRECORD
  5
AB5
102
{ACAD_REACTORS
330
AB4
102
}
330
AB4
100
AcDbXrecord
280
     1
102
MATERIAL
148
0.0
149
0.0
149
0.0
 93
        0
 94
      127
282
     0
 72
     0
 77
     0
171
     0
175
     0
179
     0
273
     0
  0
XRECORD
  5
AB7
102
{ACAD_REACTORS
330
AB6
102
}
330
AB6
100
AcDbXrecord
280
     1
102
MATERIAL
148
0.0
149
0.0
149
0.0
 93
        0
 94
      127
282
     0
 72
     0
 77
     0
171
     0
175
     0
179
     0
273
     0
  0
XRECORD
  5
A99
102
{ACAD_REACTORS
330
A98
102
}
330
A98
100
AcDbXrecord
280
     1
102
DISPLAYNAME
  1
Imperial24
102
FLAGS
 90
        0
  0
CELLSTYLEMAP
  5
ABA
102
{ACAD_REACTORS
330
AB8
102
}
330
AB8
100
AcDbCellStyleMap
 90
        3
300
CELLSTYLE
  1
TABLEFORMAT_BEGIN
 90
        5
170
     1
 91
        0
 92
    32768
 62
   257
 93
        1
300
CONTENTFORMAT
  1
CONTENTFORMAT_BEGIN
 90
        0
 91
        0
 92
      512
 93
        0
300

 40
0.0
140
1.0
 94
        5
 62
     0
340
F
144
0.25
309
CONTENTFORMAT_END
171
     0
 94
        0
309
TABLEFORMAT_END
  1
CELLSTYLE_BEGIN
 90
        1
 91
        1
300
_TITLE
309
CELLSTYLE_END
300
CELLSTYLE
  1
TABLEFORMAT_BEGIN
 90
        5
170
     1
 91
        0
 92
        0
 62
   257
 93
        1
300
CONTENTFORMAT
  1
CONTENTFORMAT_BEGIN
 90
        0
 91
        0
 92
      512
 93
        0
300

 40
0.0
140
1.0
 94
        5
 62
     0
340
F
144
0.18
309
CONTENTFORMAT_END
171
     0
 94
        0
309
TABLEFORMAT_END
  1
CELLSTYLE_BEGIN
 90
        2
 91
        1
300
_HEADER
309
CELLSTYLE_END
300
CELLSTYLE
  1
TABLEFORMAT_BEGIN
 90
        5
170
     1
 91
        0
 92
        0
 62
   257
 93
        1
300
CONTENTFORMAT
  1
CONTENTFORMAT_BEGIN
 90
        0
 91
        0
 92
      512
 93
        0
300

 40
0.0
140
1.0
 94
        2
 62
     0
340
F
144
0.18
309
CONTENTFORMAT_END
171
     0
 94
        0
309
TABLEFORMAT_END
  1
CELLSTYLE_BEGIN
 90
        3
 91
        2
300
_DATA
309
CELLSTYLE_END
  0
XRECORD
  5
AB9
102
{ACAD_REACTORS
330
AB8
102
}
330
AB8
100
AcDbXrecord
280
     1
102
ACAD_ROUNDTRIP_PRE2007_TABLESTYLE
 90
      512
 91
        0
  1

 92
      512
 93
        0
  2

 94
      512
 95
        0
  3

  0
XRECORD
  5
ABD
102
{ACAD_REACTORS
330
ABC
102
}
330
ABC
100
AcDbXrecord
280
     1
102
RTVSPropertyOp0
 70
     1
102
RTVSPropertyOp1
 70
     1
102
RTVSPropertyOp2
 70
     1
102
RTVSPropertyOp3
 70
     1
102
RTVSPropertyOp4
 70
     1
102
RTVSPropertyOp5
 70
     1
102
RTVSPropertyOp6
 70
     1
102
RTVSPropertyOp7
 70
     1
102
RTVSPropertyOp8
 70
     1
102
RTVSPropertyOp9
 70
     1
102
RTVSPropertyOp10
 70
     1
102
RTVSPropertyOp11
 70
     1
102
RTVSPropertyOp12
 70
     1
102
RTVSPropertyOp13
 70
     1
102
RTVSPropertyOp14
 70
     1
102
RTVSPropertyOp15
 70
     1
102
RTVSPropertyOp16
 70
     1
102
RTVSPropertyOp17
 70
     1
102
RTVSPropertyOp18
 70
     1
102
RTVSPropertyOp19
 70
     1
102
RTVSPropertyOp20
 70
     1
102
RTVSPropertyOp21
 70
     1
102
RTVSPropertyOp22
 70
     1
102
RTVSPropertyOp23
 70
     1
102
RTVSPropertyOp24
 70
     1
102
RTVSPropertyOp25
 70
     1
102
RTVSPropertyOp26
 70
     1
102
RTVSPropertyOp27
 70
     1
  0
XRECORD
  5
ABF
102
{ACAD_REACTORS
330
ABE
102
}
330
ABE
100
AcDbXrecord
280
     1
102
RTVSPropertyOp0
 70
     1
102
RTVSPropertyOp1
 70
     1
102
RTVSPropertyOp2
 70
     1
102
RTVSPropertyOp3
 70
     1
102
RTVSPropertyOp4
 70
     1
102
RTVSPropertyOp5
 70
     1
102
RTVSPropertyOp6
 70
     1
102
RTVSPropertyOp7
 70
     1
102
RTVSPropertyOp8
 70
     1
102
RTVSPropertyOp9
 70
     1
102
RTVSPropertyOp10
 70
     1
102
RTVSPropertyOp11
 70
     1
102
RTVSPropertyOp12
 70
     1
102
RTVSPropertyOp13
 70
     1
102
RTVSPropertyOp14
 70
     1
102
RTVSPropertyOp15
 70
     1
102
RTVSPropertyOp16
 70
     1
102
RTVSPropertyOp17
 70
     1
102
RTVSPropertyOp18
 70
     1
102
RTVSPropertyOp19
 70
     1
102
RTVSPropertyOp20
 70
     1
102
RTVSPropertyOp21
 70
     1
102
RTVSPropertyOp22
 70
     1
102
RTVSPropertyOp23
 70
     1
102
RTVSPropertyOp24
 70
     1
102
RTVSPropertyOp25
 70
     1
102
RTVSPropertyOp26
 70
     1
102
RTVSPropertyOp27
 70
     1
  0
XRECORD
  5
AC1
102
{ACAD_REACTORS
330
AC0
102
}
330
AC0
100
AcDbXrecord
280
     1
102
RTVSPropertyOp0
 70
     1
102
RTVSPropertyOp1
 70
     1
102
RTVSPropertyOp2
 70
     1
102
RTVSPropertyOp3
 70
     1
102
RTVSPropertyOp4
 70
     1
102
RTVSPropertyOp5
 70
     1
102
RTVSPropertyOp6
 70
     1
102
RTVSPropertyOp7
 70
     1
102
RTVSPropertyOp8
 70
     1
102
RTVSPropertyOp9
 70
     1
102
RTVSPropertyOp10
 70
     1
102
RTVSPropertyOp11
 70
     1
102
RTVSPropertyOp12
 70
     1
102
RTVSPropertyOp13
 70
     1
102
RTVSPropertyOp14
 70
     1
102
RTVSPropertyOp15
 70
     1
102
RTVSPropertyOp16
 70
     1
102
RTVSPropertyOp17
 70
     1
102
RTVSPropertyOp18
 70
     1
102
RTVSPropertyOp19
 70
     1
102
RTVSPropertyOp20
 70
     1
102
RTVSPropertyOp21
 70
     1
102
RTVSPropertyOp22
 70
     1
102
RTVSPropertyOp23
 70
     1
102
RTVSPropertyOp24
 70
     1
102
RTVSPropertyOp25
 70
     1
102
RTVSPropertyOp26
 70
     1
102
RTVSPropertyOp27
 70
     1
  0
XRECORD
  5
AC3
102
{ACAD_REACTORS
330
AC2
102
}
330
AC2
100
AcDbXrecord
280
     1
102
RTVSPropertyOp0
 70
     1
102
RTVSPropertyOp1
 70
     1
102
RTVSPropertyOp2
 70
     1
102
RTVSPropertyOp3
 70
     1
102
RTVSPropertyOp4
 70
     1
102
RTVSPropertyOp5
 70
     1
102
RTVSPropertyOp6
 70
     1
102
RTVSPropertyOp7
 70
     1
102
RTVSPropertyOp8
 70
     1
102
RTVSPropertyOp9
 70
     1
102
RTVSPropertyOp10
 70
     1
102
RTVSPropertyOp11
 70
     1
102
RTVSPropertyOp12
 70
     1
102
RTVSPropertyOp13
 70
     1
102
RTVSPropertyOp14
 70
     1
102
RTVSPropertyOp15
 70
     1
102
RTVSPropertyOp16
 70
     1
102
RTVSPropertyOp17
 70
     1
102
RTVSPropertyOp18
 70
     1
102
RTVSPropertyOp19
 70
     1
102
RTVSPropertyOp20
 70
     1
102
RTVSPropertyOp21
 70
     1
102
RTVSPropertyOp22
 70
     1
102
RTVSPropertyOp23
 70
     1
102
RTVSPropertyOp24
 70
     1
102
RTVSPropertyOp25
 70
     1
102
RTVSPropertyOp26
 70
     1
102
RTVSPropertyOp27
 70
     1
  0
XRECORD
  5
AC5
102
{ACAD_REACTORS
330
AC4
102
}
330
AC4
100
AcDbXrecord
280
     1
102
RTVSPropertyOp0
 70
     1
102
RTVSPropertyOp1
 70
     1
102
RTVSPropertyOp2
 70
     1
102
RTVSPropertyOp3
 70
     1
102
RTVSPropertyOp4
 70
     1
102
RTVSPropertyOp5
 70
     1
102
RTVSPropertyOp6
 70
     1
102
RTVSPropertyOp7
 70
     1
102
RTVSPropertyOp8
 70
     1
102
RTVSPropertyOp9
 70
     1
102
RTVSPropertyOp10
 70
     1
102
RTVSPropertyOp11
 70
     1
102
RTVSPropertyOp12
 70
     1
102
RTVSPropertyOp13
 70
     1
102
RTVSPropertyOp14
 70
     1
102
RTVSPropertyOp15
 70
     1
102
RTVSPropertyOp16
 70
     1
102
RTVSPropertyOp17
 70
     1
102
RTVSPropertyOp18
 70
     1
102
RTVSPropertyOp19
 70
     1
102
RTVSPropertyOp20
 70
     1
102
RTVSPropertyOp21
 70
     1
102
RTVSPropertyOp22
 70
     1
102
RTVSPropertyOp23
 70
     1
102
RTVSPropertyOp24
 70
     1
102
RTVSPropertyOp25
 70
     1
102
RTVSPropertyOp26
 70
     1
102
RTVSPropertyOp27
 70
     1
  0
XRECORD
  5
AC7
102
{ACAD_REACTORS
330
AC6
102
}
330
AC6
100
AcDbXrecord
280
     1
102
RTVSPropertyOp0
 70
     1
102
RTVSPropertyOp1
 70
     1
102
RTVSPropertyOp2
 70
     1
102
RTVSPropertyOp3
 70
     1
102
RTVSPropertyOp4
 70
     1
102
RTVSPropertyOp5
 70
     1
102
RTVSPropertyOp6
 70
     1
102
RTVSPropertyOp7
 70
     1
102
RTVSPropertyOp8
 70
     1
102
RTVSPropertyOp9
 70
     1
102
RTVSPropertyOp10
 70
     1
102
RTVSPropertyOp11
 70
     1
102
RTVSPropertyOp12
 70
     1
102
RTVSPropertyOp13
 70
     1
102
RTVSPropertyOp14
 70
     1
102
RTVSPropertyOp15
 70
     1
102
RTVSPropertyOp16
 70
     1
102
RTVSPropertyOp17
 70
     1
102
RTVSPropertyOp18
 70
     1
102
RTVSPropertyOp19
 70
     1
102
RTVSPropertyOp20
 70
     1
102
RTVSPropertyOp21
 70
     1
102
RTVSPropertyOp22
 70
     1
102
RTVSPropertyOp23
 70
     1
102
RTVSPropertyOp24
 70
     1
102
RTVSPropertyOp25
 70
     1
102
RTVSPropertyOp26
 70
     1
102
RTVSPropertyOp27
 70
     1
  0
XRECORD
  5
AC9
102
{ACAD_REACTORS
330
AC8
102
}
330
AC8
100
AcDbXrecord
280
     1
102
RTVSPropertyOp0
 70
     1
102
RTVSPropertyOp1
 70
     1
102
RTVSPropertyOp2
 70
     1
102
RTVSPropertyOp3
 70
     1
102
RTVSPropertyOp4
 70
     1
102
RTVSPropertyOp5
 70
     1
102
RTVSPropertyOp6
 70
     1
102
RTVSPropertyOp7
 70
     1
102
RTVSPropertyOp8
 70
     1
102
RTVSPropertyOp9
 70
     1
102
RTVSPropertyOp10
 70
     1
102
RTVSPropertyOp11
 70
     1
102
RTVSPropertyOp12
 70
     1
102
RTVSPropertyOp13
 70
     1
102
RTVSPropertyOp14
 70
     1
102
RTVSPropertyOp15
 70
     1
102
RTVSPropertyOp16
 70
     1
102
RTVSPropertyOp17
 70
     1
102
RTVSPropertyOp18
 70
     1
102
RTVSPropertyOp19
 70
     1
102
RTVSPropertyOp20
 70
     1
102
RTVSPropertyOp21
 70
     1
102
RTVSPropertyOp22
 70
     1
102
RTVSPropertyOp23
 70
     1
102
RTVSPropertyOp24
 70
     1
102
RTVSPropertyOp25
 70
     1
102
RTVSPropertyOp26
 70
     1
102
RTVSPropertyOp27
 70
     1
  0
XRECORD
  5
ACB
102
{ACAD_REACTORS
330
ACA
102
}
330
ACA
100
AcDbXrecord
280
     1
102
RTVSPropertyOp0
 70
     1
102
RTVSPropertyOp1
 70
     1
102
RTVSPropertyOp2
 70
     1
102
RTVSPropertyOp3
 70
     1
102
RTVSPropertyOp4
 70
     1
102
RTVSPropertyOp5
 70
     1
102
RTVSPropertyOp6
 70
     1
102
RTVSPropertyOp7
 70
     1
102
RTVSPropertyOp8
 70
     1
102
RTVSPropertyOp9
 70
     1
102
RTVSPropertyOp10
 70
     1
102
RTVSPropertyOp11
 70
     1
102
RTVSPropertyOp12
 70
     1
102
RTVSPropertyOp13
 70
     1
102
RTVSPropertyOp14
 70
     1
102
RTVSPropertyOp15
 70
     1
102
RTVSPropertyOp16
 70
     1
102
RTVSPropertyOp17
 70
     1
102
RTVSPropertyOp18
 70
     1
102
RTVSPropertyOp19
 70
     1
102
RTVSPropertyOp20
 70
     1
102
RTVSPropertyOp21
 70
     1
102
RTVSPropertyOp22
 70
     1
102
RTVSPropertyOp23
 70
     1
102
RTVSPropertyOp24
 70
     1
102
RTVSPropertyOp25
 70
     1
102
RTVSPropertyOp26
 70
     1
102
RTVSPropertyOp27
 70
     1
  0
XRECORD
  5
ACD
102
{ACAD_REACTORS
330
ACC
102
}
330
ACC
100
AcDbXrecord
280
     1
102
RTVSPropertyOp0
 70
     1
102
RTVSPropertyOp1
 70
     1
102
RTVSPropertyOp2
 70
     1
102
RTVSPropertyOp3
 70
     1
102
RTVSPropertyOp4
 70
     1
102
RTVSPropertyOp5
 70
     1
102
RTVSPropertyOp6
 70
     1
102
RTVSPropertyOp7
 70
     1
102
RTVSPropertyOp8
 70
     1
102
RTVSPropertyOp9
 70
     1
102
RTVSPropertyOp10
 70
     1
102
RTVSPropertyOp11
 70
     1
102
RTVSPropertyOp12
 70
     1
102
RTVSPropertyOp13
 70
     1
102
RTVSPropertyOp14
 70
     1
102
RTVSPropertyOp15
 70
     1
102
RTVSPropertyOp16
 70
     1
102
RTVSPropertyOp17
 70
     1
102
RTVSPropertyOp18
 70
     1
102
RTVSPropertyOp19
 70
     1
102
RTVSPropertyOp20
 70
     1
102
RTVSPropertyOp21
 70
     1
102
RTVSPropertyOp22
 70
     1
102
RTVSPropertyOp23
 70
     1
102
RTVSPropertyOp24
 70
     1
102
RTVSPropertyOp25
 70
     1
102
RTVSPropertyOp26
 70
     1
102
RTVSPropertyOp27
 70
     1
  0
XRECORD
  5
ACF
102
{ACAD_REACTORS
330
ACE
102
}
330
ACE
100
AcDbXrecord
280
     1
102
RTVSPropertyOp0
 70
     1
102
RTVSPropertyOp1
 70
     1
102
RTVSPropertyOp2
 70
     1
102
RTVSPropertyOp3
 70
     1
102
RTVSPropertyOp4
 70
     1
102
RTVSPropertyOp5
 70
     1
102
RTVSPropertyOp6
 70
     1
102
RTVSPropertyOp7
 70
     1
102
RTVSPropertyOp8
 70
     1
102
RTVSPropertyOp9
 70
     1
102
RTVSPropertyOp10
 70
     1
102
RTVSPropertyOp11
 70
     1
102
RTVSPropertyOp12
 70
     1
102
RTVSPropertyOp13
 70
     1
102
RTVSPropertyOp14
 70
     1
102
RTVSPropertyOp15
 70
     1
102
RTVSPropertyOp16
 70
     1
102
RTVSPropertyOp17
 70
     1
102
RTVSPropertyOp18
 70
     1
102
RTVSPropertyOp19
 70
     1
102
RTVSPropertyOp20
 70
     1
102
RTVSPropertyOp21
 70
     1
102
RTVSPropertyOp22
 70
     1
102
RTVSPropertyOp23
 70
     1
102
RTVSPropertyOp24
 70
     1
102
RTVSPropertyOp25
 70
     1
102
RTVSPropertyOp26
 70
     1
102
RTVSPropertyOp27
 70
     1
  0
XRECORD
  5
AD1
102
{ACAD_REACTORS
330
AD0
102
}
330
AD0
100
AcDbXrecord
280
     1
102
RTVSPropertyOp0
 70
     1
102
RTVSPropertyOp1
 70
     1
102
RTVSPropertyOp2
 70
     1
102
RTVSPropertyOp3
 70
     1
102
RTVSPropertyOp4
 70
     1
102
RTVSPropertyOp5
 70
     1
102
RTVSPropertyOp6
 70
     1
102
RTVSPropertyOp7
 70
     1
102
RTVSPropertyOp8
 70
     1
102
RTVSPropertyOp9
 70
     1
102
RTVSPropertyOp10
 70
     1
102
RTVSPropertyOp11
 70
     1
102
RTVSPropertyOp12
 70
     1
102
RTVSPropertyOp13
 70
     1
102
RTVSPropertyOp14
 70
     1
102
RTVSPropertyOp15
 70
     1
102
RTVSPropertyOp16
 70
     1
102
RTVSPropertyOp17
 70
     1
102
RTVSPropertyOp18
 70
     1
102
RTVSPropertyOp19
 70
     1
102
RTVSPropertyOp20
 70
     1
102
RTVSPropertyOp21
 70
     1
102
RTVSPropertyOp22
 70
     1
102
RTVSPropertyOp23
 70
     1
102
RTVSPropertyOp24
 70
     1
102
RTVSPropertyOp25
 70
     1
102
RTVSPropertyOp26
 70
     1
102
RTVSPropertyOp27
 70
     1
  0
XRECORD
  5
AD3
102
{ACAD_REACTORS
330
AD2
102
}
330
AD2
100
AcDbXrecord
280
     1
102
RTVSPropertyOp0
 70
     1
102
RTVSPropertyOp1
 70
     1
102
RTVSPropertyOp2
 70
     1
102
RTVSPropertyOp3
 70
     1
102
RTVSPropertyOp4
 70
     1
102
RTVSPropertyOp5
 70
     1
102
RTVSPropertyOp6
 70
     1
102
RTVSPropertyOp7
 70
     1
102
RTVSPropertyOp8
 70
     1
102
RTVSPropertyOp9
 70
     1
102
RTVSPropertyOp10
 70
     1
102
RTVSPropertyOp11
 70
     1
102
RTVSPropertyOp12
 70
     1
102
RTVSPropertyOp13
 70
     1
102
RTVSPropertyOp14
 70
     1
102
RTVSPropertyOp15
 70
     1
102
RTVSPropertyOp16
 70
     1
102
RTVSPropertyOp17
 70
     1
102
RTVSPropertyOp18
 70
     1
102
RTVSPropertyOp19
 70
     1
102
RTVSPropertyOp20
 70
     1
102
RTVSPropertyOp21
 70
     1
102
RTVSPropertyOp22
 70
     1
102
RTVSPropertyOp23
 70
     1
102
RTVSPropertyOp24
 70
     1
102
RTVSPropertyOp25
 70
     1
102
RTVSPropertyOp26
 70
     1
102
RTVSPropertyOp27
 70
     1
  0
XRECORD
  5
AD5
102
{ACAD_REACTORS
330
AD4
102
}
330
AD4
100
AcDbXrecord
280
     1
102
RTVSPropertyOp0
 70
     1
102
RTVSPropertyOp1
 70
     1
102
RTVSPropertyOp2
 70
     1
102
RTVSPropertyOp3
 70
     1
102
RTVSPropertyOp4
 70
     1
102
RTVSPropertyOp5
 70
     1
102
RTVSPropertyOp6
 70
     1
102
RTVSPropertyOp7
 70
     1
102
RTVSPropertyOp8
 70
     1
102
RTVSPropertyOp9
 70
     1
102
RTVSPropertyOp10
 70
     1
102
RTVSPropertyOp11
 70
     1
102
RTVSPropertyOp12
 70
     1
102
RTVSPropertyOp13
 70
     1
102
RTVSPropertyOp14
 70
     1
102
RTVSPropertyOp15
 70
     1
102
RTVSPropertyOp16
 70
     1
102
RTVSPropertyOp17
 70
     1
102
RTVSPropertyOp18
 70
     1
102
RTVSPropertyOp19
 70
     1
102
RTVSPropertyOp20
 70
     1
102
RTVSPropertyOp21
 70
     1
102
RTVSPropertyOp22
 70
     1
102
RTVSPropertyOp23
 70
     1
102
RTVSPropertyOp24
 70
     1
102
RTVSPropertyOp25
 70
     1
102
RTVSPropertyOp26
 70
     1
102
RTVSPropertyOp27
 70
     1
  0
XRECORD
  5
AD7
102
{ACAD_REACTORS
330
AD6
102
}
330
AD6
100
AcDbXrecord
280
     1
102
RTVSPropertyOp0
 70
     1
102
RTVSPropertyOp1
 70
     1
102
RTVSPropertyOp2
 70
     1
102
RTVSPropertyOp3
 70
     1
102
RTVSPropertyOp4
 70
     1
102
RTVSPropertyOp5
 70
     1
102
RTVSPropertyOp6
 70
     1
102
RTVSPropertyOp7
 70
     1
102
RTVSPropertyOp8
 70
     1
102
RTVSPropertyOp9
 70
     1
102
RTVSPropertyOp10
 70
     1
102
RTVSPropertyOp11
 70
     1
102
RTVSPropertyOp12
 70
     1
102
RTVSPropertyOp13
 70
     1
102
RTVSPropertyOp14
 70
     1
102
RTVSPropertyOp15
 70
     1
102
RTVSPropertyOp16
 70
     1
102
RTVSPropertyOp17
 70
     1
102
RTVSPropertyOp18
 70
     1
102
RTVSPropertyOp19
 70
     1
102
RTVSPropertyOp20
 70
     1
102
RTVSPropertyOp21
 70
     1
102
RTVSPropertyOp22
 70
     1
102
RTVSPropertyOp23
 70
     1
102
RTVSPropertyOp24
 70
     1
102
RTVSPropertyOp25
 70
     1
102
RTVSPropertyOp26
 70
     1
102
RTVSPropertyOp27
 70
     1
  0
XRECORD
  5
AD9
102
{ACAD_REACTORS
330
AD8
102
}
330
AD8
100
AcDbXrecord
280
     1
102
RTVSPropertyOp0
 70
     1
102
RTVSPropertyOp1
 70
     1
102
RTVSPropertyOp2
 70
     1
102
RTVSPropertyOp3
 70
     1
102
RTVSPropertyOp4
 70
     1
102
RTVSPropertyOp5
 70
     1
102
RTVSPropertyOp6
 70
     1
102
RTVSPropertyOp7
 70
     1
102
RTVSPropertyOp8
 70
     1
102
RTVSPropertyOp9
 70
     1
102
RTVSPropertyOp10
 70
     1
102
RTVSPropertyOp11
 70
     1
102
RTVSPropertyOp12
 70
     1
102
RTVSPropertyOp13
 70
     1
102
RTVSPropertyOp14
 70
     1
102
RTVSPropertyOp15
 70
     1
102
RTVSPropertyOp16
 70
     1
102
RTVSPropertyOp17
 70
     1
102
RTVSPropertyOp18
 70
     1
102
RTVSPropertyOp19
 70
     1
102
RTVSPropertyOp20
 70
     1
102
RTVSPropertyOp21
 70
     1
102
RTVSPropertyOp22
 70
     1
102
RTVSPropertyOp23
 70
     1
102
RTVSPropertyOp24
 70
     1
102
RTVSPropertyOp25
 70
     1
102
RTVSPropertyOp26
 70
     1
102
RTVSPropertyOp27
 70
     1
  0
XRECORD
  5
ADB
102
{ACAD_REACTORS
330
ADA
102
}
330
ADA
100
AcDbXrecord
280
     1
102
RTVSPropertyOp0
 70
     1
102
RTVSPropertyOp1
 70
     1
102
RTVSPropertyOp2
 70
     1
102
RTVSPropertyOp3
 70
     1
102
RTVSPropertyOp4
 70
     1
102
RTVSPropertyOp5
 70
     1
102
RTVSPropertyOp6
 70
     1
102
RTVSPropertyOp7
 70
     1
102
RTVSPropertyOp8
 70
     1
102
RTVSPropertyOp9
 70
     1
102
RTVSPropertyOp10
 70
     1
102
RTVSPropertyOp11
 70
     1
102
RTVSPropertyOp12
 70
     1
102
RTVSPropertyOp13
 70
     1
102
RTVSPropertyOp14
 70
     1
102
RTVSPropertyOp15
 70
     1
102
RTVSPropertyOp16
 70
     1
102
RTVSPropertyOp17
 70
     1
102
RTVSPropertyOp18
 70
     1
102
RTVSPropertyOp19
 70
     1
102
RTVSPropertyOp20
 70
     1
102
RTVSPropertyOp21
 70
     1
102
RTVSPropertyOp22
 70
     1
102
RTVSPropertyOp23
 70
     1
102
RTVSPropertyOp24
 70
     1
102
RTVSPropertyOp25
 70
     1
102
RTVSPropertyOp26
 70
     1
102
RTVSPropertyOp27
 70
     1
  0
XRECORD
  5
ADD
102
{ACAD_REACTORS
330
ADC
102
}
330
ADC
100
AcDbXrecord
280
     1
102
RTVSPropertyOp0
 70
     1
102
RTVSPropertyOp1
 70
     1
102
RTVSPropertyOp2
 70
     1
102
RTVSPropertyOp3
 70
     1
102
RTVSPropertyOp4
 70
     1
102
RTVSPropertyOp5
 70
     1
102
RTVSPropertyOp6
 70
     1
102
RTVSPropertyOp7
 70
     1
102
RTVSPropertyOp8
 70
     1
102
RTVSPropertyOp9
 70
     1
102
RTVSPropertyOp10
 70
     1
102
RTVSPropertyOp11
 70
     1
102
RTVSPropertyOp12
 70
     1
102
RTVSPropertyOp13
 70
     1
102
RTVSPropertyOp14
 70
     1
102
RTVSPropertyOp15
 70
     1
102
RTVSPropertyOp16
 70
     1
102
RTVSPropertyOp17
 70
     1
102
RTVSPropertyOp18
 70
     1
102
RTVSPropertyOp19
 70
     1
102
RTVSPropertyOp20
 70
     1
102
RTVSPropertyOp21
 70
     1
102
RTVSPropertyOp22
 70
     1
102
RTVSPropertyOp23
 70
     1
102
RTVSPropertyOp24
 70
     1
102
RTVSPropertyOp25
 70
     1
102
RTVSPropertyOp26
 70
     1
102
RTVSPropertyOp27
 70
     1
  0
XRECORD
  5
ADF
102
{ACAD_REACTORS
330
ADE
102
}
330
ADE
100
AcDbXrecord
280
     1
102
RTVSPropertyOp0
 70
     1
102
RTVSPropertyOp1
 70
     1
102
RTVSPropertyOp2
 70
     1
102
RTVSPropertyOp3
 70
     1
102
RTVSPropertyOp4
 70
     1
102
RTVSPropertyOp5
 70
     1
102
RTVSPropertyOp6
 70
     1
102
RTVSPropertyOp7
 70
     1
102
RTVSPropertyOp8
 70
     1
102
RTVSPropertyOp9
 70
     1
102
RTVSPropertyOp10
 70
     1
102
RTVSPropertyOp11
 70
     1
102
RTVSPropertyOp12
 70
     1
102
RTVSPropertyOp13
 70
     1
102
RTVSPropertyOp14
 70
     1
102
RTVSPropertyOp15
 70
     1
102
RTVSPropertyOp16
 70
     1
102
RTVSPropertyOp17
 70
     1
102
RTVSPropertyOp18
 70
     1
102
RTVSPropertyOp19
 70
     1
102
RTVSPropertyOp20
 70
     1
102
RTVSPropertyOp21
 70
     1
102
RTVSPropertyOp22
 70
     1
102
RTVSPropertyOp23
 70
     1
102
RTVSPropertyOp24
 70
     1
102
RTVSPropertyOp25
 70
     1
102
RTVSPropertyOp26
 70
     1
102
RTVSPropertyOp27
 70
     1
  0
XRECORD
  5
AE1
102
{ACAD_REACTORS
330
AE0
102
}
330
AE0
100
AcDbXrecord
280
     1
102
RTVSPropertyOp0
 70
     1
102
RTVSPropertyOp1
 70
     1
102
RTVSPropertyOp2
 70
     1
102
RTVSPropertyOp3
 70
     1
102
RTVSPropertyOp4
 70
     1
102
RTVSPropertyOp5
 70
     1
102
RTVSPropertyOp6
 70
     1
102
RTVSPropertyOp7
 70
     1
102
RTVSPropertyOp8
 70
     1
102
RTVSPropertyOp9
 70
     1
102
RTVSPropertyOp10
 70
     1
102
RTVSPropertyOp11
 70
     1
102
RTVSPropertyOp12
 70
     1
102
RTVSPropertyOp13
 70
     1
102
RTVSPropertyOp14
 70
     1
102
RTVSPropertyOp15
 70
     1
102
RTVSPropertyOp16
 70
     1
102
RTVSPropertyOp17
 70
     1
102
RTVSPropertyOp18
 70
     1
102
RTVSPropertyOp19
 70
     1
102
RTVSPropertyOp20
 70
     1
102
RTVSPropertyOp21
 70
     1
102
RTVSPropertyOp22
 70
     1
102
RTVSPropertyOp23
 70
     1
102
RTVSPropertyOp24
 70
     1
102
RTVSPropertyOp25
 70
     1
102
RTVSPropertyOp26
 70
     1
102
RTVSPropertyOp27
 70
     1
  0
XRECORD
  5
AE3
102
{ACAD_REACTORS
330
AE2
102
}
330
AE2
100
AcDbXrecord
280
     1
102
RTVSPropertyOp0
 70
     1
102
RTVSPropertyOp1
 70
     1
102
RTVSPropertyOp2
 70
     1
102
RTVSPropertyOp3
 70
     1
102
RTVSPropertyOp4
 70
     1
102
RTVSPropertyOp5
 70
     1
102
RTVSPropertyOp6
 70
     1
102
RTVSPropertyOp7
 70
     1
102
RTVSPropertyOp8
 70
     1
102
RTVSPropertyOp9
 70
     1
102
RTVSPropertyOp10
 70
     1
102
RTVSPropertyOp11
 70
     1
102
RTVSPropertyOp12
 70
     1
102
RTVSPropertyOp13
 70
     1
102
RTVSPropertyOp14
 70
     1
102
RTVSPropertyOp15
 70
     1
102
RTVSPropertyOp16
 70
     1
102
RTVSPropertyOp17
 70
     1
102
RTVSPropertyOp18
 70
     1
102
RTVSPropertyOp19
 70
     1
102
RTVSPropertyOp20
 70
     1
102
RTVSPropertyOp21
 70
     1
102
RTVSPropertyOp22
 70
     1
102
RTVSPropertyOp23
 70
     1
102
RTVSPropertyOp24
 70
     1
102
RTVSPropertyOp25
 70
     1
102
RTVSPropertyOp26
 70
     1
102
RTVSPropertyOp27
 70
     1
  0
XRECORD
  5
AE5
102
{ACAD_REACTORS
330
AE4
102
}
330
AE4
100
AcDbXrecord
280
     1
102
RTVSPropertyOp0
 70
     1
102
RTVSPropertyOp1
 70
     1
102
RTVSPropertyOp2
 70
     1
102
RTVSPropertyOp3
 70
     1
102
RTVSPropertyOp4
 70
     1
102
RTVSPropertyOp5
 70
     1
102
RTVSPropertyOp6
 70
     1
102
RTVSPropertyOp7
 70
     1
102
RTVSPropertyOp8
 70
     1
102
RTVSPropertyOp9
 70
     1
102
RTVSPropertyOp10
 70
     1
102
RTVSPropertyOp11
 70
     1
102
RTVSPropertyOp12
 70
     1
102
RTVSPropertyOp13
 70
     1
102
RTVSPropertyOp14
 70
     1
102
RTVSPropertyOp15
 70
     1
102
RTVSPropertyOp16
 70
     1
102
RTVSPropertyOp17
 70
     1
102
RTVSPropertyOp18
 70
     1
102
RTVSPropertyOp19
 70
     1
102
RTVSPropertyOp20
 70
     1
102
RTVSPropertyOp21
 70
     1
102
RTVSPropertyOp22
 70
     1
102
RTVSPropertyOp23
 70
     1
102
RTVSPropertyOp24
 70
     1
102
RTVSPropertyOp25
 70
     1
102
RTVSPropertyOp26
 70
     1
102
RTVSPropertyOp27
 70
     1
  0
XRECORD
  5
AE7
102
{ACAD_REACTORS
330
AE6
102
}
330
AE6
100
AcDbXrecord
280
     1
102
RTVSPropertyOp0
 70
     1
102
RTVSPropertyOp1
 70
     1
102
RTVSPropertyOp2
 70
     1
102
RTVSPropertyOp3
 70
     1
102
RTVSPropertyOp4
 70
     1
102
RTVSPropertyOp5
 70
     1
102
RTVSPropertyOp6
 70
     1
102
RTVSPropertyOp7
 70
     1
102
RTVSPropertyOp8
 70
     1
102
RTVSPropertyOp9
 70
     1
102
RTVSPropertyOp10
 70
     1
102
RTVSPropertyOp11
 70
     1
102
RTVSPropertyOp12
 70
     1
102
RTVSPropertyOp13
 70
     1
102
RTVSPropertyOp14
 70
     1
102
RTVSPropertyOp15
 70
     1
102
RTVSPropertyOp16
 70
     1
102
RTVSPropertyOp17
 70
     1
102
RTVSPropertyOp18
 70
     1
102
RTVSPropertyOp19
 70
     1
102
RTVSPropertyOp20
 70
     1
102
RTVSPropertyOp21
 70
     1
102
RTVSPropertyOp22
 70
     1
102
RTVSPropertyOp23
 70
     1
102
RTVSPropertyOp24
 70
     1
102
RTVSPropertyOp25
 70
     1
102
RTVSPropertyOp26
 70
     1
102
RTVSPropertyOp27
 70
     1
  0
XRECORD
  5
AE9
102
{ACAD_REACTORS
330
AE8
102
}
330
AE8
100
AcDbXrecord
280
     1
102
RTVSPropertyOp0
 70
     1
102
RTVSPropertyOp1
 70
     1
102
RTVSPropertyOp2
 70
     1
102
RTVSPropertyOp3
 70
     1
102
RTVSPropertyOp4
 70
     1
102
RTVSPropertyOp5
 70
     1
102
RTVSPropertyOp6
 70
     1
102
RTVSPropertyOp7
 70
     1
102
RTVSPropertyOp8
 70
     1
102
RTVSPropertyOp9
 70
     1
102
RTVSPropertyOp10
 70
     1
102
RTVSPropertyOp11
 70
     1
102
RTVSPropertyOp12
 70
     1
102
RTVSPropertyOp13
 70
     1
102
RTVSPropertyOp14
 70
     1
102
RTVSPropertyOp15
 70
     1
102
RTVSPropertyOp16
 70
     1
102
RTVSPropertyOp17
 70
     1
102
RTVSPropertyOp18
 70
     1
102
RTVSPropertyOp19
 70
     1
102
RTVSPropertyOp20
 70
     1
102
RTVSPropertyOp21
 70
     1
102
RTVSPropertyOp22
 70
     1
102
RTVSPropertyOp23
 70
     1
102
RTVSPropertyOp24
 70
     1
102
RTVSPropertyOp25
 70
     1
102
RTVSPropertyOp26
 70
     1
102
RTVSPropertyOp27
 70
     1
  0
XRECORD
  5
AEB
102
{ACAD_REACTORS
330
AEA
102
}
330
AEA
100
AcDbXrecord
280
     1
102
RTVSPropertyOp0
 70
     1
102
RTVSPropertyOp1
 70
     1
102
RTVSPropertyOp2
 70
     1
102
RTVSPropertyOp3
 70
     1
102
RTVSPropertyOp4
 70
     1
102
RTVSPropertyOp5
 70
     1
102
RTVSPropertyOp6
 70
     1
102
RTVSPropertyOp7
 70
     1
102
RTVSPropertyOp8
 70
     1
102
RTVSPropertyOp9
 70
     1
102
RTVSPropertyOp10
 70
     1
102
RTVSPropertyOp11
 70
     1
102
RTVSPropertyOp12
 70
     1
102
RTVSPropertyOp13
 70
     1
102
RTVSPropertyOp14
 70
     1
102
RTVSPropertyOp15
 70
     1
102
RTVSPropertyOp16
 70
     1
102
RTVSPropertyOp17
 70
     1
102
RTVSPropertyOp18
 70
     1
102
RTVSPropertyOp19
 70
     1
102
RTVSPropertyOp20
 70
     1
102
RTVSPropertyOp21
 70
     1
102
RTVSPropertyOp22
 70
     1
102
RTVSPropertyOp23
 70
     1
102
RTVSPropertyOp24
 70
     1
102
RTVSPropertyOp25
 70
     1
102
RTVSPropertyOp26
 70
     1
102
RTVSPropertyOp27
 70
     1
  0
ENDSEC
  0
EOF
