  0
SECTION
  2
HEADER
  9
$ACADVER
  1
AC1018
  9
$ACADMAINTVER
 70
     0
  9
$DWGCODEPAGE
  3
ANSI_932
  9
$LASTSAVEDBY
  1
shinwa
  9
$INSBASE
 10
0.0
 20
0.0
 30
0.0
  9
$EXTMIN
 10
226.7808576631921
 20
-96.81175765693118
 30
0.0
  9
$EXTMAX
 10
11154.78343630826
 20
7832.039940919411
 30
0.0
  9
$LIMMIN
 10
0.0
 20
0.0
  9
$LIMMAX
 10
11880.0
 20
8400.0
  9
$ORTHOMODE
 70
     1
  9
$REGENMODE
 70
     1
  9
$FILLMODE
 70
     1
  9
$QTEXTMODE
 70
     0
  9
$MIRRTEXT
 70
     1
  9
$LTSCALE
 40
100.0
  9
$ATTMODE
 70
     1
  9
$TEXTSIZE
 40
60.0
  9
$TRACEWID
 40
0.05
  9
$TEXTSTYLE
  7
A
  9
$CLAYER
  8
SUNPOU
  9
$CELTYPE
  6
BYLAYER
  9
$CECOLOR
 62
   256
  9
$CELTSCALE
 40
1.0
  9
$DISPSILH
 70
     0
  9
$DIMSCALE
 40
1.0
  9
$DIMASZ
 40
40.0
  9
$DIMEXO
 40
40.0
  9
$DIMDLI
 40
140.0
  9
$DIMRND
 40
0.0
  9
$DIMDLE
 40
0.0
  9
$DIMEXE
 40
20.0
  9
$DIMTP
 40
0.0
  9
$DIMTM
 40
0.0
  9
$DIMTXT
 40
60.0
  9
$DIMCEN
 40
0.09
  9
$DIMTSZ
 40
0.0
  9
$DIMTOL
 70
     0
  9
$DIMLIM
 70
     0
  9
$DIMTIH
 70
     0
  9
$DIMTOH
 70
     0
  9
$DIMSE1
 70
     0
  9
$DIMSE2
 70
     0
  9
$DIMTAD
 70
     0
  9
$DIMZIN
 70
     0
  9
$DIMBLK
  1

  9
$DIMASO
 70
     1
  9
$DIMSHO
 70
     0
  9
$DIMPOST
  1

  9
$DIMAPOST
  1

  9
$DIMALT
 70
     0
  9
$DIMALTD
 70
     2
  9
$DIMALTF
 40
25.4
  9
$DIMLFAC
 40
1.0
  9
$DIMTOFL
 70
     1
  9
$DIMTVP
 40
1.0
  9
$DIMTIX
 70
     0
  9
$DIMSOXD
 70
     0
  9
$DIMSAH
 70
     0
  9
$DIMBLK1
  1

  9
$DIMBLK2
  1

  9
$DIMSTYLE
  2
STANDARD
  9
$DIMCLRD
 70
     0
  9
$DIMCLRE
 70
     0
  9
$DIMCLRT
 70
     0
  9
$DIMTFAC
 40
1.0
  9
$DIMGAP
 40
0.09
  9
$DIMJUST
 70
     0
  9
$DIMSD1
 70
     0
  9
$DIMSD2
 70
     0
  9
$DIMTOLJ
 70
     1
  9
$DIMTZIN
 70
     0
  9
$DIMALTZ
 70
     0
  9
$DIMALTTZ
 70
     0
  9
$DIMUPT
 70
     0
  9
$DIMDEC
 70
     0
  9
$DIMTDEC
 70
     0
  9
$DIMALTU
 70
     2
  9
$DIMALTTD
 70
     2
  9
$DIMTXSTY
  7
A
  9
$DIMAUNIT
 70
     1
  9
$DIMADEC
 70
     0
  9
$DIMALTRND
 40
0.0
  9
$DIMAZIN
 70
     0
  9
$DIMDSEP
 70
    46
  9
$DIMATFIT
 70
     3
  9
$DIMFRAC
 70
     0
  9
$DIMLDRBLK
  1

  9
$DIMLUNIT
 70
     2
  9
$DIMLWD
 70
    -2
  9
$DIMLWE
 70
    -2
  9
$DIMTMOVE
 70
     2
  9
$LUNITS
 70
     2
  9
$LUPREC
 70
     0
  9
$SKETCHINC
 40
0.1
  9
$FILLETRAD
 40
55.0
  9
$AUNITS
 70
     1
  9
$AUPREC
 70
     4
  9
$MENU
  1
acad
  9
$ELEVATION
 40
0.0
  9
$PELEVATION
 40
0.0
  9
$THICKNESS
 40
0.0
  9
$LIMCHECK
 70
     0
  9
$CHAMFERA
 40
0.0
  9
$CHAMFERB
 40
0.0
  9
$CHAMFERC
 40
0.0
  9
$CHAMFERD
 40
0.0
  9
$SKPOLY
 70
     0
  9
$TDCREATE
 40
2448735.762268519
  9
$TDUCREATE
 40
2448735.387268519
  9
$TDUPDATE
 40
2457794.752667107
  9
$TDUUPDATE
 40
2457794.377667107
  9
$TDINDWG
 40
0.0884705671
  9
$TDUSRTIMER
 40
0.0884705671
  9
$USRTIMER
 70
     1
  9
$ANGBASE
 50
0.0
  9
$ANGDIR
 70
     0
  9
$PDMODE
 70
    32
  9
$PDSIZE
 40
1.0
  9
$PLINEWID
 40
0.0
  9
$SPLFRAME
 70
     0
  9
$SPLINETYPE
 70
     6
  9
$SPLINESEGS
 70
     8
  9
$HANDSEED
  5
AB7
  9
$SURFTAB1
 70
     6
  9
$SURFTAB2
 70
     6
  9
$SURFTYPE
 70
     6
  9
$SURFU
 70
     6
  9
$SURFV
 70
     6
  9
$UCSBASE
  2

  9
$UCSNAME
  2

  9
$UCSORG
 10
0.0
 20
0.0
 30
0.0
  9
$UCSXDIR
 10
1.0
 20
0.0
 30
0.0
  9
$UCSYDIR
 10
0.0
 20
1.0
 30
0.0
  9
$UCSORTHOREF
  2

  9
$UCSORTHOVIEW
 70
     0
  9
$UCSORGTOP
 10
0.0
 20
0.0
 30
0.0
  9
$UCSORGBOTTOM
 10
0.0
 20
0.0
 30
0.0
  9
$UCSORGLEFT
 10
0.0
 20
0.0
 30
0.0
  9
$UCSORGRIGHT
 10
0.0
 20
0.0
 30
0.0
  9
$UCSORGFRONT
 10
0.0
 20
0.0
 30
0.0
  9
$UCSORGBACK
 10
0.0
 20
0.0
 30
0.0
  9
$PUCSBASE
  2

  9
$PUCSNAME
  2

  9
$PUCSORG
 10
0.0
 20
0.0
 30
0.0
  9
$PUCSXDIR
 10
1.0
 20
0.0
 30
0.0
  9
$PUCSYDIR
 10
0.0
 20
1.0
 30
0.0
  9
$PUCSORTHOREF
  2

  9
$PUCSORTHOVIEW
 70
     0
  9
$PUCSORGTOP
 10
0.0
 20
0.0
 30
0.0
  9
$PUCSORGBOTTOM
 10
0.0
 20
0.0
 30
0.0
  9
$PUCSORGLEFT
 10
0.0
 20
0.0
 30
0.0
  9
$PUCSORGRIGHT
 10
0.0
 20
0.0
 30
0.0
  9
$PUCSORGFRONT
 10
0.0
 20
0.0
 30
0.0
  9
$PUCSORGBACK
 10
0.0
 20
0.0
 30
0.0
  9
$USERI1
 70
     0
  9
$USERI2
 70
     0
  9
$USERI3
 70
     0
  9
$USERI4
 70
     0
  9
$USERI5
 70
     0
  9
$USERR1
 40
0.0
  9
$USERR2
 40
0.0
  9
$USERR3
 40
0.0
  9
$USERR4
 40
0.0
  9
$USERR5
 40
0.0
  9
$WORLDVIEW
 70
     1
  9
$SHADEDGE
 70
     3
  9
$SHADEDIF
 70
    70
  9
$TILEMODE
 70
     1
  9
$MAXACTVP
 70
    48
  9
$PINSBASE
 10
0.0
 20
0.0
 30
0.0
  9
$PLIMCHECK
 70
     0
  9
$PEXTMIN
 10
1.000000000000000E+20
 20
1.000000000000000E+20
 30
1.000000000000000E+20
  9
$PEXTMAX
 10
-1.000000000000000E+20
 20
-1.000000000000000E+20
 30
-1.000000000000000E+20
  9
$PLIMMIN
 10
0.0
 20
0.0
  9
$PLIMMAX
 10
12.0
 20
9.0
  9
$UNITMODE
 70
     0
  9
$VISRETAIN
 70
     0
  9
$PLINEGEN
 70
     0
  9
$PSLTSCALE
 70
     0
  9
$TREEDEPTH
 70
  3020
  9
$CMLSTYLE
  2
STANDARD
  9
$CMLJUST
 70
     0
  9
$CMLSCALE
 40
1.0
  9
$PROXYGRAPHICS
 70
     1
  9
$MEASUREMENT
 70
     0
  9
$CELWEIGHT
370
    -1
  9
$ENDCAPS
280
     0
  9
$JOINSTYLE
280
     0
  9
$LWDISPLAY
290
     0
  9
$INSUNITS
 70
     0
  9
$HYPERLINKBASE
  1

  9
$STYLESHEET
  1

  9
$XEDIT
290
     1
  9
$CEPSNTYPE
380
     0
  9
$PSTYLEMODE
290
     1
  9
$FINGERPRINTGUID
  2
{1269C1A9-175E-469B-964A-63421FCBCBE4}
  9
$VERSIONGUID
  2
{3148BF51-3C29-488D-B5AD-886A184F166E}
  9
$EXTNAMES
290
     1
  9
$PSVPSCALE
 40
0.0
  9
$OLESTARTUP
290
     0
  9
$SORTENTS
280
   127
  9
$INDEXCTL
280
     0
  9
$HIDETEXT
280
     0
  9
$XCLIPFRAME
290
     0
  9
$HALOGAP
280
     0
  9
$OBSCOLOR
 70
   257
  9
$OBSLTYPE
280
     0
  9
$INTERSECTIONDISPLAY
280
     0
  9
$INTERSECTIONCOLOR
 70
   257
  9
$DIMASSOC
280
     1
  9
$PROJECTNAME
  1

  0
ENDSEC
  0
SECTION
  2
CLASSES
  0
CLASS
  1
DICTIONARYVAR
  2
AcDbDictionaryVar
  3
ObjectDBX Classes
 90
        0
 91
        4
280
     0
281
     0
  0
CLASS
  1
LWPOLYLINE
  2
AcDbPolyline
  3
AutoCAD 2000
 90
        0
 91
        1
280
     0
281
     1
  0
CLASS
  1
ACDBDICTIONARYWDFLT
  2
AcDbDictionaryWithDefault
  3
ObjectDBX Classes
 90
        0
 91
        4
280
     0
281
     0
  0
CLASS
  1
MATERIAL
  2
AcDbMaterial
  3
ObjectDBX Classes
 90
     1153
 91
        4
280
     0
281
     0
  0
CLASS
  1
VISUALSTYLE
  2
AcDbVisualStyle
  3
ObjectDBX Classes
 90
     4095
 91
        4
280
     0
281
     0
  0
CLASS
  1
TABLESTYLE
  2
AcDbTableStyle
  3
ObjectDBX Classes
 90
     4095
 91
        4
280
     0
281
     0
  0
CLASS
  1
SCALE
  2
AcDbScale
  3
ObjectDBX Classes
 90
     1153
 91
        4
280
     0
281
     0
  0
CLASS
  1
MLEADERSTYLE
  2
AcDbMLeaderStyle
  3
ACDB_MLEADERSTYLE_CLASS
 90
     4095
 91
        4
280
     0
281
     0
  0
CLASS
  1
ACDBSECTIONVIEWSTYLE
  2
AcDbSectionViewStyle
  3
ObjectDBX Classes
 90
     1025
 91
        2
280
     1
281
     0
  0
CLASS
  1
ACDBDETAILVIEWSTYLE
  2
AcDbDetailViewStyle
  3
ObjectDBX Classes
 90
     1025
 91
        2
280
     1
281
     0
  0
CLASS
  1
CELLSTYLEMAP
  2
AcDbCellStyleMap
  3
ObjectDBX Classes
 90
     1152
 91
        4
280
     0
281
     0
  0
ENDSEC
  0
SECTION
  2
TABLES
  0
TABLE
  2
VPORT
  5
8
102
{ACAD_XDICTIONARY
360
A7B
102
}
330
0
100
AcDbSymbolTable
 70
     1
  0
VPORT
  5
989
330
8
100
AcDbSymbolTableRecord
100
AcDbViewportTableRecord
  2
*ACTIVE
 70
     0
 10
0.0
 20
0.0
 11
1.0
 21
1.0
 12
5706.555641877564
 22
3629.380091041548
 13
0.0
 23
0.0
 14
10.0
 24
10.0
 15
100.0
 25
100.0
 16
0.0
 26
0.0
 36
1.0
 17
0.0
 27
0.0
 37
0.0
 40
10148.97661122106
 41
1.560747663551402
 42
50.0
 43
0.0
 44
0.0
 50
0.0
 51
0.0
 71
     0
 72
   100
 73
     1
 74
     1
 75
     0
 76
     0
 77
     0
 78
     2
281
     0
 65
     1
110
0.0
120
0.0
130
0.0
111
1.0
121
0.0
131
0.0
112
0.0
122
1.0
132
0.0
 79
     0
146
0.0
1001
ACAD_NAV_VCDISPLAY
1070
     3
  0
ENDTAB
  0
TABLE
  2
LTYPE
  5
5
330
0
100
AcDbSymbolTable
 70
     5
  0
LTYPE
  5
11
330
5
100
AcDbSymbolTableRecord
100
AcDbLinetypeTableRecord
  2
BYBLOCK
 70
     0
  3

 72
    65
 73
     0
 40
0.0
  0
LTYPE
  5
12
330
5
100
AcDbSymbolTableRecord
100
AcDbLinetypeTableRecord
  2
BYLAYER
 70
     0
  3

 72
    65
 73
     0
 40
0.0
  0
LTYPE
  5
13
330
5
100
AcDbSymbolTableRecord
100
AcDbLinetypeTableRecord
  2
CONTINUOUS
 70
     0
  3
実線
 72
    65
 73
     0
 40
0.0
  0
LTYPE
  5
94
330
5
100
AcDbSymbolTableRecord
100
AcDbLinetypeTableRecord
  2
HIDDEN
 70
     0
  3
_ _ _ _ _ _ _ _ _ _ _ _ _ _ _ _ _ _ _ _ _ _ _
 72
    65
 73
     2
 40
0.375
 49
0.25
 74
     0
 49
-0.125
 74
     0
  0
LTYPE
  5
95
330
5
100
AcDbSymbolTableRecord
100
AcDbLinetypeTableRecord
  2
CENTER
 70
     0
  3
____ _ ____ _ ____ _ ____ _ ____ _ ____ _ ____
 72
    65
 73
     4
 40
2.0
 49
1.25
 74
     0
 49
-0.25
 74
     0
 49
0.25
 74
     0
 49
-0.25
 74
     0
  0
LTYPE
  5
96
330
5
100
AcDbSymbolTableRecord
100
AcDbLinetypeTableRecord
  2
PHANTOM
 70
     0
  3
_____ _ _ _____ _ _ _____ _ _ _____ _ _ ____
 72
    65
 73
     6
 40
2.5
 49
1.25
 74
     0
 49
-0.25
 74
     0
 49
0.25
 74
     0
 49
-0.25
 74
     0
 49
0.25
 74
     0
 49
-0.25
 74
     0
  0
LTYPE
  5
97
330
5
100
AcDbSymbolTableRecord
100
AcDbLinetypeTableRecord
  2
DOT
 70
     0
  3
...............................................
 72
    65
 73
     2
 40
0.25
 49
0.0
 74
     0
 49
-0.25
 74
     0
  0
ENDTAB
  0
TABLE
  2
LAYER
  5
2
102
{ACAD_XDICTIONARY
360
A1F
102
}
330
0
100
AcDbSymbolTable
 70
    10
  0
LAYER
  5
E
102
{ACAD_XDICTIONARY
360
A0A
102
}
330
2
100
AcDbSymbolTableRecord
100
AcDbLayerTableRecord
  2
0
 70
     0
 62
     7
  6
CONTINUOUS
370
    -3
390
98C
  0
LAYER
  5
9A
102
{ACAD_XDICTIONARY
360
A0C
102
}
330
2
100
AcDbSymbolTableRecord
100
AcDbLayerTableRecord
  2
SUNPOU
 70
     0
 62
     1
  6
CONTINUOUS
370
    -3
390
98C
  0
LAYER
  5
9B
102
{ACAD_XDICTIONARY
360
A0E
102
}
330
2
100
AcDbSymbolTableRecord
100
AcDbLayerTableRecord
  2
SEIHIN
 70
     0
 62
     3
  6
CONTINUOUS
370
    -3
390
98C
  0
LAYER
  5
9C
102
{ACAD_XDICTIONARY
360
A10
102
}
330
2
100
AcDbSymbolTableRecord
100
AcDbLayerTableRecord
  2
HAIKIN
 70
     0
 62
     2
  6
CONTINUOUS
370
    -3
390
98C
  0
LAYER
  5
9D
102
{ACAD_XDICTIONARY
360
A12
102
}
330
2
100
AcDbSymbolTableRecord
100
AcDbLayerTableRecord
  2
HASEN
 70
     0
 62
     4
  6
HIDDEN
370
    -3
390
98C
  0
LAYER
  5
9E
102
{ACAD_XDICTIONARY
360
A14
102
}
330
2
100
AcDbSymbolTableRecord
100
AcDbLayerTableRecord
  2
1HASEN
 70
     0
 62
     5
  6
CENTER
370
    -3
390
98C
  0
LAYER
  5
9F
102
{ACAD_XDICTIONARY
360
A16
102
}
330
2
100
AcDbSymbolTableRecord
100
AcDbLayerTableRecord
  2
2HASEN
 70
     0
 62
     6
  6
PHANTOM
370
    -3
390
98C
  0
LAYER
  5
A0
102
{ACAD_XDICTIONARY
360
A18
102
}
330
2
100
AcDbSymbolTableRecord
100
AcDbLayerTableRecord
  2
TEN
 70
     0
 62
     7
  6
DOT
370
    -3
390
98C
  0
LAYER
  5
A1
102
{ACAD_XDICTIONARY
360
A1A
102
}
330
2
100
AcDbSymbolTableRecord
100
AcDbLayerTableRecord
  2
HOJO
 70
     0
 62
     7
  6
CONTINUOUS
370
    -3
390
98C
  0
LAYER
  5
A2
330
2
100
AcDbSymbolTableRecord
100
AcDbLayerTableRecord
  2
DEFPOINTS
 70
     0
 62
     7
  6
CONTINUOUS
290
     0
370
    -3
390
98C
  0
ENDTAB
  0
TABLE
  2
STYLE
  5
3
330
0
100
AcDbSymbolTable
 70
     3
  0
STYLE
  5
F
330
3
100
AcDbSymbolTableRecord
100
AcDbTextStyleTableRecord
  2
STANDARD
 70
     0
 40
0.0
 41
1.0
 50
0.0
 71
     0
 42
0.2
  3
txt
  4

  0
STYLE
  5
92
330
3
100
AcDbSymbolTableRecord
100
AcDbTextStyleTableRecord
  2
A
 70
     0
 40
0.0
 41
1.0
 50
0.0
 71
     0
 42
60.0
  3
txt
  4
bigfont
  0
STYLE
  5
93
330
3
100
AcDbSymbolTableRecord
100
AcDbTextStyleTableRecord
  2
NIHONGO
 70
     0
 40
0.0
 41
1.0
 50
0.0
 71
     0
 42
3.0
  3
TXT
  4
BIGFONT
  0
ENDTAB
  0
TABLE
  2
VIEW
  5
6
330
0
100
AcDbSymbolTable
 70
     0
  0
ENDTAB
  0
TABLE
  2
UCS
  5
7
330
0
100
AcDbSymbolTable
 70
     0
  0
ENDTAB
  0
TABLE
  2
APPID
  5
9
330
0
100
AcDbSymbolTable
 70
    11
  0
APPID
  5
10
330
9
100
AcDbSymbolTableRecord
100
AcDbRegAppTableRecord
  2
ACAD
 70
     0
  0
APPID
  5
9E2
330
9
100
AcDbSymbolTableRecord
100
AcDbRegAppTableRecord
  2
ACAD_NAV_VCDISPLAY
 70
     0
  0
APPID
  5
A60
330
9
100
AcDbSymbolTableRecord
100
AcDbRegAppTableRecord
  2
ACAD_MLEADERVER
 70
     0
  0
APPID
  5
A73
330
9
100
AcDbSymbolTableRecord
100
AcDbRegAppTableRecord
  2
ACAD_DSTYLE_DIMARC_LENGTH_SYMBOL
 70
     0
  0
APPID
  5
A74
330
9
100
AcDbSymbolTableRecord
100
AcDbRegAppTableRecord
  2
ACAD_DSTYLE_DIMJOGGED_JOGANGLE_SYMBOL
 70
     0
  0
APPID
  5
A75
330
9
100
AcDbSymbolTableRecord
100
AcDbRegAppTableRecord
  2
ACAD_DSTYLE_DIMTEXT_FILL
 70
     0
  0
APPID
  5
A76
330
9
100
AcDbSymbolTableRecord
100
AcDbRegAppTableRecord
  2
ACAD_DSTYLE_DIMEXT_ENABLED
 70
     0
  0
APPID
  5
A77
330
9
100
AcDbSymbolTableRecord
100
AcDbRegAppTableRecord
  2
ACAD_DSTYLE_DIMEXT_LENGTH
 70
     0
  0
APPID
  5
A78
330
9
100
AcDbSymbolTableRecord
100
AcDbRegAppTableRecord
  2
ACAD_DSTYLE_DIM_LINETYPE
 70
     0
  0
APPID
  5
A79
330
9
100
AcDbSymbolTableRecord
100
AcDbRegAppTableRecord
  2
ACAD_DSTYLE_DIM_EXT1_LINETYPE
 70
     0
  0
APPID
  5
A7A
330
9
100
AcDbSymbolTableRecord
100
AcDbRegAppTableRecord
  2
ACAD_DSTYLE_DIM_EXT2_LINETYPE
 70
     0
  0
ENDTAB
  0
TABLE
  2
DIMSTYLE
  5
A
330
0
100
AcDbSymbolTable
 70
     1
100
AcDbDimStyleTable
  0
DIMSTYLE
105
987
102
{ACAD_REACTORS
330
9F1
330
86B
102
}
330
A
100
AcDbSymbolTableRecord
100
AcDbDimStyleTableRecord
  2
STANDARD
 70
     0
178
     0
340
F
  0
ENDTAB
  0
TABLE
  2
BLOCK_RECORD
  5
1
330
0
100
AcDbSymbolTable
 70
   120
  0
BLOCK_RECORD
  5
17
330
1
100
AcDbSymbolTableRecord
100
AcDbBlockTableRecord
  2
*MODEL_SPACE
340
9DC
  0
BLOCK_RECORD
  5
14
330
1
100
AcDbSymbolTableRecord
100
AcDbBlockTableRecord
  2
*PAPER_SPACE
340
9DD
  0
BLOCK_RECORD
  5
1C
330
1
100
AcDbSymbolTableRecord
100
AcDbBlockTableRecord
  2
BORDER
340
0
  0
BLOCK_RECORD
  5
1D
330
1
100
AcDbSymbolTableRecord
100
AcDbBlockTableRecord
  2
SA3-10
340
0
  0
BLOCK_RECORD
  5
1E
330
1
100
AcDbSymbolTableRecord
100
AcDbBlockTableRecord
  2
SA4
340
0
102
{BLKREFS
331
B0
102
}
  0
BLOCK_RECORD
  5
1F
330
1
100
AcDbSymbolTableRecord
100
AcDbBlockTableRecord
  2
*D3
340
0
  0
BLOCK_RECORD
  5
20
330
1
100
AcDbSymbolTableRecord
100
AcDbBlockTableRecord
  2
*D4
340
0
  0
BLOCK_RECORD
  5
21
330
1
100
AcDbSymbolTableRecord
100
AcDbBlockTableRecord
  2
*D5
340
0
  0
BLOCK_RECORD
  5
28
330
1
100
AcDbSymbolTableRecord
100
AcDbBlockTableRecord
  2
*D12
340
0
  0
BLOCK_RECORD
  5
2F
330
1
100
AcDbSymbolTableRecord
100
AcDbBlockTableRecord
  2
*D19
340
0
  0
BLOCK_RECORD
  5
32
330
1
100
AcDbSymbolTableRecord
100
AcDbBlockTableRecord
  2
*D22
340
0
  0
BLOCK_RECORD
  5
33
330
1
100
AcDbSymbolTableRecord
100
AcDbBlockTableRecord
  2
*D23
340
0
  0
BLOCK_RECORD
  5
34
330
1
100
AcDbSymbolTableRecord
100
AcDbBlockTableRecord
  2
*D24
340
0
  0
BLOCK_RECORD
  5
35
330
1
100
AcDbSymbolTableRecord
100
AcDbBlockTableRecord
  2
*D25
340
0
  0
BLOCK_RECORD
  5
42
330
1
100
AcDbSymbolTableRecord
100
AcDbBlockTableRecord
  2
*D38
340
0
  0
BLOCK_RECORD
  5
6E
330
1
100
AcDbSymbolTableRecord
100
AcDbBlockTableRecord
  2
*D82
340
0
  0
BLOCK_RECORD
  5
6F
330
1
100
AcDbSymbolTableRecord
100
AcDbBlockTableRecord
  2
*D83
340
0
  0
BLOCK_RECORD
  5
70
330
1
100
AcDbSymbolTableRecord
100
AcDbBlockTableRecord
  2
*D84
340
0
  0
BLOCK_RECORD
  5
79
330
1
100
AcDbSymbolTableRecord
100
AcDbBlockTableRecord
  2
*D93
340
0
  0
BLOCK_RECORD
  5
7A
330
1
100
AcDbSymbolTableRecord
100
AcDbBlockTableRecord
  2
*D94
340
0
  0
BLOCK_RECORD
  5
7B
330
1
100
AcDbSymbolTableRecord
100
AcDbBlockTableRecord
  2
*D95
340
0
  0
BLOCK_RECORD
  5
7C
330
1
100
AcDbSymbolTableRecord
100
AcDbBlockTableRecord
  2
*D96
340
0
  0
BLOCK_RECORD
  5
83
330
1
100
AcDbSymbolTableRecord
100
AcDbBlockTableRecord
  2
*D103
340
0
  0
BLOCK_RECORD
  5
84
330
1
100
AcDbSymbolTableRecord
100
AcDbBlockTableRecord
  2
*D104
340
0
  0
BLOCK_RECORD
  5
85
330
1
100
AcDbSymbolTableRecord
100
AcDbBlockTableRecord
  2
*D105
340
0
  0
BLOCK_RECORD
  5
86
330
1
100
AcDbSymbolTableRecord
100
AcDbBlockTableRecord
  2
*D106
340
0
  0
BLOCK_RECORD
  5
9F2
330
1
100
AcDbSymbolTableRecord
100
AcDbBlockTableRecord
  2
*D118
340
0
  0
BLOCK_RECORD
  5
9FE
330
1
100
AcDbSymbolTableRecord
100
AcDbBlockTableRecord
  2
*D119
340
0
  0
ENDTAB
  0
ENDSEC
  0
SECTION
  2
BLOCKS
  0
BLOCK
  5
A5
330
17
100
AcDbEntity
  8
0
100
AcDbBlockBegin
  2
*MODEL_SPACE
 70
     0
 10
0.0
 20
0.0
 30
0.0
  3
*MODEL_SPACE
  1

  0
ENDBLK
  5
A6
330
17
100
AcDbEntity
  8
0
100
AcDbBlockEnd
  0
BLOCK
  5
A3
330
14
100
AcDbEntity
 67
     1
  8
0
100
AcDbBlockBegin
  2
*PAPER_SPACE
 70
     0
 10
0.0
 20
0.0
 30
0.0
  3
*PAPER_SPACE
  1

  0
ENDBLK
  5
A4
330
14
100
AcDbEntity
 67
     1
  8
0
100
AcDbBlockEnd
  0
BLOCK
  5
A9
330
1C
100
AcDbEntity
  8
0
100
AcDbBlockBegin
  2
BORDER
 70
     0
 10
0.0
 20
0.0
 30
0.0
  3
BORDER
  1

  0
LINE
  5
AA
330
1C
100
AcDbEntity
  8
0
100
AcDbLine
 10
0.0
 20
0.0
 30
0.0
 11
1.00000000000004
 21
0.0
 31
0.0
  0
LINE
  5
AB
330
1C
100
AcDbEntity
  8
0
100
AcDbLine
 10
1.00000000000004
 20
0.0
 30
0.0
 11
1.00000000000004
 21
1.00000000000004
 31
0.0
  0
LINE
  5
AC
330
1C
100
AcDbEntity
  8
0
100
AcDbLine
 10
1.00000000000004
 20
1.00000000000004
 30
0.0
 11
0.0
 21
1.00000000000004
 31
0.0
  0
LINE
  5
AD
330
1C
100
AcDbEntity
  8
0
100
AcDbLine
 10
0.0
 20
1.00000000000004
 30
0.0
 11
0.0
 21
0.0
 31
0.0
  0
ENDBLK
  5
AE
330
1C
100
AcDbEntity
  8
0
100
AcDbBlockEnd
  0
BLOCK
  5
AF
330
1D
100
AcDbEntity
  8
SUNPOU
100
AcDbBlockBegin
  2
SA3-10
 70
     0
 10
0.0
 20
0.0
 30
0.0
  3
SA3-10
  1

  0
INSERT
  5
B0
330
1D
100
AcDbEntity
  8
HAIKIN
100
AcDbBlockReference
  2
SA4
 10
0.0
 20
0.0
 30
0.0
  0
ENDBLK
  5
B1
330
1D
100
AcDbEntity
  8
SUNPOU
100
AcDbBlockEnd
  0
BLOCK
  5
B2
330
1E
100
AcDbEntity
  8
HAIKIN
100
AcDbBlockBegin
  2
SA4
 70
     0
 10
0.0
 20
0.0
 30
0.0
  3
SA4
  1

  0
TEXT
  5
B3
330
1E
100
AcDbEntity
  8
SUNPOU
100
AcDbText
 10
3400.0
 20
0.0
 30
0.0
 40
25.0
  1
新和コンクリート工業株式会社
  7
NIHONGO
100
AcDbText
  0
TEXT
  5
B6
330
1E
100
AcDbEntity
  8
SUNPOU
100
AcDbText
 10
3614.166666666667
 20
62.5
 30
0.0
 40
25.0
  1
製図
  7
NIHONGO
 72
     4
 11
3640.0
 21
75.0
 31
0.0
100
AcDbText
  0
TEXT
  5
B7
330
1E
100
AcDbEntity
  8
SUNPOU
100
AcDbText
 10
3613.333333333333
 20
112.5
 30
0.0
 40
25.0
  1
設計
  7
NIHONGO
 72
     4
 11
3640.0
 21
125.0
 31
0.0
100
AcDbText
  0
TEXT
  5
B8
330
1E
100
AcDbEntity
  8
SUNPOU
100
AcDbText
 10
3390.833333333333
 20
62.50000000000014
 30
0.0
 40
25.0
  1
認
  7
NIHONGO
 72
     4
 11
3402.5
 21
75.00000000000014
 31
0.0
100
AcDbText
  0
TEXT
  5
B9
330
1E
100
AcDbEntity
  8
SUNPOU
100
AcDbText
 10
3390.833333333333
 20
113.3333333333337
 30
0.0
 40
25.0
  1
承
  7
NIHONGO
 72
     4
 11
3402.5
 21
125.0000000000003
 31
0.0
100
AcDbText
  0
TEXT
  5
BA
330
1E
100
AcDbEntity
  8
SUNPOU
100
AcDbText
 10
3127.5
 20
117.5000000000001
 30
0.0
 40
25.0
  1
図　面　番　号
  7
NIHONGO
 72
     4
 11
3230.0
 21
130.0000000000001
 31
0.0
100
AcDbText
  0
TEXT
  5
BB
330
1E
100
AcDbEntity
  8
SUNPOU
100
AcDbText
 10
3620.0
 20
170.0
 30
0.0
 40
25.0
  1
１／
  7
NIHONGO
100
AcDbText
  0
TEXT
  5
BC
330
1E
100
AcDbEntity
  8
SUNPOU
100
AcDbText
 10
3473.333333333333
 20
162.5000000000001
 30
0.0
 40
25.0
  1
縮　　尺
  7
NIHONGO
 72
     4
 11
3530.0
 21
175.0000000000001
 31
0.0
100
AcDbText
  0
TEXT
  5
BD
330
1E
100
AcDbEntity
  8
SUNPOU
100
AcDbText
 10
3473.333333333333
 20
212.5
 30
0.0
 40
25.0
  1
鉄 筋 量
  7
NIHONGO
 72
     4
 11
3530.0
 21
225.0
 31
0.0
100
AcDbText
  0
TEXT
  5
BE
330
1E
100
AcDbEntity
  8
SUNPOU
100
AcDbText
 10
3473.333333333333
 20
262.5
 30
0.0
 40
25.0
  1
製 造 数
  7
NIHONGO
 72
     4
 11
3530.0
 21
275.0
 31
0.0
100
AcDbText
  0
TEXT
  5
BF
330
1E
100
AcDbEntity
  8
SUNPOU
100
AcDbText
 10
3770.0
 20
210.0
 30
0.0
 40
25.0
  1
ｋｇ
  7
NIHONGO
 72
     2
 11
3820.0
 21
210.0
 31
0.0
100
AcDbText
  0
TEXT
  5
C0
330
1E
100
AcDbEntity
  8
SUNPOU
100
AcDbText
 10
3395.0
 20
210.0
 30
0.0
 40
25.0
  1
ｋｇ
  7
NIHONGO
 72
     2
 11
3445.0
 21
210.0
 31
0.0
100
AcDbText
  0
TEXT
  5
C1
330
1E
100
AcDbEntity
  8
SUNPOU
100
AcDbText
 10
3100.0
 20
162.5000000000001
 30
0.0
 40
25.0
  1
年 月 日
  7
NIHONGO
 72
     4
 11
3155.0
 21
175.0000000000001
 31
0.0
100
AcDbText
  0
TEXT
  5
C2
330
1E
100
AcDbEntity
  8
SUNPOU
100
AcDbText
 10
3098.333333333333
 20
212.5
 30
0.0
 40
25.0
  1
製品質量
  7
NIHONGO
 72
     4
 11
3155.0
 21
225.0
 31
0.0
100
AcDbText
  0
TEXT
  5
C3
330
1E
100
AcDbEntity
  8
SUNPOU
100
AcDbText
 10
3099.166666666667
 20
262.5
 30
0.0
 40
25.0
  1
業 者 名
  7
NIHONGO
 72
     4
 11
3155.0
 21
275.0
 31
0.0
100
AcDbText
  0
TEXT
  5
C4
330
1E
100
AcDbEntity
  8
SUNPOU
100
AcDbText
 10
3098.333333333333
 20
325.0
 30
0.0
 40
25.0
  1
名　　称
  7
NIHONGO
 72
     4
 11
3155.0
 21
337.5
 31
0.0
100
AcDbText
  0
LINE
  5
C5
330
1E
100
AcDbEntity
  8
SUNPOU
100
AcDbLine
 10
3380.0
 20
110.0000000000001
 30
0.0
 11
3080.0
 21
110.0000000000001
 31
0.0
  0
LINE
  5
C6
330
1E
100
AcDbEntity
  8
SUNPOU
100
AcDbLine
 10
3675.0
 20
49.99999999999986
 30
0.0
 11
3675.0
 21
149.9999999999999
 31
0.0
  0
LINE
  5
C7
330
1E
100
AcDbEntity
  8
SUNPOU
100
AcDbLine
 10
3605.0
 20
49.99999999999986
 30
0.0
 11
3605.0
 21
149.9999999999999
 31
0.0
  0
LINE
  5
C8
330
1E
100
AcDbEntity
  8
SUNPOU
100
AcDbLine
 10
3425.0
 20
49.99999999999994
 30
0.0
 11
3425.0
 21
150.0
 31
0.0
  0
LINE
  5
C9
330
1E
100
AcDbEntity
  8
SUNPOU
100
AcDbLine
 10
3380.0
 20
49.99999999999994
 30
0.0
 11
3380.0
 21
150.0
 31
0.0
  0
LINE
  5
CA
330
1E
100
AcDbEntity
  8
SUNPOU
100
AcDbLine
 10
3230.0
 20
150.0000000000001
 30
0.0
 11
3230.0
 21
375.0
 31
0.0
  0
LINE
  5
CB
330
1E
100
AcDbEntity
  8
SUNPOU
100
AcDbLine
 10
3605.0
 20
150.0000000000001
 30
0.0
 11
3605.0
 21
300.0
 31
0.0
  0
LINE
  5
CC
330
1E
100
AcDbEntity
  8
SUNPOU
100
AcDbLine
 10
3455.0
 20
150.0000000000001
 30
0.0
 11
3455.0
 21
300.0
 31
0.0
  0
LINE
  5
CD
330
1E
100
AcDbEntity
  8
SUNPOU
100
AcDbLine
 10
3830.0
 20
300.0
 30
0.0
 11
3080.0
 21
300.0
 31
0.0
  0
LINE
  5
CE
330
1E
100
AcDbEntity
  8
SUNPOU
100
AcDbLine
 10
3830.0
 20
250.0
 30
0.0
 11
3080.0
 21
250.0
 31
0.0
  0
LINE
  5
CF
330
1E
100
AcDbEntity
  8
SUNPOU
100
AcDbLine
 10
3830.0
 20
200.0
 30
0.0
 11
3080.0
 21
200.0
 31
0.0
  0
LINE
  5
D0
330
1E
100
AcDbEntity
  8
SUNPOU
100
AcDbLine
 10
3830.0
 20
149.9999999999999
 30
0.0
 11
3080.0
 21
150.0000000000004
 31
0.0
  0
LINE
  5
D1
330
1E
100
AcDbEntity
  8
HAIKIN
100
AcDbLine
 10
3080.0
 20
375.0
 30
0.0
 11
3830.0
 21
375.0
 31
0.0
  0
LINE
  5
D2
330
1E
100
AcDbEntity
  8
HAIKIN
100
AcDbLine
 10
3080.0
 20
50.00000000000009
 30
0.0
 11
3080.0
 21
375.0
 31
0.0
  0
LINE
  5
D3
330
1E
100
AcDbEntity
  8
SUNPOU
100
AcDbLine
 10
0.0000000000001599
 20
2770.0
 30
0.0
 11
0.0000000000001599
 21
2720.0
 31
0.0
  0
LINE
  5
D4
330
1E
100
AcDbEntity
  8
SUNPOU
100
AcDbLine
 10
250.0000000000001
 20
2770.0
 30
0.0
 11
0.0000000000001599
 21
2770.0
 31
0.0
  0
LINE
  5
D5
330
1E
100
AcDbEntity
  8
SUNPOU
100
AcDbLine
 10
250.0000000000001
 20
2720.0
 30
0.0
 11
250.0000000000001
 21
2770.0
 31
0.0
  0
LINE
  5
D6
330
1E
100
AcDbEntity
  8
HAIKIN
100
AcDbLine
 10
0.0000000000000037
 20
50.0
 30
0.0
 11
3830.0
 21
50.0
 31
0.0
  0
LINE
  5
D7
330
1E
100
AcDbEntity
  8
HAIKIN
100
AcDbLine
 10
0.0000000000001584
 20
2720.0
 30
0.0
 11
3830.0
 21
2720.0
 31
0.0
  0
LINE
  5
D8
330
1E
100
AcDbEntity
  8
HAIKIN
100
AcDbLine
 10
3830.0
 20
2720.0
 30
0.0
 11
3830.0
 21
50.0
 31
0.0
  0
TEXT
  5
D9
330
1E
100
AcDbEntity
  8
SUNPOU
100
AcDbText
 10
37.00000000000016
 20
2730.0
 30
0.0
 40
30.0
  1
Ｈ－２－共
  7
NIHONGO
 72
     4
 11
125.0000000000002
 21
2745.0
 31
0.0
100
AcDbText
  0
LINE
  5
DA
330
1E
100
AcDbEntity
  8
HAIKIN
100
AcDbLine
 10
0.0000000000000037
 20
50.0
 30
0.0
 11
0.0000000000001584
 21
2720.0
 31
0.0
  0
ENDBLK
  5
DB
330
1E
100
AcDbEntity
  8
HAIKIN
100
AcDbBlockEnd
  0
BLOCK
  5
DC
330
1F
100
AcDbEntity
  8
SUNPOU
100
AcDbBlockBegin
  2
*D3
 70
     1
 10
0.0
 20
0.0
 30
0.0
  3
*D3
  1

  0
LINE
  5
DD
330
1F
100
AcDbEntity
  8
0
  6
ByBlock
 62
     0
440
 16777216
100
AcDbLine
 10
4087.96097767145
 20
3706.848205068553
 30
0.0
 11
4918.032434938416
 21
3706.848205068553
 31
0.0
  0
LINE
  5
DE
330
1F
100
AcDbEntity
  8
0
  6
ByBlock
 62
     0
440
 16777216
100
AcDbLine
 10
4087.96097767145
 20
2706.848205068553
 30
0.0
 11
4918.032434938416
 21
2706.848205068553
 31
0.0
  0
LINE
  5
DF
330
1F
100
AcDbEntity
  8
0
  6
ByBlock
 62
     0
440
 16777216
100
AcDbLine
 10
4898.032434938416
 20
3666.848205068553
 30
0.0
 11
4898.032434938416
 21
2746.848205068553
 31
0.0
  0
SOLID
  5
E0
330
1F
100
AcDbEntity
  8
0
  6
ByBlock
 62
     0
440
 16777216
100
AcDbTrace
 10
4904.699101605083
 20
3666.848205068553
 30
0.0
 11
4891.365768271749
 21
3666.848205068553
 31
0.0
 12
4898.032434938416
 22
3706.848205068553
 32
0.0
 13
4898.032434938416
 23
3706.848205068553
 33
0.0
  0
SOLID
  5
E1
330
1F
100
AcDbEntity
  8
0
  6
ByBlock
 62
     0
440
 16777216
100
AcDbTrace
 10
4904.699101605083
 20
2746.848205068553
 30
0.0
 11
4891.365768271749
 21
2746.848205068553
 31
0.0
 12
4898.032434938416
 22
2706.848205068553
 32
0.0
 13
4898.032434938416
 23
2706.848205068553
 33
0.0
  0
TEXT
  5
E2
330
1F
100
AcDbEntity
  8
0
  6
ByBlock
 62
     0
440
 16777216
100
AcDbText
 10
4868.032434938416
 20
3121.848205068553
 30
0.0
 40
60.0
  1
1000
 50
90.0
  7
A
100
AcDbText
  0
POINT
  5
E3
330
1F
100
AcDbEntity
  8
DEFPOINTS
  6
ByBlock
 62
     0
440
 16777216
100
AcDbPoint
 10
4047.96097767145
 20
3706.848205068553
 30
0.0
  0
POINT
  5
E4
330
1F
100
AcDbEntity
  8
DEFPOINTS
  6
ByBlock
 62
     0
440
 16777216
100
AcDbPoint
 10
4047.96097767145
 20
2706.848205068553
 30
0.0
  0
POINT
  5
E5
330
1F
100
AcDbEntity
  8
DEFPOINTS
  6
ByBlock
 62
     0
440
 16777216
100
AcDbPoint
 10
4898.032434938416
 20
2706.848205068553
 30
0.0
  0
ENDBLK
  5
E6
330
1F
100
AcDbEntity
  8
SUNPOU
100
AcDbBlockEnd
  0
BLOCK
  5
E7
330
20
100
AcDbEntity
  8
SUNPOU
100
AcDbBlockBegin
  2
*D4
 70
     1
 10
0.0
 20
0.0
 30
0.0
  3
*D4
  1

  0
LINE
  5
E8
330
20
100
AcDbEntity
  8
0
  6
ByBlock
 62
     0
440
 16777216
100
AcDbLine
 10
4087.96097767145
 20
2706.848205068553
 30
0.0
 11
4700.88079932299
 21
2706.848205068553
 31
0.0
  0
LINE
  5
E9
330
20
100
AcDbEntity
  8
0
  6
ByBlock
 62
     0
440
 16777216
100
AcDbLine
 10
4087.96097767145
 20
2926.848205068553
 30
0.0
 11
4700.88079932299
 21
2926.848205068553
 31
0.0
  0
LINE
  5
EA
330
20
100
AcDbEntity
  8
0
  6
ByBlock
 62
     0
440
 16777216
100
AcDbLine
 10
4680.88079932299
 20
2746.848205068553
 30
0.0
 11
4680.88079932299
 21
2886.848205068553
 31
0.0
  0
SOLID
  5
EB
330
20
100
AcDbEntity
  8
0
  6
ByBlock
 62
     0
440
 16777216
100
AcDbTrace
 10
4687.547465989657
 20
2746.848205068553
 30
0.0
 11
4674.214132656323
 21
2746.848205068553
 31
0.0
 12
4680.88079932299
 22
2706.848205068553
 32
0.0
 13
4680.88079932299
 23
2706.848205068553
 33
0.0
  0
SOLID
  5
EC
330
20
100
AcDbEntity
  8
0
  6
ByBlock
 62
     0
440
 16777216
100
AcDbTrace
 10
4687.547465989657
 20
2886.848205068553
 30
0.0
 11
4674.214132656323
 21
2886.848205068553
 31
0.0
 12
4680.88079932299
 22
2926.848205068553
 32
0.0
 13
4680.88079932299
 23
2926.848205068553
 33
0.0
  0
TEXT
  5
ED
330
20
100
AcDbEntity
  8
0
  6
ByBlock
 62
     0
440
 16777216
100
AcDbText
 10
4650.88079932299
 20
2741.848205068553
 30
0.0
 40
60.0
  1
220
 50
90.0
  7
A
100
AcDbText
  0
POINT
  5
EE
330
20
100
AcDbEntity
  8
DEFPOINTS
  6
ByBlock
 62
     0
440
 16777216
100
AcDbPoint
 10
4047.96097767145
 20
2706.848205068553
 30
0.0
  0
POINT
  5
EF
330
20
100
AcDbEntity
  8
DEFPOINTS
  6
ByBlock
 62
     0
440
 16777216
100
AcDbPoint
 10
4047.96097767145
 20
2926.848205068553
 30
0.0
  0
POINT
  5
F0
330
20
100
AcDbEntity
  8
DEFPOINTS
  6
ByBlock
 62
     0
440
 16777216
100
AcDbPoint
 10
4680.88079932299
 20
2926.848205068553
 30
0.0
  0
ENDBLK
  5
F1
330
20
100
AcDbEntity
  8
SUNPOU
100
AcDbBlockEnd
  0
BLOCK
  5
F2
330
21
100
AcDbEntity
  8
SUNPOU
100
AcDbBlockBegin
  2
*D5
 70
     1
 10
0.0
 20
0.0
 30
0.0
  3
*D5
  1

  0
LINE
  5
F3
330
21
100
AcDbEntity
  8
0
  6
ByBlock
 62
     0
440
 16777216
100
AcDbLine
 10
4562.952337057226
 20
2926.848205068553
 30
0.0
 11
4700.88079932299
 21
2926.848205068553
 31
0.0
  0
LINE
  5
F4
330
21
100
AcDbEntity
  8
0
  6
ByBlock
 62
     0
440
 16777216
100
AcDbLine
 10
4656.722361527523
 20
3706.848205068553
 30
0.0
 11
4700.88079932299
 21
3706.848205068553
 31
0.0
  0
LINE
  5
F5
330
21
100
AcDbEntity
  8
0
  6
ByBlock
 62
     0
440
 16777216
100
AcDbLine
 10
4680.88079932299
 20
2966.848205068553
 30
0.0
 11
4680.88079932299
 21
3666.848205068553
 31
0.0
  0
SOLID
  5
F6
330
21
100
AcDbEntity
  8
0
  6
ByBlock
 62
     0
440
 16777216
100
AcDbTrace
 10
4687.547465989657
 20
2966.848205068553
 30
0.0
 11
4674.214132656323
 21
2966.848205068553
 31
0.0
 12
4680.88079932299
 22
2926.848205068553
 32
0.0
 13
4680.88079932299
 23
2926.848205068553
 33
0.0
  0
SOLID
  5
F7
330
21
100
AcDbEntity
  8
0
  6
ByBlock
 62
     0
440
 16777216
100
AcDbTrace
 10
4687.547465989657
 20
3666.848205068553
 30
0.0
 11
4674.214132656323
 21
3666.848205068553
 31
0.0
 12
4680.88079932299
 22
3706.848205068553
 32
0.0
 13
4680.88079932299
 23
3706.848205068553
 33
0.0
  0
TEXT
  5
F8
330
21
100
AcDbEntity
  8
0
  6
ByBlock
 62
     0
440
 16777216
100
AcDbText
 10
4650.88079932299
 20
3241.848205068553
 30
0.0
 40
60.0
  1
780
 50
90.0
  7
A
100
AcDbText
  0
POINT
  5
F9
330
21
100
AcDbEntity
  8
DEFPOINTS
  6
ByBlock
 62
     0
440
 16777216
100
AcDbPoint
 10
4522.952337057226
 20
2926.848205068553
 30
0.0
  0
POINT
  5
FA
330
21
100
AcDbEntity
  8
DEFPOINTS
  6
ByBlock
 62
     0
440
 16777216
100
AcDbPoint
 10
4616.722361527523
 20
3706.848205068553
 30
0.0
  0
POINT
  5
FB
330
21
100
AcDbEntity
  8
DEFPOINTS
  6
ByBlock
 62
     0
440
 16777216
100
AcDbPoint
 10
4680.88079932299
 20
3706.848205068553
 30
0.0
  0
ENDBLK
  5
FC
330
21
100
AcDbEntity
  8
SUNPOU
100
AcDbBlockEnd
  0
BLOCK
  5
140
330
28
100
AcDbEntity
  8
SUNPOU
100
AcDbBlockBegin
  2
*D12
 70
     1
 10
0.0
 20
0.0
 30
0.0
  3
*D12
  1

  0
LINE
  5
141
330
28
100
AcDbEntity
  8
0
  6
ByBlock
 62
     0
440
 16777216
100
AcDbLine
 10
4047.96097767145
 20
2666.848205068553
 30
0.0
 11
4047.96097767145
 21
2080.036175343184
 31
0.0
  0
LINE
  5
142
330
28
100
AcDbEntity
  8
0
  6
ByBlock
 62
     0
440
 16777216
100
AcDbLine
 10
3827.96097767145
 20
2666.848205068553
 30
0.0
 11
3827.96097767145
 21
2080.036175343184
 31
0.0
  0
LINE
  5
143
330
28
100
AcDbEntity
  8
0
  6
ByBlock
 62
     0
440
 16777216
100
AcDbLine
 10
4007.96097767145
 20
2100.036175343184
 30
0.0
 11
3937.96097767145
 21
2100.036175343184
 31
0.0
  0
LINE
  5
144
330
28
100
AcDbEntity
  8
0
  6
ByBlock
 62
     0
440
 16777216
100
AcDbLine
 10
3867.96097767145
 20
2100.036175343184
 30
0.0
 11
3937.96097767145
 21
2100.036175343184
 31
0.0
  0
SOLID
  5
145
330
28
100
AcDbEntity
  8
0
  6
ByBlock
 62
     0
440
 16777216
100
AcDbTrace
 10
4007.96097767145
 20
2093.369508676518
 30
0.0
 11
4007.96097767145
 21
2106.702842009851
 31
0.0
 12
4047.96097767145
 22
2100.036175343184
 32
0.0
 13
4047.96097767145
 23
2100.036175343184
 33
0.0
  0
SOLID
  5
146
330
28
100
AcDbEntity
  8
0
  6
ByBlock
 62
     0
440
 16777216
100
AcDbTrace
 10
3867.96097767145
 20
2093.369508676518
 30
0.0
 11
3867.96097767145
 21
2106.702842009851
 31
0.0
 12
3827.96097767145
 22
2100.036175343184
 32
0.0
 13
3827.96097767145
 23
2100.036175343184
 33
0.0
  0
TEXT
  5
147
330
28
100
AcDbEntity
  8
0
  6
ByBlock
 62
     0
440
 16777216
100
AcDbText
 10
3862.96097767145
 20
2130.036175343184
 30
0.0
 40
60.0
  1
220
  7
A
100
AcDbText
  0
POINT
  5
148
330
28
100
AcDbEntity
  8
DEFPOINTS
  6
ByBlock
 62
     0
440
 16777216
100
AcDbPoint
 10
4047.96097767145
 20
2706.848205068553
 30
0.0
  0
POINT
  5
149
330
28
100
AcDbEntity
  8
DEFPOINTS
  6
ByBlock
 62
     0
440
 16777216
100
AcDbPoint
 10
3827.96097767145
 20
2706.848205068553
 30
0.0
  0
POINT
  5
14A
330
28
100
AcDbEntity
  8
DEFPOINTS
  6
ByBlock
 62
     0
440
 16777216
100
AcDbPoint
 10
3827.96097767145
 20
2100.036175343184
 30
0.0
  0
ENDBLK
  5
14B
330
28
100
AcDbEntity
  8
SUNPOU
100
AcDbBlockEnd
  0
BLOCK
  5
196
330
2F
100
AcDbEntity
  8
SUNPOU
100
AcDbBlockBegin
  2
*D19
 70
     1
 10
0.0
 20
0.0
 30
0.0
  3
*D19
  1

  0
LINE
  5
197
330
2F
100
AcDbEntity
  8
0
  6
ByBlock
 62
     0
440
 16777216
100
AcDbLine
 10
6743.69597814597
 20
2313.717421114918
 30
0.0
 11
6743.69597814597
 21
2170.999225646146
 31
0.0
  0
LINE
  5
198
330
2F
100
AcDbEntity
  8
0
  6
ByBlock
 62
     0
440
 16777216
100
AcDbLine
 10
6943.69597814597
 20
2275.749842172205
 30
0.0
 11
6943.69597814597
 21
2170.999225646146
 31
0.0
  0
LINE
  5
199
330
2F
100
AcDbEntity
  8
0
  6
ByBlock
 62
     0
440
 16777216
100
AcDbLine
 10
6783.69597814597
 20
2190.999225646146
 30
0.0
 11
6903.69597814597
 21
2190.999225646146
 31
0.0
  0
SOLID
  5
19A
330
2F
100
AcDbEntity
  8
0
  6
ByBlock
 62
     0
440
 16777216
100
AcDbTrace
 10
6783.69597814597
 20
2184.33255897948
 30
0.0
 11
6783.69597814597
 21
2197.665892312813
 31
0.0
 12
6743.69597814597
 22
2190.999225646146
 32
0.0
 13
6743.69597814597
 23
2190.999225646146
 33
0.0
  0
SOLID
  5
19B
330
2F
100
AcDbEntity
  8
0
  6
ByBlock
 62
     0
440
 16777216
100
AcDbTrace
 10
6903.69597814597
 20
2184.33255897948
 30
0.0
 11
6903.69597814597
 21
2197.665892312813
 31
0.0
 12
6943.69597814597
 22
2190.999225646146
 32
0.0
 13
6943.69597814597
 23
2190.999225646146
 33
0.0
  0
TEXT
  5
19C
330
2F
100
AcDbEntity
  8
0
  6
ByBlock
 62
     0
440
 16777216
100
AcDbText
 10
6773.69597814597
 20
2220.999225646146
 30
0.0
 40
60.0
  1
200
  7
A
100
AcDbText
  0
POINT
  5
19D
330
2F
100
AcDbEntity
  8
DEFPOINTS
  6
ByBlock
 62
     0
440
 16777216
100
AcDbPoint
 10
6743.69597814597
 20
2353.717421114918
 30
0.0
  0
POINT
  5
19E
330
2F
100
AcDbEntity
  8
DEFPOINTS
  6
ByBlock
 62
     0
440
 16777216
100
AcDbPoint
 10
6943.69597814597
 20
2315.749842172205
 30
0.0
  0
POINT
  5
19F
330
2F
100
AcDbEntity
  8
DEFPOINTS
  6
ByBlock
 62
     0
440
 16777216
100
AcDbPoint
 10
6943.69597814597
 20
2190.999225646146
 30
0.0
  0
ENDBLK
  5
1A0
330
2F
100
AcDbEntity
  8
SUNPOU
100
AcDbBlockEnd
  0
BLOCK
  5
1B9
330
32
100
AcDbEntity
  8
SUNPOU
100
AcDbBlockBegin
  2
*D22
 70
     1
 10
0.0
 20
0.0
 30
0.0
  3
*D22
  1

  0
LINE
  5
1BA
330
32
100
AcDbEntity
  8
0
  6
ByBlock
 62
     0
440
 16777216
100
AcDbLine
 10
7243.69597814597
 20
2666.848205068554
 30
0.0
 11
7243.69597814597
 21
1884.617055471984
 31
0.0
  0
LINE
  5
1BB
330
32
100
AcDbEntity
  8
0
  6
ByBlock
 62
     0
440
 16777216
100
AcDbLine
 10
9243.69597814597
 20
2666.848205068554
 30
0.0
 11
9243.69597814597
 21
1884.617055471984
 31
0.0
  0
LINE
  5
1BC
330
32
100
AcDbEntity
  8
0
  6
ByBlock
 62
     0
440
 16777216
100
AcDbLine
 10
7283.69597814597
 20
1904.617055471984
 30
0.0
 11
8243.69597814597
 21
1904.617055471984
 31
0.0
  0
LINE
  5
1BD
330
32
100
AcDbEntity
  8
0
  6
ByBlock
 62
     0
440
 16777216
100
AcDbLine
 10
9203.69597814597
 20
1904.617055471984
 30
0.0
 11
8243.69597814597
 21
1904.617055471984
 31
0.0
  0
SOLID
  5
1BE
330
32
100
AcDbEntity
  8
0
  6
ByBlock
 62
     0
440
 16777216
100
AcDbTrace
 10
7283.69597814597
 20
1897.950388805318
 30
0.0
 11
7283.69597814597
 21
1911.283722138651
 31
0.0
 12
7243.69597814597
 22
1904.617055471984
 32
0.0
 13
7243.69597814597
 23
1904.617055471984
 33
0.0
  0
SOLID
  5
1BF
330
32
100
AcDbEntity
  8
0
  6
ByBlock
 62
     0
440
 16777216
100
AcDbTrace
 10
9203.69597814597
 20
1897.950388805318
 30
0.0
 11
9203.69597814597
 21
1911.283722138651
 31
0.0
 12
9243.69597814597
 22
1904.617055471984
 32
0.0
 13
9243.69597814597
 23
1904.617055471984
 33
0.0
  0
TEXT
  5
1C0
330
32
100
AcDbEntity
  8
0
  6
ByBlock
 62
     0
440
 16777216
100
AcDbText
 10
8148.69597814597
 20
1934.617055471984
 30
0.0
 40
60.0
  1
2000
  7
A
100
AcDbText
  0
POINT
  5
1C1
330
32
100
AcDbEntity
  8
DEFPOINTS
  6
ByBlock
 62
     0
440
 16777216
100
AcDbPoint
 10
7243.69597814597
 20
2706.848205068554
 30
0.0
  0
POINT
  5
1C2
330
32
100
AcDbEntity
  8
DEFPOINTS
  6
ByBlock
 62
     0
440
 16777216
100
AcDbPoint
 10
9243.69597814597
 20
2706.848205068554
 30
0.0
  0
POINT
  5
1C3
330
32
100
AcDbEntity
  8
DEFPOINTS
  6
ByBlock
 62
     0
440
 16777216
100
AcDbPoint
 10
9243.69597814597
 20
1904.617055471984
 30
0.0
  0
ENDBLK
  5
1C4
330
32
100
AcDbEntity
  8
SUNPOU
100
AcDbBlockEnd
  0
BLOCK
  5
1C5
330
33
100
AcDbEntity
  8
SUNPOU
100
AcDbBlockBegin
  2
*D23
 70
     1
 10
0.0
 20
0.0
 30
0.0
  3
*D23
  1

  0
LINE
  5
1C6
330
33
100
AcDbEntity
  8
0
  6
ByBlock
 62
     0
440
 16777216
100
AcDbLine
 10
6243.69597814597
 20
2691.848205068554
 30
0.0
 11
6243.69597814597
 21
1884.617055471984
 31
0.0
  0
LINE
  5
1C7
330
33
100
AcDbEntity
  8
0
  6
ByBlock
 62
     0
440
 16777216
100
AcDbLine
 10
7243.69597814597
 20
2666.848205068554
 30
0.0
 11
7243.69597814597
 21
1884.617055471984
 31
0.0
  0
LINE
  5
1C8
330
33
100
AcDbEntity
  8
0
  6
ByBlock
 62
     0
440
 16777216
100
AcDbLine
 10
6283.69597814597
 20
1904.617055471984
 30
0.0
 11
6743.69597814597
 21
1904.617055471984
 31
0.0
  0
LINE
  5
1C9
330
33
100
AcDbEntity
  8
0
  6
ByBlock
 62
     0
440
 16777216
100
AcDbLine
 10
7203.69597814597
 20
1904.617055471984
 30
0.0
 11
6743.69597814597
 21
1904.617055471984
 31
0.0
  0
SOLID
  5
1CA
330
33
100
AcDbEntity
  8
0
  6
ByBlock
 62
     0
440
 16777216
100
AcDbTrace
 10
6283.69597814597
 20
1897.950388805318
 30
0.0
 11
6283.69597814597
 21
1911.283722138651
 31
0.0
 12
6243.69597814597
 22
1904.617055471984
 32
0.0
 13
6243.69597814597
 23
1904.617055471984
 33
0.0
  0
SOLID
  5
1CB
330
33
100
AcDbEntity
  8
0
  6
ByBlock
 62
     0
440
 16777216
100
AcDbTrace
 10
7203.69597814597
 20
1897.950388805318
 30
0.0
 11
7203.69597814597
 21
1911.283722138651
 31
0.0
 12
7243.69597814597
 22
1904.617055471984
 32
0.0
 13
7243.69597814597
 23
1904.617055471984
 33
0.0
  0
TEXT
  5
1CC
330
33
100
AcDbEntity
  8
0
  6
ByBlock
 62
     0
440
 16777216
100
AcDbText
 10
6658.69597814597
 20
1934.617055471984
 30
0.0
 40
60.0
  1
1000
  7
A
100
AcDbText
  0
POINT
  5
1CD
330
33
100
AcDbEntity
  8
DEFPOINTS
  6
ByBlock
 62
     0
440
 16777216
100
AcDbPoint
 10
6243.69597814597
 20
2731.848205068554
 30
0.0
  0
POINT
  5
1CE
330
33
100
AcDbEntity
  8
DEFPOINTS
  6
ByBlock
 62
     0
440
 16777216
100
AcDbPoint
 10
7243.69597814597
 20
2706.848205068554
 30
0.0
  0
POINT
  5
1CF
330
33
100
AcDbEntity
  8
DEFPOINTS
  6
ByBlock
 62
     0
440
 16777216
100
AcDbPoint
 10
7243.69597814597
 20
1904.617055471984
 30
0.0
  0
ENDBLK
  5
1D0
330
33
100
AcDbEntity
  8
SUNPOU
100
AcDbBlockEnd
  0
BLOCK
  5
1D1
330
34
100
AcDbEntity
  8
SUNPOU
100
AcDbBlockBegin
  2
*D24
 70
     1
 10
0.0
 20
0.0
 30
0.0
  3
*D24
  1

  0
LINE
  5
1D2
330
34
100
AcDbEntity
  8
0
  6
ByBlock
 62
     0
440
 16777216
100
AcDbLine
 10
6228.69597814597
 20
2706.848205068553
 30
0.0
 11
5235.966578387869
 21
2706.848205068553
 31
0.0
  0
LINE
  5
1D3
330
34
100
AcDbEntity
  8
0
  6
ByBlock
 62
     0
440
 16777216
100
AcDbLine
 10
6203.695978145973
 20
3706.848205068554
 30
0.0
 11
5235.966578387869
 21
3706.848205068554
 31
0.0
  0
LINE
  5
1D4
330
34
100
AcDbEntity
  8
0
  6
ByBlock
 62
     0
440
 16777216
100
AcDbLine
 10
5255.966578387869
 20
2746.848205068553
 30
0.0
 11
5255.966578387869
 21
3666.848205068554
 31
0.0
  0
SOLID
  5
1D5
330
34
100
AcDbEntity
  8
0
  6
ByBlock
 62
     0
440
 16777216
100
AcDbTrace
 10
5262.633245054536
 20
2746.848205068553
 30
0.0
 11
5249.299911721202
 21
2746.848205068553
 31
0.0
 12
5255.966578387869
 22
2706.848205068553
 32
0.0
 13
5255.966578387869
 23
2706.848205068553
 33
0.0
  0
SOLID
  5
1D6
330
34
100
AcDbEntity
  8
0
  6
ByBlock
 62
     0
440
 16777216
100
AcDbTrace
 10
5262.633245054536
 20
3666.848205068554
 30
0.0
 11
5249.299911721202
 21
3666.848205068554
 31
0.0
 12
5255.966578387869
 22
3706.848205068554
 32
0.0
 13
5255.966578387869
 23
3706.848205068554
 33
0.0
  0
TEXT
  5
1D7
330
34
100
AcDbEntity
  8
0
  6
ByBlock
 62
     0
440
 16777216
100
AcDbText
 10
5225.966578387869
 20
3121.848205068553
 30
0.0
 40
60.0
  1
1000
 50
90.0
  7
A
100
AcDbText
  0
POINT
  5
1D8
330
34
100
AcDbEntity
  8
DEFPOINTS
  6
ByBlock
 62
     0
440
 16777216
100
AcDbPoint
 10
6268.69597814597
 20
2706.848205068553
 30
0.0
  0
POINT
  5
1D9
330
34
100
AcDbEntity
  8
DEFPOINTS
  6
ByBlock
 62
     0
440
 16777216
100
AcDbPoint
 10
6243.695978145973
 20
3706.848205068554
 30
0.0
  0
POINT
  5
1DA
330
34
100
AcDbEntity
  8
DEFPOINTS
  6
ByBlock
 62
     0
440
 16777216
100
AcDbPoint
 10
5255.966578387869
 20
3706.848205068554
 30
0.0
  0
ENDBLK
  5
1DB
330
34
100
AcDbEntity
  8
SUNPOU
100
AcDbBlockEnd
  0
BLOCK
  5
1DC
330
35
100
AcDbEntity
  8
SUNPOU
100
AcDbBlockBegin
  2
*D25
 70
     1
 10
0.0
 20
0.0
 30
0.0
  3
*D25
  1

  0
LINE
  5
1DD
330
35
100
AcDbEntity
  8
0
  6
ByBlock
 62
     0
440
 16777216
100
AcDbLine
 10
6203.695978145973
 20
3706.848205068554
 30
0.0
 11
5235.966578387869
 21
3706.848205068554
 31
0.0
  0
LINE
  5
1DE
330
35
100
AcDbEntity
  8
0
  6
ByBlock
 62
     0
440
 16777216
100
AcDbLine
 10
6203.695978145973
 20
5706.848205068554
 30
0.0
 11
5235.966578387869
 21
5706.848205068554
 31
0.0
  0
LINE
  5
1DF
330
35
100
AcDbEntity
  8
0
  6
ByBlock
 62
     0
440
 16777216
100
AcDbLine
 10
5255.966578387869
 20
3746.848205068554
 30
0.0
 11
5255.966578387869
 21
5666.848205068554
 31
0.0
  0
SOLID
  5
1E0
330
35
100
AcDbEntity
  8
0
  6
ByBlock
 62
     0
440
 16777216
100
AcDbTrace
 10
5262.633245054536
 20
3746.848205068554
 30
0.0
 11
5249.299911721202
 21
3746.848205068554
 31
0.0
 12
5255.966578387869
 22
3706.848205068554
 32
0.0
 13
5255.966578387869
 23
3706.848205068554
 33
0.0
  0
SOLID
  5
1E1
330
35
100
AcDbEntity
  8
0
  6
ByBlock
 62
     0
440
 16777216
100
AcDbTrace
 10
5262.633245054536
 20
5666.848205068554
 30
0.0
 11
5249.299911721202
 21
5666.848205068554
 31
0.0
 12
5255.966578387869
 22
5706.848205068554
 32
0.0
 13
5255.966578387869
 23
5706.848205068554
 33
0.0
  0
TEXT
  5
1E2
330
35
100
AcDbEntity
  8
0
  6
ByBlock
 62
     0
440
 16777216
100
AcDbText
 10
5225.966578387869
 20
4611.848205068554
 30
0.0
 40
60.0
  1
2000
 50
90.0
  7
A
100
AcDbText
  0
POINT
  5
1E3
330
35
100
AcDbEntity
  8
DEFPOINTS
  6
ByBlock
 62
     0
440
 16777216
100
AcDbPoint
 10
6243.695978145973
 20
3706.848205068554
 30
0.0
  0
POINT
  5
1E4
330
35
100
AcDbEntity
  8
DEFPOINTS
  6
ByBlock
 62
     0
440
 16777216
100
AcDbPoint
 10
6243.695978145973
 20
5706.848205068554
 30
0.0
  0
POINT
  5
1E5
330
35
100
AcDbEntity
  8
DEFPOINTS
  6
ByBlock
 62
     0
440
 16777216
100
AcDbPoint
 10
5255.966578387869
 20
5706.848205068554
 30
0.0
  0
ENDBLK
  5
1E6
330
35
100
AcDbEntity
  8
SUNPOU
100
AcDbBlockEnd
  0
BLOCK
  5
27D
330
42
100
AcDbEntity
  8
SUNPOU
100
AcDbBlockBegin
  2
*D38
 70
     1
 10
0.0
 20
0.0
 30
0.0
  3
*D38
  1

  0
LINE
  5
27E
330
42
100
AcDbEntity
  8
0
  6
ByBlock
 62
     0
440
 16777216
100
AcDbLine
 10
4087.960977671449
 20
5706.848205068553
 30
0.0
 11
4918.032434938416
 21
5706.848205068553
 31
0.0
  0
LINE
  5
27F
330
42
100
AcDbEntity
  8
0
  6
ByBlock
 62
     0
440
 16777216
100
AcDbLine
 10
4087.960977671449
 20
3706.848205068553
 30
0.0
 11
4918.032434938416
 21
3706.848205068553
 31
0.0
  0
LINE
  5
280
330
42
100
AcDbEntity
  8
0
  6
ByBlock
 62
     0
440
 16777216
100
AcDbLine
 10
4898.032434938416
 20
5666.848205068553
 30
0.0
 11
4898.032434938416
 21
3746.848205068553
 31
0.0
  0
SOLID
  5
281
330
42
100
AcDbEntity
  8
0
  6
ByBlock
 62
     0
440
 16777216
100
AcDbTrace
 10
4904.699101605083
 20
5666.848205068553
 30
0.0
 11
4891.365768271749
 21
5666.848205068553
 31
0.0
 12
4898.032434938416
 22
5706.848205068553
 32
0.0
 13
4898.032434938416
 23
5706.848205068553
 33
0.0
  0
SOLID
  5
282
330
42
100
AcDbEntity
  8
0
  6
ByBlock
 62
     0
440
 16777216
100
AcDbTrace
 10
4904.699101605083
 20
3746.848205068553
 30
0.0
 11
4891.365768271749
 21
3746.848205068553
 31
0.0
 12
4898.032434938416
 22
3706.848205068553
 32
0.0
 13
4898.032434938416
 23
3706.848205068553
 33
0.0
  0
TEXT
  5
283
330
42
100
AcDbEntity
  8
0
  6
ByBlock
 62
     0
440
 16777216
100
AcDbText
 10
4868.032434938416
 20
4611.848205068553
 30
0.0
 40
60.0
  1
2000
 50
90.0
  7
A
100
AcDbText
  0
POINT
  5
284
330
42
100
AcDbEntity
  8
DEFPOINTS
  6
ByBlock
 62
     0
440
 16777216
100
AcDbPoint
 10
4047.960977671449
 20
5706.848205068553
 30
0.0
  0
POINT
  5
285
330
42
100
AcDbEntity
  8
DEFPOINTS
  6
ByBlock
 62
     0
440
 16777216
100
AcDbPoint
 10
4047.960977671449
 20
3706.848205068553
 30
0.0
  0
POINT
  5
286
330
42
100
AcDbEntity
  8
DEFPOINTS
  6
ByBlock
 62
     0
440
 16777216
100
AcDbPoint
 10
4898.032434938416
 20
3706.848205068553
 30
0.0
  0
ENDBLK
  5
287
330
42
100
AcDbEntity
  8
SUNPOU
100
AcDbBlockEnd
  0
BLOCK
  5
47F
330
6E
100
AcDbEntity
  8
SUNPOU
100
AcDbBlockBegin
  2
*D82
 70
     1
 10
0.0
 20
0.0
 30
0.0
  3
*D82
  1

  0
LINE
  5
480
330
6E
100
AcDbEntity
  8
0
  6
ByBlock
 62
     0
440
 16777216
100
AcDbLine
 10
3827.960977671449
 20
4094.99632079107
 30
0.0
 11
3827.960977671449
 21
4407.11517956629
 31
0.0
  0
LINE
  5
481
330
6E
100
AcDbEntity
  8
0
  6
ByBlock
 62
     0
440
 16777216
100
AcDbLine
 10
3527.960977671449
 20
4094.99632079107
 30
0.0
 11
3527.960977671449
 21
4407.11517956629
 31
0.0
  0
LINE
  5
482
330
6E
100
AcDbEntity
  8
0
  6
ByBlock
 62
     0
440
 16777216
100
AcDbLine
 10
3787.960977671449
 20
4387.11517956629
 30
0.0
 11
3567.960977671449
 21
4387.11517956629
 31
0.0
  0
SOLID
  5
483
330
6E
100
AcDbEntity
  8
0
  6
ByBlock
 62
     0
440
 16777216
100
AcDbTrace
 10
3787.960977671449
 20
4380.448512899623
 30
0.0
 11
3787.960977671449
 21
4393.781846232957
 31
0.0
 12
3827.960977671449
 22
4387.11517956629
 32
0.0
 13
3827.960977671449
 23
4387.11517956629
 33
0.0
  0
SOLID
  5
484
330
6E
100
AcDbEntity
  8
0
  6
ByBlock
 62
     0
440
 16777216
100
AcDbTrace
 10
3567.960977671449
 20
4380.448512899623
 30
0.0
 11
3567.960977671449
 21
4393.781846232957
 31
0.0
 12
3527.960977671449
 22
4387.11517956629
 32
0.0
 13
3527.960977671449
 23
4387.11517956629
 33
0.0
  0
TEXT
  5
485
330
6E
100
AcDbEntity
  8
0
  6
ByBlock
 62
     0
440
 16777216
100
AcDbText
 10
3607.960977671449
 20
4417.11517956629
 30
0.0
 40
60.0
  1
300
  7
A
100
AcDbText
  0
POINT
  5
486
330
6E
100
AcDbEntity
  8
DEFPOINTS
  6
ByBlock
 62
     0
440
 16777216
100
AcDbPoint
 10
3827.960977671449
 20
4054.99632079107
 30
0.0
  0
POINT
  5
487
330
6E
100
AcDbEntity
  8
DEFPOINTS
  6
ByBlock
 62
     0
440
 16777216
100
AcDbPoint
 10
3527.960977671449
 20
4054.99632079107
 30
0.0
  0
POINT
  5
488
330
6E
100
AcDbEntity
  8
DEFPOINTS
  6
ByBlock
 62
     0
440
 16777216
100
AcDbPoint
 10
3527.960977671449
 20
4387.11517956629
 30
0.0
  0
ENDBLK
  5
489
330
6E
100
AcDbEntity
  8
SUNPOU
100
AcDbBlockEnd
  0
BLOCK
  5
48A
330
6F
100
AcDbEntity
  8
SUNPOU
100
AcDbBlockBegin
  2
*D83
 70
     1
 10
0.0
 20
0.0
 30
0.0
  3
*D83
  1

  0
LINE
  5
48B
330
6F
100
AcDbEntity
  8
0
  6
ByBlock
 62
     0
440
 16777216
100
AcDbLine
 10
3787.960977671449
 20
4054.99632079107
 30
0.0
 11
3321.346311608428
 21
4054.996320791071
 31
0.0
  0
LINE
  5
48C
330
6F
100
AcDbEntity
  8
0
  6
ByBlock
 62
     0
440
 16777216
100
AcDbLine
 10
3787.960977671449
 20
4354.99632079107
 30
0.0
 11
3321.346311608428
 21
4354.99632079107
 31
0.0
  0
LINE
  5
48D
330
6F
100
AcDbEntity
  8
0
  6
ByBlock
 62
     0
440
 16777216
100
AcDbLine
 10
3341.346311608428
 20
4094.996320791071
 30
0.0
 11
3341.346311608428
 21
4314.99632079107
 31
0.0
  0
SOLID
  5
48E
330
6F
100
AcDbEntity
  8
0
  6
ByBlock
 62
     0
440
 16777216
100
AcDbTrace
 10
3348.012978275095
 20
4094.996320791071
 30
0.0
 11
3334.679644941762
 21
4094.996320791071
 31
0.0
 12
3341.346311608428
 22
4054.996320791071
 32
0.0
 13
3341.346311608428
 23
4054.996320791071
 33
0.0
  0
SOLID
  5
48F
330
6F
100
AcDbEntity
  8
0
  6
ByBlock
 62
     0
440
 16777216
100
AcDbTrace
 10
3348.012978275095
 20
4314.99632079107
 30
0.0
 11
3334.679644941762
 21
4314.99632079107
 31
0.0
 12
3341.346311608428
 22
4354.99632079107
 32
0.0
 13
3341.346311608428
 23
4354.99632079107
 33
0.0
  0
TEXT
  5
490
330
6F
100
AcDbEntity
  8
0
  6
ByBlock
 62
     0
440
 16777216
100
AcDbText
 10
3311.346311608428
 20
4134.99632079107
 30
0.0
 40
60.0
  1
300
 50
90.0
  7
A
100
AcDbText
  0
POINT
  5
491
330
6F
100
AcDbEntity
  8
DEFPOINTS
  6
ByBlock
 62
     0
440
 16777216
100
AcDbPoint
 10
3827.960977671449
 20
4054.99632079107
 30
0.0
  0
POINT
  5
492
330
6F
100
AcDbEntity
  8
DEFPOINTS
  6
ByBlock
 62
     0
440
 16777216
100
AcDbPoint
 10
3827.960977671449
 20
4354.99632079107
 30
0.0
  0
POINT
  5
493
330
6F
100
AcDbEntity
  8
DEFPOINTS
  6
ByBlock
 62
     0
440
 16777216
100
AcDbPoint
 10
3341.346311608428
 20
4354.99632079107
 30
0.0
  0
ENDBLK
  5
494
330
6F
100
AcDbEntity
  8
SUNPOU
100
AcDbBlockEnd
  0
BLOCK
  5
495
330
70
100
AcDbEntity
  8
SUNPOU
100
AcDbBlockBegin
  2
*D84
 70
     1
 10
0.0
 20
0.0
 30
0.0
  3
*D84
  1

  0
LINE
  5
496
330
70
100
AcDbEntity
  8
0
  6
ByBlock
 62
     0
440
 16777216
100
AcDbLine
 10
1797.96097767145
 20
4148.910000229675
 30
0.0
 11
1797.96097767145
 21
4168.910000229675
 31
0.0
  0
LINE
  5
497
330
70
100
AcDbEntity
  8
0
  6
ByBlock
 62
     0
440
 16777216
100
AcDbLine
 10
1847.96097767145
 20
4148.910000229675
 30
0.0
 11
1847.96097767145
 21
4168.910000229675
 31
0.0
  0
LINE
  5
498
330
70
100
AcDbEntity
  8
0
  6
ByBlock
 62
     0
440
 16777216
100
AcDbLine
 10
1887.96097767145
 20
4188.910000229675
 30
0.0
 11
1927.96097767145
 21
4188.910000229675
 31
0.0
  0
LINE
  5
499
330
70
100
AcDbEntity
  8
0
  6
ByBlock
 62
     0
440
 16777216
100
AcDbLine
 10
1757.96097767145
 20
4188.910000229675
 30
0.0
 11
1717.96097767145
 21
4188.910000229675
 31
0.0
  0
SOLID
  5
49A
330
70
100
AcDbEntity
  8
0
  6
ByBlock
 62
     0
440
 16777216
100
AcDbTrace
 10
1887.96097767145
 20
4182.243333563008
 30
0.0
 11
1887.96097767145
 21
4195.576666896342
 31
0.0
 12
1847.96097767145
 22
4188.910000229675
 32
0.0
 13
1847.96097767145
 23
4188.910000229675
 33
0.0
  0
SOLID
  5
49B
330
70
100
AcDbEntity
  8
0
  6
ByBlock
 62
     0
440
 16777216
100
AcDbTrace
 10
1757.96097767145
 20
4182.243333563008
 30
0.0
 11
1757.96097767145
 21
4195.576666896342
 31
0.0
 12
1797.96097767145
 22
4188.910000229675
 32
0.0
 13
1797.96097767145
 23
4188.910000229675
 33
0.0
  0
LINE
  5
49C
330
70
100
AcDbEntity
  8
0
  6
ByBlock
 62
     0
440
 16777216
100
AcDbLine
 10
1847.96097767145
 20
4188.910000229675
 30
0.0
 11
1797.96097767145
 21
4188.910000229675
 31
0.0
  0
TEXT
  5
49D
330
70
100
AcDbEntity
  8
0
  6
ByBlock
 62
     0
440
 16777216
100
AcDbText
 10
1667.403198899899
 20
4218.910000229675
 30
0.0
 40
60.0
  1
50
  7
A
100
AcDbText
  0
POINT
  5
49E
330
70
100
AcDbEntity
  8
DEFPOINTS
  6
ByBlock
 62
     0
440
 16777216
100
AcDbPoint
 10
1797.96097767145
 20
4188.910000229675
 30
0.0
  0
POINT
  5
49F
330
70
100
AcDbEntity
  8
DEFPOINTS
  6
ByBlock
 62
     0
440
 16777216
100
AcDbPoint
 10
1847.96097767145
 20
4188.910000229675
 30
0.0
  0
POINT
  5
4A0
330
70
100
AcDbEntity
  8
DEFPOINTS
  6
ByBlock
 62
     0
440
 16777216
100
AcDbPoint
 10
1847.96097767145
 20
4188.910000229675
 30
0.0
  0
ENDBLK
  5
4A1
330
70
100
AcDbEntity
  8
SUNPOU
100
AcDbBlockEnd
  0
BLOCK
  5
505
330
79
100
AcDbEntity
  8
SUNPOU
100
AcDbBlockBegin
  2
*D93
 70
     1
 10
0.0
 20
0.0
 30
0.0
  3
*D93
  1

  0
LINE
  5
506
330
79
100
AcDbEntity
  8
0
  6
ByBlock
 62
     0
440
 16777216
100
AcDbLine
 10
1047.96097767145
 20
716.0872754162883
 30
0.0
 11
1047.96097767145
 21
154.0016302637777
 31
0.0
  0
LINE
  5
507
330
79
100
AcDbEntity
  8
0
  6
ByBlock
 62
     0
440
 16777216
100
AcDbLine
 10
4047.96097767145
 20
716.0872754162879
 30
0.0
 11
4047.96097767145
 21
154.0016302637777
 31
0.0
  0
LINE
  5
508
330
79
100
AcDbEntity
  8
0
  6
ByBlock
 62
     0
440
 16777216
100
AcDbLine
 10
1087.96097767145
 20
174.0016302637777
 30
0.0
 11
4007.96097767145
 21
174.0016302637777
 31
0.0
  0
SOLID
  5
509
330
79
100
AcDbEntity
  8
0
  6
ByBlock
 62
     0
440
 16777216
100
AcDbTrace
 10
1087.96097767145
 20
167.3349635971111
 30
0.0
 11
1087.96097767145
 21
180.6682969304444
 31
0.0
 12
1047.96097767145
 22
174.0016302637777
 32
0.0
 13
1047.96097767145
 23
174.0016302637777
 33
0.0
  0
SOLID
  5
50A
330
79
100
AcDbEntity
  8
0
  6
ByBlock
 62
     0
440
 16777216
100
AcDbTrace
 10
4007.96097767145
 20
167.3349635971111
 30
0.0
 11
4007.96097767145
 21
180.6682969304444
 31
0.0
 12
4047.96097767145
 22
174.0016302637777
 32
0.0
 13
4047.96097767145
 23
174.0016302637777
 33
0.0
  0
TEXT
  5
50B
330
79
100
AcDbEntity
  8
0
  6
ByBlock
 62
     0
440
 16777216
100
AcDbText
 10
2452.96097767145
 20
204.0016302637777
 30
0.0
 40
60.0
  1
3000
  7
A
100
AcDbText
  0
POINT
  5
50C
330
79
100
AcDbEntity
  8
DEFPOINTS
  6
ByBlock
 62
     0
440
 16777216
100
AcDbPoint
 10
1047.96097767145
 20
756.0872754162883
 30
0.0
  0
POINT
  5
50D
330
79
100
AcDbEntity
  8
DEFPOINTS
  6
ByBlock
 62
     0
440
 16777216
100
AcDbPoint
 10
4047.96097767145
 20
756.0872754162879
 30
0.0
  0
POINT
  5
50E
330
79
100
AcDbEntity
  8
DEFPOINTS
  6
ByBlock
 62
     0
440
 16777216
100
AcDbPoint
 10
4047.96097767145
 20
174.0016302637777
 30
0.0
  0
ENDBLK
  5
50F
330
79
100
AcDbEntity
  8
SUNPOU
100
AcDbBlockEnd
  0
BLOCK
  5
510
330
7A
100
AcDbEntity
  8
SUNPOU
100
AcDbBlockBegin
  2
*D94
 70
     1
 10
0.0
 20
0.0
 30
0.0
  3
*D94
  1

  0
LINE
  5
511
330
7A
100
AcDbEntity
  8
0
  6
ByBlock
 62
     0
440
 16777216
100
AcDbLine
 10
1117.55968153791
 20
3904.99632079107
 30
0.0
 11
1107.948094863081
 21
3904.99632079107
 31
0.0
  0
LINE
  5
512
330
7A
100
AcDbEntity
  8
0
  6
ByBlock
 62
     0
440
 16777216
100
AcDbLine
 10
1062.311554007707
 20
3954.99632079107
 30
0.0
 11
1147.948094863081
 21
3954.99632079107
 31
0.0
  0
LINE
  5
513
330
7A
100
AcDbEntity
  8
0
  6
ByBlock
 62
     0
440
 16777216
100
AcDbLine
 10
1127.948094863081
 20
3994.99632079107
 30
0.0
 11
1127.948094863081
 21
4034.99632079107
 31
0.0
  0
LINE
  5
514
330
7A
100
AcDbEntity
  8
0
  6
ByBlock
 62
     0
440
 16777216
100
AcDbLine
 10
1127.948094863081
 20
3864.99632079107
 30
0.0
 11
1127.948094863081
 21
3824.99632079107
 31
0.0
  0
SOLID
  5
515
330
7A
100
AcDbEntity
  8
0
  6
ByBlock
 62
     0
440
 16777216
100
AcDbTrace
 10
1134.614761529748
 20
3994.99632079107
 30
0.0
 11
1121.281428196414
 21
3994.99632079107
 31
0.0
 12
1127.948094863081
 22
3954.99632079107
 32
0.0
 13
1127.948094863081
 23
3954.99632079107
 33
0.0
  0
SOLID
  5
516
330
7A
100
AcDbEntity
  8
0
  6
ByBlock
 62
     0
440
 16777216
100
AcDbTrace
 10
1134.614761529748
 20
3864.99632079107
 30
0.0
 11
1121.281428196414
 21
3864.99632079107
 31
0.0
 12
1127.948094863081
 22
3904.99632079107
 32
0.0
 13
1127.948094863081
 23
3904.99632079107
 33
0.0
  0
LINE
  5
517
330
7A
100
AcDbEntity
  8
0
  6
ByBlock
 62
     0
440
 16777216
100
AcDbLine
 10
1127.948094863081
 20
3954.99632079107
 30
0.0
 11
1127.948094863081
 21
3904.99632079107
 31
0.0
  0
TEXT
  5
518
330
7A
100
AcDbEntity
  8
0
  6
ByBlock
 62
     0
440
 16777216
100
AcDbText
 10
1097.94809486308
 20
4074.99632079107
 30
0.0
 40
60.0
  1
50
 50
90.0
  7
A
100
AcDbText
  0
POINT
  5
519
330
7A
100
AcDbEntity
  8
DEFPOINTS
  6
ByBlock
 62
     0
440
 16777216
100
AcDbPoint
 10
1157.55968153791
 20
3904.99632079107
 30
0.0
  0
POINT
  5
51A
330
7A
100
AcDbEntity
  8
DEFPOINTS
  6
ByBlock
 62
     0
440
 16777216
100
AcDbPoint
 10
1022.311554007707
 20
3954.99632079107
 30
0.0
  0
POINT
  5
51B
330
7A
100
AcDbEntity
  8
DEFPOINTS
  6
ByBlock
 62
     0
440
 16777216
100
AcDbPoint
 10
1127.948094863081
 20
3954.99632079107
 30
0.0
  0
ENDBLK
  5
51C
330
7A
100
AcDbEntity
  8
SUNPOU
100
AcDbBlockEnd
  0
BLOCK
  5
51D
330
7B
100
AcDbEntity
  8
SUNPOU
100
AcDbBlockBegin
  2
*D95
 70
     1
 10
0.0
 20
0.0
 30
0.0
  3
*D95
  1

  0
LINE
  5
51E
330
7B
100
AcDbEntity
  8
0
  6
ByBlock
 62
     0
440
 16777216
100
AcDbLine
 10
1257.96097767145
 20
3834.99632079107
 30
0.0
 11
1107.948094863081
 21
3834.99632079107
 31
0.0
  0
LINE
  5
51F
330
7B
100
AcDbEntity
  8
0
  6
ByBlock
 62
     0
440
 16777216
100
AcDbLine
 10
1257.96097767145
 20
3904.99632079107
 30
0.0
 11
1107.948094863081
 21
3904.99632079107
 31
0.0
  0
LINE
  5
520
330
7B
100
AcDbEntity
  8
0
  6
ByBlock
 62
     0
440
 16777216
100
AcDbLine
 10
1127.948094863081
 20
3944.99632079107
 30
0.0
 11
1127.948094863081
 21
3984.99632079107
 31
0.0
  0
LINE
  5
521
330
7B
100
AcDbEntity
  8
0
  6
ByBlock
 62
     0
440
 16777216
100
AcDbLine
 10
1127.948094863081
 20
3794.99632079107
 30
0.0
 11
1127.948094863081
 21
3754.99632079107
 31
0.0
  0
SOLID
  5
522
330
7B
100
AcDbEntity
  8
0
  6
ByBlock
 62
     0
440
 16777216
100
AcDbTrace
 10
1134.614761529748
 20
3944.99632079107
 30
0.0
 11
1121.281428196414
 21
3944.99632079107
 31
0.0
 12
1127.948094863081
 22
3904.99632079107
 32
0.0
 13
1127.948094863081
 23
3904.99632079107
 33
0.0
  0
SOLID
  5
523
330
7B
100
AcDbEntity
  8
0
  6
ByBlock
 62
     0
440
 16777216
100
AcDbTrace
 10
1134.614761529748
 20
3794.99632079107
 30
0.0
 11
1121.281428196414
 21
3794.99632079107
 31
0.0
 12
1127.948094863081
 22
3834.99632079107
 32
0.0
 13
1127.948094863081
 23
3834.99632079107
 33
0.0
  0
LINE
  5
524
330
7B
100
AcDbEntity
  8
0
  6
ByBlock
 62
     0
440
 16777216
100
AcDbLine
 10
1127.948094863081
 20
3904.99632079107
 30
0.0
 11
1127.948094863081
 21
3834.99632079107
 31
0.0
  0
TEXT
  5
525
330
7B
100
AcDbEntity
  8
0
  6
ByBlock
 62
     0
440
 16777216
100
AcDbText
 10
1097.94809486308
 20
3713.519426943434
 30
0.0
 40
60.0
  1
70
 50
90.0
  7
A
100
AcDbText
  0
POINT
  5
526
330
7B
100
AcDbEntity
  8
DEFPOINTS
  6
ByBlock
 62
     0
440
 16777216
100
AcDbPoint
 10
1297.96097767145
 20
3834.99632079107
 30
0.0
  0
POINT
  5
527
330
7B
100
AcDbEntity
  8
DEFPOINTS
  6
ByBlock
 62
     0
440
 16777216
100
AcDbPoint
 10
1297.96097767145
 20
3904.99632079107
 30
0.0
  0
POINT
  5
528
330
7B
100
AcDbEntity
  8
DEFPOINTS
  6
ByBlock
 62
     0
440
 16777216
100
AcDbPoint
 10
1127.948094863081
 20
3904.99632079107
 30
0.0
  0
ENDBLK
  5
529
330
7B
100
AcDbEntity
  8
SUNPOU
100
AcDbBlockEnd
  0
BLOCK
  5
52A
330
7C
100
AcDbEntity
  8
SUNPOU
100
AcDbBlockBegin
  2
*D96
 70
     1
 10
0.0
 20
0.0
 30
0.0
  3
*D96
  1

  0
LINE
  5
52B
330
7C
100
AcDbEntity
  8
0
  6
ByBlock
 62
     0
440
 16777216
100
AcDbLine
 10
1257.96097767145
 20
3834.99632079107
 30
0.0
 11
890.7964592476546
 21
3834.99632079107
 31
0.0
  0
LINE
  5
52C
330
7C
100
AcDbEntity
  8
0
  6
ByBlock
 62
     0
440
 16777216
100
AcDbLine
 10
1257.96097767145
 20
3954.99632079107
 30
0.0
 11
890.7964592476546
 21
3954.99632079107
 31
0.0
  0
LINE
  5
52D
330
7C
100
AcDbEntity
  8
0
  6
ByBlock
 62
     0
440
 16777216
100
AcDbLine
 10
910.7964592476546
 20
3874.99632079107
 30
0.0
 11
910.7964592476546
 21
3894.99632079107
 31
0.0
  0
LINE
  5
52E
330
7C
100
AcDbEntity
  8
0
  6
ByBlock
 62
     0
440
 16777216
100
AcDbLine
 10
910.7964592476546
 20
3914.99632079107
 30
0.0
 11
910.7964592476546
 21
3894.99632079107
 31
0.0
  0
SOLID
  5
52F
330
7C
100
AcDbEntity
  8
0
  6
ByBlock
 62
     0
440
 16777216
100
AcDbTrace
 10
917.4631259143213
 20
3874.99632079107
 30
0.0
 11
904.129792580988
 21
3874.99632079107
 31
0.0
 12
910.7964592476546
 22
3834.99632079107
 32
0.0
 13
910.7964592476546
 23
3834.99632079107
 33
0.0
  0
SOLID
  5
530
330
7C
100
AcDbEntity
  8
0
  6
ByBlock
 62
     0
440
 16777216
100
AcDbTrace
 10
917.4631259143213
 20
3914.99632079107
 30
0.0
 11
904.129792580988
 21
3914.99632079107
 31
0.0
 12
910.7964592476546
 22
3954.99632079107
 32
0.0
 13
910.7964592476546
 23
3954.99632079107
 33
0.0
  0
TEXT
  5
531
330
7C
100
AcDbEntity
  8
0
  6
ByBlock
 62
     0
440
 16777216
100
AcDbText
 10
880.7964592476546
 20
3842.624669825374
 30
0.0
 40
60.0
  1
120
 50
90.0
  7
A
100
AcDbText
  0
POINT
  5
532
330
7C
100
AcDbEntity
  8
DEFPOINTS
  6
ByBlock
 62
     0
440
 16777216
100
AcDbPoint
 10
1297.96097767145
 20
3834.99632079107
 30
0.0
  0
POINT
  5
533
330
7C
100
AcDbEntity
  8
DEFPOINTS
  6
ByBlock
 62
     0
440
 16777216
100
AcDbPoint
 10
1297.96097767145
 20
3954.99632079107
 30
0.0
  0
POINT
  5
534
330
7C
100
AcDbEntity
  8
DEFPOINTS
  6
ByBlock
 62
     0
440
 16777216
100
AcDbPoint
 10
910.7964592476546
 20
3954.99632079107
 30
0.0
  0
ENDBLK
  5
535
330
7C
100
AcDbEntity
  8
SUNPOU
100
AcDbBlockEnd
  0
BLOCK
  5
57B
330
83
100
AcDbEntity
  8
SUNPOU
100
AcDbBlockBegin
  2
*D103
 70
     1
 10
0.0
 20
0.0
 30
0.0
  3
*D103
  1

  0
LINE
  5
57C
330
83
100
AcDbEntity
  8
0
  6
ByBlock
 62
     0
440
 16777216
100
AcDbLine
 10
1047.96097767145
 20
3794.99632079107
 30
0.0
 11
1047.96097767145
 21
3010.421183860853
 31
0.0
  0
LINE
  5
57D
330
83
100
AcDbEntity
  8
0
  6
ByBlock
 62
     0
440
 16777216
100
AcDbLine
 10
4047.96097767145
 20
3794.99632079107
 30
0.0
 11
4047.96097767145
 21
3010.421183860853
 31
0.0
  0
LINE
  5
57E
330
83
100
AcDbEntity
  8
0
  6
ByBlock
 62
     0
440
 16777216
100
AcDbLine
 10
1087.96097767145
 20
3030.421183860853
 30
0.0
 11
2547.96097767145
 21
3030.421183860853
 31
0.0
  0
LINE
  5
57F
330
83
100
AcDbEntity
  8
0
  6
ByBlock
 62
     0
440
 16777216
100
AcDbLine
 10
4007.96097767145
 20
3030.421183860853
 30
0.0
 11
2547.96097767145
 21
3030.421183860853
 31
0.0
  0
SOLID
  5
580
330
83
100
AcDbEntity
  8
0
  6
ByBlock
 62
     0
440
 16777216
100
AcDbTrace
 10
1087.96097767145
 20
3023.754517194186
 30
0.0
 11
1087.96097767145
 21
3037.087850527519
 31
0.0
 12
1047.96097767145
 22
3030.421183860853
 32
0.0
 13
1047.96097767145
 23
3030.421183860853
 33
0.0
  0
SOLID
  5
581
330
83
100
AcDbEntity
  8
0
  6
ByBlock
 62
     0
440
 16777216
100
AcDbTrace
 10
4007.96097767145
 20
3023.754517194186
 30
0.0
 11
4007.96097767145
 21
3037.087850527519
 31
0.0
 12
4047.96097767145
 22
3030.421183860853
 32
0.0
 13
4047.96097767145
 23
3030.421183860853
 33
0.0
  0
TEXT
  5
582
330
83
100
AcDbEntity
  8
0
  6
ByBlock
 62
     0
440
 16777216
100
AcDbText
 10
2513.67517831137
 20
3060.421183860853
 30
0.0
 40
60.0
  1
3000
  7
A
100
AcDbText
  0
POINT
  5
583
330
83
100
AcDbEntity
  8
DEFPOINTS
  6
ByBlock
 62
     0
440
 16777216
100
AcDbPoint
 10
1047.96097767145
 20
3834.99632079107
 30
0.0
  0
POINT
  5
584
330
83
100
AcDbEntity
  8
DEFPOINTS
  6
ByBlock
 62
     0
440
 16777216
100
AcDbPoint
 10
4047.96097767145
 20
3834.99632079107
 30
0.0
  0
POINT
  5
585
330
83
100
AcDbEntity
  8
DEFPOINTS
  6
ByBlock
 62
     0
440
 16777216
100
AcDbPoint
 10
4047.96097767145
 20
3030.421183860853
 30
0.0
  0
ENDBLK
  5
586
330
83
100
AcDbEntity
  8
SUNPOU
100
AcDbBlockEnd
  0
BLOCK
  5
587
330
84
100
AcDbEntity
  8
SUNPOU
100
AcDbBlockBegin
  2
*D104
 70
     1
 10
0.0
 20
0.0
 30
0.0
  3
*D104
  1

  0
LINE
  5
588
330
84
100
AcDbEntity
  8
0
  6
ByBlock
 62
     0
440
 16777216
100
AcDbLine
 10
1047.96097767145
 20
3237.625067866913
 30
0.0
 11
1047.96097767145
 21
3208.184291065701
 31
0.0
  0
LINE
  5
589
330
84
100
AcDbEntity
  8
0
  6
ByBlock
 62
     0
440
 16777216
100
AcDbLine
 10
3827.96097767145
 20
3287.065844668125
 30
0.0
 11
3827.96097767145
 21
3208.184291065701
 31
0.0
  0
LINE
  5
58A
330
84
100
AcDbEntity
  8
0
  6
ByBlock
 62
     0
440
 16777216
100
AcDbLine
 10
1087.96097767145
 20
3228.184291065701
 30
0.0
 11
2437.96097767145
 21
3228.184291065701
 31
0.0
  0
LINE
  5
58B
330
84
100
AcDbEntity
  8
0
  6
ByBlock
 62
     0
440
 16777216
100
AcDbLine
 10
3787.96097767145
 20
3228.184291065701
 30
0.0
 11
2437.96097767145
 21
3228.184291065701
 31
0.0
  0
SOLID
  5
58C
330
84
100
AcDbEntity
  8
0
  6
ByBlock
 62
     0
440
 16777216
100
AcDbTrace
 10
1087.96097767145
 20
3221.517624399034
 30
0.0
 11
1087.96097767145
 21
3234.850957732367
 31
0.0
 12
1047.96097767145
 22
3228.184291065701
 32
0.0
 13
1047.96097767145
 23
3228.184291065701
 33
0.0
  0
SOLID
  5
58D
330
84
100
AcDbEntity
  8
0
  6
ByBlock
 62
     0
440
 16777216
100
AcDbTrace
 10
3787.96097767145
 20
3221.517624399034
 30
0.0
 11
3787.96097767145
 21
3234.850957732367
 31
0.0
 12
3827.96097767145
 22
3228.184291065701
 32
0.0
 13
3827.96097767145
 23
3228.184291065701
 33
0.0
  0
TEXT
  5
58E
330
84
100
AcDbEntity
  8
0
  6
ByBlock
 62
     0
440
 16777216
100
AcDbText
 10
2494.135772940424
 20
3258.184291065701
 30
0.0
 40
60.0
  1
2780
  7
A
100
AcDbText
  0
POINT
  5
58F
330
84
100
AcDbEntity
  8
DEFPOINTS
  6
ByBlock
 62
     0
440
 16777216
100
AcDbPoint
 10
1047.96097767145
 20
3277.625067866913
 30
0.0
  0
POINT
  5
590
330
84
100
AcDbEntity
  8
DEFPOINTS
  6
ByBlock
 62
     0
440
 16777216
100
AcDbPoint
 10
3827.96097767145
 20
3327.065844668125
 30
0.0
  0
POINT
  5
591
330
84
100
AcDbEntity
  8
DEFPOINTS
  6
ByBlock
 62
     0
440
 16777216
100
AcDbPoint
 10
3827.96097767145
 20
3228.184291065701
 30
0.0
  0
ENDBLK
  5
592
330
84
100
AcDbEntity
  8
SUNPOU
100
AcDbBlockEnd
  0
BLOCK
  5
593
330
85
100
AcDbEntity
  8
SUNPOU
100
AcDbBlockBegin
  2
*D105
 70
     1
 10
0.0
 20
0.0
 30
0.0
  3
*D105
  1

  0
LINE
  5
594
330
85
100
AcDbEntity
  8
0
  6
ByBlock
 62
     0
440
 16777216
100
AcDbLine
 10
9233.69597814597
 20
5984.99632079107
 30
0.0
 11
10525.94505911776
 21
5984.99632079107
 31
0.0
  0
LINE
  5
595
330
85
100
AcDbEntity
  8
0
  6
ByBlock
 62
     0
440
 16777216
100
AcDbLine
 10
9283.69597814597
 20
3834.99632079107
 30
0.0
 11
10525.94505911776
 21
3834.99632079107
 31
0.0
  0
LINE
  5
596
330
85
100
AcDbEntity
  8
0
  6
ByBlock
 62
     0
440
 16777216
100
AcDbLine
 10
10505.94505911776
 20
5944.99632079107
 30
0.0
 11
10505.94505911776
 21
4909.99632079107
 31
0.0
  0
LINE
  5
597
330
85
100
AcDbEntity
  8
0
  6
ByBlock
 62
     0
440
 16777216
100
AcDbLine
 10
10505.94505911776
 20
3874.99632079107
 30
0.0
 11
10505.94505911776
 21
4909.99632079107
 31
0.0
  0
SOLID
  5
598
330
85
100
AcDbEntity
  8
0
  6
ByBlock
 62
     0
440
 16777216
100
AcDbTrace
 10
10512.61172578443
 20
5944.99632079107
 30
0.0
 11
10499.2783924511
 21
5944.99632079107
 31
0.0
 12
10505.94505911776
 22
5984.99632079107
 32
0.0
 13
10505.94505911776
 23
5984.99632079107
 33
0.0
  0
SOLID
  5
599
330
85
100
AcDbEntity
  8
0
  6
ByBlock
 62
     0
440
 16777216
100
AcDbTrace
 10
10512.61172578443
 20
3874.99632079107
 30
0.0
 11
10499.2783924511
 21
3874.99632079107
 31
0.0
 12
10505.94505911776
 22
3834.99632079107
 32
0.0
 13
10505.94505911776
 23
3834.99632079107
 33
0.0
  0
TEXT
  5
59A
330
85
100
AcDbEntity
  8
0
  6
ByBlock
 62
     0
440
 16777216
100
AcDbText
 10
10475.94505911776
 20
4714.99632079107
 30
0.0
 40
60.0
  1
2150
 50
90.0
  7
A
100
AcDbText
  0
POINT
  5
59B
330
85
100
AcDbEntity
  8
DEFPOINTS
  6
ByBlock
 62
     0
440
 16777216
100
AcDbPoint
 10
9193.69597814597
 20
5984.99632079107
 30
0.0
  0
POINT
  5
59C
330
85
100
AcDbEntity
  8
DEFPOINTS
  6
ByBlock
 62
     0
440
 16777216
100
AcDbPoint
 10
9243.69597814597
 20
3834.99632079107
 30
0.0
  0
POINT
  5
59D
330
85
100
AcDbEntity
  8
DEFPOINTS
  6
ByBlock
 62
     0
440
 16777216
100
AcDbPoint
 10
10505.94505911776
 20
3834.99632079107
 30
0.0
  0
ENDBLK
  5
59E
330
85
100
AcDbEntity
  8
SUNPOU
100
AcDbBlockEnd
  0
BLOCK
  5
59F
330
86
100
AcDbEntity
  8
SUNPOU
100
AcDbBlockBegin
  2
*D106
 70
     1
 10
0.0
 20
0.0
 30
0.0
  3
*D106
  1

  0
LINE
  5
5A0
330
86
100
AcDbEntity
  8
0
  6
ByBlock
 62
     0
440
 16777216
100
AcDbLine
 10
6243.695978145973
 20
6874.996320791071
 30
0.0
 11
6243.695978145973
 21
7534.617934496253
 31
0.0
  0
LINE
  5
5A1
330
86
100
AcDbEntity
  8
0
  6
ByBlock
 62
     0
440
 16777216
100
AcDbLine
 10
8393.695978145974
 20
6824.996320791071
 30
0.0
 11
8393.695978145974
 21
7534.617934496253
 31
0.0
  0
LINE
  5
5A2
330
86
100
AcDbEntity
  8
0
  6
ByBlock
 62
     0
440
 16777216
100
AcDbLine
 10
6283.695978145973
 20
7514.617934496253
 30
0.0
 11
8353.695978145974
 21
7514.617934496253
 31
0.0
  0
SOLID
  5
5A3
330
86
100
AcDbEntity
  8
0
  6
ByBlock
 62
     0
440
 16777216
100
AcDbTrace
 10
6283.695978145973
 20
7507.951267829586
 30
0.0
 11
6283.695978145973
 21
7521.28460116292
 31
0.0
 12
6243.695978145973
 22
7514.617934496253
 32
0.0
 13
6243.695978145973
 23
7514.617934496253
 33
0.0
  0
SOLID
  5
5A4
330
86
100
AcDbEntity
  8
0
  6
ByBlock
 62
     0
440
 16777216
100
AcDbTrace
 10
8353.695978145974
 20
7507.951267829586
 30
0.0
 11
8353.695978145974
 21
7521.28460116292
 31
0.0
 12
8393.695978145974
 22
7514.617934496253
 32
0.0
 13
8393.695978145974
 23
7514.617934496253
 33
0.0
  0
TEXT
  5
5A5
330
86
100
AcDbEntity
  8
0
  6
ByBlock
 62
     0
440
 16777216
100
AcDbText
 10
7223.695978145974
 20
7544.617934496253
 30
0.0
 40
60.0
  1
2150
  7
A
100
AcDbText
  0
POINT
  5
5A6
330
86
100
AcDbEntity
  8
DEFPOINTS
  6
ByBlock
 62
     0
440
 16777216
100
AcDbPoint
 10
6243.695978145973
 20
6834.996320791071
 30
0.0
  0
POINT
  5
5A7
330
86
100
AcDbEntity
  8
DEFPOINTS
  6
ByBlock
 62
     0
440
 16777216
100
AcDbPoint
 10
8393.695978145974
 20
6784.996320791071
 30
0.0
  0
POINT
  5
5A8
330
86
100
AcDbEntity
  8
DEFPOINTS
  6
ByBlock
 62
     0
440
 16777216
100
AcDbPoint
 10
8393.695978145974
 20
7514.617934496253
 30
0.0
  0
ENDBLK
  5
5A9
330
86
100
AcDbEntity
  8
SUNPOU
100
AcDbBlockEnd
  0
BLOCK
  5
9F3
330
9F2
100
AcDbEntity
  8
0
100
AcDbBlockBegin
  2
*D118
 70
     1
 10
0.0
 20
0.0
 30
0.0
  3
*D118
  1

  0
LINE
  5
9F5
330
9F2
100
AcDbEntity
  8
SUNPOU
 62
     0
440
 16777216
370
    -2
100
AcDbLine
 10
4087.96097767145
 20
756.0872754162879
 30
0.0
 11
4820.282152716197
 21
756.0872754162878
 31
0.0
  0
LINE
  5
9F6
330
9F2
100
AcDbEntity
  8
SUNPOU
 62
     0
440
 16777216
370
    -2
100
AcDbLine
 10
4087.960977671449
 20
2906.087275416288
 30
0.0
 11
4820.282152716198
 21
2906.087275416288
 31
0.0
  0
LINE
  5
9F7
330
9F2
100
AcDbEntity
  8
SUNPOU
 62
     0
440
 16777216
370
    -2
100
AcDbLine
 10
4800.282152716197
 20
796.0872754162878
 30
0.0
 11
4800.282152716198
 21
2866.087275416288
 31
0.0
  0
SOLID
  5
9F8
330
9F2
100
AcDbEntity
  8
SUNPOU
 62
     0
440
 16777216
100
AcDbTrace
 10
4793.61548604953
 20
796.0872754162878
 30
0.0
 11
4806.948819382864
 21
796.0872754162878
 31
0.0
 12
4800.282152716197
 22
756.0872754162878
 32
0.0
 13
4800.282152716197
 23
756.0872754162878
 33
0.0
  0
SOLID
  5
9F9
330
9F2
100
AcDbEntity
  8
SUNPOU
 62
     0
440
 16777216
100
AcDbTrace
 10
4793.615486049531
 20
2866.087275416288
 30
0.0
 11
4806.948819382865
 21
2866.087275416288
 31
0.0
 12
4800.282152716198
 22
2906.087275416288
 32
0.0
 13
4800.282152716198
 23
2906.087275416288
 33
0.0
  0
MTEXT
  5
9FA
330
9F2
100
AcDbEntity
  8
SUNPOU
 62
     0
440
 16777216
100
AcDbMText
 10
4740.282152716197
 20
1831.087275416289
 30
0.0
 40
60.0
 41
0.0
 71
     5
 72
     1
  1
\A1;2150
  7
A
 11
6.123031769111886E-17
 21
1.0
 31
0.0
 73
     1
 44
1.0
  0
POINT
  5
9FB
330
9F2
100
AcDbEntity
  8
DEFPOINTS
 62
     0
440
 16777216
100
AcDbPoint
 10
4047.96097767145
 20
756.0872754162879
 30
0.0
  0
POINT
  5
9FC
330
9F2
100
AcDbEntity
  8
DEFPOINTS
 62
     0
440
 16777216
100
AcDbPoint
 10
4047.960977671449
 20
2906.087275416288
 30
0.0
  0
POINT
  5
9FD
330
9F2
100
AcDbEntity
  8
DEFPOINTS
 62
     0
440
 16777216
100
AcDbPoint
 10
4800.282152716198
 20
2906.087275416288
 30
0.0
  0
ENDBLK
  5
9F4
330
9F2
100
AcDbEntity
  8
0
100
AcDbBlockEnd
  0
BLOCK
  5
9FF
330
9FE
100
AcDbEntity
  8
0
100
AcDbBlockBegin
  2
*D119
 70
     1
 10
0.0
 20
0.0
 30
0.0
  3
*D119
  1

  0
LINE
  5
A01
330
9FE
100
AcDbEntity
  8
SUNPOU
 62
     0
440
 16777216
370
    -2
100
AcDbLine
 10
4087.96097767145
 20
1756.087275416288
 30
0.0
 11
4630.038418693806
 21
1756.087275416288
 31
0.0
  0
LINE
  5
A02
330
9FE
100
AcDbEntity
  8
SUNPOU
 62
     0
440
 16777216
370
    -2
100
AcDbLine
 10
4087.96097767145
 20
756.0872754162879
 30
0.0
 11
4630.038418693806
 21
756.0872754162878
 31
0.0
  0
LINE
  5
A03
330
9FE
100
AcDbEntity
  8
SUNPOU
 62
     0
440
 16777216
370
    -2
100
AcDbLine
 10
4610.038418693806
 20
1716.087275416288
 30
0.0
 11
4610.038418693806
 21
796.0872754162878
 31
0.0
  0
SOLID
  5
A04
330
9FE
100
AcDbEntity
  8
SUNPOU
 62
     0
440
 16777216
100
AcDbTrace
 10
4603.371752027139
 20
1716.087275416288
 30
0.0
 11
4616.705085360473
 21
1716.087275416288
 31
0.0
 12
4610.038418693806
 22
1756.087275416288
 32
0.0
 13
4610.038418693806
 23
1756.087275416288
 33
0.0
  0
SOLID
  5
A05
330
9FE
100
AcDbEntity
  8
SUNPOU
 62
     0
440
 16777216
100
AcDbTrace
 10
4603.371752027139
 20
796.0872754162878
 30
0.0
 11
4616.705085360473
 21
796.0872754162878
 31
0.0
 12
4610.038418693806
 22
756.0872754162878
 32
0.0
 13
4610.038418693806
 23
756.0872754162878
 33
0.0
  0
MTEXT
  5
A06
330
9FE
100
AcDbEntity
  8
SUNPOU
 62
     0
440
 16777216
100
AcDbMText
 10
4550.038418693806
 20
1256.087275416289
 30
0.0
 40
60.0
 41
0.0
 71
     5
 72
     1
  1
\A1;1000
  7
A
 11
6.123031769111886E-17
 21
1.0
 31
0.0
 73
     1
 44
1.0
  0
POINT
  5
A07
330
9FE
100
AcDbEntity
  8
DEFPOINTS
 62
     0
440
 16777216
100
AcDbPoint
 10
4047.96097767145
 20
1756.087275416288
 30
0.0
  0
POINT
  5
A08
330
9FE
100
AcDbEntity
  8
DEFPOINTS
 62
     0
440
 16777216
100
AcDbPoint
 10
4047.96097767145
 20
756.0872754162879
 30
0.0
  0
POINT
  5
A09
330
9FE
100
AcDbEntity
  8
DEFPOINTS
 62
     0
440
 16777216
100
AcDbPoint
 10
4610.038418693806
 20
756.0872754162878
 30
0.0
  0
ENDBLK
  5
A00
330
9FE
100
AcDbEntity
  8
0
100
AcDbBlockEnd
  0
ENDSEC
  0
SECTION
  2
ENTITIES
  0
TEXT
  5
624
330
17
100
AcDbEntity
  8
SUNPOU
100
AcDbText
 10
10290.76093427418
 20
-96.81175765693115
 30
0.0
 40
50.0
  1
新和コンクリート工業株式会社
  7
NIHONGO
100
AcDbText
  0
TEXT
  5
625
330
17
100
AcDbEntity
  8
SUNPOU
100
AcDbText
 10
10719.09426760752
 20
28.18824234306886
 30
0.0
 40
50.0
  1
製図
  7
NIHONGO
 72
     4
 11
10770.76093427418
 21
53.18824234306885
 31
0.0
100
AcDbText
  0
TEXT
  5
626
330
17
100
AcDbEntity
  8
SUNPOU
100
AcDbText
 10
10717.42760094085
 20
128.1882423430689
 30
0.0
 40
50.0
  1
設計
  7
NIHONGO
 72
     4
 11
10770.76093427418
 21
153.1882423430689
 31
0.0
100
AcDbText
  0
TEXT
  5
627
330
17
100
AcDbEntity
  8
SUNPOU
100
AcDbText
 10
10272.42760094085
 20
28.18824234306913
 30
0.0
 40
50.0
  1
認
  7
NIHONGO
 72
     4
 11
10295.76093427418
 21
53.18824234306913
 31
0.0
100
AcDbText
  0
TEXT
  5
628
330
17
100
AcDbEntity
  8
SUNPOU
100
AcDbText
 10
10272.42760094085
 20
129.8549090097362
 30
0.0
 40
50.0
  1
承
  7
NIHONGO
 72
     4
 11
10295.76093427418
 21
153.1882423430695
 31
0.0
100
AcDbText
  0
TEXT
  5
629
330
17
100
AcDbEntity
  8
SUNPOU
100
AcDbText
 10
9745.760934274182
 20
138.188242343069
 30
0.0
 40
50.0
  1
図　面　番　号
  7
NIHONGO
 72
     4
 11
9950.760934274182
 21
163.188242343069
 31
0.0
100
AcDbText
  0
TEXT
  5
62A
330
17
100
AcDbEntity
  8
SUNPOU
100
AcDbText
 10
10730.76093427418
 20
243.1882423430689
 30
0.0
 40
50.0
  1
１／
  7
NIHONGO
100
AcDbText
  0
TEXT
  5
62B
330
17
100
AcDbEntity
  8
SUNPOU
100
AcDbText
 10
10437.42760094085
 20
228.188242343069
 30
0.0
 40
50.0
  1
縮　　尺
  7
NIHONGO
 72
     4
 11
10550.76093427418
 21
253.188242343069
 31
0.0
100
AcDbText
  0
TEXT
  5
62C
330
17
100
AcDbEntity
  8
SUNPOU
100
AcDbText
 10
10437.42760094085
 20
328.1882423430688
 30
0.0
 40
50.0
  1
鉄 筋 量
  7
NIHONGO
 72
     4
 11
10550.76093427418
 21
353.1882423430688
 31
0.0
100
AcDbText
  0
TEXT
  5
62D
330
17
100
AcDbEntity
  8
SUNPOU
100
AcDbText
 10
10437.42760094085
 20
428.1882423430689
 30
0.0
 40
50.0
  1
製 造 数
  7
NIHONGO
 72
     4
 11
10550.76093427418
 21
453.1882423430689
 31
0.0
100
AcDbText
  0
TEXT
  5
62E
330
17
100
AcDbEntity
  8
SUNPOU
100
AcDbText
 10
11030.76093427418
 20
323.1882423430688
 30
0.0
 40
50.0
  1
ｋｇ
  7
NIHONGO
 72
     2
 11
11130.76093427418
 21
323.1882423430688
 31
0.0
100
AcDbText
  0
TEXT
  5
62F
330
17
100
AcDbEntity
  8
SUNPOU
100
AcDbText
 10
10280.76093427418
 20
323.1882423430688
 30
0.0
 40
50.0
  1
ｋｇ
  7
NIHONGO
 72
     2
 11
10380.76093427418
 21
323.1882423430688
 31
0.0
100
AcDbText
  0
TEXT
  5
630
330
17
100
AcDbEntity
  8
SUNPOU
100
AcDbText
 10
9690.760934274182
 20
228.188242343069
 30
0.0
 40
50.0
  1
年 月 日
  7
NIHONGO
 72
     4
 11
9800.760934274182
 21
253.188242343069
 31
0.0
100
AcDbText
  0
TEXT
  5
631
330
17
100
AcDbEntity
  8
SUNPOU
100
AcDbText
 10
9687.427600940848
 20
328.1882423430688
 30
0.0
 40
50.0
  1
製品質量
  7
NIHONGO
 72
     4
 11
9800.760934274182
 21
353.1882423430688
 31
0.0
100
AcDbText
  0
TEXT
  5
632
330
17
100
AcDbEntity
  8
SUNPOU
100
AcDbText
 10
9689.094267607516
 20
428.1882423430689
 30
0.0
 40
50.0
  1
業 者 名
  7
NIHONGO
 72
     4
 11
9800.760934274182
 21
453.1882423430689
 31
0.0
100
AcDbText
  0
TEXT
  5
633
330
17
100
AcDbEntity
  8
SUNPOU
100
AcDbText
 10
9687.427600940848
 20
553.1882423430689
 30
0.0
 40
50.0
  1
名　　称
  7
NIHONGO
 72
     4
 11
9800.760934274182
 21
578.1882423430689
 31
0.0
100
AcDbText
  0
LINE
  5
634
330
17
100
AcDbEntity
  8
SUNPOU
100
AcDbLine
 10
10250.76093427418
 20
123.1882423430693
 30
0.0
 11
9650.760934274182
 21
123.1882423430693
 31
0.0
  0
LINE
  5
635
330
17
100
AcDbEntity
  8
SUNPOU
100
AcDbLine
 10
10840.76093427418
 20
3.188242343068396
 30
0.0
 11
10840.76093427418
 21
203.1882423430689
 31
0.0
  0
LINE
  5
636
330
17
100
AcDbEntity
  8
SUNPOU
100
AcDbLine
 10
10700.76093427418
 20
3.188242343068396
 30
0.0
 11
10700.76093427418
 21
203.1882423430689
 31
0.0
  0
LINE
  5
637
330
17
100
AcDbEntity
  8
SUNPOU
100
AcDbLine
 10
10340.76093427418
 20
3.18824234306885
 30
0.0
 11
10340.76093427418
 21
203.1882423430689
 31
0.0
  0
LINE
  5
638
330
17
100
AcDbEntity
  8
SUNPOU
100
AcDbLine
 10
10250.76093427418
 20
3.18824234306885
 30
0.0
 11
10250.76093427418
 21
203.1882423430689
 31
0.0
  0
LINE
  5
639
330
17
100
AcDbEntity
  8
SUNPOU
100
AcDbLine
 10
9950.760934274182
 20
203.1882423430689
 30
0.0
 11
9950.760934274182
 21
653.1882423430689
 31
0.0
  0
LINE
  5
63A
330
17
100
AcDbEntity
  8
SUNPOU
100
AcDbLine
 10
10700.76093427418
 20
203.1882423430689
 30
0.0
 11
10700.76093427418
 21
503.1882423430689
 31
0.0
  0
LINE
  5
63B
330
17
100
AcDbEntity
  8
SUNPOU
100
AcDbLine
 10
10400.76093427418
 20
203.1882423430689
 30
0.0
 11
10400.76093427418
 21
503.1882423430689
 31
0.0
  0
LINE
  5
63C
330
17
100
AcDbEntity
  8
SUNPOU
100
AcDbLine
 10
11150.76093427418
 20
503.1882423430689
 30
0.0
 11
9650.760934274182
 21
503.1882423430689
 31
0.0
  0
LINE
  5
63D
330
17
100
AcDbEntity
  8
SUNPOU
100
AcDbLine
 10
11150.76093427418
 20
403.1882423430689
 30
0.0
 11
9650.760934274182
 21
403.1882423430689
 31
0.0
  0
LINE
  5
63E
330
17
100
AcDbEntity
  8
SUNPOU
100
AcDbLine
 10
11150.76093427418
 20
303.1882423430689
 30
0.0
 11
9650.760934274182
 21
303.1882423430689
 31
0.0
  0
LINE
  5
63F
330
17
100
AcDbEntity
  8
SUNPOU
100
AcDbLine
 10
11150.76093427418
 20
203.1882423430689
 30
0.0
 11
9650.760934274182
 21
203.1882423430698
 31
0.0
  0
LINE
  5
640
330
17
100
AcDbEntity
  8
HAIKIN
100
AcDbLine
 10
9650.760934274182
 20
653.1882423430689
 30
0.0
 11
11150.76093427418
 21
653.1882423430689
 31
0.0
  0
LINE
  5
641
330
17
100
AcDbEntity
  8
HAIKIN
100
AcDbLine
 10
9650.760934274182
 20
3.188242343069305
 30
0.0
 11
9650.760934274182
 21
653.1882423430689
 31
0.0
  0
TEXT
  5
642
330
17
100
AcDbEntity
  8
SUNPOU
100
AcDbText
 10
10850.76093427418
 20
223.1882423430689
 30
0.0
 40
60.0
  1
 20
  7
A
100
AcDbText
  0
TEXT
  5
644
330
17
100
AcDbEntity
  8
SUNPOU
100
AcDbText
 10
9987.20107205724
 20
527.0471021242492
 30
0.0
 40
80.0
  1
デザインウォールコーナー　H=3000
 41
0.6805363586749399
  7
A
 72
     5
 11
11117.79880926921
 21
527.0471021242492
 31
0.0
100
AcDbText
  0
LWPOLYLINE
  5
646
330
17
100
AcDbEntity
  8
HAIKIN
100
AcDbPolyline
 90
        4
 70
     1
 43
0.0
 10
11154.78343630826
 20
7832.039940919411
 10
226.7808576631921
 20
7832.039940919411
 10
226.7808576631921
 20
0.0
 10
11154.78343630826
 20
0.0
  0
TEXT
  5
64C
330
17
100
AcDbEntity
  8
SUNPOU
100
AcDbText
 10
8483.290085810027
 20
3977.040928626652
 30
0.0
 40
60.0
  1
        
  7
A
100
AcDbText
  0
TEXT
  5
64D
330
17
100
AcDbEntity
  8
SUNPOU
100
AcDbText
 10
8179.290085810027
 20
3964.945264685842
 30
0.0
 40
60.0
  1
      
  7
A
100
AcDbText
  0
TEXT
  5
64E
330
17
100
AcDbEntity
  8
SUNPOU
100
AcDbText
 10
2451.856152230769
 20
3880.638544059962
 30
0.0
 40
60.0
  1
        
  7
A
100
AcDbText
  0
TEXT
  5
64F
330
17
100
AcDbEntity
  8
SUNPOU
100
AcDbText
 10
2633.180408178521
 20
3880.638544059962
 30
0.0
 40
60.0
  1
        
  7
A
100
AcDbText
  0
TEXT
  5
650
330
17
100
AcDbEntity
  8
SUNPOU
100
AcDbText
 10
6061.770217380291
 20
3834.556802440616
 30
0.0
 40
60.0
  1
   
  7
A
100
AcDbText
  0
TEXT
  5
651
330
17
100
AcDbEntity
  8
SUNPOU
100
AcDbText
 10
5745.082194249918
 20
4001.545985117913
 30
0.0
 40
60.0
  1
     
  7
A
100
AcDbText
  0
TEXT
  5
652
330
17
100
AcDbEntity
  8
SUNPOU
100
AcDbText
 10
2734.670711343414
 20
3880.63854405996
 30
0.0
 40
60.0
  1
    
  7
A
100
AcDbText
  0
TEXT
  5
653
330
17
100
AcDbEntity
  8
SUNPOU
100
AcDbText
 10
2824.062725563335
 20
3880.63854405996
 30
0.0
 40
60.0
  1
    
  7
A
100
AcDbText
  0
TEXT
  5
654
330
17
100
AcDbEntity
  8
SUNPOU
100
AcDbText
 10
2114.468887493882
 20
4119.795362913077
 30
0.0
 40
60.0
  1
   
  7
A
100
AcDbText
  0
TEXT
  5
655
330
17
100
AcDbEntity
  8
SUNPOU
100
AcDbText
 10
2617.049640001411
 20
3880.63854405996
 30
0.0
 40
60.0
  1
    
  7
A
100
AcDbText
  0
LINE
  5
656
330
17
100
AcDbEntity
  8
SEIHIN
100
AcDbLine
 10
4047.96097767145
 20
3834.99632079107
 30
0.0
 11
1047.96097767145
 21
3834.99632079107
 31
0.0
  0
LINE
  5
657
330
17
100
AcDbEntity
  8
SEIHIN
100
AcDbLine
 10
1047.96097767145
 20
3834.99632079107
 30
0.0
 11
1047.96097767145
 21
3904.99632079107
 31
0.0
  0
LINE
  5
658
330
17
100
AcDbEntity
  8
SEIHIN
100
AcDbLine
 10
1047.96097767145
 20
3904.99632079107
 30
0.0
 11
1097.96097767145
 21
3904.99632079107
 31
0.0
  0
LINE
  5
659
330
17
100
AcDbEntity
  8
SEIHIN
100
AcDbLine
 10
1097.96097767145
 20
3904.99632079107
 30
0.0
 11
1097.96097767145
 21
3954.99632079107
 31
0.0
  0
LINE
  5
65A
330
17
100
AcDbEntity
  8
SEIHIN
100
AcDbLine
 10
4047.96097767145
 20
4834.99632079107
 30
0.0
 11
3827.96097767145
 21
4834.99632079107
 31
0.0
  0
LINE
  5
65B
330
17
100
AcDbEntity
  8
SEIHIN
100
AcDbLine
 10
3827.96097767145
 20
4834.99632079107
 30
0.0
 11
1047.96097767145
 21
4834.99632079107
 31
0.0
  0
LINE
  5
65C
330
17
100
AcDbEntity
  8
SEIHIN
100
AcDbLine
 10
1047.96097767145
 20
3904.99632079107
 30
0.0
 11
1047.96097767145
 21
6834.99632079107
 31
0.0
  0
LINE
  5
65D
330
17
100
AcDbEntity
  8
SEIHIN
100
AcDbLine
 10
1097.96097767145
 20
3954.99632079107
 30
0.0
 11
1097.96097767145
 21
4834.996320791069
 31
0.0
  0
LINE
  5
65E
330
17
100
AcDbEntity
  8
SEIHIN
100
AcDbLine
 10
4047.96097767145
 20
6834.99632079107
 30
0.0
 11
4047.96097767145
 21
3834.99632079107
 31
0.0
  0
LINE
  5
65F
330
17
100
AcDbEntity
  8
SEIHIN
100
AcDbLine
 10
6763.695978145971
 20
4834.996320791071
 30
0.0
 11
6243.695978145972
 21
4834.99632079107
 31
0.0
  0
LINE
  5
660
330
17
100
AcDbEntity
  8
SEIHIN
100
AcDbLine
 10
7243.69597814597
 20
3834.99632079107
 30
0.0
 11
6268.69597814597
 21
3834.99632079107
 31
0.0
  0
LINE
  5
661
330
17
100
AcDbEntity
  8
SEIHIN
100
AcDbLine
 10
6243.695978145972
 20
4834.99632079107
 30
0.0
 11
6243.69597814597
 21
3859.99632079107
 31
0.0
  0
LINE
  5
662
330
17
100
AcDbEntity
  8
SEIHIN
100
AcDbLine
 10
7243.69597814597
 20
4354.996320791071
 30
0.0
 11
7243.69597814597
 21
3834.99632079107
 31
0.0
  0
LINE
  5
663
330
17
100
AcDbEntity
  8
SEIHIN
100
AcDbLine
 10
6268.695978145971
 20
3834.99632079107
 30
0.0
 11
6243.695978145971
 21
3859.996320791071
 31
0.0
  0
LINE
  5
664
330
17
100
AcDbEntity
  8
SEIHIN
100
AcDbLine
 10
7243.69597814597
 20
3904.99632079107
 30
0.0
 11
6338.695978145972
 21
3904.99632079107
 31
0.0
  0
LINE
  5
665
330
17
100
AcDbEntity
  8
SEIHIN
100
AcDbLine
 10
6313.695978145972
 20
4834.99632079107
 30
0.0
 11
6313.69597814597
 21
3929.996320791071
 31
0.0
  0
LINE
  5
666
330
17
100
AcDbEntity
  8
SEIHIN
100
AcDbLine
 10
7042.097506974041
 20
3954.99632079107
 30
0.0
 11
6388.695978145971
 21
3954.99632079107
 31
0.0
  0
LINE
  5
667
330
17
100
AcDbEntity
  8
SEIHIN
100
AcDbLine
 10
6363.695978145972
 20
4834.99632079107
 30
0.0
 11
6363.695978145971
 21
3979.996320791071
 31
0.0
  0
LINE
  5
668
330
17
100
AcDbEntity
  8
SEIHIN
100
AcDbLine
 10
7243.69597814597
 20
4054.99632079107
 30
0.0
 11
6488.695978145971
 21
4054.99632079107
 31
0.0
  0
LINE
  5
669
330
17
100
AcDbEntity
  8
SEIHIN
100
AcDbLine
 10
6463.695978145972
 20
4834.99632079107
 30
0.0
 11
6463.695978145972
 21
4079.996320791071
 31
0.0
  0
LINE
  5
66A
330
17
100
AcDbEntity
  8
SEIHIN
100
AcDbLine
 10
7243.69597814597
 20
4354.996320791071
 30
0.0
 11
6788.695978145972
 21
4354.996320791071
 31
0.0
  0
LINE
  5
66B
330
17
100
AcDbEntity
  8
SEIHIN
100
AcDbLine
 10
6763.695978145972
 20
4834.996320791069
 30
0.0
 11
6763.695978145971
 21
4379.996320791071
 31
0.0
  0
LINE
  5
66C
330
17
100
AcDbEntity
  8
SEIHIN
100
AcDbLine
 10
6243.695978145971
 20
3859.996320791071
 30
0.0
 11
6763.695978145971
 21
4379.996320791071
 31
0.0
  0
LINE
  5
66D
330
17
100
AcDbEntity
  8
SEIHIN
100
AcDbLine
 10
6268.695978145971
 20
3834.99632079107
 30
0.0
 11
6788.695978145972
 21
4354.996320791071
 31
0.0
  0
LINE
  5
66E
330
17
100
AcDbEntity
  8
SEIHIN
100
AcDbLine
 10
6763.695978145971
 20
4379.996320791071
 30
0.0
 11
6788.695978145972
 21
4354.996320791071
 31
0.0
  0
LINE
  5
66F
330
17
100
AcDbEntity
  8
SEIHIN
100
AcDbLine
 10
6463.695978145971
 20
4079.996320791071
 30
0.0
 11
6488.695978145971
 21
4054.99632079107
 31
0.0
  0
LINE
  5
670
330
17
100
AcDbEntity
  8
SEIHIN
100
AcDbLine
 10
6363.695978145971
 20
3979.996320791071
 30
0.0
 11
6388.695978145971
 21
3954.996320791069
 31
0.0
  0
LINE
  5
671
330
17
100
AcDbEntity
  8
SEIHIN
100
AcDbLine
 10
6313.69597814597
 20
3929.99632079107
 30
0.0
 11
6338.695978145971
 21
3904.99632079107
 31
0.0
  0
LINE
  5
672
330
17
100
AcDbEntity
  8
SEIHIN
100
AcDbLine
 10
7243.69597814597
 20
3834.99632079107
 30
0.0
 11
9243.69597814597
 21
3834.99632079107
 31
0.0
  0
LINE
  5
673
330
17
100
AcDbEntity
  8
SEIHIN
100
AcDbLine
 10
6243.695978145973
 20
4834.996320791071
 30
0.0
 11
6243.695978145973
 21
6834.996320791071
 31
0.0
  0
LINE
  5
689
330
17
100
AcDbEntity
  8
HASEN
100
AcDbLine
 10
2730.227947380108
 20
3939.920484364051
 30
0.0
 11
2770.178265742026
 21
3941.913487821489
 31
0.0
  0
LINE
  5
68A
330
17
100
AcDbEntity
  8
HASEN
100
AcDbLine
 10
2797.898875623849
 20
3988.310660297225
 30
0.0
 11
2798.646251920387
 21
3973.329290911505
 31
0.0
  0
LINE
  5
68B
330
17
100
AcDbEntity
  8
HASEN
100
AcDbLine
 10
2698.023079719051
 20
3983.328151653631
 30
0.0
 11
2698.770456015591
 21
3968.346782267912
 31
0.0
  0
ARC
  5
68C
330
17
100
AcDbEntity
  8
HASEN
100
AcDbCircle
 10
2728.733194787029
 20
3969.88322313549
 30
0.0
 40
30.0
100
AcDbArc
 50
182.8559496667364
 51
272.8559496667366
  0
ARC
  5
68D
330
17
100
AcDbEntity
  8
HASEN
100
AcDbCircle
 10
2768.683513148948
 20
3971.876226592928
 30
0.0
 40
30.0
100
AcDbArc
 50
272.8559496667368
 51
2.855949666736421
  0
DIMENSION
  5
694
330
17
100
AcDbEntity
  8
SUNPOU
100
AcDbDimension
  2
*D103
 10
4047.96097767145
 20
3030.421183860853
 30
0.0
 11
2608.67517831137
 21
3090.421183860853
 31
0.0
 70
   128
 71
     5
 42
-1.0
100
AcDbAlignedDimension
 13
1047.96097767145
 23
3834.99632079107
 33
0.0
 14
4047.96097767145
 24
3834.99632079107
 34
0.0
100
AcDbRotatedDimension
1001
ACAD_DSTYLE_DIMARC_LENGTH_SYMBOL
1070
   379
1070
     0
1001
ACAD_DSTYLE_DIMJOGGED_JOGANGLE_SYMBOL
1070
   384
1040
0.7853981633974483
1001
ACAD_DSTYLE_DIMTEXT_FILL
1070
   376
1070
     0
1001
ACAD_DSTYLE_DIMEXT_ENABLED
1070
   383
1070
     0
1001
ACAD_DSTYLE_DIMEXT_LENGTH
1070
   378
1040
1.0
1001
ACAD_DSTYLE_DIM_LINETYPE
1070
   380
1005
0
1001
ACAD_DSTYLE_DIM_EXT1_LINETYPE
1070
   381
1005
0
1001
ACAD_DSTYLE_DIM_EXT2_LINETYPE
1070
   382
1005
0
  0
DIMENSION
  5
695
330
17
100
AcDbEntity
  8
SUNPOU
100
AcDbDimension
  2
*D12
 10
3827.96097767145
 20
3228.184291065701
 30
0.0
 11
3937.96097767145
 21
3288.184291065701
 31
0.0
 12
0.0
 22
1128.148115722516
 32
0.0
 70
   128
 71
     5
 42
-1.0
100
AcDbAlignedDimension
 13
4047.96097767145
 23
3834.99632079107
 33
0.0
 14
3827.96097767145
 24
3834.99632079107
 34
0.0
100
AcDbRotatedDimension
1001
ACAD_DSTYLE_DIMARC_LENGTH_SYMBOL
1070
   379
1070
     0
1001
ACAD_DSTYLE_DIMJOGGED_JOGANGLE_SYMBOL
1070
   384
1040
0.7853981633974483
1001
ACAD_DSTYLE_DIMTEXT_FILL
1070
   376
1070
     0
1001
ACAD_DSTYLE_DIMEXT_ENABLED
1070
   383
1070
     0
1001
ACAD_DSTYLE_DIMEXT_LENGTH
1070
   378
1040
1.0
1001
ACAD_DSTYLE_DIM_LINETYPE
1070
   380
1005
0
1001
ACAD_DSTYLE_DIM_EXT1_LINETYPE
1070
   381
1005
0
1001
ACAD_DSTYLE_DIM_EXT2_LINETYPE
1070
   382
1005
0
  0
DIMENSION
  5
696
330
17
100
AcDbEntity
  8
SUNPOU
100
AcDbDimension
  2
*D104
 10
3827.96097767145
 20
3228.184291065701
 30
0.0
 11
2599.135772940424
 21
3288.184291065701
 31
0.0
 70
   128
 71
     5
 42
-1.0
100
AcDbAlignedDimension
 13
1047.96097767145
 23
3277.625067866913
 33
0.0
 14
3827.96097767145
 24
3327.065844668125
 34
0.0
100
AcDbRotatedDimension
1001
ACAD_DSTYLE_DIMARC_LENGTH_SYMBOL
1070
   379
1070
     0
1001
ACAD_DSTYLE_DIMJOGGED_JOGANGLE_SYMBOL
1070
   384
1040
0.7853981633974483
1001
ACAD_DSTYLE_DIMTEXT_FILL
1070
   376
1070
     0
1001
ACAD_DSTYLE_DIMEXT_ENABLED
1070
   383
1070
     0
1001
ACAD_DSTYLE_DIMEXT_LENGTH
1070
   378
1040
1.0
1001
ACAD_DSTYLE_DIM_LINETYPE
1070
   380
1005
0
1001
ACAD_DSTYLE_DIM_EXT1_LINETYPE
1070
   381
1005
0
1001
ACAD_DSTYLE_DIM_EXT2_LINETYPE
1070
   382
1005
0
  0
DIMENSION
  5
699
330
17
100
AcDbEntity
  8
SUNPOU
100
AcDbDimension
  2
*D3
 10
4898.032434938416
 20
3834.99632079107
 30
0.0
 11
4838.032434938416
 21
4334.99632079107
 31
0.0
 12
0.0
 22
1128.148115722516
 32
0.0
 71
     5
 42
-1.0
100
AcDbAlignedDimension
 13
4047.96097767145
 23
4834.99632079107
 33
0.0
 14
4047.96097767145
 24
3834.99632079107
 34
0.0
 50
90.0
100
AcDbRotatedDimension
1001
ACAD_DSTYLE_DIMARC_LENGTH_SYMBOL
1070
   379
1070
     0
1001
ACAD_DSTYLE_DIMJOGGED_JOGANGLE_SYMBOL
1070
   384
1040
0.7853981633974483
1001
ACAD_DSTYLE_DIMTEXT_FILL
1070
   376
1070
     0
1001
ACAD_DSTYLE_DIMEXT_ENABLED
1070
   383
1070
     0
1001
ACAD_DSTYLE_DIMEXT_LENGTH
1070
   378
1040
1.0
1001
ACAD_DSTYLE_DIM_LINETYPE
1070
   380
1005
0
1001
ACAD_DSTYLE_DIM_EXT1_LINETYPE
1070
   381
1005
0
1001
ACAD_DSTYLE_DIM_EXT2_LINETYPE
1070
   382
1005
0
  0
DIMENSION
  5
69A
330
17
100
AcDbEntity
  8
SUNPOU
100
AcDbDimension
  2
*D4
 10
4680.88079932299
 20
4054.99632079107
 30
0.0
 11
4620.88079932299
 21
3944.99632079107
 31
0.0
 12
0.0
 22
1128.148115722516
 32
0.0
 71
     5
 42
-1.0
100
AcDbAlignedDimension
 13
4047.96097767145
 23
3834.99632079107
 33
0.0
 14
4047.96097767145
 24
4054.99632079107
 34
0.0
 50
90.0
100
AcDbRotatedDimension
1001
ACAD_DSTYLE_DIMARC_LENGTH_SYMBOL
1070
   379
1070
     0
1001
ACAD_DSTYLE_DIMJOGGED_JOGANGLE_SYMBOL
1070
   384
1040
0.7853981633974483
1001
ACAD_DSTYLE_DIMTEXT_FILL
1070
   376
1070
     0
1001
ACAD_DSTYLE_DIMEXT_ENABLED
1070
   383
1070
     0
1001
ACAD_DSTYLE_DIMEXT_LENGTH
1070
   378
1040
1.0
1001
ACAD_DSTYLE_DIM_LINETYPE
1070
   380
1005
0
1001
ACAD_DSTYLE_DIM_EXT1_LINETYPE
1070
   381
1005
0
1001
ACAD_DSTYLE_DIM_EXT2_LINETYPE
1070
   382
1005
0
  0
DIMENSION
  5
69B
330
17
100
AcDbEntity
  8
SUNPOU
100
AcDbDimension
  2
*D5
 10
4680.88079932299
 20
4834.99632079107
 30
0.0
 11
4620.88079932299
 21
4444.99632079107
 31
0.0
 12
0.0
 22
1128.148115722516
 32
0.0
 71
     5
 42
-1.0
100
AcDbAlignedDimension
 13
4522.952337057226
 23
4054.99632079107
 33
0.0
 14
4616.722361527523
 24
4834.99632079107
 34
0.0
 50
90.0
100
AcDbRotatedDimension
1001
ACAD_DSTYLE_DIMARC_LENGTH_SYMBOL
1070
   379
1070
     0
1001
ACAD_DSTYLE_DIMJOGGED_JOGANGLE_SYMBOL
1070
   384
1040
0.7853981633974483
1001
ACAD_DSTYLE_DIMTEXT_FILL
1070
   376
1070
     0
1001
ACAD_DSTYLE_DIMEXT_ENABLED
1070
   383
1070
     0
1001
ACAD_DSTYLE_DIMEXT_LENGTH
1070
   378
1040
1.0
1001
ACAD_DSTYLE_DIM_LINETYPE
1070
   380
1005
0
1001
ACAD_DSTYLE_DIM_EXT1_LINETYPE
1070
   381
1005
0
1001
ACAD_DSTYLE_DIM_EXT2_LINETYPE
1070
   382
1005
0
  0
DIMENSION
  5
69E
330
17
100
AcDbEntity
  8
SUNPOU
100
AcDbDimension
  2
*D96
 10
660.7964592476546
 20
3954.99632079107
 30
0.0
 11
600.7964592476546
 21
3907.624669825374
 31
0.0
 12
-250.0
 22
0.0
 32
0.0
 70
   128
 71
     5
 42
-1.0
100
AcDbAlignedDimension
 13
1047.96097767145
 23
3834.99632079107
 33
0.0
 14
1047.96097767145
 24
3954.99632079107
 34
0.0
 50
90.0
100
AcDbRotatedDimension
1001
ACAD_DSTYLE_DIMARC_LENGTH_SYMBOL
1070
   379
1070
     0
1001
ACAD_DSTYLE_DIMJOGGED_JOGANGLE_SYMBOL
1070
   384
1040
0.7853981633974483
1001
ACAD_DSTYLE_DIMTEXT_FILL
1070
   376
1070
     0
1001
ACAD_DSTYLE_DIMEXT_ENABLED
1070
   383
1070
     0
1001
ACAD_DSTYLE_DIMEXT_LENGTH
1070
   378
1040
1.0
1001
ACAD_DSTYLE_DIM_LINETYPE
1070
   380
1005
0
1001
ACAD_DSTYLE_DIM_EXT1_LINETYPE
1070
   381
1005
0
1001
ACAD_DSTYLE_DIM_EXT2_LINETYPE
1070
   382
1005
0
  0
DIMENSION
  5
69F
330
17
100
AcDbEntity
  8
SUNPOU
100
AcDbDimension
  2
*D95
 10
877.9480948630808
 20
3904.99632079107
 30
0.0
 11
817.9480948630803
 21
3758.519426943434
 31
0.0
 12
-250.0
 22
0.0
 32
0.0
 70
   128
 71
     5
 42
-1.0
100
AcDbAlignedDimension
 13
1047.96097767145
 23
3834.99632079107
 33
0.0
 14
1047.96097767145
 24
3904.99632079107
 34
0.0
 50
90.0
100
AcDbRotatedDimension
1001
ACAD_DSTYLE_DIMARC_LENGTH_SYMBOL
1070
   379
1070
     0
1001
ACAD_DSTYLE_DIMJOGGED_JOGANGLE_SYMBOL
1070
   384
1040
0.7853981633974483
1001
ACAD_DSTYLE_DIMTEXT_FILL
1070
   376
1070
     0
1001
ACAD_DSTYLE_DIMEXT_ENABLED
1070
   383
1070
     0
1001
ACAD_DSTYLE_DIMEXT_LENGTH
1070
   378
1040
1.0
1001
ACAD_DSTYLE_DIM_LINETYPE
1070
   380
1005
0
1001
ACAD_DSTYLE_DIM_EXT1_LINETYPE
1070
   381
1005
0
1001
ACAD_DSTYLE_DIM_EXT2_LINETYPE
1070
   382
1005
0
  0
DIMENSION
  5
6A0
330
17
100
AcDbEntity
  8
SUNPOU
100
AcDbDimension
  2
*D94
 10
877.9480948630808
 20
3954.99632079107
 30
0.0
 11
817.9480948630803
 21
4119.99632079107
 31
0.0
 12
-250.0
 22
0.0
 32
0.0
 70
   128
 71
     5
 42
-1.0
100
AcDbAlignedDimension
 13
907.5596815379104
 23
3904.99632079107
 33
0.0
 14
772.311554007707
 24
3954.99632079107
 34
0.0
 50
90.0
100
AcDbRotatedDimension
1001
ACAD_DSTYLE_DIMARC_LENGTH_SYMBOL
1070
   379
1070
     0
1001
ACAD_DSTYLE_DIMJOGGED_JOGANGLE_SYMBOL
1070
   384
1040
0.7853981633974483
1001
ACAD_DSTYLE_DIMTEXT_FILL
1070
   376
1070
     0
1001
ACAD_DSTYLE_DIMEXT_ENABLED
1070
   383
1070
     0
1001
ACAD_DSTYLE_DIMEXT_LENGTH
1070
   378
1040
1.0
1001
ACAD_DSTYLE_DIM_LINETYPE
1070
   380
1005
0
1001
ACAD_DSTYLE_DIM_EXT1_LINETYPE
1070
   381
1005
0
1001
ACAD_DSTYLE_DIM_EXT2_LINETYPE
1070
   382
1005
0
  0
TEXT
  5
6A2
330
17
100
AcDbEntity
  8
SUNPOU
100
AcDbText
 10
2894.832954375092
 20
3396.108236114574
 30
0.0
 40
60.0
  1
    
  7
A
100
AcDbText
  0
LINE
  5
6A3
330
17
100
AcDbEntity
  8
SEIHIN
100
AcDbLine
 10
7243.69597814597
 20
3904.99632079107
 30
0.0
 11
9243.69597814597
 21
3904.99632079107
 31
0.0
  0
LINE
  5
6A4
330
17
100
AcDbEntity
  8
SEIHIN
100
AcDbLine
 10
6313.695978145973
 20
4834.996320791071
 30
0.0
 11
6313.695978145973
 21
6834.996320791071
 31
0.0
  0
LINE
  5
6A5
330
17
100
AcDbEntity
  8
SEIHIN
100
AcDbLine
 10
7243.69597814597
 20
3904.99632079107
 30
0.0
 11
9243.69597814597
 21
3904.99632079107
 31
0.0
  0
LINE
  5
6A6
330
17
100
AcDbEntity
  8
SEIHIN
100
AcDbLine
 10
7243.69597814597
 20
4014.99632079107
 30
0.0
 11
9243.69597814597
 21
4014.99632079107
 31
0.0
  0
LINE
  5
6A7
330
17
100
AcDbEntity
  8
SEIHIN
100
AcDbLine
 10
6423.695978145973
 20
4834.996320791071
 30
0.0
 11
6423.695978145973
 21
6834.996320791071
 31
0.0
  0
LINE
  5
6A8
330
17
100
AcDbEntity
  8
SEIHIN
100
AcDbLine
 10
7251.176293106601
 20
4214.99632079107
 30
0.0
 11
9236.21566318534
 21
4214.99632079107
 31
0.0
  0
LINE
  5
6A9
330
17
100
AcDbEntity
  8
SEIHIN
100
AcDbLine
 10
6623.695978145973
 20
4842.476635751701
 30
0.0
 11
6623.695978145974
 21
6827.516005830441
 31
0.0
  0
LINE
  5
6AA
330
17
100
AcDbEntity
  8
SEIHIN
100
AcDbLine
 10
7275.443710151735
 20
4831.388713737506
 30
0.0
 11
8429.051317205303
 21
5984.996320791071
 31
0.0
  0
LINE
  5
6AB
330
17
100
AcDbEntity
  8
SEIHIN
100
AcDbLine
 10
7240.088371092409
 20
4866.744052796836
 30
0.0
 11
8393.695978145974
 21
6020.351659850398
 31
0.0
  0
CIRCLE
  5
6B8
330
17
100
AcDbEntity
  8
SUNPOU
100
AcDbCircle
 10
7108.69597814597
 20
4534.99632079107
 30
0.0
 40
15.0
  0
CIRCLE
  5
6B9
330
17
100
AcDbEntity
  8
SUNPOU
100
AcDbCircle
 10
7168.69597814597
 20
4534.99632079107
 30
0.0
 40
15.0
  0
CIRCLE
  5
6BA
330
17
100
AcDbEntity
  8
SUNPOU
100
AcDbCircle
 10
7318.69597814597
 20
4534.99632079107
 30
0.0
 40
15.0
  0
CIRCLE
  5
6BB
330
17
100
AcDbEntity
  8
SUNPOU
100
AcDbCircle
 10
7378.69597814597
 20
4534.99632079107
 30
0.0
 40
15.0
  0
CIRCLE
  5
6BC
330
17
100
AcDbEntity
  8
SUNPOU
100
AcDbCircle
 10
6943.695978145974
 20
4969.996320791071
 30
0.0
 40
15.0
  0
CIRCLE
  5
6BD
330
17
100
AcDbEntity
  8
SUNPOU
100
AcDbCircle
 10
6943.695978145973
 20
4909.996320791071
 30
0.0
 40
15.0
  0
CIRCLE
  5
6BE
330
17
100
AcDbEntity
  8
SUNPOU
100
AcDbCircle
 10
6943.695978145973
 20
4759.996320791071
 30
0.0
 40
15.0
  0
CIRCLE
  5
6BF
330
17
100
AcDbEntity
  8
SUNPOU
100
AcDbCircle
 10
6943.695978145973
 20
4699.996320791071
 30
0.0
 40
15.0
  0
LINE
  5
6D4
330
17
100
AcDbEntity
  8
SEIHIN
100
AcDbLine
 10
3827.96097767145
 20
6834.99632079107
 30
0.0
 11
1047.96097767145
 21
6834.99632079107
 31
0.0
  0
LINE
  5
6D5
330
17
100
AcDbEntity
  8
SEIHIN
100
AcDbLine
 10
4047.96097767145
 20
6834.99632079107
 30
0.0
 11
3827.96097767145
 21
6834.99632079107
 31
0.0
  0
LINE
  5
6D6
330
17
100
AcDbEntity
  8
SEIHIN
100
AcDbLine
 10
2317.96097767145
 20
4834.99632079107
 30
0.0
 11
2317.96097767145
 21
5009.99632079107
 31
0.0
  0
LINE
  5
6D7
330
17
100
AcDbEntity
  8
SEIHIN
100
AcDbLine
 10
2377.96097767145
 20
4834.99632079107
 30
0.0
 11
2377.96097767145
 21
5009.99632079107
 31
0.0
  0
LINE
  5
6D8
330
17
100
AcDbEntity
  8
SEIHIN
100
AcDbLine
 10
2377.96097767145
 20
5009.99632079107
 30
0.0
 11
2317.96097767145
 21
5009.99632079107
 31
0.0
  0
LINE
  5
6D9
330
17
100
AcDbEntity
  8
SEIHIN
100
AcDbLine
 10
3377.96097767145
 20
4834.996320791071
 30
0.0
 11
3377.96097767145
 21
5009.996320791071
 31
0.0
  0
LINE
  5
6DA
330
17
100
AcDbEntity
  8
SEIHIN
100
AcDbLine
 10
3377.96097767145
 20
5009.996320791071
 30
0.0
 11
3317.96097767145
 21
5009.996320791071
 31
0.0
  0
LINE
  5
6DB
330
17
100
AcDbEntity
  8
SEIHIN
100
AcDbLine
 10
3317.96097767145
 20
4834.996320791071
 30
0.0
 11
3317.96097767145
 21
5009.996320791071
 31
0.0
  0
CIRCLE
  5
6DF
330
17
100
AcDbEntity
  8
SUNPOU
100
AcDbCircle
 10
3347.960977671449
 20
6334.996320791069
 30
0.0
 40
30.0
  0
CIRCLE
  5
6E0
330
17
100
AcDbEntity
  8
SUNPOU
100
AcDbCircle
 10
3347.960977671449
 20
5334.99632079107
 30
0.0
 40
30.0
  0
CIRCLE
  5
6E1
330
17
100
AcDbEntity
  8
SUNPOU
100
AcDbCircle
 10
3347.960977671449
 20
6334.996320791069
 30
0.0
 40
20.0
  0
CIRCLE
  5
6E2
330
17
100
AcDbEntity
  8
SUNPOU
100
AcDbCircle
 10
3347.960977671449
 20
5334.99632079107
 30
0.0
 40
20.0
  0
LINE
  5
708
330
17
100
AcDbEntity
  8
SEIHIN
100
AcDbLine
 10
7275.443710151735
 20
4831.388713737507
 30
0.0
 11
7243.695978145971
 21
4024.99632079107
 31
0.0
  0
LINE
  5
709
330
17
100
AcDbEntity
  8
SEIHIN
100
AcDbLine
 10
7240.088371092408
 20
4866.744052796836
 30
0.0
 11
6433.695978145973
 21
4834.996320791071
 31
0.0
  0
LWPOLYLINE
  5
70A
330
17
100
AcDbEntity
  8
SEIHIN
100
AcDbPolyline
 90
        4
 70
     1
 43
0.0
 10
6913.695978145974
 20
5009.996320791071
 10
6913.695978145972
 20
4659.996320791071
 10
6973.695978145973
 20
4659.996320791071
 10
6973.695978145975
 20
5009.996320791071
  0
LWPOLYLINE
  5
710
330
17
100
AcDbEntity
  8
SEIHIN
100
AcDbPolyline
 90
        4
 70
     1
 43
0.0
 10
7418.695978145971
 20
4564.99632079107
 10
7068.695978145972
 20
4564.99632079107
 10
7068.69597814597
 20
4504.996320791069
 10
7418.695978145971
 20
4504.99632079107
  0
LINE
  5
716
330
17
100
AcDbEntity
  8
SEIHIN
100
AcDbLine
 10
7216.370396750622
 20
4589.996320791071
 30
0.0
 11
7043.695978145973
 21
4589.996320791071
 31
0.0
  0
LINE
  5
717
330
17
100
AcDbEntity
  8
SEIHIN
100
AcDbLine
 10
7043.695978145973
 20
4589.996320791071
 30
0.0
 11
7043.69597814597
 21
4479.996320791069
 31
0.0
  0
LINE
  5
718
330
17
100
AcDbEntity
  8
SEIHIN
100
AcDbLine
 10
7043.69597814597
 20
4479.996320791069
 30
0.0
 11
7229.16109442504
 21
4479.996320791069
 31
0.0
  0
LINE
  5
719
330
17
100
AcDbEntity
  8
SEIHIN
100
AcDbLine
 10
7218.114582797133
 20
4574.99632079107
 30
0.0
 11
7058.695978145972
 21
4574.99632079107
 31
0.0
  0
LINE
  5
71A
330
17
100
AcDbEntity
  8
SEIHIN
100
AcDbLine
 10
7058.695978145972
 20
4574.99632079107
 30
0.0
 11
7058.69597814597
 21
4494.996320791069
 31
0.0
  0
LINE
  5
71B
330
17
100
AcDbEntity
  8
SEIHIN
100
AcDbLine
 10
7058.69597814597
 20
4494.996320791069
 30
0.0
 11
7227.416908378528
 21
4494.996320791069
 31
0.0
  0
LINE
  5
71C
330
17
100
AcDbEntity
  8
SEIHIN
100
AcDbLine
 10
6888.695978145973
 20
4820.461437070139
 30
0.0
 11
6888.695978145973
 21
4634.996320791071
 31
0.0
  0
LINE
  5
71D
330
17
100
AcDbEntity
  8
SEIHIN
100
AcDbLine
 10
6888.695978145973
 20
4634.996320791071
 30
0.0
 11
6998.695978145974
 21
4634.996320791071
 31
0.0
  0
LINE
  5
71E
330
17
100
AcDbEntity
  8
SEIHIN
100
AcDbLine
 10
6998.695978145974
 20
4634.996320791071
 30
0.0
 11
6998.695978145975
 21
4807.670739395721
 31
0.0
  0
LINE
  5
71F
330
17
100
AcDbEntity
  8
SEIHIN
100
AcDbLine
 10
6903.695978145974
 20
4818.717251023628
 30
0.0
 11
6903.695978145972
 21
4649.996320791071
 31
0.0
  0
LINE
  5
720
330
17
100
AcDbEntity
  8
SEIHIN
100
AcDbLine
 10
6903.695978145972
 20
4649.996320791071
 30
0.0
 11
6983.695978145974
 21
4649.996320791071
 31
0.0
  0
LINE
  5
721
330
17
100
AcDbEntity
  8
SEIHIN
100
AcDbLine
 10
6983.695978145974
 20
4649.996320791071
 30
0.0
 11
6983.695978145974
 21
4809.414925442233
 31
0.0
  0
LINE
  5
722
330
17
100
AcDbEntity
  8
SEIHIN
100
AcDbLine
 10
6888.695978145973
 20
4634.996320791071
 30
0.0
 11
6903.695978145971
 21
4649.996320791071
 31
0.0
  0
LINE
  5
723
330
17
100
AcDbEntity
  8
SEIHIN
100
AcDbLine
 10
6983.695978145974
 20
4649.996320791071
 30
0.0
 11
6998.695978145974
 21
4634.996320791071
 31
0.0
  0
LINE
  5
724
330
17
100
AcDbEntity
  8
SEIHIN
100
AcDbLine
 10
7043.695978145973
 20
4589.996320791071
 30
0.0
 11
7058.695978145972
 21
4574.99632079107
 31
0.0
  0
LINE
  5
725
330
17
100
AcDbEntity
  8
SEIHIN
100
AcDbLine
 10
7043.695978145971
 20
4479.996320791069
 30
0.0
 11
7058.69597814597
 21
4494.996320791069
 31
0.0
  0
LWPOLYLINE
  5
728
330
17
100
AcDbEntity
  8
SEIHIN
100
AcDbPolyline
 90
        4
 70
     0
 43
0.0
 10
2317.96097767145
 20
4834.99632079107
 10
2317.96097767145
 20
4659.99632079107
 10
2377.96097767145
 20
4659.99632079107
 10
2377.96097767145
 20
4834.99632079107
  0
LWPOLYLINE
  5
72E
330
17
100
AcDbEntity
  8
SEIHIN
100
AcDbPolyline
 90
        4
 70
     0
 43
0.0
 10
3377.96097767145
 20
4834.996320791069
 10
3377.960977671449
 20
4659.996320791069
 10
3317.96097767145
 20
4659.996320791069
 10
3317.960977671449
 20
4834.996320791069
  0
TEXT
  5
773
330
17
100
AcDbEntity
  8
SUNPOU
100
AcDbText
 10
2820.075858805928
 20
4155.631763183543
 30
0.0
 40
60.0
  1
    
  7
A
100
AcDbText
  0
TEXT
  5
776
330
17
100
AcDbEntity
  8
SUNPOU
100
AcDbText
 10
3221.06147140403
 20
4046.76911207157
 30
0.0
 40
60.0
  1
    
  7
A
100
AcDbText
  0
TEXT
  5
77C
330
17
100
AcDbEntity
  8
SUNPOU
100
AcDbText
 10
2235.399243958018
 20
4133.985127297313
 30
0.0
 40
60.0
  1
    
  7
A
100
AcDbText
  0
TEXT
  5
77F
330
17
100
AcDbEntity
  8
SUNPOU
100
AcDbText
 10
2745.527423258528
 20
4082.252141712426
 30
0.0
 40
60.0
  1
   
  7
A
100
AcDbText
  0
SOLID
  5
780
330
17
100
AcDbEntity
  8
SUNPOU
100
AcDbTrace
 10
2734.297385346639
 20
4016.330740570129
 30
0.0
 11
2721.523546187711
 21
4012.508854789574
 31
0.0
 12
2739.376123108841
 22
3976.098280203067
 32
0.0
 13
2739.376123108841
 23
3976.098280203067
 33
0.0
  0
TEXT
  5
783
330
17
100
AcDbEntity
  8
SUNPOU
100
AcDbText
 10
2235.399243958018
 20
4069.921404744181
 30
0.0
 40
60.0
  1
    
  7
A
100
AcDbText
  0
TEXT
  5
78C
330
17
100
AcDbEntity
  8
SUNPOU
100
AcDbText
 10
3486.777349761856
 20
3899.113594070004
 30
0.0
 40
60.0
  1
   
  7
A
100
AcDbText
  0
LINE
  5
7BD
330
17
100
AcDbEntity
  8
SEIHIN
100
AcDbLine
 10
7068.69597814597
 20
3924.885293841294
 30
0.0
 11
7068.69597814597
 21
3915.885293841294
 31
0.0
  0
LINE
  5
7BE
330
17
100
AcDbEntity
  8
SEIHIN
100
AcDbLine
 10
7068.69597814597
 20
3915.885293841294
 30
0.0
 11
7418.695978145971
 21
3915.885293841294
 31
0.0
  0
LINE
  5
7BF
330
17
100
AcDbEntity
  8
SEIHIN
100
AcDbLine
 10
7418.695978145971
 20
3915.885293841294
 30
0.0
 11
7418.695978145971
 21
3924.885293841294
 31
0.0
  0
LINE
  5
7C0
330
17
100
AcDbEntity
  8
SEIHIN
100
AcDbLine
 10
7068.69597814597
 20
3924.885293841294
 30
0.0
 11
7418.695978145971
 21
3924.885293841294
 31
0.0
  0
LINE
  5
7C1
330
17
100
AcDbEntity
  8
SEIHIN
100
AcDbLine
 10
7068.69597814597
 20
3915.885293841294
 30
0.0
 11
7058.69597814597
 21
3915.885293841294
 31
0.0
  0
LINE
  5
7C2
330
17
100
AcDbEntity
  8
SEIHIN
100
AcDbLine
 10
7058.69597814597
 20
3915.885293841294
 30
0.0
 11
7042.097506974041
 21
3954.99632079107
 31
0.0
  0
LINE
  5
7C3
330
17
100
AcDbEntity
  8
SEIHIN
100
AcDbLine
 10
7042.097506974041
 20
3954.99632079107
 30
0.0
 11
7243.69597814597
 21
3954.99632079107
 31
0.0
  0
LINE
  5
7C4
330
17
100
AcDbEntity
  8
SUNPOU
100
AcDbLine
 10
7088.695978145971
 20
3939.885293841294
 30
0.0
 11
7128.695978145971
 21
3939.885293841294
 31
0.0
  0
LINE
  5
7C5
330
17
100
AcDbEntity
  8
SUNPOU
100
AcDbLine
 10
7098.695978145971
 20
3939.885293841294
 30
0.0
 11
7098.695978145971
 21
3904.996320791071
 31
0.0
  0
LINE
  5
7C6
330
17
100
AcDbEntity
  8
SUNPOU
100
AcDbLine
 10
7118.695978145971
 20
3939.885293841294
 30
0.0
 11
7118.695978145972
 21
3904.996320791071
 31
0.0
  0
LINE
  5
7C7
330
17
100
AcDbEntity
  8
SUNPOU
100
AcDbLine
 10
7158.695978145971
 20
3939.885293841294
 30
0.0
 11
7158.695978145971
 21
3904.996320791071
 31
0.0
  0
LINE
  5
7C8
330
17
100
AcDbEntity
  8
SUNPOU
100
AcDbLine
 10
7178.695978145971
 20
3939.885293841294
 30
0.0
 11
7178.695978145971
 21
3904.996320791071
 31
0.0
  0
LINE
  5
7C9
330
17
100
AcDbEntity
  8
SUNPOU
100
AcDbLine
 10
7308.695978145971
 20
3939.885293841294
 30
0.0
 11
7308.695978145971
 21
3915.885293841294
 31
0.0
  0
LINE
  5
7CA
330
17
100
AcDbEntity
  8
SUNPOU
100
AcDbLine
 10
7328.69597814597
 20
3939.885293841294
 30
0.0
 11
7328.69597814597
 21
3915.885293841294
 31
0.0
  0
LINE
  5
7CB
330
17
100
AcDbEntity
  8
SUNPOU
100
AcDbLine
 10
7368.695978145972
 20
3939.885293841294
 30
0.0
 11
7368.695978145971
 21
3915.885293841294
 31
0.0
  0
LINE
  5
7CC
330
17
100
AcDbEntity
  8
SUNPOU
100
AcDbLine
 10
7388.695978145971
 20
3939.885293841294
 30
0.0
 11
7388.695978145971
 21
3915.885293841294
 31
0.0
  0
LINE
  5
7CD
330
17
100
AcDbEntity
  8
SUNPOU
100
AcDbLine
 10
7088.695978145971
 20
3939.885293841294
 30
0.0
 11
7088.695978145971
 21
3924.885293841294
 31
0.0
  0
LINE
  5
7CE
330
17
100
AcDbEntity
  8
SUNPOU
100
AcDbLine
 10
7128.695978145971
 20
3939.885293841294
 30
0.0
 11
7128.695978145971
 21
3924.885293841294
 31
0.0
  0
LINE
  5
7CF
330
17
100
AcDbEntity
  8
SUNPOU
100
AcDbLine
 10
7148.695978145971
 20
3939.885293841294
 30
0.0
 11
7148.69597814597
 21
3924.885293841294
 31
0.0
  0
LINE
  5
7D0
330
17
100
AcDbEntity
  8
SUNPOU
100
AcDbLine
 10
7188.695978145971
 20
3939.885293841294
 30
0.0
 11
7188.695978145971
 21
3924.885293841294
 31
0.0
  0
LINE
  5
7D1
330
17
100
AcDbEntity
  8
SUNPOU
100
AcDbLine
 10
7298.695978145971
 20
3939.885293841294
 30
0.0
 11
7298.695978145971
 21
3924.885293841294
 31
0.0
  0
LINE
  5
7D2
330
17
100
AcDbEntity
  8
SUNPOU
100
AcDbLine
 10
7338.69597814597
 20
3939.885293841294
 30
0.0
 11
7338.69597814597
 21
3924.885293841294
 31
0.0
  0
LINE
  5
7D3
330
17
100
AcDbEntity
  8
SUNPOU
100
AcDbLine
 10
7358.695978145972
 20
3939.885293841294
 30
0.0
 11
7358.695978145971
 21
3924.885293841294
 31
0.0
  0
LINE
  5
7D4
330
17
100
AcDbEntity
  8
SUNPOU
100
AcDbLine
 10
7398.695978145971
 20
3939.885293841294
 30
0.0
 11
7398.695978145971
 21
3924.885293841294
 31
0.0
  0
LINE
  5
7D5
330
17
100
AcDbEntity
  8
SUNPOU
100
AcDbLine
 10
7148.695978145971
 20
3939.885293841294
 30
0.0
 11
7188.695978145971
 21
3939.885293841294
 31
0.0
  0
LINE
  5
7D6
330
17
100
AcDbEntity
  8
SUNPOU
100
AcDbLine
 10
7298.695978145971
 20
3939.885293841294
 30
0.0
 11
7338.69597814597
 21
3939.885293841294
 31
0.0
  0
LINE
  5
7D7
330
17
100
AcDbEntity
  8
SUNPOU
100
AcDbLine
 10
7358.695978145972
 20
3939.885293841294
 30
0.0
 11
7398.695978145971
 21
3939.885293841294
 31
0.0
  0
LINE
  5
7DC
330
17
100
AcDbEntity
  8
SEIHIN
100
AcDbLine
 10
6328.633951813221
 20
5009.996320791071
 30
0.0
 11
6328.633951813219
 21
4659.996320791071
 31
0.0
  0
LINE
  5
7DD
330
17
100
AcDbEntity
  8
SEIHIN
100
AcDbLine
 10
6328.633951813219
 20
4659.996320791071
 30
0.0
 11
6337.633951813219
 21
4659.996320791071
 31
0.0
  0
LINE
  5
7DE
330
17
100
AcDbEntity
  8
SEIHIN
100
AcDbLine
 10
6337.633951813221
 20
5009.996320791071
 30
0.0
 11
6328.633951813221
 21
5009.996320791071
 31
0.0
  0
LINE
  5
7DF
330
17
100
AcDbEntity
  8
SEIHIN
100
AcDbLine
 10
6337.633951813221
 20
5009.996320791071
 30
0.0
 11
6337.633951813219
 21
4659.996320791071
 31
0.0
  0
LINE
  5
7E0
330
17
100
AcDbEntity
  8
SEIHIN
100
AcDbLine
 10
6328.633951813219
 20
4659.996320791071
 30
0.0
 11
6328.633951813219
 21
4649.996320791071
 31
0.0
  0
LINE
  5
7E1
330
17
100
AcDbEntity
  8
SEIHIN
100
AcDbLine
 10
6328.633951813219
 20
4649.996320791071
 30
0.0
 11
6363.695978145973
 21
4635.757957502574
 31
0.0
  0
LINE
  5
7E2
330
17
100
AcDbEntity
  8
SUNPOU
100
AcDbLine
 10
6352.633951813221
 20
4992.182438784616
 30
0.0
 11
6352.63395181322
 21
4952.182438784616
 31
0.0
  0
LINE
  5
7E3
330
17
100
AcDbEntity
  8
SUNPOU
100
AcDbLine
 10
6352.633951813221
 20
4982.182438784616
 30
0.0
 11
6313.695978145973
 21
4982.182438784616
 31
0.0
  0
LINE
  5
7E4
330
17
100
AcDbEntity
  8
SUNPOU
100
AcDbLine
 10
6352.633951813221
 20
4962.182438784616
 30
0.0
 11
6313.695978145973
 21
4962.182438784616
 31
0.0
  0
LINE
  5
7E5
330
17
100
AcDbEntity
  8
SUNPOU
100
AcDbLine
 10
6352.633951813221
 20
4992.182438784616
 30
0.0
 11
6337.633951813221
 21
4992.182438784616
 31
0.0
  0
LINE
  5
7E6
330
17
100
AcDbEntity
  8
SUNPOU
100
AcDbLine
 10
6352.633951813221
 20
4952.182438784616
 30
0.0
 11
6337.63395181322
 21
4952.182438784616
 31
0.0
  0
LINE
  5
7E7
330
17
100
AcDbEntity
  8
SUNPOU
100
AcDbLine
 10
6352.63395181322
 20
4922.182438784616
 30
0.0
 11
6313.695978145972
 21
4922.182438784616
 31
0.0
  0
LINE
  5
7E8
330
17
100
AcDbEntity
  8
SUNPOU
100
AcDbLine
 10
6352.633951813221
 20
4932.182438784616
 30
0.0
 11
6337.63395181322
 21
4932.182438784616
 31
0.0
  0
LINE
  5
7E9
330
17
100
AcDbEntity
  8
SUNPOU
100
AcDbLine
 10
6352.63395181322
 20
4902.182438784616
 30
0.0
 11
6313.695978145972
 21
4902.182438784616
 31
0.0
  0
LINE
  5
7EA
330
17
100
AcDbEntity
  8
SUNPOU
100
AcDbLine
 10
6352.63395181322
 20
4892.182438784616
 30
0.0
 11
6337.63395181322
 21
4892.182438784616
 31
0.0
  0
LINE
  5
7EB
330
17
100
AcDbEntity
  8
SUNPOU
100
AcDbLine
 10
6352.63395181322
 20
4772.182438784616
 30
0.0
 11
6313.695978145972
 21
4772.182438784616
 31
0.0
  0
LINE
  5
7EC
330
17
100
AcDbEntity
  8
SUNPOU
100
AcDbLine
 10
6352.63395181322
 20
4782.182438784616
 30
0.0
 11
6337.63395181322
 21
4782.182438784616
 31
0.0
  0
LINE
  5
7ED
330
17
100
AcDbEntity
  8
SUNPOU
100
AcDbLine
 10
6352.633951813219
 20
4752.182438784616
 30
0.0
 11
6313.695978145972
 21
4752.182438784616
 31
0.0
  0
LINE
  5
7EE
330
17
100
AcDbEntity
  8
SUNPOU
100
AcDbLine
 10
6352.633951813219
 20
4742.182438784616
 30
0.0
 11
6337.633951813219
 21
4742.182438784616
 31
0.0
  0
LINE
  5
7EF
330
17
100
AcDbEntity
  8
SUNPOU
100
AcDbLine
 10
6352.633951813219
 20
4712.182438784616
 30
0.0
 11
6313.695978145972
 21
4712.182438784616
 31
0.0
  0
LINE
  5
7F0
330
17
100
AcDbEntity
  8
SUNPOU
100
AcDbLine
 10
6352.633951813219
 20
4722.182438784616
 30
0.0
 11
6337.633951813219
 21
4722.182438784616
 31
0.0
  0
LINE
  5
7F1
330
17
100
AcDbEntity
  8
SUNPOU
100
AcDbLine
 10
6352.633951813219
 20
4692.182438784616
 30
0.0
 11
6313.695978145972
 21
4692.182438784616
 31
0.0
  0
LINE
  5
7F2
330
17
100
AcDbEntity
  8
SUNPOU
100
AcDbLine
 10
6352.633951813219
 20
4682.182438784616
 30
0.0
 11
6337.633951813219
 21
4682.182438784616
 31
0.0
  0
LINE
  5
7F3
330
17
100
AcDbEntity
  8
SUNPOU
100
AcDbLine
 10
6352.63395181322
 20
4932.182438784616
 30
0.0
 11
6352.63395181322
 21
4892.182438784616
 31
0.0
  0
LINE
  5
7F4
330
17
100
AcDbEntity
  8
SUNPOU
100
AcDbLine
 10
6352.63395181322
 20
4782.182438784616
 30
0.0
 11
6352.63395181322
 21
4742.182438784616
 31
0.0
  0
LINE
  5
7F5
330
17
100
AcDbEntity
  8
SUNPOU
100
AcDbLine
 10
6352.63395181322
 20
4722.182438784616
 30
0.0
 11
6352.633951813219
 21
4682.182438784616
 31
0.0
  0
LINE
  5
7F9
330
17
100
AcDbEntity
  8
1HASEN
100
AcDbLine
 10
7226.018308616306
 20
4817.318651261406
 30
0.0
 11
8460.322717330188
 21
6051.62305997528
 31
0.0
  0
LINE
  5
7FA
330
17
100
AcDbEntity
  8
SEIHIN
100
AcDbLine
 10
3867.96097767145
 20
6834.99632079107
 30
0.0
 11
3867.96097767145
 21
4834.99632079107
 31
0.0
  0
LINE
  5
7FB
330
17
100
AcDbEntity
  8
SEIHIN
100
AcDbLine
 10
3667.96097767145
 20
6834.99632079107
 30
0.0
 11
3667.96097767145
 21
4834.99632079107
 31
0.0
  0
LINE
  5
7FC
330
17
100
AcDbEntity
  8
SEIHIN
100
AcDbLine
 10
4047.96097767145
 20
6784.99632079107
 30
0.0
 11
3966.96097767145
 21
6784.99632079107
 31
0.0
  0
LINE
  5
7FD
330
17
100
AcDbEntity
  8
SEIHIN
100
AcDbLine
 10
4047.96097767145
 20
4884.99632079107
 30
0.0
 11
3966.96097767145
 21
4884.99632079107
 31
0.0
  0
LINE
  5
7FE
330
17
100
AcDbEntity
  8
SEIHIN
100
AcDbLine
 10
3966.96097767145
 20
6784.99632079107
 30
0.0
 11
3966.96097767145
 21
4884.996320791071
 31
0.0
  0
LINE
  5
7FF
330
17
100
AcDbEntity
  8
SEIHIN
100
AcDbLine
 10
3966.96097767145
 20
6784.99632079107
 30
0.0
 11
3867.96097767145
 21
6834.99632079107
 31
0.0
  0
LINE
  5
800
330
17
100
AcDbEntity
  8
SEIHIN
100
AcDbLine
 10
3966.96097767145
 20
4884.996320791071
 30
0.0
 11
3867.96097767145
 21
4834.99632079107
 31
0.0
  0
SOLID
  5
802
330
17
100
AcDbEntity
  8
SUNPOU
100
AcDbTrace
 10
3289.995925135061
 20
5358.010140694679
 30
0.0
 11
3282.480848852265
 21
5346.996448932081
 31
0.0
 12
3319.279462281459
 22
5329.958065964991
 32
0.0
 13
3319.279462281459
 23
5329.958065964991
 33
0.0
  0
LINE
  5
803
330
17
100
AcDbEntity
  8
SUNPOU
100
AcDbLine
 10
3286.238386993664
 20
5352.50329481338
 30
0.0
 11
3000.239675030827
 21
5547.651496116874
 31
0.0
  0
LINE
  5
804
330
17
100
AcDbEntity
  8
SUNPOU
100
AcDbLine
 10
3000.239675030827
 20
5547.651496116874
 30
0.0
 11
3000.239675030827
 21
5959.87948087257
 31
0.0
  0
TEXT
  5
805
330
17
100
AcDbEntity
  8
SUNPOU
100
AcDbText
 10
2948.239675030827
 20
5060.89769486348
 30
0.0
 40
60.0
  1
   
  7
A
100
AcDbText
  0
TEXT
  5
806
330
17
100
AcDbEntity
  8
SUNPOU
100
AcDbText
 10
2972.497084835119
 20
5607.864572541864
 30
0.0
 40
60.0
  1
水抜き穴
 50
90.0
  7
A
100
AcDbText
  0
TEXT
  5
807
330
17
100
AcDbEntity
  8
SUNPOU
100
AcDbText
 10
2936.794013595641
 20
3974.143023889141
 30
0.0
 40
60.0
  1
   
  7
A
100
AcDbText
  0
TEXT
  5
80C
330
17
100
AcDbEntity
  8
SUNPOU
100
AcDbText
 10
7282.681355339049
 20
3663.752965077905
 30
0.0
 40
60.0
  1
   
  7
A
100
AcDbText
  0
DIMENSION
  5
80D
330
17
100
AcDbEntity
  8
SUNPOU
100
AcDbDimension
  2
*D23
 10
7243.69597814597
 20
3032.765171194501
 30
0.0
 11
6743.69597814597
 21
3092.765171194501
 31
0.0
 12
0.0
 22
1128.148115722516
 32
0.0
 70
   128
 71
     5
 42
-1.0
100
AcDbAlignedDimension
 13
6243.69597814597
 23
3859.996320791071
 33
0.0
 14
7243.69597814597
 24
3834.99632079107
 34
0.0
100
AcDbRotatedDimension
1001
ACAD_DSTYLE_DIMARC_LENGTH_SYMBOL
1070
   379
1070
     0
1001
ACAD_DSTYLE_DIMJOGGED_JOGANGLE_SYMBOL
1070
   384
1040
0.7853981633974483
1001
ACAD_DSTYLE_DIMTEXT_FILL
1070
   376
1070
     0
1001
ACAD_DSTYLE_DIMEXT_ENABLED
1070
   383
1070
     0
1001
ACAD_DSTYLE_DIMEXT_LENGTH
1070
   378
1040
1.0
1001
ACAD_DSTYLE_DIM_LINETYPE
1070
   380
1005
0
1001
ACAD_DSTYLE_DIM_EXT1_LINETYPE
1070
   381
1005
0
1001
ACAD_DSTYLE_DIM_EXT2_LINETYPE
1070
   382
1005
0
  0
DIMENSION
  5
80E
330
17
100
AcDbEntity
  8
SUNPOU
100
AcDbDimension
  2
*D22
 10
9243.69597814597
 20
3032.7651711945
 30
0.0
 11
8243.69597814597
 21
3092.7651711945
 31
0.0
 12
0.0
 22
1128.148115722516
 32
0.0
 70
   128
 71
     5
 42
-1.0
100
AcDbAlignedDimension
 13
7243.69597814597
 23
3834.99632079107
 33
0.0
 14
9243.69597814597
 24
3834.99632079107
 34
0.0
100
AcDbRotatedDimension
1001
ACAD_DSTYLE_DIMARC_LENGTH_SYMBOL
1070
   379
1070
     0
1001
ACAD_DSTYLE_DIMJOGGED_JOGANGLE_SYMBOL
1070
   384
1040
0.7853981633974483
1001
ACAD_DSTYLE_DIMTEXT_FILL
1070
   376
1070
     0
1001
ACAD_DSTYLE_DIMEXT_ENABLED
1070
   383
1070
     0
1001
ACAD_DSTYLE_DIMEXT_LENGTH
1070
   378
1040
1.0
1001
ACAD_DSTYLE_DIM_LINETYPE
1070
   380
1005
0
1001
ACAD_DSTYLE_DIM_EXT1_LINETYPE
1070
   381
1005
0
1001
ACAD_DSTYLE_DIM_EXT2_LINETYPE
1070
   382
1005
0
  0
DIMENSION
  5
811
330
17
100
AcDbEntity
  8
SUNPOU
100
AcDbDimension
  2
*D19
 10
6943.69597814597
 20
3233.465205997332
 30
0.0
 11
6843.69597814597
 21
3293.465205997332
 31
0.0
 12
0.0
 22
1042.465980351186
 32
0.0
 70
   128
 71
     5
 42
-1.0
100
AcDbAlignedDimension
 13
6743.69597814597
 23
3396.183401466104
 33
0.0
 14
6943.69597814597
 24
3358.215822523391
 34
0.0
100
AcDbRotatedDimension
1001
ACAD_DSTYLE_DIMARC_LENGTH_SYMBOL
1070
   379
1070
     0
1001
ACAD_DSTYLE_DIMJOGGED_JOGANGLE_SYMBOL
1070
   384
1040
0.7853981633974483
1001
ACAD_DSTYLE_DIMTEXT_FILL
1070
   376
1070
     0
1001
ACAD_DSTYLE_DIMEXT_ENABLED
1070
   383
1070
     0
1001
ACAD_DSTYLE_DIMEXT_LENGTH
1070
   378
1040
1.0
1001
ACAD_DSTYLE_DIM_LINETYPE
1070
   380
1005
0
1001
ACAD_DSTYLE_DIM_EXT1_LINETYPE
1070
   381
1005
0
1001
ACAD_DSTYLE_DIM_EXT2_LINETYPE
1070
   382
1005
0
  0
DIMENSION
  5
816
330
17
100
AcDbEntity
  8
SUNPOU
100
AcDbDimension
  2
*D24
 10
5255.966578387869
 20
4834.996320791071
 30
0.0
 11
5195.966578387869
 21
4334.99632079107
 31
0.0
 12
0.0
 22
1128.148115722516
 32
0.0
 71
     5
 42
-1.0
100
AcDbAlignedDimension
 13
6268.69597814597
 23
3834.996320791069
 33
0.0
 14
6243.695978145973
 24
4834.996320791071
 34
0.0
 50
90.0
100
AcDbRotatedDimension
1001
ACAD_DSTYLE_DIMARC_LENGTH_SYMBOL
1070
   379
1070
     0
1001
ACAD_DSTYLE_DIMJOGGED_JOGANGLE_SYMBOL
1070
   384
1040
0.7853981633974483
1001
ACAD_DSTYLE_DIMTEXT_FILL
1070
   376
1070
     0
1001
ACAD_DSTYLE_DIMEXT_ENABLED
1070
   383
1070
     0
1001
ACAD_DSTYLE_DIMEXT_LENGTH
1070
   378
1040
1.0
1001
ACAD_DSTYLE_DIM_LINETYPE
1070
   380
1005
0
1001
ACAD_DSTYLE_DIM_EXT1_LINETYPE
1070
   381
1005
0
1001
ACAD_DSTYLE_DIM_EXT2_LINETYPE
1070
   382
1005
0
  0
DIMENSION
  5
817
330
17
100
AcDbEntity
  8
SUNPOU
100
AcDbDimension
  2
*D25
 10
5255.966578387869
 20
6834.996320791071
 30
0.0
 11
5195.966578387869
 21
5834.996320791071
 31
0.0
 12
0.0
 22
1128.148115722516
 32
0.0
 71
     5
 42
-1.0
100
AcDbAlignedDimension
 13
6243.695978145973
 23
4834.996320791071
 33
0.0
 14
6243.695978145973
 24
6834.996320791071
 34
0.0
 50
90.0
100
AcDbRotatedDimension
1001
ACAD_DSTYLE_DIMARC_LENGTH_SYMBOL
1070
   379
1070
     0
1001
ACAD_DSTYLE_DIMJOGGED_JOGANGLE_SYMBOL
1070
   384
1040
0.7853981633974483
1001
ACAD_DSTYLE_DIMTEXT_FILL
1070
   376
1070
     0
1001
ACAD_DSTYLE_DIMEXT_ENABLED
1070
   383
1070
     0
1001
ACAD_DSTYLE_DIMEXT_LENGTH
1070
   378
1040
1.0
1001
ACAD_DSTYLE_DIM_LINETYPE
1070
   380
1005
0
1001
ACAD_DSTYLE_DIM_EXT1_LINETYPE
1070
   381
1005
0
1001
ACAD_DSTYLE_DIM_EXT2_LINETYPE
1070
   382
1005
0
  0
TEXT
  5
82A
330
17
100
AcDbEntity
  8
SUNPOU
100
AcDbText
 10
8825.500345753597
 20
3618.119712766431
 30
0.0
 40
60.0
  1
    
  7
A
100
AcDbText
  0
TEXT
  5
82B
330
17
100
AcDbEntity
  8
SUNPOU
100
AcDbText
 10
8825.500345753597
 20
3618.119712766431
 30
0.0
 40
60.0
  1
    
  7
A
100
AcDbText
  0
DIMENSION
  5
82C
330
17
100
AcDbEntity
  8
SUNPOU
100
AcDbDimension
  2
*D38
 10
4898.032434938416
 20
4834.99632079107
 30
0.0
 11
4838.032434938416
 21
5834.99632079107
 31
0.0
 12
0.0
 22
1128.148115722516
 32
0.0
 71
     5
 42
-1.0
100
AcDbAlignedDimension
 13
4047.96097767145
 23
6834.99632079107
 33
0.0
 14
4047.96097767145
 24
4834.99632079107
 34
0.0
 50
90.0
100
AcDbRotatedDimension
1001
ACAD_DSTYLE_DIMARC_LENGTH_SYMBOL
1070
   379
1070
     0
1001
ACAD_DSTYLE_DIMJOGGED_JOGANGLE_SYMBOL
1070
   384
1040
0.7853981633974483
1001
ACAD_DSTYLE_DIMTEXT_FILL
1070
   376
1070
     0
1001
ACAD_DSTYLE_DIMEXT_ENABLED
1070
   383
1070
     0
1001
ACAD_DSTYLE_DIMEXT_LENGTH
1070
   378
1040
1.0
1001
ACAD_DSTYLE_DIM_LINETYPE
1070
   380
1005
0
1001
ACAD_DSTYLE_DIM_EXT1_LINETYPE
1070
   381
1005
0
1001
ACAD_DSTYLE_DIM_EXT2_LINETYPE
1070
   382
1005
0
  0
CIRCLE
  5
835
330
17
100
AcDbEntity
  8
SUNPOU
100
AcDbCircle
 10
3347.960977671449
 20
4969.996320791069
 30
0.0
 40
15.0
  0
CIRCLE
  5
836
330
17
100
AcDbEntity
  8
SUNPOU
100
AcDbCircle
 10
3347.960977671449
 20
4909.996320791069
 30
0.0
 40
15.0
  0
CIRCLE
  5
837
330
17
100
AcDbEntity
  8
SUNPOU
100
AcDbCircle
 10
3347.960977671449
 20
4759.996320791069
 30
0.0
 40
15.0
  0
CIRCLE
  5
838
330
17
100
AcDbEntity
  8
SUNPOU
100
AcDbCircle
 10
3347.960977671449
 20
4699.99632079107
 30
0.0
 40
15.0
  0
CIRCLE
  5
839
330
17
100
AcDbEntity
  8
SUNPOU
100
AcDbCircle
 10
2347.96097767145
 20
4969.99632079107
 30
0.0
 40
15.0
  0
CIRCLE
  5
83A
330
17
100
AcDbEntity
  8
SUNPOU
100
AcDbCircle
 10
2347.96097767145
 20
4909.996320791069
 30
0.0
 40
15.0
  0
CIRCLE
  5
83B
330
17
100
AcDbEntity
  8
SUNPOU
100
AcDbCircle
 10
2347.96097767145
 20
4759.996320791069
 30
0.0
 40
15.0
  0
CIRCLE
  5
83C
330
17
100
AcDbEntity
  8
SUNPOU
100
AcDbCircle
 10
2347.96097767145
 20
4699.996320791071
 30
0.0
 40
15.0
  0
LINE
  5
83D
330
17
100
AcDbEntity
  8
SEIHIN
100
AcDbLine
 10
4047.96097767145
 20
756.0872754162879
 30
0.0
 11
1047.96097767145
 21
756.0872754162883
 31
0.0
  0
LINE
  5
83E
330
17
100
AcDbEntity
  8
SEIHIN
100
AcDbLine
 10
4047.960977671449
 20
1756.087275416288
 30
0.0
 11
4047.96097767145
 21
756.0872754162879
 31
0.0
  0
LINE
  5
83F
330
17
100
AcDbEntity
  8
SEIHIN
100
AcDbLine
 10
3927.216452124004
 20
1756.087275416288
 30
0.0
 11
3827.96097767145
 21
1756.087275416288
 31
0.0
  0
LINE
  5
840
330
17
100
AcDbEntity
  8
SEIHIN
100
AcDbLine
 10
3827.96097767145
 20
1756.087275416288
 30
0.0
 11
3827.96097767145
 21
1276.087275416288
 31
0.0
  0
LINE
  5
841
330
17
100
AcDbEntity
  8
SEIHIN
100
AcDbLine
 10
1047.96097767145
 20
756.0872754162883
 30
0.0
 11
1047.96097767145
 21
826.0872754162883
 31
0.0
  0
LINE
  5
842
330
17
100
AcDbEntity
  8
SEIHIN
100
AcDbLine
 10
1097.96097767145
 20
826.0872754162883
 30
0.0
 11
1097.96097767145
 21
876.0872754162883
 31
0.0
  0
LINE
  5
843
330
17
100
AcDbEntity
  8
SEIHIN
100
AcDbLine
 10
1047.96097767145
 20
826.0872754162883
 30
0.0
 11
1097.96097767145
 21
826.0872754162883
 31
0.0
  0
LINE
  5
845
330
17
100
AcDbEntity
  8
SEIHIN
100
AcDbLine
 10
3861.380571323287
 20
1407.549193458678
 30
0.0
 11
3827.96097767145
 21
1401.087275416288
 31
0.0
  0
LINE
  5
846
330
17
100
AcDbEntity
  8
SEIHIN
100
AcDbLine
 10
3868.788813770948
 20
1503.192920581467
 30
0.0
 11
3827.96097767145
 21
1511.087275416288
 31
0.0
  0
LINE
  5
84D
330
17
100
AcDbEntity
  8
HASEN
100
AcDbLine
 10
3334.963746446829
 20
969.2182584456057
 30
0.0
 11
3341.575826716006
 21
854.4085010444426
 31
0.0
  0
LINE
  5
84E
330
17
100
AcDbEntity
  8
HASEN
100
AcDbLine
 10
3354.930660777466
 20
970.3681854489408
 30
0.0
 11
3361.542741046643
 21
855.5584280477776
 31
0.0
  0
LINE
  5
84F
330
17
100
AcDbEntity
  8
SUNPOU
100
AcDbLine
 10
3324.076244895193
 20
969.5495428140614
 30
0.0
 11
3324.938690147695
 21
954.5743570660836
 31
0.0
  0
LINE
  5
850
330
17
100
AcDbEntity
  8
SUNPOU
100
AcDbLine
 10
3364.010073556468
 20
971.8493968207316
 30
0.0
 11
3364.872518808969
 21
956.8742110727538
 31
0.0
  0
LINE
  5
851
330
17
100
AcDbEntity
  8
SUNPOU
100
AcDbLine
 10
3324.076244895193
 20
969.5495428140613
 30
0.0
 11
3364.010073556468
 21
971.8493968207316
 31
0.0
  0
LINE
  5
852
330
17
100
AcDbEntity
  8
HASEN
100
AcDbLine
 10
3341.575826716006
 20
854.4085010444426
 30
0.0
 11
3361.542741046643
 21
855.5584280477776
 31
0.0
  0
LINE
  5
853
330
17
100
AcDbEntity
  8
SEIHIN
100
AcDbLine
 10
3315.341810217193
 20
952.7918902976947
 30
0.0
 11
3375.242553209103
 21
956.2416713077
 31
0.0
  0
LINE
  5
854
330
17
100
AcDbEntity
  8
SUNPOU
100
AcDbLine
 10
2341.497506112593
 20
808.0204587734821
 30
0.0
 11
2361.46442044323
 21
809.1703857768173
 31
0.0
  0
LINE
  5
856
330
17
100
AcDbEntity
  8
HASEN
100
AcDbLine
 10
2336.107641920876
 20
904.8599932770721
 30
0.0
 11
2341.684787887051
 21
808.0204587734821
 31
0.0
  0
LINE
  5
857
330
17
100
AcDbEntity
  8
SUNPOU
100
AcDbLine
 10
2326.124184755557
 20
904.2850297754046
 30
0.0
 11
2326.986630008058
 21
889.3098440274266
 31
0.0
  0
LINE
  5
858
330
17
100
AcDbEntity
  8
HASEN
100
AcDbLine
 10
2356.074556251513
 20
906.0099202804072
 30
0.0
 11
2361.651702217689
 21
809.1703857768174
 31
0.0
  0
LINE
  5
859
330
17
100
AcDbEntity
  8
SUNPOU
100
AcDbLine
 10
2366.058013416832
 20
906.5848837820748
 30
0.0
 11
2366.920458669333
 21
891.6096980340969
 31
0.0
  0
LINE
  5
85A
330
17
100
AcDbEntity
  8
SEIHIN
100
AcDbLine
 10
2317.00317284274
 20
888.7348805257591
 30
0.0
 11
2376.903915834651
 21
892.1846615357645
 31
0.0
  0
LINE
  5
85B
330
17
100
AcDbEntity
  8
SUNPOU
100
AcDbLine
 10
2326.124184755557
 20
904.2850297754045
 30
0.0
 11
2366.058013416832
 21
906.5848837820747
 31
0.0
  0
LINE
  5
85C
330
17
100
AcDbEntity
  8
SEIHIN
100
AcDbLine
 10
2316.815891068282
 20
888.7348805257591
 30
0.0
 11
2317.218365519449
 21
881.7464605100362
 31
0.0
  0
LINE
  5
85D
330
17
100
AcDbEntity
  8
SEIHIN
100
AcDbLine
 10
2376.903915834651
 20
892.1846615357645
 30
0.0
 11
2377.305771164057
 21
885.2069917251706
 31
0.0
  0
DIMENSION
  5
866
330
17
100
AcDbEntity
  8
SUNPOU
100
AcDbDimension
  2
*D93
 10
4047.96097767145
 20
174.0016302637777
 30
0.0
 11
2547.96097767145
 21
234.0016302637777
 31
0.0
 71
     5
 42
-1.0
100
AcDbAlignedDimension
 13
1047.96097767145
 23
756.0872754162883
 33
0.0
 14
4047.96097767145
 24
756.0872754162879
 34
0.0
100
AcDbRotatedDimension
1001
ACAD_DSTYLE_DIMARC_LENGTH_SYMBOL
1070
   379
1070
     0
1001
ACAD_DSTYLE_DIMJOGGED_JOGANGLE_SYMBOL
1070
   384
1040
0.7853981633974483
1001
ACAD_DSTYLE_DIMTEXT_FILL
1070
   376
1070
     0
1001
ACAD_DSTYLE_DIMEXT_ENABLED
1070
   383
1070
     0
1001
ACAD_DSTYLE_DIMEXT_LENGTH
1070
   378
1040
1.0
1001
ACAD_DSTYLE_DIM_LINETYPE
1070
   380
1005
0
1001
ACAD_DSTYLE_DIM_EXT1_LINETYPE
1070
   381
1005
0
1001
ACAD_DSTYLE_DIM_EXT2_LINETYPE
1070
   382
1005
0
  0
LINE
  5
86A
330
17
100
AcDbEntity
  8
HASEN
100
AcDbLine
 10
3927.216452124004
 20
1756.087275416288
 30
0.0
 11
4047.960977671449
 21
1756.087275416288
 31
0.0
  0
DIMENSION
  5
86B
330
17
100
AcDbEntity
  8
SUNPOU
100
AcDbDimension
  2
*D119
 10
4610.038418693806
 20
756.0872754162878
 30
0.0
 11
4550.038418693806
 21
1256.087275416289
 31
0.0
 70
    32
 71
     5
 42
1000.0
  3
STANDARD
100
AcDbAlignedDimension
 13
4047.96097767145
 23
1756.087275416288
 33
0.0
 14
4047.96097767145
 24
756.0872754162879
 34
0.0
 50
90.0
100
AcDbRotatedDimension
1001
ACAD
1000
DSTYLE
1002
{
1070
    41
1040
40.0
1070
    42
1040
40.0
1070
    43
1040
140.0
1070
    44
1040
20.0
1070
    73
1070
     0
1070
    74
1070
     0
1070
   140
1040
60.0
1070
   145
1040
1.0
1070
   172
1070
     1
1070
   271
1070
     0
1070
   272
1070
     0
1070
   275
1070
     1
1070
   279
1070
     2
1070
   340
1005
92
1002
}
  0
TEXT
  5
8EA
330
17
100
AcDbEntity
  8
SUNPOU
100
AcDbText
 10
3524.644095239569
 20
2212.364667320421
 30
0.0
 40
60.0
  1
    
  7
A
100
AcDbText
  0
TEXT
  5
8EE
330
17
100
AcDbEntity
  8
SUNPOU
100
AcDbText
 10
3244.234773003313
 20
2345.418627070887
 30
0.0
 40
60.0
  1
   
  7
A
100
AcDbText
  0
LINE
  5
8F4
330
17
100
AcDbEntity
  8
SEIHIN
100
AcDbLine
 10
7193.695978145971
 20
4784.996320791071
 30
0.0
 11
6763.695978145971
 21
4834.99632079107
 31
0.0
  0
LINE
  5
8F5
330
17
100
AcDbEntity
  8
SEIHIN
100
AcDbLine
 10
7193.69597814597
 20
4784.996320791071
 30
0.0
 11
7243.69597814597
 21
4354.996320791071
 31
0.0
  0
TEXT
  5
8F6
330
17
100
AcDbEntity
  8
SUNPOU
100
AcDbText
 10
1610.152116053044
 20
5526.131554257222
 30
0.0
 40
60.0
  1
    
  7
A
100
AcDbText
  0
TEXT
  5
8FB
330
17
100
AcDbEntity
  8
SUNPOU
100
AcDbText
 10
7110.062602113801
 20
6060.845917531992
 30
0.0
 40
60.0
  1
デザインウォールコーナー左
  7
A
100
AcDbText
  0
TEXT
  5
900
330
17
100
AcDbEntity
  8
SUNPOU
100
AcDbText
 10
8169.500286283683
 20
4918.386723027507
 30
0.0
 40
60.0
  1
デザインウォールコーナー右
  7
A
100
AcDbText
  0
TEXT
  5
905
330
17
100
AcDbEntity
  8
SUNPOU
100
AcDbText
 10
6149.573440985307
 20
4184.907639371554
 30
0.0
 40
60.0
  1
デザインウォールコーナー
  7
A
100
AcDbText
  0
LINE
  5
90B
330
17
100
AcDbEntity
  8
SEIHIN
100
AcDbLine
 10
3827.960977671449
 20
1756.087275416288
 30
0.0
 11
3827.960977671449
 21
1253.155781962711
 31
0.0
  0
LINE
  5
90C
330
17
100
AcDbEntity
  8
SEIHIN
100
AcDbLine
 10
3315.341810217193
 20
952.7918902976947
 30
0.0
 11
3315.859277368694
 21
943.8067788489082
 31
0.0
  0
LINE
  5
90D
330
17
100
AcDbEntity
  8
SEIHIN
100
AcDbLine
 10
3375.242553209103
 20
956.2416713077
 30
0.0
 11
3375.760020360604
 21
947.2565598589134
 31
0.0
  0
LINE
  5
90F
330
17
100
AcDbEntity
  8
SEIHIN
100
AcDbLine
 10
3927.216452124004
 20
4835.087275416288
 30
0.0
 11
3827.96097767145
 21
4835.087275416288
 31
0.0
  0
LINE
  5
910
330
17
100
AcDbEntity
  8
SEIHIN
100
AcDbLine
 10
1097.96097767145
 20
876.0872754162883
 30
0.0
 11
2247.96097767145
 21
876.0872754162883
 31
0.0
  0
LINE
  5
912
330
17
100
AcDbEntity
  8
HASEN
100
AcDbLine
 10
3938.472702336902
 20
1439.799326502112
 30
0.0
 11
3839.825218795519
 21
1448.146421263306
 31
0.0
  0
LINE
  5
913
330
17
100
AcDbEntity
  8
SUNPOU
100
AcDbLine
 10
3853.92866632591
 20
1436.917317658945
 30
0.0
 11
3838.98207791055
 21
1438.182028986399
 31
0.0
  0
LINE
  5
914
330
17
100
AcDbEntity
  8
HASEN
100
AcDbLine
 10
3940.158984106841
 20
1459.728111055927
 30
0.0
 11
3841.511500565457
 21
1468.075205817121
 31
0.0
  0
LINE
  5
915
330
17
100
AcDbEntity
  8
SUNPOU
100
AcDbLine
 10
3857.301229865786
 20
1476.774886766575
 30
0.0
 11
3842.354641450426
 21
1478.039598094029
 31
0.0
  0
LINE
  5
916
330
17
100
AcDbEntity
  8
HASEN
100
AcDbLine
 10
3938.472702336903
 20
1439.799326502112
 30
0.0
 11
3940.158984106841
 21
1459.728111055927
 31
0.0
  0
LINE
  5
917
330
17
100
AcDbEntity
  8
SEIHIN
100
AcDbLine
 10
3853.085525440941
 20
1426.952925382038
 30
0.0
 11
3858.144370750756
 21
1486.739279043483
 31
0.0
  0
LINE
  5
918
330
17
100
AcDbEntity
  8
SUNPOU
100
AcDbLine
 10
3838.982077910549
 20
1438.182028986399
 30
0.0
 11
3842.354641450426
 21
1478.039598094029
 31
0.0
  0
LINE
  5
919
330
17
100
AcDbEntity
  8
SEIHIN
100
AcDbLine
 10
3862.053478490158
 20
1426.194098585565
 30
0.0
 11
3853.085525440941
 21
1426.952925382037
 31
0.0
  0
LINE
  5
91A
330
17
100
AcDbEntity
  8
SEIHIN
100
AcDbLine
 10
3867.112323799973
 20
1485.98045224701
 30
0.0
 11
3858.144370750756
 21
1486.739279043482
 31
0.0
  0
LINE
  5
91B
330
17
100
AcDbEntity
  8
SEIHIN
100
AcDbLine
 10
2247.96097767145
 20
876.0872754162883
 30
0.0
 11
3507.690707401179
 21
955.8170051460178
 31
0.0
  0
LINE
  5
91C
330
17
100
AcDbEntity
  8
SEIHIN
100
AcDbLine
 10
1097.96097767145
 20
3955.087275416288
 30
0.0
 11
2247.96097767145
 21
3955.087275416288
 31
0.0
  0
LINE
  5
91D
330
17
100
AcDbEntity
  8
SEIHIN
100
AcDbLine
 10
2247.96097767145
 20
3955.087275416288
 30
0.0
 11
3527.96097767145
 21
4036.099933644135
 31
0.0
  0
LINE
  5
91E
330
17
100
AcDbEntity
  8
SEIHIN
100
AcDbLine
 10
3827.960977671449
 20
4835.087275416287
 30
0.0
 11
3827.960977671449
 21
4355.087275416287
 31
0.0
  0
LINE
  5
91F
330
17
100
AcDbEntity
  8
SEIHIN
100
AcDbLine
 10
3927.216452124004
 20
4835.087275416287
 30
0.0
 11
3827.96097767145
 21
4835.087275416287
 31
0.0
  0
LINE
  5
920
330
17
100
AcDbEntity
  8
SEIHIN
100
AcDbLine
 10
3827.96097767145
 20
6834.99632079107
 30
0.0
 11
3827.96097767145
 21
4355.087275416287
 31
0.0
  0
DIMENSION
  5
921
330
17
100
AcDbEntity
  8
SUNPOU
100
AcDbDimension
  2
*D82
 10
3527.960977671449
 20
4387.11517956629
 30
0.0
 11
3677.960977671449
 21
4447.11517956629
 31
0.0
 71
     5
 42
-1.0
100
AcDbAlignedDimension
 13
3827.960977671449
 23
4054.99632079107
 33
0.0
 14
3527.960977671449
 24
4054.99632079107
 34
0.0
100
AcDbRotatedDimension
1001
ACAD_DSTYLE_DIMARC_LENGTH_SYMBOL
1070
   379
1070
     0
1001
ACAD_DSTYLE_DIMJOGGED_JOGANGLE_SYMBOL
1070
   384
1040
0.7853981633974483
1001
ACAD_DSTYLE_DIMTEXT_FILL
1070
   376
1070
     0
1001
ACAD_DSTYLE_DIMEXT_ENABLED
1070
   383
1070
     0
1001
ACAD_DSTYLE_DIMEXT_LENGTH
1070
   378
1040
1.0
1001
ACAD_DSTYLE_DIM_LINETYPE
1070
   380
1005
0
1001
ACAD_DSTYLE_DIM_EXT1_LINETYPE
1070
   381
1005
0
1001
ACAD_DSTYLE_DIM_EXT2_LINETYPE
1070
   382
1005
0
  0
DIMENSION
  5
922
330
17
100
AcDbEntity
  8
SUNPOU
100
AcDbDimension
  2
*D83
 10
3341.346311608428
 20
4354.99632079107
 30
0.0
 11
3281.346311608428
 21
4204.99632079107
 31
0.0
 71
     5
 42
-1.0
100
AcDbAlignedDimension
 13
3827.960977671449
 23
4054.99632079107
 33
0.0
 14
3827.960977671449
 24
4354.99632079107
 34
0.0
 50
90.0
100
AcDbRotatedDimension
1001
ACAD_DSTYLE_DIMARC_LENGTH_SYMBOL
1070
   379
1070
     0
1001
ACAD_DSTYLE_DIMJOGGED_JOGANGLE_SYMBOL
1070
   384
1040
0.7853981633974483
1001
ACAD_DSTYLE_DIMTEXT_FILL
1070
   376
1070
     0
1001
ACAD_DSTYLE_DIMEXT_ENABLED
1070
   383
1070
     0
1001
ACAD_DSTYLE_DIMEXT_LENGTH
1070
   378
1040
1.0
1001
ACAD_DSTYLE_DIM_LINETYPE
1070
   380
1005
0
1001
ACAD_DSTYLE_DIM_EXT1_LINETYPE
1070
   381
1005
0
1001
ACAD_DSTYLE_DIM_EXT2_LINETYPE
1070
   382
1005
0
  0
LINE
  5
923
330
17
100
AcDbEntity
  8
SEIHIN
100
AcDbLine
 10
3527.96097767145
 20
4036.099933644135
 30
0.0
 11
3827.960977671449
 21
4355.087275416287
 31
0.0
  0
DIMENSION
  5
925
330
17
100
AcDbEntity
  8
SUNPOU
100
AcDbDimension
  2
*D84
 10
1097.96097767145
 20
4188.910000229675
 30
0.0
 11
962.4031988998988
 21
4248.910000229675
 31
0.0
 12
-750.0
 22
0.0
 32
0.0
 70
   128
 71
     5
 42
-1.0
100
AcDbAlignedDimension
 13
1047.96097767145
 23
4188.910000229675
 33
0.0
 14
1097.96097767145
 24
4188.910000229675
 34
0.0
100
AcDbRotatedDimension
1001
ACAD_DSTYLE_DIMARC_LENGTH_SYMBOL
1070
   379
1070
     0
1001
ACAD_DSTYLE_DIMJOGGED_JOGANGLE_SYMBOL
1070
   384
1040
0.7853981633974483
1001
ACAD_DSTYLE_DIMTEXT_FILL
1070
   376
1070
     0
1001
ACAD_DSTYLE_DIMEXT_ENABLED
1070
   383
1070
     0
1001
ACAD_DSTYLE_DIMEXT_LENGTH
1070
   378
1040
1.0
1001
ACAD_DSTYLE_DIM_LINETYPE
1070
   380
1005
0
1001
ACAD_DSTYLE_DIM_EXT1_LINETYPE
1070
   381
1005
0
1001
ACAD_DSTYLE_DIM_EXT2_LINETYPE
1070
   382
1005
0
  0
LINE
  5
927
330
17
100
AcDbEntity
  8
HASEN
100
AcDbLine
 10
3874.99245413661
 20
4516.803402950241
 30
0.0
 11
3874.208202796825
 21
4556.795714084207
 31
0.0
  0
LINE
  5
928
330
17
100
AcDbEntity
  8
HASEN
100
AcDbLine
 10
3828.670333483434
 20
4585.906404291756
 30
0.0
 11
3843.667450158671
 21
4586.200498544174
 31
0.0
  0
LINE
  5
929
330
17
100
AcDbEntity
  8
HASEN
100
AcDbLine
 10
3830.630961832896
 20
4485.925626456837
 30
0.0
 11
3845.628078508133
 21
4486.219720709257
 31
0.0
  0
ARC
  5
92A
330
17
100
AcDbEntity
  8
HASEN
100
AcDbCircle
 10
3844.998220786134
 20
4516.2152144454
 30
0.0
 40
30.0
100
AcDbArc
 50
271.123429279578
 51
1.123429279578201
  0
ARC
  5
92B
330
17
100
AcDbEntity
  8
HASEN
100
AcDbCircle
 10
3844.213969446349
 20
4556.207525579368
 30
0.0
 40
30.0
100
AcDbArc
 50
1.123429279578404
 51
91.12342927957803
  0
TEXT
  5
92E
330
17
100
AcDbEntity
  8
SUNPOU
100
AcDbText
 10
1165.300105875949
 20
3259.493618294126
 30
0.0
 40
60.0
  1
    
  7
A
100
AcDbText
  0
LINE
  5
930
330
17
100
AcDbEntity
  8
1HASEN
100
AcDbLine
 10
6763.695978145965
 20
4834.996320791071
 30
0.0
 11
7243.695978145972
 21
4834.996320791071
 31
0.0
  0
LINE
  5
931
330
17
100
AcDbEntity
  8
1HASEN
100
AcDbLine
 10
7243.69597814597
 20
4354.996320791072
 30
0.0
 11
7243.69597814597
 21
4834.996320791071
 31
0.0
  0
TEXT
  5
932
330
17
100
AcDbEntity
  8
SUNPOU
100
AcDbText
 10
7475.274507950128
 20
4996.571921573919
 30
0.0
 40
60.0
  1
    
  7
A
100
AcDbText
  0
LINE
  5
933
330
17
100
AcDbEntity
  8
SEIHIN
100
AcDbLine
 10
4047.960977671449
 20
1756.087275416288
 30
0.0
 11
4047.960977671449
 21
2906.087275416288
 31
0.0
  0
LINE
  5
934
330
17
100
AcDbEntity
  8
SEIHIN
100
AcDbLine
 10
1097.96097767145
 20
826.0872754162883
 30
0.0
 11
1457.96097767145
 21
826.0872754162883
 31
0.0
  0
LINE
  5
935
330
17
100
AcDbEntity
  8
SEIHIN
100
AcDbLine
 10
1457.96097767145
 20
826.0872754162883
 30
0.0
 11
3527.96097767145
 21
957.0999336441362
 31
0.0
  0
LINE
  5
936
330
17
100
AcDbEntity
  8
SEIHIN
100
AcDbLine
 10
3851.197971891102
 20
1276.087275416287
 30
0.0
 11
3977.452307151219
 21
2906.087275416288
 31
0.0
  0
LINE
  5
937
330
17
100
AcDbEntity
  8
SEIHIN
100
AcDbLine
 10
3527.96097767145
 20
957.0999336441362
 30
0.0
 11
3851.197971891102
 21
1276.087275416288
 31
0.0
  0
LINE
  5
93F
330
17
100
AcDbEntity
  8
SEIHIN
100
AcDbLine
 10
3868.788813770948
 20
4582.192920581468
 30
0.0
 11
3827.96097767145
 21
4590.087275416288
 31
0.0
  0
LINE
  5
940
330
17
100
AcDbEntity
  8
SEIHIN
100
AcDbLine
 10
3861.380571323287
 20
4486.549193458679
 30
0.0
 11
3827.96097767145
 21
4480.087275416288
 31
0.0
  0
LINE
  5
941
330
17
100
AcDbEntity
  8
SEIHIN
100
AcDbLine
 10
3868.788813770948
 20
4582.192920581468
 30
0.0
 11
3861.380571323287
 21
4486.549193458679
 31
0.0
  0
LINE
  5
942
330
17
100
AcDbEntity
  8
SEIHIN
100
AcDbLine
 10
9243.69597814597
 20
3834.99632079107
 30
0.0
 11
9243.69597814597
 21
4068.99632079107
 31
0.0
  0
LINE
  5
943
330
17
100
AcDbEntity
  8
SEIHIN
100
AcDbLine
 10
9243.69597814597
 20
4068.99632079107
 30
0.0
 11
9193.69597814597
 21
5624.99632079107
 31
0.0
  0
LINE
  5
944
330
17
100
AcDbEntity
  8
SEIHIN
100
AcDbLine
 10
9193.69597814597
 20
5624.99632079107
 30
0.0
 11
9193.69597814597
 21
5984.99632079107
 31
0.0
  0
LINE
  5
945
330
17
100
AcDbEntity
  8
SEIHIN
100
AcDbLine
 10
6243.695978145973
 20
6834.996320791071
 30
0.0
 11
6477.695978145973
 21
6834.996320791071
 31
0.0
  0
LINE
  5
946
330
17
100
AcDbEntity
  8
SEIHIN
100
AcDbLine
 10
6477.695978145973
 20
6834.996320791071
 30
0.0
 11
8033.695978145973
 21
6784.996320791071
 31
0.0
  0
LINE
  5
947
330
17
100
AcDbEntity
  8
SEIHIN
100
AcDbLine
 10
8033.695978145973
 20
6784.996320791071
 30
0.0
 11
8393.695978145974
 21
6784.996320791071
 31
0.0
  0
DIMENSION
  5
94C
330
17
100
AcDbEntity
  8
SUNPOU
100
AcDbDimension
  2
*D105
 10
10505.94505911776
 20
3834.99632079107
 30
0.0
 11
10445.94505911776
 21
4809.99632079107
 31
0.0
 70
   128
 71
     5
 42
-1.0
100
AcDbAlignedDimension
 13
9193.69597814597
 23
5984.99632079107
 33
0.0
 14
9243.69597814597
 24
3834.99632079107
 34
0.0
 50
90.0
100
AcDbRotatedDimension
1001
ACAD_DSTYLE_DIMARC_LENGTH_SYMBOL
1070
   379
1070
     0
1001
ACAD_DSTYLE_DIMJOGGED_JOGANGLE_SYMBOL
1070
   384
1040
0.7853981633974483
1001
ACAD_DSTYLE_DIMTEXT_FILL
1070
   376
1070
     0
1001
ACAD_DSTYLE_DIMEXT_ENABLED
1070
   383
1070
     0
1001
ACAD_DSTYLE_DIMEXT_LENGTH
1070
   378
1040
1.0
1001
ACAD_DSTYLE_DIM_LINETYPE
1070
   380
1005
0
1001
ACAD_DSTYLE_DIM_EXT1_LINETYPE
1070
   381
1005
0
1001
ACAD_DSTYLE_DIM_EXT2_LINETYPE
1070
   382
1005
0
  0
DIMENSION
  5
94D
330
17
100
AcDbEntity
  8
SUNPOU
100
AcDbDimension
  2
*D106
 10
8393.695978145974
 20
7514.617934496253
 30
0.0
 11
7318.695978145974
 21
7574.617934496253
 31
0.0
 71
     5
 42
-1.0
100
AcDbAlignedDimension
 13
6243.695978145973
 23
6834.996320791071
 33
0.0
 14
8393.695978145974
 24
6784.996320791071
 34
0.0
100
AcDbRotatedDimension
1001
ACAD_DSTYLE_DIMARC_LENGTH_SYMBOL
1070
   379
1070
     0
1001
ACAD_DSTYLE_DIMJOGGED_JOGANGLE_SYMBOL
1070
   384
1040
0.7853981633974483
1001
ACAD_DSTYLE_DIMTEXT_FILL
1070
   376
1070
     0
1001
ACAD_DSTYLE_DIMEXT_ENABLED
1070
   383
1070
     0
1001
ACAD_DSTYLE_DIMEXT_LENGTH
1070
   378
1040
1.0
1001
ACAD_DSTYLE_DIM_LINETYPE
1070
   380
1005
0
1001
ACAD_DSTYLE_DIM_EXT1_LINETYPE
1070
   381
1005
0
1001
ACAD_DSTYLE_DIM_EXT2_LINETYPE
1070
   382
1005
0
  0
TEXT
  5
950
330
17
100
AcDbEntity
  8
SUNPOU
100
AcDbText
 10
8645.664251573786
 20
4873.105453288689
 30
0.0
 40
60.0
  1
    
  7
A
100
AcDbText
  0
LINE
  5
951
330
17
100
AcDbEntity
  8
SEIHIN
100
AcDbLine
 10
4047.960977671449
 20
2906.087275416288
 30
0.0
 11
3977.452307151219
 21
2906.087275416287
 31
0.0
  0
LINE
  5
953
330
17
100
AcDbEntity
  8
SEIHIN
100
AcDbLine
 10
9193.69597814597
 20
5984.99632079107
 30
0.0
 11
8429.051317205303
 21
5984.996320791071
 31
0.0
  0
LINE
  5
954
330
17
100
AcDbEntity
  8
SEIHIN
100
AcDbLine
 10
8393.695978145974
 20
6784.996320791071
 30
0.0
 11
8393.695978145974
 21
6020.351659850397
 31
0.0
  0
TEXT
  5
960
330
17
100
AcDbEntity
  8
SUNPOU
100
AcDbText
 10
7779.594080032308
 20
5102.413972192978
 30
0.0
 40
60.0
  1
    
  7
A
100
AcDbText
  0
TEXT
  5
963
330
17
100
AcDbEntity
  8
SUNPOU
100
AcDbText
 10
7661.665182711498
 20
5079.483262906463
 30
0.0
 40
60.0
  1
    
  7
A
100
AcDbText
  0
CIRCLE
  5
96B
330
17
100
AcDbEntity
  8
SUNPOU
100
AcDbCircle
 10
7998.236562685792
 20
5780.455736251255
 30
0.0
 40
15.0
  0
CIRCLE
  5
96C
330
17
100
AcDbEntity
  8
SUNPOU
100
AcDbCircle
 10
8040.662969556985
 20
5738.029329380062
 30
0.0
 40
15.0
  0
CIRCLE
  5
96D
330
17
100
AcDbEntity
  8
SUNPOU
100
AcDbCircle
 10
8146.728986734967
 20
5631.963312202081
 30
0.0
 40
15.0
  0
CIRCLE
  5
96E
330
17
100
AcDbEntity
  8
SUNPOU
100
AcDbCircle
 10
8189.15539360616
 20
5589.536905330887
 30
0.0
 40
15.0
  0
CIRCLE
  5
96F
330
17
100
AcDbEntity
  8
SUNPOU
100
AcDbCircle
 10
7448.23656268579
 20
5230.455736251256
 30
0.0
 40
15.0
  0
CIRCLE
  5
970
330
17
100
AcDbEntity
  8
SUNPOU
100
AcDbCircle
 10
7490.662969556983
 20
5188.029329380063
 30
0.0
 40
15.0
  0
CIRCLE
  5
971
330
17
100
AcDbEntity
  8
SUNPOU
100
AcDbCircle
 10
7596.728986734964
 20
5081.963312202081
 30
0.0
 40
15.0
  0
CIRCLE
  5
972
330
17
100
AcDbEntity
  8
SUNPOU
100
AcDbCircle
 10
7639.155393606156
 20
5039.536905330888
 30
0.0
 40
15.0
  0
LINE
  5
973
330
17
100
AcDbEntity
  8
SEIHIN
100
AcDbLine
 10
7398.739088002731
 20
5237.526804063123
 30
0.0
 11
7441.165494873924
 21
5279.953210934314
 31
0.0
  0
LINE
  5
974
330
17
100
AcDbEntity
  8
SEIHIN
100
AcDbLine
 10
7646.226461418023
 20
4990.03943064783
 30
0.0
 11
7688.652868289215
 21
5032.465837519022
 31
0.0
  0
TEXT
  5
977
330
17
100
AcDbEntity
  8
SUNPOU
100
AcDbText
 10
7746.373465061
 20
5143.186570113712
 30
0.0
 40
60.0
  1
   
  7
A
100
AcDbText
  0
LINE
  5
978
330
17
100
AcDbEntity
  8
SEIHIN
100
AcDbLine
 10
8114.909181581574
 20
5706.209524226668
 30
0.0
 11
7991.165494873927
 21
5829.953210934314
 31
0.0
  0
LINE
  5
979
330
17
100
AcDbEntity
  8
SEIHIN
100
AcDbLine
 10
8072.482774710381
 20
5663.783117355475
 30
0.0
 11
7948.739088002734
 21
5787.526804063121
 31
0.0
  0
LINE
  5
97A
330
17
100
AcDbEntity
  8
SEIHIN
100
AcDbLine
 10
8072.482774710381
 20
5663.783117355476
 30
0.0
 11
8196.226461418026
 21
5540.039430647829
 31
0.0
  0
LINE
  5
97B
330
17
100
AcDbEntity
  8
SEIHIN
100
AcDbLine
 10
8114.909181581574
 20
5706.209524226669
 30
0.0
 11
8238.652868289219
 21
5582.465837519022
 31
0.0
  0
LINE
  5
97C
330
17
100
AcDbEntity
  8
SEIHIN
100
AcDbLine
 10
7522.482774710379
 20
5113.783117355474
 30
0.0
 11
7646.226461418023
 21
4990.039430647829
 31
0.0
  0
LINE
  5
97D
330
17
100
AcDbEntity
  8
SEIHIN
100
AcDbLine
 10
7564.909181581572
 20
5156.209524226667
 30
0.0
 11
7688.652868289216
 21
5032.465837519022
 31
0.0
  0
LINE
  5
97E
330
17
100
AcDbEntity
  8
SEIHIN
100
AcDbLine
 10
7522.482774710376
 20
5113.783117355477
 30
0.0
 11
7398.739088002731
 21
5237.526804063122
 31
0.0
  0
LINE
  5
97F
330
17
100
AcDbEntity
  8
SEIHIN
100
AcDbLine
 10
7564.909181581569
 20
5156.20952422667
 30
0.0
 11
7441.165494873924
 21
5279.953210934314
 31
0.0
  0
LINE
  5
980
330
17
100
AcDbEntity
  8
SEIHIN
100
AcDbLine
 10
8196.226461418026
 20
5540.039430647829
 30
0.0
 11
8238.652868289219
 21
5582.465837519022
 31
0.0
  0
LINE
  5
981
330
17
100
AcDbEntity
  8
SEIHIN
100
AcDbLine
 10
7948.739088002734
 20
5787.52680406312
 30
0.0
 11
7991.165494873927
 21
5829.953210934313
 31
0.0
  0
DIMENSION
  5
9F1
330
17
100
AcDbEntity
  8
SUNPOU
100
AcDbDimension
  2
*D118
 10
4800.282152716198
 20
2906.087275416288
 30
0.0
 11
4740.282152716197
 21
1831.087275416289
 31
0.0
 70
    32
 71
     5
 42
2150.0
  3
STANDARD
100
AcDbAlignedDimension
 13
4047.96097767145
 23
756.0872754162879
 33
0.0
 14
4047.960977671449
 24
2906.087275416288
 34
0.0
 50
90.0
100
AcDbRotatedDimension
1001
ACAD
1000
DSTYLE
1002
{
1070
    41
1040
40.0
1070
    42
1040
40.0
1070
    43
1040
140.0
1070
    44
1040
20.0
1070
    73
1070
     0
1070
    74
1070
     0
1070
   140
1040
60.0
1070
   145
1040
1.0
1070
   172
1070
     1
1070
   271
1070
     0
1070
   272
1070
     0
1070
   275
1070
     1
1070
   279
1070
     2
1070
   340
1005
92
1002
}
  0
ENDSEC
  0
SECTION
  2
OBJECTS
  0
DICTIONARY
  5
C
330
0
100
AcDbDictionary
281
     1
  3
ACAD_CIP_PREVIOUS_PRODUCT_INFO
350
9E1
  3
ACAD_COLOR
350
9BF
  3
ACAD_DETAILVIEWSTYLE
350
9D8
  3
ACAD_GROUP
350
D
  3
ACAD_LAYOUT
350
9DA
  3
ACAD_MATERIAL
350
98D
  3
ACAD_MLEADERSTYLE
350
9D4
  3
ACAD_MLINESTYLE
350
1A
  3
ACAD_PLOTSETTINGS
350
9DB
  3
ACAD_PLOTSTYLENAME
350
98B
  3
ACAD_SCALELIST
350
9C2
  3
ACAD_SECTIONVIEWSTYLE
350
9D6
  3
ACAD_TABLESTYLE
350
9C0
  3
ACAD_VISUALSTYLE
350
9A6
  3
ACDB_RECOMPOSE_DATA
350
A86
  3
ACDBVARIABLEDICTIONARY
350
A7
  3
AcDsDecomposeData
350
A2D
  0
DICTIONARY
  5
A7B
330
8
100
AcDbDictionary
280
     1
281
     1
  3
ACAD_XREC_ROUNDTRIP
360
A7C
  0
DICTIONARY
  5
A1F
330
2
100
AcDbDictionary
280
     1
281
     1
  3
ACAD_LAYERSTATES
360
A20
  0
DICTIONARY
  5
A0A
330
E
100
AcDbDictionary
280
     1
281
     1
  3
ADSK_XREC_LAYER_RECONCILED
360
A0B
  0
DICTIONARY
  5
A0C
330
9A
100
AcDbDictionary
280
     1
281
     1
  3
ADSK_XREC_LAYER_RECONCILED
360
A0D
  0
DICTIONARY
  5
A0E
330
9B
100
AcDbDictionary
280
     1
281
     1
  3
ADSK_XREC_LAYER_RECONCILED
360
A0F
  0
DICTIONARY
  5
A10
330
9C
100
AcDbDictionary
280
     1
281
     1
  3
ADSK_XREC_LAYER_RECONCILED
360
A11
  0
DICTIONARY
  5
A12
330
9D
100
AcDbDictionary
280
     1
281
     1
  3
ADSK_XREC_LAYER_RECONCILED
360
A13
  0
DICTIONARY
  5
A14
330
9E
100
AcDbDictionary
280
     1
281
     1
  3
ADSK_XREC_LAYER_RECONCILED
360
A15
  0
DICTIONARY
  5
A16
330
9F
100
AcDbDictionary
280
     1
281
     1
  3
ADSK_XREC_LAYER_RECONCILED
360
A17
  0
DICTIONARY
  5
A18
330
A0
100
AcDbDictionary
280
     1
281
     1
  3
ADSK_XREC_LAYER_RECONCILED
360
A19
  0
DICTIONARY
  5
A1A
330
A1
100
AcDbDictionary
280
     1
281
     1
  3
ADSK_XREC_LAYER_RECONCILED
360
A1B
  0
XRECORD
  5
9E1
102
{ACAD_REACTORS
330
C
102
}
330
C
100
AcDbXrecord
280
     1
300
ACD
300
2014
300
ACD_F_S
  0
DICTIONARY
  5
9BF
102
{ACAD_REACTORS
330
C
102
}
330
C
100
AcDbDictionary
281
     1
  0
DICTIONARY
  5
9D8
102
{ACAD_REACTORS
330
C
102
}
330
C
100
AcDbDictionary
281
     1
  3
Imperial24
350
9D9
  0
DICTIONARY
  5
D
102
{ACAD_REACTORS
330
C
102
}
330
C
100
AcDbDictionary
281
     1
  0
DICTIONARY
  5
9DA
102
{ACAD_REACTORS
330
C
102
}
330
C
100
AcDbDictionary
281
     1
  3
Model
350
9DC
  3
レイアウト1
350
9DD
  0
DICTIONARY
  5
98D
102
{ACAD_REACTORS
330
C
102
}
330
C
100
AcDbDictionary
281
     1
  3
ByBlock
350
996
  3
ByLayer
350
98E
  3
Global
350
99E
  0
DICTIONARY
  5
9D4
102
{ACAD_REACTORS
330
C
102
}
330
C
100
AcDbDictionary
281
     1
  3
Standard
350
9D5
  0
DICTIONARY
  5
1A
102
{ACAD_REACTORS
330
C
102
}
330
C
100
AcDbDictionary
281
     1
  3
STANDARD
350
1B
  0
DICTIONARY
  5
9DB
102
{ACAD_REACTORS
330
C
102
}
330
C
100
AcDbDictionary
281
     1
  0
ACDBDICTIONARYWDFLT
  5
98B
102
{ACAD_REACTORS
330
C
102
}
330
C
100
AcDbDictionary
281
     1
  3
Normal
350
98C
100
AcDbDictionaryWithDefault
340
98C
  0
DICTIONARY
  5
9C2
102
{ACAD_REACTORS
330
C
102
}
330
C
100
AcDbDictionary
281
     1
  3
A0
350
9C3
  3
A1
350
9C4
  3
A2
350
9C5
  3
A3
350
9C6
  3
A4
350
9C7
  3
A5
350
9C8
  3
A6
350
9C9
  3
A7
350
9CA
  3
A8
350
9CB
  3
A9
350
9CC
  3
B0
350
9CD
  3
B1
350
9CE
  3
B2
350
9CF
  3
B3
350
9D0
  3
B4
350
9D1
  3
B5
350
9D2
  3
B6
350
9D3
  0
DICTIONARY
  5
9D6
102
{ACAD_REACTORS
330
C
102
}
330
C
100
AcDbDictionary
281
     1
  3
Imperial24
350
9D7
  0
DICTIONARY
  5
9C0
102
{ACAD_REACTORS
330
C
102
}
330
C
100
AcDbDictionary
281
     1
  3
Standard
350
9C1
  0
DICTIONARY
  5
9A6
102
{ACAD_REACTORS
330
C
102
}
330
C
100
AcDbDictionary
281
     1
  3
2dWireframe
350
9AC
  3
Basic
350
9AB
  3
Brighten
350
9B2
  3
ColorChange
350
9B6
  3
Conceptual
350
9AF
  3
Dim
350
9B1
  3
EdgeColorOff
350
9BE
  3
Facepattern
350
9B5
  3
Flat
350
9A7
  3
FlatWithEdges
350
9A8
  3
Gouraud
350
9A9
  3
GouraudWithEdges
350
9AA
  3
Hidden
350
9AE
  3
JitterOff
350
9BC
  3
Linepattern
350
9B4
  3
OverhangOff
350
9BD
  3
Realistic
350
9B0
  3
Shaded
350
9BB
  3
Shaded with edges
350
9BA
  3
Shades of Gray
350
9B7
  3
Sketchy
350
9B8
  3
Thicken
350
9B3
  3
Wireframe
350
9AD
  3
X-Ray
350
9B9
  0
XRECORD
  5
A86
102
{ACAD_REACTORS
330
C
102
}
330
C
100
AcDbXrecord
280
     1
 90
        1
330
9C1
  0
DICTIONARY
  5
A7
102
{ACAD_REACTORS
330
C
102
}
330
C
100
AcDbDictionary
281
     1
  3
CANNOSCALE
350
A6E
  3
CMLEADERSTYLE
350
A6A
  3
CTABLESTYLE
350
A69
  3
CVIEWDETAILSTYLE
350
A6B
  3
CVIEWSECTIONSTYLE
350
A6C
  3
DIMADEC
350
A8
  3
LAYEREVAL
350
A70
  3
LAYERNOTIFY
350
A71
  3
LIGHTINGUNITS
350
A6F
  3
MSLTSCALE
350
A6D
  3
XCLIPFRAME
350
A72
  0
DICTIONARY
  5
A2D
102
{ACAD_REACTORS
330
C
102
}
330
C
100
AcDbDictionary
281
     1
  3
AcDsRecords
350
A2F
  3
AcDsSchemas
350
A2E
1001
ACAD
1070
     2
  0
XRECORD
  5
A7C
102
{ACAD_REACTORS
330
A7B
102
}
330
A7B
100
AcDbXrecord
280
     1
102
VTR_0.000_0.000_1.000_1.000_VISUALSTYLE
340
9AC
102
VTR_0.000_0.000_1.000_1.000_GRIDDISPLAY
 70
     3
102
VTR_0.000_0.000_1.000_1.000_GRIDMAJOR
 70
     5
102
VTR_0.000_0.000_1.000_1.000_DEFAULTLIGHTING
280
     1
102
VTR_0.000_0.000_1.000_1.000_DEFAULTLIGHTINGTYPE
 70
     1
102
VTR_0.000_0.000_1.000_1.000_BRIGHTNESS
141
0.0
102
VTR_0.000_0.000_1.000_1.000_CONTRAST
142
0.0
  0
DICTIONARY
  5
A20
102
{ACAD_REACTORS
330
A1F
102
}
330
A1F
100
AcDbDictionary
281
     1
  0
XRECORD
  5
A0B
102
{ACAD_REACTORS
330
A0A
102
}
330
A0A
100
AcDbXrecord
280
     1
290
     1
  0
XRECORD
  5
A0D
102
{ACAD_REACTORS
330
A0C
102
}
330
A0C
100
AcDbXrecord
280
     1
290
     1
  0
XRECORD
  5
A0F
102
{ACAD_REACTORS
330
A0E
102
}
330
A0E
100
AcDbXrecord
280
     1
290
     1
  0
XRECORD
  5
A11
102
{ACAD_REACTORS
330
A10
102
}
330
A10
100
AcDbXrecord
280
     1
290
     1
  0
XRECORD
  5
A13
102
{ACAD_REACTORS
330
A12
102
}
330
A12
100
AcDbXrecord
280
     1
290
     1
  0
XRECORD
  5
A15
102
{ACAD_REACTORS
330
A14
102
}
330
A14
100
AcDbXrecord
280
     1
290
     1
  0
XRECORD
  5
A17
102
{ACAD_REACTORS
330
A16
102
}
330
A16
100
AcDbXrecord
280
     1
290
     1
  0
XRECORD
  5
A19
102
{ACAD_REACTORS
330
A18
102
}
330
A18
100
AcDbXrecord
280
     1
290
     1
  0
XRECORD
  5
A1B
102
{ACAD_REACTORS
330
A1A
102
}
330
A1A
100
AcDbXrecord
280
     1
290
     1
  0
ACAD_PROXY_OBJECT
  5
9D9
102
{ACAD_REACTORS
330
9D8
102
}
102
{ACAD_XDICTIONARY
360
A65
102
}
330
9D8
100
AcDbProxyObject
 90
      499
 91
      509
 95
  3276827
 70
     0
 93
     2314
310
9207000000180005C0F42F5A8DC671F815AF46E07A15AE7E07000000180005C0F42F5A8DC671FA3300000018001000000180005C0F42F5A8DC671FA02000000000000741FA028CC00000060002330000001800000852480368038003280390034803080360019001A004AD12801E002E00208031802B003080390010002B00
310
348032803B802A003C803800328010002E0033001000110012803A003180188011001F001280100012801E002E00208031802B003080390010002B00348032803B80220032803A00308034803600248032001F0012802E00280029802180208026002280100012801E002E00208031802B003080390010002B00348032803B
310
802980318030803600328010002E0033001000110012803980370011001F0012802B0371
340
F
340
0
340
13
340
F
340
13
340
13
 94
        0
  0
LAYOUT
  5
9DC
102
{ACAD_REACTORS
330
9DA
102
}
102
{ACAD_XDICTIONARY
360
A67
102
}
330
9DA
100
AcDbPlotSettings
  1

  2
DocuWorks Printer
  4

  6

 40
0.0
 41
0.0
 42
0.0
 43
0.0
 44
0.0
 45
0.0
 46
0.0
 47
0.0
 48
0.0
 49
0.0
140
0.0
141
0.0
142
1.0
143
1.0
 70
  1712
 72
     0
 73
     0
 74
     0
  7

 75
     0
 76
     0
 77
     2
 78
   300
147
1.0
148
0.0
149
0.0
100
AcDbLayout
  1
Model
 70
     1
 71
     0
 10
0.0
 20
0.0
 11
12.0
 21
9.0
 12
0.0
 22
0.0
 32
0.0
 14
0.0
 24
0.0
 34
0.0
 15
0.0
 25
0.0
 35
0.0
146
0.0
 13
0.0
 23
0.0
 33
0.0
 16
1.0
 26
0.0
 36
0.0
 17
0.0
 27
1.0
 37
0.0
 76
     0
330
17
331
989
  0
LAYOUT
  5
9DD
102
{ACAD_REACTORS
330
9DA
102
}
330
9DA
100
AcDbPlotSettings
  1

  2
DocuWorks Printer
  4

  6

 40
0.0
 41
0.0
 42
0.0
 43
0.0
 44
0.0
 45
0.0
 46
0.0
 47
0.0
 48
0.0
 49
0.0
140
0.0
141
0.0
142
1.0
143
1.0
 70
   688
 72
     0
 73
     0
 74
     5
  7

 75
    16
 76
     0
 77
     2
 78
   300
147
1.0
148
0.0
149
0.0
100
AcDbLayout
  1
レイアウト1
 70
     0
 71
     1
 10
0.0
 20
0.0
 11
12.0
 21
9.0
 12
0.0
 22
0.0
 32
0.0
 14
1.000000000000000E+20
 24
1.000000000000000E+20
 34
1.000000000000000E+20
 15
-1.000000000000000E+20
 25
-1.000000000000000E+20
 35
-1.000000000000000E+20
146
0.0
 13
0.0
 23
0.0
 33
0.0
 16
1.0
 26
0.0
 36
0.0
 17
0.0
 27
1.0
 37
0.0
 76
     0
330
14
  0
MATERIAL
  5
996
102
{ACAD_REACTORS
330
98D
102
}
102
{ACAD_XDICTIONARY
360
A7D
102
}
330
98D
100
AcDbMaterial
  1
ByBlock
 72
     0
 73
     2
 43
0.0208333333333333
 43
0.0
 43
0.0
 43
0.0
 43
0.0
 43
0.0208333333333333
 43
0.0
 43
0.0
 43
0.0
 43
0.0
 43
1.0
 43
0.0
 43
0.0
 43
0.0
 43
0.0
 43
1.0
 77
     0
 78
     2
 47
0.0208333333333333
 47
0.0
 47
0.0
 47
0.0
 47
0.0
 47
0.0208333333333333
 47
0.0
 47
0.0
 47
0.0
 47
0.0
 47
1.0
 47
0.0
 47
0.0
 47
0.0
 47
0.0
 47
1.0
171
     0
172
     2
 49
0.0208333333333333
 49
0.0
 49
0.0
 49
0.0
 49
0.0
 49
0.0208333333333333
 49
0.0
 49
0.0
 49
0.0
 49
0.0
 49
1.0
 49
0.0
 49
0.0
 49
0.0
 49
0.0
 49
1.0
175
     0
176
     2
142
0.0208333333333333
142
0.0
142
0.0
142
0.0
142
0.0
142
0.0208333333333333
142
0.0
142
0.0
142
0.0
142
0.0
142
1.0
142
0.0
142
0.0
142
0.0
142
0.0
142
1.0
179
     0
270
     2
144
0.0208333333333333
144
0.0
144
0.0
144
0.0
144
0.0
144
0.0208333333333333
144
0.0
144
0.0
144
0.0
144
0.0
144
1.0
144
0.0
144
0.0
144
0.0
144
0.0
144
1.0
274
     2
147
0.0208333333333333
147
0.0
147
0.0
147
0.0
147
0.0
147
0.0208333333333333
147
0.0
147
0.0
147
0.0
147
0.0
147
1.0
147
0.0
147
0.0
147
0.0
147
0.0
147
1.0
  0
MATERIAL
  5
98E
102
{ACAD_REACTORS
330
98D
102
}
102
{ACAD_XDICTIONARY
360
A7F
102
}
330
98D
100
AcDbMaterial
  1
ByLayer
 72
     0
 73
     2
 43
0.0208333333333333
 43
0.0
 43
0.0
 43
0.0
 43
0.0
 43
0.0208333333333333
 43
0.0
 43
0.0
 43
0.0
 43
0.0
 43
1.0
 43
0.0
 43
0.0
 43
0.0
 43
0.0
 43
1.0
 77
     0
 78
     2
 47
0.0208333333333333
 47
0.0
 47
0.0
 47
0.0
 47
0.0
 47
0.0208333333333333
 47
0.0
 47
0.0
 47
0.0
 47
0.0
 47
1.0
 47
0.0
 47
0.0
 47
0.0
 47
0.0
 47
1.0
171
     0
172
     2
 49
0.0208333333333333
 49
0.0
 49
0.0
 49
0.0
 49
0.0
 49
0.0208333333333333
 49
0.0
 49
0.0
 49
0.0
 49
0.0
 49
1.0
 49
0.0
 49
0.0
 49
0.0
 49
0.0
 49
1.0
175
     0
176
     2
142
0.0208333333333333
142
0.0
142
0.0
142
0.0
142
0.0
142
0.0208333333333333
142
0.0
142
0.0
142
0.0
142
0.0
142
1.0
142
0.0
142
0.0
142
0.0
142
0.0
142
1.0
179
     0
270
     2
144
0.0208333333333333
144
0.0
144
0.0
144
0.0
144
0.0
144
0.0208333333333333
144
0.0
144
0.0
144
0.0
144
0.0
144
1.0
144
0.0
144
0.0
144
0.0
144
0.0
144
1.0
274
     2
147
0.0208333333333333
147
0.0
147
0.0
147
0.0
147
0.0
147
0.0208333333333333
147
0.0
147
0.0
147
0.0
147
0.0
147
1.0
147
0.0
147
0.0
147
0.0
147
0.0
147
1.0
  0
MATERIAL
  5
99E
102
{ACAD_REACTORS
330
98D
102
}
102
{ACAD_XDICTIONARY
360
A81
102
}
330
98D
100
AcDbMaterial
  1
Global
 72
     0
 73
     2
 43
0.0208333333333333
 43
0.0
 43
0.0
 43
0.0
 43
0.0
 43
0.0208333333333333
 43
0.0
 43
0.0
 43
0.0
 43
0.0
 43
1.0
 43
0.0
 43
0.0
 43
0.0
 43
0.0
 43
1.0
 77
     0
 78
     2
 47
0.0208333333333333
 47
0.0
 47
0.0
 47
0.0
 47
0.0
 47
0.0208333333333333
 47
0.0
 47
0.0
 47
0.0
 47
0.0
 47
1.0
 47
0.0
 47
0.0
 47
0.0
 47
0.0
 47
1.0
171
     0
172
     2
 49
0.0208333333333333
 49
0.0
 49
0.0
 49
0.0
 49
0.0
 49
0.0208333333333333
 49
0.0
 49
0.0
 49
0.0
 49
0.0
 49
1.0
 49
0.0
 49
0.0
 49
0.0
 49
0.0
 49
1.0
175
     0
176
     2
142
0.0208333333333333
142
0.0
142
0.0
142
0.0
142
0.0
142
0.0208333333333333
142
0.0
142
0.0
142
0.0
142
0.0
142
1.0
142
0.0
142
0.0
142
0.0
142
0.0
142
1.0
179
     0
270
     2
144
0.0208333333333333
144
0.0
144
0.0
144
0.0
144
0.0
144
0.0208333333333333
144
0.0
144
0.0
144
0.0
144
0.0
144
1.0
144
0.0
144
0.0
144
0.0
144
0.0
144
1.0
274
     2
147
0.0208333333333333
147
0.0
147
0.0
147
0.0
147
0.0
147
0.0208333333333333
147
0.0
147
0.0
147
0.0
147
0.0
147
1.0
147
0.0
147
0.0
147
0.0
147
0.0
147
1.0
  0
MLEADERSTYLE
  5
9D5
102
{ACAD_REACTORS
330
9D4
102
}
330
9D4
100
AcDbMLeaderStyle
170
     2
171
     1
172
     0
 90
        2
 40
0.0
 41
0.0
173
     1
 91
-1056964608
340
11
 92
       -2
290
     1
 42
0.09
291
     1
 43
0.36
  3
Standard
341
0
 44
0.18
300

342
F
174
     1
178
     6
175
     1
176
     0
 93
-1056964608
 45
0.18
292
     0
297
     0
 46
0.18
343
0
 94
-1056964608
 47
1.0
 49
1.0
140
1.0
293
     1
141
0.0
294
     1
177
     0
142
1.0
295
     0
296
     0
143
0.125
1001
ACAD_MLEADERVER
1070
     2
  0
MLINESTYLE
  5
1B
102
{ACAD_REACTORS
330
1A
102
}
330
1A
100
AcDbMlineStyle
  2
STANDARD
 70
     0
  3

 62
   256
 51
90.0
 52
90.0
 71
     2
 49
0.5
 62
   256
  6
BYLAYER
 49
-0.5
 62
   256
  6
BYLAYER
  0
ACDBPLACEHOLDER
  5
98C
102
{ACAD_REACTORS
330
98B
102
}
330
98B
  0
SCALE
  5
9C3
102
{ACAD_REACTORS
330
9C2
102
}
330
9C2
100
AcDbScale
 70
     0
300
1:1
140
1.0
141
1.0
290
     1
  0
SCALE
  5
9C4
102
{ACAD_REACTORS
330
9C2
102
}
330
9C2
100
AcDbScale
 70
     0
300
1/128" = 1'-0"
140
0.0078125
141
12.0
290
     0
  0
SCALE
  5
9C5
102
{ACAD_REACTORS
330
9C2
102
}
330
9C2
100
AcDbScale
 70
     0
300
1/64" = 1'-0"
140
0.015625
141
12.0
290
     0
  0
SCALE
  5
9C6
102
{ACAD_REACTORS
330
9C2
102
}
330
9C2
100
AcDbScale
 70
     0
300
1/32" = 1'-0"
140
0.03125
141
12.0
290
     0
  0
SCALE
  5
9C7
102
{ACAD_REACTORS
330
9C2
102
}
330
9C2
100
AcDbScale
 70
     0
300
1/16" = 1'-0"
140
0.0625
141
12.0
290
     0
  0
SCALE
  5
9C8
102
{ACAD_REACTORS
330
9C2
102
}
330
9C2
100
AcDbScale
 70
     0
300
3/32" = 1'-0"
140
0.09375
141
12.0
290
     0
  0
SCALE
  5
9C9
102
{ACAD_REACTORS
330
9C2
102
}
330
9C2
100
AcDbScale
 70
     0
300
1/8" = 1'-0"
140
0.125
141
12.0
290
     0
  0
SCALE
  5
9CA
102
{ACAD_REACTORS
330
9C2
102
}
330
9C2
100
AcDbScale
 70
     0
300
3/16" = 1'-0"
140
0.1875
141
12.0
290
     0
  0
SCALE
  5
9CB
102
{ACAD_REACTORS
330
9C2
102
}
330
9C2
100
AcDbScale
 70
     0
300
1/4" = 1'-0"
140
0.25
141
12.0
290
     0
  0
SCALE
  5
9CC
102
{ACAD_REACTORS
330
9C2
102
}
330
9C2
100
AcDbScale
 70
     0
300
3/8" = 1'-0"
140
0.375
141
12.0
290
     0
  0
SCALE
  5
9CD
102
{ACAD_REACTORS
330
9C2
102
}
330
9C2
100
AcDbScale
 70
     0
300
1/2" = 1'-0"
140
0.5
141
12.0
290
     0
  0
SCALE
  5
9CE
102
{ACAD_REACTORS
330
9C2
102
}
330
9C2
100
AcDbScale
 70
     0
300
3/4" = 1'-0"
140
0.75
141
12.0
290
     0
  0
SCALE
  5
9CF
102
{ACAD_REACTORS
330
9C2
102
}
330
9C2
100
AcDbScale
 70
     0
300
1" = 1'-0"
140
1.0
141
12.0
290
     0
  0
SCALE
  5
9D0
102
{ACAD_REACTORS
330
9C2
102
}
330
9C2
100
AcDbScale
 70
     0
300
1-1/2" = 1'-0"
140
1.5
141
12.0
290
     0
  0
SCALE
  5
9D1
102
{ACAD_REACTORS
330
9C2
102
}
330
9C2
100
AcDbScale
 70
     0
300
3" = 1'-0"
140
3.0
141
12.0
290
     0
  0
SCALE
  5
9D2
102
{ACAD_REACTORS
330
9C2
102
}
330
9C2
100
AcDbScale
 70
     0
300
6" = 1'-0"
140
6.0
141
12.0
290
     0
  0
SCALE
  5
9D3
102
{ACAD_REACTORS
330
9C2
102
}
330
9C2
100
AcDbScale
 70
     0
300
1'-0" = 1'-0"
140
12.0
141
12.0
290
     0
  0
ACAD_PROXY_OBJECT
  5
9D7
102
{ACAD_REACTORS
330
9D6
102
}
102
{ACAD_XDICTIONARY
360
A63
102
}
330
9D6
100
AcDbProxyObject
 90
      499
 91
      508
 95
  3276827
 70
     0
 93
     3814
310
929D000000180005C0F42F5A8DC671FC00000060001703D0BD6A3719C7E5C0F42F5A8DC6F1FA330000001800099400000060001703D0BD6A3719C7E5C0F42F5A8DC671FC00000060001703D0BD6A3719C7E808000000000001D07E80C0000006000400000064003081815AF46E07A158E7E80C8340C16A22A7D90FC9F8CAE6
310
5A70A583A07E1FE81C635378FA1F8CAE65A70A583A17E7944A7F127A97E9FA149200DA00E000CA00E400D200C200D80064006800882480160010002780160010002880160010002980160010002C00160010002D002F84A007800B8008200C600AC00C200E4004000AC00D200CA00EE00A800F200E000CA004000B800CC004
310
00044004A00E800C600620044007C004A0040004A007800B8008200C600AC00C200E4004000AC00D200CA00EE00A600CA00C600E800D200DE00DC00A600E800C200E400E8009200C8007C004A005A004A007800B8008200C600AC00C200E4004000AC00D200CA00EE00A600CA00C600E800D200DE00DC008A00DC00C800920
310
0C8007C004A00B800A000A6008600820098008A0040004A007800B8008200C600AC00C200E4004000AC00D200CA00EE00A600C600C200D800CA004000B800CC00400044004A00E600DC0044007C004A00832080270029802480198018807404C
340
F
340
0
340
0
340
13
340
13
340
F
 94
        0
  0
TABLESTYLE
  5
9C1
102
{ACAD_REACTORS
330
9C0
102
}
102
{ACAD_XDICTIONARY
360
A83
102
}
330
9C0
100
AcDbTableStyle
  3
Standard
 70
     0
 71
     0
 40
0.06
 41
0.06
280
     0
281
     0
  7
STANDARD
140
0.18
170
     2
 62
     0
 63
   257
283
     0
274
    -2
284
     1
 64
     0
275
    -2
285
     1
 65
     0
276
    -2
286
     1
 66
     0
277
    -2
287
     1
 67
     0
278
    -2
288
     1
 68
     0
279
    -2
289
     1
 69
     0
  7
STANDARD
140
0.25
170
     5
 62
     0
 63
   257
283
     0
274
    -2
284
     1
 64
     0
275
    -2
285
     1
 65
     0
276
    -2
286
     1
 66
     0
277
    -2
287
     1
 67
     0
278
    -2
288
     1
 68
     0
279
    -2
289
     1
 69
     0
  7
STANDARD
140
0.18
170
     5
 62
     0
 63
   257
283
     0
274
    -2
284
     1
 64
     0
275
    -2
285
     1
 65
     0
276
    -2
286
     1
 66
     0
277
    -2
287
     1
 67
     0
278
    -2
288
     1
 68
     0
279
    -2
289
     1
 69
     0
  0
VISUALSTYLE
  5
9AC
102
{ACAD_REACTORS
330
9A6
102
}
102
{ACAD_XDICTIONARY
360
A87
102
}
330
9A6
100
AcDbVisualStyle
  2
2dWireframe
 70
     4
 71
     0
 72
     2
 73
     0
 90
        0
 40
-0.6
 41
-30.0
 62
     5
 63
     7
421
 16777215
 74
     1
 91
        4
 64
     7
 65
   257
 75
     1
175
     1
 42
1.0
 92
        0
 66
   257
 43
1.0
 76
     1
 77
     6
 78
     2
 67
     7
 79
     5
170
     0
171
     0
290
     0
174
     0
 93
        1
 44
0.0
173
     0
291
     0
 45
0.0
1001
ACAD
1000
AcDbSavedByObjectVersion
1070
     0
  0
VISUALSTYLE
  5
9AB
102
{ACAD_REACTORS
330
9A6
102
}
102
{ACAD_XDICTIONARY
360
A89
102
}
330
9A6
100
AcDbVisualStyle
  2
Basic
 70
     7
 71
     1
 72
     0
 73
     1
 90
        0
 40
-0.6
 41
-30.0
 62
     5
 63
     7
421
 16777215
 74
     0
 91
        4
 64
     7
 65
   257
 75
     1
175
     1
 42
1.0
 92
        8
 66
     7
 43
1.0
 76
     1
 77
     6
 78
     2
 67
     7
 79
     5
170
     0
171
     0
290
     0
174
     0
 93
        1
 44
0.0
173
     0
291
     1
 45
0.0
1001
ACAD
1000
AcDbSavedByObjectVersion
1070
     0
  0
VISUALSTYLE
  5
9B2
102
{ACAD_REACTORS
330
9A6
102
}
102
{ACAD_XDICTIONARY
360
A8B
102
}
330
9A6
100
AcDbVisualStyle
  2
Brighten
 70
    12
 71
     2
 72
     2
 73
     0
 90
        0
 40
-0.6
 41
-30.0
 62
     5
 63
     7
421
 16777215
 74
     1
 91
        4
 64
     7
 65
   257
 75
     1
175
     1
 42
1.0
 92
        8
 66
     7
 43
1.0
 76
     1
 77
     6
 78
     2
 67
     7
 79
     5
170
     0
171
     0
290
     0
174
     0
 93
        1
 44
50.0
173
     0
291
     1
 45
0.0
1001
ACAD
1000
AcDbSavedByObjectVersion
1070
     0
  0
VISUALSTYLE
  5
9B6
102
{ACAD_REACTORS
330
9A6
102
}
102
{ACAD_XDICTIONARY
360
A8D
102
}
330
9A6
100
AcDbVisualStyle
  2
ColorChange
 70
    16
 71
     2
 72
     2
 73
     3
 90
        0
 40
-0.6
 41
-30.0
 62
     5
 63
     8
421
  8421504
 74
     1
 91
        4
 64
     7
 65
   257
 75
     1
175
     1
 42
1.0
 92
        8
 66
     8
424
  8421504
 43
1.0
 76
     1
 77
     6
 78
     2
 67
     7
 79
     5
170
     0
171
     0
290
     0
174
     0
 93
        1
 44
0.0
173
     0
291
     1
 45
0.0
1001
ACAD
1000
AcDbSavedByObjectVersion
1070
     0
  0
VISUALSTYLE
  5
9AF
102
{ACAD_REACTORS
330
9A6
102
}
102
{ACAD_XDICTIONARY
360
A8F
102
}
330
9A6
100
AcDbVisualStyle
  2
Conceptual
 70
     9
 71
     3
 72
     2
 73
     0
 90
        0
 40
-0.6
 41
-30.0
 62
     5
 63
     7
421
 16777215
 74
     2
 91
        2
 64
     7
 65
   257
 75
     1
175
     1
 42
179.0
 92
        8
 66
     7
 43
1.0
 76
     1
 77
     6
 78
     2
 67
     7
 79
     3
170
     0
171
     0
290
     0
174
     0
 93
        1
 44
0.0
173
     0
291
     0
 45
0.0
1001
ACAD
1000
AcDbSavedByObjectVersion
1070
     0
  0
VISUALSTYLE
  5
9B1
102
{ACAD_REACTORS
330
9A6
102
}
102
{ACAD_XDICTIONARY
360
A91
102
}
330
9A6
100
AcDbVisualStyle
  2
Dim
 70
    11
 71
     2
 72
     2
 73
     0
 90
        0
 40
-0.6
 41
-30.0
 62
     5
 63
     7
421
 16777215
 74
     1
 91
        4
 64
     7
 65
   257
 75
     1
175
     1
 42
1.0
 92
        8
 66
     7
 43
1.0
 76
     1
 77
     6
 78
     2
 67
     7
 79
     5
170
     0
171
     0
290
     0
174
     0
 93
        1
 44
-50.0
173
     0
291
     1
 45
0.0
1001
ACAD
1000
AcDbSavedByObjectVersion
1070
     0
  0
VISUALSTYLE
  5
9BE
102
{ACAD_REACTORS
330
9A6
102
}
102
{ACAD_XDICTIONARY
360
A93
102
}
330
9A6
100
AcDbVisualStyle
  2
EdgeColorOff
 70
    22
 71
     2
 72
     2
 73
     0
 90
        0
 40
-0.6
 41
-30.0
 62
     5
 63
     7
421
 16777215
 74
     1
 91
        4
 64
     7
 65
   257
 75
     1
175
     1
 42
1.0
 92
        8
 66
     7
 43
1.0
 76
     1
 77
     6
 78
     2
 67
     7
 79
     5
170
     0
171
     0
290
     0
174
     0
 93
        1
 44
0.0
173
     0
291
     1
 45
0.0
1001
ACAD
1000
AcDbSavedByObjectVersion
1070
     0
  0
VISUALSTYLE
  5
9B5
102
{ACAD_REACTORS
330
9A6
102
}
102
{ACAD_XDICTIONARY
360
A95
102
}
330
9A6
100
AcDbVisualStyle
  2
Facepattern
 70
    15
 71
     2
 72
     2
 73
     0
 90
        0
 40
-0.6
 41
-30.0
 62
     5
 63
     7
421
 16777215
 74
     1
 91
        4
 64
     7
 65
   257
 75
     1
175
     1
 42
1.0
 92
        8
 66
     7
 43
1.0
 76
     1
 77
     6
 78
     2
 67
     7
 79
     5
170
     0
171
     0
290
     0
174
     0
 93
        1
 44
0.0
173
     0
291
     1
 45
0.0
1001
ACAD
1000
AcDbSavedByObjectVersion
1070
     0
  0
VISUALSTYLE
  5
9A7
102
{ACAD_REACTORS
330
9A6
102
}
102
{ACAD_XDICTIONARY
360
A97
102
}
330
9A6
100
AcDbVisualStyle
  2
Flat
 70
     0
 71
     2
 72
     1
 73
     1
 90
        2
 40
-0.6
 41
30.0
 62
     5
 63
     7
421
 16777215
 74
     0
 91
        0
 64
     7
 65
   257
 75
     1
175
     1
 42
1.0
 92
        8
 66
     7
 43
1.0
 76
     1
 77
     6
 78
     2
 67
     7
 79
     5
170
     0
171
     0
290
     0
174
     0
 93
       13
 44
0.0
173
     0
291
     1
 45
0.0
1001
ACAD
1000
AcDbSavedByObjectVersion
1070
     0
  0
VISUALSTYLE
  5
9A8
102
{ACAD_REACTORS
330
9A6
102
}
102
{ACAD_XDICTIONARY
360
A99
102
}
330
9A6
100
AcDbVisualStyle
  2
FlatWithEdges
 70
     1
 71
     2
 72
     1
 73
     1
 90
        2
 40
-0.6
 41
30.0
 62
     5
 63
     7
421
 16777215
 74
     1
 91
        0
 64
     7
 65
   257
 75
     1
175
     1
 42
1.0
 92
        0
 66
   257
 43
1.0
 76
     1
 77
     6
 78
     2
 67
     7
 79
     5
170
     0
171
     0
290
     0
174
     0
 93
       13
 44
0.0
173
     0
291
     1
 45
0.0
1001
ACAD
1000
AcDbSavedByObjectVersion
1070
     0
  0
VISUALSTYLE
  5
9A9
102
{ACAD_REACTORS
330
9A6
102
}
102
{ACAD_XDICTIONARY
360
A9B
102
}
330
9A6
100
AcDbVisualStyle
  2
Gouraud
 70
     2
 71
     2
 72
     2
 73
     1
 90
        2
 40
-0.6
 41
30.0
 62
     5
 63
     7
421
 16777215
 74
     0
 91
        0
 64
     7
 65
   257
 75
     1
175
     1
 42
1.0
 92
        0
 66
     7
 43
1.0
 76
     1
 77
     6
 78
     2
 67
     7
 79
     5
170
     0
171
     0
290
     0
174
     0
 93
       13
 44
0.0
173
     0
291
     1
 45
0.0
1001
ACAD
1000
AcDbSavedByObjectVersion
1070
     0
  0
VISUALSTYLE
  5
9AA
102
{ACAD_REACTORS
330
9A6
102
}
102
{ACAD_XDICTIONARY
360
A9D
102
}
330
9A6
100
AcDbVisualStyle
  2
GouraudWithEdges
 70
     3
 71
     2
 72
     2
 73
     1
 90
        2
 40
-0.6
 41
30.0
 62
     5
 63
     7
421
 16777215
 74
     1
 91
        0
 64
     7
 65
   257
 75
     1
175
     1
 42
1.0
 92
        0
 66
   257
 43
1.0
 76
     1
 77
     6
 78
     2
 67
     7
 79
     5
170
     0
171
     0
290
     0
174
     0
 93
       13
 44
0.0
173
     0
291
     1
 45
0.0
1001
ACAD
1000
AcDbSavedByObjectVersion
1070
     0
  0
VISUALSTYLE
  5
9AE
102
{ACAD_REACTORS
330
9A6
102
}
102
{ACAD_XDICTIONARY
360
A9F
102
}
330
9A6
100
AcDbVisualStyle
  2
Hidden
 70
     6
 71
     1
 72
     2
 73
     2
 90
        0
 40
-0.6
 41
-30.0
 62
     5
 63
     7
421
 16777215
 74
     2
 91
        2
 64
     7
 65
   257
 75
     2
175
     1
 42
40.0
 92
        0
 66
   257
 43
1.0
 76
     1
 77
     6
 78
     2
 67
     7
 79
     3
170
     0
171
     0
290
     0
174
     0
 93
        1
 44
0.0
173
     0
291
     0
 45
0.0
1001
ACAD
1000
AcDbSavedByObjectVersion
1070
     0
  0
VISUALSTYLE
  5
9BC
102
{ACAD_REACTORS
330
9A6
102
}
102
{ACAD_XDICTIONARY
360
AA1
102
}
330
9A6
100
AcDbVisualStyle
  2
JitterOff
 70
    20
 71
     2
 72
     2
 73
     0
 90
        0
 40
-0.6
 41
-30.0
 62
     5
 63
     7
421
 16777215
 74
     1
 91
        4
 64
     7
 65
   257
 75
     1
175
     1
 42
1.0
 92
       10
 66
     7
 43
1.0
 76
     1
 77
     6
 78
     2
 67
     7
 79
     5
170
     0
171
     0
290
     0
174
     0
 93
        1
 44
0.0
173
     0
291
     1
 45
0.0
1001
ACAD
1000
AcDbSavedByObjectVersion
1070
     0
  0
VISUALSTYLE
  5
9B4
102
{ACAD_REACTORS
330
9A6
102
}
102
{ACAD_XDICTIONARY
360
AA3
102
}
330
9A6
100
AcDbVisualStyle
  2
Linepattern
 70
    14
 71
     2
 72
     2
 73
     0
 90
        0
 40
-0.6
 41
-30.0
 62
     5
 63
     7
421
 16777215
 74
     1
 91
        4
 64
     7
 65
   257
 75
     7
175
     7
 42
1.0
 92
        8
 66
     7
 43
1.0
 76
     1
 77
     6
 78
     2
 67
     7
 79
     5
170
     0
171
     0
290
     0
174
     0
 93
        1
 44
0.0
173
     0
291
     1
 45
0.0
1001
ACAD
1000
AcDbSavedByObjectVersion
1070
     0
  0
VISUALSTYLE
  5
9BD
102
{ACAD_REACTORS
330
9A6
102
}
102
{ACAD_XDICTIONARY
360
AA5
102
}
330
9A6
100
AcDbVisualStyle
  2
OverhangOff
 70
    21
 71
     2
 72
     2
 73
     0
 90
        0
 40
-0.6
 41
-30.0
 62
     5
 63
     7
421
 16777215
 74
     1
 91
        4
 64
     7
 65
   257
 75
     1
175
     1
 42
1.0
 92
        9
 66
     7
 43
1.0
 76
     1
 77
     6
 78
     2
 67
     7
 79
     5
170
     0
171
     0
290
     0
174
     0
 93
        1
 44
0.0
173
     0
291
     1
 45
0.0
1001
ACAD
1000
AcDbSavedByObjectVersion
1070
     0
  0
VISUALSTYLE
  5
9B0
102
{ACAD_REACTORS
330
9A6
102
}
102
{ACAD_XDICTIONARY
360
AA7
102
}
330
9A6
100
AcDbVisualStyle
  2
Realistic
 70
     8
 71
     2
 72
     2
 73
     0
 90
        2
 40
-0.6
 41
30.0
 62
     5
 63
     7
421
 16777215
 74
     0
 91
        0
 64
     7
 65
   257
 75
     1
175
     1
 42
1.0
 92
        8
 66
   257
 43
1.0
 76
     1
 77
     6
 78
     2
 67
     7
 79
     3
170
     0
171
     0
290
     0
174
     0
 93
       13
 44
0.0
173
     0
291
     0
 45
0.0
1001
ACAD
1000
AcDbSavedByObjectVersion
1070
     0
  0
VISUALSTYLE
  5
9BB
102
{ACAD_REACTORS
330
9A6
102
}
102
{ACAD_XDICTIONARY
360
AA9
102
}
330
9A6
100
AcDbVisualStyle
  2
Shaded
 70
    27
 71
     2
 72
     2
 73
     1
 90
        2
 40
-0.6
 41
30.0
 62
     5
 63
     7
421
 16777215
 74
     0
 91
        4
 64
     7
 65
   257
 75
     1
175
     1
 42
1.0
 92
        8
 66
   257
 43
1.0
 76
     1
 77
     6
 78
     2
 67
     8
425
  7895160
 79
     3
170
     0
171
     0
290
     0
174
     0
 93
        5
 44
0.0
173
     0
291
     0
 45
0.0
1001
ACAD
1000
AcDbSavedByObjectVersion
1070
     0
  0
VISUALSTYLE
  5
9BA
102
{ACAD_REACTORS
330
9A6
102
}
102
{ACAD_XDICTIONARY
360
AAB
102
}
330
9A6
100
AcDbVisualStyle
  2
Shaded with edges
 70
    26
 71
     2
 72
     2
 73
     1
 90
        2
 40
-0.6
 41
30.0
 62
     5
 63
     7
421
 16777215
 74
     1
 91
       10
 64
     7
 65
   257
 75
     2
175
     1
 42
1.0
 92
        8
 66
   257
 43
1.0
 76
     1
 77
     6
 78
     2
 67
     7
 79
     3
170
     0
171
     0
290
     0
174
     0
 93
        5
 44
0.0
173
     0
291
     0
 45
0.0
1001
ACAD
1000
AcDbSavedByObjectVersion
1070
     0
  0
VISUALSTYLE
  5
9B7
102
{ACAD_REACTORS
330
9A6
102
}
102
{ACAD_XDICTIONARY
360
AAD
102
}
330
9A6
100
AcDbVisualStyle
  2
Shades of Gray
 70
    23
 71
     2
 72
     2
 73
     3
 90
        0
 40
-0.6
 41
-30.0
 62
     5
 63
     7
421
 16777215
 74
     2
 91
        2
 64
     7
 65
     7
 75
     1
175
     1
 42
40.0
 92
        8
 66
     7
 43
1.0
 76
     1
 77
     6
 78
     2
 67
     7
 79
     3
170
     0
171
     0
290
     0
174
     0
 93
        1
 44
0.0
173
     0
291
     0
 45
0.0
1001
ACAD
1000
AcDbSavedByObjectVersion
1070
     0
  0
VISUALSTYLE
  5
9B8
102
{ACAD_REACTORS
330
9A6
102
}
102
{ACAD_XDICTIONARY
360
AAF
102
}
330
9A6
100
AcDbVisualStyle
  2
Sketchy
 70
    24
 71
     1
 72
     2
 73
     2
 90
        0
 40
-0.6
 41
-30.0
 62
     5
 63
     7
421
 16777215
 74
     2
 91
        2
 64
     7
 65
     7
 75
     1
175
     1
 42
40.0
 92
       11
 66
     7
 43
1.0
 76
     1
 77
     6
 78
     2
 67
     7
 79
     6
170
     0
171
     0
290
     0
174
     0
 93
        1
 44
0.0
173
     0
291
     0
 45
0.0
1001
ACAD
1000
AcDbSavedByObjectVersion
1070
     0
  0
VISUALSTYLE
  5
9B3
102
{ACAD_REACTORS
330
9A6
102
}
102
{ACAD_XDICTIONARY
360
AB1
102
}
330
9A6
100
AcDbVisualStyle
  2
Thicken
 70
    13
 71
     2
 72
     2
 73
     0
 90
        0
 40
-0.6
 41
-30.0
 62
     5
 63
     7
421
 16777215
 74
     1
 91
        4
 64
     7
 65
   257
 75
     1
175
     1
 42
1.0
 92
       12
 66
     7
 43
1.0
 76
     1
 77
     6
 78
     2
 67
     7
 79
     5
170
     0
171
     0
290
     0
174
     0
 93
        1
 44
0.0
173
     0
291
     1
 45
0.0
1001
ACAD
1000
AcDbSavedByObjectVersion
1070
     0
  0
VISUALSTYLE
  5
9AD
102
{ACAD_REACTORS
330
9A6
102
}
102
{ACAD_XDICTIONARY
360
AB3
102
}
330
9A6
100
AcDbVisualStyle
  2
Wireframe
 70
     5
 71
     0
 72
     2
 73
     0
 90
        0
 40
-0.6
 41
-30.0
 62
     5
 63
     7
421
 16777215
 74
     1
 91
        4
 64
     7
 65
   257
 75
     1
175
     1
 42
1.0
 92
        0
 66
   257
 43
1.0
 76
     1
 77
     6
 78
     2
 67
     7
 79
     3
170
     0
171
     0
290
     0
174
     0
 93
        1
 44
0.0
173
     0
291
     0
 45
0.0
1001
ACAD
1000
AcDbSavedByObjectVersion
1070
     0
  0
VISUALSTYLE
  5
9B9
102
{ACAD_REACTORS
330
9A6
102
}
102
{ACAD_XDICTIONARY
360
AB5
102
}
330
9A6
100
AcDbVisualStyle
  2
X-Ray
 70
    25
 71
     2
 72
     2
 73
     1
 90
        1
 40
0.5
 41
-30.0
 62
     5
 63
     7
421
 16777215
 74
     1
 91
        0
 64
     7
 65
   257
 75
     1
175
     1
 42
1.0
 92
        8
 66
     7
 43
1.0
 76
     1
 77
     6
 78
     2
 67
     7
 79
     3
170
     0
171
     0
290
     0
174
     0
 93
       13
 44
0.0
173
     0
291
     0
 45
0.0
1001
ACAD
1000
AcDbSavedByObjectVersion
1070
     0
  0
DICTIONARYVAR
  5
A6E
102
{ACAD_REACTORS
330
A7
102
}
330
A7
100
DictionaryVariables
280
     0
  1
1:1
  0
DICTIONARYVAR
  5
A6A
102
{ACAD_REACTORS
330
A7
102
}
330
A7
100
DictionaryVariables
280
     0
  1
Standard
  0
DICTIONARYVAR
  5
A69
102
{ACAD_REACTORS
330
A7
102
}
330
A7
100
DictionaryVariables
280
     0
  1
Standard
  0
DICTIONARYVAR
  5
A6B
102
{ACAD_REACTORS
330
A7
102
}
330
A7
100
DictionaryVariables
280
     0
  1
Imperial24
  0
DICTIONARYVAR
  5
A6C
102
{ACAD_REACTORS
330
A7
102
}
330
A7
100
DictionaryVariables
280
     0
  1
Imperial24
  0
DICTIONARYVAR
  5
A8
102
{ACAD_REACTORS
330
A7
102
}
330
A7
100
DictionaryVariables
280
     0
  1
4
  0
DICTIONARYVAR
  5
A70
102
{ACAD_REACTORS
330
A7
102
}
330
A7
100
DictionaryVariables
280
     0
  1
1
  0
DICTIONARYVAR
  5
A71
102
{ACAD_REACTORS
330
A7
102
}
330
A7
100
DictionaryVariables
280
     0
  1
15
  0
DICTIONARYVAR
  5
A6F
102
{ACAD_REACTORS
330
A7
102
}
330
A7
100
DictionaryVariables
280
     0
  1
0
  0
DICTIONARYVAR
  5
A6D
102
{ACAD_REACTORS
330
A7
102
}
330
A7
100
DictionaryVariables
280
     0
  1
0
  0
DICTIONARYVAR
  5
A72
102
{ACAD_REACTORS
330
A7
102
}
330
A7
100
DictionaryVariables
280
     0
  1
2
  0
DICTIONARY
  5
A2F
102
{ACAD_REACTORS
330
A2D
102
}
330
A2D
100
AcDbDictionary
281
     1
  0
DICTIONARY
  5
A2E
102
{ACAD_REACTORS
330
A2D
102
}
330
A2D
100
AcDbDictionary
281
     1
  3
2130001728
350
A28
  3
2130001736
350
A29
  3
2130001744
350
A2A
  3
2130001752
350
A2B
  3
2130001760
350
A2C
  0
DICTIONARY
  5
A65
330
9D9
100
AcDbDictionary
280
     1
281
     1
  3
ACAD_XREC_ROUNDTRIP
360
A66
  0
DICTIONARY
  5
A67
330
9DC
100
AcDbDictionary
280
     1
281
     1
  3
ADSK_XREC_LAYOUTTHUMBNAIL
360
A68
  0
DICTIONARY
  5
A7D
330
996
100
AcDbDictionary
280
     1
281
     1
  3
ACAD_XREC_ROUNDTRIP
360
A7E
  0
DICTIONARY
  5
A7F
330
98E
100
AcDbDictionary
280
     1
281
     1
  3
ACAD_XREC_ROUNDTRIP
360
A80
  0
DICTIONARY
  5
A81
330
99E
100
AcDbDictionary
280
     1
281
     1
  3
ACAD_XREC_ROUNDTRIP
360
A82
  0
DICTIONARY
  5
A63
330
9D7
100
AcDbDictionary
280
     1
281
     1
  3
ACAD_XREC_ROUNDTRIP
360
A64
  0
DICTIONARY
  5
A83
330
9C1
100
AcDbDictionary
280
     1
281
     1
  3
ACAD_ROUNDTRIP_2008_TABLESTYLE_CELLSTYLEMAP
360
A85
  3
ACAD_XREC_ROUNDTRIP
360
A84
  0
DICTIONARY
  5
A87
330
9AC
100
AcDbDictionary
280
     1
281
     1
  3
ACAD_XREC_ROUNDTRIP
360
A88
  0
DICTIONARY
  5
A89
330
9AB
100
AcDbDictionary
280
     1
281
     1
  3
ACAD_XREC_ROUNDTRIP
360
A8A
  0
DICTIONARY
  5
A8B
330
9B2
100
AcDbDictionary
280
     1
281
     1
  3
ACAD_XREC_ROUNDTRIP
360
A8C
  0
DICTIONARY
  5
A8D
330
9B6
100
AcDbDictionary
280
     1
281
     1
  3
ACAD_XREC_ROUNDTRIP
360
A8E
  0
DICTIONARY
  5
A8F
330
9AF
100
AcDbDictionary
280
     1
281
     1
  3
ACAD_XREC_ROUNDTRIP
360
A90
  0
DICTIONARY
  5
A91
330
9B1
100
AcDbDictionary
280
     1
281
     1
  3
ACAD_XREC_ROUNDTRIP
360
A92
  0
DICTIONARY
  5
A93
330
9BE
100
AcDbDictionary
280
     1
281
     1
  3
ACAD_XREC_ROUNDTRIP
360
A94
  0
DICTIONARY
  5
A95
330
9B5
100
AcDbDictionary
280
     1
281
     1
  3
ACAD_XREC_ROUNDTRIP
360
A96
  0
DICTIONARY
  5
A97
330
9A7
100
AcDbDictionary
280
     1
281
     1
  3
ACAD_XREC_ROUNDTRIP
360
A98
  0
DICTIONARY
  5
A99
330
9A8
100
AcDbDictionary
280
     1
281
     1
  3
ACAD_XREC_ROUNDTRIP
360
A9A
  0
DICTIONARY
  5
A9B
330
9A9
100
AcDbDictionary
280
     1
281
     1
  3
ACAD_XREC_ROUNDTRIP
360
A9C
  0
DICTIONARY
  5
A9D
330
9AA
100
AcDbDictionary
280
     1
281
     1
  3
ACAD_XREC_ROUNDTRIP
360
A9E
  0
DICTIONARY
  5
A9F
330
9AE
100
AcDbDictionary
280
     1
281
     1
  3
ACAD_XREC_ROUNDTRIP
360
AA0
  0
DICTIONARY
  5
AA1
330
9BC
100
AcDbDictionary
280
     1
281
     1
  3
ACAD_XREC_ROUNDTRIP
360
AA2
  0
DICTIONARY
  5
AA3
330
9B4
100
AcDbDictionary
280
     1
281
     1
  3
ACAD_XREC_ROUNDTRIP
360
AA4
  0
DICTIONARY
  5
AA5
330
9BD
100
AcDbDictionary
280
     1
281
     1
  3
ACAD_XREC_ROUNDTRIP
360
AA6
  0
DICTIONARY
  5
AA7
330
9B0
100
AcDbDictionary
280
     1
281
     1
  3
ACAD_XREC_ROUNDTRIP
360
AA8
  0
DICTIONARY
  5
AA9
330
9BB
100
AcDbDictionary
280
     1
281
     1
  3
ACAD_XREC_ROUNDTRIP
360
AAA
  0
DICTIONARY
  5
AAB
330
9BA
100
AcDbDictionary
280
     1
281
     1
  3
ACAD_XREC_ROUNDTRIP
360
AAC
  0
DICTIONARY
  5
AAD
330
9B7
100
AcDbDictionary
280
     1
281
     1
  3
ACAD_XREC_ROUNDTRIP
360
AAE
  0
DICTIONARY
  5
AAF
330
9B8
100
AcDbDictionary
280
     1
281
     1
  3
ACAD_XREC_ROUNDTRIP
360
AB0
  0
DICTIONARY
  5
AB1
330
9B3
100
AcDbDictionary
280
     1
281
     1
  3
ACAD_XREC_ROUNDTRIP
360
AB2
  0
DICTIONARY
  5
AB3
330
9AD
100
AcDbDictionary
280
     1
281
     1
  3
ACAD_XREC_ROUNDTRIP
360
AB4
  0
DICTIONARY
  5
AB5
330
9B9
100
AcDbDictionary
280
     1
281
     1
  3
ACAD_XREC_ROUNDTRIP
360
AB6
  0
XRECORD
  5
A28
102
{ACAD_REACTORS
330
A2E
102
}
330
A2E
100
AcDbXrecord
280
     1
  1
AcDb_Thumbnail_Schema
102
{ATTRRECORD
341
A29
  2
AcDbDs::TreatedAsObjectData
280
     1
291
     1
102
ATTRRECORD}
102
{ATTRRECORD
341
A2A
  2
AcDbDs::Legacy
280
     1
291
     1
102
ATTRRECORD}
  2
AcDbDs::ID
280
    10
 91
        8
102
{ATTRRECORD
341
A2B
  2
AcDs:Indexable
280
     1
291
     1
102
ATTRRECORD}
102
{ATTRRECORD
341
A2C
  2
AcDbDs::HandleAttribute
280
     7
282
     1
102
ATTRRECORD}
  2
Thumbnail_Data
280
    15
 91
        0
  0
XRECORD
  5
A29
102
{ACAD_REACTORS
330
A2E
102
}
330
A2E
100
AcDbXrecord
280
     1
  1
AcDbDs::TreatedAsObjectDataSchema
  2
AcDbDs::TreatedAsObjectData
280
     1
 91
        0
  0
XRECORD
  5
A2A
102
{ACAD_REACTORS
330
A2E
102
}
330
A2E
100
AcDbXrecord
280
     1
  1
AcDbDs::LegacySchema
  2
AcDbDs::Legacy
280
     1
 91
        0
  0
XRECORD
  5
A2B
102
{ACAD_REACTORS
330
A2E
102
}
330
A2E
100
AcDbXrecord
280
     1
  1
AcDbDs::IndexedPropertySchema
  2
AcDs:Indexable
280
     1
 91
        0
  0
XRECORD
  5
A2C
102
{ACAD_REACTORS
330
A2E
102
}
330
A2E
100
AcDbXrecord
280
     1
  1
AcDbDs::HandleAttributeSchema
  2
AcDbDs::HandleAttribute
280
     7
 91
        1
284
     1
  0
XRECORD
  5
A66
102
{ACAD_REACTORS
330
A65
102
}
330
A65
100
AcDbXrecord
280
     1
102
DISPLAYNAME
  1
Imperial24
102
FLAGS
 90
        0
  0
XRECORD
  5
A68
102
{ACAD_REACTORS
330
A67
102
}
330
A67
100
AcDbXrecord
280
     1
310
2800000000010000A4000000010008000000000000A4000001000000010000000001000000000000292929FF000000FFC8C8C8FF000000FF000000FF000000FF000000FF000000FF000000FF000000FF000000FF330000FF660000FF990000FFCC0000FFFF0000FF003300FF333300FF663300FF993300FFCC3300FFFF3300
310
FF006600FF336600FF666600FF996600FFCC6600FFFF6600FF009900FF339900FF669900FF999900FFCC9900FFFF9900FF00CC00FF33CC00FF66CC00FF99CC00FFCCCC00FFFFCC00FF00FF00FF33FF00FF66FF00FF99FF00FFCCFF00FFFFFF00FF000033FF330033FF660033FF990033FFCC0033FFFF0033FF003333FF3333
310
33FF663333FF993333FFCC3333FFFF3333FF006633FF336633FF666633FF996633FFCC6633FFFF6633FF009933FF339933FF669933FF999933FFCC9933FFFF9933FF00CC33FF33CC33FF66CC33FF99CC33FFCCCC33FFFFCC33FF00FF33FF33FF33FF66FF33FF99FF33FFCCFF33FFFFFF33FF000066FF330066FF660066FF99
310
0066FFCC0066FFFF0066FF003366FF333366FF663366FF993366FFCC3366FFFF3366FF006666FF336666FF666666FF996666FFCC6666FFFF6666FF009966FF339966FF669966FF999966FFCC9966FFFF9966FF00CC66FF33CC66FF66CC66FF99CC66FFCCCC66FFFFCC66FF00FF66FF33FF66FF66FF66FF99FF66FFCCFF66FF
310
FFFF66FF000099FF330099FF660099FF990099FFCC0099FFFF0099FF003399FF333399FF663399FF993399FFCC3399FFFF3399FF006699FF336699FF666699FF996699FFCC6699FFFF6699FF009999FF339999FF669999FF999999FFCC9999FFFF9999FF00CC99FF33CC99FF66CC99FF99CC99FFCCCC99FFFFCC99FF00FF99
310
FF33FF99FF66FF99FF99FF99FFCCFF99FFFFFF99FF0000CCFF3300CCFF6600CCFF9900CCFFCC00CCFFFF00CCFF0033CCFF3333CCFF6633CCFF9933CCFFCC33CCFFFF33CCFF0066CCFF3366CCFF6666CCFF9966CCFFCC66CCFFFF66CCFF0099CCFF3399CCFF6699CCFF9999CCFFCC99CCFFFF99CCFF00CCCCFF33CCCCFF66CC
310
CCFF99CCCCFFCCCCCCFFFFCCCCFF00FFCCFF33FFCCFF66FFCCFF99FFCCFFCCFFCCFFFFFFCCFF0000FFFF3300FFFF6600FFFF9900FFFFCC00FFFFFF00FFFF0033FFFF3333FFFF6633FFFF9933FFFFCC33FFFFFF33FFFF0066FFFF3366FFFF6666FFFF9966FFFFCC66FFFFFF66FFFF0099FFFF3399FFFF6699FFFF9999FFFFCC
310
99FFFFFF99FFFF00CCFFFF33CCFFFF66CCFFFF99CCFFFFCCCCFFFFFFCCFFFF00FFFFFF33FFFFFF66FFFFFF99FFFFFFCCFFFFFFFFFFFFFF000000FF0D0D0DFF1A1A1AFF282828FF353535FF434343FF505050FF5D5D5DFF6B6B6BFF787878FF868686FF939393FFA1A1A1FFAEAEAEFFBBBBBBFFC9C9C9FFD6D6D6FFE4E4E4FF
310
F1F1F1FFFFFFFFFF000000FF000000FF000000FF000000FF000000FF000000FF000000FF000000FF000000FF0000000000000000000000000000000000000000000000000000000000000000000000000000000000000000000000000000000000000000000000000000000000000000000000000000000000000000000000
310
00000000000000000000000000000000000000000000000000000000000000000000000000000000000000000000000000000000000000000000000000000000000000000000000000000000000000000000000000000000000000000000000000000000000000000000000000000000000000000000000000000000000000
310
00000000000000000000000000000000000000000000000000000000000000000000000000000000000000000000000000000000000000000000000000000000000000000000000000000000000000000000000000000000000000000000000000000000000000000000000000000000000000000000000000000000000000
310
00000000000000000000000000000000000000000000000000000000000000000000000000000000000000000000000000000000000000000000000000000000000000000000000000000000000000000000000000000000000000000000000000000000000000000000000000000000000000000000000000000000000000
310
00000000000000000000000000000000000000000000000000000000000000000000000000000000000000000000000000000000000000000000000000000000000000000000000000000000000000000000000000000000000000000000000000000000000000000000000000000000000000000000000000000000000000
310
00000000000000000000000000000000000000000000000000000000000000000000000000000000000000000000000000000000000000000000000000000000000000000000000000000000000000000000000000000000000000000000000000000000000000000000000000000000000000000000000000000000000000
310
00000000000000000000000000000000000000000000000000000000000000000000000000000000000000000000000000000000000000000000000000000000000000000000000000000000000000000000000000000000000000000000000000000000000000000000000000000000000000000000000000000000000000
310
00000000000000000000000000000000000000000000000000000000000000000000000000000000000000000000000000000000000000000000000000000000000000000000000000000000000000000000000000000000000000000000000000000000000000000000000000000000000000000000000000000000000000
310
00000000000000000000000000000000000000000000000000000000000000000000000000000000000000000000000000000000000000000000000000000000000000000000000000000000000000000000000000000000000000000000000000000000000000000000000000000000000000000000000000000000000000
310
00000000000000000000000000000000000000000000000000000000000000000000000000000000000000000000000000000000000000000000000000000000000000000000000000000000000000000000000000000000000000000000000000000000000000000000000000000000000000000000000000000000000000
310
00000000000000000000000000000000000000000000000000000000000000000000000000000000000000000000000000000000000000000000000000000000000000000000000000000000000000000000000000000000000000000000000000000000000000000000000000000000000000000000000000000000000000
310
00000000000000000000000000000000000000000000000000000000000000000000000000000000000000000000000000000000000000000000000000000000000000000000000000000000000000000000000000000000000000000000000000000000000000000000000000000000000000000000000000000000000000
310
00000000000000000000000000000000000000000000000000000000000000000000000000000000000000000000000000000000000000000000000000000000000000000000000000000000000000000000000000000000000000000000000000000000000000000000000000000000000000000000000000000000000000
310
00000000000000000000000000000000000000000000000000000000000000000000000000000000000000000000000000000000000000000000000000000000000000000000000000000000000000000000000000000000000000000000000000000000000000000000000000000000000000000000000000000000000000
310
00000000000000000000000000000000000000000000000000000000000000000000000000000000000000000000000000000000000000000000000000000000000000000000000000000000000000000000000000000000000000000000000000000000000000000000000000000000000000000000000000000000000000
310
00000000000000000000000000000000000000000000000000000000000000000000000000000000000000000000000000000000000000000000000000000000000000000000000000000000000000000000000000000000000000000000000000000000000000000000000000000000000000000000000000000000000000
310
00000000000000000000000000000000000000000000000000000000000000000000000000000000000000000000000000000000000000000000000000000000000000000000000000000000000000000000000000000000000000000000000000000000000000000000000000000000000000000000000000000000000000
310
00000000000000000000000000000000000000000000000000000000000000000000000000000000000000000000000000000000000000000000000000000000000000000000000000000000000000000000000000000000000000000000000000000000000000000000000000000000000000000000000000000000000000
310
00000000000000000000000000000000000000000000000000000000000000000000000000000000000000000000000000000000000000000000000000000000000000000000000000000000000000000000000000000000000000000000000000000000000000000000000000000000000000000000000000000000000000
310
00000000000000000000000000000000000000000000000000000000000000000000000000000000000000000000000000000000000000000000000000000000000000000000000000000000000000000000000000000000000000000000000000000000000000000000000000000000000000000000000000000000000000
310
00000000000000000000000000000000000000000000000000000000000000000000000000000000000000000000000000000000000000000000000000000000000000000000000000000000000000000000000000000000000000000000000000000000000000000000000000000000000000000000000000000000000000
310
00000000000000000000000000000000000000000000000000000000000000000000000000000000000000000000000000000000000000000000000000000000000000000000000000000000000000000000000000000000000000000000000000000000000000000000000000000000000000000000000000000000000000
310
00000000000000000000000000000000000000000000000000000000000000000000000000000000000000000000000000000000000000000000000000000000000000000000000000000000000000000000000000000000000000000000000000000000000000000000000000000000000000000000000000000000000000
310
00000000000000000000000000000000000000000000000000000000000000000000000000000000000000000000000000000000000000000000000000000000000000000000000000000000000000000000000000000000000000000000000000000000000000000000000000000000000000000000000000000000000000
310
00000000000000000000000000000000000000000000000000000000000000000000000000000000000000000000000000000000000000000000000000000000000000000000000000000000000000000000000000000000000000000000000000000000000000000000000000000000000000000000000000000000000000
310
00000000000000000000000000000000000000000000000000000000000000000000000000000000000000000000000000000000000000000000000000000000000000000000000000000000000000000000000000000000000000000000000000000000000000000000000000000000000000000000000000000000000000
310
00000000000000000000000000000000000000000000000000000000000000000000000000000000000000000000000000000000000000000000000000000000000000000000000000000000000000000000000000000000000000000000000000000000000000000000000000000000000000000000000000000000000000
310
00000000000000000000000000000000000000000000000000000000000000000000000000000000000000000000000000000000000000000000000000000000000000000000000000000000000000000000000000000000000000000000000000000000000000000000000000000000000000000000000000000000000000
310
00000000000000000000000000000000000000000000000000000000000000000000000000000000000000000000000000000000000000000000000000000000000000000000000000000000000000000000000000000000000000000000000000000000000000000000000000000000000000000000000000000000000000
310
00000000000000000000000000000000000000000000000000000000000000000000000000000000000000000000000000000000000000000000000000000000000000000000000000000000000000000000000000000000000000000000000000000000000000000000000000000000000000000000000000000000000000
310
00000000000000000000000000000000000000000000000000000000000000000000000000000000000000000000000000000000000000000000000000000000000000000000000000000000000000000000000000000000000000000000000000000000000000000000000000000000000000000000000000000000000000
310
00000000000000000000000000000000000000000000000000000000000000000000000000000000000000000000000000000000000000000000000000000000000000000000000000000000000000000000000000000000000000000000000000000000000000000000000000000000000000000000000000000000000000
310
00000000000000000000000000000000000000000000000000000000000000000000000000000000000000000000000000000000000000000000000000000000000000000000000000000000000000000000000000000000000000000000000000000000000000000000000000000000000000000000000000000000000000
310
00000000000000000000000000000000000000000000000000000000000000000000000000000000000000000000000000000000000000000000000000000000000000000000000000000000000000000000000000000000000000000000000000000000000000000000000000000000000000000000000000000000000000
310
00000000000000000000000000000000000000000000000000000000000000000000000000000000000000000000000000000000000000000000000000000000000000000000000000000000000000000000000000000000000000000000000000000000000000000000000000000000000000000000000000000000000000
310
00000000000000000000000000000000000000000000000000000000000000000000000000000000000000000000000000000000000000000000000000000000000000000000000000000000000000000000000000000000000000000000000000000000000000000000000000000000000000000000000000000000000000
310
00000000000000000000000000000000000000000000000000000000000000000000000000000000000000000000000000000000000000000000000000000000000000000000000000000000000000000000000000000000000000000000000000000000000000000000000000000000000000000000000000000000000000
310
00000000000000000000000000000000000000000000000000000000000000000000000000000000000000000000000000000000000000000000000000000000000000000000000000000000000000000000000000000000000000000000000000000000000000000000000000000000000000000000000000000000000000
310
00000000000000000000000000000000000000000000000000000000000000000000000000000000000000000000000000000000000000000000000000000000000000000000000000000000000000000000000000000000000000000000000000000000000000000000000000000000000000000000000000000000000000
310
00000000000000000000000000000000000000000000000000000000000000000000000000000000000000000000000000000000000000000000000000000000000000000000000000000000000000000000000000000000000000000000000000000000000000000000000000000000000000000000000000000000000000
310
00000000000000000000000000000000000000000000000000000000000000000000000000000000000000000000000000000000000000000000000000000000000000000000000000000000000000000000000000000000000000000000000000000000000000000000000000000000000000000000000000000000000000
310
00000000000000000000000000000000000000000000000000000000000000000000000000000000000000000000000000000000000000000000000000000000000000000000000000000000000000000000000000000000000000000000000000000000000000000000000000000000000000000000000000000000000000
310
00000000000000000000000000000000000000000000000000000000000000000000000000000000000000000000000000000000000000000000000000000000000000000000000000000000000000000000000000000000000000000000000000000000000000000000000000000000000000000000000000000000000000
310
00000000000000000000000000000000000000000000000000000000000000000000000000000000000000000000000000000000000000000000000000000000000000000000000000000000000000000000000000000000000000000000000000000000000000000000000000000000000000000000000000000000000000
310
00000000000000000000000000000000000000000000000000000000000000000000000000000000000000000000000000000000000000000000000000000000000000000000000000000000000000000000000000000000000000000000000000000000000000000000000000000000000000000000000000000000000000
310
00000000000000000000000000000000000000000000000000000000000000000000000000000000000000000000000000000000000000000000000000000000000000000000000000000000000000000000000000000000000000000000000000000000000000000000000000000000000000000000000000000000000000
310
000000000000000000000000000000000000000000000000000000000000000000000000000000BEBEBEBEBEBEBEBEBEBEBEBEBEBEBE00000000000000000000000000000000000000000000000000000000000000000000000000000000000000000000000000000000000000000000000000000000000000000000000000
310
000000000000DCDCDCDCDCDCDCDCDCDCDCDCDCDCDCDCDCDCDCDCDCDCDCDCDCDCDCDCDCDCDCDCDCDCDCDCDCDCDCDCDCDCDCDCDCDCDCDCDCDCDCDCDCDCDCDCDCDCDCDCDCDCDCDCDCDCDCDCDCDCDCDCDCDCDCDCDCDCDCDCDCDCDCDCDCDCDCDCDCDCDCDCDCDCDCDCDCDCDCDCDCDCDCDCDCDCDCDCDCDCDCDCDCDCDCDCDCDCDCDCDC
310
DCDCDCDCDCDCDCDCDCDCDCDCDCDCDCDCDCDCDCDCDCDCDCDCDCDCDCDCDCDCDCDCDCDCDCDCDCDCDCDCDCDCDCDCDCDCDCDCDCDCDCDCDCDCDCDC0000000000000000000000000000000000000000000000000000000000000000000000000000000000000000000000000000000000000000000000000000000000000000000000
310
0000000000000000DC00000000000000000000000000000000000000000000000000000000000000000000000000000000000000000000000000000000000000000000000000000000000000000000000000000000000000000000000000000000000000000000000000000000000000000000000000000000000000000000
310
000000000000000000000000000000000000000000000000000000000000000000DC000000000000000000BEBE0000000000BEBEBE00000000DC000000000000000000000000000000000000000000000000000000000000000000000000000000000000000000000000000000000000000000000000000000000000000000
310
00000000000000000000DC0000000000000000000000000000000000000000000000000000000000000000000000000000000000000000000000000000000000000000000000000000000000000000000000000000000000000000000000000000000000000000000000000000000000000000000000000000000000000000
310
0000000000000000000000000000000000000000000000000000000000000000000000DCBEBEBEBEBEBEBEBEBEBEBE0000000000BEBEBE00000000DC00000000000000000000000000000000000000000000000000000000000000000000000000000000000000000000000000000000000000000000000000000000000000
310
000000000000000000000000DC00000000000000000000000000BEBEBEBEBEBEBEBEBEBEBEBEBEBEBEBEBEBEBEBEBEBEBEBEBEBEBEBEBEBEBEBEBEBEBEBEBEBEBEBEBEBEBEBEBEBEBEBEBE00000000000000000000000000000000000000000000000000000000000000000000000000000000000000000000000000000000
310
00000000000000000000000000000000000000000000000000000000000000000000000000DCBEBEBEBEBEBEBEBEBEBEBEBEBEBEBEBEBEBEBEBEBEBEBEDC0000000000000000000000000000000000000000000000000000000000000000000000000000000000000000000000000000000000000000000000000000000000
310
0000000000000000000000000000DC00000000000000000000000000BE000000000000000000000000000000000000000000BEBEBEBE00000000000000000000000000000000000000000000BE0000000000000000000000000000000000000000000000000000000000000000000000000000000000000000000000000000
310
000000000000000000000000000000000000000000000000000000000000000000000000000000DCBEBEBEBEBE000000000000BEBE0000BEBEBE00BEBE0000DC000000000000000000000000000000000000000000000000000000000000000000000000000000000000000000000000000000000000000000000000000000
310
00000000000000000000000000000000DC00000000000000000000000000BE0000000000000000000000000000000000000000000000000000000000000000000000000000000000000000000000BE000000000000000000000000000000000000000000000000000000000000000000000000000000000000000000000000
310
0000000000000000000000000000000000000000000000000000000000000000000000000000000000DCBEBEBEBEBEBEBEBEBEBEBEBEBEBEBEBEBEBEBEBEBEBEBEDC00000000000000000000000000000000000000000000000000000000000000000000000000000000000000000000000000000000000000000000000000
310
000000000000000000000000000000000000DC00000000000000000000000000BE0000000000000000000000000000000000000000000000000000000000000000000000000000000000000000000000BE00000000000000000000000000000000000000000000000000000000000000000000000000000000000000000000
310
00000000000000000000000000000000000000000000000000000000000000000000000000000000000000DCBEBEBEBEBE00000000BEBEBEBEBEBEBEBE00000000BEBEDC0000000000000000000000000000000000000000000000000000000000000000000000000000000000000000000000000000000000000000000000
310
0000000000000000000000000000000000000000DC00000000000000000000000000BE0000000000000000000000000000000000000000000000000000000000000000000000000000000000000000000000BE0000000000000000000000000000000000000000000000000000000000000000000000000000000000000000
310
000000000000000000000000000000000000000000000000000000000000000000000000000000000000000000DCBEBEBEBEBEBEBEBEBEBEBEBEBEBEBEBEBEBEBEBEBEBEBEDC000000000000000000000000000000000000000000000000000000000000000000000000000000000000000000000000000000000000000000
310
00000000000000000000000000000000000000000000DC00000000000000000000000000BE0000000000000000000000000000000000000000000000000000000000000000000000000000000000000000000000BE000000000000000000000000000000000000000000000000000000000000000000000000000000000000
310
0000000000000000000000000000000000000000000000000000000000000000000000000000000000000000000000DCBEBEBEBEBEBEBEBEBEBEBEBEBEBEBEBEBEBEBEBEBEBEBEDC00000000000000000000000000000000000000000000000000000000000000000000000000000000000000000000000000000000000000
310
000000000000000000000000000000000000000000000000DC00000000000000000000000000BE0000000000000000000000000000000000000000000000000000000000000000000000000000000000000000000000BE00000000000000000000000000000000000000000000000000000000000000000000000000000000
310
00000000000000000000000000000000000000000000000000000000000000000000000000000000000000000000000000DCBE00BEBEBEBEBEBEBEBEBEBEBEBEBEBEBEBEBEBEBEBEBEDC0000000000000000000000000000000000000000000000000000000000000000000000000000000000000000000000000000000000
310
0000000000000000000000000000000000000000000000000000DC00000000000000000000000000BE0000000000000000000000000000000000000000000000000000000000000000000000000000000000000000000000BE0000000000000000000000000000000000000000000000000000000000000000000000000000
310
000000000000000000000000000000000000000000000000000000000000000000000000000000000000000000000000000000DCBE00BEBEBEBEBEBEBEBEBE00BEBEBEBEBE00BEBEBEBEBEDC000000000000000000000000000000000000000000000000000000000000000000000000000000000000000000000000000000
310
00000000000000000000000000000000000000000000000000000000DC00000000000000000000000000BE0000000000000000000000000000000000000000000000000000000000000000000000000000000000000000000000BE000000000000000000000000000000000000000000000000000000000000000000000000
310
0000000000000000000000000000000000000000000000000000000000000000000000000000000000000000000000000000000000DCDCDCDCDCDCDCDCDCDCDCDCDCDCDCDCDCDCDCDCDCDCDCDCDC00000000000000000000000000000000000000000000000000000000000000000000000000000000000000000000000000
310
000000000000000000000000000000000000000000000000000000000000DC00000000000000000000000000BE2828282828282828282828282828282828282828282828282828282828282828282828282828282828282828282828BEBEBEBEBEBEBEBEBEBEBEBEBE00000000000000000000000000000000000000000000
310
00000000000000000000000000000000000000000000000000000000000000000000000000000000000000000000000000000000000000000000000000000000000000000000000000000000000000DC0000000000000000000000000000000000000000000000000000000000000000000000000000000000000000000000
310
0000000000000000000000000000000000000000000000000000000000000000DC0000000000000000000000000028282828282828282828282800000000000000002D2D0000000000000000000000000000000000000000000000000000280000000000000000BE0000BE0000000000000000000000000000000000000000
310
000000000000000000000000000000000000000000000000000000000000000000000000000000000000000000000000000000000000000000000000000000000000000000000000000000000000000000DC000000000000000000000000000000000000000000000000000000000000000000000000000000000000000000
310
00000000000000000000000000000000000000000000000000000000000000000000DC000000000000000000000000002828282828282828282828282828282828282828282828280000000000000000000000002D2D00000000000000000000280000000000000000BE0000BE000000000000000000000000000000000000
310
0000000000000000000000000000000000000000000000000000000000000000000000000000000000000000000000000000000000000000000000000000000000000000000000000000000000000000000000DC00000000000000000000000000000000000000000000000000000000000000000000000000000000000000
310
000000000000000000000000000000000000000000000000000000000000000000000000DC000000000000000000000000000000000000000000000000000000000000000000BE280028282828282828282828280000282800000000000000000000280000000000000000BE0000BE00000000000000000000000000000000
310
00000000000000000000000000000000000000000000000000000000000000000000000000000000000000000000000000000000000000000000000000000000000000000000000000000000000000000000000000DC0000000000000000000000000000000000000000000000000000000000000000000000000000000000
310
0000000000000000000000000000000000000000000000000000000000000000000000000000DC00000000000000000000000000000000000000000000000000000000000000000000000000000000000000000000002828282828280000000000000000280000000000000000BE0000BE0000000000000000000000000000
310
000000000000000000000000000000000000000000000000000000000000000000000000000000000000000000000000000000000000000000000000000000000000000000000000000000000000000000000000000000DC000000000000000000000000000000000000000000000000000000000000000000000000000000
310
00000000000000000000000000000000000000000000000000000000000000000000000000000000DC00000000000000000000000000000000000000000000000000000000000000000000000000000000000000000000000000000000002800000000000000280000000000000000BE0000BE000000000000000000000000
310
0000000000000000000000000000000000000000000000000000000000000000000000000000000000000000000000000000000000000000000000000000000000000000000000000000000000000000000000000000000000DC00000000000000000000000000000000000000000000000000000000000000000000000000
310
000000000000000000000000000000000000000000000000000000000000000000000000000000000000DC00000000000000000000000000000000000000000000000000000000000000000000000000000000000000000000000000000000000028000000000000280000000000000000BE0000BE00000000000000000000
310
00000000000000000000000000000000000000000000000000000000000000000000000000000000000000000000000000000000000000000000000000000000000000000000000000000000000000000000000000000000000000DC0000000000000000000000000000000000000000000000000000000000000000000000
310
0000000000000000000000000000000000000000000000000000000000000000000000000000000000000000DC0000000000000000000000000000000000000000000000000000000000000000000000000000000000000000000000000000000000000028280000000028000000000000BEBEBE0000BE0000000000000000
310
000000000000000000000000000000000000000000000000000000000000000000000000000000000000000000000000000000000000000000000000000000000000000000000000000000000000000000000000000000000000000000DC000000000000000000000000000000000000000000000000000000000000000000
310
00000000000000000000000000000000000000000000000000000000000000000000000000000000000000000000DC0000000000000000000000000000000000000000000000000000000000000000000000000000000000000000000000000000000000000000002800000028000000000000BEBEBE0000BE000000000000
310
0000000000000000000000000000000000000000000000000000000000000000000000000000000000000000000000000000000000000000000000000000000000000000000000000000000000000000000000000000000000000000000000DC00000000000000000000000000000000000000000000000000000000000000
310
000000000000000000000000000000000000000000000000000000000000000000000000000000000000000000000000DC0000000000000000000000000000000000000000000000000000000000000000000000000000000000000000000000000000000000000000002828000028000000000000BEBEBE0000BE00000000
310
00000000000000000000000000000000000000000000000000000000000000000000000000000000000000000000000000000000000000000000000000000000000000000000000000000000000000000000000000000000000000000000000000DC0000000000000000000000000000000000000000000000000000000000
310
0000000000000000000000000000000000000000000000000000000000000000000000000000000000000000000000000000DC0000000000000000000000000000000000000000000000000000000000000000000000000000000000000000000000000000000000000000002828000028000000000000BEBEBE0000BE0000
310
000000000000000000000000000000000000000000000000000000000000000000000000000000000000000000000000000000000000000000000000000000000000000000000000000000000000000000000000000000000000000000000000000000DC000000000000000000000000000000000000000000000000000000
310
00000000000000000000000000000000000000000000000000000000000000000000000000000000000000000000000000000000DC000000000000000000000000000000000000000000000000000000000000000000000000000000000000000000000000000000000000000000BE282D00280000000000000000BE0000BE
310
0000000000000000000000000000000000000000000000000000000000000000000000000000000000000000000000000000000000000000000000000000000000000000000000000000000000000000000000000000000000000000000000000000000000DC00000000000000000000000000000000000000000000000000
310
000000000000000000000000000000000000000000000000000000000000000000000000000000000000000000000000000000000000DC000000000000000000000000000000000000000000000000000000000000000000000000000000000000000000000000000000000000000000BE282D00280000000000000000BE00
310
00BE0000000000000000000000000000000000000000000000000000000000000000000000000000000000000000000000000000000000000000000000000000000000000000000000000000000000000000000000000000000000000000000000000000000000DC0000000000000000000000000000000000000000000000
310
0000000000000000000000000000000000000000000000000000000000000000000000000000000000000000000000000000000000000000DC00000000000000000000000000000000000000000000000000000000000000000000000000000000000000000000000000000000000000000028280000280000000000000000
310
BE0000BE0000000000000000000000000000000000000000000000000000000000000000000000000000000000000000000000000000000000000000000000000000000000000000000000000000000000000000000000000000000000000000000000000000000000DC000000000000000000000000000000000000000000
310
00000000000000000000000000000000000000000000000000000000000000000000000000000000000000000000000000000000000000000000DC0000000000000000000000000000000000000000000000000000000000000000000000000000000000000000000000000000000000000000002828000028000000000000
310
0000BE0000BE0000000000000000000000000000000000000000000000000000000000000000000000000000000000000000000000000000000000000000000000000000000000000000000000000000000000000000000000000000000000000000000000000000000000DC00000000000000000000000000000000000000
310
000000000000000000000000000000000000000000000000000000000000000000000000000000000000000000000000000000000000000000000000DC000000000000000000000000000000000000000000000000000000000000000000000000000000000000000000000000000000000000000000282800002800000000
310
00000000BE0000BE0000000000000000000000000000000000000000000000000000000000000000000000000000000000000000000000000000000000000000000000000000000000000000000000000000000000000000000000000000000000000000000000000000000000DC0000000000000000000000000000000000
310
0000000000000000000000000000000000000000000000000000000000000000000000000000000000000000000000000000000000000000000000000000DC0000000000000000000000000000000000000000000000000000000000000000000000000000000000000000000000000000000000000000002828282D28BEBE
310
BEBEBEBEBEBEBEBEBEBE0000000000000000000000000000000000000000000000000000000000000000000000000000000000000000000000000000000000000000000000000000000000000000000000000000000000000000000000000000000000000000000000000000000000DC000000000000000000000000000000
310
00000000000000000000000000000000000000000000000000000000000000000000000000000000000000000000000000000000000000000000000000000000DC0000000000000000000000000000000000000000000000000000000000000000000000000000000000000000000000000000000000000000000000280028
310
000000000000000000BEBEBE0000000000000000000000000000000000000000000000000000000000000000000000000000000000000000000000000000000000000000000000000000000000000000000000000000000000000000000000000000000000000000000000000000000000DC00000000000000000000000000
310
000000000000000000000000000000000000000000000000000000000000000000000000000000000000000000000000000000000000000000000000000000000000DC000000000000000000000000000000000000000000000000000000000000000000000000000000000000000000000000000000000000000000000028
310
0028000000000000000000BEBEBE0000000000000000000000000000000000000000000000000000000000000000000000000000000000000000000000000000000000000000000000000000000000000000000000000000000000000000000000000000000000000000000000000000000000DC0000000000000000000000
310
0000000000000000000000000000000000000000000000000000000000000000000000000000000000000000000000000000000000000000000000000000000000000000DC00000000000000000000000000000000000000000000000000000000000000000000000000000000000000000000000000000000000000000000
310
00280028000000000000000000BEBEBE0000000000000000000000000000000000000000000000000000000000000000000000000000000000000000000000000000000000000000000000000000000000000000000000000000000000000000000000000000000000000000000000000000000000DC000000000000000000
310
00000000000000000000000000000000000000000000000000000000000000000000000000000000000000000000000000000000000000000000000000000000000000000000DC0000000000000000000000000000000000000000000000000000000000000000000000000000000000000000000000000000000000000000
310
0000002800280000000000000000000000BE0000000000000000000000000000000000000000000000000000000000000000000000000000000000000000000000000000000000000000000000000000000000000000000000000000000000000000000000000000000000000000000000000000000000DC00000000000000
310
000000000000000000000000000000000000000000000000000000000000000000000000000000000000000000000000000000000000000000000000000000000000000000000000DC000000000000000000000000000000000000000000000000000000000000000000000000000000000000000000000000000000000000
310
00000000002800280000000000000000000000BE0000000000000000000000000000000000000000000000000000000000000000000000000000000000000000000000000000000000000000000000000000000000000000000000000000000000000000000000000000000000000000000000000000000000DC0000000000
310
0000000000000000000000000000000000000000000000000000000000000000000000000000000000000000000000000000000000000000000000000000000000000000000000000000DC00000000000000000000000000000000000000000000000000000000000000000000000000000000000000000000000000000000
310
000000000000002800280000000000000000000000BE0000000000000000000000000000000000000000000000000000000000000000000000000000000000000000000000000000000000000000000000000000000000000000000000000000000000000000000000000000000000000000000000000000000000DC000000
310
00000000000000000000000000000000000000000000000000000000000000000000000000000000000000000000000000000000000000000000000000000000000000000000000000000000DC0000000000000000000000000000000000000000000000000000000000000000000000000000000000000000000000000000
310
0000000000000000002800280000000000000000000000BE0000000000000000000000000000000000000000000000000000000000000000000000000000000000000000000000000000000000000000000000000000000000000000000000000000000000000000000000000000000000000000000000000000000000DC00
310
000000000000000000000000000000000000000000000000000000000000000000000000000000000000000000000000000000000000000000000000000000000000000000000000000000000000DC000000000000000000000000000000000000000000000000000000000000000000000000000000000000000000000000
310
00000000000000000000002800280000000000000000000000BE0000000000000000000000000000000000000000000000000000000000000000000000000000000000000000000000000000000000000000000000000000000000000000000000000000000000000000000000000000000000000000000000000000000000
310
DC00000000000000000000000000000000000000000000000000000000000000000000000000000000000000000000000000000000000000000000000000000000000000000000000000000000000000DC00000000000000000000000000000000000000000000000000000000000000000000000000000000000000000000
310
000000000000000000000000002800280000000000000000000000BE000000000000000000000000000000000000000000000000000000000000000000000000000000000000000000000000000000000000000000000000000000000000000000000000000000000000000000000000000000000000000000000000000000
310
0000DC00000000000000000000000000000000000000000000000000000000000000000000000000000000000000000000000000000000000000000000000000000000000000000000000000000000000000DC0000000000000000000000000000000000000000000000000000000000000000000000000000000000000000
310
0000000000000000000000000000002800280000000000000000000000BE00000000000000000000000000000000000000000000000000000000000000000000000000000000000000000000000000000000000000000000000000000000000000000000000000000000000000000000000000000000000000000000000000
310
00000000DC00000000000000000000000000000000000000000000000000000000000000000000000000000000000000000000000000000000000000000000000000000000000000000000000000000000000000DC000000000000000000000000000000000000000000000000000000000000000000000000000000000000
310
00000000000000000000000000000000002800280000000000000000000000BE0000000000000000000000000000000000000000000000000000000000000000000000000000000000000000000000000000000000000000000000000000000000000000000000000000000000000000000000000000000000000000000000
310
000000000000DC00000000000000000000000000000000000000000000000000000000000000000000000000000000000000000000000000000000000000000000000000000000000000000000000000000000000000DC00000000000000000000000000000000000000000000000000000000000000000000000000000000
310
000000000000000000000000000000000000002800280000000000000000000000BE000000000000000000000000000000000000000000000000000000000000000000000000000000000000000000000000000000000000000000000000000000000000000000000000000000000000000000000000000000000000000000
310
0000000000000000DC00000000000000000000000000000000000000000000000000000000000000000000000000000000000000000000000000000000000000000000000000000000000000000000000000000000000000DC0000000000000000000000000000000000000000000000000000000000000000000000000000
310
0000000000000000000000000000000000000000000028280000000000000000000000BE00000000000000000000000000000000000000000000000000000000000000000000000000000000000000000000000000000000000000000000000000000000000000000000000000000000000000000000000000000000000000
310
00000000000000000000DC00000000000000000000000000000000000000000000000000000000000000000000000000000000000000000000000000000000000000000000000000000000000000000000000000000000000000DC000000000000000000000000000000000000000000000000000000000000000000000000
310
00000000000000000000000000000000000000000000000028280000000000000000000000BE0000000000000000000000000000000000000000000000000000000000000000000000000000000000000000000000000000000000000000000000000000000000000000000000000000000000000000000000000000000000
310
000000000000000000000000DC00000000000000000000000000000000000000000000000000000000000000000000000000000000000000000000000000000000000000000000000000000000000000000000000000000000000000DC00000000000000000000000000000000000000000000000000000000000000000000
310
000000000000000000000000000000000000000000000000000028280000000000000000000000BE000000000000000000000000000000000000000000000000000000000000000000000000000000000000000000000000000000000000000000000000000000000000000000000000000000000000000000000000000000
310
0000000000000000000000000000DC00000000000000000000000000000000000000000000000000000000000000000000000000000000000000000000000000000000000000000000000000000000000000000000000000000000000000DC0000000000000000000000000000000000000000000000000000000000000000
310
0000000000000000000000000000000000000000000000000000000028280000000000000000000000BE00000000000000000000000000000000000000000000000000000000000000000000000000000000000000000000000000000000000000000000000000000000000000000000000000000000000000000000000000
310
00000000000000000000000000000000DC00000000000000000000000000000000000000000000000000000000000000000000000000000000000000000000000000000000000000000000000000000000000000000000000000000000000000DC000000000000000000000000000000000000000000000000000000000000
310
00000000000000000000000000000000000000000000000000000000000028280000000000000000000000BE0000000000000000000000000000000000000000000000000000000000000000000000000000000000000000000000000000000000000000000000000000000000000000000000000000000000000000000000
310
000000000000000000000000000000000000DC00000000000000000000000000000000000000000000000000000000000000000000000000000000000000000000000000000000000000000000000000000000000000000000000000000000000000DC00000000000000000000000000000000000000000000000000000000
310
000000000000000000000000000000000000000000000000000000000000000028280000000000000000000000BE000000000000000000000000000000000000000000000000000000000000000000000000000000000000000000000000000000000000000000000000000000000000000000000000000000000000000000
310
0000000000000000000000000000000000000000DC00000000000000000000000000000000000000000000000000000000000000000000000000000000000000000000000000000000000000000000000000000000000000000000000000000000000000DC0000000000000000000000000000000000000000000000000000
310
0000000000000000000000000000000000000000000000000000000000000000000028BEBEBEBEBEBEBEBEBEBEBEBEBE00000000000000000000000000000000000000000000000000000000000000000000000000000000000000000000000000000000000000000000000000000000000000000000000000000000000000
310
00000000000000000000000000000000000000000000DC00000000000000000000000000000000000000000000000000000000000000000000000000000000000000000000000000000000000000000000000000000000000000000000000000000000000000DC000000000000000000000000000000000000000000000000
310
00000000000000000000000000000000000000000000000000000000000000000000000000000000000000000000000000000000000000000000000000000000000000000000000000000000000000000000000000000000000000000000000000000000000000000000000000000000000000000000000000000000000000
310
000000000000000000000000000000000000000000000000DC00000000000000000000000000000000000000000000000000000000000000000000000000000000000000000000000000000000000000000000000000000000000000000000000000000000000000DC00000000000000000000000000BEBEBEBEBEBEBEBEBE
310
BEBEBEBEBEBEBEBEBEBEBEBEBEBEBEBEBEBEBEBEBEBEBEBEBEBEBEBEBEBEBEBEBEBEBEBEBEBEBEBE00000000000000000000000000000000000000000000000000000000000000000000BEBEBEBEBEBEBEBEBEBEBEBEBEBEBEBEBEBEBEBEBEBEBEBEBEBEBEBEBEBEBEBEBEBEBEBEBEBEBEBEBEBEBEBEBEBEBEBEBE00000000
310
0000000000000000000000000000000000000000000000000000DC00000000000000000000000000000000000000000000000000000000000000000000000000000000000000000000000000000000000000000000000000000000000000000000000000000000000000DC00000000000000000000000000BE000000000000
310
00000000000000000000000000000000BEBEBEBE000000000000000000000000000000000000000000BE00000000000000000000000000000000000000000000000000000000000000000000BE000000000000BEBEBEBE0000000000BE0000000000000000000000000000BEBEBEBE00000000000000000000000000BE0000
310
00000000000000000000000000000000000000000000000000000000DC00000000000000000000000000000000000000000000000000000000000000000000000000000000000000000000000000000000000000000000000000000000000000000000000000000000000000DC00000000000000000000000000BE00000000
310
00000000000000000000000000000000000000000000000000000000000000000000000000000000000000BE00000000000000000000000000000000000000000000000000000000000000000000BE000000000000000000000000000000BE00000000000000000000000000000000000000000000000000000000000000BE
310
000000000000000000000000000000000000000000000000000000000000DC00000000000000000000000000000000000000000000000000000000000000000000000000000000000000000000000000000000000000000000000000000000000000000000000000000000000000DC00000000000000000000000000BEBEBE
310
BEBEBEBEBEBEBEBEBEBEBEBEBEBEBEBEBEBEBEBEBEBEBEBEBEBEBEBEBEBEBEBEBEBEBEBEBEBEBEBEBEBEBEBEBEBE00000000000000000000000000000000000000000000000000000000000000000000BE00000000000000BEBEBEBE00000000BE000000000000000000000000000000000000000000000000000000000000
310
00BE000000000000000000000000000000000000000000000000000000000000DC00000000000000000000000000000000000000000000000000000000000000000000000000000000000000000000000000000000000000000000000000000000000000000000000000000000000000DC00000000000000000000000000BE
310
00000000000000000000000000000000000000000000BEBEBEBE0000000000000000000000000000000000BEBEBEBEBE00000000000000000000000000000000000000000000000000000000000000000000BE00000000000000BEBEBEBE00000000BE00000000000000000000000000000000000000000000000000000000
310
000000BE000000000000000000000000000000000000000000000000000000000000DC00000000000000000000000000000000000000000000000000000000000000000000000000000000000000000000000000000000000000000000000000000000000000000000000000000000000000DC000000000000000000000000
310
00BE00000000000000000000000000000000000000000000BEBEBEBE0000000000000000000000000000000000BEBEBEBEBE00000000000000000000000000000000000000000000000000000000000000000000BE00000000000000BEBEBEBE00000000BE0000000000000000000000000000000000000000000000000000
310
0000000000BE000000000000000000000000000000000000000000000000000000000000DC00000000000000000000000000000000000000000000000000000000000000000000000000000000000000000000000000000000000000000000000000000000000000000000000000000000000000DC00000000000000000000
310
000000BE00000000000000000000000000000000000000000000000000000000000000000000000000000000000000BE000000BE00000000000000000000000000000000000000000000000000000000000000000000BE00000000000000BE00000000000000BE000000000000000000000000000000000000000000000000
310
00000000000000BE000000000000000000000000000000000000000000000000000000000000DC00000000000000000000000000000000000000000000000000000000000000000000000000000000000000000000000000000000000000000000000000000000000000000000000000000000000000DC0000000000000000
310
0000000000BE00000000000000000000000000000000000000000000000000000000000000000000000000000000000000BE000000BE00000000000000000000000000000000000000000000000000000000000000000000BE000000000000000000000000000000BE00000000000000000000000000000000000000000000
310
000000000000000000BE000000000000000000000000000000000000000000000000000000000000DC00000000000000000000000000000000000000000000000000000000000000000000000000000000000000000000000000000000000000000000000000000000000000000000000000000000000000DC000000000000
310
00000000000000BE00000000000000000000000000000000000000000000000000000000000000000000000000000000000000BE000000BE00000000000000000000000000000000000000000000000000000000000000000000BE000000000000000000000000000000BE0000000000000000000000000000000000000000
310
0000000000000000000000BE000000000000000000000000000000000000000000000000000000000000DC00000000000000000000000000000000000000000000000000000000000000000000000000000000000000000000000000000000000000000000000000000000000000000000000000000000000000DC00000000
310
000000000000000000BE00000000000000000000000000000000000000000000000000000000000000000000000000000000000000BE000000BE00000000000000000000000000000000000000000000000000000000000000000000BE000000000000000000000000000000BE000000000000000000000000000000000000
310
00000000000000000000000000BE000000000000000000000000000000000000000000000000000000000000DC00000000000000000000000000000000000000000000000000000000000000000000000000000000000000000000000000000000000000000000000000000000000000000000000000000000000000DC0000
310
0000000000000000000000BE00000000000000000000000000000000000000000000000000000000000000000000000000000000000000BE000000BE00000000000000000000000000000000000000000000000000000000000000000000BE000000000000000000000000000000BE00000000000000000000000000000000
310
000000000000000000000000000000BE000000000000000000000000000000000000000000000000000000000000DC00000000000000000000000000000000000000000000000000000000000000000000000000000000000000000000000000000000000000000000000000000000000000000000000000000000000000DC
310
0000000000000000BEBE000000BE00000000000000000000000000000000000000000000000000000000000000000000000000000000000000BE000000BE00000000000000000000000000000000000000000000000000000000000000000000BE000000000000000000000000000000BE0000000000000000000000000000
310
0000000000000000000000000000000000BE000000000000000000000000000000000000000000000000000000000000DC000000000000000000000000000000000000000000000000000000000000000000000000000000000000000000000000000000000000000000000000000000000000000000000000000000000000
310
00DC0000000000000000BEBEBE0000BE00000000000000000000000000000000000000000000000000000000000000000000000000000000000000BE000000BE00000000000000000000000000000000000000000000000000000000000000000000BE000000000000000000000000000000BE000000000000000000000000
310
00000000000000000000000000000000000000BE000000000000000000000000000000000000000000000000000000000000DC00000000000000000000000000000000000000000000000000000000000000000000000000000000000000000000000000000000000000000000000000000000000000000000000000000000
310
000000DC0000000000BEBEBEBEBEBEBEBEBE28282828282828282828282828282828282828282828282828282828282828282828282828282828282828BE282828BEBEBEBEBEBEBEBEBEBEBEBEBEBEBE00000000BEBEBEBEBEBEBEBEBEBEBEBEBEBEBEBEBEBE2828282828282828282828282828BE28282828282828282828
310
282828282828282828282828282828282828282828BEBEBEBEBEBEBEBEBEBEBEBEBEBEBEBEBEBEBEBEBEBE000000000000000000DC0000000000000000000000000000000000000000000000000000000000000000000000000000000000000000000000000000000000000000000000000000000000000000000000000000
310
0000000000DC0000000000BEBE0000BEBEBEBEBE00000000000000000000000000000000000000000000000000002D0000000000000000000000000000000000000000280000000000000000BEBE0000BE0000000000BE0000000000000000000000000000002828282828282828282828282828BEBE28BEBEBE2828282828
310
2828282828282828282828282828282828282828282828280000000000000000000000000000000000000000BE000000000000000000DC000000000000000000000000000000000000000000000000000000000000000000000000000000000000000000000000000000000000000000000000000000000000000000000000
310
00000000000000DC0000000000BEBEBEBEBEBEBEBE282828282828282828282828282828282828282828282828282828282800000000000000000000000000000000000000280000000000000000BEBE0000BE0000000000BE0000000000000000000000000000002828282828282828282828282828282828000000000000
310
00000000000000000000000000000000000000000000000000280000000000000000000000000000000000000000BE000000000000000000DC00000000000000000000000000000000000000000000000000000000000000000000000000000000000000000000000000000000000000000000000000000000000000000000
310
000000000000000000DC00000000000000000000BE00002800000000000000000000000000000000000000000000000000BEBE0028282828282828BEBEBE28BEBEBEBEBE000000BEBEBEBEBEBEBEBEBEBEBE0000BE0000000000BE000000000000000000000000000000282828282828282828282828282828282828282828
310
282828282828282828282828282828282828282828282828282828280000000000000000000000000000000000000000BE000000000000000000DC0000000000000000000000000000000000000000000000000000000000000000000000000000000000000000000000000000000000000000000000000000000000000000
310
0000000000000000000000DC0000000000000000BEBE000000280000000000000000000000000000000000000000000000000000000000000000000000BEBE00BE28000000BE00000028000000000000000000BE0000BE0000000000BE00000000000000000000000000000028282800282800000000000000000000280000
310
0000000000000000000000000000000000000000000000000000000000280000000000000000000000000000000000000000BE000000000000000000DC000000000000000000000000000000000000000000000000000000000000000000000000000000000000000000000000000000000000000000000000000000000000
310
00000000000000000000000000DC0000000000000000BEBE00BEBEBEBEBE0000000000000000000000000000000000000000000000000000000000000000BEBE0000BE00280000BE00000028000000000000000000BE0000BE0000000000BE0000000000000000000000000000BEBEBEBE00BEBE28BE0000BE000000000028
310
00000000000000000000000000000000000000000000000000000000000000280000000000000000000000000000000000000000BE000000000000000000DC00000000000000000000000000000000000000000000000000000000000000000000000000000000000000000000000000000000000000000000000000000000
310
000000000000000000000000000000DC00000000000000000000BEBEBE28BE000000000000000000000000000000000000000000000000000000000000000000BEBE0000BE00002800BE00000028000000000000000000BE00BEBE00000000BEBE0000000000000000000000000000BEBEBEBEBEBEBEBEBEBEBEBEBEBE0000
310
002828282828282828282828282828282828282828282828282828282828282828280000000000000000000000000000000000000000BE000000000000000000DC0000000000000000000000000000000000000000000000000000000000000000000000000000000000000000000000000000000000000000000000000000
310
0000000000000000000000000000000000DC00000000000000000000BEBEBE2800000000000000000000000000000000000000000000000000000000000000000000BEBE0000BE00000028BE00000028000000000000000000BE00BEBE00000000BEBE00000000000000000000000000000028282800280000282800000000
310
0000002800000000000000000000000000000000000000000000000000000000000000280000000000000000000000000000000000000000BE000000000000000000DC000000000000000000000000000000000000000000000000000000000000000000000000000000000000000000000000000000000000000000000000
310
00000000000000000000000000000000000000DC00000000000000000000000000280000000000000000000000000000000000000000000000000000000000000000000000BEBEBEBEBEBEBEBE28000000280000000000000000BEBE00BEBE00000000BEBE0000000000000000000000000000002828280028000000282828
310
28282828280F00000000000000000000000000000000000000000000000000000000000000280000000000000000000000000000000000000000BE000000000000000000DC00000000000000000000000000000000000000000000000000000000000000000000000000000000000000000000000000000000000000000000
310
000000000000000000000000000000000000000000DC00000000000000000000000000280000000000000000000000000000000000000000000000000000000000000000000000000000BEBEBEBEBEBE000000280000000000000000BEBE00BEBE00000000BEBE000000000000000000000000000000282828002800000000
310
280000000000000F00000000000000000000000000000000000000000000000000000000000000280000000000000000000000000000000000000000BE000000000000000000DC0000000000000000000000000000000000000000000000000000000000000000000000000000000000000000000000000000000000000000
310
0000000000000000000000000000000000000000000000DC000000000000000000000000002800000000000000000000000000000000000000000000000000000000000000000000000000000000BEBEBE28280000280000000000000000BEBE0000BE0000000000BE00000000000000000000000000000028282800280000
310
0000280000002828280F28000000000000000000000000000000000000000000000000000000000000280000000000000000000000000000000000000000BE000000000000000000DC000000000000000000000000000000000000000000000000000000000000000000000000000000000000000000000000000000000000
310
00000000000000000000000000000000000000000000000000DC00000000000000000000000000280000000000000000000000000000000000000000000000000000000000000000000000000000000000000028280000280000000000000000BEBE0000BE0000000000BE0000000000000000000000000000002828280028
310
00000000280000002828280F28282800000000000000000000000000000000000000000000000000000000280000000000000000000000000000000000000000BE000000000000000000DC00000000000000000000000000000000000000000000000000000000000000000000000000000000000000000000000000000000
310
000000000000000000000000000000000000000000000000000000DC0000000000000000000000000028000000000000000000000000000000000000000000000000000000000000000000000000000000000000002828000028000000000000000000BE0000BE0000000000BE000000000000000000000000000000282828
310
002800000000280000002828280F28282800000000000000000000000000000000000000000000000000000000280000000000000000000000000000000000000000BE000000000000000000DC0000000000000000000000000000000000000000000000000000000000000000000000000000000000000000000000000000
310
0000000000000000000000000000000000000000000000000000000000DC000000000000000000000000002800000000000000000000000000000000000000BE28000000000000000000000000000028BE0000000000002800000028000000000000000000BE0000BE0000000000BE00000000000000000000000000000028
310
28BE002800000000280028280000280F28000000000000000000000000000000000000000000000000000000000000280000000000000000000000000000000000000000BE000000000000000000DC000000000000000000000000000000000000000000000000000000000000000000000000000000000000000000000000
310
00000000000000000000000000000000000000000000000000000000000000DC000000000000000000000000002800000000000000000000000000000000000000BEBE0000000000000000000000000000BEBE0000000000002800000028000000000000000000BE0000BE0000000000BE0000000000000000000000000000
310
0028BEBE002800000000280028280000280F2800000000000000000000000000000000000000000000000000000000000028000000000000000000000000000000000000BEBEBE000000000000000000DC00000000000000000000000000000000000000000000000000000000000000000000000000000000000000000000
310
000000000000000000000000000000000000000000000000000000000000000000DC000000000000000000000000002800000000000000000000000000000000000000BEBE0000000000000000000000000000BEBE0000000000002800000028000000000000000000BE0000BEBE00000000BE000000000000000000000000
310
00000028BEBE002800000000280028282828280F2800000000000000000000000000000000000000000000000000000000000028000000000000000000000000000000000000BEBEBE000000000000000000DC0000000000000000000000000000000000000000000000000000000000000000000000000000000000000000
310
0000000000000000000000000000000000000000000000000000000000000000000000DC00000000000000000000000000282828282828282828282828282828282828282828282828282828282828282828282828282828282828282828282828BEBEBEBEBEBEBEBEBEBEBEBEBEBEBE00000000BEBEBEBEBEBEBEBEBEBEBE
310
BEBEBEBEBEBE28282828282828280F0F0F0F0F0F0F0F2800000000000000000000000000000000000000000000000000000000000028000000000000000000000000000000000000BEBEBE000000000000000000DC000000000000000000000000000000000000000000000000000000000000000000000000000000000000
310
00000000000000000000000000000000000000000000000000000000000000000000000000DC000000000000000000000000002800000000000000000000000000000000000000BEBE0000000000000000000000000000BEBE0000000028002828282828000000000000000000000000BEBE00000000BE0000000000000000
310
0000000000000028BEBE28000028000000002828000000000F0F000000000000000000000000BE00BEBEBEBEBE00BEBEBE00BE00BEBE0028000000000000000000000000000000000000BEBEBE000000000000000000DC00000000000000000000000000000000000000000000000000000000000000000000000000000000
310
000000000000000000000000000000000000000000000000000000000000000000000000000000DC000000000000000000000000002800000000000000000000000000000000000000BEBE0000000000000000000000000000BEBE0000000028002828280028000000000000000000000000BE0000000000BE000000000000
310
00000000000000000028BEBE2800002800000000282800000000000F280000002800000000000000BEBEBEBEBEBEBEBEBEBEBEBEBEBEBEBE00280000000000000000000000000000000000000000BE000000000000000000DC0000000000000000000000000000000000000000000000000000000000000000000000000000
310
0000000000000000000000000000000000000000000000000000000000000000000000000000000000DC0000000000000000000000000028000000000000000000000000000000000000002828000000000000000000000000000028280000000028002828280028000000000000000000000000BE0000000000BE00000000
310
0000000000000000000000282828280000280000000028280000000000000F0F002828000000000000000000000000000000000000000000000000280000000000000000000000000000000000000000BE000000000000000000DC000000000000000000000000000000000000000000000000000000000000000000000000
310
00000000000000000000000000000000000000000000000000000000000000000000000000000000000000DC0000000000000000000000000028000000000000000000000000000000000000000000000000000000000000000000000000000000000028002828280028000000000000000000000000BE0000000000BE0000
310
0000000000000000000000000028280028000028000000000000000000000000000F282800000000000000000000000000000000000000000000000000280000000000000000000000000000000000000000BE000000000000000000DC00000000000000000000000000000000000000000000000000000000000000000000
310
000000000000000000000000000000000000000000000000000000000000000000000000000000000000000000DC0000000000000000000000000028000000000000000000000000000000000000000000000000000000000000000000000000000000000028002828280028000000000000000000000000BE0000000000BE
310
000000000000000000000000000000282800280000280000000000000000000000000028280F00000000000000000000000000000000000000000000000000280000000000000000000000000000000000000000BE000000000000000000DC0000000000000000000000000000000000000000000000000000000000000000
310
0000000000000000000000000000000000000000000000000000000000000000000000000000000000000000000000DC0000000000000000000000000028000000000000000000000000000000000000000000000000000000000000000000000000000000000028002828280028000000000000000000000000BE00000000
310
00BE000000000000000000000000000000282800280000280000000000000000000000002828000F0F000000000000000000000000000000000000000000000000280000000000000000000000000000000000000000BE000000000000000000DC000000000000000000000000000000000000000000000000000000000000
310
00000000000000000000000000000000000000000000000000000000000000000000000000000000000000000000000000DC0000000000000000000000000028000000000000000000000000000000000000000000000000000000000000000000000000BE0000000028002828280028000000000000000000000000BE0000
310
000000BE00000000000000000000000000000028280028000028000000000000000000000000280000000F280000000000000000000000000000000000000000000000280000000000000000000000000000000000000000BE000000000000000000DC00000000000000000000000000000000000000000000000000000000
310
000000000000000000000000000000000000000000000000000000000000000000000000000000000000000000000000000000DC000000000000000000000000002800000000000000000000000000000000000000000000000000000000000000000000BEBEBE0000000028002828280028000000000000000000000000BE
310
0000000000BE0000000000000000000000000000002828002800002800000000000000000000000000000000000F0F00000000000000000000000000000000000000000000280000000000000000000000000000000000000000BE000000000000000000DC0000000000000000000000000000000000000000000000000000
310
0000000000000000000000000000000000000000000000000000000000000000000000000000000000000000000000000000000000DC0000000000000000000000000028000000000000000000000000000000000000000000000000000000000000000000BEBE000000000000280028282800280000000000000000000000
310
00BE0000000000BE000000000000000000000000000000282800280000280000000000000000000000000000000000000F28000000000000000000000000000000000000000000280000000000000000000000000000000000000000BE000000000000000000DC000000000000000000000000000000000000000000000000
310
00000000000000000000000000000000000000000000000000000000000000000000000000000000000000000000000000000000000000DC000000000000000000000000002800000000000000000000000000000000000000000000000000000000000000BEBE000000000000000028002828280028000000000000000000
310
000000BE0000000000BE00000000000000000000000000000028280028000028000000000000000000000000000000000000000F0F0000000000000000000000000000000000000000280000000000000000000000000000000000000000BE000000000000000000DC00000000000000000000000000000000000000000000
310
000000000000000000000000000000000000000000000000000000000000000000000000000000000000000000000000000000000000000000DC0000000000000000000000000028000000000000000000000000000000000000000000000000000000000000BE000000000000000000002800282828002800000000000000
310
0000000000BE0000000000BE0000000000000000000000000000002828002800002800000000000000000000000000000000000000000F2800000028000000000000000000000000000000280000000000000000000000000000000000000000BE000000000000000000DC0000000000000000000000000000000000000000
310
0000000000000000000000000000000000000000000000000000000000000000000000000000000000000000000000000000000000000000000000DC00000000000000000000000000280000000000000000000000000000000000000000000000000000000000BEBE00000000000000000000280028282800280000000000
310
00000000000000BE0000000000BE000000000000000000000000000000282800280000280000000000000000000000000000000000000000000F0F002828000000000000000000000000000000280000000000000000000000000000000000000000BE000000000000000000DC000000000000000000000000000000000000
310
00000000000000000000000000000000000000000000000000000000000000000000000000000000000000000000000000000000000000000000000000DC00000000000000000000000000280000000000000000000000000000000000000000000000000000000000BEBE0000000000000000000028002828280028000000
310
000000000000000000BE0000000000BE00000000000000000000000000000028280028000028000000000000000000000000000000000000000000000F282800000000000000000000000000000000280000000000000000000000000000000000000000BE000000000000000000DC00000000000000000000000000000000
310
000000000000000000000000000000000000000000000000000000000000000000000000000000000000000000000000000000000000000000000000000000DC00000000000000000000000000280000000000000000000000000000000000000000000000000000000000BEBE000000000000000000002800282828002800
310
00000000000000000000BEBE00000000BEBE000000000000000000000000000000282800280000280000000000000000000000000000000000000000000028280F00000000000000000000000000000000280000000000000000000000000000000000000000BE000000000000000000DC0000000000000000000000000000
310
0000000000000000000000000000000000000000000000000000000000000000000000000000000000000000000000000000000000000000000000000000000000DC00000000000000000000000000280000000000000000000000000000000000000000000000000000000000BEBE00000000000000000000280028282800
310
280000000000000000000000BEBE00000000BEBE000000000000000000000000000000282800280000280000000000000000000000000000000000000000002828000F0F000000000000000000000000000000280000000000000000000000000000000000000000BE000000000000000000DC000000000000000000000000
310
00000000000000000000000000000000000000000000000000000000000000000000000000000000000000000000000000000000000000000000000000000000000000DC00000000000000000000000000280000000000000000000000000000000000000000000000000000000000BEBE0000000000000000000028002828
310
2800280000000000000000000000BEBE00000000BEBE00000000000000000000000000000028280028000028000000000000000000000000000000000000000000280000000F280000000000000000000000000000280000000000000000000000000000000000000000BE000000000000000000DC00000000000000000000
310
000000000000000000000000000000000000000000000000000000000000000000000000000000000000000000000000000000000000000000000000000000000000000000DC00000000000000000000000000280000000000000000000000000000000000000000000000000000000000BEBE000000000000000000002800
310
28282800280000000000000000000000BEBE00000000BEBE0000000000000000000000000000002828002800002800000000000000000000000000000000000000000000000000000F0F00000000000000000000000000280000000000000000000000000000000000000000BE000000000000000000DC0000000000000000
310
0000000000000000000000000000000000000000000000000000000000000000000000000000000000000000000000000000000000000000000000000000000000000000000000DC0000000000000000000000000028000000000000000000000000000000000000000000000000000000000000BE00000000000000000000
310
28002828280028000000000000000000000000BE0000000000BE000000000000000000000000000000282800280000280000000000000000000000000000000000000000000000000000000F2828282828282828282828282828BEBEBEBEBEBEBEBEBEBEBEBEBEBEBEBEBEBEBEBEBE000000000000000000DC000000000000
310
00000000000000000000000000000000000000000000000000000000000000000000000000000000000000000000000000000000000000000000000000000000000000000000000000DC0000000000000000000000000028000000000000000000000000000000000000000000000000000000000000000000000000000000
310
000028002828280028000000000000000000000000BE0000000000BE0000000000000000000000000000002828002800002800000000000000000000000000000000000000000000000000000000280F000000000000000000000000000000000000000000000000000000000000000000000000000000000000DC00000000
310
000000000000000000000000000000000000000000000000000000000000000000000000000000000000000000000000000000000000000000000000000000000000000000000000000000DC000000000000000000000000002800000000000000000000000000000000000000000000000000000000000000000000000000
310
0000000028002828280028000000000000000000000000BE0000000000BE0000000000000000000000000000002828002800002800000000000000BEBEBEBEBEBEBEBEBEBEBEBEBEBEBEBE00000000002800000000000000000000000000000000000000000000000000000000000000000000000000000000000000DC0000
310
0000000000000000000000000000000000000000000000000000000000000000000000000000000000000000000000000000000000000000000000000000000000000000000000000000000000DC00000000000000000000000000280000000000000000000000000000000000000000000000000000000000000000000000
310
00000000000028002828280028000000000000000000000000BE0000000000BE000000000000000000000000000000282800280000280000000000000000BEBE0000000000000000000000BE0000000000002800000000000000000000000000000000000000000000000000000000000000000000000000000000000000DC
310
00000000000000000000000000000000000000000000000000000000000000000000000000000000000000000000000000000000000000000000000000000000000000000000000000000000000000DC0000000000000000000000000028000000000000000000000000000000000000000000000000000000000000000000
310
000000000000000028002828280028000000000000000000000000BE0000000000BE000000000000000000000000000000282800280000280000000000000000000000000000000000000000000000000000000028000000000000000000000000000000000000000000000000000000000000000000000000000000000000
310
00DC00000000000000000000000000000000000000000000000000000000000000000000000000000000000000000000000000000000000000000000000000000000000000000000000000000000000000DC000000000000000000000000002800000000000000000000000000000000000000000000000000000000000000
310
0000000000BE0000000028002828280028000000000000000000000000BE0000000000BE00000000000000000000000000000028280028000028000000000000000000000000000000000000000000000000000000002800000000000000000000000000000000000000000000000000000000000000000000000000000000
310
000000DC00000000000000000000000000000000000000000000000000000000000000000000000000000000000000000000000000000000000000000000000000000000000000000000000000000000000000DC00000000000000000000000000280000000000000000000000000000000000000000000000000000000000
310
000000000000BEBE0000000028002828280028000000000000000000000000BE0000000000BE0000000000000000000000000000002828002800002800000000000000000000000000000000000000000000000000000000280000000000000000000000000000000000000000000000000000000000000000000000000000
310
0000000000DC00000000000000000000000000000000000000000000000000000000000000000000000000000000000000000000000000000000000000000000000000000000000000000000000000000000000000DC0000000000000000000000000028000000000000000000000000000000000000000000000000000000
310
000000000000000000000000000028002828280028000000000000000000000000BE0000000000BE000000000000000000000000000000282800280000280000000000000000000000000000000000000000000000000000000028000000000000000000000000000000000000000000000000000000000000000000000000
310
00000000000000DC00000000000000000000000000000000000000000000000000000000000000000000000000000000000000000000000000000000000000000000000000000000000000000000000000000000000000DC000000000000000000000000002800000000000000000000000000000000000000000000000000
310
0000000000000000000000000000000028002828280028000000000000000000000000BE0000000000BE00000000000000000000000000000028280028000028000000000000000000000000000000000000000000000000000000002800000000000000000000000000000000000000000000000000000000000000000000
310
000000000000000000DC00000000000000000000000000000000000000000000000000000000000000000000000000000000000000000000000000000000000000000000000000000000000000000000000000000000000000DC00000000000000000000000000280000000000000000000000000000000000000000000000
310
00000000000000000000000000000000000028002828280028000000000000000000000000BE0000000000BE0000000000000000000000000000002828002800002800000000000000000000000000000000000000000000000000000000280000000000000000000000000000000000000000000000000000000000000000
310
0000000000000000000000DC00000000000000000000000000000000000000000000000000000000000000000000000000000000000000000000000000000000000000000000000000000000000000000000000000000000000000DC0000000000000000000000000028000000000000000000000000000000000000000000
310
000000000000000000000000000000000000000028002828280028000000000000000000000000BE0000000000BE000000000000000000000000000000282800280000280000000000000000000000000000000000000000000000000000000028000000000000000000000000000000000000000000000000000000000000
310
00000000000000000000000000DC00000000000000000000000000000000000000000000000000000000000000000000000000000000000000000000000000000000000000000000000000000000000000000000000000000000000000DC000000000000000000000000002800000000000000000000000000000000000000
310
0000000000000000000000000000000000000000000028002828280028000000000000000000000000BE0000000000BE00000000000000000000000000000028280028000028000000000000000000000000000000000000000000000000000000002800000000000000000000000000000000000000000000000000000000
310
000000000000000000000000000000DC00000000000000000000000000000000000000000000000000000000000000000000000000000000000000000000000000000000000000000000000000000000000000000000000000000000000000DC00000000000000000000000000280000000000000000000000000000000000
310
00000000000000000000000000000000000000000000000028002828280028000000000000000000000000BE0000000000BE0000000000000000000000000000002828002800002800000000000000000000000000000000000000000000000000000000280000000000000000000000000000000000000000000000000000
310
0000000000000000000000000000000000DC00000000000000000000000000000000000000000000000000000000000000000000000000000000000000000000000000000000000000000000000000000000000000000000000000000000000000DC0000000000000000000000000028000000000000000000000000000000
310
000000000000000000000000000000000000000000000000000028002828282828000000000000000000000000BEBE00000000BE000000000000000000000000000000282800280000280000000000000000000028282828282828282828282828282828282828000000000000000000000000000000000000000000000000
310
00000000000000000000000000000000000000DC00000000000000000000000000000000000000000000000000000000000000000000000000000000000000000000000000000000000000000000000000000000000000000000000000000000000000DC000000000000000000000000002828282828282828282828282828
310
28282828282828282828282828282828282828282828282828282828282828282828BEBEBEBEBEBEBEBEBEBEBEBEBEBEBE00000000BEBEBEBEBEBEBEBEBEBEBEBEBEBEBEBEBE28282828282828282828282828282828000000000000000000000000000000000000BE00000000000000000000000000000000000000000000
310
000000000000000000000000000000000000000000DC00000000000000000000000000000000000000000000000000000000000000000000000000000000000000000000000000000000000000000000000000000000000000000000000000000000000000DC00000000000000000000000000000000000000000000000000
310
0000000000000000000000000000000000000000000000000000000000000000000000000000000000000000000000000000000000000000000000000000000000000000000000BE00000000000000000000000000000000000000000000000000000000000000000000BE0000000000000000000000000000000000000000
310
0000000000000000000000000000000000000000000000DC00000000000000000000000000000000000000000000000000000000000000000000000000000000000000000000000000000000000000000000000000000000000000000000000000000000000000DC0000000000000000000000000000000000000000000000
310
00000000000000000000000000000000000000000000000000000000000000000000000000000000000000000000000000000000000000000000000000000000000000000000000000BE00000000000000000000000000000000000000000000000000000000000000000000BE000000000000000000000000000000000000
310
00000000000000000000000000000000000000000000000000DC00000000000000000000000000000000000000000000000000000000000000000000000000000000000000000000000000000000000000000000000000000000000000000000000000000000000000DC000000000000000000000000000000000000000000
310
000000000000000000000000000000000000000000000000000000000000000000000000000000000000000000000000000000000000000000000000000000000000000000000000000000BE00000000000000000000000000000000000000000000000000000000000000000000BE00000000000000000000000000000000
310
000000000000000000000000000000000000000000000000000000DC00000000000000000000000000000000000000000000000000000000000000000000000000000000000000000000000000000000000000000000000000000000000000000000000000000000000000DC00000000000000000000000000000000000000
310
0000000000000000000000000000000000000000000000000000000000000000000000000000000000000000000000000000000000000000000000000000000000000000000000000000000000BE00000000000000000000000000000000000000000000000000000000000000000000BE0000000000000000000000000000
310
0000000000000000000000000000000000000000000000000000000000DC00000000000000000000000000000000000000000000000000000000000000000000000000000000000000000000000000000000000000000000000000000000000000000000000000000000000000DC0000000000000000000000000000000000
310
00000000000000000000000000000000000000000000000000000000000000000000000000000000000000000000000000000000000000000000000000000000000000000000000000000000000000BE00000000000000000000000000000000000000000000000000000000000000000000BE000000000000000000000000
310
00000000000000000000000000000000000000000000000000000000000000DC00000000000000000000000000000000000000000000000000000000000000000000000000000000000000000000000000000000000000000000000000000000000000000000000000000000000000DC000000000000000000000000000000
310
000000000000000000000000000000000000000000000000000000000000000000000000000000000000000000000000000000000000000000000000000000000000000000000000000000000000000000BE00000000000000000000000000000000000000000000000000000000000000000000BE00000000000000000000
310
000000000000000000000000000000000000000000000000000000000000000000DC00000000000000000000000000000000000000000000000000000000000000000000000000000000000000000000000000000000000000000000000000000000000000000000000000000000000000DC00000000000000000000000000
310
0000000000000000000000000000000000000000000000000000000000000000000000000000000000000000000000000000000000000000000000000000000000000000000000000000000000000000000000BE00000000000000000000000000000000000000000000000000000000000000000000BE0000000000000000
310
0000000000000000000000000000000000000000000000000000000000000000000000DC00000000000000000000000000000000000000000000000000000000000000000000000000000000000000000000000000000000000000000000000000000000000000000000000000000000000000DC0000000000000000000000
310
00000000000000000000000000000000000000000000000000000000000000000000000000000000000000000000000000000000000000000000000000000000000000000000000000000000000000000000000000BE00000000000000000000000000000000000000000000000000000000000000000000BE000000000000
310
00000000000000000000000000000000000000000000000000000000000000000000000000DC00000000000000000000000000000000000000000000000000000000000000000000000000000000000000000000000000000000000000000000000000000000000000000000000000000000000000DC000000000000000000
310
000000000000000000000000000000000000000000000000000000000000000000000000000000000000000000000000000000000000000000000000000000000000000000000000000000000000000000000000000000BE00000000000000000000000000000000000000000000000000000000000000000000BE00000000
310
000000000000000000000000000000000000000000000000000000000000000000000000000000DC00000000000000000000000000000000000000000000000000000000000000000000000000000000000000000000000000000000000000000000000000000000000000000000000000000000000000DC00000000000000
310
0000000000000000000000000000000000000000000000000000000000000000000000000000000000000000000000000000000000000000000000000000000000000000000000000000000000000000000000000000000000BE00000000000000000000000000000000000000000000000000000000000000000000BE0000
310
0000000000000000000000000000000000000000000000000000000000000000000000000000000000DC00000000000000000000000000000000000000000000000000000000000000000000000000000000000000000000000000000000000000000000000000000000000000000000000000000000000000DC0000000000
310
00000000000000000000000000000000000000000000000000000000000000000000000000000000000000000000000000000000000000000000000000000000000000000000000000000000000000000000000000000000000000BEBEBEBEBEBEBEBEBEBEBEBEBEBEBEBEBEBEBEBEBEBEBEBEBEBEBEBEBEBEBEBEBEBEBEBE
310
00000000000000000000000000000000000000000000000000000000000000000000000000000000000000DC00000000000000000000000000000000000000000000000000000000000000000000000000000000000000000000000000000000000000000000000000000000000000000000000000000000000000DC000000
310
00000000000000000000000000000000000000000000000000000000000000000000000000000000000000000000000000000000000000000000000000000000000000000000000000000000000000000000000000000000000000000000000000000000000000000000000000BEBEBEBE0000000000000000000000000000
310
000000000000000000000000000000000000000000000000000000000000000000000000000000000000000000DC00000000000000000000000000000000000000000000000000000000000000000000000000000000000000000000000000000000000000000000000000000000000000000000000000000000000000DC00
310
00000000000000000000000000000000000000000000000000000000000000000000000000000000000000000000000000000000000000000000000000000000000000000000000000000000000000000000000000000000000000000000000000000000000000000000000000000000000000000000000000000000000000
310
0000000000000000000000000000000000000000000000000000000000000000000000000000000000000000000000DC00000000000000000000000000000000000000000000000000000000000000000000000000000000000000000000000000000000000000000000000000000000000000000000000000000000000000
310
DC000000000000000000000000000000000000000000000000000000000000000000000000000000000000000000000000000000000000000000000000000000000000000000000000000000000000000000000000000000000000000000000000000000000000000000000000000000000000000000000000000000000000
310
00000000000000000000000000000000000000000000000000000000000000000000000000000000000000000000000000DC0000000000000000000000000000000000000000000000000000000000000000000000000000000000000000000000000000000000000000000000000000000000000000000000000000000000
310
0000DC00000000000000000000000000000000000000000000000000000000000000000000000000000000000000000000000000000000000000000000000000000000000000000000000000000000000000000000000000000000000000000000000000000000000000000000000000000000000000000000000000000000
310
000000000000000000000000000000000000000000000000000000000000000000000000000000000000000000000000000000DC000000000000000000000000000000000000000000000000000000000000000000000000000000000000000000000000000000000000000000000000000000000000000000000000000000
310
00000000DCDCDCDCDCDCDCDCDCDCDCDCDCDCDCDCDCDCDCDCDCDCDCDCDCDCDCDCDCDCDCDCDCDCDCDCDCDCDCDCDCDCDCDCDCDCDCDCDCDCDCDCDCDCDCDCDCDCDCDCDCDCDCDCDCDCDCDCDCDCDCDCDCDCDCDCDCDCDCDCDCDCDCDCDCDCDCDCDCDCDCDCDCDCDCDCDCDCDCDCDCDCDCDCDCDCDCDCDCDCDCDCDCDCDCDCDCDCDCDCDCDCDC
310
DCDCDCDCDCDCDCDCDCDCDCDCDCDCDCDCDCDCDCDCDCDCDCDCDCDCDCDCDCDCDCDCDCDCDCDCDCDCDCDCDCDCDCDCDCDCDCDCDCDCDCDCDCDC00000000000000000000000000000000000000000000000000000000000000000000000000000000000000000000000000000000000000000000000000000000000000000000000000
310
00000000000000000000000000000000000000000000000000000000000000000000000000000000000000000000000000000000000000000000000000000000000000000000000000000000000000000000000000000000000000000000000000000000000000000000000000000000000000000000000000000000000000
310
00000000000000000000000000000000000000000000000000000000000000000000000000000000000000000000000000000000000000000000000000000000000000000000000000000000000000000000000000000000000000000000000000000000000000000000000000000000000000000000000000000000000000
310
00000000000000000000000000000000000000000000000000000000000000000000000000000000000000000000000000000000000000000000000000000000000000000000000000000000000000000000000000000000000000000000000000000000000000000000000000000000000000000000000000000000000000
310
00000000000000000000000000000000000000000000000000000000000000000000000000000000000000000000000000000000000000000000000000000000000000000000000000000000000000000000000000000000000000000000000000000000000000000000000000000000000000000000000000000000000000
310
00000000000000000000000000000000000000000000000000000000000000000000000000000000000000000000000000000000000000000000000000000000000000000000000000000000000000000000000000000000000000000000000000000000000000000000000000000000000000000000000000000000000000
310
00000000000000000000000000000000000000000000000000000000000000000000000000000000000000000000000000000000000000000000000000000000000000000000000000000000000000000000000000000000000000000000000000000000000000000000000000000000000000000000000000000000000000
310
00000000000000000000000000000000000000000000000000000000000000000000000000000000000000000000000000000000000000000000000000000000000000000000000000000000000000000000000000000000000000000000000000000000000000000000000000000000000000000000000000000000000000
310
00000000000000000000000000000000000000000000000000000000000000000000000000000000000000000000000000000000000000000000000000000000000000000000000000000000000000000000000000000000000000000000000000000000000000000000000000000000000000000000000000000000000000
310
00000000000000000000000000000000000000000000000000000000000000000000000000000000000000000000000000000000000000000000000000000000000000000000000000000000000000000000000000000000000000000000000000000000000000000000000000000000000000000000000000000000000000
310
00000000000000000000000000000000000000000000000000000000000000000000000000000000000000000000000000000000000000000000000000000000000000000000000000000000000000000000000000000000000000000000000000000000000000000000000000000000000000000000000000000000000000
310
00000000000000000000000000000000000000000000000000000000000000000000000000000000000000000000000000000000000000000000000000000000000000000000000000000000000000000000000000000000000000000000000000000000000000000000000000000000000000000000000000000000000000
310
00000000000000000000000000000000000000000000000000000000000000000000000000000000000000000000000000000000000000000000000000000000000000000000000000000000000000000000000000000000000000000000000000000000000000000000000000000000000000000000000000000000000000
310
00000000000000000000000000000000000000000000000000000000000000000000000000000000000000000000000000000000000000000000000000000000000000000000000000000000000000000000000000000000000000000000000000000000000000000000000000000000000000000000000000000000000000
310
00000000000000000000000000000000000000000000000000000000000000000000000000000000000000000000000000000000000000000000000000000000000000000000000000000000000000000000000000000000000000000000000000000000000000000000000000000000000000000000000000000000000000
310
00000000000000000000000000000000000000000000000000000000000000000000000000000000000000000000000000000000000000000000000000000000000000000000000000000000000000000000000000000000000000000000000000000000000000000000000000000000000000000000000000000000000000
310
00000000000000000000000000000000000000000000000000000000000000000000000000000000000000000000000000000000000000000000000000000000000000000000000000000000000000000000000000000000000000000000000000000000000000000000000000000000000000000000000000000000000000
310
00000000000000000000000000000000000000000000000000000000000000000000000000000000000000000000000000000000000000000000000000000000000000000000000000000000000000000000000000000000000000000000000000000000000000000000000000000000000000000000000000000000000000
310
00000000000000000000000000000000000000000000000000000000000000000000000000000000000000000000000000000000000000000000000000000000000000000000000000000000000000000000000000000000000000000000000000000000000000000000000000000000000000000000000000000000000000
310
00000000000000000000000000000000000000000000000000000000000000000000000000000000000000000000000000000000000000000000000000000000000000000000000000000000000000000000000000000000000000000000000000000000000000000000000000000000000000000000000000000000000000
310
00000000000000000000000000000000000000000000000000000000000000000000000000000000000000000000000000000000000000000000000000000000000000000000000000000000000000000000000000000000000000000000000000000000000000000000000000000000000000000000000000000000000000
310
00000000000000000000000000000000000000000000000000000000000000000000000000000000000000000000000000000000000000000000000000000000000000000000000000000000000000000000000000000000000000000000000000000000000000000000000000000000000000000000000000000000000000
310
00000000000000000000000000000000000000000000000000000000000000000000000000000000000000000000000000000000000000000000000000000000000000000000000000000000000000000000000000000000000000000000000000000000000000000000000000000000000000000000000000000000000000
310
00000000000000000000000000000000000000000000000000000000000000000000000000000000000000000000000000000000000000000000000000000000000000000000000000000000000000000000000000000000000000000000000000000000000000000000000000000000000000000000000000000000000000
310
00000000000000000000000000000000000000000000000000000000000000000000000000000000000000000000000000000000000000000000000000000000000000000000000000000000000000000000000000000000000000000000000000000000000000000000000000000000000000000000000000000000000000
310
00000000000000000000000000000000000000000000000000000000000000000000000000000000000000000000000000000000000000000000000000000000000000000000000000000000000000000000000000000000000000000000000000000000000000000000000000000000000000000000000000000000000000
310
00000000000000000000000000000000000000000000000000000000000000000000000000000000000000000000000000000000000000000000000000000000000000000000000000000000000000000000000000000000000000000000000000000000000000000000000000000000000000000000000000000000000000
310
00000000000000000000000000000000000000000000000000000000000000000000000000000000000000000000000000000000000000000000000000000000000000000000000000000000000000000000000000000000000000000000000000000000000000000000000000000000000000000000000000000000000000
310
0000000000000000000000000000000000000000000000000000000000000000000000000000000000000000000000000000000000000000000000000000000000000000000000000000000000000000000000000000000000000000000000000000000000000000000000000000000000000000000000000000
  0
XRECORD
  5
A7E
102
{ACAD_REACTORS
330
A7D
102
}
330
A7D
100
AcDbXrecord
280
     1
102
MATERIAL
148
0.0
149
0.0
149
0.0
 93
        0
 94
      127
282
     0
 72
     0
 77
     0
171
     0
175
     0
179
     0
273
     0
  0
XRECORD
  5
A80
102
{ACAD_REACTORS
330
A7F
102
}
330
A7F
100
AcDbXrecord
280
     1
102
MATERIAL
148
0.0
149
0.0
149
0.0
 93
        0
 94
      127
282
     0
 72
     0
 77
     0
171
     0
175
     0
179
     0
273
     0
  0
XRECORD
  5
A82
102
{ACAD_REACTORS
330
A81
102
}
330
A81
100
AcDbXrecord
280
     1
102
MATERIAL
148
0.0
149
0.0
149
0.0
 93
        0
 94
      127
282
     0
 72
     0
 77
     0
171
     0
175
     0
179
     0
273
     0
  0
XRECORD
  5
A64
102
{ACAD_REACTORS
330
A63
102
}
330
A63
100
AcDbXrecord
280
     1
102
DISPLAYNAME
  1
Imperial24
102
FLAGS
 90
        0
  0
CELLSTYLEMAP
  5
A85
102
{ACAD_REACTORS
330
A83
102
}
330
A83
100
AcDbCellStyleMap
 90
        3
300
CELLSTYLE
  1
TABLEFORMAT_BEGIN
 90
        5
170
     1
 91
        0
 92
    32768
 62
   257
 93
        1
300
CONTENTFORMAT
  1
CONTENTFORMAT_BEGIN
 90
        0
 91
        0
 92
      512
 93
        0
300

 40
0.0
140
1.0
 94
        5
 62
     0
340
F
144
0.25
309
CONTENTFORMAT_END
171
     0
 94
        0
309
TABLEFORMAT_END
  1
CELLSTYLE_BEGIN
 90
        1
 91
        1
300
_TITLE
309
CELLSTYLE_END
300
CELLSTYLE
  1
TABLEFORMAT_BEGIN
 90
        5
170
     1
 91
        0
 92
        0
 62
   257
 93
        1
300
CONTENTFORMAT
  1
CONTENTFORMAT_BEGIN
 90
        0
 91
        0
 92
      512
 93
        0
300

 40
0.0
140
1.0
 94
        5
 62
     0
340
F
144
0.18
309
CONTENTFORMAT_END
171
     0
 94
        0
309
TABLEFORMAT_END
  1
CELLSTYLE_BEGIN
 90
        2
 91
        1
300
_HEADER
309
CELLSTYLE_END
300
CELLSTYLE
  1
TABLEFORMAT_BEGIN
 90
        5
170
     1
 91
        0
 92
        0
 62
   257
 93
        1
300
CONTENTFORMAT
  1
CONTENTFORMAT_BEGIN
 90
        0
 91
        0
 92
      512
 93
        0
300

 40
0.0
140
1.0
 94
        2
 62
     0
340
F
144
0.18
309
CONTENTFORMAT_END
171
     0
 94
        0
309
TABLEFORMAT_END
  1
CELLSTYLE_BEGIN
 90
        3
 91
        2
300
_DATA
309
CELLSTYLE_END
  0
XRECORD
  5
A84
102
{ACAD_REACTORS
330
A83
102
}
330
A83
100
AcDbXrecord
280
     1
102
ACAD_ROUNDTRIP_PRE2007_TABLESTYLE
 90
      512
 91
        0
  1

 92
      512
 93
        0
  2

 94
      512
 95
        0
  3

  0
XRECORD
  5
A88
102
{ACAD_REACTORS
330
A87
102
}
330
A87
100
AcDbXrecord
280
     1
102
RTVSPropertyOp0
 70
     1
102
RTVSPropertyOp1
 70
     1
102
RTVSPropertyOp2
 70
     1
102
RTVSPropertyOp3
 70
     1
102
RTVSPropertyOp4
 70
     1
102
RTVSPropertyOp5
 70
     1
102
RTVSPropertyOp6
 70
     1
102
RTVSPropertyOp7
 70
     1
102
RTVSPropertyOp8
 70
     1
102
RTVSPropertyOp9
 70
     1
102
RTVSPropertyOp10
 70
     1
102
RTVSPropertyOp11
 70
     1
102
RTVSPropertyOp12
 70
     1
102
RTVSPropertyOp13
 70
     1
102
RTVSPropertyOp14
 70
     1
102
RTVSPropertyOp15
 70
     1
102
RTVSPropertyOp16
 70
     1
102
RTVSPropertyOp17
 70
     1
102
RTVSPropertyOp18
 70
     1
102
RTVSPropertyOp19
 70
     1
102
RTVSPropertyOp20
 70
     1
102
RTVSPropertyOp21
 70
     1
102
RTVSPropertyOp22
 70
     1
102
RTVSPropertyOp23
 70
     1
102
RTVSPropertyOp24
 70
     1
102
RTVSPropertyOp25
 70
     1
102
RTVSPropertyOp26
 70
     1
102
RTVSPropertyOp27
 70
     1
  0
XRECORD
  5
A8A
102
{ACAD_REACTORS
330
A89
102
}
330
A89
100
AcDbXrecord
280
     1
102
RTVSPropertyOp0
 70
     1
102
RTVSPropertyOp1
 70
     1
102
RTVSPropertyOp2
 70
     1
102
RTVSPropertyOp3
 70
     1
102
RTVSPropertyOp4
 70
     1
102
RTVSPropertyOp5
 70
     1
102
RTVSPropertyOp6
 70
     1
102
RTVSPropertyOp7
 70
     1
102
RTVSPropertyOp8
 70
     1
102
RTVSPropertyOp9
 70
     1
102
RTVSPropertyOp10
 70
     1
102
RTVSPropertyOp11
 70
     1
102
RTVSPropertyOp12
 70
     1
102
RTVSPropertyOp13
 70
     1
102
RTVSPropertyOp14
 70
     1
102
RTVSPropertyOp15
 70
     1
102
RTVSPropertyOp16
 70
     1
102
RTVSPropertyOp17
 70
     1
102
RTVSPropertyOp18
 70
     1
102
RTVSPropertyOp19
 70
     1
102
RTVSPropertyOp20
 70
     1
102
RTVSPropertyOp21
 70
     1
102
RTVSPropertyOp22
 70
     1
102
RTVSPropertyOp23
 70
     1
102
RTVSPropertyOp24
 70
     1
102
RTVSPropertyOp25
 70
     1
102
RTVSPropertyOp26
 70
     1
102
RTVSPropertyOp27
 70
     1
  0
XRECORD
  5
A8C
102
{ACAD_REACTORS
330
A8B
102
}
330
A8B
100
AcDbXrecord
280
     1
102
RTVSPropertyOp0
 70
     1
102
RTVSPropertyOp1
 70
     1
102
RTVSPropertyOp2
 70
     1
102
RTVSPropertyOp3
 70
     1
102
RTVSPropertyOp4
 70
     1
102
RTVSPropertyOp5
 70
     1
102
RTVSPropertyOp6
 70
     1
102
RTVSPropertyOp7
 70
     1
102
RTVSPropertyOp8
 70
     1
102
RTVSPropertyOp9
 70
     1
102
RTVSPropertyOp10
 70
     1
102
RTVSPropertyOp11
 70
     1
102
RTVSPropertyOp12
 70
     1
102
RTVSPropertyOp13
 70
     1
102
RTVSPropertyOp14
 70
     1
102
RTVSPropertyOp15
 70
     1
102
RTVSPropertyOp16
 70
     1
102
RTVSPropertyOp17
 70
     1
102
RTVSPropertyOp18
 70
     1
102
RTVSPropertyOp19
 70
     1
102
RTVSPropertyOp20
 70
     1
102
RTVSPropertyOp21
 70
     1
102
RTVSPropertyOp22
 70
     1
102
RTVSPropertyOp23
 70
     1
102
RTVSPropertyOp24
 70
     1
102
RTVSPropertyOp25
 70
     1
102
RTVSPropertyOp26
 70
     1
102
RTVSPropertyOp27
 70
     1
  0
XRECORD
  5
A8E
102
{ACAD_REACTORS
330
A8D
102
}
330
A8D
100
AcDbXrecord
280
     1
102
RTVSPropertyOp0
 70
     1
102
RTVSPropertyOp1
 70
     1
102
RTVSPropertyOp2
 70
     1
102
RTVSPropertyOp3
 70
     1
102
RTVSPropertyOp4
 70
     1
102
RTVSPropertyOp5
 70
     1
102
RTVSPropertyOp6
 70
     1
102
RTVSPropertyOp7
 70
     1
102
RTVSPropertyOp8
 70
     1
102
RTVSPropertyOp9
 70
     1
102
RTVSPropertyOp10
 70
     1
102
RTVSPropertyOp11
 70
     1
102
RTVSPropertyOp12
 70
     1
102
RTVSPropertyOp13
 70
     1
102
RTVSPropertyOp14
 70
     1
102
RTVSPropertyOp15
 70
     1
102
RTVSPropertyOp16
 70
     1
102
RTVSPropertyOp17
 70
     1
102
RTVSPropertyOp18
 70
     1
102
RTVSPropertyOp19
 70
     1
102
RTVSPropertyOp20
 70
     1
102
RTVSPropertyOp21
 70
     1
102
RTVSPropertyOp22
 70
     1
102
RTVSPropertyOp23
 70
     1
102
RTVSPropertyOp24
 70
     1
102
RTVSPropertyOp25
 70
     1
102
RTVSPropertyOp26
 70
     1
102
RTVSPropertyOp27
 70
     1
  0
XRECORD
  5
A90
102
{ACAD_REACTORS
330
A8F
102
}
330
A8F
100
AcDbXrecord
280
     1
102
RTVSPropertyOp0
 70
     1
102
RTVSPropertyOp1
 70
     1
102
RTVSPropertyOp2
 70
     1
102
RTVSPropertyOp3
 70
     1
102
RTVSPropertyOp4
 70
     1
102
RTVSPropertyOp5
 70
     1
102
RTVSPropertyOp6
 70
     1
102
RTVSPropertyOp7
 70
     1
102
RTVSPropertyOp8
 70
     1
102
RTVSPropertyOp9
 70
     1
102
RTVSPropertyOp10
 70
     1
102
RTVSPropertyOp11
 70
     1
102
RTVSPropertyOp12
 70
     1
102
RTVSPropertyOp13
 70
     1
102
RTVSPropertyOp14
 70
     1
102
RTVSPropertyOp15
 70
     1
102
RTVSPropertyOp16
 70
     1
102
RTVSPropertyOp17
 70
     1
102
RTVSPropertyOp18
 70
     1
102
RTVSPropertyOp19
 70
     1
102
RTVSPropertyOp20
 70
     1
102
RTVSPropertyOp21
 70
     1
102
RTVSPropertyOp22
 70
     1
102
RTVSPropertyOp23
 70
     1
102
RTVSPropertyOp24
 70
     1
102
RTVSPropertyOp25
 70
     1
102
RTVSPropertyOp26
 70
     1
102
RTVSPropertyOp27
 70
     1
  0
XRECORD
  5
A92
102
{ACAD_REACTORS
330
A91
102
}
330
A91
100
AcDbXrecord
280
     1
102
RTVSPropertyOp0
 70
     1
102
RTVSPropertyOp1
 70
     1
102
RTVSPropertyOp2
 70
     1
102
RTVSPropertyOp3
 70
     1
102
RTVSPropertyOp4
 70
     1
102
RTVSPropertyOp5
 70
     1
102
RTVSPropertyOp6
 70
     1
102
RTVSPropertyOp7
 70
     1
102
RTVSPropertyOp8
 70
     1
102
RTVSPropertyOp9
 70
     1
102
RTVSPropertyOp10
 70
     1
102
RTVSPropertyOp11
 70
     1
102
RTVSPropertyOp12
 70
     1
102
RTVSPropertyOp13
 70
     1
102
RTVSPropertyOp14
 70
     1
102
RTVSPropertyOp15
 70
     1
102
RTVSPropertyOp16
 70
     1
102
RTVSPropertyOp17
 70
     1
102
RTVSPropertyOp18
 70
     1
102
RTVSPropertyOp19
 70
     1
102
RTVSPropertyOp20
 70
     1
102
RTVSPropertyOp21
 70
     1
102
RTVSPropertyOp22
 70
     1
102
RTVSPropertyOp23
 70
     1
102
RTVSPropertyOp24
 70
     1
102
RTVSPropertyOp25
 70
     1
102
RTVSPropertyOp26
 70
     1
102
RTVSPropertyOp27
 70
     1
  0
XRECORD
  5
A94
102
{ACAD_REACTORS
330
A93
102
}
330
A93
100
AcDbXrecord
280
     1
102
RTVSPropertyOp0
 70
     1
102
RTVSPropertyOp1
 70
     1
102
RTVSPropertyOp2
 70
     1
102
RTVSPropertyOp3
 70
     1
102
RTVSPropertyOp4
 70
     1
102
RTVSPropertyOp5
 70
     1
102
RTVSPropertyOp6
 70
     1
102
RTVSPropertyOp7
 70
     1
102
RTVSPropertyOp8
 70
     1
102
RTVSPropertyOp9
 70
     1
102
RTVSPropertyOp10
 70
     1
102
RTVSPropertyOp11
 70
     1
102
RTVSPropertyOp12
 70
     1
102
RTVSPropertyOp13
 70
     1
102
RTVSPropertyOp14
 70
     1
102
RTVSPropertyOp15
 70
     1
102
RTVSPropertyOp16
 70
     1
102
RTVSPropertyOp17
 70
     1
102
RTVSPropertyOp18
 70
     1
102
RTVSPropertyOp19
 70
     1
102
RTVSPropertyOp20
 70
     1
102
RTVSPropertyOp21
 70
     1
102
RTVSPropertyOp22
 70
     1
102
RTVSPropertyOp23
 70
     1
102
RTVSPropertyOp24
 70
     1
102
RTVSPropertyOp25
 70
     1
102
RTVSPropertyOp26
 70
     1
102
RTVSPropertyOp27
 70
     1
  0
XRECORD
  5
A96
102
{ACAD_REACTORS
330
A95
102
}
330
A95
100
AcDbXrecord
280
     1
102
RTVSPropertyOp0
 70
     1
102
RTVSPropertyOp1
 70
     1
102
RTVSPropertyOp2
 70
     1
102
RTVSPropertyOp3
 70
     1
102
RTVSPropertyOp4
 70
     1
102
RTVSPropertyOp5
 70
     1
102
RTVSPropertyOp6
 70
     1
102
RTVSPropertyOp7
 70
     1
102
RTVSPropertyOp8
 70
     1
102
RTVSPropertyOp9
 70
     1
102
RTVSPropertyOp10
 70
     1
102
RTVSPropertyOp11
 70
     1
102
RTVSPropertyOp12
 70
     1
102
RTVSPropertyOp13
 70
     1
102
RTVSPropertyOp14
 70
     1
102
RTVSPropertyOp15
 70
     1
102
RTVSPropertyOp16
 70
     1
102
RTVSPropertyOp17
 70
     1
102
RTVSPropertyOp18
 70
     1
102
RTVSPropertyOp19
 70
     1
102
RTVSPropertyOp20
 70
     1
102
RTVSPropertyOp21
 70
     1
102
RTVSPropertyOp22
 70
     1
102
RTVSPropertyOp23
 70
     1
102
RTVSPropertyOp24
 70
     1
102
RTVSPropertyOp25
 70
     1
102
RTVSPropertyOp26
 70
     1
102
RTVSPropertyOp27
 70
     1
  0
XRECORD
  5
A98
102
{ACAD_REACTORS
330
A97
102
}
330
A97
100
AcDbXrecord
280
     1
102
RTVSPropertyOp0
 70
     1
102
RTVSPropertyOp1
 70
     1
102
RTVSPropertyOp2
 70
     1
102
RTVSPropertyOp3
 70
     1
102
RTVSPropertyOp4
 70
     1
102
RTVSPropertyOp5
 70
     1
102
RTVSPropertyOp6
 70
     1
102
RTVSPropertyOp7
 70
     1
102
RTVSPropertyOp8
 70
     1
102
RTVSPropertyOp9
 70
     1
102
RTVSPropertyOp10
 70
     1
102
RTVSPropertyOp11
 70
     1
102
RTVSPropertyOp12
 70
     1
102
RTVSPropertyOp13
 70
     1
102
RTVSPropertyOp14
 70
     1
102
RTVSPropertyOp15
 70
     1
102
RTVSPropertyOp16
 70
     1
102
RTVSPropertyOp17
 70
     1
102
RTVSPropertyOp18
 70
     1
102
RTVSPropertyOp19
 70
     1
102
RTVSPropertyOp20
 70
     1
102
RTVSPropertyOp21
 70
     1
102
RTVSPropertyOp22
 70
     1
102
RTVSPropertyOp23
 70
     1
102
RTVSPropertyOp24
 70
     1
102
RTVSPropertyOp25
 70
     1
102
RTVSPropertyOp26
 70
     1
102
RTVSPropertyOp27
 70
     1
  0
XRECORD
  5
A9A
102
{ACAD_REACTORS
330
A99
102
}
330
A99
100
AcDbXrecord
280
     1
102
RTVSPropertyOp0
 70
     1
102
RTVSPropertyOp1
 70
     1
102
RTVSPropertyOp2
 70
     1
102
RTVSPropertyOp3
 70
     1
102
RTVSPropertyOp4
 70
     1
102
RTVSPropertyOp5
 70
     1
102
RTVSPropertyOp6
 70
     1
102
RTVSPropertyOp7
 70
     1
102
RTVSPropertyOp8
 70
     1
102
RTVSPropertyOp9
 70
     1
102
RTVSPropertyOp10
 70
     1
102
RTVSPropertyOp11
 70
     1
102
RTVSPropertyOp12
 70
     1
102
RTVSPropertyOp13
 70
     1
102
RTVSPropertyOp14
 70
     1
102
RTVSPropertyOp15
 70
     1
102
RTVSPropertyOp16
 70
     1
102
RTVSPropertyOp17
 70
     1
102
RTVSPropertyOp18
 70
     1
102
RTVSPropertyOp19
 70
     1
102
RTVSPropertyOp20
 70
     1
102
RTVSPropertyOp21
 70
     1
102
RTVSPropertyOp22
 70
     1
102
RTVSPropertyOp23
 70
     1
102
RTVSPropertyOp24
 70
     1
102
RTVSPropertyOp25
 70
     1
102
RTVSPropertyOp26
 70
     1
102
RTVSPropertyOp27
 70
     1
  0
XRECORD
  5
A9C
102
{ACAD_REACTORS
330
A9B
102
}
330
A9B
100
AcDbXrecord
280
     1
102
RTVSPropertyOp0
 70
     1
102
RTVSPropertyOp1
 70
     1
102
RTVSPropertyOp2
 70
     1
102
RTVSPropertyOp3
 70
     1
102
RTVSPropertyOp4
 70
     1
102
RTVSPropertyOp5
 70
     1
102
RTVSPropertyOp6
 70
     1
102
RTVSPropertyOp7
 70
     1
102
RTVSPropertyOp8
 70
     1
102
RTVSPropertyOp9
 70
     1
102
RTVSPropertyOp10
 70
     1
102
RTVSPropertyOp11
 70
     1
102
RTVSPropertyOp12
 70
     1
102
RTVSPropertyOp13
 70
     1
102
RTVSPropertyOp14
 70
     1
102
RTVSPropertyOp15
 70
     1
102
RTVSPropertyOp16
 70
     1
102
RTVSPropertyOp17
 70
     1
102
RTVSPropertyOp18
 70
     1
102
RTVSPropertyOp19
 70
     1
102
RTVSPropertyOp20
 70
     1
102
RTVSPropertyOp21
 70
     1
102
RTVSPropertyOp22
 70
     1
102
RTVSPropertyOp23
 70
     1
102
RTVSPropertyOp24
 70
     1
102
RTVSPropertyOp25
 70
     1
102
RTVSPropertyOp26
 70
     1
102
RTVSPropertyOp27
 70
     1
  0
XRECORD
  5
A9E
102
{ACAD_REACTORS
330
A9D
102
}
330
A9D
100
AcDbXrecord
280
     1
102
RTVSPropertyOp0
 70
     1
102
RTVSPropertyOp1
 70
     1
102
RTVSPropertyOp2
 70
     1
102
RTVSPropertyOp3
 70
     1
102
RTVSPropertyOp4
 70
     1
102
RTVSPropertyOp5
 70
     1
102
RTVSPropertyOp6
 70
     1
102
RTVSPropertyOp7
 70
     1
102
RTVSPropertyOp8
 70
     1
102
RTVSPropertyOp9
 70
     1
102
RTVSPropertyOp10
 70
     1
102
RTVSPropertyOp11
 70
     1
102
RTVSPropertyOp12
 70
     1
102
RTVSPropertyOp13
 70
     1
102
RTVSPropertyOp14
 70
     1
102
RTVSPropertyOp15
 70
     1
102
RTVSPropertyOp16
 70
     1
102
RTVSPropertyOp17
 70
     1
102
RTVSPropertyOp18
 70
     1
102
RTVSPropertyOp19
 70
     1
102
RTVSPropertyOp20
 70
     1
102
RTVSPropertyOp21
 70
     1
102
RTVSPropertyOp22
 70
     1
102
RTVSPropertyOp23
 70
     1
102
RTVSPropertyOp24
 70
     1
102
RTVSPropertyOp25
 70
     1
102
RTVSPropertyOp26
 70
     1
102
RTVSPropertyOp27
 70
     1
  0
XRECORD
  5
AA0
102
{ACAD_REACTORS
330
A9F
102
}
330
A9F
100
AcDbXrecord
280
     1
102
RTVSPropertyOp0
 70
     1
102
RTVSPropertyOp1
 70
     1
102
RTVSPropertyOp2
 70
     1
102
RTVSPropertyOp3
 70
     1
102
RTVSPropertyOp4
 70
     1
102
RTVSPropertyOp5
 70
     1
102
RTVSPropertyOp6
 70
     1
102
RTVSPropertyOp7
 70
     1
102
RTVSPropertyOp8
 70
     1
102
RTVSPropertyOp9
 70
     1
102
RTVSPropertyOp10
 70
     1
102
RTVSPropertyOp11
 70
     1
102
RTVSPropertyOp12
 70
     1
102
RTVSPropertyOp13
 70
     1
102
RTVSPropertyOp14
 70
     1
102
RTVSPropertyOp15
 70
     1
102
RTVSPropertyOp16
 70
     1
102
RTVSPropertyOp17
 70
     1
102
RTVSPropertyOp18
 70
     1
102
RTVSPropertyOp19
 70
     1
102
RTVSPropertyOp20
 70
     1
102
RTVSPropertyOp21
 70
     1
102
RTVSPropertyOp22
 70
     1
102
RTVSPropertyOp23
 70
     1
102
RTVSPropertyOp24
 70
     1
102
RTVSPropertyOp25
 70
     1
102
RTVSPropertyOp26
 70
     1
102
RTVSPropertyOp27
 70
     1
  0
XRECORD
  5
AA2
102
{ACAD_REACTORS
330
AA1
102
}
330
AA1
100
AcDbXrecord
280
     1
102
RTVSPropertyOp0
 70
     1
102
RTVSPropertyOp1
 70
     1
102
RTVSPropertyOp2
 70
     1
102
RTVSPropertyOp3
 70
     1
102
RTVSPropertyOp4
 70
     1
102
RTVSPropertyOp5
 70
     1
102
RTVSPropertyOp6
 70
     1
102
RTVSPropertyOp7
 70
     1
102
RTVSPropertyOp8
 70
     1
102
RTVSPropertyOp9
 70
     1
102
RTVSPropertyOp10
 70
     1
102
RTVSPropertyOp11
 70
     1
102
RTVSPropertyOp12
 70
     1
102
RTVSPropertyOp13
 70
     1
102
RTVSPropertyOp14
 70
     1
102
RTVSPropertyOp15
 70
     1
102
RTVSPropertyOp16
 70
     1
102
RTVSPropertyOp17
 70
     1
102
RTVSPropertyOp18
 70
     1
102
RTVSPropertyOp19
 70
     1
102
RTVSPropertyOp20
 70
     1
102
RTVSPropertyOp21
 70
     1
102
RTVSPropertyOp22
 70
     1
102
RTVSPropertyOp23
 70
     1
102
RTVSPropertyOp24
 70
     1
102
RTVSPropertyOp25
 70
     1
102
RTVSPropertyOp26
 70
     1
102
RTVSPropertyOp27
 70
     1
  0
XRECORD
  5
AA4
102
{ACAD_REACTORS
330
AA3
102
}
330
AA3
100
AcDbXrecord
280
     1
102
RTVSPropertyOp0
 70
     1
102
RTVSPropertyOp1
 70
     1
102
RTVSPropertyOp2
 70
     1
102
RTVSPropertyOp3
 70
     1
102
RTVSPropertyOp4
 70
     1
102
RTVSPropertyOp5
 70
     1
102
RTVSPropertyOp6
 70
     1
102
RTVSPropertyOp7
 70
     1
102
RTVSPropertyOp8
 70
     1
102
RTVSPropertyOp9
 70
     1
102
RTVSPropertyOp10
 70
     1
102
RTVSPropertyOp11
 70
     1
102
RTVSPropertyOp12
 70
     1
102
RTVSPropertyOp13
 70
     1
102
RTVSPropertyOp14
 70
     1
102
RTVSPropertyOp15
 70
     1
102
RTVSPropertyOp16
 70
     1
102
RTVSPropertyOp17
 70
     1
102
RTVSPropertyOp18
 70
     1
102
RTVSPropertyOp19
 70
     1
102
RTVSPropertyOp20
 70
     1
102
RTVSPropertyOp21
 70
     1
102
RTVSPropertyOp22
 70
     1
102
RTVSPropertyOp23
 70
     1
102
RTVSPropertyOp24
 70
     1
102
RTVSPropertyOp25
 70
     1
102
RTVSPropertyOp26
 70
     1
102
RTVSPropertyOp27
 70
     1
  0
XRECORD
  5
AA6
102
{ACAD_REACTORS
330
AA5
102
}
330
AA5
100
AcDbXrecord
280
     1
102
RTVSPropertyOp0
 70
     1
102
RTVSPropertyOp1
 70
     1
102
RTVSPropertyOp2
 70
     1
102
RTVSPropertyOp3
 70
     1
102
RTVSPropertyOp4
 70
     1
102
RTVSPropertyOp5
 70
     1
102
RTVSPropertyOp6
 70
     1
102
RTVSPropertyOp7
 70
     1
102
RTVSPropertyOp8
 70
     1
102
RTVSPropertyOp9
 70
     1
102
RTVSPropertyOp10
 70
     1
102
RTVSPropertyOp11
 70
     1
102
RTVSPropertyOp12
 70
     1
102
RTVSPropertyOp13
 70
     1
102
RTVSPropertyOp14
 70
     1
102
RTVSPropertyOp15
 70
     1
102
RTVSPropertyOp16
 70
     1
102
RTVSPropertyOp17
 70
     1
102
RTVSPropertyOp18
 70
     1
102
RTVSPropertyOp19
 70
     1
102
RTVSPropertyOp20
 70
     1
102
RTVSPropertyOp21
 70
     1
102
RTVSPropertyOp22
 70
     1
102
RTVSPropertyOp23
 70
     1
102
RTVSPropertyOp24
 70
     1
102
RTVSPropertyOp25
 70
     1
102
RTVSPropertyOp26
 70
     1
102
RTVSPropertyOp27
 70
     1
  0
XRECORD
  5
AA8
102
{ACAD_REACTORS
330
AA7
102
}
330
AA7
100
AcDbXrecord
280
     1
102
RTVSPropertyOp0
 70
     1
102
RTVSPropertyOp1
 70
     1
102
RTVSPropertyOp2
 70
     1
102
RTVSPropertyOp3
 70
     1
102
RTVSPropertyOp4
 70
     1
102
RTVSPropertyOp5
 70
     1
102
RTVSPropertyOp6
 70
     1
102
RTVSPropertyOp7
 70
     1
102
RTVSPropertyOp8
 70
     1
102
RTVSPropertyOp9
 70
     1
102
RTVSPropertyOp10
 70
     1
102
RTVSPropertyOp11
 70
     1
102
RTVSPropertyOp12
 70
     1
102
RTVSPropertyOp13
 70
     1
102
RTVSPropertyOp14
 70
     1
102
RTVSPropertyOp15
 70
     1
102
RTVSPropertyOp16
 70
     1
102
RTVSPropertyOp17
 70
     1
102
RTVSPropertyOp18
 70
     1
102
RTVSPropertyOp19
 70
     1
102
RTVSPropertyOp20
 70
     1
102
RTVSPropertyOp21
 70
     1
102
RTVSPropertyOp22
 70
     1
102
RTVSPropertyOp23
 70
     1
102
RTVSPropertyOp24
 70
     1
102
RTVSPropertyOp25
 70
     1
102
RTVSPropertyOp26
 70
     1
102
RTVSPropertyOp27
 70
     1
  0
XRECORD
  5
AAA
102
{ACAD_REACTORS
330
AA9
102
}
330
AA9
100
AcDbXrecord
280
     1
102
RTVSPropertyOp0
 70
     1
102
RTVSPropertyOp1
 70
     1
102
RTVSPropertyOp2
 70
     1
102
RTVSPropertyOp3
 70
     1
102
RTVSPropertyOp4
 70
     1
102
RTVSPropertyOp5
 70
     1
102
RTVSPropertyOp6
 70
     1
102
RTVSPropertyOp7
 70
     1
102
RTVSPropertyOp8
 70
     1
102
RTVSPropertyOp9
 70
     1
102
RTVSPropertyOp10
 70
     1
102
RTVSPropertyOp11
 70
     1
102
RTVSPropertyOp12
 70
     1
102
RTVSPropertyOp13
 70
     1
102
RTVSPropertyOp14
 70
     1
102
RTVSPropertyOp15
 70
     1
102
RTVSPropertyOp16
 70
     1
102
RTVSPropertyOp17
 70
     1
102
RTVSPropertyOp18
 70
     1
102
RTVSPropertyOp19
 70
     1
102
RTVSPropertyOp20
 70
     1
102
RTVSPropertyOp21
 70
     1
102
RTVSPropertyOp22
 70
     1
102
RTVSPropertyOp23
 70
     1
102
RTVSPropertyOp24
 70
     1
102
RTVSPropertyOp25
 70
     1
102
RTVSPropertyOp26
 70
     1
102
RTVSPropertyOp27
 70
     1
  0
XRECORD
  5
AAC
102
{ACAD_REACTORS
330
AAB
102
}
330
AAB
100
AcDbXrecord
280
     1
102
RTVSPropertyOp0
 70
     1
102
RTVSPropertyOp1
 70
     1
102
RTVSPropertyOp2
 70
     1
102
RTVSPropertyOp3
 70
     1
102
RTVSPropertyOp4
 70
     1
102
RTVSPropertyOp5
 70
     1
102
RTVSPropertyOp6
 70
     1
102
RTVSPropertyOp7
 70
     1
102
RTVSPropertyOp8
 70
     1
102
RTVSPropertyOp9
 70
     1
102
RTVSPropertyOp10
 70
     1
102
RTVSPropertyOp11
 70
     1
102
RTVSPropertyOp12
 70
     1
102
RTVSPropertyOp13
 70
     1
102
RTVSPropertyOp14
 70
     1
102
RTVSPropertyOp15
 70
     1
102
RTVSPropertyOp16
 70
     1
102
RTVSPropertyOp17
 70
     1
102
RTVSPropertyOp18
 70
     1
102
RTVSPropertyOp19
 70
     1
102
RTVSPropertyOp20
 70
     1
102
RTVSPropertyOp21
 70
     1
102
RTVSPropertyOp22
 70
     1
102
RTVSPropertyOp23
 70
     1
102
RTVSPropertyOp24
 70
     1
102
RTVSPropertyOp25
 70
     1
102
RTVSPropertyOp26
 70
     1
102
RTVSPropertyOp27
 70
     1
  0
XRECORD
  5
AAE
102
{ACAD_REACTORS
330
AAD
102
}
330
AAD
100
AcDbXrecord
280
     1
102
RTVSPropertyOp0
 70
     1
102
RTVSPropertyOp1
 70
     1
102
RTVSPropertyOp2
 70
     1
102
RTVSPropertyOp3
 70
     1
102
RTVSPropertyOp4
 70
     1
102
RTVSPropertyOp5
 70
     1
102
RTVSPropertyOp6
 70
     1
102
RTVSPropertyOp7
 70
     1
102
RTVSPropertyOp8
 70
     1
102
RTVSPropertyOp9
 70
     1
102
RTVSPropertyOp10
 70
     1
102
RTVSPropertyOp11
 70
     1
102
RTVSPropertyOp12
 70
     1
102
RTVSPropertyOp13
 70
     1
102
RTVSPropertyOp14
 70
     1
102
RTVSPropertyOp15
 70
     1
102
RTVSPropertyOp16
 70
     1
102
RTVSPropertyOp17
 70
     1
102
RTVSPropertyOp18
 70
     1
102
RTVSPropertyOp19
 70
     1
102
RTVSPropertyOp20
 70
     1
102
RTVSPropertyOp21
 70
     1
102
RTVSPropertyOp22
 70
     1
102
RTVSPropertyOp23
 70
     1
102
RTVSPropertyOp24
 70
     1
102
RTVSPropertyOp25
 70
     1
102
RTVSPropertyOp26
 70
     1
102
RTVSPropertyOp27
 70
     1
  0
XRECORD
  5
AB0
102
{ACAD_REACTORS
330
AAF
102
}
330
AAF
100
AcDbXrecord
280
     1
102
RTVSPropertyOp0
 70
     1
102
RTVSPropertyOp1
 70
     1
102
RTVSPropertyOp2
 70
     1
102
RTVSPropertyOp3
 70
     1
102
RTVSPropertyOp4
 70
     1
102
RTVSPropertyOp5
 70
     1
102
RTVSPropertyOp6
 70
     1
102
RTVSPropertyOp7
 70
     1
102
RTVSPropertyOp8
 70
     1
102
RTVSPropertyOp9
 70
     1
102
RTVSPropertyOp10
 70
     1
102
RTVSPropertyOp11
 70
     1
102
RTVSPropertyOp12
 70
     1
102
RTVSPropertyOp13
 70
     1
102
RTVSPropertyOp14
 70
     1
102
RTVSPropertyOp15
 70
     1
102
RTVSPropertyOp16
 70
     1
102
RTVSPropertyOp17
 70
     1
102
RTVSPropertyOp18
 70
     1
102
RTVSPropertyOp19
 70
     1
102
RTVSPropertyOp20
 70
     1
102
RTVSPropertyOp21
 70
     1
102
RTVSPropertyOp22
 70
     1
102
RTVSPropertyOp23
 70
     1
102
RTVSPropertyOp24
 70
     1
102
RTVSPropertyOp25
 70
     1
102
RTVSPropertyOp26
 70
     1
102
RTVSPropertyOp27
 70
     1
  0
XRECORD
  5
AB2
102
{ACAD_REACTORS
330
AB1
102
}
330
AB1
100
AcDbXrecord
280
     1
102
RTVSPropertyOp0
 70
     1
102
RTVSPropertyOp1
 70
     1
102
RTVSPropertyOp2
 70
     1
102
RTVSPropertyOp3
 70
     1
102
RTVSPropertyOp4
 70
     1
102
RTVSPropertyOp5
 70
     1
102
RTVSPropertyOp6
 70
     1
102
RTVSPropertyOp7
 70
     1
102
RTVSPropertyOp8
 70
     1
102
RTVSPropertyOp9
 70
     1
102
RTVSPropertyOp10
 70
     1
102
RTVSPropertyOp11
 70
     1
102
RTVSPropertyOp12
 70
     1
102
RTVSPropertyOp13
 70
     1
102
RTVSPropertyOp14
 70
     1
102
RTVSPropertyOp15
 70
     1
102
RTVSPropertyOp16
 70
     1
102
RTVSPropertyOp17
 70
     1
102
RTVSPropertyOp18
 70
     1
102
RTVSPropertyOp19
 70
     1
102
RTVSPropertyOp20
 70
     1
102
RTVSPropertyOp21
 70
     1
102
RTVSPropertyOp22
 70
     1
102
RTVSPropertyOp23
 70
     1
102
RTVSPropertyOp24
 70
     1
102
RTVSPropertyOp25
 70
     1
102
RTVSPropertyOp26
 70
     1
102
RTVSPropertyOp27
 70
     1
  0
XRECORD
  5
AB4
102
{ACAD_REACTORS
330
AB3
102
}
330
AB3
100
AcDbXrecord
280
     1
102
RTVSPropertyOp0
 70
     1
102
RTVSPropertyOp1
 70
     1
102
RTVSPropertyOp2
 70
     1
102
RTVSPropertyOp3
 70
     1
102
RTVSPropertyOp4
 70
     1
102
RTVSPropertyOp5
 70
     1
102
RTVSPropertyOp6
 70
     1
102
RTVSPropertyOp7
 70
     1
102
RTVSPropertyOp8
 70
     1
102
RTVSPropertyOp9
 70
     1
102
RTVSPropertyOp10
 70
     1
102
RTVSPropertyOp11
 70
     1
102
RTVSPropertyOp12
 70
     1
102
RTVSPropertyOp13
 70
     1
102
RTVSPropertyOp14
 70
     1
102
RTVSPropertyOp15
 70
     1
102
RTVSPropertyOp16
 70
     1
102
RTVSPropertyOp17
 70
     1
102
RTVSPropertyOp18
 70
     1
102
RTVSPropertyOp19
 70
     1
102
RTVSPropertyOp20
 70
     1
102
RTVSPropertyOp21
 70
     1
102
RTVSPropertyOp22
 70
     1
102
RTVSPropertyOp23
 70
     1
102
RTVSPropertyOp24
 70
     1
102
RTVSPropertyOp25
 70
     1
102
RTVSPropertyOp26
 70
     1
102
RTVSPropertyOp27
 70
     1
  0
XRECORD
  5
AB6
102
{ACAD_REACTORS
330
AB5
102
}
330
AB5
100
AcDbXrecord
280
     1
102
RTVSPropertyOp0
 70
     1
102
RTVSPropertyOp1
 70
     1
102
RTVSPropertyOp2
 70
     1
102
RTVSPropertyOp3
 70
     1
102
RTVSPropertyOp4
 70
     1
102
RTVSPropertyOp5
 70
     1
102
RTVSPropertyOp6
 70
     1
102
RTVSPropertyOp7
 70
     1
102
RTVSPropertyOp8
 70
     1
102
RTVSPropertyOp9
 70
     1
102
RTVSPropertyOp10
 70
     1
102
RTVSPropertyOp11
 70
     1
102
RTVSPropertyOp12
 70
     1
102
RTVSPropertyOp13
 70
     1
102
RTVSPropertyOp14
 70
     1
102
RTVSPropertyOp15
 70
     1
102
RTVSPropertyOp16
 70
     1
102
RTVSPropertyOp17
 70
     1
102
RTVSPropertyOp18
 70
     1
102
RTVSPropertyOp19
 70
     1
102
RTVSPropertyOp20
 70
     1
102
RTVSPropertyOp21
 70
     1
102
RTVSPropertyOp22
 70
     1
102
RTVSPropertyOp23
 70
     1
102
RTVSPropertyOp24
 70
     1
102
RTVSPropertyOp25
 70
     1
102
RTVSPropertyOp26
 70
     1
102
RTVSPropertyOp27
 70
     1
  0
ENDSEC
  0
EOF
