  0
SECTION
  2
HEADER
  9
$ACADVER
  1
AC1018
  9
$ACADMAINTVER
 70
     0
  9
$DWGCODEPAGE
  3
ANSI_932
  9
$LASTSAVEDBY
  1
shinwa
  9
$INSBASE
 10
0.0
 20
0.0
 30
0.0
  9
$EXTMIN
 10
449.0329299351871
 20
-145.2176364853967
 30
0.0
  9
$EXTMAX
 10
16726.14140141127
 20
11593.23490938734
 30
0.0
  9
$LIMMIN
 10
0.0
 20
0.0
  9
$LIMMAX
 10
17820.0
 20
12600.0
  9
$ORTHOMODE
 70
     1
  9
$REGENMODE
 70
     1
  9
$FILLMODE
 70
     1
  9
$QTEXTMODE
 70
     0
  9
$MIRRTEXT
 70
     1
  9
$LTSCALE
 40
100.0
  9
$ATTMODE
 70
     1
  9
$TEXTSIZE
 40
90.0
  9
$TRACEWID
 40
0.05
  9
$TEXTSTYLE
  7
A
  9
$CLAYER
  8
SUNPOU
  9
$CELTYPE
  6
BYLAYER
  9
$CECOLOR
 62
   256
  9
$CELTSCALE
 40
1.0
  9
$DISPSILH
 70
     0
  9
$DIMSCALE
 40
1.0
  9
$DIMASZ
 40
60.0
  9
$DIMEXO
 40
40.0
  9
$DIMDLI
 40
140.0
  9
$DIMRND
 40
0.0
  9
$DIMDLE
 40
0.0
  9
$DIMEXE
 40
20.0
  9
$DIMTP
 40
0.0
  9
$DIMTM
 40
0.0
  9
$DIMTXT
 40
90.0
  9
$DIMCEN
 40
0.09
  9
$DIMTSZ
 40
0.0
  9
$DIMTOL
 70
     0
  9
$DIMLIM
 70
     0
  9
$DIMTIH
 70
     0
  9
$DIMTOH
 70
     0
  9
$DIMSE1
 70
     0
  9
$DIMSE2
 70
     0
  9
$DIMTAD
 70
     0
  9
$DIMZIN
 70
     0
  9
$DIMBLK
  1

  9
$DIMASO
 70
     1
  9
$DIMSHO
 70
     0
  9
$DIMPOST
  1

  9
$DIMAPOST
  1

  9
$DIMALT
 70
     0
  9
$DIMALTD
 70
     2
  9
$DIMALTF
 40
25.4
  9
$DIMLFAC
 40
1.0
  9
$DIMTOFL
 70
     1
  9
$DIMTVP
 40
1.0
  9
$DIMTIX
 70
     0
  9
$DIMSOXD
 70
     0
  9
$DIMSAH
 70
     0
  9
$DIMBLK1
  1

  9
$DIMBLK2
  1

  9
$DIMSTYLE
  2
STANDARD
  9
$DIMCLRD
 70
     0
  9
$DIMCLRE
 70
     0
  9
$DIMCLRT
 70
     0
  9
$DIMTFAC
 40
1.0
  9
$DIMGAP
 40
0.09
  9
$DIMJUST
 70
     0
  9
$DIMSD1
 70
     0
  9
$DIMSD2
 70
     0
  9
$DIMTOLJ
 70
     1
  9
$DIMTZIN
 70
     0
  9
$DIMALTZ
 70
     0
  9
$DIMALTTZ
 70
     0
  9
$DIMUPT
 70
     0
  9
$DIMDEC
 70
     0
  9
$DIMTDEC
 70
     0
  9
$DIMALTU
 70
     2
  9
$DIMALTTD
 70
     2
  9
$DIMTXSTY
  7
A
  9
$DIMAUNIT
 70
     1
  9
$DIMADEC
 70
     0
  9
$DIMALTRND
 40
0.0
  9
$DIMAZIN
 70
     0
  9
$DIMDSEP
 70
    46
  9
$DIMATFIT
 70
     3
  9
$DIMFRAC
 70
     0
  9
$DIMLDRBLK
  1

  9
$DIMLUNIT
 70
     2
  9
$DIMLWD
 70
    -2
  9
$DIMLWE
 70
    -2
  9
$DIMTMOVE
 70
     2
  9
$LUNITS
 70
     2
  9
$LUPREC
 70
     0
  9
$SKETCHINC
 40
0.1
  9
$FILLETRAD
 40
50.0
  9
$AUNITS
 70
     1
  9
$AUPREC
 70
     4
  9
$MENU
  1
acad
  9
$ELEVATION
 40
0.0
  9
$PELEVATION
 40
0.0
  9
$THICKNESS
 40
0.0
  9
$LIMCHECK
 70
     0
  9
$CHAMFERA
 40
0.0
  9
$CHAMFERB
 40
0.0
  9
$CHAMFERC
 40
0.0
  9
$CHAMFERD
 40
0.0
  9
$SKPOLY
 70
     0
  9
$TDCREATE
 40
2448772.823842593
  9
$TDUCREATE
 40
2448772.448842593
  9
$TDUPDATE
 40
2457794.764603322
  9
$TDUUPDATE
 40
2457794.389603322
  9
$TDINDWG
 40
0.0473705324
  9
$TDUSRTIMER
 40
0.0473705324
  9
$USRTIMER
 70
     1
  9
$ANGBASE
 50
0.0
  9
$ANGDIR
 70
     0
  9
$PDMODE
 70
    32
  9
$PDSIZE
 40
1.0
  9
$PLINEWID
 40
0.0
  9
$SPLFRAME
 70
     0
  9
$SPLINETYPE
 70
     6
  9
$SPLINESEGS
 70
     8
  9
$HANDSEED
  5
BB2
  9
$SURFTAB1
 70
     6
  9
$SURFTAB2
 70
     6
  9
$SURFTYPE
 70
     6
  9
$SURFU
 70
     6
  9
$SURFV
 70
     6
  9
$UCSBASE
  2

  9
$UCSNAME
  2

  9
$UCSORG
 10
0.0
 20
0.0
 30
0.0
  9
$UCSXDIR
 10
1.0
 20
0.0
 30
0.0
  9
$UCSYDIR
 10
0.0
 20
1.0
 30
0.0
  9
$UCSORTHOREF
  2

  9
$UCSORTHOVIEW
 70
     0
  9
$UCSORGTOP
 10
0.0
 20
0.0
 30
0.0
  9
$UCSORGBOTTOM
 10
0.0
 20
0.0
 30
0.0
  9
$UCSORGLEFT
 10
0.0
 20
0.0
 30
0.0
  9
$UCSORGRIGHT
 10
0.0
 20
0.0
 30
0.0
  9
$UCSORGFRONT
 10
0.0
 20
0.0
 30
0.0
  9
$UCSORGBACK
 10
0.0
 20
0.0
 30
0.0
  9
$PUCSBASE
  2

  9
$PUCSNAME
  2

  9
$PUCSORG
 10
0.0
 20
0.0
 30
0.0
  9
$PUCSXDIR
 10
1.0
 20
0.0
 30
0.0
  9
$PUCSYDIR
 10
0.0
 20
1.0
 30
0.0
  9
$PUCSORTHOREF
  2

  9
$PUCSORTHOVIEW
 70
     0
  9
$PUCSORGTOP
 10
0.0
 20
0.0
 30
0.0
  9
$PUCSORGBOTTOM
 10
0.0
 20
0.0
 30
0.0
  9
$PUCSORGLEFT
 10
0.0
 20
0.0
 30
0.0
  9
$PUCSORGRIGHT
 10
0.0
 20
0.0
 30
0.0
  9
$PUCSORGFRONT
 10
0.0
 20
0.0
 30
0.0
  9
$PUCSORGBACK
 10
0.0
 20
0.0
 30
0.0
  9
$USERI1
 70
     0
  9
$USERI2
 70
     0
  9
$USERI3
 70
     0
  9
$USERI4
 70
     0
  9
$USERI5
 70
     0
  9
$USERR1
 40
0.0
  9
$USERR2
 40
0.0
  9
$USERR3
 40
0.0
  9
$USERR4
 40
0.0
  9
$USERR5
 40
0.0
  9
$WORLDVIEW
 70
     1
  9
$SHADEDGE
 70
     3
  9
$SHADEDIF
 70
    70
  9
$TILEMODE
 70
     1
  9
$MAXACTVP
 70
    48
  9
$PINSBASE
 10
0.0
 20
0.0
 30
0.0
  9
$PLIMCHECK
 70
     0
  9
$PEXTMIN
 10
1.000000000000000E+20
 20
1.000000000000000E+20
 30
1.000000000000000E+20
  9
$PEXTMAX
 10
-1.000000000000000E+20
 20
-1.000000000000000E+20
 30
-1.000000000000000E+20
  9
$PLIMMIN
 10
0.0
 20
0.0
  9
$PLIMMAX
 10
12.0
 20
9.0
  9
$UNITMODE
 70
     0
  9
$VISRETAIN
 70
     0
  9
$PLINEGEN
 70
     0
  9
$PSLTSCALE
 70
     0
  9
$TREEDEPTH
 70
  3020
  9
$CMLSTYLE
  2
STANDARD
  9
$CMLJUST
 70
     0
  9
$CMLSCALE
 40
1.0
  9
$PROXYGRAPHICS
 70
     1
  9
$MEASUREMENT
 70
     0
  9
$CELWEIGHT
370
    -1
  9
$ENDCAPS
280
     0
  9
$JOINSTYLE
280
     0
  9
$LWDISPLAY
290
     0
  9
$INSUNITS
 70
     0
  9
$HYPERLINKBASE
  1

  9
$STYLESHEET
  1

  9
$XEDIT
290
     1
  9
$CEPSNTYPE
380
     0
  9
$PSTYLEMODE
290
     1
  9
$FINGERPRINTGUID
  2
{9BE0BCF8-D8E8-4609-8C0E-562DDE353FAD}
  9
$VERSIONGUID
  2
{64CF2707-F1D3-4DE0-B700-4A5A96E104BB}
  9
$EXTNAMES
290
     1
  9
$PSVPSCALE
 40
0.0
  9
$OLESTARTUP
290
     0
  9
$SORTENTS
280
   127
  9
$INDEXCTL
280
     0
  9
$HIDETEXT
280
     0
  9
$XCLIPFRAME
290
     0
  9
$HALOGAP
280
     0
  9
$OBSCOLOR
 70
   257
  9
$OBSLTYPE
280
     0
  9
$INTERSECTIONDISPLAY
280
     0
  9
$INTERSECTIONCOLOR
 70
   257
  9
$DIMASSOC
280
     1
  9
$PROJECTNAME
  1

  0
ENDSEC
  0
SECTION
  2
CLASSES
  0
CLASS
  1
DICTIONARYVAR
  2
AcDbDictionaryVar
  3
ObjectDBX Classes
 90
        0
 91
        4
280
     0
281
     0
  0
CLASS
  1
LWPOLYLINE
  2
AcDbPolyline
  3
AutoCAD 2000
 90
        0
 91
        1
280
     0
281
     1
  0
CLASS
  1
ACDBDICTIONARYWDFLT
  2
AcDbDictionaryWithDefault
  3
ObjectDBX Classes
 90
        0
 91
        4
280
     0
281
     0
  0
CLASS
  1
TABLESTYLE
  2
AcDbTableStyle
  3
ObjectDBX Classes
 90
     4095
 91
        4
280
     0
281
     0
  0
CLASS
  1
ACDBPLACEHOLDER
  2
AcDbPlaceHolder
  3
ObjectDBX Classes
 90
        0
 91
        1
280
     0
281
     0
  0
CLASS
  1
LAYOUT
  2
AcDbLayout
  3
ObjectDBX Classes
 90
        0
 91
        1
280
     0
281
     0
  0
CLASS
  1
MATERIAL
  2
AcDbMaterial
  3
ObjectDBX Classes
 90
     1153
 91
        4
280
     0
281
     0
  0
CLASS
  1
VISUALSTYLE
  2
AcDbVisualStyle
  3
ObjectDBX Classes
 90
     4095
 91
        4
280
     0
281
     0
  0
CLASS
  1
SCALE
  2
AcDbScale
  3
ObjectDBX Classes
 90
     1153
 91
        4
280
     0
281
     0
  0
CLASS
  1
MLEADERSTYLE
  2
AcDbMLeaderStyle
  3
ACDB_MLEADERSTYLE_CLASS
 90
     4095
 91
        4
280
     0
281
     0
  0
CLASS
  1
ACDBSECTIONVIEWSTYLE
  2
AcDbSectionViewStyle
  3
ObjectDBX Classes
 90
     1025
 91
        2
280
     1
281
     0
  0
CLASS
  1
ACDBDETAILVIEWSTYLE
  2
AcDbDetailViewStyle
  3
ObjectDBX Classes
 90
     1025
 91
        2
280
     1
281
     0
  0
CLASS
  1
CELLSTYLEMAP
  2
AcDbCellStyleMap
  3
ObjectDBX Classes
 90
     1152
 91
        4
280
     0
281
     0
  0
ENDSEC
  0
SECTION
  2
TABLES
  0
TABLE
  2
VPORT
  5
8
102
{ACAD_XDICTIONARY
360
B76
102
}
330
0
100
AcDbSymbolTable
 70
     1
  0
VPORT
  5
A2F
330
8
100
AcDbSymbolTableRecord
100
AcDbViewportTableRecord
  2
*Active
 70
     0
 10
0.0
 20
0.0
 11
1.0
 21
1.0
 12
9573.886961417977
 22
5892.030235336422
 13
0.0
 23
0.0
 14
10.0
 24
10.0
 15
100.0
 25
100.0
 16
0.0
 26
0.0
 36
1.0
 17
0.0
 27
0.0
 37
0.0
 40
18074.50121923504
 41
1.560747663551402
 42
50.0
 43
0.0
 44
0.0
 50
0.0
 51
0.0
 71
     0
 72
   100
 73
     1
 74
     1
 75
     0
 76
     0
 77
     0
 78
     2
281
     0
 65
     1
110
0.0
120
0.0
130
0.0
111
1.0
121
0.0
131
0.0
112
0.0
122
1.0
132
0.0
 79
     0
146
0.0
1001
ACAD_NAV_VCDISPLAY
1070
     3
  0
ENDTAB
  0
TABLE
  2
LTYPE
  5
5
330
0
100
AcDbSymbolTable
 70
     5
  0
LTYPE
  5
11
330
5
100
AcDbSymbolTableRecord
100
AcDbLinetypeTableRecord
  2
BYBLOCK
 70
     0
  3

 72
    65
 73
     0
 40
0.0
  0
LTYPE
  5
12
330
5
100
AcDbSymbolTableRecord
100
AcDbLinetypeTableRecord
  2
BYLAYER
 70
     0
  3

 72
    65
 73
     0
 40
0.0
  0
LTYPE
  5
13
330
5
100
AcDbSymbolTableRecord
100
AcDbLinetypeTableRecord
  2
CONTINUOUS
 70
     0
  3
実線
 72
    65
 73
     0
 40
0.0
  0
LTYPE
  5
A0
330
5
100
AcDbSymbolTableRecord
100
AcDbLinetypeTableRecord
  2
HIDDEN
 70
     0
  3
_ _ _ _ _ _ _ _ _ _ _ _ _ _ _ _ _ _ _ _ _ _ _
 72
    65
 73
     2
 40
0.375
 49
0.25
 74
     0
 49
-0.125
 74
     0
  0
LTYPE
  5
A1
330
5
100
AcDbSymbolTableRecord
100
AcDbLinetypeTableRecord
  2
CENTER
 70
     0
  3
____ _ ____ _ ____ _ ____ _ ____ _ ____ _ ____
 72
    65
 73
     4
 40
2.0
 49
1.25
 74
     0
 49
-0.25
 74
     0
 49
0.25
 74
     0
 49
-0.25
 74
     0
  0
LTYPE
  5
A2
330
5
100
AcDbSymbolTableRecord
100
AcDbLinetypeTableRecord
  2
PHANTOM
 70
     0
  3
_____ _ _ _____ _ _ _____ _ _ _____ _ _ ____
 72
    65
 73
     6
 40
2.5
 49
1.25
 74
     0
 49
-0.25
 74
     0
 49
0.25
 74
     0
 49
-0.25
 74
     0
 49
0.25
 74
     0
 49
-0.25
 74
     0
  0
LTYPE
  5
A3
330
5
100
AcDbSymbolTableRecord
100
AcDbLinetypeTableRecord
  2
DOT
 70
     0
  3
...............................................
 72
    65
 73
     2
 40
0.25
 49
0.0
 74
     0
 49
-0.25
 74
     0
  0
ENDTAB
  0
TABLE
  2
LAYER
  5
2
102
{ACAD_XDICTIONARY
360
AAC
102
}
330
0
100
AcDbSymbolTable
 70
    10
  0
LAYER
  5
E
102
{ACAD_XDICTIONARY
360
A97
102
}
330
2
100
AcDbSymbolTableRecord
100
AcDbLayerTableRecord
  2
0
 70
     0
 62
     7
  6
CONTINUOUS
370
    -3
390
A11
  0
LAYER
  5
A6
102
{ACAD_XDICTIONARY
360
A99
102
}
330
2
100
AcDbSymbolTableRecord
100
AcDbLayerTableRecord
  2
SUNPOU
 70
     0
 62
     1
  6
CONTINUOUS
370
    -3
390
A11
  0
LAYER
  5
A7
102
{ACAD_XDICTIONARY
360
A9B
102
}
330
2
100
AcDbSymbolTableRecord
100
AcDbLayerTableRecord
  2
SEIHIN
 70
     0
 62
     3
  6
CONTINUOUS
370
    -3
390
A11
  0
LAYER
  5
A8
102
{ACAD_XDICTIONARY
360
A9D
102
}
330
2
100
AcDbSymbolTableRecord
100
AcDbLayerTableRecord
  2
HAIKIN
 70
     0
 62
     2
  6
CONTINUOUS
370
    -3
390
A11
  0
LAYER
  5
A9
102
{ACAD_XDICTIONARY
360
A9F
102
}
330
2
100
AcDbSymbolTableRecord
100
AcDbLayerTableRecord
  2
HASEN
 70
     0
 62
     4
  6
HIDDEN
370
    -3
390
A11
  0
LAYER
  5
AA
102
{ACAD_XDICTIONARY
360
AA1
102
}
330
2
100
AcDbSymbolTableRecord
100
AcDbLayerTableRecord
  2
1HASEN
 70
     0
 62
     5
  6
CENTER
370
    -3
390
A11
  0
LAYER
  5
AB
102
{ACAD_XDICTIONARY
360
AA3
102
}
330
2
100
AcDbSymbolTableRecord
100
AcDbLayerTableRecord
  2
2HASEN
 70
     0
 62
     6
  6
PHANTOM
370
    -3
390
A11
  0
LAYER
  5
AC
102
{ACAD_XDICTIONARY
360
AA5
102
}
330
2
100
AcDbSymbolTableRecord
100
AcDbLayerTableRecord
  2
TEN
 70
     0
 62
     7
  6
DOT
370
    -3
390
A11
  0
LAYER
  5
AD
102
{ACAD_XDICTIONARY
360
AA7
102
}
330
2
100
AcDbSymbolTableRecord
100
AcDbLayerTableRecord
  2
HOJO
 70
     0
 62
     7
  6
CONTINUOUS
370
    -3
390
A11
  0
LAYER
  5
AE
330
2
100
AcDbSymbolTableRecord
100
AcDbLayerTableRecord
  2
DEFPOINTS
 70
     0
 62
     7
  6
CONTINUOUS
290
     0
370
    -3
390
A11
  0
ENDTAB
  0
TABLE
  2
STYLE
  5
3
330
0
100
AcDbSymbolTable
 70
     3
  0
STYLE
  5
F
330
3
100
AcDbSymbolTableRecord
100
AcDbTextStyleTableRecord
  2
STANDARD
 70
     0
 40
0.0
 41
1.0
 50
0.0
 71
     0
 42
0.2
  3
txt
  4

  0
STYLE
  5
9E
330
3
100
AcDbSymbolTableRecord
100
AcDbTextStyleTableRecord
  2
A
 70
     0
 40
0.0
 41
1.0
 50
0.0
 71
     0
 42
90.0
  3
txt
  4
bigfont
  0
STYLE
  5
9F
330
3
100
AcDbSymbolTableRecord
100
AcDbTextStyleTableRecord
  2
NIHONGO
 70
     0
 40
0.0
 41
1.0
 50
0.0
 71
     0
 42
3.0
  3
TXT
  4
BIGFONT
  0
ENDTAB
  0
TABLE
  2
VIEW
  5
6
330
0
100
AcDbSymbolTable
 70
     0
  0
ENDTAB
  0
TABLE
  2
UCS
  5
7
330
0
100
AcDbSymbolTable
 70
     0
  0
ENDTAB
  0
TABLE
  2
APPID
  5
9
330
0
100
AcDbSymbolTable
 70
    12
  0
APPID
  5
10
330
9
100
AcDbSymbolTableRecord
100
AcDbRegAppTableRecord
  2
ACAD
 70
     0
  0
APPID
  5
A8A
330
9
100
AcDbSymbolTableRecord
100
AcDbRegAppTableRecord
  2
ACAD_EXEMPT_FROM_CAD_STANDARDS
 70
     0
  0
APPID
  5
A8C
330
9
100
AcDbSymbolTableRecord
100
AcDbRegAppTableRecord
  2
ACAD_NAV_VCDISPLAY
 70
     0
  0
APPID
  5
AEF
330
9
100
AcDbSymbolTableRecord
100
AcDbRegAppTableRecord
  2
ACAD_MLEADERVER
 70
     0
  0
APPID
  5
B6E
330
9
100
AcDbSymbolTableRecord
100
AcDbRegAppTableRecord
  2
ACAD_DSTYLE_DIMARC_LENGTH_SYMBOL
 70
     0
  0
APPID
  5
B6F
330
9
100
AcDbSymbolTableRecord
100
AcDbRegAppTableRecord
  2
ACAD_DSTYLE_DIMJOGGED_JOGANGLE_SYMBOL
 70
     0
  0
APPID
  5
B70
330
9
100
AcDbSymbolTableRecord
100
AcDbRegAppTableRecord
  2
ACAD_DSTYLE_DIMTEXT_FILL
 70
     0
  0
APPID
  5
B71
330
9
100
AcDbSymbolTableRecord
100
AcDbRegAppTableRecord
  2
ACAD_DSTYLE_DIMEXT_ENABLED
 70
     0
  0
APPID
  5
B72
330
9
100
AcDbSymbolTableRecord
100
AcDbRegAppTableRecord
  2
ACAD_DSTYLE_DIMEXT_LENGTH
 70
     0
  0
APPID
  5
B73
330
9
100
AcDbSymbolTableRecord
100
AcDbRegAppTableRecord
  2
ACAD_DSTYLE_DIM_LINETYPE
 70
     0
  0
APPID
  5
B74
330
9
100
AcDbSymbolTableRecord
100
AcDbRegAppTableRecord
  2
ACAD_DSTYLE_DIM_EXT1_LINETYPE
 70
     0
  0
APPID
  5
B75
330
9
100
AcDbSymbolTableRecord
100
AcDbRegAppTableRecord
  2
ACAD_DSTYLE_DIM_EXT2_LINETYPE
 70
     0
  0
ENDTAB
  0
TABLE
  2
DIMSTYLE
  5
A
330
0
100
AcDbSymbolTable
 70
     1
100
AcDbDimStyleTable
  0
DIMSTYLE
105
A0C
102
{ACAD_REACTORS
330
773
330
B19
102
}
330
A
100
AcDbSymbolTableRecord
100
AcDbDimStyleTableRecord
  2
STANDARD
 70
     0
178
     0
340
F
  0
ENDTAB
  0
TABLE
  2
BLOCK_RECORD
  5
1
330
0
100
AcDbSymbolTable
 70
   132
  0
BLOCK_RECORD
  5
17
330
1
100
AcDbSymbolTableRecord
100
AcDbBlockTableRecord
  2
*MODEL_SPACE
340
A18
  0
BLOCK_RECORD
  5
14
330
1
100
AcDbSymbolTableRecord
100
AcDbBlockTableRecord
  2
*PAPER_SPACE
340
A19
  0
BLOCK_RECORD
  5
1C
330
1
100
AcDbSymbolTableRecord
100
AcDbBlockTableRecord
  2
BORDER
340
0
  0
BLOCK_RECORD
  5
1D
330
1
100
AcDbSymbolTableRecord
100
AcDbBlockTableRecord
  2
SA3-10
340
0
  0
BLOCK_RECORD
  5
1E
330
1
100
AcDbSymbolTableRecord
100
AcDbBlockTableRecord
  2
SA4
340
0
102
{BLKREFS
331
BC
102
}
  0
BLOCK_RECORD
  5
21
330
1
100
AcDbSymbolTableRecord
100
AcDbBlockTableRecord
  2
*D5
340
0
  0
BLOCK_RECORD
  5
49
330
1
100
AcDbSymbolTableRecord
100
AcDbBlockTableRecord
  2
*D45
340
0
  0
BLOCK_RECORD
  5
4A
330
1
100
AcDbSymbolTableRecord
100
AcDbBlockTableRecord
  2
*D46
340
0
  0
BLOCK_RECORD
  5
5C
330
1
100
AcDbSymbolTableRecord
100
AcDbBlockTableRecord
  2
*D64
340
0
  0
BLOCK_RECORD
  5
60
330
1
100
AcDbSymbolTableRecord
100
AcDbBlockTableRecord
  2
*D68
340
0
  0
BLOCK_RECORD
  5
61
330
1
100
AcDbSymbolTableRecord
100
AcDbBlockTableRecord
  2
*D69
340
0
  0
BLOCK_RECORD
  5
65
330
1
100
AcDbSymbolTableRecord
100
AcDbBlockTableRecord
  2
*D73
340
0
  0
BLOCK_RECORD
  5
69
330
1
100
AcDbSymbolTableRecord
100
AcDbBlockTableRecord
  2
*D77
340
0
  0
BLOCK_RECORD
  5
6A
330
1
100
AcDbSymbolTableRecord
100
AcDbBlockTableRecord
  2
*D78
340
0
  0
BLOCK_RECORD
  5
6E
330
1
100
AcDbSymbolTableRecord
100
AcDbBlockTableRecord
  2
*D82
340
0
  0
BLOCK_RECORD
  5
6F
330
1
100
AcDbSymbolTableRecord
100
AcDbBlockTableRecord
  2
*D83
340
0
  0
BLOCK_RECORD
  5
79
330
1
100
AcDbSymbolTableRecord
100
AcDbBlockTableRecord
  2
*D93
340
0
  0
BLOCK_RECORD
  5
7A
330
1
100
AcDbSymbolTableRecord
100
AcDbBlockTableRecord
  2
*D94
340
0
  0
BLOCK_RECORD
  5
8C
330
1
100
AcDbSymbolTableRecord
100
AcDbBlockTableRecord
  2
*D112
340
0
  0
BLOCK_RECORD
  5
8D
330
1
100
AcDbSymbolTableRecord
100
AcDbBlockTableRecord
  2
*D113
340
0
  0
BLOCK_RECORD
  5
8E
330
1
100
AcDbSymbolTableRecord
100
AcDbBlockTableRecord
  2
*D114
340
0
  0
BLOCK_RECORD
  5
91
330
1
100
AcDbSymbolTableRecord
100
AcDbBlockTableRecord
  2
*D117
340
0
  0
BLOCK_RECORD
  5
94
330
1
100
AcDbSymbolTableRecord
100
AcDbBlockTableRecord
  2
*D120
340
0
  0
BLOCK_RECORD
  5
97
330
1
100
AcDbSymbolTableRecord
100
AcDbBlockTableRecord
  2
*D123
340
0
  0
BLOCK_RECORD
  5
98
330
1
100
AcDbSymbolTableRecord
100
AcDbBlockTableRecord
  2
*D124
340
0
  0
BLOCK_RECORD
  5
9D
330
1
100
AcDbSymbolTableRecord
100
AcDbBlockTableRecord
  2
*D129
340
0
  0
BLOCK_RECORD
  5
B04
330
1
100
AcDbSymbolTableRecord
100
AcDbBlockTableRecord
  2
*D130
340
0
  0
BLOCK_RECORD
  5
B1A
330
1
100
AcDbSymbolTableRecord
100
AcDbBlockTableRecord
  2
*D131
340
0
  0
ENDTAB
  0
ENDSEC
  0
SECTION
  2
BLOCKS
  0
BLOCK
  5
B1
330
17
100
AcDbEntity
  8
0
100
AcDbBlockBegin
  2
*MODEL_SPACE
 70
     0
 10
0.0
 20
0.0
 30
0.0
  3
*MODEL_SPACE
  1

  0
ENDBLK
  5
B2
330
17
100
AcDbEntity
  8
0
100
AcDbBlockEnd
  0
BLOCK
  5
AF
330
14
100
AcDbEntity
 67
     1
  8
0
100
AcDbBlockBegin
  2
*PAPER_SPACE
 70
     0
 10
0.0
 20
0.0
 30
0.0
  3
*PAPER_SPACE
  1

  0
ENDBLK
  5
B0
330
14
100
AcDbEntity
 67
     1
  8
0
100
AcDbBlockEnd
  0
BLOCK
  5
B5
330
1C
100
AcDbEntity
  8
0
100
AcDbBlockBegin
  2
BORDER
 70
     0
 10
0.0
 20
0.0
 30
0.0
  3
BORDER
  1

  0
LINE
  5
B6
330
1C
100
AcDbEntity
  8
0
100
AcDbLine
 10
0.0
 20
0.0
 30
0.0
 11
1.00000000000004
 21
0.0
 31
0.0
  0
LINE
  5
B7
330
1C
100
AcDbEntity
  8
0
100
AcDbLine
 10
1.00000000000004
 20
0.0
 30
0.0
 11
1.00000000000004
 21
1.00000000000004
 31
0.0
  0
LINE
  5
B8
330
1C
100
AcDbEntity
  8
0
100
AcDbLine
 10
1.00000000000004
 20
1.00000000000004
 30
0.0
 11
0.0
 21
1.00000000000004
 31
0.0
  0
LINE
  5
B9
330
1C
100
AcDbEntity
  8
0
100
AcDbLine
 10
0.0
 20
1.00000000000004
 30
0.0
 11
0.0
 21
0.0
 31
0.0
  0
ENDBLK
  5
BA
330
1C
100
AcDbEntity
  8
0
100
AcDbBlockEnd
  0
BLOCK
  5
BB
330
1D
100
AcDbEntity
  8
SUNPOU
100
AcDbBlockBegin
  2
SA3-10
 70
     0
 10
0.0
 20
0.0
 30
0.0
  3
SA3-10
  1

  0
INSERT
  5
BC
330
1D
100
AcDbEntity
  8
HAIKIN
100
AcDbBlockReference
  2
SA4
 10
0.0
 20
0.0
 30
0.0
  0
ENDBLK
  5
BD
330
1D
100
AcDbEntity
  8
SUNPOU
100
AcDbBlockEnd
  0
BLOCK
  5
BE
330
1E
100
AcDbEntity
  8
HAIKIN
100
AcDbBlockBegin
  2
SA4
 70
     0
 10
0.0
 20
0.0
 30
0.0
  3
SA4
  1

  0
TEXT
  5
BF
330
1E
100
AcDbEntity
  8
SUNPOU
100
AcDbText
 10
3400.0
 20
0.0
 30
0.0
 40
25.0
  1
新和コンクリート工業株式会社
  7
NIHONGO
100
AcDbText
  0
TEXT
  5
C2
330
1E
100
AcDbEntity
  8
SUNPOU
100
AcDbText
 10
3614.166666666667
 20
62.5
 30
0.0
 40
25.0
  1
製図
  7
NIHONGO
 72
     4
 11
3640.0
 21
75.0
 31
0.0
100
AcDbText
  0
TEXT
  5
C3
330
1E
100
AcDbEntity
  8
SUNPOU
100
AcDbText
 10
3613.333333333333
 20
112.5
 30
0.0
 40
25.0
  1
設計
  7
NIHONGO
 72
     4
 11
3640.0
 21
125.0
 31
0.0
100
AcDbText
  0
TEXT
  5
C4
330
1E
100
AcDbEntity
  8
SUNPOU
100
AcDbText
 10
3390.833333333333
 20
62.50000000000014
 30
0.0
 40
25.0
  1
認
  7
NIHONGO
 72
     4
 11
3402.5
 21
75.00000000000014
 31
0.0
100
AcDbText
  0
TEXT
  5
C5
330
1E
100
AcDbEntity
  8
SUNPOU
100
AcDbText
 10
3390.833333333333
 20
113.3333333333337
 30
0.0
 40
25.0
  1
承
  7
NIHONGO
 72
     4
 11
3402.5
 21
125.0000000000003
 31
0.0
100
AcDbText
  0
TEXT
  5
C6
330
1E
100
AcDbEntity
  8
SUNPOU
100
AcDbText
 10
3127.5
 20
117.5000000000001
 30
0.0
 40
25.0
  1
図　面　番　号
  7
NIHONGO
 72
     4
 11
3230.0
 21
130.0000000000001
 31
0.0
100
AcDbText
  0
TEXT
  5
C7
330
1E
100
AcDbEntity
  8
SUNPOU
100
AcDbText
 10
3620.0
 20
170.0
 30
0.0
 40
25.0
  1
１／
  7
NIHONGO
100
AcDbText
  0
TEXT
  5
C8
330
1E
100
AcDbEntity
  8
SUNPOU
100
AcDbText
 10
3473.333333333333
 20
162.5000000000001
 30
0.0
 40
25.0
  1
縮　　尺
  7
NIHONGO
 72
     4
 11
3530.0
 21
175.0000000000001
 31
0.0
100
AcDbText
  0
TEXT
  5
C9
330
1E
100
AcDbEntity
  8
SUNPOU
100
AcDbText
 10
3473.333333333333
 20
212.5
 30
0.0
 40
25.0
  1
鉄 筋 量
  7
NIHONGO
 72
     4
 11
3530.0
 21
225.0
 31
0.0
100
AcDbText
  0
TEXT
  5
CA
330
1E
100
AcDbEntity
  8
SUNPOU
100
AcDbText
 10
3473.333333333333
 20
262.5
 30
0.0
 40
25.0
  1
製 造 数
  7
NIHONGO
 72
     4
 11
3530.0
 21
275.0
 31
0.0
100
AcDbText
  0
TEXT
  5
CB
330
1E
100
AcDbEntity
  8
SUNPOU
100
AcDbText
 10
3770.0
 20
210.0
 30
0.0
 40
25.0
  1
ｋｇ
  7
NIHONGO
 72
     2
 11
3820.0
 21
210.0
 31
0.0
100
AcDbText
  0
TEXT
  5
CC
330
1E
100
AcDbEntity
  8
SUNPOU
100
AcDbText
 10
3395.0
 20
210.0
 30
0.0
 40
25.0
  1
ｋｇ
  7
NIHONGO
 72
     2
 11
3445.0
 21
210.0
 31
0.0
100
AcDbText
  0
TEXT
  5
CD
330
1E
100
AcDbEntity
  8
SUNPOU
100
AcDbText
 10
3100.0
 20
162.5000000000001
 30
0.0
 40
25.0
  1
年 月 日
  7
NIHONGO
 72
     4
 11
3155.0
 21
175.0000000000001
 31
0.0
100
AcDbText
  0
TEXT
  5
CE
330
1E
100
AcDbEntity
  8
SUNPOU
100
AcDbText
 10
3098.333333333333
 20
212.5
 30
0.0
 40
25.0
  1
製品質量
  7
NIHONGO
 72
     4
 11
3155.0
 21
225.0
 31
0.0
100
AcDbText
  0
TEXT
  5
CF
330
1E
100
AcDbEntity
  8
SUNPOU
100
AcDbText
 10
3099.166666666667
 20
262.5
 30
0.0
 40
25.0
  1
業 者 名
  7
NIHONGO
 72
     4
 11
3155.0
 21
275.0
 31
0.0
100
AcDbText
  0
TEXT
  5
D0
330
1E
100
AcDbEntity
  8
SUNPOU
100
AcDbText
 10
3098.333333333333
 20
325.0
 30
0.0
 40
25.0
  1
名　　称
  7
NIHONGO
 72
     4
 11
3155.0
 21
337.5
 31
0.0
100
AcDbText
  0
LINE
  5
D1
330
1E
100
AcDbEntity
  8
SUNPOU
100
AcDbLine
 10
3380.0
 20
110.0000000000001
 30
0.0
 11
3080.0
 21
110.0000000000001
 31
0.0
  0
LINE
  5
D2
330
1E
100
AcDbEntity
  8
SUNPOU
100
AcDbLine
 10
3675.0
 20
49.99999999999986
 30
0.0
 11
3675.0
 21
149.9999999999999
 31
0.0
  0
LINE
  5
D3
330
1E
100
AcDbEntity
  8
SUNPOU
100
AcDbLine
 10
3605.0
 20
49.99999999999986
 30
0.0
 11
3605.0
 21
149.9999999999999
 31
0.0
  0
LINE
  5
D4
330
1E
100
AcDbEntity
  8
SUNPOU
100
AcDbLine
 10
3425.0
 20
49.99999999999994
 30
0.0
 11
3425.0
 21
150.0
 31
0.0
  0
LINE
  5
D5
330
1E
100
AcDbEntity
  8
SUNPOU
100
AcDbLine
 10
3380.0
 20
49.99999999999994
 30
0.0
 11
3380.0
 21
150.0
 31
0.0
  0
LINE
  5
D6
330
1E
100
AcDbEntity
  8
SUNPOU
100
AcDbLine
 10
3230.0
 20
150.0000000000001
 30
0.0
 11
3230.0
 21
375.0
 31
0.0
  0
LINE
  5
D7
330
1E
100
AcDbEntity
  8
SUNPOU
100
AcDbLine
 10
3605.0
 20
150.0000000000001
 30
0.0
 11
3605.0
 21
300.0
 31
0.0
  0
LINE
  5
D8
330
1E
100
AcDbEntity
  8
SUNPOU
100
AcDbLine
 10
3455.0
 20
150.0000000000001
 30
0.0
 11
3455.0
 21
300.0
 31
0.0
  0
LINE
  5
D9
330
1E
100
AcDbEntity
  8
SUNPOU
100
AcDbLine
 10
3830.0
 20
300.0
 30
0.0
 11
3080.0
 21
300.0
 31
0.0
  0
LINE
  5
DA
330
1E
100
AcDbEntity
  8
SUNPOU
100
AcDbLine
 10
3830.0
 20
250.0
 30
0.0
 11
3080.0
 21
250.0
 31
0.0
  0
LINE
  5
DB
330
1E
100
AcDbEntity
  8
SUNPOU
100
AcDbLine
 10
3830.0
 20
200.0
 30
0.0
 11
3080.0
 21
200.0
 31
0.0
  0
LINE
  5
DC
330
1E
100
AcDbEntity
  8
SUNPOU
100
AcDbLine
 10
3830.0
 20
149.9999999999999
 30
0.0
 11
3080.0
 21
150.0000000000004
 31
0.0
  0
LINE
  5
DD
330
1E
100
AcDbEntity
  8
HAIKIN
100
AcDbLine
 10
3080.0
 20
375.0
 30
0.0
 11
3830.0
 21
375.0
 31
0.0
  0
LINE
  5
DE
330
1E
100
AcDbEntity
  8
HAIKIN
100
AcDbLine
 10
3080.0
 20
50.00000000000009
 30
0.0
 11
3080.0
 21
375.0
 31
0.0
  0
LINE
  5
DF
330
1E
100
AcDbEntity
  8
SUNPOU
100
AcDbLine
 10
0.0000000000001599
 20
2770.0
 30
0.0
 11
0.0000000000001599
 21
2720.0
 31
0.0
  0
LINE
  5
E0
330
1E
100
AcDbEntity
  8
SUNPOU
100
AcDbLine
 10
250.0000000000001
 20
2770.0
 30
0.0
 11
0.0000000000001599
 21
2770.0
 31
0.0
  0
LINE
  5
E1
330
1E
100
AcDbEntity
  8
SUNPOU
100
AcDbLine
 10
250.0000000000001
 20
2720.0
 30
0.0
 11
250.0000000000001
 21
2770.0
 31
0.0
  0
LINE
  5
E2
330
1E
100
AcDbEntity
  8
HAIKIN
100
AcDbLine
 10
0.0000000000000037
 20
50.0
 30
0.0
 11
3830.0
 21
50.0
 31
0.0
  0
LINE
  5
E3
330
1E
100
AcDbEntity
  8
HAIKIN
100
AcDbLine
 10
0.0000000000001584
 20
2720.0
 30
0.0
 11
3830.0
 21
2720.0
 31
0.0
  0
LINE
  5
E4
330
1E
100
AcDbEntity
  8
HAIKIN
100
AcDbLine
 10
3830.0
 20
2720.0
 30
0.0
 11
3830.0
 21
50.0
 31
0.0
  0
TEXT
  5
E5
330
1E
100
AcDbEntity
  8
SUNPOU
100
AcDbText
 10
37.00000000000016
 20
2730.0
 30
0.0
 40
30.0
  1
Ｈ－２－共
  7
NIHONGO
 72
     4
 11
125.0000000000002
 21
2745.0
 31
0.0
100
AcDbText
  0
LINE
  5
E6
330
1E
100
AcDbEntity
  8
HAIKIN
100
AcDbLine
 10
0.0000000000000037
 20
50.0
 30
0.0
 11
0.0000000000001584
 21
2720.0
 31
0.0
  0
ENDBLK
  5
E7
330
1E
100
AcDbEntity
  8
HAIKIN
100
AcDbBlockEnd
  0
BLOCK
  5
FE
330
21
100
AcDbEntity
  8
SUNPOU
100
AcDbBlockBegin
  2
*D5
 70
     1
 10
0.0
 20
0.0
 30
0.0
  3
*D5
  1

  0
LINE
  5
FF
330
21
100
AcDbEntity
  8
0
  6
ByBlock
 62
     0
440
 16777216
100
AcDbLine
 10
6711.188721955593
 20
2953.953045484133
 30
0.0
 11
7660.780635029757
 21
2953.953045484133
 31
0.0
  0
LINE
  5
100
330
21
100
AcDbEntity
  8
0
  6
ByBlock
 62
     0
440
 16777216
100
AcDbLine
 10
6711.188721955593
 20
1953.953045484133
 30
0.0
 11
7660.780635029757
 21
1953.953045484133
 31
0.0
  0
LINE
  5
101
330
21
100
AcDbEntity
  8
0
  6
ByBlock
 62
     0
440
 16777216
100
AcDbLine
 10
7640.780635029757
 20
2893.953045484133
 30
0.0
 11
7640.780635029757
 21
2013.953045484133
 31
0.0
  0
SOLID
  5
102
330
21
100
AcDbEntity
  8
0
  6
ByBlock
 62
     0
440
 16777216
100
AcDbTrace
 10
7650.780635029757
 20
2893.953045484133
 30
0.0
 11
7630.780635029757
 21
2893.953045484133
 31
0.0
 12
7640.780635029757
 22
2953.953045484133
 32
0.0
 13
7640.780635029757
 23
2953.953045484133
 33
0.0
  0
SOLID
  5
103
330
21
100
AcDbEntity
  8
0
  6
ByBlock
 62
     0
440
 16777216
100
AcDbTrace
 10
7650.780635029757
 20
2013.953045484133
 30
0.0
 11
7630.780635029757
 21
2013.953045484133
 31
0.0
 12
7640.780635029757
 22
1953.953045484133
 32
0.0
 13
7640.780635029757
 23
1953.953045484133
 33
0.0
  0
TEXT
  5
104
330
21
100
AcDbEntity
  8
0
  6
ByBlock
 62
     0
440
 16777216
100
AcDbText
 10
7595.780635029757
 20
2326.453045484133
 30
0.0
 40
90.0
  1
1000
 50
90.0
  7
A
100
AcDbText
  0
POINT
  5
105
330
21
100
AcDbEntity
  8
DEFPOINTS
  6
ByBlock
 62
     0
440
 16777216
100
AcDbPoint
 10
6671.188721955593
 20
2953.953045484133
 30
0.0
  0
POINT
  5
106
330
21
100
AcDbEntity
  8
DEFPOINTS
  6
ByBlock
 62
     0
440
 16777216
100
AcDbPoint
 10
6671.188721955593
 20
1953.953045484133
 30
0.0
  0
POINT
  5
107
330
21
100
AcDbEntity
  8
DEFPOINTS
  6
ByBlock
 62
     0
440
 16777216
100
AcDbPoint
 10
7640.780635029757
 20
1953.953045484133
 30
0.0
  0
ENDBLK
  5
108
330
21
100
AcDbEntity
  8
SUNPOU
100
AcDbBlockEnd
  0
BLOCK
  5
2D7
330
49
100
AcDbEntity
  8
SUNPOU
100
AcDbBlockBegin
  2
*D45
 70
     1
 10
0.0
 20
0.0
 30
0.0
  3
*D45
  1

  0
LINE
  5
2D8
330
49
100
AcDbEntity
  8
0
  6
ByBlock
 62
     0
440
 16777216
100
AcDbLine
 10
6711.188721955594
 20
10736.413555674
 30
0.0
 11
8264.845648259618
 21
10736.413555674
 31
0.0
  0
LINE
  5
2D9
330
49
100
AcDbEntity
  8
0
  6
ByBlock
 62
     0
440
 16777216
100
AcDbLine
 10
6711.188721955593
 20
8736.413555673998
 30
0.0
 11
8264.845648259618
 21
8736.413555673998
 31
0.0
  0
LINE
  5
2DA
330
49
100
AcDbEntity
  8
0
  6
ByBlock
 62
     0
440
 16777216
100
AcDbLine
 10
8244.845648259618
 20
10676.413555674
 30
0.0
 11
8244.845648259618
 21
8796.413555673998
 31
0.0
  0
SOLID
  5
2DB
330
49
100
AcDbEntity
  8
0
  6
ByBlock
 62
     0
440
 16777216
100
AcDbTrace
 10
8254.845648259618
 20
10676.413555674
 30
0.0
 11
8234.845648259618
 21
10676.413555674
 31
0.0
 12
8244.845648259618
 22
10736.413555674
 32
0.0
 13
8244.845648259618
 23
10736.413555674
 33
0.0
  0
SOLID
  5
2DC
330
49
100
AcDbEntity
  8
0
  6
ByBlock
 62
     0
440
 16777216
100
AcDbTrace
 10
8254.845648259618
 20
8796.413555673998
 30
0.0
 11
8234.845648259618
 21
8796.413555673998
 31
0.0
 12
8244.845648259618
 22
8736.413555673998
 32
0.0
 13
8244.845648259618
 23
8736.413555673998
 33
0.0
  0
TEXT
  5
2DD
330
49
100
AcDbEntity
  8
0
  6
ByBlock
 62
     0
440
 16777216
100
AcDbText
 10
8199.845648259618
 20
9593.913555673998
 30
0.0
 40
90.0
  1
2000
 50
90.0
  7
A
100
AcDbText
  0
POINT
  5
2DE
330
49
100
AcDbEntity
  8
DEFPOINTS
  6
ByBlock
 62
     0
440
 16777216
100
AcDbPoint
 10
6671.188721955594
 20
10736.413555674
 30
0.0
  0
POINT
  5
2DF
330
49
100
AcDbEntity
  8
DEFPOINTS
  6
ByBlock
 62
     0
440
 16777216
100
AcDbPoint
 10
6671.188721955593
 20
8736.413555673998
 30
0.0
  0
POINT
  5
2E0
330
49
100
AcDbEntity
  8
DEFPOINTS
  6
ByBlock
 62
     0
440
 16777216
100
AcDbPoint
 10
8244.845648259618
 20
8736.413555673998
 30
0.0
  0
ENDBLK
  5
2E1
330
49
100
AcDbEntity
  8
SUNPOU
100
AcDbBlockEnd
  0
BLOCK
  5
2E2
330
4A
100
AcDbEntity
  8
SUNPOU
100
AcDbBlockBegin
  2
*D46
 70
     1
 10
0.0
 20
0.0
 30
0.0
  3
*D46
  1

  0
LINE
  5
2E3
330
4A
100
AcDbEntity
  8
0
  6
ByBlock
 62
     0
440
 16777216
100
AcDbLine
 10
8185.658318352155
 20
8736.413555673998
 30
0.0
 11
8264.845648259618
 21
8736.413555673998
 31
0.0
  0
LINE
  5
2E4
330
4A
100
AcDbEntity
  8
0
  6
ByBlock
 62
     0
440
 16777216
100
AcDbLine
 10
6711.188721955592
 20
7735.953045484132
 30
0.0
 11
8264.845648259618
 21
7735.953045484132
 31
0.0
  0
LINE
  5
2E5
330
4A
100
AcDbEntity
  8
0
  6
ByBlock
 62
     0
440
 16777216
100
AcDbLine
 10
8244.845648259618
 20
8676.413555673998
 30
0.0
 11
8244.845648259618
 21
7795.953045484132
 31
0.0
  0
SOLID
  5
2E6
330
4A
100
AcDbEntity
  8
0
  6
ByBlock
 62
     0
440
 16777216
100
AcDbTrace
 10
8254.845648259618
 20
8676.413555673998
 30
0.0
 11
8234.845648259618
 21
8676.413555673998
 31
0.0
 12
8244.845648259618
 22
8736.413555673998
 32
0.0
 13
8244.845648259618
 23
8736.413555673998
 33
0.0
  0
SOLID
  5
2E7
330
4A
100
AcDbEntity
  8
0
  6
ByBlock
 62
     0
440
 16777216
100
AcDbTrace
 10
8254.845648259618
 20
7795.953045484132
 30
0.0
 11
8234.845648259618
 21
7795.953045484132
 31
0.0
 12
8244.845648259618
 22
7735.953045484132
 32
0.0
 13
8244.845648259618
 23
7735.953045484132
 33
0.0
  0
TEXT
  5
2E8
330
4A
100
AcDbEntity
  8
0
  6
ByBlock
 62
     0
440
 16777216
100
AcDbText
 10
8199.845648259618
 20
8108.683300579064
 30
0.0
 40
90.0
  1
1000
 50
90.0
  7
A
100
AcDbText
  0
POINT
  5
2E9
330
4A
100
AcDbEntity
  8
DEFPOINTS
  6
ByBlock
 62
     0
440
 16777216
100
AcDbPoint
 10
8145.658318352155
 20
8736.413555673998
 30
0.0
  0
POINT
  5
2EA
330
4A
100
AcDbEntity
  8
DEFPOINTS
  6
ByBlock
 62
     0
440
 16777216
100
AcDbPoint
 10
6671.188721955592
 20
7735.953045484132
 30
0.0
  0
POINT
  5
2EB
330
4A
100
AcDbEntity
  8
DEFPOINTS
  6
ByBlock
 62
     0
440
 16777216
100
AcDbPoint
 10
8244.845648259618
 20
7735.953045484132
 30
0.0
  0
ENDBLK
  5
2EC
330
4A
100
AcDbEntity
  8
SUNPOU
100
AcDbBlockEnd
  0
BLOCK
  5
3C4
330
5C
100
AcDbEntity
  8
SUNPOU
100
AcDbBlockBegin
  2
*D64
 70
     1
 10
0.0
 20
0.0
 30
0.0
  3
*D64
  1

  0
LINE
  5
3C5
330
5C
100
AcDbEntity
  8
0
  6
ByBlock
 62
     0
440
 16777216
100
AcDbLine
 10
6671.188721955592
 20
6161.433704407314
 30
0.0
 11
6671.188721955592
 21
5935.655859535987
 31
0.0
  0
LINE
  5
3C6
330
5C
100
AcDbEntity
  8
0
  6
ByBlock
 62
     0
440
 16777216
100
AcDbLine
 10
6391.188721955592
 20
7105.50726257929
 30
0.0
 11
6391.188721955592
 21
5935.655859535987
 31
0.0
  0
LINE
  5
3C7
330
5C
100
AcDbEntity
  8
0
  6
ByBlock
 62
     0
440
 16777216
100
AcDbLine
 10
6611.188721955592
 20
5955.655859535987
 30
0.0
 11
6451.188721955592
 21
5955.655859535987
 31
0.0
  0
SOLID
  5
3C8
330
5C
100
AcDbEntity
  8
0
  6
ByBlock
 62
     0
440
 16777216
100
AcDbTrace
 10
6611.188721955592
 20
5945.655859535987
 30
0.0
 11
6611.188721955592
 21
5965.655859535987
 31
0.0
 12
6671.188721955592
 22
5955.655859535987
 32
0.0
 13
6671.188721955592
 23
5955.655859535987
 33
0.0
  0
SOLID
  5
3C9
330
5C
100
AcDbEntity
  8
0
  6
ByBlock
 62
     0
440
 16777216
100
AcDbTrace
 10
6451.188721955592
 20
5945.655859535987
 30
0.0
 11
6451.188721955592
 21
5965.655859535987
 31
0.0
 12
6391.188721955592
 22
5955.655859535987
 32
0.0
 13
6391.188721955592
 23
5955.655859535987
 33
0.0
  0
TEXT
  5
3CA
330
5C
100
AcDbEntity
  8
0
  6
ByBlock
 62
     0
440
 16777216
100
AcDbText
 10
6418.688721955592
 20
6000.655859535987
 30
0.0
 40
90.0
  1
280
  7
A
100
AcDbText
  0
POINT
  5
3CB
330
5C
100
AcDbEntity
  8
DEFPOINTS
  6
ByBlock
 62
     0
440
 16777216
100
AcDbPoint
 10
6671.188721955592
 20
6201.433704407314
 30
0.0
  0
POINT
  5
3CC
330
5C
100
AcDbEntity
  8
DEFPOINTS
  6
ByBlock
 62
     0
440
 16777216
100
AcDbPoint
 10
6391.188721955592
 20
7145.50726257929
 30
0.0
  0
POINT
  5
3CD
330
5C
100
AcDbEntity
  8
DEFPOINTS
  6
ByBlock
 62
     0
440
 16777216
100
AcDbPoint
 10
6391.188721955592
 20
5955.655859535987
 30
0.0
  0
ENDBLK
  5
3CE
330
5C
100
AcDbEntity
  8
SUNPOU
100
AcDbBlockEnd
  0
BLOCK
  5
3F1
330
60
100
AcDbEntity
  8
SUNPOU
100
AcDbBlockBegin
  2
*D68
 70
     1
 10
0.0
 20
0.0
 30
0.0
  3
*D68
  1

  0
LINE
  5
3F2
330
60
100
AcDbEntity
  8
0
  6
ByBlock
 62
     0
440
 16777216
100
AcDbLine
 10
7846.381945620185
 20
7438.059141917518
 30
0.0
 11
7892.893161106631
 21
7438.059141917518
 31
0.0
  0
LINE
  5
3F3
330
60
100
AcDbEntity
  8
0
  6
ByBlock
 62
     0
440
 16777216
100
AcDbLine
 10
7868.44967779129
 20
7157.598631727651
 30
0.0
 11
7892.89316110663
 21
7157.598631727651
 31
0.0
  0
LINE
  5
3F4
330
60
100
AcDbEntity
  8
0
  6
ByBlock
 62
     0
440
 16777216
100
AcDbLine
 10
7872.89316110663
 20
7378.059141917518
 30
0.0
 11
7872.89316110663
 21
7217.598631727651
 31
0.0
  0
SOLID
  5
3F5
330
60
100
AcDbEntity
  8
0
  6
ByBlock
 62
     0
440
 16777216
100
AcDbTrace
 10
7882.893161106631
 20
7378.059141917518
 30
0.0
 11
7862.893161106631
 21
7378.059141917518
 31
0.0
 12
7872.893161106631
 22
7438.059141917518
 32
0.0
 13
7872.893161106631
 23
7438.059141917518
 33
0.0
  0
SOLID
  5
3F6
330
60
100
AcDbEntity
  8
0
  6
ByBlock
 62
     0
440
 16777216
100
AcDbTrace
 10
7882.89316110663
 20
7217.598631727651
 30
0.0
 11
7862.89316110663
 21
7217.598631727651
 31
0.0
 12
7872.89316110663
 22
7157.598631727651
 32
0.0
 13
7872.89316110663
 23
7157.598631727651
 33
0.0
  0
TEXT
  5
3F7
330
60
100
AcDbEntity
  8
0
  6
ByBlock
 62
     0
440
 16777216
100
AcDbText
 10
7827.89316110663
 20
7185.328886822585
 30
0.0
 40
90.0
  1
280
 50
90.0
  7
A
100
AcDbText
  0
POINT
  5
3F8
330
60
100
AcDbEntity
  8
DEFPOINTS
  6
ByBlock
 62
     0
440
 16777216
100
AcDbPoint
 10
7806.381945620185
 20
7438.059141917518
 30
0.0
  0
POINT
  5
3F9
330
60
100
AcDbEntity
  8
DEFPOINTS
  6
ByBlock
 62
     0
440
 16777216
100
AcDbPoint
 10
7828.44967779129
 20
7157.598631727651
 30
0.0
  0
POINT
  5
3FA
330
60
100
AcDbEntity
  8
DEFPOINTS
  6
ByBlock
 62
     0
440
 16777216
100
AcDbPoint
 10
7872.89316110663
 20
7157.598631727651
 30
0.0
  0
ENDBLK
  5
3FB
330
60
100
AcDbEntity
  8
SUNPOU
100
AcDbBlockEnd
  0
BLOCK
  5
3FC
330
61
100
AcDbEntity
  8
SUNPOU
100
AcDbBlockBegin
  2
*D69
 70
     1
 10
0.0
 20
0.0
 30
0.0
  3
*D69
  1

  0
LINE
  5
3FD
330
61
100
AcDbEntity
  8
0
  6
ByBlock
 62
     0
440
 16777216
100
AcDbLine
 10
7662.48417752764
 20
8158.059141917518
 30
0.0
 11
7892.893161106631
 21
8158.059141917518
 31
0.0
  0
LINE
  5
3FE
330
61
100
AcDbEntity
  8
0
  6
ByBlock
 62
     0
440
 16777216
100
AcDbLine
 10
6713.571694170109
 20
7438.059141917518
 30
0.0
 11
7892.893161106631
 21
7438.059141917517
 31
0.0
  0
LINE
  5
3FF
330
61
100
AcDbEntity
  8
0
  6
ByBlock
 62
     0
440
 16777216
100
AcDbLine
 10
7872.893161106631
 20
8098.059141917518
 30
0.0
 11
7872.893161106631
 21
7498.059141917517
 31
0.0
  0
SOLID
  5
400
330
61
100
AcDbEntity
  8
0
  6
ByBlock
 62
     0
440
 16777216
100
AcDbTrace
 10
7882.893161106631
 20
8098.059141917518
 30
0.0
 11
7862.893161106631
 21
8098.059141917518
 31
0.0
 12
7872.893161106631
 22
8158.059141917518
 32
0.0
 13
7872.893161106631
 23
8158.059141917518
 33
0.0
  0
SOLID
  5
401
330
61
100
AcDbEntity
  8
0
  6
ByBlock
 62
     0
440
 16777216
100
AcDbTrace
 10
7882.893161106631
 20
7498.059141917517
 30
0.0
 11
7862.893161106631
 21
7498.059141917517
 31
0.0
 12
7872.893161106631
 22
7438.059141917517
 32
0.0
 13
7872.893161106631
 23
7438.059141917517
 33
0.0
  0
TEXT
  5
402
330
61
100
AcDbEntity
  8
0
  6
ByBlock
 62
     0
440
 16777216
100
AcDbText
 10
7827.893161106631
 20
7685.559141917517
 30
0.0
 40
90.0
  1
720
 50
90.0
  7
A
100
AcDbText
  0
POINT
  5
403
330
61
100
AcDbEntity
  8
DEFPOINTS
  6
ByBlock
 62
     0
440
 16777216
100
AcDbPoint
 10
7622.48417752764
 20
8158.059141917518
 30
0.0
  0
POINT
  5
404
330
61
100
AcDbEntity
  8
DEFPOINTS
  6
ByBlock
 62
     0
440
 16777216
100
AcDbPoint
 10
6673.571694170109
 20
7438.059141917518
 30
0.0
  0
POINT
  5
405
330
61
100
AcDbEntity
  8
DEFPOINTS
  6
ByBlock
 62
     0
440
 16777216
100
AcDbPoint
 10
7872.893161106631
 20
7438.059141917517
 30
0.0
  0
ENDBLK
  5
406
330
61
100
AcDbEntity
  8
SUNPOU
100
AcDbBlockEnd
  0
BLOCK
  5
429
330
65
100
AcDbEntity
  8
SUNPOU
100
AcDbBlockBegin
  2
*D73
 70
     1
 10
0.0
 20
0.0
 30
0.0
  3
*D73
  1

  0
LINE
  5
42A
330
65
100
AcDbEntity
  8
0
  6
ByBlock
 62
     0
440
 16777216
100
AcDbLine
 10
10474.51232522181
 20
10158.05914191752
 30
0.0
 11
15037.46021981799
 21
10158.05914191751
 31
0.0
  0
LINE
  5
42B
330
65
100
AcDbEntity
  8
0
  6
ByBlock
 62
     0
440
 16777216
100
AcDbLine
 10
12724.51232522181
 20
10108.05914191752
 30
0.0
 11
15037.46021981799
 21
10108.05914191752
 31
0.0
  0
LINE
  5
42C
330
65
100
AcDbEntity
  8
0
  6
ByBlock
 62
     0
440
 16777216
100
AcDbLine
 10
15017.46021981799
 20
10048.05914191752
 30
0.0
 11
15017.46021981799
 21
9988.059141917518
 31
0.0
  0
LINE
  5
42D
330
65
100
AcDbEntity
  8
0
  6
ByBlock
 62
     0
440
 16777216
100
AcDbLine
 10
15017.46021981799
 20
10218.05914191751
 30
0.0
 11
15017.46021981799
 21
10278.05914191751
 31
0.0
  0
SOLID
  5
42E
330
65
100
AcDbEntity
  8
0
  6
ByBlock
 62
     0
440
 16777216
100
AcDbTrace
 10
15027.46021981799
 20
10048.05914191752
 30
0.0
 11
15007.46021981799
 21
10048.05914191752
 31
0.0
 12
15017.46021981799
 22
10108.05914191752
 32
0.0
 13
15017.46021981799
 23
10108.05914191752
 33
0.0
  0
SOLID
  5
42F
330
65
100
AcDbEntity
  8
0
  6
ByBlock
 62
     0
440
 16777216
100
AcDbTrace
 10
15027.46021981799
 20
10218.05914191751
 30
0.0
 11
15007.46021981799
 21
10218.05914191751
 31
0.0
 12
15017.46021981799
 22
10158.05914191751
 32
0.0
 13
15017.46021981799
 23
10158.05914191751
 33
0.0
  0
LINE
  5
430
330
65
100
AcDbEntity
  8
0
  6
ByBlock
 62
     0
440
 16777216
100
AcDbLine
 10
15017.46021981799
 20
10108.05914191752
 30
0.0
 11
15017.46021981799
 21
10158.05914191751
 31
0.0
  0
TEXT
  5
431
330
65
100
AcDbEntity
  8
0
  6
ByBlock
 62
     0
440
 16777216
100
AcDbText
 10
14972.46021981799
 20
10209.81098345701
 30
0.0
 40
90.0
  1
50
 50
90.0
  7
A
100
AcDbText
  0
POINT
  5
432
330
65
100
AcDbEntity
  8
DEFPOINTS
  6
ByBlock
 62
     0
440
 16777216
100
AcDbPoint
 10
10434.51232522181
 20
10158.05914191752
 30
0.0
  0
POINT
  5
433
330
65
100
AcDbEntity
  8
DEFPOINTS
  6
ByBlock
 62
     0
440
 16777216
100
AcDbPoint
 10
12684.51232522181
 20
10108.05914191752
 30
0.0
  0
POINT
  5
434
330
65
100
AcDbEntity
  8
DEFPOINTS
  6
ByBlock
 62
     0
440
 16777216
100
AcDbPoint
 10
15017.46021981799
 20
10108.05914191752
 30
0.0
  0
ENDBLK
  5
435
330
65
100
AcDbEntity
  8
SUNPOU
100
AcDbBlockEnd
  0
BLOCK
  5
44D
330
69
100
AcDbEntity
  8
SUNPOU
100
AcDbBlockBegin
  2
*D77
 70
     1
 10
0.0
 20
0.0
 30
0.0
  3
*D77
  1

  0
LINE
  5
44E
330
69
100
AcDbEntity
  8
0
  6
ByBlock
 62
     0
440
 16777216
100
AcDbLine
 10
13434.51232522181
 20
7118.059141917519
 30
0.0
 11
13434.51232522181
 21
6309.670709548401
 31
0.0
  0
LINE
  5
44F
330
69
100
AcDbEntity
  8
0
  6
ByBlock
 62
     0
440
 16777216
100
AcDbLine
 10
11434.51232522181
 20
7118.059141917519
 30
0.0
 11
11434.51232522181
 21
6309.670709548401
 31
0.0
  0
LINE
  5
450
330
69
100
AcDbEntity
  8
0
  6
ByBlock
 62
     0
440
 16777216
100
AcDbLine
 10
13374.51232522181
 20
6329.670709548401
 30
0.0
 11
11494.51232522181
 21
6329.670709548401
 31
0.0
  0
SOLID
  5
451
330
69
100
AcDbEntity
  8
0
  6
ByBlock
 62
     0
440
 16777216
100
AcDbTrace
 10
13374.51232522181
 20
6319.670709548401
 30
0.0
 11
13374.51232522181
 21
6339.670709548401
 31
0.0
 12
13434.51232522181
 22
6329.670709548401
 32
0.0
 13
13434.51232522181
 23
6329.670709548401
 33
0.0
  0
SOLID
  5
452
330
69
100
AcDbEntity
  8
0
  6
ByBlock
 62
     0
440
 16777216
100
AcDbTrace
 10
11494.51232522181
 20
6319.670709548401
 30
0.0
 11
11494.51232522181
 21
6339.670709548401
 31
0.0
 12
11434.51232522181
 22
6329.670709548401
 32
0.0
 13
11434.51232522181
 23
6329.670709548401
 33
0.0
  0
TEXT
  5
453
330
69
100
AcDbEntity
  8
0
  6
ByBlock
 62
     0
440
 16777216
100
AcDbText
 10
12292.01232522181
 20
6374.670709548401
 30
0.0
 40
90.0
  1
2000
  7
A
100
AcDbText
  0
POINT
  5
454
330
69
100
AcDbEntity
  8
DEFPOINTS
  6
ByBlock
 62
     0
440
 16777216
100
AcDbPoint
 10
13434.51232522181
 20
7158.059141917519
 30
0.0
  0
POINT
  5
455
330
69
100
AcDbEntity
  8
DEFPOINTS
  6
ByBlock
 62
     0
440
 16777216
100
AcDbPoint
 10
11434.51232522181
 20
7158.059141917519
 30
0.0
  0
POINT
  5
456
330
69
100
AcDbEntity
  8
DEFPOINTS
  6
ByBlock
 62
     0
440
 16777216
100
AcDbPoint
 10
11434.51232522181
 20
6329.670709548401
 30
0.0
  0
ENDBLK
  5
457
330
69
100
AcDbEntity
  8
SUNPOU
100
AcDbBlockEnd
  0
BLOCK
  5
458
330
6A
100
AcDbEntity
  8
SUNPOU
100
AcDbBlockBegin
  2
*D78
 70
     1
 10
0.0
 20
0.0
 30
0.0
  3
*D78
  1

  0
LINE
  5
459
330
6A
100
AcDbEntity
  8
0
  6
ByBlock
 62
     0
440
 16777216
100
AcDbLine
 10
11434.51232522181
 20
6739.705601875613
 30
0.0
 11
11434.51232522181
 21
6309.670709548401
 31
0.0
  0
LINE
  5
45A
330
6A
100
AcDbEntity
  8
0
  6
ByBlock
 62
     0
440
 16777216
100
AcDbLine
 10
10434.51232522181
 20
7073.064781377252
 30
0.0
 11
10434.51232522181
 21
6309.670709548401
 31
0.0
  0
LINE
  5
45B
330
6A
100
AcDbEntity
  8
0
  6
ByBlock
 62
     0
440
 16777216
100
AcDbLine
 10
11374.51232522181
 20
6329.670709548401
 30
0.0
 11
10494.51232522181
 21
6329.670709548401
 31
0.0
  0
SOLID
  5
45C
330
6A
100
AcDbEntity
  8
0
  6
ByBlock
 62
     0
440
 16777216
100
AcDbTrace
 10
11374.51232522181
 20
6319.670709548401
 30
0.0
 11
11374.51232522181
 21
6339.670709548401
 31
0.0
 12
11434.51232522181
 22
6329.670709548401
 32
0.0
 13
11434.51232522181
 23
6329.670709548401
 33
0.0
  0
SOLID
  5
45D
330
6A
100
AcDbEntity
  8
0
  6
ByBlock
 62
     0
440
 16777216
100
AcDbTrace
 10
10494.51232522181
 20
6319.670709548401
 30
0.0
 11
10494.51232522181
 21
6339.670709548401
 31
0.0
 12
10434.51232522181
 22
6329.670709548401
 32
0.0
 13
10434.51232522181
 23
6329.670709548401
 33
0.0
  0
TEXT
  5
45E
330
6A
100
AcDbEntity
  8
0
  6
ByBlock
 62
     0
440
 16777216
100
AcDbText
 10
10807.01232522181
 20
6374.670709548401
 30
0.0
 40
90.0
  1
1000
  7
A
100
AcDbText
  0
POINT
  5
45F
330
6A
100
AcDbEntity
  8
DEFPOINTS
  6
ByBlock
 62
     0
440
 16777216
100
AcDbPoint
 10
11434.51232522181
 20
6779.705601875613
 30
0.0
  0
POINT
  5
460
330
6A
100
AcDbEntity
  8
DEFPOINTS
  6
ByBlock
 62
     0
440
 16777216
100
AcDbPoint
 10
10434.51232522181
 20
7113.064781377252
 30
0.0
  0
POINT
  5
461
330
6A
100
AcDbEntity
  8
DEFPOINTS
  6
ByBlock
 62
     0
440
 16777216
100
AcDbPoint
 10
10434.51232522181
 20
6329.670709548401
 30
0.0
  0
ENDBLK
  5
462
330
6A
100
AcDbEntity
  8
SUNPOU
100
AcDbBlockEnd
  0
BLOCK
  5
486
330
6E
100
AcDbEntity
  8
SUNPOU
100
AcDbBlockBegin
  2
*D82
 70
     1
 10
0.0
 20
0.0
 30
0.0
  3
*D82
  1

  0
LINE
  5
487
330
6E
100
AcDbEntity
  8
0
  6
ByBlock
 62
     0
440
 16777216
100
AcDbLine
 10
10394.51232522181
 20
10158.05914191752
 30
0.0
 11
8896.078160820178
 21
10158.05914191752
 31
0.0
  0
LINE
  5
488
330
6E
100
AcDbEntity
  8
0
  6
ByBlock
 62
     0
440
 16777216
100
AcDbLine
 10
10394.51232522181
 20
8158.059141917516
 30
0.0
 11
8896.078160820178
 21
8158.059141917516
 31
0.0
  0
LINE
  5
489
330
6E
100
AcDbEntity
  8
0
  6
ByBlock
 62
     0
440
 16777216
100
AcDbLine
 10
8916.078160820178
 20
10098.05914191752
 30
0.0
 11
8916.078160820178
 21
8218.059141917518
 31
0.0
  0
SOLID
  5
48A
330
6E
100
AcDbEntity
  8
0
  6
ByBlock
 62
     0
440
 16777216
100
AcDbTrace
 10
8926.078160820178
 20
10098.05914191752
 30
0.0
 11
8906.078160820178
 21
10098.05914191752
 31
0.0
 12
8916.078160820178
 22
10158.05914191752
 32
0.0
 13
8916.078160820178
 23
10158.05914191752
 33
0.0
  0
SOLID
  5
48B
330
6E
100
AcDbEntity
  8
0
  6
ByBlock
 62
     0
440
 16777216
100
AcDbTrace
 10
8926.078160820178
 20
8218.059141917516
 30
0.0
 11
8906.078160820178
 21
8218.059141917516
 31
0.0
 12
8916.078160820178
 22
8158.059141917516
 32
0.0
 13
8916.078160820178
 23
8158.059141917516
 33
0.0
  0
TEXT
  5
48C
330
6E
100
AcDbEntity
  8
0
  6
ByBlock
 62
     0
440
 16777216
100
AcDbText
 10
8871.078160820178
 20
9015.559141917516
 30
0.0
 40
90.0
  1
2000
 50
90.0
  7
A
100
AcDbText
  0
POINT
  5
48D
330
6E
100
AcDbEntity
  8
DEFPOINTS
  6
ByBlock
 62
     0
440
 16777216
100
AcDbPoint
 10
10434.51232522181
 20
10158.05914191752
 30
0.0
  0
POINT
  5
48E
330
6E
100
AcDbEntity
  8
DEFPOINTS
  6
ByBlock
 62
     0
440
 16777216
100
AcDbPoint
 10
10434.51232522181
 20
8158.059141917516
 30
0.0
  0
POINT
  5
48F
330
6E
100
AcDbEntity
  8
DEFPOINTS
  6
ByBlock
 62
     0
440
 16777216
100
AcDbPoint
 10
8916.078160820178
 20
8158.059141917516
 30
0.0
  0
ENDBLK
  5
490
330
6E
100
AcDbEntity
  8
SUNPOU
100
AcDbBlockEnd
  0
BLOCK
  5
491
330
6F
100
AcDbEntity
  8
SUNPOU
100
AcDbBlockBegin
  2
*D83
 70
     1
 10
0.0
 20
0.0
 30
0.0
  3
*D83
  1

  0
LINE
  5
492
330
6F
100
AcDbEntity
  8
0
  6
ByBlock
 62
     0
440
 16777216
100
AcDbLine
 10
9558.30316980182
 20
8158.059141917516
 30
0.0
 11
8896.078160820178
 21
8158.059141917516
 31
0.0
  0
LINE
  5
493
330
6F
100
AcDbEntity
  8
0
  6
ByBlock
 62
     0
440
 16777216
100
AcDbLine
 10
10390.28488807212
 20
7158.059141917516
 30
0.0
 11
8896.078160820178
 21
7158.059141917516
 31
0.0
  0
LINE
  5
494
330
6F
100
AcDbEntity
  8
0
  6
ByBlock
 62
     0
440
 16777216
100
AcDbLine
 10
8916.078160820178
 20
8098.059141917516
 30
0.0
 11
8916.078160820178
 21
7218.059141917516
 31
0.0
  0
SOLID
  5
495
330
6F
100
AcDbEntity
  8
0
  6
ByBlock
 62
     0
440
 16777216
100
AcDbTrace
 10
8926.078160820178
 20
8098.059141917516
 30
0.0
 11
8906.078160820178
 21
8098.059141917516
 31
0.0
 12
8916.078160820178
 22
8158.059141917516
 32
0.0
 13
8916.078160820178
 23
8158.059141917516
 33
0.0
  0
SOLID
  5
496
330
6F
100
AcDbEntity
  8
0
  6
ByBlock
 62
     0
440
 16777216
100
AcDbTrace
 10
8926.078160820178
 20
7218.059141917516
 30
0.0
 11
8906.078160820178
 21
7218.059141917516
 31
0.0
 12
8916.078160820178
 22
7158.059141917516
 32
0.0
 13
8916.078160820178
 23
7158.059141917516
 33
0.0
  0
TEXT
  5
497
330
6F
100
AcDbEntity
  8
0
  6
ByBlock
 62
     0
440
 16777216
100
AcDbText
 10
8871.078160820178
 20
7530.559141917516
 30
0.0
 40
90.0
  1
1000
 50
90.0
  7
A
100
AcDbText
  0
POINT
  5
498
330
6F
100
AcDbEntity
  8
DEFPOINTS
  6
ByBlock
 62
     0
440
 16777216
100
AcDbPoint
 10
9598.30316980182
 20
8158.059141917516
 30
0.0
  0
POINT
  5
499
330
6F
100
AcDbEntity
  8
DEFPOINTS
  6
ByBlock
 62
     0
440
 16777216
100
AcDbPoint
 10
10430.28488807212
 20
7158.059141917516
 30
0.0
  0
POINT
  5
49A
330
6F
100
AcDbEntity
  8
DEFPOINTS
  6
ByBlock
 62
     0
440
 16777216
100
AcDbPoint
 10
8916.078160820178
 20
7158.059141917516
 30
0.0
  0
ENDBLK
  5
49B
330
6F
100
AcDbEntity
  8
SUNPOU
100
AcDbBlockEnd
  0
BLOCK
  5
50B
330
79
100
AcDbEntity
  8
SEIHIN
100
AcDbBlockBegin
  2
*D93
 70
     1
 10
0.0
 20
0.0
 30
0.0
  3
*D93
  1

  0
LINE
  5
50C
330
79
100
AcDbEntity
  8
0
  6
ByBlock
 62
     0
440
 16777216
100
AcDbLine
 10
6391.188721955592
 20
7777.598631727651
 30
0.0
 11
6391.188721955592
 21
7843.643417141995
 31
0.0
  0
LINE
  5
50D
330
79
100
AcDbEntity
  8
0
  6
ByBlock
 62
     0
440
 16777216
100
AcDbLine
 10
6091.188721955592
 20
7467.995553303055
 30
0.0
 11
6091.188721955592
 21
7843.643417141995
 31
0.0
  0
LINE
  5
50E
330
79
100
AcDbEntity
  8
0
  6
ByBlock
 62
     0
440
 16777216
100
AcDbLine
 10
6331.188721955592
 20
7823.643417141995
 30
0.0
 11
6151.188721955592
 21
7823.643417141995
 31
0.0
  0
SOLID
  5
50F
330
79
100
AcDbEntity
  8
0
  6
ByBlock
 62
     0
440
 16777216
100
AcDbTrace
 10
6331.188721955592
 20
7813.643417141995
 30
0.0
 11
6331.188721955592
 21
7833.643417141995
 31
0.0
 12
6391.188721955592
 22
7823.643417141995
 32
0.0
 13
6391.188721955592
 23
7823.643417141995
 33
0.0
  0
SOLID
  5
510
330
79
100
AcDbEntity
  8
0
  6
ByBlock
 62
     0
440
 16777216
100
AcDbTrace
 10
6151.188721955592
 20
7813.643417141995
 30
0.0
 11
6151.188721955592
 21
7833.643417141995
 31
0.0
 12
6091.188721955592
 22
7823.643417141995
 32
0.0
 13
6091.188721955592
 23
7823.643417141995
 33
0.0
  0
TEXT
  5
511
330
79
100
AcDbEntity
  8
0
  6
ByBlock
 62
     0
440
 16777216
100
AcDbText
 10
6136.188721955592
 20
7868.643417141995
 30
0.0
 40
90.0
  1
300
  7
A
100
AcDbText
  0
POINT
  5
512
330
79
100
AcDbEntity
  8
DEFPOINTS
  6
ByBlock
 62
     0
440
 16777216
100
AcDbPoint
 10
6391.188721955592
 20
7737.598631727651
 30
0.0
  0
POINT
  5
513
330
79
100
AcDbEntity
  8
DEFPOINTS
  6
ByBlock
 62
     0
440
 16777216
100
AcDbPoint
 10
6091.188721955592
 20
7427.995553303055
 30
0.0
  0
POINT
  5
514
330
79
100
AcDbEntity
  8
DEFPOINTS
  6
ByBlock
 62
     0
440
 16777216
100
AcDbPoint
 10
6091.188721955592
 20
7823.643417141995
 30
0.0
  0
ENDBLK
  5
515
330
79
100
AcDbEntity
  8
SEIHIN
100
AcDbBlockEnd
  0
BLOCK
  5
516
330
7A
100
AcDbEntity
  8
SUNPOU
100
AcDbBlockBegin
  2
*D94
 70
     1
 10
0.0
 20
0.0
 30
0.0
  3
*D94
  1

  0
LINE
  5
517
330
7A
100
AcDbEntity
  8
0
  6
ByBlock
 62
     0
440
 16777216
100
AcDbLine
 10
6351.188721955593
 20
7737.598631727654
 30
0.0
 11
5904.600068794359
 21
7737.598631727654
 31
0.0
  0
LINE
  5
518
330
7A
100
AcDbEntity
  8
0
  6
ByBlock
 62
     0
440
 16777216
100
AcDbLine
 10
6351.188721955593
 20
7437.598631727654
 30
0.0
 11
5904.600068794359
 21
7437.598631727654
 31
0.0
  0
LINE
  5
519
330
7A
100
AcDbEntity
  8
0
  6
ByBlock
 62
     0
440
 16777216
100
AcDbLine
 10
5924.600068794359
 20
7677.598631727654
 30
0.0
 11
5924.600068794359
 21
7497.598631727654
 31
0.0
  0
SOLID
  5
51A
330
7A
100
AcDbEntity
  8
0
  6
ByBlock
 62
     0
440
 16777216
100
AcDbTrace
 10
5934.600068794359
 20
7677.598631727654
 30
0.0
 11
5914.600068794359
 21
7677.598631727654
 31
0.0
 12
5924.600068794359
 22
7737.598631727654
 32
0.0
 13
5924.600068794359
 23
7737.598631727654
 33
0.0
  0
SOLID
  5
51B
330
7A
100
AcDbEntity
  8
0
  6
ByBlock
 62
     0
440
 16777216
100
AcDbTrace
 10
5934.600068794359
 20
7497.598631727654
 30
0.0
 11
5914.600068794359
 21
7497.598631727654
 31
0.0
 12
5924.600068794359
 22
7437.598631727654
 32
0.0
 13
5924.600068794359
 23
7437.598631727654
 33
0.0
  0
TEXT
  5
51C
330
7A
100
AcDbEntity
  8
0
  6
ByBlock
 62
     0
440
 16777216
100
AcDbText
 10
5879.600068794359
 20
7482.598631727654
 30
0.0
 40
90.0
  1
300
 50
90.0
  7
A
100
AcDbText
  0
POINT
  5
51D
330
7A
100
AcDbEntity
  8
DEFPOINTS
  6
ByBlock
 62
     0
440
 16777216
100
AcDbPoint
 10
6391.188721955593
 20
7737.598631727654
 30
0.0
  0
POINT
  5
51E
330
7A
100
AcDbEntity
  8
DEFPOINTS
  6
ByBlock
 62
     0
440
 16777216
100
AcDbPoint
 10
6391.188721955593
 20
7437.598631727654
 30
0.0
  0
POINT
  5
51F
330
7A
100
AcDbEntity
  8
DEFPOINTS
  6
ByBlock
 62
     0
440
 16777216
100
AcDbPoint
 10
5924.600068794359
 20
7437.598631727654
 30
0.0
  0
ENDBLK
  5
520
330
7A
100
AcDbEntity
  8
SUNPOU
100
AcDbBlockEnd
  0
BLOCK
  5
5E2
330
8C
100
AcDbEntity
  8
SUNPOU
100
AcDbBlockBegin
  2
*D112
 70
     1
 10
0.0
 20
0.0
 30
0.0
  3
*D112
  1

  0
LINE
  5
5E3
330
8C
100
AcDbEntity
  8
0
  6
ByBlock
 62
     0
440
 16777216
100
AcDbLine
 10
1834.783209965393
 20
7158.059141917517
 30
0.0
 11
1816.218463826483
 21
7158.059141917517
 31
0.0
  0
LINE
  5
5E4
330
8C
100
AcDbEntity
  8
0
  6
ByBlock
 62
     0
440
 16777216
100
AcDbLine
 10
1834.783209965393
 20
7328.059141917517
 30
0.0
 11
1816.218463826483
 21
7328.059141917517
 31
0.0
  0
LINE
  5
5E5
330
8C
100
AcDbEntity
  8
0
  6
ByBlock
 62
     0
440
 16777216
100
AcDbLine
 10
1836.218463826483
 20
7218.059141917517
 30
0.0
 11
1836.218463826483
 21
7243.059141917517
 31
0.0
  0
LINE
  5
5E6
330
8C
100
AcDbEntity
  8
0
  6
ByBlock
 62
     0
440
 16777216
100
AcDbLine
 10
1836.218463826483
 20
7268.059141917517
 30
0.0
 11
1836.218463826483
 21
7243.059141917517
 31
0.0
  0
SOLID
  5
5E7
330
8C
100
AcDbEntity
  8
0
  6
ByBlock
 62
     0
440
 16777216
100
AcDbTrace
 10
1846.218463826483
 20
7218.059141917517
 30
0.0
 11
1826.218463826483
 21
7218.059141917517
 31
0.0
 12
1836.218463826483
 22
7158.059141917517
 32
0.0
 13
1836.218463826483
 23
7158.059141917517
 33
0.0
  0
SOLID
  5
5E8
330
8C
100
AcDbEntity
  8
0
  6
ByBlock
 62
     0
440
 16777216
100
AcDbTrace
 10
1846.218463826483
 20
7268.059141917517
 30
0.0
 11
1826.218463826483
 21
7268.059141917517
 31
0.0
 12
1836.218463826483
 22
7328.059141917517
 32
0.0
 13
1836.218463826483
 23
7328.059141917517
 33
0.0
  0
TEXT
  5
5E9
330
8C
100
AcDbEntity
  8
0
  6
ByBlock
 62
     0
440
 16777216
100
AcDbText
 10
1791.218463826482
 20
7191.74262775638
 30
0.0
 40
90.0
  1
170
 50
90.0
  7
A
100
AcDbText
  0
POINT
  5
5EA
330
8C
100
AcDbEntity
  8
DEFPOINTS
  6
ByBlock
 62
     0
440
 16777216
100
AcDbPoint
 10
1874.783209965393
 20
7158.059141917517
 30
0.0
  0
POINT
  5
5EB
330
8C
100
AcDbEntity
  8
DEFPOINTS
  6
ByBlock
 62
     0
440
 16777216
100
AcDbPoint
 10
1874.783209965393
 20
7328.059141917517
 30
0.0
  0
POINT
  5
5EC
330
8C
100
AcDbEntity
  8
DEFPOINTS
  6
ByBlock
 62
     0
440
 16777216
100
AcDbPoint
 10
1836.218463826483
 20
7328.059141917517
 30
0.0
  0
ENDBLK
  5
5ED
330
8C
100
AcDbEntity
  8
SUNPOU
100
AcDbBlockEnd
  0
BLOCK
  5
5EE
330
8D
100
AcDbEntity
  8
SUNPOU
100
AcDbBlockBegin
  2
*D113
 70
     1
 10
0.0
 20
0.0
 30
0.0
  3
*D113
  1

  0
LINE
  5
5EF
330
8D
100
AcDbEntity
  8
0
  6
ByBlock
 62
     0
440
 16777216
100
AcDbLine
 10
2474.920832966642
 20
7227.598631727652
 30
0.0
 11
2125.389244878164
 21
7227.598631727652
 31
0.0
  0
LINE
  5
5F0
330
8D
100
AcDbEntity
  8
0
  6
ByBlock
 62
     0
440
 16777216
100
AcDbLine
 10
2474.920832966642
 20
7327.598631727652
 30
0.0
 11
2125.389244878164
 21
7327.598631727652
 31
0.0
  0
LINE
  5
5F1
330
8D
100
AcDbEntity
  8
0
  6
ByBlock
 62
     0
440
 16777216
100
AcDbLine
 10
2145.389244878164
 20
7387.598631727652
 30
0.0
 11
2145.389244878164
 21
7447.598631727652
 31
0.0
  0
LINE
  5
5F2
330
8D
100
AcDbEntity
  8
0
  6
ByBlock
 62
     0
440
 16777216
100
AcDbLine
 10
2145.389244878164
 20
7167.598631727652
 30
0.0
 11
2145.389244878164
 21
7107.598631727652
 31
0.0
  0
SOLID
  5
5F3
330
8D
100
AcDbEntity
  8
0
  6
ByBlock
 62
     0
440
 16777216
100
AcDbTrace
 10
2155.389244878164
 20
7387.598631727652
 30
0.0
 11
2135.389244878164
 21
7387.598631727652
 31
0.0
 12
2145.389244878164
 22
7327.598631727652
 32
0.0
 13
2145.389244878164
 23
7327.598631727652
 33
0.0
  0
SOLID
  5
5F4
330
8D
100
AcDbEntity
  8
0
  6
ByBlock
 62
     0
440
 16777216
100
AcDbTrace
 10
2155.389244878164
 20
7167.598631727652
 30
0.0
 11
2135.389244878164
 21
7167.598631727652
 31
0.0
 12
2145.389244878164
 22
7227.598631727652
 32
0.0
 13
2145.389244878164
 23
7227.598631727652
 33
0.0
  0
LINE
  5
5F5
330
8D
100
AcDbEntity
  8
0
  6
ByBlock
 62
     0
440
 16777216
100
AcDbLine
 10
2145.389244878164
 20
7327.598631727652
 30
0.0
 11
2145.389244878164
 21
7227.598631727652
 31
0.0
  0
TEXT
  5
5F6
330
8D
100
AcDbEntity
  8
0
  6
ByBlock
 62
     0
440
 16777216
100
AcDbText
 10
2100.389244878165
 20
7321.721917220591
 30
0.0
 40
90.0
  1
100
 50
90.0
  7
A
100
AcDbText
  0
POINT
  5
5F7
330
8D
100
AcDbEntity
  8
DEFPOINTS
  6
ByBlock
 62
     0
440
 16777216
100
AcDbPoint
 10
2514.920832966642
 20
7227.598631727652
 30
0.0
  0
POINT
  5
5F8
330
8D
100
AcDbEntity
  8
DEFPOINTS
  6
ByBlock
 62
     0
440
 16777216
100
AcDbPoint
 10
2514.920832966642
 20
7327.598631727652
 30
0.0
  0
POINT
  5
5F9
330
8D
100
AcDbEntity
  8
DEFPOINTS
  6
ByBlock
 62
     0
440
 16777216
100
AcDbPoint
 10
2145.389244878164
 20
7327.598631727652
 30
0.0
  0
ENDBLK
  5
5FA
330
8D
100
AcDbEntity
  8
SUNPOU
100
AcDbBlockEnd
  0
BLOCK
  5
5FB
330
8E
100
AcDbEntity
  8
SUNPOU
100
AcDbBlockBegin
  2
*D114
 70
     1
 10
0.0
 20
0.0
 30
0.0
  3
*D114
  1

  0
LINE
  5
5FC
330
8E
100
AcDbEntity
  8
0
  6
ByBlock
 62
     0
440
 16777216
100
AcDbLine
 10
2474.920832966642
 20
7158.059141917517
 30
0.0
 11
2125.389244878164
 21
7158.059141917517
 31
0.0
  0
LINE
  5
5FD
330
8E
100
AcDbEntity
  8
0
  6
ByBlock
 62
     0
440
 16777216
100
AcDbLine
 10
2474.920832966642
 20
7227.598631727652
 30
0.0
 11
2125.389244878164
 21
7227.598631727652
 31
0.0
  0
LINE
  5
5FE
330
8E
100
AcDbEntity
  8
0
  6
ByBlock
 62
     0
440
 16777216
100
AcDbLine
 10
2145.389244878164
 20
7287.598631727652
 30
0.0
 11
2145.389244878164
 21
7347.598631727652
 31
0.0
  0
LINE
  5
5FF
330
8E
100
AcDbEntity
  8
0
  6
ByBlock
 62
     0
440
 16777216
100
AcDbLine
 10
2145.389244878164
 20
7098.059141917517
 30
0.0
 11
2145.389244878164
 21
7038.059141917517
 31
0.0
  0
SOLID
  5
600
330
8E
100
AcDbEntity
  8
0
  6
ByBlock
 62
     0
440
 16777216
100
AcDbTrace
 10
2155.389244878164
 20
7287.598631727652
 30
0.0
 11
2135.389244878164
 21
7287.598631727652
 31
0.0
 12
2145.389244878164
 22
7227.598631727652
 32
0.0
 13
2145.389244878164
 23
7227.598631727652
 33
0.0
  0
SOLID
  5
601
330
8E
100
AcDbEntity
  8
0
  6
ByBlock
 62
     0
440
 16777216
100
AcDbTrace
 10
2155.389244878164
 20
7098.059141917517
 30
0.0
 11
2135.389244878164
 21
7098.059141917517
 31
0.0
 12
2145.389244878164
 22
7158.059141917517
 32
0.0
 13
2145.389244878164
 23
7158.059141917517
 33
0.0
  0
LINE
  5
602
330
8E
100
AcDbEntity
  8
0
  6
ByBlock
 62
     0
440
 16777216
100
AcDbLine
 10
2145.389244878164
 20
7227.598631727652
 30
0.0
 11
2145.389244878164
 21
7158.059141917517
 31
0.0
  0
TEXT
  5
603
330
8E
100
AcDbEntity
  8
0
  6
ByBlock
 62
     0
440
 16777216
100
AcDbText
 10
2100.389244878165
 20
7061.933162644347
 30
0.0
 40
90.0
  1
70
 50
90.0
  7
A
100
AcDbText
  0
POINT
  5
604
330
8E
100
AcDbEntity
  8
DEFPOINTS
  6
ByBlock
 62
     0
440
 16777216
100
AcDbPoint
 10
2514.920832966642
 20
7158.059141917517
 30
0.0
  0
POINT
  5
605
330
8E
100
AcDbEntity
  8
DEFPOINTS
  6
ByBlock
 62
     0
440
 16777216
100
AcDbPoint
 10
2514.920832966642
 20
7227.598631727652
 30
0.0
  0
POINT
  5
606
330
8E
100
AcDbEntity
  8
DEFPOINTS
  6
ByBlock
 62
     0
440
 16777216
100
AcDbPoint
 10
2145.389244878164
 20
7227.598631727652
 30
0.0
  0
ENDBLK
  5
607
330
8E
100
AcDbEntity
  8
SUNPOU
100
AcDbBlockEnd
  0
BLOCK
  5
61F
330
91
100
AcDbEntity
  8
SUNPOU
100
AcDbBlockBegin
  2
*D117
 70
     1
 10
0.0
 20
0.0
 30
0.0
  3
*D117
  1

  0
LINE
  5
620
330
91
100
AcDbEntity
  8
0
  6
ByBlock
 62
     0
440
 16777216
100
AcDbLine
 10
2264.920832966642
 20
5985.292915582863
 30
0.0
 11
2264.920832966642
 21
5935.655859535987
 31
0.0
  0
LINE
  5
621
330
91
100
AcDbEntity
  8
0
  6
ByBlock
 62
     0
440
 16777216
100
AcDbLine
 10
5984.920832966642
 20
6013.966997484518
 30
0.0
 11
5984.920832966642
 21
5935.655859535987
 31
0.0
  0
LINE
  5
622
330
91
100
AcDbEntity
  8
0
  6
ByBlock
 62
     0
440
 16777216
100
AcDbLine
 10
2324.920832966642
 20
5955.655859535987
 30
0.0
 11
5924.920832966642
 21
5955.655859535987
 31
0.0
  0
SOLID
  5
623
330
91
100
AcDbEntity
  8
0
  6
ByBlock
 62
     0
440
 16777216
100
AcDbTrace
 10
2324.920832966642
 20
5945.655859535987
 30
0.0
 11
2324.920832966642
 21
5965.655859535987
 31
0.0
 12
2264.920832966642
 22
5955.655859535987
 32
0.0
 13
2264.920832966642
 23
5955.655859535987
 33
0.0
  0
SOLID
  5
624
330
91
100
AcDbEntity
  8
0
  6
ByBlock
 62
     0
440
 16777216
100
AcDbTrace
 10
5924.920832966642
 20
5945.655859535987
 30
0.0
 11
5924.920832966642
 21
5965.655859535987
 31
0.0
 12
5984.920832966642
 22
5955.655859535987
 32
0.0
 13
5984.920832966642
 23
5955.655859535987
 33
0.0
  0
TEXT
  5
625
330
91
100
AcDbEntity
  8
0
  6
ByBlock
 62
     0
440
 16777216
100
AcDbText
 10
3967.420832966642
 20
6000.655859535987
 30
0.0
 40
90.0
  1
3720
  7
A
100
AcDbText
  0
POINT
  5
626
330
91
100
AcDbEntity
  8
DEFPOINTS
  6
ByBlock
 62
     0
440
 16777216
100
AcDbPoint
 10
2264.920832966642
 20
6025.292915582863
 30
0.0
  0
POINT
  5
627
330
91
100
AcDbEntity
  8
DEFPOINTS
  6
ByBlock
 62
     0
440
 16777216
100
AcDbPoint
 10
5984.920832966642
 20
6053.966997484518
 30
0.0
  0
POINT
  5
628
330
91
100
AcDbEntity
  8
DEFPOINTS
  6
ByBlock
 62
     0
440
 16777216
100
AcDbPoint
 10
5984.920832966642
 20
5955.655859535987
 30
0.0
  0
ENDBLK
  5
629
330
91
100
AcDbEntity
  8
SUNPOU
100
AcDbBlockEnd
  0
BLOCK
  5
640
330
94
100
AcDbEntity
  8
SUNPOU
100
AcDbBlockBegin
  2
*D120
 70
     1
 10
0.0
 20
0.0
 30
0.0
  3
*D120
  1

  0
LINE
  5
641
330
94
100
AcDbEntity
  8
0
  6
ByBlock
 62
     0
440
 16777216
100
AcDbLine
 10
2264.920832966642
 20
7118.059141917518
 30
0.0
 11
2264.920832966642
 21
5645.61982058911
 31
0.0
  0
LINE
  5
642
330
94
100
AcDbEntity
  8
0
  6
ByBlock
 62
     0
440
 16777216
100
AcDbLine
 10
6264.920832966642
 20
7117.598631727652
 30
0.0
 11
6264.920832966642
 21
5645.61982058911
 31
0.0
  0
LINE
  5
643
330
94
100
AcDbEntity
  8
0
  6
ByBlock
 62
     0
440
 16777216
100
AcDbLine
 10
2324.920832966642
 20
5665.61982058911
 30
0.0
 11
6204.920832966642
 21
5665.61982058911
 31
0.0
  0
SOLID
  5
644
330
94
100
AcDbEntity
  8
0
  6
ByBlock
 62
     0
440
 16777216
100
AcDbTrace
 10
2324.920832966642
 20
5655.61982058911
 30
0.0
 11
2324.920832966642
 21
5675.61982058911
 31
0.0
 12
2264.920832966642
 22
5665.61982058911
 32
0.0
 13
2264.920832966642
 23
5665.61982058911
 33
0.0
  0
SOLID
  5
645
330
94
100
AcDbEntity
  8
0
  6
ByBlock
 62
     0
440
 16777216
100
AcDbTrace
 10
6204.920832966642
 20
5655.61982058911
 30
0.0
 11
6204.920832966642
 21
5675.61982058911
 31
0.0
 12
6264.920832966642
 22
5665.61982058911
 32
0.0
 13
6264.920832966642
 23
5665.61982058911
 33
0.0
  0
TEXT
  5
646
330
94
100
AcDbEntity
  8
0
  6
ByBlock
 62
     0
440
 16777216
100
AcDbText
 10
4122.420832966642
 20
5710.61982058911
 30
0.0
 40
90.0
  1
4000
  7
A
100
AcDbText
  0
POINT
  5
647
330
94
100
AcDbEntity
  8
DEFPOINTS
  6
ByBlock
 62
     0
440
 16777216
100
AcDbPoint
 10
2264.920832966642
 20
7158.059141917518
 30
0.0
  0
POINT
  5
648
330
94
100
AcDbEntity
  8
DEFPOINTS
  6
ByBlock
 62
     0
440
 16777216
100
AcDbPoint
 10
6264.920832966642
 20
7157.598631727652
 30
0.0
  0
POINT
  5
649
330
94
100
AcDbEntity
  8
DEFPOINTS
  6
ByBlock
 62
     0
440
 16777216
100
AcDbPoint
 10
6264.920832966642
 20
5665.61982058911
 30
0.0
  0
ENDBLK
  5
64A
330
94
100
AcDbEntity
  8
SUNPOU
100
AcDbBlockEnd
  0
BLOCK
  5
661
330
97
100
AcDbEntity
  8
SUNPOU
100
AcDbBlockBegin
  2
*D123
 70
     1
 10
0.0
 20
0.0
 30
0.0
  3
*D123
  1

  0
LINE
  5
662
330
97
100
AcDbEntity
  8
0
  6
ByBlock
 62
     0
440
 16777216
100
AcDbLine
 10
13361.64568218368
 20
9858.059141917518
 30
0.0
 11
15037.46021981799
 21
9858.059141917516
 31
0.0
  0
LINE
  5
663
330
97
100
AcDbEntity
  8
0
  6
ByBlock
 62
     0
440
 16777216
100
AcDbLine
 10
13474.51232522181
 20
7158.059141917519
 30
0.0
 11
15037.46021981799
 21
7158.059141917519
 31
0.0
  0
LINE
  5
664
330
97
100
AcDbEntity
  8
0
  6
ByBlock
 62
     0
440
 16777216
100
AcDbLine
 10
15017.46021981799
 20
9798.059141917516
 30
0.0
 11
15017.46021981799
 21
7218.059141917519
 31
0.0
  0
SOLID
  5
665
330
97
100
AcDbEntity
  8
0
  6
ByBlock
 62
     0
440
 16777216
100
AcDbTrace
 10
15027.46021981799
 20
9798.059141917516
 30
0.0
 11
15007.46021981799
 21
9798.059141917516
 31
0.0
 12
15017.46021981799
 22
9858.059141917516
 32
0.0
 13
15017.46021981799
 23
9858.059141917516
 33
0.0
  0
SOLID
  5
666
330
97
100
AcDbEntity
  8
0
  6
ByBlock
 62
     0
440
 16777216
100
AcDbTrace
 10
15027.46021981799
 20
7218.059141917519
 30
0.0
 11
15007.46021981799
 21
7218.059141917519
 31
0.0
 12
15017.46021981799
 22
7158.059141917519
 32
0.0
 13
15017.46021981799
 23
7158.059141917519
 33
0.0
  0
TEXT
  5
667
330
97
100
AcDbEntity
  8
0
  6
ByBlock
 62
     0
440
 16777216
100
AcDbText
 10
14972.46021981799
 20
8358.059141917516
 30
0.0
 40
90.0
  1
2700
 50
90.0
  7
A
100
AcDbText
  0
POINT
  5
668
330
97
100
AcDbEntity
  8
DEFPOINTS
  6
ByBlock
 62
     0
440
 16777216
100
AcDbPoint
 10
13321.64568218368
 20
9858.059141917518
 30
0.0
  0
POINT
  5
669
330
97
100
AcDbEntity
  8
DEFPOINTS
  6
ByBlock
 62
     0
440
 16777216
100
AcDbPoint
 10
13434.51232522181
 20
7158.059141917519
 30
0.0
  0
POINT
  5
66A
330
97
100
AcDbEntity
  8
DEFPOINTS
  6
ByBlock
 62
     0
440
 16777216
100
AcDbPoint
 10
15017.46021981799
 20
7158.059141917519
 30
0.0
  0
ENDBLK
  5
66B
330
97
100
AcDbEntity
  8
SUNPOU
100
AcDbBlockEnd
  0
BLOCK
  5
66C
330
98
100
AcDbEntity
  8
SUNPOU
100
AcDbBlockBegin
  2
*D124
 70
     1
 10
0.0
 20
0.0
 30
0.0
  3
*D124
  1

  0
LINE
  5
66D
330
98
100
AcDbEntity
  8
0
  6
ByBlock
 62
     0
440
 16777216
100
AcDbLine
 10
10434.51232522181
 20
10198.05914191752
 30
0.0
 11
10434.51232522181
 21
11144.71795139518
 31
0.0
  0
LINE
  5
66E
330
98
100
AcDbEntity
  8
0
  6
ByBlock
 62
     0
440
 16777216
100
AcDbLine
 10
13134.51232522181
 20
10158.78709367587
 30
0.0
 11
13134.51232522181
 21
11144.71795139518
 31
0.0
  0
LINE
  5
66F
330
98
100
AcDbEntity
  8
0
  6
ByBlock
 62
     0
440
 16777216
100
AcDbLine
 10
10494.51232522181
 20
11124.71795139518
 30
0.0
 11
11784.51232522181
 21
11124.71795139518
 31
0.0
  0
LINE
  5
670
330
98
100
AcDbEntity
  8
0
  6
ByBlock
 62
     0
440
 16777216
100
AcDbLine
 10
13074.51232522181
 20
11124.71795139518
 30
0.0
 11
11784.51232522181
 21
11124.71795139518
 31
0.0
  0
SOLID
  5
671
330
98
100
AcDbEntity
  8
0
  6
ByBlock
 62
     0
440
 16777216
100
AcDbTrace
 10
10494.51232522181
 20
11114.71795139518
 30
0.0
 11
10494.51232522181
 21
11134.71795139518
 31
0.0
 12
10434.51232522181
 22
11124.71795139518
 32
0.0
 13
10434.51232522181
 23
11124.71795139518
 33
0.0
  0
SOLID
  5
672
330
98
100
AcDbEntity
  8
0
  6
ByBlock
 62
     0
440
 16777216
100
AcDbTrace
 10
13074.51232522181
 20
11114.71795139518
 30
0.0
 11
13074.51232522181
 21
11134.71795139518
 31
0.0
 12
13134.51232522181
 22
11124.71795139518
 32
0.0
 13
13134.51232522181
 23
11124.71795139518
 33
0.0
  0
TEXT
  5
673
330
98
100
AcDbEntity
  8
0
  6
ByBlock
 62
     0
440
 16777216
100
AcDbText
 10
11459.51232522181
 20
11169.71795139518
 30
0.0
 40
90.0
  1
2700
  7
A
100
AcDbText
  0
POINT
  5
674
330
98
100
AcDbEntity
  8
DEFPOINTS
  6
ByBlock
 62
     0
440
 16777216
100
AcDbPoint
 10
10434.51232522181
 20
10158.05914191752
 30
0.0
  0
POINT
  5
675
330
98
100
AcDbEntity
  8
DEFPOINTS
  6
ByBlock
 62
     0
440
 16777216
100
AcDbPoint
 10
13134.51232522181
 20
10118.78709367587
 30
0.0
  0
POINT
  5
676
330
98
100
AcDbEntity
  8
DEFPOINTS
  6
ByBlock
 62
     0
440
 16777216
100
AcDbPoint
 10
13134.51232522181
 20
11124.71795139518
 30
0.0
  0
ENDBLK
  5
677
330
98
100
AcDbEntity
  8
SUNPOU
100
AcDbBlockEnd
  0
BLOCK
  5
6A4
330
9D
100
AcDbEntity
  8
SUNPOU
100
AcDbBlockBegin
  2
*D129
 70
     1
 10
0.0
 20
0.0
 30
0.0
  3
*D129
  1

  0
LINE
  5
6A5
330
9D
100
AcDbEntity
  8
0
  6
ByBlock
 62
     0
440
 16777216
100
AcDbLine
 10
14601.25368146703
 20
9858.059141917516
 30
0.0
 11
15037.46021981799
 21
9858.059141917514
 31
0.0
  0
LINE
  5
6A6
330
9D
100
AcDbEntity
  8
0
  6
ByBlock
 62
     0
440
 16777216
100
AcDbLine
 10
13174.51232522181
 20
9893.414480976844
 30
0.0
 11
15037.46021981799
 21
9893.414480976842
 31
0.0
  0
LINE
  5
6A7
330
9D
100
AcDbEntity
  8
0
  6
ByBlock
 62
     0
440
 16777216
100
AcDbLine
 10
15017.46021981799
 20
9953.414480976842
 30
0.0
 11
15017.46021981799
 21
10013.41448097684
 31
0.0
  0
LINE
  5
6A8
330
9D
100
AcDbEntity
  8
0
  6
ByBlock
 62
     0
440
 16777216
100
AcDbLine
 10
15017.46021981799
 20
9798.059141917514
 30
0.0
 11
15017.46021981799
 21
9738.059141917514
 31
0.0
  0
SOLID
  5
6A9
330
9D
100
AcDbEntity
  8
0
  6
ByBlock
 62
     0
440
 16777216
100
AcDbTrace
 10
15027.46021981799
 20
9953.414480976842
 30
0.0
 11
15007.46021981799
 21
9953.414480976842
 31
0.0
 12
15017.46021981799
 22
9893.414480976842
 32
0.0
 13
15017.46021981799
 23
9893.414480976842
 33
0.0
  0
SOLID
  5
6AA
330
9D
100
AcDbEntity
  8
0
  6
ByBlock
 62
     0
440
 16777216
100
AcDbTrace
 10
15027.46021981799
 20
9798.059141917514
 30
0.0
 11
15007.46021981799
 21
9798.059141917514
 31
0.0
 12
15017.46021981799
 22
9858.059141917514
 32
0.0
 13
15017.46021981799
 23
9858.059141917514
 33
0.0
  0
LINE
  5
6AB
330
9D
100
AcDbEntity
  8
0
  6
ByBlock
 62
     0
440
 16777216
100
AcDbLine
 10
15017.46021981799
 20
9893.414480976842
 30
0.0
 11
15017.46021981799
 21
9858.059141917514
 31
0.0
  0
TEXT
  5
6AC
330
9D
100
AcDbEntity
  8
0
  6
ByBlock
 62
     0
440
 16777216
100
AcDbText
 10
14972.46021981799
 20
9716.382053950574
 30
0.0
 40
90.0
  1
35
 50
90.0
  7
A
100
AcDbText
  0
POINT
  5
6AD
330
9D
100
AcDbEntity
  8
DEFPOINTS
  6
ByBlock
 62
     0
440
 16777216
100
AcDbPoint
 10
14561.25368146703
 20
9858.059141917516
 30
0.0
  0
POINT
  5
6AE
330
9D
100
AcDbEntity
  8
DEFPOINTS
  6
ByBlock
 62
     0
440
 16777216
100
AcDbPoint
 10
13134.51232522181
 20
9893.414480976844
 30
0.0
  0
POINT
  5
6AF
330
9D
100
AcDbEntity
  8
DEFPOINTS
  6
ByBlock
 62
     0
440
 16777216
100
AcDbPoint
 10
15017.46021981799
 20
9893.414480976842
 30
0.0
  0
ENDBLK
  5
6B0
330
9D
100
AcDbEntity
  8
SUNPOU
100
AcDbBlockEnd
  0
BLOCK
  5
B05
330
B04
100
AcDbEntity
  8
0
100
AcDbBlockBegin
  2
*D130
 70
     1
 10
0.0
 20
0.0
 30
0.0
  3
*D130
  1

  0
LINE
  5
B10
330
B04
100
AcDbEntity
  8
SUNPOU
 62
     0
440
 16777216
370
    -2
100
AcDbLine
 10
2264.92083296664
 20
1913.598631727652
 30
0.0
 11
2264.92083296664
 21
981.7584739330532
 31
0.0
  0
LINE
  5
B11
330
B04
100
AcDbEntity
  8
SUNPOU
 62
     0
440
 16777216
370
    -2
100
AcDbLine
 10
6264.920832966641
 20
1913.598631727652
 30
0.0
 11
6264.920832966641
 21
981.7584739330532
 31
0.0
  0
LINE
  5
B12
330
B04
100
AcDbEntity
  8
SUNPOU
 62
     0
440
 16777216
370
    -2
100
AcDbLine
 10
2324.92083296664
 20
1001.758473933053
 30
0.0
 11
6204.920832966641
 21
1001.758473933053
 31
0.0
  0
SOLID
  5
B13
330
B04
100
AcDbEntity
  8
SUNPOU
 62
     0
440
 16777216
100
AcDbTrace
 10
2324.92083296664
 20
1011.758473933053
 30
0.0
 11
2324.92083296664
 21
991.7584739330532
 31
0.0
 12
2264.92083296664
 22
1001.758473933053
 32
0.0
 13
2264.92083296664
 23
1001.758473933053
 33
0.0
  0
SOLID
  5
B14
330
B04
100
AcDbEntity
  8
SUNPOU
 62
     0
440
 16777216
100
AcDbTrace
 10
6204.920832966641
 20
1011.758473933053
 30
0.0
 11
6204.920832966641
 21
991.7584739330532
 31
0.0
 12
6264.920832966641
 22
1001.758473933053
 32
0.0
 13
6264.920832966641
 23
1001.758473933053
 33
0.0
  0
MTEXT
  5
B15
330
B04
100
AcDbEntity
  8
SUNPOU
 62
     0
440
 16777216
100
AcDbMText
 10
4264.92083296664
 20
1091.758473933053
 30
0.0
 40
90.0
 41
0.0
 71
     5
 72
     1
  1
\A1;4000
  7
A
 73
     1
 44
1.0
  0
POINT
  5
B16
330
B04
100
AcDbEntity
  8
DEFPOINTS
 62
     0
440
 16777216
100
AcDbPoint
 10
2264.92083296664
 20
1953.598631727652
 30
0.0
  0
POINT
  5
B17
330
B04
100
AcDbEntity
  8
DEFPOINTS
 62
     0
440
 16777216
100
AcDbPoint
 10
6264.920832966641
 20
1953.598631727652
 30
0.0
  0
POINT
  5
B18
330
B04
100
AcDbEntity
  8
DEFPOINTS
 62
     0
440
 16777216
100
AcDbPoint
 10
6264.920832966641
 20
1001.758473933053
 30
0.0
  0
ENDBLK
  5
B06
330
B04
100
AcDbEntity
  8
0
100
AcDbBlockEnd
  0
BLOCK
  5
B1B
330
B1A
100
AcDbEntity
  8
0
100
AcDbBlockBegin
  2
*D131
 70
     1
 10
0.0
 20
0.0
 30
0.0
  3
*D131
  1

  0
LINE
  5
B1D
330
B1A
100
AcDbEntity
  8
SUNPOU
 62
     0
440
 16777216
370
    -2
100
AcDbLine
 10
6304.920832966641
 20
1953.598631727652
 30
0.0
 11
7555.129423456055
 21
1953.598631727652
 31
0.0
  0
LINE
  5
B1E
330
B1A
100
AcDbEntity
  8
SUNPOU
 62
     0
440
 16777216
370
    -2
100
AcDbLine
 10
6304.920832966641
 20
4653.598631727652
 30
0.0
 11
7555.129423456056
 21
4653.598631727652
 31
0.0
  0
LINE
  5
B1F
330
B1A
100
AcDbEntity
  8
SUNPOU
 62
     0
440
 16777216
370
    -2
100
AcDbLine
 10
7535.129423456055
 20
2013.598631727652
 30
0.0
 11
7535.129423456056
 21
4593.598631727652
 31
0.0
  0
SOLID
  5
B20
330
B1A
100
AcDbEntity
  8
SUNPOU
 62
     0
440
 16777216
100
AcDbTrace
 10
7525.129423456055
 20
2013.598631727652
 30
0.0
 11
7545.129423456055
 21
2013.598631727652
 31
0.0
 12
7535.129423456055
 22
1953.598631727652
 32
0.0
 13
7535.129423456055
 23
1953.598631727652
 33
0.0
  0
SOLID
  5
B21
330
B1A
100
AcDbEntity
  8
SUNPOU
 62
     0
440
 16777216
100
AcDbTrace
 10
7525.129423456056
 20
4593.598631727652
 30
0.0
 11
7545.129423456056
 21
4593.598631727652
 31
0.0
 12
7535.129423456056
 22
4653.598631727652
 32
0.0
 13
7535.129423456056
 23
4653.598631727652
 33
0.0
  0
MTEXT
  5
B22
330
B1A
100
AcDbEntity
  8
SUNPOU
 62
     0
440
 16777216
100
AcDbMText
 10
7445.129423456055
 20
3303.598631727653
 30
0.0
 40
90.0
 41
0.0
 71
     5
 72
     1
  1
\A1;2700
  7
A
 11
6.123031769111886E-17
 21
1.0
 31
0.0
 73
     1
 44
1.0
  0
POINT
  5
B23
330
B1A
100
AcDbEntity
  8
DEFPOINTS
 62
     0
440
 16777216
100
AcDbPoint
 10
6264.920832966641
 20
1953.598631727652
 30
0.0
  0
POINT
  5
B24
330
B1A
100
AcDbEntity
  8
DEFPOINTS
 62
     0
440
 16777216
100
AcDbPoint
 10
6264.920832966641
 20
4653.598631727652
 30
0.0
  0
POINT
  5
B25
330
B1A
100
AcDbEntity
  8
DEFPOINTS
 62
     0
440
 16777216
100
AcDbPoint
 10
7535.129423456056
 20
4653.598631727652
 30
0.0
  0
ENDBLK
  5
B1C
330
B1A
100
AcDbEntity
  8
0
100
AcDbBlockEnd
  0
ENDSEC
  0
SECTION
  2
ENTITIES
  0
TEXT
  5
6B1
330
17
100
AcDbEntity
  8
SUNPOU
100
AcDbText
 10
15436.14140141127
 20
-145.2176364853967
 30
0.0
 40
75.0
  1
新和コンクリート工業株式会社
  7
NIHONGO
100
AcDbText
  0
TEXT
  5
6B2
330
17
100
AcDbEntity
  8
SUNPOU
100
AcDbText
 10
16078.64140141127
 20
42.28236351460328
 30
0.0
 40
75.0
  1
製図
  7
NIHONGO
 72
     4
 11
16156.14140141127
 21
79.78236351460328
 31
0.0
100
AcDbText
  0
TEXT
  5
6B3
330
17
100
AcDbEntity
  8
SUNPOU
100
AcDbText
 10
16076.14140141127
 20
192.2823635146034
 30
0.0
 40
75.0
  1
設計
  7
NIHONGO
 72
     4
 11
16156.14140141127
 21
229.7823635146034
 31
0.0
100
AcDbText
  0
TEXT
  5
6B4
330
17
100
AcDbEntity
  8
SUNPOU
100
AcDbText
 10
15408.64140141127
 20
42.2823635146037
 30
0.0
 40
75.0
  1
認
  7
NIHONGO
 72
     4
 11
15443.64140141127
 21
79.7823635146037
 31
0.0
100
AcDbText
  0
TEXT
  5
6B5
330
17
100
AcDbEntity
  8
SUNPOU
100
AcDbText
 10
15408.64140141127
 20
194.7823635146042
 30
0.0
 40
75.0
  1
承
  7
NIHONGO
 72
     4
 11
15443.64140141127
 21
229.7823635146042
 31
0.0
100
AcDbText
  0
TEXT
  5
6B6
330
17
100
AcDbEntity
  8
SUNPOU
100
AcDbText
 10
14618.64140141127
 20
207.2823635146035
 30
0.0
 40
75.0
  1
図　面　番　号
  7
NIHONGO
 72
     4
 11
14926.14140141127
 21
244.7823635146035
 31
0.0
100
AcDbText
  0
TEXT
  5
6B7
330
17
100
AcDbEntity
  8
SUNPOU
100
AcDbText
 10
16096.14140141127
 20
364.7823635146034
 30
0.0
 40
75.0
  1
１／
  7
NIHONGO
100
AcDbText
  0
TEXT
  5
6B8
330
17
100
AcDbEntity
  8
SUNPOU
100
AcDbText
 10
15656.14140141127
 20
342.2823635146035
 30
0.0
 40
75.0
  1
縮　　尺
  7
NIHONGO
 72
     4
 11
15826.14140141127
 21
379.7823635146035
 31
0.0
100
AcDbText
  0
TEXT
  5
6B9
330
17
100
AcDbEntity
  8
SUNPOU
100
AcDbText
 10
15656.14140141127
 20
492.2823635146032
 30
0.0
 40
75.0
  1
鉄 筋 量
  7
NIHONGO
 72
     4
 11
15826.14140141127
 21
529.7823635146032
 31
0.0
100
AcDbText
  0
TEXT
  5
6BA
330
17
100
AcDbEntity
  8
SUNPOU
100
AcDbText
 10
15656.14140141127
 20
642.2823635146033
 30
0.0
 40
75.0
  1
製 造 数
  7
NIHONGO
 72
     4
 11
15826.14140141127
 21
679.7823635146033
 31
0.0
100
AcDbText
  0
TEXT
  5
6BB
330
17
100
AcDbEntity
  8
SUNPOU
100
AcDbText
 10
16546.14140141127
 20
484.7823635146032
 30
0.0
 40
75.0
  1
ｋｇ
  7
NIHONGO
 72
     2
 11
16696.14140141127
 21
484.7823635146032
 31
0.0
100
AcDbText
  0
TEXT
  5
6BC
330
17
100
AcDbEntity
  8
SUNPOU
100
AcDbText
 10
15421.14140141127
 20
484.7823635146032
 30
0.0
 40
75.0
  1
ｋｇ
  7
NIHONGO
 72
     2
 11
15571.14140141127
 21
484.7823635146032
 31
0.0
100
AcDbText
  0
TEXT
  5
6BD
330
17
100
AcDbEntity
  8
SUNPOU
100
AcDbText
 10
14536.14140141127
 20
342.2823635146035
 30
0.0
 40
75.0
  1
年 月 日
  7
NIHONGO
 72
     4
 11
14701.14140141127
 21
379.7823635146035
 31
0.0
100
AcDbText
  0
TEXT
  5
6BE
330
17
100
AcDbEntity
  8
SUNPOU
100
AcDbText
 10
14531.14140141127
 20
492.2823635146032
 30
0.0
 40
75.0
  1
製品質量
  7
NIHONGO
 72
     4
 11
14701.14140141127
 21
529.7823635146032
 31
0.0
100
AcDbText
  0
TEXT
  5
6BF
330
17
100
AcDbEntity
  8
SUNPOU
100
AcDbText
 10
14533.64140141127
 20
642.2823635146033
 30
0.0
 40
75.0
  1
業 者 名
  7
NIHONGO
 72
     4
 11
14701.14140141127
 21
679.7823635146033
 31
0.0
100
AcDbText
  0
TEXT
  5
6C0
330
17
100
AcDbEntity
  8
SUNPOU
100
AcDbText
 10
14531.14140141127
 20
829.7823635146033
 30
0.0
 40
75.0
  1
名　　称
  7
NIHONGO
 72
     4
 11
14701.14140141127
 21
867.2823635146033
 31
0.0
100
AcDbText
  0
LINE
  5
6C1
330
17
100
AcDbEntity
  8
SUNPOU
100
AcDbLine
 10
15376.14140141127
 20
184.782363514604
 30
0.0
 11
14476.14140141127
 21
184.782363514604
 31
0.0
  0
LINE
  5
6C2
330
17
100
AcDbEntity
  8
SUNPOU
100
AcDbLine
 10
16261.14140141127
 20
4.782363514602594
 30
0.0
 11
16261.14140141127
 21
304.7823635146033
 31
0.0
  0
LINE
  5
6C3
330
17
100
AcDbEntity
  8
SUNPOU
100
AcDbLine
 10
16051.14140141127
 20
4.782363514602594
 30
0.0
 11
16051.14140141127
 21
304.7823635146033
 31
0.0
  0
LINE
  5
6C4
330
17
100
AcDbEntity
  8
SUNPOU
100
AcDbLine
 10
15511.14140141127
 20
4.782363514603276
 30
0.0
 11
15511.14140141127
 21
304.7823635146033
 31
0.0
  0
LINE
  5
6C5
330
17
100
AcDbEntity
  8
SUNPOU
100
AcDbLine
 10
15376.14140141127
 20
4.782363514603276
 30
0.0
 11
15376.14140141127
 21
304.7823635146033
 31
0.0
  0
LINE
  5
6C6
330
17
100
AcDbEntity
  8
SUNPOU
100
AcDbLine
 10
14926.14140141127
 20
304.7823635146033
 30
0.0
 11
14926.14140141127
 21
979.7823635146033
 31
0.0
  0
LINE
  5
6C7
330
17
100
AcDbEntity
  8
SUNPOU
100
AcDbLine
 10
16051.14140141127
 20
304.7823635146033
 30
0.0
 11
16051.14140141127
 21
754.7823635146033
 31
0.0
  0
LINE
  5
6C8
330
17
100
AcDbEntity
  8
SUNPOU
100
AcDbLine
 10
15601.14140141127
 20
304.7823635146033
 30
0.0
 11
15601.14140141127
 21
754.7823635146033
 31
0.0
  0
LINE
  5
6C9
330
17
100
AcDbEntity
  8
SUNPOU
100
AcDbLine
 10
16726.14140141127
 20
754.7823635146033
 30
0.0
 11
14476.14140141127
 21
754.7823635146033
 31
0.0
  0
LINE
  5
6CA
330
17
100
AcDbEntity
  8
SUNPOU
100
AcDbLine
 10
16726.14140141127
 20
604.7823635146033
 30
0.0
 11
14476.14140141127
 21
604.7823635146033
 31
0.0
  0
LINE
  5
6CB
330
17
100
AcDbEntity
  8
SUNPOU
100
AcDbLine
 10
16726.14140141127
 20
454.7823635146033
 30
0.0
 11
14476.14140141127
 21
454.7823635146033
 31
0.0
  0
LINE
  5
6CC
330
17
100
AcDbEntity
  8
SUNPOU
100
AcDbLine
 10
16726.14140141127
 20
304.7823635146033
 30
0.0
 11
14476.14140141127
 21
304.7823635146046
 31
0.0
  0
LINE
  5
6CD
330
17
100
AcDbEntity
  8
HAIKIN
100
AcDbLine
 10
14476.14140141127
 20
979.7823635146033
 30
0.0
 11
16726.14140141127
 21
979.7823635146033
 31
0.0
  0
LINE
  5
6CE
330
17
100
AcDbEntity
  8
HAIKIN
100
AcDbLine
 10
14476.14140141127
 20
4.782363514603958
 30
0.0
 11
14476.14140141127
 21
979.7823635146033
 31
0.0
  0
TEXT
  5
6CF
330
17
100
AcDbEntity
  8
SUNPOU
100
AcDbText
 10
16276.14140141127
 20
334.7823635146033
 30
0.0
 40
90.0
  1
30
  7
A
100
AcDbText
  0
TEXT
  5
6D1
330
17
100
AcDbEntity
  8
SUNPOU
100
AcDbText
 10
14980.80160808586
 20
790.5706531863739
 30
0.0
 40
120.0
  1
デザインウォールコーナー  H=4000
 41
0.6805363586749389
  7
A
 72
     5
 11
16676.69821390381
 21
790.5706531863739
 31
0.0
100
AcDbText
  0
TEXT
  5
6D3
330
17
100
AcDbEntity
  8
SUNPOU
100
AcDbText
 10
8483.290085810027
 20
3977.040928626652
 30
0.0
 40
60.0
  1
        
  7
A
100
AcDbText
  0
TEXT
  5
6D4
330
17
100
AcDbEntity
  8
SUNPOU
100
AcDbText
 10
8179.290085810027
 20
3964.945264685842
 30
0.0
 40
60.0
  1
      
  7
A
100
AcDbText
  0
TEXT
  5
6D5
330
17
100
AcDbEntity
  8
SUNPOU
100
AcDbText
 10
2451.856152230769
 20
3880.638544059962
 30
0.0
 40
60.0
  1
        
  7
A
100
AcDbText
  0
TEXT
  5
6D6
330
17
100
AcDbEntity
  8
SUNPOU
100
AcDbText
 10
2633.180408178521
 20
3880.638544059962
 30
0.0
 40
60.0
  1
        
  7
A
100
AcDbText
  0
TEXT
  5
6D7
330
17
100
AcDbEntity
  8
SUNPOU
100
AcDbText
 10
6061.770217380291
 20
3834.556802440616
 30
0.0
 40
60.0
  1
   
  7
A
100
AcDbText
  0
TEXT
  5
6D8
330
17
100
AcDbEntity
  8
SUNPOU
100
AcDbText
 10
5745.082194249918
 20
4001.545985117913
 30
0.0
 40
60.0
  1
     
  7
A
100
AcDbText
  0
TEXT
  5
6D9
330
17
100
AcDbEntity
  8
SUNPOU
100
AcDbText
 10
2734.670711343414
 20
3880.63854405996
 30
0.0
 40
60.0
  1
    
  7
A
100
AcDbText
  0
TEXT
  5
6DA
330
17
100
AcDbEntity
  8
SUNPOU
100
AcDbText
 10
2824.062725563335
 20
3880.63854405996
 30
0.0
 40
60.0
  1
    
  7
A
100
AcDbText
  0
TEXT
  5
6DB
330
17
100
AcDbEntity
  8
SUNPOU
100
AcDbText
 10
2114.468887493882
 20
4119.795362913077
 30
0.0
 40
60.0
  1
   
  7
A
100
AcDbText
  0
TEXT
  5
6DC
330
17
100
AcDbEntity
  8
SUNPOU
100
AcDbText
 10
2617.049640001411
 20
3880.63854405996
 30
0.0
 40
60.0
  1
    
  7
A
100
AcDbText
  0
TEXT
  5
6DD
330
17
100
AcDbEntity
  8
SUNPOU
100
AcDbText
 10
2894.832954375092
 20
3396.108236114574
 30
0.0
 40
60.0
  1
    
  7
A
100
AcDbText
  0
TEXT
  5
6DE
330
17
100
AcDbEntity
  8
SUNPOU
100
AcDbText
 10
2820.075858805928
 20
4155.631763183543
 30
0.0
 40
60.0
  1
    
  7
A
100
AcDbText
  0
TEXT
  5
6DF
330
17
100
AcDbEntity
  8
SUNPOU
100
AcDbText
 10
3221.06147140403
 20
4046.76911207157
 30
0.0
 40
60.0
  1
    
  7
A
100
AcDbText
  0
TEXT
  5
6E0
330
17
100
AcDbEntity
  8
SUNPOU
100
AcDbText
 10
2235.399243958018
 20
4133.985127297313
 30
0.0
 40
60.0
  1
    
  7
A
100
AcDbText
  0
TEXT
  5
6E1
330
17
100
AcDbEntity
  8
SUNPOU
100
AcDbText
 10
2745.527423258528
 20
4082.252141712426
 30
0.0
 40
60.0
  1
   
  7
A
100
AcDbText
  0
TEXT
  5
6E2
330
17
100
AcDbEntity
  8
SUNPOU
100
AcDbText
 10
2235.399243958018
 20
4069.921404744181
 30
0.0
 40
60.0
  1
    
  7
A
100
AcDbText
  0
TEXT
  5
6E3
330
17
100
AcDbEntity
  8
SUNPOU
100
AcDbText
 10
3486.777349761856
 20
3899.113594070004
 30
0.0
 40
60.0
  1
   
  7
A
100
AcDbText
  0
TEXT
  5
6E4
330
17
100
AcDbEntity
  8
SUNPOU
100
AcDbText
 10
2948.239675030827
 20
5060.89769486348
 30
0.0
 40
60.0
  1
   
  7
A
100
AcDbText
  0
TEXT
  5
6E5
330
17
100
AcDbEntity
  8
SUNPOU
100
AcDbText
 10
2936.794013595641
 20
3974.143023889141
 30
0.0
 40
60.0
  1
   
  7
A
100
AcDbText
  0
TEXT
  5
6E6
330
17
100
AcDbEntity
  8
SUNPOU
100
AcDbText
 10
7282.681355339049
 20
3663.752965077905
 30
0.0
 40
60.0
  1
   
  7
A
100
AcDbText
  0
TEXT
  5
6E7
330
17
100
AcDbEntity
  8
SUNPOU
100
AcDbText
 10
8825.500345753597
 20
3618.119712766431
 30
0.0
 40
60.0
  1
    
  7
A
100
AcDbText
  0
TEXT
  5
6E8
330
17
100
AcDbEntity
  8
SUNPOU
100
AcDbText
 10
8825.500345753597
 20
3618.119712766431
 30
0.0
 40
60.0
  1
    
  7
A
100
AcDbText
  0
TEXT
  5
762
330
17
100
AcDbEntity
  8
SUNPOU
100
AcDbText
 10
3524.644095239569
 20
2212.364667320421
 30
0.0
 40
60.0
  1
    
  7
A
100
AcDbText
  0
TEXT
  5
763
330
17
100
AcDbEntity
  8
SUNPOU
100
AcDbText
 10
3244.234773003313
 20
2345.418627070887
 30
0.0
 40
60.0
  1
   
  7
A
100
AcDbText
  0
TEXT
  5
764
330
17
100
AcDbEntity
  8
SUNPOU
100
AcDbText
 10
1610.152116053044
 20
5526.131554257222
 30
0.0
 40
60.0
  1
    
  7
A
100
AcDbText
  0
TEXT
  5
766
330
17
100
AcDbEntity
  8
SUNPOU
100
AcDbText
 10
1165.300105875949
 20
3259.493618294126
 30
0.0
 40
60.0
  1
    
  7
A
100
AcDbText
  0
TEXT
  5
767
330
17
100
AcDbEntity
  8
SUNPOU
100
AcDbText
 10
7475.274507950128
 20
4996.571921573919
 30
0.0
 40
60.0
  1
    
  7
A
100
AcDbText
  0
TEXT
  5
768
330
17
100
AcDbEntity
  8
SUNPOU
100
AcDbText
 10
8645.664251573786
 20
4873.105453288689
 30
0.0
 40
60.0
  1
    
  7
A
100
AcDbText
  0
TEXT
  5
769
330
17
100
AcDbEntity
  8
SUNPOU
100
AcDbText
 10
7779.594080032308
 20
5102.413972192978
 30
0.0
 40
60.0
  1
    
  7
A
100
AcDbText
  0
TEXT
  5
76A
330
17
100
AcDbEntity
  8
SUNPOU
100
AcDbText
 10
7661.665182711498
 20
5079.483262906463
 30
0.0
 40
60.0
  1
    
  7
A
100
AcDbText
  0
TEXT
  5
76B
330
17
100
AcDbEntity
  8
SUNPOU
100
AcDbText
 10
7746.373465061
 20
5143.186570113712
 30
0.0
 40
60.0
  1
   
  7
A
100
AcDbText
  0
LINE
  5
76C
330
17
100
AcDbEntity
  8
SEIHIN
100
AcDbLine
 10
2264.920832966642
 20
1953.953045484133
 30
0.0
 11
2264.920832966642
 21
2023.953045484133
 31
0.0
  0
DIMENSION
  5
773
330
17
100
AcDbEntity
  8
SUNPOU
100
AcDbDimension
  2
*D130
 10
6264.920832966641
 20
1001.758473933053
 30
0.0
 11
4264.92083296664
 21
1091.758473933053
 31
0.0
 70
    32
  1
4000
 71
     5
 42
4000.000000000001
  3
STANDARD
100
AcDbAlignedDimension
 13
2264.92083296664
 23
1953.598631727652
 33
0.0
 14
6264.920832966641
 24
1953.598631727652
 34
0.0
100
AcDbRotatedDimension
1001
ACAD
1000
DSTYLE
1002
{
1070
    41
1040
60.0
1070
    42
1040
40.0
1070
    43
1040
140.0
1070
    44
1040
20.0
1070
    73
1070
     0
1070
    74
1070
     0
1070
   140
1040
90.0
1070
   145
1040
1.0
1070
   172
1070
     1
1070
   271
1070
     0
1070
   272
1070
     0
1070
   275
1070
     1
1070
   279
1070
     2
1070
   340
1005
9E
1002
}
  0
LINE
  5
775
330
17
100
AcDbEntity
  8
HASEN
100
AcDbLine
 10
3457.681431673392
 20
1999.992486969101
 30
0.0
 11
3451.419348761875
 21
2098.794239573036
 31
0.0
  0
LINE
  5
776
330
17
100
AcDbEntity
  8
HASEN
100
AcDbLine
 10
3477.641381694389
 20
2001.257554223952
 30
0.0
 11
3471.379298782872
 21
2100.059306827889
 31
0.0
  0
LINE
  5
777
330
17
100
AcDbEntity
  8
SUNPOU
100
AcDbLine
 10
3442.388174192516
 20
2083.191743429862
 30
0.0
 11
3441.439373751378
 21
2098.16170594561
 31
0.0
  0
LINE
  5
778
330
17
100
AcDbEntity
  8
SUNPOU
100
AcDbLine
 10
3482.308074234508
 20
2085.721877939566
 30
0.0
 11
3481.35927379337
 21
2100.691840455314
 31
0.0
  0
LINE
  5
779
330
17
100
AcDbEntity
  8
SEIHIN
100
AcDbLine
 10
3404.637393793786
 20
2123.953045484133
 30
0.0
 11
3417.521207285975
 21
2070.712250642174
 31
0.0
  0
LINE
  5
77A
330
17
100
AcDbEntity
  8
SEIHIN
100
AcDbLine
 10
3514.858110663601
 20
2123.953045484133
 30
0.0
 11
3508.848588379886
 21
2076.506434941184
 31
0.0
  0
LINE
  5
77B
330
17
100
AcDbEntity
  8
SEIHIN
100
AcDbLine
 10
3457.681431673392
 20
1999.992486969101
 30
0.0
 11
3477.641381694389
 21
2001.257554223952
 31
0.0
  0
LINE
  5
77C
330
17
100
AcDbEntity
  8
SUNPOU
100
AcDbLine
 10
3432.408199182016
 20
2082.559209802436
 30
0.0
 11
3492.288049245009
 21
2086.354411566992
 31
0.0
  0
LINE
  5
77D
330
17
100
AcDbEntity
  8
SUNPOU
100
AcDbLine
 10
3441.439373751378
 20
2098.16170594561
 30
0.0
 11
3481.35927379337
 21
2100.691840455314
 31
0.0
  0
LINE
  5
77E
330
17
100
AcDbEntity
  8
SUNPOU
100
AcDbLine
 10
3432.977479446701
 20
2073.577232292988
 30
0.0
 11
3432.408199182016
 21
2082.559209802436
 31
0.0
  0
LINE
  5
77F
330
17
100
AcDbEntity
  8
SUNPOU
100
AcDbLine
 10
3492.857329509692
 20
2077.372434057544
 30
0.0
 11
3492.288049245009
 21
2086.354411566992
 31
0.0
  0
DIMENSION
  5
780
330
17
100
AcDbEntity
  8
SUNPOU
100
AcDbDimension
  2
*D5
 10
7234.512746040807
 20
1953.953045484133
 30
0.0
 11
7144.512746040807
 21
2453.953045484133
 31
0.0
 12
-406.2678889889503
 22
0.0
 32
0.0
  1
1000
 71
     5
 42
-1.0
100
AcDbAlignedDimension
 13
6264.920832966643
 23
2953.953045484133
 33
0.0
 14
6264.920832966643
 24
1953.953045484133
 34
0.0
 50
90.0
100
AcDbRotatedDimension
1001
ACAD_DSTYLE_DIMARC_LENGTH_SYMBOL
1070
   379
1070
     0
1001
ACAD_DSTYLE_DIMJOGGED_JOGANGLE_SYMBOL
1070
   384
1040
0.7853981633974483
1001
ACAD_DSTYLE_DIMTEXT_FILL
1070
   376
1070
     0
1001
ACAD_DSTYLE_DIMEXT_ENABLED
1070
   383
1070
     0
1001
ACAD_DSTYLE_DIMEXT_LENGTH
1070
   378
1040
1.0
1001
ACAD_DSTYLE_DIM_LINETYPE
1070
   380
1005
0
1001
ACAD_DSTYLE_DIM_EXT1_LINETYPE
1070
   381
1005
0
1001
ACAD_DSTYLE_DIM_EXT2_LINETYPE
1070
   382
1005
0
  0
LINE
  5
784
330
17
100
AcDbEntity
  8
HASEN
100
AcDbLine
 10
5259.684860161837
 20
2113.549090652773
 30
0.0
 11
5253.422777250321
 21
2212.350843256708
 31
0.0
  0
LINE
  5
785
330
17
100
AcDbEntity
  8
SUNPOU
100
AcDbLine
 10
5244.391602680962
 20
2196.748347113535
 30
0.0
 11
5243.442802239822
 21
2211.718309629282
 31
0.0
  0
LINE
  5
786
330
17
100
AcDbEntity
  8
HASEN
100
AcDbLine
 10
5279.644810182834
 20
2114.814157907624
 30
0.0
 11
5273.382727271317
 21
2213.61591051156
 31
0.0
  0
LINE
  5
787
330
17
100
AcDbEntity
  8
SUNPOU
100
AcDbLine
 10
5284.311502722954
 20
2199.278481623238
 30
0.0
 11
5283.362702281815
 21
2214.248444138986
 31
0.0
  0
LINE
  5
788
330
17
100
AcDbEntity
  8
SUNPOU
100
AcDbLine
 10
5234.980907935146
 20
2187.13383597666
 30
0.0
 11
5234.411627670464
 21
2196.115813486108
 31
0.0
  0
LINE
  5
789
330
17
100
AcDbEntity
  8
SUNPOU
100
AcDbLine
 10
5294.860757998136
 20
2190.929037741215
 30
0.0
 11
5294.291477733453
 21
2199.911015250664
 31
0.0
  0
LINE
  5
78A
330
17
100
AcDbEntity
  8
HASEN
100
AcDbLine
 10
5259.684860161837
 20
2113.549090652773
 30
0.0
 11
5279.644810182834
 21
2114.814157907624
 31
0.0
  0
LINE
  5
78B
330
17
100
AcDbEntity
  8
SUNPOU
100
AcDbLine
 10
5234.411627670464
 20
2196.115813486108
 30
0.0
 11
5294.291477733454
 21
2199.911015250664
 31
0.0
  0
LINE
  5
78C
330
17
100
AcDbEntity
  8
SUNPOU
100
AcDbLine
 10
5243.442802239822
 20
2211.718309629282
 30
0.0
 11
5283.362702281816
 21
2214.248444138986
 31
0.0
  0
LINE
  5
78F
330
17
100
AcDbEntity
  8
SUNPOU
100
AcDbLine
 10
6012.62407412651
 20
2664.683396128845
 30
0.0
 11
5997.678602222461
 21
2665.961233976641
 31
0.0
  0
LINE
  5
790
330
17
100
AcDbEntity
  8
SUNPOU
100
AcDbLine
 10
6013.475966025041
 20
2674.647044064878
 30
0.0
 11
5998.530494120992
 21
2675.924881912674
 31
0.0
  0
LINE
  5
791
330
17
100
AcDbEntity
  8
SUNPOU
100
AcDbLine
 10
6023.295141066002
 20
2683.843989292233
 30
0.0
 11
6014.327857923572
 21
2684.610692000911
 31
0.0
  0
LINE
  5
792
330
17
100
AcDbEntity
  8
SUNPOU
100
AcDbLine
 10
6010.920290329448
 20
2644.756100256778
 30
0.0
 11
5995.974818425399
 21
2646.033938104574
 31
0.0
  0
LINE
  5
793
330
17
100
AcDbEntity
  8
SUNPOU
100
AcDbLine
 10
6010.068398430918
 20
2634.792452320745
 30
0.0
 11
5995.122926526868
 21
2636.070290168541
 31
0.0
  0
LINE
  5
794
330
17
100
AcDbEntity
  8
SUNPOU
100
AcDbLine
 10
6018.183789674816
 20
2624.062101676033
 30
0.0
 11
6009.216506532387
 21
2624.828804384711
 31
0.0
  0
LINE
  5
795
330
17
100
AcDbEntity
  8
HASEN
100
AcDbLine
 10
6021.591357268941
 20
2663.916693420167
 30
0.0
 11
6096.318716789188
 21
2657.527504181186
 31
0.0
  0
LINE
  5
796
330
17
100
AcDbEntity
  8
HASEN
100
AcDbLine
 10
6019.887573471879
 20
2643.9893975481
 30
0.0
 11
6094.614932992126
 21
2637.600208309119
 31
0.0
  0
LINE
  5
797
330
17
100
AcDbEntity
  8
SEIHIN
100
AcDbLine
 10
5984.920832966642
 20
2715.008323797601
 30
0.0
 11
6025.656892309073
 21
2702.993833287676
 31
0.0
  0
LINE
  5
798
330
17
100
AcDbEntity
  8
SEIHIN
100
AcDbLine
 10
5984.920832966642
 20
2604.606992170667
 30
0.0
 11
6017.531300609207
 21
2609.36391877654
 31
0.0
  0
LINE
  5
799
330
17
100
AcDbEntity
  8
HASEN
100
AcDbLine
 10
6096.318716789188
 20
2657.527504181186
 30
0.0
 11
6094.614932992126
 21
2637.600208309119
 31
0.0
  0
LINE
  5
79A
330
17
100
AcDbEntity
  8
SUNPOU
100
AcDbLine
 10
6014.327857923572
 20
2684.610692000911
 30
0.0
 11
6009.216506532387
 21
2624.828804384711
 31
0.0
  0
LINE
  5
79B
330
17
100
AcDbEntity
  8
SUNPOU
100
AcDbLine
 10
5998.530494120991
 20
2675.924881912674
 30
0.0
 11
5995.122926526868
 21
2636.070290168541
 31
0.0
  0
LINE
  5
7B0
330
17
100
AcDbEntity
  8
SEIHIN
100
AcDbLine
 10
6264.920832966644
 20
7158.059141917518
 30
0.0
 11
6264.920832966644
 21
10158.05914191752
 31
0.0
  0
LINE
  5
7B1
330
17
100
AcDbEntity
  8
SEIHIN
100
AcDbLine
 10
2264.920832966642
 20
7158.059141917517
 30
0.0
 11
2264.920832966642
 21
10158.05914191752
 31
0.0
  0
LINE
  5
7B2
330
17
100
AcDbEntity
  8
SEIHIN
100
AcDbLine
 10
6264.920832966644
 20
10158.05914191752
 30
0.0
 11
2264.920832966642
 21
10158.05914191752
 31
0.0
  0
LINE
  5
7B3
330
17
100
AcDbEntity
  8
SEIHIN
100
AcDbLine
 10
6264.920832966644
 20
8158.059141917518
 30
0.0
 11
2264.920832966642
 21
8158.059141917518
 31
0.0
  0
LINE
  5
7B4
330
17
100
AcDbEntity
  8
SEIHIN
100
AcDbLine
 10
6264.920832966644
 20
7158.059141917518
 30
0.0
 11
2264.920832966642
 21
7158.059141917518
 31
0.0
  0
LINE
  5
7B5
330
17
100
AcDbEntity
  8
SEIHIN
100
AcDbLine
 10
2314.920832966642
 20
7327.598631727652
 30
0.0
 11
4251.120832966642
 21
7327.598631727652
 31
0.0
  0
LINE
  5
7B6
330
17
100
AcDbEntity
  8
SEIHIN
100
AcDbLine
 10
2314.920832966642
 20
7227.598631727652
 30
0.0
 11
2314.920832966642
 21
8158.059141917518
 31
0.0
  0
LINE
  5
7B7
330
17
100
AcDbEntity
  8
SEIHIN
100
AcDbLine
 10
2264.920832966642
 20
7157.598631727652
 30
0.0
 11
6264.920832966642
 21
7157.598631727652
 31
0.0
  0
LINE
  5
7B8
330
17
100
AcDbEntity
  8
SEIHIN
100
AcDbLine
 10
2264.920832966642
 20
7227.598631727652
 30
0.0
 11
2314.920832966642
 21
7227.598631727652
 31
0.0
  0
LINE
  5
7B9
330
17
100
AcDbEntity
  8
SEIHIN
100
AcDbLine
 10
6264.920832966642
 20
7157.598631727652
 30
0.0
 11
6264.920832966642
 21
8157.598631727651
 31
0.0
  0
LINE
  5
7BA
330
17
100
AcDbEntity
  8
SEIHIN
100
AcDbLine
 10
5984.920832966643
 20
7737.598631727654
 30
0.0
 11
5984.920832966643
 21
8158.059141917518
 31
0.0
  0
DIMENSION
  5
7BB
330
17
100
AcDbEntity
  8
SUNPOU
100
AcDbDimension
  2
*D120
 10
6264.920832966642
 20
5665.61982058911
 30
0.0
 11
4264.920832966642
 21
5755.61982058911
 31
0.0
 71
     5
 42
-1.0
100
AcDbAlignedDimension
 13
2264.920832966642
 23
7158.059141917518
 33
0.0
 14
6264.920832966642
 24
7157.598631727652
 34
0.0
100
AcDbRotatedDimension
1001
ACAD_DSTYLE_DIMARC_LENGTH_SYMBOL
1070
   379
1070
     0
1001
ACAD_DSTYLE_DIMJOGGED_JOGANGLE_SYMBOL
1070
   384
1040
0.7853981633974483
1001
ACAD_DSTYLE_DIMTEXT_FILL
1070
   376
1070
     0
1001
ACAD_DSTYLE_DIMEXT_ENABLED
1070
   383
1070
     0
1001
ACAD_DSTYLE_DIMEXT_LENGTH
1070
   378
1040
1.0
1001
ACAD_DSTYLE_DIM_LINETYPE
1070
   380
1005
0
1001
ACAD_DSTYLE_DIM_EXT1_LINETYPE
1070
   381
1005
0
1001
ACAD_DSTYLE_DIM_EXT2_LINETYPE
1070
   382
1005
0
  0
DIMENSION
  5
7C1
330
17
100
AcDbEntity
  8
SUNPOU
100
AcDbDimension
  2
*D45
 10
7838.577759270667
 20
8158.059141917518
 30
0.0
 11
7748.577759270668
 21
9158.059141917518
 31
0.0
 12
-406.2678889889503
 22
-578.3544137564804
 32
0.0
 71
     5
 42
-1.0
100
AcDbAlignedDimension
 13
6264.920832966644
 23
10158.05914191752
 33
0.0
 14
6264.920832966644
 24
8158.059141917518
 34
0.0
 50
90.0
100
AcDbRotatedDimension
1001
ACAD_DSTYLE_DIMARC_LENGTH_SYMBOL
1070
   379
1070
     0
1001
ACAD_DSTYLE_DIMJOGGED_JOGANGLE_SYMBOL
1070
   384
1040
0.7853981633974483
1001
ACAD_DSTYLE_DIMTEXT_FILL
1070
   376
1070
     0
1001
ACAD_DSTYLE_DIMEXT_ENABLED
1070
   383
1070
     0
1001
ACAD_DSTYLE_DIMEXT_LENGTH
1070
   378
1040
1.0
1001
ACAD_DSTYLE_DIM_LINETYPE
1070
   380
1005
0
1001
ACAD_DSTYLE_DIM_EXT1_LINETYPE
1070
   381
1005
0
1001
ACAD_DSTYLE_DIM_EXT2_LINETYPE
1070
   382
1005
0
  0
DIMENSION
  5
7C2
330
17
100
AcDbEntity
  8
SUNPOU
100
AcDbDimension
  2
*D46
 10
7838.577759270667
 20
7157.598631727651
 30
0.0
 11
7748.577759270668
 21
7657.828886822585
 31
0.0
 12
-406.2678889889503
 22
-578.3544137564804
 32
0.0
 71
     5
 42
-1.0
100
AcDbAlignedDimension
 13
7739.390429363204
 23
8158.059141917518
 33
0.0
 14
6264.920832966642
 24
7157.598631727652
 34
0.0
 50
90.0
100
AcDbRotatedDimension
1001
ACAD_DSTYLE_DIMARC_LENGTH_SYMBOL
1070
   379
1070
     0
1001
ACAD_DSTYLE_DIMJOGGED_JOGANGLE_SYMBOL
1070
   384
1040
0.7853981633974483
1001
ACAD_DSTYLE_DIMTEXT_FILL
1070
   376
1070
     0
1001
ACAD_DSTYLE_DIMEXT_ENABLED
1070
   383
1070
     0
1001
ACAD_DSTYLE_DIMEXT_LENGTH
1070
   378
1040
1.0
1001
ACAD_DSTYLE_DIM_LINETYPE
1070
   380
1005
0
1001
ACAD_DSTYLE_DIM_EXT1_LINETYPE
1070
   381
1005
0
1001
ACAD_DSTYLE_DIM_EXT2_LINETYPE
1070
   382
1005
0
  0
LINE
  5
7C6
330
17
100
AcDbEntity
  8
HAIKIN
100
AcDbLine
 10
14476.14140141127
 20
4.782363514603958
 30
0.0
 11
449.0329299351871
 21
4.782363514603958
 31
0.0
  0
LINE
  5
7C7
330
17
100
AcDbEntity
  8
HAIKIN
100
AcDbLine
 10
449.0329299351871
 20
4.782363514603958
 30
0.0
 11
449.0329299351871
 21
11593.23490938734
 31
0.0
  0
LINE
  5
7C8
330
17
100
AcDbEntity
  8
HAIKIN
100
AcDbLine
 10
449.0329299351871
 20
11593.23490938734
 30
0.0
 11
16721.13100996693
 21
11593.23490938734
 31
0.0
  0
LINE
  5
7C9
330
17
100
AcDbEntity
  8
HAIKIN
100
AcDbLine
 10
16721.13100996693
 20
11593.23490938734
 30
0.0
 11
16721.13100996693
 21
4.782363514603958
 31
0.0
  0
LINE
  5
7CA
330
17
100
AcDbEntity
  8
HAIKIN
100
AcDbLine
 10
14476.14140141127
 20
4.782363514603958
 30
0.0
 11
16721.13100996693
 21
4.782363514603958
 31
0.0
  0
LINE
  5
7CB
330
17
100
AcDbEntity
  8
SEIHIN
100
AcDbLine
 10
10434.51232522181
 20
7200.485548788709
 30
0.0
 11
10434.51232522181
 21
10158.05914191752
 31
0.0
  0
LINE
  5
7CC
330
17
100
AcDbEntity
  8
SEIHIN
100
AcDbLine
 10
10476.938732093
 20
7158.059141917517
 30
0.0
 11
13434.51232522181
 21
7158.059141917518
 31
0.0
  0
LINE
  5
7CD
330
17
100
AcDbEntity
  8
1HASEN
100
AcDbLine
 10
10434.51232522181
 20
8158.059141917518
 30
0.0
 11
11434.51232522181
 21
8158.059141917518
 31
0.0
  0
LINE
  5
7CE
330
17
100
AcDbEntity
  8
1HASEN
100
AcDbLine
 10
11434.51232522181
 20
7158.059141917518
 30
0.0
 11
11434.51232522181
 21
8158.059141917518
 31
0.0
  0
LINE
  5
7CF
330
17
100
AcDbEntity
  8
SEIHIN
100
AcDbLine
 10
10434.51232522181
 20
8158.059141917518
 30
0.0
 11
10700.51232522179
 21
8158.059141917518
 31
0.0
  0
LINE
  5
7D0
330
17
100
AcDbEntity
  8
SEIHIN
100
AcDbLine
 10
11417.79745203603
 20
8176.69960779107
 30
0.0
 11
10700.51232522181
 21
8158.059141917518
 31
0.0
  0
LINE
  5
7D1
330
17
100
AcDbEntity
  8
SEIHIN
100
AcDbLine
 10
11434.51232522181
 20
7158.059141917517
 30
0.0
 11
11434.51232522181
 21
7424.059141917457
 31
0.0
  0
LINE
  5
7D2
330
17
100
AcDbEntity
  8
SEIHIN
100
AcDbLine
 10
11453.15279109536
 20
8141.344268731742
 30
0.0
 11
11434.51232522181
 21
7424.059141917517
 31
0.0
  0
LINE
  5
7D3
330
17
100
AcDbEntity
  8
1HASEN
100
AcDbLine
 10
13078.77264957851
 20
9802.319466274217
 30
0.0
 11
11434.51232522181
 21
8158.059141917518
 31
0.0
  0
LINE
  5
7D4
330
17
100
AcDbEntity
  8
SEIHIN
100
AcDbLine
 10
13134.51232522181
 20
9893.41448097684
 30
0.0
 11
11416.83465569214
 21
8175.736811447181
 31
0.0
  0
LINE
  5
7D5
330
17
100
AcDbEntity
  8
SEIHIN
100
AcDbLine
 10
13169.86766428114
 20
9858.059141917518
 30
0.0
 11
11452.18999475147
 21
8140.381472387855
 31
0.0
  0
LINE
  5
7D6
330
17
100
AcDbEntity
  8
SEIHIN
100
AcDbLine
 10
11434.51232522181
 20
7738.059141917516
 30
0.0
 11
11434.51232522181
 21
7158.059141917518
 31
0.0
  0
LINE
  5
7D7
330
17
100
AcDbEntity
  8
SEIHIN
100
AcDbLine
 10
11014.51232522181
 20
8158.059141917518
 30
0.0
 11
10434.51232522181
 21
8158.059141917518
 31
0.0
  0
LINE
  5
7D8
330
17
100
AcDbEntity
  8
SEIHIN
100
AcDbLine
 10
10561.08086771673
 20
7228.059141917517
 30
0.0
 11
13434.51232522181
 21
7228.059141917518
 31
0.0
  0
LINE
  5
7D9
330
17
100
AcDbEntity
  8
SEIHIN
100
AcDbLine
 10
10504.51232522181
 20
7284.62768441244
 30
0.0
 11
10504.51232522181
 21
10158.05914191752
 31
0.0
  0
LINE
  5
7DA
330
17
100
AcDbEntity
  8
SEIHIN
100
AcDbLine
 10
11434.51232522181
 20
7408.059141917517
 30
0.0
 11
13434.51232522181
 21
7408.059141917518
 31
0.0
  0
LINE
  5
7DB
330
17
100
AcDbEntity
  8
SEIHIN
100
AcDbLine
 10
10684.51232522181
 20
8158.059141917518
 30
0.0
 11
10684.51232522181
 21
10158.05914191752
 31
0.0
  0
LINE
  5
7DC
330
17
100
AcDbEntity
  8
SEIHIN
100
AcDbLine
 10
11441.89278260226
 20
7708.059141917518
 30
0.0
 11
13434.51232522181
 21
7708.059141917518
 31
0.0
  0
LINE
  5
7DD
330
17
100
AcDbEntity
  8
SEIHIN
100
AcDbLine
 10
10984.51232522181
 20
8165.439599297977
 30
0.0
 11
10984.51232522181
 21
10158.05914191752
 31
0.0
  0
LINE
  5
7DE
330
17
100
AcDbEntity
  8
SEIHIN
100
AcDbLine
 10
10661.08086771673
 20
7328.059141917517
 30
0.0
 11
11434.51232522181
 21
7328.059141917517
 31
0.0
  0
LINE
  5
7DF
330
17
100
AcDbEntity
  8
SEIHIN
100
AcDbLine
 10
10604.51232522181
 20
7384.62768441244
 30
0.0
 11
10604.51232522181
 21
8158.05914191752
 31
0.0
  0
LINE
  5
7E0
330
17
100
AcDbEntity
  8
SEIHIN
100
AcDbLine
 10
10771.08086771673
 20
7438.059141917517
 30
0.0
 11
11434.51232522181
 21
7438.059141917517
 31
0.0
  0
LINE
  5
7E1
330
17
100
AcDbEntity
  8
SEIHIN
100
AcDbLine
 10
10714.51232522181
 20
7494.627684412438
 30
0.0
 11
10714.51232522181
 21
8158.05914191752
 31
0.0
  0
LINE
  5
7E2
330
17
100
AcDbEntity
  8
SEIHIN
100
AcDbLine
 10
11071.08086771673
 20
7738.059141917516
 30
0.0
 11
11434.51232522181
 21
7738.059141917516
 31
0.0
  0
LINE
  5
7E3
330
17
100
AcDbEntity
  8
SEIHIN
100
AcDbLine
 10
11014.51232522181
 20
7794.62768441244
 30
0.0
 11
11014.51232522181
 21
8158.05914191752
 31
0.0
  0
LINE
  5
7E4
330
17
100
AcDbEntity
  8
SEIHIN
100
AcDbLine
 10
11014.51232522181
 20
8158.059141917518
 30
0.0
 11
11384.51232522181
 21
8108.059141917518
 31
0.0
  0
LINE
  5
7E5
330
17
100
AcDbEntity
  8
SEIHIN
100
AcDbLine
 10
11384.51232522181
 20
8108.059141917518
 30
0.0
 11
11434.51232522181
 21
7738.059141917516
 31
0.0
  0
LINE
  5
7E6
330
17
100
AcDbEntity
  8
SEIHIN
100
AcDbLine
 10
10434.51232522181
 20
7214.62768441244
 30
0.0
 11
11014.51232522181
 21
7794.627684412437
 31
0.0
  0
LINE
  5
7E7
330
17
100
AcDbEntity
  8
SEIHIN
100
AcDbLine
 10
10491.08086771673
 20
7158.059141917517
 30
0.0
 11
11071.08086771673
 21
7738.059141917516
 31
0.0
  0
LINE
  5
7E8
330
17
100
AcDbEntity
  8
SEIHIN
100
AcDbLine
 10
10771.08086771673
 20
7438.059141917517
 30
0.0
 11
10714.51232522181
 21
7494.627684412438
 31
0.0
  0
LINE
  5
7E9
330
17
100
AcDbEntity
  8
SEIHIN
100
AcDbLine
 10
10661.08086771673
 20
7328.059141917517
 30
0.0
 11
10604.51232522181
 21
7384.62768441244
 31
0.0
  0
LINE
  5
7EA
330
17
100
AcDbEntity
  8
SEIHIN
100
AcDbLine
 10
10561.08086771673
 20
7228.059141917517
 30
0.0
 11
10504.51232522181
 21
7284.62768441244
 31
0.0
  0
LINE
  5
7EB
330
17
100
AcDbEntity
  8
SEIHIN
100
AcDbLine
 10
11014.51232522181
 20
7794.627684412439
 30
0.0
 11
11071.08086771673
 21
7738.059141917516
 31
0.0
  0
LINE
  5
7EC
330
17
100
AcDbEntity
  8
SEIHIN
100
AcDbLine
 10
10434.51232522181
 20
7200.485548788709
 30
0.0
 11
10476.938732093
 21
7158.059141917518
 31
0.0
  0
LINE
  5
7FD
330
17
100
AcDbEntity
  8
1HASEN
100
AcDbLine
 10
11434.51232522181
 20
7914.656616979933
 30
0.0
 11
11434.51232522181
 21
7761.699808293715
 31
0.0
  0
LINE
  5
802
330
17
100
AcDbEntity
  8
1HASEN
100
AcDbLine
 10
11213.95334229514
 20
8158.059141917518
 30
0.0
 11
11031.91788312153
 21
8158.059141917518
 31
0.0
  0
CIRCLE
  5
807
330
17
100
AcDbEntity
  8
SUNPOU
100
AcDbCircle
 10
11299.51232522181
 20
7858.059141917516
 30
0.0
 40
15.0
  0
CIRCLE
  5
808
330
17
100
AcDbEntity
  8
SUNPOU
100
AcDbCircle
 10
11359.51232522181
 20
7858.059141917516
 30
0.0
 40
15.0
  0
CIRCLE
  5
809
330
17
100
AcDbEntity
  8
SUNPOU
100
AcDbCircle
 10
11509.51232522181
 20
7858.059141917516
 30
0.0
 40
15.0
  0
CIRCLE
  5
80A
330
17
100
AcDbEntity
  8
SUNPOU
100
AcDbCircle
 10
11569.51232522181
 20
7858.059141917516
 30
0.0
 40
15.0
  0
CIRCLE
  5
80B
330
17
100
AcDbEntity
  8
SUNPOU
100
AcDbCircle
 10
11134.51232522181
 20
8293.059141917518
 30
0.0
 40
15.0
  0
CIRCLE
  5
80C
330
17
100
AcDbEntity
  8
SUNPOU
100
AcDbCircle
 10
11134.51232522181
 20
8233.059141917518
 30
0.0
 40
15.0
  0
CIRCLE
  5
80D
330
17
100
AcDbEntity
  8
SUNPOU
100
AcDbCircle
 10
11134.51232522181
 20
8083.059141917518
 30
0.0
 40
15.0
  0
CIRCLE
  5
80E
330
17
100
AcDbEntity
  8
SUNPOU
100
AcDbCircle
 10
11134.51232522181
 20
8023.059141917518
 30
0.0
 40
15.0
  0
LINE
  5
80F
330
17
100
AcDbEntity
  8
SEIHIN
100
AcDbLine
 10
11259.51232522181
 20
7888.059141917518
 30
0.0
 11
11609.51232522181
 21
7888.059141917516
 31
0.0
  0
LINE
  5
810
330
17
100
AcDbEntity
  8
SEIHIN
100
AcDbLine
 10
11259.51232522181
 20
7828.059141917516
 30
0.0
 11
11609.51232522181
 21
7828.059141917516
 31
0.0
  0
LINE
  5
811
330
17
100
AcDbEntity
  8
SEIHIN
100
AcDbLine
 10
11104.51232522181
 20
7983.059141917518
 30
0.0
 11
11104.51232522181
 21
8333.059141917518
 31
0.0
  0
LINE
  5
812
330
17
100
AcDbEntity
  8
SEIHIN
100
AcDbLine
 10
11164.51232522181
 20
7983.059141917518
 30
0.0
 11
11164.51232522181
 21
8333.059141917518
 31
0.0
  0
LINE
  5
813
330
17
100
AcDbEntity
  8
SEIHIN
100
AcDbLine
 10
11609.51232522181
 20
7888.059141917516
 30
0.0
 11
11609.51232522181
 21
7828.059141917516
 31
0.0
  0
LINE
  5
814
330
17
100
AcDbEntity
  8
SEIHIN
100
AcDbLine
 10
11259.51232522181
 20
7888.059141917518
 30
0.0
 11
11259.51232522181
 21
7828.059141917516
 31
0.0
  0
LINE
  5
815
330
17
100
AcDbEntity
  8
SEIHIN
100
AcDbLine
 10
11164.51232522181
 20
7983.059141917518
 30
0.0
 11
11104.51232522181
 21
7983.059141917516
 31
0.0
  0
LINE
  5
816
330
17
100
AcDbEntity
  8
SEIHIN
100
AcDbLine
 10
11164.51232522181
 20
8333.059141917518
 30
0.0
 11
11104.51232522181
 21
8333.059141917518
 31
0.0
  0
LINE
  5
81F
330
17
100
AcDbEntity
  8
SUNPOU
100
AcDbLine
 10
11289.51232522181
 20
7257.059141917516
 30
0.0
 11
11289.51232522181
 21
7228.059141917517
 31
0.0
  0
LINE
  5
820
330
17
100
AcDbEntity
  8
SUNPOU
100
AcDbLine
 10
11309.51232522181
 20
7257.059141917516
 30
0.0
 11
11309.51232522181
 21
7228.059141917517
 31
0.0
  0
LINE
  5
821
330
17
100
AcDbEntity
  8
SUNPOU
100
AcDbLine
 10
11349.51232522181
 20
7257.059141917516
 30
0.0
 11
11349.51232522181
 21
7228.059141917517
 31
0.0
  0
LINE
  5
822
330
17
100
AcDbEntity
  8
SUNPOU
100
AcDbLine
 10
11369.51232522181
 20
7257.059141917516
 30
0.0
 11
11369.51232522181
 21
7228.059141917517
 31
0.0
  0
LINE
  5
823
330
17
100
AcDbEntity
  8
SUNPOU
100
AcDbLine
 10
11499.51232522181
 20
7257.059141917515
 30
0.0
 11
11499.51232522181
 21
7228.059141917517
 31
0.0
  0
LINE
  5
824
330
17
100
AcDbEntity
  8
SUNPOU
100
AcDbLine
 10
11519.51232522181
 20
7257.059141917515
 30
0.0
 11
11519.51232522181
 21
7228.059141917517
 31
0.0
  0
LINE
  5
825
330
17
100
AcDbEntity
  8
SUNPOU
100
AcDbLine
 10
11559.51232522181
 20
7257.059141917516
 30
0.0
 11
11559.51232522181
 21
7228.059141917517
 31
0.0
  0
LINE
  5
826
330
17
100
AcDbEntity
  8
SUNPOU
100
AcDbLine
 10
11579.51232522181
 20
7257.059141917517
 30
0.0
 11
11579.51232522181
 21
7228.059141917517
 31
0.0
  0
LINE
  5
827
330
17
100
AcDbEntity
  8
SEIHIN
100
AcDbLine
 10
11259.51232522181
 20
7237.059141917517
 30
0.0
 11
11609.51232522181
 21
7237.059141917518
 31
0.0
  0
LINE
  5
828
330
17
100
AcDbEntity
  8
SEIHIN
100
AcDbLine
 10
11609.51232522181
 20
7237.059141917518
 30
0.0
 11
11609.51232522181
 21
7228.059141917517
 31
0.0
  0
LINE
  5
829
330
17
100
AcDbEntity
  8
SEIHIN
100
AcDbLine
 10
11259.51232522181
 20
7237.059141917517
 30
0.0
 11
11259.51232522181
 21
7228.059141917517
 31
0.0
  0
LINE
  5
82A
330
17
100
AcDbEntity
  8
SUNPOU
100
AcDbLine
 10
11279.51232522181
 20
7257.059141917516
 30
0.0
 11
11319.51232522181
 21
7257.059141917517
 31
0.0
  0
LINE
  5
82B
330
17
100
AcDbEntity
  8
SUNPOU
100
AcDbLine
 10
11489.51232522181
 20
7257.059141917514
 30
0.0
 11
11489.51232522181
 21
7237.059141917518
 31
0.0
  0
LINE
  5
82C
330
17
100
AcDbEntity
  8
SUNPOU
100
AcDbLine
 10
11529.51232522181
 20
7257.059141917515
 30
0.0
 11
11529.51232522181
 21
7237.059141917518
 31
0.0
  0
LINE
  5
82D
330
17
100
AcDbEntity
  8
SUNPOU
100
AcDbLine
 10
11549.51232522181
 20
7257.059141917516
 30
0.0
 11
11549.51232522181
 21
7237.059141917517
 31
0.0
  0
LINE
  5
82E
330
17
100
AcDbEntity
  8
SUNPOU
100
AcDbLine
 10
11589.51232522181
 20
7257.059141917517
 30
0.0
 11
11589.51232522181
 21
7237.059141917517
 31
0.0
  0
LINE
  5
82F
330
17
100
AcDbEntity
  8
SUNPOU
100
AcDbLine
 10
11379.51232522181
 20
7257.059141917516
 30
0.0
 11
11379.51232522181
 21
7237.059141917517
 31
0.0
  0
LINE
  5
830
330
17
100
AcDbEntity
  8
SUNPOU
100
AcDbLine
 10
11339.51232522181
 20
7257.059141917517
 30
0.0
 11
11339.51232522181
 21
7237.059141917516
 31
0.0
  0
LINE
  5
831
330
17
100
AcDbEntity
  8
SUNPOU
100
AcDbLine
 10
11319.51232522181
 20
7257.059141917517
 30
0.0
 11
11319.51232522181
 21
7237.059141917516
 31
0.0
  0
LINE
  5
832
330
17
100
AcDbEntity
  8
SUNPOU
100
AcDbLine
 10
11279.51232522181
 20
7257.059141917516
 30
0.0
 11
11279.51232522181
 21
7237.059141917517
 31
0.0
  0
LINE
  5
833
330
17
100
AcDbEntity
  8
SUNPOU
100
AcDbLine
 10
11549.51232522181
 20
7257.059141917516
 30
0.0
 11
11589.51232522181
 21
7257.059141917517
 31
0.0
  0
LINE
  5
834
330
17
100
AcDbEntity
  8
SUNPOU
100
AcDbLine
 10
11489.51232522181
 20
7257.059141917515
 30
0.0
 11
11529.51232522181
 21
7257.059141917516
 31
0.0
  0
LINE
  5
835
330
17
100
AcDbEntity
  8
SUNPOU
100
AcDbLine
 10
11339.51232522181
 20
7257.059141917516
 30
0.0
 11
11379.51232522181
 21
7257.059141917515
 31
0.0
  0
LINE
  5
836
330
17
100
AcDbEntity
  8
SEIHIN
100
AcDbLine
 10
11229.51232522181
 20
7328.059141917518
 30
0.0
 11
11244.51232522181
 21
7228.059141917517
 31
0.0
  0
LINE
  5
837
330
17
100
AcDbEntity
  8
SUNPOU
100
AcDbLine
 10
10534.51232522181
 20
8303.059141917518
 30
0.0
 11
10504.51232522181
 21
8303.05914191752
 31
0.0
  0
LINE
  5
838
330
17
100
AcDbEntity
  8
SUNPOU
100
AcDbLine
 10
10534.51232522181
 20
8313.059141917518
 30
0.0
 11
10514.51232522181
 21
8313.059141917518
 31
0.0
  0
LINE
  5
839
330
17
100
AcDbEntity
  8
SUNPOU
100
AcDbLine
 10
10534.51232522181
 20
8283.059141917518
 30
0.0
 11
10504.51232522181
 21
8283.05914191752
 31
0.0
  0
LINE
  5
83A
330
17
100
AcDbEntity
  8
SUNPOU
100
AcDbLine
 10
10534.51232522181
 20
8273.059141917518
 30
0.0
 11
10514.51232522181
 21
8273.059141917518
 31
0.0
  0
LINE
  5
83B
330
17
100
AcDbEntity
  8
SUNPOU
100
AcDbLine
 10
10534.51232522181
 20
8243.059141917518
 30
0.0
 11
10504.51232522181
 21
8243.05914191752
 31
0.0
  0
LINE
  5
83C
330
17
100
AcDbEntity
  8
SUNPOU
100
AcDbLine
 10
10534.51232522181
 20
8253.059141917518
 30
0.0
 11
10514.51232522181
 21
8253.059141917518
 31
0.0
  0
LINE
  5
83D
330
17
100
AcDbEntity
  8
SUNPOU
100
AcDbLine
 10
10534.51232522181
 20
8223.059141917518
 30
0.0
 11
10504.51232522181
 21
8223.05914191752
 31
0.0
  0
LINE
  5
83E
330
17
100
AcDbEntity
  8
SUNPOU
100
AcDbLine
 10
10534.51232522181
 20
8213.059141917518
 30
0.0
 11
10514.51232522181
 21
8213.059141917518
 31
0.0
  0
LINE
  5
83F
330
17
100
AcDbEntity
  8
SUNPOU
100
AcDbLine
 10
10534.51232522181
 20
8093.059141917518
 30
0.0
 11
10504.51232522181
 21
8093.05914191752
 31
0.0
  0
LINE
  5
840
330
17
100
AcDbEntity
  8
SUNPOU
100
AcDbLine
 10
10534.51232522181
 20
8103.059141917518
 30
0.0
 11
10514.51232522181
 21
8103.059141917518
 31
0.0
  0
LINE
  5
841
330
17
100
AcDbEntity
  8
SUNPOU
100
AcDbLine
 10
10534.51232522181
 20
8073.059141917518
 30
0.0
 11
10504.51232522181
 21
8073.05914191752
 31
0.0
  0
LINE
  5
842
330
17
100
AcDbEntity
  8
SUNPOU
100
AcDbLine
 10
10534.51232522181
 20
8063.059141917518
 30
0.0
 11
10514.51232522181
 21
8063.059141917518
 31
0.0
  0
LINE
  5
843
330
17
100
AcDbEntity
  8
SUNPOU
100
AcDbLine
 10
10534.51232522181
 20
8033.059141917518
 30
0.0
 11
10504.51232522181
 21
8033.059141917518
 31
0.0
  0
LINE
  5
844
330
17
100
AcDbEntity
  8
SUNPOU
100
AcDbLine
 10
10534.51232522181
 20
8043.059141917518
 30
0.0
 11
10514.51232522181
 21
8043.059141917518
 31
0.0
  0
LINE
  5
845
330
17
100
AcDbEntity
  8
SUNPOU
100
AcDbLine
 10
10534.51232522181
 20
8013.059141917518
 30
0.0
 11
10504.51232522181
 21
8013.059141917516
 31
0.0
  0
LINE
  5
846
330
17
100
AcDbEntity
  8
SUNPOU
100
AcDbLine
 10
10534.51232522181
 20
8003.059141917518
 30
0.0
 11
10514.51232522181
 21
8003.059141917518
 31
0.0
  0
LINE
  5
847
330
17
100
AcDbEntity
  8
SEIHIN
100
AcDbLine
 10
10514.51232522181
 20
7983.059141917518
 30
0.0
 11
10514.51232522181
 21
8333.059141917518
 31
0.0
  0
LINE
  5
848
330
17
100
AcDbEntity
  8
SEIHIN
100
AcDbLine
 10
10514.51232522181
 20
8333.059141917518
 30
0.0
 11
10504.51232522181
 21
8333.059141917518
 31
0.0
  0
LINE
  5
849
330
17
100
AcDbEntity
  8
SEIHIN
100
AcDbLine
 10
10514.51232522181
 20
7983.059141917518
 30
0.0
 11
10504.51232522181
 21
7983.059141917518
 31
0.0
  0
LINE
  5
84A
330
17
100
AcDbEntity
  8
SUNPOU
100
AcDbLine
 10
10534.51232522181
 20
8003.059141917518
 30
0.0
 11
10534.51232522181
 21
8043.059141917518
 31
0.0
  0
LINE
  5
84B
330
17
100
AcDbEntity
  8
SUNPOU
100
AcDbLine
 10
10534.51232522181
 20
8273.059141917516
 30
0.0
 11
10534.51232522181
 21
8313.059141917518
 31
0.0
  0
LINE
  5
84C
330
17
100
AcDbEntity
  8
SUNPOU
100
AcDbLine
 10
10534.51232522181
 20
8213.05914191752
 30
0.0
 11
10534.51232522181
 21
8253.059141917518
 31
0.0
  0
LINE
  5
84D
330
17
100
AcDbEntity
  8
SUNPOU
100
AcDbLine
 10
10534.51232522181
 20
8063.059141917518
 30
0.0
 11
10534.51232522181
 21
8103.059141917518
 31
0.0
  0
LINE
  5
856
330
17
100
AcDbEntity
  8
SEIHIN
100
AcDbLine
 10
10504.51232522181
 20
7968.059141917518
 30
0.0
 11
10604.51232522181
 21
7953.059141917518
 31
0.0
  0
LINE
  5
857
330
17
100
AcDbEntity
  8
SEIHIN
100
AcDbLine
 10
4251.120832966642
 20
7327.598631727651
 30
0.0
 11
5684.920832966643
 21
7418.5652945492
 31
0.0
  0
DIMENSION
  5
858
330
17
100
AcDbEntity
  8
SUNPOU
100
AcDbDimension
  2
*D64
 10
5984.920832966642
 20
5955.655859535987
 30
0.0
 11
6124.920832966642
 21
6045.655859535987
 31
0.0
 12
-406.2678889889503
 22
0.0
 32
0.0
 71
     5
 42
-1.0
100
AcDbAlignedDimension
 13
6264.920832966642
 23
6201.433704407314
 33
0.0
 14
5984.920832966642
 24
7145.50726257929
 34
0.0
100
AcDbRotatedDimension
1001
ACAD_DSTYLE_DIMARC_LENGTH_SYMBOL
1070
   379
1070
     0
1001
ACAD_DSTYLE_DIMJOGGED_JOGANGLE_SYMBOL
1070
   384
1040
0.7853981633974483
1001
ACAD_DSTYLE_DIMTEXT_FILL
1070
   376
1070
     0
1001
ACAD_DSTYLE_DIMEXT_ENABLED
1070
   383
1070
     0
1001
ACAD_DSTYLE_DIMEXT_LENGTH
1070
   378
1040
1.0
1001
ACAD_DSTYLE_DIM_LINETYPE
1070
   380
1005
0
1001
ACAD_DSTYLE_DIM_EXT1_LINETYPE
1070
   381
1005
0
1001
ACAD_DSTYLE_DIM_EXT2_LINETYPE
1070
   382
1005
0
  0
DIMENSION
  5
859
330
17
100
AcDbEntity
  8
SUNPOU
100
AcDbDimension
  2
*D117
 10
5984.920832966642
 20
5955.655859535987
 30
0.0
 11
4124.920832966642
 21
6045.655859535987
 31
0.0
 71
     5
 42
-1.0
100
AcDbAlignedDimension
 13
2264.920832966642
 23
6025.292915582863
 33
0.0
 14
5984.920832966642
 24
6053.966997484518
 34
0.0
100
AcDbRotatedDimension
1001
ACAD_DSTYLE_DIMARC_LENGTH_SYMBOL
1070
   379
1070
     0
1001
ACAD_DSTYLE_DIMJOGGED_JOGANGLE_SYMBOL
1070
   384
1040
0.7853981633974483
1001
ACAD_DSTYLE_DIMTEXT_FILL
1070
   376
1070
     0
1001
ACAD_DSTYLE_DIMEXT_ENABLED
1070
   383
1070
     0
1001
ACAD_DSTYLE_DIMEXT_LENGTH
1070
   378
1040
1.0
1001
ACAD_DSTYLE_DIM_LINETYPE
1070
   380
1005
0
1001
ACAD_DSTYLE_DIM_EXT1_LINETYPE
1070
   381
1005
0
1001
ACAD_DSTYLE_DIM_EXT2_LINETYPE
1070
   382
1005
0
  0
DIMENSION
  5
85C
330
17
100
AcDbEntity
  8
SUNPOU
100
AcDbDimension
  2
*D114
 10
1895.389244878164
 20
7227.598631727652
 30
0.0
 11
1805.389244878165
 21
7129.433162644347
 31
0.0
 12
-250.0
 22
0.0
 32
0.0
 70
   128
 71
     5
 42
-1.0
100
AcDbAlignedDimension
 13
2264.920832966642
 23
7158.059141917517
 33
0.0
 14
2264.920832966642
 24
7227.598631727652
 34
0.0
 50
90.0
100
AcDbRotatedDimension
1001
ACAD_DSTYLE_DIMARC_LENGTH_SYMBOL
1070
   379
1070
     0
1001
ACAD_DSTYLE_DIMJOGGED_JOGANGLE_SYMBOL
1070
   384
1040
0.7853981633974483
1001
ACAD_DSTYLE_DIMTEXT_FILL
1070
   376
1070
     0
1001
ACAD_DSTYLE_DIMEXT_ENABLED
1070
   383
1070
     0
1001
ACAD_DSTYLE_DIMEXT_LENGTH
1070
   378
1040
1.0
1001
ACAD_DSTYLE_DIM_LINETYPE
1070
   380
1005
0
1001
ACAD_DSTYLE_DIM_EXT1_LINETYPE
1070
   381
1005
0
1001
ACAD_DSTYLE_DIM_EXT2_LINETYPE
1070
   382
1005
0
  0
DIMENSION
  5
85D
330
17
100
AcDbEntity
  8
SUNPOU
100
AcDbDimension
  2
*D113
 10
1895.389244878164
 20
7327.598631727652
 30
0.0
 11
1805.389244878165
 21
7411.721917220591
 31
0.0
 12
-250.0
 22
0.0
 32
0.0
 70
   128
 71
     5
 42
-1.0
100
AcDbAlignedDimension
 13
2264.920832966642
 23
7227.598631727652
 33
0.0
 14
2264.920832966642
 24
7327.598631727652
 34
0.0
 50
90.0
100
AcDbRotatedDimension
1001
ACAD_DSTYLE_DIMARC_LENGTH_SYMBOL
1070
   379
1070
     0
1001
ACAD_DSTYLE_DIMJOGGED_JOGANGLE_SYMBOL
1070
   384
1040
0.7853981633974483
1001
ACAD_DSTYLE_DIMTEXT_FILL
1070
   376
1070
     0
1001
ACAD_DSTYLE_DIMEXT_ENABLED
1070
   383
1070
     0
1001
ACAD_DSTYLE_DIMEXT_LENGTH
1070
   378
1040
1.0
1001
ACAD_DSTYLE_DIM_LINETYPE
1070
   380
1005
0
1001
ACAD_DSTYLE_DIM_EXT1_LINETYPE
1070
   381
1005
0
1001
ACAD_DSTYLE_DIM_EXT2_LINETYPE
1070
   382
1005
0
  0
DIMENSION
  5
85E
330
17
100
AcDbEntity
  8
SUNPOU
100
AcDbDimension
  2
*D112
 10
1586.218463826483
 20
7328.059141917517
 30
0.0
 11
1496.218463826482
 21
7289.24262775638
 31
0.0
 12
-250.0
 22
0.0
 32
0.0
 70
   128
 71
     5
 42
-1.0
100
AcDbAlignedDimension
 13
1624.783209965393
 23
7158.059141917517
 33
0.0
 14
1624.783209965393
 24
7328.059141917517
 34
0.0
 50
90.0
100
AcDbRotatedDimension
1001
ACAD_DSTYLE_DIMARC_LENGTH_SYMBOL
1070
   379
1070
     0
1001
ACAD_DSTYLE_DIMJOGGED_JOGANGLE_SYMBOL
1070
   384
1040
0.7853981633974483
1001
ACAD_DSTYLE_DIMTEXT_FILL
1070
   376
1070
     0
1001
ACAD_DSTYLE_DIMEXT_ENABLED
1070
   383
1070
     0
1001
ACAD_DSTYLE_DIMEXT_LENGTH
1070
   378
1040
1.0
1001
ACAD_DSTYLE_DIM_LINETYPE
1070
   380
1005
0
1001
ACAD_DSTYLE_DIM_EXT1_LINETYPE
1070
   381
1005
0
1001
ACAD_DSTYLE_DIM_EXT2_LINETYPE
1070
   382
1005
0
  0
DIMENSION
  5
8BA
330
17
100
AcDbEntity
  8
SUNPOU
100
AcDbDimension
  2
*D69
 10
7466.625272117681
 20
7438.059141917517
 30
0.0
 11
7376.625272117681
 21
7798.059141917517
 31
0.0
 12
-406.2678889889503
 22
0.0
 32
0.0
 71
     5
 42
-1.0
100
AcDbAlignedDimension
 13
7216.21628853869
 23
8158.059141917518
 33
0.0
 14
6267.303805181159
 24
7438.059141917518
 34
0.0
 50
90.0
100
AcDbRotatedDimension
1001
ACAD_DSTYLE_DIMARC_LENGTH_SYMBOL
1070
   379
1070
     0
1001
ACAD_DSTYLE_DIMJOGGED_JOGANGLE_SYMBOL
1070
   384
1040
0.7853981633974483
1001
ACAD_DSTYLE_DIMTEXT_FILL
1070
   376
1070
     0
1001
ACAD_DSTYLE_DIMEXT_ENABLED
1070
   383
1070
     0
1001
ACAD_DSTYLE_DIMEXT_LENGTH
1070
   378
1040
1.0
1001
ACAD_DSTYLE_DIM_LINETYPE
1070
   380
1005
0
1001
ACAD_DSTYLE_DIM_EXT1_LINETYPE
1070
   381
1005
0
1001
ACAD_DSTYLE_DIM_EXT2_LINETYPE
1070
   382
1005
0
  0
DIMENSION
  5
8BB
330
17
100
AcDbEntity
  8
SUNPOU
100
AcDbDimension
  2
*D68
 10
7466.62527211768
 20
7157.598631727651
 30
0.0
 11
7376.62527211768
 21
7297.828886822585
 31
0.0
 12
-406.2678889889503
 22
0.0
 32
0.0
 71
     5
 42
-1.0
100
AcDbAlignedDimension
 13
7400.114056631235
 23
7438.059141917518
 33
0.0
 14
7422.18178880234
 24
7157.598631727651
 34
0.0
 50
90.0
100
AcDbRotatedDimension
1001
ACAD_DSTYLE_DIMARC_LENGTH_SYMBOL
1070
   379
1070
     0
1001
ACAD_DSTYLE_DIMJOGGED_JOGANGLE_SYMBOL
1070
   384
1040
0.7853981633974483
1001
ACAD_DSTYLE_DIMTEXT_FILL
1070
   376
1070
     0
1001
ACAD_DSTYLE_DIMEXT_ENABLED
1070
   383
1070
     0
1001
ACAD_DSTYLE_DIMEXT_LENGTH
1070
   378
1040
1.0
1001
ACAD_DSTYLE_DIM_LINETYPE
1070
   380
1005
0
1001
ACAD_DSTYLE_DIM_EXT1_LINETYPE
1070
   381
1005
0
1001
ACAD_DSTYLE_DIM_EXT2_LINETYPE
1070
   382
1005
0
  0
DIMENSION
  5
8C0
330
17
100
AcDbEntity
  8
SUNPOU
100
AcDbDimension
  2
*D73
 10
15017.46021981799
 20
10108.05914191752
 30
0.0
 11
14927.46021981799
 21
10277.31098345701
 31
0.0
 70
   128
 71
     5
 42
-1.0
100
AcDbAlignedDimension
 13
10434.51232522181
 23
10158.05914191752
 33
0.0
 14
12684.51232522181
 24
10108.05914191752
 34
0.0
 50
90.0
100
AcDbRotatedDimension
1001
ACAD_DSTYLE_DIMARC_LENGTH_SYMBOL
1070
   379
1070
     0
1001
ACAD_DSTYLE_DIMJOGGED_JOGANGLE_SYMBOL
1070
   384
1040
0.7853981633974483
1001
ACAD_DSTYLE_DIMTEXT_FILL
1070
   376
1070
     0
1001
ACAD_DSTYLE_DIMEXT_ENABLED
1070
   383
1070
     0
1001
ACAD_DSTYLE_DIMEXT_LENGTH
1070
   378
1040
1.0
1001
ACAD_DSTYLE_DIM_LINETYPE
1070
   380
1005
0
1001
ACAD_DSTYLE_DIM_EXT1_LINETYPE
1070
   381
1005
0
1001
ACAD_DSTYLE_DIM_EXT2_LINETYPE
1070
   382
1005
0
  0
TEXT
  5
90E
330
17
100
AcDbEntity
  8
SUNPOU
100
AcDbText
 10
11118.10960207304
 20
9598.81779098862
 30
0.0
 40
90.0
  1
デザインウォールコーナー左
  7
A
100
AcDbText
  0
DIMENSION
  5
90F
330
17
100
AcDbEntity
  8
SUNPOU
100
AcDbDimension
  2
*D77
 10
11434.51232522181
 20
6329.670709548401
 30
0.0
 11
12434.51232522181
 21
6419.670709548401
 31
0.0
 71
     5
 42
-1.0
100
AcDbAlignedDimension
 13
13434.51232522181
 23
7158.059141917519
 33
0.0
 14
11434.51232522181
 24
7158.059141917519
 34
0.0
100
AcDbRotatedDimension
1001
ACAD_DSTYLE_DIMARC_LENGTH_SYMBOL
1070
   379
1070
     0
1001
ACAD_DSTYLE_DIMJOGGED_JOGANGLE_SYMBOL
1070
   384
1040
0.7853981633974483
1001
ACAD_DSTYLE_DIMTEXT_FILL
1070
   376
1070
     0
1001
ACAD_DSTYLE_DIMEXT_ENABLED
1070
   383
1070
     0
1001
ACAD_DSTYLE_DIMEXT_LENGTH
1070
   378
1040
1.0
1001
ACAD_DSTYLE_DIM_LINETYPE
1070
   380
1005
0
1001
ACAD_DSTYLE_DIM_EXT1_LINETYPE
1070
   381
1005
0
1001
ACAD_DSTYLE_DIM_EXT2_LINETYPE
1070
   382
1005
0
  0
DIMENSION
  5
910
330
17
100
AcDbEntity
  8
SUNPOU
100
AcDbDimension
  2
*D78
 10
10434.51232522181
 20
6329.670709548401
 30
0.0
 11
10934.51232522181
 21
6419.670709548401
 31
0.0
 71
     5
 42
-1.0
100
AcDbAlignedDimension
 13
11434.51232522181
 23
6779.705601875613
 33
0.0
 14
10434.51232522181
 24
7113.064781377252
 34
0.0
100
AcDbRotatedDimension
1001
ACAD_DSTYLE_DIMARC_LENGTH_SYMBOL
1070
   379
1070
     0
1001
ACAD_DSTYLE_DIMJOGGED_JOGANGLE_SYMBOL
1070
   384
1040
0.7853981633974483
1001
ACAD_DSTYLE_DIMTEXT_FILL
1070
   376
1070
     0
1001
ACAD_DSTYLE_DIMEXT_ENABLED
1070
   383
1070
     0
1001
ACAD_DSTYLE_DIMEXT_LENGTH
1070
   378
1040
1.0
1001
ACAD_DSTYLE_DIM_LINETYPE
1070
   380
1005
0
1001
ACAD_DSTYLE_DIM_EXT1_LINETYPE
1070
   381
1005
0
1001
ACAD_DSTYLE_DIM_EXT2_LINETYPE
1070
   382
1005
0
  0
TEXT
  5
919
330
17
100
AcDbEntity
  8
SUNPOU
100
AcDbText
 10
12481.05856812287
 20
8758.188842985119
 30
0.0
 40
90.0
  1
    
  7
A
100
AcDbText
  0
TEXT
  5
91C
330
17
100
AcDbEntity
  8
SUNPOU
100
AcDbText
 10
12431.13966502665
 20
8758.188842985119
 30
0.0
 40
90.0
  1
    
  7
A
100
AcDbText
  0
TEXT
  5
924
330
17
100
AcDbEntity
  8
SUNPOU
100
AcDbText
 10
10102.55030541793
 20
8841.528637860527
 30
0.0
 40
90.0
  1
   
  7
A
100
AcDbText
  0
DIMENSION
  5
925
330
17
100
AcDbEntity
  8
SUNPOU
100
AcDbDimension
  2
*D82
 10
8916.078160820178
 20
8158.059141917516
 30
0.0
 11
8826.078160820178
 21
9158.059141917516
 31
0.0
 71
     5
 42
-1.0
100
AcDbAlignedDimension
 13
10434.51232522181
 23
10158.05914191752
 33
0.0
 14
10434.51232522181
 24
8158.059141917516
 34
0.0
 50
90.0
100
AcDbRotatedDimension
1001
ACAD_DSTYLE_DIMARC_LENGTH_SYMBOL
1070
   379
1070
     0
1001
ACAD_DSTYLE_DIMJOGGED_JOGANGLE_SYMBOL
1070
   384
1040
0.7853981633974483
1001
ACAD_DSTYLE_DIMTEXT_FILL
1070
   376
1070
     0
1001
ACAD_DSTYLE_DIMEXT_ENABLED
1070
   383
1070
     0
1001
ACAD_DSTYLE_DIMEXT_LENGTH
1070
   378
1040
1.0
1001
ACAD_DSTYLE_DIM_LINETYPE
1070
   380
1005
0
1001
ACAD_DSTYLE_DIM_EXT1_LINETYPE
1070
   381
1005
0
1001
ACAD_DSTYLE_DIM_EXT2_LINETYPE
1070
   382
1005
0
  0
DIMENSION
  5
926
330
17
100
AcDbEntity
  8
SUNPOU
100
AcDbDimension
  2
*D83
 10
8916.078160820178
 20
7158.059141917516
 30
0.0
 11
8826.078160820178
 21
7658.059141917516
 31
0.0
 71
     5
 42
-1.0
100
AcDbAlignedDimension
 13
9598.30316980182
 23
8158.059141917516
 33
0.0
 14
10430.28488807212
 24
7158.059141917516
 34
0.0
 50
90.0
100
AcDbRotatedDimension
1001
ACAD_DSTYLE_DIMARC_LENGTH_SYMBOL
1070
   379
1070
     0
1001
ACAD_DSTYLE_DIMJOGGED_JOGANGLE_SYMBOL
1070
   384
1040
0.7853981633974483
1001
ACAD_DSTYLE_DIMTEXT_FILL
1070
   376
1070
     0
1001
ACAD_DSTYLE_DIMEXT_ENABLED
1070
   383
1070
     0
1001
ACAD_DSTYLE_DIMEXT_LENGTH
1070
   378
1040
1.0
1001
ACAD_DSTYLE_DIM_LINETYPE
1070
   380
1005
0
1001
ACAD_DSTYLE_DIM_EXT1_LINETYPE
1070
   381
1005
0
1001
ACAD_DSTYLE_DIM_EXT2_LINETYPE
1070
   382
1005
0
  0
LINE
  5
92C
330
17
100
AcDbEntity
  8
SEIHIN
100
AcDbLine
 10
2314.92083296664
 20
2123.598631727652
 30
0.0
 11
4251.120832966641
 21
2123.598631727652
 31
0.0
  0
LINE
  5
92D
330
17
100
AcDbEntity
  8
SEIHIN
100
AcDbLine
 10
2314.92083296664
 20
2023.598631727652
 30
0.0
 11
2314.92083296664
 21
2123.598631727652
 31
0.0
  0
LINE
  5
92E
330
17
100
AcDbEntity
  8
SEIHIN
100
AcDbLine
 10
2264.92083296664
 20
2023.598631727652
 30
0.0
 11
2314.92083296664
 21
2023.598631727652
 31
0.0
  0
LINE
  5
92F
330
17
100
AcDbEntity
  8
SEIHIN
100
AcDbLine
 10
2264.92083296664
 20
1953.598631727652
 30
0.0
 11
6264.920832966641
 21
1953.598631727652
 31
0.0
  0
LINE
  5
930
330
17
100
AcDbEntity
  8
SEIHIN
100
AcDbLine
 10
4251.120832966641
 20
2123.598631727651
 30
0.0
 11
5664.59813312676
 21
2213.275931887771
 31
0.0
  0
LINE
  5
931
330
17
100
AcDbEntity
  8
SEIHIN
100
AcDbLine
 10
5984.920832966641
 20
2533.598631727651
 30
0.0
 11
5984.920832966641
 21
2953.598631727651
 31
0.0
  0
LINE
  5
932
330
17
100
AcDbEntity
  8
SEIHIN
100
AcDbLine
 10
6264.920832966641
 20
1953.598631727652
 30
0.0
 11
6264.920832966641
 21
2953.598631727651
 31
0.0
  0
LINE
  5
933
330
17
100
AcDbEntity
  8
SEIHIN
100
AcDbLine
 10
6264.920832966641
 20
2953.598631727651
 30
0.0
 11
5984.920832966641
 21
2953.598631727651
 31
0.0
  0
LINE
  5
934
330
17
100
AcDbEntity
  8
SEIHIN
100
AcDbLine
 10
6264.920832966641
 20
2953.598631727651
 30
0.0
 11
6264.920832966641
 21
4653.598631727652
 31
0.0
  0
LINE
  5
936
330
17
100
AcDbEntity
  8
HASEN
100
AcDbLine
 10
5984.920832966642
 20
7919.0083237976
 30
0.0
 11
5999.065223534881
 21
7914.836647670996
 31
0.0
  0
LINE
  5
937
330
17
100
AcDbEntity
  8
SUNPOU
100
AcDbLine
 10
5984.920832966642
 20
7808.606992170667
 30
0.0
 11
5992.138009964355
 21
7809.659770120865
 31
0.0
  0
LINE
  5
93C
330
17
100
AcDbEntity
  8
SEIHIN
100
AcDbLine
 10
6185.920832966644
 20
8208.059141917518
 30
0.0
 11
6185.920832966644
 21
10108.05914191752
 31
0.0
  0
LINE
  5
93D
330
17
100
AcDbEntity
  8
SEIHIN
100
AcDbLine
 10
6264.920832966644
 20
8208.059141917518
 30
0.0
 11
6185.920832966644
 21
8208.059141917518
 31
0.0
  0
LINE
  5
93E
330
17
100
AcDbEntity
  8
SEIHIN
100
AcDbLine
 10
6264.920832966644
 20
10108.05914191752
 30
0.0
 11
6185.920832966644
 21
10108.05914191752
 31
0.0
  0
LINE
  5
947
330
17
100
AcDbEntity
  8
SEIHIN
100
AcDbLine
 10
5294.920832966643
 20
8333.059141917516
 30
0.0
 11
5234.920832966643
 21
8333.059141917516
 31
0.0
  0
LINE
  5
948
330
17
100
AcDbEntity
  8
SEIHIN
100
AcDbLine
 10
5294.920832966643
 20
7983.059141917516
 30
0.0
 11
5234.920832966643
 21
7983.059141917517
 31
0.0
  0
LINE
  5
949
330
17
100
AcDbEntity
  8
SEIHIN
100
AcDbLine
 10
5294.920832966644
 20
7983.059141917516
 30
0.0
 11
5294.920832966644
 21
8333.059141917516
 31
0.0
  0
LINE
  5
94A
330
17
100
AcDbEntity
  8
SEIHIN
100
AcDbLine
 10
5234.920832966644
 20
7983.059141917517
 30
0.0
 11
5234.920832966644
 21
8333.059141917516
 31
0.0
  0
LINE
  5
94B
330
17
100
AcDbEntity
  8
SEIHIN
100
AcDbLine
 10
3434.920832966644
 20
7983.059141917518
 30
0.0
 11
3434.920832966644
 21
8333.059141917516
 31
0.0
  0
LINE
  5
94C
330
17
100
AcDbEntity
  8
SEIHIN
100
AcDbLine
 10
3494.920832966644
 20
7983.059141917518
 30
0.0
 11
3494.920832966644
 21
8333.059141917516
 31
0.0
  0
LINE
  5
94D
330
17
100
AcDbEntity
  8
SEIHIN
100
AcDbLine
 10
3494.920832966644
 20
8333.059141917518
 30
0.0
 11
3434.920832966644
 21
8333.059141917516
 31
0.0
  0
LINE
  5
94E
330
17
100
AcDbEntity
  8
SEIHIN
100
AcDbLine
 10
3494.920832966644
 20
7983.059141917517
 30
0.0
 11
3434.920832966644
 21
7983.059141917518
 31
0.0
  0
LINE
  5
94F
330
17
100
AcDbEntity
  8
SEIHIN
100
AcDbLine
 10
3504.920832966644
 20
7968.059141917517
 30
0.0
 11
3424.920832966642
 21
7968.059141917519
 31
0.0
  0
LINE
  5
950
330
17
100
AcDbEntity
  8
SEIHIN
100
AcDbLine
 10
3519.920832966644
 20
7953.059141917516
 30
0.0
 11
3409.920832966644
 21
7953.059141917519
 31
0.0
  0
LINE
  5
951
330
17
100
AcDbEntity
  8
SEIHIN
100
AcDbLine
 10
3424.920832966642
 20
7968.059141917519
 30
0.0
 11
3424.920832966644
 21
8158.059141917518
 31
0.0
  0
LINE
  5
952
330
17
100
AcDbEntity
  8
SEIHIN
100
AcDbLine
 10
3504.920832966644
 20
7968.059141917517
 30
0.0
 11
3504.920832966644
 21
8158.059141917518
 31
0.0
  0
LINE
  5
953
330
17
100
AcDbEntity
  8
SEIHIN
100
AcDbLine
 10
3409.920832966644
 20
7953.059141917519
 30
0.0
 11
3409.920832966644
 21
8158.059141917518
 31
0.0
  0
LINE
  5
954
330
17
100
AcDbEntity
  8
SEIHIN
100
AcDbLine
 10
3519.920832966644
 20
7953.059141917516
 30
0.0
 11
3519.920832966644
 21
8158.059141917518
 31
0.0
  0
LINE
  5
955
330
17
100
AcDbEntity
  8
SEIHIN
100
AcDbLine
 10
3424.920832966642
 20
7968.059141917519
 30
0.0
 11
3409.920832966644
 21
7953.05914191752
 31
0.0
  0
LINE
  5
956
330
17
100
AcDbEntity
  8
SEIHIN
100
AcDbLine
 10
3504.920832966644
 20
7968.059141917517
 30
0.0
 11
3519.920832966644
 21
7953.059141917516
 31
0.0
  0
CIRCLE
  5
957
330
17
100
AcDbEntity
  8
SUNPOU
100
AcDbCircle
 10
3464.920832966643
 20
8083.059141917518
 30
0.0
 40
15.0
  0
CIRCLE
  5
958
330
17
100
AcDbEntity
  8
SUNPOU
100
AcDbCircle
 10
3464.920832966643
 20
8023.059141917517
 30
0.0
 40
15.0
  0
CIRCLE
  5
959
330
17
100
AcDbEntity
  8
SUNPOU
100
AcDbCircle
 10
3464.920832966643
 20
8293.059141917518
 30
0.0
 40
15.0
  0
CIRCLE
  5
95A
330
17
100
AcDbEntity
  8
SUNPOU
100
AcDbCircle
 10
3464.920832966643
 20
8233.059141917518
 30
0.0
 40
15.0
  0
CIRCLE
  5
95B
330
17
100
AcDbEntity
  8
SUNPOU
100
AcDbCircle
 10
5264.920832966644
 20
8293.059141917518
 30
0.0
 40
15.0
  0
CIRCLE
  5
95C
330
17
100
AcDbEntity
  8
SUNPOU
100
AcDbCircle
 10
5264.920832966644
 20
8233.059141917518
 30
0.0
 40
15.0
  0
CIRCLE
  5
95D
330
17
100
AcDbEntity
  8
SUNPOU
100
AcDbCircle
 10
5264.920832966644
 20
8083.059141917518
 30
0.0
 40
15.0
  0
CIRCLE
  5
95E
330
17
100
AcDbEntity
  8
SUNPOU
100
AcDbCircle
 10
5264.920832966644
 20
8023.059141917517
 30
0.0
 40
15.0
  0
LINE
  5
95F
330
17
100
AcDbEntity
  8
SEIHIN
100
AcDbLine
 10
5209.920832966644
 20
7953.059141917519
 30
0.0
 11
5209.920832966644
 21
8158.059141917518
 31
0.0
  0
LINE
  5
960
330
17
100
AcDbEntity
  8
SEIHIN
100
AcDbLine
 10
5224.920832966642
 20
7968.059141917519
 30
0.0
 11
5224.920832966644
 21
8158.059141917518
 31
0.0
  0
LINE
  5
961
330
17
100
AcDbEntity
  8
SEIHIN
100
AcDbLine
 10
5319.920832966644
 20
7953.059141917516
 30
0.0
 11
5319.920832966644
 21
8158.059141917518
 31
0.0
  0
LINE
  5
962
330
17
100
AcDbEntity
  8
SEIHIN
100
AcDbLine
 10
5304.920832966643
 20
7968.059141917517
 30
0.0
 11
5304.920832966644
 21
8158.059141917518
 31
0.0
  0
LINE
  5
963
330
17
100
AcDbEntity
  8
SEIHIN
100
AcDbLine
 10
5304.920832966643
 20
7968.059141917517
 30
0.0
 11
5224.920832966642
 21
7968.059141917519
 31
0.0
  0
LINE
  5
964
330
17
100
AcDbEntity
  8
SEIHIN
100
AcDbLine
 10
5319.920832966644
 20
7953.059141917516
 30
0.0
 11
5209.920832966644
 21
7953.059141917519
 31
0.0
  0
LINE
  5
965
330
17
100
AcDbEntity
  8
SEIHIN
100
AcDbLine
 10
5304.920832966643
 20
7968.059141917517
 30
0.0
 11
5319.920832966644
 21
7953.059141917516
 31
0.0
  0
LINE
  5
966
330
17
100
AcDbEntity
  8
SEIHIN
100
AcDbLine
 10
5224.920832966642
 20
7968.059141917519
 30
0.0
 11
5209.920832966644
 21
7953.05914191752
 31
0.0
  0
TEXT
  5
96E
330
17
100
AcDbEntity
  8
SUNPOU
100
AcDbText
 10
2848.771465642851
 20
9251.539897692044
 30
0.0
 40
90.0
  1
   
  7
A
100
AcDbText
  0
TEXT
  5
973
330
17
100
AcDbEntity
  8
SUNPOU
100
AcDbText
 10
2705.788906192662
 20
5533.44047583596
 30
0.0
 40
90.0
  1
    
  7
A
100
AcDbText
  0
CIRCLE
  5
97A
330
17
100
AcDbEntity
  8
SUNPOU
100
AcDbCircle
 10
5464.920832966644
 20
9658.059141917518
 30
0.0
 40
30.0
  0
CIRCLE
  5
97B
330
17
100
AcDbEntity
  8
SUNPOU
100
AcDbCircle
 10
5464.920832966644
 20
8658.059141917518
 30
0.0
 40
30.0
  0
CIRCLE
  5
97C
330
17
100
AcDbEntity
  8
SUNPOU
100
AcDbCircle
 10
5464.920832966644
 20
9658.059141917518
 30
0.0
 40
20.0
  0
CIRCLE
  5
97D
330
17
100
AcDbEntity
  8
SUNPOU
100
AcDbCircle
 10
5464.920832966644
 20
8658.059141917518
 30
0.0
 40
20.0
  0
SOLID
  5
97E
330
17
100
AcDbEntity
  8
SUNPOU
100
AcDbTrace
 10
5408.720031467381
 20
8696.538729792133
 30
0.0
 11
5400.349679175295
 21
8678.37455619391
 31
0.0
 12
5459.027376116005
 22
8662.345586116762
 32
0.0
 13
5459.027376116005
 23
8662.345586116762
 33
0.0
  0
LINE
  5
97F
330
17
100
AcDbEntity
  8
SUNPOU
100
AcDbLine
 10
5404.534855321338
 20
8687.456642993022
 30
0.0
 11
5047.552546779162
 21
8851.960008278676
 31
0.0
  0
LINE
  5
980
330
17
100
AcDbEntity
  8
SUNPOU
100
AcDbLine
 10
5047.552546779162
 20
8851.960008278676
 30
0.0
 11
5047.552546779162
 21
8909.668745458388
 31
0.0
  0
TEXT
  5
981
330
17
100
AcDbEntity
  8
SUNPOU
100
AcDbText
 10
5325.820435768112
 20
8954.668745458388
 30
0.0
 40
90.0
  1
   
  7
A
100
AcDbText
  0
LINE
  5
982
330
17
100
AcDbEntity
  8
SUNPOU
100
AcDbLine
 10
5047.552546779162
 20
8909.668745458388
 30
0.0
 11
5047.552546779162
 21
9425.658594963199
 31
0.0
  0
TEXT
  5
983
330
17
100
AcDbEntity
  8
SUNPOU
100
AcDbText
 10
5020.918293322996
 20
8908.468660870929
 30
0.0
 40
90.0
  1
水抜き穴
 50
90.0
  7
A
100
AcDbText
  0
TEXT
  5
9AD
330
17
100
AcDbEntity
  8
SUNPOU
100
AcDbText
 10
4439.395947757578
 20
9968.693698759062
 30
0.0
 40
90.0
  1
   
  7
A
100
AcDbText
  0
SOLID
  5
9AE
330
17
100
AcDbEntity
  8
SUNPOU
100
AcDbTrace
 10
5939.576848483057
 20
7870.818560685737
 30
0.0
 11
5934.591845475053
 21
7851.449777941068
 31
0.0
 12
5995.190695213062
 22
7846.17916028939
 32
0.0
 13
5995.190695213062
 23
7846.17916028939
 33
0.0
  0
TEXT
  5
9B0
330
17
100
AcDbEntity
  8
SUNPOU
100
AcDbText
 10
4634.510341946422
 20
8427.046005529583
 30
0.0
 40
90.0
  1
   
  7
A
100
AcDbText
  0
TEXT
  5
9B3
330
17
100
AcDbEntity
  8
SUNPOU
100
AcDbText
 10
4741.493797574
 20
8427.04600552958
 30
0.0
 40
90.0
  1
   
  7
A
100
AcDbText
  0
TEXT
  5
9B8
330
17
100
AcDbEntity
  8
SUNPOU
100
AcDbText
 10
3715.200248124732
 20
9943.961382824898
 30
0.0
 40
90.0
  1
   
  7
A
100
AcDbText
  0
TEXT
  5
9BB
330
17
100
AcDbEntity
  8
SUNPOU
100
AcDbText
 10
3967.921118420733
 20
8591.928111757336
 30
0.0
 40
90.0
  1
   
  7
A
100
AcDbText
  0
DIMENSION
  5
9C0
330
17
100
AcDbEntity
  8
SUNPOU
100
AcDbDimension
  2
*D93
 10
5684.920832966642
 20
7823.643417141995
 30
0.0
 11
5834.920832966642
 21
7913.643417141995
 31
0.0
 12
-406.2678889889503
 22
0.0
 32
0.0
 71
     5
 42
-1.0
100
AcDbAlignedDimension
 13
5984.920832966642
 23
7737.598631727651
 33
0.0
 14
5684.920832966642
 24
7427.995553303055
 34
0.0
100
AcDbRotatedDimension
1001
ACAD_DSTYLE_DIMARC_LENGTH_SYMBOL
1070
   379
1070
     0
1001
ACAD_DSTYLE_DIMJOGGED_JOGANGLE_SYMBOL
1070
   384
1040
0.7853981633974483
1001
ACAD_DSTYLE_DIMTEXT_FILL
1070
   376
1070
     0
1001
ACAD_DSTYLE_DIMEXT_ENABLED
1070
   383
1070
     0
1001
ACAD_DSTYLE_DIMEXT_LENGTH
1070
   378
1040
1.0
1001
ACAD_DSTYLE_DIM_LINETYPE
1070
   380
1005
0
1001
ACAD_DSTYLE_DIM_EXT1_LINETYPE
1070
   381
1005
0
1001
ACAD_DSTYLE_DIM_EXT2_LINETYPE
1070
   382
1005
0
  0
LINE
  5
9C1
330
17
100
AcDbEntity
  8
SEIHIN
100
AcDbLine
 10
5984.920832966642
 20
7737.598631727653
 30
0.0
 11
5684.920832966643
 21
7418.5652945492
 31
0.0
  0
DIMENSION
  5
9C2
330
17
100
AcDbEntity
  8
SUNPOU
100
AcDbDimension
  2
*D94
 10
5518.332179805408
 20
7437.598631727654
 30
0.0
 11
5428.332179805408
 21
7587.598631727654
 31
0.0
 12
-406.2678889889503
 22
0.0
 32
0.0
 71
     5
 42
-1.0
100
AcDbAlignedDimension
 13
5984.920832966643
 23
7737.598631727654
 33
0.0
 14
5984.920832966643
 24
7437.598631727654
 34
0.0
 50
90.0
100
AcDbRotatedDimension
1001
ACAD_DSTYLE_DIMARC_LENGTH_SYMBOL
1070
   379
1070
     0
1001
ACAD_DSTYLE_DIMJOGGED_JOGANGLE_SYMBOL
1070
   384
1040
0.7853981633974483
1001
ACAD_DSTYLE_DIMTEXT_FILL
1070
   376
1070
     0
1001
ACAD_DSTYLE_DIMEXT_ENABLED
1070
   383
1070
     0
1001
ACAD_DSTYLE_DIMEXT_LENGTH
1070
   378
1040
1.0
1001
ACAD_DSTYLE_DIM_LINETYPE
1070
   380
1005
0
1001
ACAD_DSTYLE_DIM_EXT1_LINETYPE
1070
   381
1005
0
1001
ACAD_DSTYLE_DIM_EXT2_LINETYPE
1070
   382
1005
0
  0
DIMENSION
  5
9C6
330
17
100
AcDbEntity
  8
SUNPOU
100
AcDbDimension
  2
*D123
 10
15017.46021981799
 20
7158.059141917519
 30
0.0
 11
14927.46021981799
 21
8508.059141917516
 31
0.0
 71
     5
 42
-1.0
100
AcDbAlignedDimension
 13
13321.64568218368
 23
9858.059141917518
 33
0.0
 14
13434.51232522181
 24
7158.059141917519
 34
0.0
 50
90.0
100
AcDbRotatedDimension
1001
ACAD_DSTYLE_DIMARC_LENGTH_SYMBOL
1070
   379
1070
     0
1001
ACAD_DSTYLE_DIMJOGGED_JOGANGLE_SYMBOL
1070
   384
1040
0.7853981633974483
1001
ACAD_DSTYLE_DIMTEXT_FILL
1070
   376
1070
     0
1001
ACAD_DSTYLE_DIMEXT_ENABLED
1070
   383
1070
     0
1001
ACAD_DSTYLE_DIMEXT_LENGTH
1070
   378
1040
1.0
1001
ACAD_DSTYLE_DIM_LINETYPE
1070
   380
1005
0
1001
ACAD_DSTYLE_DIM_EXT1_LINETYPE
1070
   381
1005
0
1001
ACAD_DSTYLE_DIM_EXT2_LINETYPE
1070
   382
1005
0
  0
DIMENSION
  5
9C7
330
17
100
AcDbEntity
  8
SUNPOU
100
AcDbDimension
  2
*D124
 10
13134.51232522181
 20
11124.71795139518
 30
0.0
 11
11609.51232522181
 21
11214.71795139518
 31
0.0
 70
   128
 71
     5
 42
-1.0
100
AcDbAlignedDimension
 13
10434.51232522181
 23
10158.05914191752
 33
0.0
 14
13134.51232522181
 24
10118.78709367587
 34
0.0
100
AcDbRotatedDimension
1001
ACAD_DSTYLE_DIMARC_LENGTH_SYMBOL
1070
   379
1070
     0
1001
ACAD_DSTYLE_DIMJOGGED_JOGANGLE_SYMBOL
1070
   384
1040
0.7853981633974483
1001
ACAD_DSTYLE_DIMTEXT_FILL
1070
   376
1070
     0
1001
ACAD_DSTYLE_DIMEXT_ENABLED
1070
   383
1070
     0
1001
ACAD_DSTYLE_DIMEXT_LENGTH
1070
   378
1040
1.0
1001
ACAD_DSTYLE_DIM_LINETYPE
1070
   380
1005
0
1001
ACAD_DSTYLE_DIM_EXT1_LINETYPE
1070
   381
1005
0
1001
ACAD_DSTYLE_DIM_EXT2_LINETYPE
1070
   382
1005
0
  0
LINE
  5
9C8
330
17
100
AcDbEntity
  8
SEIHIN
100
AcDbLine
 10
6264.920832966641
 20
4653.598631727652
 30
0.0
 11
6194.938454112015
 21
4653.598631727652
 31
0.0
  0
LINE
  5
9C9
330
17
100
AcDbEntity
  8
SEIHIN
100
AcDbLine
 10
6194.938454112015
 20
4653.598631727653
 30
0.0
 11
6010.956075257388
 21
2533.598631727652
 31
0.0
  0
LINE
  5
9CA
330
17
100
AcDbEntity
  8
SEIHIN
100
AcDbLine
 10
2314.92083296664
 20
2023.598631727652
 30
0.0
 11
2674.92083296664
 21
2023.598631727652
 31
0.0
  0
LINE
  5
9CB
330
17
100
AcDbEntity
  8
SEIHIN
100
AcDbLine
 10
2674.92083296664
 20
2023.598631727652
 30
0.0
 11
5684.920832966642
 21
2214.565399099263
 31
0.0
  0
LINE
  5
9CC
330
17
100
AcDbEntity
  8
SEIHIN
100
AcDbLine
 10
6010.956075257389
 20
2533.598631727652
 30
0.0
 11
5684.920832966642
 21
2214.565399099263
 31
0.0
  0
TEXT
  5
9D4
330
17
100
AcDbEntity
  8
SUNPOU
100
AcDbText
 10
12521.76306092211
 20
8834.280826089844
 30
0.0
 40
90.0
  1
  
  7
A
100
AcDbText
  0
LINE
  5
9D9
330
17
100
AcDbEntity
  8
SEIHIN
100
AcDbLine
 10
13434.51232522181
 20
7158.059141917518
 30
0.0
 11
13434.51232522181
 21
7456.059141917518
 31
0.0
  0
LINE
  5
9DA
330
17
100
AcDbEntity
  8
SEIHIN
100
AcDbLine
 10
13434.51232522181
 20
7456.059141917518
 30
0.0
 11
13384.51232522181
 21
9618.059141917518
 31
0.0
  0
LINE
  5
9DB
330
17
100
AcDbEntity
  8
SEIHIN
100
AcDbLine
 10
13384.51232522181
 20
9618.059141917518
 30
0.0
 11
13384.51232522181
 21
9858.059141917518
 31
0.0
  0
LINE
  5
9DC
330
17
100
AcDbEntity
  8
SEIHIN
100
AcDbLine
 10
10434.51232522181
 20
10158.05914191752
 30
0.0
 11
10732.51232522181
 21
10158.05914191752
 31
0.0
  0
LINE
  5
9DD
330
17
100
AcDbEntity
  8
SEIHIN
100
AcDbLine
 10
10732.51232522181
 20
10158.05914191752
 30
0.0
 11
12894.51232522181
 21
10108.05914191752
 31
0.0
  0
LINE
  5
9DE
330
17
100
AcDbEntity
  8
SEIHIN
100
AcDbLine
 10
12894.51232522181
 20
10108.05914191752
 30
0.0
 11
13134.51232522181
 21
10108.05914191752
 31
0.0
  0
CIRCLE
  5
9E6
330
17
100
AcDbEntity
  8
SUNPOU
100
AcDbCircle
 10
12739.05290976162
 20
9653.5185573777
 30
0.0
 40
15.0
  0
CIRCLE
  5
9E7
330
17
100
AcDbEntity
  8
SUNPOU
100
AcDbCircle
 10
12781.47931663282
 20
9611.092150506507
 30
0.0
 40
15.0
  0
CIRCLE
  5
9E8
330
17
100
AcDbEntity
  8
SUNPOU
100
AcDbCircle
 10
12887.5453338108
 20
9505.026133328525
 30
0.0
 40
15.0
  0
CIRCLE
  5
9E9
330
17
100
AcDbEntity
  8
SUNPOU
100
AcDbCircle
 10
12929.97174068199
 20
9462.599726457333
 30
0.0
 40
15.0
  0
CIRCLE
  5
9EA
330
17
100
AcDbEntity
  8
SUNPOU
100
AcDbCircle
 10
11639.05290976162
 20
8553.5185573777
 30
0.0
 40
15.0
  0
CIRCLE
  5
9EB
330
17
100
AcDbEntity
  8
SUNPOU
100
AcDbCircle
 10
11681.47931663281
 20
8511.092150506507
 30
0.0
 40
15.0
  0
CIRCLE
  5
9EC
330
17
100
AcDbEntity
  8
SUNPOU
100
AcDbCircle
 10
11787.5453338108
 20
8405.026133328525
 30
0.0
 40
15.0
  0
CIRCLE
  5
9ED
330
17
100
AcDbEntity
  8
SUNPOU
100
AcDbCircle
 10
11829.97174068199
 20
8362.599726457333
 30
0.0
 40
15.0
  0
LINE
  5
9EE
330
17
100
AcDbEntity
  8
SEIHIN
100
AcDbLine
 10
11837.04280849385
 20
8313.102251774275
 30
0.0
 11
11589.55543507856
 21
8560.589625189565
 31
0.0
  0
LINE
  5
9EF
330
17
100
AcDbEntity
  8
SEIHIN
100
AcDbLine
 10
11879.46921536505
 20
8355.528658645468
 30
0.0
 11
11631.98184194976
 21
8603.016032060757
 31
0.0
  0
LINE
  5
9F0
330
17
100
AcDbEntity
  8
SEIHIN
100
AcDbLine
 10
11631.98184194976
 20
8603.016032060757
 30
0.0
 11
11589.55543507856
 21
8560.589625189563
 31
0.0
  0
LINE
  5
9F1
330
17
100
AcDbEntity
  8
SEIHIN
100
AcDbLine
 10
11879.46921536505
 20
8355.528658645468
 30
0.0
 11
11837.04280849385
 21
8313.102251774275
 31
0.0
  0
LINE
  5
9F2
330
17
100
AcDbEntity
  8
SEIHIN
100
AcDbLine
 10
12731.98184194976
 20
9703.016032060756
 30
0.0
 11
12689.55543507857
 21
9660.589625189563
 31
0.0
  0
LINE
  5
9F3
330
17
100
AcDbEntity
  8
SEIHIN
100
AcDbLine
 10
12979.46921536505
 20
9455.528658645468
 30
0.0
 11
12937.04280849386
 21
9413.102251774275
 31
0.0
  0
LINE
  5
9F4
330
17
100
AcDbEntity
  8
SEIHIN
100
AcDbLine
 10
12937.04280849386
 20
9413.102251774275
 30
0.0
 11
12689.55543507857
 21
9660.589625189563
 31
0.0
  0
LINE
  5
9F5
330
17
100
AcDbEntity
  8
SEIHIN
100
AcDbLine
 10
12979.46921536505
 20
9455.528658645466
 30
0.0
 11
12731.98184194976
 21
9703.016032060754
 31
0.0
  0
LINE
  5
9F8
330
17
100
AcDbEntity
  8
SEIHIN
100
AcDbLine
 10
5984.920832966642
 20
7919.008323797601
 30
0.0
 11
6025.656892309073
 21
7906.993833287675
 31
0.0
  0
LINE
  5
9F9
330
17
100
AcDbEntity
  8
SEIHIN
100
AcDbLine
 10
5984.920832966642
 20
7808.606992170667
 30
0.0
 11
6017.531300609207
 21
7813.36391877654
 31
0.0
  0
LINE
  5
9FA
330
17
100
AcDbEntity
  8
SEIHIN
100
AcDbLine
 10
3514.858110663601
 20
7327.953045484133
 30
0.0
 11
3508.848588379886
 21
7280.506434941184
 31
0.0
  0
LINE
  5
9FB
330
17
100
AcDbEntity
  8
SEIHIN
100
AcDbLine
 10
3404.637393793786
 20
7327.953045484133
 30
0.0
 11
3417.521207285975
 21
7274.712250642175
 31
0.0
  0
LINE
  5
9FC
330
17
100
AcDbEntity
  8
SEIHIN
100
AcDbLine
 10
3417.521207285975
 20
7274.712250642175
 30
0.0
 11
3508.848588379886
 21
7280.506434941184
 31
0.0
  0
LINE
  5
9FD
330
17
100
AcDbEntity
  8
SEIHIN
100
AcDbLine
 10
6025.656892309073
 20
7906.993833287675
 30
0.0
 11
6017.531300609207
 21
7813.36391877654
 31
0.0
  0
LINE
  5
9FE
330
17
100
AcDbEntity
  8
SEIHIN
100
AcDbLine
 10
5984.920832966642
 20
8158.059141917517
 30
0.0
 11
5984.920832966642
 21
10158.05914191752
 31
0.0
  0
LINE
  5
9FF
330
17
100
AcDbEntity
  8
SEIHIN
100
AcDbLine
 10
5684.920832966642
 20
8158.059141917517
 30
0.0
 11
5684.920832966642
 21
10158.05914191752
 31
0.0
  0
LINE
  5
A00
330
17
100
AcDbEntity
  8
SEIHIN
100
AcDbLine
 10
6185.920832966644
 20
10108.05914191752
 30
0.0
 11
5984.920832966642
 21
10158.05914191752
 31
0.0
  0
LINE
  5
A01
330
17
100
AcDbEntity
  8
SEIHIN
100
AcDbLine
 10
6185.920832966644
 20
8208.059141917518
 30
0.0
 11
5984.920832966642
 21
8158.059141917517
 31
0.0
  0
LINE
  5
A03
330
17
100
AcDbEntity
  8
SEIHIN
100
AcDbLine
 10
13169.86766428114
 20
9858.059141917518
 30
0.0
 11
13384.51232522181
 21
9858.059141917518
 31
0.0
  0
LINE
  5
A04
330
17
100
AcDbEntity
  8
SEIHIN
100
AcDbLine
 10
13134.51232522181
 20
9893.414480976842
 30
0.0
 11
13134.51232522181
 21
10108.05914191752
 31
0.0
  0
DIMENSION
  5
A09
330
17
100
AcDbEntity
  8
SUNPOU
100
AcDbDimension
  2
*D129
 10
15017.46021981799
 20
9893.414480976842
 30
0.0
 11
14927.46021981799
 21
9791.382053950574
 31
0.0
 70
   128
 71
     5
 42
-1.0
100
AcDbAlignedDimension
 13
14561.25368146703
 23
9858.059141917516
 33
0.0
 14
13134.51232522181
 24
9893.414480976844
 34
0.0
 50
90.0
100
AcDbRotatedDimension
1001
ACAD_DSTYLE_DIMARC_LENGTH_SYMBOL
1070
   379
1070
     0
1001
ACAD_DSTYLE_DIMJOGGED_JOGANGLE_SYMBOL
1070
   384
1040
0.7853981633974483
1001
ACAD_DSTYLE_DIMTEXT_FILL
1070
   376
1070
     0
1001
ACAD_DSTYLE_DIMEXT_ENABLED
1070
   383
1070
     0
1001
ACAD_DSTYLE_DIMEXT_LENGTH
1070
   378
1040
1.0
1001
ACAD_DSTYLE_DIM_LINETYPE
1070
   380
1005
0
1001
ACAD_DSTYLE_DIM_EXT1_LINETYPE
1070
   381
1005
0
1001
ACAD_DSTYLE_DIM_EXT2_LINETYPE
1070
   382
1005
0
  0
TEXT
  5
A0A
330
17
100
AcDbEntity
  8
SUNPOU
100
AcDbText
 10
14978.48887311945
 20
9935.578854899682
 30
0.0
 40
90.0
  1
215
 50
90.0
  7
A
100
AcDbText
  0
TEXT
  5
A89
330
17
100
AcDbEntity
  8
SUNPOU
100
AcDbText
 10
11902.17520773125
 20
8060.483115910369
 30
0.0
 40
90.0
  1
デザインウォールコーナー右
  7
A
100
AcDbText
  0
TEXT
  5
A96
330
17
100
AcDbEntity
  8
SUNPOU
100
AcDbText
 10
9762.295234908268
 20
7536.037157390694
 30
0.0
 40
90.0
  1
デザインウォールコーナー本体
  7
A
100
AcDbText
  0
DIMENSION
  5
B19
330
17
100
AcDbEntity
  8
SUNPOU
100
AcDbDimension
  2
*D131
 10
7535.129423456056
 20
4653.598631727652
 30
0.0
 11
7445.129423456055
 21
3303.598631727653
 31
0.0
 70
    32
 71
     5
 42
2700.0
  3
STANDARD
100
AcDbAlignedDimension
 13
6264.920832966641
 23
1953.598631727652
 33
0.0
 14
6264.920832966641
 24
4653.598631727652
 34
0.0
 50
90.0
100
AcDbRotatedDimension
1001
ACAD
1000
DSTYLE
1002
{
1070
    41
1040
60.0
1070
    42
1040
40.0
1070
    43
1040
140.0
1070
    44
1040
20.0
1070
    73
1070
     0
1070
    74
1070
     0
1070
   140
1040
90.0
1070
   145
1040
1.0
1070
   172
1070
     1
1070
   271
1070
     0
1070
   272
1070
     0
1070
   275
1070
     1
1070
   279
1070
     2
1070
   340
1005
9E
1002
}
  0
ENDSEC
  0
SECTION
  2
OBJECTS
  0
DICTIONARY
  5
C
330
0
100
AcDbDictionary
281
     1
  3
ACAD_CIP_PREVIOUS_PRODUCT_INFO
350
A85
  3
ACAD_COLOR
350
A13
  3
ACAD_DETAILVIEWSTYLE
350
A80
  3
ACAD_GROUP
350
D
  3
ACAD_LAYOUT
350
A16
  3
ACAD_MATERIAL
350
A12
  3
ACAD_MLEADERSTYLE
350
A7C
  3
ACAD_MLINESTYLE
350
1A
  3
ACAD_PLOTSETTINGS
350
A17
  3
ACAD_PLOTSTYLENAME
350
A10
  3
ACAD_SCALELIST
350
A6A
  3
ACAD_SECTIONVIEWSTYLE
350
A7E
  3
ACAD_TABLESTYLE
350
A14
  3
ACAD_VISUALSTYLE
350
A51
  3
ACDB_RECOMPOSE_DATA
350
B81
  3
ACDBVARIABLEDICTIONARY
350
B3
  3
AcDsDecomposeData
350
B34
  0
DICTIONARY
  5
B76
330
8
100
AcDbDictionary
280
     1
281
     1
  3
ACAD_XREC_ROUNDTRIP
360
B77
  0
DICTIONARY
  5
AAC
330
2
100
AcDbDictionary
280
     1
281
     1
  3
ACAD_LAYERSTATES
360
AAD
  0
DICTIONARY
  5
A97
330
E
100
AcDbDictionary
280
     1
281
     1
  3
ADSK_XREC_LAYER_RECONCILED
360
A98
  0
DICTIONARY
  5
A99
330
A6
100
AcDbDictionary
280
     1
281
     1
  3
ADSK_XREC_LAYER_RECONCILED
360
A9A
  0
DICTIONARY
  5
A9B
330
A7
100
AcDbDictionary
280
     1
281
     1
  3
ADSK_XREC_LAYER_RECONCILED
360
A9C
  0
DICTIONARY
  5
A9D
330
A8
100
AcDbDictionary
280
     1
281
     1
  3
ADSK_XREC_LAYER_RECONCILED
360
A9E
  0
DICTIONARY
  5
A9F
330
A9
100
AcDbDictionary
280
     1
281
     1
  3
ADSK_XREC_LAYER_RECONCILED
360
AA0
  0
DICTIONARY
  5
AA1
330
AA
100
AcDbDictionary
280
     1
281
     1
  3
ADSK_XREC_LAYER_RECONCILED
360
AA2
  0
DICTIONARY
  5
AA3
330
AB
100
AcDbDictionary
280
     1
281
     1
  3
ADSK_XREC_LAYER_RECONCILED
360
AA4
  0
DICTIONARY
  5
AA5
330
AC
100
AcDbDictionary
280
     1
281
     1
  3
ADSK_XREC_LAYER_RECONCILED
360
AA6
  0
DICTIONARY
  5
AA7
330
AD
100
AcDbDictionary
280
     1
281
     1
  3
ADSK_XREC_LAYER_RECONCILED
360
AA8
  0
XRECORD
  5
A85
102
{ACAD_REACTORS
330
C
102
}
330
C
100
AcDbXrecord
280
     1
300
ACD
300
2014
300
ACD_F_S
  0
DICTIONARY
  5
A13
102
{ACAD_REACTORS
330
C
102
}
330
C
100
AcDbDictionary
281
     1
  0
DICTIONARY
  5
A80
102
{ACAD_REACTORS
330
C
102
}
330
C
100
AcDbDictionary
281
     1
  3
Imperial24
350
A81
  0
DICTIONARY
  5
D
102
{ACAD_REACTORS
330
C
102
}
330
C
100
AcDbDictionary
281
     1
  0
DICTIONARY
  5
A16
102
{ACAD_REACTORS
330
C
102
}
330
C
100
AcDbDictionary
281
     1
  3
Model
350
A18
  3
レイアウト1
350
A19
  0
DICTIONARY
  5
A12
102
{ACAD_REACTORS
330
C
102
}
330
C
100
AcDbDictionary
281
     1
  3
ByBlock
350
A41
  3
ByLayer
350
A39
  3
Global
350
A49
  0
DICTIONARY
  5
A7C
102
{ACAD_REACTORS
330
C
102
}
330
C
100
AcDbDictionary
281
     1
  3
Standard
350
A7D
  0
DICTIONARY
  5
1A
102
{ACAD_REACTORS
330
C
102
}
330
C
100
AcDbDictionary
281
     1
  3
STANDARD
350
1B
  0
DICTIONARY
  5
A17
102
{ACAD_REACTORS
330
C
102
}
330
C
100
AcDbDictionary
281
     1
  0
ACDBDICTIONARYWDFLT
  5
A10
102
{ACAD_REACTORS
330
C
102
}
330
C
100
AcDbDictionary
281
     1
  3
Normal
350
A11
100
AcDbDictionaryWithDefault
340
A11
  0
DICTIONARY
  5
A6A
102
{ACAD_REACTORS
330
C
102
}
330
C
100
AcDbDictionary
281
     1
  3
A0
350
A6B
  3
A1
350
A6C
  3
A2
350
A6D
  3
A3
350
A6E
  3
A4
350
A6F
  3
A5
350
A70
  3
A6
350
A71
  3
A7
350
A72
  3
A8
350
A73
  3
A9
350
A74
  3
B0
350
A75
  3
B1
350
A76
  3
B2
350
A77
  3
B3
350
A78
  3
B4
350
A79
  3
B5
350
A7A
  3
B6
350
A7B
  0
DICTIONARY
  5
A7E
102
{ACAD_REACTORS
330
C
102
}
330
C
100
AcDbDictionary
281
     1
  3
Imperial24
350
A7F
  0
DICTIONARY
  5
A14
102
{ACAD_REACTORS
330
C
102
}
330
C
100
AcDbDictionary
281
     1
  3
Standard
350
A15
  0
DICTIONARY
  5
A51
102
{ACAD_REACTORS
330
C
102
}
330
C
100
AcDbDictionary
281
     1
  3
2dWireframe
350
A57
  3
Basic
350
A56
  3
Brighten
350
A5D
  3
ColorChange
350
A61
  3
Conceptual
350
A5A
  3
Dim
350
A5C
  3
EdgeColorOff
350
A69
  3
Facepattern
350
A60
  3
Flat
350
A52
  3
FlatWithEdges
350
A53
  3
Gouraud
350
A54
  3
GouraudWithEdges
350
A55
  3
Hidden
350
A59
  3
JitterOff
350
A67
  3
Linepattern
350
A5F
  3
OverhangOff
350
A68
  3
Realistic
350
A5B
  3
Shaded
350
A66
  3
Shaded with edges
350
A65
  3
Shades of Gray
350
A62
  3
Sketchy
350
A63
  3
Thicken
350
A5E
  3
Wireframe
350
A58
  3
X-Ray
350
A64
  0
XRECORD
  5
B81
102
{ACAD_REACTORS
330
C
102
}
330
C
100
AcDbXrecord
280
     1
 90
        1
330
A15
  0
DICTIONARY
  5
B3
102
{ACAD_REACTORS
330
C
102
}
330
C
100
AcDbDictionary
281
     1
  3
CANNOSCALE
350
AFA
  3
CMLEADERSTYLE
350
AF6
  3
CTABLESTYLE
350
A35
  3
CVIEWDETAILSTYLE
350
AF7
  3
CVIEWSECTIONSTYLE
350
AF8
  3
DIMADEC
350
B4
  3
DIMASSOC
350
A36
  3
LAYEREVAL
350
AFC
  3
LAYERNOTIFY
350
AFD
  3
LIGHTINGUNITS
350
AFB
  3
MSLTSCALE
350
AF9
  3
PROJECTNAME
350
A37
  3
XCLIPFRAME
350
B6D
  0
DICTIONARY
  5
B34
102
{ACAD_REACTORS
330
C
102
}
330
C
100
AcDbDictionary
281
     1
  3
AcDsRecords
350
B36
  3
AcDsSchemas
350
B35
1001
ACAD
1070
     2
  0
XRECORD
  5
B77
102
{ACAD_REACTORS
330
B76
102
}
330
B76
100
AcDbXrecord
280
     1
102
VTR_0.000_0.000_1.000_1.000_VISUALSTYLE
340
A57
102
VTR_0.000_0.000_1.000_1.000_GRIDDISPLAY
 70
     3
102
VTR_0.000_0.000_1.000_1.000_GRIDMAJOR
 70
     5
102
VTR_0.000_0.000_1.000_1.000_DEFAULTLIGHTING
280
     1
102
VTR_0.000_0.000_1.000_1.000_DEFAULTLIGHTINGTYPE
 70
     1
102
VTR_0.000_0.000_1.000_1.000_BRIGHTNESS
141
0.0
102
VTR_0.000_0.000_1.000_1.000_CONTRAST
142
0.0
  0
DICTIONARY
  5
AAD
102
{ACAD_REACTORS
330
AAC
102
}
330
AAC
100
AcDbDictionary
281
     1
  0
XRECORD
  5
A98
102
{ACAD_REACTORS
330
A97
102
}
330
A97
100
AcDbXrecord
280
     1
290
     1
  0
XRECORD
  5
A9A
102
{ACAD_REACTORS
330
A99
102
}
330
A99
100
AcDbXrecord
280
     1
290
     1
  0
XRECORD
  5
A9C
102
{ACAD_REACTORS
330
A9B
102
}
330
A9B
100
AcDbXrecord
280
     1
290
     1
  0
XRECORD
  5
A9E
102
{ACAD_REACTORS
330
A9D
102
}
330
A9D
100
AcDbXrecord
280
     1
290
     1
  0
XRECORD
  5
AA0
102
{ACAD_REACTORS
330
A9F
102
}
330
A9F
100
AcDbXrecord
280
     1
290
     1
  0
XRECORD
  5
AA2
102
{ACAD_REACTORS
330
AA1
102
}
330
AA1
100
AcDbXrecord
280
     1
290
     1
  0
XRECORD
  5
AA4
102
{ACAD_REACTORS
330
AA3
102
}
330
AA3
100
AcDbXrecord
280
     1
290
     1
  0
XRECORD
  5
AA6
102
{ACAD_REACTORS
330
AA5
102
}
330
AA5
100
AcDbXrecord
280
     1
290
     1
  0
XRECORD
  5
AA8
102
{ACAD_REACTORS
330
AA7
102
}
330
AA7
100
AcDbXrecord
280
     1
290
     1
  0
ACAD_PROXY_OBJECT
  5
A81
102
{ACAD_REACTORS
330
A80
102
}
102
{ACAD_XDICTIONARY
360
B6B
102
}
330
A80
100
AcDbProxyObject
 90
      499
 91
      511
 95
  3276827
 70
     0
 93
     2314
310
9207000000180005C0F42F5A8DC671F815AF46E07A15AE7E07000000180005C0F42F5A8DC671FA3300000018001000000180005C0F42F5A8DC671FA02000000000000741FA028CC00000060002330000001800000852480368038003280390034803080360019001A004AD12801E002E00208031802B003080390010002B00
310
348032803B802A003C803800328010002E0033001000110012803A003180188011001F001280100012801E002E00208031802B003080390010002B00348032803B80220032803A00308034803600248032001F0012802E00280029802180208026002280100012801E002E00208031802B003080390010002B00348032803B
310
802980318030803600328010002E0033001000110012803980370011001F0012802B0340
340
F
340
0
340
13
340
F
340
13
340
13
 94
        0
  0
LAYOUT
  5
A18
102
{ACAD_REACTORS
330
A16
102
}
102
{ACAD_XDICTIONARY
360
ABD
102
}
330
A16
100
AcDbPlotSettings
  1

  2
RICOH IPSiO NX850 RPCS
  4

  6

 40
0.0
 41
0.0
 42
0.0
 43
0.0
 44
0.0
 45
0.0
 46
0.0
 47
0.0
 48
0.0
 49
0.0
140
0.0
141
0.0
142
1.0
143
1.0
 70
  1712
 72
     0
 73
     0
 74
     0
  7

 75
     0
 76
     0
 77
     2
 78
   300
147
1.0
148
0.0
149
0.0
100
AcDbLayout
  1
Model
 70
     1
 71
     0
 10
0.0
 20
0.0
 11
12.0
 21
9.0
 12
0.0
 22
0.0
 32
0.0
 14
0.0
 24
0.0
 34
0.0
 15
0.0
 25
0.0
 35
0.0
146
0.0
 13
0.0
 23
0.0
 33
0.0
 16
1.0
 26
0.0
 36
0.0
 17
0.0
 27
1.0
 37
0.0
 76
     0
330
17
331
A2F
  0
LAYOUT
  5
A19
102
{ACAD_REACTORS
330
A16
102
}
330
A16
100
AcDbPlotSettings
  1

  2
RICOH IPSiO NX850 RPCS
  4

  6

 40
0.0
 41
0.0
 42
0.0
 43
0.0
 44
0.0
 45
0.0
 46
0.0
 47
0.0
 48
0.0
 49
0.0
140
0.0
141
0.0
142
1.0
143
1.0
 70
   688
 72
     0
 73
     0
 74
     5
  7

 75
    16
 76
     0
 77
     2
 78
   300
147
1.0
148
0.0
149
0.0
100
AcDbLayout
  1
レイアウト1
 70
     0
 71
     1
 10
0.0
 20
0.0
 11
12.0
 21
9.0
 12
0.0
 22
0.0
 32
0.0
 14
1.000000000000000E+20
 24
1.000000000000000E+20
 34
1.000000000000000E+20
 15
-1.000000000000000E+20
 25
-1.000000000000000E+20
 35
-1.000000000000000E+20
146
0.0
 13
0.0
 23
0.0
 33
0.0
 16
1.0
 26
0.0
 36
0.0
 17
0.0
 27
1.0
 37
0.0
 76
     0
330
14
  0
MATERIAL
  5
A41
102
{ACAD_REACTORS
330
A12
102
}
102
{ACAD_XDICTIONARY
360
B78
102
}
330
A12
100
AcDbMaterial
  1
ByBlock
 72
     0
 73
     2
 43
0.0208333333333333
 43
0.0
 43
0.0
 43
0.0
 43
0.0
 43
0.0208333333333333
 43
0.0
 43
0.0
 43
0.0
 43
0.0
 43
1.0
 43
0.0
 43
0.0
 43
0.0
 43
0.0
 43
1.0
 77
     0
 78
     2
 47
0.0208333333333333
 47
0.0
 47
0.0
 47
0.0
 47
0.0
 47
0.0208333333333333
 47
0.0
 47
0.0
 47
0.0
 47
0.0
 47
1.0
 47
0.0
 47
0.0
 47
0.0
 47
0.0
 47
1.0
171
     0
172
     2
 49
0.0208333333333333
 49
0.0
 49
0.0
 49
0.0
 49
0.0
 49
0.0208333333333333
 49
0.0
 49
0.0
 49
0.0
 49
0.0
 49
1.0
 49
0.0
 49
0.0
 49
0.0
 49
0.0
 49
1.0
175
     0
176
     2
142
0.0208333333333333
142
0.0
142
0.0
142
0.0
142
0.0
142
0.0208333333333333
142
0.0
142
0.0
142
0.0
142
0.0
142
1.0
142
0.0
142
0.0
142
0.0
142
0.0
142
1.0
179
     0
270
     2
144
0.0208333333333333
144
0.0
144
0.0
144
0.0
144
0.0
144
0.0208333333333333
144
0.0
144
0.0
144
0.0
144
0.0
144
1.0
144
0.0
144
0.0
144
0.0
144
0.0
144
1.0
274
     2
147
0.0208333333333333
147
0.0
147
0.0
147
0.0
147
0.0
147
0.0208333333333333
147
0.0
147
0.0
147
0.0
147
0.0
147
1.0
147
0.0
147
0.0
147
0.0
147
0.0
147
1.0
  0
MATERIAL
  5
A39
102
{ACAD_REACTORS
330
A12
102
}
102
{ACAD_XDICTIONARY
360
B7A
102
}
330
A12
100
AcDbMaterial
  1
ByLayer
 72
     0
 73
     2
 43
0.0208333333333333
 43
0.0
 43
0.0
 43
0.0
 43
0.0
 43
0.0208333333333333
 43
0.0
 43
0.0
 43
0.0
 43
0.0
 43
1.0
 43
0.0
 43
0.0
 43
0.0
 43
0.0
 43
1.0
 77
     0
 78
     2
 47
0.0208333333333333
 47
0.0
 47
0.0
 47
0.0
 47
0.0
 47
0.0208333333333333
 47
0.0
 47
0.0
 47
0.0
 47
0.0
 47
1.0
 47
0.0
 47
0.0
 47
0.0
 47
0.0
 47
1.0
171
     0
172
     2
 49
0.0208333333333333
 49
0.0
 49
0.0
 49
0.0
 49
0.0
 49
0.0208333333333333
 49
0.0
 49
0.0
 49
0.0
 49
0.0
 49
1.0
 49
0.0
 49
0.0
 49
0.0
 49
0.0
 49
1.0
175
     0
176
     2
142
0.0208333333333333
142
0.0
142
0.0
142
0.0
142
0.0
142
0.0208333333333333
142
0.0
142
0.0
142
0.0
142
0.0
142
1.0
142
0.0
142
0.0
142
0.0
142
0.0
142
1.0
179
     0
270
     2
144
0.0208333333333333
144
0.0
144
0.0
144
0.0
144
0.0
144
0.0208333333333333
144
0.0
144
0.0
144
0.0
144
0.0
144
1.0
144
0.0
144
0.0
144
0.0
144
0.0
144
1.0
274
     2
147
0.0208333333333333
147
0.0
147
0.0
147
0.0
147
0.0
147
0.0208333333333333
147
0.0
147
0.0
147
0.0
147
0.0
147
1.0
147
0.0
147
0.0
147
0.0
147
0.0
147
1.0
  0
MATERIAL
  5
A49
102
{ACAD_REACTORS
330
A12
102
}
102
{ACAD_XDICTIONARY
360
B7C
102
}
330
A12
100
AcDbMaterial
  1
Global
 72
     0
 73
     2
 43
0.0208333333333333
 43
0.0
 43
0.0
 43
0.0
 43
0.0
 43
0.0208333333333333
 43
0.0
 43
0.0
 43
0.0
 43
0.0
 43
1.0
 43
0.0
 43
0.0
 43
0.0
 43
0.0
 43
1.0
 77
     0
 78
     2
 47
0.0208333333333333
 47
0.0
 47
0.0
 47
0.0
 47
0.0
 47
0.0208333333333333
 47
0.0
 47
0.0
 47
0.0
 47
0.0
 47
1.0
 47
0.0
 47
0.0
 47
0.0
 47
0.0
 47
1.0
171
     0
172
     2
 49
0.0208333333333333
 49
0.0
 49
0.0
 49
0.0
 49
0.0
 49
0.0208333333333333
 49
0.0
 49
0.0
 49
0.0
 49
0.0
 49
1.0
 49
0.0
 49
0.0
 49
0.0
 49
0.0
 49
1.0
175
     0
176
     2
142
0.0208333333333333
142
0.0
142
0.0
142
0.0
142
0.0
142
0.0208333333333333
142
0.0
142
0.0
142
0.0
142
0.0
142
1.0
142
0.0
142
0.0
142
0.0
142
0.0
142
1.0
179
     0
270
     2
144
0.0208333333333333
144
0.0
144
0.0
144
0.0
144
0.0
144
0.0208333333333333
144
0.0
144
0.0
144
0.0
144
0.0
144
1.0
144
0.0
144
0.0
144
0.0
144
0.0
144
1.0
274
     2
147
0.0208333333333333
147
0.0
147
0.0
147
0.0
147
0.0
147
0.0208333333333333
147
0.0
147
0.0
147
0.0
147
0.0
147
1.0
147
0.0
147
0.0
147
0.0
147
0.0
147
1.0
  0
MLEADERSTYLE
  5
A7D
102
{ACAD_REACTORS
330
A7C
102
}
330
A7C
100
AcDbMLeaderStyle
170
     2
171
     1
172
     0
 90
        2
 40
0.0
 41
0.0
173
     1
 91
-1056964608
340
11
 92
       -2
290
     1
 42
0.09
291
     1
 43
0.36
  3
Standard
341
0
 44
0.18
300

342
F
174
     1
178
     6
175
     1
176
     0
 93
-1056964608
 45
0.18
292
     0
297
     0
 46
0.18
343
0
 94
-1056964608
 47
1.0
 49
1.0
140
1.0
293
     1
141
0.0
294
     1
177
     0
142
1.0
295
     0
296
     0
143
0.125
1001
ACAD_MLEADERVER
1070
     2
  0
MLINESTYLE
  5
1B
102
{ACAD_REACTORS
330
1A
102
}
330
1A
100
AcDbMlineStyle
  2
STANDARD
 70
     0
  3

 62
   256
 51
90.0
 52
90.0
 71
     2
 49
0.5
 62
   256
  6
BYLAYER
 49
-0.5
 62
   256
  6
BYLAYER
  0
ACDBPLACEHOLDER
  5
A11
102
{ACAD_REACTORS
330
A10
102
}
330
A10
  0
SCALE
  5
A6B
102
{ACAD_REACTORS
330
A6A
102
}
330
A6A
100
AcDbScale
 70
     0
300
1:1
140
1.0
141
1.0
290
     1
  0
SCALE
  5
A6C
102
{ACAD_REACTORS
330
A6A
102
}
330
A6A
100
AcDbScale
 70
     0
300
1/128" = 1'-0"
140
0.0078125
141
12.0
290
     0
  0
SCALE
  5
A6D
102
{ACAD_REACTORS
330
A6A
102
}
330
A6A
100
AcDbScale
 70
     0
300
1/64" = 1'-0"
140
0.015625
141
12.0
290
     0
  0
SCALE
  5
A6E
102
{ACAD_REACTORS
330
A6A
102
}
330
A6A
100
AcDbScale
 70
     0
300
1/32" = 1'-0"
140
0.03125
141
12.0
290
     0
  0
SCALE
  5
A6F
102
{ACAD_REACTORS
330
A6A
102
}
330
A6A
100
AcDbScale
 70
     0
300
1/16" = 1'-0"
140
0.0625
141
12.0
290
     0
  0
SCALE
  5
A70
102
{ACAD_REACTORS
330
A6A
102
}
330
A6A
100
AcDbScale
 70
     0
300
3/32" = 1'-0"
140
0.09375
141
12.0
290
     0
  0
SCALE
  5
A71
102
{ACAD_REACTORS
330
A6A
102
}
330
A6A
100
AcDbScale
 70
     0
300
1/8" = 1'-0"
140
0.125
141
12.0
290
     0
  0
SCALE
  5
A72
102
{ACAD_REACTORS
330
A6A
102
}
330
A6A
100
AcDbScale
 70
     0
300
3/16" = 1'-0"
140
0.1875
141
12.0
290
     0
  0
SCALE
  5
A73
102
{ACAD_REACTORS
330
A6A
102
}
330
A6A
100
AcDbScale
 70
     0
300
1/4" = 1'-0"
140
0.25
141
12.0
290
     0
  0
SCALE
  5
A74
102
{ACAD_REACTORS
330
A6A
102
}
330
A6A
100
AcDbScale
 70
     0
300
3/8" = 1'-0"
140
0.375
141
12.0
290
     0
  0
SCALE
  5
A75
102
{ACAD_REACTORS
330
A6A
102
}
330
A6A
100
AcDbScale
 70
     0
300
1/2" = 1'-0"
140
0.5
141
12.0
290
     0
  0
SCALE
  5
A76
102
{ACAD_REACTORS
330
A6A
102
}
330
A6A
100
AcDbScale
 70
     0
300
3/4" = 1'-0"
140
0.75
141
12.0
290
     0
  0
SCALE
  5
A77
102
{ACAD_REACTORS
330
A6A
102
}
330
A6A
100
AcDbScale
 70
     0
300
1" = 1'-0"
140
1.0
141
12.0
290
     0
  0
SCALE
  5
A78
102
{ACAD_REACTORS
330
A6A
102
}
330
A6A
100
AcDbScale
 70
     0
300
1-1/2" = 1'-0"
140
1.5
141
12.0
290
     0
  0
SCALE
  5
A79
102
{ACAD_REACTORS
330
A6A
102
}
330
A6A
100
AcDbScale
 70
     0
300
3" = 1'-0"
140
3.0
141
12.0
290
     0
  0
SCALE
  5
A7A
102
{ACAD_REACTORS
330
A6A
102
}
330
A6A
100
AcDbScale
 70
     0
300
6" = 1'-0"
140
6.0
141
12.0
290
     0
  0
SCALE
  5
A7B
102
{ACAD_REACTORS
330
A6A
102
}
330
A6A
100
AcDbScale
 70
     0
300
1'-0" = 1'-0"
140
12.0
141
12.0
290
     0
  0
ACAD_PROXY_OBJECT
  5
A7F
102
{ACAD_REACTORS
330
A7E
102
}
102
{ACAD_XDICTIONARY
360
B69
102
}
330
A7E
100
AcDbProxyObject
 90
      499
 91
      510
 95
  3276827
 70
     0
 93
     3814
310
929D000000180005C0F42F5A8DC671FC00000060001703D0BD6A3719C7E5C0F42F5A8DC6F1FA330000001800099400000060001703D0BD6A3719C7E5C0F42F5A8DC671FC00000060001703D0BD6A3719C7E808000000000001D07E80C0000006000400000064003081815AF46E07A158E7E80C8340C16A22A7D90FC9F8CAE6
310
5A70A583A07E1FE81C635378FA1F8CAE65A70A583A17E7944A7F127A97E9FA149200DA00E000CA00E400D200C200D80064006800882480160010002780160010002880160010002980160010002C00160010002D002F84A007800B8008200C600AC00C200E4004000AC00D200CA00EE00A800F200E000CA004000B800CC004
310
00044004A00E800C600620044007C004A0040004A007800B8008200C600AC00C200E4004000AC00D200CA00EE00A600CA00C600E800D200DE00DC00A600E800C200E400E8009200C8007C004A005A004A007800B8008200C600AC00C200E4004000AC00D200CA00EE00A600CA00C600E800D200DE00DC008A00DC00C800920
310
0C8007C004A00B800A000A6008600820098008A0040004A007800B8008200C600AC00C200E4004000AC00D200CA00EE00A600C600C200D800CA004000B800CC00400044004A00E600DC0044007C004A00832080270029802480198018807404C
340
F
340
0
340
0
340
13
340
13
340
F
 94
        0
  0
TABLESTYLE
  5
A15
102
{ACAD_REACTORS
330
A14
102
}
102
{ACAD_XDICTIONARY
360
B7E
102
}
330
A14
100
AcDbTableStyle
  3
Standard
 70
     0
 71
     0
 40
0.06
 41
0.06
280
     0
281
     0
  7
STANDARD
140
0.18
170
     2
 62
     0
 63
   257
283
     0
274
    -2
284
     1
 64
     0
275
    -2
285
     1
 65
     0
276
    -2
286
     1
 66
     0
277
    -2
287
     1
 67
     0
278
    -2
288
     1
 68
     0
279
    -2
289
     1
 69
     0
  7
STANDARD
140
0.25
170
     5
 62
     0
 63
   257
283
     0
274
    -2
284
     1
 64
     0
275
    -2
285
     1
 65
     0
276
    -2
286
     1
 66
     0
277
    -2
287
     1
 67
     0
278
    -2
288
     1
 68
     0
279
    -2
289
     1
 69
     0
  7
STANDARD
140
0.18
170
     5
 62
     0
 63
   257
283
     0
274
    -2
284
     1
 64
     0
275
    -2
285
     1
 65
     0
276
    -2
286
     1
 66
     0
277
    -2
287
     1
 67
     0
278
    -2
288
     1
 68
     0
279
    -2
289
     1
 69
     0
  0
VISUALSTYLE
  5
A57
102
{ACAD_REACTORS
330
A51
102
}
102
{ACAD_XDICTIONARY
360
B82
102
}
330
A51
100
AcDbVisualStyle
  2
2dWireframe
 70
     4
 71
     0
 72
     2
 73
     0
 90
        0
 40
-0.6
 41
-30.0
 62
     5
 63
     7
421
 16777215
 74
     1
 91
        4
 64
     7
 65
   257
 75
     1
175
     1
 42
1.0
 92
        0
 66
   257
 43
1.0
 76
     1
 77
     6
 78
     2
 67
     7
 79
     5
170
     0
171
     0
290
     0
174
     0
 93
        1
 44
0.0
173
     0
291
     0
 45
0.0
1001
ACAD
1000
AcDbSavedByObjectVersion
1070
     0
  0
VISUALSTYLE
  5
A56
102
{ACAD_REACTORS
330
A51
102
}
102
{ACAD_XDICTIONARY
360
B84
102
}
330
A51
100
AcDbVisualStyle
  2
Basic
 70
     7
 71
     1
 72
     0
 73
     1
 90
        0
 40
-0.6
 41
-30.0
 62
     5
 63
     7
421
 16777215
 74
     0
 91
        4
 64
     7
 65
   257
 75
     1
175
     1
 42
1.0
 92
        8
 66
     7
 43
1.0
 76
     1
 77
     6
 78
     2
 67
     7
 79
     5
170
     0
171
     0
290
     0
174
     0
 93
        1
 44
0.0
173
     0
291
     1
 45
0.0
1001
ACAD
1000
AcDbSavedByObjectVersion
1070
     0
  0
VISUALSTYLE
  5
A5D
102
{ACAD_REACTORS
330
A51
102
}
102
{ACAD_XDICTIONARY
360
B86
102
}
330
A51
100
AcDbVisualStyle
  2
Brighten
 70
    12
 71
     2
 72
     2
 73
     0
 90
        0
 40
-0.6
 41
-30.0
 62
     5
 63
     7
421
 16777215
 74
     1
 91
        4
 64
     7
 65
   257
 75
     1
175
     1
 42
1.0
 92
        8
 66
     7
 43
1.0
 76
     1
 77
     6
 78
     2
 67
     7
 79
     5
170
     0
171
     0
290
     0
174
     0
 93
        1
 44
50.0
173
     0
291
     1
 45
0.0
1001
ACAD
1000
AcDbSavedByObjectVersion
1070
     0
  0
VISUALSTYLE
  5
A61
102
{ACAD_REACTORS
330
A51
102
}
102
{ACAD_XDICTIONARY
360
B88
102
}
330
A51
100
AcDbVisualStyle
  2
ColorChange
 70
    16
 71
     2
 72
     2
 73
     3
 90
        0
 40
-0.6
 41
-30.0
 62
     5
 63
     8
421
  8421504
 74
     1
 91
        4
 64
     7
 65
   257
 75
     1
175
     1
 42
1.0
 92
        8
 66
     8
424
  8421504
 43
1.0
 76
     1
 77
     6
 78
     2
 67
     7
 79
     5
170
     0
171
     0
290
     0
174
     0
 93
        1
 44
0.0
173
     0
291
     1
 45
0.0
1001
ACAD
1000
AcDbSavedByObjectVersion
1070
     0
  0
VISUALSTYLE
  5
A5A
102
{ACAD_REACTORS
330
A51
102
}
102
{ACAD_XDICTIONARY
360
B8A
102
}
330
A51
100
AcDbVisualStyle
  2
Conceptual
 70
     9
 71
     3
 72
     2
 73
     0
 90
        0
 40
-0.6
 41
-30.0
 62
     5
 63
     7
421
 16777215
 74
     2
 91
        2
 64
     7
 65
   257
 75
     1
175
     1
 42
179.0
 92
        8
 66
     7
 43
1.0
 76
     1
 77
     6
 78
     2
 67
     7
 79
     3
170
     0
171
     0
290
     0
174
     0
 93
        1
 44
0.0
173
     0
291
     0
 45
0.0
1001
ACAD
1000
AcDbSavedByObjectVersion
1070
     0
  0
VISUALSTYLE
  5
A5C
102
{ACAD_REACTORS
330
A51
102
}
102
{ACAD_XDICTIONARY
360
B8C
102
}
330
A51
100
AcDbVisualStyle
  2
Dim
 70
    11
 71
     2
 72
     2
 73
     0
 90
        0
 40
-0.6
 41
-30.0
 62
     5
 63
     7
421
 16777215
 74
     1
 91
        4
 64
     7
 65
   257
 75
     1
175
     1
 42
1.0
 92
        8
 66
     7
 43
1.0
 76
     1
 77
     6
 78
     2
 67
     7
 79
     5
170
     0
171
     0
290
     0
174
     0
 93
        1
 44
-50.0
173
     0
291
     1
 45
0.0
1001
ACAD
1000
AcDbSavedByObjectVersion
1070
     0
  0
VISUALSTYLE
  5
A69
102
{ACAD_REACTORS
330
A51
102
}
102
{ACAD_XDICTIONARY
360
B8E
102
}
330
A51
100
AcDbVisualStyle
  2
EdgeColorOff
 70
    22
 71
     2
 72
     2
 73
     0
 90
        0
 40
-0.6
 41
-30.0
 62
     5
 63
     7
421
 16777215
 74
     1
 91
        4
 64
     7
 65
   257
 75
     1
175
     1
 42
1.0
 92
        8
 66
     7
 43
1.0
 76
     1
 77
     6
 78
     2
 67
     7
 79
     5
170
     0
171
     0
290
     0
174
     0
 93
        1
 44
0.0
173
     0
291
     1
 45
0.0
1001
ACAD
1000
AcDbSavedByObjectVersion
1070
     0
  0
VISUALSTYLE
  5
A60
102
{ACAD_REACTORS
330
A51
102
}
102
{ACAD_XDICTIONARY
360
B90
102
}
330
A51
100
AcDbVisualStyle
  2
Facepattern
 70
    15
 71
     2
 72
     2
 73
     0
 90
        0
 40
-0.6
 41
-30.0
 62
     5
 63
     7
421
 16777215
 74
     1
 91
        4
 64
     7
 65
   257
 75
     1
175
     1
 42
1.0
 92
        8
 66
     7
 43
1.0
 76
     1
 77
     6
 78
     2
 67
     7
 79
     5
170
     0
171
     0
290
     0
174
     0
 93
        1
 44
0.0
173
     0
291
     1
 45
0.0
1001
ACAD
1000
AcDbSavedByObjectVersion
1070
     0
  0
VISUALSTYLE
  5
A52
102
{ACAD_REACTORS
330
A51
102
}
102
{ACAD_XDICTIONARY
360
B92
102
}
330
A51
100
AcDbVisualStyle
  2
Flat
 70
     0
 71
     2
 72
     1
 73
     1
 90
        2
 40
-0.6
 41
30.0
 62
     5
 63
     7
421
 16777215
 74
     0
 91
        0
 64
     7
 65
   257
 75
     1
175
     1
 42
1.0
 92
        8
 66
     7
 43
1.0
 76
     1
 77
     6
 78
     2
 67
     7
 79
     5
170
     0
171
     0
290
     0
174
     0
 93
       13
 44
0.0
173
     0
291
     1
 45
0.0
1001
ACAD
1000
AcDbSavedByObjectVersion
1070
     0
  0
VISUALSTYLE
  5
A53
102
{ACAD_REACTORS
330
A51
102
}
102
{ACAD_XDICTIONARY
360
B94
102
}
330
A51
100
AcDbVisualStyle
  2
FlatWithEdges
 70
     1
 71
     2
 72
     1
 73
     1
 90
        2
 40
-0.6
 41
30.0
 62
     5
 63
     7
421
 16777215
 74
     1
 91
        0
 64
     7
 65
   257
 75
     1
175
     1
 42
1.0
 92
        0
 66
   257
 43
1.0
 76
     1
 77
     6
 78
     2
 67
     7
 79
     5
170
     0
171
     0
290
     0
174
     0
 93
       13
 44
0.0
173
     0
291
     1
 45
0.0
1001
ACAD
1000
AcDbSavedByObjectVersion
1070
     0
  0
VISUALSTYLE
  5
A54
102
{ACAD_REACTORS
330
A51
102
}
102
{ACAD_XDICTIONARY
360
B96
102
}
330
A51
100
AcDbVisualStyle
  2
Gouraud
 70
     2
 71
     2
 72
     2
 73
     1
 90
        2
 40
-0.6
 41
30.0
 62
     5
 63
     7
421
 16777215
 74
     0
 91
        0
 64
     7
 65
   257
 75
     1
175
     1
 42
1.0
 92
        0
 66
     7
 43
1.0
 76
     1
 77
     6
 78
     2
 67
     7
 79
     5
170
     0
171
     0
290
     0
174
     0
 93
       13
 44
0.0
173
     0
291
     1
 45
0.0
1001
ACAD
1000
AcDbSavedByObjectVersion
1070
     0
  0
VISUALSTYLE
  5
A55
102
{ACAD_REACTORS
330
A51
102
}
102
{ACAD_XDICTIONARY
360
B98
102
}
330
A51
100
AcDbVisualStyle
  2
GouraudWithEdges
 70
     3
 71
     2
 72
     2
 73
     1
 90
        2
 40
-0.6
 41
30.0
 62
     5
 63
     7
421
 16777215
 74
     1
 91
        0
 64
     7
 65
   257
 75
     1
175
     1
 42
1.0
 92
        0
 66
   257
 43
1.0
 76
     1
 77
     6
 78
     2
 67
     7
 79
     5
170
     0
171
     0
290
     0
174
     0
 93
       13
 44
0.0
173
     0
291
     1
 45
0.0
1001
ACAD
1000
AcDbSavedByObjectVersion
1070
     0
  0
VISUALSTYLE
  5
A59
102
{ACAD_REACTORS
330
A51
102
}
102
{ACAD_XDICTIONARY
360
B9A
102
}
330
A51
100
AcDbVisualStyle
  2
Hidden
 70
     6
 71
     1
 72
     2
 73
     2
 90
        0
 40
-0.6
 41
-30.0
 62
     5
 63
     7
421
 16777215
 74
     2
 91
        2
 64
     7
 65
   257
 75
     2
175
     1
 42
40.0
 92
        0
 66
   257
 43
1.0
 76
     1
 77
     6
 78
     2
 67
     7
 79
     3
170
     0
171
     0
290
     0
174
     0
 93
        1
 44
0.0
173
     0
291
     0
 45
0.0
1001
ACAD
1000
AcDbSavedByObjectVersion
1070
     0
  0
VISUALSTYLE
  5
A67
102
{ACAD_REACTORS
330
A51
102
}
102
{ACAD_XDICTIONARY
360
B9C
102
}
330
A51
100
AcDbVisualStyle
  2
JitterOff
 70
    20
 71
     2
 72
     2
 73
     0
 90
        0
 40
-0.6
 41
-30.0
 62
     5
 63
     7
421
 16777215
 74
     1
 91
        4
 64
     7
 65
   257
 75
     1
175
     1
 42
1.0
 92
       10
 66
     7
 43
1.0
 76
     1
 77
     6
 78
     2
 67
     7
 79
     5
170
     0
171
     0
290
     0
174
     0
 93
        1
 44
0.0
173
     0
291
     1
 45
0.0
1001
ACAD
1000
AcDbSavedByObjectVersion
1070
     0
  0
VISUALSTYLE
  5
A5F
102
{ACAD_REACTORS
330
A51
102
}
102
{ACAD_XDICTIONARY
360
B9E
102
}
330
A51
100
AcDbVisualStyle
  2
Linepattern
 70
    14
 71
     2
 72
     2
 73
     0
 90
        0
 40
-0.6
 41
-30.0
 62
     5
 63
     7
421
 16777215
 74
     1
 91
        4
 64
     7
 65
   257
 75
     7
175
     7
 42
1.0
 92
        8
 66
     7
 43
1.0
 76
     1
 77
     6
 78
     2
 67
     7
 79
     5
170
     0
171
     0
290
     0
174
     0
 93
        1
 44
0.0
173
     0
291
     1
 45
0.0
1001
ACAD
1000
AcDbSavedByObjectVersion
1070
     0
  0
VISUALSTYLE
  5
A68
102
{ACAD_REACTORS
330
A51
102
}
102
{ACAD_XDICTIONARY
360
BA0
102
}
330
A51
100
AcDbVisualStyle
  2
OverhangOff
 70
    21
 71
     2
 72
     2
 73
     0
 90
        0
 40
-0.6
 41
-30.0
 62
     5
 63
     7
421
 16777215
 74
     1
 91
        4
 64
     7
 65
   257
 75
     1
175
     1
 42
1.0
 92
        9
 66
     7
 43
1.0
 76
     1
 77
     6
 78
     2
 67
     7
 79
     5
170
     0
171
     0
290
     0
174
     0
 93
        1
 44
0.0
173
     0
291
     1
 45
0.0
1001
ACAD
1000
AcDbSavedByObjectVersion
1070
     0
  0
VISUALSTYLE
  5
A5B
102
{ACAD_REACTORS
330
A51
102
}
102
{ACAD_XDICTIONARY
360
BA2
102
}
330
A51
100
AcDbVisualStyle
  2
Realistic
 70
     8
 71
     2
 72
     2
 73
     0
 90
        2
 40
-0.6
 41
30.0
 62
     5
 63
     7
421
 16777215
 74
     0
 91
        0
 64
     7
 65
   257
 75
     1
175
     1
 42
1.0
 92
        8
 66
   257
 43
1.0
 76
     1
 77
     6
 78
     2
 67
     7
 79
     3
170
     0
171
     0
290
     0
174
     0
 93
       13
 44
0.0
173
     0
291
     0
 45
0.0
1001
ACAD
1000
AcDbSavedByObjectVersion
1070
     0
  0
VISUALSTYLE
  5
A66
102
{ACAD_REACTORS
330
A51
102
}
102
{ACAD_XDICTIONARY
360
BA4
102
}
330
A51
100
AcDbVisualStyle
  2
Shaded
 70
    27
 71
     2
 72
     2
 73
     1
 90
        2
 40
-0.6
 41
30.0
 62
     5
 63
     7
421
 16777215
 74
     0
 91
        4
 64
     7
 65
   257
 75
     1
175
     1
 42
1.0
 92
        8
 66
   257
 43
1.0
 76
     1
 77
     6
 78
     2
 67
     8
425
  7895160
 79
     3
170
     0
171
     0
290
     0
174
     0
 93
        5
 44
0.0
173
     0
291
     0
 45
0.0
1001
ACAD
1000
AcDbSavedByObjectVersion
1070
     0
  0
VISUALSTYLE
  5
A65
102
{ACAD_REACTORS
330
A51
102
}
102
{ACAD_XDICTIONARY
360
BA6
102
}
330
A51
100
AcDbVisualStyle
  2
Shaded with edges
 70
    26
 71
     2
 72
     2
 73
     1
 90
        2
 40
-0.6
 41
30.0
 62
     5
 63
     7
421
 16777215
 74
     1
 91
       10
 64
     7
 65
   257
 75
     2
175
     1
 42
1.0
 92
        8
 66
   257
 43
1.0
 76
     1
 77
     6
 78
     2
 67
     7
 79
     3
170
     0
171
     0
290
     0
174
     0
 93
        5
 44
0.0
173
     0
291
     0
 45
0.0
1001
ACAD
1000
AcDbSavedByObjectVersion
1070
     0
  0
VISUALSTYLE
  5
A62
102
{ACAD_REACTORS
330
A51
102
}
102
{ACAD_XDICTIONARY
360
BA8
102
}
330
A51
100
AcDbVisualStyle
  2
Shades of Gray
 70
    23
 71
     2
 72
     2
 73
     3
 90
        0
 40
-0.6
 41
-30.0
 62
     5
 63
     7
421
 16777215
 74
     2
 91
        2
 64
     7
 65
     7
 75
     1
175
     1
 42
40.0
 92
        8
 66
     7
 43
1.0
 76
     1
 77
     6
 78
     2
 67
     7
 79
     3
170
     0
171
     0
290
     0
174
     0
 93
        1
 44
0.0
173
     0
291
     0
 45
0.0
1001
ACAD
1000
AcDbSavedByObjectVersion
1070
     0
  0
VISUALSTYLE
  5
A63
102
{ACAD_REACTORS
330
A51
102
}
102
{ACAD_XDICTIONARY
360
BAA
102
}
330
A51
100
AcDbVisualStyle
  2
Sketchy
 70
    24
 71
     1
 72
     2
 73
     2
 90
        0
 40
-0.6
 41
-30.0
 62
     5
 63
     7
421
 16777215
 74
     2
 91
        2
 64
     7
 65
     7
 75
     1
175
     1
 42
40.0
 92
       11
 66
     7
 43
1.0
 76
     1
 77
     6
 78
     2
 67
     7
 79
     6
170
     0
171
     0
290
     0
174
     0
 93
        1
 44
0.0
173
     0
291
     0
 45
0.0
1001
ACAD
1000
AcDbSavedByObjectVersion
1070
     0
  0
VISUALSTYLE
  5
A5E
102
{ACAD_REACTORS
330
A51
102
}
102
{ACAD_XDICTIONARY
360
BAC
102
}
330
A51
100
AcDbVisualStyle
  2
Thicken
 70
    13
 71
     2
 72
     2
 73
     0
 90
        0
 40
-0.6
 41
-30.0
 62
     5
 63
     7
421
 16777215
 74
     1
 91
        4
 64
     7
 65
   257
 75
     1
175
     1
 42
1.0
 92
       12
 66
     7
 43
1.0
 76
     1
 77
     6
 78
     2
 67
     7
 79
     5
170
     0
171
     0
290
     0
174
     0
 93
        1
 44
0.0
173
     0
291
     1
 45
0.0
1001
ACAD
1000
AcDbSavedByObjectVersion
1070
     0
  0
VISUALSTYLE
  5
A58
102
{ACAD_REACTORS
330
A51
102
}
102
{ACAD_XDICTIONARY
360
BAE
102
}
330
A51
100
AcDbVisualStyle
  2
Wireframe
 70
     5
 71
     0
 72
     2
 73
     0
 90
        0
 40
-0.6
 41
-30.0
 62
     5
 63
     7
421
 16777215
 74
     1
 91
        4
 64
     7
 65
   257
 75
     1
175
     1
 42
1.0
 92
        0
 66
   257
 43
1.0
 76
     1
 77
     6
 78
     2
 67
     7
 79
     3
170
     0
171
     0
290
     0
174
     0
 93
        1
 44
0.0
173
     0
291
     0
 45
0.0
1001
ACAD
1000
AcDbSavedByObjectVersion
1070
     0
  0
VISUALSTYLE
  5
A64
102
{ACAD_REACTORS
330
A51
102
}
102
{ACAD_XDICTIONARY
360
BB0
102
}
330
A51
100
AcDbVisualStyle
  2
X-Ray
 70
    25
 71
     2
 72
     2
 73
     1
 90
        1
 40
0.5
 41
-30.0
 62
     5
 63
     7
421
 16777215
 74
     1
 91
        0
 64
     7
 65
   257
 75
     1
175
     1
 42
1.0
 92
        8
 66
     7
 43
1.0
 76
     1
 77
     6
 78
     2
 67
     7
 79
     3
170
     0
171
     0
290
     0
174
     0
 93
       13
 44
0.0
173
     0
291
     0
 45
0.0
1001
ACAD
1000
AcDbSavedByObjectVersion
1070
     0
  0
DICTIONARYVAR
  5
AFA
102
{ACAD_REACTORS
330
B3
102
}
330
B3
100
DictionaryVariables
280
     0
  1
1:1
  0
DICTIONARYVAR
  5
AF6
102
{ACAD_REACTORS
330
B3
102
}
330
B3
100
DictionaryVariables
280
     0
  1
Standard
  0
DICTIONARYVAR
  5
A35
102
{ACAD_REACTORS
330
B3
102
}
330
B3
100
DictionaryVariables
280
     0
  1
Standard
  0
DICTIONARYVAR
  5
AF7
102
{ACAD_REACTORS
330
B3
102
}
330
B3
100
DictionaryVariables
280
     0
  1
Imperial24
  0
DICTIONARYVAR
  5
AF8
102
{ACAD_REACTORS
330
B3
102
}
330
B3
100
DictionaryVariables
280
     0
  1
Imperial24
  0
DICTIONARYVAR
  5
B4
102
{ACAD_REACTORS
330
B3
102
}
330
B3
100
DictionaryVariables
280
     0
  1
4
  0
DICTIONARYVAR
  5
A36
102
{ACAD_REACTORS
330
B3
102
}
330
B3
100
DictionaryVariables
280
     0
  1
1
  0
DICTIONARYVAR
  5
AFC
102
{ACAD_REACTORS
330
B3
102
}
330
B3
100
DictionaryVariables
280
     0
  1
1
  0
DICTIONARYVAR
  5
AFD
102
{ACAD_REACTORS
330
B3
102
}
330
B3
100
DictionaryVariables
280
     0
  1
15
  0
DICTIONARYVAR
  5
AFB
102
{ACAD_REACTORS
330
B3
102
}
330
B3
100
DictionaryVariables
280
     0
  1
0
  0
DICTIONARYVAR
  5
AF9
102
{ACAD_REACTORS
330
B3
102
}
330
B3
100
DictionaryVariables
280
     0
  1
0
  0
DICTIONARYVAR
  5
A37
102
{ACAD_REACTORS
330
B3
102
}
330
B3
100
DictionaryVariables
280
     0
  1

  0
DICTIONARYVAR
  5
B6D
102
{ACAD_REACTORS
330
B3
102
}
330
B3
100
DictionaryVariables
280
     0
  1
2
  0
DICTIONARY
  5
B36
102
{ACAD_REACTORS
330
B34
102
}
330
B34
100
AcDbDictionary
281
     1
  0
DICTIONARY
  5
B35
102
{ACAD_REACTORS
330
B34
102
}
330
B34
100
AcDbDictionary
281
     1
  3
2130073528
350
B2F
  3
2130073600
350
B30
  3
2130073608
350
B31
  3
2130073616
350
B32
  3
2130073624
350
B33
  0
DICTIONARY
  5
B6B
330
A81
100
AcDbDictionary
280
     1
281
     1
  3
ACAD_XREC_ROUNDTRIP
360
B6C
  0
DICTIONARY
  5
ABD
330
A18
100
AcDbDictionary
280
     1
281
     1
  3
ADSK_XREC_LAYOUTTHUMBNAIL
360
ABE
  0
DICTIONARY
  5
B78
330
A41
100
AcDbDictionary
280
     1
281
     1
  3
ACAD_XREC_ROUNDTRIP
360
B79
  0
DICTIONARY
  5
B7A
330
A39
100
AcDbDictionary
280
     1
281
     1
  3
ACAD_XREC_ROUNDTRIP
360
B7B
  0
DICTIONARY
  5
B7C
330
A49
100
AcDbDictionary
280
     1
281
     1
  3
ACAD_XREC_ROUNDTRIP
360
B7D
  0
DICTIONARY
  5
B69
330
A7F
100
AcDbDictionary
280
     1
281
     1
  3
ACAD_XREC_ROUNDTRIP
360
B6A
  0
DICTIONARY
  5
B7E
330
A15
100
AcDbDictionary
280
     1
281
     1
  3
ACAD_ROUNDTRIP_2008_TABLESTYLE_CELLSTYLEMAP
360
B80
  3
ACAD_XREC_ROUNDTRIP
360
B7F
  0
DICTIONARY
  5
B82
330
A57
100
AcDbDictionary
280
     1
281
     1
  3
ACAD_XREC_ROUNDTRIP
360
B83
  0
DICTIONARY
  5
B84
330
A56
100
AcDbDictionary
280
     1
281
     1
  3
ACAD_XREC_ROUNDTRIP
360
B85
  0
DICTIONARY
  5
B86
330
A5D
100
AcDbDictionary
280
     1
281
     1
  3
ACAD_XREC_ROUNDTRIP
360
B87
  0
DICTIONARY
  5
B88
330
A61
100
AcDbDictionary
280
     1
281
     1
  3
ACAD_XREC_ROUNDTRIP
360
B89
  0
DICTIONARY
  5
B8A
330
A5A
100
AcDbDictionary
280
     1
281
     1
  3
ACAD_XREC_ROUNDTRIP
360
B8B
  0
DICTIONARY
  5
B8C
330
A5C
100
AcDbDictionary
280
     1
281
     1
  3
ACAD_XREC_ROUNDTRIP
360
B8D
  0
DICTIONARY
  5
B8E
330
A69
100
AcDbDictionary
280
     1
281
     1
  3
ACAD_XREC_ROUNDTRIP
360
B8F
  0
DICTIONARY
  5
B90
330
A60
100
AcDbDictionary
280
     1
281
     1
  3
ACAD_XREC_ROUNDTRIP
360
B91
  0
DICTIONARY
  5
B92
330
A52
100
AcDbDictionary
280
     1
281
     1
  3
ACAD_XREC_ROUNDTRIP
360
B93
  0
DICTIONARY
  5
B94
330
A53
100
AcDbDictionary
280
     1
281
     1
  3
ACAD_XREC_ROUNDTRIP
360
B95
  0
DICTIONARY
  5
B96
330
A54
100
AcDbDictionary
280
     1
281
     1
  3
ACAD_XREC_ROUNDTRIP
360
B97
  0
DICTIONARY
  5
B98
330
A55
100
AcDbDictionary
280
     1
281
     1
  3
ACAD_XREC_ROUNDTRIP
360
B99
  0
DICTIONARY
  5
B9A
330
A59
100
AcDbDictionary
280
     1
281
     1
  3
ACAD_XREC_ROUNDTRIP
360
B9B
  0
DICTIONARY
  5
B9C
330
A67
100
AcDbDictionary
280
     1
281
     1
  3
ACAD_XREC_ROUNDTRIP
360
B9D
  0
DICTIONARY
  5
B9E
330
A5F
100
AcDbDictionary
280
     1
281
     1
  3
ACAD_XREC_ROUNDTRIP
360
B9F
  0
DICTIONARY
  5
BA0
330
A68
100
AcDbDictionary
280
     1
281
     1
  3
ACAD_XREC_ROUNDTRIP
360
BA1
  0
DICTIONARY
  5
BA2
330
A5B
100
AcDbDictionary
280
     1
281
     1
  3
ACAD_XREC_ROUNDTRIP
360
BA3
  0
DICTIONARY
  5
BA4
330
A66
100
AcDbDictionary
280
     1
281
     1
  3
ACAD_XREC_ROUNDTRIP
360
BA5
  0
DICTIONARY
  5
BA6
330
A65
100
AcDbDictionary
280
     1
281
     1
  3
ACAD_XREC_ROUNDTRIP
360
BA7
  0
DICTIONARY
  5
BA8
330
A62
100
AcDbDictionary
280
     1
281
     1
  3
ACAD_XREC_ROUNDTRIP
360
BA9
  0
DICTIONARY
  5
BAA
330
A63
100
AcDbDictionary
280
     1
281
     1
  3
ACAD_XREC_ROUNDTRIP
360
BAB
  0
DICTIONARY
  5
BAC
330
A5E
100
AcDbDictionary
280
     1
281
     1
  3
ACAD_XREC_ROUNDTRIP
360
BAD
  0
DICTIONARY
  5
BAE
330
A58
100
AcDbDictionary
280
     1
281
     1
  3
ACAD_XREC_ROUNDTRIP
360
BAF
  0
DICTIONARY
  5
BB0
330
A64
100
AcDbDictionary
280
     1
281
     1
  3
ACAD_XREC_ROUNDTRIP
360
BB1
  0
XRECORD
  5
B2F
102
{ACAD_REACTORS
330
B35
102
}
330
B35
100
AcDbXrecord
280
     1
  1
AcDb_Thumbnail_Schema
102
{ATTRRECORD
341
B30
  2
AcDbDs::TreatedAsObjectData
280
     1
291
     1
102
ATTRRECORD}
102
{ATTRRECORD
341
B31
  2
AcDbDs::Legacy
280
     1
291
     1
102
ATTRRECORD}
  2
AcDbDs::ID
280
    10
 91
        8
102
{ATTRRECORD
341
B32
  2
AcDs:Indexable
280
     1
291
     1
102
ATTRRECORD}
102
{ATTRRECORD
341
B33
  2
AcDbDs::HandleAttribute
280
     7
282
     1
102
ATTRRECORD}
  2
Thumbnail_Data
280
    15
 91
        0
  0
XRECORD
  5
B30
102
{ACAD_REACTORS
330
B35
102
}
330
B35
100
AcDbXrecord
280
     1
  1
AcDbDs::TreatedAsObjectDataSchema
  2
AcDbDs::TreatedAsObjectData
280
     1
 91
        0
  0
XRECORD
  5
B31
102
{ACAD_REACTORS
330
B35
102
}
330
B35
100
AcDbXrecord
280
     1
  1
AcDbDs::LegacySchema
  2
AcDbDs::Legacy
280
     1
 91
        0
  0
XRECORD
  5
B32
102
{ACAD_REACTORS
330
B35
102
}
330
B35
100
AcDbXrecord
280
     1
  1
AcDbDs::IndexedPropertySchema
  2
AcDs:Indexable
280
     1
 91
        0
  0
XRECORD
  5
B33
102
{ACAD_REACTORS
330
B35
102
}
330
B35
100
AcDbXrecord
280
     1
  1
AcDbDs::HandleAttributeSchema
  2
AcDbDs::HandleAttribute
280
     7
 91
        1
284
     1
  0
XRECORD
  5
B6C
102
{ACAD_REACTORS
330
B6B
102
}
330
B6B
100
AcDbXrecord
280
     1
102
DISPLAYNAME
  1
Imperial24
102
FLAGS
 90
        0
  0
XRECORD
  5
ABE
102
{ACAD_REACTORS
330
ABD
102
}
330
ABD
100
AcDbXrecord
280
     1
310
2800000000010000A4000000010008000000000000A4000001000000010000000001000000000000292929FF000000FFC8C8C8FF000000FF000000FF000000FF000000FF000000FF000000FF000000FF000000FF330000FF660000FF990000FFCC0000FFFF0000FF003300FF333300FF663300FF993300FFCC3300FFFF3300
310
FF006600FF336600FF666600FF996600FFCC6600FFFF6600FF009900FF339900FF669900FF999900FFCC9900FFFF9900FF00CC00FF33CC00FF66CC00FF99CC00FFCCCC00FFFFCC00FF00FF00FF33FF00FF66FF00FF99FF00FFCCFF00FFFFFF00FF000033FF330033FF660033FF990033FFCC0033FFFF0033FF003333FF3333
310
33FF663333FF993333FFCC3333FFFF3333FF006633FF336633FF666633FF996633FFCC6633FFFF6633FF009933FF339933FF669933FF999933FFCC9933FFFF9933FF00CC33FF33CC33FF66CC33FF99CC33FFCCCC33FFFFCC33FF00FF33FF33FF33FF66FF33FF99FF33FFCCFF33FFFFFF33FF000066FF330066FF660066FF99
310
0066FFCC0066FFFF0066FF003366FF333366FF663366FF993366FFCC3366FFFF3366FF006666FF336666FF666666FF996666FFCC6666FFFF6666FF009966FF339966FF669966FF999966FFCC9966FFFF9966FF00CC66FF33CC66FF66CC66FF99CC66FFCCCC66FFFFCC66FF00FF66FF33FF66FF66FF66FF99FF66FFCCFF66FF
310
FFFF66FF000099FF330099FF660099FF990099FFCC0099FFFF0099FF003399FF333399FF663399FF993399FFCC3399FFFF3399FF006699FF336699FF666699FF996699FFCC6699FFFF6699FF009999FF339999FF669999FF999999FFCC9999FFFF9999FF00CC99FF33CC99FF66CC99FF99CC99FFCCCC99FFFFCC99FF00FF99
310
FF33FF99FF66FF99FF99FF99FFCCFF99FFFFFF99FF0000CCFF3300CCFF6600CCFF9900CCFFCC00CCFFFF00CCFF0033CCFF3333CCFF6633CCFF9933CCFFCC33CCFFFF33CCFF0066CCFF3366CCFF6666CCFF9966CCFFCC66CCFFFF66CCFF0099CCFF3399CCFF6699CCFF9999CCFFCC99CCFFFF99CCFF00CCCCFF33CCCCFF66CC
310
CCFF99CCCCFFCCCCCCFFFFCCCCFF00FFCCFF33FFCCFF66FFCCFF99FFCCFFCCFFCCFFFFFFCCFF0000FFFF3300FFFF6600FFFF9900FFFFCC00FFFFFF00FFFF0033FFFF3333FFFF6633FFFF9933FFFFCC33FFFFFF33FFFF0066FFFF3366FFFF6666FFFF9966FFFFCC66FFFFFF66FFFF0099FFFF3399FFFF6699FFFF9999FFFFCC
310
99FFFFFF99FFFF00CCFFFF33CCFFFF66CCFFFF99CCFFFFCCCCFFFFFFCCFFFF00FFFFFF33FFFFFF66FFFFFF99FFFFFFCCFFFFFFFFFFFFFF000000FF0D0D0DFF1A1A1AFF282828FF353535FF434343FF505050FF5D5D5DFF6B6B6BFF787878FF868686FF939393FFA1A1A1FFAEAEAEFFBBBBBBFFC9C9C9FFD6D6D6FFE4E4E4FF
310
F1F1F1FFFFFFFFFF000000FF000000FF000000FF000000FF000000FF000000FF000000FF000000FF000000FF0000000000000000000000000000000000000000000000000000000000000000000000000000000000000000000000000000000000000000000000000000000000000000000000000000000000000000000000
310
00000000000000000000000000000000000000000000000000000000000000000000000000000000000000000000000000000000000000000000000000000000000000000000000000000000000000000000000000000000000000000000000000000000000000000000000000000000000000000000000000000000000000
310
00000000000000000000000000000000000000000000000000000000000000000000000000000000000000000000000000000000000000000000000000000000000000000000000000000000000000000000000000000000000000000000000000000000000000000000000000000000000000000000000000000000000000
310
00000000000000000000000000000000000000000000000000000000000000000000000000000000000000000000000000000000000000000000000000000000000000000000000000000000000000000000000000000000000000000000000000000000000000000000000000000000000000000000000000000000000000
310
00000000000000000000000000000000000000000000000000000000000000000000000000000000000000000000000000000000000000000000000000000000000000000000000000000000000000000000000000000000000000000000000000000000000000000000000000000000000000000000000000000000000000
310
00000000000000000000000000000000000000000000000000000000000000000000000000000000000000000000000000000000000000000000000000000000000000000000000000000000000000000000000000000000000000000000000000000000000000000000000000000000000000000000000000000000000000
310
00000000000000000000000000000000000000000000000000000000000000000000000000000000000000000000000000000000000000000000000000000000000000000000000000000000000000000000000000000000000000000000000000000000000000000000000000000000000000000000000000000000000000
310
00000000000000000000000000000000000000000000000000000000000000000000000000000000000000000000000000000000000000000000000000000000000000000000000000000000000000000000000000000000000000000000000000000000000000000000000000000000000000000000000000000000000000
310
00000000000000000000000000000000000000000000000000000000000000000000000000000000000000000000000000000000000000000000000000000000000000000000000000000000000000000000000000000000000000000000000000000000000000000000000000000000000000000000000000000000000000
310
00000000000000000000000000000000000000000000000000000000000000000000000000000000000000000000000000000000000000000000000000000000000000000000000000000000000000000000000000000000000000000000000000000000000000000000000000000000000000000000000000000000000000
310
00000000000000000000000000000000000000000000000000000000000000000000000000000000000000000000000000000000000000000000000000000000000000000000000000000000000000000000000000000000000000000000000000000000000000000000000000000000000000000000000000000000000000
310
00000000000000000000000000000000000000000000000000000000000000000000000000000000000000000000000000000000000000000000000000000000000000000000000000000000000000000000000000000000000000000000000000000000000000000000000000000000000000000000000000000000000000
310
00000000000000000000000000000000000000000000000000000000000000000000000000000000000000000000000000000000000000000000000000000000000000000000000000000000000000000000000000000000000000000000000000000000000000000000000000000000000000000000000000000000000000
310
00000000000000000000000000000000000000000000000000000000000000000000000000000000000000000000000000000000000000000000000000000000000000000000000000000000000000000000000000000000000000000000000000000000000000000000000000000000000000000000000000000000000000
310
00000000000000000000000000000000000000000000000000000000000000000000000000000000000000000000000000000000000000000000000000000000000000000000000000000000000000000000000000000000000000000000000000000000000000000000000000000000000000000000000000000000000000
310
00000000000000000000000000000000000000000000000000000000000000000000000000000000000000000000000000000000000000000000000000000000000000000000000000000000000000000000000000000000000000000000000000000000000000000000000000000000000000000000000000000000000000
310
00000000000000000000000000000000000000000000000000000000000000000000000000000000000000000000000000000000000000000000000000000000000000000000000000000000000000000000000000000000000000000000000000000000000000000000000000000000000000000000000000000000000000
310
00000000000000000000000000000000000000000000000000000000000000000000000000000000000000000000000000000000000000000000000000000000000000000000000000000000000000000000000000000000000000000000000000000000000000000000000000000000000000000000000000000000000000
310
00000000000000000000000000000000000000000000000000000000000000000000000000000000000000000000000000000000000000000000000000000000000000000000000000000000000000000000000000000000000000000000000000000000000000000000000000000000000000000000000000000000000000
310
00000000000000000000000000000000000000000000000000000000000000000000000000000000000000000000000000000000000000000000000000000000000000000000000000000000000000000000000000000000000000000000000000000000000000000000000000000000000000000000000000000000000000
310
00000000000000000000000000000000000000000000000000000000000000000000000000000000000000000000000000000000000000000000000000000000000000000000000000000000000000000000000000000000000000000000000000000000000000000000000000000000000000000000000000000000000000
310
00000000000000000000000000000000000000000000000000000000000000000000000000000000000000000000000000000000000000000000000000000000000000000000000000000000000000000000000000000000000000000000000000000000000000000000000000000000000000000000000000000000000000
310
00000000000000000000000000000000000000000000000000000000000000000000000000000000000000000000000000000000000000000000000000000000000000000000000000000000000000000000000000000000000000000000000000000000000000000000000000000000000000000000000000000000000000
310
00000000000000000000000000000000000000000000000000000000000000000000000000000000000000000000000000000000000000000000000000000000000000000000000000000000000000000000000000000000000000000000000000000000000000000000000000000000000000000000000000000000000000
310
00000000000000000000000000000000000000000000000000000000000000000000000000000000000000000000000000000000000000000000000000000000000000000000000000000000000000000000000000000000000000000000000000000000000000000000000000000000000000000000000000000000000000
310
00000000000000000000000000000000000000000000000000000000000000000000000000000000000000000000000000000000000000000000000000000000000000000000000000000000000000000000000000000000000000000000000000000000000000000000000000000000000000000000000000000000000000
310
00000000000000000000000000000000000000000000000000000000000000000000000000000000000000000000000000000000000000000000000000000000000000000000000000000000000000000000000000000000000000000000000000000000000000000000000000000000000000000000000000000000000000
310
00000000000000000000000000000000000000000000000000000000000000000000000000000000000000000000000000000000000000000000000000000000000000000000000000000000000000000000000000000000000000000000000000000000000000000000000000000000000000000000000000000000000000
310
00000000000000000000000000000000000000000000000000000000000000000000000000000000000000000000000000000000000000000000000000000000000000000000000000000000000000000000000000000000000000000000000000000000000000000000000000000000000000000000000000000000000000
310
00000000000000000000000000000000000000000000000000000000000000000000000000000000000000000000000000000000000000000000000000000000000000000000000000000000000000000000000000000000000000000000000000000000000000000000000000000000000000000000000000000000000000
310
00000000000000000000000000000000000000000000000000000000000000000000000000000000000000000000000000000000000000000000000000000000000000000000000000000000000000000000000000000000000000000000000000000000000000000000000000000000000000000000000000000000000000
310
00000000000000000000000000000000000000000000000000000000000000000000000000000000000000000000000000000000000000000000000000000000000000000000000000000000000000000000000000000000000000000000000000000000000000000000000000000000000000000000000000000000000000
310
00000000000000000000000000000000000000000000000000000000000000000000000000000000000000000000000000000000000000000000000000000000000000000000000000000000000000000000000000000000000000000000000000000000000000000000000000000000000000000000000000000000000000
310
00000000000000000000000000000000000000000000000000000000000000000000000000000000000000000000000000000000000000000000000000000000000000000000000000000000000000000000000000000000000000000000000000000000000000000000000000000000000000000000000000000000000000
310
00000000000000000000000000000000000000000000000000000000000000000000000000000000000000000000000000000000000000000000000000000000000000000000000000000000000000000000000000000000000000000000000000000000000000000000000000000000000000000000000000000000000000
310
00000000000000000000000000000000000000000000000000000000000000000000000000000000000000000000000000000000000000000000000000000000000000000000000000000000000000000000000000000000000000000000000000000000000000000000000000000000000000000000000000000000000000
310
00000000000000000000000000000000000000000000000000000000000000000000000000000000000000000000000000000000000000000000000000000000000000000000000000000000000000000000000000000000000000000000000000000000000000000000000000000000000000000000000000000000000000
310
00000000000000000000000000000000000000000000000000000000000000000000000000000000000000000000000000000000000000000000000000000000000000000000000000000000000000000000000000000000000000000000000000000000000000000000000000000000000000000000000000000000000000
310
00000000000000000000000000000000000000000000000000000000000000000000000000000000000000000000000000000000000000000000000000000000000000000000000000000000000000000000000000000000000000000000000000000000000000000000000000000000000000000000000000000000000000
310
00000000000000000000000000000000000000000000000000000000000000000000000000000000000000000000000000000000000000000000000000000000000000000000000000000000000000000000000000000000000000000000000000000000000000000000000000000000000000000000000000000000000000
310
00000000000000000000000000000000000000000000000000000000000000000000000000000000000000000000000000000000000000000000000000000000000000000000000000000000000000000000000000000000000000000000000000000000000000000000000000000000000000000000000000000000000000
310
00000000000000000000000000000000000000000000000000000000000000000000000000000000000000000000000000000000000000000000000000000000000000000000000000000000000000000000000000000000000000000000000000000000000000000000000000000000000000000000000000000000000000
310
00000000000000000000000000000000000000000000000000000000000000000000000000000000000000000000000000000000000000000000000000000000000000000000000000000000000000000000000000000000000000000000000000000000000000000000000000000000000000000000000000000000000000
310
00000000000000000000000000000000000000000000000000000000000000000000000000000000000000000000000000000000000000000000000000000000000000000000000000000000000000000000000000000000000000000000000000000000000000000000000000000000000000000000000000000000000000
310
00000000000000000000000000000000000000000000000000000000000000000000000000000000000000000000000000000000000000000000000000000000000000000000000000000000000000000000000000000000000000000000000000000000000000000000000000000000000000000000000000000000000000
310
00000000000000000000000000000000000000000000000000000000000000000000000000000000000000000000000000000000000000000000000000000000000000000000000000000000000000000000000000000000000000000000000000000000000000000000000000000000000000000000000000000000000000
310
00000000000000000000000000000000000000000000000000000000000000000000000000000000000000000000000000000000000000000000000000000000000000000000000000000000000000000000000000000000000000000000000000000000000000000000000000000000000000000000000000000000000000
310
00000000000000000000000000000000000000000000000000000000000000000000000000000000000000000000000000000000000000000000000000000000000000000000000000000000000000000000000000000000000000000000000000000000000000000000000000000000000000000000000000000000000000
310
00000000000000000000000000000000000000000000000000000000000000000000000000000000000000000000000000000000000000000000000000000000000000000000000000000000000000000000000000000000000000000000000000000000000000000000000000000000000000000000000000000000000000
310
00000000000000000000000000000000000000000000000000000000000000000000000000000000000000000000000000000000000000000000000000000000000000000000000000000000000000000000000000000000000000000000000000000000000000000000000000000000000000000000000000000000000000
310
00000000000000000000000000000000000000000000000000000000000000000000000000000000000000000000000000000000000000000000000000000000000000000000000000000000000000000000000000000000000000000000000000000000000000000000000000000000000000000000000000000000000000
310
00000000000000000000000000000000000000000000000000000000000000000000000000000000000000000000000000000000000000000000000000000000000000000000000000000000000000000000000000000000000000000000000000000000000000000000000000000000000000000000000000000000000000
310
00000000000000000000000000000000000000000000000000000000000000000000000000000000000000000000000000000000000000000000000000000000000000000000000000000000000000000000000000000000000000000000000000000000000000000000000000000000000000000000000000000000000000
310
00000000000000000000000000000000000000000000000000000000000000000000000000000000000000000000000000000000000000000000000000000000000000000000000000000000000000000000000000000000000000000000000000000000000000000000000000000000000000000000000000000000000000
310
00000000000000000000000000000000000000000000000000000000000000000000000000000000000000000000000000000000000000000000000000000000000000000000000000000000000000000000000000000000000000000000000000000000000000000000000000000000000000000000000000000000000000
310
00000000000000000000000000000000000000000000000000000000000000000000000000000000000000000000000000000000000000000000000000000000000000000000000000000000000000000000000000000000000000000000000000000000000000000000000000000000000000000000000000000000000000
310
00000000000000000000000000000000000000000000000000000000BEBEBEBEBEBEBEBEBEBEBEBEBE0000000000000000000000000000000000000000000000000000000000000000000000000000000000000000000000000000000000000000000000000000000000000000000000000000000000000000000000000000
310
00000000000000000000000000000000000000000000DCDCDCDCDCDCDCDCDCDCDCDCDCDCDCDCDCDCDCDCDCDCDCDCDCDCDCDCDCDCDCDCDCDCDCDCDCDCDCDCDCDCDCDCDCDCDCDCDCDCDCDCDCDCDCDCDCDCDCDCDCDCDCDCDCDCDCDCDCDCDCDCDCDCDCDCDCDCDCDCDCDCDCDCDCDCDCDCDCDCDCDCDCDCDCDCDCDCDCDCDCDCDCDCDC
310
DCDCDCDCDCDCDCDCDCDCDCDCDCDCDCDCDCDCDCDCDCDCDCDCDCDCDCDCDCDCDCDCDCDCDCDCDCDCDCDCDCDCDC000000000000000000000000000000000000000000000000000000000000000000000000000000000000000000000000000000000000000000000000000000000000000000000000000000000000000000000000
310
000000000000000000000000000000000000000000000000DC000000000000000000000000000000000000000000000000000000000000000000000000000000000000000000000000000000000000000000000000000000000000000000000000000000000000000000000000000000000000000000000000000000000000
310
000000000000000000000000000000000000000000000000DC00000000000000BEBE00000000BEBEBE000000DC00000000000000000000000000000000000000000000000000000000000000000000000000000000000000000000000000000000000000000000000000000000000000000000000000000000000000000000
310
0000000000000000000000000000000000000000000000000000DC00000000000000000000000000000000000000000000000000000000000000000000000000000000000000000000000000000000000000000000000000000000000000000000000000000000000000000000000000000000000000000000000000000000
310
0000000000000000000000000000000000000000000000000000DCBEBEBEBEBEBEBEBEBE00000000BEBEBE000000DC0000000000000000000000000000000000000000000000000000000000000000000000000000000000000000000000000000000000000000000000000000000000000000000000000000000000000000
310
00000000000000000000000000000000000000000000000000000000DC0000000000000000000000000000000000000000000000000000000000000000000000000000000000000000000000000000000000000000000000000000000000000000000000000000000000000000000000000000000000000000000000000000
310
00000000000000000000000000000000000000000000000000000000DCBEBEBEBEBEBEBEBEBEBEBEBEBEBEBEBEBEBEBEDC000000000000000000000000000000000000000000000000000000000000000000000000000000000000000000000000000000000000000000000000000000000000000000000000000000000000
310
000000000000000000000000000000000000000000000000000000000000DC000000000000000000000000000000000000000000000000000000000000000000000000000000000000000000000000000000000000000000000000000000000000000000000000000000000000000000000000000000000000000000000000
310
000000000000000000000000000000000000000000000000000000000000DCBEBEBEBEBEBEBEBEBEBEBEBEBEBEBEBEBEBEBEDC00000000000000000000000000000000000000000000000000000000000000000000000000000000000000000000000000000000000000000000000000000000000000000000000000000000
310
0000000000000000000000000000000000000000000000000000000000000000DC00000000000000000000000000000000000000000000000000000000000000000000000000000000000000000000000000000000000000000000000000000000000000000000000000000000000000000000000000000000000000000000
310
0000000000000000000000000000000000000000000000000000000000000000DCBEBEBEBE000000BEBEBEBEBEBEBE00000000BEDC0000000000000000000000000000000000000000000000000000000000000000000000000000000000000000000000000000000000000000000000000000000000000000000000000000
310
00000000000000000000000000000000000000000000000000000000000000000000DC0000000000000000000000000000000000000000000000000000000000000000000000000000000000000000000000000000000000000000000000000000000000000000000000000000000000000000000000000000000000000000
310
00000000000000000000000000000000000000000000000000000000000000000000DCBEBEBEBEBEBEBEBEBEBEBEBEBEBEBEBEBEBEBEDC000000000000000000000000000000000000000000000000000000000000000000000000000000000000000000000000000000000000000000000000000000000000000000000000
310
000000000000000000000000000000000000000000000000000000000000000000000000DC000000000000000000000000000000000000000000000000000000000000000000000000000000000000000000000000000000000000000000000000000000000000000000000000000000000000000000000000000000000000
310
000000000000000000000000000000000000000000000000000000000000000000000000DCBEBEBEBEBEBEBEBEBEBEBEBEBEBEBEBEBEBEBEDC00000000000000000000000000000000000000000000000000000000000000000000000000000000000000000000000000000000000000000000000000000000000000000000
310
0000000000000000000000000000000000000000000000000000000000000000000000000000DC00000000000000000000000000000000000000000000000000000000000000000000000000000000000000000000000000000000000000000000000000000000000000000000000000000000000000000000000000000000
310
0000000000000000000000000000000000000000000000000000000000000000000000000000DCBE00BEBEBEBEBEBEBEBEBEBEBEBEBEBEBEBEBEDC0000000000000000000000000000000000000000000000000000000000000000000000000000000000000000000000000000000000000000000000000000000000000000
310
00000000000000000000000000000000000000000000000000000000000000000000000000000000DC000000000000000000000000000000BEBEBEBEBEBEBEBEBEBEBEBEBEBEBEBEBEBEBEBEBEBEBEBEBEBEBEBEBEBEBEBEBEBEBEBEBEBE000000000000000000000000000000000000000000000000000000000000000000
310
00000000000000000000000000000000000000000000000000000000000000000000000000000000DCDCDCDCDCBEBEBEBEDCDCDCDCDCBEDCBEDCBEBEDC000000000000000000000000000000000000000000000000000000000000000000000000000000000000000000000000000000000000000000000000000000000000
310
000000000000000000000000000000000000000000000000000000000000000000000000000000000000DC000000000000000000000000000000BE00000000000000000000000000000000BEBEBEBE00000000000000000000000000000000BE00000000000000000000000000000000000000000000000000000000000000
310
0000000000000000000000000000000000000000000000000000000000000000000000000000000000000000000000000000000000000000000000000000DC00000000000000000000000000000000000000000000000000000000000000000000000000000000000000000000000000000000000000000000000000000000
310
0000000000000000000000000000000000000000000000000000000000000000000000000000000000000000DC000000000000000000000000000000BE0000000000000000000000000000000000BEBEBE00000000000000000000000000000000BE0000000000000000000000000000000000000000000000000000000000
310
00000000000000000000000000000000000000000000000000000000000000000000000000000000000000000000000000000000000000000000000000000000DC0000000000000000000000000000000000000000000000000000000000000000000000000000000000000000000000000000000000000000000000000000
310
00000000000000000000000000000000000000000000000000000000000000000000000000000000000000000000DC000000000000000000000000000000BE000000000000000000000000000000000000000000000000000000000000000000000000BE000000000000000000000000000000000000000000000000000000
310
000000000000000000000000000000000000000000000000000000000000000000000000000000000000000000000000000000000000000000000000000000000000DC000000000000000000000000000000000000000000000000000000000000000000000000000000000000000000000000000000000000000000000000
310
000000000000000000000000000000000000000000000000000000000000000000000000000000000000000000000000DC000000000000000000000000000000BE000000000000000000000000000000000000000000000000000000000000000000000000BE00000000000000000000000000000000000000000000000000
310
0000000000000000000000000000000000000000000000000000000000000000000000000000000000000000000000000000000000000000000000000000000000000000DC00000000000000000000000000000000000000000000000000000000000000000000000000000000000000000000000000000000000000000000
310
0000000000000000000000000000000000000000000000000000000000000000000000000000000000000000000000000000DC000000000000000000000000000000BE000000000000000000000000000000000000000000000000000000000000000000000000BE0000000000000000000000000000000000000000000000
310
00000000000000000000000000000000000000000000000000000000000000000000000000000000000000000000000000000000000000000000000000000000000000000000DC0000000000000000000000000000000000000000000000000000000000000000000000000000000000000000000000000000000000000000
310
00000000000000000000000000000000000000000000000000000000000000000000000000000000000000000000000000000000DC000000000000000000000000000000BE000000000000000000000000000000000000000000000000000000000000000000000000BE000000000000000000000000000000000000000000
310
000000000000000000000000000000000000000000000000000000000000000000000000000000000000000000000000000000000000000000000000000000000000000000000000DC000000000000000000000000000000000000000000000000000000000000000000000000000000000000000000000000000000000000
310
000000000000000000000000000000000000000000000000000000000000000000000000000000000000000000000000000000000000DC000000000000000000000000000000BE000000000000000000000000000000000000000000000000000000000000000000000000BE00000000000000000000000000000000000000
310
0000000000000000000000000000000000000000000000000000000000000000000000000000000000000000000000000000000000000000000000000000000000000000000000000000DC00000000000000000000000000000000000000000000000000000000000000000000000000000000000000000000000000000000
310
0000000000000000000000000000000000000000000000000000000000000000000000000000000000000000000000000000000000000000DC000000000000000000000000000000BE000000000000000000000000000000000000000000000000000000000000000000000000BE0000000000000000000000000000000000
310
00000000000000000000000000000000000000000000000000000000000000000000000000000000000000000000000000000000000000000000000000000000000000000000000000000000DC0000000000000000000000000000000000000000000000000000000000000000000000000000000000000000000000000000
310
00000000000000000000000000000000000000000000000000000000000000000000000000000000000000000000000000000000000000000000DC00000000000000000000000000000028282828282828282828282828282828282828282828282828282828282828282828282828BEBEBEBEBEBEBEBEBEBEBEBE00000000
310
000000000000000000000000000000000000000000000000000000000000000000000000000000000000000000000000000000000000000000000000000000000000000000000000000000000000DC000000000000000000000000000000000000000000000000000000000000000000000000000000000000000000000000
310
000000000000000000000000000000000000000000000000000000000000000000000000000000000000000000000000000000000000000000000000DC000000000000000000000000000000282828282828282828282828282828282828000000000000000000002D00000000000000002800000000000000BE0000BE0000
310
0000000000000000000000000000000000000000000000000000000000000000000000000000000000000000000000000000000000000000000000000000000000000000000000000000000000000000DC00000000000000000000000000000000000000000000000000000000000000000000000000000000000000000000
310
0000000000000000000000000000000000000000000000000000000000000000000000000000000000000000000000000000000000000000000000000000DC000000000000000000000000000000002828282828282828282828282828282828282828282828282828282828282800000000002800000000000000BE0000BE
310
00000000000000000000000000000000000000000000000000000000000000000000000000000000000000000000000000000000000000000000000000000000000000000000000000000000000000000000DC0000000000000000000000000000000000000000000000000000000000000000000000000000000000000000
310
00000000000000000000000000000000000000000000000000000000000000000000000000000000000000000000000000000000000000000000000000000000DC0000000000000000000000000000000000000000000000000000000000000000000000000000000000000000000000280000000028000000000000BEBE00
310
00BE00000000000000000000000000000000000000000000000000000000000000000000000000000000000000000000000000000000000000000000000000000000000000000000000000000000000000000000DC000000000000000000000000000000000000000000000000000000000000000000000000000000000000
310
000000000000000000000000000000000000000000000000000000000000000000000000000000000000000000000000000000000000000000000000000000000000DC0000000000000000000000000000000000000000000000000000000000000000000000000000000000000000000000002800000028000000000000BE
310
BE0000BE00000000000000000000000000000000000000000000000000000000000000000000000000000000000000000000000000000000000000000000000000000000000000000000000000000000000000000000DC00000000000000000000000000000000000000000000000000000000000000000000000000000000
310
0000000000000000000000000000000000000000000000000000000000000000000000000000000000000000000000000000000000000000000000000000000000000000DC00000000000000000000000000000000000000000000000000000000000000000000000000000000000000000000000000280000280000000000
310
00BEBE0000BE00000000000000000000000000000000000000000000000000000000000000000000000000000000000000000000000000000000000000000000000000000000000000000000000000000000000000000000DC0000000000000000000000000000000000000000000000000000000000000000000000000000
310
00000000000000000000000000000000000000000000000000000000000000000000000000000000000000000000000000000000000000000000000000000000000000000000DC00000000000000000000000000000000000000000000000000000000000000000000000000000000000000000000000000282D0028000000
310
000000BEBE0000BE00000000000000000000000000000000000000000000000000000000000000000000000000000000000000000000000000000000000000000000000000000000000000000000000000000000000000000000DC000000000000000000000000000000000000000000000000000000000000000000000000
310
000000000000000000000000000000000000000000000000000000000000000000000000000000000000000000000000000000000000000000000000000000000000000000000000DC000000000000000000000000000000000000000000000000000000000000000000000000000000000000000000000000002800002800
310
000000000000BE0000BE00000000000000000000000000000000000000000000000000000000000000000000000000000000000000000000000000000000000000000000000000000000000000000000000000000000000000000000DC00000000000000000000000000000000000000000000000000000000000000000000
310
0000000000000000000000000000000000000000000000000000000000000000000000000000000000000000000000000000000000000000000000000000000000000000000000000000DC00000000000000000000000000000000000000000000000000000000000000000000000000000000000000000000000000280000
310
2800000000000000BE0000BE00000000000000000000000000000000000000000000000000000000000000000000000000000000000000000000000000000000000000000000000000000000000000000000000000000000000000000000DC0000000000000000000000000000000000000000000000000000000000000000
310
00000000000000000000000000000000000000000000000000000000000000000000000000000000000000000000000000000000000000000000000000000000000000000000000000000000DC0000000000000000000000000000000000000000000000000000000000000000000000000000000000000000000000000028
310
282828BEBEBEBEBEBEBEBEBE00BE00000000000000000000000000000000000000000000000000000000000000000000000000000000000000000000000000000000000000000000000000000000000000000000000000000000000000000000DC000000000000000000000000000000000000000000000000000000000000
310
000000000000000000000000000000000000000000000000000000000000000000000000000000000000000000000000000000000000000000000000000000000000000000000000000000000000DC000000000000000000000000000000000000000000000000000000000000000000000000000000000000000000000000
310
000028002800000000000000000000BE00000000000000000000000000000000000000000000000000000000000000000000000000000000000000000000000000000000000000000000000000000000000000000000000000000000000000000000DC00000000000000000000000000000000000000000000000000000000
310
0000000000000000000000000000000000000000000000000000000000000000000000000000000000000000000000000000000000000000000000000000000000000000000000000000000000000000DC00000000000000000000000000000000000000000000000000000000000000000000000000000000000000000000
310
00000000280028000000000000000000BEBE00000000000000000000000000000000000000000000000000000000000000000000000000000000000000000000000000000000000000000000000000000000000000000000000000000000000000000000DC0000000000000000000000000000000000000000000000000000
310
00000000000000000000000000000000000000000000000000000000000000000000000000000000000000000000000000000000000000000000000000000000000000000000000000000000000000000000DC0000000000000000000000000000000000000000000000000000000000000000000000000000000000000000
310
000000000000280028000000000000000000BEBE00000000000000000000000000000000000000000000000000000000000000000000000000000000000000000000000000000000000000000000000000000000000000000000000000000000000000000000DC000000000000000000000000000000000000000000000000
310
000000000000000000000000000000000000000000000000000000000000000000000000000000000000000000000000000000000000000000000000000000000000000000000000000000000000000000000000DC000000000000000000000000000000000000000000000000000000000000000000000000000000000000
310
0000000000000000280028000000000000000000BEBE00000000000000000000000000000000000000000000000000000000000000000000000000000000000000000000000000000000000000000000000000000000000000000000000000000000000000000000DC00000000000000000000000000000000000000000000
310
0000000000000000000000000000000000000000000000000000000000000000000000000000000000000000000000000000000000000000000000000000000000000000000000000000000000000000000000000000DC00000000000000000000000000000000000000000000000000000000000000000000000000000000
310
00000000000000000000280028000000000000000000BEBE00000000000000000000000000000000000000000000000000000000000000000000000000000000000000000000000000000000000000000000000000000000000000000000000000000000000000000000DC0000000000000000000000000000000000000000
310
00000000000000000000000000000000000000000000000000000000000000000000000000000000000000000000000000000000000000000000000000000000000000000000000000000000000000000000000000000000DC0000000000000000000000000000000000000000000000000000000000000000000000000000
310
00000000000000000000000028002800000000000000000000BE00000000000000000000000000000000000000000000000000000000000000000000000000000000000000000000000000000000000000000000000000000000000000000000000000000000000000000000DC000000000000000000000000000000000000
310
000000000000000000000000000000000000000000000000000000000000000000000000000000000000000000000000000000000000000000000000000000000000000000000000000000000000000000000000000000000000DC000000000000000000000000000000000000000000000000000000000000000000000000
310
000000000000000000000000000028002800000000000000000000BE00000000000000000000000000000000000000000000000000000000000000000000000000000000000000000000000000000000000000000000000000000000000000000000000000000000000000000000DC00000000000000000000000000000000
310
0000000000000000000000000000000000000000000000000000000000000000000000000000000000000000000000000000000000000000000000000000000000000000000000000000000000000000000000000000000000000000DC00000000000000000000000000000000000000000000000000000000000000000000
310
0000000000000000000000000000000028002800000000000000000000BE00000000000000000000000000000000000000000000000000000000000000000000000000000000000000000000000000000000000000000000000000000000000000000000000000000000000000000000DC0000000000000000000000000000
310
00000000000000000000000000000000000000000000000000000000000000000000000000000000000000000000000000000000000000000000000000000000000000000000000000000000000000000000000000000000000000000000DC0000000000000000000000000000000000000000000000000000000000000000
310
00000000000000000000000000000000000028002800000000000000000000BE00000000000000000000000000000000000000000000000000000000000000000000000000000000000000000000000000000000000000000000000000000000000000000000000000000000000000000000DC000000000000000000000000
310
000000000000000000000000000000000000000000000000000000000000000000000000000000000000000000000000000000000000000000000000000000000000000000000000000000000000000000000000000000000000000000000000DC000000000000000000000000000000000000000000000000000000000000
310
000000000000000000000000000000000000000028002800000000000000000000BE00000000000000000000000000000000000000000000000000000000000000000000000000000000000000000000000000000000000000000000000000000000000000000000000000000000000000000000DC00000000000000000000
310
0000000000000000000000000000000000000000000000000000000000000000000000000000000000000000000000000000000000000000000000000000000000000000000000000000000000000000000000000000000000000000000000000000DC00000000000000000000000000000000000000000000000000000000
310
0000000000000000000000000000000000000000000000282800000000000000000000BE00000000000000000000000000000000000000000000000000000000000000000000000000000000000000000000000000000000000000000000000000000000000000000000000000000000000000000000DC0000000000000000
310
00000000000000000000000000000000000000000000000000000000000000000000000000000000000000000000000000000000000000000000000000000000000000000000000000000000000000000000000000000000000000000000000000000000DC0000000000000000000000000000000000000000000000000000
310
00000000000000000000000000000000000000000000000000282800000000000000000000BE00000000000000000000000000000000000000000000000000000000000000000000000000000000000000000000000000000000000000000000000000000000000000000000000000000000000000000000DC000000000000
310
000000000000000000000000000000000000000000000000000000000000000000000000000000000000000000000000000000000000000000000000000000000000000000000000000000000000000000000000000000000000000000000000000000000000DC000000000000000000000000000000000000000000000000
310
000000000000000000000000000000000000000000000000000000282800000000000000000000BE00000000000000000000000000000000000000000000000000000000000000000000000000000000000000000000000000000000000000000000000000000000000000000000000000000000000000000000DC00000000
310
0000000000000000000000000000000000000000000000000000000000000000000000000000000000000000000000000000000000000000000000000000000000000000000000000000000000000000000000000000000000000000000000000000000000000000DC00000000000000000000000000000000000000000000
310
0000000000000000000000000000000000000000000000000000000000282800000000000000000000BE00000000000000000000000000000000000000000000000000000000000000000000000000000000000000000000000000000000000000000000000000000000000000000000000000000000000000000000DC0000
310
00000000000000000000000000000000000000000000000000000000000000000000000000000000000000000000000000000000000000000000000000000000000000000000000000000000000000000000000000000000000000000000000000000000000000000000DC0000000000000000000000000000000000000000
310
0000000000000000000000000000000000000000000000000000000000000028BEBEBEBEBEBEBEBEBEBEBEBE00000000000000000000000000000000000000000000000000000000000000000000000000000000000000000000000000000000000000000000000000000000000000000000000000000000000000000000DC
310
000000000000000000000000000000000000000000000000000000000000000000000000000000000000000000000000000000000000000000000000000000000000000000000000000000000000000000000000000000000000000000000000000000000000000000000000DC000000000000000000000000000000000000
310
00000000000000000000000000000000000000000000000000000000000000000000000000000000000000000000000000000000000000000000000000000000000000000000000000000000000000000000000000000000000000000000000000000000000000000000000000000000000000000000000000000000000000
310
00DC000000000000000000000000000000000000000000000000000000000000000000000000000000000000000000000000000000000000000000000000000000000000000000000000000000000000000000000000000000000000000000000000000000000000000000000000DC00000000000000000000000000000000
310
00000000000000000000000000000000000000000000000000000000000000000000000000000000000000000000000000000000000000000000000000000000000000000000000000000000000000000000000000000000000000000000000000000000000000000000000000000000000000000000000000000000000000
310
000000DC000000000000000000000000000000000000000000000000000000000000000000000000000000000000000000000000000000000000000000000000000000000000000000000000000000000000000000000000000000000000000000000000000000000000000000000000DC0000000000000000000000000000
310
00000000000000000000000000000000000000000000000000000000000000000000000000000000000000000000000000000000000000000000000000000000000000000000000000000000000000000000000000000000000000000000000000000000000000000000000000000000000000000000000000000000000000
310
0000000000DC000000000000000000000000000000000000000000000000000000000000000000000000000000000000000000000000000000000000000000000000000000000000000000000000000000000000000000000000000000000000000000000000000000000000000000000000DC000000000000000000000000
310
00000000000000000000000000000000000000000000000000000000000000000000000000000000000000000000000000000000000000000000000000000000000000000000000000000000000000000000000000000000000000000000000000000000000000000000000000000000000000000000000000000000000000
310
00000000000000DC000000000000000000000000000000000000000000000000000000000000000000000000000000000000000000000000000000000000000000000000000000000000000000000000000000000000000000000000000000000000000000000000000000000000000000000000DC00000000000000000000
310
00000000000000000000000000000000000000000000000000000000000000000000000000000000000000000000000000000000000000000000000000000000000000000000000000000000000000000000000000000000000000000000000000000000000000000000000000000000000000000000000000000000000000
310
000000000000000000DC000000000000000000000000000000000000000000000000000000000000000000000000000000000000000000000000000000000000000000000000000000000000000000000000000000000000000000000000000000000000000000000000000000000000000000000000DC0000000000000000
310
00000000000000000000000000000000000000000000000000000000000000000000000000000000000000000000000000000000000000000000000000000000000000000000000000000000000000000000000000000000000000000000000000000000000000000000000000000000000000000000000000000000000000
310
0000000000000000000000DC000000000000000000000000000000000000000000000000000000000000000000000000000000000000000000000000000000000000000000000000000000000000000000000000000000000000000000000000000000000000000000000000000000000000000000000000DC000000000000
310
00000000000000000000000000000000000000000000000000000000000000000000000000000000000000000000000000000000000000000000000000000000000000000000000000000000000000000000000000000000000000000000000000000000000000000000000000000000000000000000000000000000000000
310
00000000000000000000000000DC000000000000000000000000000000000000000000000000000000000000000000000000000000000000000000000000000000000000000000000000000000000000000000000000000000000000000000000000000000000000000000000000000000000000000000000000DC00000000
310
00000000000000000000000000000000000000000000000000000000000000000000000000000000000000000000000000000000000000000000000000000000000000000000000000000000000000000000000000000000000000000000000000000000000000000000000000000000000000000000000000000000000000
310
000000000000000000000000000000DC000000000000000000000000000000000000000000000000000000000000000000000000000000000000000000000000000000000000000000000000000000000000000000000000000000000000000000000000000000000000000000000000000000000000000000000000DC0000
310
00000000000000000000000000BEBEBEBEBEBEBEBEBEBEBEBEBEBEBEBEBEBEBEBEBEBEBEBEBEBEBEBEBEBEBEBEBEBEBEBEBEBE00000000000000000000000000000000000000000000000000000000000000000000000000000000000000000000000000000000000000000000000000000000000000000000000000000000
310
0000000000000000000000000000000000DC000000000000000000000000000000000000000000000000000000000000000000000000000000000000000000000000000000000000000000000000000000000000000000000000000000000000000000000000000000000000000000000000000000000000000000000000DC
310
000000000000000000000000000000BEBE000000000000000000000000000000BEBEBEBE000000000000000000000000000000BEBE0000000000000000000000000000000000000000000000000000000000000000000000000000000000000000000000000000000000000000000000000000000000000000000000000000
310
00000000000000000000000000000000000000DC0000000000000000000000000000000000000000000000000000000000000000000000000000000000000000000000000000000000000000000000000000000000000000000000000000000000000000000000000000000000000000000000000000000000000000000000
310
00DC000000000000000000000000000000BE0000000000000000000000000000000000BEBEBE00000000000000000000000000000000BE000000000000000000000000000000000000000000000000000000000000000000000000000000000000000000000000000000000000000000000000000000000000000000000000
310
000000000000000000000000000000000000000000DC000000000000000000000000000000000000000000000000000000000000000000000000000000000000000000000000000000000000000000000000000000000000000000000000000000000000000000000000000000000000000000000000000000000000000000
310
000000DC000000000000000000000000000000BEBEBEBEBEBEBEBEBEBEBEBEBEBEBEBEBEBEBEBEBEBEBEBEBEBEBEBEBEBEBEBEBEBEBEBEBEBE00000000000000000000000000000000000000000000000000000000000000000000000000000000000000000000000000000000000000000000000000000000000000000000
310
0000000000000000000000000000000000000000000000DC00000000000000000000000000000000000000000000000000000000000000000000000000000000000000000000000000000000000000000000000000000000000000000000000000000000000000000000000000000000000000000000000000000000000000
310
0000000000DC000000000000000000000000000000BE000000000000000000000000000000BEBEBEBE0000000000000000000000000000BEBEBEBE0000000000000000000000000000000000000000000000000000000000000000000000000000000000000000000000000000000000000000000000000000000000000000
310
00000000000000000000000000000000000000000000000000DC0000000000000000000000000000000000000000000000000000000000000000000000000000000000000000000000000000000000000000000000000000000000000000000000000000000000000000000000000000000000000000000000000000000000
310
00000000000000DC000000000000000000000000000000BE000000000000000000000000000000000000000000000000000000000000000000BE0000BE000000000000000000000000000000000000000000000000000000000000000000000000000000000000000000000000000000000000000000000000000000000000
310
000000000000000000000000000000000000000000000000000000DC000000000000000000000000000000000000000000000000000000000000000000000000000000000000000000000000000000000000000000000000000000000000000000000000000000000000000000000000000000000000000000000000000000
310
000000000000000000DC000000000000000000000000000000BE000000000000000000000000000000000000000000000000000000000000000000BE0000BE000000000000000000000000000000000000000000000000000000000000000000000000BEBEBEBEBEBEBEBEBEBEBEBEBEBEBEBEBEBEBEBEBEBEBEBEBEBEBEBE
310
0000000000000000000000000000000000000000000000000000000000DC00000000000000000000000000000000000000000000000000000000000000000000000000000000000000000000000000000000000000000000000000000000000000000000000000000000000000000000000000000000000000000000000000
310
0000000000000000000000DC000000000000000000000000000000BE000000000000000000000000000000000000000000000000000000000000000000BE0000BE000000000000000000000000000000000000000000000000000000000000000000000000BEBE0000BEBEBE0000BEBE000000000000BEBEBEBE0000000000
310
00BE0000000000000000000000000000000000000000000000000000000000DC0000000000000000000000000000000000000000000000000000000000000000000000000000000000000000000000000000000000000000000000000000000000000000000000000000000000000000000000000000000000000000000000
310
00000000000000000000000000DC000000000000000000000000000000BE000000000000000000000000000000000000000000000000000000000000000000BE0000BE000000000000000000000000000000000000000000000000000000000000000000000000BE000000BEBEBE0000BE00000000000000BEBEBEBE000000
310
000000BE0000000000000000000000000000000000000000000000000000000000DC000000000000000000000000000000000000000000000000000000000000000000000000000000000000000000000000000000000000000000000000000000000000000000000000000000000000000000000000000000000000000000
310
000000000000000000000000000000DC000000000000000000000000000000BE000000000000000000000000000000000000000000000000000000000000000000BE0000BE000000000000000000000000000000000000000000000000000000000000000000000000BE0000000000000000BE000000000000000000000000
310
0000000000BE0000000000000000000000000000000000000000000000000000000000DC00000000000000000000000000000000000000000000000000000000000000000000000000000000000000000000000000000000000000000000000000000000000000000000000000000000000000000000000000000000000000
310
0000000000000000000000000000000000DC000000000000000000000000000000BE000000000000000000000000000000000000000000000000000000000000000000BE0000BE000000000000000000000000000000000000000000000000000000000000000000000000BE0000000000000000BE00000000000000000000
310
00000000000000BE0000000000000000000000000000000000000000000000000000000000DC0000000000000000000000000000000000000000000000000000000000000000000000000000000000000000000000000000000000000000000000000000000000000000000000000000000000000000000000000000000000
310
00000000000000000000000000000000000000DC000000000000000000000000000000BE000000000000000000000000000000000000000000000000000000000000000000BE0000BE000000000000000000000000000000000000000000000000000000000000000000000000BE0000000000000000BE0000000000000000
310
000000000000000000BE0000000000000000000000000000000000000000000000000000000000DC000000000000000000000000000000000000000000000000000000000000000000000000000000000000000000000000000000000000000000000000000000000000000000000000000000000000000000000000000000
310
000000000000000000000000000000000000000000DC000000000000000000000000000000BE000000000000000000000000000000000000000000000000000000000000000000BE0000BE000000000000000000000000000000000000000000000000000000000000000000000000BE0000000000000000BE000000000000
310
0000000000000000000000BE0000000000000000000000000000000000000000000000000000000000DC00000000000000000000000000000000000000000000000000000000000000000000000000000000000000000000000000000000000000000000000000000000000000000000000000000000000000000000000000
310
0000000000000000000000000000000000000000000000DC0000000000000000000000BEBE0000BE000000000000000000000000000000000000000000000000000000000000000000BE0000BE000000000000000000000000000000000000000000000000000000000000000000000000BE0000000000000000BE00000000
310
00000000000000000000000000BE0000000000000000000000000000000000000000000000000000000000DC0000000000000000000000000000000000000000000000000000000000000000000000000000000000000000000000000000000000000000000000000000000000000000000000000000000000000000000000
310
00000000000000000000000000000000000000000000000000DC0000000000000000BEBEBEBEBEBEBEBE282828282828282828282828282828282828282828282828282828282828282828BE2828BEBEBEBEBEBEBEBEBEBEBEBEBEBEBE0000000000000000BEBEBEBEBEBEBEBEBEBEBEBEBEBEBE2828282828282828BE2828
310
28282828282828282828282828282828BEBEBEBEBEBEBEBEBEBEBEBEBEBEBE0000000000000000000000000000DC000000000000000000000000000000000000000000000000000000000000000000000000000000000000000000000000000000000000000000000000000000000000000000000000000000000000000000
310
000000000000000000000000000000000000000000000000000000DC0000000000000000BEBEBEBEBEBEBEBE282828282828282828282828282828282828282828282828000000000000000000000000280000000000000000BEBE000000BE000000000000000000BE000000000000000000000000282828282828282828BE
310
BEBE282828282828282828282828282828280000000000000000000000000000BE0000000000000000000000000000DC00000000000000000000000000000000000000000000000000000000000000000000000000000000000000000000000000000000000000000000000000000000000000000000000000000000000000
310
0000000000000000000000000000000000000000000000000000000000DC0000000000000000BEBE00BEBE0000282800000000000000000000000000000000000000000000002828282828BEBEBEBEBE0000BEBEBEBEBEBEBEBEBEBEBEBE0000BE000000000000000000BE0000000000000000000000002828282828282828
310
28282828282828282828282828282828282828280000000000000000000000000000BE0000000000000000000000000000DC0000000000000000000000000000000000000000000000000000000000000000000000000000000000000000000000000000000000000000000000000000000000000000000000000000000000
310
00000000000000000000000000000000000000000000000000000000000000DC0000000000000000000000BEBE00002828000000000000000000000000000000000000000000000000000000BEBEBE280000000028000000000000000000BEBE00BEBE00000000000000BEBEBE000000000000BEBEBEBEBEBE28BEBEBEBE00
310
BEBEBE280000000000000000000000000000000000280000000000000000000000000000BE0000000000000000000000000000DC000000000000000000000000000000000000000000000000000000000000000000000000000000000000000000000000000000000000000000000000000000000000000000000000000000
310
000000000000000000000000000000000000000000000000000000000000000000DC0000000000000000000000000000002828000000000000000000000000000000000000000000000000000000BEBEBE002800000028000000000000000000BE0000BEBE00000000000000BEBEBE000000000000BEBEBEBEBEBEBEBEBEBE
310
BEBEBEBEBE280000000000000000000000000000000000280000000000000000000000000000BE0000000000000000000000000000DC00000000000000000000000000000000000000000000000000000000000000000000000000000000000000000000000000000000000000000000000000000000000000000000000000
310
0000000000000000000000000000000000000000000000000000000000000000000000DC0000000000000000000000000000002828000000000000000000000000000000000000000000000000000000BEBEBEBEBEBE0000280000000000000000BEBE0000BEBE00000000000000BEBEBE0000000000000000000000002828
310
282800282828280F2828282828282828282828282828282828280000000000000000000000000000BE0000000000000000000000000000DC0000000000000000000000000000000000000000000000000000000000000000000000000000000000000000000000000000000000000000000000000000000000000000000000
310
00000000000000000000000000000000000000000000000000000000000000000000000000DC00000000000000000000000000000028280000000000000000000000000000000000000000000000000000000000BEBEBE280000280000000000000000BEBE0000BEBE00000000000000BEBEBE000000000000000000000000
310
282828280000280028282828000000000000000000000000000000280000000000000000000000000000BE0000000000000000000000000000DC000000000000000000000000000000000000000000000000000000000000000000000000000000000000000000000000000000000000000000000000000000000000000000
310
000000000000000000000000000000000000000000000000000000000000000000000000000000DC0000000000000000000000000000002828000000000000000000282800000000000000000000000000002828000000BEBE280000280000000000000000BEBE000000BE000000000000000000BE00000000000000000000
310
0000282828280000282828282828000000000000000000000000000000280000000000000000000000000000BE0000000000000000000000000000DC00000000000000000000000000000000000000000000000000000000000000000000000000000000000000000000000000000000000000000000000000000000000000
310
0000000000000000000000000000000000000000000000000000000000000000000000000000000000DC0000000000000000000000000000002828000000000000000000BE2800000000000000000000000000002828000000000028000028000000000000000000BEBE0000BE0000000000000000BEBE0000000000000000
310
0000000028BE282800002828282800000000BEBEBEBEBEBEBEBEBEBEBEBEBE280000000000000000000000000000BE0000000000000000000000000000DC0000000000000000000000000000000000000000000000000000000000000000000000000000000000000000000000000000000000000000000000000000000000
310
00000000000000000000000000000000000000000000000000000000000000000000000000000000000000DC0000000000000000000000000000002828282828282828282828BE2828282828282828282828282828282828282828282828282828BEBEBEBEBEBEBEBEBEBEBEBEBEBE0000000000000000BEBEBEBEBEBEBEBE
310
BEBEBEBEBEBEBEBE282828282828282800000000BEBEBEBEBEBEBEBEBEBEBEBEBE280000000000000000000000000000BE0000000000000000000000000000DC000000000000000000000000000000000000000000000000000000000000000000000000000000000000000000000000000000000000000000000000000000
310
000000000000000000000000000000000000000000000000000000000000000000000000000000000000000000DC0000000000000000000000000000002800000000000000000000BE280000000000000000000000000000BEBE00002800002800282800000000000000000000000000BE000000000000000000BE00000000
310
000000000000000028BE0028002828280000280F002800000000000000000000000000280000000000000000000000000000BE0000000000000000000000000000DC00000000000000000000000000000000000000000000000000000000000000000000000000000000000000000000000000000000000000000000000000
310
0000000000000000000000000000000000000000000000000000000000000000000000000000000000000000000000DC000000000000000000000000000000280000000000000000000028280000000000000000000000000000282800002800002800282800000000000000000000000000BE000000000000000000BE0000
310
0000000000000000000028280028002828280000002828280000000000000000000000000028000000000000000000000000BEBEBE0000000000000000000000000000DC0000000000000000000000000000000000000000000000000000000000000000000000000000000000000000000000000000000000000000000000
310
00000000000000000000000000000000000000000000000000000000000000000000000000000000000000000000000000DC000000000000000000000000000000280000000000000000000000000000000000000000000000000000000000002800002800282800000000000000000000000000BE000000000000000000BE
310
0000000000000000000000002828002800280000000000BE280F0000000000000000000000000028000000000000000000000000BEBEBE0000000000000000000000000000DC000000000000000000000000000000000000000000000000000000000000000000000000000000000000000000000000000000000000000000
310
000000000000000000000000000000000000000000000000000000000000000000000000000000000000000000000000000000DC0000000000000000000000000000002800000000000000000000000000000000000000000000000000000000BEBE2800002800282800000000000000000000000000BE0000000000000000
310
00BE00000000000000000000000028280028002800000000002800280000000000000000000000000028000000000000000000000000BEBEBE0000000000000000000000000000DC00000000000000000000000000000000000000000000000000000000000000000000000000000000000000000000000000000000000000
310
0000000000000000000000000000000000000000000000000000000000000000000000000000000000000000000000000000000000DC00000000000000000000000000000028000000000000000000000000000000000000000000000000000000BEBEBE2800002800282800000000000000000000000000BE000000000000
310
000000BE000000000000000000000000282800280028000000000000000028000000000000000000000000280000000000000000000000000000BE0000000000000000000000000000DC0000000000000000000000000000000000000000000000000000000000000000000000000000000000000000000000000000000000
310
00000000000000000000000000000000000000000000000000000000000000000000000000000000000000000000000000000000000000DC0000000000000000000000000000002800000000000000000000000000000000000000000000000000BEBE0000002800002800282800000000000000000000000000BE00000000
310
0000000000BE000000000000000000000000282800280028000000000000000000280F00000000000000000000280000000000000000000000000000BE0000000000000000000000000000DC000000000000000000000000000000000000000000000000000000000000000000000000000000000000000000000000000000
310
000000000000000000000000000000000000000000000000000000000000000000000000000000000000000000000000000000000000000000DC00000000000000000000000000000028000000000000000000000000000000000000000000000000BEBE000000002800002800282800000000000000000000000000BE0000
310
00000000000000BE000000000000000000000000282800280028000000000000000000002828000000000000000000280000000000000000000000000000BE0000000000000000000000000000DC00000000000000000000000000000000000000000000000000000000000000000000000000000000000000000000000000
310
0000000000000000000000000000000000000000000000000000000000000000000000000000000000000000000000000000000000000000000000DC00000000000000000000000000000028000000000000000000000000000000000000000000000000BEBE0000000028000028002828000000000000000000000000BEBE
310
00000000000000BEBEBE000000000000000000000000282800280028000000000000000000000028280000000000000000280000000000000000000000000000BE0000000000000000000000000000DC0000000000000000000000000000000000000000000000000000000000000000000000000000000000000000000000
310
00000000000000000000000000000000000000000000000000000000000000000000000000000000000000000000000000000000000000000000000000DC00000000000000000000000000000028000000000000000000000000000000000000000000000000BEBE0000000028000028002828000000000000000000000000
310
BEBE00000000000000BEBEBE000000000000000000000000282800280028000000000000000000000000282800000000000000280000000000000000000000000000BE0000000000000000000000000000DC000000000000000000000000000000000000000000000000000000000000000000000000000000000000000000
310
000000000000000000000000000000000000000000000000000000000000000000000000000000000000000000000000000000000000000000000000000000DC00000000000000000000000000000028000000000000000000000000000000000000000000000000BEBE000000002800002800282800000000000000000000
310
0000BEBE00000000000000BEBEBE000000000000000000000000282800280028000000000000000000000000002828000000000000280000000000000000000000000000BE0000000000000000000000000000DC00000000000000000000000000000000000000000000000000000000000000000000000000000000000000
310
0000000000000000000000000000000000000000000000000000000000000000000000000000000000000000000000000000000000000000000000000000000000DC0000000000000000000000000000002800000000000000000000000000000000000000000000000000BE00000000280000280028280000000000000000
310
0000000000BE000000000000000000BE000000000000000000000000282800280028000000000000000000000000000028280028000000280000000000000000000000000000BE0000000000000000000000000000DC0000000000000000000000000000000000000000000000000000000000000000000000000000000000
310
00000000000000000000000000000000000000000000000000000000000000000000000000000000000000000000000000000000000000000000000000000000000000DC0000000000000000000000000000002800000000000000000000000000000000000000000000000000000000000028000028002828000000000000
310
00000000000000BE000000000000000000BE000000000000000000000000282800280028000000000000000000000000000000282828000000280000000000000000000000000000BE0000000000000000000000000000DC000000000000000000000000000000000000000000000000000000000000000000000000000000
310
000000000000000000000000000000000000000000000000000000000000000000000000000000000000000000000000000000000000000000000000000000000000000000DC0000000000000000000000000000002800000000000000000000000000000000000000000000000000000000BEBE2800002800282800000000
310
000000000000000000BE000000000000000000BE000000000000000000000000282800280028BEBEBEBEBEBEBEBEBEBEBEBEBEBE00282828000000280000000000000000000000000000BE0000000000000000000000000000DC00000000000000000000000000000000000000000000000000000000000000000000000000
310
0000000000000000000000000000000000000000000000000000000000000000000000000000000000000000000000000000000000000000000000000000000000000000000000DC0000000000000000000000000000002800000000000000000000000000000000000000000000000000000000BEBE280000280028280000
310
0000000000000000000000BE000000000000000000BE00000000000000000000000028280028002800BEBEBEBEBEBE00BEBE00BEBEBE0028002828000028000000000000000000000000BEBEBE0000000000000000000000000000DC0000000000000000000000000000000000000000000000000000000000000000000000
310
00000000000000000000000000000000000000000000000000000000000000000000000000000000000000000000000000000000000000000000000000000000000000000000000000DC0000000000000000000000000000002800000000000000000000000000000000000000000000000000000000000028000028002828
310
00000000000000000000000000BE000000000000000000BE00000000000000000000000028280028002800000000000000000000000000000000000028282828BEBEBEBEBEBEBEBEBEBEBEBEBEBEBE0000000000000000000000000000DC000000000000000000000000000000000000000000000000000000000000000000
310
000000000000000000000000000000000000000000000000000000000000000000000000000000000000000000000000000000000000000000000000000000000000000000000000000000DC000000000000000000000000000000280000000000000000000000000000000000000000000000000000000000002800002800
310
282800000000000000000000000000BE000000000000000000BE00000000000000000000000028280028002800000000000000000000000000000000000000BEBEBEBEBEBEBEBEBEBEBEBEBEBEBEBEBEBE0000000000000000000000000000DC00000000000000000000000000000000000000000000000000000000000000
310
0000000000000000000000000000000000000000000000000000000000000000000000000000000000000000000000000000000000000000000000000000000000000000000000000000000000DC00000000000000000000000000000028000000000000000000000000000000000000000000000000000000000000280000
310
2800282800000000000000000000000000BE0000000000000000BEBE0000000000000000000000002828002800280000000000000000000000000000000000000028000000000000000000000000000000BEBE0000000000000000000000000000DC0000000000000000000000000000000000000000000000000000000000
310
00000000000000000000000000000000000000000000000000000000000000000000000000000000000000000000000000000000000000000000000000000000000000000000000000000000000000DC0000000000000000000000000000002828282828282828282828282828282828282828282828282828282828282828
310
282828282828BEBEBEBEBEBEBEBEBEBEBEBEBEBE0000000000000000BEBEBEBEBEBEBEBEBEBEBEBEBEBE2828282828282828282828282828282828282828282828282828BEBEBEBEBEBEBEBEBEBEBEBEBEBEBEBEBE0000000000000000000000000000DC000000000000000000000000000000000000000000000000000000
310
000000000000000000000000000000000000000000000000000000000000000000000000000000000000000000000000000000000000000000000000000000000000000000000000000000000000000000DC000000000000000000000000000000000000000000000000000000000000000000000000000000000000000000
310
0000000000000000000000000000000000000000000000000000000000000000000000000000000000000000BE000000000000000000000000000000000000000000000000BE0000000000000000000000000000BEBEBE0000000000000000000000000000DC00000000000000000000000000000000000000000000000000
310
0000000000000000000000000000000000000000000000000000000000000000000000000000000000000000000000000000000000000000000000000000000000000000000000000000000000000000000000DC00000000000000000000000000000000000000000000000000000000000000000000000000000000000000
310
00000000000000000000000000000000000000000000000000000000000000000000000000000000000000000000BE000000000000000000000000000000000000000000000000BE0000000000000000000000000000BEBE000000000000000000000000000000DC0000000000000000000000000000000000000000000000
310
00000000000000000000000000000000000000000000000000000000000000000000000000000000000000000000000000000000000000000000000000000000000000000000000000000000000000000000000000DC0000000000000000000000000000000000000000000000000000000000000000000000000000000000
310
000000000000000000000000000000000000000000000000000000000000000000000000000000000000000000000000BE000000000000000000000000000000000000000000000000BE00000000000000000000000000000000000000000000000000000000000000DC000000000000000000000000000000000000000000
310
000000000000000000000000000000000000000000000000000000000000000000000000000000000000000000000000000000000000000000000000000000000000000000000000000000000000000000000000000000DC000000000000000000000000000000000000000000000000000000000000000000000000000000
310
0000000000000000000000000000000000000000000000000000000000000000000000000000000000000000000000000000BE000000000000000000000000000000000000000000000000BE00000000000000000000000000000000000000000000000000000000000000DC00000000000000000000000000000000000000
310
0000000000000000000000000000000000000000000000000000000000000000000000000000000000000000000000000000000000000000000000000000000000000000000000000000000000000000000000000000000000DC00000000000000000000000000000000000000000000000000000000000000000000000000
310
00000000000000000000000000000000000000000000000000000000000000000000000000000000000000000000000000000000BE000000000000000000000000000000000000000000000000BE00000000000000000000000000000000000000000000000000000000000000DC0000000000000000000000000000000000
310
00000000000000000000000000000000000000000000000000000000000000000000000000000000000000000000000000000000000000000000000000000000000000000000000000000000000000000000000000000000000000DC0000000000000000000000000000000000000000000000000000000000000000000000
310
000000000000000000000000000000000000000000000000000000000000000000000000000000000000000000000000000000000000BE000000000000000000000000000000000000000000000000BE00000000000000000000000000000000000000000000000000000000000000DC000000000000000000000000000000
310
000000000000000000000000000000000000000000000000000000000000000000000000000000000000000000000000000000000000000000000000000000000000000000000000000000000000000000000000000000000000000000DC000000000000000000000000000000000000000000000000000000000000000000
310
0000000000000000000000000000000000000000000000000000000000000000000000000000000000000000000000000000000000000000BE000000000000000000000000000000000000000000000000BE00000000000000000000000000000000000000000000000000000000000000DC00000000000000000000000000
310
0000000000000000000000000000000000000000000000000000000000000000000000000000000000000000000000000000000000000000000000000000000000000000000000000000000000000000000000000000000000000000000000DC00000000000000000000000000000000000000000000000000000000000000
310
00000000000000000000000000000000000000000000000000000000000000000000000000000000000000000000000000000000000000000000BE000000000000000000000000000000000000000000000000BE00000000000000000000000000000000000000000000000000000000000000DC0000000000000000000000
310
00000000000000000000000000000000000000000000000000000000000000000000000000000000000000000000000000000000000000000000000000000000000000000000000000000000000000000000000000000000000000000000000000DC0000000000000000000000000000000000000000000000000000000000
310
000000000000000000000000000000000000000000000000000000000000000000000000000000000000000000000000000000000000000000000000BEBEBEBEBEBEBEBEBEBEBEBEBEBEBEBEBEBEBEBEBEBEBEBEBEBE00000000000000000000000000000000000000000000000000000000000000DC000000000000000000
310
000000000000000000000000000000000000000000000000000000000000000000000000000000000000000000000000000000000000000000000000000000000000000000000000000000000000000000000000000000000000000000000000000000DC000000000000000000000000000000000000000000000000000000
310
000000000000000000000000000000000000000000000000000000000000000000000000000000000000000000000000000000000000000000000000000000000000000000000000BEBEBE0000000000000000000000000000000000000000000000000000000000000000000000000000000000000000DC00000000000000
310
0000000000000000000000000000000000000000000000000000000000000000000000000000000000000000000000000000000000000000000000000000000000000000000000000000000000000000000000000000000000000000000000000000000000DC00000000000000000000000000000000000000000000000000
310
00000000000000000000000000000000000000000000000000000000000000000000000000000000000000000000000000000000000000000000000000000000000000000000000000000000000000000000000000000000000000000000000000000000000000000000000000000000000000000000000000DC0000000000
310
00000000000000000000000000000000000000000000000000000000000000000000000000000000000000000000000000000000000000000000000000000000000000000000000000000000000000000000000000000000000000000000000000000000000000DC0000000000000000000000000000000000000000000000
310
000000000000000000000000000000000000000000000000000000000000000000000000000000000000000000000000000000000000000000000000000000000000000000000000000000000000000000000000000000000000000000000000000000000000000000000000000000000000000000000000000000DC000000
310
000000000000000000000000000000000000000000000000000000000000000000000000000000000000000000000000000000000000000000000000000000000000000000000000000000000000000000000000000000000000000000000000000000000000000000DCDCDCDCDCDCDCDCDCDCDCDCDCDCDCDCDCDCDCDCDCDC
310
DCDCDCDCDCDCDCDCDCDCDCDCDCDCDCDCDCDCDCDCDCDCDCDCDCDCDCDCDCDCDCDCDCDCDCDCDCDCDCDCDCDCDCDCDCDCDCDCDCDCDCDCDCDCDCDCDCDCDCDCDCDCDCDCDCDCDCDCDCDCDCDCDCDCDCDCDCDCDCDCDCDCDCDCDCDCDCDCDCDCDCDCDCDCDCDCDCDCDCDCDCDCDCDCDCDCDCDCDCDCDCDCDCDCDCDCDCDCDCDCDCDCDCDCDCDC00
310
00000000000000000000000000000000000000000000000000000000000000000000000000000000000000000000000000000000000000000000000000000000000000000000000000000000000000000000000000000000000000000000000000000000000000000000000000000000000000000000000000000000000000
310
00000000000000000000000000000000000000000000000000000000000000000000000000000000000000000000000000000000000000000000000000000000000000000000000000000000000000000000000000000000000000000000000000000000000000000000000000000000000000000000000000000000000000
310
00000000000000000000000000000000000000000000000000000000000000000000000000000000000000000000000000000000000000000000000000000000000000000000000000000000000000000000000000000000000000000000000000000000000000000000000000000000000000000000000000000000000000
310
00000000000000000000000000000000000000000000000000000000000000000000000000000000000000000000000000000000000000000000000000000000000000000000000000000000000000000000000000000000000000000000000000000000000000000000000000000000000000000000000000000000000000
310
00000000000000000000000000000000000000000000000000000000000000000000000000000000000000000000000000000000000000000000000000000000000000000000000000000000000000000000000000000000000000000000000000000000000000000000000000000000000000000000000000000000000000
310
00000000000000000000000000000000000000000000000000000000000000000000000000000000000000000000000000000000000000000000000000000000000000000000000000000000000000000000000000000000000000000000000000000000000000000000000000000000000000000000000000000000000000
310
00000000000000000000000000000000000000000000000000000000000000000000000000000000000000000000000000000000000000000000000000000000000000000000000000000000000000000000000000000000000000000000000000000000000000000000000000000000000000000000000000000000000000
310
00000000000000000000000000000000000000000000000000000000000000000000000000000000000000000000000000000000000000000000000000000000000000000000000000000000000000000000000000000000000000000000000000000000000000000000000000000000000000000000000000000000000000
310
00000000000000000000000000000000000000000000000000000000000000000000000000000000000000000000000000000000000000000000000000000000000000000000000000000000000000000000000000000000000000000000000000000000000000000000000000000000000000000000000000000000000000
310
00000000000000000000000000000000000000000000000000000000000000000000000000000000000000000000000000000000000000000000000000000000000000000000000000000000000000000000000000000000000000000000000000000000000000000000000000000000000000000000000000000000000000
310
00000000000000000000000000000000000000000000000000000000000000000000000000000000000000000000000000000000000000000000000000000000000000000000000000000000000000000000000000000000000000000000000000000000000000000000000000000000000000000000000000000000000000
310
00000000000000000000000000000000000000000000000000000000000000000000000000000000000000000000000000000000000000000000000000000000000000000000000000000000000000000000000000000000000000000000000000000000000000000000000000000000000000000000000000000000000000
310
00000000000000000000000000000000000000000000000000000000000000000000000000000000000000000000000000000000000000000000000000000000000000000000000000000000000000000000000000000000000000000000000000000000000000000000000000000000000000000000000000000000000000
310
00000000000000000000000000000000000000000000000000000000000000000000000000000000000000000000000000000000000000000000000000000000000000000000000000000000000000000000000000000000000000000000000000000000000000000000000000000000000000000000000000000000000000
310
00000000000000000000000000000000000000000000000000000000000000000000000000000000000000000000000000000000000000000000000000000000000000000000000000000000000000000000000000000000000000000000000000000000000000000000000000000000000000000000000000000000000000
310
00000000000000000000000000000000000000000000000000000000000000000000000000000000000000000000000000000000000000000000000000000000000000000000000000000000000000000000000000000000000000000000000000000000000000000000000000000000000000000000000000000000000000
310
00000000000000000000000000000000000000000000000000000000000000000000000000000000000000000000000000000000000000000000000000000000000000000000000000000000000000000000000000000000000000000000000000000000000000000000000000000000000000000000000000000000000000
310
00000000000000000000000000000000000000000000000000000000000000000000000000000000000000000000000000000000000000000000000000000000000000000000000000000000000000000000000000000000000000000000000000000000000000000000000000000000000000000000000000000000000000
310
00000000000000000000000000000000000000000000000000000000000000000000000000000000000000000000000000000000000000000000000000000000000000000000000000000000000000000000000000000000000000000000000000000000000000000000000000000000000000000000000000000000000000
310
00000000000000000000000000000000000000000000000000000000000000000000000000000000000000000000000000000000000000000000000000000000000000000000000000000000000000000000000000000000000000000000000000000000000000000000000000000000000000000000000000000000000000
310
00000000000000000000000000000000000000000000000000000000000000000000000000000000000000000000000000000000000000000000000000000000000000000000000000000000000000000000000000000000000000000000000000000000000000000000000000000000000000000000000000000000000000
310
00000000000000000000000000000000000000000000000000000000000000000000000000000000000000000000000000000000000000000000000000000000000000000000000000000000000000000000000000000000000000000000000000000000000000000000000000000000000000000000000000000000000000
310
00000000000000000000000000000000000000000000000000000000000000000000000000000000000000000000000000000000000000000000000000000000000000000000000000000000000000000000000000000000000000000000000000000000000000000000000000000000000000000000000000000000000000
310
00000000000000000000000000000000000000000000000000000000000000000000000000000000000000000000000000000000000000000000000000000000000000000000000000000000000000000000000000000000000000000000000000000000000000000000000000000000000000000000000000000000000000
310
00000000000000000000000000000000000000000000000000000000000000000000000000000000000000000000000000000000000000000000000000000000000000000000000000000000000000000000000000000000000000000000000000000000000000000000000000000000000000000000000000000000000000
310
00000000000000000000000000000000000000000000000000000000000000000000000000000000000000000000000000000000000000000000000000000000000000000000000000000000000000000000000000000000000000000000000000000000000000000000000000000000000000000000000000000000000000
310
00000000000000000000000000000000000000000000000000000000000000000000000000000000000000000000000000000000000000000000000000000000000000000000000000000000000000000000000000000000000000000000000000000000000000000000000000000000000000000000000000000000000000
310
00000000000000000000000000000000000000000000000000000000000000000000000000000000000000000000000000000000000000000000000000000000000000000000000000000000000000000000000000000000000000000000000000000000000000000000000000000000000000000000000000000000000000
310
00000000000000000000000000000000000000000000000000000000000000000000000000000000000000000000000000000000000000000000000000000000000000000000000000000000000000000000000000000000000000000000000000000000000000000000000000000000000000000000000000000000000000
310
00000000000000000000000000000000000000000000000000000000000000000000000000000000000000000000000000000000000000000000000000000000000000000000000000000000000000000000000000000000000000000000000000000000000000000000000000000000000000000000000000000000000000
310
00000000000000000000000000000000000000000000000000000000000000000000000000000000000000000000000000000000000000000000000000000000000000000000000000000000000000000000000000000000000000000000000000000000000000000000000000000000000000000000000000000000000000
310
00000000000000000000000000000000000000000000000000000000000000000000000000000000000000000000000000000000000000000000000000000000000000000000000000000000000000000000000000000000000000000000000000000000000000000000000000000000000000000000000000000000000000
310
00000000000000000000000000000000000000000000000000000000000000000000000000000000000000000000000000000000000000000000000000000000000000000000000000000000000000000000000000000000000000000000000000000000000000000000000000000000000000000000000000000000000000
310
00000000000000000000000000000000000000000000000000000000000000000000000000000000000000000000000000000000000000000000000000000000000000000000000000000000000000000000000000000000000000000000000000000000000000000000000000000000000000000000000000000000000000
310
00000000000000000000000000000000000000000000000000000000000000000000000000000000000000000000000000000000000000000000000000000000000000000000000000000000000000000000000000000000000000000000000000000000000000000000000000000000000000000000000000000000000000
310
00000000000000000000000000000000000000000000000000000000000000000000000000000000000000000000000000000000000000000000000000000000000000000000000000000000000000000000000000000000000000000000000000000000000000000000000000000000000000000000000000000000000000
310
00000000000000000000000000000000000000000000000000000000000000000000000000000000000000000000000000000000000000000000000000000000000000000000000000000000000000000000000000000000000000000000000000000000000000000000000000000000000000000000000000000000000000
310
00000000000000000000000000000000000000000000000000000000000000000000000000000000000000000000000000000000000000000000000000000000000000000000000000000000000000000000000000000000000000000000000000000000000000000000000000000000000000000000000000000000000000
310
00000000000000000000000000000000000000000000000000000000000000000000000000000000000000000000000000000000000000000000000000000000000000000000000000000000000000000000000000000000000000000000000000000000000000000000000000000000000000000000000000000000000000
310
00000000000000000000000000000000000000000000000000000000000000000000000000000000000000000000000000000000000000000000000000000000000000000000000000000000000000000000000000000000000000000000000000000000000000000000000000000000000000000000000000000000000000
310
00000000000000000000000000000000000000000000000000000000000000000000000000000000000000000000000000000000000000000000000000000000000000000000000000000000000000000000000000000000000000000000000000000000000000000000000000000000000000000000000000000000000000
310
00000000000000000000000000000000000000000000000000000000000000000000000000000000000000000000000000000000000000000000000000000000000000000000000000000000000000000000000000000000000000000000000000000000000000000000000000000000000000000000000000000000000000
310
00000000000000000000000000000000000000000000000000000000000000000000000000000000000000000000000000000000000000000000000000000000000000000000000000000000000000000000000000000000000000000000000000000000000000000000000000000000000000000000000000000000000000
310
00000000000000000000000000000000000000000000000000000000000000000000000000000000000000000000000000000000000000000000000000000000000000000000000000000000000000000000000000000000000000000000000000000000000000000000000000000000000000000000000000000000000000
310
00000000000000000000000000000000000000000000000000000000000000000000000000000000000000000000000000000000000000000000000000000000000000000000000000000000000000000000000000000000000000000000000000000000000000000000000000000000000000000000000000000000000000
310
00000000000000000000000000000000000000000000000000000000000000000000000000000000000000000000000000000000000000000000000000000000000000000000000000000000000000000000000000000000000000000000000000000000000000000000000000000000000000000000000000000000000000
310
00000000000000000000000000000000000000000000000000000000000000000000000000000000000000000000000000000000000000000000000000000000000000000000000000000000000000000000000000000000000000000000000000000000000000000000000000000000000000000000000000000000000000
310
00000000000000000000000000000000000000000000000000000000000000000000000000000000000000000000000000000000000000000000000000000000000000000000000000000000000000000000000000000000000000000000000000000000000000000000000000000000000000000000000000000000000000
310
00000000000000000000000000000000000000000000000000000000000000000000000000000000000000000000000000000000000000000000000000000000000000000000000000000000000000000000000000000000000000000000000000000000000000000000000000000000000000000000000000000000000000
310
00000000000000000000000000000000000000000000000000000000000000000000000000000000000000000000000000000000000000000000000000000000000000000000000000000000000000000000000000000000000000000000000000000000000000000000000000000000000000000000000000000000000000
310
00000000000000000000000000000000000000000000000000000000000000000000000000000000000000000000000000000000000000000000000000000000000000000000000000000000000000000000000000000000000000000000000000000000000000000000000000000000000000000000000000000000000000
310
00000000000000000000000000000000000000000000000000000000000000000000000000000000000000000000000000000000000000000000000000000000000000000000000000000000000000000000000000000000000000000000000000000000000000000000000000000000000000000000000000000000000000
310
00000000000000000000000000000000000000000000000000000000000000000000000000000000000000000000000000000000000000000000000000000000000000000000000000000000000000000000000000000000000000000000000000000000000000000000000000000000000000000000000000000000000000
310
00000000000000000000000000000000000000000000000000000000000000000000000000000000000000000000000000000000000000000000000000000000000000000000000000000000000000000000000000000000000000000000000000000000000000000000000000000000000000000000000000000000000000
310
00000000000000000000000000000000000000000000000000000000000000000000000000000000000000000000000000000000000000000000000000000000000000000000000000000000000000000000000000000000000000000000000000000000000000000000000000000000000000000000000000000000000000
310
00000000000000000000000000000000000000000000000000000000000000000000000000000000000000000000000000000000000000000000000000000000000000000000000000000000000000000000000000000000000000000000000000000000000000000000000000000000000000000000000000000000000000
310
00000000000000000000000000000000000000000000000000000000000000000000000000000000000000000000000000000000000000000000000000000000000000000000000000000000000000000000000000000000000000000000000000000000000000000000000000000000000000000000000000000000000000
310
00000000000000000000000000000000000000000000000000000000000000000000000000000000000000000000000000000000000000000000000000000000000000000000000000000000000000000000000000000000000000000000000000000000000000000000000000000000000000000000000000000000000000
310
00000000000000000000000000000000000000000000000000000000000000000000000000000000000000000000000000000000000000000000000000000000000000000000000000000000000000000000000000000000000000000000000000000000000000000000000000000000000000000000000000000000000000
310
00000000000000000000000000000000000000000000000000000000000000000000000000000000000000000000000000000000000000000000000000000000000000000000000000000000000000000000000000000000000000000000000000000000000000000000000000000000000000000000000000000000000000
310
0000000000000000000000000000000000000000000000000000000000000000000000000000000000000000000000000000000000000000000000000000000000000000000000000000000000000000000000000000000000000000000000000000000000000000000000000000000000000000000000000000
  0
XRECORD
  5
B79
102
{ACAD_REACTORS
330
B78
102
}
330
B78
100
AcDbXrecord
280
     1
102
MATERIAL
148
0.0
149
0.0
149
0.0
 93
        0
 94
      127
282
     0
 72
     0
 77
     0
171
     0
175
     0
179
     0
273
     0
  0
XRECORD
  5
B7B
102
{ACAD_REACTORS
330
B7A
102
}
330
B7A
100
AcDbXrecord
280
     1
102
MATERIAL
148
0.0
149
0.0
149
0.0
 93
        0
 94
      127
282
     0
 72
     0
 77
     0
171
     0
175
     0
179
     0
273
     0
  0
XRECORD
  5
B7D
102
{ACAD_REACTORS
330
B7C
102
}
330
B7C
100
AcDbXrecord
280
     1
102
MATERIAL
148
0.0
149
0.0
149
0.0
 93
        0
 94
      127
282
     0
 72
     0
 77
     0
171
     0
175
     0
179
     0
273
     0
  0
XRECORD
  5
B6A
102
{ACAD_REACTORS
330
B69
102
}
330
B69
100
AcDbXrecord
280
     1
102
DISPLAYNAME
  1
Imperial24
102
FLAGS
 90
        0
  0
CELLSTYLEMAP
  5
B80
102
{ACAD_REACTORS
330
B7E
102
}
330
B7E
100
AcDbCellStyleMap
 90
        3
300
CELLSTYLE
  1
TABLEFORMAT_BEGIN
 90
        5
170
     1
 91
        0
 92
    32768
 62
   257
 93
        1
300
CONTENTFORMAT
  1
CONTENTFORMAT_BEGIN
 90
        0
 91
        0
 92
        4
 93
        0
300

 40
0.0
140
1.0
 94
        5
 62
     0
340
F
144
0.25
309
CONTENTFORMAT_END
171
     0
 94
        6
 95
        1
302
GRIDFORMAT
  1
GRIDFORMAT_BEGIN
 90
        0
 91
        1
 62
     0
 92
       -2
340
0
 93
        0
 40
0.045
309
GRIDFORMAT_END
 95
        2
302
GRIDFORMAT
  1
GRIDFORMAT_BEGIN
 90
        0
 91
        1
 62
     0
 92
       -2
340
0
 93
        0
 40
0.045
309
GRIDFORMAT_END
 95
        4
302
GRIDFORMAT
  1
GRIDFORMAT_BEGIN
 90
        0
 91
        1
 62
     0
 92
       -2
340
0
 93
        0
 40
0.045
309
GRIDFORMAT_END
 95
        8
302
GRIDFORMAT
  1
GRIDFORMAT_BEGIN
 90
        0
 91
        1
 62
     0
 92
       -2
340
0
 93
        0
 40
0.045
309
GRIDFORMAT_END
 95
       16
302
GRIDFORMAT
  1
GRIDFORMAT_BEGIN
 90
        0
 91
        1
 62
     0
 92
       -2
340
0
 93
        0
 40
0.045
309
GRIDFORMAT_END
 95
       32
302
GRIDFORMAT
  1
GRIDFORMAT_BEGIN
 90
        0
 91
        1
 62
     0
 92
       -2
340
0
 93
        0
 40
0.045
309
GRIDFORMAT_END
309
TABLEFORMAT_END
  1
CELLSTYLE_BEGIN
 90
        1
 91
        1
300
_TITLE
309
CELLSTYLE_END
300
CELLSTYLE
  1
TABLEFORMAT_BEGIN
 90
        5
170
     1
 91
        0
 92
        0
 62
   257
 93
        1
300
CONTENTFORMAT
  1
CONTENTFORMAT_BEGIN
 90
        0
 91
        0
 92
        4
 93
        0
300

 40
0.0
140
1.0
 94
        5
 62
     0
340
F
144
0.18
309
CONTENTFORMAT_END
171
     0
 94
        6
 95
        1
302
GRIDFORMAT
  1
GRIDFORMAT_BEGIN
 90
        0
 91
        1
 62
     0
 92
       -2
340
0
 93
        0
 40
0.045
309
GRIDFORMAT_END
 95
        2
302
GRIDFORMAT
  1
GRIDFORMAT_BEGIN
 90
        0
 91
        1
 62
     0
 92
       -2
340
0
 93
        0
 40
0.045
309
GRIDFORMAT_END
 95
        4
302
GRIDFORMAT
  1
GRIDFORMAT_BEGIN
 90
        0
 91
        1
 62
     0
 92
       -2
340
0
 93
        0
 40
0.045
309
GRIDFORMAT_END
 95
        8
302
GRIDFORMAT
  1
GRIDFORMAT_BEGIN
 90
        0
 91
        1
 62
     0
 92
       -2
340
0
 93
        0
 40
0.045
309
GRIDFORMAT_END
 95
       16
302
GRIDFORMAT
  1
GRIDFORMAT_BEGIN
 90
        0
 91
        1
 62
     0
 92
       -2
340
0
 93
        0
 40
0.045
309
GRIDFORMAT_END
 95
       32
302
GRIDFORMAT
  1
GRIDFORMAT_BEGIN
 90
        0
 91
        1
 62
     0
 92
       -2
340
0
 93
        0
 40
0.045
309
GRIDFORMAT_END
309
TABLEFORMAT_END
  1
CELLSTYLE_BEGIN
 90
        2
 91
        1
300
_HEADER
309
CELLSTYLE_END
300
CELLSTYLE
  1
TABLEFORMAT_BEGIN
 90
        5
170
     1
 91
        0
 92
        0
 62
   257
 93
        1
300
CONTENTFORMAT
  1
CONTENTFORMAT_BEGIN
 90
        0
 91
        0
 92
        4
 93
        0
300

 40
0.0
140
1.0
 94
        2
 62
     0
340
F
144
0.18
309
CONTENTFORMAT_END
171
     0
 94
        6
 95
        1
302
GRIDFORMAT
  1
GRIDFORMAT_BEGIN
 90
        0
 91
        1
 62
     0
 92
       -2
340
0
 93
        0
 40
0.045
309
GRIDFORMAT_END
 95
        2
302
GRIDFORMAT
  1
GRIDFORMAT_BEGIN
 90
        0
 91
        1
 62
     0
 92
       -2
340
0
 93
        0
 40
0.045
309
GRIDFORMAT_END
 95
        4
302
GRIDFORMAT
  1
GRIDFORMAT_BEGIN
 90
        0
 91
        1
 62
     0
 92
       -2
340
0
 93
        0
 40
0.045
309
GRIDFORMAT_END
 95
        8
302
GRIDFORMAT
  1
GRIDFORMAT_BEGIN
 90
        0
 91
        1
 62
     0
 92
       -2
340
0
 93
        0
 40
0.045
309
GRIDFORMAT_END
 95
       16
302
GRIDFORMAT
  1
GRIDFORMAT_BEGIN
 90
        0
 91
        1
 62
     0
 92
       -2
340
0
 93
        0
 40
0.045
309
GRIDFORMAT_END
 95
       32
302
GRIDFORMAT
  1
GRIDFORMAT_BEGIN
 90
        0
 91
        1
 62
     0
 92
       -2
340
0
 93
        0
 40
0.045
309
GRIDFORMAT_END
309
TABLEFORMAT_END
  1
CELLSTYLE_BEGIN
 90
        3
 91
        2
300
_DATA
309
CELLSTYLE_END
  0
XRECORD
  5
B7F
102
{ACAD_REACTORS
330
B7E
102
}
330
B7E
100
AcDbXrecord
280
     1
102
ACAD_ROUNDTRIP_PRE2007_TABLESTYLE
 90
        4
 91
        0
  1

 92
        4
 93
        0
  2

 94
        4
 95
        0
  3

  0
XRECORD
  5
B83
102
{ACAD_REACTORS
330
B82
102
}
330
B82
100
AcDbXrecord
280
     1
102
RTVSPropertyOp0
 70
     1
102
RTVSPropertyOp1
 70
     1
102
RTVSPropertyOp2
 70
     1
102
RTVSPropertyOp3
 70
     1
102
RTVSPropertyOp4
 70
     1
102
RTVSPropertyOp5
 70
     1
102
RTVSPropertyOp6
 70
     1
102
RTVSPropertyOp7
 70
     1
102
RTVSPropertyOp8
 70
     1
102
RTVSPropertyOp9
 70
     1
102
RTVSPropertyOp10
 70
     1
102
RTVSPropertyOp11
 70
     1
102
RTVSPropertyOp12
 70
     1
102
RTVSPropertyOp13
 70
     1
102
RTVSPropertyOp14
 70
     1
102
RTVSPropertyOp15
 70
     1
102
RTVSPropertyOp16
 70
     1
102
RTVSPropertyOp17
 70
     1
102
RTVSPropertyOp18
 70
     1
102
RTVSPropertyOp19
 70
     1
102
RTVSPropertyOp20
 70
     1
102
RTVSPropertyOp21
 70
     1
102
RTVSPropertyOp22
 70
     1
102
RTVSPropertyOp23
 70
     1
102
RTVSPropertyOp24
 70
     1
102
RTVSPropertyOp25
 70
     1
102
RTVSPropertyOp26
 70
     1
102
RTVSPropertyOp27
 70
     1
  0
XRECORD
  5
B85
102
{ACAD_REACTORS
330
B84
102
}
330
B84
100
AcDbXrecord
280
     1
102
RTVSPropertyOp0
 70
     1
102
RTVSPropertyOp1
 70
     1
102
RTVSPropertyOp2
 70
     1
102
RTVSPropertyOp3
 70
     1
102
RTVSPropertyOp4
 70
     1
102
RTVSPropertyOp5
 70
     1
102
RTVSPropertyOp6
 70
     1
102
RTVSPropertyOp7
 70
     1
102
RTVSPropertyOp8
 70
     1
102
RTVSPropertyOp9
 70
     1
102
RTVSPropertyOp10
 70
     1
102
RTVSPropertyOp11
 70
     1
102
RTVSPropertyOp12
 70
     1
102
RTVSPropertyOp13
 70
     1
102
RTVSPropertyOp14
 70
     1
102
RTVSPropertyOp15
 70
     1
102
RTVSPropertyOp16
 70
     1
102
RTVSPropertyOp17
 70
     1
102
RTVSPropertyOp18
 70
     1
102
RTVSPropertyOp19
 70
     1
102
RTVSPropertyOp20
 70
     1
102
RTVSPropertyOp21
 70
     1
102
RTVSPropertyOp22
 70
     1
102
RTVSPropertyOp23
 70
     1
102
RTVSPropertyOp24
 70
     1
102
RTVSPropertyOp25
 70
     1
102
RTVSPropertyOp26
 70
     1
102
RTVSPropertyOp27
 70
     1
  0
XRECORD
  5
B87
102
{ACAD_REACTORS
330
B86
102
}
330
B86
100
AcDbXrecord
280
     1
102
RTVSPropertyOp0
 70
     1
102
RTVSPropertyOp1
 70
     1
102
RTVSPropertyOp2
 70
     1
102
RTVSPropertyOp3
 70
     1
102
RTVSPropertyOp4
 70
     1
102
RTVSPropertyOp5
 70
     1
102
RTVSPropertyOp6
 70
     1
102
RTVSPropertyOp7
 70
     1
102
RTVSPropertyOp8
 70
     1
102
RTVSPropertyOp9
 70
     1
102
RTVSPropertyOp10
 70
     1
102
RTVSPropertyOp11
 70
     1
102
RTVSPropertyOp12
 70
     1
102
RTVSPropertyOp13
 70
     1
102
RTVSPropertyOp14
 70
     1
102
RTVSPropertyOp15
 70
     1
102
RTVSPropertyOp16
 70
     1
102
RTVSPropertyOp17
 70
     1
102
RTVSPropertyOp18
 70
     1
102
RTVSPropertyOp19
 70
     1
102
RTVSPropertyOp20
 70
     1
102
RTVSPropertyOp21
 70
     1
102
RTVSPropertyOp22
 70
     1
102
RTVSPropertyOp23
 70
     1
102
RTVSPropertyOp24
 70
     1
102
RTVSPropertyOp25
 70
     1
102
RTVSPropertyOp26
 70
     1
102
RTVSPropertyOp27
 70
     1
  0
XRECORD
  5
B89
102
{ACAD_REACTORS
330
B88
102
}
330
B88
100
AcDbXrecord
280
     1
102
RTVSPropertyOp0
 70
     1
102
RTVSPropertyOp1
 70
     1
102
RTVSPropertyOp2
 70
     1
102
RTVSPropertyOp3
 70
     1
102
RTVSPropertyOp4
 70
     1
102
RTVSPropertyOp5
 70
     1
102
RTVSPropertyOp6
 70
     1
102
RTVSPropertyOp7
 70
     1
102
RTVSPropertyOp8
 70
     1
102
RTVSPropertyOp9
 70
     1
102
RTVSPropertyOp10
 70
     1
102
RTVSPropertyOp11
 70
     1
102
RTVSPropertyOp12
 70
     1
102
RTVSPropertyOp13
 70
     1
102
RTVSPropertyOp14
 70
     1
102
RTVSPropertyOp15
 70
     1
102
RTVSPropertyOp16
 70
     1
102
RTVSPropertyOp17
 70
     1
102
RTVSPropertyOp18
 70
     1
102
RTVSPropertyOp19
 70
     1
102
RTVSPropertyOp20
 70
     1
102
RTVSPropertyOp21
 70
     1
102
RTVSPropertyOp22
 70
     1
102
RTVSPropertyOp23
 70
     1
102
RTVSPropertyOp24
 70
     1
102
RTVSPropertyOp25
 70
     1
102
RTVSPropertyOp26
 70
     1
102
RTVSPropertyOp27
 70
     1
  0
XRECORD
  5
B8B
102
{ACAD_REACTORS
330
B8A
102
}
330
B8A
100
AcDbXrecord
280
     1
102
RTVSPropertyOp0
 70
     1
102
RTVSPropertyOp1
 70
     1
102
RTVSPropertyOp2
 70
     1
102
RTVSPropertyOp3
 70
     1
102
RTVSPropertyOp4
 70
     1
102
RTVSPropertyOp5
 70
     1
102
RTVSPropertyOp6
 70
     1
102
RTVSPropertyOp7
 70
     1
102
RTVSPropertyOp8
 70
     1
102
RTVSPropertyOp9
 70
     1
102
RTVSPropertyOp10
 70
     1
102
RTVSPropertyOp11
 70
     1
102
RTVSPropertyOp12
 70
     1
102
RTVSPropertyOp13
 70
     1
102
RTVSPropertyOp14
 70
     1
102
RTVSPropertyOp15
 70
     1
102
RTVSPropertyOp16
 70
     1
102
RTVSPropertyOp17
 70
     1
102
RTVSPropertyOp18
 70
     1
102
RTVSPropertyOp19
 70
     1
102
RTVSPropertyOp20
 70
     1
102
RTVSPropertyOp21
 70
     1
102
RTVSPropertyOp22
 70
     1
102
RTVSPropertyOp23
 70
     1
102
RTVSPropertyOp24
 70
     1
102
RTVSPropertyOp25
 70
     1
102
RTVSPropertyOp26
 70
     1
102
RTVSPropertyOp27
 70
     1
  0
XRECORD
  5
B8D
102
{ACAD_REACTORS
330
B8C
102
}
330
B8C
100
AcDbXrecord
280
     1
102
RTVSPropertyOp0
 70
     1
102
RTVSPropertyOp1
 70
     1
102
RTVSPropertyOp2
 70
     1
102
RTVSPropertyOp3
 70
     1
102
RTVSPropertyOp4
 70
     1
102
RTVSPropertyOp5
 70
     1
102
RTVSPropertyOp6
 70
     1
102
RTVSPropertyOp7
 70
     1
102
RTVSPropertyOp8
 70
     1
102
RTVSPropertyOp9
 70
     1
102
RTVSPropertyOp10
 70
     1
102
RTVSPropertyOp11
 70
     1
102
RTVSPropertyOp12
 70
     1
102
RTVSPropertyOp13
 70
     1
102
RTVSPropertyOp14
 70
     1
102
RTVSPropertyOp15
 70
     1
102
RTVSPropertyOp16
 70
     1
102
RTVSPropertyOp17
 70
     1
102
RTVSPropertyOp18
 70
     1
102
RTVSPropertyOp19
 70
     1
102
RTVSPropertyOp20
 70
     1
102
RTVSPropertyOp21
 70
     1
102
RTVSPropertyOp22
 70
     1
102
RTVSPropertyOp23
 70
     1
102
RTVSPropertyOp24
 70
     1
102
RTVSPropertyOp25
 70
     1
102
RTVSPropertyOp26
 70
     1
102
RTVSPropertyOp27
 70
     1
  0
XRECORD
  5
B8F
102
{ACAD_REACTORS
330
B8E
102
}
330
B8E
100
AcDbXrecord
280
     1
102
RTVSPropertyOp0
 70
     1
102
RTVSPropertyOp1
 70
     1
102
RTVSPropertyOp2
 70
     1
102
RTVSPropertyOp3
 70
     1
102
RTVSPropertyOp4
 70
     1
102
RTVSPropertyOp5
 70
     1
102
RTVSPropertyOp6
 70
     1
102
RTVSPropertyOp7
 70
     1
102
RTVSPropertyOp8
 70
     1
102
RTVSPropertyOp9
 70
     1
102
RTVSPropertyOp10
 70
     1
102
RTVSPropertyOp11
 70
     1
102
RTVSPropertyOp12
 70
     1
102
RTVSPropertyOp13
 70
     1
102
RTVSPropertyOp14
 70
     1
102
RTVSPropertyOp15
 70
     1
102
RTVSPropertyOp16
 70
     1
102
RTVSPropertyOp17
 70
     1
102
RTVSPropertyOp18
 70
     1
102
RTVSPropertyOp19
 70
     1
102
RTVSPropertyOp20
 70
     1
102
RTVSPropertyOp21
 70
     1
102
RTVSPropertyOp22
 70
     1
102
RTVSPropertyOp23
 70
     1
102
RTVSPropertyOp24
 70
     1
102
RTVSPropertyOp25
 70
     1
102
RTVSPropertyOp26
 70
     1
102
RTVSPropertyOp27
 70
     1
  0
XRECORD
  5
B91
102
{ACAD_REACTORS
330
B90
102
}
330
B90
100
AcDbXrecord
280
     1
102
RTVSPropertyOp0
 70
     1
102
RTVSPropertyOp1
 70
     1
102
RTVSPropertyOp2
 70
     1
102
RTVSPropertyOp3
 70
     1
102
RTVSPropertyOp4
 70
     1
102
RTVSPropertyOp5
 70
     1
102
RTVSPropertyOp6
 70
     1
102
RTVSPropertyOp7
 70
     1
102
RTVSPropertyOp8
 70
     1
102
RTVSPropertyOp9
 70
     1
102
RTVSPropertyOp10
 70
     1
102
RTVSPropertyOp11
 70
     1
102
RTVSPropertyOp12
 70
     1
102
RTVSPropertyOp13
 70
     1
102
RTVSPropertyOp14
 70
     1
102
RTVSPropertyOp15
 70
     1
102
RTVSPropertyOp16
 70
     1
102
RTVSPropertyOp17
 70
     1
102
RTVSPropertyOp18
 70
     1
102
RTVSPropertyOp19
 70
     1
102
RTVSPropertyOp20
 70
     1
102
RTVSPropertyOp21
 70
     1
102
RTVSPropertyOp22
 70
     1
102
RTVSPropertyOp23
 70
     1
102
RTVSPropertyOp24
 70
     1
102
RTVSPropertyOp25
 70
     1
102
RTVSPropertyOp26
 70
     1
102
RTVSPropertyOp27
 70
     1
  0
XRECORD
  5
B93
102
{ACAD_REACTORS
330
B92
102
}
330
B92
100
AcDbXrecord
280
     1
102
RTVSPropertyOp0
 70
     1
102
RTVSPropertyOp1
 70
     1
102
RTVSPropertyOp2
 70
     1
102
RTVSPropertyOp3
 70
     1
102
RTVSPropertyOp4
 70
     1
102
RTVSPropertyOp5
 70
     1
102
RTVSPropertyOp6
 70
     1
102
RTVSPropertyOp7
 70
     1
102
RTVSPropertyOp8
 70
     1
102
RTVSPropertyOp9
 70
     1
102
RTVSPropertyOp10
 70
     1
102
RTVSPropertyOp11
 70
     1
102
RTVSPropertyOp12
 70
     1
102
RTVSPropertyOp13
 70
     1
102
RTVSPropertyOp14
 70
     1
102
RTVSPropertyOp15
 70
     1
102
RTVSPropertyOp16
 70
     1
102
RTVSPropertyOp17
 70
     1
102
RTVSPropertyOp18
 70
     1
102
RTVSPropertyOp19
 70
     1
102
RTVSPropertyOp20
 70
     1
102
RTVSPropertyOp21
 70
     1
102
RTVSPropertyOp22
 70
     1
102
RTVSPropertyOp23
 70
     1
102
RTVSPropertyOp24
 70
     1
102
RTVSPropertyOp25
 70
     1
102
RTVSPropertyOp26
 70
     1
102
RTVSPropertyOp27
 70
     1
  0
XRECORD
  5
B95
102
{ACAD_REACTORS
330
B94
102
}
330
B94
100
AcDbXrecord
280
     1
102
RTVSPropertyOp0
 70
     1
102
RTVSPropertyOp1
 70
     1
102
RTVSPropertyOp2
 70
     1
102
RTVSPropertyOp3
 70
     1
102
RTVSPropertyOp4
 70
     1
102
RTVSPropertyOp5
 70
     1
102
RTVSPropertyOp6
 70
     1
102
RTVSPropertyOp7
 70
     1
102
RTVSPropertyOp8
 70
     1
102
RTVSPropertyOp9
 70
     1
102
RTVSPropertyOp10
 70
     1
102
RTVSPropertyOp11
 70
     1
102
RTVSPropertyOp12
 70
     1
102
RTVSPropertyOp13
 70
     1
102
RTVSPropertyOp14
 70
     1
102
RTVSPropertyOp15
 70
     1
102
RTVSPropertyOp16
 70
     1
102
RTVSPropertyOp17
 70
     1
102
RTVSPropertyOp18
 70
     1
102
RTVSPropertyOp19
 70
     1
102
RTVSPropertyOp20
 70
     1
102
RTVSPropertyOp21
 70
     1
102
RTVSPropertyOp22
 70
     1
102
RTVSPropertyOp23
 70
     1
102
RTVSPropertyOp24
 70
     1
102
RTVSPropertyOp25
 70
     1
102
RTVSPropertyOp26
 70
     1
102
RTVSPropertyOp27
 70
     1
  0
XRECORD
  5
B97
102
{ACAD_REACTORS
330
B96
102
}
330
B96
100
AcDbXrecord
280
     1
102
RTVSPropertyOp0
 70
     1
102
RTVSPropertyOp1
 70
     1
102
RTVSPropertyOp2
 70
     1
102
RTVSPropertyOp3
 70
     1
102
RTVSPropertyOp4
 70
     1
102
RTVSPropertyOp5
 70
     1
102
RTVSPropertyOp6
 70
     1
102
RTVSPropertyOp7
 70
     1
102
RTVSPropertyOp8
 70
     1
102
RTVSPropertyOp9
 70
     1
102
RTVSPropertyOp10
 70
     1
102
RTVSPropertyOp11
 70
     1
102
RTVSPropertyOp12
 70
     1
102
RTVSPropertyOp13
 70
     1
102
RTVSPropertyOp14
 70
     1
102
RTVSPropertyOp15
 70
     1
102
RTVSPropertyOp16
 70
     1
102
RTVSPropertyOp17
 70
     1
102
RTVSPropertyOp18
 70
     1
102
RTVSPropertyOp19
 70
     1
102
RTVSPropertyOp20
 70
     1
102
RTVSPropertyOp21
 70
     1
102
RTVSPropertyOp22
 70
     1
102
RTVSPropertyOp23
 70
     1
102
RTVSPropertyOp24
 70
     1
102
RTVSPropertyOp25
 70
     1
102
RTVSPropertyOp26
 70
     1
102
RTVSPropertyOp27
 70
     1
  0
XRECORD
  5
B99
102
{ACAD_REACTORS
330
B98
102
}
330
B98
100
AcDbXrecord
280
     1
102
RTVSPropertyOp0
 70
     1
102
RTVSPropertyOp1
 70
     1
102
RTVSPropertyOp2
 70
     1
102
RTVSPropertyOp3
 70
     1
102
RTVSPropertyOp4
 70
     1
102
RTVSPropertyOp5
 70
     1
102
RTVSPropertyOp6
 70
     1
102
RTVSPropertyOp7
 70
     1
102
RTVSPropertyOp8
 70
     1
102
RTVSPropertyOp9
 70
     1
102
RTVSPropertyOp10
 70
     1
102
RTVSPropertyOp11
 70
     1
102
RTVSPropertyOp12
 70
     1
102
RTVSPropertyOp13
 70
     1
102
RTVSPropertyOp14
 70
     1
102
RTVSPropertyOp15
 70
     1
102
RTVSPropertyOp16
 70
     1
102
RTVSPropertyOp17
 70
     1
102
RTVSPropertyOp18
 70
     1
102
RTVSPropertyOp19
 70
     1
102
RTVSPropertyOp20
 70
     1
102
RTVSPropertyOp21
 70
     1
102
RTVSPropertyOp22
 70
     1
102
RTVSPropertyOp23
 70
     1
102
RTVSPropertyOp24
 70
     1
102
RTVSPropertyOp25
 70
     1
102
RTVSPropertyOp26
 70
     1
102
RTVSPropertyOp27
 70
     1
  0
XRECORD
  5
B9B
102
{ACAD_REACTORS
330
B9A
102
}
330
B9A
100
AcDbXrecord
280
     1
102
RTVSPropertyOp0
 70
     1
102
RTVSPropertyOp1
 70
     1
102
RTVSPropertyOp2
 70
     1
102
RTVSPropertyOp3
 70
     1
102
RTVSPropertyOp4
 70
     1
102
RTVSPropertyOp5
 70
     1
102
RTVSPropertyOp6
 70
     1
102
RTVSPropertyOp7
 70
     1
102
RTVSPropertyOp8
 70
     1
102
RTVSPropertyOp9
 70
     1
102
RTVSPropertyOp10
 70
     1
102
RTVSPropertyOp11
 70
     1
102
RTVSPropertyOp12
 70
     1
102
RTVSPropertyOp13
 70
     1
102
RTVSPropertyOp14
 70
     1
102
RTVSPropertyOp15
 70
     1
102
RTVSPropertyOp16
 70
     1
102
RTVSPropertyOp17
 70
     1
102
RTVSPropertyOp18
 70
     1
102
RTVSPropertyOp19
 70
     1
102
RTVSPropertyOp20
 70
     1
102
RTVSPropertyOp21
 70
     1
102
RTVSPropertyOp22
 70
     1
102
RTVSPropertyOp23
 70
     1
102
RTVSPropertyOp24
 70
     1
102
RTVSPropertyOp25
 70
     1
102
RTVSPropertyOp26
 70
     1
102
RTVSPropertyOp27
 70
     1
  0
XRECORD
  5
B9D
102
{ACAD_REACTORS
330
B9C
102
}
330
B9C
100
AcDbXrecord
280
     1
102
RTVSPropertyOp0
 70
     1
102
RTVSPropertyOp1
 70
     1
102
RTVSPropertyOp2
 70
     1
102
RTVSPropertyOp3
 70
     1
102
RTVSPropertyOp4
 70
     1
102
RTVSPropertyOp5
 70
     1
102
RTVSPropertyOp6
 70
     1
102
RTVSPropertyOp7
 70
     1
102
RTVSPropertyOp8
 70
     1
102
RTVSPropertyOp9
 70
     1
102
RTVSPropertyOp10
 70
     1
102
RTVSPropertyOp11
 70
     1
102
RTVSPropertyOp12
 70
     1
102
RTVSPropertyOp13
 70
     1
102
RTVSPropertyOp14
 70
     1
102
RTVSPropertyOp15
 70
     1
102
RTVSPropertyOp16
 70
     1
102
RTVSPropertyOp17
 70
     1
102
RTVSPropertyOp18
 70
     1
102
RTVSPropertyOp19
 70
     1
102
RTVSPropertyOp20
 70
     1
102
RTVSPropertyOp21
 70
     1
102
RTVSPropertyOp22
 70
     1
102
RTVSPropertyOp23
 70
     1
102
RTVSPropertyOp24
 70
     1
102
RTVSPropertyOp25
 70
     1
102
RTVSPropertyOp26
 70
     1
102
RTVSPropertyOp27
 70
     1
  0
XRECORD
  5
B9F
102
{ACAD_REACTORS
330
B9E
102
}
330
B9E
100
AcDbXrecord
280
     1
102
RTVSPropertyOp0
 70
     1
102
RTVSPropertyOp1
 70
     1
102
RTVSPropertyOp2
 70
     1
102
RTVSPropertyOp3
 70
     1
102
RTVSPropertyOp4
 70
     1
102
RTVSPropertyOp5
 70
     1
102
RTVSPropertyOp6
 70
     1
102
RTVSPropertyOp7
 70
     1
102
RTVSPropertyOp8
 70
     1
102
RTVSPropertyOp9
 70
     1
102
RTVSPropertyOp10
 70
     1
102
RTVSPropertyOp11
 70
     1
102
RTVSPropertyOp12
 70
     1
102
RTVSPropertyOp13
 70
     1
102
RTVSPropertyOp14
 70
     1
102
RTVSPropertyOp15
 70
     1
102
RTVSPropertyOp16
 70
     1
102
RTVSPropertyOp17
 70
     1
102
RTVSPropertyOp18
 70
     1
102
RTVSPropertyOp19
 70
     1
102
RTVSPropertyOp20
 70
     1
102
RTVSPropertyOp21
 70
     1
102
RTVSPropertyOp22
 70
     1
102
RTVSPropertyOp23
 70
     1
102
RTVSPropertyOp24
 70
     1
102
RTVSPropertyOp25
 70
     1
102
RTVSPropertyOp26
 70
     1
102
RTVSPropertyOp27
 70
     1
  0
XRECORD
  5
BA1
102
{ACAD_REACTORS
330
BA0
102
}
330
BA0
100
AcDbXrecord
280
     1
102
RTVSPropertyOp0
 70
     1
102
RTVSPropertyOp1
 70
     1
102
RTVSPropertyOp2
 70
     1
102
RTVSPropertyOp3
 70
     1
102
RTVSPropertyOp4
 70
     1
102
RTVSPropertyOp5
 70
     1
102
RTVSPropertyOp6
 70
     1
102
RTVSPropertyOp7
 70
     1
102
RTVSPropertyOp8
 70
     1
102
RTVSPropertyOp9
 70
     1
102
RTVSPropertyOp10
 70
     1
102
RTVSPropertyOp11
 70
     1
102
RTVSPropertyOp12
 70
     1
102
RTVSPropertyOp13
 70
     1
102
RTVSPropertyOp14
 70
     1
102
RTVSPropertyOp15
 70
     1
102
RTVSPropertyOp16
 70
     1
102
RTVSPropertyOp17
 70
     1
102
RTVSPropertyOp18
 70
     1
102
RTVSPropertyOp19
 70
     1
102
RTVSPropertyOp20
 70
     1
102
RTVSPropertyOp21
 70
     1
102
RTVSPropertyOp22
 70
     1
102
RTVSPropertyOp23
 70
     1
102
RTVSPropertyOp24
 70
     1
102
RTVSPropertyOp25
 70
     1
102
RTVSPropertyOp26
 70
     1
102
RTVSPropertyOp27
 70
     1
  0
XRECORD
  5
BA3
102
{ACAD_REACTORS
330
BA2
102
}
330
BA2
100
AcDbXrecord
280
     1
102
RTVSPropertyOp0
 70
     1
102
RTVSPropertyOp1
 70
     1
102
RTVSPropertyOp2
 70
     1
102
RTVSPropertyOp3
 70
     1
102
RTVSPropertyOp4
 70
     1
102
RTVSPropertyOp5
 70
     1
102
RTVSPropertyOp6
 70
     1
102
RTVSPropertyOp7
 70
     1
102
RTVSPropertyOp8
 70
     1
102
RTVSPropertyOp9
 70
     1
102
RTVSPropertyOp10
 70
     1
102
RTVSPropertyOp11
 70
     1
102
RTVSPropertyOp12
 70
     1
102
RTVSPropertyOp13
 70
     1
102
RTVSPropertyOp14
 70
     1
102
RTVSPropertyOp15
 70
     1
102
RTVSPropertyOp16
 70
     1
102
RTVSPropertyOp17
 70
     1
102
RTVSPropertyOp18
 70
     1
102
RTVSPropertyOp19
 70
     1
102
RTVSPropertyOp20
 70
     1
102
RTVSPropertyOp21
 70
     1
102
RTVSPropertyOp22
 70
     1
102
RTVSPropertyOp23
 70
     1
102
RTVSPropertyOp24
 70
     1
102
RTVSPropertyOp25
 70
     1
102
RTVSPropertyOp26
 70
     1
102
RTVSPropertyOp27
 70
     1
  0
XRECORD
  5
BA5
102
{ACAD_REACTORS
330
BA4
102
}
330
BA4
100
AcDbXrecord
280
     1
102
RTVSPropertyOp0
 70
     1
102
RTVSPropertyOp1
 70
     1
102
RTVSPropertyOp2
 70
     1
102
RTVSPropertyOp3
 70
     1
102
RTVSPropertyOp4
 70
     1
102
RTVSPropertyOp5
 70
     1
102
RTVSPropertyOp6
 70
     1
102
RTVSPropertyOp7
 70
     1
102
RTVSPropertyOp8
 70
     1
102
RTVSPropertyOp9
 70
     1
102
RTVSPropertyOp10
 70
     1
102
RTVSPropertyOp11
 70
     1
102
RTVSPropertyOp12
 70
     1
102
RTVSPropertyOp13
 70
     1
102
RTVSPropertyOp14
 70
     1
102
RTVSPropertyOp15
 70
     1
102
RTVSPropertyOp16
 70
     1
102
RTVSPropertyOp17
 70
     1
102
RTVSPropertyOp18
 70
     1
102
RTVSPropertyOp19
 70
     1
102
RTVSPropertyOp20
 70
     1
102
RTVSPropertyOp21
 70
     1
102
RTVSPropertyOp22
 70
     1
102
RTVSPropertyOp23
 70
     1
102
RTVSPropertyOp24
 70
     1
102
RTVSPropertyOp25
 70
     1
102
RTVSPropertyOp26
 70
     1
102
RTVSPropertyOp27
 70
     1
  0
XRECORD
  5
BA7
102
{ACAD_REACTORS
330
BA6
102
}
330
BA6
100
AcDbXrecord
280
     1
102
RTVSPropertyOp0
 70
     1
102
RTVSPropertyOp1
 70
     1
102
RTVSPropertyOp2
 70
     1
102
RTVSPropertyOp3
 70
     1
102
RTVSPropertyOp4
 70
     1
102
RTVSPropertyOp5
 70
     1
102
RTVSPropertyOp6
 70
     1
102
RTVSPropertyOp7
 70
     1
102
RTVSPropertyOp8
 70
     1
102
RTVSPropertyOp9
 70
     1
102
RTVSPropertyOp10
 70
     1
102
RTVSPropertyOp11
 70
     1
102
RTVSPropertyOp12
 70
     1
102
RTVSPropertyOp13
 70
     1
102
RTVSPropertyOp14
 70
     1
102
RTVSPropertyOp15
 70
     1
102
RTVSPropertyOp16
 70
     1
102
RTVSPropertyOp17
 70
     1
102
RTVSPropertyOp18
 70
     1
102
RTVSPropertyOp19
 70
     1
102
RTVSPropertyOp20
 70
     1
102
RTVSPropertyOp21
 70
     1
102
RTVSPropertyOp22
 70
     1
102
RTVSPropertyOp23
 70
     1
102
RTVSPropertyOp24
 70
     1
102
RTVSPropertyOp25
 70
     1
102
RTVSPropertyOp26
 70
     1
102
RTVSPropertyOp27
 70
     1
  0
XRECORD
  5
BA9
102
{ACAD_REACTORS
330
BA8
102
}
330
BA8
100
AcDbXrecord
280
     1
102
RTVSPropertyOp0
 70
     1
102
RTVSPropertyOp1
 70
     1
102
RTVSPropertyOp2
 70
     1
102
RTVSPropertyOp3
 70
     1
102
RTVSPropertyOp4
 70
     1
102
RTVSPropertyOp5
 70
     1
102
RTVSPropertyOp6
 70
     1
102
RTVSPropertyOp7
 70
     1
102
RTVSPropertyOp8
 70
     1
102
RTVSPropertyOp9
 70
     1
102
RTVSPropertyOp10
 70
     1
102
RTVSPropertyOp11
 70
     1
102
RTVSPropertyOp12
 70
     1
102
RTVSPropertyOp13
 70
     1
102
RTVSPropertyOp14
 70
     1
102
RTVSPropertyOp15
 70
     1
102
RTVSPropertyOp16
 70
     1
102
RTVSPropertyOp17
 70
     1
102
RTVSPropertyOp18
 70
     1
102
RTVSPropertyOp19
 70
     1
102
RTVSPropertyOp20
 70
     1
102
RTVSPropertyOp21
 70
     1
102
RTVSPropertyOp22
 70
     1
102
RTVSPropertyOp23
 70
     1
102
RTVSPropertyOp24
 70
     1
102
RTVSPropertyOp25
 70
     1
102
RTVSPropertyOp26
 70
     1
102
RTVSPropertyOp27
 70
     1
  0
XRECORD
  5
BAB
102
{ACAD_REACTORS
330
BAA
102
}
330
BAA
100
AcDbXrecord
280
     1
102
RTVSPropertyOp0
 70
     1
102
RTVSPropertyOp1
 70
     1
102
RTVSPropertyOp2
 70
     1
102
RTVSPropertyOp3
 70
     1
102
RTVSPropertyOp4
 70
     1
102
RTVSPropertyOp5
 70
     1
102
RTVSPropertyOp6
 70
     1
102
RTVSPropertyOp7
 70
     1
102
RTVSPropertyOp8
 70
     1
102
RTVSPropertyOp9
 70
     1
102
RTVSPropertyOp10
 70
     1
102
RTVSPropertyOp11
 70
     1
102
RTVSPropertyOp12
 70
     1
102
RTVSPropertyOp13
 70
     1
102
RTVSPropertyOp14
 70
     1
102
RTVSPropertyOp15
 70
     1
102
RTVSPropertyOp16
 70
     1
102
RTVSPropertyOp17
 70
     1
102
RTVSPropertyOp18
 70
     1
102
RTVSPropertyOp19
 70
     1
102
RTVSPropertyOp20
 70
     1
102
RTVSPropertyOp21
 70
     1
102
RTVSPropertyOp22
 70
     1
102
RTVSPropertyOp23
 70
     1
102
RTVSPropertyOp24
 70
     1
102
RTVSPropertyOp25
 70
     1
102
RTVSPropertyOp26
 70
     1
102
RTVSPropertyOp27
 70
     1
  0
XRECORD
  5
BAD
102
{ACAD_REACTORS
330
BAC
102
}
330
BAC
100
AcDbXrecord
280
     1
102
RTVSPropertyOp0
 70
     1
102
RTVSPropertyOp1
 70
     1
102
RTVSPropertyOp2
 70
     1
102
RTVSPropertyOp3
 70
     1
102
RTVSPropertyOp4
 70
     1
102
RTVSPropertyOp5
 70
     1
102
RTVSPropertyOp6
 70
     1
102
RTVSPropertyOp7
 70
     1
102
RTVSPropertyOp8
 70
     1
102
RTVSPropertyOp9
 70
     1
102
RTVSPropertyOp10
 70
     1
102
RTVSPropertyOp11
 70
     1
102
RTVSPropertyOp12
 70
     1
102
RTVSPropertyOp13
 70
     1
102
RTVSPropertyOp14
 70
     1
102
RTVSPropertyOp15
 70
     1
102
RTVSPropertyOp16
 70
     1
102
RTVSPropertyOp17
 70
     1
102
RTVSPropertyOp18
 70
     1
102
RTVSPropertyOp19
 70
     1
102
RTVSPropertyOp20
 70
     1
102
RTVSPropertyOp21
 70
     1
102
RTVSPropertyOp22
 70
     1
102
RTVSPropertyOp23
 70
     1
102
RTVSPropertyOp24
 70
     1
102
RTVSPropertyOp25
 70
     1
102
RTVSPropertyOp26
 70
     1
102
RTVSPropertyOp27
 70
     1
  0
XRECORD
  5
BAF
102
{ACAD_REACTORS
330
BAE
102
}
330
BAE
100
AcDbXrecord
280
     1
102
RTVSPropertyOp0
 70
     1
102
RTVSPropertyOp1
 70
     1
102
RTVSPropertyOp2
 70
     1
102
RTVSPropertyOp3
 70
     1
102
RTVSPropertyOp4
 70
     1
102
RTVSPropertyOp5
 70
     1
102
RTVSPropertyOp6
 70
     1
102
RTVSPropertyOp7
 70
     1
102
RTVSPropertyOp8
 70
     1
102
RTVSPropertyOp9
 70
     1
102
RTVSPropertyOp10
 70
     1
102
RTVSPropertyOp11
 70
     1
102
RTVSPropertyOp12
 70
     1
102
RTVSPropertyOp13
 70
     1
102
RTVSPropertyOp14
 70
     1
102
RTVSPropertyOp15
 70
     1
102
RTVSPropertyOp16
 70
     1
102
RTVSPropertyOp17
 70
     1
102
RTVSPropertyOp18
 70
     1
102
RTVSPropertyOp19
 70
     1
102
RTVSPropertyOp20
 70
     1
102
RTVSPropertyOp21
 70
     1
102
RTVSPropertyOp22
 70
     1
102
RTVSPropertyOp23
 70
     1
102
RTVSPropertyOp24
 70
     1
102
RTVSPropertyOp25
 70
     1
102
RTVSPropertyOp26
 70
     1
102
RTVSPropertyOp27
 70
     1
  0
XRECORD
  5
BB1
102
{ACAD_REACTORS
330
BB0
102
}
330
BB0
100
AcDbXrecord
280
     1
102
RTVSPropertyOp0
 70
     1
102
RTVSPropertyOp1
 70
     1
102
RTVSPropertyOp2
 70
     1
102
RTVSPropertyOp3
 70
     1
102
RTVSPropertyOp4
 70
     1
102
RTVSPropertyOp5
 70
     1
102
RTVSPropertyOp6
 70
     1
102
RTVSPropertyOp7
 70
     1
102
RTVSPropertyOp8
 70
     1
102
RTVSPropertyOp9
 70
     1
102
RTVSPropertyOp10
 70
     1
102
RTVSPropertyOp11
 70
     1
102
RTVSPropertyOp12
 70
     1
102
RTVSPropertyOp13
 70
     1
102
RTVSPropertyOp14
 70
     1
102
RTVSPropertyOp15
 70
     1
102
RTVSPropertyOp16
 70
     1
102
RTVSPropertyOp17
 70
     1
102
RTVSPropertyOp18
 70
     1
102
RTVSPropertyOp19
 70
     1
102
RTVSPropertyOp20
 70
     1
102
RTVSPropertyOp21
 70
     1
102
RTVSPropertyOp22
 70
     1
102
RTVSPropertyOp23
 70
     1
102
RTVSPropertyOp24
 70
     1
102
RTVSPropertyOp25
 70
     1
102
RTVSPropertyOp26
 70
     1
102
RTVSPropertyOp27
 70
     1
  0
ENDSEC
  0
EOF
