  0
SECTION
  2
HEADER
  9
$ACADVER
  1
AC1015
  9
$ACADMAINTVER
 70
    20
  9
$DWGCODEPAGE
  3
ANSI_932
  9
$INSBASE
 10
0.0
 20
0.0
 30
0.0
  9
$EXTMIN
 10
148.6162821516373
 20
-93.35404855051093
 30
0.0
  9
$EXTMAX
 10
8181.593311444498
 20
5632.042442328446
 30
0.0
  9
$LIMMIN
 10
0.0
 20
0.0
  9
$LIMMAX
 10
8400.0
 20
5940.0
  9
$ORTHOMODE
 70
     1
  9
$REGENMODE
 70
     1
  9
$FILLMODE
 70
     1
  9
$QTEXTMODE
 70
     0
  9
$MIRRTEXT
 70
     1
  9
$LTSCALE
 40
200.0
  9
$ATTMODE
 70
     1
  9
$TEXTSIZE
 40
50.0
  9
$TRACEWID
 40
0.05
  9
$TEXTSTYLE
  7
STANDARD
  9
$CLAYER
  8
SUNPOU
  9
$CELTYPE
  6
BYLAYER
  9
$CECOLOR
 62
   256
  9
$CELTSCALE
 40
1.0
  9
$DISPSILH
 70
     0
  9
$DIMSCALE
 40
20.0
  9
$DIMASZ
 40
1.5
  9
$DIMEXO
 40
1.5
  9
$DIMDLI
 40
7.0
  9
$DIMRND
 40
0.0
  9
$DIMDLE
 40
0.0
  9
$DIMEXE
 40
0.5
  9
$DIMTP
 40
0.0
  9
$DIMTM
 40
0.0
  9
$DIMTXT
 40
2.5
  9
$DIMCEN
 40
0.0
  9
$DIMTSZ
 40
0.0
  9
$DIMTOL
 70
     0
  9
$DIMLIM
 70
     0
  9
$DIMTIH
 70
     0
  9
$DIMTOH
 70
     0
  9
$DIMSE1
 70
     0
  9
$DIMSE2
 70
     0
  9
$DIMTAD
 70
     1
  9
$DIMZIN
 70
     8
  9
$DIMBLK
  1

  9
$DIMASO
 70
     1
  9
$DIMSHO
 70
     1
  9
$DIMPOST
  1

  9
$DIMAPOST
  1

  9
$DIMALT
 70
     0
  9
$DIMALTD
 70
     2
  9
$DIMALTF
 40
25.4
  9
$DIMLFAC
 40
1.0
  9
$DIMTOFL
 70
     0
  9
$DIMTVP
 40
1.0
  9
$DIMTIX
 70
     1
  9
$DIMSOXD
 70
     0
  9
$DIMSAH
 70
     0
  9
$DIMBLK1
  1

  9
$DIMBLK2
  1

  9
$DIMSTYLE
  2
STANDARD
  9
$DIMCLRD
 70
     0
  9
$DIMCLRE
 70
     0
  9
$DIMCLRT
 70
     0
  9
$DIMTFAC
 40
1.0
  9
$DIMGAP
 40
0.7
  9
$DIMJUST
 70
     0
  9
$DIMSD1
 70
     0
  9
$DIMSD2
 70
     0
  9
$DIMTOLJ
 70
     1
  9
$DIMTZIN
 70
     8
  9
$DIMALTZ
 70
     8
  9
$DIMALTTZ
 70
     8
  9
$DIMUPT
 70
     0
  9
$DIMDEC
 70
     0
  9
$DIMTDEC
 70
     0
  9
$DIMALTU
 70
     2
  9
$DIMALTTD
 70
     2
  9
$DIMTXSTY
  7
STANDARD
  9
$DIMAUNIT
 70
     0
  9
$DIMADEC
 70
     4
  9
$DIMALTRND
 40
0.0
  9
$DIMAZIN
 70
     0
  9
$DIMDSEP
 70
    46
  9
$DIMATFIT
 70
     3
  9
$DIMFRAC
 70
     0
  9
$DIMLDRBLK
  1

  9
$DIMLUNIT
 70
     2
  9
$DIMLWD
 70
    -2
  9
$DIMLWE
 70
    -2
  9
$DIMTMOVE
 70
     2
  9
$LUNITS
 70
     2
  9
$LUPREC
 70
     4
  9
$SKETCHINC
 40
0.1
  9
$FILLETRAD
 40
0.0
  9
$AUNITS
 70
     0
  9
$AUPREC
 70
     6
  9
$MENU
  1
acad
  9
$ELEVATION
 40
0.0
  9
$PELEVATION
 40
0.0
  9
$THICKNESS
 40
0.0
  9
$LIMCHECK
 70
     0
  9
$CHAMFERA
 40
0.0
  9
$CHAMFERB
 40
0.0
  9
$CHAMFERC
 40
0.0
  9
$CHAMFERD
 40
0.0
  9
$SKPOLY
 70
     0
  9
$TDCREATE
 40
2450014.656655093
  9
$TDUCREATE
 40
2450014.281655093
  9
$TDUPDATE
 40
2456189.563247975
  9
$TDUUPDATE
 40
2456189.188247975
  9
$TDINDWG
 40
0.1305193519
  9
$TDUSRTIMER
 40
0.1305193519
  9
$USRTIMER
 70
     1
  9
$ANGBASE
 50
0.0
  9
$ANGDIR
 70
     0
  9
$PDMODE
 70
     0
  9
$PDSIZE
 40
0.0
  9
$PLINEWID
 40
0.0
  9
$SPLFRAME
 70
     0
  9
$SPLINETYPE
 70
     6
  9
$SPLINESEGS
 70
     8
  9
$HANDSEED
  5
392C
  9
$SURFTAB1
 70
     6
  9
$SURFTAB2
 70
     6
  9
$SURFTYPE
 70
     6
  9
$SURFU
 70
     6
  9
$SURFV
 70
     6
  9
$UCSBASE
  2

  9
$UCSNAME
  2

  9
$UCSORG
 10
0.0
 20
0.0
 30
0.0
  9
$UCSXDIR
 10
1.0
 20
0.0
 30
0.0
  9
$UCSYDIR
 10
0.0
 20
1.0
 30
0.0
  9
$UCSORTHOREF
  2

  9
$UCSORTHOVIEW
 70
     0
  9
$UCSORGTOP
 10
0.0
 20
0.0
 30
0.0
  9
$UCSORGBOTTOM
 10
0.0
 20
0.0
 30
0.0
  9
$UCSORGLEFT
 10
0.0
 20
0.0
 30
0.0
  9
$UCSORGRIGHT
 10
0.0
 20
0.0
 30
0.0
  9
$UCSORGFRONT
 10
0.0
 20
0.0
 30
0.0
  9
$UCSORGBACK
 10
0.0
 20
0.0
 30
0.0
  9
$PUCSBASE
  2

  9
$PUCSNAME
  2

  9
$PUCSORG
 10
0.0
 20
0.0
 30
0.0
  9
$PUCSXDIR
 10
1.0
 20
0.0
 30
0.0
  9
$PUCSYDIR
 10
0.0
 20
1.0
 30
0.0
  9
$PUCSORTHOREF
  2

  9
$PUCSORTHOVIEW
 70
     0
  9
$PUCSORGTOP
 10
0.0
 20
0.0
 30
0.0
  9
$PUCSORGBOTTOM
 10
0.0
 20
0.0
 30
0.0
  9
$PUCSORGLEFT
 10
0.0
 20
0.0
 30
0.0
  9
$PUCSORGRIGHT
 10
0.0
 20
0.0
 30
0.0
  9
$PUCSORGFRONT
 10
0.0
 20
0.0
 30
0.0
  9
$PUCSORGBACK
 10
0.0
 20
0.0
 30
0.0
  9
$USERI1
 70
     0
  9
$USERI2
 70
     0
  9
$USERI3
 70
     0
  9
$USERI4
 70
     0
  9
$USERI5
 70
     0
  9
$USERR1
 40
0.0
  9
$USERR2
 40
0.0
  9
$USERR3
 40
0.0
  9
$USERR4
 40
0.0
  9
$USERR5
 40
0.0
  9
$WORLDVIEW
 70
     1
  9
$SHADEDGE
 70
     3
  9
$SHADEDIF
 70
    70
  9
$TILEMODE
 70
     1
  9
$MAXACTVP
 70
    48
  9
$PINSBASE
 10
0.0
 20
0.0
 30
0.0
  9
$PLIMCHECK
 70
     0
  9
$PEXTMIN
 10
1.000000000000000E+20
 20
1.000000000000000E+20
 30
1.000000000000000E+20
  9
$PEXTMAX
 10
-1.000000000000000E+20
 20
-1.000000000000000E+20
 30
-1.000000000000000E+20
  9
$PLIMMIN
 10
0.0
 20
0.0
  9
$PLIMMAX
 10
12.0
 20
9.0
  9
$UNITMODE
 70
     0
  9
$VISRETAIN
 70
     0
  9
$PLINEGEN
 70
     0
  9
$PSLTSCALE
 70
     0
  9
$TREEDEPTH
 70
  3020
  9
$CMLSTYLE
  2
STANDARD
  9
$CMLJUST
 70
     0
  9
$CMLSCALE
 40
1.0
  9
$PROXYGRAPHICS
 70
     1
  9
$MEASUREMENT
 70
     0
  9
$CELWEIGHT
370
    -1
  9
$ENDCAPS
280
     0
  9
$JOINSTYLE
280
     0
  9
$LWDISPLAY
290
     0
  9
$INSUNITS
 70
     0
  9
$HYPERLINKBASE
  1

  9
$STYLESHEET
  1
acad.ctb
  9
$XEDIT
290
     1
  9
$CEPSNTYPE
380
     0
  9
$PSTYLEMODE
290
     1
  9
$FINGERPRINTGUID
  2
{F67648C0-8D40-11D8-A1CD-0050FC45377D}
  9
$VERSIONGUID
  2
{0CB6A3BA-4CAB-4146-86A2-436486BCFBD8}
  9
$EXTNAMES
290
     1
  9
$PSVPSCALE
 40
0.0
  9
$OLESTARTUP
290
     0
  0
ENDSEC
  0
SECTION
  2
CLASSES
  0
CLASS
  1
ACDBDICTIONARYWDFLT
  2
AcDbDictionaryWithDefault
  3
ObjectDBX Classes
 90
        0
280
     0
281
     0
  0
CLASS
  1
ACDBPLACEHOLDER
  2
AcDbPlaceHolder
  3
ObjectDBX Classes
 90
        0
280
     0
281
     0
  0
CLASS
  1
LAYOUT
  2
AcDbLayout
  3
ObjectDBX Classes
 90
        0
280
     0
281
     0
  0
CLASS
  1
DICTIONARYVAR
  2
AcDbDictionaryVar
  3
ObjectDBX Classes
 90
        0
280
     0
281
     0
  0
CLASS
  1
TABLESTYLE
  2
AcDbTableStyle
  3
ObjectDBX Classes
 90
     2047
280
     0
281
     0
  0
ENDSEC
  0
SECTION
  2
TABLES
  0
TABLE
  2
VPORT
  5
8
330
0
100
AcDbSymbolTable
 70
     2
  0
VPORT
  5
3926
330
8
100
AcDbSymbolTableRecord
100
AcDbViewportTableRecord
  2
*Active
 70
     0
 10
0.0
 20
0.0
 11
1.0
 21
1.0
 12
3941.095132062871
 22
3138.194573083244
 13
0.0
 23
0.0
 14
20.0
 24
20.0
 15
200.0
 25
200.0
 16
0.0
 26
0.0
 36
1.0
 17
0.0
 27
0.0
 37
0.0
 40
7246.545294555776
 41
1.507024265644955
 42
50.0
 43
0.0
 44
0.0
 50
0.0
 51
0.0
 71
     0
 72
   100
 73
     1
 74
     1
 75
     0
 76
     0
 77
     0
 78
     0
281
     0
 65
     1
110
0.0
120
0.0
130
0.0
111
1.0
121
0.0
131
0.0
112
0.0
122
1.0
132
0.0
 79
     0
146
0.0
  0
ENDTAB
  0
TABLE
  2
LTYPE
  5
5
330
0
100
AcDbSymbolTable
 70
     5
  0
LTYPE
  5
11
330
5
100
AcDbSymbolTableRecord
100
AcDbLinetypeTableRecord
  2
BYBLOCK
 70
     0
  3

 72
    65
 73
     0
 40
0.0
  0
LTYPE
  5
12
330
5
100
AcDbSymbolTableRecord
100
AcDbLinetypeTableRecord
  2
BYLAYER
 70
     0
  3

 72
    65
 73
     0
 40
0.0
  0
LTYPE
  5
13
330
5
100
AcDbSymbolTableRecord
100
AcDbLinetypeTableRecord
  2
CONTINUOUS
 70
     0
  3
Solid line
 72
    65
 73
     0
 40
0.0
  0
LTYPE
  5
1E
330
5
100
AcDbSymbolTableRecord
100
AcDbLinetypeTableRecord
  2
HIDDEN
 70
     0
  3
_ _ _ _ _ _ _ _ _ _ _ _ _ _ _ _ _ _ _ _ _ _ _
 72
    65
 73
     2
 40
0.375
 49
0.25
 74
     0
 49
-0.125
 74
     0
  0
LTYPE
  5
1F
330
5
100
AcDbSymbolTableRecord
100
AcDbLinetypeTableRecord
  2
CENTER
 70
     0
  3
____ _ ____ _ ____ _ ____ _ ____ _ ____ _ ____
 72
    65
 73
     4
 40
2.0
 49
1.25
 74
     0
 49
-0.25
 74
     0
 49
0.25
 74
     0
 49
-0.25
 74
     0
  0
LTYPE
  5
20
330
5
100
AcDbSymbolTableRecord
100
AcDbLinetypeTableRecord
  2
PHANTOM
 70
     0
  3
_____ _ _ _____ _ _ _____ _ _ _____ _ _ ____
 72
    65
 73
     6
 40
2.5
 49
1.25
 74
     0
 49
-0.25
 74
     0
 49
0.25
 74
     0
 49
-0.25
 74
     0
 49
0.25
 74
     0
 49
-0.25
 74
     0
  0
LTYPE
  5
AA6
330
5
100
AcDbSymbolTableRecord
100
AcDbLinetypeTableRecord
  2
DASHED2
 70
     0
  3
Dashed (.5x) _ _ _ _ _ _ _ _ _ _ _ _ _ _ _ _ _
 72
    65
 73
     2
 40
0.375
 49
0.25
 74
     0
 49
-0.125
 74
     0
  0
ENDTAB
  0
TABLE
  2
LAYER
  5
2
330
0
100
AcDbSymbolTable
 70
    10
  0
LAYER
  5
E
330
2
100
AcDbSymbolTableRecord
100
AcDbLayerTableRecord
  2
0
 70
     0
 62
     7
  6
CONTINUOUS
370
    -3
390
6E
  0
LAYER
  5
23
330
2
100
AcDbSymbolTableRecord
100
AcDbLayerTableRecord
  2
SUNPOU
 70
     0
 62
     1
  6
CONTINUOUS
370
    -3
390
6E
  0
LAYER
  5
24
330
2
100
AcDbSymbolTableRecord
100
AcDbLayerTableRecord
  2
HAIKIN
 70
     0
 62
     2
  6
CONTINUOUS
370
    -3
390
6E
  0
LAYER
  5
25
330
2
100
AcDbSymbolTableRecord
100
AcDbLayerTableRecord
  2
SEIHIN
 70
     0
 62
     3
  6
CONTINUOUS
370
    -3
390
6E
  0
LAYER
  5
26
330
2
100
AcDbSymbolTableRecord
100
AcDbLayerTableRecord
  2
HASEN
 70
     0
 62
     4
  6
HIDDEN
370
    -3
390
6E
  0
LAYER
  5
27
330
2
100
AcDbSymbolTableRecord
100
AcDbLayerTableRecord
  2
1HASEN
 70
     0
 62
     5
  6
CENTER
370
    -3
390
6E
  0
LAYER
  5
28
330
2
100
AcDbSymbolTableRecord
100
AcDbLayerTableRecord
  2
2HASEN
 70
     0
 62
     6
  6
PHANTOM
370
    -3
390
6E
  0
LAYER
  5
29
330
2
100
AcDbSymbolTableRecord
100
AcDbLayerTableRecord
  2
HOJO
 70
     0
 62
     7
  6
CONTINUOUS
370
    -3
390
6E
  0
LAYER
  5
2A
330
2
100
AcDbSymbolTableRecord
100
AcDbLayerTableRecord
  2
TEN
 70
     0
 62
     7
  6
CONTINUOUS
370
    -3
390
6E
  0
LAYER
  5
A7
330
2
100
AcDbSymbolTableRecord
100
AcDbLayerTableRecord
  2
Defpoints
 70
     0
 62
     7
  6
CONTINUOUS
290
     0
370
    -3
390
6E
  0
ENDTAB
  0
TABLE
  2
STYLE
  5
3
330
0
100
AcDbSymbolTable
 70
     1
  0
STYLE
  5
F
330
3
100
AcDbSymbolTableRecord
100
AcDbTextStyleTableRecord
  2
STANDARD
 70
     0
 40
0.0
 41
0.8
 50
0.0
 71
     0
 42
50.0
  3
TXT.shx
  4
BIGFONT.shx
  0
ENDTAB
  0
TABLE
  2
VIEW
  5
6
330
0
100
AcDbSymbolTable
 70
     0
  0
ENDTAB
  0
TABLE
  2
UCS
  5
7
330
0
100
AcDbSymbolTable
 70
     0
  0
ENDTAB
  0
TABLE
  2
APPID
  5
9
330
0
100
AcDbSymbolTable
 70
     1
  0
APPID
  5
10
330
9
100
AcDbSymbolTableRecord
100
AcDbRegAppTableRecord
  2
ACAD
 70
     0
  0
ENDTAB
  0
TABLE
  2
DIMSTYLE
  5
A
330
0
100
AcDbSymbolTable
 70
     1
100
AcDbDimStyleTable
 71
     0
  0
DIMSTYLE
105
61
102
{ACAD_REACTORS
330
3106
330
3114
330
3121
330
3139
330
3182
330
32A8
330
32A9
330
32AA
330
32AB
330
32D2
102
}
330
A
100
AcDbSymbolTableRecord
100
AcDbDimStyleTableRecord
  2
STANDARD
 70
     0
340
F
  0
ENDTAB
  0
TABLE
  2
BLOCK_RECORD
  5
1
330
0
100
AcDbSymbolTable
 70
    20
  0
BLOCK_RECORD
  5
17
102
{ACAD_XDICTIONARY
360
9C
102
}
330
1
100
AcDbSymbolTableRecord
100
AcDbBlockTableRecord
  2
*MODEL_SPACE
340
71
  0
BLOCK_RECORD
  5
14
102
{ACAD_XDICTIONARY
360
9A
102
}
330
1
100
AcDbSymbolTableRecord
100
AcDbBlockTableRecord
  2
*PAPER_SPACE
340
72
  0
BLOCK_RECORD
  5
1C
330
1
100
AcDbSymbolTableRecord
100
AcDbBlockTableRecord
  2
BORDER
340
0
  0
BLOCK_RECORD
  5
1D
330
1
100
AcDbSymbolTableRecord
100
AcDbBlockTableRecord
  2
SA3
340
0
  0
BLOCK_RECORD
  5
3107
330
1
100
AcDbSymbolTableRecord
100
AcDbBlockTableRecord
  2
*D2
340
0
  0
BLOCK_RECORD
  5
3115
330
1
100
AcDbSymbolTableRecord
100
AcDbBlockTableRecord
  2
*D3
340
0
  0
BLOCK_RECORD
  5
3122
330
1
100
AcDbSymbolTableRecord
100
AcDbBlockTableRecord
  2
*D4
340
0
  0
BLOCK_RECORD
  5
313A
330
1
100
AcDbSymbolTableRecord
100
AcDbBlockTableRecord
  2
*D5
340
0
  0
BLOCK_RECORD
  5
3183
330
1
100
AcDbSymbolTableRecord
100
AcDbBlockTableRecord
  2
*D8
340
0
  0
BLOCK_RECORD
  5
32FA
330
1
100
AcDbSymbolTableRecord
100
AcDbBlockTableRecord
  2
*D11
340
0
  0
BLOCK_RECORD
  5
3307
330
1
100
AcDbSymbolTableRecord
100
AcDbBlockTableRecord
  2
*D12
340
0
  0
BLOCK_RECORD
  5
3313
330
1
100
AcDbSymbolTableRecord
100
AcDbBlockTableRecord
  2
*D13
340
0
  0
BLOCK_RECORD
  5
3320
330
1
100
AcDbSymbolTableRecord
100
AcDbBlockTableRecord
  2
*D14
340
0
  0
BLOCK_RECORD
  5
3345
330
1
100
AcDbSymbolTableRecord
100
AcDbBlockTableRecord
  2
*D15
340
0
  0
ENDTAB
  0
ENDSEC
  0
SECTION
  2
BLOCKS
  0
BLOCK
  5
2D
330
17
100
AcDbEntity
  8
0
100
AcDbBlockBegin
  2
*MODEL_SPACE
 70
     0
 10
0.0
 20
0.0
 30
0.0
  3
*MODEL_SPACE
  1

  0
ENDBLK
  5
2E
330
17
100
AcDbEntity
  8
0
100
AcDbBlockEnd
  0
BLOCK
  5
2B
330
14
100
AcDbEntity
 67
     1
  8
0
100
AcDbBlockBegin
  2
*PAPER_SPACE
 70
     0
 10
0.0
 20
0.0
 30
0.0
  3
*PAPER_SPACE
  1

  0
ENDBLK
  5
2C
330
14
100
AcDbEntity
 67
     1
  8
0
100
AcDbBlockEnd
  0
BLOCK
  5
2F
330
1C
100
AcDbEntity
  8
0
100
AcDbBlockBegin
  2
BORDER
 70
     0
 10
0.0
 20
0.0
 30
0.0
  3
BORDER
  1

  0
LINE
  5
30
330
1C
100
AcDbEntity
  8
0
100
AcDbLine
 10
0.0
 20
0.0
 30
0.0
 11
1.00000000000004
 21
0.0
 31
0.0
  0
LINE
  5
31
330
1C
100
AcDbEntity
  8
0
100
AcDbLine
 10
1.00000000000004
 20
0.0
 30
0.0
 11
1.00000000000004
 21
1.00000000000004
 31
0.0
  0
LINE
  5
32
330
1C
100
AcDbEntity
  8
0
100
AcDbLine
 10
1.00000000000004
 20
1.00000000000004
 30
0.0
 11
0.0
 21
1.00000000000004
 31
0.0
  0
LINE
  5
33
330
1C
100
AcDbEntity
  8
0
100
AcDbLine
 10
0.0
 20
1.00000000000004
 30
0.0
 11
0.0
 21
0.0
 31
0.0
  0
ENDBLK
  5
34
330
1C
100
AcDbEntity
  8
0
100
AcDbBlockEnd
  0
BLOCK
  5
35
330
1D
100
AcDbEntity
  8
HAIKIN
100
AcDbBlockBegin
  2
SA3
 70
     0
 10
0.0
 20
0.0
 30
0.0
  3
SA3
  1

  0
TEXT
  5
36
330
1D
100
AcDbEntity
  8
SUNPOU
100
AcDbText
 10
340.0
 20
0.0
 30
0.0
 40
2.5
  1
新和コンクリート工業株式会社
100
AcDbText
  0
TEXT
  5
39
330
1D
100
AcDbEntity
  8
SUNPOU
100
AcDbText
 10
361.4166666666667
 20
6.25
 30
0.0
 40
2.5
  1
製図
 72
     4
 11
364.0
 21
7.5
 31
0.0
100
AcDbText
  0
TEXT
  5
3A
330
1D
100
AcDbEntity
  8
SUNPOU
100
AcDbText
 10
361.3333333333333
 20
11.25
 30
0.0
 40
2.5
  1
設計
 72
     4
 11
364.0
 21
12.5
 31
0.0
100
AcDbText
  0
TEXT
  5
3B
330
1D
100
AcDbEntity
  8
SUNPOU
100
AcDbText
 10
339.0833333333333
 20
6.250000000000014
 30
0.0
 40
2.5
  1
認
 72
     4
 11
340.25
 21
7.500000000000014
 31
0.0
100
AcDbText
  0
TEXT
  5
3C
330
1D
100
AcDbEntity
  8
SUNPOU
100
AcDbText
 10
339.0833333333333
 20
11.33333333333336
 30
0.0
 40
2.5
  1
承
 72
     4
 11
340.25
 21
12.50000000000003
 31
0.0
100
AcDbText
  0
TEXT
  5
3D
330
1D
100
AcDbEntity
  8
SUNPOU
100
AcDbText
 10
312.75
 20
11.75000000000001
 30
0.0
 40
2.5
  1
図　面　番　号
 72
     4
 11
323.0
 21
13.00000000000001
 31
0.0
100
AcDbText
  0
TEXT
  5
3E
330
1D
100
AcDbEntity
  8
SUNPOU
100
AcDbText
 10
362.0
 20
17.0
 30
0.0
 40
2.5
  1
１／
100
AcDbText
  0
TEXT
  5
3F
330
1D
100
AcDbEntity
  8
SUNPOU
100
AcDbText
 10
347.3333333333333
 20
16.25000000000001
 30
0.0
 40
2.5
  1
縮　　尺
 72
     4
 11
353.0
 21
17.50000000000001
 31
0.0
100
AcDbText
  0
TEXT
  5
40
330
1D
100
AcDbEntity
  8
SUNPOU
100
AcDbText
 10
347.3333333333333
 20
21.25
 30
0.0
 40
2.5
  1
鉄 筋 量
 72
     4
 11
353.0
 21
22.5
 31
0.0
100
AcDbText
  0
TEXT
  5
41
330
1D
100
AcDbEntity
  8
SUNPOU
100
AcDbText
 10
347.3333333333333
 20
26.25
 30
0.0
 40
2.5
  1
製 造 数
 72
     4
 11
353.0
 21
27.5
 31
0.0
100
AcDbText
  0
TEXT
  5
42
330
1D
100
AcDbEntity
  8
SUNPOU
100
AcDbText
 10
377.0
 20
21.0
 30
0.0
 40
2.5
  1
ｋｇ
 72
     2
 11
382.0
 21
21.0
 31
0.0
100
AcDbText
  0
TEXT
  5
43
330
1D
100
AcDbEntity
  8
SUNPOU
100
AcDbText
 10
339.5
 20
21.0
 30
0.0
 40
2.5
  1
ｋｇ
 72
     2
 11
344.5
 21
21.0
 31
0.0
100
AcDbText
  0
TEXT
  5
44
330
1D
100
AcDbEntity
  8
SUNPOU
100
AcDbText
 10
310.0
 20
16.25000000000001
 30
0.0
 40
2.5
  1
年 月 日
 72
     4
 11
315.5
 21
17.50000000000001
 31
0.0
100
AcDbText
  0
TEXT
  5
45
330
1D
100
AcDbEntity
  8
SUNPOU
100
AcDbText
 10
309.8333333333333
 20
21.25
 30
0.0
 40
2.5
  1
製品質量
 72
     4
 11
315.5
 21
22.5
 31
0.0
100
AcDbText
  0
TEXT
  5
46
330
1D
100
AcDbEntity
  8
SUNPOU
100
AcDbText
 10
309.9166666666667
 20
26.25
 30
0.0
 40
2.5
  1
業 者 名
 72
     4
 11
315.5
 21
27.5
 31
0.0
100
AcDbText
  0
TEXT
  5
47
330
1D
100
AcDbEntity
  8
SUNPOU
100
AcDbText
 10
309.8333333333333
 20
32.5
 30
0.0
 40
2.5
  1
名　　称
 72
     4
 11
315.5
 21
33.75
 31
0.0
100
AcDbText
  0
LINE
  5
48
330
1D
100
AcDbEntity
  8
SUNPOU
100
AcDbLine
 10
338.0
 20
11.00000000000001
 30
0.0
 11
308.0
 21
11.00000000000001
 31
0.0
  0
LINE
  5
49
330
1D
100
AcDbEntity
  8
SUNPOU
100
AcDbLine
 10
367.5
 20
4.999999999999985
 30
0.0
 11
367.5
 21
14.99999999999999
 31
0.0
  0
LINE
  5
4A
330
1D
100
AcDbEntity
  8
SUNPOU
100
AcDbLine
 10
360.5
 20
4.999999999999985
 30
0.0
 11
360.5
 21
14.99999999999999
 31
0.0
  0
LINE
  5
4B
330
1D
100
AcDbEntity
  8
SUNPOU
100
AcDbLine
 10
342.5
 20
4.999999999999994
 30
0.0
 11
342.5
 21
15.0
 31
0.0
  0
LINE
  5
4C
330
1D
100
AcDbEntity
  8
SUNPOU
100
AcDbLine
 10
338.0
 20
4.999999999999994
 30
0.0
 11
338.0
 21
15.0
 31
0.0
  0
LINE
  5
4D
330
1D
100
AcDbEntity
  8
SUNPOU
100
AcDbLine
 10
323.0
 20
15.00000000000001
 30
0.0
 11
323.0
 21
37.5
 31
0.0
  0
LINE
  5
4E
330
1D
100
AcDbEntity
  8
SUNPOU
100
AcDbLine
 10
360.5
 20
15.00000000000001
 30
0.0
 11
360.5
 21
30.0
 31
0.0
  0
LINE
  5
4F
330
1D
100
AcDbEntity
  8
SUNPOU
100
AcDbLine
 10
345.5
 20
15.00000000000001
 30
0.0
 11
345.5
 21
30.0
 31
0.0
  0
LINE
  5
50
330
1D
100
AcDbEntity
  8
SUNPOU
100
AcDbLine
 10
383.0
 20
30.0
 30
0.0
 11
308.0
 21
30.0
 31
0.0
  0
LINE
  5
51
330
1D
100
AcDbEntity
  8
SUNPOU
100
AcDbLine
 10
383.0
 20
25.0
 30
0.0
 11
308.0
 21
25.0
 31
0.0
  0
LINE
  5
52
330
1D
100
AcDbEntity
  8
SUNPOU
100
AcDbLine
 10
383.0
 20
20.0
 30
0.0
 11
308.0
 21
20.0
 31
0.0
  0
LINE
  5
53
330
1D
100
AcDbEntity
  8
SUNPOU
100
AcDbLine
 10
383.0
 20
14.99999999999999
 30
0.0
 11
308.0
 21
15.00000000000003
 31
0.0
  0
LINE
  5
54
330
1D
100
AcDbEntity
  8
HAIKIN
100
AcDbLine
 10
308.0
 20
37.5
 30
0.0
 11
383.0
 21
37.5
 31
0.0
  0
LINE
  5
55
330
1D
100
AcDbEntity
  8
HAIKIN
100
AcDbLine
 10
308.0
 20
5.000000000000008
 30
0.0
 11
308.0
 21
37.5
 31
0.0
  0
LINE
  5
56
330
1D
100
AcDbEntity
  8
SUNPOU
100
AcDbLine
 10
0.000000000000016
 20
277.0
 30
0.0
 11
0.000000000000016
 21
272.0
 31
0.0
  0
LINE
  5
57
330
1D
100
AcDbEntity
  8
SUNPOU
100
AcDbLine
 10
25.00000000000002
 20
277.0
 30
0.0
 11
0.000000000000016
 21
277.0
 31
0.0
  0
LINE
  5
58
330
1D
100
AcDbEntity
  8
SUNPOU
100
AcDbLine
 10
25.00000000000002
 20
272.0
 30
0.0
 11
25.00000000000002
 21
277.0
 31
0.0
  0
LINE
  5
59
330
1D
100
AcDbEntity
  8
HAIKIN
100
AcDbLine
 10
0.0000000000000004
 20
5.0
 30
0.0
 11
383.0
 21
5.0
 31
0.0
  0
LINE
  5
5A
330
1D
100
AcDbEntity
  8
HAIKIN
100
AcDbLine
 10
0.0000000000000158
 20
272.0
 30
0.0
 11
383.0
 21
272.0
 31
0.0
  0
LINE
  5
5B
330
1D
100
AcDbEntity
  8
HAIKIN
100
AcDbLine
 10
383.0
 20
272.0
 30
0.0
 11
383.0
 21
5.0
 31
0.0
  0
TEXT
  5
5C
330
1D
100
AcDbEntity
  8
SUNPOU
100
AcDbText
 10
3.700000000000017
 20
273.0
 30
0.0
 40
3.0
  1
Ｈ－２－共
 72
     4
 11
12.50000000000001
 21
274.5
 31
0.0
100
AcDbText
  0
LINE
  5
5D
330
1D
100
AcDbEntity
  8
HAIKIN
100
AcDbLine
 10
0.0000000000000004
 20
5.0
 30
0.0
 11
0.0000000000000158
 21
272.0
 31
0.0
  0
ENDBLK
  5
5E
330
1D
100
AcDbEntity
  8
HAIKIN
100
AcDbBlockEnd
  0
BLOCK
  5
3112
330
3107
100
AcDbEntity
  8
0
100
AcDbBlockBegin
  2
*D2
 70
     1
 10
0.0
 20
0.0
 30
0.0
  3
*D2
  1

  0
LINE
  5
386A
330
3107
100
AcDbEntity
  8
SUNPOU
 62
     0
100
AcDbLine
 10
1612.505558988462
 20
4435.162940388109
 30
0.0
 11
1612.505558988462
 21
4698.627815348103
 31
0.0
  0
LINE
  5
386B
330
3107
100
AcDbEntity
  8
SUNPOU
 62
     0
100
AcDbLine
 10
1687.505558988461
 20
4435.162940388109
 30
0.0
 11
1687.505558988461
 21
4698.627815348103
 31
0.0
  0
LINE
  5
386C
330
3107
100
AcDbEntity
  8
SUNPOU
 62
     0
100
AcDbLine
 10
1582.505558988462
 20
4688.627815348104
 30
0.0
 11
1552.505558988461
 21
4688.627815348104
 31
0.0
  0
LINE
  5
386D
330
3107
100
AcDbEntity
  8
SUNPOU
 62
     0
100
AcDbLine
 10
1717.505558988461
 20
4688.627815348104
 30
0.0
 11
1747.505558988461
 21
4688.627815348104
 31
0.0
  0
SOLID
  5
386E
330
3107
100
AcDbEntity
  8
SUNPOU
 62
     0
100
AcDbTrace
 10
1582.505558988462
 20
4693.627815348103
 30
0.0
 11
1582.505558988462
 21
4683.627815348103
 31
0.0
 12
1612.505558988462
 22
4688.627815348104
 32
0.0
 13
1612.505558988462
 23
4688.627815348104
 33
0.0
  0
SOLID
  5
386F
330
3107
100
AcDbEntity
  8
SUNPOU
 62
     0
100
AcDbTrace
 10
1717.505558988461
 20
4693.627815348103
 30
0.0
 11
1717.505558988461
 21
4683.627815348103
 31
0.0
 12
1687.505558988461
 22
4688.627815348104
 32
0.0
 13
1687.505558988461
 23
4688.627815348104
 33
0.0
  0
MTEXT
  5
3870
330
3107
100
AcDbEntity
  8
SUNPOU
 62
     0
100
AcDbMText
 10
1650.005558988462
 20
4727.627815348103
 30
0.0
 40
50.0
 41
0.0
 71
     5
 72
     1
  1
\A1;75
 73
     1
 44
1.0
1001
ACAD
1000
MTEXTBEGIN
1070
    73
1070
     1
1070
    44
1040
1.0
1070
    74
1070
     0
1000
MTEXTEND
  0
POINT
  5
3871
330
3107
100
AcDbEntity
  8
Defpoints
 62
     0
100
AcDbPoint
 10
1612.505558988462
 20
4405.16294038811
 30
0.0
  0
POINT
  5
3872
330
3107
100
AcDbEntity
  8
Defpoints
 62
     0
100
AcDbPoint
 10
1687.505558988461
 20
4405.16294038811
 30
0.0
  0
POINT
  5
3873
330
3107
100
AcDbEntity
  8
Defpoints
 62
     0
100
AcDbPoint
 10
1687.505558988461
 20
4688.627815348104
 30
0.0
  0
ENDBLK
  5
3113
330
3107
100
AcDbEntity
  8
0
100
AcDbBlockEnd
  0
BLOCK
  5
311F
330
3115
100
AcDbEntity
  8
0
100
AcDbBlockBegin
  2
*D3
 70
     1
 10
0.0
 20
0.0
 30
0.0
  3
*D3
  1

  0
LINE
  5
3874
330
3115
100
AcDbEntity
  8
SUNPOU
 62
     0
100
AcDbLine
 10
1687.505558988461
 20
4435.162940388109
 30
0.0
 11
1687.505558988461
 21
4698.627815348103
 31
0.0
  0
LINE
  5
3875
330
3115
100
AcDbEntity
  8
SUNPOU
 62
     0
100
AcDbLine
 10
2587.505558988461
 20
4435.162940388109
 30
0.0
 11
2587.505558988461
 21
4698.627815348103
 31
0.0
  0
LINE
  5
3876
330
3115
100
AcDbEntity
  8
SUNPOU
 62
     0
100
AcDbLine
 10
1717.505558988461
 20
4688.627815348104
 30
0.0
 11
2557.505558988462
 21
4688.627815348104
 31
0.0
  0
SOLID
  5
3877
330
3115
100
AcDbEntity
  8
SUNPOU
 62
     0
100
AcDbTrace
 10
1717.505558988461
 20
4693.627815348103
 30
0.0
 11
1717.505558988461
 21
4683.627815348103
 31
0.0
 12
1687.505558988461
 22
4688.627815348104
 32
0.0
 13
1687.505558988461
 23
4688.627815348104
 33
0.0
  0
SOLID
  5
3878
330
3115
100
AcDbEntity
  8
SUNPOU
 62
     0
100
AcDbTrace
 10
2557.505558988462
 20
4693.627815348103
 30
0.0
 11
2557.505558988462
 21
4683.627815348103
 31
0.0
 12
2587.505558988461
 22
4688.627815348104
 32
0.0
 13
2587.505558988461
 23
4688.627815348104
 33
0.0
  0
MTEXT
  5
3879
330
3115
100
AcDbEntity
  8
SUNPOU
 62
     0
100
AcDbMText
 10
2137.505558988461
 20
4727.627815348103
 30
0.0
 40
50.0
 41
0.0
 71
     5
 72
     1
  1
\A1;900
 73
     1
 44
1.0
1001
ACAD
1000
MTEXTBEGIN
1070
    73
1070
     1
1070
    44
1040
1.0
1070
    74
1070
     0
1000
MTEXTEND
  0
POINT
  5
387A
330
3115
100
AcDbEntity
  8
Defpoints
 62
     0
100
AcDbPoint
 10
1687.505558988461
 20
4405.16294038811
 30
0.0
  0
POINT
  5
387B
330
3115
100
AcDbEntity
  8
Defpoints
 62
     0
100
AcDbPoint
 10
2587.505558988461
 20
4405.16294038811
 30
0.0
  0
POINT
  5
387C
330
3115
100
AcDbEntity
  8
Defpoints
 62
     0
100
AcDbPoint
 10
2587.505558988461
 20
4688.627815348104
 30
0.0
  0
ENDBLK
  5
3120
330
3115
100
AcDbEntity
  8
0
100
AcDbBlockEnd
  0
BLOCK
  5
312D
330
3122
100
AcDbEntity
  8
0
100
AcDbBlockBegin
  2
*D4
 70
     1
 10
0.0
 20
0.0
 30
0.0
  3
*D4
  1

  0
LINE
  5
387D
330
3122
100
AcDbEntity
  8
SUNPOU
 62
     0
100
AcDbLine
 10
2662.50555898846
 20
4435.162940388109
 30
0.0
 11
2662.50555898846
 21
4698.627815348103
 31
0.0
  0
LINE
  5
387E
330
3122
100
AcDbEntity
  8
SUNPOU
 62
     0
100
AcDbLine
 10
2587.50555898846
 20
4435.162940388109
 30
0.0
 11
2587.50555898846
 21
4698.627815348103
 31
0.0
  0
LINE
  5
387F
330
3122
100
AcDbEntity
  8
SUNPOU
 62
     0
100
AcDbLine
 10
2692.50555898846
 20
4688.627815348104
 30
0.0
 11
2722.50555898846
 21
4688.627815348104
 31
0.0
  0
LINE
  5
3880
330
3122
100
AcDbEntity
  8
SUNPOU
 62
     0
100
AcDbLine
 10
2557.50555898846
 20
4688.627815348104
 30
0.0
 11
2527.50555898846
 21
4688.627815348104
 31
0.0
  0
SOLID
  5
3881
330
3122
100
AcDbEntity
  8
SUNPOU
 62
     0
100
AcDbTrace
 10
2692.50555898846
 20
4693.627815348103
 30
0.0
 11
2692.50555898846
 21
4683.627815348103
 31
0.0
 12
2662.50555898846
 22
4688.627815348104
 32
0.0
 13
2662.50555898846
 23
4688.627815348104
 33
0.0
  0
SOLID
  5
3882
330
3122
100
AcDbEntity
  8
SUNPOU
 62
     0
100
AcDbTrace
 10
2557.50555898846
 20
4693.627815348103
 30
0.0
 11
2557.50555898846
 21
4683.627815348103
 31
0.0
 12
2587.50555898846
 22
4688.627815348104
 32
0.0
 13
2587.50555898846
 23
4688.627815348104
 33
0.0
  0
MTEXT
  5
3883
330
3122
100
AcDbEntity
  8
SUNPOU
 62
     0
100
AcDbMText
 10
2625.00555898846
 20
4727.627815348103
 30
0.0
 40
50.0
 41
0.0
 71
     5
 72
     1
  1
\A1;75
 73
     1
 44
1.0
1001
ACAD
1000
MTEXTBEGIN
1070
    73
1070
     1
1070
    44
1040
1.0
1070
    74
1070
     0
1000
MTEXTEND
  0
POINT
  5
3884
330
3122
100
AcDbEntity
  8
Defpoints
 62
     0
100
AcDbPoint
 10
2662.50555898846
 20
4405.16294038811
 30
0.0
  0
POINT
  5
3885
330
3122
100
AcDbEntity
  8
Defpoints
 62
     0
100
AcDbPoint
 10
2587.50555898846
 20
4405.16294038811
 30
0.0
  0
POINT
  5
3886
330
3122
100
AcDbEntity
  8
Defpoints
 62
     0
100
AcDbPoint
 10
2587.50555898846
 20
4688.627815348104
 30
0.0
  0
ENDBLK
  5
312E
330
3122
100
AcDbEntity
  8
0
100
AcDbBlockEnd
  0
BLOCK
  5
3144
330
313A
100
AcDbEntity
  8
0
100
AcDbBlockBegin
  2
*D5
 70
     1
 10
0.0
 20
0.0
 30
0.0
  3
*D5
  1

  0
LINE
  5
3887
330
313A
100
AcDbEntity
  8
SUNPOU
 62
     0
100
AcDbLine
 10
1612.505558988462
 20
4435.162940388109
 30
0.0
 11
1612.505558988462
 21
4808.81038851765
 31
0.0
  0
LINE
  5
3888
330
313A
100
AcDbEntity
  8
SUNPOU
 62
     0
100
AcDbLine
 10
2662.505558988462
 20
4435.162940388107
 30
0.0
 11
2662.505558988462
 21
4808.81038851765
 31
0.0
  0
LINE
  5
3889
330
313A
100
AcDbEntity
  8
SUNPOU
 62
     0
100
AcDbLine
 10
1642.505558988462
 20
4798.81038851765
 30
0.0
 11
2632.505558988461
 21
4798.81038851765
 31
0.0
  0
SOLID
  5
388A
330
313A
100
AcDbEntity
  8
SUNPOU
 62
     0
100
AcDbTrace
 10
1642.505558988462
 20
4803.81038851765
 30
0.0
 11
1642.505558988462
 21
4793.810388517649
 31
0.0
 12
1612.505558988462
 22
4798.81038851765
 32
0.0
 13
1612.505558988462
 23
4798.81038851765
 33
0.0
  0
SOLID
  5
388B
330
313A
100
AcDbEntity
  8
SUNPOU
 62
     0
100
AcDbTrace
 10
2632.505558988461
 20
4803.81038851765
 30
0.0
 11
2632.505558988461
 21
4793.810388517649
 31
0.0
 12
2662.505558988462
 22
4798.81038851765
 32
0.0
 13
2662.505558988462
 23
4798.81038851765
 33
0.0
  0
MTEXT
  5
388C
330
313A
100
AcDbEntity
  8
SUNPOU
 62
     0
100
AcDbMText
 10
2137.505558988461
 20
4837.81038851765
 30
0.0
 40
50.0
 41
0.0
 71
     5
 72
     1
  1
\A1;1050
 73
     1
 44
1.0
1001
ACAD
1000
MTEXTBEGIN
1070
    73
1070
     1
1070
    44
1040
1.0
1070
    74
1070
     0
1000
MTEXTEND
  0
POINT
  5
388D
330
313A
100
AcDbEntity
  8
Defpoints
 62
     0
100
AcDbPoint
 10
1612.505558988462
 20
4405.162940388108
 30
0.0
  0
POINT
  5
388E
330
313A
100
AcDbEntity
  8
Defpoints
 62
     0
100
AcDbPoint
 10
2662.505558988462
 20
4405.162940388108
 30
0.0
  0
POINT
  5
388F
330
313A
100
AcDbEntity
  8
Defpoints
 62
     0
100
AcDbPoint
 10
2662.505558988462
 20
4798.81038851765
 30
0.0
  0
ENDBLK
  5
3145
330
313A
100
AcDbEntity
  8
0
100
AcDbBlockEnd
  0
BLOCK
  5
318D
330
3183
100
AcDbEntity
  8
0
100
AcDbBlockBegin
  2
*D8
 70
     1
 10
0.0
 20
0.0
 30
0.0
  3
*D8
  1

  0
LINE
  5
38A3
330
3183
100
AcDbEntity
  8
SUNPOU
 62
     0
100
AcDbLine
 10
2692.505558988461
 20
3205.162940388109
 30
0.0
 11
3055.930549311252
 21
3205.162940388109
 31
0.0
  0
LINE
  5
38A4
330
3183
100
AcDbEntity
  8
SUNPOU
 62
     0
100
AcDbLine
 10
2692.505558988461
 20
4405.162940388108
 30
0.0
 11
3055.930549311252
 21
4405.162940388108
 31
0.0
  0
LINE
  5
38A5
330
3183
100
AcDbEntity
  8
SUNPOU
 62
     0
100
AcDbLine
 10
3045.930549311252
 20
3235.162940388109
 30
0.0
 11
3045.930549311252
 21
4375.162940388108
 31
0.0
  0
SOLID
  5
38A6
330
3183
100
AcDbEntity
  8
SUNPOU
 62
     0
100
AcDbTrace
 10
3040.930549311252
 20
3235.162940388109
 30
0.0
 11
3050.930549311252
 21
3235.162940388109
 31
0.0
 12
3045.930549311252
 22
3205.162940388109
 32
0.0
 13
3045.930549311252
 23
3205.162940388109
 33
0.0
  0
SOLID
  5
38A7
330
3183
100
AcDbEntity
  8
SUNPOU
 62
     0
100
AcDbTrace
 10
3040.930549311252
 20
4375.162940388108
 30
0.0
 11
3050.930549311252
 21
4375.162940388108
 31
0.0
 12
3045.930549311252
 22
4405.162940388108
 32
0.0
 13
3045.930549311252
 23
4405.162940388108
 33
0.0
  0
MTEXT
  5
38A8
330
3183
100
AcDbEntity
  8
SUNPOU
 62
     0
100
AcDbMText
 10
3006.930549311251
 20
3805.162940388109
 30
0.0
 40
50.0
 41
0.0
 71
     5
 72
     1
  1
\A1;300～2400
 11
0.0000000000000001
 21
1.0
 31
0.0
 73
     1
 44
1.0
1001
ACAD
1000
MTEXTBEGIN
1070
    73
1070
     1
1070
    44
1040
1.0
1070
    74
1070
     0
1000
MTEXTEND
  0
POINT
  5
38A9
330
3183
100
AcDbEntity
  8
Defpoints
 62
     0
100
AcDbPoint
 10
2662.505558988461
 20
3205.162940388109
 30
0.0
  0
POINT
  5
38AA
330
3183
100
AcDbEntity
  8
Defpoints
 62
     0
100
AcDbPoint
 10
2662.505558988462
 20
4405.162940388108
 30
0.0
  0
POINT
  5
38AB
330
3183
100
AcDbEntity
  8
Defpoints
 62
     0
100
AcDbPoint
 10
3045.930549311252
 20
4405.162940388108
 30
0.0
  0
ENDBLK
  5
318E
330
3183
100
AcDbEntity
  8
0
100
AcDbBlockEnd
  0
BLOCK
  5
3305
330
32FA
100
AcDbEntity
  8
0
100
AcDbBlockBegin
  2
*D11
 70
     1
 10
0.0
 20
0.0
 30
0.0
  3
*D11
  1

  0
LINE
  5
38BE
330
32FA
100
AcDbEntity
  8
SUNPOU
 62
     0
100
AcDbLine
 10
5385.453953955471
 20
4435.162940388109
 30
0.0
 11
5385.453953955471
 21
4698.627815348103
 31
0.0
  0
LINE
  5
38BF
330
32FA
100
AcDbEntity
  8
SUNPOU
 62
     0
100
AcDbLine
 10
5460.453953955472
 20
4435.162940388109
 30
0.0
 11
5460.453953955472
 21
4698.627815348103
 31
0.0
  0
LINE
  5
38C0
330
32FA
100
AcDbEntity
  8
SUNPOU
 62
     0
100
AcDbLine
 10
5355.453953955471
 20
4688.627815348104
 30
0.0
 11
5325.453953955472
 21
4688.627815348104
 31
0.0
  0
LINE
  5
38C1
330
32FA
100
AcDbEntity
  8
SUNPOU
 62
     0
100
AcDbLine
 10
5490.453953955472
 20
4688.627815348104
 30
0.0
 11
5520.453953955471
 21
4688.627815348104
 31
0.0
  0
SOLID
  5
38C2
330
32FA
100
AcDbEntity
  8
SUNPOU
 62
     0
100
AcDbTrace
 10
5355.453953955471
 20
4693.627815348103
 30
0.0
 11
5355.453953955471
 21
4683.627815348103
 31
0.0
 12
5385.453953955471
 22
4688.627815348104
 32
0.0
 13
5385.453953955471
 23
4688.627815348104
 33
0.0
  0
SOLID
  5
38C3
330
32FA
100
AcDbEntity
  8
SUNPOU
 62
     0
100
AcDbTrace
 10
5490.453953955472
 20
4693.627815348103
 30
0.0
 11
5490.453953955472
 21
4683.627815348103
 31
0.0
 12
5460.453953955472
 22
4688.627815348104
 32
0.0
 13
5460.453953955472
 23
4688.627815348104
 33
0.0
  0
MTEXT
  5
38C4
330
32FA
100
AcDbEntity
  8
SUNPOU
 62
     0
100
AcDbMText
 10
5422.953953955471
 20
4727.627815348103
 30
0.0
 40
50.0
 41
0.0
 71
     5
 72
     1
  1
\A1;75
 73
     1
 44
1.0
1001
ACAD
1000
MTEXTBEGIN
1070
    73
1070
     1
1070
    44
1040
1.0
1070
    74
1070
     0
1000
MTEXTEND
  0
POINT
  5
38C5
330
32FA
100
AcDbEntity
  8
Defpoints
 62
     0
100
AcDbPoint
 10
5385.453953955471
 20
4405.16294038811
 30
0.0
  0
POINT
  5
38C6
330
32FA
100
AcDbEntity
  8
Defpoints
 62
     0
100
AcDbPoint
 10
5460.453953955472
 20
4405.16294038811
 30
0.0
  0
POINT
  5
38C7
330
32FA
100
AcDbEntity
  8
Defpoints
 62
     0
100
AcDbPoint
 10
5460.453953955472
 20
4688.627815348104
 30
0.0
  0
ENDBLK
  5
3306
330
32FA
100
AcDbEntity
  8
0
100
AcDbBlockEnd
  0
BLOCK
  5
3311
330
3307
100
AcDbEntity
  8
0
100
AcDbBlockBegin
  2
*D12
 70
     1
 10
0.0
 20
0.0
 30
0.0
  3
*D12
  1

  0
LINE
  5
38C8
330
3307
100
AcDbEntity
  8
SUNPOU
 62
     0
100
AcDbLine
 10
5460.453953955472
 20
4435.162940388109
 30
0.0
 11
5460.453953955472
 21
4698.627815348103
 31
0.0
  0
LINE
  5
38C9
330
3307
100
AcDbEntity
  8
SUNPOU
 62
     0
100
AcDbLine
 10
6360.453953955471
 20
4435.162940388109
 30
0.0
 11
6360.453953955471
 21
4698.627815348103
 31
0.0
  0
LINE
  5
38CA
330
3307
100
AcDbEntity
  8
SUNPOU
 62
     0
100
AcDbLine
 10
5490.453953955472
 20
4688.627815348104
 30
0.0
 11
6330.453953955472
 21
4688.627815348104
 31
0.0
  0
SOLID
  5
38CB
330
3307
100
AcDbEntity
  8
SUNPOU
 62
     0
100
AcDbTrace
 10
5490.453953955472
 20
4693.627815348103
 30
0.0
 11
5490.453953955472
 21
4683.627815348103
 31
0.0
 12
5460.453953955472
 22
4688.627815348104
 32
0.0
 13
5460.453953955472
 23
4688.627815348104
 33
0.0
  0
SOLID
  5
38CC
330
3307
100
AcDbEntity
  8
SUNPOU
 62
     0
100
AcDbTrace
 10
6330.453953955472
 20
4693.627815348103
 30
0.0
 11
6330.453953955472
 21
4683.627815348103
 31
0.0
 12
6360.453953955471
 22
4688.627815348104
 32
0.0
 13
6360.453953955471
 23
4688.627815348104
 33
0.0
  0
MTEXT
  5
38CD
330
3307
100
AcDbEntity
  8
SUNPOU
 62
     0
100
AcDbMText
 10
5910.453953955471
 20
4727.627815348103
 30
0.0
 40
50.0
 41
0.0
 71
     5
 72
     1
  1
\A1;900
 73
     1
 44
1.0
1001
ACAD
1000
MTEXTBEGIN
1070
    73
1070
     1
1070
    44
1040
1.0
1070
    74
1070
     0
1000
MTEXTEND
  0
POINT
  5
38CE
330
3307
100
AcDbEntity
  8
Defpoints
 62
     0
100
AcDbPoint
 10
5460.453953955472
 20
4405.16294038811
 30
0.0
  0
POINT
  5
38CF
330
3307
100
AcDbEntity
  8
Defpoints
 62
     0
100
AcDbPoint
 10
6360.453953955471
 20
4405.16294038811
 30
0.0
  0
POINT
  5
38D0
330
3307
100
AcDbEntity
  8
Defpoints
 62
     0
100
AcDbPoint
 10
6360.453953955471
 20
4688.627815348104
 30
0.0
  0
ENDBLK
  5
3312
330
3307
100
AcDbEntity
  8
0
100
AcDbBlockEnd
  0
BLOCK
  5
331E
330
3313
100
AcDbEntity
  8
0
100
AcDbBlockBegin
  2
*D13
 70
     1
 10
0.0
 20
0.0
 30
0.0
  3
*D13
  1

  0
LINE
  5
38D1
330
3313
100
AcDbEntity
  8
SUNPOU
 62
     0
100
AcDbLine
 10
6435.45395395547
 20
4435.162940388109
 30
0.0
 11
6435.45395395547
 21
4698.627815348103
 31
0.0
  0
LINE
  5
38D2
330
3313
100
AcDbEntity
  8
SUNPOU
 62
     0
100
AcDbLine
 10
6360.45395395547
 20
4435.162940388109
 30
0.0
 11
6360.45395395547
 21
4698.627815348103
 31
0.0
  0
LINE
  5
38D3
330
3313
100
AcDbEntity
  8
SUNPOU
 62
     0
100
AcDbLine
 10
6465.453953955471
 20
4688.627815348104
 30
0.0
 11
6495.45395395547
 21
4688.627815348104
 31
0.0
  0
LINE
  5
38D4
330
3313
100
AcDbEntity
  8
SUNPOU
 62
     0
100
AcDbLine
 10
6330.45395395547
 20
4688.627815348104
 30
0.0
 11
6300.45395395547
 21
4688.627815348104
 31
0.0
  0
SOLID
  5
38D5
330
3313
100
AcDbEntity
  8
SUNPOU
 62
     0
100
AcDbTrace
 10
6465.453953955471
 20
4693.627815348103
 30
0.0
 11
6465.453953955471
 21
4683.627815348103
 31
0.0
 12
6435.45395395547
 22
4688.627815348104
 32
0.0
 13
6435.45395395547
 23
4688.627815348104
 33
0.0
  0
SOLID
  5
38D6
330
3313
100
AcDbEntity
  8
SUNPOU
 62
     0
100
AcDbTrace
 10
6330.45395395547
 20
4693.627815348103
 30
0.0
 11
6330.45395395547
 21
4683.627815348103
 31
0.0
 12
6360.45395395547
 22
4688.627815348104
 32
0.0
 13
6360.45395395547
 23
4688.627815348104
 33
0.0
  0
MTEXT
  5
38D7
330
3313
100
AcDbEntity
  8
SUNPOU
 62
     0
100
AcDbMText
 10
6397.95395395547
 20
4727.627815348103
 30
0.0
 40
50.0
 41
0.0
 71
     5
 72
     1
  1
\A1;75
 73
     1
 44
1.0
1001
ACAD
1000
MTEXTBEGIN
1070
    73
1070
     1
1070
    44
1040
1.0
1070
    74
1070
     0
1000
MTEXTEND
  0
POINT
  5
38D8
330
3313
100
AcDbEntity
  8
Defpoints
 62
     0
100
AcDbPoint
 10
6435.45395395547
 20
4405.16294038811
 30
0.0
  0
POINT
  5
38D9
330
3313
100
AcDbEntity
  8
Defpoints
 62
     0
100
AcDbPoint
 10
6360.45395395547
 20
4405.16294038811
 30
0.0
  0
POINT
  5
38DA
330
3313
100
AcDbEntity
  8
Defpoints
 62
     0
100
AcDbPoint
 10
6360.45395395547
 20
4688.627815348104
 30
0.0
  0
ENDBLK
  5
331F
330
3313
100
AcDbEntity
  8
0
100
AcDbBlockEnd
  0
BLOCK
  5
332A
330
3320
100
AcDbEntity
  8
0
100
AcDbBlockBegin
  2
*D14
 70
     1
 10
0.0
 20
0.0
 30
0.0
  3
*D14
  1

  0
LINE
  5
38DB
330
3320
100
AcDbEntity
  8
SUNPOU
 62
     0
100
AcDbLine
 10
5385.453953955471
 20
4435.162940388109
 30
0.0
 11
5385.453953955471
 21
4808.81038851765
 31
0.0
  0
LINE
  5
38DC
330
3320
100
AcDbEntity
  8
SUNPOU
 62
     0
100
AcDbLine
 10
6435.453953955472
 20
4435.162940388107
 30
0.0
 11
6435.453953955472
 21
4808.81038851765
 31
0.0
  0
LINE
  5
38DD
330
3320
100
AcDbEntity
  8
SUNPOU
 62
     0
100
AcDbLine
 10
5415.453953955472
 20
4798.81038851765
 30
0.0
 11
6405.453953955472
 21
4798.81038851765
 31
0.0
  0
SOLID
  5
38DE
330
3320
100
AcDbEntity
  8
SUNPOU
 62
     0
100
AcDbTrace
 10
5415.453953955472
 20
4803.81038851765
 30
0.0
 11
5415.453953955472
 21
4793.810388517649
 31
0.0
 12
5385.453953955471
 22
4798.81038851765
 32
0.0
 13
5385.453953955471
 23
4798.81038851765
 33
0.0
  0
SOLID
  5
38DF
330
3320
100
AcDbEntity
  8
SUNPOU
 62
     0
100
AcDbTrace
 10
6405.453953955472
 20
4803.81038851765
 30
0.0
 11
6405.453953955472
 21
4793.810388517649
 31
0.0
 12
6435.453953955472
 22
4798.81038851765
 32
0.0
 13
6435.453953955472
 23
4798.81038851765
 33
0.0
  0
MTEXT
  5
38E0
330
3320
100
AcDbEntity
  8
SUNPOU
 62
     0
100
AcDbMText
 10
5910.453953955471
 20
4837.81038851765
 30
0.0
 40
50.0
 41
0.0
 71
     5
 72
     1
  1
\A1;1050
 73
     1
 44
1.0
1001
ACAD
1000
MTEXTBEGIN
1070
    73
1070
     1
1070
    44
1040
1.0
1070
    74
1070
     0
1000
MTEXTEND
  0
POINT
  5
38E1
330
3320
100
AcDbEntity
  8
Defpoints
 62
     0
100
AcDbPoint
 10
5385.453953955471
 20
4405.162940388108
 30
0.0
  0
POINT
  5
38E2
330
3320
100
AcDbEntity
  8
Defpoints
 62
     0
100
AcDbPoint
 10
6435.453953955472
 20
4405.162940388108
 30
0.0
  0
POINT
  5
38E3
330
3320
100
AcDbEntity
  8
Defpoints
 62
     0
100
AcDbPoint
 10
6435.453953955472
 20
4798.81038851765
 30
0.0
  0
ENDBLK
  5
332B
330
3320
100
AcDbEntity
  8
0
100
AcDbBlockEnd
  0
BLOCK
  5
334F
330
3345
100
AcDbEntity
  8
0
100
AcDbBlockBegin
  2
*D15
 70
     1
 10
0.0
 20
0.0
 30
0.0
  3
*D15
  1

  0
LINE
  5
38EC
330
3345
100
AcDbEntity
  8
SUNPOU
 62
     0
100
AcDbLine
 10
6465.453953955472
 20
3205.162940388109
 30
0.0
 11
6828.878944278262
 21
3205.162940388109
 31
0.0
  0
LINE
  5
38ED
330
3345
100
AcDbEntity
  8
SUNPOU
 62
     0
100
AcDbLine
 10
6465.453953955472
 20
4405.162940388108
 30
0.0
 11
6828.878944278262
 21
4405.162940388108
 31
0.0
  0
LINE
  5
38EE
330
3345
100
AcDbEntity
  8
SUNPOU
 62
     0
100
AcDbLine
 10
6818.878944278262
 20
3235.162940388109
 30
0.0
 11
6818.878944278262
 21
4375.162940388108
 31
0.0
  0
SOLID
  5
38EF
330
3345
100
AcDbEntity
  8
SUNPOU
 62
     0
100
AcDbTrace
 10
6813.878944278262
 20
3235.162940388109
 30
0.0
 11
6823.878944278262
 21
3235.162940388109
 31
0.0
 12
6818.878944278262
 22
3205.162940388109
 32
0.0
 13
6818.878944278262
 23
3205.162940388109
 33
0.0
  0
SOLID
  5
38F0
330
3345
100
AcDbEntity
  8
SUNPOU
 62
     0
100
AcDbTrace
 10
6813.878944278262
 20
4375.162940388108
 30
0.0
 11
6823.878944278262
 21
4375.162940388108
 31
0.0
 12
6818.878944278262
 22
4405.162940388108
 32
0.0
 13
6818.878944278262
 23
4405.162940388108
 33
0.0
  0
MTEXT
  5
38F1
330
3345
100
AcDbEntity
  8
SUNPOU
 62
     0
100
AcDbMText
 10
6779.87894427826
 20
3805.16294038811
 30
0.0
 40
50.0
 41
0.0
 71
     5
 72
     1
  1
\A1;300～2400
 11
0.0000000000000001
 21
1.0
 31
0.0
 73
     1
 44
1.0
1001
ACAD
1000
MTEXTBEGIN
1070
    73
1070
     1
1070
    44
1040
1.0
1070
    74
1070
     0
1000
MTEXTEND
  0
POINT
  5
38F2
330
3345
100
AcDbEntity
  8
Defpoints
 62
     0
100
AcDbPoint
 10
6435.453953955472
 20
3205.162940388109
 30
0.0
  0
POINT
  5
38F3
330
3345
100
AcDbEntity
  8
Defpoints
 62
     0
100
AcDbPoint
 10
6435.453953955472
 20
4405.162940388108
 30
0.0
  0
POINT
  5
38F4
330
3345
100
AcDbEntity
  8
Defpoints
 62
     0
100
AcDbPoint
 10
6818.878944278262
 20
4405.162940388108
 30
0.0
  0
ENDBLK
  5
3350
330
3345
100
AcDbEntity
  8
0
100
AcDbBlockEnd
  0
ENDSEC
  0
SECTION
  2
ENTITIES
  0
TEXT
  5
5F
330
17
100
AcDbEntity
  8
SUNPOU
100
AcDbText
 10
7771.648326526996
 20
320.0
 30
0.0
 40
60.0
  1
20
100
AcDbText
  0
TEXT
  5
BA
330
17
100
AcDbEntity
  8
SUNPOU
100
AcDbText
 10
6928.124931866048
 20
644.4276687708479
 30
0.0
 40
60.0
  1
コネクトホール１号
 41
0.8
100
AcDbText
  0
TEXT
  5
BC
330
17
100
AcDbEntity
  8
SUNPOU
100
AcDbText
 10
7565.98121537641
 20
644.4276687708479
 30
0.0
 40
60.0
  1
直壁
 41
0.8
100
AcDbText
  0
TEXT
  5
2A26
330
17
100
AcDbEntity
  8
SUNPOU
100
AcDbText
 10
7211.648326527001
 20
0.0
 30
0.0
 40
50.0
  1
新和コンクリート工業株式会社
100
AcDbText
  0
TEXT
  5
2A27
330
17
100
AcDbEntity
  8
SUNPOU
100
AcDbText
 10
7639.981659860334
 20
125.0
 30
0.0
 40
50.0
  1
製図
 72
     4
 11
7691.648326527
 21
150.0
 31
0.0
100
AcDbText
  0
TEXT
  5
2A28
330
17
100
AcDbEntity
  8
SUNPOU
100
AcDbText
 10
7638.314993193667
 20
225.0
 30
0.0
 40
50.0
  1
設計
 72
     4
 11
7691.648326527
 21
250.0
 31
0.0
100
AcDbText
  0
TEXT
  5
2A29
330
17
100
AcDbEntity
  8
SUNPOU
100
AcDbText
 10
7193.314993193666
 20
125.0000000000002
 30
0.0
 40
50.0
  1
認
 72
     4
 11
7216.648326527
 21
150.0000000000002
 31
0.0
100
AcDbText
  0
TEXT
  5
2A2A
330
17
100
AcDbEntity
  8
SUNPOU
100
AcDbText
 10
7193.314993193666
 20
226.6666666666674
 30
0.0
 40
50.0
  1
承
 72
     4
 11
7216.648326527
 21
250.0000000000007
 31
0.0
100
AcDbText
  0
TEXT
  5
2A2B
330
17
100
AcDbEntity
  8
SUNPOU
100
AcDbText
 10
6666.648326527
 20
235.0000000000003
 30
0.0
 40
50.0
  1
図　面　番　号
 72
     4
 11
6871.648326527
 21
260.0000000000002
 31
0.0
100
AcDbText
  0
TEXT
  5
2A2C
330
17
100
AcDbEntity
  8
SUNPOU
100
AcDbText
 10
7651.648326526999
 20
340.0
 30
0.0
 40
50.0
  1
１／
100
AcDbText
  0
TEXT
  5
2A2D
330
17
100
AcDbEntity
  8
SUNPOU
100
AcDbText
 10
7358.314993193667
 20
325.0000000000002
 30
0.0
 40
50.0
  1
縮　　尺
 72
     4
 11
7471.648326527
 21
350.0000000000002
 31
0.0
100
AcDbText
  0
TEXT
  5
2A2E
330
17
100
AcDbEntity
  8
SUNPOU
100
AcDbText
 10
7358.314993193667
 20
425.0
 30
0.0
 40
50.0
  1
鉄 筋 量
 72
     4
 11
7471.648326527
 21
450.0
 31
0.0
100
AcDbText
  0
TEXT
  5
2A2F
330
17
100
AcDbEntity
  8
SUNPOU
100
AcDbText
 10
7358.314993193667
 20
525.0
 30
0.0
 40
50.0
  1
製 造 数
 72
     4
 11
7471.648326527
 21
550.0
 31
0.0
100
AcDbText
  0
TEXT
  5
2A30
330
17
100
AcDbEntity
  8
SUNPOU
100
AcDbText
 10
7951.648326526999
 20
420.0
 30
0.0
 40
50.0
  1
ｋｇ
 72
     2
 11
8051.648326526999
 21
420.0
 31
0.0
100
AcDbText
  0
TEXT
  5
2A31
330
17
100
AcDbEntity
  8
SUNPOU
100
AcDbText
 10
7201.648326526999
 20
420.0
 30
0.0
 40
50.0
  1
ｋｇ
 72
     2
 11
7301.648326527
 21
420.0
 31
0.0
100
AcDbText
  0
TEXT
  5
2A32
330
17
100
AcDbEntity
  8
SUNPOU
100
AcDbText
 10
6611.648326527
 20
325.0000000000002
 30
0.0
 40
50.0
  1
年 月 日
 72
     4
 11
6721.648326527
 21
350.0000000000002
 31
0.0
100
AcDbText
  0
TEXT
  5
2A33
330
17
100
AcDbEntity
  8
SUNPOU
100
AcDbText
 10
6608.314993193667
 20
425.0
 30
0.0
 40
50.0
  1
製品質量
 72
     4
 11
6721.648326527
 21
450.0
 31
0.0
100
AcDbText
  0
TEXT
  5
2A34
330
17
100
AcDbEntity
  8
SUNPOU
100
AcDbText
 10
6609.981659860332
 20
525.0
 30
0.0
 40
50.0
  1
業 者 名
 72
     4
 11
6721.648326527
 21
550.0
 31
0.0
100
AcDbText
  0
TEXT
  5
2A35
330
17
100
AcDbEntity
  8
SUNPOU
100
AcDbText
 10
6608.314993193667
 20
650.0
 30
0.0
 40
50.0
  1
名　　称
 72
     4
 11
6721.648326527
 21
675.0
 31
0.0
100
AcDbText
  0
LINE
  5
2A36
330
17
100
AcDbEntity
  8
SUNPOU
100
AcDbLine
 10
7171.648326527
 20
220.0000000000002
 30
0.0
 11
6571.648326527
 21
220.0000000000002
 31
0.0
  0
LINE
  5
2A37
330
17
100
AcDbEntity
  8
SUNPOU
100
AcDbLine
 10
7761.648326527001
 20
99.99999999999971
 30
0.0
 11
7761.648326527001
 21
299.9999999999999
 31
0.0
  0
LINE
  5
2A38
330
17
100
AcDbEntity
  8
SUNPOU
100
AcDbLine
 10
7621.648326527
 20
99.99999999999971
 30
0.0
 11
7621.648326527
 21
299.9999999999999
 31
0.0
  0
LINE
  5
2A39
330
17
100
AcDbEntity
  8
SUNPOU
100
AcDbLine
 10
7261.648326527001
 20
99.99999999999989
 30
0.0
 11
7261.648326527001
 21
300.0
 31
0.0
  0
LINE
  5
2A3A
330
17
100
AcDbEntity
  8
SUNPOU
100
AcDbLine
 10
7171.648326527
 20
99.99999999999989
 30
0.0
 11
7171.648326527
 21
300.0
 31
0.0
  0
LINE
  5
2A3B
330
17
100
AcDbEntity
  8
SUNPOU
100
AcDbLine
 10
6871.648326527
 20
300.0000000000002
 30
0.0
 11
6871.648326527
 21
750.0
 31
0.0
  0
LINE
  5
2A3C
330
17
100
AcDbEntity
  8
SUNPOU
100
AcDbLine
 10
7621.648326527
 20
300.0000000000002
 30
0.0
 11
7621.648326527
 21
600.0
 31
0.0
  0
LINE
  5
2A3D
330
17
100
AcDbEntity
  8
SUNPOU
100
AcDbLine
 10
7321.648326527
 20
300.0000000000002
 30
0.0
 11
7321.648326527
 21
600.0
 31
0.0
  0
LINE
  5
2A3E
330
17
100
AcDbEntity
  8
SUNPOU
100
AcDbLine
 10
8071.648326527
 20
600.0
 30
0.0
 11
6571.648326527
 21
600.0
 31
0.0
  0
LINE
  5
2A3F
330
17
100
AcDbEntity
  8
SUNPOU
100
AcDbLine
 10
8071.648326527
 20
500.0
 30
0.0
 11
6571.648326527
 21
500.0
 31
0.0
  0
LINE
  5
2A40
330
17
100
AcDbEntity
  8
SUNPOU
100
AcDbLine
 10
8071.648326527
 20
400.0
 30
0.0
 11
6571.648326527
 21
400.0
 31
0.0
  0
LINE
  5
2A41
330
17
100
AcDbEntity
  8
SUNPOU
100
AcDbLine
 10
8071.648326527
 20
299.9999999999999
 30
0.0
 11
6571.648326527
 21
300.0000000000007
 31
0.0
  0
LINE
  5
2A42
330
17
100
AcDbEntity
  8
HAIKIN
100
AcDbLine
 10
6571.648326527
 20
750.0
 30
0.0
 11
8071.648326527
 21
750.0
 31
0.0
  0
LINE
  5
2A43
330
17
100
AcDbEntity
  8
HAIKIN
100
AcDbLine
 10
6571.648326527
 20
100.0000000000001
 30
0.0
 11
6571.648326527
 21
750.0
 31
0.0
  0
LINE
  5
2A44
330
17
100
AcDbEntity
  8
SUNPOU
100
AcDbLine
 10
320.0000000000003
 20
5540.0
 30
0.0
 11
320.0000000000003
 21
5440.0
 31
0.0
  0
LINE
  5
2A45
330
17
100
AcDbEntity
  8
SUNPOU
100
AcDbLine
 10
820.0000000000002
 20
5540.0
 30
0.0
 11
320.0000000000003
 21
5540.0
 31
0.0
  0
LINE
  5
2A46
330
17
100
AcDbEntity
  8
SUNPOU
100
AcDbLine
 10
820.0000000000002
 20
5440.0
 30
0.0
 11
820.0000000000002
 21
5540.0
 31
0.0
  0
LINE
  5
2A47
330
17
100
AcDbEntity
  8
HAIKIN
100
AcDbLine
 10
320.0
 20
100.0
 30
0.0
 11
8071.648326527
 21
100.0
 31
0.0
  0
LINE
  5
2A48
330
17
100
AcDbEntity
  8
HAIKIN
100
AcDbLine
 10
320.0000000000003
 20
5440.0
 30
0.0
 11
8071.648326527
 21
5440.0
 31
0.0
  0
LINE
  5
2A49
330
17
100
AcDbEntity
  8
HAIKIN
100
AcDbLine
 10
8071.648326527
 20
5440.0
 30
0.0
 11
8071.648326527
 21
100.0
 31
0.0
  0
TEXT
  5
2A4A
330
17
100
AcDbEntity
  8
SUNPOU
100
AcDbText
 10
394.0000000000003
 20
5460.0
 30
0.0
 40
60.0
  1
Ｈ－２－共
 72
     4
 11
570.0000000000003
 21
5490.0
 31
0.0
100
AcDbText
  0
LINE
  5
2A4B
330
17
100
AcDbEntity
  8
HAIKIN
100
AcDbLine
 10
320.0
 20
100.0
 30
0.0
 11
320.0000000000003
 21
5440.0
 31
0.0
  0
POINT
  5
2A4C
330
17
100
AcDbEntity
  8
SUNPOU
100
AcDbPoint
 10
148.6162821516373
 20
5632.042442328446
 30
0.0
  0
POINT
  5
2A4D
330
17
100
AcDbEntity
  8
SUNPOU
100
AcDbPoint
 10
8181.593311444498
 20
-93.35404855051093
 30
0.0
  0
TEXT
  5
2D46
330
17
100
AcDbEntity
  8
SUNPOU
100
AcDbText
 10
7721.124357920428
 20
644.4276687708479
 30
0.0
 40
60.0
  1
管取付壁
 41
0.8
100
AcDbText
  0
LINE
  5
2FEB
330
17
100
AcDbEntity
  8
SEIHIN
100
AcDbLine
 10
1650.005558988459
 20
3196.006075221094
 30
0.0
 11
2625.005558988461
 21
3196.006075221094
 31
0.0
  0
LINE
  5
2FEC
330
17
100
AcDbEntity
  8
HASEN
 48
0.5
100
AcDbLine
 10
1650.005558988461
 20
4395.006075221093
 30
0.0
 11
2625.005558988461
 21
4395.006075221093
 31
0.0
  0
LINE
  5
2FED
330
17
100
AcDbEntity
  8
SEIHIN
100
AcDbLine
 10
1671.153844971025
 20
3205.162940388109
 30
0.0
 11
2603.857273005894
 21
3205.162940388109
 31
0.0
  0
LINE
  5
2FEE
330
17
100
AcDbEntity
  8
SEIHIN
100
AcDbLine
 10
1672.50555898846
 20
4405.162940388108
 30
0.0
 11
2602.505558988462
 21
4405.162940388108
 31
0.0
  0
LINE
  5
2FEF
330
17
100
AcDbEntity
  8
SEIHIN
100
AcDbLine
 10
1612.505558988461
 20
3205.162940388109
 30
0.0
 11
1612.505558988461
 21
4405.162940388108
 31
0.0
  0
LINE
  5
2FF0
330
17
100
AcDbEntity
  8
HASEN
 48
0.5
100
AcDbLine
 10
1687.505558988461
 20
3205.162940388109
 30
0.0
 11
1687.505558988461
 21
4405.162940388108
 31
0.0
  0
LINE
  5
2FF1
330
17
100
AcDbEntity
  8
SEIHIN
100
AcDbLine
 10
1612.505558988461
 20
3205.16294038811
 30
0.0
 11
1628.857273005895
 21
3205.162940388109
 31
0.0
  0
ARC
  5
2FF2
330
17
100
AcDbEntity
  8
SEIHIN
100
AcDbCircle
 10
1650.005558988459
 20
3225.006075221094
 30
0.0
 40
29.0
100
AcDbArc
 50
223.1763403951626
 51
316.8236596048374
  0
LINE
  5
2FF4
330
17
100
AcDbEntity
  8
SEIHIN
100
AcDbLine
 10
1612.505558988461
 20
4405.16294038811
 30
0.0
 11
1627.505558988463
 21
4405.162940388108
 31
0.0
  0
ARC
  5
2FF5
330
17
100
AcDbEntity
  8
SEIHIN
100
AcDbCircle
 10
1650.005558988461
 20
4425.006075221094
 30
0.0
 40
30.0
100
AcDbArc
 50
221.4096221092698
 51
318.5903778907302
  0
LINE
  5
2FF6
330
17
100
AcDbEntity
  8
HASEN
 48
0.5
100
AcDbLine
 10
2587.505558988461
 20
3205.162940388109
 30
0.0
 11
2587.505558988461
 21
4405.162940388108
 31
0.0
  0
LINE
  5
2FF7
330
17
100
AcDbEntity
  8
SEIHIN
100
AcDbLine
 10
2662.505558988462
 20
3205.162940388109
 30
0.0
 11
2662.505558988462
 21
4405.162940388108
 31
0.0
  0
ARC
  5
2FF9
330
17
100
AcDbEntity
  8
SEIHIN
100
AcDbCircle
 10
2625.005558988461
 20
3225.006075221094
 30
0.0
 40
29.0
100
AcDbArc
 50
223.1763403951626
 51
316.8236596048374
  0
LINE
  5
2FFA
330
17
100
AcDbEntity
  8
SEIHIN
100
AcDbLine
 10
2646.153844971029
 20
3205.162940388109
 30
0.0
 11
2662.505558988462
 21
3205.162940388109
 31
0.0
  0
ARC
  5
2FFE
330
17
100
AcDbEntity
  8
SEIHIN
100
AcDbCircle
 10
2625.005558988461
 20
4425.006075221094
 30
0.0
 40
30.0
100
AcDbArc
 50
221.4096221092698
 51
318.5903778907302
  0
LINE
  5
2FFF
330
17
100
AcDbEntity
  8
SEIHIN
100
AcDbLine
 10
2647.505558988461
 20
4405.162940388108
 30
0.0
 11
2662.505558988462
 21
4405.162940388108
 31
0.0
  0
TEXT
  5
30E8
330
17
100
AcDbEntity
  8
SUNPOU
100
AcDbText
 10
2045.122805067574
 20
5069.463888454562
 30
0.0
 40
60.0
  1
I　種
 41
0.8
 72
     1
 11
2112.322805067574
 21
5069.463888454562
 31
0.0
100
AcDbText
  0
TEXT
  5
30EA
330
17
100
AcDbEntity
  8
SUNPOU
100
AcDbText
 10
1749.106794522458
 20
5266.433184489086
 30
0.0
 40
60.0
  1
直　　壁
 41
0.8
100
AcDbText
  0
TEXT
  5
30EB
330
17
100
AcDbEntity
  8
SUNPOU
100
AcDbText
 10
1749.106794522458
 20
5186.315612089095
 30
0.0
 40
60.0
  1
管取付壁
 41
0.8
100
AcDbText
  0
TEXT
  5
30EC
330
17
100
AcDbEntity
  8
SUNPOU
100
AcDbText
 10
2010.49927687353
 20
5186.315612089095
 30
0.0
 40
60.0
  1
A1-H600～2400
 41
0.8
100
AcDbText
  0
TEXT
  5
30ED
330
17
100
AcDbEntity
  8
SUNPOU
100
AcDbText
 10
2010.49927687353
 20
5266.433184489086
 30
0.0
 40
60.0
  1
A1-S300～2400
 41
0.8
100
AcDbText
  0
LINE
  5
30EE
330
17
100
AcDbEntity
  8
SUNPOU
100
AcDbLine
 10
1681.910309631177
 20
5169.09419963127
 30
0.0
 11
2596.170282238603
 21
5169.09419963127
 31
0.0
  0
LINE
  5
3105
330
17
100
AcDbEntity
  8
1HASEN
 48
0.5
100
AcDbLine
 10
2137.505558988461
 20
3116.628587920041
 30
0.0
 11
2137.505558988461
 21
4525.255429250595
 31
0.0
  0
DIMENSION
  5
3106
330
17
100
AcDbEntity
  8
SUNPOU
100
AcDbDimension
  2
*D2
 10
1687.505558988461
 20
4688.627815348104
 30
0.0
 11
1650.005558988462
 21
4727.627815348103
 31
0.0
 70
    32
 71
     5
 42
-1.0
  3
STANDARD
100
AcDbAlignedDimension
 13
1612.505558988462
 23
4405.16294038811
 33
0.0
 14
1687.505558988461
 24
4405.16294038811
 34
0.0
100
AcDbRotatedDimension
1001
ACAD
1000
DSTYLE
1002
{
1070
   287
1070
     5
1070
    40
1040
20.0
1070
    41
1040
1.5
1070
    42
1040
1.5
1070
    43
1040
7.0
1070
    44
1040
0.5
1070
    73
1070
     0
1070
    74
1070
     0
1070
    77
1070
     1
1070
    78
1070
     8
1070
   140
1040
2.5
1070
   141
1040
0.0
1070
   145
1040
1.0
1070
   147
1040
0.7
1070
   174
1070
     1
1070
   179
1070
     4
1070
   271
1070
     0
1070
   272
1070
     0
1070
   279
1070
     2
1070
   284
1070
     8
1070
   285
1070
     8
1070
   286
1070
     8
1002
}
  0
DIMENSION
  5
3114
330
17
100
AcDbEntity
  8
SUNPOU
100
AcDbDimension
  2
*D3
 10
2587.505558988461
 20
4688.627815348104
 30
0.0
 11
2137.505558988461
 21
4727.627815348103
 31
0.0
 70
    32
 71
     5
 42
-1.0
  3
STANDARD
100
AcDbAlignedDimension
 13
1687.505558988461
 23
4405.16294038811
 33
0.0
 14
2587.505558988461
 24
4405.16294038811
 34
0.0
100
AcDbRotatedDimension
1001
ACAD
1000
DSTYLE
1002
{
1070
   287
1070
     5
1070
    40
1040
20.0
1070
    41
1040
1.5
1070
    42
1040
1.5
1070
    43
1040
7.0
1070
    44
1040
0.5
1070
    73
1070
     0
1070
    74
1070
     0
1070
    77
1070
     1
1070
    78
1070
     8
1070
   140
1040
2.5
1070
   141
1040
0.0
1070
   145
1040
1.0
1070
   147
1040
0.7
1070
   174
1070
     1
1070
   179
1070
     4
1070
   271
1070
     0
1070
   272
1070
     0
1070
   279
1070
     2
1070
   284
1070
     8
1070
   285
1070
     8
1070
   286
1070
     8
1002
}
  0
DIMENSION
  5
3121
330
17
100
AcDbEntity
  8
SUNPOU
100
AcDbDimension
  2
*D4
 10
2587.50555898846
 20
4688.627815348104
 30
0.0
 11
2625.00555898846
 21
4727.627815348103
 31
0.0
 70
    32
 71
     5
 42
-1.0
  3
STANDARD
100
AcDbAlignedDimension
 13
2662.50555898846
 23
4405.16294038811
 33
0.0
 14
2587.50555898846
 24
4405.16294038811
 34
0.0
 50
180.0
100
AcDbRotatedDimension
1001
ACAD
1000
DSTYLE
1002
{
1070
   287
1070
     5
1070
    40
1040
20.0
1070
    41
1040
1.5
1070
    42
1040
1.5
1070
    43
1040
7.0
1070
    44
1040
0.5
1070
    73
1070
     0
1070
    74
1070
     0
1070
    77
1070
     1
1070
    78
1070
     8
1070
   140
1040
2.5
1070
   141
1040
0.0
1070
   145
1040
1.0
1070
   147
1040
0.7
1070
   174
1070
     1
1070
   179
1070
     4
1070
   271
1070
     0
1070
   272
1070
     0
1070
   279
1070
     2
1070
   284
1070
     8
1070
   285
1070
     8
1070
   286
1070
     8
1002
}
  0
DIMENSION
  5
3139
330
17
100
AcDbEntity
  8
SUNPOU
100
AcDbDimension
  2
*D5
 10
2662.505558988462
 20
4798.81038851765
 30
0.0
 11
2137.505558988461
 21
4837.81038851765
 31
0.0
 70
    32
 71
     5
 42
-1.0
  3
STANDARD
100
AcDbAlignedDimension
 13
1612.505558988462
 23
4405.162940388108
 33
0.0
 14
2662.505558988462
 24
4405.162940388108
 34
0.0
100
AcDbRotatedDimension
1001
ACAD
1000
DSTYLE
1002
{
1070
   287
1070
     5
1070
    40
1040
20.0
1070
    41
1040
1.5
1070
    42
1040
1.5
1070
    43
1040
7.0
1070
    44
1040
0.5
1070
    73
1070
     0
1070
    74
1070
     0
1070
    77
1070
     1
1070
    78
1070
     8
1070
   140
1040
2.5
1070
   141
1040
0.0
1070
   145
1040
1.0
1070
   147
1040
0.7
1070
   174
1070
     1
1070
   179
1070
     4
1070
   271
1070
     0
1070
   272
1070
     0
1070
   279
1070
     2
1070
   284
1070
     8
1070
   285
1070
     8
1070
   286
1070
     8
1002
}
  0
DIMENSION
  5
3182
330
17
100
AcDbEntity
  8
SUNPOU
100
AcDbDimension
  2
*D8
 10
3045.930549311252
 20
4405.162940388108
 30
0.0
 11
3006.930549311251
 21
3805.162940388109
 31
0.0
 70
    32
  1
300～2400
 71
     5
 42
-1.0
  3
STANDARD
100
AcDbAlignedDimension
 13
2662.505558988461
 23
3205.162940388109
 33
0.0
 14
2662.505558988462
 24
4405.162940388108
 34
0.0
 50
90.0
100
AcDbRotatedDimension
1001
ACAD
1000
DSTYLE
1002
{
1070
   287
1070
     5
1070
    40
1040
20.0
1070
    41
1040
1.5
1070
    42
1040
1.5
1070
    43
1040
7.0
1070
    44
1040
0.5
1070
    73
1070
     0
1070
    74
1070
     0
1070
    77
1070
     1
1070
    78
1070
     8
1070
   140
1040
2.5
1070
   141
1040
0.0
1070
   145
1040
1.0
1070
   147
1040
0.7
1070
   174
1070
     1
1070
   179
1070
     4
1070
   271
1070
     0
1070
   272
1070
     0
1070
   279
1070
     2
1070
   284
1070
     8
1070
   285
1070
     8
1070
   286
1070
     8
1002
}
  0
LINE
  5
31D5
330
17
100
AcDbEntity
  8
1HASEN
 48
0.5
100
AcDbLine
 10
2137.505558988461
 20
2692.453161580121
 30
0.0
 11
2137.505558988461
 21
1792.453161580121
 31
0.0
  0
CIRCLE
  5
31D6
330
17
100
AcDbEntity
  8
SEIHIN
100
AcDbCircle
 10
2137.505558988461
 20
2242.453161580121
 30
0.0
 40
450.0
  0
CIRCLE
  5
31D7
330
17
100
AcDbEntity
  8
SEIHIN
100
AcDbCircle
 10
2137.505558988461
 20
2242.453161580121
 30
0.0
 40
525.0
  0
LINE
  5
31D9
330
17
100
AcDbEntity
  8
1HASEN
 48
0.5
100
AcDbLine
 10
1687.50555898846
 20
2242.453161580121
 30
0.0
 11
2587.505558988461
 21
2242.453161580121
 31
0.0
  0
LINE
  5
328C
330
17
100
AcDbEntity
  8
1HASEN
 48
0.5
100
AcDbLine
 10
5910.453953955471
 20
2692.453161580121
 30
0.0
 11
5910.453953955471
 21
1792.453161580121
 31
0.0
  0
CIRCLE
  5
328D
330
17
100
AcDbEntity
  8
SEIHIN
100
AcDbCircle
 10
5910.453953955471
 20
2242.453161580121
 30
0.0
 40
525.0
  0
CIRCLE
  5
328E
330
17
100
AcDbEntity
  8
SEIHIN
100
AcDbCircle
 10
5910.453953955471
 20
2242.453161580121
 30
0.0
 40
450.0
  0
LINE
  5
3291
330
17
100
AcDbEntity
  8
1HASEN
 48
0.5
100
AcDbLine
 10
5460.453953955471
 20
2242.453161580121
 30
0.0
 11
6360.45395395547
 21
2242.453161580121
 31
0.0
  0
DIMENSION
  5
32A8
330
17
100
AcDbEntity
  8
SUNPOU
100
AcDbDimension
  2
*D11
 10
5460.453953955472
 20
4688.627815348104
 30
0.0
 11
5422.953953955471
 21
4727.627815348103
 31
0.0
 70
    32
 71
     5
 42
-1.0
  3
STANDARD
100
AcDbAlignedDimension
 13
5385.453953955471
 23
4405.16294038811
 33
0.0
 14
5460.453953955472
 24
4405.16294038811
 34
0.0
100
AcDbRotatedDimension
1001
ACAD
1000
DSTYLE
1002
{
1070
   287
1070
     5
1070
    40
1040
20.0
1070
    41
1040
1.5
1070
    42
1040
1.5
1070
    43
1040
7.0
1070
    44
1040
0.5
1070
    73
1070
     0
1070
    74
1070
     0
1070
    77
1070
     1
1070
    78
1070
     8
1070
   140
1040
2.5
1070
   141
1040
0.0
1070
   145
1040
1.0
1070
   147
1040
0.7
1070
   174
1070
     1
1070
   179
1070
     4
1070
   271
1070
     0
1070
   272
1070
     0
1070
   279
1070
     2
1070
   284
1070
     8
1070
   285
1070
     8
1070
   286
1070
     8
1002
}
  0
DIMENSION
  5
32A9
330
17
100
AcDbEntity
  8
SUNPOU
100
AcDbDimension
  2
*D12
 10
6360.453953955471
 20
4688.627815348104
 30
0.0
 11
5910.453953955471
 21
4727.627815348103
 31
0.0
 70
    32
 71
     5
 42
-1.0
  3
STANDARD
100
AcDbAlignedDimension
 13
5460.453953955472
 23
4405.16294038811
 33
0.0
 14
6360.453953955471
 24
4405.16294038811
 34
0.0
100
AcDbRotatedDimension
1001
ACAD
1000
DSTYLE
1002
{
1070
   287
1070
     5
1070
    40
1040
20.0
1070
    41
1040
1.5
1070
    42
1040
1.5
1070
    43
1040
7.0
1070
    44
1040
0.5
1070
    73
1070
     0
1070
    74
1070
     0
1070
    77
1070
     1
1070
    78
1070
     8
1070
   140
1040
2.5
1070
   141
1040
0.0
1070
   145
1040
1.0
1070
   147
1040
0.7
1070
   174
1070
     1
1070
   179
1070
     4
1070
   271
1070
     0
1070
   272
1070
     0
1070
   279
1070
     2
1070
   284
1070
     8
1070
   285
1070
     8
1070
   286
1070
     8
1002
}
  0
DIMENSION
  5
32AA
330
17
100
AcDbEntity
  8
SUNPOU
100
AcDbDimension
  2
*D13
 10
6360.45395395547
 20
4688.627815348104
 30
0.0
 11
6397.95395395547
 21
4727.627815348103
 31
0.0
 70
    32
 71
     5
 42
-1.0
  3
STANDARD
100
AcDbAlignedDimension
 13
6435.45395395547
 23
4405.16294038811
 33
0.0
 14
6360.45395395547
 24
4405.16294038811
 34
0.0
 50
180.0
100
AcDbRotatedDimension
1001
ACAD
1000
DSTYLE
1002
{
1070
   287
1070
     5
1070
    40
1040
20.0
1070
    41
1040
1.5
1070
    42
1040
1.5
1070
    43
1040
7.0
1070
    44
1040
0.5
1070
    73
1070
     0
1070
    74
1070
     0
1070
    77
1070
     1
1070
    78
1070
     8
1070
   140
1040
2.5
1070
   141
1040
0.0
1070
   145
1040
1.0
1070
   147
1040
0.7
1070
   174
1070
     1
1070
   179
1070
     4
1070
   271
1070
     0
1070
   272
1070
     0
1070
   279
1070
     2
1070
   284
1070
     8
1070
   285
1070
     8
1070
   286
1070
     8
1002
}
  0
DIMENSION
  5
32AB
330
17
100
AcDbEntity
  8
SUNPOU
100
AcDbDimension
  2
*D14
 10
6435.453953955472
 20
4798.81038851765
 30
0.0
 11
5910.453953955471
 21
4837.81038851765
 31
0.0
 70
    32
 71
     5
 42
-1.0
  3
STANDARD
100
AcDbAlignedDimension
 13
5385.453953955471
 23
4405.162940388108
 33
0.0
 14
6435.453953955472
 24
4405.162940388108
 34
0.0
100
AcDbRotatedDimension
1001
ACAD
1000
DSTYLE
1002
{
1070
   287
1070
     5
1070
    40
1040
20.0
1070
    41
1040
1.5
1070
    42
1040
1.5
1070
    43
1040
7.0
1070
    44
1040
0.5
1070
    73
1070
     0
1070
    74
1070
     0
1070
    77
1070
     1
1070
    78
1070
     8
1070
   140
1040
2.5
1070
   141
1040
0.0
1070
   145
1040
1.0
1070
   147
1040
0.7
1070
   174
1070
     1
1070
   179
1070
     4
1070
   271
1070
     0
1070
   272
1070
     0
1070
   279
1070
     2
1070
   284
1070
     8
1070
   285
1070
     8
1070
   286
1070
     8
1002
}
  0
LINE
  5
32AD
330
17
100
AcDbEntity
  8
SEIHIN
100
AcDbLine
 10
5444.102239938036
 20
3205.162940388109
 30
0.0
 11
6376.805667972904
 21
3205.162940388109
 31
0.0
  0
LINE
  5
32AE
330
17
100
AcDbEntity
  8
SEIHIN
100
AcDbLine
 10
5422.95395395547
 20
3196.006075221094
 30
0.0
 11
6397.953953955472
 21
3196.006075221094
 31
0.0
  0
LINE
  5
32AF
330
17
100
AcDbEntity
  8
HASEN
 48
0.5
100
AcDbLine
 10
5422.953953955471
 20
4395.006075221093
 30
0.0
 11
6397.953953955472
 21
4395.006075221093
 31
0.0
  0
LINE
  5
32B0
330
17
100
AcDbEntity
  8
SEIHIN
100
AcDbLine
 10
5445.45395395547
 20
4405.162940388108
 30
0.0
 11
6375.453953955472
 21
4405.162940388108
 31
0.0
  0
LINE
  5
32C0
330
17
100
AcDbEntity
  8
HASEN
 48
0.5
100
AcDbLine
 10
5460.453953955472
 20
3205.162940388109
 30
0.0
 11
5460.453953955472
 21
4405.162940388108
 31
0.0
  0
LINE
  5
32C1
330
17
100
AcDbEntity
  8
SEIHIN
100
AcDbLine
 10
5385.453953955471
 20
3205.162940388109
 30
0.0
 11
5385.453953955471
 21
4405.162940388108
 31
0.0
  0
ARC
  5
32C5
330
17
100
AcDbEntity
  8
SEIHIN
100
AcDbCircle
 10
5422.95395395547
 20
3225.006075221094
 30
0.0
 40
29.0
100
AcDbArc
 50
223.1763403951626
 51
316.8236596048374
  0
LINE
  5
32C6
330
17
100
AcDbEntity
  8
SEIHIN
100
AcDbLine
 10
5385.453953955471
 20
3205.16294038811
 30
0.0
 11
5401.805667972905
 21
3205.162940388109
 31
0.0
  0
ARC
  5
32CB
330
17
100
AcDbEntity
  8
SEIHIN
100
AcDbCircle
 10
5422.953953955471
 20
4425.006075221094
 30
0.0
 40
30.0
100
AcDbArc
 50
221.4096221092698
 51
318.5903778907302
  0
LINE
  5
32CC
330
17
100
AcDbEntity
  8
SEIHIN
100
AcDbLine
 10
5385.453953955471
 20
4405.16294038811
 30
0.0
 11
5400.453953955473
 21
4405.162940388108
 31
0.0
  0
LINE
  5
32CD
330
17
100
AcDbEntity
  8
HASEN
 48
0.5
100
AcDbLine
 10
6360.453953955471
 20
3205.162940388109
 30
0.0
 11
6360.453953955471
 21
4405.162940388108
 31
0.0
  0
LINE
  5
32CE
330
17
100
AcDbEntity
  8
SEIHIN
100
AcDbLine
 10
6435.453953955472
 20
3205.162940388109
 30
0.0
 11
6435.453953955472
 21
4405.162940388108
 31
0.0
  0
LINE
  5
32D0
330
17
100
AcDbEntity
  8
1HASEN
 48
0.5
100
AcDbLine
 10
5910.453953955471
 20
3116.628587920041
 30
0.0
 11
5910.453953955471
 21
4525.255429250595
 31
0.0
  0
DIMENSION
  5
32D2
330
17
100
AcDbEntity
  8
SUNPOU
100
AcDbDimension
  2
*D15
 10
6818.878944278262
 20
4405.162940388108
 30
0.0
 11
6779.87894427826
 21
3805.16294038811
 31
0.0
 70
    32
  1
300～2400
 71
     5
 42
-1.0
  3
STANDARD
100
AcDbAlignedDimension
 13
6435.453953955472
 23
3205.162940388109
 33
0.0
 14
6435.453953955472
 24
4405.162940388108
 34
0.0
 50
90.0
100
AcDbRotatedDimension
1001
ACAD
1000
DSTYLE
1002
{
1070
   287
1070
     5
1070
    40
1040
20.0
1070
    41
1040
1.5
1070
    42
1040
1.5
1070
    43
1040
7.0
1070
    44
1040
0.5
1070
    73
1070
     0
1070
    74
1070
     0
1070
    77
1070
     1
1070
    78
1070
     8
1070
   140
1040
2.5
1070
   141
1040
0.0
1070
   145
1040
1.0
1070
   147
1040
0.7
1070
   174
1070
     1
1070
   179
1070
     4
1070
   271
1070
     0
1070
   272
1070
     0
1070
   279
1070
     2
1070
   284
1070
     8
1070
   285
1070
     8
1070
   286
1070
     8
1002
}
  0
LINE
  5
32E3
330
17
100
AcDbEntity
  8
SEIHIN
100
AcDbLine
 10
6419.102239938038
 20
3205.162940388109
 30
0.0
 11
6435.453953955472
 21
3205.162940388109
 31
0.0
  0
ARC
  5
32E4
330
17
100
AcDbEntity
  8
SEIHIN
100
AcDbCircle
 10
6397.953953955472
 20
3225.006075221094
 30
0.0
 40
29.0
100
AcDbArc
 50
223.1763403951626
 51
316.8236596048374
  0
LINE
  5
32F2
330
17
100
AcDbEntity
  8
SEIHIN
100
AcDbLine
 10
6420.453953955472
 20
4405.162940388108
 30
0.0
 11
6435.453953955472
 21
4405.162940388108
 31
0.0
  0
ARC
  5
32F3
330
17
100
AcDbEntity
  8
SEIHIN
100
AcDbCircle
 10
6397.953953955472
 20
4425.006075221094
 30
0.0
 40
30.0
100
AcDbArc
 50
221.4096221092698
 51
318.5903778907302
  0
TEXT
  5
32F4
330
17
100
AcDbEntity
  8
SUNPOU
100
AcDbText
 10
5522.055189489469
 20
5266.433184489086
 30
0.0
 40
60.0
  1
直　　壁
 41
0.8
100
AcDbText
  0
TEXT
  5
32F5
330
17
100
AcDbEntity
  8
SUNPOU
100
AcDbText
 10
5522.055189489469
 20
5186.315612089095
 30
0.0
 40
60.0
  1
管取付壁
 41
0.8
100
AcDbText
  0
LINE
  5
32F6
330
17
100
AcDbEntity
  8
SUNPOU
100
AcDbLine
 10
5454.858704598187
 20
5169.09419963127
 30
0.0
 11
6369.118677205613
 21
5169.09419963127
 31
0.0
  0
TEXT
  5
32F7
330
17
100
AcDbEntity
  8
SUNPOU
100
AcDbText
 10
5783.447671840541
 20
5186.315612089095
 30
0.0
 40
60.0
  1
A1-H600～2400
 41
0.8
100
AcDbText
  0
TEXT
  5
32F8
330
17
100
AcDbEntity
  8
SUNPOU
100
AcDbText
 10
5802.071200034584
 20
5069.463888454562
 30
0.0
 40
60.0
  1
II　種
 41
0.8
 72
     1
 11
5885.271200034583
 21
5069.463888454562
 31
0.0
100
AcDbText
  0
TEXT
  5
32F9
330
17
100
AcDbEntity
  8
SUNPOU
100
AcDbText
 10
5783.447671840541
 20
5266.433184489086
 30
0.0
 40
60.0
  1
A1-S300～2400
 41
0.8
100
AcDbText
  0
ENDSEC
  0
SECTION
  2
OBJECTS
  0
DICTIONARY
  5
C
330
0
100
AcDbDictionary
281
     1
  3
ACAD_COLOR
350
3914
  3
ACAD_GROUP
350
D
  3
ACAD_LAYOUT
350
6F
  3
ACAD_MATERIAL
350
3913
  3
ACAD_MLINESTYLE
350
1A
  3
ACAD_PLOTSETTINGS
350
70
  3
ACAD_PLOTSTYLENAME
350
6D
  3
ACAD_TABLESTYLE
350
3915
  3
ACDBHEADERROUNDTRIPXREC
350
3927
  3
AcDbVariableDictionary
350
A0
  0
DICTIONARY
  5
9C
330
17
100
AcDbDictionary
280
     1
281
     1
  3
ACAD_LAYOUTSELFREF
360
3867
  0
DICTIONARY
  5
9A
330
14
100
AcDbDictionary
280
     1
281
     1
  3
ACAD_LAYOUTSELFREF
360
3866
  0
DICTIONARY
  5
3914
102
{ACAD_REACTORS
330
C
102
}
330
C
100
AcDbDictionary
281
     1
  0
DICTIONARY
  5
D
102
{ACAD_REACTORS
330
C
102
}
330
C
100
AcDbDictionary
281
     1
  0
DICTIONARY
  5
6F
102
{ACAD_REACTORS
330
C
102
}
330
C
100
AcDbDictionary
281
     1
  3
Model
350
71
  3
ﾚｲｱｳﾄ1
350
72
  0
DICTIONARY
  5
3913
102
{ACAD_REACTORS
330
C
102
}
330
C
100
AcDbDictionary
281
     1
  0
DICTIONARY
  5
1A
102
{ACAD_REACTORS
330
C
102
}
330
C
100
AcDbDictionary
281
     1
  3
STANDARD
350
1B
  0
DICTIONARY
  5
70
102
{ACAD_REACTORS
330
C
102
}
330
C
100
AcDbDictionary
281
     1
  0
ACDBDICTIONARYWDFLT
  5
6D
102
{ACAD_REACTORS
330
C
102
}
330
C
100
AcDbDictionary
281
     1
  3
Normal
350
6E
100
AcDbDictionaryWithDefault
340
6E
  0
DICTIONARY
  5
3915
102
{ACAD_REACTORS
330
C
102
}
330
C
100
AcDbDictionary
281
     1
  3
Standard
350
3916
  0
DICTIONARY
  5
3927
102
{ACAD_REACTORS
330
C
102
}
330
C
100
AcDbDictionary
281
     1
  0
DICTIONARY
  5
A0
102
{ACAD_REACTORS
330
C
102
}
330
C
100
AcDbDictionary
281
     1
  3
CTABLESTYLE
350
3920
  3
DIMASSOC
350
A1
  3
PROJECTNAME
350
3921
  0
XRECORD
  5
3867
102
{ACAD_REACTORS
330
9C
102
}
330
9C
100
AcDbXrecord
280
     1
340
17
  0
XRECORD
  5
3866
102
{ACAD_REACTORS
330
9A
102
}
330
9A
100
AcDbXrecord
280
     1
340
14
  0
LAYOUT
  5
71
102
{ACAD_XDICTIONARY
360
3928
102
}
102
{ACAD_REACTORS
330
6F
102
}
330
6F
100
AcDbPlotSettings
  1

  2
RICOH IPSiO NX850 RPCS
  4
A4
  6

 40
5.873749732971191
 41
5.873747825622558
 42
5.873748779296875
 43
5.873748779296875
 44
209.9733276367187
 45
296.9259948730469
 46
0.0
 47
0.0
 48
0.0
 49
0.0
140
0.0
141
0.0
142
1.0
143
1.0
 70
 11952
 72
     0
 73
     1
 74
     0
  7
acad.ctb
 75
     0
147
1.0
148
-29793.33470533984
149
-1225.621704113712
100
AcDbLayout
  1
Model
 70
     1
 71
     0
 10
0.0
 20
0.0
 11
12.0
 21
9.0
 12
0.0
 22
0.0
 32
0.0
 14
0.0
 24
0.0
 34
0.0
 15
0.0
 25
0.0
 35
0.0
146
0.0
 13
0.0
 23
0.0
 33
0.0
 16
1.0
 26
0.0
 36
0.0
 17
0.0
 27
1.0
 37
0.0
 76
     0
330
17
  0
LAYOUT
  5
72
102
{ACAD_XDICTIONARY
360
392A
102
}
102
{ACAD_REACTORS
330
6F
102
}
330
6F
100
AcDbPlotSettings
  1

  2
RICOH IPSiO NX850 RPCS
  4

  6

 40
0.0
 41
0.0
 42
0.0
 43
0.0
 44
0.0
 45
0.0
 46
0.0
 47
0.0
 48
0.0
 49
0.0
140
0.0
141
0.0
142
1.0
143
1.0
 70
   688
 72
     0
 73
     0
 74
     5
  7
acad.ctb
 75
    16
147
1.0
148
0.0
149
0.0
100
AcDbLayout
  1
ﾚｲｱｳﾄ1
 70
     0
 71
     1
 10
0.0
 20
0.0
 11
12.0
 21
9.0
 12
0.0
 22
0.0
 32
0.0
 14
1.000000000000000E+20
 24
1.000000000000000E+20
 34
1.000000000000000E+20
 15
-1.000000000000000E+20
 25
-1.000000000000000E+20
 35
-1.000000000000000E+20
146
0.0
 13
0.0
 23
0.0
 33
0.0
 16
1.0
 26
0.0
 36
0.0
 17
0.0
 27
1.0
 37
0.0
 76
     0
330
14
  0
MLINESTYLE
  5
1B
102
{ACAD_REACTORS
330
1A
102
}
330
1A
100
AcDbMlineStyle
  2
STANDARD
 70
     0
  3

 62
   256
 51
90.0
 52
90.0
 71
     2
 49
0.5
 62
   256
  6
BYLAYER
 49
-0.5
 62
   256
  6
BYLAYER
  0
ACDBPLACEHOLDER
  5
6E
102
{ACAD_REACTORS
330
6D
102
}
330
6D
  0
TABLESTYLE
  5
3916
102
{ACAD_REACTORS
330
3915
102
}
330
3915
100
AcDbTableStyle
  3
Standard
 70
     0
 71
     0
 40
0.06
 41
0.06
280
     0
281
     0
  7
STANDARD
140
0.18
170
     2
 62
     0
 63
     7
283
     0
274
    -2
284
     1
 64
     0
275
    -2
285
     1
 65
     0
276
    -2
286
     1
 66
     0
277
    -2
287
     1
 67
     0
278
    -2
288
     1
 68
     0
279
    -2
289
     1
 69
     0
  7
STANDARD
140
0.25
170
     5
 62
     0
 63
     7
283
     0
274
    -2
284
     1
 64
     0
275
    -2
285
     1
 65
     0
276
    -2
286
     1
 66
     0
277
    -2
287
     1
 67
     0
278
    -2
288
     1
 68
     0
279
    -2
289
     1
 69
     0
  7
STANDARD
140
0.18
170
     5
 62
     0
 63
     7
283
     0
274
    -2
284
     1
 64
     0
275
    -2
285
     1
 65
     0
276
    -2
286
     1
 66
     0
277
    -2
287
     1
 67
     0
278
    -2
288
     1
 68
     0
279
    -2
289
     1
 69
     0
  0
DICTIONARYVAR
  5
3920
102
{ACAD_REACTORS
330
A0
102
}
330
A0
100
DictionaryVariables
280
     0
  1
STANDARD
  0
DICTIONARYVAR
  5
A1
102
{ACAD_REACTORS
330
A0
102
}
330
A0
100
DictionaryVariables
280
     0
  1
1
  0
DICTIONARYVAR
  5
3921
102
{ACAD_REACTORS
330
A0
102
}
330
A0
100
DictionaryVariables
280
     0
  1

  0
DICTIONARY
  5
3928
330
71
100
AcDbDictionary
280
     1
281
     1
  3
ACAD_XREC_ROUNDTRIP
360
3929
  0
DICTIONARY
  5
392A
330
72
100
AcDbDictionary
280
     1
281
     1
  3
ACAD_XREC_ROUNDTRIP
360
392B
  0
XRECORD
  5
3929
102
{ACAD_REACTORS
330
3928
102
}
330
3928
100
AcDbXrecord
280
     1
102
SHADEPLOT
 70
     0
102
SHADEPLOTRESLEVEL
 70
     2
102
SHADEPLOTCUSTOMDPI
 70
   300
  0
XRECORD
  5
392B
102
{ACAD_REACTORS
330
392A
102
}
330
392A
100
AcDbXrecord
280
     1
102
SHADEPLOT
 70
     0
102
SHADEPLOTRESLEVEL
 70
     2
102
SHADEPLOTCUSTOMDPI
 70
   300
  0
ENDSEC
  0
EOF
