  0
SECTION
  2
HEADER
  9
$ACADVER
  1
AC1015
  9
$ACADMAINTVER
 70
    20
  9
$DWGCODEPAGE
  3
ANSI_932
  9
$INSBASE
 10
0.0
 20
0.0
 30
0.0
  9
$EXTMIN
 10
148.6162821516373
 20
-93.35404855051093
 30
0.0
  9
$EXTMAX
 10
8181.593311444498
 20
5632.042442328446
 30
0.0
  9
$LIMMIN
 10
0.0
 20
0.0
  9
$LIMMAX
 10
8400.0
 20
5940.0
  9
$ORTHOMODE
 70
     1
  9
$REGENMODE
 70
     1
  9
$FILLMODE
 70
     1
  9
$QTEXTMODE
 70
     0
  9
$MIRRTEXT
 70
     1
  9
$LTSCALE
 40
200.0
  9
$ATTMODE
 70
     1
  9
$TEXTSIZE
 40
50.0
  9
$TRACEWID
 40
0.05
  9
$TEXTSTYLE
  7
STANDARD
  9
$CLAYER
  8
SUNPOU
  9
$CELTYPE
  6
BYLAYER
  9
$CECOLOR
 62
   256
  9
$CELTSCALE
 40
1.0
  9
$DISPSILH
 70
     0
  9
$DIMSCALE
 40
20.0
  9
$DIMASZ
 40
1.5
  9
$DIMEXO
 40
1.5
  9
$DIMDLI
 40
7.0
  9
$DIMRND
 40
0.0
  9
$DIMDLE
 40
0.0
  9
$DIMEXE
 40
0.5
  9
$DIMTP
 40
0.0
  9
$DIMTM
 40
0.0
  9
$DIMTXT
 40
2.5
  9
$DIMCEN
 40
0.0
  9
$DIMTSZ
 40
0.0
  9
$DIMTOL
 70
     0
  9
$DIMLIM
 70
     0
  9
$DIMTIH
 70
     0
  9
$DIMTOH
 70
     0
  9
$DIMSE1
 70
     0
  9
$DIMSE2
 70
     0
  9
$DIMTAD
 70
     1
  9
$DIMZIN
 70
     8
  9
$DIMBLK
  1

  9
$DIMASO
 70
     1
  9
$DIMSHO
 70
     1
  9
$DIMPOST
  1

  9
$DIMAPOST
  1

  9
$DIMALT
 70
     0
  9
$DIMALTD
 70
     2
  9
$DIMALTF
 40
25.4
  9
$DIMLFAC
 40
1.0
  9
$DIMTOFL
 70
     0
  9
$DIMTVP
 40
1.0
  9
$DIMTIX
 70
     1
  9
$DIMSOXD
 70
     0
  9
$DIMSAH
 70
     0
  9
$DIMBLK1
  1

  9
$DIMBLK2
  1

  9
$DIMSTYLE
  2
STANDARD
  9
$DIMCLRD
 70
     0
  9
$DIMCLRE
 70
     0
  9
$DIMCLRT
 70
     0
  9
$DIMTFAC
 40
1.0
  9
$DIMGAP
 40
0.7
  9
$DIMJUST
 70
     0
  9
$DIMSD1
 70
     0
  9
$DIMSD2
 70
     0
  9
$DIMTOLJ
 70
     1
  9
$DIMTZIN
 70
     8
  9
$DIMALTZ
 70
     8
  9
$DIMALTTZ
 70
     8
  9
$DIMUPT
 70
     0
  9
$DIMDEC
 70
     0
  9
$DIMTDEC
 70
     0
  9
$DIMALTU
 70
     2
  9
$DIMALTTD
 70
     2
  9
$DIMTXSTY
  7
STANDARD
  9
$DIMAUNIT
 70
     0
  9
$DIMADEC
 70
     4
  9
$DIMALTRND
 40
0.0
  9
$DIMAZIN
 70
     0
  9
$DIMDSEP
 70
    46
  9
$DIMATFIT
 70
     3
  9
$DIMFRAC
 70
     0
  9
$DIMLDRBLK
  1

  9
$DIMLUNIT
 70
     2
  9
$DIMLWD
 70
    -2
  9
$DIMLWE
 70
    -2
  9
$DIMTMOVE
 70
     2
  9
$LUNITS
 70
     2
  9
$LUPREC
 70
     4
  9
$SKETCHINC
 40
0.1
  9
$FILLETRAD
 40
0.0
  9
$AUNITS
 70
     0
  9
$AUPREC
 70
     6
  9
$MENU
  1
acad
  9
$ELEVATION
 40
0.0
  9
$PELEVATION
 40
0.0
  9
$THICKNESS
 40
0.0
  9
$LIMCHECK
 70
     0
  9
$CHAMFERA
 40
0.0
  9
$CHAMFERB
 40
0.0
  9
$CHAMFERC
 40
0.0
  9
$CHAMFERD
 40
0.0
  9
$SKPOLY
 70
     0
  9
$TDCREATE
 40
2450014.656655093
  9
$TDUCREATE
 40
2450014.281655093
  9
$TDUPDATE
 40
2456189.562866389
  9
$TDUUPDATE
 40
2456189.187866389
  9
$TDINDWG
 40
0.1029079167
  9
$TDUSRTIMER
 40
0.1029079167
  9
$USRTIMER
 70
     1
  9
$ANGBASE
 50
0.0
  9
$ANGDIR
 70
     0
  9
$PDMODE
 70
     0
  9
$PDSIZE
 40
0.0
  9
$PLINEWID
 40
0.0
  9
$SPLFRAME
 70
     0
  9
$SPLINETYPE
 70
     6
  9
$SPLINESEGS
 70
     8
  9
$HANDSEED
  5
2FE6
  9
$SURFTAB1
 70
     6
  9
$SURFTAB2
 70
     6
  9
$SURFTYPE
 70
     6
  9
$SURFU
 70
     6
  9
$SURFV
 70
     6
  9
$UCSBASE
  2

  9
$UCSNAME
  2

  9
$UCSORG
 10
0.0
 20
0.0
 30
0.0
  9
$UCSXDIR
 10
1.0
 20
0.0
 30
0.0
  9
$UCSYDIR
 10
0.0
 20
1.0
 30
0.0
  9
$UCSORTHOREF
  2

  9
$UCSORTHOVIEW
 70
     0
  9
$UCSORGTOP
 10
0.0
 20
0.0
 30
0.0
  9
$UCSORGBOTTOM
 10
0.0
 20
0.0
 30
0.0
  9
$UCSORGLEFT
 10
0.0
 20
0.0
 30
0.0
  9
$UCSORGRIGHT
 10
0.0
 20
0.0
 30
0.0
  9
$UCSORGFRONT
 10
0.0
 20
0.0
 30
0.0
  9
$UCSORGBACK
 10
0.0
 20
0.0
 30
0.0
  9
$PUCSBASE
  2

  9
$PUCSNAME
  2

  9
$PUCSORG
 10
0.0
 20
0.0
 30
0.0
  9
$PUCSXDIR
 10
1.0
 20
0.0
 30
0.0
  9
$PUCSYDIR
 10
0.0
 20
1.0
 30
0.0
  9
$PUCSORTHOREF
  2

  9
$PUCSORTHOVIEW
 70
     0
  9
$PUCSORGTOP
 10
0.0
 20
0.0
 30
0.0
  9
$PUCSORGBOTTOM
 10
0.0
 20
0.0
 30
0.0
  9
$PUCSORGLEFT
 10
0.0
 20
0.0
 30
0.0
  9
$PUCSORGRIGHT
 10
0.0
 20
0.0
 30
0.0
  9
$PUCSORGFRONT
 10
0.0
 20
0.0
 30
0.0
  9
$PUCSORGBACK
 10
0.0
 20
0.0
 30
0.0
  9
$USERI1
 70
     0
  9
$USERI2
 70
     0
  9
$USERI3
 70
     0
  9
$USERI4
 70
     0
  9
$USERI5
 70
     0
  9
$USERR1
 40
0.0
  9
$USERR2
 40
0.0
  9
$USERR3
 40
0.0
  9
$USERR4
 40
0.0
  9
$USERR5
 40
0.0
  9
$WORLDVIEW
 70
     1
  9
$SHADEDGE
 70
     3
  9
$SHADEDIF
 70
    70
  9
$TILEMODE
 70
     1
  9
$MAXACTVP
 70
    48
  9
$PINSBASE
 10
0.0
 20
0.0
 30
0.0
  9
$PLIMCHECK
 70
     0
  9
$PEXTMIN
 10
1.000000000000000E+20
 20
1.000000000000000E+20
 30
1.000000000000000E+20
  9
$PEXTMAX
 10
-1.000000000000000E+20
 20
-1.000000000000000E+20
 30
-1.000000000000000E+20
  9
$PLIMMIN
 10
0.0
 20
0.0
  9
$PLIMMAX
 10
12.0
 20
9.0
  9
$UNITMODE
 70
     0
  9
$VISRETAIN
 70
     0
  9
$PLINEGEN
 70
     0
  9
$PSLTSCALE
 70
     0
  9
$TREEDEPTH
 70
  3020
  9
$CMLSTYLE
  2
STANDARD
  9
$CMLJUST
 70
     0
  9
$CMLSCALE
 40
1.0
  9
$PROXYGRAPHICS
 70
     1
  9
$MEASUREMENT
 70
     0
  9
$CELWEIGHT
370
    -1
  9
$ENDCAPS
280
     0
  9
$JOINSTYLE
280
     0
  9
$LWDISPLAY
290
     0
  9
$INSUNITS
 70
     0
  9
$HYPERLINKBASE
  1

  9
$STYLESHEET
  1
acad.ctb
  9
$XEDIT
290
     1
  9
$CEPSNTYPE
380
     0
  9
$PSTYLEMODE
290
     1
  9
$FINGERPRINTGUID
  2
{F67648C0-8D40-11D8-A1CD-0050FC45377D}
  9
$VERSIONGUID
  2
{9425C234-33DF-48DA-B731-DCE313A3D772}
  9
$EXTNAMES
290
     1
  9
$PSVPSCALE
 40
0.0
  9
$OLESTARTUP
290
     0
  0
ENDSEC
  0
SECTION
  2
CLASSES
  0
CLASS
  1
ACDBDICTIONARYWDFLT
  2
AcDbDictionaryWithDefault
  3
ObjectDBX Classes
 90
        0
280
     0
281
     0
  0
CLASS
  1
ACDBPLACEHOLDER
  2
AcDbPlaceHolder
  3
ObjectDBX Classes
 90
        0
280
     0
281
     0
  0
CLASS
  1
LAYOUT
  2
AcDbLayout
  3
ObjectDBX Classes
 90
        0
280
     0
281
     0
  0
CLASS
  1
DICTIONARYVAR
  2
AcDbDictionaryVar
  3
ObjectDBX Classes
 90
        0
280
     0
281
     0
  0
CLASS
  1
TABLESTYLE
  2
AcDbTableStyle
  3
ObjectDBX Classes
 90
     2047
280
     0
281
     0
  0
ENDSEC
  0
SECTION
  2
TABLES
  0
TABLE
  2
VPORT
  5
8
330
0
100
AcDbSymbolTable
 70
     2
  0
VPORT
  5
2FE0
330
8
100
AcDbSymbolTableRecord
100
AcDbViewportTableRecord
  2
*Active
 70
     0
 10
0.0
 20
0.0
 11
1.0
 21
1.0
 12
4251.026552865748
 22
3122.404896353719
 13
0.0
 23
0.0
 14
20.0
 24
20.0
 15
200.0
 25
200.0
 16
0.0
 26
0.0
 36
1.0
 17
0.0
 27
0.0
 37
0.0
 40
7080.267483174175
 41
1.507024265644955
 42
50.0
 43
0.0
 44
0.0
 50
0.0
 51
0.0
 71
     0
 72
   100
 73
     1
 74
     1
 75
     0
 76
     0
 77
     0
 78
     0
281
     0
 65
     1
110
0.0
120
0.0
130
0.0
111
1.0
121
0.0
131
0.0
112
0.0
122
1.0
132
0.0
 79
     0
146
0.0
  0
ENDTAB
  0
TABLE
  2
LTYPE
  5
5
330
0
100
AcDbSymbolTable
 70
     5
  0
LTYPE
  5
11
330
5
100
AcDbSymbolTableRecord
100
AcDbLinetypeTableRecord
  2
BYBLOCK
 70
     0
  3

 72
    65
 73
     0
 40
0.0
  0
LTYPE
  5
12
330
5
100
AcDbSymbolTableRecord
100
AcDbLinetypeTableRecord
  2
BYLAYER
 70
     0
  3

 72
    65
 73
     0
 40
0.0
  0
LTYPE
  5
13
330
5
100
AcDbSymbolTableRecord
100
AcDbLinetypeTableRecord
  2
CONTINUOUS
 70
     0
  3
Solid line
 72
    65
 73
     0
 40
0.0
  0
LTYPE
  5
1E
330
5
100
AcDbSymbolTableRecord
100
AcDbLinetypeTableRecord
  2
HIDDEN
 70
     0
  3
_ _ _ _ _ _ _ _ _ _ _ _ _ _ _ _ _ _ _ _ _ _ _
 72
    65
 73
     2
 40
0.375
 49
0.25
 74
     0
 49
-0.125
 74
     0
  0
LTYPE
  5
1F
330
5
100
AcDbSymbolTableRecord
100
AcDbLinetypeTableRecord
  2
CENTER
 70
     0
  3
____ _ ____ _ ____ _ ____ _ ____ _ ____ _ ____
 72
    65
 73
     4
 40
2.0
 49
1.25
 74
     0
 49
-0.25
 74
     0
 49
0.25
 74
     0
 49
-0.25
 74
     0
  0
LTYPE
  5
20
330
5
100
AcDbSymbolTableRecord
100
AcDbLinetypeTableRecord
  2
PHANTOM
 70
     0
  3
_____ _ _ _____ _ _ _____ _ _ _____ _ _ ____
 72
    65
 73
     6
 40
2.5
 49
1.25
 74
     0
 49
-0.25
 74
     0
 49
0.25
 74
     0
 49
-0.25
 74
     0
 49
0.25
 74
     0
 49
-0.25
 74
     0
  0
LTYPE
  5
AA6
330
5
100
AcDbSymbolTableRecord
100
AcDbLinetypeTableRecord
  2
DASHED2
 70
     0
  3
Dashed (.5x) _ _ _ _ _ _ _ _ _ _ _ _ _ _ _ _ _
 72
    65
 73
     2
 40
0.375
 49
0.25
 74
     0
 49
-0.125
 74
     0
  0
ENDTAB
  0
TABLE
  2
LAYER
  5
2
330
0
100
AcDbSymbolTable
 70
    10
  0
LAYER
  5
E
330
2
100
AcDbSymbolTableRecord
100
AcDbLayerTableRecord
  2
0
 70
     0
 62
     7
  6
CONTINUOUS
370
    -3
390
6E
  0
LAYER
  5
23
330
2
100
AcDbSymbolTableRecord
100
AcDbLayerTableRecord
  2
SUNPOU
 70
     0
 62
     1
  6
CONTINUOUS
370
    -3
390
6E
  0
LAYER
  5
24
330
2
100
AcDbSymbolTableRecord
100
AcDbLayerTableRecord
  2
HAIKIN
 70
     0
 62
     2
  6
CONTINUOUS
370
    -3
390
6E
  0
LAYER
  5
25
330
2
100
AcDbSymbolTableRecord
100
AcDbLayerTableRecord
  2
SEIHIN
 70
     0
 62
     3
  6
CONTINUOUS
370
    -3
390
6E
  0
LAYER
  5
26
330
2
100
AcDbSymbolTableRecord
100
AcDbLayerTableRecord
  2
HASEN
 70
     0
 62
     4
  6
HIDDEN
370
    -3
390
6E
  0
LAYER
  5
27
330
2
100
AcDbSymbolTableRecord
100
AcDbLayerTableRecord
  2
1HASEN
 70
     0
 62
     5
  6
CENTER
370
    -3
390
6E
  0
LAYER
  5
28
330
2
100
AcDbSymbolTableRecord
100
AcDbLayerTableRecord
  2
2HASEN
 70
     0
 62
     6
  6
PHANTOM
370
    -3
390
6E
  0
LAYER
  5
29
330
2
100
AcDbSymbolTableRecord
100
AcDbLayerTableRecord
  2
HOJO
 70
     0
 62
     7
  6
CONTINUOUS
370
    -3
390
6E
  0
LAYER
  5
2A
330
2
100
AcDbSymbolTableRecord
100
AcDbLayerTableRecord
  2
TEN
 70
     0
 62
     7
  6
CONTINUOUS
370
    -3
390
6E
  0
LAYER
  5
A7
330
2
100
AcDbSymbolTableRecord
100
AcDbLayerTableRecord
  2
Defpoints
 70
     0
 62
     7
  6
CONTINUOUS
290
     0
370
    -3
390
6E
  0
ENDTAB
  0
TABLE
  2
STYLE
  5
3
330
0
100
AcDbSymbolTable
 70
     1
  0
STYLE
  5
F
330
3
100
AcDbSymbolTableRecord
100
AcDbTextStyleTableRecord
  2
STANDARD
 70
     0
 40
0.0
 41
0.8
 50
0.0
 71
     0
 42
50.0
  3
TXT.shx
  4
BIGFONT.shx
  0
ENDTAB
  0
TABLE
  2
VIEW
  5
6
330
0
100
AcDbSymbolTable
 70
     0
  0
ENDTAB
  0
TABLE
  2
UCS
  5
7
330
0
100
AcDbSymbolTable
 70
     0
  0
ENDTAB
  0
TABLE
  2
APPID
  5
9
330
0
100
AcDbSymbolTable
 70
     1
  0
APPID
  5
10
330
9
100
AcDbSymbolTableRecord
100
AcDbRegAppTableRecord
  2
ACAD
 70
     0
  0
ENDTAB
  0
TABLE
  2
DIMSTYLE
  5
A
330
0
100
AcDbSymbolTable
 70
     1
100
AcDbDimStyleTable
 71
     0
  0
DIMSTYLE
105
61
102
{ACAD_REACTORS
330
2B7
330
2D7
330
2ED
330
316
330
323
330
387
330
390
330
386
330
380
330
37F
330
45E
330
477
330
474
330
478
330
47A
330
9C4
330
9DE
330
9EB
330
9F8
330
A05
330
A13
330
A20
330
A2E
330
A3F
330
120F
330
1210
330
120E
330
120D
330
12CE
330
12CD
330
12CB
330
12CC
330
139E
330
1FCD
330
1FCC
330
1FCE
330
1FCF
330
203E
330
203C
330
203B
330
203D
330
215D
102
}
330
A
100
AcDbSymbolTableRecord
100
AcDbDimStyleTableRecord
  2
STANDARD
 70
     0
340
F
  0
ENDTAB
  0
TABLE
  2
BLOCK_RECORD
  5
1
330
0
100
AcDbSymbolTable
 70
    67
  0
BLOCK_RECORD
  5
17
102
{ACAD_XDICTIONARY
360
9C
102
}
330
1
100
AcDbSymbolTableRecord
100
AcDbBlockTableRecord
  2
*MODEL_SPACE
340
71
  0
BLOCK_RECORD
  5
14
102
{ACAD_XDICTIONARY
360
9A
102
}
330
1
100
AcDbSymbolTableRecord
100
AcDbBlockTableRecord
  2
*PAPER_SPACE
340
72
  0
BLOCK_RECORD
  5
1C
330
1
100
AcDbSymbolTableRecord
100
AcDbBlockTableRecord
  2
BORDER
340
0
  0
BLOCK_RECORD
  5
1D
330
1
100
AcDbSymbolTableRecord
100
AcDbBlockTableRecord
  2
SA3
340
0
  0
BLOCK_RECORD
  5
2B8
330
1
100
AcDbSymbolTableRecord
100
AcDbBlockTableRecord
  2
*D2
340
0
  0
BLOCK_RECORD
  5
2D8
330
1
100
AcDbSymbolTableRecord
100
AcDbBlockTableRecord
  2
*D3
340
0
  0
BLOCK_RECORD
  5
2EE
330
1
100
AcDbSymbolTableRecord
100
AcDbBlockTableRecord
  2
*D4
340
0
  0
BLOCK_RECORD
  5
317
330
1
100
AcDbSymbolTableRecord
100
AcDbBlockTableRecord
  2
*D5
340
0
  0
BLOCK_RECORD
  5
324
330
1
100
AcDbSymbolTableRecord
100
AcDbBlockTableRecord
  2
*D6
340
0
  0
BLOCK_RECORD
  5
395
330
1
100
AcDbSymbolTableRecord
100
AcDbBlockTableRecord
  2
*D9
340
0
  0
BLOCK_RECORD
  5
3A1
330
1
100
AcDbSymbolTableRecord
100
AcDbBlockTableRecord
  2
*D10
340
0
  0
BLOCK_RECORD
  5
3AD
330
1
100
AcDbSymbolTableRecord
100
AcDbBlockTableRecord
  2
*D11
340
0
  0
BLOCK_RECORD
  5
3B9
330
1
100
AcDbSymbolTableRecord
100
AcDbBlockTableRecord
  2
*D12
340
0
  0
BLOCK_RECORD
  5
3C5
330
1
100
AcDbSymbolTableRecord
100
AcDbBlockTableRecord
  2
*D13
340
0
  0
BLOCK_RECORD
  5
496
330
1
100
AcDbSymbolTableRecord
100
AcDbBlockTableRecord
  2
*D19
340
0
  0
BLOCK_RECORD
  5
4A3
330
1
100
AcDbSymbolTableRecord
100
AcDbBlockTableRecord
  2
*D20
340
0
  0
BLOCK_RECORD
  5
4AF
330
1
100
AcDbSymbolTableRecord
100
AcDbBlockTableRecord
  2
*D21
340
0
  0
BLOCK_RECORD
  5
4BB
330
1
100
AcDbSymbolTableRecord
100
AcDbBlockTableRecord
  2
*D22
340
0
  0
BLOCK_RECORD
  5
4C7
330
1
100
AcDbSymbolTableRecord
100
AcDbBlockTableRecord
  2
*D23
340
0
  0
BLOCK_RECORD
  5
9C5
330
1
100
AcDbSymbolTableRecord
100
AcDbBlockTableRecord
  2
*D26
340
0
  0
BLOCK_RECORD
  5
9DF
330
1
100
AcDbSymbolTableRecord
100
AcDbBlockTableRecord
  2
*D27
340
0
  0
BLOCK_RECORD
  5
9EC
330
1
100
AcDbSymbolTableRecord
100
AcDbBlockTableRecord
  2
*D28
340
0
  0
BLOCK_RECORD
  5
9F9
330
1
100
AcDbSymbolTableRecord
100
AcDbBlockTableRecord
  2
*D29
340
0
  0
BLOCK_RECORD
  5
A06
330
1
100
AcDbSymbolTableRecord
100
AcDbBlockTableRecord
  2
*D30
340
0
  0
BLOCK_RECORD
  5
A14
330
1
100
AcDbSymbolTableRecord
100
AcDbBlockTableRecord
  2
*D31
340
0
  0
BLOCK_RECORD
  5
A21
330
1
100
AcDbSymbolTableRecord
100
AcDbBlockTableRecord
  2
*D32
340
0
  0
BLOCK_RECORD
  5
A2F
330
1
100
AcDbSymbolTableRecord
100
AcDbBlockTableRecord
  2
*D33
340
0
  0
BLOCK_RECORD
  5
A40
330
1
100
AcDbSymbolTableRecord
100
AcDbBlockTableRecord
  2
*D34
340
0
  0
BLOCK_RECORD
  5
1214
330
1
100
AcDbSymbolTableRecord
100
AcDbBlockTableRecord
  2
*D39
340
0
  0
BLOCK_RECORD
  5
1220
330
1
100
AcDbSymbolTableRecord
100
AcDbBlockTableRecord
  2
*D40
340
0
  0
BLOCK_RECORD
  5
122C
330
1
100
AcDbSymbolTableRecord
100
AcDbBlockTableRecord
  2
*D41
340
0
  0
BLOCK_RECORD
  5
1238
330
1
100
AcDbSymbolTableRecord
100
AcDbBlockTableRecord
  2
*D42
340
0
  0
BLOCK_RECORD
  5
12CF
330
1
100
AcDbSymbolTableRecord
100
AcDbBlockTableRecord
  2
*D44
340
0
  0
BLOCK_RECORD
  5
12DC
330
1
100
AcDbSymbolTableRecord
100
AcDbBlockTableRecord
  2
*D45
340
0
  0
BLOCK_RECORD
  5
12E8
330
1
100
AcDbSymbolTableRecord
100
AcDbBlockTableRecord
  2
*D46
340
0
  0
BLOCK_RECORD
  5
12F5
330
1
100
AcDbSymbolTableRecord
100
AcDbBlockTableRecord
  2
*D47
340
0
  0
BLOCK_RECORD
  5
139F
330
1
100
AcDbSymbolTableRecord
100
AcDbBlockTableRecord
  2
*D51
340
0
  0
BLOCK_RECORD
  5
1FD3
330
1
100
AcDbSymbolTableRecord
100
AcDbBlockTableRecord
  2
*D52
340
0
  0
BLOCK_RECORD
  5
1FDF
330
1
100
AcDbSymbolTableRecord
100
AcDbBlockTableRecord
  2
*D53
340
0
  0
BLOCK_RECORD
  5
1FEB
330
1
100
AcDbSymbolTableRecord
100
AcDbBlockTableRecord
  2
*D54
340
0
  0
BLOCK_RECORD
  5
1FF7
330
1
100
AcDbSymbolTableRecord
100
AcDbBlockTableRecord
  2
*D55
340
0
  0
BLOCK_RECORD
  5
203F
330
1
100
AcDbSymbolTableRecord
100
AcDbBlockTableRecord
  2
*D56
340
0
  0
BLOCK_RECORD
  5
204C
330
1
100
AcDbSymbolTableRecord
100
AcDbBlockTableRecord
  2
*D57
340
0
  0
BLOCK_RECORD
  5
2058
330
1
100
AcDbSymbolTableRecord
100
AcDbBlockTableRecord
  2
*D58
340
0
  0
BLOCK_RECORD
  5
2064
330
1
100
AcDbSymbolTableRecord
100
AcDbBlockTableRecord
  2
*D59
340
0
  0
BLOCK_RECORD
  5
215E
330
1
100
AcDbSymbolTableRecord
100
AcDbBlockTableRecord
  2
*D63
340
0
  0
ENDTAB
  0
ENDSEC
  0
SECTION
  2
BLOCKS
  0
BLOCK
  5
2D
330
17
100
AcDbEntity
  8
0
100
AcDbBlockBegin
  2
*MODEL_SPACE
 70
     0
 10
0.0
 20
0.0
 30
0.0
  3
*MODEL_SPACE
  1

  0
ENDBLK
  5
2E
330
17
100
AcDbEntity
  8
0
100
AcDbBlockEnd
  0
BLOCK
  5
2B
330
14
100
AcDbEntity
 67
     1
  8
0
100
AcDbBlockBegin
  2
*PAPER_SPACE
 70
     0
 10
0.0
 20
0.0
 30
0.0
  3
*PAPER_SPACE
  1

  0
ENDBLK
  5
2C
330
14
100
AcDbEntity
 67
     1
  8
0
100
AcDbBlockEnd
  0
BLOCK
  5
2F
330
1C
100
AcDbEntity
  8
0
100
AcDbBlockBegin
  2
BORDER
 70
     0
 10
0.0
 20
0.0
 30
0.0
  3
BORDER
  1

  0
LINE
  5
30
330
1C
100
AcDbEntity
  8
0
100
AcDbLine
 10
0.0
 20
0.0
 30
0.0
 11
1.00000000000004
 21
0.0
 31
0.0
  0
LINE
  5
31
330
1C
100
AcDbEntity
  8
0
100
AcDbLine
 10
1.00000000000004
 20
0.0
 30
0.0
 11
1.00000000000004
 21
1.00000000000004
 31
0.0
  0
LINE
  5
32
330
1C
100
AcDbEntity
  8
0
100
AcDbLine
 10
1.00000000000004
 20
1.00000000000004
 30
0.0
 11
0.0
 21
1.00000000000004
 31
0.0
  0
LINE
  5
33
330
1C
100
AcDbEntity
  8
0
100
AcDbLine
 10
0.0
 20
1.00000000000004
 30
0.0
 11
0.0
 21
0.0
 31
0.0
  0
ENDBLK
  5
34
330
1C
100
AcDbEntity
  8
0
100
AcDbBlockEnd
  0
BLOCK
  5
35
330
1D
100
AcDbEntity
  8
HAIKIN
100
AcDbBlockBegin
  2
SA3
 70
     0
 10
0.0
 20
0.0
 30
0.0
  3
SA3
  1

  0
TEXT
  5
36
330
1D
100
AcDbEntity
  8
SUNPOU
100
AcDbText
 10
340.0
 20
0.0
 30
0.0
 40
2.5
  1
新和コンクリート工業株式会社
100
AcDbText
  0
TEXT
  5
39
330
1D
100
AcDbEntity
  8
SUNPOU
100
AcDbText
 10
361.4166666666667
 20
6.25
 30
0.0
 40
2.5
  1
製図
 72
     4
 11
364.0
 21
7.5
 31
0.0
100
AcDbText
  0
TEXT
  5
3A
330
1D
100
AcDbEntity
  8
SUNPOU
100
AcDbText
 10
361.3333333333333
 20
11.25
 30
0.0
 40
2.5
  1
設計
 72
     4
 11
364.0
 21
12.5
 31
0.0
100
AcDbText
  0
TEXT
  5
3B
330
1D
100
AcDbEntity
  8
SUNPOU
100
AcDbText
 10
339.0833333333333
 20
6.250000000000014
 30
0.0
 40
2.5
  1
認
 72
     4
 11
340.25
 21
7.500000000000014
 31
0.0
100
AcDbText
  0
TEXT
  5
3C
330
1D
100
AcDbEntity
  8
SUNPOU
100
AcDbText
 10
339.0833333333333
 20
11.33333333333336
 30
0.0
 40
2.5
  1
承
 72
     4
 11
340.25
 21
12.50000000000003
 31
0.0
100
AcDbText
  0
TEXT
  5
3D
330
1D
100
AcDbEntity
  8
SUNPOU
100
AcDbText
 10
312.75
 20
11.75000000000001
 30
0.0
 40
2.5
  1
図　面　番　号
 72
     4
 11
323.0
 21
13.00000000000001
 31
0.0
100
AcDbText
  0
TEXT
  5
3E
330
1D
100
AcDbEntity
  8
SUNPOU
100
AcDbText
 10
362.0
 20
17.0
 30
0.0
 40
2.5
  1
１／
100
AcDbText
  0
TEXT
  5
3F
330
1D
100
AcDbEntity
  8
SUNPOU
100
AcDbText
 10
347.3333333333333
 20
16.25000000000001
 30
0.0
 40
2.5
  1
縮　　尺
 72
     4
 11
353.0
 21
17.50000000000001
 31
0.0
100
AcDbText
  0
TEXT
  5
40
330
1D
100
AcDbEntity
  8
SUNPOU
100
AcDbText
 10
347.3333333333333
 20
21.25
 30
0.0
 40
2.5
  1
鉄 筋 量
 72
     4
 11
353.0
 21
22.5
 31
0.0
100
AcDbText
  0
TEXT
  5
41
330
1D
100
AcDbEntity
  8
SUNPOU
100
AcDbText
 10
347.3333333333333
 20
26.25
 30
0.0
 40
2.5
  1
製 造 数
 72
     4
 11
353.0
 21
27.5
 31
0.0
100
AcDbText
  0
TEXT
  5
42
330
1D
100
AcDbEntity
  8
SUNPOU
100
AcDbText
 10
377.0
 20
21.0
 30
0.0
 40
2.5
  1
ｋｇ
 72
     2
 11
382.0
 21
21.0
 31
0.0
100
AcDbText
  0
TEXT
  5
43
330
1D
100
AcDbEntity
  8
SUNPOU
100
AcDbText
 10
339.5
 20
21.0
 30
0.0
 40
2.5
  1
ｋｇ
 72
     2
 11
344.5
 21
21.0
 31
0.0
100
AcDbText
  0
TEXT
  5
44
330
1D
100
AcDbEntity
  8
SUNPOU
100
AcDbText
 10
310.0
 20
16.25000000000001
 30
0.0
 40
2.5
  1
年 月 日
 72
     4
 11
315.5
 21
17.50000000000001
 31
0.0
100
AcDbText
  0
TEXT
  5
45
330
1D
100
AcDbEntity
  8
SUNPOU
100
AcDbText
 10
309.8333333333333
 20
21.25
 30
0.0
 40
2.5
  1
製品質量
 72
     4
 11
315.5
 21
22.5
 31
0.0
100
AcDbText
  0
TEXT
  5
46
330
1D
100
AcDbEntity
  8
SUNPOU
100
AcDbText
 10
309.9166666666667
 20
26.25
 30
0.0
 40
2.5
  1
業 者 名
 72
     4
 11
315.5
 21
27.5
 31
0.0
100
AcDbText
  0
TEXT
  5
47
330
1D
100
AcDbEntity
  8
SUNPOU
100
AcDbText
 10
309.8333333333333
 20
32.5
 30
0.0
 40
2.5
  1
名　　称
 72
     4
 11
315.5
 21
33.75
 31
0.0
100
AcDbText
  0
LINE
  5
48
330
1D
100
AcDbEntity
  8
SUNPOU
100
AcDbLine
 10
338.0
 20
11.00000000000001
 30
0.0
 11
308.0
 21
11.00000000000001
 31
0.0
  0
LINE
  5
49
330
1D
100
AcDbEntity
  8
SUNPOU
100
AcDbLine
 10
367.5
 20
4.999999999999985
 30
0.0
 11
367.5
 21
14.99999999999999
 31
0.0
  0
LINE
  5
4A
330
1D
100
AcDbEntity
  8
SUNPOU
100
AcDbLine
 10
360.5
 20
4.999999999999985
 30
0.0
 11
360.5
 21
14.99999999999999
 31
0.0
  0
LINE
  5
4B
330
1D
100
AcDbEntity
  8
SUNPOU
100
AcDbLine
 10
342.5
 20
4.999999999999994
 30
0.0
 11
342.5
 21
15.0
 31
0.0
  0
LINE
  5
4C
330
1D
100
AcDbEntity
  8
SUNPOU
100
AcDbLine
 10
338.0
 20
4.999999999999994
 30
0.0
 11
338.0
 21
15.0
 31
0.0
  0
LINE
  5
4D
330
1D
100
AcDbEntity
  8
SUNPOU
100
AcDbLine
 10
323.0
 20
15.00000000000001
 30
0.0
 11
323.0
 21
37.5
 31
0.0
  0
LINE
  5
4E
330
1D
100
AcDbEntity
  8
SUNPOU
100
AcDbLine
 10
360.5
 20
15.00000000000001
 30
0.0
 11
360.5
 21
30.0
 31
0.0
  0
LINE
  5
4F
330
1D
100
AcDbEntity
  8
SUNPOU
100
AcDbLine
 10
345.5
 20
15.00000000000001
 30
0.0
 11
345.5
 21
30.0
 31
0.0
  0
LINE
  5
50
330
1D
100
AcDbEntity
  8
SUNPOU
100
AcDbLine
 10
383.0
 20
30.0
 30
0.0
 11
308.0
 21
30.0
 31
0.0
  0
LINE
  5
51
330
1D
100
AcDbEntity
  8
SUNPOU
100
AcDbLine
 10
383.0
 20
25.0
 30
0.0
 11
308.0
 21
25.0
 31
0.0
  0
LINE
  5
52
330
1D
100
AcDbEntity
  8
SUNPOU
100
AcDbLine
 10
383.0
 20
20.0
 30
0.0
 11
308.0
 21
20.0
 31
0.0
  0
LINE
  5
53
330
1D
100
AcDbEntity
  8
SUNPOU
100
AcDbLine
 10
383.0
 20
14.99999999999999
 30
0.0
 11
308.0
 21
15.00000000000003
 31
0.0
  0
LINE
  5
54
330
1D
100
AcDbEntity
  8
HAIKIN
100
AcDbLine
 10
308.0
 20
37.5
 30
0.0
 11
383.0
 21
37.5
 31
0.0
  0
LINE
  5
55
330
1D
100
AcDbEntity
  8
HAIKIN
100
AcDbLine
 10
308.0
 20
5.000000000000008
 30
0.0
 11
308.0
 21
37.5
 31
0.0
  0
LINE
  5
56
330
1D
100
AcDbEntity
  8
SUNPOU
100
AcDbLine
 10
0.000000000000016
 20
277.0
 30
0.0
 11
0.000000000000016
 21
272.0
 31
0.0
  0
LINE
  5
57
330
1D
100
AcDbEntity
  8
SUNPOU
100
AcDbLine
 10
25.00000000000002
 20
277.0
 30
0.0
 11
0.000000000000016
 21
277.0
 31
0.0
  0
LINE
  5
58
330
1D
100
AcDbEntity
  8
SUNPOU
100
AcDbLine
 10
25.00000000000002
 20
272.0
 30
0.0
 11
25.00000000000002
 21
277.0
 31
0.0
  0
LINE
  5
59
330
1D
100
AcDbEntity
  8
HAIKIN
100
AcDbLine
 10
0.0000000000000004
 20
5.0
 30
0.0
 11
383.0
 21
5.0
 31
0.0
  0
LINE
  5
5A
330
1D
100
AcDbEntity
  8
HAIKIN
100
AcDbLine
 10
0.0000000000000158
 20
272.0
 30
0.0
 11
383.0
 21
272.0
 31
0.0
  0
LINE
  5
5B
330
1D
100
AcDbEntity
  8
HAIKIN
100
AcDbLine
 10
383.0
 20
272.0
 30
0.0
 11
383.0
 21
5.0
 31
0.0
  0
TEXT
  5
5C
330
1D
100
AcDbEntity
  8
SUNPOU
100
AcDbText
 10
3.700000000000017
 20
273.0
 30
0.0
 40
3.0
  1
Ｈ－２－共
 72
     4
 11
12.50000000000001
 21
274.5
 31
0.0
100
AcDbText
  0
LINE
  5
5D
330
1D
100
AcDbEntity
  8
HAIKIN
100
AcDbLine
 10
0.0000000000000004
 20
5.0
 30
0.0
 11
0.0000000000000158
 21
272.0
 31
0.0
  0
ENDBLK
  5
5E
330
1D
100
AcDbEntity
  8
HAIKIN
100
AcDbBlockEnd
  0
BLOCK
  5
2C3
330
2B8
100
AcDbEntity
  8
0
100
AcDbBlockBegin
  2
*D2
 70
     1
 10
0.0
 20
0.0
 30
0.0
  3
*D2
  1

  0
LINE
  5
2D73
330
2B8
100
AcDbEntity
  8
SUNPOU
 62
     0
100
AcDbLine
 10
858.5741641813473
 20
4431.355453912934
 30
0.0
 11
858.5741641813473
 21
4538.062183750919
 31
0.0
  0
LINE
  5
2D74
330
2B8
100
AcDbEntity
  8
SUNPOU
 62
     0
100
AcDbLine
 10
968.5741641813475
 20
4431.355453912934
 30
0.0
 11
968.5741641813475
 21
4538.062183750919
 31
0.0
  0
LINE
  5
2D75
330
2B8
100
AcDbEntity
  8
SUNPOU
 62
     0
100
AcDbLine
 10
888.5741641813474
 20
4528.062183750918
 30
0.0
 11
938.5741641813474
 21
4528.062183750918
 31
0.0
  0
SOLID
  5
2D76
330
2B8
100
AcDbEntity
  8
SUNPOU
 62
     0
100
AcDbTrace
 10
888.5741641813474
 20
4533.062183750919
 30
0.0
 11
888.5741641813474
 21
4523.062183750918
 31
0.0
 12
858.5741641813473
 22
4528.062183750918
 32
0.0
 13
858.5741641813473
 23
4528.062183750918
 33
0.0
  0
SOLID
  5
2D77
330
2B8
100
AcDbEntity
  8
SUNPOU
 62
     0
100
AcDbTrace
 10
938.5741641813474
 20
4533.062183750919
 30
0.0
 11
938.5741641813474
 21
4523.062183750918
 31
0.0
 12
968.5741641813475
 22
4528.062183750918
 32
0.0
 13
968.5741641813475
 23
4528.062183750918
 33
0.0
  0
MTEXT
  5
2D78
330
2B8
100
AcDbEntity
  8
SUNPOU
 62
     0
100
AcDbMText
 10
913.5741641813474
 20
4567.062183750919
 30
0.0
 40
50.0
 41
0.0
 71
     5
 72
     1
  1
\A1;110
 73
     1
 44
1.0
1001
ACAD
1000
MTEXTBEGIN
1070
    73
1070
     1
1070
    44
1040
1.0
1070
    74
1070
     0
1000
MTEXTEND
  0
POINT
  5
2D79
330
2B8
100
AcDbEntity
  8
Defpoints
 62
     0
100
AcDbPoint
 10
858.5741641813473
 20
4401.355453912934
 30
0.0
  0
POINT
  5
2D7A
330
2B8
100
AcDbEntity
  8
Defpoints
 62
     0
100
AcDbPoint
 10
968.5741641813475
 20
4401.355453912934
 30
0.0
  0
POINT
  5
2D7B
330
2B8
100
AcDbEntity
  8
Defpoints
 62
     0
100
AcDbPoint
 10
968.5741641813475
 20
4528.062183750918
 30
0.0
  0
ENDBLK
  5
2C4
330
2B8
100
AcDbEntity
  8
0
100
AcDbBlockEnd
  0
BLOCK
  5
2E2
330
2D8
100
AcDbEntity
  8
0
100
AcDbBlockBegin
  2
*D3
 70
     1
 10
0.0
 20
0.0
 30
0.0
  3
*D3
  1

  0
LINE
  5
2D7C
330
2D8
100
AcDbEntity
  8
SUNPOU
 62
     0
100
AcDbLine
 10
1678.574164181347
 20
4431.355453912934
 30
0.0
 11
1678.574164181347
 21
4538.062183750919
 31
0.0
  0
LINE
  5
2D7D
330
2D8
100
AcDbEntity
  8
SUNPOU
 62
     0
100
AcDbLine
 10
1568.574164181347
 20
4431.355453912934
 30
0.0
 11
1568.574164181347
 21
4538.062183750919
 31
0.0
  0
LINE
  5
2D7E
330
2D8
100
AcDbEntity
  8
SUNPOU
 62
     0
100
AcDbLine
 10
1648.574164181347
 20
4528.062183750918
 30
0.0
 11
1598.574164181347
 21
4528.062183750918
 31
0.0
  0
SOLID
  5
2D7F
330
2D8
100
AcDbEntity
  8
SUNPOU
 62
     0
100
AcDbTrace
 10
1648.574164181347
 20
4533.062183750919
 30
0.0
 11
1648.574164181347
 21
4523.062183750918
 31
0.0
 12
1678.574164181347
 22
4528.062183750918
 32
0.0
 13
1678.574164181347
 23
4528.062183750918
 33
0.0
  0
SOLID
  5
2D80
330
2D8
100
AcDbEntity
  8
SUNPOU
 62
     0
100
AcDbTrace
 10
1598.574164181347
 20
4533.062183750919
 30
0.0
 11
1598.574164181347
 21
4523.062183750918
 31
0.0
 12
1568.574164181347
 22
4528.062183750918
 32
0.0
 13
1568.574164181347
 23
4528.062183750918
 33
0.0
  0
MTEXT
  5
2D81
330
2D8
100
AcDbEntity
  8
SUNPOU
 62
     0
100
AcDbMText
 10
1623.574164181347
 20
4567.062183750919
 30
0.0
 40
50.0
 41
0.0
 71
     5
 72
     1
  1
\A1;110
 73
     1
 44
1.0
1001
ACAD
1000
MTEXTBEGIN
1070
    73
1070
     1
1070
    44
1040
1.0
1070
    74
1070
     0
1000
MTEXTEND
  0
POINT
  5
2D82
330
2D8
100
AcDbEntity
  8
Defpoints
 62
     0
100
AcDbPoint
 10
1678.574164181347
 20
4401.355453912934
 30
0.0
  0
POINT
  5
2D83
330
2D8
100
AcDbEntity
  8
Defpoints
 62
     0
100
AcDbPoint
 10
1568.574164181347
 20
4401.355453912934
 30
0.0
  0
POINT
  5
2D84
330
2D8
100
AcDbEntity
  8
Defpoints
 62
     0
100
AcDbPoint
 10
1568.574164181347
 20
4528.062183750918
 30
0.0
  0
ENDBLK
  5
2E3
330
2D8
100
AcDbEntity
  8
0
100
AcDbBlockEnd
  0
BLOCK
  5
2F8
330
2EE
100
AcDbEntity
  8
0
100
AcDbBlockBegin
  2
*D4
 70
     1
 10
0.0
 20
0.0
 30
0.0
  3
*D4
  1

  0
LINE
  5
2D85
330
2EE
100
AcDbEntity
  8
SUNPOU
 62
     0
100
AcDbLine
 10
968.5741641813475
 20
4431.355453912934
 30
0.0
 11
968.5741641813475
 21
4538.062183750919
 31
0.0
  0
LINE
  5
2D86
330
2EE
100
AcDbEntity
  8
SUNPOU
 62
     0
100
AcDbLine
 10
1568.574164181347
 20
4431.355453912934
 30
0.0
 11
1568.574164181347
 21
4538.062183750919
 31
0.0
  0
LINE
  5
2D87
330
2EE
100
AcDbEntity
  8
SUNPOU
 62
     0
100
AcDbLine
 10
998.5741641813474
 20
4528.062183750918
 30
0.0
 11
1538.574164181347
 21
4528.062183750918
 31
0.0
  0
SOLID
  5
2D88
330
2EE
100
AcDbEntity
  8
SUNPOU
 62
     0
100
AcDbTrace
 10
998.5741641813474
 20
4533.062183750919
 30
0.0
 11
998.5741641813474
 21
4523.062183750918
 31
0.0
 12
968.5741641813475
 22
4528.062183750918
 32
0.0
 13
968.5741641813475
 23
4528.062183750918
 33
0.0
  0
SOLID
  5
2D89
330
2EE
100
AcDbEntity
  8
SUNPOU
 62
     0
100
AcDbTrace
 10
1538.574164181347
 20
4533.062183750919
 30
0.0
 11
1538.574164181347
 21
4523.062183750918
 31
0.0
 12
1568.574164181347
 22
4528.062183750918
 32
0.0
 13
1568.574164181347
 23
4528.062183750918
 33
0.0
  0
MTEXT
  5
2D8A
330
2EE
100
AcDbEntity
  8
SUNPOU
 62
     0
100
AcDbMText
 10
1268.574164181347
 20
4567.062183750919
 30
0.0
 40
50.0
 41
0.0
 71
     5
 72
     1
  1
\A1;600
 73
     1
 44
1.0
1001
ACAD
1000
MTEXTBEGIN
1070
    73
1070
     1
1070
    44
1040
1.0
1070
    74
1070
     0
1000
MTEXTEND
  0
POINT
  5
2D8B
330
2EE
100
AcDbEntity
  8
Defpoints
 62
     0
100
AcDbPoint
 10
968.5741641813475
 20
4401.355453912934
 30
0.0
  0
POINT
  5
2D8C
330
2EE
100
AcDbEntity
  8
Defpoints
 62
     0
100
AcDbPoint
 10
1568.574164181347
 20
4401.355453912934
 30
0.0
  0
POINT
  5
2D8D
330
2EE
100
AcDbEntity
  8
Defpoints
 62
     0
100
AcDbPoint
 10
1568.574164181347
 20
4528.062183750918
 30
0.0
  0
ENDBLK
  5
2F9
330
2EE
100
AcDbEntity
  8
0
100
AcDbBlockEnd
  0
BLOCK
  5
321
330
317
100
AcDbEntity
  8
0
100
AcDbBlockBegin
  2
*D5
 70
     1
 10
0.0
 20
0.0
 30
0.0
  3
*D5
  1

  0
LINE
  5
2D8E
330
317
100
AcDbEntity
  8
SUNPOU
 62
     0
100
AcDbLine
 10
858.5741641813473
 20
4431.355453912934
 30
0.0
 11
858.5741641813473
 21
4638.841705974251
 31
0.0
  0
LINE
  5
2D8F
330
317
100
AcDbEntity
  8
SUNPOU
 62
     0
100
AcDbLine
 10
1678.574164181347
 20
4431.355453912934
 30
0.0
 11
1678.574164181347
 21
4638.841705974251
 31
0.0
  0
LINE
  5
2D90
330
317
100
AcDbEntity
  8
SUNPOU
 62
     0
100
AcDbLine
 10
888.5741641813474
 20
4628.841705974251
 30
0.0
 11
1648.574164181347
 21
4628.841705974251
 31
0.0
  0
SOLID
  5
2D91
330
317
100
AcDbEntity
  8
SUNPOU
 62
     0
100
AcDbTrace
 10
888.5741641813474
 20
4633.841705974251
 30
0.0
 11
888.5741641813474
 21
4623.841705974252
 31
0.0
 12
858.5741641813473
 22
4628.841705974251
 32
0.0
 13
858.5741641813473
 23
4628.841705974251
 33
0.0
  0
SOLID
  5
2D92
330
317
100
AcDbEntity
  8
SUNPOU
 62
     0
100
AcDbTrace
 10
1648.574164181347
 20
4633.841705974251
 30
0.0
 11
1648.574164181347
 21
4623.841705974252
 31
0.0
 12
1678.574164181347
 22
4628.841705974251
 32
0.0
 13
1678.574164181347
 23
4628.841705974251
 33
0.0
  0
MTEXT
  5
2D93
330
317
100
AcDbEntity
  8
SUNPOU
 62
     0
100
AcDbMText
 10
1268.574164181347
 20
4667.841705974251
 30
0.0
 40
50.0
 41
0.0
 71
     5
 72
     1
  1
\A1;820
 73
     1
 44
1.0
1001
ACAD
1000
MTEXTBEGIN
1070
    73
1070
     1
1070
    44
1040
1.0
1070
    74
1070
     0
1000
MTEXTEND
  0
POINT
  5
2D94
330
317
100
AcDbEntity
  8
Defpoints
 62
     0
100
AcDbPoint
 10
858.5741641813473
 20
4401.355453912934
 30
0.0
  0
POINT
  5
2D95
330
317
100
AcDbEntity
  8
Defpoints
 62
     0
100
AcDbPoint
 10
1678.574164181347
 20
4401.355453912934
 30
0.0
  0
POINT
  5
2D96
330
317
100
AcDbEntity
  8
Defpoints
 62
     0
100
AcDbPoint
 10
1678.574164181347
 20
4628.841705974251
 30
0.0
  0
ENDBLK
  5
322
330
317
100
AcDbEntity
  8
0
100
AcDbBlockEnd
  0
BLOCK
  5
32F
330
324
100
AcDbEntity
  8
0
100
AcDbBlockBegin
  2
*D6
 70
     1
 10
0.0
 20
0.0
 30
0.0
  3
*D6
  1

  0
LINE
  5
2D97
330
324
100
AcDbEntity
  8
SUNPOU
 62
     0
100
AcDbLine
 10
1708.574164181347
 20
4401.355453912934
 30
0.0
 11
2005.56212068694
 21
4401.355453912934
 31
0.0
  0
LINE
  5
2D98
330
324
100
AcDbEntity
  8
SUNPOU
 62
     0
100
AcDbLine
 10
1708.574164181347
 20
4351.355453912934
 30
0.0
 11
2005.56212068694
 21
4351.355453912934
 31
0.0
  0
LINE
  5
2D99
330
324
100
AcDbEntity
  8
SUNPOU
 62
     0
100
AcDbLine
 10
1995.56212068694
 20
4431.355453912934
 30
0.0
 11
1995.56212068694
 21
4461.355453912934
 31
0.0
  0
LINE
  5
2D9A
330
324
100
AcDbEntity
  8
SUNPOU
 62
     0
100
AcDbLine
 10
1995.56212068694
 20
4321.355453912935
 30
0.0
 11
1995.56212068694
 21
4291.355453912934
 31
0.0
  0
SOLID
  5
2D9B
330
324
100
AcDbEntity
  8
SUNPOU
 62
     0
100
AcDbTrace
 10
1990.56212068694
 20
4431.355453912934
 30
0.0
 11
2000.56212068694
 21
4431.355453912934
 31
0.0
 12
1995.56212068694
 22
4401.355453912934
 32
0.0
 13
1995.56212068694
 23
4401.355453912934
 33
0.0
  0
SOLID
  5
2D9C
330
324
100
AcDbEntity
  8
SUNPOU
 62
     0
100
AcDbTrace
 10
1990.56212068694
 20
4321.355453912935
 30
0.0
 11
2000.56212068694
 21
4321.355453912935
 31
0.0
 12
1995.56212068694
 22
4351.355453912934
 32
0.0
 13
1995.56212068694
 23
4351.355453912934
 33
0.0
  0
MTEXT
  5
2D9D
330
324
100
AcDbEntity
  8
SUNPOU
 62
     0
100
AcDbMText
 10
1956.562120686939
 20
4376.355453912935
 30
0.0
 40
50.0
 41
0.0
 71
     5
 72
     1
  1
\A1;50
 11
0.0000000000000001
 21
1.0
 31
0.0
 73
     1
 44
1.0
1001
ACAD
1000
MTEXTBEGIN
1070
    73
1070
     1
1070
    44
1040
1.0
1070
    74
1070
     0
1000
MTEXTEND
  0
POINT
  5
2D9E
330
324
100
AcDbEntity
  8
Defpoints
 62
     0
100
AcDbPoint
 10
1678.574164181347
 20
4401.355453912934
 30
0.0
  0
POINT
  5
2D9F
330
324
100
AcDbEntity
  8
Defpoints
 62
     0
100
AcDbPoint
 10
1678.574164181347
 20
4351.355453912934
 30
0.0
  0
POINT
  5
2DA0
330
324
100
AcDbEntity
  8
Defpoints
 62
     0
100
AcDbPoint
 10
1995.56212068694
 20
4351.355453912934
 30
0.0
  0
ENDBLK
  5
330
330
324
100
AcDbEntity
  8
0
100
AcDbBlockEnd
  0
BLOCK
  5
39F
330
395
100
AcDbEntity
  8
0
100
AcDbBlockBegin
  2
*D9
 70
     1
 10
0.0
 20
0.0
 30
0.0
  3
*D9
  1

  0
LINE
  5
2DE5
330
395
100
AcDbEntity
  8
SUNPOU
 62
     0
100
AcDbLine
 10
858.5741641813473
 20
3647.420858922516
 30
0.0
 11
858.5741641813473
 21
3754.127588760501
 31
0.0
  0
LINE
  5
2DE6
330
395
100
AcDbEntity
  8
SUNPOU
 62
     0
100
AcDbLine
 10
968.5741641813475
 20
3647.420858922516
 30
0.0
 11
968.5741641813475
 21
3754.127588760501
 31
0.0
  0
LINE
  5
2DE7
330
395
100
AcDbEntity
  8
SUNPOU
 62
     0
100
AcDbLine
 10
888.5741641813474
 20
3744.127588760501
 30
0.0
 11
938.5741641813474
 21
3744.127588760501
 31
0.0
  0
SOLID
  5
2DE8
330
395
100
AcDbEntity
  8
SUNPOU
 62
     0
100
AcDbTrace
 10
888.5741641813474
 20
3749.127588760501
 30
0.0
 11
888.5741641813474
 21
3739.127588760501
 31
0.0
 12
858.5741641813473
 22
3744.127588760501
 32
0.0
 13
858.5741641813473
 23
3744.127588760501
 33
0.0
  0
SOLID
  5
2DE9
330
395
100
AcDbEntity
  8
SUNPOU
 62
     0
100
AcDbTrace
 10
938.5741641813474
 20
3749.127588760501
 30
0.0
 11
938.5741641813474
 21
3739.127588760501
 31
0.0
 12
968.5741641813475
 22
3744.127588760501
 32
0.0
 13
968.5741641813475
 23
3744.127588760501
 33
0.0
  0
MTEXT
  5
2DEA
330
395
100
AcDbEntity
  8
SUNPOU
 62
     0
100
AcDbMText
 10
913.5741641813474
 20
3783.127588760501
 30
0.0
 40
50.0
 41
0.0
 71
     5
 72
     1
  1
\A1;110
 73
     1
 44
1.0
1001
ACAD
1000
MTEXTBEGIN
1070
    73
1070
     1
1070
    44
1040
1.0
1070
    74
1070
     0
1000
MTEXTEND
  0
POINT
  5
2DEB
330
395
100
AcDbEntity
  8
Defpoints
 62
     0
100
AcDbPoint
 10
858.5741641813473
 20
3617.420858922517
 30
0.0
  0
POINT
  5
2DEC
330
395
100
AcDbEntity
  8
Defpoints
 62
     0
100
AcDbPoint
 10
968.5741641813475
 20
3617.420858922517
 30
0.0
  0
POINT
  5
2DED
330
395
100
AcDbEntity
  8
Defpoints
 62
     0
100
AcDbPoint
 10
968.5741641813475
 20
3744.127588760501
 30
0.0
  0
ENDBLK
  5
3A0
330
395
100
AcDbEntity
  8
0
100
AcDbBlockEnd
  0
BLOCK
  5
3AB
330
3A1
100
AcDbEntity
  8
0
100
AcDbBlockBegin
  2
*D10
 70
     1
 10
0.0
 20
0.0
 30
0.0
  3
*D10
  1

  0
LINE
  5
2DEE
330
3A1
100
AcDbEntity
  8
SUNPOU
 62
     0
100
AcDbLine
 10
1678.574164181347
 20
3647.420858922516
 30
0.0
 11
1678.574164181347
 21
3754.127588760501
 31
0.0
  0
LINE
  5
2DEF
330
3A1
100
AcDbEntity
  8
SUNPOU
 62
     0
100
AcDbLine
 10
1568.574164181347
 20
3647.420858922516
 30
0.0
 11
1568.574164181347
 21
3754.127588760501
 31
0.0
  0
LINE
  5
2DF0
330
3A1
100
AcDbEntity
  8
SUNPOU
 62
     0
100
AcDbLine
 10
1648.574164181347
 20
3744.127588760501
 30
0.0
 11
1598.574164181347
 21
3744.127588760501
 31
0.0
  0
SOLID
  5
2DF1
330
3A1
100
AcDbEntity
  8
SUNPOU
 62
     0
100
AcDbTrace
 10
1648.574164181347
 20
3749.127588760501
 30
0.0
 11
1648.574164181347
 21
3739.127588760501
 31
0.0
 12
1678.574164181347
 22
3744.127588760501
 32
0.0
 13
1678.574164181347
 23
3744.127588760501
 33
0.0
  0
SOLID
  5
2DF2
330
3A1
100
AcDbEntity
  8
SUNPOU
 62
     0
100
AcDbTrace
 10
1598.574164181347
 20
3749.127588760501
 30
0.0
 11
1598.574164181347
 21
3739.127588760501
 31
0.0
 12
1568.574164181347
 22
3744.127588760501
 32
0.0
 13
1568.574164181347
 23
3744.127588760501
 33
0.0
  0
MTEXT
  5
2DF3
330
3A1
100
AcDbEntity
  8
SUNPOU
 62
     0
100
AcDbMText
 10
1623.574164181347
 20
3783.127588760501
 30
0.0
 40
50.0
 41
0.0
 71
     5
 72
     1
  1
\A1;110
 73
     1
 44
1.0
1001
ACAD
1000
MTEXTBEGIN
1070
    73
1070
     1
1070
    44
1040
1.0
1070
    74
1070
     0
1000
MTEXTEND
  0
POINT
  5
2DF4
330
3A1
100
AcDbEntity
  8
Defpoints
 62
     0
100
AcDbPoint
 10
1678.574164181347
 20
3617.420858922517
 30
0.0
  0
POINT
  5
2DF5
330
3A1
100
AcDbEntity
  8
Defpoints
 62
     0
100
AcDbPoint
 10
1568.574164181347
 20
3617.420858922517
 30
0.0
  0
POINT
  5
2DF6
330
3A1
100
AcDbEntity
  8
Defpoints
 62
     0
100
AcDbPoint
 10
1568.574164181347
 20
3744.127588760501
 30
0.0
  0
ENDBLK
  5
3AC
330
3A1
100
AcDbEntity
  8
0
100
AcDbBlockEnd
  0
BLOCK
  5
3B7
330
3AD
100
AcDbEntity
  8
0
100
AcDbBlockBegin
  2
*D11
 70
     1
 10
0.0
 20
0.0
 30
0.0
  3
*D11
  1

  0
LINE
  5
2DDC
330
3AD
100
AcDbEntity
  8
SUNPOU
 62
     0
100
AcDbLine
 10
968.5741641813475
 20
3647.420858922516
 30
0.0
 11
968.5741641813475
 21
3754.127588760501
 31
0.0
  0
LINE
  5
2DDD
330
3AD
100
AcDbEntity
  8
SUNPOU
 62
     0
100
AcDbLine
 10
1568.574164181347
 20
3647.420858922516
 30
0.0
 11
1568.574164181347
 21
3754.127588760501
 31
0.0
  0
LINE
  5
2DDE
330
3AD
100
AcDbEntity
  8
SUNPOU
 62
     0
100
AcDbLine
 10
998.5741641813474
 20
3744.127588760501
 30
0.0
 11
1538.574164181347
 21
3744.127588760501
 31
0.0
  0
SOLID
  5
2DDF
330
3AD
100
AcDbEntity
  8
SUNPOU
 62
     0
100
AcDbTrace
 10
998.5741641813474
 20
3749.127588760501
 30
0.0
 11
998.5741641813474
 21
3739.127588760501
 31
0.0
 12
968.5741641813475
 22
3744.127588760501
 32
0.0
 13
968.5741641813475
 23
3744.127588760501
 33
0.0
  0
SOLID
  5
2DE0
330
3AD
100
AcDbEntity
  8
SUNPOU
 62
     0
100
AcDbTrace
 10
1538.574164181347
 20
3749.127588760501
 30
0.0
 11
1538.574164181347
 21
3739.127588760501
 31
0.0
 12
1568.574164181347
 22
3744.127588760501
 32
0.0
 13
1568.574164181347
 23
3744.127588760501
 33
0.0
  0
MTEXT
  5
2DE1
330
3AD
100
AcDbEntity
  8
SUNPOU
 62
     0
100
AcDbMText
 10
1268.574164181347
 20
3783.127588760501
 30
0.0
 40
50.0
 41
0.0
 71
     5
 72
     1
  1
\A1;600
 73
     1
 44
1.0
1001
ACAD
1000
MTEXTBEGIN
1070
    73
1070
     1
1070
    44
1040
1.0
1070
    74
1070
     0
1000
MTEXTEND
  0
POINT
  5
2DE2
330
3AD
100
AcDbEntity
  8
Defpoints
 62
     0
100
AcDbPoint
 10
968.5741641813475
 20
3617.420858922517
 30
0.0
  0
POINT
  5
2DE3
330
3AD
100
AcDbEntity
  8
Defpoints
 62
     0
100
AcDbPoint
 10
1568.574164181347
 20
3617.420858922517
 30
0.0
  0
POINT
  5
2DE4
330
3AD
100
AcDbEntity
  8
Defpoints
 62
     0
100
AcDbPoint
 10
1568.574164181347
 20
3744.127588760501
 30
0.0
  0
ENDBLK
  5
3B8
330
3AD
100
AcDbEntity
  8
0
100
AcDbBlockEnd
  0
BLOCK
  5
3C3
330
3B9
100
AcDbEntity
  8
0
100
AcDbBlockBegin
  2
*D12
 70
     1
 10
0.0
 20
0.0
 30
0.0
  3
*D12
  1

  0
LINE
  5
2DD3
330
3B9
100
AcDbEntity
  8
SUNPOU
 62
     0
100
AcDbLine
 10
858.5741641813473
 20
3647.420858922516
 30
0.0
 11
858.5741641813473
 21
3854.907110983833
 31
0.0
  0
LINE
  5
2DD4
330
3B9
100
AcDbEntity
  8
SUNPOU
 62
     0
100
AcDbLine
 10
1678.574164181347
 20
3647.420858922516
 30
0.0
 11
1678.574164181347
 21
3854.907110983833
 31
0.0
  0
LINE
  5
2DD5
330
3B9
100
AcDbEntity
  8
SUNPOU
 62
     0
100
AcDbLine
 10
888.5741641813474
 20
3844.907110983834
 30
0.0
 11
1648.574164181347
 21
3844.907110983834
 31
0.0
  0
SOLID
  5
2DD6
330
3B9
100
AcDbEntity
  8
SUNPOU
 62
     0
100
AcDbTrace
 10
888.5741641813474
 20
3849.907110983834
 30
0.0
 11
888.5741641813474
 21
3839.907110983833
 31
0.0
 12
858.5741641813473
 22
3844.907110983834
 32
0.0
 13
858.5741641813473
 23
3844.907110983834
 33
0.0
  0
SOLID
  5
2DD7
330
3B9
100
AcDbEntity
  8
SUNPOU
 62
     0
100
AcDbTrace
 10
1648.574164181347
 20
3849.907110983834
 30
0.0
 11
1648.574164181347
 21
3839.907110983833
 31
0.0
 12
1678.574164181347
 22
3844.907110983834
 32
0.0
 13
1678.574164181347
 23
3844.907110983834
 33
0.0
  0
MTEXT
  5
2DD8
330
3B9
100
AcDbEntity
  8
SUNPOU
 62
     0
100
AcDbMText
 10
1268.574164181347
 20
3883.907110983834
 30
0.0
 40
50.0
 41
0.0
 71
     5
 72
     1
  1
\A1;820
 73
     1
 44
1.0
1001
ACAD
1000
MTEXTBEGIN
1070
    73
1070
     1
1070
    44
1040
1.0
1070
    74
1070
     0
1000
MTEXTEND
  0
POINT
  5
2DD9
330
3B9
100
AcDbEntity
  8
Defpoints
 62
     0
100
AcDbPoint
 10
858.5741641813473
 20
3617.420858922517
 30
0.0
  0
POINT
  5
2DDA
330
3B9
100
AcDbEntity
  8
Defpoints
 62
     0
100
AcDbPoint
 10
1678.574164181347
 20
3617.420858922517
 30
0.0
  0
POINT
  5
2DDB
330
3B9
100
AcDbEntity
  8
Defpoints
 62
     0
100
AcDbPoint
 10
1678.574164181347
 20
3844.907110983834
 30
0.0
  0
ENDBLK
  5
3C4
330
3B9
100
AcDbEntity
  8
0
100
AcDbBlockEnd
  0
BLOCK
  5
3D0
330
3C5
100
AcDbEntity
  8
0
100
AcDbBlockBegin
  2
*D13
 70
     1
 10
0.0
 20
0.0
 30
0.0
  3
*D13
  1

  0
LINE
  5
2DC9
330
3C5
100
AcDbEntity
  8
SUNPOU
 62
     0
100
AcDbLine
 10
1708.574164181347
 20
3617.420858922517
 30
0.0
 11
2005.56212068694
 21
3617.420858922517
 31
0.0
  0
LINE
  5
2DCA
330
3C5
100
AcDbEntity
  8
SUNPOU
 62
     0
100
AcDbLine
 10
1708.574164181347
 20
3517.420858922516
 30
0.0
 11
2005.56212068694
 21
3517.420858922516
 31
0.0
  0
LINE
  5
2DCB
330
3C5
100
AcDbEntity
  8
SUNPOU
 62
     0
100
AcDbLine
 10
1995.56212068694
 20
3647.420858922516
 30
0.0
 11
1995.56212068694
 21
3677.420858922516
 31
0.0
  0
LINE
  5
2DCC
330
3C5
100
AcDbEntity
  8
SUNPOU
 62
     0
100
AcDbLine
 10
1995.56212068694
 20
3487.420858922516
 30
0.0
 11
1995.56212068694
 21
3457.420858922516
 31
0.0
  0
SOLID
  5
2DCD
330
3C5
100
AcDbEntity
  8
SUNPOU
 62
     0
100
AcDbTrace
 10
1990.56212068694
 20
3647.420858922516
 30
0.0
 11
2000.56212068694
 21
3647.420858922516
 31
0.0
 12
1995.56212068694
 22
3617.420858922517
 32
0.0
 13
1995.56212068694
 23
3617.420858922517
 33
0.0
  0
SOLID
  5
2DCE
330
3C5
100
AcDbEntity
  8
SUNPOU
 62
     0
100
AcDbTrace
 10
1990.56212068694
 20
3487.420858922516
 30
0.0
 11
2000.56212068694
 21
3487.420858922516
 31
0.0
 12
1995.56212068694
 22
3517.420858922516
 32
0.0
 13
1995.56212068694
 23
3517.420858922516
 33
0.0
  0
MTEXT
  5
2DCF
330
3C5
100
AcDbEntity
  8
SUNPOU
 62
     0
100
AcDbMText
 10
1956.562120686939
 20
3567.420858922517
 30
0.0
 40
50.0
 41
0.0
 71
     5
 72
     1
  1
\A1;100
 11
0.0000000000000001
 21
1.0
 31
0.0
 73
     1
 44
1.0
1001
ACAD
1000
MTEXTBEGIN
1070
    73
1070
     1
1070
    44
1040
1.0
1070
    74
1070
     0
1000
MTEXTEND
  0
POINT
  5
2DD0
330
3C5
100
AcDbEntity
  8
Defpoints
 62
     0
100
AcDbPoint
 10
1678.574164181347
 20
3617.420858922517
 30
0.0
  0
POINT
  5
2DD1
330
3C5
100
AcDbEntity
  8
Defpoints
 62
     0
100
AcDbPoint
 10
1678.574164181347
 20
3517.420858922516
 30
0.0
  0
POINT
  5
2DD2
330
3C5
100
AcDbEntity
  8
Defpoints
 62
     0
100
AcDbPoint
 10
1995.56212068694
 20
3517.420858922516
 30
0.0
  0
ENDBLK
  5
3D1
330
3C5
100
AcDbEntity
  8
0
100
AcDbBlockEnd
  0
BLOCK
  5
4A1
330
496
100
AcDbEntity
  8
0
100
AcDbBlockBegin
  2
*D19
 70
     1
 10
0.0
 20
0.0
 30
0.0
  3
*D19
  1

  0
LINE
  5
2E0B
330
496
100
AcDbEntity
  8
SUNPOU
 62
     0
100
AcDbLine
 10
1708.574164181347
 20
2811.606090697273
 30
0.0
 11
2005.56212068694
 21
2811.606090697273
 31
0.0
  0
LINE
  5
2E0C
330
496
100
AcDbEntity
  8
SUNPOU
 62
     0
100
AcDbLine
 10
1708.574164181347
 20
2661.606090697273
 30
0.0
 11
2005.56212068694
 21
2661.606090697273
 31
0.0
  0
LINE
  5
2E0D
330
496
100
AcDbEntity
  8
SUNPOU
 62
     0
100
AcDbLine
 10
1995.56212068694
 20
2781.606090697273
 30
0.0
 11
1995.56212068694
 21
2691.606090697272
 31
0.0
  0
SOLID
  5
2E0E
330
496
100
AcDbEntity
  8
SUNPOU
 62
     0
100
AcDbTrace
 10
1990.56212068694
 20
2781.606090697273
 30
0.0
 11
2000.56212068694
 21
2781.606090697273
 31
0.0
 12
1995.56212068694
 22
2811.606090697273
 32
0.0
 13
1995.56212068694
 23
2811.606090697273
 33
0.0
  0
SOLID
  5
2E0F
330
496
100
AcDbEntity
  8
SUNPOU
 62
     0
100
AcDbTrace
 10
1990.56212068694
 20
2691.606090697272
 30
0.0
 11
2000.56212068694
 21
2691.606090697272
 31
0.0
 12
1995.56212068694
 22
2661.606090697273
 32
0.0
 13
1995.56212068694
 23
2661.606090697273
 33
0.0
  0
MTEXT
  5
2E10
330
496
100
AcDbEntity
  8
SUNPOU
 62
     0
100
AcDbMText
 10
1956.562120686939
 20
2736.606090697273
 30
0.0
 40
50.0
 41
0.0
 71
     5
 72
     1
  1
\A1;150
 11
0.0000000000000001
 21
1.0
 31
0.0
 73
     1
 44
1.0
1001
ACAD
1000
MTEXTBEGIN
1070
    73
1070
     1
1070
    44
1040
1.0
1070
    74
1070
     0
1000
MTEXTEND
  0
POINT
  5
2E11
330
496
100
AcDbEntity
  8
Defpoints
 62
     0
100
AcDbPoint
 10
1678.574164181347
 20
2811.606090697273
 30
0.0
  0
POINT
  5
2E12
330
496
100
AcDbEntity
  8
Defpoints
 62
     0
100
AcDbPoint
 10
1678.574164181347
 20
2661.606090697273
 30
0.0
  0
POINT
  5
2E13
330
496
100
AcDbEntity
  8
Defpoints
 62
     0
100
AcDbPoint
 10
1995.56212068694
 20
2661.606090697273
 30
0.0
  0
ENDBLK
  5
4A2
330
496
100
AcDbEntity
  8
0
100
AcDbBlockEnd
  0
BLOCK
  5
4AD
330
4A3
100
AcDbEntity
  8
0
100
AcDbBlockBegin
  2
*D20
 70
     1
 10
0.0
 20
0.0
 30
0.0
  3
*D20
  1

  0
LINE
  5
2E27
330
4A3
100
AcDbEntity
  8
SUNPOU
 62
     0
100
AcDbLine
 10
858.5741641813473
 20
2841.606090697272
 30
0.0
 11
858.5741641813473
 21
3049.092342758589
 31
0.0
  0
LINE
  5
2E28
330
4A3
100
AcDbEntity
  8
SUNPOU
 62
     0
100
AcDbLine
 10
1678.574164181347
 20
2841.606090697272
 30
0.0
 11
1678.574164181347
 21
3049.092342758589
 31
0.0
  0
LINE
  5
2E29
330
4A3
100
AcDbEntity
  8
SUNPOU
 62
     0
100
AcDbLine
 10
888.5741641813474
 20
3039.09234275859
 30
0.0
 11
1648.574164181347
 21
3039.09234275859
 31
0.0
  0
SOLID
  5
2E2A
330
4A3
100
AcDbEntity
  8
SUNPOU
 62
     0
100
AcDbTrace
 10
888.5741641813474
 20
3044.092342758589
 30
0.0
 11
888.5741641813474
 21
3034.09234275859
 31
0.0
 12
858.5741641813473
 22
3039.09234275859
 32
0.0
 13
858.5741641813473
 23
3039.09234275859
 33
0.0
  0
SOLID
  5
2E2B
330
4A3
100
AcDbEntity
  8
SUNPOU
 62
     0
100
AcDbTrace
 10
1648.574164181347
 20
3044.092342758589
 30
0.0
 11
1648.574164181347
 21
3034.09234275859
 31
0.0
 12
1678.574164181347
 22
3039.09234275859
 32
0.0
 13
1678.574164181347
 23
3039.09234275859
 33
0.0
  0
MTEXT
  5
2E2C
330
4A3
100
AcDbEntity
  8
SUNPOU
 62
     0
100
AcDbMText
 10
1268.574164181347
 20
3078.092342758589
 30
0.0
 40
50.0
 41
0.0
 71
     5
 72
     1
  1
\A1;820
 73
     1
 44
1.0
1001
ACAD
1000
MTEXTBEGIN
1070
    73
1070
     1
1070
    44
1040
1.0
1070
    74
1070
     0
1000
MTEXTEND
  0
POINT
  5
2E2D
330
4A3
100
AcDbEntity
  8
Defpoints
 62
     0
100
AcDbPoint
 10
858.5741641813473
 20
2811.606090697273
 30
0.0
  0
POINT
  5
2E2E
330
4A3
100
AcDbEntity
  8
Defpoints
 62
     0
100
AcDbPoint
 10
1678.574164181347
 20
2811.606090697273
 30
0.0
  0
POINT
  5
2E2F
330
4A3
100
AcDbEntity
  8
Defpoints
 62
     0
100
AcDbPoint
 10
1678.574164181347
 20
3039.09234275859
 30
0.0
  0
ENDBLK
  5
4AE
330
4A3
100
AcDbEntity
  8
0
100
AcDbBlockEnd
  0
BLOCK
  5
4B9
330
4AF
100
AcDbEntity
  8
0
100
AcDbBlockBegin
  2
*D21
 70
     1
 10
0.0
 20
0.0
 30
0.0
  3
*D21
  1

  0
LINE
  5
2E1E
330
4AF
100
AcDbEntity
  8
SUNPOU
 62
     0
100
AcDbLine
 10
968.5741641813475
 20
2841.606090697272
 30
0.0
 11
968.5741641813475
 21
2948.312820535257
 31
0.0
  0
LINE
  5
2E1F
330
4AF
100
AcDbEntity
  8
SUNPOU
 62
     0
100
AcDbLine
 10
1568.574164181347
 20
2841.606090697272
 30
0.0
 11
1568.574164181347
 21
2948.312820535257
 31
0.0
  0
LINE
  5
2E20
330
4AF
100
AcDbEntity
  8
SUNPOU
 62
     0
100
AcDbLine
 10
998.5741641813474
 20
2938.312820535257
 30
0.0
 11
1538.574164181347
 21
2938.312820535257
 31
0.0
  0
SOLID
  5
2E21
330
4AF
100
AcDbEntity
  8
SUNPOU
 62
     0
100
AcDbTrace
 10
998.5741641813474
 20
2943.312820535257
 30
0.0
 11
998.5741641813474
 21
2933.312820535257
 31
0.0
 12
968.5741641813475
 22
2938.312820535257
 32
0.0
 13
968.5741641813475
 23
2938.312820535257
 33
0.0
  0
SOLID
  5
2E22
330
4AF
100
AcDbEntity
  8
SUNPOU
 62
     0
100
AcDbTrace
 10
1538.574164181347
 20
2943.312820535257
 30
0.0
 11
1538.574164181347
 21
2933.312820535257
 31
0.0
 12
1568.574164181347
 22
2938.312820535257
 32
0.0
 13
1568.574164181347
 23
2938.312820535257
 33
0.0
  0
MTEXT
  5
2E23
330
4AF
100
AcDbEntity
  8
SUNPOU
 62
     0
100
AcDbMText
 10
1268.574164181347
 20
2977.312820535257
 30
0.0
 40
50.0
 41
0.0
 71
     5
 72
     1
  1
\A1;600
 73
     1
 44
1.0
1001
ACAD
1000
MTEXTBEGIN
1070
    73
1070
     1
1070
    44
1040
1.0
1070
    74
1070
     0
1000
MTEXTEND
  0
POINT
  5
2E24
330
4AF
100
AcDbEntity
  8
Defpoints
 62
     0
100
AcDbPoint
 10
968.5741641813475
 20
2811.606090697273
 30
0.0
  0
POINT
  5
2E25
330
4AF
100
AcDbEntity
  8
Defpoints
 62
     0
100
AcDbPoint
 10
1568.574164181347
 20
2811.606090697273
 30
0.0
  0
POINT
  5
2E26
330
4AF
100
AcDbEntity
  8
Defpoints
 62
     0
100
AcDbPoint
 10
1568.574164181347
 20
2938.312820535257
 30
0.0
  0
ENDBLK
  5
4BA
330
4AF
100
AcDbEntity
  8
0
100
AcDbBlockEnd
  0
BLOCK
  5
4C5
330
4BB
100
AcDbEntity
  8
0
100
AcDbBlockBegin
  2
*D22
 70
     1
 10
0.0
 20
0.0
 30
0.0
  3
*D22
  1

  0
LINE
  5
2E30
330
4BB
100
AcDbEntity
  8
SUNPOU
 62
     0
100
AcDbLine
 10
858.5741641813473
 20
2841.606090697272
 30
0.0
 11
858.5741641813473
 21
2948.312820535257
 31
0.0
  0
LINE
  5
2E31
330
4BB
100
AcDbEntity
  8
SUNPOU
 62
     0
100
AcDbLine
 10
968.5741641813475
 20
2841.606090697272
 30
0.0
 11
968.5741641813475
 21
2948.312820535257
 31
0.0
  0
LINE
  5
2E32
330
4BB
100
AcDbEntity
  8
SUNPOU
 62
     0
100
AcDbLine
 10
888.5741641813474
 20
2938.312820535257
 30
0.0
 11
938.5741641813474
 21
2938.312820535257
 31
0.0
  0
SOLID
  5
2E33
330
4BB
100
AcDbEntity
  8
SUNPOU
 62
     0
100
AcDbTrace
 10
888.5741641813474
 20
2943.312820535257
 30
0.0
 11
888.5741641813474
 21
2933.312820535257
 31
0.0
 12
858.5741641813473
 22
2938.312820535257
 32
0.0
 13
858.5741641813473
 23
2938.312820535257
 33
0.0
  0
SOLID
  5
2E34
330
4BB
100
AcDbEntity
  8
SUNPOU
 62
     0
100
AcDbTrace
 10
938.5741641813474
 20
2943.312820535257
 30
0.0
 11
938.5741641813474
 21
2933.312820535257
 31
0.0
 12
968.5741641813475
 22
2938.312820535257
 32
0.0
 13
968.5741641813475
 23
2938.312820535257
 33
0.0
  0
MTEXT
  5
2E35
330
4BB
100
AcDbEntity
  8
SUNPOU
 62
     0
100
AcDbMText
 10
913.5741641813474
 20
2977.312820535257
 30
0.0
 40
50.0
 41
0.0
 71
     5
 72
     1
  1
\A1;110
 73
     1
 44
1.0
1001
ACAD
1000
MTEXTBEGIN
1070
    73
1070
     1
1070
    44
1040
1.0
1070
    74
1070
     0
1000
MTEXTEND
  0
POINT
  5
2E36
330
4BB
100
AcDbEntity
  8
Defpoints
 62
     0
100
AcDbPoint
 10
858.5741641813473
 20
2811.606090697273
 30
0.0
  0
POINT
  5
2E37
330
4BB
100
AcDbEntity
  8
Defpoints
 62
     0
100
AcDbPoint
 10
968.5741641813475
 20
2811.606090697273
 30
0.0
  0
POINT
  5
2E38
330
4BB
100
AcDbEntity
  8
Defpoints
 62
     0
100
AcDbPoint
 10
968.5741641813475
 20
2938.312820535257
 30
0.0
  0
ENDBLK
  5
4C6
330
4BB
100
AcDbEntity
  8
0
100
AcDbBlockEnd
  0
BLOCK
  5
4D1
330
4C7
100
AcDbEntity
  8
0
100
AcDbBlockBegin
  2
*D23
 70
     1
 10
0.0
 20
0.0
 30
0.0
  3
*D23
  1

  0
LINE
  5
2E39
330
4C7
100
AcDbEntity
  8
SUNPOU
 62
     0
100
AcDbLine
 10
1678.574164181347
 20
2841.606090697272
 30
0.0
 11
1678.574164181347
 21
2948.312820535257
 31
0.0
  0
LINE
  5
2E3A
330
4C7
100
AcDbEntity
  8
SUNPOU
 62
     0
100
AcDbLine
 10
1568.574164181347
 20
2841.606090697272
 30
0.0
 11
1568.574164181347
 21
2948.312820535257
 31
0.0
  0
LINE
  5
2E3B
330
4C7
100
AcDbEntity
  8
SUNPOU
 62
     0
100
AcDbLine
 10
1648.574164181347
 20
2938.312820535257
 30
0.0
 11
1598.574164181347
 21
2938.312820535257
 31
0.0
  0
SOLID
  5
2E3C
330
4C7
100
AcDbEntity
  8
SUNPOU
 62
     0
100
AcDbTrace
 10
1648.574164181347
 20
2943.312820535257
 30
0.0
 11
1648.574164181347
 21
2933.312820535257
 31
0.0
 12
1678.574164181347
 22
2938.312820535257
 32
0.0
 13
1678.574164181347
 23
2938.312820535257
 33
0.0
  0
SOLID
  5
2E3D
330
4C7
100
AcDbEntity
  8
SUNPOU
 62
     0
100
AcDbTrace
 10
1598.574164181347
 20
2943.312820535257
 30
0.0
 11
1598.574164181347
 21
2933.312820535257
 31
0.0
 12
1568.574164181347
 22
2938.312820535257
 32
0.0
 13
1568.574164181347
 23
2938.312820535257
 33
0.0
  0
MTEXT
  5
2E3E
330
4C7
100
AcDbEntity
  8
SUNPOU
 62
     0
100
AcDbMText
 10
1623.574164181347
 20
2977.312820535257
 30
0.0
 40
50.0
 41
0.0
 71
     5
 72
     1
  1
\A1;110
 73
     1
 44
1.0
1001
ACAD
1000
MTEXTBEGIN
1070
    73
1070
     1
1070
    44
1040
1.0
1070
    74
1070
     0
1000
MTEXTEND
  0
POINT
  5
2E3F
330
4C7
100
AcDbEntity
  8
Defpoints
 62
     0
100
AcDbPoint
 10
1678.574164181347
 20
2811.606090697273
 30
0.0
  0
POINT
  5
2E40
330
4C7
100
AcDbEntity
  8
Defpoints
 62
     0
100
AcDbPoint
 10
1568.574164181347
 20
2811.606090697273
 30
0.0
  0
POINT
  5
2E41
330
4C7
100
AcDbEntity
  8
Defpoints
 62
     0
100
AcDbPoint
 10
1568.574164181347
 20
2938.312820535257
 30
0.0
  0
ENDBLK
  5
4D2
330
4C7
100
AcDbEntity
  8
0
100
AcDbBlockEnd
  0
BLOCK
  5
9CF
330
9C5
100
AcDbEntity
  8
0
100
AcDbBlockBegin
  2
*D26
 70
     1
 10
0.0
 20
0.0
 30
0.0
  3
*D26
  1

  0
LINE
  5
2E52
330
9C5
100
AcDbEntity
  8
SUNPOU
 62
     0
100
AcDbLine
 10
3021.028258695326
 20
4447.505141098995
 30
0.0
 11
3021.028258695326
 21
4613.76832986033
 31
0.0
  0
LINE
  5
2E53
330
9C5
100
AcDbEntity
  8
SUNPOU
 62
     0
100
AcDbLine
 10
3131.028258695325
 20
4447.505141098995
 30
0.0
 11
3131.028258695325
 21
4613.76832986033
 31
0.0
  0
LINE
  5
2E54
330
9C5
100
AcDbEntity
  8
SUNPOU
 62
     0
100
AcDbLine
 10
3051.028258695325
 20
4603.768329860329
 30
0.0
 11
3101.028258695326
 21
4603.768329860329
 31
0.0
  0
SOLID
  5
2E55
330
9C5
100
AcDbEntity
  8
SUNPOU
 62
     0
100
AcDbTrace
 10
3051.028258695325
 20
4608.768329860329
 30
0.0
 11
3051.028258695325
 21
4598.768329860329
 31
0.0
 12
3021.028258695326
 22
4603.768329860329
 32
0.0
 13
3021.028258695326
 23
4603.768329860329
 33
0.0
  0
SOLID
  5
2E56
330
9C5
100
AcDbEntity
  8
SUNPOU
 62
     0
100
AcDbTrace
 10
3101.028258695326
 20
4608.768329860329
 30
0.0
 11
3101.028258695326
 21
4598.768329860329
 31
0.0
 12
3131.028258695325
 22
4603.768329860329
 32
0.0
 13
3131.028258695325
 23
4603.768329860329
 33
0.0
  0
MTEXT
  5
2E57
330
9C5
100
AcDbEntity
  8
SUNPOU
 62
     0
100
AcDbMText
 10
3076.028258695326
 20
4642.76832986033
 30
0.0
 40
50.0
 41
0.0
 71
     5
 72
     1
  1
\A1;110
 73
     1
 44
1.0
1001
ACAD
1000
MTEXTBEGIN
1070
    73
1070
     1
1070
    44
1040
1.0
1070
    74
1070
     0
1000
MTEXTEND
  0
POINT
  5
2E58
330
9C5
100
AcDbEntity
  8
Defpoints
 62
     0
100
AcDbPoint
 10
3021.028258695326
 20
4417.505141098994
 30
0.0
  0
POINT
  5
2E59
330
9C5
100
AcDbEntity
  8
Defpoints
 62
     0
100
AcDbPoint
 10
3131.028258695325
 20
4417.505141098994
 30
0.0
  0
POINT
  5
2E5A
330
9C5
100
AcDbEntity
  8
Defpoints
 62
     0
100
AcDbPoint
 10
3131.028258695325
 20
4603.768329860329
 30
0.0
  0
ENDBLK
  5
9D0
330
9C5
100
AcDbEntity
  8
0
100
AcDbBlockEnd
  0
BLOCK
  5
9E9
330
9DF
100
AcDbEntity
  8
0
100
AcDbBlockBegin
  2
*D27
 70
     1
 10
0.0
 20
0.0
 30
0.0
  3
*D27
  1

  0
LINE
  5
2E5B
330
9DF
100
AcDbEntity
  8
SUNPOU
 62
     0
100
AcDbLine
 10
3841.028258695325
 20
4447.505141098995
 30
0.0
 11
3841.028258695325
 21
4613.76832986033
 31
0.0
  0
LINE
  5
2E5C
330
9DF
100
AcDbEntity
  8
SUNPOU
 62
     0
100
AcDbLine
 10
3731.028258695326
 20
4447.505141098995
 30
0.0
 11
3731.028258695326
 21
4613.76832986033
 31
0.0
  0
LINE
  5
2E5D
330
9DF
100
AcDbEntity
  8
SUNPOU
 62
     0
100
AcDbLine
 10
3811.028258695325
 20
4603.768329860329
 30
0.0
 11
3761.028258695326
 21
4603.768329860329
 31
0.0
  0
SOLID
  5
2E5E
330
9DF
100
AcDbEntity
  8
SUNPOU
 62
     0
100
AcDbTrace
 10
3811.028258695325
 20
4608.768329860329
 30
0.0
 11
3811.028258695325
 21
4598.768329860329
 31
0.0
 12
3841.028258695325
 22
4603.768329860329
 32
0.0
 13
3841.028258695325
 23
4603.768329860329
 33
0.0
  0
SOLID
  5
2E5F
330
9DF
100
AcDbEntity
  8
SUNPOU
 62
     0
100
AcDbTrace
 10
3761.028258695326
 20
4608.768329860329
 30
0.0
 11
3761.028258695326
 21
4598.768329860329
 31
0.0
 12
3731.028258695326
 22
4603.768329860329
 32
0.0
 13
3731.028258695326
 23
4603.768329860329
 33
0.0
  0
MTEXT
  5
2E60
330
9DF
100
AcDbEntity
  8
SUNPOU
 62
     0
100
AcDbMText
 10
3786.028258695325
 20
4642.76832986033
 30
0.0
 40
50.0
 41
0.0
 71
     5
 72
     1
  1
\A1;110
 73
     1
 44
1.0
1001
ACAD
1000
MTEXTBEGIN
1070
    73
1070
     1
1070
    44
1040
1.0
1070
    74
1070
     0
1000
MTEXTEND
  0
POINT
  5
2E61
330
9DF
100
AcDbEntity
  8
Defpoints
 62
     0
100
AcDbPoint
 10
3841.028258695325
 20
4417.505141098994
 30
0.0
  0
POINT
  5
2E62
330
9DF
100
AcDbEntity
  8
Defpoints
 62
     0
100
AcDbPoint
 10
3731.028258695326
 20
4417.505141098994
 30
0.0
  0
POINT
  5
2E63
330
9DF
100
AcDbEntity
  8
Defpoints
 62
     0
100
AcDbPoint
 10
3731.028258695326
 20
4603.768329860329
 30
0.0
  0
ENDBLK
  5
9EA
330
9DF
100
AcDbEntity
  8
0
100
AcDbBlockEnd
  0
BLOCK
  5
9F6
330
9EC
100
AcDbEntity
  8
0
100
AcDbBlockBegin
  2
*D28
 70
     1
 10
0.0
 20
0.0
 30
0.0
  3
*D28
  1

  0
LINE
  5
2E64
330
9EC
100
AcDbEntity
  8
SUNPOU
 62
     0
100
AcDbLine
 10
3731.028258695326
 20
4447.505141098995
 30
0.0
 11
3731.028258695326
 21
4613.76832986033
 31
0.0
  0
LINE
  5
2E65
330
9EC
100
AcDbEntity
  8
SUNPOU
 62
     0
100
AcDbLine
 10
3131.028258695325
 20
4447.505141098995
 30
0.0
 11
3131.028258695325
 21
4613.76832986033
 31
0.0
  0
LINE
  5
2E66
330
9EC
100
AcDbEntity
  8
SUNPOU
 62
     0
100
AcDbLine
 10
3701.028258695326
 20
4603.768329860329
 30
0.0
 11
3161.028258695325
 21
4603.768329860329
 31
0.0
  0
SOLID
  5
2E67
330
9EC
100
AcDbEntity
  8
SUNPOU
 62
     0
100
AcDbTrace
 10
3701.028258695326
 20
4608.768329860329
 30
0.0
 11
3701.028258695326
 21
4598.768329860329
 31
0.0
 12
3731.028258695326
 22
4603.768329860329
 32
0.0
 13
3731.028258695326
 23
4603.768329860329
 33
0.0
  0
SOLID
  5
2E68
330
9EC
100
AcDbEntity
  8
SUNPOU
 62
     0
100
AcDbTrace
 10
3161.028258695325
 20
4608.768329860329
 30
0.0
 11
3161.028258695325
 21
4598.768329860329
 31
0.0
 12
3131.028258695325
 22
4603.768329860329
 32
0.0
 13
3131.028258695325
 23
4603.768329860329
 33
0.0
  0
MTEXT
  5
2E69
330
9EC
100
AcDbEntity
  8
SUNPOU
 62
     0
100
AcDbMText
 10
3431.028258695326
 20
4642.76832986033
 30
0.0
 40
50.0
 41
0.0
 71
     5
 72
     1
  1
\A1;600
 73
     1
 44
1.0
1001
ACAD
1000
MTEXTBEGIN
1070
    73
1070
     1
1070
    44
1040
1.0
1070
    74
1070
     0
1000
MTEXTEND
  0
POINT
  5
2E6A
330
9EC
100
AcDbEntity
  8
Defpoints
 62
     0
100
AcDbPoint
 10
3731.028258695326
 20
4417.505141098994
 30
0.0
  0
POINT
  5
2E6B
330
9EC
100
AcDbEntity
  8
Defpoints
 62
     0
100
AcDbPoint
 10
3131.028258695325
 20
4417.505141098994
 30
0.0
  0
POINT
  5
2E6C
330
9EC
100
AcDbEntity
  8
Defpoints
 62
     0
100
AcDbPoint
 10
3131.028258695325
 20
4603.768329860329
 30
0.0
  0
ENDBLK
  5
9F7
330
9EC
100
AcDbEntity
  8
0
100
AcDbBlockEnd
  0
BLOCK
  5
A03
330
9F9
100
AcDbEntity
  8
0
100
AcDbBlockBegin
  2
*D29
 70
     1
 10
0.0
 20
0.0
 30
0.0
  3
*D29
  1

  0
LINE
  5
2E6D
330
9F9
100
AcDbEntity
  8
SUNPOU
 62
     0
100
AcDbLine
 10
3021.028258695326
 20
4447.505141098995
 30
0.0
 11
3021.028258695326
 21
4715.111236030377
 31
0.0
  0
LINE
  5
2E6E
330
9F9
100
AcDbEntity
  8
SUNPOU
 62
     0
100
AcDbLine
 10
3841.028258695325
 20
4447.505141098995
 30
0.0
 11
3841.028258695325
 21
4715.111236030377
 31
0.0
  0
LINE
  5
2E6F
330
9F9
100
AcDbEntity
  8
SUNPOU
 62
     0
100
AcDbLine
 10
3051.028258695325
 20
4705.111236030377
 30
0.0
 11
3811.028258695325
 21
4705.111236030377
 31
0.0
  0
SOLID
  5
2E70
330
9F9
100
AcDbEntity
  8
SUNPOU
 62
     0
100
AcDbTrace
 10
3051.028258695325
 20
4710.111236030377
 30
0.0
 11
3051.028258695325
 21
4700.111236030378
 31
0.0
 12
3021.028258695326
 22
4705.111236030377
 32
0.0
 13
3021.028258695326
 23
4705.111236030377
 33
0.0
  0
SOLID
  5
2E71
330
9F9
100
AcDbEntity
  8
SUNPOU
 62
     0
100
AcDbTrace
 10
3811.028258695325
 20
4710.111236030377
 30
0.0
 11
3811.028258695325
 21
4700.111236030378
 31
0.0
 12
3841.028258695325
 22
4705.111236030377
 32
0.0
 13
3841.028258695325
 23
4705.111236030377
 33
0.0
  0
MTEXT
  5
2E72
330
9F9
100
AcDbEntity
  8
SUNPOU
 62
     0
100
AcDbMText
 10
3431.028258695326
 20
4744.111236030377
 30
0.0
 40
50.0
 41
0.0
 71
     5
 72
     1
  1
\A1;820
 73
     1
 44
1.0
1001
ACAD
1000
MTEXTBEGIN
1070
    73
1070
     1
1070
    44
1040
1.0
1070
    74
1070
     0
1000
MTEXTEND
  0
POINT
  5
2E73
330
9F9
100
AcDbEntity
  8
Defpoints
 62
     0
100
AcDbPoint
 10
3021.028258695326
 20
4417.505141098994
 30
0.0
  0
POINT
  5
2E74
330
9F9
100
AcDbEntity
  8
Defpoints
 62
     0
100
AcDbPoint
 10
3841.028258695325
 20
4417.505141098994
 30
0.0
  0
POINT
  5
2E75
330
9F9
100
AcDbEntity
  8
Defpoints
 62
     0
100
AcDbPoint
 10
3841.028258695325
 20
4705.111236030377
 30
0.0
  0
ENDBLK
  5
A04
330
9F9
100
AcDbEntity
  8
0
100
AcDbBlockEnd
  0
BLOCK
  5
A11
330
A06
100
AcDbEntity
  8
0
100
AcDbBlockBegin
  2
*D30
 70
     1
 10
0.0
 20
0.0
 30
0.0
  3
*D30
  1

  0
LINE
  5
2E76
330
A06
100
AcDbEntity
  8
SUNPOU
 62
     0
100
AcDbLine
 10
2791.028258695325
 20
4088.505141098994
 30
0.0
 11
2791.028258695325
 21
3818.446313711498
 31
0.0
  0
LINE
  5
2E77
330
A06
100
AcDbEntity
  8
SUNPOU
 62
     0
100
AcDbLine
 10
2866.028258695326
 20
4087.505141098994
 30
0.0
 11
2866.028258695326
 21
3818.446313711498
 31
0.0
  0
LINE
  5
2E78
330
A06
100
AcDbEntity
  8
SUNPOU
 62
     0
100
AcDbLine
 10
2761.028258695326
 20
3828.446313711499
 30
0.0
 11
2731.028258695325
 21
3828.446313711499
 31
0.0
  0
LINE
  5
2E79
330
A06
100
AcDbEntity
  8
SUNPOU
 62
     0
100
AcDbLine
 10
2896.028258695326
 20
3828.446313711499
 30
0.0
 11
2926.028258695325
 21
3828.446313711499
 31
0.0
  0
SOLID
  5
2E7A
330
A06
100
AcDbEntity
  8
SUNPOU
 62
     0
100
AcDbTrace
 10
2761.028258695326
 20
3833.446313711498
 30
0.0
 11
2761.028258695326
 21
3823.446313711498
 31
0.0
 12
2791.028258695325
 22
3828.446313711499
 32
0.0
 13
2791.028258695325
 23
3828.446313711499
 33
0.0
  0
SOLID
  5
2E7B
330
A06
100
AcDbEntity
  8
SUNPOU
 62
     0
100
AcDbTrace
 10
2896.028258695326
 20
3833.446313711498
 30
0.0
 11
2896.028258695326
 21
3823.446313711498
 31
0.0
 12
2866.028258695326
 22
3828.446313711499
 32
0.0
 13
2866.028258695326
 23
3828.446313711499
 33
0.0
  0
MTEXT
  5
2E7C
330
A06
100
AcDbEntity
  8
SUNPOU
 62
     0
100
AcDbMText
 10
2828.528258695325
 20
3867.446313711499
 30
0.0
 40
50.0
 41
0.0
 71
     5
 72
     1
  1
\A1;75
 73
     1
 44
1.0
1001
ACAD
1000
MTEXTBEGIN
1070
    73
1070
     1
1070
    44
1040
1.0
1070
    74
1070
     0
1000
MTEXTEND
  0
POINT
  5
2E7D
330
A06
100
AcDbEntity
  8
Defpoints
 62
     0
100
AcDbPoint
 10
2791.028258695325
 20
4118.505141098995
 30
0.0
  0
POINT
  5
2E7E
330
A06
100
AcDbEntity
  8
Defpoints
 62
     0
100
AcDbPoint
 10
2866.028258695326
 20
4117.505141098994
 30
0.0
  0
POINT
  5
2E7F
330
A06
100
AcDbEntity
  8
Defpoints
 62
     0
100
AcDbPoint
 10
2866.028258695326
 20
3828.446313711499
 30
0.0
  0
ENDBLK
  5
A12
330
A06
100
AcDbEntity
  8
0
100
AcDbBlockEnd
  0
BLOCK
  5
A1E
330
A14
100
AcDbEntity
  8
0
100
AcDbBlockBegin
  2
*D31
 70
     1
 10
0.0
 20
0.0
 30
0.0
  3
*D31
  1

  0
LINE
  5
2E80
330
A14
100
AcDbEntity
  8
SUNPOU
 62
     0
100
AcDbLine
 10
2866.028258695326
 20
4087.505141098994
 30
0.0
 11
2866.028258695326
 21
3818.446313711498
 31
0.0
  0
LINE
  5
2E81
330
A14
100
AcDbEntity
  8
SUNPOU
 62
     0
100
AcDbLine
 10
3766.028258695325
 20
4087.505141098994
 30
0.0
 11
3766.028258695325
 21
3818.446313711498
 31
0.0
  0
LINE
  5
2E82
330
A14
100
AcDbEntity
  8
SUNPOU
 62
     0
100
AcDbLine
 10
2896.028258695326
 20
3828.446313711499
 30
0.0
 11
3736.028258695326
 21
3828.446313711499
 31
0.0
  0
SOLID
  5
2E83
330
A14
100
AcDbEntity
  8
SUNPOU
 62
     0
100
AcDbTrace
 10
2896.028258695326
 20
3833.446313711498
 30
0.0
 11
2896.028258695326
 21
3823.446313711498
 31
0.0
 12
2866.028258695326
 22
3828.446313711499
 32
0.0
 13
2866.028258695326
 23
3828.446313711499
 33
0.0
  0
SOLID
  5
2E84
330
A14
100
AcDbEntity
  8
SUNPOU
 62
     0
100
AcDbTrace
 10
3736.028258695326
 20
3833.446313711498
 30
0.0
 11
3736.028258695326
 21
3823.446313711498
 31
0.0
 12
3766.028258695325
 22
3828.446313711499
 32
0.0
 13
3766.028258695325
 23
3828.446313711499
 33
0.0
  0
MTEXT
  5
2E85
330
A14
100
AcDbEntity
  8
SUNPOU
 62
     0
100
AcDbMText
 10
3316.028258695325
 20
3867.446313711499
 30
0.0
 40
50.0
 41
0.0
 71
     5
 72
     1
  1
\A1;900
 73
     1
 44
1.0
1001
ACAD
1000
MTEXTBEGIN
1070
    73
1070
     1
1070
    44
1040
1.0
1070
    74
1070
     0
1000
MTEXTEND
  0
POINT
  5
2E86
330
A14
100
AcDbEntity
  8
Defpoints
 62
     0
100
AcDbPoint
 10
2866.028258695326
 20
4117.505141098994
 30
0.0
  0
POINT
  5
2E87
330
A14
100
AcDbEntity
  8
Defpoints
 62
     0
100
AcDbPoint
 10
3766.028258695325
 20
4117.505141098994
 30
0.0
  0
POINT
  5
2E88
330
A14
100
AcDbEntity
  8
Defpoints
 62
     0
100
AcDbPoint
 10
3766.028258695325
 20
3828.446313711499
 30
0.0
  0
ENDBLK
  5
A1F
330
A14
100
AcDbEntity
  8
0
100
AcDbBlockEnd
  0
BLOCK
  5
A2C
330
A21
100
AcDbEntity
  8
0
100
AcDbBlockBegin
  2
*D32
 70
     1
 10
0.0
 20
0.0
 30
0.0
  3
*D32
  1

  0
LINE
  5
2E89
330
A21
100
AcDbEntity
  8
SUNPOU
 62
     0
100
AcDbLine
 10
3766.028258695325
 20
4087.505141098994
 30
0.0
 11
3766.028258695325
 21
3818.446313711498
 31
0.0
  0
LINE
  5
2E8A
330
A21
100
AcDbEntity
  8
SUNPOU
 62
     0
100
AcDbLine
 10
3841.028258695325
 20
4088.505141098994
 30
0.0
 11
3841.028258695325
 21
3818.446313711498
 31
0.0
  0
LINE
  5
2E8B
330
A21
100
AcDbEntity
  8
SUNPOU
 62
     0
100
AcDbLine
 10
3736.028258695326
 20
3828.446313711499
 30
0.0
 11
3706.028258695326
 21
3828.446313711499
 31
0.0
  0
LINE
  5
2E8C
330
A21
100
AcDbEntity
  8
SUNPOU
 62
     0
100
AcDbLine
 10
3871.028258695325
 20
3828.446313711499
 30
0.0
 11
3901.028258695325
 21
3828.446313711499
 31
0.0
  0
SOLID
  5
2E8D
330
A21
100
AcDbEntity
  8
SUNPOU
 62
     0
100
AcDbTrace
 10
3736.028258695326
 20
3833.446313711498
 30
0.0
 11
3736.028258695326
 21
3823.446313711498
 31
0.0
 12
3766.028258695325
 22
3828.446313711499
 32
0.0
 13
3766.028258695325
 23
3828.446313711499
 33
0.0
  0
SOLID
  5
2E8E
330
A21
100
AcDbEntity
  8
SUNPOU
 62
     0
100
AcDbTrace
 10
3871.028258695325
 20
3833.446313711498
 30
0.0
 11
3871.028258695325
 21
3823.446313711498
 31
0.0
 12
3841.028258695325
 22
3828.446313711499
 32
0.0
 13
3841.028258695325
 23
3828.446313711499
 33
0.0
  0
MTEXT
  5
2E8F
330
A21
100
AcDbEntity
  8
SUNPOU
 62
     0
100
AcDbMText
 10
3803.528258695325
 20
3867.446313711499
 30
0.0
 40
50.0
 41
0.0
 71
     5
 72
     1
  1
\A1;75
 73
     1
 44
1.0
1001
ACAD
1000
MTEXTBEGIN
1070
    73
1070
     1
1070
    44
1040
1.0
1070
    74
1070
     0
1000
MTEXTEND
  0
POINT
  5
2E90
330
A21
100
AcDbEntity
  8
Defpoints
 62
     0
100
AcDbPoint
 10
3766.028258695325
 20
4117.505141098994
 30
0.0
  0
POINT
  5
2E91
330
A21
100
AcDbEntity
  8
Defpoints
 62
     0
100
AcDbPoint
 10
3841.028258695325
 20
4118.505141098995
 30
0.0
  0
POINT
  5
2E92
330
A21
100
AcDbEntity
  8
Defpoints
 62
     0
100
AcDbPoint
 10
3841.028258695325
 20
3828.446313711499
 30
0.0
  0
ENDBLK
  5
A2D
330
A21
100
AcDbEntity
  8
0
100
AcDbBlockEnd
  0
BLOCK
  5
A39
330
A2F
100
AcDbEntity
  8
0
100
AcDbBlockBegin
  2
*D33
 70
     1
 10
0.0
 20
0.0
 30
0.0
  3
*D33
  1

  0
LINE
  5
2E93
330
A2F
100
AcDbEntity
  8
SUNPOU
 62
     0
100
AcDbLine
 10
2791.028258695325
 20
4088.505141098994
 30
0.0
 11
2791.028258695325
 21
3719.646861691541
 31
0.0
  0
LINE
  5
2E94
330
A2F
100
AcDbEntity
  8
SUNPOU
 62
     0
100
AcDbLine
 10
3841.028258695325
 20
4088.505141098994
 30
0.0
 11
3841.028258695325
 21
3719.646861691541
 31
0.0
  0
LINE
  5
2E95
330
A2F
100
AcDbEntity
  8
SUNPOU
 62
     0
100
AcDbLine
 10
2821.028258695326
 20
3729.646861691541
 30
0.0
 11
3811.028258695325
 21
3729.646861691541
 31
0.0
  0
SOLID
  5
2E96
330
A2F
100
AcDbEntity
  8
SUNPOU
 62
     0
100
AcDbTrace
 10
2821.028258695326
 20
3734.646861691541
 30
0.0
 11
2821.028258695326
 21
3724.646861691541
 31
0.0
 12
2791.028258695325
 22
3729.646861691541
 32
0.0
 13
2791.028258695325
 23
3729.646861691541
 33
0.0
  0
SOLID
  5
2E97
330
A2F
100
AcDbEntity
  8
SUNPOU
 62
     0
100
AcDbTrace
 10
3811.028258695325
 20
3734.646861691541
 30
0.0
 11
3811.028258695325
 21
3724.646861691541
 31
0.0
 12
3841.028258695325
 22
3729.646861691541
 32
0.0
 13
3841.028258695325
 23
3729.646861691541
 33
0.0
  0
MTEXT
  5
2E98
330
A2F
100
AcDbEntity
  8
SUNPOU
 62
     0
100
AcDbMText
 10
3316.028258695325
 20
3768.646861691542
 30
0.0
 40
50.0
 41
0.0
 71
     5
 72
     1
  1
\A1;1050
 73
     1
 44
1.0
1001
ACAD
1000
MTEXTBEGIN
1070
    73
1070
     1
1070
    44
1040
1.0
1070
    74
1070
     0
1000
MTEXTEND
  0
POINT
  5
2E99
330
A2F
100
AcDbEntity
  8
Defpoints
 62
     0
100
AcDbPoint
 10
2791.028258695325
 20
4118.505141098995
 30
0.0
  0
POINT
  5
2E9A
330
A2F
100
AcDbEntity
  8
Defpoints
 62
     0
100
AcDbPoint
 10
3841.028258695325
 20
4118.505141098995
 30
0.0
  0
POINT
  5
2E9B
330
A2F
100
AcDbEntity
  8
Defpoints
 62
     0
100
AcDbPoint
 10
3841.028258695325
 20
3729.646861691541
 30
0.0
  0
ENDBLK
  5
A3A
330
A2F
100
AcDbEntity
  8
0
100
AcDbBlockEnd
  0
BLOCK
  5
A4A
330
A40
100
AcDbEntity
  8
0
100
AcDbBlockBegin
  2
*D34
 70
     1
 10
0.0
 20
0.0
 30
0.0
  3
*D34
  1

  0
LINE
  5
2E9C
330
A40
100
AcDbEntity
  8
SUNPOU
 62
     0
100
AcDbLine
 10
3871.028258695325
 20
4417.505141098994
 30
0.0
 11
4201.70017155511
 21
4417.505141098994
 31
0.0
  0
LINE
  5
2E9D
330
A40
100
AcDbEntity
  8
SUNPOU
 62
     0
100
AcDbLine
 10
3871.028258695325
 20
4117.505141098994
 30
0.0
 11
4201.70017155511
 21
4117.505141098994
 31
0.0
  0
LINE
  5
2E9E
330
A40
100
AcDbEntity
  8
SUNPOU
 62
     0
100
AcDbLine
 10
4191.700171555111
 20
4387.505141098994
 30
0.0
 11
4191.700171555111
 21
4147.505141098995
 31
0.0
  0
SOLID
  5
2E9F
330
A40
100
AcDbEntity
  8
SUNPOU
 62
     0
100
AcDbTrace
 10
4186.70017155511
 20
4387.505141098994
 30
0.0
 11
4196.70017155511
 21
4387.505141098994
 31
0.0
 12
4191.700171555111
 22
4417.505141098994
 32
0.0
 13
4191.700171555111
 23
4417.505141098994
 33
0.0
  0
SOLID
  5
2EA0
330
A40
100
AcDbEntity
  8
SUNPOU
 62
     0
100
AcDbTrace
 10
4186.70017155511
 20
4147.505141098995
 30
0.0
 11
4196.70017155511
 21
4147.505141098995
 31
0.0
 12
4191.700171555111
 22
4117.505141098994
 32
0.0
 13
4191.700171555111
 23
4117.505141098994
 33
0.0
  0
MTEXT
  5
2EA1
330
A40
100
AcDbEntity
  8
SUNPOU
 62
     0
100
AcDbMText
 10
4152.700171555109
 20
4267.505141098996
 30
0.0
 40
50.0
 41
0.0
 71
     5
 72
     1
  1
\A1;300
 11
0.0000000000000001
 21
1.0
 31
0.0
 73
     1
 44
1.0
1001
ACAD
1000
MTEXTBEGIN
1070
    73
1070
     1
1070
    44
1040
1.0
1070
    74
1070
     0
1000
MTEXTEND
  0
POINT
  5
2EA2
330
A40
100
AcDbEntity
  8
Defpoints
 62
     0
100
AcDbPoint
 10
3841.028258695325
 20
4417.505141098994
 30
0.0
  0
POINT
  5
2EA3
330
A40
100
AcDbEntity
  8
Defpoints
 62
     0
100
AcDbPoint
 10
3841.028258695325
 20
4117.505141098994
 30
0.0
  0
POINT
  5
2EA4
330
A40
100
AcDbEntity
  8
Defpoints
 62
     0
100
AcDbPoint
 10
4191.700171555111
 20
4117.505141098994
 30
0.0
  0
ENDBLK
  5
A4B
330
A40
100
AcDbEntity
  8
0
100
AcDbBlockEnd
  0
BLOCK
  5
121E
330
1214
100
AcDbEntity
  8
0
100
AcDbBlockBegin
  2
*D39
 70
     1
 10
0.0
 20
0.0
 30
0.0
  3
*D39
  1

  0
LINE
  5
2EDC
330
1214
100
AcDbEntity
  8
SUNPOU
 62
     0
100
AcDbLine
 10
4838.006669667551
 20
4447.505141098995
 30
0.0
 11
4838.006669667551
 21
4613.76832986033
 31
0.0
  0
LINE
  5
2EDD
330
1214
100
AcDbEntity
  8
SUNPOU
 62
     0
100
AcDbLine
 10
4948.006669667551
 20
4447.505141098995
 30
0.0
 11
4948.006669667551
 21
4613.76832986033
 31
0.0
  0
LINE
  5
2EDE
330
1214
100
AcDbEntity
  8
SUNPOU
 62
     0
100
AcDbLine
 10
4868.006669667551
 20
4603.768329860329
 30
0.0
 11
4918.006669667551
 21
4603.768329860329
 31
0.0
  0
SOLID
  5
2EDF
330
1214
100
AcDbEntity
  8
SUNPOU
 62
     0
100
AcDbTrace
 10
4868.006669667551
 20
4608.768329860329
 30
0.0
 11
4868.006669667551
 21
4598.768329860329
 31
0.0
 12
4838.006669667551
 22
4603.768329860329
 32
0.0
 13
4838.006669667551
 23
4603.768329860329
 33
0.0
  0
SOLID
  5
2EE0
330
1214
100
AcDbEntity
  8
SUNPOU
 62
     0
100
AcDbTrace
 10
4918.006669667551
 20
4608.768329860329
 30
0.0
 11
4918.006669667551
 21
4598.768329860329
 31
0.0
 12
4948.006669667551
 22
4603.768329860329
 32
0.0
 13
4948.006669667551
 23
4603.768329860329
 33
0.0
  0
MTEXT
  5
2EE1
330
1214
100
AcDbEntity
  8
SUNPOU
 62
     0
100
AcDbMText
 10
4893.006669667551
 20
4642.76832986033
 30
0.0
 40
50.0
 41
0.0
 71
     5
 72
     1
  1
\A1;110
 73
     1
 44
1.0
1001
ACAD
1000
MTEXTBEGIN
1070
    73
1070
     1
1070
    44
1040
1.0
1070
    74
1070
     0
1000
MTEXTEND
  0
POINT
  5
2EE2
330
1214
100
AcDbEntity
  8
Defpoints
 62
     0
100
AcDbPoint
 10
4838.006669667551
 20
4417.505141098994
 30
0.0
  0
POINT
  5
2EE3
330
1214
100
AcDbEntity
  8
Defpoints
 62
     0
100
AcDbPoint
 10
4948.006669667551
 20
4417.505141098994
 30
0.0
  0
POINT
  5
2EE4
330
1214
100
AcDbEntity
  8
Defpoints
 62
     0
100
AcDbPoint
 10
4948.006669667551
 20
4603.768329860329
 30
0.0
  0
ENDBLK
  5
121F
330
1214
100
AcDbEntity
  8
0
100
AcDbBlockEnd
  0
BLOCK
  5
122A
330
1220
100
AcDbEntity
  8
0
100
AcDbBlockBegin
  2
*D40
 70
     1
 10
0.0
 20
0.0
 30
0.0
  3
*D40
  1

  0
LINE
  5
2EE5
330
1220
100
AcDbEntity
  8
SUNPOU
 62
     0
100
AcDbLine
 10
5658.006669667551
 20
4447.505141098995
 30
0.0
 11
5658.006669667551
 21
4613.76832986033
 31
0.0
  0
LINE
  5
2EE6
330
1220
100
AcDbEntity
  8
SUNPOU
 62
     0
100
AcDbLine
 10
5548.006669667551
 20
4447.505141098995
 30
0.0
 11
5548.006669667551
 21
4613.76832986033
 31
0.0
  0
LINE
  5
2EE7
330
1220
100
AcDbEntity
  8
SUNPOU
 62
     0
100
AcDbLine
 10
5628.006669667551
 20
4603.768329860329
 30
0.0
 11
5578.006669667551
 21
4603.768329860329
 31
0.0
  0
SOLID
  5
2EE8
330
1220
100
AcDbEntity
  8
SUNPOU
 62
     0
100
AcDbTrace
 10
5628.006669667551
 20
4608.768329860329
 30
0.0
 11
5628.006669667551
 21
4598.768329860329
 31
0.0
 12
5658.006669667551
 22
4603.768329860329
 32
0.0
 13
5658.006669667551
 23
4603.768329860329
 33
0.0
  0
SOLID
  5
2EE9
330
1220
100
AcDbEntity
  8
SUNPOU
 62
     0
100
AcDbTrace
 10
5578.006669667551
 20
4608.768329860329
 30
0.0
 11
5578.006669667551
 21
4598.768329860329
 31
0.0
 12
5548.006669667551
 22
4603.768329860329
 32
0.0
 13
5548.006669667551
 23
4603.768329860329
 33
0.0
  0
MTEXT
  5
2EEA
330
1220
100
AcDbEntity
  8
SUNPOU
 62
     0
100
AcDbMText
 10
5603.006669667551
 20
4642.76832986033
 30
0.0
 40
50.0
 41
0.0
 71
     5
 72
     1
  1
\A1;110
 73
     1
 44
1.0
1001
ACAD
1000
MTEXTBEGIN
1070
    73
1070
     1
1070
    44
1040
1.0
1070
    74
1070
     0
1000
MTEXTEND
  0
POINT
  5
2EEB
330
1220
100
AcDbEntity
  8
Defpoints
 62
     0
100
AcDbPoint
 10
5658.006669667551
 20
4417.505141098994
 30
0.0
  0
POINT
  5
2EEC
330
1220
100
AcDbEntity
  8
Defpoints
 62
     0
100
AcDbPoint
 10
5548.006669667551
 20
4417.505141098994
 30
0.0
  0
POINT
  5
2EED
330
1220
100
AcDbEntity
  8
Defpoints
 62
     0
100
AcDbPoint
 10
5548.006669667551
 20
4603.768329860329
 30
0.0
  0
ENDBLK
  5
122B
330
1220
100
AcDbEntity
  8
0
100
AcDbBlockEnd
  0
BLOCK
  5
1236
330
122C
100
AcDbEntity
  8
0
100
AcDbBlockBegin
  2
*D41
 70
     1
 10
0.0
 20
0.0
 30
0.0
  3
*D41
  1

  0
LINE
  5
2ED3
330
122C
100
AcDbEntity
  8
SUNPOU
 62
     0
100
AcDbLine
 10
5548.006669667551
 20
4447.505141098995
 30
0.0
 11
5548.006669667551
 21
4613.76832986033
 31
0.0
  0
LINE
  5
2ED4
330
122C
100
AcDbEntity
  8
SUNPOU
 62
     0
100
AcDbLine
 10
4948.006669667551
 20
4447.505141098995
 30
0.0
 11
4948.006669667551
 21
4613.76832986033
 31
0.0
  0
LINE
  5
2ED5
330
122C
100
AcDbEntity
  8
SUNPOU
 62
     0
100
AcDbLine
 10
5518.006669667551
 20
4603.768329860329
 30
0.0
 11
4978.006669667551
 21
4603.768329860329
 31
0.0
  0
SOLID
  5
2ED6
330
122C
100
AcDbEntity
  8
SUNPOU
 62
     0
100
AcDbTrace
 10
5518.006669667551
 20
4608.768329860329
 30
0.0
 11
5518.006669667551
 21
4598.768329860329
 31
0.0
 12
5548.006669667551
 22
4603.768329860329
 32
0.0
 13
5548.006669667551
 23
4603.768329860329
 33
0.0
  0
SOLID
  5
2ED7
330
122C
100
AcDbEntity
  8
SUNPOU
 62
     0
100
AcDbTrace
 10
4978.006669667551
 20
4608.768329860329
 30
0.0
 11
4978.006669667551
 21
4598.768329860329
 31
0.0
 12
4948.006669667551
 22
4603.768329860329
 32
0.0
 13
4948.006669667551
 23
4603.768329860329
 33
0.0
  0
MTEXT
  5
2ED8
330
122C
100
AcDbEntity
  8
SUNPOU
 62
     0
100
AcDbMText
 10
5248.006669667551
 20
4642.76832986033
 30
0.0
 40
50.0
 41
0.0
 71
     5
 72
     1
  1
\A1;600
 73
     1
 44
1.0
1001
ACAD
1000
MTEXTBEGIN
1070
    73
1070
     1
1070
    44
1040
1.0
1070
    74
1070
     0
1000
MTEXTEND
  0
POINT
  5
2ED9
330
122C
100
AcDbEntity
  8
Defpoints
 62
     0
100
AcDbPoint
 10
5548.006669667551
 20
4417.505141098994
 30
0.0
  0
POINT
  5
2EDA
330
122C
100
AcDbEntity
  8
Defpoints
 62
     0
100
AcDbPoint
 10
4948.006669667551
 20
4417.505141098994
 30
0.0
  0
POINT
  5
2EDB
330
122C
100
AcDbEntity
  8
Defpoints
 62
     0
100
AcDbPoint
 10
4948.006669667551
 20
4603.768329860329
 30
0.0
  0
ENDBLK
  5
1237
330
122C
100
AcDbEntity
  8
0
100
AcDbBlockEnd
  0
BLOCK
  5
1242
330
1238
100
AcDbEntity
  8
0
100
AcDbBlockBegin
  2
*D42
 70
     1
 10
0.0
 20
0.0
 30
0.0
  3
*D42
  1

  0
LINE
  5
2ECA
330
1238
100
AcDbEntity
  8
SUNPOU
 62
     0
100
AcDbLine
 10
4838.006669667551
 20
4447.505141098995
 30
0.0
 11
4838.006669667551
 21
4715.111236030377
 31
0.0
  0
LINE
  5
2ECB
330
1238
100
AcDbEntity
  8
SUNPOU
 62
     0
100
AcDbLine
 10
5658.006669667551
 20
4447.505141098995
 30
0.0
 11
5658.006669667551
 21
4715.111236030377
 31
0.0
  0
LINE
  5
2ECC
330
1238
100
AcDbEntity
  8
SUNPOU
 62
     0
100
AcDbLine
 10
4868.006669667551
 20
4705.111236030377
 30
0.0
 11
5628.006669667551
 21
4705.111236030377
 31
0.0
  0
SOLID
  5
2ECD
330
1238
100
AcDbEntity
  8
SUNPOU
 62
     0
100
AcDbTrace
 10
4868.006669667551
 20
4710.111236030377
 30
0.0
 11
4868.006669667551
 21
4700.111236030378
 31
0.0
 12
4838.006669667551
 22
4705.111236030377
 32
0.0
 13
4838.006669667551
 23
4705.111236030377
 33
0.0
  0
SOLID
  5
2ECE
330
1238
100
AcDbEntity
  8
SUNPOU
 62
     0
100
AcDbTrace
 10
5628.006669667551
 20
4710.111236030377
 30
0.0
 11
5628.006669667551
 21
4700.111236030378
 31
0.0
 12
5658.006669667551
 22
4705.111236030377
 32
0.0
 13
5658.006669667551
 23
4705.111236030377
 33
0.0
  0
MTEXT
  5
2ECF
330
1238
100
AcDbEntity
  8
SUNPOU
 62
     0
100
AcDbMText
 10
5248.006669667551
 20
4744.111236030377
 30
0.0
 40
50.0
 41
0.0
 71
     5
 72
     1
  1
\A1;820
 73
     1
 44
1.0
1001
ACAD
1000
MTEXTBEGIN
1070
    73
1070
     1
1070
    44
1040
1.0
1070
    74
1070
     0
1000
MTEXTEND
  0
POINT
  5
2ED0
330
1238
100
AcDbEntity
  8
Defpoints
 62
     0
100
AcDbPoint
 10
4838.006669667551
 20
4417.505141098994
 30
0.0
  0
POINT
  5
2ED1
330
1238
100
AcDbEntity
  8
Defpoints
 62
     0
100
AcDbPoint
 10
5658.006669667551
 20
4417.505141098994
 30
0.0
  0
POINT
  5
2ED2
330
1238
100
AcDbEntity
  8
Defpoints
 62
     0
100
AcDbPoint
 10
5658.006669667551
 20
4705.111236030377
 30
0.0
  0
ENDBLK
  5
1243
330
1238
100
AcDbEntity
  8
0
100
AcDbBlockEnd
  0
BLOCK
  5
12DA
330
12CF
100
AcDbEntity
  8
0
100
AcDbBlockBegin
  2
*D44
 70
     1
 10
0.0
 20
0.0
 30
0.0
  3
*D44
  1

  0
LINE
  5
2F14
330
12CF
100
AcDbEntity
  8
SUNPOU
 62
     0
100
AcDbLine
 10
4608.006669667552
 20
3938.505141098995
 30
0.0
 11
4608.006669667552
 21
3668.446313711498
 31
0.0
  0
LINE
  5
2F15
330
12CF
100
AcDbEntity
  8
SUNPOU
 62
     0
100
AcDbLine
 10
4683.006669667551
 20
3937.505141098995
 30
0.0
 11
4683.006669667551
 21
3668.446313711498
 31
0.0
  0
LINE
  5
2F16
330
12CF
100
AcDbEntity
  8
SUNPOU
 62
     0
100
AcDbLine
 10
4578.00666966755
 20
3678.446313711499
 30
0.0
 11
4548.006669667551
 21
3678.446313711499
 31
0.0
  0
LINE
  5
2F17
330
12CF
100
AcDbEntity
  8
SUNPOU
 62
     0
100
AcDbLine
 10
4713.006669667551
 20
3678.446313711499
 30
0.0
 11
4743.006669667551
 21
3678.446313711499
 31
0.0
  0
SOLID
  5
2F18
330
12CF
100
AcDbEntity
  8
SUNPOU
 62
     0
100
AcDbTrace
 10
4578.00666966755
 20
3683.446313711498
 30
0.0
 11
4578.00666966755
 21
3673.446313711498
 31
0.0
 12
4608.006669667552
 22
3678.446313711499
 32
0.0
 13
4608.006669667552
 23
3678.446313711499
 33
0.0
  0
SOLID
  5
2F19
330
12CF
100
AcDbEntity
  8
SUNPOU
 62
     0
100
AcDbTrace
 10
4713.006669667551
 20
3683.446313711498
 30
0.0
 11
4713.006669667551
 21
3673.446313711498
 31
0.0
 12
4683.006669667551
 22
3678.446313711499
 32
0.0
 13
4683.006669667551
 23
3678.446313711499
 33
0.0
  0
MTEXT
  5
2F1A
330
12CF
100
AcDbEntity
  8
SUNPOU
 62
     0
100
AcDbMText
 10
4645.506669667551
 20
3717.446313711498
 30
0.0
 40
50.0
 41
0.0
 71
     5
 72
     1
  1
\A1;75
 73
     1
 44
1.0
1001
ACAD
1000
MTEXTBEGIN
1070
    73
1070
     1
1070
    44
1040
1.0
1070
    74
1070
     0
1000
MTEXTEND
  0
POINT
  5
2F1B
330
12CF
100
AcDbEntity
  8
Defpoints
 62
     0
100
AcDbPoint
 10
4608.006669667552
 20
3968.505141098995
 30
0.0
  0
POINT
  5
2F1C
330
12CF
100
AcDbEntity
  8
Defpoints
 62
     0
100
AcDbPoint
 10
4683.006669667551
 20
3967.505141098995
 30
0.0
  0
POINT
  5
2F1D
330
12CF
100
AcDbEntity
  8
Defpoints
 62
     0
100
AcDbPoint
 10
4683.006669667551
 20
3678.446313711499
 30
0.0
  0
ENDBLK
  5
12DB
330
12CF
100
AcDbEntity
  8
0
100
AcDbBlockEnd
  0
BLOCK
  5
12E6
330
12DC
100
AcDbEntity
  8
0
100
AcDbBlockBegin
  2
*D45
 70
     1
 10
0.0
 20
0.0
 30
0.0
  3
*D45
  1

  0
LINE
  5
2F0B
330
12DC
100
AcDbEntity
  8
SUNPOU
 62
     0
100
AcDbLine
 10
4683.006669667551
 20
3937.505141098995
 30
0.0
 11
4683.006669667551
 21
3668.446313711498
 31
0.0
  0
LINE
  5
2F0C
330
12DC
100
AcDbEntity
  8
SUNPOU
 62
     0
100
AcDbLine
 10
5583.006669667551
 20
3937.505141098995
 30
0.0
 11
5583.006669667551
 21
3668.446313711498
 31
0.0
  0
LINE
  5
2F0D
330
12DC
100
AcDbEntity
  8
SUNPOU
 62
     0
100
AcDbLine
 10
4713.006669667551
 20
3678.446313711499
 30
0.0
 11
5553.006669667551
 21
3678.446313711499
 31
0.0
  0
SOLID
  5
2F0E
330
12DC
100
AcDbEntity
  8
SUNPOU
 62
     0
100
AcDbTrace
 10
4713.006669667551
 20
3683.446313711498
 30
0.0
 11
4713.006669667551
 21
3673.446313711498
 31
0.0
 12
4683.006669667551
 22
3678.446313711499
 32
0.0
 13
4683.006669667551
 23
3678.446313711499
 33
0.0
  0
SOLID
  5
2F0F
330
12DC
100
AcDbEntity
  8
SUNPOU
 62
     0
100
AcDbTrace
 10
5553.006669667551
 20
3683.446313711498
 30
0.0
 11
5553.006669667551
 21
3673.446313711498
 31
0.0
 12
5583.006669667551
 22
3678.446313711499
 32
0.0
 13
5583.006669667551
 23
3678.446313711499
 33
0.0
  0
MTEXT
  5
2F10
330
12DC
100
AcDbEntity
  8
SUNPOU
 62
     0
100
AcDbMText
 10
5133.006669667551
 20
3717.446313711498
 30
0.0
 40
50.0
 41
0.0
 71
     5
 72
     1
  1
\A1;900
 73
     1
 44
1.0
1001
ACAD
1000
MTEXTBEGIN
1070
    73
1070
     1
1070
    44
1040
1.0
1070
    74
1070
     0
1000
MTEXTEND
  0
POINT
  5
2F11
330
12DC
100
AcDbEntity
  8
Defpoints
 62
     0
100
AcDbPoint
 10
4683.006669667551
 20
3967.505141098995
 30
0.0
  0
POINT
  5
2F12
330
12DC
100
AcDbEntity
  8
Defpoints
 62
     0
100
AcDbPoint
 10
5583.006669667551
 20
3967.505141098995
 30
0.0
  0
POINT
  5
2F13
330
12DC
100
AcDbEntity
  8
Defpoints
 62
     0
100
AcDbPoint
 10
5583.006669667551
 20
3678.446313711499
 30
0.0
  0
ENDBLK
  5
12E7
330
12DC
100
AcDbEntity
  8
0
100
AcDbBlockEnd
  0
BLOCK
  5
12F3
330
12E8
100
AcDbEntity
  8
0
100
AcDbBlockBegin
  2
*D46
 70
     1
 10
0.0
 20
0.0
 30
0.0
  3
*D46
  1

  0
LINE
  5
2EF8
330
12E8
100
AcDbEntity
  8
SUNPOU
 62
     0
100
AcDbLine
 10
5583.006669667551
 20
3937.505141098995
 30
0.0
 11
5583.006669667551
 21
3668.446313711498
 31
0.0
  0
LINE
  5
2EF9
330
12E8
100
AcDbEntity
  8
SUNPOU
 62
     0
100
AcDbLine
 10
5658.006669667551
 20
3938.505141098995
 30
0.0
 11
5658.006669667551
 21
3668.446313711498
 31
0.0
  0
LINE
  5
2EFA
330
12E8
100
AcDbEntity
  8
SUNPOU
 62
     0
100
AcDbLine
 10
5553.006669667551
 20
3678.446313711499
 30
0.0
 11
5523.006669667552
 21
3678.446313711499
 31
0.0
  0
LINE
  5
2EFB
330
12E8
100
AcDbEntity
  8
SUNPOU
 62
     0
100
AcDbLine
 10
5688.006669667551
 20
3678.446313711499
 30
0.0
 11
5718.006669667551
 21
3678.446313711499
 31
0.0
  0
SOLID
  5
2EFC
330
12E8
100
AcDbEntity
  8
SUNPOU
 62
     0
100
AcDbTrace
 10
5553.006669667551
 20
3683.446313711498
 30
0.0
 11
5553.006669667551
 21
3673.446313711498
 31
0.0
 12
5583.006669667551
 22
3678.446313711499
 32
0.0
 13
5583.006669667551
 23
3678.446313711499
 33
0.0
  0
SOLID
  5
2EFD
330
12E8
100
AcDbEntity
  8
SUNPOU
 62
     0
100
AcDbTrace
 10
5688.006669667551
 20
3683.446313711498
 30
0.0
 11
5688.006669667551
 21
3673.446313711498
 31
0.0
 12
5658.006669667551
 22
3678.446313711499
 32
0.0
 13
5658.006669667551
 23
3678.446313711499
 33
0.0
  0
MTEXT
  5
2EFE
330
12E8
100
AcDbEntity
  8
SUNPOU
 62
     0
100
AcDbMText
 10
5620.506669667552
 20
3717.446313711498
 30
0.0
 40
50.0
 41
0.0
 71
     5
 72
     1
  1
\A1;75
 73
     1
 44
1.0
1001
ACAD
1000
MTEXTBEGIN
1070
    73
1070
     1
1070
    44
1040
1.0
1070
    74
1070
     0
1000
MTEXTEND
  0
POINT
  5
2EFF
330
12E8
100
AcDbEntity
  8
Defpoints
 62
     0
100
AcDbPoint
 10
5583.006669667551
 20
3967.505141098995
 30
0.0
  0
POINT
  5
2F00
330
12E8
100
AcDbEntity
  8
Defpoints
 62
     0
100
AcDbPoint
 10
5658.006669667551
 20
3968.505141098995
 30
0.0
  0
POINT
  5
2F01
330
12E8
100
AcDbEntity
  8
Defpoints
 62
     0
100
AcDbPoint
 10
5658.006669667551
 20
3678.446313711499
 30
0.0
  0
ENDBLK
  5
12F4
330
12E8
100
AcDbEntity
  8
0
100
AcDbBlockEnd
  0
BLOCK
  5
12FF
330
12F5
100
AcDbEntity
  8
0
100
AcDbBlockBegin
  2
*D47
 70
     1
 10
0.0
 20
0.0
 30
0.0
  3
*D47
  1

  0
LINE
  5
2F02
330
12F5
100
AcDbEntity
  8
SUNPOU
 62
     0
100
AcDbLine
 10
4608.006669667552
 20
3938.505141098995
 30
0.0
 11
4608.006669667552
 21
3569.646861691541
 31
0.0
  0
LINE
  5
2F03
330
12F5
100
AcDbEntity
  8
SUNPOU
 62
     0
100
AcDbLine
 10
5658.006669667551
 20
3938.505141098995
 30
0.0
 11
5658.006669667551
 21
3569.646861691541
 31
0.0
  0
LINE
  5
2F04
330
12F5
100
AcDbEntity
  8
SUNPOU
 62
     0
100
AcDbLine
 10
4638.006669667551
 20
3579.646861691542
 30
0.0
 11
5628.006669667551
 21
3579.646861691542
 31
0.0
  0
SOLID
  5
2F05
330
12F5
100
AcDbEntity
  8
SUNPOU
 62
     0
100
AcDbTrace
 10
4638.006669667551
 20
3584.646861691541
 30
0.0
 11
4638.006669667551
 21
3574.646861691541
 31
0.0
 12
4608.006669667552
 22
3579.646861691542
 32
0.0
 13
4608.006669667552
 23
3579.646861691542
 33
0.0
  0
SOLID
  5
2F06
330
12F5
100
AcDbEntity
  8
SUNPOU
 62
     0
100
AcDbTrace
 10
5628.006669667551
 20
3584.646861691541
 30
0.0
 11
5628.006669667551
 21
3574.646861691541
 31
0.0
 12
5658.006669667551
 22
3579.646861691542
 32
0.0
 13
5658.006669667551
 23
3579.646861691542
 33
0.0
  0
MTEXT
  5
2F07
330
12F5
100
AcDbEntity
  8
SUNPOU
 62
     0
100
AcDbMText
 10
5133.006669667551
 20
3618.646861691541
 30
0.0
 40
50.0
 41
0.0
 71
     5
 72
     1
  1
\A1;1050
 73
     1
 44
1.0
1001
ACAD
1000
MTEXTBEGIN
1070
    73
1070
     1
1070
    44
1040
1.0
1070
    74
1070
     0
1000
MTEXTEND
  0
POINT
  5
2F08
330
12F5
100
AcDbEntity
  8
Defpoints
 62
     0
100
AcDbPoint
 10
4608.006669667552
 20
3968.505141098995
 30
0.0
  0
POINT
  5
2F09
330
12F5
100
AcDbEntity
  8
Defpoints
 62
     0
100
AcDbPoint
 10
5658.006669667551
 20
3968.505141098995
 30
0.0
  0
POINT
  5
2F0A
330
12F5
100
AcDbEntity
  8
Defpoints
 62
     0
100
AcDbPoint
 10
5658.006669667551
 20
3579.646861691542
 30
0.0
  0
ENDBLK
  5
1300
330
12F5
100
AcDbEntity
  8
0
100
AcDbBlockEnd
  0
BLOCK
  5
13A9
330
139F
100
AcDbEntity
  8
0
100
AcDbBlockBegin
  2
*D51
 70
     1
 10
0.0
 20
0.0
 30
0.0
  3
*D51
  1

  0
LINE
  5
2F3A
330
139F
100
AcDbEntity
  8
SUNPOU
 62
     0
100
AcDbLine
 10
5688.006669667551
 20
4417.505141098994
 30
0.0
 11
6018.969664186206
 21
4417.505141098994
 31
0.0
  0
LINE
  5
2F3B
330
139F
100
AcDbEntity
  8
SUNPOU
 62
     0
100
AcDbLine
 10
5688.006669667551
 20
3967.505141098995
 30
0.0
 11
6018.969664186206
 21
3967.505141098995
 31
0.0
  0
LINE
  5
2F3C
330
139F
100
AcDbEntity
  8
SUNPOU
 62
     0
100
AcDbLine
 10
6008.969664186206
 20
4387.505141098994
 30
0.0
 11
6008.969664186206
 21
3997.505141098995
 31
0.0
  0
SOLID
  5
2F3D
330
139F
100
AcDbEntity
  8
SUNPOU
 62
     0
100
AcDbTrace
 10
6003.969664186207
 20
4387.505141098994
 30
0.0
 11
6013.969664186206
 21
4387.505141098994
 31
0.0
 12
6008.969664186206
 22
4417.505141098994
 32
0.0
 13
6008.969664186206
 23
4417.505141098994
 33
0.0
  0
SOLID
  5
2F3E
330
139F
100
AcDbEntity
  8
SUNPOU
 62
     0
100
AcDbTrace
 10
6003.969664186207
 20
3997.505141098995
 30
0.0
 11
6013.969664186206
 21
3997.505141098995
 31
0.0
 12
6008.969664186206
 22
3967.505141098995
 32
0.0
 13
6008.969664186206
 23
3967.505141098995
 33
0.0
  0
MTEXT
  5
2F3F
330
139F
100
AcDbEntity
  8
SUNPOU
 62
     0
100
AcDbMText
 10
5969.969664186205
 20
4192.505141098996
 30
0.0
 40
50.0
 41
0.0
 71
     5
 72
     1
  1
\A1;450
 11
0.0000000000000001
 21
1.0
 31
0.0
 73
     1
 44
1.0
1001
ACAD
1000
MTEXTBEGIN
1070
    73
1070
     1
1070
    44
1040
1.0
1070
    74
1070
     0
1000
MTEXTEND
  0
POINT
  5
2F40
330
139F
100
AcDbEntity
  8
Defpoints
 62
     0
100
AcDbPoint
 10
5658.006669667551
 20
4417.505141098994
 30
0.0
  0
POINT
  5
2F41
330
139F
100
AcDbEntity
  8
Defpoints
 62
     0
100
AcDbPoint
 10
5658.006669667551
 20
3967.505141098995
 30
0.0
  0
POINT
  5
2F42
330
139F
100
AcDbEntity
  8
Defpoints
 62
     0
100
AcDbPoint
 10
6008.969664186206
 20
3967.505141098995
 30
0.0
  0
ENDBLK
  5
13AA
330
139F
100
AcDbEntity
  8
0
100
AcDbBlockEnd
  0
BLOCK
  5
1FDD
330
1FD3
100
AcDbEntity
  8
0
100
AcDbBlockBegin
  2
*D52
 70
     1
 10
0.0
 20
0.0
 30
0.0
  3
*D52
  1

  0
LINE
  5
2F4C
330
1FD3
100
AcDbEntity
  8
SUNPOU
 62
     0
100
AcDbLine
 10
6683.874628933961
 20
4447.505141098995
 30
0.0
 11
6683.874628933961
 21
4715.111236030377
 31
0.0
  0
LINE
  5
2F4D
330
1FD3
100
AcDbEntity
  8
SUNPOU
 62
     0
100
AcDbLine
 10
7503.874628933961
 20
4447.505141098995
 30
0.0
 11
7503.874628933961
 21
4715.111236030377
 31
0.0
  0
LINE
  5
2F4E
330
1FD3
100
AcDbEntity
  8
SUNPOU
 62
     0
100
AcDbLine
 10
6713.874628933962
 20
4705.111236030377
 30
0.0
 11
7473.874628933962
 21
4705.111236030377
 31
0.0
  0
SOLID
  5
2F4F
330
1FD3
100
AcDbEntity
  8
SUNPOU
 62
     0
100
AcDbTrace
 10
6713.874628933962
 20
4710.111236030377
 30
0.0
 11
6713.874628933962
 21
4700.111236030378
 31
0.0
 12
6683.874628933961
 22
4705.111236030377
 32
0.0
 13
6683.874628933961
 23
4705.111236030377
 33
0.0
  0
SOLID
  5
2F50
330
1FD3
100
AcDbEntity
  8
SUNPOU
 62
     0
100
AcDbTrace
 10
7473.874628933962
 20
4710.111236030377
 30
0.0
 11
7473.874628933962
 21
4700.111236030378
 31
0.0
 12
7503.874628933961
 22
4705.111236030377
 32
0.0
 13
7503.874628933961
 23
4705.111236030377
 33
0.0
  0
MTEXT
  5
2F51
330
1FD3
100
AcDbEntity
  8
SUNPOU
 62
     0
100
AcDbMText
 10
7093.874628933962
 20
4744.111236030377
 30
0.0
 40
50.0
 41
0.0
 71
     5
 72
     1
  1
\A1;820
 73
     1
 44
1.0
1001
ACAD
1000
MTEXTBEGIN
1070
    73
1070
     1
1070
    44
1040
1.0
1070
    74
1070
     0
1000
MTEXTEND
  0
POINT
  5
2F52
330
1FD3
100
AcDbEntity
  8
Defpoints
 62
     0
100
AcDbPoint
 10
6683.874628933961
 20
4417.505141098994
 30
0.0
  0
POINT
  5
2F53
330
1FD3
100
AcDbEntity
  8
Defpoints
 62
     0
100
AcDbPoint
 10
7503.874628933961
 20
4417.505141098994
 30
0.0
  0
POINT
  5
2F54
330
1FD3
100
AcDbEntity
  8
Defpoints
 62
     0
100
AcDbPoint
 10
7503.874628933961
 20
4705.111236030377
 30
0.0
  0
ENDBLK
  5
1FDE
330
1FD3
100
AcDbEntity
  8
0
100
AcDbBlockEnd
  0
BLOCK
  5
1FE9
330
1FDF
100
AcDbEntity
  8
0
100
AcDbBlockBegin
  2
*D53
 70
     1
 10
0.0
 20
0.0
 30
0.0
  3
*D53
  1

  0
LINE
  5
2F43
330
1FDF
100
AcDbEntity
  8
SUNPOU
 62
     0
100
AcDbLine
 10
7393.874628933962
 20
4447.505141098995
 30
0.0
 11
7393.874628933962
 21
4613.76832986033
 31
0.0
  0
LINE
  5
2F44
330
1FDF
100
AcDbEntity
  8
SUNPOU
 62
     0
100
AcDbLine
 10
6793.874628933962
 20
4447.505141098995
 30
0.0
 11
6793.874628933962
 21
4613.76832986033
 31
0.0
  0
LINE
  5
2F45
330
1FDF
100
AcDbEntity
  8
SUNPOU
 62
     0
100
AcDbLine
 10
7363.874628933962
 20
4603.768329860329
 30
0.0
 11
6823.874628933961
 21
4603.768329860329
 31
0.0
  0
SOLID
  5
2F46
330
1FDF
100
AcDbEntity
  8
SUNPOU
 62
     0
100
AcDbTrace
 10
7363.874628933962
 20
4608.768329860329
 30
0.0
 11
7363.874628933962
 21
4598.768329860329
 31
0.0
 12
7393.874628933962
 22
4603.768329860329
 32
0.0
 13
7393.874628933962
 23
4603.768329860329
 33
0.0
  0
SOLID
  5
2F47
330
1FDF
100
AcDbEntity
  8
SUNPOU
 62
     0
100
AcDbTrace
 10
6823.874628933961
 20
4608.768329860329
 30
0.0
 11
6823.874628933961
 21
4598.768329860329
 31
0.0
 12
6793.874628933962
 22
4603.768329860329
 32
0.0
 13
6793.874628933962
 23
4603.768329860329
 33
0.0
  0
MTEXT
  5
2F48
330
1FDF
100
AcDbEntity
  8
SUNPOU
 62
     0
100
AcDbMText
 10
7093.874628933962
 20
4642.76832986033
 30
0.0
 40
50.0
 41
0.0
 71
     5
 72
     1
  1
\A1;600
 73
     1
 44
1.0
1001
ACAD
1000
MTEXTBEGIN
1070
    73
1070
     1
1070
    44
1040
1.0
1070
    74
1070
     0
1000
MTEXTEND
  0
POINT
  5
2F49
330
1FDF
100
AcDbEntity
  8
Defpoints
 62
     0
100
AcDbPoint
 10
7393.874628933962
 20
4417.505141098994
 30
0.0
  0
POINT
  5
2F4A
330
1FDF
100
AcDbEntity
  8
Defpoints
 62
     0
100
AcDbPoint
 10
6793.874628933962
 20
4417.505141098994
 30
0.0
  0
POINT
  5
2F4B
330
1FDF
100
AcDbEntity
  8
Defpoints
 62
     0
100
AcDbPoint
 10
6793.874628933962
 20
4603.768329860329
 30
0.0
  0
ENDBLK
  5
1FEA
330
1FDF
100
AcDbEntity
  8
0
100
AcDbBlockEnd
  0
BLOCK
  5
1FF5
330
1FEB
100
AcDbEntity
  8
0
100
AcDbBlockBegin
  2
*D54
 70
     1
 10
0.0
 20
0.0
 30
0.0
  3
*D54
  1

  0
LINE
  5
2F55
330
1FEB
100
AcDbEntity
  8
SUNPOU
 62
     0
100
AcDbLine
 10
6683.874628933961
 20
4447.505141098995
 30
0.0
 11
6683.874628933961
 21
4613.76832986033
 31
0.0
  0
LINE
  5
2F56
330
1FEB
100
AcDbEntity
  8
SUNPOU
 62
     0
100
AcDbLine
 10
6793.874628933962
 20
4447.505141098995
 30
0.0
 11
6793.874628933962
 21
4613.76832986033
 31
0.0
  0
LINE
  5
2F57
330
1FEB
100
AcDbEntity
  8
SUNPOU
 62
     0
100
AcDbLine
 10
6713.874628933962
 20
4603.768329860329
 30
0.0
 11
6763.874628933962
 21
4603.768329860329
 31
0.0
  0
SOLID
  5
2F58
330
1FEB
100
AcDbEntity
  8
SUNPOU
 62
     0
100
AcDbTrace
 10
6713.874628933962
 20
4608.768329860329
 30
0.0
 11
6713.874628933962
 21
4598.768329860329
 31
0.0
 12
6683.874628933961
 22
4603.768329860329
 32
0.0
 13
6683.874628933961
 23
4603.768329860329
 33
0.0
  0
SOLID
  5
2F59
330
1FEB
100
AcDbEntity
  8
SUNPOU
 62
     0
100
AcDbTrace
 10
6763.874628933962
 20
4608.768329860329
 30
0.0
 11
6763.874628933962
 21
4598.768329860329
 31
0.0
 12
6793.874628933962
 22
4603.768329860329
 32
0.0
 13
6793.874628933962
 23
4603.768329860329
 33
0.0
  0
MTEXT
  5
2F5A
330
1FEB
100
AcDbEntity
  8
SUNPOU
 62
     0
100
AcDbMText
 10
6738.874628933962
 20
4642.76832986033
 30
0.0
 40
50.0
 41
0.0
 71
     5
 72
     1
  1
\A1;110
 73
     1
 44
1.0
1001
ACAD
1000
MTEXTBEGIN
1070
    73
1070
     1
1070
    44
1040
1.0
1070
    74
1070
     0
1000
MTEXTEND
  0
POINT
  5
2F5B
330
1FEB
100
AcDbEntity
  8
Defpoints
 62
     0
100
AcDbPoint
 10
6683.874628933961
 20
4417.505141098994
 30
0.0
  0
POINT
  5
2F5C
330
1FEB
100
AcDbEntity
  8
Defpoints
 62
     0
100
AcDbPoint
 10
6793.874628933962
 20
4417.505141098994
 30
0.0
  0
POINT
  5
2F5D
330
1FEB
100
AcDbEntity
  8
Defpoints
 62
     0
100
AcDbPoint
 10
6793.874628933962
 20
4603.768329860329
 30
0.0
  0
ENDBLK
  5
1FF6
330
1FEB
100
AcDbEntity
  8
0
100
AcDbBlockEnd
  0
BLOCK
  5
2001
330
1FF7
100
AcDbEntity
  8
0
100
AcDbBlockBegin
  2
*D55
 70
     1
 10
0.0
 20
0.0
 30
0.0
  3
*D55
  1

  0
LINE
  5
2F5E
330
1FF7
100
AcDbEntity
  8
SUNPOU
 62
     0
100
AcDbLine
 10
7503.874628933961
 20
4447.505141098995
 30
0.0
 11
7503.874628933961
 21
4613.76832986033
 31
0.0
  0
LINE
  5
2F5F
330
1FF7
100
AcDbEntity
  8
SUNPOU
 62
     0
100
AcDbLine
 10
7393.874628933962
 20
4447.505141098995
 30
0.0
 11
7393.874628933962
 21
4613.76832986033
 31
0.0
  0
LINE
  5
2F60
330
1FF7
100
AcDbEntity
  8
SUNPOU
 62
     0
100
AcDbLine
 10
7473.874628933962
 20
4603.768329860329
 30
0.0
 11
7423.874628933962
 21
4603.768329860329
 31
0.0
  0
SOLID
  5
2F61
330
1FF7
100
AcDbEntity
  8
SUNPOU
 62
     0
100
AcDbTrace
 10
7473.874628933962
 20
4608.768329860329
 30
0.0
 11
7473.874628933962
 21
4598.768329860329
 31
0.0
 12
7503.874628933961
 22
4603.768329860329
 32
0.0
 13
7503.874628933961
 23
4603.768329860329
 33
0.0
  0
SOLID
  5
2F62
330
1FF7
100
AcDbEntity
  8
SUNPOU
 62
     0
100
AcDbTrace
 10
7423.874628933962
 20
4608.768329860329
 30
0.0
 11
7423.874628933962
 21
4598.768329860329
 31
0.0
 12
7393.874628933962
 22
4603.768329860329
 32
0.0
 13
7393.874628933962
 23
4603.768329860329
 33
0.0
  0
MTEXT
  5
2F63
330
1FF7
100
AcDbEntity
  8
SUNPOU
 62
     0
100
AcDbMText
 10
7448.874628933961
 20
4642.76832986033
 30
0.0
 40
50.0
 41
0.0
 71
     5
 72
     1
  1
\A1;110
 73
     1
 44
1.0
1001
ACAD
1000
MTEXTBEGIN
1070
    73
1070
     1
1070
    44
1040
1.0
1070
    74
1070
     0
1000
MTEXTEND
  0
POINT
  5
2F64
330
1FF7
100
AcDbEntity
  8
Defpoints
 62
     0
100
AcDbPoint
 10
7503.874628933961
 20
4417.505141098994
 30
0.0
  0
POINT
  5
2F65
330
1FF7
100
AcDbEntity
  8
Defpoints
 62
     0
100
AcDbPoint
 10
7393.874628933962
 20
4417.505141098994
 30
0.0
  0
POINT
  5
2F66
330
1FF7
100
AcDbEntity
  8
Defpoints
 62
     0
100
AcDbPoint
 10
7393.874628933962
 20
4603.768329860329
 30
0.0
  0
ENDBLK
  5
2002
330
1FF7
100
AcDbEntity
  8
0
100
AcDbBlockEnd
  0
BLOCK
  5
204A
330
203F
100
AcDbEntity
  8
0
100
AcDbBlockBegin
  2
*D56
 70
     1
 10
0.0
 20
0.0
 30
0.0
  3
*D56
  1

  0
LINE
  5
2F83
330
203F
100
AcDbEntity
  8
SUNPOU
 62
     0
100
AcDbLine
 10
7428.874628933961
 20
3787.505141098995
 30
0.0
 11
7428.874628933961
 21
3518.446313711498
 31
0.0
  0
LINE
  5
2F84
330
203F
100
AcDbEntity
  8
SUNPOU
 62
     0
100
AcDbLine
 10
7503.874628933961
 20
3788.505141098994
 30
0.0
 11
7503.874628933961
 21
3518.446313711498
 31
0.0
  0
LINE
  5
2F85
330
203F
100
AcDbEntity
  8
SUNPOU
 62
     0
100
AcDbLine
 10
7398.874628933961
 20
3528.446313711498
 30
0.0
 11
7368.874628933962
 21
3528.446313711498
 31
0.0
  0
LINE
  5
2F86
330
203F
100
AcDbEntity
  8
SUNPOU
 62
     0
100
AcDbLine
 10
7533.874628933961
 20
3528.446313711498
 30
0.0
 11
7563.874628933962
 21
3528.446313711498
 31
0.0
  0
SOLID
  5
2F87
330
203F
100
AcDbEntity
  8
SUNPOU
 62
     0
100
AcDbTrace
 10
7398.874628933961
 20
3533.446313711498
 30
0.0
 11
7398.874628933961
 21
3523.446313711498
 31
0.0
 12
7428.874628933961
 22
3528.446313711498
 32
0.0
 13
7428.874628933961
 23
3528.446313711498
 33
0.0
  0
SOLID
  5
2F88
330
203F
100
AcDbEntity
  8
SUNPOU
 62
     0
100
AcDbTrace
 10
7533.874628933961
 20
3533.446313711498
 30
0.0
 11
7533.874628933961
 21
3523.446313711498
 31
0.0
 12
7503.874628933961
 22
3528.446313711498
 32
0.0
 13
7503.874628933961
 23
3528.446313711498
 33
0.0
  0
MTEXT
  5
2F89
330
203F
100
AcDbEntity
  8
SUNPOU
 62
     0
100
AcDbMText
 10
7466.374628933961
 20
3567.446313711498
 30
0.0
 40
50.0
 41
0.0
 71
     5
 72
     1
  1
\A1;75
 73
     1
 44
1.0
1001
ACAD
1000
MTEXTBEGIN
1070
    73
1070
     1
1070
    44
1040
1.0
1070
    74
1070
     0
1000
MTEXTEND
  0
POINT
  5
2F8A
330
203F
100
AcDbEntity
  8
Defpoints
 62
     0
100
AcDbPoint
 10
7428.874628933961
 20
3817.505141098994
 30
0.0
  0
POINT
  5
2F8B
330
203F
100
AcDbEntity
  8
Defpoints
 62
     0
100
AcDbPoint
 10
7503.874628933961
 20
3818.505141098995
 30
0.0
  0
POINT
  5
2F8C
330
203F
100
AcDbEntity
  8
Defpoints
 62
     0
100
AcDbPoint
 10
7503.874628933961
 20
3528.446313711498
 30
0.0
  0
ENDBLK
  5
204B
330
203F
100
AcDbEntity
  8
0
100
AcDbBlockEnd
  0
BLOCK
  5
2056
330
204C
100
AcDbEntity
  8
0
100
AcDbBlockBegin
  2
*D57
 70
     1
 10
0.0
 20
0.0
 30
0.0
  3
*D57
  1

  0
LINE
  5
2F70
330
204C
100
AcDbEntity
  8
SUNPOU
 62
     0
100
AcDbLine
 10
6453.874628933961
 20
3788.505141098994
 30
0.0
 11
6453.874628933961
 21
3419.646861691541
 31
0.0
  0
LINE
  5
2F71
330
204C
100
AcDbEntity
  8
SUNPOU
 62
     0
100
AcDbLine
 10
7503.874628933961
 20
3788.505141098994
 30
0.0
 11
7503.874628933961
 21
3419.646861691541
 31
0.0
  0
LINE
  5
2F72
330
204C
100
AcDbEntity
  8
SUNPOU
 62
     0
100
AcDbLine
 10
6483.874628933961
 20
3429.646861691541
 30
0.0
 11
7473.874628933962
 21
3429.646861691541
 31
0.0
  0
SOLID
  5
2F73
330
204C
100
AcDbEntity
  8
SUNPOU
 62
     0
100
AcDbTrace
 10
6483.874628933961
 20
3434.646861691541
 30
0.0
 11
6483.874628933961
 21
3424.646861691541
 31
0.0
 12
6453.874628933961
 22
3429.646861691541
 32
0.0
 13
6453.874628933961
 23
3429.646861691541
 33
0.0
  0
SOLID
  5
2F74
330
204C
100
AcDbEntity
  8
SUNPOU
 62
     0
100
AcDbTrace
 10
7473.874628933962
 20
3434.646861691541
 30
0.0
 11
7473.874628933962
 21
3424.646861691541
 31
0.0
 12
7503.874628933961
 22
3429.646861691541
 32
0.0
 13
7503.874628933961
 23
3429.646861691541
 33
0.0
  0
MTEXT
  5
2F75
330
204C
100
AcDbEntity
  8
SUNPOU
 62
     0
100
AcDbMText
 10
6978.874628933962
 20
3468.646861691541
 30
0.0
 40
50.0
 41
0.0
 71
     5
 72
     1
  1
\A1;1050
 73
     1
 44
1.0
1001
ACAD
1000
MTEXTBEGIN
1070
    73
1070
     1
1070
    44
1040
1.0
1070
    74
1070
     0
1000
MTEXTEND
  0
POINT
  5
2F76
330
204C
100
AcDbEntity
  8
Defpoints
 62
     0
100
AcDbPoint
 10
6453.874628933961
 20
3818.505141098995
 30
0.0
  0
POINT
  5
2F77
330
204C
100
AcDbEntity
  8
Defpoints
 62
     0
100
AcDbPoint
 10
7503.874628933961
 20
3818.505141098995
 30
0.0
  0
POINT
  5
2F78
330
204C
100
AcDbEntity
  8
Defpoints
 62
     0
100
AcDbPoint
 10
7503.874628933961
 20
3429.646861691541
 30
0.0
  0
ENDBLK
  5
2057
330
204C
100
AcDbEntity
  8
0
100
AcDbBlockEnd
  0
BLOCK
  5
2062
330
2058
100
AcDbEntity
  8
0
100
AcDbBlockBegin
  2
*D58
 70
     1
 10
0.0
 20
0.0
 30
0.0
  3
*D58
  1

  0
LINE
  5
2F67
330
2058
100
AcDbEntity
  8
SUNPOU
 62
     0
100
AcDbLine
 10
6528.874628933961
 20
3787.505141098995
 30
0.0
 11
6528.874628933961
 21
3518.446313711498
 31
0.0
  0
LINE
  5
2F68
330
2058
100
AcDbEntity
  8
SUNPOU
 62
     0
100
AcDbLine
 10
7428.874628933961
 20
3787.505141098995
 30
0.0
 11
7428.874628933961
 21
3518.446313711498
 31
0.0
  0
LINE
  5
2F69
330
2058
100
AcDbEntity
  8
SUNPOU
 62
     0
100
AcDbLine
 10
6558.874628933961
 20
3528.446313711498
 30
0.0
 11
7398.874628933961
 21
3528.446313711498
 31
0.0
  0
SOLID
  5
2F6A
330
2058
100
AcDbEntity
  8
SUNPOU
 62
     0
100
AcDbTrace
 10
6558.874628933961
 20
3533.446313711498
 30
0.0
 11
6558.874628933961
 21
3523.446313711498
 31
0.0
 12
6528.874628933961
 22
3528.446313711498
 32
0.0
 13
6528.874628933961
 23
3528.446313711498
 33
0.0
  0
SOLID
  5
2F6B
330
2058
100
AcDbEntity
  8
SUNPOU
 62
     0
100
AcDbTrace
 10
7398.874628933961
 20
3533.446313711498
 30
0.0
 11
7398.874628933961
 21
3523.446313711498
 31
0.0
 12
7428.874628933961
 22
3528.446313711498
 32
0.0
 13
7428.874628933961
 23
3528.446313711498
 33
0.0
  0
MTEXT
  5
2F6C
330
2058
100
AcDbEntity
  8
SUNPOU
 62
     0
100
AcDbMText
 10
6978.874628933962
 20
3567.446313711498
 30
0.0
 40
50.0
 41
0.0
 71
     5
 72
     1
  1
\A1;900
 73
     1
 44
1.0
1001
ACAD
1000
MTEXTBEGIN
1070
    73
1070
     1
1070
    44
1040
1.0
1070
    74
1070
     0
1000
MTEXTEND
  0
POINT
  5
2F6D
330
2058
100
AcDbEntity
  8
Defpoints
 62
     0
100
AcDbPoint
 10
6528.874628933961
 20
3817.505141098994
 30
0.0
  0
POINT
  5
2F6E
330
2058
100
AcDbEntity
  8
Defpoints
 62
     0
100
AcDbPoint
 10
7428.874628933961
 20
3817.505141098994
 30
0.0
  0
POINT
  5
2F6F
330
2058
100
AcDbEntity
  8
Defpoints
 62
     0
100
AcDbPoint
 10
7428.874628933961
 20
3528.446313711498
 30
0.0
  0
ENDBLK
  5
2063
330
2058
100
AcDbEntity
  8
0
100
AcDbBlockEnd
  0
BLOCK
  5
206F
330
2064
100
AcDbEntity
  8
0
100
AcDbBlockBegin
  2
*D59
 70
     1
 10
0.0
 20
0.0
 30
0.0
  3
*D59
  1

  0
LINE
  5
2F79
330
2064
100
AcDbEntity
  8
SUNPOU
 62
     0
100
AcDbLine
 10
6453.874628933961
 20
3788.505141098994
 30
0.0
 11
6453.874628933961
 21
3518.446313711498
 31
0.0
  0
LINE
  5
2F7A
330
2064
100
AcDbEntity
  8
SUNPOU
 62
     0
100
AcDbLine
 10
6528.874628933961
 20
3787.505141098995
 30
0.0
 11
6528.874628933961
 21
3518.446313711498
 31
0.0
  0
LINE
  5
2F7B
330
2064
100
AcDbEntity
  8
SUNPOU
 62
     0
100
AcDbLine
 10
6423.874628933962
 20
3528.446313711498
 30
0.0
 11
6393.874628933962
 21
3528.446313711498
 31
0.0
  0
LINE
  5
2F7C
330
2064
100
AcDbEntity
  8
SUNPOU
 62
     0
100
AcDbLine
 10
6558.874628933961
 20
3528.446313711498
 30
0.0
 11
6588.874628933962
 21
3528.446313711498
 31
0.0
  0
SOLID
  5
2F7D
330
2064
100
AcDbEntity
  8
SUNPOU
 62
     0
100
AcDbTrace
 10
6423.874628933962
 20
3533.446313711498
 30
0.0
 11
6423.874628933962
 21
3523.446313711498
 31
0.0
 12
6453.874628933961
 22
3528.446313711498
 32
0.0
 13
6453.874628933961
 23
3528.446313711498
 33
0.0
  0
SOLID
  5
2F7E
330
2064
100
AcDbEntity
  8
SUNPOU
 62
     0
100
AcDbTrace
 10
6558.874628933961
 20
3533.446313711498
 30
0.0
 11
6558.874628933961
 21
3523.446313711498
 31
0.0
 12
6528.874628933961
 22
3528.446313711498
 32
0.0
 13
6528.874628933961
 23
3528.446313711498
 33
0.0
  0
MTEXT
  5
2F7F
330
2064
100
AcDbEntity
  8
SUNPOU
 62
     0
100
AcDbMText
 10
6491.374628933961
 20
3567.446313711498
 30
0.0
 40
50.0
 41
0.0
 71
     5
 72
     1
  1
\A1;75
 73
     1
 44
1.0
1001
ACAD
1000
MTEXTBEGIN
1070
    73
1070
     1
1070
    44
1040
1.0
1070
    74
1070
     0
1000
MTEXTEND
  0
POINT
  5
2F80
330
2064
100
AcDbEntity
  8
Defpoints
 62
     0
100
AcDbPoint
 10
6453.874628933961
 20
3818.505141098995
 30
0.0
  0
POINT
  5
2F81
330
2064
100
AcDbEntity
  8
Defpoints
 62
     0
100
AcDbPoint
 10
6528.874628933961
 20
3817.505141098994
 30
0.0
  0
POINT
  5
2F82
330
2064
100
AcDbEntity
  8
Defpoints
 62
     0
100
AcDbPoint
 10
6528.874628933961
 20
3528.446313711498
 30
0.0
  0
ENDBLK
  5
2070
330
2064
100
AcDbEntity
  8
0
100
AcDbBlockEnd
  0
BLOCK
  5
2168
330
215E
100
AcDbEntity
  8
0
100
AcDbBlockBegin
  2
*D63
 70
     1
 10
0.0
 20
0.0
 30
0.0
  3
*D63
  1

  0
LINE
  5
2FA7
330
215E
100
AcDbEntity
  8
SUNPOU
 62
     0
100
AcDbLine
 10
7533.874628933961
 20
4417.505141098994
 30
0.0
 11
7864.837623452617
 21
4417.505141098994
 31
0.0
  0
LINE
  5
2FA8
330
215E
100
AcDbEntity
  8
SUNPOU
 62
     0
100
AcDbLine
 10
7533.874628933961
 20
3817.505141098994
 30
0.0
 11
7864.837623452617
 21
3817.505141098994
 31
0.0
  0
LINE
  5
2FA9
330
215E
100
AcDbEntity
  8
SUNPOU
 62
     0
100
AcDbLine
 10
7854.837623452617
 20
4387.505141098994
 30
0.0
 11
7854.837623452617
 21
3847.505141098995
 31
0.0
  0
SOLID
  5
2FAA
330
215E
100
AcDbEntity
  8
SUNPOU
 62
     0
100
AcDbTrace
 10
7849.837623452616
 20
4387.505141098994
 30
0.0
 11
7859.837623452617
 21
4387.505141098994
 31
0.0
 12
7854.837623452617
 22
4417.505141098994
 32
0.0
 13
7854.837623452617
 23
4417.505141098994
 33
0.0
  0
SOLID
  5
2FAB
330
215E
100
AcDbEntity
  8
SUNPOU
 62
     0
100
AcDbTrace
 10
7849.837623452616
 20
3847.505141098995
 30
0.0
 11
7859.837623452617
 21
3847.505141098995
 31
0.0
 12
7854.837623452617
 22
3817.505141098994
 32
0.0
 13
7854.837623452617
 23
3817.505141098994
 33
0.0
  0
MTEXT
  5
2FAC
330
215E
100
AcDbEntity
  8
SUNPOU
 62
     0
100
AcDbMText
 10
7815.837623452615
 20
4117.505141098996
 30
0.0
 40
50.0
 41
0.0
 71
     5
 72
     1
  1
\A1;600
 11
0.0000000000000001
 21
1.0
 31
0.0
 73
     1
 44
1.0
1001
ACAD
1000
MTEXTBEGIN
1070
    73
1070
     1
1070
    44
1040
1.0
1070
    74
1070
     0
1000
MTEXTEND
  0
POINT
  5
2FAD
330
215E
100
AcDbEntity
  8
Defpoints
 62
     0
100
AcDbPoint
 10
7503.874628933961
 20
4417.505141098994
 30
0.0
  0
POINT
  5
2FAE
330
215E
100
AcDbEntity
  8
Defpoints
 62
     0
100
AcDbPoint
 10
7503.874628933961
 20
3817.505141098994
 30
0.0
  0
POINT
  5
2FAF
330
215E
100
AcDbEntity
  8
Defpoints
 62
     0
100
AcDbPoint
 10
7854.837623452617
 20
3817.505141098994
 30
0.0
  0
ENDBLK
  5
2169
330
215E
100
AcDbEntity
  8
0
100
AcDbBlockEnd
  0
ENDSEC
  0
SECTION
  2
ENTITIES
  0
TEXT
  5
5F
330
17
100
AcDbEntity
  8
SUNPOU
100
AcDbText
 10
7771.648326526996
 20
320.0
 30
0.0
 40
60.0
  1
20
100
AcDbText
  0
TEXT
  5
BA
330
17
100
AcDbEntity
  8
SUNPOU
100
AcDbText
 10
6928.124931866048
 20
644.4276687708479
 30
0.0
 40
60.0
  1
コネクトホール１号
 41
0.8
100
AcDbText
  0
TEXT
  5
BC
330
17
100
AcDbEntity
  8
SUNPOU
100
AcDbText
 10
7533.70827976738
 20
644.4276687708479
 30
0.0
 40
60.0
  1
調整リング
 41
0.8
100
AcDbText
  0
LINE
  5
15D
330
17
100
AcDbEntity
  8
SEIHIN
100
AcDbLine
 10
3766.028258695325
 20
4117.505141098994
 30
0.0
 11
2866.028258695326
 21
4117.505141098994
 31
0.0
  0
LINE
  5
160
330
17
100
AcDbEntity
  8
SEIHIN
100
AcDbLine
 10
3841.028258695325
 20
4417.505141098994
 30
0.0
 11
3021.028258695326
 21
4417.505141098994
 31
0.0
  0
LINE
  5
162
330
17
100
AcDbEntity
  8
HASEN
 48
0.5
100
AcDbLine
 10
3731.028258695326
 20
4402.505141098994
 30
0.0
 11
3131.028258695325
 21
4402.505141098994
 31
0.0
  0
LINE
  5
163
330
17
100
AcDbEntity
  8
SEIHIN
100
AcDbLine
 10
3803.528258695325
 20
4108.505141098994
 30
0.0
 11
2828.528258695325
 21
4108.505141098994
 31
0.0
  0
LINE
  5
165
330
17
100
AcDbEntity
  8
HASEN
 48
0.5
100
AcDbLine
 10
3736.028258695326
 20
4367.505141098994
 30
0.0
 11
3766.028258695325
 21
4117.505141098994
 31
0.0
  0
LINE
  5
166
330
17
100
AcDbEntity
  8
SEIHIN
100
AcDbLine
 10
3841.028258695325
 20
4417.505141098994
 30
0.0
 11
3841.028258695325
 21
4118.505141098995
 31
0.0
  0
ARC
  5
167
330
17
100
AcDbEntity
  8
SEIHIN
100
AcDbCircle
 10
3803.528258695325
 20
4137.505141098994
 30
0.0
 40
29.0
100
AcDbArc
 50
223.6028189727126
 51
319.0672754258539
  0
LINE
  5
169
330
17
100
AcDbEntity
  8
SEIHIN
100
AcDbLine
 10
3841.028258695325
 20
4118.505141098995
 30
0.0
 11
3825.428258695325
 21
4118.505141098995
 31
0.0
  0
LINE
  5
16B
330
17
100
AcDbEntity
  8
SEIHIN
100
AcDbLine
 10
3782.528258695326
 20
4117.505141098994
 30
0.0
 11
3766.028258695325
 21
4117.505141098994
 31
0.0
  0
LINE
  5
16C
330
17
100
AcDbEntity
  8
HASEN
 48
0.5
100
AcDbLine
 10
3731.028258695326
 20
4402.505141098994
 30
0.0
 11
3736.028258695326
 21
4367.505141098994
 31
0.0
  0
LINE
  5
185
330
17
100
AcDbEntity
  8
HASEN
 48
0.5
100
AcDbLine
 10
3757.028258695326
 20
4402.505141098994
 30
0.0
 11
3731.028258695326
 21
4402.505141098994
 31
0.0
  0
LINE
  5
186
330
17
100
AcDbEntity
  8
HASEN
 48
0.5
100
AcDbLine
 10
3757.028258695326
 20
4402.505141098994
 30
0.0
 11
3763.028258695326
 21
4417.505141098994
 31
0.0
  0
LINE
  5
18A
330
17
100
AcDbEntity
  8
HASEN
 48
0.5
100
AcDbLine
 10
3126.028258695326
 20
4367.505141098994
 30
0.0
 11
2866.028258695326
 21
4117.505141098994
 31
0.0
  0
LINE
  5
18B
330
17
100
AcDbEntity
  8
SEIHIN
100
AcDbLine
 10
2791.028258695325
 20
4118.505141098995
 30
0.0
 11
2791.028258695325
 21
4207.505141098994
 31
0.0
  0
LINE
  5
18F
330
17
100
AcDbEntity
  8
SEIHIN
100
AcDbLine
 10
2806.628258695325
 20
4118.505141098995
 30
0.0
 11
2791.028258695325
 21
4118.505141098995
 31
0.0
  0
ARC
  5
190
330
17
100
AcDbEntity
  8
SEIHIN
100
AcDbCircle
 10
2828.528258695325
 20
4137.505141098994
 30
0.0
 40
29.0
100
AcDbArc
 50
220.9327245741462
 51
316.3971810272874
  0
LINE
  5
192
330
17
100
AcDbEntity
  8
SEIHIN
100
AcDbLine
 10
2849.528258695326
 20
4117.505141098994
 30
0.0
 11
2866.028258695326
 21
4117.505141098994
 31
0.0
  0
LINE
  5
193
330
17
100
AcDbEntity
  8
SEIHIN
100
AcDbLine
 10
3021.028258695326
 20
4407.505141098994
 30
0.0
 11
2791.028258695325
 21
4207.505141098994
 31
0.0
  0
LINE
  5
198
330
17
100
AcDbEntity
  8
HASEN
 48
0.5
100
AcDbLine
 10
3131.028258695325
 20
4402.505141098994
 30
0.0
 11
3126.028258695326
 21
4367.505141098994
 31
0.0
  0
LINE
  5
199
330
17
100
AcDbEntity
  8
HASEN
 48
0.5
100
AcDbLine
 10
3131.028258695325
 20
4402.505141098994
 30
0.0
 11
3105.028258695325
 21
4402.505141098994
 31
0.0
  0
LINE
  5
19A
330
17
100
AcDbEntity
  8
HASEN
 48
0.5
100
AcDbLine
 10
3105.028258695325
 20
4402.505141098994
 30
0.0
 11
3099.028258695325
 21
4417.505141098994
 31
0.0
  0
LINE
  5
19B
330
17
100
AcDbEntity
  8
SEIHIN
100
AcDbLine
 10
3021.028258695326
 20
4417.505141098994
 30
0.0
 11
3021.028258695326
 21
4407.505141098994
 31
0.0
  0
TEXT
  5
238
330
17
100
AcDbEntity
  8
SUNPOU
100
AcDbText
 10
1150.919495319469
 20
5157.680231519274
 30
0.0
 40
60.0
  1
調整リング
 41
0.8
 72
     1
 11
1288.51949531947
 21
5157.680231519274
 31
0.0
100
AcDbText
  0
TEXT
  5
23A
330
17
100
AcDbEntity
  8
SUNPOU
100
AcDbText
 10
1091.719495319469
 20
4972.892888673786
 30
0.0
 40
60.0
  1
A-R50～150
 41
0.8
 72
     1
 11
1288.51949531947
 21
4972.892888673786
 31
0.0
100
AcDbText
  0
LINE
  5
23B
330
17
100
AcDbEntity
  8
SUNPOU
100
AcDbLine
 10
1033.753661565635
 20
4958.080349141716
 30
0.0
 11
1545.66661244004
 21
4958.080349141716
 31
0.0
  0
LINE
  5
23D
330
17
100
AcDbEntity
  8
SEIHIN
100
AcDbLine
 10
858.5741641813473
 20
4401.355453912934
 30
0.0
 11
858.5741641813473
 21
4351.355453912934
 31
0.0
  0
LINE
  5
23E
330
17
100
AcDbEntity
  8
SEIHIN
100
AcDbLine
 10
858.5741641813473
 20
4351.355453912934
 30
0.0
 11
1678.574164181347
 21
4351.355453912934
 31
0.0
  0
LINE
  5
23F
330
17
100
AcDbEntity
  8
SEIHIN
100
AcDbLine
 10
1678.574164181347
 20
4351.355453912934
 30
0.0
 11
1678.574164181347
 21
4401.355453912934
 31
0.0
  0
LINE
  5
240
330
17
100
AcDbEntity
  8
SEIHIN
100
AcDbLine
 10
1678.574164181347
 20
4401.355453912934
 30
0.0
 11
858.5741641813473
 21
4401.355453912934
 31
0.0
  0
LINE
  5
241
330
17
100
AcDbEntity
  8
HASEN
 48
0.5
100
AcDbLine
 10
1593.574164181347
 20
4386.355453912934
 30
0.0
 11
943.5741641813475
 21
4386.355453912934
 31
0.0
  0
LINE
  5
242
330
17
100
AcDbEntity
  8
SEIHIN
100
AcDbLine
 10
943.5741641813475
 20
4341.355453912934
 30
0.0
 11
1593.574164181348
 21
4341.355453912934
 31
0.0
  0
LINE
  5
243
330
17
100
AcDbEntity
  8
HASEN
 48
0.5
100
AcDbLine
 10
968.5741641813475
 20
4386.355453912934
 30
0.0
 11
968.5741641813475
 21
4341.355453912934
 31
0.0
  0
LINE
  5
244
330
17
100
AcDbEntity
  8
HASEN
100
AcDbLine
 10
943.5741641813475
 20
4386.355453912934
 30
0.0
 11
934.9139101435026
 21
4401.355453912934
 31
0.0
  0
LINE
  5
2B2
330
17
100
AcDbEntity
  8
SEIHIN
100
AcDbLine
 10
943.5741641813475
 20
4341.355453912934
 30
0.0
 11
937.8006614894511
 21
4351.355453912934
 31
0.0
  0
LINE
  5
2B3
330
17
100
AcDbEntity
  8
HASEN
 48
0.5
100
AcDbLine
 10
1568.574164181347
 20
4386.355453912934
 30
0.0
 11
1568.574164181347
 21
4341.355453912934
 31
0.0
  0
LINE
  5
2B4
330
17
100
AcDbEntity
  8
SEIHIN
100
AcDbLine
 10
1593.574164181347
 20
4341.355453912934
 30
0.0
 11
1599.347666873244
 21
4351.355453912934
 31
0.0
  0
LINE
  5
2B5
330
17
100
AcDbEntity
  8
HASEN
100
AcDbLine
 10
1593.574164181347
 20
4386.355453912934
 30
0.0
 11
1602.234418219192
 21
4401.355453912934
 31
0.0
  0
DIMENSION
  5
2B7
330
17
100
AcDbEntity
  8
SUNPOU
100
AcDbDimension
  2
*D2
 10
968.5741641813475
 20
4528.062183750918
 30
0.0
 11
913.5741641813474
 21
4567.062183750919
 31
0.0
 70
    32
 71
     5
 42
-1.0
  3
STANDARD
100
AcDbAlignedDimension
 13
858.5741641813473
 23
4401.355453912934
 33
0.0
 14
968.5741641813475
 24
4401.355453912934
 34
0.0
100
AcDbRotatedDimension
1001
ACAD
1000
DSTYLE
1002
{
1070
   287
1070
     5
1070
   287
1070
     5
1070
    40
1040
20.0
1070
    41
1040
1.5
1070
    42
1040
1.5
1070
    43
1040
7.0
1070
    44
1040
0.5
1070
    73
1070
     0
1070
    74
1070
     0
1070
    77
1070
     1
1070
    78
1070
     8
1070
   140
1040
2.5
1070
   141
1040
0.0
1070
   145
1040
1.0
1070
   147
1040
0.7
1070
   174
1070
     1
1070
   179
1070
     4
1070
   271
1070
     0
1070
   272
1070
     0
1070
   279
1070
     2
1070
   284
1070
     8
1070
   285
1070
     8
1070
   286
1070
     8
1002
}
  0
DIMENSION
  5
2D7
330
17
100
AcDbEntity
  8
SUNPOU
100
AcDbDimension
  2
*D3
 10
1568.574164181347
 20
4528.062183750918
 30
0.0
 11
1623.574164181347
 21
4567.062183750919
 31
0.0
 70
    32
 71
     5
 42
-1.0
  3
STANDARD
100
AcDbAlignedDimension
 13
1678.574164181347
 23
4401.355453912934
 33
0.0
 14
1568.574164181347
 24
4401.355453912934
 34
0.0
 50
180.0
100
AcDbRotatedDimension
1001
ACAD
1000
DSTYLE
1002
{
1070
   287
1070
     5
1070
   287
1070
     5
1070
    40
1040
20.0
1070
    41
1040
1.5
1070
    42
1040
1.5
1070
    43
1040
7.0
1070
    44
1040
0.5
1070
    73
1070
     0
1070
    74
1070
     0
1070
    77
1070
     1
1070
    78
1070
     8
1070
   140
1040
2.5
1070
   141
1040
0.0
1070
   145
1040
1.0
1070
   147
1040
0.7
1070
   174
1070
     1
1070
   179
1070
     4
1070
   271
1070
     0
1070
   272
1070
     0
1070
   279
1070
     2
1070
   284
1070
     8
1070
   285
1070
     8
1070
   286
1070
     8
1002
}
  0
DIMENSION
  5
2ED
330
17
100
AcDbEntity
  8
SUNPOU
100
AcDbDimension
  2
*D4
 10
1568.574164181347
 20
4528.062183750918
 30
0.0
 11
1268.574164181347
 21
4567.062183750919
 31
0.0
 70
    32
 71
     5
 42
-1.0
  3
STANDARD
100
AcDbAlignedDimension
 13
968.5741641813475
 23
4401.355453912934
 33
0.0
 14
1568.574164181347
 24
4401.355453912934
 34
0.0
100
AcDbRotatedDimension
1001
ACAD
1000
DSTYLE
1002
{
1070
   287
1070
     5
1070
   287
1070
     5
1070
    40
1040
20.0
1070
    41
1040
1.5
1070
    42
1040
1.5
1070
    43
1040
7.0
1070
    44
1040
0.5
1070
    73
1070
     0
1070
    74
1070
     0
1070
    77
1070
     1
1070
    78
1070
     8
1070
   140
1040
2.5
1070
   141
1040
0.0
1070
   145
1040
1.0
1070
   147
1040
0.7
1070
   174
1070
     1
1070
   179
1070
     4
1070
   271
1070
     0
1070
   272
1070
     0
1070
   279
1070
     2
1070
   284
1070
     8
1070
   285
1070
     8
1070
   286
1070
     8
1002
}
  0
DIMENSION
  5
316
330
17
100
AcDbEntity
  8
SUNPOU
100
AcDbDimension
  2
*D5
 10
1678.574164181347
 20
4628.841705974251
 30
0.0
 11
1268.574164181347
 21
4667.841705974251
 31
0.0
 70
    32
 71
     5
 42
-1.0
  3
STANDARD
100
AcDbAlignedDimension
 13
858.5741641813473
 23
4401.355453912934
 33
0.0
 14
1678.574164181347
 24
4401.355453912934
 34
0.0
100
AcDbRotatedDimension
1001
ACAD
1000
DSTYLE
1002
{
1070
   287
1070
     5
1070
   287
1070
     5
1070
    40
1040
20.0
1070
    41
1040
1.5
1070
    42
1040
1.5
1070
    43
1040
7.0
1070
    44
1040
0.5
1070
    73
1070
     0
1070
    74
1070
     0
1070
    77
1070
     1
1070
    78
1070
     8
1070
   140
1040
2.5
1070
   141
1040
0.0
1070
   145
1040
1.0
1070
   147
1040
0.7
1070
   174
1070
     1
1070
   179
1070
     4
1070
   271
1070
     0
1070
   272
1070
     0
1070
   279
1070
     2
1070
   284
1070
     8
1070
   285
1070
     8
1070
   286
1070
     8
1002
}
  0
DIMENSION
  5
323
330
17
100
AcDbEntity
  8
SUNPOU
100
AcDbDimension
  2
*D6
 10
1995.56212068694
 20
4351.355453912934
 30
0.0
 11
1956.562120686939
 21
4376.355453912935
 31
0.0
 70
    32
 71
     5
 42
-1.0
  3
STANDARD
100
AcDbAlignedDimension
 13
1678.574164181347
 23
4401.355453912934
 33
0.0
 14
1678.574164181347
 24
4351.355453912934
 34
0.0
 50
90.0
100
AcDbRotatedDimension
1001
ACAD
1000
DSTYLE
1002
{
1070
   287
1070
     5
1070
   287
1070
     5
1070
    40
1040
20.0
1070
    41
1040
1.5
1070
    42
1040
1.5
1070
    43
1040
7.0
1070
    44
1040
0.5
1070
    73
1070
     0
1070
    74
1070
     0
1070
    77
1070
     1
1070
    78
1070
     8
1070
   140
1040
2.5
1070
   141
1040
0.0
1070
   145
1040
1.0
1070
   147
1040
0.7
1070
   174
1070
     1
1070
   179
1070
     4
1070
   271
1070
     0
1070
   272
1070
     0
1070
   279
1070
     2
1070
   284
1070
     8
1070
   285
1070
     8
1070
   286
1070
     8
1002
}
  0
DIMENSION
  5
37F
330
17
100
AcDbEntity
  8
SUNPOU
100
AcDbDimension
  2
*D13
 10
1995.56212068694
 20
3517.420858922516
 30
0.0
 11
1956.562120686939
 21
3567.420858922517
 31
0.0
 70
    32
 71
     5
 42
-1.0
  3
STANDARD
100
AcDbAlignedDimension
 13
1678.574164181347
 23
3617.420858922517
 33
0.0
 14
1678.574164181347
 24
3517.420858922516
 34
0.0
 50
90.0
100
AcDbRotatedDimension
1001
ACAD
1000
DSTYLE
1002
{
1070
   287
1070
     5
1070
   287
1070
     5
1070
    40
1040
20.0
1070
    41
1040
1.5
1070
    42
1040
1.5
1070
    43
1040
7.0
1070
    44
1040
0.5
1070
    73
1070
     0
1070
    74
1070
     0
1070
    77
1070
     1
1070
    78
1070
     8
1070
   140
1040
2.5
1070
   141
1040
0.0
1070
   145
1040
1.0
1070
   147
1040
0.7
1070
   174
1070
     1
1070
   179
1070
     4
1070
   271
1070
     0
1070
   272
1070
     0
1070
   279
1070
     2
1070
   284
1070
     8
1070
   285
1070
     8
1070
   286
1070
     8
1002
}
  0
DIMENSION
  5
380
330
17
100
AcDbEntity
  8
SUNPOU
100
AcDbDimension
  2
*D12
 10
1678.574164181347
 20
3844.907110983834
 30
0.0
 11
1268.574164181347
 21
3883.907110983834
 31
0.0
 70
    32
 71
     5
 42
-1.0
  3
STANDARD
100
AcDbAlignedDimension
 13
858.5741641813473
 23
3617.420858922517
 33
0.0
 14
1678.574164181347
 24
3617.420858922517
 34
0.0
100
AcDbRotatedDimension
1001
ACAD
1000
DSTYLE
1002
{
1070
   287
1070
     5
1070
   287
1070
     5
1070
    40
1040
20.0
1070
    41
1040
1.5
1070
    42
1040
1.5
1070
    43
1040
7.0
1070
    44
1040
0.5
1070
    73
1070
     0
1070
    74
1070
     0
1070
    77
1070
     1
1070
    78
1070
     8
1070
   140
1040
2.5
1070
   141
1040
0.0
1070
   145
1040
1.0
1070
   147
1040
0.7
1070
   174
1070
     1
1070
   179
1070
     4
1070
   271
1070
     0
1070
   272
1070
     0
1070
   279
1070
     2
1070
   284
1070
     8
1070
   285
1070
     8
1070
   286
1070
     8
1002
}
  0
LINE
  5
381
330
17
100
AcDbEntity
  8
SEIHIN
100
AcDbLine
 10
858.5741641813473
 20
3517.420858922517
 30
0.0
 11
1678.574164181347
 21
3517.420858922517
 31
0.0
  0
LINE
  5
382
330
17
100
AcDbEntity
  8
SEIHIN
100
AcDbLine
 10
1678.574164181347
 20
3617.420858922517
 30
0.0
 11
858.5741641813473
 21
3617.420858922517
 31
0.0
  0
LINE
  5
383
330
17
100
AcDbEntity
  8
HASEN
 48
0.5
100
AcDbLine
 10
1593.574164181347
 20
3602.420858922516
 30
0.0
 11
943.5741641813475
 21
3602.420858922516
 31
0.0
  0
LINE
  5
384
330
17
100
AcDbEntity
  8
SEIHIN
100
AcDbLine
 10
943.5741641813475
 20
3507.420858922517
 30
0.0
 11
1593.574164181348
 21
3507.420858922517
 31
0.0
  0
DIMENSION
  5
386
330
17
100
AcDbEntity
  8
SUNPOU
100
AcDbDimension
  2
*D11
 10
1568.574164181347
 20
3744.127588760501
 30
0.0
 11
1268.574164181347
 21
3783.127588760501
 31
0.0
 70
    32
 71
     5
 42
-1.0
  3
STANDARD
100
AcDbAlignedDimension
 13
968.5741641813475
 23
3617.420858922517
 33
0.0
 14
1568.574164181347
 24
3617.420858922517
 34
0.0
100
AcDbRotatedDimension
1001
ACAD
1000
DSTYLE
1002
{
1070
   287
1070
     5
1070
   287
1070
     5
1070
    40
1040
20.0
1070
    41
1040
1.5
1070
    42
1040
1.5
1070
    43
1040
7.0
1070
    44
1040
0.5
1070
    73
1070
     0
1070
    74
1070
     0
1070
    77
1070
     1
1070
    78
1070
     8
1070
   140
1040
2.5
1070
   141
1040
0.0
1070
   145
1040
1.0
1070
   147
1040
0.7
1070
   174
1070
     1
1070
   179
1070
     4
1070
   271
1070
     0
1070
   272
1070
     0
1070
   279
1070
     2
1070
   284
1070
     8
1070
   285
1070
     8
1070
   286
1070
     8
1002
}
  0
DIMENSION
  5
387
330
17
100
AcDbEntity
  8
SUNPOU
100
AcDbDimension
  2
*D9
 10
968.5741641813475
 20
3744.127588760501
 30
0.0
 11
913.5741641813474
 21
3783.127588760501
 31
0.0
 70
    32
 71
     5
 42
-1.0
  3
STANDARD
100
AcDbAlignedDimension
 13
858.5741641813473
 23
3617.420858922517
 33
0.0
 14
968.5741641813475
 24
3617.420858922517
 34
0.0
100
AcDbRotatedDimension
1001
ACAD
1000
DSTYLE
1002
{
1070
   287
1070
     5
1070
   287
1070
     5
1070
    40
1040
20.0
1070
    41
1040
1.5
1070
    42
1040
1.5
1070
    43
1040
7.0
1070
    44
1040
0.5
1070
    73
1070
     0
1070
    74
1070
     0
1070
    77
1070
     1
1070
    78
1070
     8
1070
   140
1040
2.5
1070
   141
1040
0.0
1070
   145
1040
1.0
1070
   147
1040
0.7
1070
   174
1070
     1
1070
   179
1070
     4
1070
   271
1070
     0
1070
   272
1070
     0
1070
   279
1070
     2
1070
   284
1070
     8
1070
   285
1070
     8
1070
   286
1070
     8
1002
}
  0
LINE
  5
388
330
17
100
AcDbEntity
  8
SEIHIN
100
AcDbLine
 10
858.5741641813473
 20
3617.420858922517
 30
0.0
 11
858.5741641813473
 21
3517.420858922516
 31
0.0
  0
LINE
  5
389
330
17
100
AcDbEntity
  8
HASEN
100
AcDbLine
 10
943.5741641813475
 20
3602.420858922516
 30
0.0
 11
934.9139101435026
 21
3617.420858922517
 31
0.0
  0
LINE
  5
38A
330
17
100
AcDbEntity
  8
SEIHIN
100
AcDbLine
 10
943.5741641813475
 20
3507.420858922517
 30
0.0
 11
937.8006614894511
 21
3517.420858922517
 31
0.0
  0
LINE
  5
38B
330
17
100
AcDbEntity
  8
HASEN
 48
0.5
100
AcDbLine
 10
968.5741641813475
 20
3602.420858922516
 30
0.0
 11
968.5741641813475
 21
3507.420858922517
 31
0.0
  0
DIMENSION
  5
390
330
17
100
AcDbEntity
  8
SUNPOU
100
AcDbDimension
  2
*D10
 10
1568.574164181347
 20
3744.127588760501
 30
0.0
 11
1623.574164181347
 21
3783.127588760501
 31
0.0
 70
    32
 71
     5
 42
-1.0
  3
STANDARD
100
AcDbAlignedDimension
 13
1678.574164181347
 23
3617.420858922517
 33
0.0
 14
1568.574164181347
 24
3617.420858922517
 34
0.0
 50
180.0
100
AcDbRotatedDimension
1001
ACAD
1000
DSTYLE
1002
{
1070
   287
1070
     5
1070
   287
1070
     5
1070
    40
1040
20.0
1070
    41
1040
1.5
1070
    42
1040
1.5
1070
    43
1040
7.0
1070
    44
1040
0.5
1070
    73
1070
     0
1070
    74
1070
     0
1070
    77
1070
     1
1070
    78
1070
     8
1070
   140
1040
2.5
1070
   141
1040
0.0
1070
   145
1040
1.0
1070
   147
1040
0.7
1070
   174
1070
     1
1070
   179
1070
     4
1070
   271
1070
     0
1070
   272
1070
     0
1070
   279
1070
     2
1070
   284
1070
     8
1070
   285
1070
     8
1070
   286
1070
     8
1002
}
  0
LINE
  5
391
330
17
100
AcDbEntity
  8
SEIHIN
100
AcDbLine
 10
1593.574164181347
 20
3507.420858922517
 30
0.0
 11
1599.347666873244
 21
3517.420858922517
 31
0.0
  0
LINE
  5
392
330
17
100
AcDbEntity
  8
HASEN
100
AcDbLine
 10
1593.574164181347
 20
3602.420858922516
 30
0.0
 11
1602.234418219192
 21
3617.420858922517
 31
0.0
  0
LINE
  5
393
330
17
100
AcDbEntity
  8
HASEN
 48
0.5
100
AcDbLine
 10
1568.574164181347
 20
3602.420858922516
 30
0.0
 11
1568.574164181347
 21
3507.420858922517
 31
0.0
  0
LINE
  5
394
330
17
100
AcDbEntity
  8
SEIHIN
100
AcDbLine
 10
1678.574164181347
 20
3517.420858922516
 30
0.0
 11
1678.574164181347
 21
3617.420858922517
 31
0.0
  0
DIMENSION
  5
45E
330
17
100
AcDbEntity
  8
SUNPOU
100
AcDbDimension
  2
*D19
 10
1995.56212068694
 20
2661.606090697273
 30
0.0
 11
1956.562120686939
 21
2736.606090697273
 31
0.0
 70
    32
 71
     5
 42
-1.0
  3
STANDARD
100
AcDbAlignedDimension
 13
1678.574164181347
 23
2811.606090697273
 33
0.0
 14
1678.574164181347
 24
2661.606090697273
 34
0.0
 50
90.0
100
AcDbRotatedDimension
1001
ACAD
1000
DSTYLE
1002
{
1070
   287
1070
     5
1070
   287
1070
     5
1070
    40
1040
20.0
1070
    41
1040
1.5
1070
    42
1040
1.5
1070
    43
1040
7.0
1070
    44
1040
0.5
1070
    73
1070
     0
1070
    74
1070
     0
1070
    77
1070
     1
1070
    78
1070
     8
1070
   140
1040
2.5
1070
   141
1040
0.0
1070
   145
1040
1.0
1070
   147
1040
0.7
1070
   174
1070
     1
1070
   179
1070
     4
1070
   271
1070
     0
1070
   272
1070
     0
1070
   279
1070
     2
1070
   284
1070
     8
1070
   285
1070
     8
1070
   286
1070
     8
1002
}
  0
LINE
  5
465
330
17
100
AcDbEntity
  8
HASEN
 48
0.5
100
AcDbLine
 10
968.5741641813475
 20
2796.606090697272
 30
0.0
 11
968.5741641813475
 21
2651.606090697273
 31
0.0
  0
LINE
  5
466
330
17
100
AcDbEntity
  8
HASEN
 48
0.5
100
AcDbLine
 10
1568.574164181347
 20
2796.606090697272
 30
0.0
 11
1568.574164181347
 21
2651.606090697273
 31
0.0
  0
LINE
  5
467
330
17
100
AcDbEntity
  8
SEIHIN
100
AcDbLine
 10
1678.574164181347
 20
2661.606090697273
 30
0.0
 11
1678.574164181347
 21
2811.606090697273
 31
0.0
  0
LINE
  5
468
330
17
100
AcDbEntity
  8
SEIHIN
100
AcDbLine
 10
858.5741641813473
 20
2811.606090697273
 30
0.0
 11
858.5741641813473
 21
2661.606090697273
 31
0.0
  0
LINE
  5
46A
330
17
100
AcDbEntity
  8
SEIHIN
100
AcDbLine
 10
858.5741641813473
 20
2661.606090697273
 30
0.0
 11
1678.574164181347
 21
2661.606090697273
 31
0.0
  0
LINE
  5
46B
330
17
100
AcDbEntity
  8
SEIHIN
100
AcDbLine
 10
943.5741641813475
 20
2651.606090697273
 30
0.0
 11
1593.574164181348
 21
2651.606090697273
 31
0.0
  0
LINE
  5
46C
330
17
100
AcDbEntity
  8
SEIHIN
100
AcDbLine
 10
943.5741641813475
 20
2651.606090697273
 30
0.0
 11
937.8006614894511
 21
2661.606090697273
 31
0.0
  0
LINE
  5
472
330
17
100
AcDbEntity
  8
SEIHIN
100
AcDbLine
 10
1593.574164181347
 20
2651.606090697273
 30
0.0
 11
1599.347666873244
 21
2661.606090697273
 31
0.0
  0
DIMENSION
  5
474
330
17
100
AcDbEntity
  8
SUNPOU
100
AcDbDimension
  2
*D21
 10
1568.574164181347
 20
2938.312820535257
 30
0.0
 11
1268.574164181347
 21
2977.312820535257
 31
0.0
 70
    32
 71
     5
 42
-1.0
  3
STANDARD
100
AcDbAlignedDimension
 13
968.5741641813475
 23
2811.606090697273
 33
0.0
 14
1568.574164181347
 24
2811.606090697273
 34
0.0
100
AcDbRotatedDimension
1001
ACAD
1000
DSTYLE
1002
{
1070
   287
1070
     5
1070
   287
1070
     5
1070
    40
1040
20.0
1070
    41
1040
1.5
1070
    42
1040
1.5
1070
    43
1040
7.0
1070
    44
1040
0.5
1070
    73
1070
     0
1070
    74
1070
     0
1070
    77
1070
     1
1070
    78
1070
     8
1070
   140
1040
2.5
1070
   141
1040
0.0
1070
   145
1040
1.0
1070
   147
1040
0.7
1070
   174
1070
     1
1070
   179
1070
     4
1070
   271
1070
     0
1070
   272
1070
     0
1070
   279
1070
     2
1070
   284
1070
     8
1070
   285
1070
     8
1070
   286
1070
     8
1002
}
  0
LINE
  5
475
330
17
100
AcDbEntity
  8
HASEN
 48
0.5
100
AcDbLine
 10
1593.574164181347
 20
2796.606090697272
 30
0.0
 11
943.5741641813475
 21
2796.606090697272
 31
0.0
  0
LINE
  5
476
330
17
100
AcDbEntity
  8
SEIHIN
100
AcDbLine
 10
1678.574164181347
 20
2811.606090697273
 30
0.0
 11
858.5741641813473
 21
2811.606090697273
 31
0.0
  0
DIMENSION
  5
477
330
17
100
AcDbEntity
  8
SUNPOU
100
AcDbDimension
  2
*D20
 10
1678.574164181347
 20
3039.09234275859
 30
0.0
 11
1268.574164181347
 21
3078.092342758589
 31
0.0
 70
    32
 71
     5
 42
-1.0
  3
STANDARD
100
AcDbAlignedDimension
 13
858.5741641813473
 23
2811.606090697273
 33
0.0
 14
1678.574164181347
 24
2811.606090697273
 34
0.0
100
AcDbRotatedDimension
1001
ACAD
1000
DSTYLE
1002
{
1070
   287
1070
     5
1070
   287
1070
     5
1070
    40
1040
20.0
1070
    41
1040
1.5
1070
    42
1040
1.5
1070
    43
1040
7.0
1070
    44
1040
0.5
1070
    73
1070
     0
1070
    74
1070
     0
1070
    77
1070
     1
1070
    78
1070
     8
1070
   140
1040
2.5
1070
   141
1040
0.0
1070
   145
1040
1.0
1070
   147
1040
0.7
1070
   174
1070
     1
1070
   179
1070
     4
1070
   271
1070
     0
1070
   272
1070
     0
1070
   279
1070
     2
1070
   284
1070
     8
1070
   285
1070
     8
1070
   286
1070
     8
1002
}
  0
DIMENSION
  5
478
330
17
100
AcDbEntity
  8
SUNPOU
100
AcDbDimension
  2
*D22
 10
968.5741641813475
 20
2938.312820535257
 30
0.0
 11
913.5741641813474
 21
2977.312820535257
 31
0.0
 70
    32
 71
     5
 42
-1.0
  3
STANDARD
100
AcDbAlignedDimension
 13
858.5741641813473
 23
2811.606090697273
 33
0.0
 14
968.5741641813475
 24
2811.606090697273
 34
0.0
100
AcDbRotatedDimension
1001
ACAD
1000
DSTYLE
1002
{
1070
   287
1070
     5
1070
   287
1070
     5
1070
    40
1040
20.0
1070
    41
1040
1.5
1070
    42
1040
1.5
1070
    43
1040
7.0
1070
    44
1040
0.5
1070
    73
1070
     0
1070
    74
1070
     0
1070
    77
1070
     1
1070
    78
1070
     8
1070
   140
1040
2.5
1070
   141
1040
0.0
1070
   145
1040
1.0
1070
   147
1040
0.7
1070
   174
1070
     1
1070
   179
1070
     4
1070
   271
1070
     0
1070
   272
1070
     0
1070
   279
1070
     2
1070
   284
1070
     8
1070
   285
1070
     8
1070
   286
1070
     8
1002
}
  0
LINE
  5
479
330
17
100
AcDbEntity
  8
HASEN
100
AcDbLine
 10
943.5741641813475
 20
2796.606090697272
 30
0.0
 11
934.9139101435026
 21
2811.606090697273
 31
0.0
  0
DIMENSION
  5
47A
330
17
100
AcDbEntity
  8
SUNPOU
100
AcDbDimension
  2
*D23
 10
1568.574164181347
 20
2938.312820535257
 30
0.0
 11
1623.574164181347
 21
2977.312820535257
 31
0.0
 70
    32
 71
     5
 42
-1.0
  3
STANDARD
100
AcDbAlignedDimension
 13
1678.574164181347
 23
2811.606090697273
 33
0.0
 14
1568.574164181347
 24
2811.606090697273
 34
0.0
 50
180.0
100
AcDbRotatedDimension
1001
ACAD
1000
DSTYLE
1002
{
1070
   287
1070
     5
1070
   287
1070
     5
1070
    40
1040
20.0
1070
    41
1040
1.5
1070
    42
1040
1.5
1070
    43
1040
7.0
1070
    44
1040
0.5
1070
    73
1070
     0
1070
    74
1070
     0
1070
    77
1070
     1
1070
    78
1070
     8
1070
   140
1040
2.5
1070
   141
1040
0.0
1070
   145
1040
1.0
1070
   147
1040
0.7
1070
   174
1070
     1
1070
   179
1070
     4
1070
   271
1070
     0
1070
   272
1070
     0
1070
   279
1070
     2
1070
   284
1070
     8
1070
   285
1070
     8
1070
   286
1070
     8
1002
}
  0
LINE
  5
47B
330
17
100
AcDbEntity
  8
HASEN
100
AcDbLine
 10
1593.574164181347
 20
2796.606090697272
 30
0.0
 11
1602.234418219192
 21
2811.606090697273
 31
0.0
  0
CIRCLE
  5
7DF
330
17
100
AcDbEntity
  8
SEIHIN
100
AcDbCircle
 10
1268.574164181347
 20
1738.237519866643
 30
0.0
 40
410.0
  0
CIRCLE
  5
7E0
330
17
100
AcDbEntity
  8
SEIHIN
100
AcDbCircle
 10
1268.574164181347
 20
1738.237519866643
 30
0.0
 40
300.0
  0
LINE
  5
7E3
330
17
100
AcDbEntity
  8
1HASEN
 48
0.5
100
AcDbLine
 10
858.5741641813473
 20
1738.237519866643
 30
0.0
 11
1678.574164181347
 21
1738.237519866643
 31
0.0
  0
LINE
  5
7E4
330
17
100
AcDbEntity
  8
1HASEN
 48
0.5
100
AcDbLine
 10
1268.574164181347
 20
1328.237519866643
 30
0.0
 11
1268.574164181347
 21
2148.237519866643
 31
0.0
  0
LINE
  5
9C0
330
17
100
AcDbEntity
  8
SUNPOU
100
AcDbLine
 10
3185.774228730883
 20
4958.080349141716
 30
0.0
 11
3638.972181877624
 21
4958.080349141716
 31
0.0
  0
TEXT
  5
9C1
330
17
100
AcDbEntity
  8
SUNPOU
100
AcDbText
 10
3267.806071466788
 20
4972.892888673786
 30
0.0
 40
60.0
  1
A1-N300
 41
0.8
 72
     1
 11
3411.806071466788
 21
4972.892888673786
 31
0.0
100
AcDbText
  0
TEXT
  5
9C2
330
17
100
AcDbEntity
  8
SUNPOU
100
AcDbText
 10
3303.006071466788
 20
5157.680231519274
 30
0.0
 40
60.0
  1
斜　　壁
 41
0.8
 72
     1
 11
3411.806071466788
 21
5157.680231519274
 31
0.0
100
AcDbText
  0
DIMENSION
  5
9C4
330
17
100
AcDbEntity
  8
SUNPOU
100
AcDbDimension
  2
*D26
 10
3131.028258695325
 20
4603.768329860329
 30
0.0
 11
3076.028258695326
 21
4642.76832986033
 31
0.0
 70
    32
 71
     5
 42
-1.0
  3
STANDARD
100
AcDbAlignedDimension
 13
3021.028258695326
 23
4417.505141098994
 33
0.0
 14
3131.028258695325
 24
4417.505141098994
 34
0.0
100
AcDbRotatedDimension
1001
ACAD
1000
DSTYLE
1002
{
1070
   287
1070
     5
1070
   287
1070
     5
1070
    40
1040
20.0
1070
    41
1040
1.5
1070
    42
1040
1.5
1070
    43
1040
7.0
1070
    44
1040
0.5
1070
    73
1070
     0
1070
    74
1070
     0
1070
    77
1070
     1
1070
    78
1070
     8
1070
   140
1040
2.5
1070
   141
1040
0.0
1070
   145
1040
1.0
1070
   147
1040
0.7
1070
   174
1070
     1
1070
   179
1070
     4
1070
   271
1070
     0
1070
   272
1070
     0
1070
   279
1070
     2
1070
   284
1070
     8
1070
   285
1070
     8
1070
   286
1070
     8
1002
}
  0
DIMENSION
  5
9DE
330
17
100
AcDbEntity
  8
SUNPOU
100
AcDbDimension
  2
*D27
 10
3731.028258695326
 20
4603.768329860329
 30
0.0
 11
3786.028258695325
 21
4642.76832986033
 31
0.0
 70
    32
 71
     5
 42
-1.0
  3
STANDARD
100
AcDbAlignedDimension
 13
3841.028258695325
 23
4417.505141098994
 33
0.0
 14
3731.028258695326
 24
4417.505141098994
 34
0.0
100
AcDbRotatedDimension
1001
ACAD
1000
DSTYLE
1002
{
1070
   287
1070
     5
1070
   287
1070
     5
1070
    40
1040
20.0
1070
    41
1040
1.5
1070
    42
1040
1.5
1070
    43
1040
7.0
1070
    44
1040
0.5
1070
    73
1070
     0
1070
    74
1070
     0
1070
    77
1070
     1
1070
    78
1070
     8
1070
   140
1040
2.5
1070
   141
1040
0.0
1070
   145
1040
1.0
1070
   147
1040
0.7
1070
   174
1070
     1
1070
   179
1070
     4
1070
   271
1070
     0
1070
   272
1070
     0
1070
   279
1070
     2
1070
   284
1070
     8
1070
   285
1070
     8
1070
   286
1070
     8
1002
}
  0
DIMENSION
  5
9EB
330
17
100
AcDbEntity
  8
SUNPOU
100
AcDbDimension
  2
*D28
 10
3131.028258695325
 20
4603.768329860329
 30
0.0
 11
3431.028258695326
 21
4642.76832986033
 31
0.0
 70
    32
 71
     5
 42
-1.0
  3
STANDARD
100
AcDbAlignedDimension
 13
3731.028258695326
 23
4417.505141098994
 33
0.0
 14
3131.028258695325
 24
4417.505141098994
 34
0.0
100
AcDbRotatedDimension
1001
ACAD
1000
DSTYLE
1002
{
1070
   287
1070
     5
1070
   287
1070
     5
1070
    40
1040
20.0
1070
    41
1040
1.5
1070
    42
1040
1.5
1070
    43
1040
7.0
1070
    44
1040
0.5
1070
    73
1070
     0
1070
    74
1070
     0
1070
    77
1070
     1
1070
    78
1070
     8
1070
   140
1040
2.5
1070
   141
1040
0.0
1070
   145
1040
1.0
1070
   147
1040
0.7
1070
   174
1070
     1
1070
   179
1070
     4
1070
   271
1070
     0
1070
   272
1070
     0
1070
   279
1070
     2
1070
   284
1070
     8
1070
   285
1070
     8
1070
   286
1070
     8
1002
}
  0
DIMENSION
  5
9F8
330
17
100
AcDbEntity
  8
SUNPOU
100
AcDbDimension
  2
*D29
 10
3841.028258695325
 20
4705.111236030377
 30
0.0
 11
3431.028258695326
 21
4744.111236030377
 31
0.0
 70
    32
 71
     5
 42
-1.0
  3
STANDARD
100
AcDbAlignedDimension
 13
3021.028258695326
 23
4417.505141098994
 33
0.0
 14
3841.028258695325
 24
4417.505141098994
 34
0.0
100
AcDbRotatedDimension
1001
ACAD
1000
DSTYLE
1002
{
1070
   287
1070
     5
1070
   287
1070
     5
1070
    40
1040
20.0
1070
    41
1040
1.5
1070
    42
1040
1.5
1070
    43
1040
7.0
1070
    44
1040
0.5
1070
    73
1070
     0
1070
    74
1070
     0
1070
    77
1070
     1
1070
    78
1070
     8
1070
   140
1040
2.5
1070
   141
1040
0.0
1070
   145
1040
1.0
1070
   147
1040
0.7
1070
   174
1070
     1
1070
   179
1070
     4
1070
   271
1070
     0
1070
   272
1070
     0
1070
   279
1070
     2
1070
   284
1070
     8
1070
   285
1070
     8
1070
   286
1070
     8
1002
}
  0
DIMENSION
  5
A05
330
17
100
AcDbEntity
  8
SUNPOU
100
AcDbDimension
  2
*D30
 10
2866.028258695326
 20
3828.446313711499
 30
0.0
 11
2828.528258695325
 21
3867.446313711499
 31
0.0
 70
    32
 71
     5
 42
-1.0
  3
STANDARD
100
AcDbAlignedDimension
 13
2791.028258695325
 23
4118.505141098995
 33
0.0
 14
2866.028258695326
 24
4117.505141098994
 34
0.0
100
AcDbRotatedDimension
1001
ACAD
1000
DSTYLE
1002
{
1070
   287
1070
     5
1070
   287
1070
     5
1070
    40
1040
20.0
1070
    41
1040
1.5
1070
    42
1040
1.5
1070
    43
1040
7.0
1070
    44
1040
0.5
1070
    73
1070
     0
1070
    74
1070
     0
1070
    77
1070
     1
1070
    78
1070
     8
1070
   140
1040
2.5
1070
   141
1040
0.0
1070
   145
1040
1.0
1070
   147
1040
0.7
1070
   174
1070
     1
1070
   179
1070
     4
1070
   271
1070
     0
1070
   272
1070
     0
1070
   279
1070
     2
1070
   284
1070
     8
1070
   285
1070
     8
1070
   286
1070
     8
1002
}
  0
DIMENSION
  5
A13
330
17
100
AcDbEntity
  8
SUNPOU
100
AcDbDimension
  2
*D31
 10
3766.028258695325
 20
3828.446313711499
 30
0.0
 11
3316.028258695325
 21
3867.446313711499
 31
0.0
 70
    32
 71
     5
 42
-1.0
  3
STANDARD
100
AcDbAlignedDimension
 13
2866.028258695326
 23
4117.505141098994
 33
0.0
 14
3766.028258695325
 24
4117.505141098994
 34
0.0
100
AcDbRotatedDimension
1001
ACAD
1000
DSTYLE
1002
{
1070
   287
1070
     5
1070
   287
1070
     5
1070
    40
1040
20.0
1070
    41
1040
1.5
1070
    42
1040
1.5
1070
    43
1040
7.0
1070
    44
1040
0.5
1070
    73
1070
     0
1070
    74
1070
     0
1070
    77
1070
     1
1070
    78
1070
     8
1070
   140
1040
2.5
1070
   141
1040
0.0
1070
   145
1040
1.0
1070
   147
1040
0.7
1070
   174
1070
     1
1070
   179
1070
     4
1070
   271
1070
     0
1070
   272
1070
     0
1070
   279
1070
     2
1070
   284
1070
     8
1070
   285
1070
     8
1070
   286
1070
     8
1002
}
  0
DIMENSION
  5
A20
330
17
100
AcDbEntity
  8
SUNPOU
100
AcDbDimension
  2
*D32
 10
3841.028258695325
 20
3828.446313711499
 30
0.0
 11
3803.528258695325
 21
3867.446313711499
 31
0.0
 70
    32
 71
     5
 42
-1.0
  3
STANDARD
100
AcDbAlignedDimension
 13
3766.028258695325
 23
4117.505141098994
 33
0.0
 14
3841.028258695325
 24
4118.505141098995
 34
0.0
100
AcDbRotatedDimension
1001
ACAD
1000
DSTYLE
1002
{
1070
   287
1070
     5
1070
   287
1070
     5
1070
    40
1040
20.0
1070
    41
1040
1.5
1070
    42
1040
1.5
1070
    43
1040
7.0
1070
    44
1040
0.5
1070
    73
1070
     0
1070
    74
1070
     0
1070
    77
1070
     1
1070
    78
1070
     8
1070
   140
1040
2.5
1070
   141
1040
0.0
1070
   145
1040
1.0
1070
   147
1040
0.7
1070
   174
1070
     1
1070
   179
1070
     4
1070
   271
1070
     0
1070
   272
1070
     0
1070
   279
1070
     2
1070
   284
1070
     8
1070
   285
1070
     8
1070
   286
1070
     8
1002
}
  0
DIMENSION
  5
A2E
330
17
100
AcDbEntity
  8
SUNPOU
100
AcDbDimension
  2
*D33
 10
3841.028258695325
 20
3729.646861691541
 30
0.0
 11
3316.028258695325
 21
3768.646861691542
 31
0.0
 70
    32
 71
     5
 42
-1.0
  3
STANDARD
100
AcDbAlignedDimension
 13
2791.028258695325
 23
4118.505141098995
 33
0.0
 14
3841.028258695325
 24
4118.505141098995
 34
0.0
100
AcDbRotatedDimension
1001
ACAD
1000
DSTYLE
1002
{
1070
   287
1070
     5
1070
   287
1070
     5
1070
    40
1040
20.0
1070
    41
1040
1.5
1070
    42
1040
1.5
1070
    43
1040
7.0
1070
    44
1040
0.5
1070
    73
1070
     0
1070
    74
1070
     0
1070
    77
1070
     1
1070
    78
1070
     8
1070
   140
1040
2.5
1070
   141
1040
0.0
1070
   145
1040
1.0
1070
   147
1040
0.7
1070
   174
1070
     1
1070
   179
1070
     4
1070
   271
1070
     0
1070
   272
1070
     0
1070
   279
1070
     2
1070
   284
1070
     8
1070
   285
1070
     8
1070
   286
1070
     8
1002
}
  0
DIMENSION
  5
A3F
330
17
100
AcDbEntity
  8
SUNPOU
100
AcDbDimension
  2
*D34
 10
4191.700171555111
 20
4117.505141098994
 30
0.0
 11
4152.700171555109
 21
4267.505141098996
 31
0.0
 70
    32
 71
     5
 42
-1.0
  3
STANDARD
100
AcDbAlignedDimension
 13
3841.028258695325
 23
4417.505141098994
 33
0.0
 14
3841.028258695325
 24
4117.505141098994
 34
0.0
 50
90.0
100
AcDbRotatedDimension
1001
ACAD
1000
DSTYLE
1002
{
1070
   287
1070
     5
1070
   287
1070
     5
1070
    40
1040
20.0
1070
    41
1040
1.5
1070
    42
1040
1.5
1070
    43
1040
7.0
1070
    44
1040
0.5
1070
    73
1070
     0
1070
    74
1070
     0
1070
    77
1070
     1
1070
    78
1070
     8
1070
   140
1040
2.5
1070
   141
1040
0.0
1070
   145
1040
1.0
1070
   147
1040
0.7
1070
   174
1070
     1
1070
   179
1070
     4
1070
   271
1070
     0
1070
   272
1070
     0
1070
   279
1070
     2
1070
   284
1070
     8
1070
   285
1070
     8
1070
   286
1070
     8
1002
}
  0
CIRCLE
  5
B09
330
17
100
AcDbEntity
  8
SEIHIN
100
AcDbCircle
 10
3316.028258695325
 20
2553.431704792037
 30
0.0
 40
525.0
  0
CIRCLE
  5
B10
330
17
100
AcDbEntity
  8
SEIHIN
100
AcDbCircle
 10
3431.028258695326
 20
2553.431704792037
 30
0.0
 40
300.0
  0
LINE
  5
B95
330
17
100
AcDbEntity
  8
1HASEN
 48
0.5
100
AcDbLine
 10
3131.028258695325
 20
2553.431704792037
 30
0.0
 11
3731.028258695326
 21
2553.431704792037
 31
0.0
  0
LINE
  5
BD9
330
17
100
AcDbEntity
  8
1HASEN
 48
0.5
100
AcDbLine
 10
3431.028258695326
 20
2253.431704792037
 30
0.0
 11
3431.028258695326
 21
2853.431704792037
 31
0.0
  0
CIRCLE
  5
FE0
330
17
100
AcDbEntity
  8
SEIHIN
100
AcDbCircle
 10
5133.006669667551
 20
2553.431694029267
 30
0.0
 40
525.0
  0
LINE
  5
FE6
330
17
100
AcDbEntity
  8
SEIHIN
100
AcDbLine
 10
5658.006669667551
 20
4417.505141098994
 30
0.0
 11
4838.006669667551
 21
4417.505141098994
 31
0.0
  0
LINE
  5
FE8
330
17
100
AcDbEntity
  8
HASEN
 48
0.5
100
AcDbLine
 10
5548.006669667551
 20
4402.505141098994
 30
0.0
 11
4948.006669667551
 21
4402.505141098994
 31
0.0
  0
LINE
  5
FE9
330
17
100
AcDbEntity
  8
SEIHIN
100
AcDbLine
 10
5599.506669667551
 20
3967.505141098995
 30
0.0
 11
4666.506669667551
 21
3967.505141098995
 31
0.0
  0
LINE
  5
FEB
330
17
100
AcDbEntity
  8
SEIHIN
100
AcDbLine
 10
5620.506669667552
 20
3958.505141098995
 30
0.0
 11
4645.506669667551
 21
3958.505141098995
 31
0.0
  0
LINE
  5
FF4
330
17
100
AcDbEntity
  8
HASEN
 48
0.5
100
AcDbLine
 10
5583.006669667551
 20
3967.505141098995
 30
0.0
 11
5553.006669667551
 21
4367.505141098994
 31
0.0
  0
LINE
  5
FF5
330
17
100
AcDbEntity
  8
SEIHIN
100
AcDbLine
 10
5658.006669667551
 20
4417.505141098994
 30
0.0
 11
5658.006669667551
 21
3968.505141098995
 31
0.0
  0
ARC
  5
FF8
330
17
100
AcDbEntity
  8
SEIHIN
100
AcDbCircle
 10
5620.506669667552
 20
3987.505141098995
 30
0.0
 40
29.0
100
AcDbArc
 50
223.6028189727126
 51
319.0672754258538
  0
LINE
  5
FF9
330
17
100
AcDbEntity
  8
SEIHIN
100
AcDbLine
 10
5658.006669667551
 20
3968.505141098995
 30
0.0
 11
5642.406669667551
 21
3968.505141098995
 31
0.0
  0
LINE
  5
1022
330
17
100
AcDbEntity
  8
HASEN
 48
0.5
100
AcDbLine
 10
5574.006669667551
 20
4402.505141098994
 30
0.0
 11
5548.006669667551
 21
4402.505141098994
 31
0.0
  0
LINE
  5
1023
330
17
100
AcDbEntity
  8
HASEN
 48
0.5
100
AcDbLine
 10
5548.006669667551
 20
4402.505141098994
 30
0.0
 11
5553.006669667551
 21
4367.505141098994
 31
0.0
  0
LINE
  5
1024
330
17
100
AcDbEntity
  8
HASEN
 48
0.5
100
AcDbLine
 10
5574.006669667551
 20
4402.505141098994
 30
0.0
 11
5580.006669667551
 21
4417.505141098994
 31
0.0
  0
LINE
  5
102A
330
17
100
AcDbEntity
  8
HASEN
 48
0.5
100
AcDbLine
 10
4683.006669667551
 20
3967.505141098995
 30
0.0
 11
4943.006669667551
 21
4367.505141098994
 31
0.0
  0
LINE
  5
102B
330
17
100
AcDbEntity
  8
SEIHIN
100
AcDbLine
 10
4838.006669667551
 20
4367.505141098994
 30
0.0
 11
4608.006669667552
 21
4017.505141098994
 31
0.0
  0
LINE
  5
1030
330
17
100
AcDbEntity
  8
SEIHIN
100
AcDbLine
 10
4608.006669667552
 20
3968.505141098995
 30
0.0
 11
4608.006669667552
 21
4017.505141098994
 31
0.0
  0
ARC
  5
1031
330
17
100
AcDbEntity
  8
SEIHIN
100
AcDbCircle
 10
4645.506669667551
 20
3987.505141098995
 30
0.0
 40
29.0
100
AcDbArc
 50
220.9327245741462
 51
316.3971810272874
  0
LINE
  5
1033
330
17
100
AcDbEntity
  8
SEIHIN
100
AcDbLine
 10
4623.606669667551
 20
3968.505141098995
 30
0.0
 11
4608.006669667552
 21
3968.505141098995
 31
0.0
  0
LINE
  5
103B
330
17
100
AcDbEntity
  8
HASEN
 48
0.5
100
AcDbLine
 10
4948.006669667551
 20
4402.505141098994
 30
0.0
 11
4922.006669667552
 21
4402.505141098994
 31
0.0
  0
LINE
  5
103C
330
17
100
AcDbEntity
  8
HASEN
 48
0.5
100
AcDbLine
 10
4948.006669667551
 20
4402.505141098994
 30
0.0
 11
4943.006669667551
 21
4367.505141098994
 31
0.0
  0
LINE
  5
103D
330
17
100
AcDbEntity
  8
HASEN
 48
0.5
100
AcDbLine
 10
4922.006669667552
 20
4402.505141098994
 30
0.0
 11
4916.006669667551
 21
4417.505141098994
 31
0.0
  0
LINE
  5
103E
330
17
100
AcDbEntity
  8
SEIHIN
100
AcDbLine
 10
4838.006669667551
 20
4417.505141098994
 30
0.0
 11
4838.006669667551
 21
4367.505141098994
 31
0.0
  0
CIRCLE
  5
1042
330
17
100
AcDbEntity
  8
SEIHIN
100
AcDbCircle
 10
5248.006669667551
 20
2553.431694029267
 30
0.0
 40
300.0
  0
LINE
  5
1043
330
17
100
AcDbEntity
  8
1HASEN
 48
0.5
100
AcDbLine
 10
5548.006669667551
 20
2553.431694029267
 30
0.0
 11
4948.006669667551
 21
2553.431694029267
 31
0.0
  0
DIMENSION
  5
120D
330
17
100
AcDbEntity
  8
SUNPOU
100
AcDbDimension
  2
*D42
 10
5658.006669667551
 20
4705.111236030377
 30
0.0
 11
5248.006669667551
 21
4744.111236030377
 31
0.0
 70
    32
 71
     5
 42
-1.0
  3
STANDARD
100
AcDbAlignedDimension
 13
4838.006669667551
 23
4417.505141098994
 33
0.0
 14
5658.006669667551
 24
4417.505141098994
 34
0.0
100
AcDbRotatedDimension
1001
ACAD
1000
DSTYLE
1002
{
1070
   287
1070
     5
1070
   287
1070
     5
1070
    40
1040
20.0
1070
    41
1040
1.5
1070
    42
1040
1.5
1070
    43
1040
7.0
1070
    44
1040
0.5
1070
    73
1070
     0
1070
    74
1070
     0
1070
    77
1070
     1
1070
    78
1070
     8
1070
   140
1040
2.5
1070
   141
1040
0.0
1070
   145
1040
1.0
1070
   147
1040
0.7
1070
   174
1070
     1
1070
   179
1070
     4
1070
   271
1070
     0
1070
   272
1070
     0
1070
   279
1070
     2
1070
   284
1070
     8
1070
   285
1070
     8
1070
   286
1070
     8
1002
}
  0
DIMENSION
  5
120E
330
17
100
AcDbEntity
  8
SUNPOU
100
AcDbDimension
  2
*D41
 10
4948.006669667551
 20
4603.768329860329
 30
0.0
 11
5248.006669667551
 21
4642.76832986033
 31
0.0
 70
    32
 71
     5
 42
-1.0
  3
STANDARD
100
AcDbAlignedDimension
 13
5548.006669667551
 23
4417.505141098994
 33
0.0
 14
4948.006669667551
 24
4417.505141098994
 34
0.0
100
AcDbRotatedDimension
1001
ACAD
1000
DSTYLE
1002
{
1070
   287
1070
     5
1070
   287
1070
     5
1070
    40
1040
20.0
1070
    41
1040
1.5
1070
    42
1040
1.5
1070
    43
1040
7.0
1070
    44
1040
0.5
1070
    73
1070
     0
1070
    74
1070
     0
1070
    77
1070
     1
1070
    78
1070
     8
1070
   140
1040
2.5
1070
   141
1040
0.0
1070
   145
1040
1.0
1070
   147
1040
0.7
1070
   174
1070
     1
1070
   179
1070
     4
1070
   271
1070
     0
1070
   272
1070
     0
1070
   279
1070
     2
1070
   284
1070
     8
1070
   285
1070
     8
1070
   286
1070
     8
1002
}
  0
DIMENSION
  5
120F
330
17
100
AcDbEntity
  8
SUNPOU
100
AcDbDimension
  2
*D39
 10
4948.006669667551
 20
4603.768329860329
 30
0.0
 11
4893.006669667551
 21
4642.76832986033
 31
0.0
 70
    32
 71
     5
 42
-1.0
  3
STANDARD
100
AcDbAlignedDimension
 13
4838.006669667551
 23
4417.505141098994
 33
0.0
 14
4948.006669667551
 24
4417.505141098994
 34
0.0
100
AcDbRotatedDimension
1001
ACAD
1000
DSTYLE
1002
{
1070
   287
1070
     5
1070
   287
1070
     5
1070
    40
1040
20.0
1070
    41
1040
1.5
1070
    42
1040
1.5
1070
    43
1040
7.0
1070
    44
1040
0.5
1070
    73
1070
     0
1070
    74
1070
     0
1070
    77
1070
     1
1070
    78
1070
     8
1070
   140
1040
2.5
1070
   141
1040
0.0
1070
   145
1040
1.0
1070
   147
1040
0.7
1070
   174
1070
     1
1070
   179
1070
     4
1070
   271
1070
     0
1070
   272
1070
     0
1070
   279
1070
     2
1070
   284
1070
     8
1070
   285
1070
     8
1070
   286
1070
     8
1002
}
  0
DIMENSION
  5
1210
330
17
100
AcDbEntity
  8
SUNPOU
100
AcDbDimension
  2
*D40
 10
5548.006669667551
 20
4603.768329860329
 30
0.0
 11
5603.006669667551
 21
4642.76832986033
 31
0.0
 70
    32
 71
     5
 42
-1.0
  3
STANDARD
100
AcDbAlignedDimension
 13
5658.006669667551
 23
4417.505141098994
 33
0.0
 14
5548.006669667551
 24
4417.505141098994
 34
0.0
100
AcDbRotatedDimension
1001
ACAD
1000
DSTYLE
1002
{
1070
   287
1070
     5
1070
   287
1070
     5
1070
    40
1040
20.0
1070
    41
1040
1.5
1070
    42
1040
1.5
1070
    43
1040
7.0
1070
    44
1040
0.5
1070
    73
1070
     0
1070
    74
1070
     0
1070
    77
1070
     1
1070
    78
1070
     8
1070
   140
1040
2.5
1070
   141
1040
0.0
1070
   145
1040
1.0
1070
   147
1040
0.7
1070
   174
1070
     1
1070
   179
1070
     4
1070
   271
1070
     0
1070
   272
1070
     0
1070
   279
1070
     2
1070
   284
1070
     8
1070
   285
1070
     8
1070
   286
1070
     8
1002
}
  0
LINE
  5
1211
330
17
100
AcDbEntity
  8
SUNPOU
100
AcDbLine
 10
5002.752639703109
 20
4958.080349141716
 30
0.0
 11
5455.950592849849
 21
4958.080349141716
 31
0.0
  0
TEXT
  5
1212
330
17
100
AcDbEntity
  8
SUNPOU
100
AcDbText
 10
5080.784482439014
 20
4972.892888673786
 30
0.0
 40
60.0
  1
A1-N450
 41
0.8
 72
     1
 11
5228.784482439014
 21
4972.892888673786
 31
0.0
100
AcDbText
  0
TEXT
  5
1213
330
17
100
AcDbEntity
  8
SUNPOU
100
AcDbText
 10
5119.984482439014
 20
5157.680231519274
 30
0.0
 40
60.0
  1
斜　　壁
 41
0.8
 72
     1
 11
5228.784482439014
 21
5157.680231519274
 31
0.0
100
AcDbText
  0
DIMENSION
  5
12CB
330
17
100
AcDbEntity
  8
SUNPOU
100
AcDbDimension
  2
*D46
 10
5658.006669667551
 20
3678.446313711499
 30
0.0
 11
5620.506669667552
 21
3717.446313711498
 31
0.0
 70
    32
 71
     5
 42
-1.0
  3
STANDARD
100
AcDbAlignedDimension
 13
5583.006669667551
 23
3967.505141098995
 33
0.0
 14
5658.006669667551
 24
3968.505141098995
 34
0.0
100
AcDbRotatedDimension
1001
ACAD
1000
DSTYLE
1002
{
1070
   287
1070
     5
1070
   287
1070
     5
1070
    40
1040
20.0
1070
    41
1040
1.5
1070
    42
1040
1.5
1070
    43
1040
7.0
1070
    44
1040
0.5
1070
    73
1070
     0
1070
    74
1070
     0
1070
    77
1070
     1
1070
    78
1070
     8
1070
   140
1040
2.5
1070
   141
1040
0.0
1070
   145
1040
1.0
1070
   147
1040
0.7
1070
   174
1070
     1
1070
   179
1070
     4
1070
   271
1070
     0
1070
   272
1070
     0
1070
   279
1070
     2
1070
   284
1070
     8
1070
   285
1070
     8
1070
   286
1070
     8
1002
}
  0
DIMENSION
  5
12CC
330
17
100
AcDbEntity
  8
SUNPOU
100
AcDbDimension
  2
*D47
 10
5658.006669667551
 20
3579.646861691542
 30
0.0
 11
5133.006669667551
 21
3618.646861691541
 31
0.0
 70
    32
 71
     5
 42
-1.0
  3
STANDARD
100
AcDbAlignedDimension
 13
4608.006669667552
 23
3968.505141098995
 33
0.0
 14
5658.006669667551
 24
3968.505141098995
 34
0.0
100
AcDbRotatedDimension
1001
ACAD
1000
DSTYLE
1002
{
1070
   287
1070
     5
1070
   287
1070
     5
1070
    40
1040
20.0
1070
    41
1040
1.5
1070
    42
1040
1.5
1070
    43
1040
7.0
1070
    44
1040
0.5
1070
    73
1070
     0
1070
    74
1070
     0
1070
    77
1070
     1
1070
    78
1070
     8
1070
   140
1040
2.5
1070
   141
1040
0.0
1070
   145
1040
1.0
1070
   147
1040
0.7
1070
   174
1070
     1
1070
   179
1070
     4
1070
   271
1070
     0
1070
   272
1070
     0
1070
   279
1070
     2
1070
   284
1070
     8
1070
   285
1070
     8
1070
   286
1070
     8
1002
}
  0
DIMENSION
  5
12CD
330
17
100
AcDbEntity
  8
SUNPOU
100
AcDbDimension
  2
*D45
 10
5583.006669667551
 20
3678.446313711499
 30
0.0
 11
5133.006669667551
 21
3717.446313711498
 31
0.0
 70
    32
 71
     5
 42
-1.0
  3
STANDARD
100
AcDbAlignedDimension
 13
4683.006669667551
 23
3967.505141098995
 33
0.0
 14
5583.006669667551
 24
3967.505141098995
 34
0.0
100
AcDbRotatedDimension
1001
ACAD
1000
DSTYLE
1002
{
1070
   287
1070
     5
1070
   287
1070
     5
1070
    40
1040
20.0
1070
    41
1040
1.5
1070
    42
1040
1.5
1070
    43
1040
7.0
1070
    44
1040
0.5
1070
    73
1070
     0
1070
    74
1070
     0
1070
    77
1070
     1
1070
    78
1070
     8
1070
   140
1040
2.5
1070
   141
1040
0.0
1070
   145
1040
1.0
1070
   147
1040
0.7
1070
   174
1070
     1
1070
   179
1070
     4
1070
   271
1070
     0
1070
   272
1070
     0
1070
   279
1070
     2
1070
   284
1070
     8
1070
   285
1070
     8
1070
   286
1070
     8
1002
}
  0
DIMENSION
  5
12CE
330
17
100
AcDbEntity
  8
SUNPOU
100
AcDbDimension
  2
*D44
 10
4683.006669667551
 20
3678.446313711499
 30
0.0
 11
4645.506669667551
 21
3717.446313711498
 31
0.0
 70
    32
 71
     5
 42
-1.0
  3
STANDARD
100
AcDbAlignedDimension
 13
4608.006669667552
 23
3968.505141098995
 33
0.0
 14
4683.006669667551
 24
3967.505141098995
 34
0.0
100
AcDbRotatedDimension
1001
ACAD
1000
DSTYLE
1002
{
1070
   287
1070
     5
1070
   287
1070
     5
1070
    40
1040
20.0
1070
    41
1040
1.5
1070
    42
1040
1.5
1070
    43
1040
7.0
1070
    44
1040
0.5
1070
    73
1070
     0
1070
    74
1070
     0
1070
    77
1070
     1
1070
    78
1070
     8
1070
   140
1040
2.5
1070
   141
1040
0.0
1070
   145
1040
1.0
1070
   147
1040
0.7
1070
   174
1070
     1
1070
   179
1070
     4
1070
   271
1070
     0
1070
   272
1070
     0
1070
   279
1070
     2
1070
   284
1070
     8
1070
   285
1070
     8
1070
   286
1070
     8
1002
}
  0
DIMENSION
  5
139E
330
17
100
AcDbEntity
  8
SUNPOU
100
AcDbDimension
  2
*D51
 10
6008.969664186206
 20
3967.505141098995
 30
0.0
 11
5969.969664186205
 21
4192.505141098996
 31
0.0
 70
    32
 71
     5
 42
-1.0
  3
STANDARD
100
AcDbAlignedDimension
 13
5658.006669667551
 23
4417.505141098994
 33
0.0
 14
5658.006669667551
 24
3967.505141098995
 34
0.0
 50
90.0
100
AcDbRotatedDimension
1001
ACAD
1000
DSTYLE
1002
{
1070
   287
1070
     5
1070
   287
1070
     5
1070
    40
1040
20.0
1070
    41
1040
1.5
1070
    42
1040
1.5
1070
    43
1040
7.0
1070
    44
1040
0.5
1070
    73
1070
     0
1070
    74
1070
     0
1070
    77
1070
     1
1070
    78
1070
     8
1070
   140
1040
2.5
1070
   141
1040
0.0
1070
   145
1040
1.0
1070
   147
1040
0.7
1070
   174
1070
     1
1070
   179
1070
     4
1070
   271
1070
     0
1070
   272
1070
     0
1070
   279
1070
     2
1070
   284
1070
     8
1070
   285
1070
     8
1070
   286
1070
     8
1002
}
  0
LINE
  5
1636
330
17
100
AcDbEntity
  8
1HASEN
 48
0.5
100
AcDbLine
 10
5248.006669667551
 20
2253.431694029266
 30
0.0
 11
5248.006669667551
 21
2853.431694029266
 31
0.0
  0
CIRCLE
  5
1B4B
330
17
100
AcDbEntity
  8
SEIHIN
100
AcDbCircle
 10
6978.874628933962
 20
2553.431690371574
 30
0.0
 40
525.0
  0
LINE
  5
1B54
330
17
100
AcDbEntity
  8
SEIHIN
100
AcDbLine
 10
7466.374628933961
 20
3808.505141098995
 30
0.0
 11
6491.374628933961
 21
3808.505141098995
 31
0.0
  0
LINE
  5
1B56
330
17
100
AcDbEntity
  8
SEIHIN
100
AcDbLine
 10
7445.374628933961
 20
3817.505141098994
 30
0.0
 11
6512.374628933962
 21
3817.505141098994
 31
0.0
  0
LINE
  5
1B57
330
17
100
AcDbEntity
  8
HASEN
 48
0.5
100
AcDbLine
 10
7393.874628933962
 20
4402.505141098994
 30
0.0
 11
6793.874628933962
 21
4402.505141098994
 31
0.0
  0
LINE
  5
1B59
330
17
100
AcDbEntity
  8
SEIHIN
100
AcDbLine
 10
7503.874628933961
 20
4417.505141098994
 30
0.0
 11
6683.874628933961
 21
4417.505141098994
 31
0.0
  0
LINE
  5
1B5A
330
17
100
AcDbEntity
  8
HASEN
 48
0.5
100
AcDbLine
 10
7428.874628933961
 20
3817.505141098994
 30
0.0
 11
7398.874628933961
 21
4367.505141098994
 31
0.0
  0
LINE
  5
1B5B
330
17
100
AcDbEntity
  8
SEIHIN
100
AcDbLine
 10
7503.874628933961
 20
4417.505141098994
 30
0.0
 11
7503.874628933961
 21
3818.505141098995
 31
0.0
  0
ARC
  5
1B61
330
17
100
AcDbEntity
  8
SEIHIN
100
AcDbCircle
 10
7466.374628933961
 20
3837.505141098995
 30
0.0
 40
29.0
100
AcDbArc
 50
223.6028189727126
 51
319.0672754258197
  0
LINE
  5
1B62
330
17
100
AcDbEntity
  8
SEIHIN
100
AcDbLine
 10
7503.874628933961
 20
3818.505141098995
 30
0.0
 11
7488.274628933961
 21
3818.505141098995
 31
0.0
  0
LINE
  5
1B8B
330
17
100
AcDbEntity
  8
HASEN
 48
0.5
100
AcDbLine
 10
7393.874628933962
 20
4402.505141098994
 30
0.0
 11
7398.874628933961
 21
4367.505141098994
 31
0.0
  0
LINE
  5
1B90
330
17
100
AcDbEntity
  8
HASEN
 48
0.5
100
AcDbLine
 10
7419.87462893396
 20
4402.505141098994
 30
0.0
 11
7425.874628933961
 21
4417.505141098994
 31
0.0
  0
LINE
  5
1B91
330
17
100
AcDbEntity
  8
HASEN
 48
0.5
100
AcDbLine
 10
7419.87462893396
 20
4402.505141098994
 30
0.0
 11
7393.874628933962
 21
4402.505141098994
 31
0.0
  0
LINE
  5
1B9B
330
17
100
AcDbEntity
  8
HASEN
 48
0.5
100
AcDbLine
 10
6528.874628933961
 20
3817.505141098994
 30
0.0
 11
6788.874628933962
 21
4367.505141098994
 31
0.0
  0
LINE
  5
1B9C
330
17
100
AcDbEntity
  8
SEIHIN
100
AcDbLine
 10
6453.874628933961
 20
3867.505141098995
 30
0.0
 11
6683.874628933961
 21
4367.505141098994
 31
0.0
  0
LINE
  5
1BA2
330
17
100
AcDbEntity
  8
SEIHIN
100
AcDbLine
 10
6453.874628933961
 20
3818.505141098995
 30
0.0
 11
6453.874628933961
 21
3867.505141098995
 31
0.0
  0
ARC
  5
1BA3
330
17
100
AcDbEntity
  8
SEIHIN
100
AcDbCircle
 10
6491.374628933961
 20
3837.505141098995
 30
0.0
 40
29.0
100
AcDbArc
 50
220.9327245741803
 51
316.3971810272874
  0
LINE
  5
1BA4
330
17
100
AcDbEntity
  8
SEIHIN
100
AcDbLine
 10
6469.474628933962
 20
3818.505141098995
 30
0.0
 11
6453.874628933961
 21
3818.505141098995
 31
0.0
  0
LINE
  5
1BAE
330
17
100
AcDbEntity
  8
HASEN
 48
0.5
100
AcDbLine
 10
6793.874628933962
 20
4402.505141098994
 30
0.0
 11
6767.874628933961
 21
4402.505141098994
 31
0.0
  0
LINE
  5
1BB1
330
17
100
AcDbEntity
  8
HASEN
 48
0.5
100
AcDbLine
 10
6793.874628933962
 20
4402.505141098994
 30
0.0
 11
6788.874628933962
 21
4367.505141098994
 31
0.0
  0
LINE
  5
1BB2
330
17
100
AcDbEntity
  8
SEIHIN
100
AcDbLine
 10
6683.874628933961
 20
4417.505141098994
 30
0.0
 11
6683.874628933961
 21
4367.505141098994
 31
0.0
  0
LINE
  5
1BB3
330
17
100
AcDbEntity
  8
HASEN
 48
0.5
100
AcDbLine
 10
6767.874628933961
 20
4402.505141098994
 30
0.0
 11
6761.874628933961
 21
4417.505141098994
 31
0.0
  0
CIRCLE
  5
1BBE
330
17
100
AcDbEntity
  8
SEIHIN
100
AcDbCircle
 10
7093.874628933962
 20
2553.431690371574
 30
0.0
 40
300.0
  0
DIMENSION
  5
1FCC
330
17
100
AcDbEntity
  8
SUNPOU
100
AcDbDimension
  2
*D53
 10
6793.874628933962
 20
4603.768329860329
 30
0.0
 11
7093.874628933962
 21
4642.76832986033
 31
0.0
 70
    32
 71
     5
 42
-1.0
  3
STANDARD
100
AcDbAlignedDimension
 13
7393.874628933962
 23
4417.505141098994
 33
0.0
 14
6793.874628933962
 24
4417.505141098994
 34
0.0
100
AcDbRotatedDimension
1001
ACAD
1000
DSTYLE
1002
{
1070
   287
1070
     5
1070
   287
1070
     5
1070
    40
1040
20.0
1070
    41
1040
1.5
1070
    42
1040
1.5
1070
    43
1040
7.0
1070
    44
1040
0.5
1070
    73
1070
     0
1070
    74
1070
     0
1070
    77
1070
     1
1070
    78
1070
     8
1070
   140
1040
2.5
1070
   141
1040
0.0
1070
   145
1040
1.0
1070
   147
1040
0.7
1070
   174
1070
     1
1070
   179
1070
     4
1070
   271
1070
     0
1070
   272
1070
     0
1070
   279
1070
     2
1070
   284
1070
     8
1070
   285
1070
     8
1070
   286
1070
     8
1002
}
  0
DIMENSION
  5
1FCD
330
17
100
AcDbEntity
  8
SUNPOU
100
AcDbDimension
  2
*D52
 10
7503.874628933961
 20
4705.111236030377
 30
0.0
 11
7093.874628933962
 21
4744.111236030377
 31
0.0
 70
    32
 71
     5
 42
-1.0
  3
STANDARD
100
AcDbAlignedDimension
 13
6683.874628933961
 23
4417.505141098994
 33
0.0
 14
7503.874628933961
 24
4417.505141098994
 34
0.0
100
AcDbRotatedDimension
1001
ACAD
1000
DSTYLE
1002
{
1070
   287
1070
     5
1070
   287
1070
     5
1070
    40
1040
20.0
1070
    41
1040
1.5
1070
    42
1040
1.5
1070
    43
1040
7.0
1070
    44
1040
0.5
1070
    73
1070
     0
1070
    74
1070
     0
1070
    77
1070
     1
1070
    78
1070
     8
1070
   140
1040
2.5
1070
   141
1040
0.0
1070
   145
1040
1.0
1070
   147
1040
0.7
1070
   174
1070
     1
1070
   179
1070
     4
1070
   271
1070
     0
1070
   272
1070
     0
1070
   279
1070
     2
1070
   284
1070
     8
1070
   285
1070
     8
1070
   286
1070
     8
1002
}
  0
DIMENSION
  5
1FCE
330
17
100
AcDbEntity
  8
SUNPOU
100
AcDbDimension
  2
*D54
 10
6793.874628933962
 20
4603.768329860329
 30
0.0
 11
6738.874628933962
 21
4642.76832986033
 31
0.0
 70
    32
 71
     5
 42
-1.0
  3
STANDARD
100
AcDbAlignedDimension
 13
6683.874628933961
 23
4417.505141098994
 33
0.0
 14
6793.874628933962
 24
4417.505141098994
 34
0.0
100
AcDbRotatedDimension
1001
ACAD
1000
DSTYLE
1002
{
1070
   287
1070
     5
1070
   287
1070
     5
1070
    40
1040
20.0
1070
    41
1040
1.5
1070
    42
1040
1.5
1070
    43
1040
7.0
1070
    44
1040
0.5
1070
    73
1070
     0
1070
    74
1070
     0
1070
    77
1070
     1
1070
    78
1070
     8
1070
   140
1040
2.5
1070
   141
1040
0.0
1070
   145
1040
1.0
1070
   147
1040
0.7
1070
   174
1070
     1
1070
   179
1070
     4
1070
   271
1070
     0
1070
   272
1070
     0
1070
   279
1070
     2
1070
   284
1070
     8
1070
   285
1070
     8
1070
   286
1070
     8
1002
}
  0
DIMENSION
  5
1FCF
330
17
100
AcDbEntity
  8
SUNPOU
100
AcDbDimension
  2
*D55
 10
7393.874628933962
 20
4603.768329860329
 30
0.0
 11
7448.874628933961
 21
4642.76832986033
 31
0.0
 70
    32
 71
     5
 42
-1.0
  3
STANDARD
100
AcDbAlignedDimension
 13
7503.874628933961
 23
4417.505141098994
 33
0.0
 14
7393.874628933962
 24
4417.505141098994
 34
0.0
100
AcDbRotatedDimension
1001
ACAD
1000
DSTYLE
1002
{
1070
   287
1070
     5
1070
   287
1070
     5
1070
    40
1040
20.0
1070
    41
1040
1.5
1070
    42
1040
1.5
1070
    43
1040
7.0
1070
    44
1040
0.5
1070
    73
1070
     0
1070
    74
1070
     0
1070
    77
1070
     1
1070
    78
1070
     8
1070
   140
1040
2.5
1070
   141
1040
0.0
1070
   145
1040
1.0
1070
   147
1040
0.7
1070
   174
1070
     1
1070
   179
1070
     4
1070
   271
1070
     0
1070
   272
1070
     0
1070
   279
1070
     2
1070
   284
1070
     8
1070
   285
1070
     8
1070
   286
1070
     8
1002
}
  0
TEXT
  5
1FD0
330
17
100
AcDbEntity
  8
SUNPOU
100
AcDbText
 10
6930.652441705425
 20
4972.892888673786
 30
0.0
 40
60.0
  1
A1-N600
 41
0.8
 72
     1
 11
7074.652441705424
 21
4972.892888673786
 31
0.0
100
AcDbText
  0
TEXT
  5
1FD1
330
17
100
AcDbEntity
  8
SUNPOU
100
AcDbText
 10
6965.852441705424
 20
5157.680231519274
 30
0.0
 40
60.0
  1
斜　　壁
 41
0.8
 72
     1
 11
7074.652441705424
 21
5157.680231519274
 31
0.0
100
AcDbText
  0
LINE
  5
1FD2
330
17
100
AcDbEntity
  8
SUNPOU
100
AcDbLine
 10
6848.620598969519
 20
4958.080349141716
 30
0.0
 11
7301.818552116259
 21
4958.080349141716
 31
0.0
  0
DIMENSION
  5
203B
330
17
100
AcDbEntity
  8
SUNPOU
100
AcDbDimension
  2
*D58
 10
7428.874628933961
 20
3528.446313711498
 30
0.0
 11
6978.874628933962
 21
3567.446313711498
 31
0.0
 70
    32
 71
     5
 42
-1.0
  3
STANDARD
100
AcDbAlignedDimension
 13
6528.874628933961
 23
3817.505141098994
 33
0.0
 14
7428.874628933961
 24
3817.505141098994
 34
0.0
100
AcDbRotatedDimension
1001
ACAD
1000
DSTYLE
1002
{
1070
   287
1070
     5
1070
   287
1070
     5
1070
    40
1040
20.0
1070
    41
1040
1.5
1070
    42
1040
1.5
1070
    43
1040
7.0
1070
    44
1040
0.5
1070
    73
1070
     0
1070
    74
1070
     0
1070
    77
1070
     1
1070
    78
1070
     8
1070
   140
1040
2.5
1070
   141
1040
0.0
1070
   145
1040
1.0
1070
   147
1040
0.7
1070
   174
1070
     1
1070
   179
1070
     4
1070
   271
1070
     0
1070
   272
1070
     0
1070
   279
1070
     2
1070
   284
1070
     8
1070
   285
1070
     8
1070
   286
1070
     8
1002
}
  0
DIMENSION
  5
203C
330
17
100
AcDbEntity
  8
SUNPOU
100
AcDbDimension
  2
*D57
 10
7503.874628933961
 20
3429.646861691541
 30
0.0
 11
6978.874628933962
 21
3468.646861691541
 31
0.0
 70
    32
 71
     5
 42
-1.0
  3
STANDARD
100
AcDbAlignedDimension
 13
6453.874628933961
 23
3818.505141098995
 33
0.0
 14
7503.874628933961
 24
3818.505141098995
 34
0.0
100
AcDbRotatedDimension
1001
ACAD
1000
DSTYLE
1002
{
1070
   287
1070
     5
1070
   287
1070
     5
1070
    40
1040
20.0
1070
    41
1040
1.5
1070
    42
1040
1.5
1070
    43
1040
7.0
1070
    44
1040
0.5
1070
    73
1070
     0
1070
    74
1070
     0
1070
    77
1070
     1
1070
    78
1070
     8
1070
   140
1040
2.5
1070
   141
1040
0.0
1070
   145
1040
1.0
1070
   147
1040
0.7
1070
   174
1070
     1
1070
   179
1070
     4
1070
   271
1070
     0
1070
   272
1070
     0
1070
   279
1070
     2
1070
   284
1070
     8
1070
   285
1070
     8
1070
   286
1070
     8
1002
}
  0
DIMENSION
  5
203D
330
17
100
AcDbEntity
  8
SUNPOU
100
AcDbDimension
  2
*D59
 10
6528.874628933961
 20
3528.446313711498
 30
0.0
 11
6491.374628933961
 21
3567.446313711498
 31
0.0
 70
    32
 71
     5
 42
-1.0
  3
STANDARD
100
AcDbAlignedDimension
 13
6453.874628933961
 23
3818.505141098995
 33
0.0
 14
6528.874628933961
 24
3817.505141098994
 34
0.0
100
AcDbRotatedDimension
1001
ACAD
1000
DSTYLE
1002
{
1070
   287
1070
     5
1070
   287
1070
     5
1070
    40
1040
20.0
1070
    41
1040
1.5
1070
    42
1040
1.5
1070
    43
1040
7.0
1070
    44
1040
0.5
1070
    73
1070
     0
1070
    74
1070
     0
1070
    77
1070
     1
1070
    78
1070
     8
1070
   140
1040
2.5
1070
   141
1040
0.0
1070
   145
1040
1.0
1070
   147
1040
0.7
1070
   174
1070
     1
1070
   179
1070
     4
1070
   271
1070
     0
1070
   272
1070
     0
1070
   279
1070
     2
1070
   284
1070
     8
1070
   285
1070
     8
1070
   286
1070
     8
1002
}
  0
DIMENSION
  5
203E
330
17
100
AcDbEntity
  8
SUNPOU
100
AcDbDimension
  2
*D56
 10
7503.874628933961
 20
3528.446313711498
 30
0.0
 11
7466.374628933961
 21
3567.446313711498
 31
0.0
 70
    32
 71
     5
 42
-1.0
  3
STANDARD
100
AcDbAlignedDimension
 13
7428.874628933961
 23
3817.505141098994
 33
0.0
 14
7503.874628933961
 24
3818.505141098995
 34
0.0
100
AcDbRotatedDimension
1001
ACAD
1000
DSTYLE
1002
{
1070
   287
1070
     5
1070
   287
1070
     5
1070
    40
1040
20.0
1070
    41
1040
1.5
1070
    42
1040
1.5
1070
    43
1040
7.0
1070
    44
1040
0.5
1070
    73
1070
     0
1070
    74
1070
     0
1070
    77
1070
     1
1070
    78
1070
     8
1070
   140
1040
2.5
1070
   141
1040
0.0
1070
   145
1040
1.0
1070
   147
1040
0.7
1070
   174
1070
     1
1070
   179
1070
     4
1070
   271
1070
     0
1070
   272
1070
     0
1070
   279
1070
     2
1070
   284
1070
     8
1070
   285
1070
     8
1070
   286
1070
     8
1002
}
  0
DIMENSION
  5
215D
330
17
100
AcDbEntity
  8
SUNPOU
100
AcDbDimension
  2
*D63
 10
7854.837623452617
 20
3817.505141098994
 30
0.0
 11
7815.837623452615
 21
4117.505141098996
 31
0.0
 70
    32
 71
     5
 42
-1.0
  3
STANDARD
100
AcDbAlignedDimension
 13
7503.874628933961
 23
4417.505141098994
 33
0.0
 14
7503.874628933961
 24
3817.505141098994
 34
0.0
 50
90.0
100
AcDbRotatedDimension
1001
ACAD
1000
DSTYLE
1002
{
1070
   287
1070
     5
1070
   287
1070
     5
1070
    40
1040
20.0
1070
    41
1040
1.5
1070
    42
1040
1.5
1070
    43
1040
7.0
1070
    44
1040
0.5
1070
    73
1070
     0
1070
    74
1070
     0
1070
    77
1070
     1
1070
    78
1070
     8
1070
   140
1040
2.5
1070
   141
1040
0.0
1070
   145
1040
1.0
1070
   147
1040
0.7
1070
   174
1070
     1
1070
   179
1070
     4
1070
   271
1070
     0
1070
   272
1070
     0
1070
   279
1070
     2
1070
   284
1070
     8
1070
   285
1070
     8
1070
   286
1070
     8
1002
}
  0
LINE
  5
2414
330
17
100
AcDbEntity
  8
1HASEN
 48
0.5
100
AcDbLine
 10
6793.874628933962
 20
2553.431690371574
 30
0.0
 11
7393.874628933962
 21
2553.431690371574
 31
0.0
  0
LINE
  5
24A7
330
17
100
AcDbEntity
  8
1HASEN
 48
0.5
100
AcDbLine
 10
7093.874628933962
 20
2253.431690371574
 30
0.0
 11
7093.874628933962
 21
2853.431690371574
 31
0.0
  0
TEXT
  5
2A26
330
17
100
AcDbEntity
  8
SUNPOU
100
AcDbText
 10
7211.648326527001
 20
0.0
 30
0.0
 40
50.0
  1
新和コンクリート工業株式会社
100
AcDbText
  0
TEXT
  5
2A27
330
17
100
AcDbEntity
  8
SUNPOU
100
AcDbText
 10
7639.981659860334
 20
125.0
 30
0.0
 40
50.0
  1
製図
 72
     4
 11
7691.648326527
 21
150.0
 31
0.0
100
AcDbText
  0
TEXT
  5
2A28
330
17
100
AcDbEntity
  8
SUNPOU
100
AcDbText
 10
7638.314993193667
 20
225.0
 30
0.0
 40
50.0
  1
設計
 72
     4
 11
7691.648326527
 21
250.0
 31
0.0
100
AcDbText
  0
TEXT
  5
2A29
330
17
100
AcDbEntity
  8
SUNPOU
100
AcDbText
 10
7193.314993193666
 20
125.0000000000002
 30
0.0
 40
50.0
  1
認
 72
     4
 11
7216.648326527
 21
150.0000000000002
 31
0.0
100
AcDbText
  0
TEXT
  5
2A2A
330
17
100
AcDbEntity
  8
SUNPOU
100
AcDbText
 10
7193.314993193666
 20
226.6666666666674
 30
0.0
 40
50.0
  1
承
 72
     4
 11
7216.648326527
 21
250.0000000000007
 31
0.0
100
AcDbText
  0
TEXT
  5
2A2B
330
17
100
AcDbEntity
  8
SUNPOU
100
AcDbText
 10
6666.648326527
 20
235.0000000000003
 30
0.0
 40
50.0
  1
図　面　番　号
 72
     4
 11
6871.648326527
 21
260.0000000000002
 31
0.0
100
AcDbText
  0
TEXT
  5
2A2C
330
17
100
AcDbEntity
  8
SUNPOU
100
AcDbText
 10
7651.648326526999
 20
340.0
 30
0.0
 40
50.0
  1
１／
100
AcDbText
  0
TEXT
  5
2A2D
330
17
100
AcDbEntity
  8
SUNPOU
100
AcDbText
 10
7358.314993193667
 20
325.0000000000002
 30
0.0
 40
50.0
  1
縮　　尺
 72
     4
 11
7471.648326527
 21
350.0000000000002
 31
0.0
100
AcDbText
  0
TEXT
  5
2A2E
330
17
100
AcDbEntity
  8
SUNPOU
100
AcDbText
 10
7358.314993193667
 20
425.0
 30
0.0
 40
50.0
  1
鉄 筋 量
 72
     4
 11
7471.648326527
 21
450.0
 31
0.0
100
AcDbText
  0
TEXT
  5
2A2F
330
17
100
AcDbEntity
  8
SUNPOU
100
AcDbText
 10
7358.314993193667
 20
525.0
 30
0.0
 40
50.0
  1
製 造 数
 72
     4
 11
7471.648326527
 21
550.0
 31
0.0
100
AcDbText
  0
TEXT
  5
2A30
330
17
100
AcDbEntity
  8
SUNPOU
100
AcDbText
 10
7951.648326526999
 20
420.0
 30
0.0
 40
50.0
  1
ｋｇ
 72
     2
 11
8051.648326526999
 21
420.0
 31
0.0
100
AcDbText
  0
TEXT
  5
2A31
330
17
100
AcDbEntity
  8
SUNPOU
100
AcDbText
 10
7201.648326526999
 20
420.0
 30
0.0
 40
50.0
  1
ｋｇ
 72
     2
 11
7301.648326527
 21
420.0
 31
0.0
100
AcDbText
  0
TEXT
  5
2A32
330
17
100
AcDbEntity
  8
SUNPOU
100
AcDbText
 10
6611.648326527
 20
325.0000000000002
 30
0.0
 40
50.0
  1
年 月 日
 72
     4
 11
6721.648326527
 21
350.0000000000002
 31
0.0
100
AcDbText
  0
TEXT
  5
2A33
330
17
100
AcDbEntity
  8
SUNPOU
100
AcDbText
 10
6608.314993193667
 20
425.0
 30
0.0
 40
50.0
  1
製品質量
 72
     4
 11
6721.648326527
 21
450.0
 31
0.0
100
AcDbText
  0
TEXT
  5
2A34
330
17
100
AcDbEntity
  8
SUNPOU
100
AcDbText
 10
6609.981659860332
 20
525.0
 30
0.0
 40
50.0
  1
業 者 名
 72
     4
 11
6721.648326527
 21
550.0
 31
0.0
100
AcDbText
  0
TEXT
  5
2A35
330
17
100
AcDbEntity
  8
SUNPOU
100
AcDbText
 10
6608.314993193667
 20
650.0
 30
0.0
 40
50.0
  1
名　　称
 72
     4
 11
6721.648326527
 21
675.0
 31
0.0
100
AcDbText
  0
LINE
  5
2A36
330
17
100
AcDbEntity
  8
SUNPOU
100
AcDbLine
 10
7171.648326527
 20
220.0000000000002
 30
0.0
 11
6571.648326527
 21
220.0000000000002
 31
0.0
  0
LINE
  5
2A37
330
17
100
AcDbEntity
  8
SUNPOU
100
AcDbLine
 10
7761.648326527001
 20
99.99999999999971
 30
0.0
 11
7761.648326527001
 21
299.9999999999999
 31
0.0
  0
LINE
  5
2A38
330
17
100
AcDbEntity
  8
SUNPOU
100
AcDbLine
 10
7621.648326527
 20
99.99999999999971
 30
0.0
 11
7621.648326527
 21
299.9999999999999
 31
0.0
  0
LINE
  5
2A39
330
17
100
AcDbEntity
  8
SUNPOU
100
AcDbLine
 10
7261.648326527001
 20
99.99999999999989
 30
0.0
 11
7261.648326527001
 21
300.0
 31
0.0
  0
LINE
  5
2A3A
330
17
100
AcDbEntity
  8
SUNPOU
100
AcDbLine
 10
7171.648326527
 20
99.99999999999989
 30
0.0
 11
7171.648326527
 21
300.0
 31
0.0
  0
LINE
  5
2A3B
330
17
100
AcDbEntity
  8
SUNPOU
100
AcDbLine
 10
6871.648326527
 20
300.0000000000002
 30
0.0
 11
6871.648326527
 21
750.0
 31
0.0
  0
LINE
  5
2A3C
330
17
100
AcDbEntity
  8
SUNPOU
100
AcDbLine
 10
7621.648326527
 20
300.0000000000002
 30
0.0
 11
7621.648326527
 21
600.0
 31
0.0
  0
LINE
  5
2A3D
330
17
100
AcDbEntity
  8
SUNPOU
100
AcDbLine
 10
7321.648326527
 20
300.0000000000002
 30
0.0
 11
7321.648326527
 21
600.0
 31
0.0
  0
LINE
  5
2A3E
330
17
100
AcDbEntity
  8
SUNPOU
100
AcDbLine
 10
8071.648326527
 20
600.0
 30
0.0
 11
6571.648326527
 21
600.0
 31
0.0
  0
LINE
  5
2A3F
330
17
100
AcDbEntity
  8
SUNPOU
100
AcDbLine
 10
8071.648326527
 20
500.0
 30
0.0
 11
6571.648326527
 21
500.0
 31
0.0
  0
LINE
  5
2A40
330
17
100
AcDbEntity
  8
SUNPOU
100
AcDbLine
 10
8071.648326527
 20
400.0
 30
0.0
 11
6571.648326527
 21
400.0
 31
0.0
  0
LINE
  5
2A41
330
17
100
AcDbEntity
  8
SUNPOU
100
AcDbLine
 10
8071.648326527
 20
299.9999999999999
 30
0.0
 11
6571.648326527
 21
300.0000000000007
 31
0.0
  0
LINE
  5
2A42
330
17
100
AcDbEntity
  8
HAIKIN
100
AcDbLine
 10
6571.648326527
 20
750.0
 30
0.0
 11
8071.648326527
 21
750.0
 31
0.0
  0
LINE
  5
2A43
330
17
100
AcDbEntity
  8
HAIKIN
100
AcDbLine
 10
6571.648326527
 20
100.0000000000001
 30
0.0
 11
6571.648326527
 21
750.0
 31
0.0
  0
LINE
  5
2A44
330
17
100
AcDbEntity
  8
SUNPOU
100
AcDbLine
 10
320.0000000000003
 20
5540.0
 30
0.0
 11
320.0000000000003
 21
5440.0
 31
0.0
  0
LINE
  5
2A45
330
17
100
AcDbEntity
  8
SUNPOU
100
AcDbLine
 10
820.0000000000002
 20
5540.0
 30
0.0
 11
320.0000000000003
 21
5540.0
 31
0.0
  0
LINE
  5
2A46
330
17
100
AcDbEntity
  8
SUNPOU
100
AcDbLine
 10
820.0000000000002
 20
5440.0
 30
0.0
 11
820.0000000000002
 21
5540.0
 31
0.0
  0
LINE
  5
2A47
330
17
100
AcDbEntity
  8
HAIKIN
100
AcDbLine
 10
320.0
 20
100.0
 30
0.0
 11
8071.648326527
 21
100.0
 31
0.0
  0
LINE
  5
2A48
330
17
100
AcDbEntity
  8
HAIKIN
100
AcDbLine
 10
320.0000000000003
 20
5440.0
 30
0.0
 11
8071.648326527
 21
5440.0
 31
0.0
  0
LINE
  5
2A49
330
17
100
AcDbEntity
  8
HAIKIN
100
AcDbLine
 10
8071.648326527
 20
5440.0
 30
0.0
 11
8071.648326527
 21
100.0
 31
0.0
  0
TEXT
  5
2A4A
330
17
100
AcDbEntity
  8
SUNPOU
100
AcDbText
 10
394.0000000000003
 20
5460.0
 30
0.0
 40
60.0
  1
Ｈ－２－共
 72
     4
 11
570.0000000000003
 21
5490.0
 31
0.0
100
AcDbText
  0
LINE
  5
2A4B
330
17
100
AcDbEntity
  8
HAIKIN
100
AcDbLine
 10
320.0
 20
100.0
 30
0.0
 11
320.0000000000003
 21
5440.0
 31
0.0
  0
POINT
  5
2A4C
330
17
100
AcDbEntity
  8
SUNPOU
100
AcDbPoint
 10
148.6162821516373
 20
5632.042442328446
 30
0.0
  0
POINT
  5
2A4D
330
17
100
AcDbEntity
  8
SUNPOU
100
AcDbPoint
 10
8181.593311444498
 20
-93.35404855051093
 30
0.0
  0
TEXT
  5
2D46
330
17
100
AcDbEntity
  8
SUNPOU
100
AcDbText
 10
7869.328508009312
 20
644.4276687708479
 30
0.0
 40
60.0
  1
斜壁
 41
0.8
100
AcDbText
  0
ENDSEC
  0
SECTION
  2
OBJECTS
  0
DICTIONARY
  5
C
330
0
100
AcDbDictionary
281
     1
  3
ACAD_COLOR
350
2FCE
  3
ACAD_GROUP
350
D
  3
ACAD_LAYOUT
350
6F
  3
ACAD_MATERIAL
350
2FCD
  3
ACAD_MLINESTYLE
350
1A
  3
ACAD_PLOTSETTINGS
350
70
  3
ACAD_PLOTSTYLENAME
350
6D
  3
ACAD_TABLESTYLE
350
2FCF
  3
ACDBHEADERROUNDTRIPXREC
350
2FE1
  3
AcDbVariableDictionary
350
A0
  0
DICTIONARY
  5
9C
330
17
100
AcDbDictionary
280
     1
281
     1
  3
ACAD_LAYOUTSELFREF
360
2D70
  0
DICTIONARY
  5
9A
330
14
100
AcDbDictionary
280
     1
281
     1
  3
ACAD_LAYOUTSELFREF
360
2D6F
  0
DICTIONARY
  5
2FCE
102
{ACAD_REACTORS
330
C
102
}
330
C
100
AcDbDictionary
281
     1
  0
DICTIONARY
  5
D
102
{ACAD_REACTORS
330
C
102
}
330
C
100
AcDbDictionary
281
     1
  0
DICTIONARY
  5
6F
102
{ACAD_REACTORS
330
C
102
}
330
C
100
AcDbDictionary
281
     1
  3
Model
350
71
  3
ﾚｲｱｳﾄ1
350
72
  0
DICTIONARY
  5
2FCD
102
{ACAD_REACTORS
330
C
102
}
330
C
100
AcDbDictionary
281
     1
  0
DICTIONARY
  5
1A
102
{ACAD_REACTORS
330
C
102
}
330
C
100
AcDbDictionary
281
     1
  3
STANDARD
350
1B
  0
DICTIONARY
  5
70
102
{ACAD_REACTORS
330
C
102
}
330
C
100
AcDbDictionary
281
     1
  0
ACDBDICTIONARYWDFLT
  5
6D
102
{ACAD_REACTORS
330
C
102
}
330
C
100
AcDbDictionary
281
     1
  3
Normal
350
6E
100
AcDbDictionaryWithDefault
340
6E
  0
DICTIONARY
  5
2FCF
102
{ACAD_REACTORS
330
C
102
}
330
C
100
AcDbDictionary
281
     1
  3
Standard
350
2FD0
  0
DICTIONARY
  5
2FE1
102
{ACAD_REACTORS
330
C
102
}
330
C
100
AcDbDictionary
281
     1
  0
DICTIONARY
  5
A0
102
{ACAD_REACTORS
330
C
102
}
330
C
100
AcDbDictionary
281
     1
  3
CTABLESTYLE
350
2FDA
  3
DIMASSOC
350
A1
  3
PROJECTNAME
350
2FDB
  0
XRECORD
  5
2D70
102
{ACAD_REACTORS
330
9C
102
}
330
9C
100
AcDbXrecord
280
     1
340
17
  0
XRECORD
  5
2D6F
102
{ACAD_REACTORS
330
9A
102
}
330
9A
100
AcDbXrecord
280
     1
340
14
  0
LAYOUT
  5
71
102
{ACAD_XDICTIONARY
360
2FE2
102
}
102
{ACAD_REACTORS
330
6F
102
}
330
6F
100
AcDbPlotSettings
  1

  2
RICOH IPSiO NX850 RPCS
  4
A4
  6

 40
5.873749732971191
 41
5.873747825622558
 42
5.873748779296875
 43
5.873748779296875
 44
209.9733276367187
 45
296.9259948730469
 46
0.0
 47
0.0
 48
0.0
 49
0.0
140
0.0
141
0.0
142
1.0
143
1.0
 70
 11952
 72
     0
 73
     1
 74
     0
  7
acad.ctb
 75
     0
147
1.0
148
-29793.33470533984
149
-1225.621704113712
100
AcDbLayout
  1
Model
 70
     1
 71
     0
 10
0.0
 20
0.0
 11
12.0
 21
9.0
 12
0.0
 22
0.0
 32
0.0
 14
0.0
 24
0.0
 34
0.0
 15
0.0
 25
0.0
 35
0.0
146
0.0
 13
0.0
 23
0.0
 33
0.0
 16
1.0
 26
0.0
 36
0.0
 17
0.0
 27
1.0
 37
0.0
 76
     0
330
17
  0
LAYOUT
  5
72
102
{ACAD_XDICTIONARY
360
2FE4
102
}
102
{ACAD_REACTORS
330
6F
102
}
330
6F
100
AcDbPlotSettings
  1

  2
RICOH IPSiO NX850 RPCS
  4

  6

 40
0.0
 41
0.0
 42
0.0
 43
0.0
 44
0.0
 45
0.0
 46
0.0
 47
0.0
 48
0.0
 49
0.0
140
0.0
141
0.0
142
1.0
143
1.0
 70
   688
 72
     0
 73
     0
 74
     5
  7
acad.ctb
 75
    16
147
1.0
148
0.0
149
0.0
100
AcDbLayout
  1
ﾚｲｱｳﾄ1
 70
     0
 71
     1
 10
0.0
 20
0.0
 11
12.0
 21
9.0
 12
0.0
 22
0.0
 32
0.0
 14
1.000000000000000E+20
 24
1.000000000000000E+20
 34
1.000000000000000E+20
 15
-1.000000000000000E+20
 25
-1.000000000000000E+20
 35
-1.000000000000000E+20
146
0.0
 13
0.0
 23
0.0
 33
0.0
 16
1.0
 26
0.0
 36
0.0
 17
0.0
 27
1.0
 37
0.0
 76
     0
330
14
  0
MLINESTYLE
  5
1B
102
{ACAD_REACTORS
330
1A
102
}
330
1A
100
AcDbMlineStyle
  2
STANDARD
 70
     0
  3

 62
   256
 51
90.0
 52
90.0
 71
     2
 49
0.5
 62
   256
  6
BYLAYER
 49
-0.5
 62
   256
  6
BYLAYER
  0
ACDBPLACEHOLDER
  5
6E
102
{ACAD_REACTORS
330
6D
102
}
330
6D
  0
TABLESTYLE
  5
2FD0
102
{ACAD_REACTORS
330
2FCF
102
}
330
2FCF
100
AcDbTableStyle
  3
Standard
 70
     0
 71
     0
 40
0.06
 41
0.06
280
     0
281
     0
  7
STANDARD
140
0.18
170
     2
 62
     0
 63
     7
283
     0
274
    -2
284
     1
 64
     0
275
    -2
285
     1
 65
     0
276
    -2
286
     1
 66
     0
277
    -2
287
     1
 67
     0
278
    -2
288
     1
 68
     0
279
    -2
289
     1
 69
     0
  7
STANDARD
140
0.25
170
     5
 62
     0
 63
     7
283
     0
274
    -2
284
     1
 64
     0
275
    -2
285
     1
 65
     0
276
    -2
286
     1
 66
     0
277
    -2
287
     1
 67
     0
278
    -2
288
     1
 68
     0
279
    -2
289
     1
 69
     0
  7
STANDARD
140
0.18
170
     5
 62
     0
 63
     7
283
     0
274
    -2
284
     1
 64
     0
275
    -2
285
     1
 65
     0
276
    -2
286
     1
 66
     0
277
    -2
287
     1
 67
     0
278
    -2
288
     1
 68
     0
279
    -2
289
     1
 69
     0
  0
DICTIONARYVAR
  5
2FDA
102
{ACAD_REACTORS
330
A0
102
}
330
A0
100
DictionaryVariables
280
     0
  1
STANDARD
  0
DICTIONARYVAR
  5
A1
102
{ACAD_REACTORS
330
A0
102
}
330
A0
100
DictionaryVariables
280
     0
  1
1
  0
DICTIONARYVAR
  5
2FDB
102
{ACAD_REACTORS
330
A0
102
}
330
A0
100
DictionaryVariables
280
     0
  1

  0
DICTIONARY
  5
2FE2
330
71
100
AcDbDictionary
280
     1
281
     1
  3
ACAD_XREC_ROUNDTRIP
360
2FE3
  0
DICTIONARY
  5
2FE4
330
72
100
AcDbDictionary
280
     1
281
     1
  3
ACAD_XREC_ROUNDTRIP
360
2FE5
  0
XRECORD
  5
2FE3
102
{ACAD_REACTORS
330
2FE2
102
}
330
2FE2
100
AcDbXrecord
280
     1
102
SHADEPLOT
 70
     0
102
SHADEPLOTRESLEVEL
 70
     2
102
SHADEPLOTCUSTOMDPI
 70
   300
  0
XRECORD
  5
2FE5
102
{ACAD_REACTORS
330
2FE4
102
}
330
2FE4
100
AcDbXrecord
280
     1
102
SHADEPLOT
 70
     0
102
SHADEPLOTRESLEVEL
 70
     2
102
SHADEPLOTCUSTOMDPI
 70
   300
  0
ENDSEC
  0
EOF
