  0
SECTION
  2
HEADER
  9
$ACADVER
  1
AC1018
  9
$ACADMAINTVER
 70
     0
  9
$DWGCODEPAGE
  3
ANSI_932
  9
$INSBASE
 10
0.0
 20
0.0
 30
0.0
  9
$EXTMIN
 10
-250.3264827408202
 20
-235.0992378963093
 30
0.0
  9
$EXTMAX
 10
9324.67351725918
 20
6689.900762103691
 30
0.0
  9
$LIMMIN
 10
0.0
 20
0.0
  9
$LIMMAX
 10
10500.0
 20
7425.0
  9
$ORTHOMODE
 70
     1
  9
$REGENMODE
 70
     1
  9
$FILLMODE
 70
     1
  9
$QTEXTMODE
 70
     0
  9
$MIRRTEXT
 70
     0
  9
$LTSCALE
 40
100.0
  9
$ATTMODE
 70
     1
  9
$TEXTSIZE
 40
62.5
  9
$TRACEWID
 40
0.05
  9
$TEXTSTYLE
  7
STANDARD
  9
$CLAYER
  8
SUNPOU
  9
$CELTYPE
  6
BYLAYER
  9
$CECOLOR
 62
   256
  9
$CELTSCALE
 40
1.0
  9
$DISPSILH
 70
     0
  9
$DIMSCALE
 40
25.0
  9
$DIMASZ
 40
1.8
  9
$DIMEXO
 40
2.0
  9
$DIMDLI
 40
7.0
  9
$DIMRND
 40
0.0
  9
$DIMDLE
 40
0.0
  9
$DIMEXE
 40
0.5
  9
$DIMTP
 40
0.0
  9
$DIMTM
 40
0.0
  9
$DIMTXT
 40
2.5
  9
$DIMCEN
 40
0.0
  9
$DIMTSZ
 40
0.0
  9
$DIMTOL
 70
     0
  9
$DIMLIM
 70
     0
  9
$DIMTIH
 70
     0
  9
$DIMTOH
 70
     0
  9
$DIMSE1
 70
     0
  9
$DIMSE2
 70
     0
  9
$DIMTAD
 70
     1
  9
$DIMZIN
 70
     8
  9
$DIMBLK
  1

  9
$DIMASO
 70
     1
  9
$DIMSHO
 70
     0
  9
$DIMPOST
  1

  9
$DIMAPOST
  1

  9
$DIMALT
 70
     0
  9
$DIMALTD
 70
     2
  9
$DIMALTF
 40
25.4
  9
$DIMLFAC
 40
1.0
  9
$DIMTOFL
 70
     0
  9
$DIMTVP
 40
1.0
  9
$DIMTIX
 70
     1
  9
$DIMSOXD
 70
     0
  9
$DIMSAH
 70
     0
  9
$DIMBLK1
  1

  9
$DIMBLK2
  1

  9
$DIMSTYLE
  2
A3-25
  9
$DIMCLRD
 70
     0
  9
$DIMCLRE
 70
     0
  9
$DIMCLRT
 70
     0
  9
$DIMTFAC
 40
1.0
  9
$DIMGAP
 40
0.7
  9
$DIMJUST
 70
     0
  9
$DIMSD1
 70
     0
  9
$DIMSD2
 70
     0
  9
$DIMTOLJ
 70
     1
  9
$DIMTZIN
 70
     8
  9
$DIMALTZ
 70
     8
  9
$DIMALTTZ
 70
     8
  9
$DIMUPT
 70
     0
  9
$DIMDEC
 70
     0
  9
$DIMTDEC
 70
     0
  9
$DIMALTU
 70
     2
  9
$DIMALTTD
 70
     2
  9
$DIMTXSTY
  7
STANDARD
  9
$DIMAUNIT
 70
     0
  9
$DIMADEC
 70
     4
  9
$DIMALTRND
 40
0.0
  9
$DIMAZIN
 70
     0
  9
$DIMDSEP
 70
    46
  9
$DIMATFIT
 70
     3
  9
$DIMFRAC
 70
     0
  9
$DIMLDRBLK
  1

  9
$DIMLUNIT
 70
     2
  9
$DIMLWD
 70
    -2
  9
$DIMLWE
 70
    -2
  9
$DIMTMOVE
 70
     2
  9
$LUNITS
 70
     2
  9
$LUPREC
 70
     4
  9
$SKETCHINC
 40
0.1
  9
$FILLETRAD
 40
15.0
  9
$AUNITS
 70
     1
  9
$AUPREC
 70
     4
  9
$MENU
  1
acad
  9
$ELEVATION
 40
0.0
  9
$PELEVATION
 40
0.0
  9
$THICKNESS
 40
0.0
  9
$LIMCHECK
 70
     0
  9
$CHAMFERA
 40
30.0
  9
$CHAMFERB
 40
30.0
  9
$CHAMFERC
 40
0.0
  9
$CHAMFERD
 40
0.0
  9
$SKPOLY
 70
     0
  9
$TDCREATE
 40
2449090.637986111
  9
$TDUCREATE
 40
2449090.262986111
  9
$TDUPDATE
 40
2455712.48676294
  9
$TDUUPDATE
 40
2455712.11176294
  9
$TDINDWG
 40
0.6966915278
  9
$TDUSRTIMER
 40
0.6966915278
  9
$USRTIMER
 70
     1
  9
$ANGBASE
 50
0.0
  9
$ANGDIR
 70
     0
  9
$PDMODE
 70
     0
  9
$PDSIZE
 40
0.0
  9
$PLINEWID
 40
0.0
  9
$SPLFRAME
 70
     0
  9
$SPLINETYPE
 70
     6
  9
$SPLINESEGS
 70
     8
  9
$HANDSEED
  5
2ED4
  9
$SURFTAB1
 70
     6
  9
$SURFTAB2
 70
     6
  9
$SURFTYPE
 70
     6
  9
$SURFU
 70
     6
  9
$SURFV
 70
     6
  9
$UCSBASE
  2

  9
$UCSNAME
  2

  9
$UCSORG
 10
0.0
 20
0.0
 30
0.0
  9
$UCSXDIR
 10
1.0
 20
0.0
 30
0.0
  9
$UCSYDIR
 10
0.0
 20
1.0
 30
0.0
  9
$UCSORTHOREF
  2

  9
$UCSORTHOVIEW
 70
     0
  9
$UCSORGTOP
 10
0.0
 20
0.0
 30
0.0
  9
$UCSORGBOTTOM
 10
0.0
 20
0.0
 30
0.0
  9
$UCSORGLEFT
 10
0.0
 20
0.0
 30
0.0
  9
$UCSORGRIGHT
 10
0.0
 20
0.0
 30
0.0
  9
$UCSORGFRONT
 10
0.0
 20
0.0
 30
0.0
  9
$UCSORGBACK
 10
0.0
 20
0.0
 30
0.0
  9
$PUCSBASE
  2

  9
$PUCSNAME
  2

  9
$PUCSORG
 10
0.0
 20
0.0
 30
0.0
  9
$PUCSXDIR
 10
1.0
 20
0.0
 30
0.0
  9
$PUCSYDIR
 10
0.0
 20
1.0
 30
0.0
  9
$PUCSORTHOREF
  2

  9
$PUCSORTHOVIEW
 70
     0
  9
$PUCSORGTOP
 10
0.0
 20
0.0
 30
0.0
  9
$PUCSORGBOTTOM
 10
0.0
 20
0.0
 30
0.0
  9
$PUCSORGLEFT
 10
0.0
 20
0.0
 30
0.0
  9
$PUCSORGRIGHT
 10
0.0
 20
0.0
 30
0.0
  9
$PUCSORGFRONT
 10
0.0
 20
0.0
 30
0.0
  9
$PUCSORGBACK
 10
0.0
 20
0.0
 30
0.0
  9
$USERI1
 70
     0
  9
$USERI2
 70
     0
  9
$USERI3
 70
     0
  9
$USERI4
 70
     0
  9
$USERI5
 70
     0
  9
$USERR1
 40
0.0
  9
$USERR2
 40
0.0
  9
$USERR3
 40
0.0
  9
$USERR4
 40
0.0
  9
$USERR5
 40
0.0
  9
$WORLDVIEW
 70
     1
  9
$SHADEDGE
 70
     3
  9
$SHADEDIF
 70
    70
  9
$TILEMODE
 70
     1
  9
$MAXACTVP
 70
    16
  9
$PINSBASE
 10
0.0
 20
0.0
 30
0.0
  9
$PLIMCHECK
 70
     0
  9
$PEXTMIN
 10
1.000000000000000E+20
 20
1.000000000000000E+20
 30
1.000000000000000E+20
  9
$PEXTMAX
 10
-1.000000000000000E+20
 20
-1.000000000000000E+20
 30
-1.000000000000000E+20
  9
$PLIMMIN
 10
0.0
 20
0.0
  9
$PLIMMAX
 10
12.0
 20
9.0
  9
$UNITMODE
 70
     0
  9
$VISRETAIN
 70
     0
  9
$PLINEGEN
 70
     0
  9
$PSLTSCALE
 70
     0
  9
$TREEDEPTH
 70
  3020
  9
$CMLSTYLE
  2
STANDARD
  9
$CMLJUST
 70
     0
  9
$CMLSCALE
 40
1.0
  9
$PROXYGRAPHICS
 70
     1
  9
$MEASUREMENT
 70
     0
  9
$CELWEIGHT
370
    -1
  9
$ENDCAPS
280
     0
  9
$JOINSTYLE
280
     0
  9
$LWDISPLAY
290
     0
  9
$INSUNITS
 70
     0
  9
$HYPERLINKBASE
  1

  9
$STYLESHEET
  1
acad.ctb
  9
$XEDIT
290
     1
  9
$CEPSNTYPE
380
     0
  9
$PSTYLEMODE
290
     1
  9
$FINGERPRINTGUID
  2
{BB58A45C-081C-4ED0-9445-EBB51D0098BA}
  9
$VERSIONGUID
  2
{8D0F0B5D-E335-486E-95F9-2B18B87253ED}
  9
$EXTNAMES
290
     1
  9
$PSVPSCALE
 40
0.0
  9
$OLESTARTUP
290
     0
  9
$SORTENTS
280
    96
  9
$INDEXCTL
280
     0
  9
$HIDETEXT
280
     1
  9
$XCLIPFRAME
290
     0
  9
$HALOGAP
280
     0
  9
$OBSCOLOR
 70
   257
  9
$OBSLTYPE
280
     0
  9
$INTERSECTIONDISPLAY
280
     0
  9
$INTERSECTIONCOLOR
 70
   257
  9
$DIMASSOC
280
     1
  9
$PROJECTNAME
  1

  0
ENDSEC
  0
SECTION
  2
CLASSES
  0
CLASS
  1
LWPOLYLINE
  2
AcDbPolyline
  3
AutoCAD 2000
 90
        0
 91
        1
280
     0
281
     1
  0
CLASS
  1
DICTIONARYVAR
  2
AcDbDictionaryVar
  3
ObjectDBX Classes
 90
        0
 91
        4
280
     0
281
     0
  0
CLASS
  1
HATCH
  2
AcDbHatch
  3
AutoCAD 2000
 90
        0
 91
        1
280
     0
281
     1
  0
CLASS
  1
ACDBDICTIONARYWDFLT
  2
AcDbDictionaryWithDefault
  3
ObjectDBX Classes
 90
        0
 91
        4
280
     0
281
     0
  0
CLASS
  1
TABLESTYLE
  2
AcDbTableStyle
  3
ObjectDBX Classes
 90
     4095
 91
        4
280
     0
281
     0
  0
CLASS
  1
ACDBPLACEHOLDER
  2
AcDbPlaceHolder
  3
ObjectDBX Classes
 90
        0
 91
        1
280
     0
281
     0
  0
CLASS
  1
LAYOUT
  2
AcDbLayout
  3
ObjectDBX Classes
 90
        0
 91
        1
280
     0
281
     0
  0
CLASS
  1
SORTENTSTABLE
  2
AcDbSortentsTable
  3
ObjectDBX Classes
 90
        0
 91
        4
280
     0
281
     0
  0
CLASS
  1
SCALE
  2
AcDbScale
  3
ObjectDBX Classes
 90
     1153
 91
        4
280
     0
281
     0
  0
CLASS
  1
CELLSTYLEMAP
  2
AcDbCellStyleMap
  3
ObjectDBX Classes
 90
     1152
 91
        4
280
     0
281
     0
  0
ENDSEC
  0
SECTION
  2
TABLES
  0
TABLE
  2
VPORT
  5
8
330
0
100
AcDbSymbolTable
 70
     5
  0
VPORT
  5
2EA6
330
8
100
AcDbSymbolTableRecord
100
AcDbViewportTableRecord
  2
*Active
 70
     0
 10
0.0
 20
0.0
 11
1.0
 21
1.0
 12
4068.604241855495
 22
3213.229600506626
 13
0.0
 23
0.0
 14
1.0
 24
1.0
 15
0.0
 25
0.0
 16
0.0
 26
0.0
 36
1.0
 17
0.0
 27
0.0
 37
0.0
 40
7651.198412818496
 41
1.507024265644955
 42
50.0
 43
0.0
 44
0.0
 50
0.0
 51
0.0
 71
     0
 72
   100
 73
     1
 74
     0
 75
     0
 76
     0
 77
     0
 78
     0
281
     0
 65
     1
110
0.0
120
0.0
130
0.0
111
1.0
121
0.0
131
0.0
112
0.0
122
1.0
132
0.0
 79
     0
146
0.0
  0
ENDTAB
  0
TABLE
  2
LTYPE
  5
5
330
0
100
AcDbSymbolTable
 70
     6
  0
LTYPE
  5
12
330
5
100
AcDbSymbolTableRecord
100
AcDbLinetypeTableRecord
  2
BYBLOCK
 70
     0
  3

 72
    65
 73
     0
 40
0.0
  0
LTYPE
  5
13
330
5
100
AcDbSymbolTableRecord
100
AcDbLinetypeTableRecord
  2
BYLAYER
 70
     0
  3

 72
    65
 73
     0
 40
0.0
  0
LTYPE
  5
14
330
5
100
AcDbSymbolTableRecord
100
AcDbLinetypeTableRecord
  2
CONTINUOUS
 70
     0
  3
Solid line
 72
    65
 73
     0
 40
0.0
  0
LTYPE
  5
78F
330
5
100
AcDbSymbolTableRecord
100
AcDbLinetypeTableRecord
  2
CENTER2
 70
     0
  3
___ _ ___ _ ___ _ ___ _ ___ _ ___ _ ___ _ ___ _
 72
    65
 73
     4
 40
1.125
 49
0.75
 74
     0
 49
-0.125
 74
     0
 49
0.125
 74
     0
 49
-0.125
 74
     0
  0
LTYPE
  5
790
330
5
100
AcDbSymbolTableRecord
100
AcDbLinetypeTableRecord
  2
DASHED2
 70
     0
  3
_ _ _ _ _ _ _ _ _ _ _ _ _ _ _ _ _ _ _ _ _ _ _ _
 72
    65
 73
     2
 40
0.375
 49
0.25
 74
     0
 49
-0.125
 74
     0
  0
LTYPE
  5
FCE
330
5
100
AcDbSymbolTableRecord
100
AcDbLinetypeTableRecord
  2
HIDDEN
 70
     0
  3
Hidden __ __ __ __ __ __ __ __ __ __ __ __ __ _
 72
    65
 73
     2
 40
0.375
 49
0.25
 74
     0
 49
-0.125
 74
     0
  0
LTYPE
  5
FD0
330
5
100
AcDbSymbolTableRecord
100
AcDbLinetypeTableRecord
  2
PHANTOM
 70
     0
  3
Phantom ______  __  __  ______  __  __  ______
 72
    65
 73
     6
 40
2.5
 49
1.25
 74
     0
 49
-0.25
 74
     0
 49
0.25
 74
     0
 49
-0.25
 74
     0
 49
0.25
 74
     0
 49
-0.25
 74
     0
  0
LTYPE
  5
FD2
330
5
100
AcDbSymbolTableRecord
100
AcDbLinetypeTableRecord
  2
CENTER
 70
     0
  3
Center ____ _ ____ _ ____ _ ____ _ ____ _ ____
 72
    65
 73
     4
 40
2.0
 49
1.25
 74
     0
 49
-0.25
 74
     0
 49
0.25
 74
     0
 49
-0.25
 74
     0
  0
ENDTAB
  0
TABLE
  2
LAYER
  5
2
102
{ACAD_XDICTIONARY
360
FC7
102
}
330
0
100
AcDbSymbolTable
 70
     8
  0
LAYER
  5
F
330
2
100
AcDbSymbolTableRecord
100
AcDbLayerTableRecord
  2
0
 70
     0
 62
     7
  6
CONTINUOUS
370
    -3
390
E6F
  0
LAYER
  5
49
330
2
100
AcDbSymbolTableRecord
100
AcDbLayerTableRecord
  2
SEIHIN
 70
     0
 62
     3
  6
CONTINUOUS
370
    -3
390
E6F
  0
LAYER
  5
4A
330
2
100
AcDbSymbolTableRecord
100
AcDbLayerTableRecord
  2
SUNPOU
 70
     0
 62
     1
  6
CONTINUOUS
370
    -3
390
E6F
  0
LAYER
  5
4B
330
2
100
AcDbSymbolTableRecord
100
AcDbLayerTableRecord
  2
HAIKIN
 70
     0
 62
     2
  6
CONTINUOUS
370
    -3
390
E6F
  0
LAYER
  5
4C
330
2
100
AcDbSymbolTableRecord
100
AcDbLayerTableRecord
  2
DEFPOINTS
 70
     0
 62
     7
  6
CONTINUOUS
290
     0
370
    -3
390
E6F
  0
LAYER
  5
FCA
330
2
100
AcDbSymbolTableRecord
100
AcDbLayerTableRecord
  2
1HASEN
 70
     0
 62
     5
  6
CENTER
370
    -3
390
E6F
1001
AcAecLayerStandard
1000

1000

  0
LAYER
  5
FCF
330
2
100
AcDbSymbolTableRecord
100
AcDbLayerTableRecord
  2
2HASEN
 70
     0
 62
     6
  6
PHANTOM
370
    -3
390
E6F
1001
AcAecLayerStandard
1000

1000

  0
LAYER
  5
FD1
330
2
100
AcDbSymbolTableRecord
100
AcDbLayerTableRecord
  2
HASEN
 70
     0
 62
     4
  6
HIDDEN
370
    -3
390
E6F
1001
AcAecLayerStandard
1000

1000

  0
ENDTAB
  0
TABLE
  2
STYLE
  5
3
330
0
100
AcDbSymbolTable
 70
     3
  0
STYLE
  5
10
330
3
100
AcDbSymbolTableRecord
100
AcDbTextStyleTableRecord
  2
STANDARD
 70
     0
 40
0.0
 41
0.8
 50
0.0
 71
     0
 42
62.5
  3
TXT.shx
  4
BIGFONT.shx
  0
STYLE
  5
FCD
330
3
100
AcDbSymbolTableRecord
100
AcDbTextStyleTableRecord
  2

 70
     1
 40
0.0
 41
1.0
 50
0.0
 71
     0
 42
65.0
  3
ltypeshp.shx
  4

  0
STYLE
  5
1424
330
3
100
AcDbSymbolTableRecord
100
AcDbTextStyleTableRecord
  2
MS ゴシック
 70
     0
 40
0.0
 41
1.0
 50
0.0
 71
     0
 42
65.0
  3
MS Gothic.ttf
  4

1001
ACAD
1000
MS Gothic
1071
    32817
  0
ENDTAB
  0
TABLE
  2
VIEW
  5
6
330
0
100
AcDbSymbolTable
 70
     0
  0
ENDTAB
  0
TABLE
  2
UCS
  5
7
330
0
100
AcDbSymbolTable
 70
     0
  0
ENDTAB
  0
TABLE
  2
APPID
  5
9
330
0
100
AcDbSymbolTable
 70
    12
  0
APPID
  5
11
330
9
100
AcDbSymbolTableRecord
100
AcDbRegAppTableRecord
  2
ACAD
 70
     0
  0
APPID
  5
E7B
330
9
100
AcDbSymbolTableRecord
100
AcDbRegAppTableRecord
  2
ACAD_PSEXT
 70
     0
  0
APPID
  5
EC9
330
9
100
AcDbSymbolTableRecord
100
AcDbRegAppTableRecord
  2
ACAD_DSTYLE_DIMEXT_LENGTH
 70
     0
  0
APPID
  5
ECA
330
9
100
AcDbSymbolTableRecord
100
AcDbRegAppTableRecord
  2
ACAD_DSTYLE_DIMEXT_ENABLED
 70
     0
  0
APPID
  5
ECB
330
9
100
AcDbSymbolTableRecord
100
AcDbRegAppTableRecord
  2
ACAD_DSTYLE_DIMJOGGED_JOGANGLE_SYMBOL
 70
     0
  0
APPID
  5
ECC
330
9
100
AcDbSymbolTableRecord
100
AcDbRegAppTableRecord
  2
ACAD_DSTYLE_DIMARC_LENGTH_SYMBOL
 70
     0
  0
APPID
  5
FCB
330
9
100
AcDbSymbolTableRecord
100
AcDbRegAppTableRecord
  2
AcAecLayerStandard
 70
     0
  0
APPID
  5
142B
330
9
100
AcDbSymbolTableRecord
100
AcDbRegAppTableRecord
  2
ACAD_DSTYLE_DIMTEXT_FILL
 70
     0
  0
APPID
  5
142E
330
9
100
AcDbSymbolTableRecord
100
AcDbRegAppTableRecord
  2
ACAD_DSTYLE_DIM_LINETYPE
 70
     0
  0
APPID
  5
142F
330
9
100
AcDbSymbolTableRecord
100
AcDbRegAppTableRecord
  2
ACAD_DSTYLE_DIM_EXT1_LINETYPE
 70
     0
  0
APPID
  5
1430
330
9
100
AcDbSymbolTableRecord
100
AcDbRegAppTableRecord
  2
ACAD_DSTYLE_DIM_EXT2_LINETYPE
 70
     0
  0
APPID
  5
20B5
330
9
100
AcDbSymbolTableRecord
100
AcDbRegAppTableRecord
  2
ACAD_EXEMPT_FROM_CAD_STANDARDS
 70
     0
  0
ENDTAB
  0
TABLE
  2
DIMSTYLE
  5
A
330
0
100
AcDbSymbolTable
 70
     3
100
AcDbDimStyleTable
  0
DIMSTYLE
105
77F
330
A
100
AcDbSymbolTableRecord
100
AcDbDimStyleTableRecord
  2
STANDARD
 70
     0
 40
25.0
 41
0.6
 42
2.0
 43
2.0
 44
1.0
 73
     0
 74
     0
 77
     1
140
1.5
141
2.0
147
0.6
172
     1
173
     1
178
     0
271
     0
279
     2
340
10
341
786
343
786
344
786
  0
DIMSTYLE
105
801
330
A
100
AcDbSymbolTableRecord
100
AcDbDimStyleTableRecord
  2
STANDARD$7
 70
     0
 40
25.0
 41
1.0
 42
1.0
 43
2.0
 44
1.0
 73
     0
 74
     0
 77
     1
140
1.5
141
2.0
147
0.8
178
     0
271
     0
279
     2
340
10
  0
DIMSTYLE
105
EC8
102
{ACAD_REACTORS
330
2BC
330
2B9
330
3B3
330
547
330
2BB
330
319
330
2C9
330
2CA
330
2CB
330
2CC
330
2CD
330
2CE
330
449
330
48B
330
48C
330
680
330
681
330
1EDE
330
1EEB
330
1EF8
330
1F2D
330
1F3B
330
1FBE
330
200C
330
22CC
330
22DA
330
22E7
330
2595
330
25A2
330
20D6
330
20D7
330
2C1
330
2C0
330
1F20
330
63C
330
2FE
330
2FD
330
2BF
330
2C0F
330
2C26
330
2CDD
102
}
330
A
100
AcDbSymbolTableRecord
100
AcDbDimStyleTableRecord
  2
A3-25
 70
     0
 40
25.0
 41
1.8
 42
2.0
 43
7.0
 44
0.5
 73
     0
 74
     0
 77
     1
 78
     8
140
2.5
141
0.0
145
1.0
147
0.7
174
     1
178
     0
179
     4
271
     0
272
     0
279
     2
284
     8
285
     8
286
     8
340
10
  0
ENDTAB
  0
TABLE
  2
BLOCK_RECORD
  5
1
330
0
100
AcDbSymbolTable
 70
    55
  0
BLOCK_RECORD
  5
18
102
{ACAD_XDICTIONARY
360
FC1
102
}
330
1
100
AcDbSymbolTableRecord
100
AcDbBlockTableRecord
  2
*MODEL_SPACE
340
E76
  0
BLOCK_RECORD
  5
15
330
1
100
AcDbSymbolTableRecord
100
AcDbBlockTableRecord
  2
*PAPER_SPACE
340
E77
  0
BLOCK_RECORD
  5
1C
330
1
100
AcDbSymbolTableRecord
100
AcDbBlockTableRecord
  2
BORDER
340
0
  0
BLOCK_RECORD
  5
1D
330
1
100
AcDbSymbolTableRecord
100
AcDbBlockTableRecord
  2
DOT
340
0
  0
BLOCK_RECORD
  5
42
330
1
100
AcDbSymbolTableRecord
100
AcDbBlockTableRecord
  2
FGG
340
0
102
{BLKREFS
331
75F
331
225D
102
}
  0
BLOCK_RECORD
  5
786
330
1
100
AcDbSymbolTableRecord
100
AcDbBlockTableRecord
  2
_DOT
340
0
  0
BLOCK_RECORD
  5
79D
330
1
100
AcDbSymbolTableRecord
100
AcDbBlockTableRecord
  2
*D4
340
0
  0
BLOCK_RECORD
  5
7E0
330
1
100
AcDbSymbolTableRecord
100
AcDbBlockTableRecord
  2
*D5
340
0
  0
BLOCK_RECORD
  5
E5D
330
1
100
AcDbSymbolTableRecord
100
AcDbBlockTableRecord
  2
A$C17135D01
340
0
  0
BLOCK_RECORD
  5
E9F
330
1
100
AcDbSymbolTableRecord
100
AcDbBlockTableRecord
  2
SA3
340
0
102
{BLKREFS
331
ED4
102
}
  0
BLOCK_RECORD
  5
ED7
330
1
100
AcDbSymbolTableRecord
100
AcDbBlockTableRecord
  2
*D8
340
0
  0
BLOCK_RECORD
  5
EE3
330
1
100
AcDbSymbolTableRecord
100
AcDbBlockTableRecord
  2
*D9
340
0
  0
BLOCK_RECORD
  5
EEF
330
1
100
AcDbSymbolTableRecord
100
AcDbBlockTableRecord
  2
*D10
340
0
  0
BLOCK_RECORD
  5
F07
330
1
100
AcDbSymbolTableRecord
100
AcDbBlockTableRecord
  2
*D11
340
0
  0
BLOCK_RECORD
  5
F13
330
1
100
AcDbSymbolTableRecord
100
AcDbBlockTableRecord
  2
*D12
340
0
  0
BLOCK_RECORD
  5
F1F
330
1
100
AcDbSymbolTableRecord
100
AcDbBlockTableRecord
  2
*D13
340
0
  0
BLOCK_RECORD
  5
F43
330
1
100
AcDbSymbolTableRecord
100
AcDbBlockTableRecord
  2
*D16
340
0
  0
BLOCK_RECORD
  5
F58
330
1
100
AcDbSymbolTableRecord
100
AcDbBlockTableRecord
  2
*D17
340
0
  0
BLOCK_RECORD
  5
F88
330
1
100
AcDbSymbolTableRecord
100
AcDbBlockTableRecord
  2
*D20
340
0
  0
BLOCK_RECORD
  5
F94
330
1
100
AcDbSymbolTableRecord
100
AcDbBlockTableRecord
  2
*D21
340
0
  0
BLOCK_RECORD
  5
FD6
330
1
100
AcDbSymbolTableRecord
100
AcDbBlockTableRecord
  2
*D22
340
0
  0
BLOCK_RECORD
  5
FEB
330
1
100
AcDbSymbolTableRecord
100
AcDbBlockTableRecord
  2
*D23
340
0
  0
BLOCK_RECORD
  5
FF7
330
1
100
AcDbSymbolTableRecord
100
AcDbBlockTableRecord
  2
*D24
340
0
  0
BLOCK_RECORD
  5
1003
330
1
100
AcDbSymbolTableRecord
100
AcDbBlockTableRecord
  2
*D25
340
0
  0
BLOCK_RECORD
  5
1028
330
1
100
AcDbSymbolTableRecord
100
AcDbBlockTableRecord
  2
*D26
340
0
  0
BLOCK_RECORD
  5
10AC
330
1
100
AcDbSymbolTableRecord
100
AcDbBlockTableRecord
  2
*D27
340
0
  0
BLOCK_RECORD
  5
10B9
330
1
100
AcDbSymbolTableRecord
100
AcDbBlockTableRecord
  2
*D28
340
0
  0
BLOCK_RECORD
  5
10C5
330
1
100
AcDbSymbolTableRecord
100
AcDbBlockTableRecord
  2
*D29
340
0
  0
BLOCK_RECORD
  5
10D1
330
1
100
AcDbSymbolTableRecord
100
AcDbBlockTableRecord
  2
*D30
340
0
  0
BLOCK_RECORD
  5
10DD
330
1
100
AcDbSymbolTableRecord
100
AcDbBlockTableRecord
  2
*D31
340
0
  0
BLOCK_RECORD
  5
10E9
330
1
100
AcDbSymbolTableRecord
100
AcDbBlockTableRecord
  2
*D32
340
0
  0
BLOCK_RECORD
  5
1EDF
330
1
100
AcDbSymbolTableRecord
100
AcDbBlockTableRecord
  2
*D33
340
0
  0
BLOCK_RECORD
  5
1EEC
330
1
100
AcDbSymbolTableRecord
100
AcDbBlockTableRecord
  2
*D34
340
0
  0
BLOCK_RECORD
  5
1EF9
330
1
100
AcDbSymbolTableRecord
100
AcDbBlockTableRecord
  2
*D35
340
0
  0
BLOCK_RECORD
  5
1F21
330
1
100
AcDbSymbolTableRecord
100
AcDbBlockTableRecord
  2
*D36
340
0
  0
BLOCK_RECORD
  5
1F2E
330
1
100
AcDbSymbolTableRecord
100
AcDbBlockTableRecord
  2
*D37
340
0
  0
BLOCK_RECORD
  5
1F3C
330
1
100
AcDbSymbolTableRecord
100
AcDbBlockTableRecord
  2
*D38
340
0
  0
BLOCK_RECORD
  5
1FBF
330
1
100
AcDbSymbolTableRecord
100
AcDbBlockTableRecord
  2
*D39
340
0
  0
BLOCK_RECORD
  5
200D
330
1
100
AcDbSymbolTableRecord
100
AcDbBlockTableRecord
  2
*D40
340
0
  0
BLOCK_RECORD
  5
20D8
330
1
100
AcDbSymbolTableRecord
100
AcDbBlockTableRecord
  2
*D41
340
0
  0
BLOCK_RECORD
  5
20E4
330
1
100
AcDbSymbolTableRecord
100
AcDbBlockTableRecord
  2
*D42
340
0
  0
BLOCK_RECORD
  5
22CD
330
1
100
AcDbSymbolTableRecord
100
AcDbBlockTableRecord
  2
*D44
340
0
  0
BLOCK_RECORD
  5
22DB
330
1
100
AcDbSymbolTableRecord
100
AcDbBlockTableRecord
  2
*D45
340
0
  0
BLOCK_RECORD
  5
22E8
330
1
100
AcDbSymbolTableRecord
100
AcDbBlockTableRecord
  2
*D46
340
0
  0
BLOCK_RECORD
  5
2596
330
1
100
AcDbSymbolTableRecord
100
AcDbBlockTableRecord
  2
*D47
340
0
  0
BLOCK_RECORD
  5
25A3
330
1
100
AcDbSymbolTableRecord
100
AcDbBlockTableRecord
  2
*D48
340
0
  0
BLOCK_RECORD
  5
2C10
330
1
100
AcDbSymbolTableRecord
100
AcDbBlockTableRecord
  2
*D49
340
0
  0
BLOCK_RECORD
  5
2C27
330
1
100
AcDbSymbolTableRecord
100
AcDbBlockTableRecord
  2
*D50
340
0
  0
BLOCK_RECORD
  5
2CDE
330
1
100
AcDbSymbolTableRecord
100
AcDbBlockTableRecord
  2
*D51
340
0
  0
ENDTAB
  0
ENDSEC
  0
SECTION
  2
BLOCKS
  0
BLOCK
  5
4F
330
18
100
AcDbEntity
  8
0
100
AcDbBlockBegin
  2
*MODEL_SPACE
 70
     0
 10
0.0
 20
0.0
 30
0.0
  3
*MODEL_SPACE
  1

  0
ENDBLK
  5
50
330
18
100
AcDbEntity
  8
0
100
AcDbBlockEnd
  0
BLOCK
  5
4D
330
15
100
AcDbEntity
 67
     1
  8
0
100
AcDbBlockBegin
  2
*PAPER_SPACE
 70
     0
 10
0.0
 20
0.0
 30
0.0
  3
*PAPER_SPACE
  1

  0
ENDBLK
  5
4E
330
15
100
AcDbEntity
 67
     1
  8
0
100
AcDbBlockEnd
  0
BLOCK
  5
51
330
1C
100
AcDbEntity
  8
0
100
AcDbBlockBegin
  2
BORDER
 70
     0
 10
0.0
 20
0.0
 30
0.0
  3
BORDER
  1

  0
LINE
  5
52
330
1C
100
AcDbEntity
  8
0
100
AcDbLine
 10
0.0
 20
0.0
 30
0.0
 11
1.00000000000004
 21
0.0
 31
0.0
  0
LINE
  5
53
330
1C
100
AcDbEntity
  8
0
100
AcDbLine
 10
1.00000000000004
 20
0.0
 30
0.0
 11
1.00000000000004
 21
1.00000000000004
 31
0.0
  0
LINE
  5
54
330
1C
100
AcDbEntity
  8
0
100
AcDbLine
 10
1.00000000000004
 20
1.00000000000004
 30
0.0
 11
0.0
 21
1.00000000000004
 31
0.0
  0
LINE
  5
55
330
1C
100
AcDbEntity
  8
0
100
AcDbLine
 10
0.0
 20
1.00000000000004
 30
0.0
 11
0.0
 21
0.0
 31
0.0
  0
ENDBLK
  5
56
330
1C
100
AcDbEntity
  8
0
100
AcDbBlockEnd
  0
BLOCK
  5
57
330
1D
100
AcDbEntity
  8
0
100
AcDbBlockBegin
  2
DOT
 70
     0
 10
0.0
 20
0.0
 30
0.0
  3
DOT
  1

  0
LWPOLYLINE
  5
58
330
1D
100
AcDbEntity
  8
0
  6
ByBlock
 62
     0
100
AcDbPolyline
 90
        2
 70
     1
 43
0.5
 10
-0.25
 20
0.0
 42
1.0
 10
0.25
 20
0.0
 42
1.0
  0
LINE
  5
5C
330
1D
100
AcDbEntity
  8
0
  6
ByBlock
 62
     0
100
AcDbLine
 10
-0.5
 20
0.0
 30
0.0
 11
-1.0
 21
0.0
 31
0.0
  0
ENDBLK
  5
5D
330
1D
100
AcDbEntity
  8
0
 62
     0
100
AcDbBlockEnd
  0
BLOCK
  5
1EF
330
42
100
AcDbEntity
  8
0
100
AcDbBlockBegin
  2
FGG
 70
     0
 10
0.0
 20
0.0
 30
0.0
  3
FGG
  1

  0
LWPOLYLINE
  5
1F0
330
42
100
AcDbEntity
  8
SUNPOU
100
AcDbPolyline
 90
        4
 70
     0
 43
0.0
 10
0.0
 20
-31.5
 10
-4.500000000000909
 20
-29.5
 10
-4.500000000000909
 20
29.5
 10
0.0
 20
31.50000000000045
  0
LWPOLYLINE
  5
1F6
330
42
100
AcDbEntity
  8
SUNPOU
100
AcDbPolyline
 90
        2
 70
     0
 43
0.0
 10
-4.500000000000909
 20
27.0
 10
-41.49999999909687
 20
27.00000000000045
  0
LWPOLYLINE
  5
1FA
330
42
100
AcDbEntity
  8
SUNPOU
100
AcDbPolyline
 90
        2
 70
     0
 43
0.0
 10
-41.50000000000091
 20
27.00000000000045
 42
1.111111111111126
 10
-41.50000000000091
 20
-27.00000000000045
 42
1.111111111111126
  0
LWPOLYLINE
  5
1FE
330
42
100
AcDbEntity
  8
SUNPOU
100
AcDbPolyline
 90
        2
 70
     0
 43
0.0
 10
-4.500000000000909
 20
-27.00000000000045
 10
-41.49999999909687
 20
-27.0
  0
ENDBLK
  5
202
330
42
100
AcDbEntity
  8
0
100
AcDbBlockEnd
  0
BLOCK
  5
787
330
786
100
AcDbEntity
  8
0
100
AcDbBlockBegin
  2
_DOT
 70
     0
 10
0.0
 20
0.0
 30
0.0
  3
_DOT
  1

  0
LWPOLYLINE
  5
788
330
786
100
AcDbEntity
  8
0
  6
ByBlock
 62
     0
100
AcDbPolyline
 90
        2
 70
     1
 43
0.5
 10
-0.25
 20
0.0
 42
1.0
 10
0.25
 20
0.0
 42
1.0
  0
LINE
  5
78C
330
786
100
AcDbEntity
  8
0
  6
ByBlock
 62
     0
100
AcDbLine
 10
-0.5
 20
0.0
 30
0.0
 11
-1.0
 21
0.0
 31
0.0
  0
ENDBLK
  5
78D
330
786
100
AcDbEntity
  8
0
100
AcDbBlockEnd
  0
BLOCK
  5
79E
330
79D
100
AcDbEntity
  8
0
100
AcDbBlockBegin
  2
*D4
 70
     1
 10
0.0
 20
0.0
 30
0.0
  3
*D4
  1

  0
LINE
  5
2DBF
330
79D
100
AcDbEntity
  8
SUNPOU
 62
     0
370
    -2
100
AcDbLine
 10
2505.791006481428
 20
5562.942962740322
 30
0.0
 11
2505.791006481428
 21
6142.183947939122
 31
0.0
  0
LINE
  5
2DC0
330
79D
100
AcDbEntity
  8
SUNPOU
 62
     0
370
    -2
100
AcDbLine
 10
2975.791006481422
 20
5562.942962740322
 30
0.0
 11
2975.791006481422
 21
6142.183947939122
 31
0.0
  0
LINE
  5
2DC1
330
79D
100
AcDbEntity
  8
SUNPOU
 62
     0
370
    -2
100
AcDbLine
 10
2550.791006481428
 20
6129.683947939122
 30
0.0
 11
2930.791006481422
 21
6129.683947939122
 31
0.0
  0
SOLID
  5
2DC2
330
79D
100
AcDbEntity
  8
SUNPOU
 62
     0
100
AcDbTrace
 10
2550.791006481428
 20
6137.183947939122
 30
0.0
 11
2550.791006481428
 21
6122.183947939122
 31
0.0
 12
2505.791006481428
 22
6129.683947939122
 32
0.0
 13
2505.791006481428
 23
6129.683947939122
 33
0.0
  0
SOLID
  5
2DC3
330
79D
100
AcDbEntity
  8
SUNPOU
 62
     0
100
AcDbTrace
 10
2930.791006481422
 20
6137.183947939122
 30
0.0
 11
2930.791006481422
 21
6122.183947939122
 31
0.0
 12
2975.791006481422
 22
6129.683947939122
 32
0.0
 13
2975.791006481422
 23
6129.683947939122
 33
0.0
  0
MTEXT
  5
2DC4
330
79D
100
AcDbEntity
  8
SUNPOU
 62
     0
100
AcDbMText
 10
2740.791006481425
 20
6178.433947939122
 30
0.0
 40
62.5
 41
0.0
 71
     5
 72
     1
  1
\A1;470
 73
     1
 44
1.0
  0
POINT
  5
2DC5
330
79D
100
AcDbEntity
  8
DEFPOINTS
 62
     0
100
AcDbPoint
 10
2505.791006481428
 20
5512.942962740322
 30
0.0
  0
POINT
  5
2DC6
330
79D
100
AcDbEntity
  8
DEFPOINTS
 62
     0
100
AcDbPoint
 10
2975.791006481422
 20
5512.942962740322
 30
0.0
  0
POINT
  5
2DC7
330
79D
100
AcDbEntity
  8
DEFPOINTS
 62
     0
100
AcDbPoint
 10
2975.791006481422
 20
6129.683947939122
 30
0.0
  0
ENDBLK
  5
7A8
330
79D
100
AcDbEntity
  8
0
100
AcDbBlockEnd
  0
BLOCK
  5
7E1
330
7E0
100
AcDbEntity
  8
0
100
AcDbBlockBegin
  2
*D5
 70
     1
 10
0.0
 20
0.0
 30
0.0
  3
*D5
  1

  0
LINE
  5
2E4A
330
7E0
100
AcDbEntity
  8
SUNPOU
 62
     0
370
    -2
100
AcDbLine
 10
2505.791006481429
 20
1449.052181036989
 30
0.0
 11
2505.791006481429
 21
1132.523809064085
 31
0.0
  0
LINE
  5
2E4B
330
7E0
100
AcDbEntity
  8
SUNPOU
 62
     0
370
    -2
100
AcDbLine
 10
2975.791006481427
 20
1473.683837300018
 30
0.0
 11
2975.791006481427
 21
1132.523809064085
 31
0.0
  0
LINE
  5
2E4C
330
7E0
100
AcDbEntity
  8
SUNPOU
 62
     0
370
    -2
100
AcDbLine
 10
2550.791006481429
 20
1145.023809064085
 30
0.0
 11
2930.791006481427
 21
1145.023809064085
 31
0.0
  0
SOLID
  5
2E4D
330
7E0
100
AcDbEntity
  8
SUNPOU
 62
     0
100
AcDbTrace
 10
2550.791006481429
 20
1152.523809064085
 30
0.0
 11
2550.791006481429
 21
1137.523809064085
 31
0.0
 12
2505.791006481429
 22
1145.023809064085
 32
0.0
 13
2505.791006481429
 23
1145.023809064085
 33
0.0
  0
SOLID
  5
2E4E
330
7E0
100
AcDbEntity
  8
SUNPOU
 62
     0
100
AcDbTrace
 10
2930.791006481427
 20
1152.523809064085
 30
0.0
 11
2930.791006481427
 21
1137.523809064085
 31
0.0
 12
2975.791006481427
 22
1145.023809064085
 32
0.0
 13
2975.791006481427
 23
1145.023809064085
 33
0.0
  0
MTEXT
  5
2E4F
330
7E0
100
AcDbEntity
  8
SUNPOU
 62
     0
100
AcDbMText
 10
2740.791006481428
 20
1193.773809064085
 30
0.0
 40
62.5
 41
0.0
 71
     5
 72
     1
  1
\A1;470
 73
     1
 44
1.0
  0
POINT
  5
2E50
330
7E0
100
AcDbEntity
  8
DEFPOINTS
 62
     0
100
AcDbPoint
 10
2505.791006481429
 20
1499.052181036989
 30
0.0
  0
POINT
  5
2E51
330
7E0
100
AcDbEntity
  8
DEFPOINTS
 62
     0
100
AcDbPoint
 10
2975.791006481427
 20
1523.683837300018
 30
0.0
  0
POINT
  5
2E52
330
7E0
100
AcDbEntity
  8
DEFPOINTS
 62
     0
100
AcDbPoint
 10
2975.791006481427
 20
1145.023809064085
 30
0.0
  0
ENDBLK
  5
7EB
330
7E0
100
AcDbEntity
  8
0
100
AcDbBlockEnd
  0
BLOCK
  5
E60
330
E5D
100
AcDbEntity
  8
0
100
AcDbBlockBegin
  2
A$C17135D01
 70
     0
 10
0.0
 20
0.0
 30
0.0
  3
A$C17135D01
  1

  0
TEXT
  5
E5E
330
E5D
100
AcDbEntity
  8
SUNPOU
100
AcDbText
 10
427.5483771737754
 20
0.000004586273576
 30
0.0
 40
60.0
  1
新和コンクリ－ト工業株式会社
100
AcDbText
  0
LINE
  5
E5F
330
E5D
100
AcDbEntity
  8
SUNPOU
100
AcDbLine
 10
0.0000072978309618
 20
120.1423934771332
 30
0.0
 11
1550.000007297829
 21
120.1423934771332
 31
0.0
  0
ENDBLK
  5
E61
330
E5D
100
AcDbEntity
  8
0
100
AcDbBlockEnd
  0
BLOCK
  5
EA0
330
E9F
100
AcDbEntity
  8
HAIKIN
100
AcDbBlockBegin
  2
SA3
 70
     0
 10
0.0
 20
0.0
 30
0.0
  3
SA3
  1

  0
TEXT
  5
EA1
330
E9F
100
AcDbEntity
  8
SUNPOU
100
AcDbText
 10
340.0
 20
0.0
 30
0.0
 40
2.5
  1
新和コンクリート工業株式会社
100
AcDbText
  0
TEXT
  5
EA2
330
E9F
100
AcDbEntity
  8
SUNPOU
100
AcDbText
 10
361.4166666666667
 20
6.25
 30
0.0
 40
2.5
  1
製図
 72
     4
 11
364.0
 21
7.5
 31
0.0
100
AcDbText
  0
TEXT
  5
EA3
330
E9F
100
AcDbEntity
  8
SUNPOU
100
AcDbText
 10
361.3333333333333
 20
11.25
 30
0.0
 40
2.5
  1
設計
 72
     4
 11
364.0
 21
12.5
 31
0.0
100
AcDbText
  0
TEXT
  5
EA4
330
E9F
100
AcDbEntity
  8
SUNPOU
100
AcDbText
 10
339.0833333333333
 20
6.250000000000014
 30
0.0
 40
2.5
  1
認
 72
     4
 11
340.25
 21
7.500000000000014
 31
0.0
100
AcDbText
  0
TEXT
  5
EA5
330
E9F
100
AcDbEntity
  8
SUNPOU
100
AcDbText
 10
339.0833333333333
 20
11.33333333333336
 30
0.0
 40
2.5
  1
承
 72
     4
 11
340.25
 21
12.50000000000003
 31
0.0
100
AcDbText
  0
TEXT
  5
EA6
330
E9F
100
AcDbEntity
  8
SUNPOU
100
AcDbText
 10
312.75
 20
11.75000000000001
 30
0.0
 40
2.5
  1
図　面　番　号
 72
     4
 11
323.0
 21
13.00000000000001
 31
0.0
100
AcDbText
  0
TEXT
  5
EA7
330
E9F
100
AcDbEntity
  8
SUNPOU
100
AcDbText
 10
362.0
 20
17.0
 30
0.0
 40
2.5
  1
１／
100
AcDbText
  0
TEXT
  5
EA8
330
E9F
100
AcDbEntity
  8
SUNPOU
100
AcDbText
 10
347.3333333333333
 20
16.25000000000001
 30
0.0
 40
2.5
  1
縮　　尺
 72
     4
 11
353.0
 21
17.50000000000001
 31
0.0
100
AcDbText
  0
TEXT
  5
EA9
330
E9F
100
AcDbEntity
  8
SUNPOU
100
AcDbText
 10
347.3333333333333
 20
21.25
 30
0.0
 40
2.5
  1
鉄 筋 量
 72
     4
 11
353.0
 21
22.5
 31
0.0
100
AcDbText
  0
TEXT
  5
EAA
330
E9F
100
AcDbEntity
  8
SUNPOU
100
AcDbText
 10
347.3333333333333
 20
26.25
 30
0.0
 40
2.5
  1
製 造 数
 72
     4
 11
353.0
 21
27.5
 31
0.0
100
AcDbText
  0
TEXT
  5
EAB
330
E9F
100
AcDbEntity
  8
SUNPOU
100
AcDbText
 10
377.0
 20
21.0
 30
0.0
 40
2.5
  1
ｋｇ
 72
     2
 11
382.0
 21
21.0
 31
0.0
100
AcDbText
  0
TEXT
  5
EAC
330
E9F
100
AcDbEntity
  8
SUNPOU
100
AcDbText
 10
339.5
 20
21.0
 30
0.0
 40
2.5
  1
ｋｇ
 72
     2
 11
344.5
 21
21.0
 31
0.0
100
AcDbText
  0
TEXT
  5
EAD
330
E9F
100
AcDbEntity
  8
SUNPOU
100
AcDbText
 10
310.0
 20
16.25000000000001
 30
0.0
 40
2.5
  1
年 月 日
 72
     4
 11
315.5
 21
17.50000000000001
 31
0.0
100
AcDbText
  0
TEXT
  5
EAE
330
E9F
100
AcDbEntity
  8
SUNPOU
100
AcDbText
 10
309.8333333333333
 20
21.25
 30
0.0
 40
2.5
  1
製品質量
 72
     4
 11
315.5
 21
22.5
 31
0.0
100
AcDbText
  0
TEXT
  5
EAF
330
E9F
100
AcDbEntity
  8
SUNPOU
100
AcDbText
 10
309.9166666666667
 20
26.25
 30
0.0
 40
2.5
  1
業 者 名
 72
     4
 11
315.5
 21
27.5
 31
0.0
100
AcDbText
  0
TEXT
  5
EB0
330
E9F
100
AcDbEntity
  8
SUNPOU
100
AcDbText
 10
309.8333333333333
 20
32.5
 30
0.0
 40
2.5
  1
名　　称
 72
     4
 11
315.5
 21
33.75
 31
0.0
100
AcDbText
  0
LINE
  5
EB1
330
E9F
100
AcDbEntity
  8
SUNPOU
100
AcDbLine
 10
338.0
 20
11.00000000000001
 30
0.0
 11
308.0
 21
11.00000000000001
 31
0.0
  0
LINE
  5
EB2
330
E9F
100
AcDbEntity
  8
SUNPOU
100
AcDbLine
 10
367.5
 20
4.999999999999986
 30
0.0
 11
367.5
 21
14.99999999999999
 31
0.0
  0
LINE
  5
EB3
330
E9F
100
AcDbEntity
  8
SUNPOU
100
AcDbLine
 10
360.5
 20
4.999999999999986
 30
0.0
 11
360.5
 21
14.99999999999999
 31
0.0
  0
LINE
  5
EB4
330
E9F
100
AcDbEntity
  8
SUNPOU
100
AcDbLine
 10
342.5
 20
4.999999999999995
 30
0.0
 11
342.5
 21
15.0
 31
0.0
  0
LINE
  5
EB5
330
E9F
100
AcDbEntity
  8
SUNPOU
100
AcDbLine
 10
338.0
 20
4.999999999999995
 30
0.0
 11
338.0
 21
15.0
 31
0.0
  0
LINE
  5
EB6
330
E9F
100
AcDbEntity
  8
SUNPOU
100
AcDbLine
 10
323.0
 20
15.00000000000001
 30
0.0
 11
323.0
 21
37.5
 31
0.0
  0
LINE
  5
EB7
330
E9F
100
AcDbEntity
  8
SUNPOU
100
AcDbLine
 10
360.5
 20
15.00000000000001
 30
0.0
 11
360.5
 21
30.0
 31
0.0
  0
LINE
  5
EB8
330
E9F
100
AcDbEntity
  8
SUNPOU
100
AcDbLine
 10
345.5
 20
15.00000000000001
 30
0.0
 11
345.5
 21
30.0
 31
0.0
  0
LINE
  5
EB9
330
E9F
100
AcDbEntity
  8
SUNPOU
100
AcDbLine
 10
383.0
 20
30.0
 30
0.0
 11
308.0
 21
30.0
 31
0.0
  0
LINE
  5
EBA
330
E9F
100
AcDbEntity
  8
SUNPOU
100
AcDbLine
 10
383.0
 20
25.0
 30
0.0
 11
308.0
 21
25.0
 31
0.0
  0
LINE
  5
EBB
330
E9F
100
AcDbEntity
  8
SUNPOU
100
AcDbLine
 10
383.0
 20
20.0
 30
0.0
 11
308.0
 21
20.0
 31
0.0
  0
LINE
  5
EBC
330
E9F
100
AcDbEntity
  8
SUNPOU
100
AcDbLine
 10
383.0
 20
14.99999999999999
 30
0.0
 11
308.0
 21
15.00000000000004
 31
0.0
  0
LINE
  5
EBD
330
E9F
100
AcDbEntity
  8
HAIKIN
100
AcDbLine
 10
308.0
 20
37.5
 30
0.0
 11
383.0
 21
37.5
 31
0.0
  0
LINE
  5
EBE
330
E9F
100
AcDbEntity
  8
HAIKIN
100
AcDbLine
 10
308.0
 20
5.000000000000009
 30
0.0
 11
308.0
 21
37.5
 31
0.0
  0
LINE
  5
EBF
330
E9F
100
AcDbEntity
  8
SUNPOU
100
AcDbLine
 10
0.000000000000016
 20
277.0
 30
0.0
 11
0.000000000000016
 21
272.0
 31
0.0
  0
LINE
  5
EC0
330
E9F
100
AcDbEntity
  8
SUNPOU
100
AcDbLine
 10
25.00000000000001
 20
277.0
 30
0.0
 11
0.000000000000016
 21
277.0
 31
0.0
  0
LINE
  5
EC1
330
E9F
100
AcDbEntity
  8
SUNPOU
100
AcDbLine
 10
25.00000000000001
 20
272.0
 30
0.0
 11
25.00000000000001
 21
277.0
 31
0.0
  0
LINE
  5
EC2
330
E9F
100
AcDbEntity
  8
HAIKIN
100
AcDbLine
 10
0.0000000000000004
 20
5.0
 30
0.0
 11
383.0
 21
5.0
 31
0.0
  0
LINE
  5
EC3
330
E9F
100
AcDbEntity
  8
HAIKIN
100
AcDbLine
 10
0.0000000000000158
 20
272.0
 30
0.0
 11
383.0
 21
272.0
 31
0.0
  0
LINE
  5
EC4
330
E9F
100
AcDbEntity
  8
HAIKIN
100
AcDbLine
 10
383.0
 20
272.0
 30
0.0
 11
383.0
 21
5.0
 31
0.0
  0
TEXT
  5
EC5
330
E9F
100
AcDbEntity
  8
SUNPOU
100
AcDbText
 10
3.700000000000017
 20
273.0
 30
0.0
 40
3.0
  1
Ｈ－２－共
 72
     4
 11
12.50000000000002
 21
274.5
 31
0.0
100
AcDbText
  0
LINE
  5
EC6
330
E9F
100
AcDbEntity
  8
HAIKIN
100
AcDbLine
 10
0.0000000000000004
 20
5.0
 30
0.0
 11
0.0000000000000158
 21
272.0
 31
0.0
  0
ENDBLK
  5
EC7
330
E9F
100
AcDbEntity
  8
HAIKIN
100
AcDbBlockEnd
  0
BLOCK
  5
EE1
330
ED7
100
AcDbEntity
  8
0
100
AcDbBlockBegin
  2
*D8
 70
     1
 10
0.0
 20
0.0
 30
0.0
  3
*D8
  1

  0
LINE
  5
2E0B
330
ED7
100
AcDbEntity
  8
SUNPOU
 62
     0
370
    -2
100
AcDbLine
 10
5939.379538460489
 20
1102.339951719179
 30
0.0
 11
5939.379538460489
 21
642.2220013012329
 31
0.0
  0
LINE
  5
2E0C
330
ED7
100
AcDbEntity
  8
SUNPOU
 62
     0
370
    -2
100
AcDbLine
 10
4439.379538460489
 20
1102.339951719179
 30
0.0
 11
4439.379538460489
 21
642.2220013012329
 31
0.0
  0
LINE
  5
2E0D
330
ED7
100
AcDbEntity
  8
SUNPOU
 62
     0
370
    -2
100
AcDbLine
 10
5894.379538460489
 20
654.7220013012329
 30
0.0
 11
4484.379538460489
 21
654.7220013012329
 31
0.0
  0
SOLID
  5
2E0E
330
ED7
100
AcDbEntity
  8
SUNPOU
 62
     0
100
AcDbTrace
 10
5894.379538460489
 20
662.2220013012329
 30
0.0
 11
5894.379538460489
 21
647.2220013012329
 31
0.0
 12
5939.379538460489
 22
654.7220013012329
 32
0.0
 13
5939.379538460489
 23
654.7220013012329
 33
0.0
  0
SOLID
  5
2E0F
330
ED7
100
AcDbEntity
  8
SUNPOU
 62
     0
100
AcDbTrace
 10
4484.379538460489
 20
662.2220013012329
 30
0.0
 11
4484.379538460489
 21
647.2220013012329
 31
0.0
 12
4439.379538460489
 22
654.7220013012329
 32
0.0
 13
4439.379538460489
 23
654.7220013012329
 33
0.0
  0
MTEXT
  5
2E10
330
ED7
100
AcDbEntity
  8
SUNPOU
 62
     0
100
AcDbMText
 10
5189.379538460489
 20
703.4720013012329
 30
0.0
 40
62.5
 41
0.0
 71
     5
 72
     1
  1
\A1;1500
 73
     1
 44
1.0
  0
POINT
  5
2E11
330
ED7
100
AcDbEntity
  8
DEFPOINTS
 62
     0
100
AcDbPoint
 10
5939.379538460489
 20
1152.339951719179
 30
0.0
  0
POINT
  5
2E12
330
ED7
100
AcDbEntity
  8
DEFPOINTS
 62
     0
100
AcDbPoint
 10
4439.379538460489
 20
1152.339951719179
 30
0.0
  0
POINT
  5
2E13
330
ED7
100
AcDbEntity
  8
DEFPOINTS
 62
     0
100
AcDbPoint
 10
4439.379538460489
 20
654.7220013012329
 30
0.0
  0
ENDBLK
  5
EE2
330
ED7
100
AcDbEntity
  8
0
100
AcDbBlockEnd
  0
BLOCK
  5
EED
330
EE3
100
AcDbEntity
  8
0
100
AcDbBlockBegin
  2
*D9
 70
     1
 10
0.0
 20
0.0
 30
0.0
  3
*D9
  1

  0
LINE
  5
2E14
330
EE3
100
AcDbEntity
  8
SUNPOU
 62
     0
370
    -2
100
AcDbLine
 10
5189.379538460489
 20
1102.339951719179
 30
0.0
 11
5189.379538460489
 21
814.236329127295
 31
0.0
  0
LINE
  5
2E15
330
EE3
100
AcDbEntity
  8
SUNPOU
 62
     0
370
    -2
100
AcDbLine
 10
4814.379538460489
 20
1102.339951719179
 30
0.0
 11
4814.379538460489
 21
814.236329127295
 31
0.0
  0
LINE
  5
2E16
330
EE3
100
AcDbEntity
  8
SUNPOU
 62
     0
370
    -2
100
AcDbLine
 10
5144.379538460489
 20
826.736329127295
 30
0.0
 11
4859.379538460489
 21
826.736329127295
 31
0.0
  0
SOLID
  5
2E17
330
EE3
100
AcDbEntity
  8
SUNPOU
 62
     0
100
AcDbTrace
 10
5144.379538460489
 20
834.236329127295
 30
0.0
 11
5144.379538460489
 21
819.236329127295
 31
0.0
 12
5189.379538460489
 22
826.736329127295
 32
0.0
 13
5189.379538460489
 23
826.736329127295
 33
0.0
  0
SOLID
  5
2E18
330
EE3
100
AcDbEntity
  8
SUNPOU
 62
     0
100
AcDbTrace
 10
4859.379538460489
 20
834.236329127295
 30
0.0
 11
4859.379538460489
 21
819.236329127295
 31
0.0
 12
4814.379538460489
 22
826.736329127295
 32
0.0
 13
4814.379538460489
 23
826.736329127295
 33
0.0
  0
MTEXT
  5
2E19
330
EE3
100
AcDbEntity
  8
SUNPOU
 62
     0
100
AcDbMText
 10
5001.879538460489
 20
875.486329127295
 30
0.0
 40
62.5
 41
0.0
 71
     5
 72
     1
  1
\A1;375
 73
     1
 44
1.0
  0
POINT
  5
2E1A
330
EE3
100
AcDbEntity
  8
DEFPOINTS
 62
     0
100
AcDbPoint
 10
5189.379538460489
 20
1152.339951719179
 30
0.0
  0
POINT
  5
2E1B
330
EE3
100
AcDbEntity
  8
DEFPOINTS
 62
     0
100
AcDbPoint
 10
4814.379538460489
 20
1152.339951719179
 30
0.0
  0
POINT
  5
2E1C
330
EE3
100
AcDbEntity
  8
DEFPOINTS
 62
     0
100
AcDbPoint
 10
4814.379538460489
 20
826.736329127295
 30
0.0
  0
ENDBLK
  5
EEE
330
EE3
100
AcDbEntity
  8
0
100
AcDbBlockEnd
  0
BLOCK
  5
EF9
330
EEF
100
AcDbEntity
  8
0
100
AcDbBlockBegin
  2
*D10
 70
     1
 10
0.0
 20
0.0
 30
0.0
  3
*D10
  1

  0
LINE
  5
2E1D
330
EEF
100
AcDbEntity
  8
SUNPOU
 62
     0
370
    -2
100
AcDbLine
 10
4814.379538460489
 20
1102.339951719179
 30
0.0
 11
4814.379538460489
 21
814.236329127295
 31
0.0
  0
LINE
  5
2E1E
330
EEF
100
AcDbEntity
  8
SUNPOU
 62
     0
370
    -2
100
AcDbLine
 10
4439.379538460489
 20
1102.339951719179
 30
0.0
 11
4439.379538460489
 21
814.236329127295
 31
0.0
  0
LINE
  5
2E1F
330
EEF
100
AcDbEntity
  8
SUNPOU
 62
     0
370
    -2
100
AcDbLine
 10
4769.379538460489
 20
826.736329127295
 30
0.0
 11
4484.379538460489
 21
826.736329127295
 31
0.0
  0
SOLID
  5
2E20
330
EEF
100
AcDbEntity
  8
SUNPOU
 62
     0
100
AcDbTrace
 10
4769.379538460489
 20
834.236329127295
 30
0.0
 11
4769.379538460489
 21
819.236329127295
 31
0.0
 12
4814.379538460489
 22
826.736329127295
 32
0.0
 13
4814.379538460489
 23
826.736329127295
 33
0.0
  0
SOLID
  5
2E21
330
EEF
100
AcDbEntity
  8
SUNPOU
 62
     0
100
AcDbTrace
 10
4484.379538460489
 20
834.236329127295
 30
0.0
 11
4484.379538460489
 21
819.236329127295
 31
0.0
 12
4439.379538460489
 22
826.736329127295
 32
0.0
 13
4439.379538460489
 23
826.736329127295
 33
0.0
  0
MTEXT
  5
2E22
330
EEF
100
AcDbEntity
  8
SUNPOU
 62
     0
100
AcDbMText
 10
4626.879538460489
 20
875.486329127295
 30
0.0
 40
62.5
 41
0.0
 71
     5
 72
     1
  1
\A1;375
 73
     1
 44
1.0
  0
POINT
  5
2E23
330
EEF
100
AcDbEntity
  8
DEFPOINTS
 62
     0
100
AcDbPoint
 10
4814.379538460489
 20
1152.339951719179
 30
0.0
  0
POINT
  5
2E24
330
EEF
100
AcDbEntity
  8
DEFPOINTS
 62
     0
100
AcDbPoint
 10
4439.379538460489
 20
1152.339951719179
 30
0.0
  0
POINT
  5
2E25
330
EEF
100
AcDbEntity
  8
DEFPOINTS
 62
     0
100
AcDbPoint
 10
4439.379538460489
 20
826.736329127295
 30
0.0
  0
ENDBLK
  5
EFA
330
EEF
100
AcDbEntity
  8
0
100
AcDbBlockEnd
  0
BLOCK
  5
F11
330
F07
100
AcDbEntity
  8
0
100
AcDbBlockBegin
  2
*D11
 70
     1
 10
0.0
 20
0.0
 30
0.0
  3
*D11
  1

  0
LINE
  5
2E26
330
F07
100
AcDbEntity
  8
SUNPOU
 62
     0
370
    -2
100
AcDbLine
 10
5989.379538460489
 20
1152.339951719179
 30
0.0
 11
6341.746215637727
 21
1152.339951719179
 31
0.0
  0
LINE
  5
2E27
330
F07
100
AcDbEntity
  8
SUNPOU
 62
     0
370
    -2
100
AcDbLine
 10
5989.379538460489
 20
1412.339951719179
 30
0.0
 11
6341.746215637727
 21
1412.339951719179
 31
0.0
  0
LINE
  5
2E28
330
F07
100
AcDbEntity
  8
SUNPOU
 62
     0
370
    -2
100
AcDbLine
 10
6329.246215637727
 20
1197.339951719179
 30
0.0
 11
6329.246215637727
 21
1367.339951719179
 31
0.0
  0
SOLID
  5
2E29
330
F07
100
AcDbEntity
  8
SUNPOU
 62
     0
100
AcDbTrace
 10
6321.746215637727
 20
1197.339951719179
 30
0.0
 11
6336.746215637727
 21
1197.339951719179
 31
0.0
 12
6329.246215637727
 22
1152.339951719179
 32
0.0
 13
6329.246215637727
 23
1152.339951719179
 33
0.0
  0
SOLID
  5
2E2A
330
F07
100
AcDbEntity
  8
SUNPOU
 62
     0
100
AcDbTrace
 10
6321.746215637727
 20
1367.339951719179
 30
0.0
 11
6336.746215637727
 21
1367.339951719179
 31
0.0
 12
6329.246215637727
 22
1412.339951719179
 32
0.0
 13
6329.246215637727
 23
1412.339951719179
 33
0.0
  0
MTEXT
  5
2E2B
330
F07
100
AcDbEntity
  8
SUNPOU
 62
     0
100
AcDbMText
 10
6280.496215637727
 20
1282.33995171918
 30
0.0
 40
62.5
 41
0.0
 71
     5
 72
     1
  1
\A1;260
 11
6.123031769111886E-17
 21
1.0
 31
0.0
 73
     1
 44
1.0
  0
POINT
  5
2E2C
330
F07
100
AcDbEntity
  8
DEFPOINTS
 62
     0
100
AcDbPoint
 10
5939.379538460489
 20
1152.339951719179
 30
0.0
  0
POINT
  5
2E2D
330
F07
100
AcDbEntity
  8
DEFPOINTS
 62
     0
100
AcDbPoint
 10
5939.379538460489
 20
1412.339951719179
 30
0.0
  0
POINT
  5
2E2E
330
F07
100
AcDbEntity
  8
DEFPOINTS
 62
     0
100
AcDbPoint
 10
6329.246215637727
 20
1412.339951719179
 30
0.0
  0
ENDBLK
  5
F12
330
F07
100
AcDbEntity
  8
0
100
AcDbBlockEnd
  0
BLOCK
  5
F1D
330
F13
100
AcDbEntity
  8
0
100
AcDbBlockBegin
  2
*D12
 70
     1
 10
0.0
 20
0.0
 30
0.0
  3
*D12
  1

  0
LINE
  5
2E2F
330
F13
100
AcDbEntity
  8
SUNPOU
 62
     0
370
    -2
100
AcDbLine
 10
5989.379538460489
 20
1152.339951719179
 30
0.0
 11
6211.609341828928
 21
1152.339951719179
 31
0.0
  0
LINE
  5
2E30
330
F13
100
AcDbEntity
  8
SUNPOU
 62
     0
370
    -2
100
AcDbLine
 10
5989.379538460489
 20
1342.339951719179
 30
0.0
 11
6211.609341828928
 21
1342.339951719179
 31
0.0
  0
LINE
  5
2E31
330
F13
100
AcDbEntity
  8
SUNPOU
 62
     0
370
    -2
100
AcDbLine
 10
6199.109341828928
 20
1197.339951719179
 30
0.0
 11
6199.109341828928
 21
1297.339951719179
 31
0.0
  0
SOLID
  5
2E32
330
F13
100
AcDbEntity
  8
SUNPOU
 62
     0
100
AcDbTrace
 10
6191.609341828928
 20
1197.339951719179
 30
0.0
 11
6206.609341828928
 21
1197.339951719179
 31
0.0
 12
6199.109341828928
 22
1152.339951719179
 32
0.0
 13
6199.109341828928
 23
1152.339951719179
 33
0.0
  0
SOLID
  5
2E33
330
F13
100
AcDbEntity
  8
SUNPOU
 62
     0
100
AcDbTrace
 10
6191.609341828928
 20
1297.339951719179
 30
0.0
 11
6206.609341828928
 21
1297.339951719179
 31
0.0
 12
6199.109341828928
 22
1342.339951719179
 32
0.0
 13
6199.109341828928
 23
1342.339951719179
 33
0.0
  0
MTEXT
  5
2E34
330
F13
100
AcDbEntity
  8
SUNPOU
 62
     0
100
AcDbMText
 10
6150.359341828928
 20
1247.33995171918
 30
0.0
 40
62.5
 41
0.0
 71
     5
 72
     1
  1
\A1;190
 11
6.123031769111886E-17
 21
1.0
 31
0.0
 73
     1
 44
1.0
  0
POINT
  5
2E35
330
F13
100
AcDbEntity
  8
DEFPOINTS
 62
     0
100
AcDbPoint
 10
5939.379538460489
 20
1152.339951719179
 30
0.0
  0
POINT
  5
2E36
330
F13
100
AcDbEntity
  8
DEFPOINTS
 62
     0
100
AcDbPoint
 10
5939.379538460489
 20
1342.339951719179
 30
0.0
  0
POINT
  5
2E37
330
F13
100
AcDbEntity
  8
DEFPOINTS
 62
     0
100
AcDbPoint
 10
6199.109341828928
 20
1342.339951719179
 30
0.0
  0
ENDBLK
  5
F1E
330
F13
100
AcDbEntity
  8
0
100
AcDbBlockEnd
  0
BLOCK
  5
F29
330
F1F
100
AcDbEntity
  8
0
100
AcDbBlockBegin
  2
*D13
 70
     1
 10
0.0
 20
0.0
 30
0.0
  3
*D13
  1

  0
LINE
  5
2E38
330
F1F
100
AcDbEntity
  8
SUNPOU
 62
     0
370
    -2
100
AcDbLine
 10
1505.791006481429
 20
1449.052181036989
 30
0.0
 11
1505.791006481429
 21
1132.523809064085
 31
0.0
  0
LINE
  5
2E39
330
F1F
100
AcDbEntity
  8
SUNPOU
 62
     0
370
    -2
100
AcDbLine
 10
2205.791006481429
 20
1449.052181036989
 30
0.0
 11
2205.791006481429
 21
1132.523809064085
 31
0.0
  0
LINE
  5
2E3A
330
F1F
100
AcDbEntity
  8
SUNPOU
 62
     0
370
    -2
100
AcDbLine
 10
1550.791006481429
 20
1145.023809064085
 30
0.0
 11
2160.791006481429
 21
1145.023809064085
 31
0.0
  0
SOLID
  5
2E3B
330
F1F
100
AcDbEntity
  8
SUNPOU
 62
     0
100
AcDbTrace
 10
1550.791006481429
 20
1152.523809064085
 30
0.0
 11
1550.791006481429
 21
1137.523809064085
 31
0.0
 12
1505.791006481429
 22
1145.023809064085
 32
0.0
 13
1505.791006481429
 23
1145.023809064085
 33
0.0
  0
SOLID
  5
2E3C
330
F1F
100
AcDbEntity
  8
SUNPOU
 62
     0
100
AcDbTrace
 10
2160.791006481429
 20
1152.523809064085
 30
0.0
 11
2160.791006481429
 21
1137.523809064085
 31
0.0
 12
2205.791006481429
 22
1145.023809064085
 32
0.0
 13
2205.791006481429
 23
1145.023809064085
 33
0.0
  0
MTEXT
  5
2E3D
330
F1F
100
AcDbEntity
  8
SUNPOU
 62
     0
100
AcDbMText
 10
1855.791006481429
 20
1193.773809064085
 30
0.0
 40
62.5
 41
0.0
 71
     5
 72
     1
  1
\A1;700
 73
     1
 44
1.0
  0
POINT
  5
2E3E
330
F1F
100
AcDbEntity
  8
DEFPOINTS
 62
     0
100
AcDbPoint
 10
1505.791006481429
 20
1499.052181036989
 30
0.0
  0
POINT
  5
2E3F
330
F1F
100
AcDbEntity
  8
DEFPOINTS
 62
     0
100
AcDbPoint
 10
2205.791006481429
 20
1499.052181036989
 30
0.0
  0
POINT
  5
2E40
330
F1F
100
AcDbEntity
  8
DEFPOINTS
 62
     0
100
AcDbPoint
 10
2205.791006481429
 20
1145.023809064085
 30
0.0
  0
ENDBLK
  5
F2A
330
F1F
100
AcDbEntity
  8
0
100
AcDbBlockEnd
  0
BLOCK
  5
F4D
330
F43
100
AcDbEntity
  8
0
100
AcDbBlockBegin
  2
*D16
 70
     1
 10
0.0
 20
0.0
 30
0.0
  3
*D16
  1

  0
LINE
  5
2E41
330
F43
100
AcDbEntity
  8
SUNPOU
 62
     0
370
    -2
100
AcDbLine
 10
2205.791006481429
 20
1449.052181036989
 30
0.0
 11
2205.791006481429
 21
1132.523809064085
 31
0.0
  0
LINE
  5
2E42
330
F43
100
AcDbEntity
  8
SUNPOU
 62
     0
370
    -2
100
AcDbLine
 10
2505.791006481429
 20
1449.052181036989
 30
0.0
 11
2505.791006481429
 21
1132.523809064085
 31
0.0
  0
LINE
  5
2E43
330
F43
100
AcDbEntity
  8
SUNPOU
 62
     0
370
    -2
100
AcDbLine
 10
2250.791006481429
 20
1145.023809064085
 30
0.0
 11
2460.791006481429
 21
1145.023809064085
 31
0.0
  0
SOLID
  5
2E44
330
F43
100
AcDbEntity
  8
SUNPOU
 62
     0
100
AcDbTrace
 10
2250.791006481429
 20
1152.523809064085
 30
0.0
 11
2250.791006481429
 21
1137.523809064085
 31
0.0
 12
2205.791006481429
 22
1145.023809064085
 32
0.0
 13
2205.791006481429
 23
1145.023809064085
 33
0.0
  0
SOLID
  5
2E45
330
F43
100
AcDbEntity
  8
SUNPOU
 62
     0
100
AcDbTrace
 10
2460.791006481429
 20
1152.523809064085
 30
0.0
 11
2460.791006481429
 21
1137.523809064085
 31
0.0
 12
2505.791006481429
 22
1145.023809064085
 32
0.0
 13
2505.791006481429
 23
1145.023809064085
 33
0.0
  0
MTEXT
  5
2E46
330
F43
100
AcDbEntity
  8
SUNPOU
 62
     0
100
AcDbMText
 10
2355.791006481429
 20
1193.773809064085
 30
0.0
 40
62.5
 41
0.0
 71
     5
 72
     1
  1
\A1;300
 73
     1
 44
1.0
  0
POINT
  5
2E47
330
F43
100
AcDbEntity
  8
DEFPOINTS
 62
     0
100
AcDbPoint
 10
2205.791006481429
 20
1499.052181036989
 30
0.0
  0
POINT
  5
2E48
330
F43
100
AcDbEntity
  8
DEFPOINTS
 62
     0
100
AcDbPoint
 10
2505.791006481429
 20
1499.052181036989
 30
0.0
  0
POINT
  5
2E49
330
F43
100
AcDbEntity
  8
DEFPOINTS
 62
     0
100
AcDbPoint
 10
2505.791006481429
 20
1145.023809064085
 30
0.0
  0
ENDBLK
  5
F4E
330
F43
100
AcDbEntity
  8
0
100
AcDbBlockEnd
  0
BLOCK
  5
F62
330
F58
100
AcDbEntity
  8
0
100
AcDbBlockBegin
  2
*D17
 70
     1
 10
0.0
 20
0.0
 30
0.0
  3
*D17
  1

  0
LINE
  5
2E53
330
F58
100
AcDbEntity
  8
SUNPOU
 62
     0
370
    -2
100
AcDbLine
 10
5989.379538460489
 20
1342.339951719179
 30
0.0
 11
6211.609341828928
 21
1342.339951719179
 31
0.0
  0
LINE
  5
2E54
330
F58
100
AcDbEntity
  8
SUNPOU
 62
     0
370
    -2
100
AcDbLine
 10
5989.379538460489
 20
1412.339951719179
 30
0.0
 11
6211.609341828928
 21
1412.339951719179
 31
0.0
  0
LINE
  5
2E55
330
F58
100
AcDbEntity
  8
SUNPOU
 62
     0
370
    -2
100
AcDbLine
 10
6199.109341828928
 20
1297.339951719179
 30
0.0
 11
6199.109341828928
 21
1252.339951719179
 31
0.0
  0
LINE
  5
2E56
330
F58
100
AcDbEntity
  8
SUNPOU
 62
     0
370
    -2
100
AcDbLine
 10
6199.109341828928
 20
1457.339951719179
 30
0.0
 11
6199.109341828928
 21
1502.339951719179
 31
0.0
  0
SOLID
  5
2E57
330
F58
100
AcDbEntity
  8
SUNPOU
 62
     0
100
AcDbTrace
 10
6191.609341828928
 20
1297.339951719179
 30
0.0
 11
6206.609341828928
 21
1297.339951719179
 31
0.0
 12
6199.109341828928
 22
1342.339951719179
 32
0.0
 13
6199.109341828928
 23
1342.339951719179
 33
0.0
  0
SOLID
  5
2E58
330
F58
100
AcDbEntity
  8
SUNPOU
 62
     0
100
AcDbTrace
 10
6191.609341828928
 20
1457.339951719179
 30
0.0
 11
6206.609341828928
 21
1457.339951719179
 31
0.0
 12
6199.109341828928
 22
1412.339951719179
 32
0.0
 13
6199.109341828928
 23
1412.339951719179
 33
0.0
  0
MTEXT
  5
2E59
330
F58
100
AcDbEntity
  8
SUNPOU
 62
     0
100
AcDbMText
 10
6150.359341828928
 20
1377.33995171918
 30
0.0
 40
62.5
 41
0.0
 71
     5
 72
     1
  1
\A1;70
 11
6.123031769111886E-17
 21
1.0
 31
0.0
 73
     1
 44
1.0
  0
POINT
  5
2E5A
330
F58
100
AcDbEntity
  8
DEFPOINTS
 62
     0
100
AcDbPoint
 10
5939.379538460489
 20
1342.339951719179
 30
0.0
  0
POINT
  5
2E5B
330
F58
100
AcDbEntity
  8
DEFPOINTS
 62
     0
100
AcDbPoint
 10
5939.379538460489
 20
1412.339951719179
 30
0.0
  0
POINT
  5
2E5C
330
F58
100
AcDbEntity
  8
DEFPOINTS
 62
     0
100
AcDbPoint
 10
6199.109341828928
 20
1412.339951719179
 30
0.0
  0
ENDBLK
  5
F63
330
F58
100
AcDbEntity
  8
0
100
AcDbBlockEnd
  0
BLOCK
  5
F92
330
F88
100
AcDbEntity
  8
0
100
AcDbBlockBegin
  2
*D20
 70
     1
 10
0.0
 20
0.0
 30
0.0
  3
*D20
  1

  0
LINE
  5
2E5D
330
F88
100
AcDbEntity
  8
SUNPOU
 62
     0
370
    -2
100
AcDbLine
 10
2205.791006481429
 20
1449.052181036989
 30
0.0
 11
2205.791006481429
 21
1269.800613438609
 31
0.0
  0
LINE
  5
2E5E
330
F88
100
AcDbEntity
  8
SUNPOU
 62
     0
370
    -2
100
AcDbLine
 10
2435.791006481429
 20
1449.052181036989
 30
0.0
 11
2435.791006481429
 21
1269.800613438609
 31
0.0
  0
LINE
  5
2E5F
330
F88
100
AcDbEntity
  8
SUNPOU
 62
     0
370
    -2
100
AcDbLine
 10
2250.791006481429
 20
1282.300613438609
 30
0.0
 11
2390.791006481429
 21
1282.300613438609
 31
0.0
  0
SOLID
  5
2E60
330
F88
100
AcDbEntity
  8
SUNPOU
 62
     0
100
AcDbTrace
 10
2250.791006481429
 20
1289.800613438609
 30
0.0
 11
2250.791006481429
 21
1274.800613438609
 31
0.0
 12
2205.791006481429
 22
1282.300613438609
 32
0.0
 13
2205.791006481429
 23
1282.300613438609
 33
0.0
  0
SOLID
  5
2E61
330
F88
100
AcDbEntity
  8
SUNPOU
 62
     0
100
AcDbTrace
 10
2390.791006481429
 20
1289.800613438609
 30
0.0
 11
2390.791006481429
 21
1274.800613438609
 31
0.0
 12
2435.791006481429
 22
1282.300613438609
 32
0.0
 13
2435.791006481429
 23
1282.300613438609
 33
0.0
  0
MTEXT
  5
2E62
330
F88
100
AcDbEntity
  8
SUNPOU
 62
     0
100
AcDbMText
 10
2320.791006481429
 20
1331.050613438609
 30
0.0
 40
62.5
 41
0.0
 71
     5
 72
     1
  1
\A1;230
 73
     1
 44
1.0
  0
POINT
  5
2E63
330
F88
100
AcDbEntity
  8
DEFPOINTS
 62
     0
100
AcDbPoint
 10
2205.791006481429
 20
1499.052181036989
 30
0.0
  0
POINT
  5
2E64
330
F88
100
AcDbEntity
  8
DEFPOINTS
 62
     0
100
AcDbPoint
 10
2435.791006481429
 20
1499.052181036989
 30
0.0
  0
POINT
  5
2E65
330
F88
100
AcDbEntity
  8
DEFPOINTS
 62
     0
100
AcDbPoint
 10
2435.791006481429
 20
1282.300613438609
 30
0.0
  0
ENDBLK
  5
F93
330
F88
100
AcDbEntity
  8
0
100
AcDbBlockEnd
  0
BLOCK
  5
F9E
330
F94
100
AcDbEntity
  8
0
100
AcDbBlockBegin
  2
*D21
 70
     1
 10
0.0
 20
0.0
 30
0.0
  3
*D21
  1

  0
LINE
  5
2E66
330
F94
100
AcDbEntity
  8
SUNPOU
 62
     0
370
    -2
100
AcDbLine
 10
2435.791006481429
 20
1449.052181036989
 30
0.0
 11
2435.791006481429
 21
1269.800613438609
 31
0.0
  0
LINE
  5
2E67
330
F94
100
AcDbEntity
  8
SUNPOU
 62
     0
370
    -2
100
AcDbLine
 10
2505.791006481429
 20
1449.052181036989
 30
0.0
 11
2505.791006481429
 21
1269.800613438609
 31
0.0
  0
LINE
  5
2E68
330
F94
100
AcDbEntity
  8
SUNPOU
 62
     0
370
    -2
100
AcDbLine
 10
2390.791006481429
 20
1282.300613438609
 30
0.0
 11
2345.791006481429
 21
1282.300613438609
 31
0.0
  0
LINE
  5
2E69
330
F94
100
AcDbEntity
  8
SUNPOU
 62
     0
370
    -2
100
AcDbLine
 10
2550.791006481429
 20
1282.300613438609
 30
0.0
 11
2595.791006481429
 21
1282.300613438609
 31
0.0
  0
SOLID
  5
2E6A
330
F94
100
AcDbEntity
  8
SUNPOU
 62
     0
100
AcDbTrace
 10
2390.791006481429
 20
1289.800613438609
 30
0.0
 11
2390.791006481429
 21
1274.800613438609
 31
0.0
 12
2435.791006481429
 22
1282.300613438609
 32
0.0
 13
2435.791006481429
 23
1282.300613438609
 33
0.0
  0
SOLID
  5
2E6B
330
F94
100
AcDbEntity
  8
SUNPOU
 62
     0
100
AcDbTrace
 10
2550.791006481429
 20
1289.800613438609
 30
0.0
 11
2550.791006481429
 21
1274.800613438609
 31
0.0
 12
2505.791006481429
 22
1282.300613438609
 32
0.0
 13
2505.791006481429
 23
1282.300613438609
 33
0.0
  0
MTEXT
  5
2E6C
330
F94
100
AcDbEntity
  8
SUNPOU
 62
     0
100
AcDbMText
 10
2470.791006481429
 20
1331.050613438609
 30
0.0
 40
62.5
 41
0.0
 71
     5
 72
     1
  1
\A1;70
 73
     1
 44
1.0
  0
POINT
  5
2E6D
330
F94
100
AcDbEntity
  8
DEFPOINTS
 62
     0
100
AcDbPoint
 10
2435.791006481429
 20
1499.052181036989
 30
0.0
  0
POINT
  5
2E6E
330
F94
100
AcDbEntity
  8
DEFPOINTS
 62
     0
100
AcDbPoint
 10
2505.791006481429
 20
1499.052181036989
 30
0.0
  0
POINT
  5
2E6F
330
F94
100
AcDbEntity
  8
DEFPOINTS
 62
     0
100
AcDbPoint
 10
2505.791006481429
 20
1282.300613438609
 30
0.0
  0
ENDBLK
  5
F9F
330
F94
100
AcDbEntity
  8
0
100
AcDbBlockEnd
  0
BLOCK
  5
FE0
330
FD6
100
AcDbEntity
  8
0
100
AcDbBlockBegin
  2
*D22
 70
     1
 10
0.0
 20
0.0
 30
0.0
  3
*D22
  1

  0
LINE
  5
28E1
330
FD6
100
AcDbEntity
  8
SUNPOU
 62
     0
370
    -2
100
AcDbLine
 10
1205.791006481428
 20
5712.942962740323
 30
0.0
 11
1205.791006481428
 21
6014.861676334696
 31
0.0
  0
LINE
  5
28E2
330
FD6
100
AcDbEntity
  8
SUNPOU
 62
     0
370
    -2
100
AcDbLine
 10
2505.791006481428
 20
5562.942962740322
 30
0.0
 11
2505.791006481428
 21
6014.861676334696
 31
0.0
  0
LINE
  5
28E3
330
FD6
100
AcDbEntity
  8
SUNPOU
 62
     0
370
    -2
100
AcDbLine
 10
1250.791006481428
 20
6002.361676334696
 30
0.0
 11
2460.791006481428
 21
6002.361676334696
 31
0.0
  0
SOLID
  5
28E4
330
FD6
100
AcDbEntity
  8
SUNPOU
 62
     0
100
AcDbTrace
 10
1250.791006481428
 20
6009.861676334696
 30
0.0
 11
1250.791006481428
 21
5994.861676334696
 31
0.0
 12
1205.791006481428
 22
6002.361676334696
 32
0.0
 13
1205.791006481428
 23
6002.361676334696
 33
0.0
  0
SOLID
  5
28E5
330
FD6
100
AcDbEntity
  8
SUNPOU
 62
     0
100
AcDbTrace
 10
2460.791006481428
 20
6009.861676334696
 30
0.0
 11
2460.791006481428
 21
5994.861676334696
 31
0.0
 12
2505.791006481428
 22
6002.361676334696
 32
0.0
 13
2505.791006481428
 23
6002.361676334696
 33
0.0
  0
MTEXT
  5
28E6
330
FD6
100
AcDbEntity
  8
SUNPOU
 62
     0
100
AcDbMText
 10
1855.791006481428
 20
6051.111676334696
 30
0.0
 40
62.5
 41
0.0
 71
     5
 72
     1
  1
\A1;1300
 73
     1
 44
1.0
  0
POINT
  5
28E7
330
FD6
100
AcDbEntity
  8
DEFPOINTS
 62
     0
100
AcDbPoint
 10
1205.791006481428
 20
5662.942962740323
 30
0.0
  0
POINT
  5
28E8
330
FD6
100
AcDbEntity
  8
DEFPOINTS
 62
     0
100
AcDbPoint
 10
2505.791006481428
 20
5512.942962740322
 30
0.0
  0
POINT
  5
28E9
330
FD6
100
AcDbEntity
  8
DEFPOINTS
 62
     0
100
AcDbPoint
 10
2505.791006481428
 20
6002.361676334696
 30
0.0
  0
ENDBLK
  5
FE1
330
FD6
100
AcDbEntity
  8
0
100
AcDbBlockEnd
  0
BLOCK
  5
FF5
330
FEB
100
AcDbEntity
  8
0
100
AcDbBlockBegin
  2
*D23
 70
     1
 10
0.0
 20
0.0
 30
0.0
  3
*D23
  1

  0
LINE
  5
28CF
330
FEB
100
AcDbEntity
  8
SUNPOU
 62
     0
370
    -2
100
AcDbLine
 10
895.7910064814278
 20
5662.942962740323
 30
0.0
 11
533.3532480118956
 21
5662.942962740323
 31
0.0
  0
LINE
  5
28D0
330
FEB
100
AcDbEntity
  8
SUNPOU
 62
     0
370
    -2
100
AcDbLine
 10
895.7910064814278
 20
5512.942962740323
 30
0.0
 11
533.3532480118956
 21
5512.942962740323
 31
0.0
  0
LINE
  5
28D1
330
FEB
100
AcDbEntity
  8
SUNPOU
 62
     0
370
    -2
100
AcDbLine
 10
545.8532480118956
 20
5617.942962740323
 30
0.0
 11
545.8532480118956
 21
5557.942962740323
 31
0.0
  0
SOLID
  5
28D2
330
FEB
100
AcDbEntity
  8
SUNPOU
 62
     0
100
AcDbTrace
 10
538.3532480118956
 20
5617.942962740323
 30
0.0
 11
553.3532480118956
 21
5617.942962740323
 31
0.0
 12
545.8532480118956
 22
5662.942962740323
 32
0.0
 13
545.8532480118956
 23
5662.942962740323
 33
0.0
  0
SOLID
  5
28D3
330
FEB
100
AcDbEntity
  8
SUNPOU
 62
     0
100
AcDbTrace
 10
538.3532480118956
 20
5557.942962740323
 30
0.0
 11
553.3532480118956
 21
5557.942962740323
 31
0.0
 12
545.8532480118956
 22
5512.942962740323
 32
0.0
 13
545.8532480118956
 23
5512.942962740323
 33
0.0
  0
MTEXT
  5
28D4
330
FEB
100
AcDbEntity
  8
SUNPOU
 62
     0
100
AcDbMText
 10
497.1032480118947
 20
5587.942962740323
 30
0.0
 40
62.5
 41
0.0
 71
     5
 72
     1
  1
\A1;150
 11
6.123031769111886E-17
 21
1.0
 31
0.0
 73
     1
 44
1.0
  0
POINT
  5
28D5
330
FEB
100
AcDbEntity
  8
DEFPOINTS
 62
     0
100
AcDbPoint
 10
945.7910064814278
 20
5662.942962740323
 30
0.0
  0
POINT
  5
28D6
330
FEB
100
AcDbEntity
  8
DEFPOINTS
 62
     0
100
AcDbPoint
 10
945.7910064814278
 20
5512.942962740323
 30
0.0
  0
POINT
  5
28D7
330
FEB
100
AcDbEntity
  8
DEFPOINTS
 62
     0
100
AcDbPoint
 10
545.8532480118956
 20
5512.942962740323
 30
0.0
  0
ENDBLK
  5
FF6
330
FEB
100
AcDbEntity
  8
0
100
AcDbBlockEnd
  0
BLOCK
  5
1001
330
FF7
100
AcDbEntity
  8
0
100
AcDbBlockBegin
  2
*D24
 70
     1
 10
0.0
 20
0.0
 30
0.0
  3
*D24
  1

  0
LINE
  5
2D92
330
FF7
100
AcDbEntity
  8
SUNPOU
 62
     0
370
    -2
100
AcDbLine
 10
895.7910064814278
 20
5512.942962740323
 30
0.0
 11
533.3532480118959
 21
5512.942962740323
 31
0.0
  0
LINE
  5
2D93
330
FF7
100
AcDbEntity
  8
SUNPOU
 62
     0
370
    -2
100
AcDbLine
 10
1455.791006481428
 20
4262.942962740322
 30
0.0
 11
533.3532480118955
 21
4262.942962740322
 31
0.0
  0
LINE
  5
2D94
330
FF7
100
AcDbEntity
  8
SUNPOU
 62
     0
370
    -2
100
AcDbLine
 10
545.8532480118959
 20
5467.942962740323
 30
0.0
 11
545.8532480118955
 21
4307.942962740322
 31
0.0
  0
SOLID
  5
2D95
330
FF7
100
AcDbEntity
  8
SUNPOU
 62
     0
100
AcDbTrace
 10
538.3532480118959
 20
5467.942962740323
 30
0.0
 11
553.3532480118959
 21
5467.942962740323
 31
0.0
 12
545.8532480118959
 22
5512.942962740323
 32
0.0
 13
545.8532480118959
 23
5512.942962740323
 33
0.0
  0
SOLID
  5
2D96
330
FF7
100
AcDbEntity
  8
SUNPOU
 62
     0
100
AcDbTrace
 10
538.3532480118955
 20
4307.942962740322
 30
0.0
 11
553.3532480118955
 21
4307.942962740322
 31
0.0
 12
545.8532480118955
 22
4262.942962740322
 32
0.0
 13
545.8532480118955
 23
4262.942962740322
 33
0.0
  0
MTEXT
  5
2D97
330
FF7
100
AcDbEntity
  8
SUNPOU
 62
     0
100
AcDbMText
 10
497.1032480118949
 20
4887.942962740322
 30
0.0
 40
62.5
 41
0.0
 71
     5
 72
     1
  1
\A1;1250
 11
6.123031769111886E-17
 21
1.0
 31
0.0
 73
     1
 44
1.0
  0
POINT
  5
2D98
330
FF7
100
AcDbEntity
  8
DEFPOINTS
 62
     0
100
AcDbPoint
 10
945.7910064814278
 20
5512.942962740323
 30
0.0
  0
POINT
  5
2D99
330
FF7
100
AcDbEntity
  8
DEFPOINTS
 62
     0
100
AcDbPoint
 10
1505.791006481428
 20
4262.942962740322
 30
0.0
  0
POINT
  5
2D9A
330
FF7
100
AcDbEntity
  8
DEFPOINTS
 62
     0
100
AcDbPoint
 10
545.8532480118955
 20
4262.942962740322
 30
0.0
  0
ENDBLK
  5
1002
330
FF7
100
AcDbEntity
  8
0
100
AcDbBlockEnd
  0
BLOCK
  5
100D
330
1003
100
AcDbEntity
  8
0
100
AcDbBlockBegin
  2
*D25
 70
     1
 10
0.0
 20
0.0
 30
0.0
  3
*D25
  1

  0
LINE
  5
2D9B
330
1003
100
AcDbEntity
  8
SUNPOU
 62
     0
370
    -2
100
AcDbLine
 10
1455.791006481428
 20
4262.942962740322
 30
0.0
 11
401.190992831565
 21
4262.942962740322
 31
0.0
  0
LINE
  5
2D9C
330
1003
100
AcDbEntity
  8
SUNPOU
 62
     0
370
    -2
100
AcDbLine
 10
895.7910064814278
 20
5662.942962740323
 30
0.0
 11
401.1909928315654
 21
5662.942962740323
 31
0.0
  0
LINE
  5
2D9D
330
1003
100
AcDbEntity
  8
SUNPOU
 62
     0
370
    -2
100
AcDbLine
 10
413.6909928315651
 20
4307.942962740322
 30
0.0
 11
413.6909928315654
 21
5617.942962740323
 31
0.0
  0
SOLID
  5
2D9E
330
1003
100
AcDbEntity
  8
SUNPOU
 62
     0
100
AcDbTrace
 10
406.1909928315651
 20
4307.942962740322
 30
0.0
 11
421.1909928315651
 21
4307.942962740322
 31
0.0
 12
413.6909928315651
 22
4262.942962740322
 32
0.0
 13
413.6909928315651
 23
4262.942962740322
 33
0.0
  0
SOLID
  5
2D9F
330
1003
100
AcDbEntity
  8
SUNPOU
 62
     0
100
AcDbTrace
 10
406.1909928315654
 20
5617.942962740323
 30
0.0
 11
421.1909928315654
 21
5617.942962740323
 31
0.0
 12
413.6909928315654
 22
5662.942962740323
 32
0.0
 13
413.6909928315654
 23
5662.942962740323
 33
0.0
  0
MTEXT
  5
2DA0
330
1003
100
AcDbEntity
  8
SUNPOU
 62
     0
100
AcDbMText
 10
364.9409928315644
 20
4962.942962740322
 30
0.0
 40
62.5
 41
0.0
 71
     5
 72
     1
  1
\A1;1400
 11
6.123031769111886E-17
 21
1.0
 31
0.0
 73
     1
 44
1.0
  0
POINT
  5
2DA1
330
1003
100
AcDbEntity
  8
DEFPOINTS
 62
     0
100
AcDbPoint
 10
1505.791006481428
 20
4262.942962740322
 30
0.0
  0
POINT
  5
2DA2
330
1003
100
AcDbEntity
  8
DEFPOINTS
 62
     0
100
AcDbPoint
 10
945.7910064814278
 20
5662.942962740323
 30
0.0
  0
POINT
  5
2DA3
330
1003
100
AcDbEntity
  8
DEFPOINTS
 62
     0
100
AcDbPoint
 10
413.6909928315654
 20
5662.942962740323
 30
0.0
  0
ENDBLK
  5
100E
330
1003
100
AcDbEntity
  8
0
100
AcDbBlockEnd
  0
BLOCK
  5
1032
330
1028
100
AcDbEntity
  8
0
100
AcDbBlockBegin
  2
*D26
 70
     1
 10
0.0
 20
0.0
 30
0.0
  3
*D26
  1

  0
LINE
  5
28D8
330
1028
100
AcDbEntity
  8
SUNPOU
 62
     0
370
    -2
100
AcDbLine
 10
945.7910064814278
 20
5712.942962740323
 30
0.0
 11
945.7910064814278
 21
6014.861676334696
 31
0.0
  0
LINE
  5
28D9
330
1028
100
AcDbEntity
  8
SUNPOU
 62
     0
370
    -2
100
AcDbLine
 10
1205.791006481429
 20
5712.942962740323
 30
0.0
 11
1205.791006481429
 21
6014.861676334696
 31
0.0
  0
LINE
  5
28DA
330
1028
100
AcDbEntity
  8
SUNPOU
 62
     0
370
    -2
100
AcDbLine
 10
990.7910064814278
 20
6002.361676334696
 30
0.0
 11
1160.791006481429
 21
6002.361676334696
 31
0.0
  0
SOLID
  5
28DB
330
1028
100
AcDbEntity
  8
SUNPOU
 62
     0
100
AcDbTrace
 10
990.7910064814278
 20
6009.861676334696
 30
0.0
 11
990.7910064814278
 21
5994.861676334696
 31
0.0
 12
945.7910064814278
 22
6002.361676334696
 32
0.0
 13
945.7910064814278
 23
6002.361676334696
 33
0.0
  0
SOLID
  5
28DC
330
1028
100
AcDbEntity
  8
SUNPOU
 62
     0
100
AcDbTrace
 10
1160.791006481429
 20
6009.861676334696
 30
0.0
 11
1160.791006481429
 21
5994.861676334696
 31
0.0
 12
1205.791006481429
 22
6002.361676334696
 32
0.0
 13
1205.791006481429
 23
6002.361676334696
 33
0.0
  0
MTEXT
  5
28DD
330
1028
100
AcDbEntity
  8
SUNPOU
 62
     0
100
AcDbMText
 10
1075.791006481428
 20
6051.111676334696
 30
0.0
 40
62.5
 41
0.0
 71
     5
 72
     1
  1
\A1;260
 73
     1
 44
1.0
  0
POINT
  5
28DE
330
1028
100
AcDbEntity
  8
DEFPOINTS
 62
     0
100
AcDbPoint
 10
945.7910064814278
 20
5662.942962740323
 30
0.0
  0
POINT
  5
28DF
330
1028
100
AcDbEntity
  8
DEFPOINTS
 62
     0
100
AcDbPoint
 10
1205.791006481429
 20
5662.942962740323
 30
0.0
  0
POINT
  5
28E0
330
1028
100
AcDbEntity
  8
DEFPOINTS
 62
     0
100
AcDbPoint
 10
1205.791006481429
 20
6002.361676334696
 30
0.0
  0
ENDBLK
  5
1033
330
1028
100
AcDbEntity
  8
0
100
AcDbBlockEnd
  0
BLOCK
  5
10B7
330
10AC
100
AcDbEntity
  8
0
100
AcDbBlockBegin
  2
*D27
 70
     1
 10
0.0
 20
0.0
 30
0.0
  3
*D27
  1

  0
LINE
  5
2AA4
330
10AC
100
AcDbEntity
  8
SUNPOU
 62
     0
370
    -2
100
AcDbLine
 10
4389.379538460489
 20
5662.942962740322
 30
0.0
 11
4019.223995205153
 21
5662.942962740322
 31
0.0
  0
LINE
  5
2AA5
330
10AC
100
AcDbEntity
  8
SUNPOU
 62
     0
370
    -2
100
AcDbLine
 10
4389.379538460489
 20
5512.942962740322
 30
0.0
 11
4019.223995205153
 21
5512.942962740322
 31
0.0
  0
LINE
  5
2AA6
330
10AC
100
AcDbEntity
  8
SUNPOU
 62
     0
370
    -2
100
AcDbLine
 10
4031.723995205153
 20
5617.942962740322
 30
0.0
 11
4031.723995205153
 21
5557.942962740322
 31
0.0
  0
SOLID
  5
2AA7
330
10AC
100
AcDbEntity
  8
SUNPOU
 62
     0
100
AcDbTrace
 10
4024.223995205153
 20
5617.942962740322
 30
0.0
 11
4039.223995205153
 21
5617.942962740322
 31
0.0
 12
4031.723995205153
 22
5662.942962740322
 32
0.0
 13
4031.723995205153
 23
5662.942962740322
 33
0.0
  0
SOLID
  5
2AA8
330
10AC
100
AcDbEntity
  8
SUNPOU
 62
     0
100
AcDbTrace
 10
4024.223995205153
 20
5557.942962740322
 30
0.0
 11
4039.223995205153
 21
5557.942962740322
 31
0.0
 12
4031.723995205153
 22
5512.942962740322
 32
0.0
 13
4031.723995205153
 23
5512.942962740322
 33
0.0
  0
MTEXT
  5
2AA9
330
10AC
100
AcDbEntity
  8
SUNPOU
 62
     0
100
AcDbMText
 10
3982.973995205152
 20
5587.942962740323
 30
0.0
 40
62.5
 41
0.0
 71
     5
 72
     1
  1
\A1;150
 11
6.123031769111886E-17
 21
1.0
 31
0.0
 73
     1
 44
1.0
  0
POINT
  5
2AAA
330
10AC
100
AcDbEntity
  8
DEFPOINTS
 62
     0
100
AcDbPoint
 10
4439.379538460489
 20
5662.942962740322
 30
0.0
  0
POINT
  5
2AAB
330
10AC
100
AcDbEntity
  8
DEFPOINTS
 62
     0
100
AcDbPoint
 10
4439.379538460489
 20
5512.942962740322
 30
0.0
  0
POINT
  5
2AAC
330
10AC
100
AcDbEntity
  8
DEFPOINTS
 62
     0
100
AcDbPoint
 10
4031.723995205153
 20
5512.942962740322
 30
0.0
  0
ENDBLK
  5
10B8
330
10AC
100
AcDbEntity
  8
0
100
AcDbBlockEnd
  0
BLOCK
  5
10C3
330
10B9
100
AcDbEntity
  8
0
100
AcDbBlockBegin
  2
*D28
 70
     1
 10
0.0
 20
0.0
 30
0.0
  3
*D28
  1

  0
LINE
  5
2DD5
330
10B9
100
AcDbEntity
  8
SUNPOU
 62
     0
370
    -2
100
AcDbLine
 10
4389.379538460489
 20
5512.942962740322
 30
0.0
 11
4019.223995205154
 21
5512.942962740322
 31
0.0
  0
LINE
  5
2DD6
330
10B9
100
AcDbEntity
  8
SUNPOU
 62
     0
370
    -2
100
AcDbLine
 10
4383.379538460489
 20
4262.942962740322
 30
0.0
 11
4019.223995205153
 21
4262.942962740322
 31
0.0
  0
LINE
  5
2DD7
330
10B9
100
AcDbEntity
  8
SUNPOU
 62
     0
370
    -2
100
AcDbLine
 10
4031.723995205154
 20
5467.942962740322
 30
0.0
 11
4031.723995205153
 21
4307.942962740322
 31
0.0
  0
SOLID
  5
2DD8
330
10B9
100
AcDbEntity
  8
SUNPOU
 62
     0
100
AcDbTrace
 10
4024.223995205154
 20
5467.942962740322
 30
0.0
 11
4039.223995205154
 21
5467.942962740322
 31
0.0
 12
4031.723995205154
 22
5512.942962740322
 32
0.0
 13
4031.723995205154
 23
5512.942962740322
 33
0.0
  0
SOLID
  5
2DD9
330
10B9
100
AcDbEntity
  8
SUNPOU
 62
     0
100
AcDbTrace
 10
4024.223995205153
 20
4307.942962740322
 30
0.0
 11
4039.223995205153
 21
4307.942962740322
 31
0.0
 12
4031.723995205153
 22
4262.942962740322
 32
0.0
 13
4031.723995205153
 23
4262.942962740322
 33
0.0
  0
MTEXT
  5
2DDA
330
10B9
100
AcDbEntity
  8
SUNPOU
 62
     0
100
AcDbMText
 10
3982.973995205153
 20
4887.942962740323
 30
0.0
 40
62.5
 41
0.0
 71
     5
 72
     1
  1
\A1;1250
 11
6.123031769111886E-17
 21
1.0
 31
0.0
 73
     1
 44
1.0
  0
POINT
  5
2DDB
330
10B9
100
AcDbEntity
  8
DEFPOINTS
 62
     0
100
AcDbPoint
 10
4439.379538460489
 20
5512.942962740322
 30
0.0
  0
POINT
  5
2DDC
330
10B9
100
AcDbEntity
  8
DEFPOINTS
 62
     0
100
AcDbPoint
 10
4433.379538460489
 20
4262.942962740322
 30
0.0
  0
POINT
  5
2DDD
330
10B9
100
AcDbEntity
  8
DEFPOINTS
 62
     0
100
AcDbPoint
 10
4031.723995205153
 20
4262.942962740322
 30
0.0
  0
ENDBLK
  5
10C4
330
10B9
100
AcDbEntity
  8
0
100
AcDbBlockEnd
  0
BLOCK
  5
10CF
330
10C5
100
AcDbEntity
  8
0
100
AcDbBlockBegin
  2
*D29
 70
     1
 10
0.0
 20
0.0
 30
0.0
  3
*D29
  1

  0
LINE
  5
2AB6
330
10C5
100
AcDbEntity
  8
SUNPOU
 62
     0
370
    -2
100
AcDbLine
 10
4433.379538460489
 20
5712.942962740323
 30
0.0
 11
4433.379538460489
 21
6114.303181454855
 31
0.0
  0
LINE
  5
2AB7
330
10C5
100
AcDbEntity
  8
SUNPOU
 62
     0
370
    -2
100
AcDbLine
 10
5933.37953846049
 20
5712.942962740323
 30
0.0
 11
5933.37953846049
 21
6114.303181454855
 31
0.0
  0
LINE
  5
2AB8
330
10C5
100
AcDbEntity
  8
SUNPOU
 62
     0
370
    -2
100
AcDbLine
 10
4478.379538460489
 20
6101.803181454855
 30
0.0
 11
5888.37953846049
 21
6101.803181454855
 31
0.0
  0
SOLID
  5
2AB9
330
10C5
100
AcDbEntity
  8
SUNPOU
 62
     0
100
AcDbTrace
 10
4478.379538460489
 20
6109.303181454855
 30
0.0
 11
4478.379538460489
 21
6094.303181454855
 31
0.0
 12
4433.379538460489
 22
6101.803181454855
 32
0.0
 13
4433.379538460489
 23
6101.803181454855
 33
0.0
  0
SOLID
  5
2ABA
330
10C5
100
AcDbEntity
  8
SUNPOU
 62
     0
100
AcDbTrace
 10
5888.37953846049
 20
6109.303181454855
 30
0.0
 11
5888.37953846049
 21
6094.303181454855
 31
0.0
 12
5933.37953846049
 22
6101.803181454855
 32
0.0
 13
5933.37953846049
 23
6101.803181454855
 33
0.0
  0
MTEXT
  5
2ABB
330
10C5
100
AcDbEntity
  8
SUNPOU
 62
     0
100
AcDbMText
 10
5183.379538460489
 20
6150.553181454855
 30
0.0
 40
62.5
 41
0.0
 71
     5
 72
     1
  1
\A1;1500
 73
     1
 44
1.0
  0
POINT
  5
2ABC
330
10C5
100
AcDbEntity
  8
DEFPOINTS
 62
     0
100
AcDbPoint
 10
4433.379538460489
 20
5662.942962740323
 30
0.0
  0
POINT
  5
2ABD
330
10C5
100
AcDbEntity
  8
DEFPOINTS
 62
     0
100
AcDbPoint
 10
5933.37953846049
 20
5662.942962740323
 30
0.0
  0
POINT
  5
2ABE
330
10C5
100
AcDbEntity
  8
DEFPOINTS
 62
     0
100
AcDbPoint
 10
5933.37953846049
 20
6101.803181454855
 30
0.0
  0
ENDBLK
  5
10D0
330
10C5
100
AcDbEntity
  8
0
100
AcDbBlockEnd
  0
BLOCK
  5
10DB
330
10D1
100
AcDbEntity
  8
0
100
AcDbBlockBegin
  2
*D30
 70
     1
 10
0.0
 20
0.0
 30
0.0
  3
*D30
  1

  0
LINE
  5
2ABF
330
10D1
100
AcDbEntity
  8
SUNPOU
 62
     0
370
    -2
100
AcDbLine
 10
4433.379538460489
 20
5712.942962740323
 30
0.0
 11
4433.379538460489
 21
5962.503290021762
 31
0.0
  0
LINE
  5
2AC0
330
10D1
100
AcDbEntity
  8
SUNPOU
 62
     0
370
    -2
100
AcDbLine
 10
4808.379538460489
 20
5712.942962740323
 30
0.0
 11
4808.379538460489
 21
5962.503290021762
 31
0.0
  0
LINE
  5
2AC1
330
10D1
100
AcDbEntity
  8
SUNPOU
 62
     0
370
    -2
100
AcDbLine
 10
4478.379538460489
 20
5950.003290021762
 30
0.0
 11
4763.379538460489
 21
5950.003290021762
 31
0.0
  0
SOLID
  5
2AC2
330
10D1
100
AcDbEntity
  8
SUNPOU
 62
     0
100
AcDbTrace
 10
4478.379538460489
 20
5957.503290021762
 30
0.0
 11
4478.379538460489
 21
5942.503290021762
 31
0.0
 12
4433.379538460489
 22
5950.003290021762
 32
0.0
 13
4433.379538460489
 23
5950.003290021762
 33
0.0
  0
SOLID
  5
2AC3
330
10D1
100
AcDbEntity
  8
SUNPOU
 62
     0
100
AcDbTrace
 10
4763.379538460489
 20
5957.503290021762
 30
0.0
 11
4763.379538460489
 21
5942.503290021762
 31
0.0
 12
4808.379538460489
 22
5950.003290021762
 32
0.0
 13
4808.379538460489
 23
5950.003290021762
 33
0.0
  0
MTEXT
  5
2AC4
330
10D1
100
AcDbEntity
  8
SUNPOU
 62
     0
100
AcDbMText
 10
4620.879538460489
 20
5998.753290021762
 30
0.0
 40
62.5
 41
0.0
 71
     5
 72
     1
  1
\A1;375
 73
     1
 44
1.0
  0
POINT
  5
2AC5
330
10D1
100
AcDbEntity
  8
DEFPOINTS
 62
     0
100
AcDbPoint
 10
4433.379538460489
 20
5662.942962740323
 30
0.0
  0
POINT
  5
2AC6
330
10D1
100
AcDbEntity
  8
DEFPOINTS
 62
     0
100
AcDbPoint
 10
4808.379538460489
 20
5662.942962740323
 30
0.0
  0
POINT
  5
2AC7
330
10D1
100
AcDbEntity
  8
DEFPOINTS
 62
     0
100
AcDbPoint
 10
4808.379538460489
 20
5950.003290021762
 30
0.0
  0
ENDBLK
  5
10DC
330
10D1
100
AcDbEntity
  8
0
100
AcDbBlockEnd
  0
BLOCK
  5
10E7
330
10DD
100
AcDbEntity
  8
0
100
AcDbBlockBegin
  2
*D31
 70
     1
 10
0.0
 20
0.0
 30
0.0
  3
*D31
  1

  0
LINE
  5
2AC8
330
10DD
100
AcDbEntity
  8
SUNPOU
 62
     0
370
    -2
100
AcDbLine
 10
4808.379538460489
 20
5712.942962740323
 30
0.0
 11
4808.379538460489
 21
5962.503290021762
 31
0.0
  0
LINE
  5
2AC9
330
10DD
100
AcDbEntity
  8
SUNPOU
 62
     0
370
    -2
100
AcDbLine
 10
5558.379538460489
 20
5712.942962740323
 30
0.0
 11
5558.379538460489
 21
5962.503290021762
 31
0.0
  0
LINE
  5
2ACA
330
10DD
100
AcDbEntity
  8
SUNPOU
 62
     0
370
    -2
100
AcDbLine
 10
4853.379538460489
 20
5950.003290021762
 30
0.0
 11
5513.379538460489
 21
5950.003290021762
 31
0.0
  0
SOLID
  5
2ACB
330
10DD
100
AcDbEntity
  8
SUNPOU
 62
     0
100
AcDbTrace
 10
4853.379538460489
 20
5957.503290021762
 30
0.0
 11
4853.379538460489
 21
5942.503290021762
 31
0.0
 12
4808.379538460489
 22
5950.003290021762
 32
0.0
 13
4808.379538460489
 23
5950.003290021762
 33
0.0
  0
SOLID
  5
2ACC
330
10DD
100
AcDbEntity
  8
SUNPOU
 62
     0
100
AcDbTrace
 10
5513.379538460489
 20
5957.503290021762
 30
0.0
 11
5513.379538460489
 21
5942.503290021762
 31
0.0
 12
5558.379538460489
 22
5950.003290021762
 32
0.0
 13
5558.379538460489
 23
5950.003290021762
 33
0.0
  0
MTEXT
  5
2ACD
330
10DD
100
AcDbEntity
  8
SUNPOU
 62
     0
100
AcDbMText
 10
5183.379538460489
 20
5998.753290021762
 30
0.0
 40
62.5
 41
0.0
 71
     5
 72
     1
  1
\A1;750
 73
     1
 44
1.0
  0
POINT
  5
2ACE
330
10DD
100
AcDbEntity
  8
DEFPOINTS
 62
     0
100
AcDbPoint
 10
4808.379538460489
 20
5662.942962740323
 30
0.0
  0
POINT
  5
2ACF
330
10DD
100
AcDbEntity
  8
DEFPOINTS
 62
     0
100
AcDbPoint
 10
5558.379538460489
 20
5662.942962740323
 30
0.0
  0
POINT
  5
2AD0
330
10DD
100
AcDbEntity
  8
DEFPOINTS
 62
     0
100
AcDbPoint
 10
5558.379538460489
 20
5950.003290021762
 30
0.0
  0
ENDBLK
  5
10E8
330
10DD
100
AcDbEntity
  8
0
100
AcDbBlockEnd
  0
BLOCK
  5
10F3
330
10E9
100
AcDbEntity
  8
0
100
AcDbBlockBegin
  2
*D32
 70
     1
 10
0.0
 20
0.0
 30
0.0
  3
*D32
  1

  0
LINE
  5
2AD1
330
10E9
100
AcDbEntity
  8
SUNPOU
 62
     0
370
    -2
100
AcDbLine
 10
5558.379538460489
 20
5712.942962740323
 30
0.0
 11
5558.379538460489
 21
5962.503290021762
 31
0.0
  0
LINE
  5
2AD2
330
10E9
100
AcDbEntity
  8
SUNPOU
 62
     0
370
    -2
100
AcDbLine
 10
5933.379538460489
 20
5712.942962740323
 30
0.0
 11
5933.379538460489
 21
5962.503290021762
 31
0.0
  0
LINE
  5
2AD3
330
10E9
100
AcDbEntity
  8
SUNPOU
 62
     0
370
    -2
100
AcDbLine
 10
5603.379538460489
 20
5950.003290021762
 30
0.0
 11
5888.379538460489
 21
5950.003290021762
 31
0.0
  0
SOLID
  5
2AD4
330
10E9
100
AcDbEntity
  8
SUNPOU
 62
     0
100
AcDbTrace
 10
5603.379538460489
 20
5957.503290021762
 30
0.0
 11
5603.379538460489
 21
5942.503290021762
 31
0.0
 12
5558.379538460489
 22
5950.003290021762
 32
0.0
 13
5558.379538460489
 23
5950.003290021762
 33
0.0
  0
SOLID
  5
2AD5
330
10E9
100
AcDbEntity
  8
SUNPOU
 62
     0
100
AcDbTrace
 10
5888.379538460489
 20
5957.503290021762
 30
0.0
 11
5888.379538460489
 21
5942.503290021762
 31
0.0
 12
5933.379538460489
 22
5950.003290021762
 32
0.0
 13
5933.379538460489
 23
5950.003290021762
 33
0.0
  0
MTEXT
  5
2AD6
330
10E9
100
AcDbEntity
  8
SUNPOU
 62
     0
100
AcDbMText
 10
5745.879538460489
 20
5998.753290021762
 30
0.0
 40
62.5
 41
0.0
 71
     5
 72
     1
  1
\A1;375
 73
     1
 44
1.0
  0
POINT
  5
2AD7
330
10E9
100
AcDbEntity
  8
DEFPOINTS
 62
     0
100
AcDbPoint
 10
5558.379538460489
 20
5662.942962740323
 30
0.0
  0
POINT
  5
2AD8
330
10E9
100
AcDbEntity
  8
DEFPOINTS
 62
     0
100
AcDbPoint
 10
5933.379538460489
 20
5662.942962740323
 30
0.0
  0
POINT
  5
2AD9
330
10E9
100
AcDbEntity
  8
DEFPOINTS
 62
     0
100
AcDbPoint
 10
5933.379538460489
 20
5950.003290021762
 30
0.0
  0
ENDBLK
  5
10F4
330
10E9
100
AcDbEntity
  8
0
100
AcDbBlockEnd
  0
BLOCK
  5
1EE9
330
1EDF
100
AcDbEntity
  8
0
100
AcDbBlockBegin
  2
*D33
 70
     1
 10
0.0
 20
0.0
 30
0.0
  3
*D33
  1

  0
LINE
  5
2DA4
330
1EDF
100
AcDbEntity
  8
SUNPOU
 62
     0
370
    -2
100
AcDbLine
 10
2975.791006481429
 20
4212.942962740322
 30
0.0
 11
2975.791006481429
 21
3878.956552472631
 31
0.0
  0
LINE
  5
2DA5
330
1EDF
100
AcDbEntity
  8
SUNPOU
 62
     0
370
    -2
100
AcDbLine
 10
2505.791006481429
 20
4212.942962740322
 30
0.0
 11
2505.791006481429
 21
3878.956552472631
 31
0.0
  0
LINE
  5
2DA6
330
1EDF
100
AcDbEntity
  8
SUNPOU
 62
     0
370
    -2
100
AcDbLine
 10
2930.791006481429
 20
3891.456552472631
 30
0.0
 11
2550.791006481429
 21
3891.456552472631
 31
0.0
  0
SOLID
  5
2DA7
330
1EDF
100
AcDbEntity
  8
SUNPOU
 62
     0
100
AcDbTrace
 10
2930.791006481429
 20
3898.956552472631
 30
0.0
 11
2930.791006481429
 21
3883.956552472631
 31
0.0
 12
2975.791006481429
 22
3891.456552472631
 32
0.0
 13
2975.791006481429
 23
3891.456552472631
 33
0.0
  0
SOLID
  5
2DA8
330
1EDF
100
AcDbEntity
  8
SUNPOU
 62
     0
100
AcDbTrace
 10
2550.791006481429
 20
3898.956552472631
 30
0.0
 11
2550.791006481429
 21
3883.956552472631
 31
0.0
 12
2505.791006481429
 22
3891.456552472631
 32
0.0
 13
2505.791006481429
 23
3891.456552472631
 33
0.0
  0
MTEXT
  5
2DA9
330
1EDF
100
AcDbEntity
  8
SUNPOU
 62
     0
100
AcDbMText
 10
2740.791006481429
 20
3940.206552472631
 30
0.0
 40
62.5
 41
0.0
 71
     5
 72
     1
  1
\A1;470
 73
     1
 44
1.0
  0
POINT
  5
2DAA
330
1EDF
100
AcDbEntity
  8
DEFPOINTS
 62
     0
100
AcDbPoint
 10
2975.791006481429
 20
4262.942962740322
 30
0.0
  0
POINT
  5
2DAB
330
1EDF
100
AcDbEntity
  8
DEFPOINTS
 62
     0
100
AcDbPoint
 10
2505.791006481429
 20
4262.942962740322
 30
0.0
  0
POINT
  5
2DAC
330
1EDF
100
AcDbEntity
  8
DEFPOINTS
 62
     0
100
AcDbPoint
 10
2505.791006481429
 20
3891.456552472631
 30
0.0
  0
ENDBLK
  5
1EEA
330
1EDF
100
AcDbEntity
  8
0
100
AcDbBlockEnd
  0
BLOCK
  5
1EF6
330
1EEC
100
AcDbEntity
  8
0
100
AcDbBlockBegin
  2
*D34
 70
     1
 10
0.0
 20
0.0
 30
0.0
  3
*D34
  1

  0
LINE
  5
2D64
330
1EEC
100
AcDbEntity
  8
SUNPOU
 62
     0
370
    -2
100
AcDbLine
 10
2505.791006481429
 20
4212.942962740322
 30
0.0
 11
2505.791006481429
 21
3878.956552472631
 31
0.0
  0
LINE
  5
2D65
330
1EEC
100
AcDbEntity
  8
SUNPOU
 62
     0
370
    -2
100
AcDbLine
 10
2205.791006481429
 20
4212.942962740322
 30
0.0
 11
2205.791006481429
 21
3878.956552472631
 31
0.0
  0
LINE
  5
2D66
330
1EEC
100
AcDbEntity
  8
SUNPOU
 62
     0
370
    -2
100
AcDbLine
 10
2460.791006481429
 20
3891.456552472631
 30
0.0
 11
2250.791006481429
 21
3891.456552472631
 31
0.0
  0
SOLID
  5
2D67
330
1EEC
100
AcDbEntity
  8
SUNPOU
 62
     0
100
AcDbTrace
 10
2460.791006481429
 20
3898.956552472631
 30
0.0
 11
2460.791006481429
 21
3883.956552472631
 31
0.0
 12
2505.791006481429
 22
3891.456552472631
 32
0.0
 13
2505.791006481429
 23
3891.456552472631
 33
0.0
  0
SOLID
  5
2D68
330
1EEC
100
AcDbEntity
  8
SUNPOU
 62
     0
100
AcDbTrace
 10
2250.791006481429
 20
3898.956552472631
 30
0.0
 11
2250.791006481429
 21
3883.956552472631
 31
0.0
 12
2205.791006481429
 22
3891.456552472631
 32
0.0
 13
2205.791006481429
 23
3891.456552472631
 33
0.0
  0
MTEXT
  5
2D69
330
1EEC
100
AcDbEntity
  8
SUNPOU
 62
     0
100
AcDbMText
 10
2355.791006481429
 20
3940.206552472631
 30
0.0
 40
62.5
 41
0.0
 71
     5
 72
     1
  1
\A1;300
 73
     1
 44
1.0
  0
POINT
  5
2D6A
330
1EEC
100
AcDbEntity
  8
DEFPOINTS
 62
     0
100
AcDbPoint
 10
2505.791006481429
 20
4262.942962740322
 30
0.0
  0
POINT
  5
2D6B
330
1EEC
100
AcDbEntity
  8
DEFPOINTS
 62
     0
100
AcDbPoint
 10
2205.791006481429
 20
4262.942962740322
 30
0.0
  0
POINT
  5
2D6C
330
1EEC
100
AcDbEntity
  8
DEFPOINTS
 62
     0
100
AcDbPoint
 10
2205.791006481429
 20
3891.456552472631
 30
0.0
  0
ENDBLK
  5
1EF7
330
1EEC
100
AcDbEntity
  8
0
100
AcDbBlockEnd
  0
BLOCK
  5
1F03
330
1EF9
100
AcDbEntity
  8
0
100
AcDbBlockBegin
  2
*D35
 70
     1
 10
0.0
 20
0.0
 30
0.0
  3
*D35
  1

  0
LINE
  5
2D6D
330
1EF9
100
AcDbEntity
  8
SUNPOU
 62
     0
370
    -2
100
AcDbLine
 10
2205.791006481429
 20
4212.942962740322
 30
0.0
 11
2205.791006481429
 21
3878.956552472631
 31
0.0
  0
LINE
  5
2D6E
330
1EF9
100
AcDbEntity
  8
SUNPOU
 62
     0
370
    -2
100
AcDbLine
 10
1505.791006481428
 20
4212.942962740322
 30
0.0
 11
1505.791006481428
 21
3878.956552472631
 31
0.0
  0
LINE
  5
2D6F
330
1EF9
100
AcDbEntity
  8
SUNPOU
 62
     0
370
    -2
100
AcDbLine
 10
2160.791006481429
 20
3891.456552472631
 30
0.0
 11
1550.791006481428
 21
3891.456552472631
 31
0.0
  0
SOLID
  5
2D70
330
1EF9
100
AcDbEntity
  8
SUNPOU
 62
     0
100
AcDbTrace
 10
2160.791006481429
 20
3898.956552472631
 30
0.0
 11
2160.791006481429
 21
3883.956552472631
 31
0.0
 12
2205.791006481429
 22
3891.456552472631
 32
0.0
 13
2205.791006481429
 23
3891.456552472631
 33
0.0
  0
SOLID
  5
2D71
330
1EF9
100
AcDbEntity
  8
SUNPOU
 62
     0
100
AcDbTrace
 10
1550.791006481428
 20
3898.956552472631
 30
0.0
 11
1550.791006481428
 21
3883.956552472631
 31
0.0
 12
1505.791006481428
 22
3891.456552472631
 32
0.0
 13
1505.791006481428
 23
3891.456552472631
 33
0.0
  0
MTEXT
  5
2D72
330
1EF9
100
AcDbEntity
  8
SUNPOU
 62
     0
100
AcDbMText
 10
1855.791006481428
 20
3940.206552472631
 30
0.0
 40
62.5
 41
0.0
 71
     5
 72
     1
  1
\A1;700
 73
     1
 44
1.0
  0
POINT
  5
2D73
330
1EF9
100
AcDbEntity
  8
DEFPOINTS
 62
     0
100
AcDbPoint
 10
2205.791006481429
 20
4262.942962740322
 30
0.0
  0
POINT
  5
2D74
330
1EF9
100
AcDbEntity
  8
DEFPOINTS
 62
     0
100
AcDbPoint
 10
1505.791006481428
 20
4262.942962740322
 30
0.0
  0
POINT
  5
2D75
330
1EF9
100
AcDbEntity
  8
DEFPOINTS
 62
     0
100
AcDbPoint
 10
1505.791006481428
 20
3891.456552472631
 30
0.0
  0
ENDBLK
  5
1F04
330
1EF9
100
AcDbEntity
  8
0
100
AcDbBlockEnd
  0
BLOCK
  5
1F2B
330
1F21
100
AcDbEntity
  8
0
100
AcDbBlockBegin
  2
*D36
 70
     1
 10
0.0
 20
0.0
 30
0.0
  3
*D36
  1

  0
LINE
  5
2E70
330
1F21
100
AcDbEntity
  8
SUNPOU
 62
     0
370
    -2
100
AcDbLine
 10
4389.379538460489
 20
1152.33995171918
 30
0.0
 11
4025.223995205154
 21
1152.33995171918
 31
0.0
  0
LINE
  5
2E71
330
1F21
100
AcDbEntity
  8
SUNPOU
 62
     0
370
    -2
100
AcDbLine
 10
4389.379538460489
 20
2712.33995171918
 30
0.0
 11
4025.223995205154
 21
2712.33995171918
 31
0.0
  0
LINE
  5
2E72
330
1F21
100
AcDbEntity
  8
SUNPOU
 62
     0
370
    -2
100
AcDbLine
 10
4037.723995205154
 20
1197.33995171918
 30
0.0
 11
4037.723995205154
 21
2667.33995171918
 31
0.0
  0
SOLID
  5
2E73
330
1F21
100
AcDbEntity
  8
SUNPOU
 62
     0
100
AcDbTrace
 10
4030.223995205154
 20
1197.33995171918
 30
0.0
 11
4045.223995205154
 21
1197.33995171918
 31
0.0
 12
4037.723995205154
 22
1152.33995171918
 32
0.0
 13
4037.723995205154
 23
1152.33995171918
 33
0.0
  0
SOLID
  5
2E74
330
1F21
100
AcDbEntity
  8
SUNPOU
 62
     0
100
AcDbTrace
 10
4030.223995205154
 20
2667.33995171918
 30
0.0
 11
4045.223995205154
 21
2667.33995171918
 31
0.0
 12
4037.723995205154
 22
2712.33995171918
 32
0.0
 13
4037.723995205154
 23
2712.33995171918
 33
0.0
  0
MTEXT
  5
2E75
330
1F21
100
AcDbEntity
  8
SUNPOU
 62
     0
100
AcDbMText
 10
3988.973995205154
 20
1932.339951719181
 30
0.0
 40
62.5
 41
0.0
 71
     5
 72
     1
  1
\A1;1560
 11
6.123031769111886E-17
 21
1.0
 31
0.0
 73
     1
 44
1.0
  0
POINT
  5
2E76
330
1F21
100
AcDbEntity
  8
DEFPOINTS
 62
     0
100
AcDbPoint
 10
4439.379538460489
 20
1152.33995171918
 30
0.0
  0
POINT
  5
2E77
330
1F21
100
AcDbEntity
  8
DEFPOINTS
 62
     0
100
AcDbPoint
 10
4439.379538460489
 20
2712.33995171918
 30
0.0
  0
POINT
  5
2E78
330
1F21
100
AcDbEntity
  8
DEFPOINTS
 62
     0
100
AcDbPoint
 10
4037.723995205154
 20
2712.33995171918
 30
0.0
  0
ENDBLK
  5
1F2C
330
1F21
100
AcDbEntity
  8
0
100
AcDbBlockEnd
  0
BLOCK
  5
1F39
330
1F2E
100
AcDbEntity
  8
0
100
AcDbBlockBegin
  2
*D37
 70
     1
 10
0.0
 20
0.0
 30
0.0
  3
*D37
  1

  0
LINE
  5
2D76
330
1F2E
100
AcDbEntity
  8
SUNPOU
 62
     0
370
    -2
100
AcDbLine
 10
2505.791006481429
 20
4212.942962740322
 30
0.0
 11
2505.791006481429
 21
4016.78354699496
 31
0.0
  0
LINE
  5
2D77
330
1F2E
100
AcDbEntity
  8
SUNPOU
 62
     0
370
    -2
100
AcDbLine
 10
2435.791006481429
 20
4212.942962740322
 30
0.0
 11
2435.791006481429
 21
4016.78354699496
 31
0.0
  0
LINE
  5
2D78
330
1F2E
100
AcDbEntity
  8
SUNPOU
 62
     0
370
    -2
100
AcDbLine
 10
2550.791006481429
 20
4029.28354699496
 30
0.0
 11
2595.791006481429
 21
4029.28354699496
 31
0.0
  0
LINE
  5
2D79
330
1F2E
100
AcDbEntity
  8
SUNPOU
 62
     0
370
    -2
100
AcDbLine
 10
2390.791006481429
 20
4029.28354699496
 30
0.0
 11
2345.791006481429
 21
4029.28354699496
 31
0.0
  0
SOLID
  5
2D7A
330
1F2E
100
AcDbEntity
  8
SUNPOU
 62
     0
100
AcDbTrace
 10
2550.791006481429
 20
4036.78354699496
 30
0.0
 11
2550.791006481429
 21
4021.78354699496
 31
0.0
 12
2505.791006481429
 22
4029.28354699496
 32
0.0
 13
2505.791006481429
 23
4029.28354699496
 33
0.0
  0
SOLID
  5
2D7B
330
1F2E
100
AcDbEntity
  8
SUNPOU
 62
     0
100
AcDbTrace
 10
2390.791006481429
 20
4036.78354699496
 30
0.0
 11
2390.791006481429
 21
4021.78354699496
 31
0.0
 12
2435.791006481429
 22
4029.28354699496
 32
0.0
 13
2435.791006481429
 23
4029.28354699496
 33
0.0
  0
MTEXT
  5
2D7C
330
1F2E
100
AcDbEntity
  8
SUNPOU
 62
     0
100
AcDbMText
 10
2470.791006481429
 20
4078.03354699496
 30
0.0
 40
62.5
 41
0.0
 71
     5
 72
     1
  1
\A1;70
 73
     1
 44
1.0
  0
POINT
  5
2D7D
330
1F2E
100
AcDbEntity
  8
DEFPOINTS
 62
     0
100
AcDbPoint
 10
2505.791006481429
 20
4262.942962740322
 30
0.0
  0
POINT
  5
2D7E
330
1F2E
100
AcDbEntity
  8
DEFPOINTS
 62
     0
100
AcDbPoint
 10
2435.791006481429
 20
4262.942962740322
 30
0.0
  0
POINT
  5
2D7F
330
1F2E
100
AcDbEntity
  8
DEFPOINTS
 62
     0
100
AcDbPoint
 10
2435.791006481429
 20
4029.28354699496
 30
0.0
  0
ENDBLK
  5
1F3A
330
1F2E
100
AcDbEntity
  8
0
100
AcDbBlockEnd
  0
BLOCK
  5
1F46
330
1F3C
100
AcDbEntity
  8
0
100
AcDbBlockBegin
  2
*D38
 70
     1
 10
0.0
 20
0.0
 30
0.0
  3
*D38
  1

  0
LINE
  5
2D80
330
1F3C
100
AcDbEntity
  8
SUNPOU
 62
     0
370
    -2
100
AcDbLine
 10
2435.791006481429
 20
4212.942962740322
 30
0.0
 11
2435.791006481429
 21
4016.78354699496
 31
0.0
  0
LINE
  5
2D81
330
1F3C
100
AcDbEntity
  8
SUNPOU
 62
     0
370
    -2
100
AcDbLine
 10
2205.791006481429
 20
4212.942962740322
 30
0.0
 11
2205.791006481429
 21
4016.78354699496
 31
0.0
  0
LINE
  5
2D82
330
1F3C
100
AcDbEntity
  8
SUNPOU
 62
     0
370
    -2
100
AcDbLine
 10
2390.791006481429
 20
4029.28354699496
 30
0.0
 11
2250.791006481429
 21
4029.28354699496
 31
0.0
  0
SOLID
  5
2D83
330
1F3C
100
AcDbEntity
  8
SUNPOU
 62
     0
100
AcDbTrace
 10
2390.791006481429
 20
4036.78354699496
 30
0.0
 11
2390.791006481429
 21
4021.78354699496
 31
0.0
 12
2435.791006481429
 22
4029.28354699496
 32
0.0
 13
2435.791006481429
 23
4029.28354699496
 33
0.0
  0
SOLID
  5
2D84
330
1F3C
100
AcDbEntity
  8
SUNPOU
 62
     0
100
AcDbTrace
 10
2250.791006481429
 20
4036.78354699496
 30
0.0
 11
2250.791006481429
 21
4021.78354699496
 31
0.0
 12
2205.791006481429
 22
4029.28354699496
 32
0.0
 13
2205.791006481429
 23
4029.28354699496
 33
0.0
  0
MTEXT
  5
2D85
330
1F3C
100
AcDbEntity
  8
SUNPOU
 62
     0
100
AcDbMText
 10
2320.791006481429
 20
4078.03354699496
 30
0.0
 40
62.5
 41
0.0
 71
     5
 72
     1
  1
\A1;230
 73
     1
 44
1.0
  0
POINT
  5
2D86
330
1F3C
100
AcDbEntity
  8
DEFPOINTS
 62
     0
100
AcDbPoint
 10
2435.791006481429
 20
4262.942962740322
 30
0.0
  0
POINT
  5
2D87
330
1F3C
100
AcDbEntity
  8
DEFPOINTS
 62
     0
100
AcDbPoint
 10
2205.791006481429
 20
4262.942962740322
 30
0.0
  0
POINT
  5
2D88
330
1F3C
100
AcDbEntity
  8
DEFPOINTS
 62
     0
100
AcDbPoint
 10
2205.791006481429
 20
4029.28354699496
 30
0.0
  0
ENDBLK
  5
1F47
330
1F3C
100
AcDbEntity
  8
0
100
AcDbBlockEnd
  0
BLOCK
  5
1FC9
330
1FBF
100
AcDbEntity
  8
0
100
AcDbBlockBegin
  2
*D39
 70
     1
 10
0.0
 20
0.0
 30
0.0
  3
*D39
  1

  0
LINE
  5
2933
330
1FBF
100
AcDbEntity
  8
SUNPOU
 62
     0
370
    -2
100
AcDbLine
 10
945.7910064814278
 20
5712.942962740323
 30
0.0
 11
945.7910064814278
 21
6142.183947939122
 31
0.0
  0
LINE
  5
2934
330
1FBF
100
AcDbEntity
  8
SUNPOU
 62
     0
370
    -2
100
AcDbLine
 10
2505.791006481428
 20
5562.942962740322
 30
0.0
 11
2505.791006481428
 21
6142.183947939122
 31
0.0
  0
LINE
  5
2935
330
1FBF
100
AcDbEntity
  8
SUNPOU
 62
     0
370
    -2
100
AcDbLine
 10
990.7910064814278
 20
6129.683947939122
 30
0.0
 11
2460.791006481428
 21
6129.683947939122
 31
0.0
  0
SOLID
  5
2936
330
1FBF
100
AcDbEntity
  8
SUNPOU
 62
     0
100
AcDbTrace
 10
990.7910064814278
 20
6137.183947939122
 30
0.0
 11
990.7910064814278
 21
6122.183947939122
 31
0.0
 12
945.7910064814278
 22
6129.683947939122
 32
0.0
 13
945.7910064814278
 23
6129.683947939122
 33
0.0
  0
SOLID
  5
2937
330
1FBF
100
AcDbEntity
  8
SUNPOU
 62
     0
100
AcDbTrace
 10
2460.791006481428
 20
6137.183947939122
 30
0.0
 11
2460.791006481428
 21
6122.183947939122
 31
0.0
 12
2505.791006481428
 22
6129.683947939122
 32
0.0
 13
2505.791006481428
 23
6129.683947939122
 33
0.0
  0
MTEXT
  5
2938
330
1FBF
100
AcDbEntity
  8
SUNPOU
 62
     0
100
AcDbMText
 10
1725.791006481428
 20
6178.433947939122
 30
0.0
 40
62.5
 41
0.0
 71
     5
 72
     1
  1
\A1;1560
 73
     1
 44
1.0
  0
POINT
  5
2939
330
1FBF
100
AcDbEntity
  8
DEFPOINTS
 62
     0
100
AcDbPoint
 10
945.7910064814278
 20
5662.942962740323
 30
0.0
  0
POINT
  5
293A
330
1FBF
100
AcDbEntity
  8
DEFPOINTS
 62
     0
100
AcDbPoint
 10
2505.791006481428
 20
5512.942962740322
 30
0.0
  0
POINT
  5
293B
330
1FBF
100
AcDbEntity
  8
DEFPOINTS
 62
     0
100
AcDbPoint
 10
2505.791006481428
 20
6129.683947939122
 30
0.0
  0
ENDBLK
  5
1FCA
330
1FBF
100
AcDbEntity
  8
0
100
AcDbBlockEnd
  0
BLOCK
  5
2017
330
200D
100
AcDbEntity
  8
0
100
AcDbBlockBegin
  2
*D40
 70
     1
 10
0.0
 20
0.0
 30
0.0
  3
*D40
  1

  0
LINE
  5
2DAD
330
200D
100
AcDbEntity
  8
SUNPOU
 62
     0
370
    -2
100
AcDbLine
 10
1505.791006481428
 20
4212.942962740322
 30
0.0
 11
1505.791006481428
 21
3734.665204909677
 31
0.0
  0
LINE
  5
2DAE
330
200D
100
AcDbEntity
  8
SUNPOU
 62
     0
370
    -2
100
AcDbLine
 10
2975.791006481429
 20
4212.942962740322
 30
0.0
 11
2975.791006481429
 21
3734.665204909677
 31
0.0
  0
LINE
  5
2DAF
330
200D
100
AcDbEntity
  8
SUNPOU
 62
     0
370
    -2
100
AcDbLine
 10
1550.791006481428
 20
3747.165204909677
 30
0.0
 11
2930.791006481429
 21
3747.165204909677
 31
0.0
  0
SOLID
  5
2DB0
330
200D
100
AcDbEntity
  8
SUNPOU
 62
     0
100
AcDbTrace
 10
1550.791006481428
 20
3754.665204909677
 30
0.0
 11
1550.791006481428
 21
3739.665204909677
 31
0.0
 12
1505.791006481428
 22
3747.165204909677
 32
0.0
 13
1505.791006481428
 23
3747.165204909677
 33
0.0
  0
SOLID
  5
2DB1
330
200D
100
AcDbEntity
  8
SUNPOU
 62
     0
100
AcDbTrace
 10
2930.791006481429
 20
3754.665204909677
 30
0.0
 11
2930.791006481429
 21
3739.665204909677
 31
0.0
 12
2975.791006481429
 22
3747.165204909677
 32
0.0
 13
2975.791006481429
 23
3747.165204909677
 33
0.0
  0
MTEXT
  5
2DB2
330
200D
100
AcDbEntity
  8
SUNPOU
 62
     0
100
AcDbMText
 10
2240.791006481428
 20
3795.915204909677
 30
0.0
 40
62.5
 41
0.0
 71
     5
 72
     1
  1
\A1;1470
 73
     1
 44
1.0
  0
POINT
  5
2DB3
330
200D
100
AcDbEntity
  8
DEFPOINTS
 62
     0
100
AcDbPoint
 10
1505.791006481428
 20
4262.942962740322
 30
0.0
  0
POINT
  5
2DB4
330
200D
100
AcDbEntity
  8
DEFPOINTS
 62
     0
100
AcDbPoint
 10
2975.791006481429
 20
4262.942962740322
 30
0.0
  0
POINT
  5
2DB5
330
200D
100
AcDbEntity
  8
DEFPOINTS
 62
     0
100
AcDbPoint
 10
2975.791006481429
 20
3747.165204909677
 30
0.0
  0
ENDBLK
  5
2018
330
200D
100
AcDbEntity
  8
0
100
AcDbBlockEnd
  0
BLOCK
  5
20E2
330
20D8
100
AcDbEntity
  8
0
100
AcDbBlockBegin
  2
*D41
 70
     1
 10
0.0
 20
0.0
 30
0.0
  3
*D41
  1

  0
LINE
  5
2E79
330
20D8
100
AcDbEntity
  8
SUNPOU
 62
     0
370
    -2
100
AcDbLine
 10
5189.379538460489
 20
1102.339951719179
 30
0.0
 11
5189.379538460489
 21
814.236329127295
 31
0.0
  0
LINE
  5
2E7A
330
20D8
100
AcDbEntity
  8
SUNPOU
 62
     0
370
    -2
100
AcDbLine
 10
5564.379538460489
 20
1102.339951719179
 30
0.0
 11
5564.379538460489
 21
814.236329127295
 31
0.0
  0
LINE
  5
2E7B
330
20D8
100
AcDbEntity
  8
SUNPOU
 62
     0
370
    -2
100
AcDbLine
 10
5234.379538460489
 20
826.736329127295
 30
0.0
 11
5519.379538460489
 21
826.736329127295
 31
0.0
  0
SOLID
  5
2E7C
330
20D8
100
AcDbEntity
  8
SUNPOU
 62
     0
100
AcDbTrace
 10
5234.379538460489
 20
834.236329127295
 30
0.0
 11
5234.379538460489
 21
819.236329127295
 31
0.0
 12
5189.379538460489
 22
826.736329127295
 32
0.0
 13
5189.379538460489
 23
826.736329127295
 33
0.0
  0
SOLID
  5
2E7D
330
20D8
100
AcDbEntity
  8
SUNPOU
 62
     0
100
AcDbTrace
 10
5519.379538460489
 20
834.236329127295
 30
0.0
 11
5519.379538460489
 21
819.236329127295
 31
0.0
 12
5564.379538460489
 22
826.736329127295
 32
0.0
 13
5564.379538460489
 23
826.736329127295
 33
0.0
  0
MTEXT
  5
2E7E
330
20D8
100
AcDbEntity
  8
SUNPOU
 62
     0
100
AcDbMText
 10
5376.879538460489
 20
875.486329127295
 30
0.0
 40
62.5
 41
0.0
 71
     5
 72
     1
  1
\A1;375
 73
     1
 44
1.0
  0
POINT
  5
2E7F
330
20D8
100
AcDbEntity
  8
DEFPOINTS
 62
     0
100
AcDbPoint
 10
5189.379538460489
 20
1152.339951719179
 30
0.0
  0
POINT
  5
2E80
330
20D8
100
AcDbEntity
  8
DEFPOINTS
 62
     0
100
AcDbPoint
 10
5564.379538460489
 20
1152.339951719179
 30
0.0
  0
POINT
  5
2E81
330
20D8
100
AcDbEntity
  8
DEFPOINTS
 62
     0
100
AcDbPoint
 10
5564.379538460489
 20
826.736329127295
 30
0.0
  0
ENDBLK
  5
20E3
330
20D8
100
AcDbEntity
  8
0
100
AcDbBlockEnd
  0
BLOCK
  5
20EE
330
20E4
100
AcDbEntity
  8
0
100
AcDbBlockBegin
  2
*D42
 70
     1
 10
0.0
 20
0.0
 30
0.0
  3
*D42
  1

  0
LINE
  5
2E82
330
20E4
100
AcDbEntity
  8
SUNPOU
 62
     0
370
    -2
100
AcDbLine
 10
5564.379538460489
 20
1102.339951719179
 30
0.0
 11
5564.379538460489
 21
814.236329127295
 31
0.0
  0
LINE
  5
2E83
330
20E4
100
AcDbEntity
  8
SUNPOU
 62
     0
370
    -2
100
AcDbLine
 10
5939.379538460489
 20
1102.339951719179
 30
0.0
 11
5939.379538460489
 21
814.236329127295
 31
0.0
  0
LINE
  5
2E84
330
20E4
100
AcDbEntity
  8
SUNPOU
 62
     0
370
    -2
100
AcDbLine
 10
5609.379538460489
 20
826.736329127295
 30
0.0
 11
5894.379538460489
 21
826.736329127295
 31
0.0
  0
SOLID
  5
2E85
330
20E4
100
AcDbEntity
  8
SUNPOU
 62
     0
100
AcDbTrace
 10
5609.379538460489
 20
834.236329127295
 30
0.0
 11
5609.379538460489
 21
819.236329127295
 31
0.0
 12
5564.379538460489
 22
826.736329127295
 32
0.0
 13
5564.379538460489
 23
826.736329127295
 33
0.0
  0
SOLID
  5
2E86
330
20E4
100
AcDbEntity
  8
SUNPOU
 62
     0
100
AcDbTrace
 10
5894.379538460489
 20
834.236329127295
 30
0.0
 11
5894.379538460489
 21
819.236329127295
 31
0.0
 12
5939.379538460489
 22
826.736329127295
 32
0.0
 13
5939.379538460489
 23
826.736329127295
 33
0.0
  0
MTEXT
  5
2E87
330
20E4
100
AcDbEntity
  8
SUNPOU
 62
     0
100
AcDbMText
 10
5751.879538460489
 20
875.486329127295
 30
0.0
 40
62.5
 41
0.0
 71
     5
 72
     1
  1
\A1;375
 73
     1
 44
1.0
  0
POINT
  5
2E88
330
20E4
100
AcDbEntity
  8
DEFPOINTS
 62
     0
100
AcDbPoint
 10
5564.379538460489
 20
1152.339951719179
 30
0.0
  0
POINT
  5
2E89
330
20E4
100
AcDbEntity
  8
DEFPOINTS
 62
     0
100
AcDbPoint
 10
5939.379538460489
 20
1152.339951719179
 30
0.0
  0
POINT
  5
2E8A
330
20E4
100
AcDbEntity
  8
DEFPOINTS
 62
     0
100
AcDbPoint
 10
5939.379538460489
 20
826.736329127295
 30
0.0
  0
ENDBLK
  5
20EF
330
20E4
100
AcDbEntity
  8
0
100
AcDbBlockEnd
  0
BLOCK
  5
22D8
330
22CD
100
AcDbEntity
  8
0
100
AcDbBlockBegin
  2
*D44
 70
     1
 10
0.0
 20
0.0
 30
0.0
  3
*D44
  1

  0
LINE
  5
2ADA
330
22CD
100
AcDbEntity
  8
SUNPOU
 62
     0
370
    -2
100
AcDbLine
 10
4698.379538460491
 20
4876.595381053494
 30
0.0
 11
4698.379538460491
 21
4972.85812389247
 31
0.0
  0
LINE
  5
2ADB
330
22CD
100
AcDbEntity
  8
SUNPOU
 62
     0
370
    -2
100
AcDbLine
 10
4718.379538460489
 20
4876.595381053494
 30
0.0
 11
4718.379538460489
 21
4972.85812389247
 31
0.0
  0
LINE
  5
2ADC
330
22CD
100
AcDbEntity
  8
SUNPOU
 62
     0
370
    -2
100
AcDbLine
 10
4653.379538460491
 20
4960.35812389247
 30
0.0
 11
4608.379538460491
 21
4960.35812389247
 31
0.0
  0
LINE
  5
2ADD
330
22CD
100
AcDbEntity
  8
SUNPOU
 62
     0
370
    -2
100
AcDbLine
 10
4763.379538460489
 20
4960.35812389247
 30
0.0
 11
4808.379538460489
 21
4960.35812389247
 31
0.0
  0
MTEXT
  5
2ADE
330
22CD
100
AcDbEntity
  8
SUNPOU
 62
     0
100
AcDbMText
 10
4646.659562013349
 20
5009.10812389247
 30
0.0
 40
62.5
 41
0.0
 71
     5
 72
     1
  1
\A1;20
 73
     1
 44
1.0
  0
SOLID
  5
2ADF
330
22CD
100
AcDbEntity
  8
SUNPOU
 62
     0
100
AcDbTrace
 10
4653.379538460491
 20
4967.85812389247
 30
0.0
 11
4653.379538460491
 21
4952.85812389247
 31
0.0
 12
4698.379538460491
 22
4960.35812389247
 32
0.0
 13
4698.379538460491
 23
4960.35812389247
 33
0.0
  0
SOLID
  5
2AE0
330
22CD
100
AcDbEntity
  8
SUNPOU
 62
     0
100
AcDbTrace
 10
4763.379538460489
 20
4967.85812389247
 30
0.0
 11
4763.379538460489
 21
4952.85812389247
 31
0.0
 12
4718.379538460489
 22
4960.35812389247
 32
0.0
 13
4718.379538460489
 23
4960.35812389247
 33
0.0
  0
POINT
  5
2AE1
330
22CD
100
AcDbEntity
  8
DEFPOINTS
 62
     0
100
AcDbPoint
 10
4698.379538460491
 20
4826.595381053494
 30
0.0
  0
POINT
  5
2AE2
330
22CD
100
AcDbEntity
  8
DEFPOINTS
 62
     0
100
AcDbPoint
 10
4718.379538460489
 20
4826.595381053494
 30
0.0
  0
POINT
  5
2AE3
330
22CD
100
AcDbEntity
  8
DEFPOINTS
 62
     0
100
AcDbPoint
 10
4718.379538460489
 20
4960.35812389247
 30
0.0
  0
ENDBLK
  5
22D9
330
22CD
100
AcDbEntity
  8
0
100
AcDbBlockEnd
  0
BLOCK
  5
22E5
330
22DB
100
AcDbEntity
  8
0
100
AcDbBlockBegin
  2
*D45
 70
     1
 10
0.0
 20
0.0
 30
0.0
  3
*D45
  1

  0
LINE
  5
2AE4
330
22DB
100
AcDbEntity
  8
SUNPOU
 62
     0
370
    -2
100
AcDbLine
 10
4718.379538460489
 20
4876.595381053494
 30
0.0
 11
4718.379538460489
 21
4972.85812389247
 31
0.0
  0
LINE
  5
2AE5
330
22DB
100
AcDbEntity
  8
SUNPOU
 62
     0
370
    -2
100
AcDbLine
 10
4898.379538460491
 20
4876.595381053494
 30
0.0
 11
4898.379538460491
 21
4972.85812389247
 31
0.0
  0
LINE
  5
2AE6
330
22DB
100
AcDbEntity
  8
SUNPOU
 62
     0
370
    -2
100
AcDbLine
 10
4763.379538460489
 20
4960.35812389247
 30
0.0
 11
4853.379538460491
 21
4960.35812389247
 31
0.0
  0
SOLID
  5
2AE7
330
22DB
100
AcDbEntity
  8
SUNPOU
 62
     0
100
AcDbTrace
 10
4763.379538460489
 20
4967.85812389247
 30
0.0
 11
4763.379538460489
 21
4952.85812389247
 31
0.0
 12
4718.379538460489
 22
4960.35812389247
 32
0.0
 13
4718.379538460489
 23
4960.35812389247
 33
0.0
  0
SOLID
  5
2AE8
330
22DB
100
AcDbEntity
  8
SUNPOU
 62
     0
100
AcDbTrace
 10
4853.379538460491
 20
4967.85812389247
 30
0.0
 11
4853.379538460491
 21
4952.85812389247
 31
0.0
 12
4898.379538460491
 22
4960.35812389247
 32
0.0
 13
4898.379538460491
 23
4960.35812389247
 33
0.0
  0
MTEXT
  5
2AE9
330
22DB
100
AcDbEntity
  8
SUNPOU
 62
     0
100
AcDbMText
 10
4808.37953846049
 20
5009.10812389247
 30
0.0
 40
62.5
 41
0.0
 71
     5
 72
     1
  1
\A1;180
 73
     1
 44
1.0
  0
POINT
  5
2AEA
330
22DB
100
AcDbEntity
  8
DEFPOINTS
 62
     0
100
AcDbPoint
 10
4718.379538460489
 20
4826.595381053494
 30
0.0
  0
POINT
  5
2AEB
330
22DB
100
AcDbEntity
  8
DEFPOINTS
 62
     0
100
AcDbPoint
 10
4898.379538460491
 20
4826.595381053494
 30
0.0
  0
POINT
  5
2AEC
330
22DB
100
AcDbEntity
  8
DEFPOINTS
 62
     0
100
AcDbPoint
 10
4898.379538460491
 20
4960.35812389247
 30
0.0
  0
ENDBLK
  5
22E6
330
22DB
100
AcDbEntity
  8
0
100
AcDbBlockEnd
  0
BLOCK
  5
22F3
330
22E8
100
AcDbEntity
  8
0
100
AcDbBlockBegin
  2
*D46
 70
     1
 10
0.0
 20
0.0
 30
0.0
  3
*D46
  1

  0
LINE
  5
2AED
330
22E8
100
AcDbEntity
  8
SUNPOU
 62
     0
370
    -2
100
AcDbLine
 10
4898.379538460491
 20
4876.595381053494
 30
0.0
 11
4898.379538460491
 21
4972.85812389247
 31
0.0
  0
LINE
  5
2AEE
330
22E8
100
AcDbEntity
  8
SUNPOU
 62
     0
370
    -2
100
AcDbLine
 10
4918.37953846049
 20
4876.595381053494
 30
0.0
 11
4918.37953846049
 21
4972.85812389247
 31
0.0
  0
LINE
  5
2AEF
330
22E8
100
AcDbEntity
  8
SUNPOU
 62
     0
370
    -2
100
AcDbLine
 10
4853.379538460491
 20
4960.35812389247
 30
0.0
 11
4808.379538460491
 21
4960.35812389247
 31
0.0
  0
LINE
  5
2AF0
330
22E8
100
AcDbEntity
  8
SUNPOU
 62
     0
370
    -2
100
AcDbLine
 10
4963.37953846049
 20
4960.35812389247
 30
0.0
 11
5008.37953846049
 21
4960.35812389247
 31
0.0
  0
MTEXT
  5
2AF1
330
22E8
100
AcDbEntity
  8
SUNPOU
 62
     0
100
AcDbMText
 10
4964.136398640822
 20
5009.10812389247
 30
0.0
 40
62.5
 41
0.0
 71
     5
 72
     1
  1
\A1;20
 73
     1
 44
1.0
  0
SOLID
  5
2AF2
330
22E8
100
AcDbEntity
  8
SUNPOU
 62
     0
100
AcDbTrace
 10
4853.379538460491
 20
4967.85812389247
 30
0.0
 11
4853.379538460491
 21
4952.85812389247
 31
0.0
 12
4898.379538460491
 22
4960.35812389247
 32
0.0
 13
4898.379538460491
 23
4960.35812389247
 33
0.0
  0
SOLID
  5
2AF3
330
22E8
100
AcDbEntity
  8
SUNPOU
 62
     0
100
AcDbTrace
 10
4963.37953846049
 20
4967.85812389247
 30
0.0
 11
4963.37953846049
 21
4952.85812389247
 31
0.0
 12
4918.37953846049
 22
4960.35812389247
 32
0.0
 13
4918.37953846049
 23
4960.35812389247
 33
0.0
  0
POINT
  5
2AF4
330
22E8
100
AcDbEntity
  8
DEFPOINTS
 62
     0
100
AcDbPoint
 10
4898.379538460491
 20
4826.595381053494
 30
0.0
  0
POINT
  5
2AF5
330
22E8
100
AcDbEntity
  8
DEFPOINTS
 62
     0
100
AcDbPoint
 10
4918.37953846049
 20
4826.595381053494
 30
0.0
  0
POINT
  5
2AF6
330
22E8
100
AcDbEntity
  8
DEFPOINTS
 62
     0
100
AcDbPoint
 10
4918.37953846049
 20
4960.35812389247
 30
0.0
  0
ENDBLK
  5
22F4
330
22E8
100
AcDbEntity
  8
0
100
AcDbBlockEnd
  0
BLOCK
  5
25A0
330
2596
100
AcDbEntity
  8
0
100
AcDbBlockBegin
  2
*D47
 70
     1
 10
0.0
 20
0.0
 30
0.0
  3
*D47
  1

  0
LINE
  5
2945
330
2596
100
AcDbEntity
  8
SUNPOU
 62
     0
370
    -2
100
AcDbLine
 10
945.7910064814278
 20
5712.942962740323
 30
0.0
 11
945.7910064814278
 21
5889.724583807409
 31
0.0
  0
LINE
  5
2946
330
2596
100
AcDbEntity
  8
SUNPOU
 62
     0
370
    -2
100
AcDbLine
 10
1135.791006481428
 20
5712.942962740323
 30
0.0
 11
1135.791006481428
 21
5889.724583807409
 31
0.0
  0
LINE
  5
2947
330
2596
100
AcDbEntity
  8
SUNPOU
 62
     0
370
    -2
100
AcDbLine
 10
990.7910064814278
 20
5877.224583807409
 30
0.0
 11
1090.791006481428
 21
5877.224583807409
 31
0.0
  0
SOLID
  5
2948
330
2596
100
AcDbEntity
  8
SUNPOU
 62
     0
100
AcDbTrace
 10
990.7910064814278
 20
5884.724583807409
 30
0.0
 11
990.7910064814278
 21
5869.724583807409
 31
0.0
 12
945.7910064814278
 22
5877.224583807409
 32
0.0
 13
945.7910064814278
 23
5877.224583807409
 33
0.0
  0
SOLID
  5
2949
330
2596
100
AcDbEntity
  8
SUNPOU
 62
     0
100
AcDbTrace
 10
1090.791006481428
 20
5884.724583807409
 30
0.0
 11
1090.791006481428
 21
5869.724583807409
 31
0.0
 12
1135.791006481428
 22
5877.224583807409
 32
0.0
 13
1135.791006481428
 23
5877.224583807409
 33
0.0
  0
MTEXT
  5
294A
330
2596
100
AcDbEntity
  8
SUNPOU
 62
     0
100
AcDbMText
 10
1040.791006481428
 20
5925.974583807409
 30
0.0
 40
62.5
 41
0.0
 71
     5
 72
     1
  1
\A1;190
 73
     1
 44
1.0
  0
POINT
  5
294B
330
2596
100
AcDbEntity
  8
DEFPOINTS
 62
     0
100
AcDbPoint
 10
945.7910064814278
 20
5662.942962740323
 30
0.0
  0
POINT
  5
294C
330
2596
100
AcDbEntity
  8
DEFPOINTS
 62
     0
100
AcDbPoint
 10
1135.791006481428
 20
5662.942962740323
 30
0.0
  0
POINT
  5
294D
330
2596
100
AcDbEntity
  8
DEFPOINTS
 62
     0
100
AcDbPoint
 10
1135.791006481428
 20
5877.224583807409
 30
0.0
  0
ENDBLK
  5
25A1
330
2596
100
AcDbEntity
  8
0
100
AcDbBlockEnd
  0
BLOCK
  5
25AE
330
25A3
100
AcDbEntity
  8
0
100
AcDbBlockBegin
  2
*D48
 70
     1
 10
0.0
 20
0.0
 30
0.0
  3
*D48
  1

  0
LINE
  5
294E
330
25A3
100
AcDbEntity
  8
SUNPOU
 62
     0
370
    -2
100
AcDbLine
 10
1135.791006481428
 20
5712.942962740323
 30
0.0
 11
1135.791006481428
 21
5889.724583807409
 31
0.0
  0
LINE
  5
294F
330
25A3
100
AcDbEntity
  8
SUNPOU
 62
     0
370
    -2
100
AcDbLine
 10
1205.791006481428
 20
5562.942962740322
 30
0.0
 11
1205.791006481428
 21
5889.724583807409
 31
0.0
  0
LINE
  5
2950
330
25A3
100
AcDbEntity
  8
SUNPOU
 62
     0
370
    -2
100
AcDbLine
 10
1090.791006481428
 20
5877.224583807409
 30
0.0
 11
1045.791006481428
 21
5877.224583807409
 31
0.0
  0
LINE
  5
2951
330
25A3
100
AcDbEntity
  8
SUNPOU
 62
     0
370
    -2
100
AcDbLine
 10
1250.791006481428
 20
5877.224583807409
 30
0.0
 11
1295.791006481428
 21
5877.224583807409
 31
0.0
  0
SOLID
  5
2952
330
25A3
100
AcDbEntity
  8
SUNPOU
 62
     0
100
AcDbTrace
 10
1090.791006481428
 20
5884.724583807409
 30
0.0
 11
1090.791006481428
 21
5869.724583807409
 31
0.0
 12
1135.791006481428
 22
5877.224583807409
 32
0.0
 13
1135.791006481428
 23
5877.224583807409
 33
0.0
  0
SOLID
  5
2953
330
25A3
100
AcDbEntity
  8
SUNPOU
 62
     0
100
AcDbTrace
 10
1250.791006481428
 20
5884.724583807409
 30
0.0
 11
1250.791006481428
 21
5869.724583807409
 31
0.0
 12
1205.791006481428
 22
5877.224583807409
 32
0.0
 13
1205.791006481428
 23
5877.224583807409
 33
0.0
  0
MTEXT
  5
2954
330
25A3
100
AcDbEntity
  8
SUNPOU
 62
     0
100
AcDbMText
 10
1170.791006481428
 20
5925.974583807409
 30
0.0
 40
62.5
 41
0.0
 71
     5
 72
     1
  1
\A1;70
 73
     1
 44
1.0
  0
POINT
  5
2955
330
25A3
100
AcDbEntity
  8
DEFPOINTS
 62
     0
100
AcDbPoint
 10
1135.791006481428
 20
5662.942962740323
 30
0.0
  0
POINT
  5
2956
330
25A3
100
AcDbEntity
  8
DEFPOINTS
 62
     0
100
AcDbPoint
 10
1205.791006481428
 20
5512.942962740322
 30
0.0
  0
POINT
  5
2957
330
25A3
100
AcDbEntity
  8
DEFPOINTS
 62
     0
100
AcDbPoint
 10
1205.791006481428
 20
5877.224583807409
 30
0.0
  0
ENDBLK
  5
25AF
330
25A3
100
AcDbEntity
  8
0
100
AcDbBlockEnd
  0
BLOCK
  5
2C1A
330
2C10
100
AcDbEntity
  8
0
100
AcDbBlockBegin
  2
*D49
 70
     1
 10
0.0
 20
0.0
 30
0.0
  3
*D49
  1

  0
LINE
  5
2E8B
330
2C10
100
AcDbEntity
  8
SUNPOU
 62
     0
370
    -2
100
AcDbLine
 10
1455.791006481429
 20
2999.052181036989
 30
0.0
 11
989.2277716675237
 21
2999.05218103699
 31
0.0
  0
LINE
  5
2E8C
330
2C10
100
AcDbEntity
  8
SUNPOU
 62
     0
370
    -2
100
AcDbLine
 10
1455.791006481428
 20
1499.05218103699
 30
0.0
 11
989.2277716675234
 21
1499.05218103699
 31
0.0
  0
LINE
  5
2E8D
330
2C10
100
AcDbEntity
  8
SUNPOU
 62
     0
370
    -2
100
AcDbLine
 10
1001.727771667524
 20
2954.05218103699
 30
0.0
 11
1001.727771667523
 21
1544.05218103699
 31
0.0
  0
SOLID
  5
2E8E
330
2C10
100
AcDbEntity
  8
SUNPOU
 62
     0
100
AcDbTrace
 10
994.2277716675237
 20
2954.05218103699
 30
0.0
 11
1009.227771667524
 21
2954.05218103699
 31
0.0
 12
1001.727771667524
 22
2999.05218103699
 32
0.0
 13
1001.727771667524
 23
2999.05218103699
 33
0.0
  0
SOLID
  5
2E8F
330
2C10
100
AcDbEntity
  8
SUNPOU
 62
     0
100
AcDbTrace
 10
994.2277716675234
 20
1544.05218103699
 30
0.0
 11
1009.227771667523
 21
1544.05218103699
 31
0.0
 12
1001.727771667523
 22
1499.05218103699
 32
0.0
 13
1001.727771667523
 23
1499.05218103699
 33
0.0
  0
MTEXT
  5
2E90
330
2C10
100
AcDbEntity
  8
SUNPOU
 62
     0
100
AcDbMText
 10
952.9777716675231
 20
2249.05218103699
 30
0.0
 40
62.5
 41
0.0
 71
     5
 72
     1
  1
\A1;1500
 11
6.123031769111886E-17
 21
1.0
 31
0.0
 73
     1
 44
1.0
  0
POINT
  5
2E91
330
2C10
100
AcDbEntity
  8
DEFPOINTS
 62
     0
100
AcDbPoint
 10
1505.791006481429
 20
2999.052181036989
 30
0.0
  0
POINT
  5
2E92
330
2C10
100
AcDbEntity
  8
DEFPOINTS
 62
     0
100
AcDbPoint
 10
1505.791006481428
 20
1499.05218103699
 30
0.0
  0
POINT
  5
2E93
330
2C10
100
AcDbEntity
  8
DEFPOINTS
 62
     0
100
AcDbPoint
 10
1001.727771667523
 20
1499.05218103699
 30
0.0
  0
ENDBLK
  5
2C1B
330
2C10
100
AcDbEntity
  8
0
100
AcDbBlockEnd
  0
BLOCK
  5
2C31
330
2C27
100
AcDbEntity
  8
0
100
AcDbBlockBegin
  2
*D50
 70
     1
 10
0.0
 20
0.0
 30
0.0
  3
*D50
  1

  0
LINE
  5
2E94
330
2C27
100
AcDbEntity
  8
SUNPOU
 62
     0
370
    -2
100
AcDbLine
 10
1505.791006481428
 20
1449.05218103699
 30
0.0
 11
1505.791006481428
 21
980.3713626865829
 31
0.0
  0
LINE
  5
2E95
330
2C27
100
AcDbEntity
  8
SUNPOU
 62
     0
370
    -2
100
AcDbLine
 10
2975.791006481427
 20
1473.683837300018
 30
0.0
 11
2975.791006481427
 21
980.3713626865829
 31
0.0
  0
LINE
  5
2E96
330
2C27
100
AcDbEntity
  8
SUNPOU
 62
     0
370
    -2
100
AcDbLine
 10
1550.791006481428
 20
992.8713626865829
 30
0.0
 11
2930.791006481427
 21
992.8713626865829
 31
0.0
  0
SOLID
  5
2E97
330
2C27
100
AcDbEntity
  8
SUNPOU
 62
     0
100
AcDbTrace
 10
1550.791006481428
 20
1000.371362686583
 30
0.0
 11
1550.791006481428
 21
985.3713626865829
 31
0.0
 12
1505.791006481428
 22
992.8713626865829
 32
0.0
 13
1505.791006481428
 23
992.8713626865829
 33
0.0
  0
SOLID
  5
2E98
330
2C27
100
AcDbEntity
  8
SUNPOU
 62
     0
100
AcDbTrace
 10
2930.791006481427
 20
1000.371362686583
 30
0.0
 11
2930.791006481427
 21
985.3713626865829
 31
0.0
 12
2975.791006481427
 22
992.8713626865829
 32
0.0
 13
2975.791006481427
 23
992.8713626865829
 33
0.0
  0
MTEXT
  5
2E99
330
2C27
100
AcDbEntity
  8
SUNPOU
 62
     0
100
AcDbMText
 10
2240.791006481427
 20
1041.621362686583
 30
0.0
 40
62.5
 41
0.0
 71
     5
 72
     1
  1
\A1;1470
 73
     1
 44
1.0
  0
POINT
  5
2E9A
330
2C27
100
AcDbEntity
  8
DEFPOINTS
 62
     0
100
AcDbPoint
 10
1505.791006481428
 20
1499.05218103699
 30
0.0
  0
POINT
  5
2E9B
330
2C27
100
AcDbEntity
  8
DEFPOINTS
 62
     0
100
AcDbPoint
 10
2975.791006481427
 20
1523.683837300018
 30
0.0
  0
POINT
  5
2E9C
330
2C27
100
AcDbEntity
  8
DEFPOINTS
 62
     0
100
AcDbPoint
 10
2975.791006481427
 20
992.8713626865829
 30
0.0
  0
ENDBLK
  5
2C32
330
2C27
100
AcDbEntity
  8
0
100
AcDbBlockEnd
  0
BLOCK
  5
2CE8
330
2CDE
100
AcDbEntity
  8
0
100
AcDbBlockBegin
  2
*D51
 70
     1
 10
0.0
 20
0.0
 30
0.0
  3
*D51
  1

  0
LINE
  5
2E9D
330
2CDE
100
AcDbEntity
  8
SUNPOU
 62
     0
370
    -2
100
AcDbLine
 10
3025.791006481427
 20
1523.683837300018
 30
0.0
 11
3321.78212944093
 21
1523.683837300018
 31
0.0
  0
LINE
  5
2E9E
330
2CDE
100
AcDbEntity
  8
SUNPOU
 62
     0
370
    -2
100
AcDbLine
 10
3025.791006481429
 20
2974.42052477396
 30
0.0
 11
3321.78212944093
 21
2974.42052477396
 31
0.0
  0
LINE
  5
2E9F
330
2CDE
100
AcDbEntity
  8
SUNPOU
 62
     0
370
    -2
100
AcDbLine
 10
3309.28212944093
 20
1568.683837300018
 30
0.0
 11
3309.28212944093
 21
2929.42052477396
 31
0.0
  0
SOLID
  5
2EA0
330
2CDE
100
AcDbEntity
  8
SUNPOU
 62
     0
100
AcDbTrace
 10
3301.78212944093
 20
1568.683837300018
 30
0.0
 11
3316.78212944093
 21
1568.683837300018
 31
0.0
 12
3309.28212944093
 22
1523.683837300018
 32
0.0
 13
3309.28212944093
 23
1523.683837300018
 33
0.0
  0
SOLID
  5
2EA1
330
2CDE
100
AcDbEntity
  8
SUNPOU
 62
     0
100
AcDbTrace
 10
3301.78212944093
 20
2929.42052477396
 30
0.0
 11
3316.78212944093
 21
2929.42052477396
 31
0.0
 12
3309.28212944093
 22
2974.42052477396
 32
0.0
 13
3309.28212944093
 23
2974.42052477396
 33
0.0
  0
MTEXT
  5
2EA2
330
2CDE
100
AcDbEntity
  8
SUNPOU
 62
     0
100
AcDbMText
 10
3260.53212944093
 20
2249.052181036989
 30
0.0
 40
62.5
 41
0.0
 71
     5
 72
     1
  1
\A1;1451
 11
6.123031769111886E-17
 21
1.0
 31
0.0
 73
     1
 44
1.0
  0
POINT
  5
2EA3
330
2CDE
100
AcDbEntity
  8
DEFPOINTS
 62
     0
100
AcDbPoint
 10
2975.791006481427
 20
1523.683837300018
 30
0.0
  0
POINT
  5
2EA4
330
2CDE
100
AcDbEntity
  8
DEFPOINTS
 62
     0
100
AcDbPoint
 10
2975.791006481429
 20
2974.42052477396
 30
0.0
  0
POINT
  5
2EA5
330
2CDE
100
AcDbEntity
  8
DEFPOINTS
 62
     0
100
AcDbPoint
 10
3309.28212944093
 20
2974.42052477396
 30
0.0
  0
ENDBLK
  5
2CE9
330
2CDE
100
AcDbEntity
  8
0
100
AcDbBlockEnd
  0
ENDSEC
  0
SECTION
  2
ENTITIES
  0
LINE
  5
22F
330
18
100
AcDbEntity
  8
SEIHIN
 48
2.0
100
AcDbLine
 10
5189.379538460489
 20
1342.339951719179
 30
0.0
 11
5939.379538460489
 21
1342.339951719179
 31
0.0
  0
LINE
  5
230
330
18
100
AcDbEntity
  8
SEIHIN
 48
2.0
100
AcDbLine
 10
5189.379538460489
 20
1412.339951719179
 30
0.0
 11
5939.379538460489
 21
1412.339951719179
 31
0.0
  0
LWPOLYLINE
  5
245
330
18
100
AcDbEntity
  8
SEIHIN
100
AcDbPolyline
 90
        2
 70
     0
 43
0.0
 10
4439.379538460489
 20
2712.339951719179
 10
5939.379538460489
 20
2712.339951719179
  0
LWPOLYLINE
  5
249
330
18
100
AcDbEntity
  8
SEIHIN
 48
2.0
100
AcDbPolyline
 90
        2
 70
     0
 43
0.0
 10
4441.999927424641
 20
2762.339951719179
 10
5936.759149496337
 20
2762.339951719179
  0
LINE
  5
24D
330
18
100
AcDbEntity
  8
SEIHIN
  6
DASHED2
 62
     7
 48
2.0
100
AcDbLine
 10
5665.889605574583
 20
2412.339951719179
 30
0.0
 11
5462.869471346396
 21
2412.339951719179
 31
0.0
  0
LINE
  5
24E
330
18
100
AcDbEntity
  8
SEIHIN
  6
DASHED2
 62
     7
 48
2.0
100
AcDbLine
 10
4915.889605574583
 20
2412.339951719179
 30
0.0
 11
4712.869471346396
 21
2412.339951719179
 31
0.0
  0
LINE
  5
260
330
18
100
AcDbEntity
  8
SEIHIN
100
AcDbLine
 10
5183.379538460489
 20
4352.942962740322
 30
0.0
 11
5933.379538460489
 21
4352.942962740322
 31
0.0
  0
LINE
  5
276
330
18
100
AcDbEntity
  8
SEIHIN
  6
DASHED2
 62
     1
 48
2.0
100
AcDbLine
 10
5648.379538460488
 20
5346.931397962162
 30
0.0
 11
5468.379538460488
 21
5346.931397962163
 31
0.0
  0
LWPOLYLINE
  5
277
330
18
100
AcDbEntity
  8
SEIHIN
100
AcDbPolyline
 90
        4
 70
     0
 43
0.0
 10
5183.379538460486
 20
5442.942962740323
 10
5500.529538460486
 20
5442.942962740323
 10
5448.379538460488
 20
5428.939539984622
 10
5183.379538460487
 20
5428.939539984622
  0
LINE
  5
27D
330
18
100
AcDbEntity
  8
SEIHIN
100
AcDbLine
 10
5503.379538460488
 20
5412.942962740321
 30
0.0
 11
5468.379538460488
 21
5346.931397962164
 31
0.0
  0
LINE
  5
27E
330
18
100
AcDbEntity
  8
SEIHIN
100
AcDbLine
 10
5613.379538460488
 20
5412.942962740325
 30
0.0
 11
5648.379538460488
 21
5346.931397962163
 31
0.0
  0
LINE
  5
27F
330
18
100
AcDbEntity
  8
SEIHIN
100
AcDbLine
 10
5503.379538460488
 20
5412.942962740322
 30
0.0
 11
5500.529538460488
 21
5442.942962740323
 31
0.0
  0
LINE
  5
280
330
18
100
AcDbEntity
  8
SEIHIN
100
AcDbLine
 10
5613.379538460488
 20
5412.942962740322
 30
0.0
 11
5503.379538460488
 21
5412.942962740322
 31
0.0
  0
LINE
  5
281
330
18
100
AcDbEntity
  8
SEIHIN
100
AcDbLine
 10
5616.229538460491
 20
5442.942962740322
 30
0.0
 11
5613.379538460488
 21
5412.942962740322
 31
0.0
  0
LWPOLYLINE
  5
28A
330
18
100
AcDbEntity
  8
SEIHIN
100
AcDbPolyline
 90
        4
 70
     0
 43
0.0
 10
5933.379538460489
 20
5442.942962740323
 10
5616.229538460489
 20
5442.942962740323
 10
5668.379538460489
 20
5428.939539984622
 10
5933.37953846049
 20
5428.939539984622
  0
LINE
  5
290
330
18
100
AcDbEntity
  8
SEIHIN
  6
DASHED2
 62
     1
 48
2.0
100
AcDbLine
 10
5468.379538460488
 20
5117.416342825345
 30
0.0
 11
5648.379538460488
 21
5117.416342825345
 31
0.0
  0
LINE
  5
291
330
18
100
AcDbEntity
  8
SEIHIN
  6
DASHED2
 62
     1
 48
2.0
100
AcDbLine
 10
5648.379538460491
 20
4576.595381053494
 30
0.0
 11
5468.379538460489
 21
4576.595381053494
 31
0.0
  0
DIMENSION
  5
2B9
330
18
100
AcDbEntity
  8
SUNPOU
100
AcDbDimension
  2
*D23
 10
545.8532480118956
 20
5512.942962740323
 30
0.0
 11
497.1032480118947
 21
5587.942962740323
 31
0.0
 70
    32
 71
     5
 42
150.0
  3
A3-25
100
AcDbAlignedDimension
 13
945.7910064814278
 23
5662.942962740323
 33
0.0
 14
945.7910064814278
 24
5512.942962740323
 34
0.0
 50
90.0
100
AcDbRotatedDimension
  0
DIMENSION
  5
2BB
330
18
100
AcDbEntity
  8
SUNPOU
100
AcDbDimension
  2
*D26
 10
1205.791006481429
 20
6002.361676334696
 30
0.0
 11
1075.791006481428
 21
6051.111676334696
 31
0.0
 70
    32
 71
     5
 42
260.0000000000009
  3
A3-25
100
AcDbAlignedDimension
 13
945.7910064814278
 23
5662.942962740323
 33
0.0
 14
1205.791006481429
 24
5662.942962740323
 34
0.0
100
AcDbRotatedDimension
  0
DIMENSION
  5
2BC
330
18
100
AcDbEntity
  8
SUNPOU
100
AcDbDimension
  2
*D22
 10
2505.791006481428
 20
6002.361676334696
 30
0.0
 11
1855.791006481428
 21
6051.111676334696
 31
0.0
 70
    32
 71
     5
 42
1300.0
  3
A3-25
100
AcDbAlignedDimension
 13
1205.791006481428
 23
5662.942962740323
 33
0.0
 14
2505.791006481428
 24
5512.942962740322
 34
0.0
100
AcDbRotatedDimension
  0
DIMENSION
  5
2BF
330
18
100
AcDbEntity
  8
SUNPOU
100
AcDbDimension
  2
*D8
 10
4439.379538460489
 20
654.7220013012329
 30
0.0
 11
5189.379538460489
 21
703.4720013012329
 31
0.0
 70
    32
 71
     5
 42
1500.0
  3
A3-25
100
AcDbAlignedDimension
 13
5939.379538460489
 23
1152.339951719179
 33
0.0
 14
4439.379538460489
 24
1152.339951719179
 34
0.0
 50
180.0
100
AcDbRotatedDimension
  0
DIMENSION
  5
2C0
330
18
100
AcDbEntity
  8
SUNPOU
100
AcDbDimension
  2
*D9
 10
4814.379538460489
 20
826.736329127295
 30
0.0
 11
5001.879538460489
 21
875.486329127295
 31
0.0
 70
    32
 71
     5
 42
375.0
  3
A3-25
100
AcDbAlignedDimension
 13
5189.379538460489
 23
1152.339951719179
 33
0.0
 14
4814.379538460489
 24
1152.339951719179
 34
0.0
 50
180.0
100
AcDbRotatedDimension
  0
DIMENSION
  5
2C1
330
18
100
AcDbEntity
  8
SUNPOU
100
AcDbDimension
  2
*D10
 10
4439.379538460489
 20
826.736329127295
 30
0.0
 11
4626.879538460489
 21
875.486329127295
 31
0.0
 70
    32
 71
     5
 42
375.0
  3
A3-25
100
AcDbAlignedDimension
 13
4814.379538460489
 23
1152.339951719179
 33
0.0
 14
4439.379538460489
 24
1152.339951719179
 34
0.0
 50
180.0
100
AcDbRotatedDimension
  0
LWPOLYLINE
  5
2C2
330
18
100
AcDbEntity
  8
SEIHIN
  6
DASHED2
 62
     7
 48
2.0
100
AcDbPolyline
 90
        4
 70
     0
 43
0.0
 10
995.7910064814278
 20
5662.942962740321
 10
1005.791006481428
 20
5462.942962740321
 10
1085.791006481428
 20
5462.942962740321
 10
1095.791006481428
 20
5662.942962740321
  0
DIMENSION
  5
2C9
330
18
100
AcDbEntity
  8
SUNPOU
100
AcDbDimension
  2
*D27
 10
4031.723995205153
 20
5512.942962740322
 30
0.0
 11
3982.973995205152
 21
5587.942962740323
 31
0.0
 70
    32
 71
     5
 42
150.0
  3
A3-25
100
AcDbAlignedDimension
 13
4439.379538460489
 23
5662.942962740322
 33
0.0
 14
4439.379538460489
 24
5512.942962740322
 34
0.0
 50
90.0
100
AcDbRotatedDimension
  0
DIMENSION
  5
2CA
330
18
100
AcDbEntity
  8
SUNPOU
100
AcDbDimension
  2
*D28
 10
4031.723995205153
 20
4262.942962740322
 30
0.0
 11
3982.973995205153
 21
4887.942962740323
 31
0.0
 70
    32
 71
     5
 42
1250.0
  3
A3-25
100
AcDbAlignedDimension
 13
4439.379538460489
 23
5512.942962740322
 33
0.0
 14
4433.379538460489
 24
4262.942962740322
 34
0.0
 50
90.0
100
AcDbRotatedDimension
  0
DIMENSION
  5
2CB
330
18
100
AcDbEntity
  8
SUNPOU
100
AcDbDimension
  2
*D29
 10
5933.37953846049
 20
6101.803181454855
 30
0.0
 11
5183.379538460489
 21
6150.553181454855
 31
0.0
 70
    32
 71
     5
 42
1500.000000000001
  3
A3-25
100
AcDbAlignedDimension
 13
4433.379538460489
 23
5662.942962740323
 33
0.0
 14
5933.37953846049
 24
5662.942962740323
 34
0.0
100
AcDbRotatedDimension
  0
DIMENSION
  5
2CC
330
18
100
AcDbEntity
  8
SUNPOU
100
AcDbDimension
  2
*D30
 10
4808.379538460489
 20
5950.003290021762
 30
0.0
 11
4620.879538460489
 21
5998.753290021762
 31
0.0
 70
    32
 71
     5
 42
375.0
  3
A3-25
100
AcDbAlignedDimension
 13
4433.379538460489
 23
5662.942962740323
 33
0.0
 14
4808.379538460489
 24
5662.942962740323
 34
0.0
100
AcDbRotatedDimension
  0
DIMENSION
  5
2CD
330
18
100
AcDbEntity
  8
SUNPOU
100
AcDbDimension
  2
*D31
 10
5558.379538460489
 20
5950.003290021762
 30
0.0
 11
5183.379538460489
 21
5998.753290021762
 31
0.0
 70
    32
 71
     5
 42
750.0
  3
A3-25
100
AcDbAlignedDimension
 13
4808.379538460489
 23
5662.942962740323
 33
0.0
 14
5558.379538460489
 24
5662.942962740323
 34
0.0
100
AcDbRotatedDimension
  0
DIMENSION
  5
2CE
330
18
100
AcDbEntity
  8
SUNPOU
100
AcDbDimension
  2
*D32
 10
5933.379538460489
 20
5950.003290021762
 30
0.0
 11
5745.879538460489
 21
5998.753290021762
 31
0.0
 70
    32
 71
     5
 42
375.0
  3
A3-25
100
AcDbAlignedDimension
 13
5558.379538460489
 23
5662.942962740323
 33
0.0
 14
5933.379538460489
 24
5662.942962740323
 34
0.0
100
AcDbRotatedDimension
  0
LWPOLYLINE
  5
2D9
330
18
100
AcDbEntity
  8
SEIHIN
100
AcDbPolyline
 90
        2
 70
     0
 43
0.0
 10
5468.379538460488
 20
5346.931397962164
 10
5468.379538460487
 20
4576.595381053494
  0
LWPOLYLINE
  5
2DD
330
18
100
AcDbEntity
  8
SEIHIN
100
AcDbPolyline
 90
        2
 70
     0
 43
0.0
 10
5648.379538460488
 20
5346.931397962164
 10
5648.379538460489
 20
4576.595381053494
  0
LINE
  5
2E1
330
18
100
AcDbEntity
  8
SEIHIN
100
AcDbLine
 10
5468.379538460487
 20
4576.595381053494
 30
0.0
 11
5478.879538460489
 21
4361.475497653384
 31
0.0
  0
LINE
  5
2E2
330
18
100
AcDbEntity
  8
SEIHIN
100
AcDbLine
 10
5648.379538460488
 20
4576.595381053494
 30
0.0
 11
5637.87953846049
 21
4361.475497653384
 31
0.0
  0
DIMENSION
  5
2FD
330
18
100
AcDbEntity
  8
SUNPOU
100
AcDbDimension
  2
*D11
 10
6329.246215637727
 20
1412.339951719179
 30
0.0
 11
6280.496215637727
 21
1282.33995171918
 31
0.0
 70
    32
 71
     5
 42
260.0
  3
A3-25
100
AcDbAlignedDimension
 13
5939.379538460489
 23
1152.339951719179
 33
0.0
 14
5939.379538460489
 24
1412.339951719179
 34
0.0
 50
90.0
100
AcDbRotatedDimension
  0
DIMENSION
  5
2FE
330
18
100
AcDbEntity
  8
SUNPOU
100
AcDbDimension
  2
*D12
 10
6199.109341828928
 20
1342.339951719179
 30
0.0
 11
6150.359341828928
 21
1247.33995171918
 31
0.0
 70
    32
 71
     5
 42
190.0
  3
A3-25
100
AcDbAlignedDimension
 13
5939.379538460489
 23
1152.339951719179
 33
0.0
 14
5939.379538460489
 24
1342.339951719179
 34
0.0
 50
90.0
100
AcDbRotatedDimension
  0
CIRCLE
  5
2FF
330
18
100
AcDbEntity
  8
SEIHIN
100
AcDbCircle
 10
5189.379538460489
 20
1447.339951719179
 30
0.0
 40
11.0
  0
CIRCLE
  5
30C
330
18
100
AcDbEntity
  8
SEIHIN
100
AcDbCircle
 10
5183.37953846049
 20
4712.942962740322
 30
0.0
 40
60.0
  0
CIRCLE
  5
30D
330
18
100
AcDbEntity
  8
SEIHIN
100
AcDbCircle
 10
5183.37953846049
 20
4712.942962740322
 30
0.0
 40
40.0
  0
CIRCLE
  5
30F
330
18
100
AcDbEntity
  8
SUNPOU
100
AcDbCircle
 10
5403.37953846049
 20
5142.942962740322
 30
0.0
 40
11.0
  0
DIMENSION
  5
319
330
18
100
AcDbEntity
  8
SUNPOU
100
AcDbDimension
  2
*D4
 10
2975.791006481422
 20
6129.683947939122
 30
0.0
 11
2740.791006481425
 21
6178.433947939122
 31
0.0
 70
    32
 71
     5
 42
469.9999999999945
  3
A3-25
100
AcDbAlignedDimension
 13
2505.791006481428
 23
5512.942962740322
 33
0.0
 14
2975.791006481422
 24
5512.942962740322
 34
0.0
100
AcDbRotatedDimension
  0
DIMENSION
  5
3B3
330
18
100
AcDbEntity
  8
SUNPOU
100
AcDbDimension
  2
*D24
 10
545.8532480118955
 20
4262.942962740322
 30
0.0
 11
497.1032480118949
 21
4887.942962740322
 31
0.0
 70
    32
 71
     5
 42
1250.000000000001
  3
A3-25
100
AcDbAlignedDimension
 13
945.7910064814278
 23
5512.942962740323
 33
0.0
 14
1505.791006481428
 24
4262.942962740322
 34
0.0
 50
90.0
100
AcDbRotatedDimension
  0
LINE
  5
3B4
330
18
100
AcDbEntity
  8
1HASEN
 48
2.0
100
AcDbLine
 10
5189.379538460489
 20
1062.370372417473
 30
0.0
 11
5189.379538460489
 21
3275.262490801215
 31
0.0
  0
LINE
  5
441
330
18
100
AcDbEntity
  8
1HASEN
100
AcDbLine
 10
1369.046998081823
 20
2249.052181036989
 30
0.0
 11
3066.209104411944
 21
2249.052181036988
 31
0.0
  0
DIMENSION
  5
449
330
18
100
AcDbEntity
  8
SUNPOU
100
AcDbDimension
  2
*D13
 10
2205.791006481429
 20
1145.023809064085
 30
0.0
 11
1855.791006481429
 21
1193.773809064085
 31
0.0
 70
    32
 71
     5
 42
700.0
  3
A3-25
100
AcDbAlignedDimension
 13
1505.791006481429
 23
1499.052181036989
 33
0.0
 14
2205.791006481429
 24
1499.052181036989
 34
0.0
100
AcDbRotatedDimension
  0
LINE
  5
44C
330
18
100
AcDbEntity
  8
SEIHIN
  6
DASHED2
 62
     7
 48
2.0
100
AcDbLine
 10
2205.791006481429
 20
2522.542113922896
 30
0.0
 11
2205.791006481429
 21
2725.562248151084
 31
0.0
  0
LWPOLYLINE
  5
44D
330
18
100
AcDbEntity
  8
SEIHIN
  6
DASHED2
 62
     7
 48
2.0
100
AcDbPolyline
 90
        2
 70
     0
 43
0.0
 10
2505.791006481429
 20
2999.052181036989
 10
2505.791006481428
 20
1499.052181036989
  0
LINE
  5
451
330
18
100
AcDbEntity
  8
1HASEN
100
AcDbLine
 10
5183.379538460489
 20
5757.450214488154
 30
0.0
 11
5183.379538460489
 21
4156.659003119675
 31
0.0
  0
LWPOLYLINE
  5
46A
330
18
100
AcDbEntity
  8
SEIHIN
  6
DASHED2
 62
     7
 48
2.0
100
AcDbPolyline
 90
        3
 70
     0
 43
0.0
 10
5273.379538460489
 20
5662.942962740323
 10
5263.379538460488
 20
5462.942962740323
 10
5183.379538460489
 20
5462.942962740323
  0
DIMENSION
  5
48B
330
18
100
AcDbEntity
  8
SUNPOU
100
AcDbDimension
  2
*D16
 10
2505.791006481429
 20
1145.023809064085
 30
0.0
 11
2355.791006481429
 21
1193.773809064085
 31
0.0
 70
    32
 71
     5
 42
300.0
  3
A3-25
100
AcDbAlignedDimension
 13
2205.791006481429
 23
1499.052181036989
 33
0.0
 14
2505.791006481429
 24
1499.052181036989
 34
0.0
100
AcDbRotatedDimension
  0
DIMENSION
  5
48C
330
18
100
AcDbEntity
  8
SUNPOU
100
AcDbDimension
  2
*D5
 10
2975.791006481427
 20
1145.023809064085
 30
0.0
 11
2740.791006481428
 21
1193.773809064085
 31
0.0
 70
    32
 71
     5
 42
469.9999999999982
  3
A3-25
100
AcDbAlignedDimension
 13
2505.791006481429
 23
1499.052181036989
 33
0.0
 14
2975.791006481427
 24
1523.683837300018
 34
0.0
100
AcDbRotatedDimension
  0
LWPOLYLINE
  5
48F
330
18
100
AcDbEntity
  8
SEIHIN
  6
DASHED2
 62
     7
 48
2.0
100
AcDbPolyline
 90
        6
 70
     0
 43
0.0
 10
2435.791006481429
 20
2999.052181036989
 10
2435.791006481429
 20
2734.052181036989
 10
1770.791006481427
 20
2709.505201171218
 10
1770.791006481427
 20
2538.599160902761
 10
2435.791006481429
 20
2514.052181036989
 10
2435.791006481429
 20
2249.052181036989
  0
LWPOLYLINE
  5
497
330
18
100
AcDbEntity
  8
SEIHIN
  6
DASHED2
 62
     7
 48
2.0
100
AcDbPolyline
 90
        6
 70
     0
 43
0.0
 10
2435.791006481428
 20
1499.052181036989
 10
2435.791006481428
 20
1764.052181036989
 10
1770.791006481426
 20
1788.599160902761
 10
1770.791006481426
 20
1959.505201171217
 10
2435.791006481428
 20
1984.052181036989
 10
2435.791006481429
 20
2249.052181036989
  0
DIMENSION
  5
547
330
18
100
AcDbEntity
  8
SUNPOU
100
AcDbDimension
  2
*D25
 10
413.6909928315654
 20
5662.942962740323
 30
0.0
 11
364.9409928315644
 21
4962.942962740322
 31
0.0
 70
    32
 71
     5
 42
1400.000000000001
  3
A3-25
100
AcDbAlignedDimension
 13
1505.791006481428
 23
4262.942962740322
 33
0.0
 14
945.7910064814278
 24
5662.942962740323
 34
0.0
 50
90.0
100
AcDbRotatedDimension
  0
DIMENSION
  5
63C
330
18
100
AcDbEntity
  8
SUNPOU
100
AcDbDimension
  2
*D17
 10
6199.109341828928
 20
1412.339951719179
 30
0.0
 11
6150.359341828928
 21
1377.33995171918
 31
0.0
 70
    32
 71
     5
 42
70.0
  3
A3-25
100
AcDbAlignedDimension
 13
5939.379538460489
 23
1342.339951719179
 33
0.0
 14
5939.379538460489
 24
1412.339951719179
 34
0.0
 50
90.0
100
AcDbRotatedDimension
  0
LINE
  5
673
330
18
100
AcDbEntity
  8
SEIHIN
  6
DASHED2
 62
     1
 48
2.0
100
AcDbLine
 10
5448.379538460488
 20
4576.595381053496
 30
0.0
 11
5183.379538460489
 21
4576.595381053496
 31
0.0
  0
LINE
  5
674
330
18
100
AcDbEntity
  8
SEIHIN
  6
DASHED2
 62
     1
 48
2.0
100
AcDbLine
 10
5668.379538460487
 20
4576.595381053498
 30
0.0
 11
5933.379538460489
 21
4576.595381053498
 31
0.0
  0
DIMENSION
  5
680
330
18
100
AcDbEntity
  8
SUNPOU
100
AcDbDimension
  2
*D20
 10
2435.791006481429
 20
1282.300613438609
 30
0.0
 11
2320.791006481429
 21
1331.050613438609
 31
0.0
 70
    32
 71
     5
 42
230.0
  3
A3-25
100
AcDbAlignedDimension
 13
2205.791006481429
 23
1499.052181036989
 33
0.0
 14
2435.791006481429
 24
1499.052181036989
 34
0.0
100
AcDbRotatedDimension
  0
DIMENSION
  5
681
330
18
100
AcDbEntity
  8
SUNPOU
100
AcDbDimension
  2
*D21
 10
2505.791006481429
 20
1282.300613438609
 30
0.0
 11
2470.791006481429
 21
1331.050613438609
 31
0.0
 70
    32
 71
     5
 42
70.0
  3
A3-25
100
AcDbAlignedDimension
 13
2435.791006481429
 23
1499.052181036989
 33
0.0
 14
2505.791006481429
 24
1499.052181036989
 34
0.0
100
AcDbRotatedDimension
  0
INSERT
  5
75F
330
18
100
AcDbEntity
  8
SEIHIN
100
AcDbBlockReference
  2
FGG
 10
5933.379538460489
 20
4662.942962740321
 30
0.0
  0
LWPOLYLINE
  5
9F9
330
18
100
AcDbEntity
  8
SEIHIN
 48
2.0
100
AcDbPolyline
 90
        4
 70
     0
 43
0.0
 10
5189.379538460489
 20
1302.339951719179
 10
5149.379547495264
 20
1302.339951719179
 42
1.000000180695494
 10
5149.379547495264
 20
1202.339951719179
 10
5189.379538460489
 20
1202.339951719179
 42
0.9999999999999999
  0
TEXT
  5
ED3
330
18
100
AcDbEntity
  8
SUNPOU
100
AcDbText
 10
8949.673517259176
 20
164.9007621036908
 30
0.0
 40
75.0
  1
25
100
AcDbText
  0
INSERT
  5
ED4
330
18
100
AcDbEntity
  8
HAIKIN
100
AcDbBlockReference
  2
SA3
 10
-250.3264827408202
 20
-235.0992378963092
 30
0.0
 41
25.0
 42
25.0
 43
25.0
  0
TEXT
  5
FA1
330
18
100
AcDbEntity
  8
SUNPOU
100
AcDbText
 10
7870.21975396926
 20
560.7416919043794
 30
0.0
 40
65.0
  1
ロードエル
100
AcDbText
  0
TEXT
  5
FA2
330
18
100
AcDbEntity
  8
SUNPOU
100
AcDbText
 10
8299.56394136224
 20
560.7416919043794
 30
0.0
 40
65.0
  1
Ｈ＝１２５０
100
AcDbText
  0
TEXT
  5
1DA3
330
18
100
AcDbEntity
  8
SUNPOU
100
AcDbText
 10
8904.03059845566
 20
560.7416919043794
 30
0.0
 40
65.0
  1
(μ=0.6)
 41
0.8
100
AcDbText
  0
ARC
  5
1ECE
330
18
100
AcDbEntity
  8
SEIHIN
100
AcDbCircle
 10
1755.791006481428
 20
4811.241549106249
 30
0.0
 40
450.0000000000004
100
AcDbArc
 50
271.8476102659637
 51
0.0
  0
LINE
  5
1ECF
330
18
100
AcDbEntity
  8
SEIHIN
100
AcDbLine
 10
2205.791006481424
 20
4811.241549106249
 30
0.0
 11
2205.791006481429
 21
5117.416342825345
 31
0.0
  0
ARC
  5
1ED0
330
18
100
AcDbEntity
  8
SEIHIN
100
AcDbCircle
 10
1975.791006481428
 20
5117.416342825345
 30
0.0
 40
230.0000000000002
100
AcDbArc
 50
0.0
 51
86.27868673524092
  0
LINE
  5
1ED1
330
18
100
AcDbEntity
  8
SEIHIN
100
AcDbLine
 10
1990.718814945611
 20
5346.931397962164
 30
0.0
 11
975.7910064814278
 21
5412.942962740322
 31
0.0
  0
LINE
  5
1ED2
330
18
100
AcDbEntity
  8
SEIHIN
100
AcDbLine
 10
975.7910064814278
 20
5412.942962740322
 30
0.0
 11
945.7910064814278
 21
5442.942962740323
 31
0.0
  0
LINE
  5
1ED3
330
18
100
AcDbEntity
  8
SEIHIN
100
AcDbLine
 10
945.7910064814278
 20
5442.942962740323
 30
0.0
 11
945.7910064814278
 21
5662.942962740323
 31
0.0
  0
LINE
  5
1ED4
330
18
100
AcDbEntity
  8
SEIHIN
100
AcDbLine
 10
945.7910064814278
 20
5662.942962740323
 30
0.0
 11
1135.791006481428
 21
5662.942962740323
 31
0.0
  0
LINE
  5
1ED5
330
18
100
AcDbEntity
  8
SEIHIN
100
AcDbLine
 10
1135.791006481428
 20
5662.942962740323
 30
0.0
 11
1205.791006481428
 21
5512.942962740322
 31
0.0
  0
LINE
  5
1ED6
330
18
100
AcDbEntity
  8
SEIHIN
100
AcDbLine
 10
1205.791006481428
 20
5512.942962740322
 30
0.0
 11
2505.791006481428
 21
5512.942962740322
 31
0.0
  0
LINE
  5
1ED7
330
18
100
AcDbEntity
  8
SEIHIN
100
AcDbLine
 10
2505.791006481428
 20
5512.942962740322
 30
0.0
 11
2505.791006481428
 21
4482.942962740321
 31
0.0
  0
LINE
  5
1ED8
330
18
100
AcDbEntity
  8
SEIHIN
100
AcDbLine
 10
2505.791006481428
 20
4482.942962740321
 30
0.0
 11
2555.571840715327
 21
4428.266581342592
 31
0.0
  0
LINE
  5
1ED9
330
18
100
AcDbEntity
  8
SEIHIN
100
AcDbLine
 10
2555.571840715327
 20
4428.266581342592
 30
0.0
 11
2975.791006481428
 21
4396.78674930243
 31
0.0
  0
LINE
  5
1EDA
330
18
100
AcDbEntity
  8
SEIHIN
100
AcDbLine
 10
2975.791006481428
 20
4396.78674930243
 30
0.0
 11
2975.791006481429
 21
4262.942962740322
 31
0.0
  0
LINE
  5
1EDB
330
18
100
AcDbEntity
  8
SEIHIN
100
AcDbLine
 10
2975.791006481429
 20
4262.942962740322
 30
0.0
 11
1505.791006481428
 21
4262.942962740322
 31
0.0
  0
LINE
  5
1EDC
330
18
100
AcDbEntity
  8
SEIHIN
100
AcDbLine
 10
1505.791006481428
 20
4262.942962740322
 30
0.0
 11
1505.791006481428
 21
4352.942962740322
 31
0.0
  0
LINE
  5
1EDD
330
18
100
AcDbEntity
  8
SEIHIN
100
AcDbLine
 10
1505.791006481428
 20
4352.942962740322
 30
0.0
 11
1770.299588786357
 21
4361.475497653384
 31
0.0
  0
DIMENSION
  5
1EDE
330
18
100
AcDbEntity
  8
SUNPOU
100
AcDbDimension
  2
*D33
 10
2505.791006481429
 20
3891.456552472631
 30
0.0
 11
2740.791006481429
 21
3940.206552472631
 31
0.0
 70
    32
 71
     5
 42
470.0
  3
A3-25
100
AcDbAlignedDimension
 13
2975.791006481429
 23
4262.942962740322
 33
0.0
 14
2505.791006481429
 24
4262.942962740322
 34
0.0
100
AcDbRotatedDimension
  0
DIMENSION
  5
1EEB
330
18
100
AcDbEntity
  8
SUNPOU
100
AcDbDimension
  2
*D34
 10
2205.791006481429
 20
3891.456552472631
 30
0.0
 11
2355.791006481429
 21
3940.206552472631
 31
0.0
 70
    32
 71
     5
 42
300.0
  3
A3-25
100
AcDbAlignedDimension
 13
2505.791006481429
 23
4262.942962740322
 33
0.0
 14
2205.791006481429
 24
4262.942962740322
 34
0.0
100
AcDbRotatedDimension
  0
DIMENSION
  5
1EF8
330
18
100
AcDbEntity
  8
SUNPOU
100
AcDbDimension
  2
*D35
 10
1505.791006481428
 20
3891.456552472631
 30
0.0
 11
1855.791006481428
 21
3940.206552472631
 31
0.0
 70
    32
 71
     5
 42
700.0000000000009
  3
A3-25
100
AcDbAlignedDimension
 13
2205.791006481429
 23
4262.942962740322
 33
0.0
 14
1505.791006481428
 24
4262.942962740322
 34
0.0
100
AcDbRotatedDimension
  0
LINE
  5
1F0E
330
18
100
AcDbEntity
  8
SEIHIN
  6
DASHED2
 62
     7
 48
2.0
100
AcDbLine
 10
4439.379538460489
 20
2642.33995171918
 30
0.0
 11
4704.379538460489
 21
2642.339951719179
 31
0.0
  0
LINE
  5
1F0F
330
18
100
AcDbEntity
  8
SEIHIN
  6
DASHED2
 62
     7
 48
2.0
100
AcDbLine
 10
4704.379538460489
 20
2642.339951719179
 30
0.0
 11
4759.379538460489
 21
1152.339951719179
 31
0.0
  0
LINE
  5
1F10
330
18
100
AcDbEntity
  8
SEIHIN
  6
DASHED2
 62
     7
 48
2.0
100
AcDbLine
 10
4759.379538460489
 20
1152.339951719179
 30
0.0
 11
4869.379538460489
 21
1152.339951719179
 31
0.0
  0
LINE
  5
1F11
330
18
100
AcDbEntity
  8
SEIHIN
  6
DASHED2
 62
     7
 48
2.0
100
AcDbLine
 10
4869.379538460489
 20
1152.339951719179
 30
0.0
 11
4924.379538460489
 21
2642.339951719179
 31
0.0
  0
LINE
  5
1F12
330
18
100
AcDbEntity
  8
SEIHIN
  6
DASHED2
 62
     7
 48
2.0
100
AcDbLine
 10
4924.379538460489
 20
2642.339951719179
 30
0.0
 11
5189.379538460489
 21
2642.339951719179
 31
0.0
  0
LINE
  5
1F13
330
18
100
AcDbEntity
  8
SEIHIN
  6
DASHED2
 62
     7
 48
2.0
100
AcDbLine
 10
5454.379538460489
 20
2642.339951719179
 30
0.0
 11
5509.379538460489
 21
1152.339951719179
 31
0.0
  0
LINE
  5
1F14
330
18
100
AcDbEntity
  8
SEIHIN
  6
DASHED2
 62
     7
 48
2.0
100
AcDbLine
 10
5509.379538460489
 20
1152.339951719179
 30
0.0
 11
5619.379538460489
 21
1152.339951719179
 31
0.0
  0
LINE
  5
1F15
330
18
100
AcDbEntity
  8
SEIHIN
  6
DASHED2
 62
     7
 48
2.0
100
AcDbLine
 10
5619.379538460489
 20
1152.339951719179
 30
0.0
 11
5674.379538460489
 21
2642.339951719179
 31
0.0
  0
LINE
  5
1F16
330
18
100
AcDbEntity
  8
SEIHIN
  6
DASHED2
 62
     7
 48
2.0
100
AcDbLine
 10
5674.379538460489
 20
2642.339951719179
 30
0.0
 11
5939.379538460489
 21
2642.339951719179
 31
0.0
  0
LINE
  5
1F17
330
18
100
AcDbEntity
  8
SEIHIN
  6
DASHED2
 62
     7
 48
2.0
100
AcDbLine
 10
5189.379538460489
 20
2642.339951719179
 30
0.0
 11
5454.379538460489
 21
2642.339951719179
 31
0.0
  0
LINE
  5
1F18
330
18
100
AcDbEntity
  8
SEIHIN
 48
2.0
100
AcDbLine
 10
4439.379538460489
 20
1342.339951719179
 30
0.0
 11
5189.379538460489
 21
1342.339951719179
 31
0.0
  0
LINE
  5
1F19
330
18
100
AcDbEntity
  8
SEIHIN
 48
2.0
100
AcDbLine
 10
4439.379538460489
 20
1412.339951719179
 30
0.0
 11
5189.379538460489
 21
1412.339951719179
 31
0.0
  0
LINE
  5
1F1A
330
18
100
AcDbEntity
  8
SEIHIN
 48
2.0
100
AcDbLine
 10
4464.011194723515
 20
3182.33995171918
 30
0.0
 11
4439.379538460489
 21
2712.33995171918
 31
0.0
  0
LINE
  5
1F1B
330
18
100
AcDbEntity
  8
SEIHIN
100
AcDbLine
 10
4439.379538460489
 20
2712.33995171918
 30
0.0
 11
4439.379538460489
 21
1152.33995171918
 31
0.0
  0
LINE
  5
1F1C
330
18
100
AcDbEntity
  8
SEIHIN
100
AcDbLine
 10
4439.379538460489
 20
1152.33995171918
 30
0.0
 11
5939.379538460489
 21
1152.339951719179
 31
0.0
  0
LINE
  5
1F1D
330
18
100
AcDbEntity
  8
SEIHIN
100
AcDbLine
 10
5939.379538460489
 20
1152.339951719179
 30
0.0
 11
5939.379538460489
 21
2712.339951719179
 31
0.0
  0
LINE
  5
1F1E
330
18
100
AcDbEntity
  8
SEIHIN
 48
2.0
100
AcDbLine
 10
5939.379538460489
 20
2712.339951719179
 30
0.0
 11
5914.74788219746
 21
3182.33995171918
 31
0.0
  0
LINE
  5
1F1F
330
18
100
AcDbEntity
  8
SEIHIN
 48
2.0
100
AcDbLine
 10
5914.74788219746
 20
3182.33995171918
 30
0.0
 11
4464.011194723515
 21
3182.33995171918
 31
0.0
  0
DIMENSION
  5
1F20
330
18
100
AcDbEntity
  8
SUNPOU
100
AcDbDimension
  2
*D36
 10
4037.723995205154
 20
2712.33995171918
 30
0.0
 11
3988.973995205154
 21
1932.339951719181
 31
0.0
 70
    32
 71
     5
 42
1560.0
  3
A3-25
100
AcDbAlignedDimension
 13
4439.379538460489
 23
1152.33995171918
 33
0.0
 14
4439.379538460489
 24
2712.33995171918
 34
0.0
 50
90.0
100
AcDbRotatedDimension
  0
DIMENSION
  5
1F2D
330
18
100
AcDbEntity
  8
SUNPOU
100
AcDbDimension
  2
*D37
 10
2435.791006481429
 20
4029.28354699496
 30
0.0
 11
2470.791006481429
 21
4078.03354699496
 31
0.0
 70
    32
 71
     5
 42
70.0
  3
A3-25
100
AcDbAlignedDimension
 13
2505.791006481429
 23
4262.942962740322
 33
0.0
 14
2435.791006481429
 24
4262.942962740322
 34
0.0
100
AcDbRotatedDimension
  0
DIMENSION
  5
1F3B
330
18
100
AcDbEntity
  8
SUNPOU
100
AcDbDimension
  2
*D38
 10
2205.791006481429
 20
4029.28354699496
 30
0.0
 11
2320.791006481429
 21
4078.03354699496
 31
0.0
 70
    32
 71
     5
 42
230.0
  3
A3-25
100
AcDbAlignedDimension
 13
2435.791006481429
 23
4262.942962740322
 33
0.0
 14
2205.791006481429
 24
4262.942962740322
 34
0.0
100
AcDbRotatedDimension
  0
DIMENSION
  5
1FBE
330
18
100
AcDbEntity
  8
SUNPOU
100
AcDbDimension
  2
*D39
 10
2505.791006481428
 20
6129.683947939122
 30
0.0
 11
1725.791006481428
 21
6178.433947939122
 31
0.0
 70
    32
 71
     5
 42
1560.0
  3
A3-25
100
AcDbAlignedDimension
 13
945.7910064814278
 23
5662.942962740323
 33
0.0
 14
2505.791006481428
 24
5512.942962740322
 34
0.0
100
AcDbRotatedDimension
  0
DIMENSION
  5
200C
330
18
100
AcDbEntity
  8
SUNPOU
100
AcDbDimension
  2
*D40
 10
2975.791006481429
 20
3747.165204909677
 30
0.0
 11
2240.791006481428
 21
3795.915204909677
 31
0.0
 70
    32
 71
     5
 42
1470.000000000001
  3
A3-25
100
AcDbAlignedDimension
 13
1505.791006481428
 23
4262.942962740322
 33
0.0
 14
2975.791006481429
 24
4262.942962740322
 34
0.0
100
AcDbRotatedDimension
  0
TEXT
  5
206D
330
18
100
AcDbEntity
  8
SUNPOU
100
AcDbText
 10
8969.261562770427
 20
728.0942574439146
 30
0.0
 40
65.0
  1
(製品図)
100
AcDbText
  0
LWPOLYLINE
  5
20B0
330
18
100
AcDbEntity
  8
SEIHIN
 48
2.0
100
AcDbPolyline
 90
        4
 70
     0
 43
0.0
 10
5189.379538460489
 20
1292.339951719179
 10
5149.379547495264
 20
1292.339951719179
 42
1.000000171926097
 10
5149.379545688309
 20
1212.339951719179
 10
5189.379538460489
 20
1212.339951719179
  0
LWPOLYLINE
  5
20B2
330
18
100
AcDbEntity
  8
SEIHIN
 48
2.0
100
AcDbPolyline
 90
        4
 70
     0
 43
0.0
 10
5189.379538460489
 20
1302.339951719179
 10
5229.379529425714
 20
1302.339951719179
 42
-1.000000180695494
 10
5229.379529425714
 20
1202.339951719179
 10
5189.379538460489
 20
1202.339951719179
 42
-0.9999999999999999
  0
LWPOLYLINE
  5
20B3
330
18
100
AcDbEntity
  8
SEIHIN
 48
2.0
100
AcDbPolyline
 90
        4
 70
     0
 43
0.0
 10
5189.379538460489
 20
1292.339951719179
 10
5229.379529425714
 20
1292.339951719179
 42
-1.000000171926097
 10
5229.379531232668
 20
1212.339951719179
 10
5189.379538460489
 20
1212.339951719179
  0
DIMENSION
  5
20D6
330
18
100
AcDbEntity
  8
SUNPOU
100
AcDbDimension
  2
*D41
 10
5564.379538460489
 20
826.736329127295
 30
0.0
 11
5376.879538460489
 21
875.486329127295
 31
0.0
 70
    32
 71
     5
 42
375.0
  3
A3-25
100
AcDbAlignedDimension
 13
5189.379538460489
 23
1152.339951719179
 33
0.0
 14
5564.379538460489
 24
1152.339951719179
 34
0.0
100
AcDbRotatedDimension
  0
DIMENSION
  5
20D7
330
18
100
AcDbEntity
  8
SUNPOU
100
AcDbDimension
  2
*D42
 10
5939.379538460489
 20
826.736329127295
 30
0.0
 11
5751.879538460489
 21
875.486329127295
 31
0.0
 70
    32
 71
     5
 42
375.0
  3
A3-25
100
AcDbAlignedDimension
 13
5564.379538460489
 23
1152.339951719179
 33
0.0
 14
5939.379538460489
 24
1152.339951719179
 34
0.0
100
AcDbRotatedDimension
  0
TEXT
  5
212B
330
18
100
AcDbEntity
  8
SUNPOU
100
AcDbText
 10
6065.896142321301
 20
1828.8582618063
 30
0.0
 40
60.0
  1
水抜き孔
 41
0.8
100
AcDbText
  0
LINE
  5
212C
330
18
100
AcDbEntity
  8
SUNPOU
100
AcDbLine
 10
6039.709922141662
 20
1816.687515248602
 30
0.0
 11
6309.943574839647
 21
1816.687515248602
 31
0.0
  0
LEADER
  5
212F
330
18
100
AcDbEntity
  8
SUNPOU
100
AcDbLeader
  3
A3-25
 76
     2
 10
5189.379538460489
 20
1447.339951719179
 30
0.0
 10
6039.709922141662
 20
1816.687515248602
 30
0.0
1001
ACAD
1000
DSTYLE
1002
{
1070
   147
1040
0.7
1070
    77
1070
     0
1002
}
  0
TEXT
  5
2130
330
18
100
AcDbEntity
  8
SUNPOU
100
AcDbText
 10
6065.896142321301
 20
1654.362685247109
 30
0.0
 40
60.0
  1
防護柵取付用ホール
 41
0.8
100
AcDbText
  0
LINE
  5
2131
330
18
100
AcDbEntity
  8
SUNPOU
100
AcDbLine
 10
6039.709922141662
 20
1642.191938689411
 30
0.0
 11
6595.568182563115
 21
1642.191938689411
 31
0.0
  0
LEADER
  5
2132
330
18
100
AcDbEntity
  8
SUNPOU
100
AcDbLeader
  3
A3-25
 76
     2
 10
5189.379538460489
 20
1272.844375159988
 30
0.0
 10
6039.709922141662
 20
1642.191938689411
 30
0.0
1001
ACAD
1000
DSTYLE
1002
{
1070
   147
1040
0.7
1070
    77
1070
     0
1002
}
  0
TEXT
  5
220F
330
18
100
AcDbEntity
  8
SUNPOU
100
AcDbText
 10
3657.237239216382
 20
3436.295057640564
 30
0.0
 40
90.0
  1
平面図(頂版)
 72
     1
 11
3972.237239216382
 21
3436.295057640564
 31
0.0
100
AcDbText
  0
LWPOLYLINE
  5
2210
330
18
100
AcDbEntity
  8
SUNPOU
100
AcDbPolyline
 90
        4
 70
     1
 43
0.0
 10
3632.102909946378
 20
3550.00795277657
 10
4329.340452218712
 20
3550.00795277657
 10
4329.340452218712
 20
3406.922100258445
 10
3632.102909946378
 20
3406.922100258445
  0
LINE
  5
2249
330
18
100
AcDbEntity
  8
SEIHIN
100
AcDbLine
 10
5183.379538460489
 20
4352.942962740322
 30
0.0
 11
4433.379538460489
 21
4352.942962740322
 31
0.0
  0
LINE
  5
224A
330
18
100
AcDbEntity
  8
SEIHIN
  6
DASHED2
 62
     1
 48
2.0
100
AcDbLine
 10
4718.37953846049
 20
5346.931397962162
 30
0.0
 11
4898.37953846049
 21
5346.931397962163
 31
0.0
  0
LWPOLYLINE
  5
224B
330
18
100
AcDbEntity
  8
SEIHIN
100
AcDbPolyline
 90
        4
 70
     0
 43
0.0
 10
5183.379538460492
 20
5442.942962740323
 10
4866.229538460492
 20
5442.942962740323
 10
4918.37953846049
 20
5428.939539984622
 10
5183.379538460491
 20
5428.939539984622
  0
LINE
  5
224C
330
18
100
AcDbEntity
  8
SEIHIN
100
AcDbLine
 10
4863.37953846049
 20
5412.942962740321
 30
0.0
 11
4898.37953846049
 21
5346.931397962164
 31
0.0
  0
LINE
  5
224D
330
18
100
AcDbEntity
  8
SEIHIN
100
AcDbLine
 10
4753.37953846049
 20
5412.942962740325
 30
0.0
 11
4718.37953846049
 21
5346.931397962163
 31
0.0
  0
LINE
  5
224E
330
18
100
AcDbEntity
  8
SEIHIN
100
AcDbLine
 10
4863.37953846049
 20
5412.942962740322
 30
0.0
 11
4866.22953846049
 21
5442.942962740323
 31
0.0
  0
LINE
  5
224F
330
18
100
AcDbEntity
  8
SEIHIN
100
AcDbLine
 10
4753.37953846049
 20
5412.942962740322
 30
0.0
 11
4863.37953846049
 21
5412.942962740322
 31
0.0
  0
LINE
  5
2250
330
18
100
AcDbEntity
  8
SEIHIN
100
AcDbLine
 10
4750.529538460487
 20
5442.942962740322
 30
0.0
 11
4753.37953846049
 21
5412.942962740322
 31
0.0
  0
LWPOLYLINE
  5
2252
330
18
100
AcDbEntity
  8
SEIHIN
100
AcDbPolyline
 90
        4
 70
     0
 43
0.0
 10
4433.379538460489
 20
5442.942962740323
 10
4750.529538460489
 20
5442.942962740323
 10
4698.379538460489
 20
5428.939539984622
 10
4433.379538460488
 20
5428.939539984622
  0
LINE
  5
2253
330
18
100
AcDbEntity
  8
SEIHIN
  6
DASHED2
 62
     1
 48
2.0
100
AcDbLine
 10
4898.37953846049
 20
5117.416342825345
 30
0.0
 11
4718.37953846049
 21
5117.416342825345
 31
0.0
  0
LINE
  5
2254
330
18
100
AcDbEntity
  8
SEIHIN
  6
DASHED2
 62
     1
 48
2.0
100
AcDbLine
 10
4718.379538460487
 20
4576.595381053494
 30
0.0
 11
4898.379538460489
 21
4576.595381053494
 31
0.0
  0
LWPOLYLINE
  5
2255
330
18
100
AcDbEntity
  8
SEIHIN
100
AcDbPolyline
 90
        2
 70
     0
 43
0.0
 10
4898.37953846049
 20
5346.931397962164
 10
4898.379538460491
 20
4576.595381053494
  0
LWPOLYLINE
  5
2256
330
18
100
AcDbEntity
  8
SEIHIN
100
AcDbPolyline
 90
        2
 70
     0
 43
0.0
 10
4718.37953846049
 20
5346.931397962164
 10
4718.379538460489
 20
4576.595381053494
  0
LINE
  5
2257
330
18
100
AcDbEntity
  8
SEIHIN
100
AcDbLine
 10
4898.379538460491
 20
4576.595381053494
 30
0.0
 11
4887.879538460489
 21
4361.475497653384
 31
0.0
  0
LINE
  5
2258
330
18
100
AcDbEntity
  8
SEIHIN
100
AcDbLine
 10
4718.37953846049
 20
4576.595381053494
 30
0.0
 11
4728.879538460488
 21
4361.475497653384
 31
0.0
  0
CIRCLE
  5
2259
330
18
100
AcDbEntity
  8
SUNPOU
100
AcDbCircle
 10
4963.379538460488
 20
5142.942962740322
 30
0.0
 40
11.00000000000001
  0
LWPOLYLINE
  5
225A
330
18
100
AcDbEntity
  8
SEIHIN
  6
DASHED2
 62
     7
 48
2.0
100
AcDbPolyline
 90
        3
 70
     0
 43
0.0
 10
5093.379538460489
 20
5662.942962740323
 10
5103.37953846049
 20
5462.942962740323
 10
5183.379538460489
 20
5462.942962740323
  0
LINE
  5
225B
330
18
100
AcDbEntity
  8
SEIHIN
  6
DASHED2
 62
     1
 48
2.0
100
AcDbLine
 10
4918.37953846049
 20
4576.595381053496
 30
0.0
 11
5183.379538460489
 21
4576.595381053496
 31
0.0
  0
LINE
  5
225C
330
18
100
AcDbEntity
  8
SEIHIN
  6
DASHED2
 62
     1
 48
2.0
100
AcDbLine
 10
4698.379538460491
 20
4576.595381053498
 30
0.0
 11
4433.379538460489
 21
4576.595381053498
 31
0.0
  0
INSERT
  5
225D
330
18
100
AcDbEntity
  8
SEIHIN
100
AcDbBlockReference
  2
FGG
 10
4433.379538460489
 20
4662.942962740321
 30
0.0
 41
-1.0
  0
LINE
  5
225E
330
18
100
AcDbEntity
  8
SEIHIN
100
AcDbLine
 10
5183.37953846049
 20
5662.942962740323
 30
0.0
 11
5927.379538460489
 21
5662.942962740322
 31
0.0
  0
LINE
  5
225F
330
18
100
AcDbEntity
  8
SEIHIN
100
AcDbLine
 10
5927.379538460489
 20
5662.942962740322
 30
0.0
 11
5927.379538460489
 21
5497.942962740322
 31
0.0
  0
LINE
  5
2260
330
18
100
AcDbEntity
  8
SEIHIN
100
AcDbLine
 10
5927.379538460489
 20
5497.942962740322
 30
0.0
 11
5921.379538460489
 21
5494.442962740323
 31
0.0
  0
LINE
  5
2261
330
18
100
AcDbEntity
  8
SEIHIN
100
AcDbLine
 10
5921.379538460489
 20
5494.442962740323
 30
0.0
 11
5921.379538460489
 21
5482.442962740323
 31
0.0
  0
LINE
  5
2262
330
18
100
AcDbEntity
  8
SEIHIN
100
AcDbLine
 10
5921.379538460489
 20
5482.442962740323
 30
0.0
 11
5927.379538460489
 21
5478.942962740322
 31
0.0
  0
LINE
  5
2263
330
18
100
AcDbEntity
  8
SEIHIN
100
AcDbLine
 10
5927.379538460489
 20
5478.942962740322
 30
0.0
 11
5927.379538460489
 21
5470.442962740323
 31
0.0
  0
LINE
  5
2264
330
18
100
AcDbEntity
  8
SEIHIN
100
AcDbLine
 10
5927.379538460489
 20
5470.442962740323
 30
0.0
 11
5921.379538460489
 21
5466.942962740322
 31
0.0
  0
LINE
  5
2265
330
18
100
AcDbEntity
  8
SEIHIN
100
AcDbLine
 10
5921.379538460489
 20
5466.942962740322
 30
0.0
 11
5921.379538460489
 21
5460.942962740322
 31
0.0
  0
LINE
  5
2266
330
18
100
AcDbEntity
  8
SEIHIN
100
AcDbLine
 10
5921.379538460489
 20
5460.942962740322
 30
0.0
 11
5933.379538460489
 21
5457.942962740323
 31
0.0
  0
LINE
  5
2267
330
18
100
AcDbEntity
  8
SEIHIN
100
AcDbLine
 10
5933.379538460489
 20
5457.942962740323
 30
0.0
 11
5933.379538460489
 21
4262.942962740322
 31
0.0
  0
LINE
  5
2268
330
18
100
AcDbEntity
  8
SEIHIN
100
AcDbLine
 10
5933.379538460489
 20
4262.942962740322
 30
0.0
 11
4433.379538460489
 21
4262.942962740322
 31
0.0
  0
LINE
  5
2269
330
18
100
AcDbEntity
  8
SEIHIN
100
AcDbLine
 10
4433.379538460489
 20
4262.942962740322
 30
0.0
 11
4433.379538460489
 21
5457.942962740323
 31
0.0
  0
LINE
  5
226A
330
18
100
AcDbEntity
  8
SEIHIN
100
AcDbLine
 10
4433.379538460489
 20
5457.942962740323
 30
0.0
 11
4445.379538460489
 21
5460.942962740322
 31
0.0
  0
LINE
  5
226B
330
18
100
AcDbEntity
  8
SEIHIN
100
AcDbLine
 10
4445.379538460489
 20
5460.942962740322
 30
0.0
 11
4445.379538460489
 21
5466.942962740322
 31
0.0
  0
LINE
  5
226C
330
18
100
AcDbEntity
  8
SEIHIN
100
AcDbLine
 10
4445.379538460489
 20
5466.942962740322
 30
0.0
 11
4439.379538460489
 21
5470.442962740323
 31
0.0
  0
LINE
  5
226D
330
18
100
AcDbEntity
  8
SEIHIN
100
AcDbLine
 10
4439.379538460489
 20
5470.442962740323
 30
0.0
 11
4439.379538460489
 21
5478.942962740322
 31
0.0
  0
LINE
  5
226E
330
18
100
AcDbEntity
  8
SEIHIN
100
AcDbLine
 10
4439.379538460489
 20
5478.942962740322
 30
0.0
 11
4445.379538460489
 21
5482.442962740323
 31
0.0
  0
LINE
  5
226F
330
18
100
AcDbEntity
  8
SEIHIN
100
AcDbLine
 10
4445.379538460489
 20
5482.442962740323
 30
0.0
 11
4445.379538460489
 21
5494.442962740323
 31
0.0
  0
LINE
  5
2270
330
18
100
AcDbEntity
  8
SEIHIN
100
AcDbLine
 10
4445.379538460489
 20
5494.442962740323
 30
0.0
 11
4439.379538460489
 21
5497.942962740322
 31
0.0
  0
LINE
  5
2271
330
18
100
AcDbEntity
  8
SEIHIN
100
AcDbLine
 10
4439.379538460489
 20
5497.942962740322
 30
0.0
 11
4439.379538460489
 21
5512.942962740322
 31
0.0
  0
LINE
  5
2272
330
18
100
AcDbEntity
  8
SEIHIN
  6
DASHED2
 62
     7
 48
2.0
100
AcDbLine
 10
4439.379538460489
 20
5512.942962740322
 30
0.0
 11
5183.37953846049
 21
5512.942962740323
 31
0.0
  0
LINE
  5
2273
330
18
100
AcDbEntity
  8
SEIHIN
100
AcDbLine
 10
5183.379538460488
 20
5662.942962740323
 30
0.0
 11
4439.379538460489
 21
5662.942962740322
 31
0.0
  0
LINE
  5
2274
330
18
100
AcDbEntity
  8
SEIHIN
100
AcDbLine
 10
4439.379538460489
 20
5662.942962740322
 30
0.0
 11
4439.379538460489
 21
5497.942962740322
 31
0.0
  0
LINE
  5
2276
330
18
100
AcDbEntity
  8
SEIHIN
  6
DASHED2
 62
     7
 48
2.0
100
AcDbLine
 10
5927.379538460489
 20
5512.942962740322
 30
0.0
 11
5183.379538460488
 21
5512.942962740323
 31
0.0
  0
TEXT
  5
22CA
330
18
100
AcDbEntity
  8
SUNPOU
100
AcDbText
 10
3771.237239216382
 20
6223.03174706615
 30
0.0
 40
90.0
  1
正 面 図
 72
     1
 11
3972.237239216382
 21
6223.03174706615
 31
0.0
100
AcDbText
  0
LWPOLYLINE
  5
22CB
330
18
100
AcDbEntity
  8
SUNPOU
100
AcDbPolyline
 90
        4
 70
     1
 43
0.0
 10
3745.659543052694
 20
6336.744642202157
 10
4212.944958339685
 20
6336.744642202157
 10
4212.944958339685
 20
6193.658789684032
 10
3745.659543052694
 20
6193.658789684032
  0
DIMENSION
  5
22CC
330
18
100
AcDbEntity
  8
SUNPOU
100
AcDbDimension
  2
*D44
 10
4718.379538460489
 20
4960.35812389247
 30
0.0
 11
4646.659562013349
 21
5009.10812389247
 31
0.0
 70
   160
 71
     5
 42
19.99999999999818
  3
A3-25
100
AcDbAlignedDimension
 13
4698.379538460491
 23
4826.595381053494
 33
0.0
 14
4718.379538460489
 24
4826.595381053494
 34
0.0
100
AcDbRotatedDimension
  0
DIMENSION
  5
22DA
330
18
100
AcDbEntity
  8
SUNPOU
100
AcDbDimension
  2
*D45
 10
4898.379538460491
 20
4960.35812389247
 30
0.0
 11
4808.37953846049
 21
5009.10812389247
 31
0.0
 70
    32
 71
     5
 42
180.0000000000018
  3
A3-25
100
AcDbAlignedDimension
 13
4718.379538460489
 23
4826.595381053494
 33
0.0
 14
4898.379538460491
 24
4826.595381053494
 34
0.0
100
AcDbRotatedDimension
  0
DIMENSION
  5
22E7
330
18
100
AcDbEntity
  8
SUNPOU
100
AcDbDimension
  2
*D46
 10
4918.37953846049
 20
4960.35812389247
 30
0.0
 11
4964.136398640822
 21
5009.10812389247
 31
0.0
 70
   160
 71
     5
 42
19.99999999999909
  3
A3-25
100
AcDbAlignedDimension
 13
4898.379538460491
 23
4826.595381053494
 33
0.0
 14
4918.37953846049
 24
4826.595381053494
 34
0.0
100
AcDbRotatedDimension
  0
TEXT
  5
2309
330
18
100
AcDbEntity
  8
SUNPOU
100
AcDbText
 10
5377.20992066748
 20
4125.675822151045
 30
0.0
 40
60.0
  1
水抜き孔
 41
0.8
100
AcDbText
  0
LINE
  5
230A
330
18
100
AcDbEntity
  8
SUNPOU
100
AcDbLine
 10
5351.023700487841
 20
4113.505075593347
 30
0.0
 11
5621.257353185826
 21
4113.505075593347
 31
0.0
  0
LEADER
  5
230B
330
18
100
AcDbEntity
  8
SUNPOU
100
AcDbLeader
  3
A3-25
 76
     2
 10
5183.37953846049
 20
4712.942962740322
 30
0.0
 10
5351.023700487841
 20
4113.505075593347
 30
0.0
1001
ACAD
1000
DSTYLE
1002
{
1070
   147
1040
0.7
1070
    77
1070
     0
1002
}
  0
TEXT
  5
230D
330
18
100
AcDbEntity
  8
SUNPOU
100
AcDbText
 10
6078.30943177809
 20
4505.463455563654
 30
0.0
 40
60.0
  1
ジョイント金具
 41
0.8
100
AcDbText
  0
LINE
  5
230E
330
18
100
AcDbEntity
  8
SUNPOU
100
AcDbLine
 10
6052.12321159845
 20
4493.292709005956
 30
0.0
 11
6490.292635608149
 21
4493.292709005956
 31
0.0
  0
LEADER
  5
230F
330
18
100
AcDbEntity
  8
SUNPOU
100
AcDbLeader
  3
A3-25
 76
     2
 10
5928.879538460488
 20
4662.942962740321
 30
0.0
 10
6052.12321159845
 20
4493.292709005956
 30
0.0
1001
ACAD
1000
DSTYLE
1002
{
1070
   147
1040
0.7
1070
    77
1070
     0
1002
}
  0
LINE
  5
2311
330
18
100
AcDbEntity
  8
1HASEN
100
AcDbLine
 10
4808.379538460489
 20
5662.942962740322
 30
0.0
 11
4808.379538460489
 21
4262.942962740322
 31
0.0
  0
LINE
  5
2312
330
18
100
AcDbEntity
  8
1HASEN
100
AcDbLine
 10
5558.379538460489
 20
5662.942962740322
 30
0.0
 11
5558.379538460489
 21
4262.942962740322
 31
0.0
  0
TEXT
  5
2593
330
18
100
AcDbEntity
  8
SUNPOU
100
AcDbText
 10
211.483200614508
 20
6223.03174706615
 30
0.0
 40
90.0
  1
側 面 図
 72
     1
 11
412.483200614508
 21
6223.03174706615
 31
0.0
100
AcDbText
  0
LWPOLYLINE
  5
2594
330
18
100
AcDbEntity
  8
SUNPOU
100
AcDbPolyline
 90
        4
 70
     1
 43
0.0
 10
185.9055044508204
 20
6336.744642202157
 10
653.1909197378118
 20
6336.744642202157
 10
653.1909197378118
 20
6193.658789684032
 10
185.9055044508204
 20
6193.658789684032
  0
DIMENSION
  5
2595
330
18
100
AcDbEntity
  8
SUNPOU
100
AcDbDimension
  2
*D47
 10
1135.791006481428
 20
5877.224583807409
 30
0.0
 11
1040.791006481428
 21
5925.974583807409
 31
0.0
 70
    32
 71
     5
 42
190.0
  3
A3-25
100
AcDbAlignedDimension
 13
945.7910064814278
 23
5662.942962740323
 33
0.0
 14
1135.791006481428
 24
5662.942962740323
 34
0.0
100
AcDbRotatedDimension
  0
DIMENSION
  5
25A2
330
18
100
AcDbEntity
  8
SUNPOU
100
AcDbDimension
  2
*D48
 10
1205.791006481428
 20
5877.224583807409
 30
0.0
 11
1170.791006481428
 21
5925.974583807409
 31
0.0
 70
    32
 71
     5
 42
70.0
  3
A3-25
100
AcDbAlignedDimension
 13
1135.791006481428
 23
5662.942962740323
 33
0.0
 14
1205.791006481428
 24
5512.942962740322
 34
0.0
100
AcDbRotatedDimension
  0
LWPOLYLINE
  5
25B7
330
18
100
AcDbEntity
  8
SUNPOU
100
AcDbPolyline
 90
        4
 70
     1
 43
0.0
 10
2455.791006481428
 20
5465.942962740322
 10
2505.791006481428
 20
5465.942962740322
 10
2505.791006481428
 20
5399.942962740322
 10
2455.791006481428
 20
5399.942962740322
  0
CIRCLE
  5
25B8
330
18
100
AcDbEntity
  8
SUNPOU
100
AcDbCircle
 10
2480.791006481428
 20
5432.942962740322
 30
0.0
 40
8.0
  0
LINE
  5
25C2
330
18
100
AcDbEntity
  8
SEIHIN
  6
DASHED2
 62
     7
100
AcDbLine
 10
2435.791006481429
 20
4772.942962740321
 30
0.0
 11
2505.791006481428
 21
4752.942962740321
 31
0.0
  0
LINE
  5
25C3
330
18
100
AcDbEntity
  8
SEIHIN
  6
DASHED2
 62
     7
100
AcDbLine
 10
2435.791006481429
 20
4652.942962740321
 30
0.0
 11
2505.791006481428
 21
4672.942962740321
 31
0.0
  0
LWPOLYLINE
  5
25C4
330
18
100
AcDbEntity
  8
SUNPOU
100
AcDbPolyline
 90
        4
 70
     1
 43
0.0
 10
2435.791006481429
 20
4695.942962740322
 10
2485.791006481429
 20
4695.942962740322
 10
2485.791006481429
 20
4629.942962740322
 10
2435.791006481429
 20
4629.942962740322
  0
CIRCLE
  5
25C5
330
18
100
AcDbEntity
  8
SUNPOU
100
AcDbCircle
 10
2460.791006481429
 20
4662.942962740322
 30
0.0
 40
8.0
  0
TEXT
  5
2662
330
18
100
AcDbEntity
  8
SUNPOU
100
AcDbText
 10
2744.801425238853
 20
5143.813899355457
 30
0.0
 40
60.0
  1
ジョイント金具
 41
0.8
100
AcDbText
  0
LINE
  5
2663
330
18
100
AcDbEntity
  8
SUNPOU
100
AcDbLine
 10
2718.615205059214
 20
5131.643152797758
 30
0.0
 11
3156.784629068912
 21
5131.643152797758
 31
0.0
  0
LEADER
  5
2664
330
18
100
AcDbEntity
  8
SUNPOU
100
AcDbLeader
  3
A3-25
 76
     2
 10
2469.030331062699
 20
4678.985131698842
 30
0.0
 10
2718.615205059214
 20
5131.643152797758
 30
0.0
1001
ACAD
1000
DSTYLE
1002
{
1070
   147
1040
0.7
1070
    77
1070
     0
1002
}
  0
LEADER
  5
2666
330
18
100
AcDbEntity
  8
SUNPOU
100
AcDbLeader
  3
A3-25
 76
     2
 10
2497.306968422577
 20
5425.810689802423
 30
0.0
 10
2718.615205059214
 20
5131.643152797758
 30
0.0
1001
ACAD
1000
DSTYLE
1002
{
1070
   147
1040
0.7
1070
    77
1070
     0
1002
}
  0
TEXT
  5
2C0C
330
18
100
AcDbEntity
  8
SUNPOU
100
AcDbText
 10
391.2387938505926
 20
3436.295057640564
 30
0.0
 40
90.0
  1
平面図(底版)
 72
     1
 11
706.2387938505926
 21
3436.295057640564
 31
0.0
100
AcDbText
  0
LWPOLYLINE
  5
2C0D
330
18
100
AcDbEntity
  8
SUNPOU
100
AcDbPolyline
 90
        4
 70
     1
 43
0.0
 10
366.1044645805887
 20
3550.00795277657
 10
1063.342006852923
 20
3550.00795277657
 10
1063.342006852923
 20
3406.922100258445
 10
366.1044645805887
 20
3406.922100258445
  0
LINE
  5
2C0E
330
18
100
AcDbEntity
  8
SEIHIN
  6
DASHED2
 62
     7
 48
2.0
100
AcDbLine
 10
2205.791006481429
 20
1975.562248151081
 30
0.0
 11
2205.791006481429
 21
1772.542113922893
 31
0.0
  0
DIMENSION
  5
2C0F
330
18
100
AcDbEntity
  8
SUNPOU
100
AcDbDimension
  2
*D49
 10
1001.727771667523
 20
1499.05218103699
 30
0.0
 11
952.9777716675231
 21
2249.05218103699
 31
0.0
 70
    32
 71
     5
 42
1500.0
  3
A3-25
100
AcDbAlignedDimension
 13
1505.791006481429
 23
2999.052181036989
 33
0.0
 14
1505.791006481428
 24
1499.05218103699
 34
0.0
 50
90.0
100
AcDbRotatedDimension
  0
DIMENSION
  5
2C26
330
18
100
AcDbEntity
  8
SUNPOU
100
AcDbDimension
  2
*D50
 10
2975.791006481427
 20
992.8713626865829
 30
0.0
 11
2240.791006481427
 21
1041.621362686583
 31
0.0
 70
    32
 71
     5
 42
1469.999999999999
  3
A3-25
100
AcDbAlignedDimension
 13
1505.791006481428
 23
1499.05218103699
 33
0.0
 14
2975.791006481427
 24
1523.683837300018
 34
0.0
100
AcDbRotatedDimension
  0
LINE
  5
2CD7
330
18
100
AcDbEntity
  8
SEIHIN
100
AcDbLine
 10
2975.791006481429
 20
2974.42052477396
 30
0.0
 11
2505.79100648143
 21
2999.052181036989
 31
0.0
  0
LINE
  5
2CD8
330
18
100
AcDbEntity
  8
SEIHIN
100
AcDbLine
 10
2505.79100648143
 20
2999.052181036989
 30
0.0
 11
1505.791006481429
 21
2999.052181036989
 31
0.0
  0
LINE
  5
2CD9
330
18
100
AcDbEntity
  8
SEIHIN
100
AcDbLine
 10
1505.791006481429
 20
2999.052181036989
 30
0.0
 11
1505.791006481428
 21
1499.05218103699
 31
0.0
  0
LINE
  5
2CDA
330
18
100
AcDbEntity
  8
SEIHIN
100
AcDbLine
 10
1505.791006481428
 20
1499.05218103699
 30
0.0
 11
2505.791006481428
 21
1499.052181036989
 31
0.0
  0
LINE
  5
2CDB
330
18
100
AcDbEntity
  8
SEIHIN
100
AcDbLine
 10
2505.791006481428
 20
1499.052181036989
 30
0.0
 11
2975.791006481427
 21
1523.683837300018
 31
0.0
  0
LINE
  5
2CDC
330
18
100
AcDbEntity
  8
SEIHIN
100
AcDbLine
 10
2975.791006481427
 20
1523.683837300018
 30
0.0
 11
2975.791006481429
 21
2974.42052477396
 31
0.0
  0
DIMENSION
  5
2CDD
330
18
100
AcDbEntity
  8
SUNPOU
100
AcDbDimension
  2
*D51
 10
3309.28212944093
 20
2974.42052477396
 30
0.0
 11
3260.53212944093
 21
2249.052181036989
 31
0.0
 70
    32
 71
     5
 42
1450.736687473942
  3
A3-25
100
AcDbAlignedDimension
 13
2975.791006481427
 23
1523.683837300018
 33
0.0
 14
2975.791006481429
 24
2974.42052477396
 34
0.0
 50
90.0
100
AcDbRotatedDimension
  0
LINE
  5
2D28
330
18
100
AcDbEntity
  8
SUNPOU
100
AcDbLine
 10
2631.668593922208
 20
2999.052181036989
 30
0.0
 11
2779.423388778989
 21
2999.052181036989
 31
0.0
  0
ARC
  5
2D3D
330
18
100
AcDbEntity
  8
SUNPOU
100
AcDbCircle
 10
2505.791006481439
 20
2999.052181036989
 30
0.0
 40
243.7705917339474
100
AcDbArc
 50
0.0
 51
15.0160300596819
  0
SOLID
  5
2D3E
330
18
100
AcDbEntity
  8
SUNPOU
100
AcDbTrace
 10
2754.918759984092
 20
3031.55854629854
 30
0.0
 11
2739.9308013573
 21
3030.957633491585
 31
0.0
 12
2749.227519091559
 22
2986.294214014685
 32
0.0
 13
2749.227519091559
 23
2986.294214014685
 33
0.0
  0
SOLID
  5
2D3F
330
18
100
AcDbEntity
  8
SUNPOU
100
AcDbTrace
 10
2737.940118542276
 20
2954.936523836768
 30
0.0
 11
2752.8760873463
 21
2953.552025413068
 31
0.0
 12
2749.561598215387
 22
2999.05218103699
 32
0.0
 13
2749.561598215387
 23
2999.05218103699
 33
0.0
  0
ARC
  5
2D41
330
18
100
AcDbEntity
  8
SUNPOU
100
AcDbCircle
 10
2505.791006481439
 20
2999.052181036989
 30
0.0
 40
243.7705917339474
100
AcDbArc
 50
342.924161772585
 51
356.9999999999993
  0
TEXT
  5
2D42
330
18
100
AcDbEntity
  8
SUNPOU
100
AcDbText
 10
2729.263823908746
 20
3015.957084121561
 30
0.0
 40
62.5
  1
3°
 50
90.0
 41
0.8
100
AcDbText
  0
LINE
  5
2D44
330
18
100
AcDbEntity
  8
SUNPOU
100
AcDbLine
 10
2631.668593922208
 20
1499.052181036987
 30
0.0
 11
2779.423388778989
 21
1499.052181036987
 31
0.0
  0
ARC
  5
2D45
330
18
100
AcDbEntity
  8
SUNPOU
100
AcDbCircle
 10
2505.791006481439
 20
1499.052181036987
 30
0.0
 40
243.7705917339474
100
AcDbArc
 50
344.9839699402978
 51
0.0
  0
ARC
  5
2D46
330
18
100
AcDbEntity
  8
SUNPOU
100
AcDbCircle
 10
2505.791006481439
 20
1499.052181036987
 30
0.0
 40
243.7705917339474
100
AcDbArc
 50
3.0000000000056
 51
17.07583822743379
  0
SOLID
  5
2D47
330
18
100
AcDbEntity
  8
SUNPOU
100
AcDbTrace
 10
2754.918759984092
 20
1466.545815775437
 30
0.0
 11
2739.9308013573
 21
1467.146728582391
 31
0.0
 12
2749.227519091559
 22
1511.810148059291
 32
0.0
 13
2749.227519091559
 23
1511.810148059291
 33
0.0
  0
SOLID
  5
2D48
330
18
100
AcDbEntity
  8
SUNPOU
100
AcDbTrace
 10
2737.940118542276
 20
1543.167838237209
 30
0.0
 11
2752.8760873463
 21
1544.552336660908
 31
0.0
 12
2749.561598215387
 22
1499.052181036986
 32
0.0
 13
2749.561598215387
 23
1499.052181036986
 33
0.0
  0
TEXT
  5
2D49
330
18
100
AcDbEntity
  8
SUNPOU
100
AcDbText
 10
2729.263823908746
 20
1418.813944619082
 30
0.0
 40
62.5
  1
3°
 50
90.0
 41
0.8
100
AcDbText
  0
LINE
  5
2D56
330
18
100
AcDbEntity
  8
SEIHIN
 48
2.0
100
AcDbLine
 10
1770.299588786359
 20
4361.475497653384
 30
0.0
 11
2242.23926528362
 21
4376.699358185554
 31
0.0
  0
ARC
  5
2D57
330
18
100
AcDbEntity
  8
SEIHIN
 48
2.0
100
AcDbCircle
 10
2235.791006481429
 20
4576.595381053494
 30
0.0
 40
199.9999999999999
100
AcDbArc
 50
271.8476102659944
 51
0.0
  0
LINE
  5
2D58
330
18
100
AcDbEntity
  8
SEIHIN
 48
2.0
100
AcDbLine
 10
2435.791006481428
 20
4576.595381053494
 30
0.0
 11
2435.79100648143
 21
5328.944606938794
 31
0.0
  0
ARC
  5
2D59
330
18
100
AcDbEntity
  8
SEIHIN
 48
2.0
100
AcDbCircle
 10
2335.79100648143
 20
5328.944606938794
 30
0.0
 40
100.0
100
AcDbArc
 50
0.0
 51
89.42321633506978
  0
LINE
  5
2D5A
330
18
100
AcDbEntity
  8
SEIHIN
 48
2.0
100
AcDbLine
 10
2336.79766688122
 20
5428.939539984622
 30
0.0
 11
945.7910064814278
 21
5442.942962740323
 31
0.0
  0
LINE
  5
2DC8
330
18
100
AcDbEntity
  8
SEIHIN
100
AcDbLine
 10
5668.379538460489
 20
5428.939539984621
 30
0.0
 11
5668.379538460486
 21
4576.595381053494
 31
0.0
  0
LINE
  5
2DC9
330
18
100
AcDbEntity
  8
SEIHIN
100
AcDbLine
 10
5668.379538460487
 20
4576.595381053494
 30
0.0
 11
5637.879538460489
 21
4361.475497653384
 31
0.0
  0
LINE
  5
2DCA
330
18
100
AcDbEntity
  8
SEIHIN
100
AcDbLine
 10
5637.879538460489
 20
4361.475497653384
 30
0.0
 11
5478.879538460489
 21
4361.475497653384
 31
0.0
  0
LINE
  5
2DCB
330
18
100
AcDbEntity
  8
SEIHIN
100
AcDbLine
 10
5478.879538460489
 20
4361.475497653384
 30
0.0
 11
5448.379538460488
 21
4576.595381053494
 31
0.0
  0
LINE
  5
2DCC
330
18
100
AcDbEntity
  8
SEIHIN
100
AcDbLine
 10
5448.379538460488
 20
4576.595381053494
 30
0.0
 11
5448.379538460488
 21
5428.939539984622
 31
0.0
  0
LINE
  5
2DCD
330
18
100
AcDbEntity
  8
SEIHIN
100
AcDbLine
 10
4698.379538460489
 20
5428.939539984621
 30
0.0
 11
4698.379538460492
 21
4576.595381053494
 31
0.0
  0
LINE
  5
2DCE
330
18
100
AcDbEntity
  8
SEIHIN
100
AcDbLine
 10
4698.379538460491
 20
4576.595381053494
 30
0.0
 11
4728.879538460489
 21
4361.475497653384
 31
0.0
  0
LINE
  5
2DCF
330
18
100
AcDbEntity
  8
SEIHIN
100
AcDbLine
 10
4728.879538460489
 20
4361.475497653384
 30
0.0
 11
4887.879538460489
 21
4361.475497653384
 31
0.0
  0
LINE
  5
2DD0
330
18
100
AcDbEntity
  8
SEIHIN
100
AcDbLine
 10
4887.879538460489
 20
4361.475497653384
 30
0.0
 11
4918.37953846049
 21
4576.595381053494
 31
0.0
  0
LINE
  5
2DD1
330
18
100
AcDbEntity
  8
SEIHIN
100
AcDbLine
 10
4918.37953846049
 20
4576.595381053494
 30
0.0
 11
4918.37953846049
 21
5428.939539984622
 31
0.0
  0
LINE
  5
2DD3
330
18
100
AcDbEntity
  8
SEIHIN
  6
DASHED2
 62
     1
 48
2.0
100
AcDbLine
 10
5468.379538460488
 20
4811.241549106249
 30
0.0
 11
5648.379538460488
 21
4811.241549106249
 31
0.0
  0
LINE
  5
2DD4
330
18
100
AcDbEntity
  8
SEIHIN
  6
DASHED2
 62
     1
 48
2.0
100
AcDbLine
 10
4898.37953846049
 20
4811.241549106249
 30
0.0
 11
4718.37953846049
 21
4811.241549106249
 31
0.0
  0
ENDSEC
  0
SECTION
  2
OBJECTS
  0
DICTIONARY
  5
C
330
0
100
AcDbDictionary
281
     1
  3
ACAD_COLOR
350
E71
  3
ACAD_GROUP
350
D
  3
ACAD_LAYOUT
350
E74
  3
ACAD_MATERIAL
350
E70
  3
ACAD_MLEADERSTYLE
350
2ED3
  3
ACAD_MLINESTYLE
350
E
  3
ACAD_PLOTSETTINGS
350
E75
  3
ACAD_PLOTSTYLENAME
350
E6E
  3
ACAD_SCALELIST
350
2EAC
  3
ACAD_TABLESTYLE
350
E72
  3
ACDB_RECOMPOSE_DATA
350
2ED2
  3
ACDBVARIABLEDICTIONARY
350
DEA
  0
DICTIONARY
  5
FC7
330
2
100
AcDbDictionary
280
     1
281
     1
  3
ACAD_LAYERFILTERS
360
FD4
  3
ACLYDICTIONARY
360
FD3
  0
DICTIONARY
  5
FC1
330
18
100
AcDbDictionary
280
     1
281
     1
  3
ACAD_SORTENTS
360
FC2
  0
DICTIONARY
  5
E71
102
{ACAD_REACTORS
330
C
102
}
330
C
100
AcDbDictionary
281
     1
  0
DICTIONARY
  5
D
102
{ACAD_REACTORS
330
C
102
}
330
C
100
AcDbDictionary
281
     1
  0
DICTIONARY
  5
E74
102
{ACAD_REACTORS
330
C
102
}
330
C
100
AcDbDictionary
281
     1
  3
Model
350
E76
  3
レイアウト1
350
E77
  0
DICTIONARY
  5
E70
102
{ACAD_REACTORS
330
C
102
}
330
C
100
AcDbDictionary
281
     1
  0
DICTIONARY
  5
2ED3
102
{ACAD_REACTORS
330
C
102
}
330
C
100
AcDbDictionary
281
     1
  0
DICTIONARY
  5
E
102
{ACAD_REACTORS
330
C
102
}
330
C
100
AcDbDictionary
281
     1
  3
STANDARD
350
1B
  0
DICTIONARY
  5
E75
102
{ACAD_REACTORS
330
C
102
}
330
C
100
AcDbDictionary
281
     1
  0
ACDBDICTIONARYWDFLT
  5
E6E
102
{ACAD_REACTORS
330
C
102
}
330
C
100
AcDbDictionary
281
     1
  3
Normal
350
E6F
100
AcDbDictionaryWithDefault
340
E6F
  0
DICTIONARY
  5
2EAC
102
{ACAD_REACTORS
330
C
102
}
330
C
100
AcDbDictionary
281
     1
  3
A0
350
2EAD
  3
A1
350
2EAE
  3
A2
350
2EAF
  3
A3
350
2EB0
  3
A4
350
2EB1
  3
A5
350
2EB2
  3
A6
350
2EB3
  3
A7
350
2EB4
  3
A8
350
2EB5
  3
A9
350
2EB6
  3
B0
350
2EB7
  3
B1
350
2EB8
  3
B2
350
2EB9
  3
B3
350
2EBA
  3
B4
350
2EBB
  3
B5
350
2EBC
  3
B6
350
2EBD
  3
B7
350
2EBE
  3
B8
350
2EBF
  3
B9
350
2EC0
  3
C0
350
2EC1
  3
C1
350
2EC2
  3
C2
350
2EC3
  3
C3
350
2EC4
  3
C4
350
2EC5
  3
C5
350
2EC6
  3
C6
350
2EC7
  3
C7
350
2EC8
  3
C8
350
2EC9
  3
C9
350
2ECA
  3
D0
350
2ECB
  3
D1
350
2ECC
  3
D2
350
2ECD
  0
DICTIONARY
  5
E72
102
{ACAD_REACTORS
330
C
102
}
330
C
100
AcDbDictionary
281
     1
  3
Standard
350
E73
  0
XRECORD
  5
2ED2
102
{ACAD_REACTORS
330
C
102
}
330
C
100
AcDbXrecord
280
     1
 90
        1
330
E73
  0
DICTIONARY
  5
DEA
102
{ACAD_REACTORS
330
C
102
}
330
C
100
AcDbDictionary
281
     1
  3
CANNOSCALE
350
2ECE
  3
CTABLESTYLE
350
E8D
  3
DIMASSOC
350
E99
  3
PROJECTNAME
350
E9A
  3
SORTENTS
350
DEB
  0
DICTIONARY
  5
FD4
102
{ACAD_REACTORS
330
FC7
102
}
330
FC7
100
AcDbDictionary
281
     1
  0
DICTIONARY
  5
FD3
102
{ACAD_REACTORS
330
FC7
102
}
330
FC7
100
AcDbDictionary
281
     1
1001
ACAD
1000
<All
  0
SORTENTSTABLE
  5
FC2
102
{ACAD_REACTORS
330
FC1
102
}
330
FC1
100
AcDbSortentsTable
330
18
331
0
  5
22CA
331
22F
  5
22F
331
230
  5
230
331
245
  5
26E
331
249
  5
26F
331
24D
  5
270
331
24E
  5
276
331
260
  5
27D
331
276
  5
291
331
277
  5
2B9
331
27D
  5
2BB
331
27E
  5
2BC
331
27F
  5
2BD
331
280
  5
2BF
331
281
  5
2C0
331
28A
  5
2CD
331
290
  5
2CF
331
291
  5
2D3
331
2B9
  5
2D7
331
2BB
  5
2D8
331
2BC
  5
2D9
331
2BF
  5
2DD
331
2C0
  5
2E1
331
2C1
  5
2E2
331
2C2
  5
2E8
331
2C9
  5
2EE
331
2CA
  5
2FD
331
2CB
  5
2FE
331
2CC
  5
2FF
331
2CD
  5
30C
331
2CE
  5
31C
331
2D9
  5
3B3
331
2DD
  5
3B4
331
2E1
  5
3B5
331
2E2
  5
3B9
331
2FD
  5
40D
331
2FE
  5
412
331
2FF
  5
41A
331
30C
  5
41B
331
30D
  5
48C
331
30F
  5
48D
331
319
  5
497
331
3B3
  5
612
331
3B4
  5
632
331
441
  5
676
331
449
  5
677
331
44C
  5
678
331
44D
  5
681
331
451
  5
682
331
46A
  5
90C
331
48B
  5
922
331
48C
  5
1F0E
331
48F
  5
1F14
331
497
  5
1F15
331
547
  5
1F16
331
63C
  5
1F17
331
673
  5
1F1A
331
674
  5
1F1B
331
680
  5
1F1C
331
681
  5
1F1D
331
75F
  5
212C
331
9F9
  5
224F
331
ED3
  5
2251
331
ED4
  5
2252
331
FA1
  5
2253
331
FA2
  5
2254
331
1DA3
  5
2255
331
1ECE
  5
1F1E
331
1ECF
  5
1F1F
331
1ED0
  5
1F20
331
1ED1
  5
1F2D
331
1ED2
  5
1F3B
331
1ED3
  5
1FBE
331
1ED4
  5
200C
331
1ED5
  5
206D
331
1ED6
  5
20AF
331
1ED7
  5
20B0
331
1ED8
  5
20B1
331
1ED9
  5
20B2
331
1EDA
  5
20B3
331
1EDB
  5
20D7
331
1EDC
  5
2102
331
1EDD
  5
212B
331
1EDE
  5
2256
331
1EEB
  5
2257
331
1EF8
  5
2258
331
1F0E
  5
245
331
1F0F
  5
249
331
1F10
  5
24D
331
1F11
  5
24E
331
1F12
  5
25A
331
1F13
  5
261
331
1F14
  5
26B
331
1F15
  5
26C
331
1F16
  5
26D
331
1F17
  5
260
331
1F18
  5
2259
331
1F19
  5
225A
331
1F1A
  5
212F
331
1F1B
  5
2130
331
1F1C
  5
2131
331
1F1D
  5
2132
331
1F1E
  5
220F
331
1F1F
  5
2210
331
1F20
  5
225C
331
1F2D
  5
225D
331
1F3B
  5
225E
331
1FBE
  5
225F
331
200C
  5
2260
331
206D
  5
2261
331
20B0
  5
2250
331
20B2
  5
2262
331
20B3
  5
2263
331
20D6
  5
2264
331
20D7
  5
2265
331
212B
  5
2266
331
212C
  5
2267
331
212F
  5
2268
331
2130
  5
2269
331
2131
  5
226A
331
2132
  5
226B
331
220F
  5
226C
331
2210
  5
226D
331
2249
  5
226E
331
224A
  5
226F
331
224B
  5
2270
331
224C
  5
2271
331
224D
  5
2272
331
224E
  5
2273
331
224F
  5
2274
331
2250
  5
2276
331
2252
  5
230A
331
2253
  5
230B
331
2254
  5
230D
331
2255
  5
230E
331
2256
  5
230F
331
2257
  5
2311
331
2258
  5
2312
331
2259
  5
2593
331
225A
  5
2594
331
225B
  5
2595
331
225C
  5
25A2
331
225D
  5
25B7
331
225E
  5
693
331
225F
  5
694
331
2260
  5
6EB
331
2261
  5
6EC
331
2262
  5
6ED
331
2263
  5
71D
331
2264
  5
71E
331
2265
  5
723
331
2266
  5
727
331
2267
  5
72B
331
2268
  5
73C
331
2269
  5
73D
331
226A
  5
75C
331
226B
  5
75F
331
226C
  5
760
331
226D
  5
761
331
226E
  5
77A
331
226F
  5
77B
331
2270
  5
8B9
331
2271
  5
8CB
331
2272
  5
90B
331
2273
  5
25B8
331
2274
  5
25C2
331
2276
  5
25C3
331
22CA
  5
25C4
331
22CB
  5
25C5
331
22CC
  5
2662
331
22DA
  5
2663
331
22E7
  5
2664
331
2309
  5
2666
331
230A
  5
2C0C
331
230B
  5
2C0D
331
230D
  5
2C0E
331
230E
  5
2C0F
331
230F
  5
2C26
331
2311
  5
2CD7
331
2312
  5
2CD8
331
2593
  5
2CD9
331
2594
  5
2CDA
331
2595
  5
2CDB
331
25A2
  5
2CDC
331
25B7
  5
2CDD
331
25B8
  5
2D28
331
25C2
  5
2D3D
331
25C3
  5
2D3E
331
25C4
  5
2D3F
331
25C5
  5
2D40
331
2662
  5
2D42
331
2663
  5
2D44
331
2664
  5
2D45
331
2666
  5
2D46
331
2C0C
  5
2D47
331
2C0D
  5
2D48
331
2C0E
  5
2D49
331
2C0F
  5
2D56
331
2C26
  5
2D57
331
2CD7
  5
2249
331
2CD8
  5
224A
331
2CD9
  5
224B
331
2CDA
  5
224C
331
2CDB
  5
224D
331
2CDC
  5
224E
331
2CDD
  5
2D58
331
2D28
  5
2D59
331
2D3D
  5
2D5A
331
2D3E
  5
2DC9
331
2D3F
  5
2DCA
331
2D41
  5
2DC8
331
2D42
  5
2DCB
331
2D44
  5
2DCC
331
2D45
  5
2DCD
331
2D46
  5
2DCE
331
2D47
  5
2DCF
331
2D48
  5
2DD0
331
2D49
  5
2DD1
331
2D56
  5
49F
331
2D57
  5
4A0
331
2D58
  5
4A2
331
2D59
  5
4A4
331
2D5A
  5
547
331
2DC8
  5
2C2
331
2DC9
  5
2C9
331
2DCA
  5
2CA
331
2DCB
  5
2CB
331
2DCC
  5
2CC
331
2DCD
  5
22CB
331
2DCE
  5
22CC
331
2DCF
  5
22DA
331
2DD0
  5
22E7
331
2DD1
  5
2309
  0
LAYOUT
  5
E76
102
{ACAD_REACTORS
330
E74
102
}
330
E74
100
AcDbPlotSettings
  1

  2
DocuWorks Printer
  4
A3
  6

 40
5.408083438873291
 41
5.408078670501709
 42
5.4080810546875
 43
5.4080810546875
 44
297.0106506347656
 45
419.9889831542969
 46
4.443668456116654
 47
1.160025919187461
 48
-450.9229464286618
 49
-184.3801655815987
140
9720.396343339657
141
6748.29856514269
142
1.0
143
25.0
 70
 11940
 72
     1
 73
     1
 74
     4
  7
monochrome.ctb
 75
     0
 76
     0
 77
     2
 78
   300
147
0.0397942044402335
148
450.9229464286618
149
184.3801655815987
100
AcDbLayout
  1
Model
 70
     1
 71
     0
 10
0.0
 20
0.0
 11
12.0
 21
9.0
 12
0.0
 22
0.0
 32
0.0
 14
0.0
 24
0.0
 34
0.0
 15
0.0
 25
0.0
 35
0.0
146
0.0
 13
0.0
 23
0.0
 33
0.0
 16
1.0
 26
0.0
 36
0.0
 17
0.0
 27
1.0
 37
0.0
 76
     0
330
18
331
2EA6
1001
ACAD_PSEXT
1000
DocuWorks Printer
1000
DocuWorks Printer Driver
1000
DocuWorks Port
1000

1070
     0
  0
LAYOUT
  5
E77
102
{ACAD_REACTORS
330
E74
102
}
330
E74
100
AcDbPlotSettings
  1

  2
RICOH IPSiO NX850 RPCS
  4

  6

 40
0.0
 41
0.0
 42
0.0
 43
0.0
 44
0.0
 45
0.0
 46
0.0
 47
0.0
 48
0.0
 49
0.0
140
0.0
141
0.0
142
1.0
143
1.0
 70
   688
 72
     0
 73
     0
 74
     5
  7
monochrome.ctb
 75
    16
 76
     0
 77
     2
 78
   300
147
1.0
148
0.0
149
0.0
100
AcDbLayout
  1
レイアウト1
 70
     0
 71
     1
 10
0.0
 20
0.0
 11
12.0
 21
9.0
 12
0.0
 22
0.0
 32
0.0
 14
1.000000000000000E+20
 24
1.000000000000000E+20
 34
1.000000000000000E+20
 15
-1.000000000000000E+20
 25
-1.000000000000000E+20
 35
-1.000000000000000E+20
146
0.0
 13
0.0
 23
0.0
 33
0.0
 16
1.0
 26
0.0
 36
0.0
 17
0.0
 27
1.0
 37
0.0
 76
     0
330
15
  0
MLINESTYLE
  5
1B
102
{ACAD_REACTORS
330
E
102
}
330
E
100
AcDbMlineStyle
  2
STANDARD
 70
     0
  3

 62
     0
 51
90.0
 52
90.0
 71
     2
 49
0.5
 62
   256
  6
BYLAYER
 49
-0.5
 62
   256
  6
BYLAYER
  0
ACDBPLACEHOLDER
  5
E6F
102
{ACAD_REACTORS
330
E6E
102
}
330
E6E
  0
SCALE
  5
2EAD
102
{ACAD_REACTORS
330
2EAC
102
}
330
2EAC
100
AcDbScale
 70
     0
300
1:1
140
1.0
141
1.0
290
     1
  0
SCALE
  5
2EAE
102
{ACAD_REACTORS
330
2EAC
102
}
330
2EAC
100
AcDbScale
 70
     0
300
1:2
140
1.0
141
2.0
290
     0
  0
SCALE
  5
2EAF
102
{ACAD_REACTORS
330
2EAC
102
}
330
2EAC
100
AcDbScale
 70
     0
300
1:4
140
1.0
141
4.0
290
     0
  0
SCALE
  5
2EB0
102
{ACAD_REACTORS
330
2EAC
102
}
330
2EAC
100
AcDbScale
 70
     0
300
1:5
140
1.0
141
5.0
290
     0
  0
SCALE
  5
2EB1
102
{ACAD_REACTORS
330
2EAC
102
}
330
2EAC
100
AcDbScale
 70
     0
300
1:8
140
1.0
141
8.0
290
     0
  0
SCALE
  5
2EB2
102
{ACAD_REACTORS
330
2EAC
102
}
330
2EAC
100
AcDbScale
 70
     0
300
1:10
140
1.0
141
10.0
290
     0
  0
SCALE
  5
2EB3
102
{ACAD_REACTORS
330
2EAC
102
}
330
2EAC
100
AcDbScale
 70
     0
300
1:16
140
1.0
141
16.0
290
     0
  0
SCALE
  5
2EB4
102
{ACAD_REACTORS
330
2EAC
102
}
330
2EAC
100
AcDbScale
 70
     0
300
1:20
140
1.0
141
20.0
290
     0
  0
SCALE
  5
2EB5
102
{ACAD_REACTORS
330
2EAC
102
}
330
2EAC
100
AcDbScale
 70
     0
300
1:30
140
1.0
141
30.0
290
     0
  0
SCALE
  5
2EB6
102
{ACAD_REACTORS
330
2EAC
102
}
330
2EAC
100
AcDbScale
 70
     0
300
1:40
140
1.0
141
40.0
290
     0
  0
SCALE
  5
2EB7
102
{ACAD_REACTORS
330
2EAC
102
}
330
2EAC
100
AcDbScale
 70
     0
300
1:50
140
1.0
141
50.0
290
     0
  0
SCALE
  5
2EB8
102
{ACAD_REACTORS
330
2EAC
102
}
330
2EAC
100
AcDbScale
 70
     0
300
1:100
140
1.0
141
100.0
290
     0
  0
SCALE
  5
2EB9
102
{ACAD_REACTORS
330
2EAC
102
}
330
2EAC
100
AcDbScale
 70
     0
300
2:1
140
2.0
141
1.0
290
     0
  0
SCALE
  5
2EBA
102
{ACAD_REACTORS
330
2EAC
102
}
330
2EAC
100
AcDbScale
 70
     0
300
4:1
140
4.0
141
1.0
290
     0
  0
SCALE
  5
2EBB
102
{ACAD_REACTORS
330
2EAC
102
}
330
2EAC
100
AcDbScale
 70
     0
300
8:1
140
8.0
141
1.0
290
     0
  0
SCALE
  5
2EBC
102
{ACAD_REACTORS
330
2EAC
102
}
330
2EAC
100
AcDbScale
 70
     0
300
10:1
140
10.0
141
1.0
290
     0
  0
SCALE
  5
2EBD
102
{ACAD_REACTORS
330
2EAC
102
}
330
2EAC
100
AcDbScale
 70
     0
300
100:1
140
100.0
141
1.0
290
     0
  0
SCALE
  5
2EBE
102
{ACAD_REACTORS
330
2EAC
102
}
330
2EAC
100
AcDbScale
 70
     0
300
1/128" = 1'-0"
140
0.0078125
141
12.0
290
     0
  0
SCALE
  5
2EBF
102
{ACAD_REACTORS
330
2EAC
102
}
330
2EAC
100
AcDbScale
 70
     0
300
1/64" = 1'-0"
140
0.015625
141
12.0
290
     0
  0
SCALE
  5
2EC0
102
{ACAD_REACTORS
330
2EAC
102
}
330
2EAC
100
AcDbScale
 70
     0
300
1/32" = 1'-0"
140
0.03125
141
12.0
290
     0
  0
SCALE
  5
2EC1
102
{ACAD_REACTORS
330
2EAC
102
}
330
2EAC
100
AcDbScale
 70
     0
300
1/16" = 1'-0"
140
0.0625
141
12.0
290
     0
  0
SCALE
  5
2EC2
102
{ACAD_REACTORS
330
2EAC
102
}
330
2EAC
100
AcDbScale
 70
     0
300
3/32" = 1'-0"
140
0.09375
141
12.0
290
     0
  0
SCALE
  5
2EC3
102
{ACAD_REACTORS
330
2EAC
102
}
330
2EAC
100
AcDbScale
 70
     0
300
1/8" = 1'-0"
140
0.125
141
12.0
290
     0
  0
SCALE
  5
2EC4
102
{ACAD_REACTORS
330
2EAC
102
}
330
2EAC
100
AcDbScale
 70
     0
300
3/16" = 1'-0"
140
0.1875
141
12.0
290
     0
  0
SCALE
  5
2EC5
102
{ACAD_REACTORS
330
2EAC
102
}
330
2EAC
100
AcDbScale
 70
     0
300
1/4" = 1'-0"
140
0.25
141
12.0
290
     0
  0
SCALE
  5
2EC6
102
{ACAD_REACTORS
330
2EAC
102
}
330
2EAC
100
AcDbScale
 70
     0
300
3/8" = 1'-0"
140
0.375
141
12.0
290
     0
  0
SCALE
  5
2EC7
102
{ACAD_REACTORS
330
2EAC
102
}
330
2EAC
100
AcDbScale
 70
     0
300
1/2" = 1'-0"
140
0.5
141
12.0
290
     0
  0
SCALE
  5
2EC8
102
{ACAD_REACTORS
330
2EAC
102
}
330
2EAC
100
AcDbScale
 70
     0
300
3/4" = 1'-0"
140
0.75
141
12.0
290
     0
  0
SCALE
  5
2EC9
102
{ACAD_REACTORS
330
2EAC
102
}
330
2EAC
100
AcDbScale
 70
     0
300
1" = 1'-0"
140
1.0
141
12.0
290
     0
  0
SCALE
  5
2ECA
102
{ACAD_REACTORS
330
2EAC
102
}
330
2EAC
100
AcDbScale
 70
     0
300
1-1/2" = 1'-0"
140
1.5
141
12.0
290
     0
  0
SCALE
  5
2ECB
102
{ACAD_REACTORS
330
2EAC
102
}
330
2EAC
100
AcDbScale
 70
     0
300
3" = 1'-0"
140
3.0
141
12.0
290
     0
  0
SCALE
  5
2ECC
102
{ACAD_REACTORS
330
2EAC
102
}
330
2EAC
100
AcDbScale
 70
     0
300
6" = 1'-0"
140
6.0
141
12.0
290
     0
  0
SCALE
  5
2ECD
102
{ACAD_REACTORS
330
2EAC
102
}
330
2EAC
100
AcDbScale
 70
     0
300
1'-0" = 1'-0"
140
12.0
141
12.0
290
     0
  0
TABLESTYLE
  5
E73
102
{ACAD_REACTORS
330
E72
102
}
102
{ACAD_XDICTIONARY
360
2ECF
102
}
330
E72
100
AcDbTableStyle
  3
Standard
 70
     0
 71
     0
 40
0.06
 41
0.06
280
     0
281
     0
  7
STANDARD
140
0.18
170
     2
 62
     0
 63
   257
283
     0
274
    -2
284
     1
 64
     0
275
    -2
285
     1
 65
     0
276
    -2
286
     1
 66
     0
277
    -2
287
     1
 67
     0
278
    -2
288
     1
 68
     0
279
    -2
289
     1
 69
     0
  7
STANDARD
140
0.25
170
     5
 62
     0
 63
   257
283
     0
274
    -2
284
     1
 64
     0
275
    -2
285
     1
 65
     0
276
    -2
286
     1
 66
     0
277
    -2
287
     1
 67
     0
278
    -2
288
     1
 68
     0
279
    -2
289
     1
 69
     0
  7
STANDARD
140
0.18
170
     5
 62
     0
 63
   257
283
     0
274
    -2
284
     1
 64
     0
275
    -2
285
     1
 65
     0
276
    -2
286
     1
 66
     0
277
    -2
287
     1
 67
     0
278
    -2
288
     1
 68
     0
279
    -2
289
     1
 69
     0
  0
DICTIONARYVAR
  5
2ECE
102
{ACAD_REACTORS
330
DEA
102
}
330
DEA
100
DictionaryVariables
280
     0
  1
1:1
  0
DICTIONARYVAR
  5
E8D
102
{ACAD_REACTORS
330
DEA
102
}
330
DEA
100
DictionaryVariables
280
     0
  1
Standard
  0
DICTIONARYVAR
  5
E99
102
{ACAD_REACTORS
330
DEA
102
}
330
DEA
100
DictionaryVariables
280
     0
  1
1
  0
DICTIONARYVAR
  5
E9A
102
{ACAD_REACTORS
330
DEA
102
}
330
DEA
100
DictionaryVariables
280
     0
  1

  0
DICTIONARYVAR
  5
DEB
102
{ACAD_REACTORS
330
DEA
102
}
330
DEA
100
DictionaryVariables
280
     0
  1
96
  0
DICTIONARY
  5
2ECF
330
E73
100
AcDbDictionary
280
     1
281
     1
  3
ACAD_ROUNDTRIP_2008_TABLESTYLE_CELLSTYLEMAP
360
2ED1
  3
ACAD_XREC_ROUNDTRIP
360
2ED0
  0
CELLSTYLEMAP
  5
2ED1
102
{ACAD_REACTORS
330
2ECF
102
}
330
2ECF
100
AcDbCellStyleMap
 90
        3
300
CELLSTYLE
  1
TABLEFORMAT_BEGIN
 90
        5
170
     1
 91
        0
 92
    32768
 62
   257
 93
        1
300
CONTENTFORMAT
  1
CONTENTFORMAT_BEGIN
 90
        0
 91
        0
 92
        4
 93
        0
300

 40
0.0
140
1.0
 94
        5
 62
     0
340
10
144
0.25
309
CONTENTFORMAT_END
171
     1
301
MARGIN
  1
CELLMARGIN_BEGIN
 40
0.06
 40
0.06
 40
0.06
 40
0.06
 40
0.06
 40
0.06
309
CELLMARGIN_END
 94
        6
 95
        1
302
GRIDFORMAT
  1
GRIDFORMAT_BEGIN
 90
        0
 91
        1
 62
     0
 92
       -2
340
0
 93
        0
 40
0.045
309
GRIDFORMAT_END
 95
        2
302
GRIDFORMAT
  1
GRIDFORMAT_BEGIN
 90
        0
 91
        1
 62
     0
 92
       -2
340
0
 93
        0
 40
0.045
309
GRIDFORMAT_END
 95
        4
302
GRIDFORMAT
  1
GRIDFORMAT_BEGIN
 90
        0
 91
        1
 62
     0
 92
       -2
340
0
 93
        0
 40
0.045
309
GRIDFORMAT_END
 95
        8
302
GRIDFORMAT
  1
GRIDFORMAT_BEGIN
 90
        0
 91
        1
 62
     0
 92
       -2
340
0
 93
        0
 40
0.045
309
GRIDFORMAT_END
 95
       16
302
GRIDFORMAT
  1
GRIDFORMAT_BEGIN
 90
        0
 91
        1
 62
     0
 92
       -2
340
0
 93
        0
 40
0.045
309
GRIDFORMAT_END
 95
       32
302
GRIDFORMAT
  1
GRIDFORMAT_BEGIN
 90
        0
 91
        1
 62
     0
 92
       -2
340
0
 93
        0
 40
0.045
309
GRIDFORMAT_END
309
TABLEFORMAT_END
  1
CELLSTYLE_BEGIN
 90
        1
 91
        1
300
_TITLE
309
CELLSTYLE_END
300
CELLSTYLE
  1
TABLEFORMAT_BEGIN
 90
        5
170
     1
 91
        0
 92
        0
 62
   257
 93
        1
300
CONTENTFORMAT
  1
CONTENTFORMAT_BEGIN
 90
        0
 91
        0
 92
        4
 93
        0
300

 40
0.0
140
1.0
 94
        5
 62
     0
340
10
144
0.18
309
CONTENTFORMAT_END
171
     1
301
MARGIN
  1
CELLMARGIN_BEGIN
 40
0.06
 40
0.06
 40
0.06
 40
0.06
 40
0.06
 40
0.06
309
CELLMARGIN_END
 94
        6
 95
        1
302
GRIDFORMAT
  1
GRIDFORMAT_BEGIN
 90
        0
 91
        1
 62
     0
 92
       -2
340
0
 93
        0
 40
0.045
309
GRIDFORMAT_END
 95
        2
302
GRIDFORMAT
  1
GRIDFORMAT_BEGIN
 90
        0
 91
        1
 62
     0
 92
       -2
340
0
 93
        0
 40
0.045
309
GRIDFORMAT_END
 95
        4
302
GRIDFORMAT
  1
GRIDFORMAT_BEGIN
 90
        0
 91
        1
 62
     0
 92
       -2
340
0
 93
        0
 40
0.045
309
GRIDFORMAT_END
 95
        8
302
GRIDFORMAT
  1
GRIDFORMAT_BEGIN
 90
        0
 91
        1
 62
     0
 92
       -2
340
0
 93
        0
 40
0.045
309
GRIDFORMAT_END
 95
       16
302
GRIDFORMAT
  1
GRIDFORMAT_BEGIN
 90
        0
 91
        1
 62
     0
 92
       -2
340
0
 93
        0
 40
0.045
309
GRIDFORMAT_END
 95
       32
302
GRIDFORMAT
  1
GRIDFORMAT_BEGIN
 90
        0
 91
        1
 62
     0
 92
       -2
340
0
 93
        0
 40
0.045
309
GRIDFORMAT_END
309
TABLEFORMAT_END
  1
CELLSTYLE_BEGIN
 90
        2
 91
        1
300
_HEADER
309
CELLSTYLE_END
300
CELLSTYLE
  1
TABLEFORMAT_BEGIN
 90
        5
170
     1
 91
        0
 92
        0
 62
   257
 93
        1
300
CONTENTFORMAT
  1
CONTENTFORMAT_BEGIN
 90
        0
 91
        0
 92
        4
 93
        0
300

 40
0.0
140
1.0
 94
        2
 62
     0
340
10
144
0.18
309
CONTENTFORMAT_END
171
     1
301
MARGIN
  1
CELLMARGIN_BEGIN
 40
0.06
 40
0.06
 40
0.06
 40
0.06
 40
0.06
 40
0.06
309
CELLMARGIN_END
 94
        6
 95
        1
302
GRIDFORMAT
  1
GRIDFORMAT_BEGIN
 90
        0
 91
        1
 62
     0
 92
       -2
340
0
 93
        0
 40
0.045
309
GRIDFORMAT_END
 95
        2
302
GRIDFORMAT
  1
GRIDFORMAT_BEGIN
 90
        0
 91
        1
 62
     0
 92
       -2
340
0
 93
        0
 40
0.045
309
GRIDFORMAT_END
 95
        4
302
GRIDFORMAT
  1
GRIDFORMAT_BEGIN
 90
        0
 91
        1
 62
     0
 92
       -2
340
0
 93
        0
 40
0.045
309
GRIDFORMAT_END
 95
        8
302
GRIDFORMAT
  1
GRIDFORMAT_BEGIN
 90
        0
 91
        1
 62
     0
 92
       -2
340
0
 93
        0
 40
0.045
309
GRIDFORMAT_END
 95
       16
302
GRIDFORMAT
  1
GRIDFORMAT_BEGIN
 90
        0
 91
        1
 62
     0
 92
       -2
340
0
 93
        0
 40
0.045
309
GRIDFORMAT_END
 95
       32
302
GRIDFORMAT
  1
GRIDFORMAT_BEGIN
 90
        0
 91
        1
 62
     0
 92
       -2
340
0
 93
        0
 40
0.045
309
GRIDFORMAT_END
309
TABLEFORMAT_END
  1
CELLSTYLE_BEGIN
 90
        3
 91
        2
300
_DATA
309
CELLSTYLE_END
  0
XRECORD
  5
2ED0
102
{ACAD_REACTORS
330
2ECF
102
}
330
2ECF
100
AcDbXrecord
280
     1
102
ACAD_ROUNDTRIP_PRE2007_TABLESTYLE
 90
        4
 91
        0
  1

 92
        4
 93
        0
  2

 94
        4
 95
        0
  3

  0
ENDSEC
  0
EOF
