  0
SECTION
  2
HEADER
  9
$ACADVER
  1
AC1018
  9
$ACADMAINTVER
 70
     0
  9
$DWGCODEPAGE
  3
ANSI_932
  9
$INSBASE
 10
0.0
 20
0.0
 30
0.0
  9
$EXTMIN
 10
510.0
 20
0.0
 30
0.0
  9
$EXTMAX
 10
12000.0
 20
8310.0
 30
0.0
  9
$LIMMIN
 10
0.0
 20
0.0
  9
$LIMMAX
 10
12600.0
 20
8910.0
  9
$ORTHOMODE
 70
     1
  9
$REGENMODE
 70
     1
  9
$FILLMODE
 70
     1
  9
$QTEXTMODE
 70
     0
  9
$MIRRTEXT
 70
     0
  9
$LTSCALE
 40
300.0
  9
$ATTMODE
 70
     1
  9
$TEXTSIZE
 40
3.0
  9
$TRACEWID
 40
0.05
  9
$TEXTSTYLE
  7
STANDARD
  9
$CLAYER
  8
SUNPOU
  9
$CELTYPE
  6
BYLAYER
  9
$CECOLOR
 62
   256
  9
$CELTSCALE
 40
1.0
  9
$DISPSILH
 70
     0
  9
$DIMSCALE
 40
30.0
  9
$DIMASZ
 40
2.0
  9
$DIMEXO
 40
2.0
  9
$DIMDLI
 40
7.0
  9
$DIMRND
 40
0.0
  9
$DIMDLE
 40
0.0
  9
$DIMEXE
 40
0.5
  9
$DIMTP
 40
0.0
  9
$DIMTM
 40
0.0
  9
$DIMTXT
 40
3.0
  9
$DIMCEN
 40
0.0
  9
$DIMTSZ
 40
0.0
  9
$DIMTOL
 70
     0
  9
$DIMLIM
 70
     0
  9
$DIMTIH
 70
     0
  9
$DIMTOH
 70
     0
  9
$DIMSE1
 70
     0
  9
$DIMSE2
 70
     0
  9
$DIMTAD
 70
     1
  9
$DIMZIN
 70
     8
  9
$DIMBLK
  1

  9
$DIMASO
 70
     1
  9
$DIMSHO
 70
     1
  9
$DIMPOST
  1

  9
$DIMAPOST
  1

  9
$DIMALT
 70
     0
  9
$DIMALTD
 70
     2
  9
$DIMALTF
 40
25.4
  9
$DIMLFAC
 40
1.0
  9
$DIMTOFL
 70
     0
  9
$DIMTVP
 40
1.0
  9
$DIMTIX
 70
     1
  9
$DIMSOXD
 70
     0
  9
$DIMSAH
 70
     0
  9
$DIMBLK1
  1

  9
$DIMBLK2
  1

  9
$DIMSTYLE
  2
A3-30
  9
$DIMCLRD
 70
     0
  9
$DIMCLRE
 70
     0
  9
$DIMCLRT
 70
     0
  9
$DIMTFAC
 40
1.0
  9
$DIMGAP
 40
0.8
  9
$DIMJUST
 70
     0
  9
$DIMSD1
 70
     0
  9
$DIMSD2
 70
     0
  9
$DIMTOLJ
 70
     1
  9
$DIMTZIN
 70
     8
  9
$DIMALTZ
 70
     8
  9
$DIMALTTZ
 70
     8
  9
$DIMUPT
 70
     0
  9
$DIMDEC
 70
     0
  9
$DIMTDEC
 70
     0
  9
$DIMALTU
 70
     2
  9
$DIMALTTD
 70
     2
  9
$DIMTXSTY
  7
STANDARD
  9
$DIMAUNIT
 70
     0
  9
$DIMADEC
 70
     4
  9
$DIMALTRND
 40
0.0
  9
$DIMAZIN
 70
     0
  9
$DIMDSEP
 70
    46
  9
$DIMATFIT
 70
     3
  9
$DIMFRAC
 70
     0
  9
$DIMLDRBLK
  1

  9
$DIMLUNIT
 70
     2
  9
$DIMLWD
 70
    -2
  9
$DIMLWE
 70
    -2
  9
$DIMTMOVE
 70
     2
  9
$LUNITS
 70
     2
  9
$LUPREC
 70
     4
  9
$SKETCHINC
 40
0.1
  9
$FILLETRAD
 40
0.0
  9
$AUNITS
 70
     0
  9
$AUPREC
 70
     6
  9
$MENU
  1
acad
  9
$ELEVATION
 40
0.0
  9
$PELEVATION
 40
0.0
  9
$THICKNESS
 40
0.0
  9
$LIMCHECK
 70
     0
  9
$CHAMFERA
 40
0.0
  9
$CHAMFERB
 40
0.0
  9
$CHAMFERC
 40
0.0
  9
$CHAMFERD
 40
0.0
  9
$SKPOLY
 70
     0
  9
$TDCREATE
 40
2450014.659421296
  9
$TDUCREATE
 40
2450014.284421296
  9
$TDUPDATE
 40
2455838.37955684
  9
$TDUUPDATE
 40
2455838.00455684
  9
$TDINDWG
 40
0.0753743403
  9
$TDUSRTIMER
 40
0.0753743403
  9
$USRTIMER
 70
     1
  9
$ANGBASE
 50
0.0
  9
$ANGDIR
 70
     0
  9
$PDMODE
 70
     0
  9
$PDSIZE
 40
0.0
  9
$PLINEWID
 40
0.0
  9
$SPLFRAME
 70
     0
  9
$SPLINETYPE
 70
     6
  9
$SPLINESEGS
 70
     8
  9
$HANDSEED
  5
1EBD
  9
$SURFTAB1
 70
     6
  9
$SURFTAB2
 70
     6
  9
$SURFTYPE
 70
     6
  9
$SURFU
 70
     6
  9
$SURFV
 70
     6
  9
$UCSBASE
  2

  9
$UCSNAME
  2

  9
$UCSORG
 10
0.0
 20
0.0
 30
0.0
  9
$UCSXDIR
 10
1.0
 20
0.0
 30
0.0
  9
$UCSYDIR
 10
0.0
 20
1.0
 30
0.0
  9
$UCSORTHOREF
  2

  9
$UCSORTHOVIEW
 70
     0
  9
$UCSORGTOP
 10
0.0
 20
0.0
 30
0.0
  9
$UCSORGBOTTOM
 10
0.0
 20
0.0
 30
0.0
  9
$UCSORGLEFT
 10
0.0
 20
0.0
 30
0.0
  9
$UCSORGRIGHT
 10
0.0
 20
0.0
 30
0.0
  9
$UCSORGFRONT
 10
0.0
 20
0.0
 30
0.0
  9
$UCSORGBACK
 10
0.0
 20
0.0
 30
0.0
  9
$PUCSBASE
  2

  9
$PUCSNAME
  2

  9
$PUCSORG
 10
0.0
 20
0.0
 30
0.0
  9
$PUCSXDIR
 10
1.0
 20
0.0
 30
0.0
  9
$PUCSYDIR
 10
0.0
 20
1.0
 30
0.0
  9
$PUCSORTHOREF
  2

  9
$PUCSORTHOVIEW
 70
     0
  9
$PUCSORGTOP
 10
0.0
 20
0.0
 30
0.0
  9
$PUCSORGBOTTOM
 10
0.0
 20
0.0
 30
0.0
  9
$PUCSORGLEFT
 10
0.0
 20
0.0
 30
0.0
  9
$PUCSORGRIGHT
 10
0.0
 20
0.0
 30
0.0
  9
$PUCSORGFRONT
 10
0.0
 20
0.0
 30
0.0
  9
$PUCSORGBACK
 10
0.0
 20
0.0
 30
0.0
  9
$USERI1
 70
     0
  9
$USERI2
 70
     0
  9
$USERI3
 70
     0
  9
$USERI4
 70
     0
  9
$USERI5
 70
     0
  9
$USERR1
 40
0.0
  9
$USERR2
 40
0.0
  9
$USERR3
 40
0.0
  9
$USERR4
 40
0.0
  9
$USERR5
 40
0.0
  9
$WORLDVIEW
 70
     1
  9
$SHADEDGE
 70
     3
  9
$SHADEDIF
 70
    70
  9
$TILEMODE
 70
     1
  9
$MAXACTVP
 70
    48
  9
$PINSBASE
 10
0.0
 20
0.0
 30
0.0
  9
$PLIMCHECK
 70
     0
  9
$PEXTMIN
 10
1.000000000000000E+20
 20
1.000000000000000E+20
 30
1.000000000000000E+20
  9
$PEXTMAX
 10
-1.000000000000000E+20
 20
-1.000000000000000E+20
 30
-1.000000000000000E+20
  9
$PLIMMIN
 10
0.0
 20
0.0
  9
$PLIMMAX
 10
12.0
 20
9.0
  9
$UNITMODE
 70
     0
  9
$VISRETAIN
 70
     0
  9
$PLINEGEN
 70
     0
  9
$PSLTSCALE
 70
     0
  9
$TREEDEPTH
 70
  3020
  9
$CMLSTYLE
  2
STANDARD
  9
$CMLJUST
 70
     0
  9
$CMLSCALE
 40
1.0
  9
$PROXYGRAPHICS
 70
     1
  9
$MEASUREMENT
 70
     0
  9
$CELWEIGHT
370
    -1
  9
$ENDCAPS
280
     0
  9
$JOINSTYLE
280
     0
  9
$LWDISPLAY
290
     0
  9
$INSUNITS
 70
     0
  9
$HYPERLINKBASE
  1

  9
$STYLESHEET
  1
acad.ctb
  9
$XEDIT
290
     1
  9
$CEPSNTYPE
380
     0
  9
$PSTYLEMODE
290
     1
  9
$FINGERPRINTGUID
  2
{9E4B692F-34DC-11D6-9351-0080AD72C8A3}
  9
$VERSIONGUID
  2
{BFA20F78-3774-4CC2-B0B0-644D12BAD41C}
  9
$EXTNAMES
290
     1
  9
$PSVPSCALE
 40
0.0
  9
$OLESTARTUP
290
     0
  9
$SORTENTS
280
   127
  9
$INDEXCTL
280
     0
  9
$HIDETEXT
280
     1
  9
$XCLIPFRAME
290
     0
  9
$HALOGAP
280
     0
  9
$OBSCOLOR
 70
   257
  9
$OBSLTYPE
280
     0
  9
$INTERSECTIONDISPLAY
280
     0
  9
$INTERSECTIONCOLOR
 70
   257
  9
$DIMASSOC
280
     1
  9
$PROJECTNAME
  1

  0
ENDSEC
  0
SECTION
  2
CLASSES
  0
CLASS
  1
ACDBDICTIONARYWDFLT
  2
AcDbDictionaryWithDefault
  3
ObjectDBX Classes
 90
        0
 91
        4
280
     0
281
     0
  0
CLASS
  1
ACDBPLACEHOLDER
  2
AcDbPlaceHolder
  3
ObjectDBX Classes
 90
        0
 91
        1
280
     0
281
     0
  0
CLASS
  1
LAYOUT
  2
AcDbLayout
  3
ObjectDBX Classes
 90
        0
 91
        1
280
     0
281
     0
  0
CLASS
  1
DICTIONARYVAR
  2
AcDbDictionaryVar
  3
ObjectDBX Classes
 90
        0
 91
        4
280
     0
281
     0
  0
CLASS
  1
DUMMY
  2
AcDbLongTransaction
  3
DUMMY
 90
        0
 91
        1
280
     0
281
     0
  0
CLASS
  1
LWPOLYLINE
  2
AcDbPolyline
  3
AutoCAD 2000
 90
        0
 91
        1
280
     0
281
     1
  0
CLASS
  1
HATCH
  2
AcDbHatch
  3
AutoCAD 2000
 90
        0
 91
        1
280
     0
281
     1
  0
CLASS
  1
XRECORD
  2
AcDbXrecord
  3
AutoCAD 2000
 90
        0
 91
        1
280
     0
281
     0
  0
CLASS
  1
DUMMY
  2
AcDbLongTransaction
  3
DUMMY
 90
        0
 91
        1
280
     0
281
     0
  0
CLASS
  1
LWPOLYLINE
  2
AcDbPolyline
  3
AutoCAD 2000
 90
        0
 91
        1
280
     0
281
     1
  0
CLASS
  1
HATCH
  2
AcDbHatch
  3
AutoCAD 2000
 90
        0
 91
        1
280
     0
281
     1
  0
CLASS
  1
XRECORD
  2
AcDbXrecord
  3
AutoCAD 2000
 90
        0
 91
        1
280
     0
281
     0
  0
CLASS
  1
DUMMY
  2
AcDbLongTransaction
  3
DUMMY
 90
        0
 91
        1
280
     0
281
     0
  0
CLASS
  1
LWPOLYLINE
  2
AcDbPolyline
  3
AutoCAD 2000
 90
        0
 91
        1
280
     0
281
     1
  0
CLASS
  1
HATCH
  2
AcDbHatch
  3
AutoCAD 2000
 90
        0
 91
        1
280
     0
281
     1
  0
CLASS
  1
XRECORD
  2
AcDbXrecord
  3
AutoCAD 2000
 90
        0
 91
        1
280
     0
281
     0
  0
CLASS
  1
TABLESTYLE
  2
AcDbTableStyle
  3
ObjectDBX Classes
 90
     4095
 91
        4
280
     0
281
     0
  0
CLASS
  1
SORTENTSTABLE
  2
AcDbSortentsTable
  3
ObjectDBX Classes
 90
        0
 91
        4
280
     0
281
     0
  0
CLASS
  1
SCALE
  2
AcDbScale
  3
ObjectDBX Classes
 90
     1153
 91
        4
280
     0
281
     0
  0
CLASS
  1
CELLSTYLEMAP
  2
AcDbCellStyleMap
  3
ObjectDBX Classes
 90
     1152
 91
        4
280
     0
281
     0
  0
ENDSEC
  0
SECTION
  2
TABLES
  0
TABLE
  2
VPORT
  5
8
330
0
100
AcDbSymbolTable
 70
     2
  0
VPORT
  5
1E8F
330
8
100
AcDbSymbolTableRecord
100
AcDbViewportTableRecord
  2
*Active
 70
     0
 10
0.0
 20
0.0
 11
1.0
 21
1.0
 12
6332.159388369311
 22
4170.416667845595
 13
0.0
 23
0.0
 14
30.0
 24
30.0
 15
300.0
 25
300.0
 16
0.0
 26
0.0
 36
1.0
 17
0.0
 27
0.0
 37
0.0
 40
10277.58476313407
 41
1.507024265644955
 42
50.0
 43
0.0
 44
0.0
 50
0.0
 51
0.0
 71
     0
 72
   100
 73
     1
 74
     1
 75
     0
 76
     0
 77
     0
 78
     0
281
     0
 65
     1
110
0.0
120
0.0
130
0.0
111
1.0
121
0.0
131
0.0
112
0.0
122
1.0
132
0.0
 79
     0
146
0.0
  0
ENDTAB
  0
TABLE
  2
LTYPE
  5
5
330
0
100
AcDbSymbolTable
 70
     5
  0
LTYPE
  5
11
330
5
100
AcDbSymbolTableRecord
100
AcDbLinetypeTableRecord
  2
BYBLOCK
 70
     0
  3

 72
    65
 73
     0
 40
0.0
  0
LTYPE
  5
12
330
5
100
AcDbSymbolTableRecord
100
AcDbLinetypeTableRecord
  2
BYLAYER
 70
     0
  3

 72
    65
 73
     0
 40
0.0
  0
LTYPE
  5
13
330
5
100
AcDbSymbolTableRecord
100
AcDbLinetypeTableRecord
  2
CONTINUOUS
 70
     0
  3
Solid line
 72
    65
 73
     0
 40
0.0
  0
LTYPE
  5
1E
330
5
100
AcDbSymbolTableRecord
100
AcDbLinetypeTableRecord
  2
HIDDEN
 70
     0
  3
_ _ _ _ _ _ _ _ _ _ _ _ _ _ _ _ _ _ _ _ _ _ _
 72
    65
 73
     2
 40
0.375
 49
0.25
 74
     0
 49
-0.125
 74
     0
  0
LTYPE
  5
1F
330
5
100
AcDbSymbolTableRecord
100
AcDbLinetypeTableRecord
  2
CENTER
 70
     0
  3
____ _ ____ _ ____ _ ____ _ ____ _ ____ _ ____
 72
    65
 73
     4
 40
2.0
 49
1.25
 74
     0
 49
-0.25
 74
     0
 49
0.25
 74
     0
 49
-0.25
 74
     0
  0
LTYPE
  5
20
330
5
100
AcDbSymbolTableRecord
100
AcDbLinetypeTableRecord
  2
PHANTOM
 70
     0
  3
_____ _ _ _____ _ _ _____ _ _ _____ _ _ ____
 72
    65
 73
     6
 40
2.5
 49
1.25
 74
     0
 49
-0.25
 74
     0
 49
0.25
 74
     0
 49
-0.25
 74
     0
 49
0.25
 74
     0
 49
-0.25
 74
     0
  0
LTYPE
  5
D6D
330
5
100
AcDbSymbolTableRecord
100
AcDbLinetypeTableRecord
  2
DASHED2
 70
     0
  3
_ _ _ _ _ _ _ _ _ _ _ _ _ _ _ _ _ _ _ _ _ _ _ _
 72
    65
 73
     2
 40
0.375
 49
0.25
 74
     0
 49
-0.125
 74
     0
  0
ENDTAB
  0
TABLE
  2
LAYER
  5
2
330
0
100
AcDbSymbolTable
 70
    10
  0
LAYER
  5
E
330
2
100
AcDbSymbolTableRecord
100
AcDbLayerTableRecord
  2
0
 70
     0
 62
     7
  6
CONTINUOUS
370
    -3
390
7A
  0
LAYER
  5
23
330
2
100
AcDbSymbolTableRecord
100
AcDbLayerTableRecord
  2
SUNPOU
 70
     0
 62
     1
  6
CONTINUOUS
370
    -3
390
7A
  0
LAYER
  5
24
330
2
100
AcDbSymbolTableRecord
100
AcDbLayerTableRecord
  2
HAIKIN
 70
     0
 62
     2
  6
CONTINUOUS
370
    -3
390
7A
  0
LAYER
  5
25
330
2
100
AcDbSymbolTableRecord
100
AcDbLayerTableRecord
  2
SEIHIN
 70
     0
 62
     3
  6
CONTINUOUS
370
    -3
390
7A
  0
LAYER
  5
26
330
2
100
AcDbSymbolTableRecord
100
AcDbLayerTableRecord
  2
HASEN
 70
     0
 62
     4
  6
HIDDEN
370
    -3
390
7A
  0
LAYER
  5
27
330
2
100
AcDbSymbolTableRecord
100
AcDbLayerTableRecord
  2
1HASEN
 70
     0
 62
     5
  6
CENTER
370
    -3
390
7A
  0
LAYER
  5
28
330
2
100
AcDbSymbolTableRecord
100
AcDbLayerTableRecord
  2
2HASEN
 70
     0
 62
     6
  6
PHANTOM
370
    -3
390
7A
  0
LAYER
  5
29
330
2
100
AcDbSymbolTableRecord
100
AcDbLayerTableRecord
  2
HOJO
 70
     0
 62
     7
  6
CONTINUOUS
370
    -3
390
7A
  0
LAYER
  5
2A
330
2
100
AcDbSymbolTableRecord
100
AcDbLayerTableRecord
  2
TEN
 70
     0
 62
     7
  6
CONTINUOUS
370
    -3
390
7A
  0
LAYER
  5
70
330
2
100
AcDbSymbolTableRecord
100
AcDbLayerTableRecord
  2
DEFPOINTS
 70
     0
 62
     7
  6
CONTINUOUS
290
     0
370
    -3
390
7A
  0
ENDTAB
  0
TABLE
  2
STYLE
  5
3
330
0
100
AcDbSymbolTable
 70
     1
  0
STYLE
  5
F
330
3
100
AcDbSymbolTableRecord
100
AcDbTextStyleTableRecord
  2
STANDARD
 70
     0
 40
0.0
 41
0.8
 50
0.0
 71
     0
 42
0.2
  3
TXT.shx
  4
BIGFONT.shx
  0
ENDTAB
  0
TABLE
  2
VIEW
  5
6
330
0
100
AcDbSymbolTable
 70
     0
  0
ENDTAB
  0
TABLE
  2
UCS
  5
7
330
0
100
AcDbSymbolTable
 70
     0
  0
ENDTAB
  0
TABLE
  2
APPID
  5
9
330
0
100
AcDbSymbolTable
 70
    12
  0
APPID
  5
10
330
9
100
AcDbSymbolTableRecord
100
AcDbRegAppTableRecord
  2
ACAD
 70
     0
  0
APPID
  5
9B0
330
9
100
AcDbSymbolTableRecord
100
AcDbRegAppTableRecord
  2
ACAD_DSTYLE_DIMTEXT_FILL
 70
     0
  0
APPID
  5
9B1
330
9
100
AcDbSymbolTableRecord
100
AcDbRegAppTableRecord
  2
ACAD_DSTYLE_DIMEXT_LENGTH
 70
     0
  0
APPID
  5
9B2
330
9
100
AcDbSymbolTableRecord
100
AcDbRegAppTableRecord
  2
ACAD_DSTYLE_DIMEXT_ENABLED
 70
     0
  0
APPID
  5
9B3
330
9
100
AcDbSymbolTableRecord
100
AcDbRegAppTableRecord
  2
ACAD_DSTYLE_DIM_LINETYPE
 70
     0
  0
APPID
  5
9B4
330
9
100
AcDbSymbolTableRecord
100
AcDbRegAppTableRecord
  2
ACAD_DSTYLE_DIM_EXT1_LINETYPE
 70
     0
  0
APPID
  5
9B5
330
9
100
AcDbSymbolTableRecord
100
AcDbRegAppTableRecord
  2
ACAD_DSTYLE_DIM_EXT2_LINETYPE
 70
     0
  0
APPID
  5
A71
330
9
100
AcDbSymbolTableRecord
100
AcDbRegAppTableRecord
  2
ACAD_DSTYLE_DIMJOGGED_JOGANGLE_SYMBOL
 70
     0
  0
APPID
  5
C55
330
9
100
AcDbSymbolTableRecord
100
AcDbRegAppTableRecord
  2
ACAD_DSTYLE_DIMARC_LENGTH_SYMBOL
 70
     0
  0
APPID
  5
D6F
330
9
100
AcDbSymbolTableRecord
100
AcDbRegAppTableRecord
  2
ACAD_PSEXT
 70
     0
  0
APPID
  5
D70
330
9
100
AcDbSymbolTableRecord
100
AcDbRegAppTableRecord
  2
AcAecLayerStandard
 70
     0
  0
APPID
  5
1801
330
9
100
AcDbSymbolTableRecord
100
AcDbRegAppTableRecord
  2
ACAD_EXEMPT_FROM_CAD_STANDARDS
 70
     0
  0
ENDTAB
  0
TABLE
  2
DIMSTYLE
  5
A
330
0
100
AcDbSymbolTable
 70
     3
100
AcDbDimStyleTable
  0
DIMSTYLE
105
61
330
A
100
AcDbSymbolTableRecord
100
AcDbDimStyleTableRecord
  2
STANDARD
 70
     0
178
     0
340
F
  0
DIMSTYLE
105
C5A
102
{ACAD_REACTORS
330
18A5
330
18A1
330
1533
330
1549
330
1556
330
1564
330
1572
330
157F
330
15BA
330
15C8
330
15E8
330
15F5
330
1602
330
1633
330
1641
330
1661
330
1721
330
1722
330
1723
330
1724
330
1725
330
1726
330
180A
330
180B
330
180C
330
19A6
330
19A3
330
19A0
330
199F
330
199E
330
199D
330
199C
330
199B
330
199A
330
1999
330
1C1A
330
1C27
330
1C39
330
1C38
330
1C37
330
1C36
330
1C35
330
1C34
330
1E51
102
}
330
A
100
AcDbSymbolTableRecord
100
AcDbDimStyleTableRecord
  2
A3-30
 70
     0
 40
30.0
 41
2.0
 42
2.0
 43
7.0
 44
0.5
 73
     0
 74
     0
 77
     1
 78
     8
140
3.0
141
0.0
145
1.0
147
0.8
174
     1
178
     0
179
     4
271
     0
272
     0
279
     2
284
     8
285
     8
286
     8
340
F
  0
DIMSTYLE
105
D6E
330
A
100
AcDbSymbolTableRecord
100
AcDbDimStyleTableRecord
  2
A3-25
 70
     0
 40
25.0
 41
1.8
 42
2.0
 43
7.0
 44
0.5
 73
     0
 74
     0
 77
     1
 78
     8
140
2.5
141
0.0
145
1.0
147
0.7
174
     1
178
     0
179
     4
271
     0
272
     0
279
     2
284
     8
285
     8
286
     8
340
F
  0
ENDTAB
  0
TABLE
  2
BLOCK_RECORD
  5
1
330
0
100
AcDbSymbolTable
 70
    51
  0
BLOCK_RECORD
  5
17
102
{ACAD_XDICTIONARY
360
90E
102
}
330
1
100
AcDbSymbolTableRecord
100
AcDbBlockTableRecord
  2
*MODEL_SPACE
340
7D
  0
BLOCK_RECORD
  5
14
330
1
100
AcDbSymbolTableRecord
100
AcDbBlockTableRecord
  2
*PAPER_SPACE
340
7E
  0
BLOCK_RECORD
  5
1C
330
1
100
AcDbSymbolTableRecord
100
AcDbBlockTableRecord
  2
BORDER
340
0
  0
BLOCK_RECORD
  5
1D
330
1
100
AcDbSymbolTableRecord
100
AcDbBlockTableRecord
  2
SA3
340
0
102
{BLKREFS
331
60
102
}
  0
BLOCK_RECORD
  5
82
330
1
100
AcDbSymbolTableRecord
100
AcDbBlockTableRecord
  2
*D2
340
0
  0
BLOCK_RECORD
  5
8E
330
1
100
AcDbSymbolTableRecord
100
AcDbBlockTableRecord
  2
*D3
340
0
  0
BLOCK_RECORD
  5
9C
330
1
100
AcDbSymbolTableRecord
100
AcDbBlockTableRecord
  2
*D4
340
0
  0
BLOCK_RECORD
  5
AA
330
1
100
AcDbSymbolTableRecord
100
AcDbBlockTableRecord
  2
*D5
340
0
  0
BLOCK_RECORD
  5
B6
330
1
100
AcDbSymbolTableRecord
100
AcDbBlockTableRecord
  2
*D6
340
0
  0
BLOCK_RECORD
  5
C3
330
1
100
AcDbSymbolTableRecord
100
AcDbBlockTableRecord
  2
A$C79F54BAC
340
0
  0
BLOCK_RECORD
  5
D61
330
1
100
AcDbSymbolTableRecord
100
AcDbBlockTableRecord
  2
FG
340
0
102
{BLKREFS
331
DDB
331
171E
102
}
  0
BLOCK_RECORD
  5
D68
330
1
100
AcDbSymbolTableRecord
100
AcDbBlockTableRecord
  2
_DOT
340
0
  0
BLOCK_RECORD
  5
DF3
330
1
100
AcDbSymbolTableRecord
100
AcDbBlockTableRecord
  2
FGG
340
0
  0
BLOCK_RECORD
  5
1534
330
1
100
AcDbSymbolTableRecord
100
AcDbBlockTableRecord
  2
*D11
340
0
  0
BLOCK_RECORD
  5
154A
330
1
100
AcDbSymbolTableRecord
100
AcDbBlockTableRecord
  2
*D12
340
0
  0
BLOCK_RECORD
  5
1557
330
1
100
AcDbSymbolTableRecord
100
AcDbBlockTableRecord
  2
*D13
340
0
  0
BLOCK_RECORD
  5
1565
330
1
100
AcDbSymbolTableRecord
100
AcDbBlockTableRecord
  2
*D14
340
0
  0
BLOCK_RECORD
  5
1573
330
1
100
AcDbSymbolTableRecord
100
AcDbBlockTableRecord
  2
*D15
340
0
  0
BLOCK_RECORD
  5
1580
330
1
100
AcDbSymbolTableRecord
100
AcDbBlockTableRecord
  2
*D16
340
0
  0
BLOCK_RECORD
  5
15BB
330
1
100
AcDbSymbolTableRecord
100
AcDbBlockTableRecord
  2
*D17
340
0
  0
BLOCK_RECORD
  5
15C9
330
1
100
AcDbSymbolTableRecord
100
AcDbBlockTableRecord
  2
*D18
340
0
  0
BLOCK_RECORD
  5
15E9
330
1
100
AcDbSymbolTableRecord
100
AcDbBlockTableRecord
  2
*D19
340
0
  0
BLOCK_RECORD
  5
15F6
330
1
100
AcDbSymbolTableRecord
100
AcDbBlockTableRecord
  2
*D20
340
0
  0
BLOCK_RECORD
  5
1603
330
1
100
AcDbSymbolTableRecord
100
AcDbBlockTableRecord
  2
*D21
340
0
  0
BLOCK_RECORD
  5
1634
330
1
100
AcDbSymbolTableRecord
100
AcDbBlockTableRecord
  2
*D22
340
0
  0
BLOCK_RECORD
  5
1642
330
1
100
AcDbSymbolTableRecord
100
AcDbBlockTableRecord
  2
*D23
340
0
  0
BLOCK_RECORD
  5
1662
330
1
100
AcDbSymbolTableRecord
100
AcDbBlockTableRecord
  2
*D24
340
0
  0
BLOCK_RECORD
  5
1727
330
1
100
AcDbSymbolTableRecord
100
AcDbBlockTableRecord
  2
*D25
340
0
  0
BLOCK_RECORD
  5
1733
330
1
100
AcDbSymbolTableRecord
100
AcDbBlockTableRecord
  2
*D26
340
0
  0
BLOCK_RECORD
  5
173F
330
1
100
AcDbSymbolTableRecord
100
AcDbBlockTableRecord
  2
*D27
340
0
  0
BLOCK_RECORD
  5
174B
330
1
100
AcDbSymbolTableRecord
100
AcDbBlockTableRecord
  2
*D28
340
0
  0
BLOCK_RECORD
  5
1757
330
1
100
AcDbSymbolTableRecord
100
AcDbBlockTableRecord
  2
*D29
340
0
  0
BLOCK_RECORD
  5
1763
330
1
100
AcDbSymbolTableRecord
100
AcDbBlockTableRecord
  2
*D30
340
0
  0
BLOCK_RECORD
  5
180D
330
1
100
AcDbSymbolTableRecord
100
AcDbBlockTableRecord
  2
*D31
340
0
  0
BLOCK_RECORD
  5
181A
330
1
100
AcDbSymbolTableRecord
100
AcDbBlockTableRecord
  2
*D32
340
0
  0
BLOCK_RECORD
  5
1826
330
1
100
AcDbSymbolTableRecord
100
AcDbBlockTableRecord
  2
*D33
340
0
  0
BLOCK_RECORD
  5
19A7
330
1
100
AcDbSymbolTableRecord
100
AcDbBlockTableRecord
  2
*D34
340
0
  0
BLOCK_RECORD
  5
19B3
330
1
100
AcDbSymbolTableRecord
100
AcDbBlockTableRecord
  2
*D35
340
0
  0
BLOCK_RECORD
  5
19BF
330
1
100
AcDbSymbolTableRecord
100
AcDbBlockTableRecord
  2
*D36
340
0
  0
BLOCK_RECORD
  5
19CB
330
1
100
AcDbSymbolTableRecord
100
AcDbBlockTableRecord
  2
*D37
340
0
  0
BLOCK_RECORD
  5
19D7
330
1
100
AcDbSymbolTableRecord
100
AcDbBlockTableRecord
  2
*D38
340
0
  0
BLOCK_RECORD
  5
19E3
330
1
100
AcDbSymbolTableRecord
100
AcDbBlockTableRecord
  2
*D39
340
0
  0
BLOCK_RECORD
  5
19F0
330
1
100
AcDbSymbolTableRecord
100
AcDbBlockTableRecord
  2
*D40
340
0
  0
BLOCK_RECORD
  5
19FC
330
1
100
AcDbSymbolTableRecord
100
AcDbBlockTableRecord
  2
*D41
340
0
  0
BLOCK_RECORD
  5
1C1B
330
1
100
AcDbSymbolTableRecord
100
AcDbBlockTableRecord
  2
*D42
340
0
  0
BLOCK_RECORD
  5
1C28
330
1
100
AcDbSymbolTableRecord
100
AcDbBlockTableRecord
  2
*D43
340
0
  0
BLOCK_RECORD
  5
1C3A
330
1
100
AcDbSymbolTableRecord
100
AcDbBlockTableRecord
  2
*D44
340
0
  0
BLOCK_RECORD
  5
1C46
330
1
100
AcDbSymbolTableRecord
100
AcDbBlockTableRecord
  2
*D45
340
0
  0
BLOCK_RECORD
  5
1C52
330
1
100
AcDbSymbolTableRecord
100
AcDbBlockTableRecord
  2
*D46
340
0
  0
BLOCK_RECORD
  5
1C5E
330
1
100
AcDbSymbolTableRecord
100
AcDbBlockTableRecord
  2
*D47
340
0
  0
BLOCK_RECORD
  5
1C6A
330
1
100
AcDbSymbolTableRecord
100
AcDbBlockTableRecord
  2
*D48
340
0
  0
BLOCK_RECORD
  5
1C77
330
1
100
AcDbSymbolTableRecord
100
AcDbBlockTableRecord
  2
*D49
340
0
  0
BLOCK_RECORD
  5
1E52
330
1
100
AcDbSymbolTableRecord
100
AcDbBlockTableRecord
  2
*D50
340
0
  0
ENDTAB
  0
ENDSEC
  0
SECTION
  2
BLOCKS
  0
BLOCK
  5
2D
330
17
100
AcDbEntity
  8
0
100
AcDbBlockBegin
  2
*MODEL_SPACE
 70
     0
 10
0.0
 20
0.0
 30
0.0
  3
*MODEL_SPACE
  1

  0
ENDBLK
  5
2E
330
17
100
AcDbEntity
  8
0
100
AcDbBlockEnd
  0
BLOCK
  5
2B
330
14
100
AcDbEntity
 67
     1
  8
0
100
AcDbBlockBegin
  2
*PAPER_SPACE
 70
     0
 10
0.0
 20
0.0
 30
0.0
  3
*PAPER_SPACE
  1

  0
ENDBLK
  5
2C
330
14
100
AcDbEntity
 67
     1
  8
0
100
AcDbBlockEnd
  0
BLOCK
  5
2F
330
1C
100
AcDbEntity
  8
0
100
AcDbBlockBegin
  2
BORDER
 70
     0
 10
0.0
 20
0.0
 30
0.0
  3
BORDER
  1

  0
LINE
  5
30
330
1C
100
AcDbEntity
  8
0
100
AcDbLine
 10
0.0
 20
0.0
 30
0.0
 11
1.00000000000004
 21
0.0
 31
0.0
  0
LINE
  5
31
330
1C
100
AcDbEntity
  8
0
100
AcDbLine
 10
1.00000000000004
 20
0.0
 30
0.0
 11
1.00000000000004
 21
1.00000000000004
 31
0.0
  0
LINE
  5
32
330
1C
100
AcDbEntity
  8
0
100
AcDbLine
 10
1.00000000000004
 20
1.00000000000004
 30
0.0
 11
0.0
 21
1.00000000000004
 31
0.0
  0
LINE
  5
33
330
1C
100
AcDbEntity
  8
0
100
AcDbLine
 10
0.0
 20
1.00000000000004
 30
0.0
 11
0.0
 21
0.0
 31
0.0
  0
ENDBLK
  5
34
330
1C
100
AcDbEntity
  8
0
100
AcDbBlockEnd
  0
BLOCK
  5
35
330
1D
100
AcDbEntity
  8
HAIKIN
100
AcDbBlockBegin
  2
SA3
 70
     0
 10
0.0
 20
0.0
 30
0.0
  3
SA3
  1

  0
TEXT
  5
36
330
1D
100
AcDbEntity
  8
SUNPOU
100
AcDbText
 10
340.0
 20
0.0
 30
0.0
 40
2.5
  1
新和コンクリート工業株式会社
100
AcDbText
  0
TEXT
  5
39
330
1D
100
AcDbEntity
  8
SUNPOU
100
AcDbText
 10
361.4166666666667
 20
6.25
 30
0.0
 40
2.5
  1
製図
 72
     4
 11
364.0
 21
7.5
 31
0.0
100
AcDbText
  0
TEXT
  5
3A
330
1D
100
AcDbEntity
  8
SUNPOU
100
AcDbText
 10
361.3333333333333
 20
11.25
 30
0.0
 40
2.5
  1
設計
 72
     4
 11
364.0
 21
12.5
 31
0.0
100
AcDbText
  0
TEXT
  5
3B
330
1D
100
AcDbEntity
  8
SUNPOU
100
AcDbText
 10
339.0833333333333
 20
6.250000000000014
 30
0.0
 40
2.5
  1
認
 72
     4
 11
340.25
 21
7.500000000000014
 31
0.0
100
AcDbText
  0
TEXT
  5
3C
330
1D
100
AcDbEntity
  8
SUNPOU
100
AcDbText
 10
339.0833333333333
 20
11.33333333333336
 30
0.0
 40
2.5
  1
承
 72
     4
 11
340.25
 21
12.50000000000003
 31
0.0
100
AcDbText
  0
TEXT
  5
3D
330
1D
100
AcDbEntity
  8
SUNPOU
100
AcDbText
 10
312.75
 20
11.75000000000001
 30
0.0
 40
2.5
  1
図　面　番　号
 72
     4
 11
323.0
 21
13.00000000000001
 31
0.0
100
AcDbText
  0
TEXT
  5
3E
330
1D
100
AcDbEntity
  8
SUNPOU
100
AcDbText
 10
362.0
 20
17.0
 30
0.0
 40
2.5
  1
１／
100
AcDbText
  0
TEXT
  5
3F
330
1D
100
AcDbEntity
  8
SUNPOU
100
AcDbText
 10
347.3333333333333
 20
16.25000000000001
 30
0.0
 40
2.5
  1
縮　　尺
 72
     4
 11
353.0
 21
17.50000000000001
 31
0.0
100
AcDbText
  0
TEXT
  5
40
330
1D
100
AcDbEntity
  8
SUNPOU
100
AcDbText
 10
347.3333333333333
 20
21.25
 30
0.0
 40
2.5
  1
鉄 筋 量
 72
     4
 11
353.0
 21
22.5
 31
0.0
100
AcDbText
  0
TEXT
  5
41
330
1D
100
AcDbEntity
  8
SUNPOU
100
AcDbText
 10
347.3333333333333
 20
26.25
 30
0.0
 40
2.5
  1
製 造 数
 72
     4
 11
353.0
 21
27.5
 31
0.0
100
AcDbText
  0
TEXT
  5
42
330
1D
100
AcDbEntity
  8
SUNPOU
100
AcDbText
 10
377.0
 20
21.0
 30
0.0
 40
2.5
  1
ｋｇ
 72
     2
 11
382.0
 21
21.0
 31
0.0
100
AcDbText
  0
TEXT
  5
43
330
1D
100
AcDbEntity
  8
SUNPOU
100
AcDbText
 10
339.5
 20
21.0
 30
0.0
 40
2.5
  1
ｋｇ
 72
     2
 11
344.5
 21
21.0
 31
0.0
100
AcDbText
  0
TEXT
  5
44
330
1D
100
AcDbEntity
  8
SUNPOU
100
AcDbText
 10
310.0
 20
16.25000000000001
 30
0.0
 40
2.5
  1
年 月 日
 72
     4
 11
315.5
 21
17.50000000000001
 31
0.0
100
AcDbText
  0
TEXT
  5
45
330
1D
100
AcDbEntity
  8
SUNPOU
100
AcDbText
 10
309.8333333333333
 20
21.25
 30
0.0
 40
2.5
  1
製品質量
 72
     4
 11
315.5
 21
22.5
 31
0.0
100
AcDbText
  0
TEXT
  5
46
330
1D
100
AcDbEntity
  8
SUNPOU
100
AcDbText
 10
309.9166666666667
 20
26.25
 30
0.0
 40
2.5
  1
業 者 名
 72
     4
 11
315.5
 21
27.5
 31
0.0
100
AcDbText
  0
TEXT
  5
47
330
1D
100
AcDbEntity
  8
SUNPOU
100
AcDbText
 10
309.8333333333333
 20
32.5
 30
0.0
 40
2.5
  1
名　　称
 72
     4
 11
315.5
 21
33.75
 31
0.0
100
AcDbText
  0
LINE
  5
48
330
1D
100
AcDbEntity
  8
SUNPOU
100
AcDbLine
 10
338.0
 20
11.00000000000001
 30
0.0
 11
308.0
 21
11.00000000000001
 31
0.0
  0
LINE
  5
49
330
1D
100
AcDbEntity
  8
SUNPOU
100
AcDbLine
 10
367.5
 20
4.999999999999986
 30
0.0
 11
367.5
 21
14.99999999999999
 31
0.0
  0
LINE
  5
4A
330
1D
100
AcDbEntity
  8
SUNPOU
100
AcDbLine
 10
360.5
 20
4.999999999999986
 30
0.0
 11
360.5
 21
14.99999999999999
 31
0.0
  0
LINE
  5
4B
330
1D
100
AcDbEntity
  8
SUNPOU
100
AcDbLine
 10
342.5
 20
4.999999999999995
 30
0.0
 11
342.5
 21
15.0
 31
0.0
  0
LINE
  5
4C
330
1D
100
AcDbEntity
  8
SUNPOU
100
AcDbLine
 10
338.0
 20
4.999999999999995
 30
0.0
 11
338.0
 21
15.0
 31
0.0
  0
LINE
  5
4D
330
1D
100
AcDbEntity
  8
SUNPOU
100
AcDbLine
 10
323.0
 20
15.00000000000001
 30
0.0
 11
323.0
 21
37.5
 31
0.0
  0
LINE
  5
4E
330
1D
100
AcDbEntity
  8
SUNPOU
100
AcDbLine
 10
360.5
 20
15.00000000000001
 30
0.0
 11
360.5
 21
30.0
 31
0.0
  0
LINE
  5
4F
330
1D
100
AcDbEntity
  8
SUNPOU
100
AcDbLine
 10
345.5
 20
15.00000000000001
 30
0.0
 11
345.5
 21
30.0
 31
0.0
  0
LINE
  5
50
330
1D
100
AcDbEntity
  8
SUNPOU
100
AcDbLine
 10
383.0
 20
30.0
 30
0.0
 11
308.0
 21
30.0
 31
0.0
  0
LINE
  5
51
330
1D
100
AcDbEntity
  8
SUNPOU
100
AcDbLine
 10
383.0
 20
25.0
 30
0.0
 11
308.0
 21
25.0
 31
0.0
  0
LINE
  5
52
330
1D
100
AcDbEntity
  8
SUNPOU
100
AcDbLine
 10
383.0
 20
20.0
 30
0.0
 11
308.0
 21
20.0
 31
0.0
  0
LINE
  5
53
330
1D
100
AcDbEntity
  8
SUNPOU
100
AcDbLine
 10
383.0
 20
14.99999999999999
 30
0.0
 11
308.0
 21
15.00000000000004
 31
0.0
  0
LINE
  5
54
330
1D
100
AcDbEntity
  8
HAIKIN
100
AcDbLine
 10
308.0
 20
37.5
 30
0.0
 11
383.0
 21
37.5
 31
0.0
  0
LINE
  5
55
330
1D
100
AcDbEntity
  8
HAIKIN
100
AcDbLine
 10
308.0
 20
5.000000000000009
 30
0.0
 11
308.0
 21
37.5
 31
0.0
  0
LINE
  5
56
330
1D
100
AcDbEntity
  8
SUNPOU
100
AcDbLine
 10
0.000000000000016
 20
277.0
 30
0.0
 11
0.000000000000016
 21
272.0
 31
0.0
  0
LINE
  5
57
330
1D
100
AcDbEntity
  8
SUNPOU
100
AcDbLine
 10
25.00000000000001
 20
277.0
 30
0.0
 11
0.000000000000016
 21
277.0
 31
0.0
  0
LINE
  5
58
330
1D
100
AcDbEntity
  8
SUNPOU
100
AcDbLine
 10
25.00000000000001
 20
272.0
 30
0.0
 11
25.00000000000001
 21
277.0
 31
0.0
  0
LINE
  5
59
330
1D
100
AcDbEntity
  8
HAIKIN
100
AcDbLine
 10
0.0000000000000004
 20
5.0
 30
0.0
 11
383.0
 21
5.0
 31
0.0
  0
LINE
  5
5A
330
1D
100
AcDbEntity
  8
HAIKIN
100
AcDbLine
 10
0.0000000000000158
 20
272.0
 30
0.0
 11
383.0
 21
272.0
 31
0.0
  0
LINE
  5
5B
330
1D
100
AcDbEntity
  8
HAIKIN
100
AcDbLine
 10
383.0
 20
272.0
 30
0.0
 11
383.0
 21
5.0
 31
0.0
  0
TEXT
  5
5C
330
1D
100
AcDbEntity
  8
SUNPOU
100
AcDbText
 10
3.700000000000017
 20
273.0
 30
0.0
 40
3.0
  1
Ｈ－２－共
 72
     4
 11
12.50000000000002
 21
274.5
 31
0.0
100
AcDbText
  0
LINE
  5
5D
330
1D
100
AcDbEntity
  8
HAIKIN
100
AcDbLine
 10
0.0000000000000004
 20
5.0
 30
0.0
 11
0.0000000000000158
 21
272.0
 31
0.0
  0
ENDBLK
  5
5E
330
1D
100
AcDbEntity
  8
HAIKIN
100
AcDbBlockEnd
  0
BLOCK
  5
8C
330
82
100
AcDbEntity
  8
0
100
AcDbBlockBegin
  2
*D2
 70
     1
 10
0.0
 20
0.0
 30
0.0
  3
*D2
  1

  0
LINE
  5
83
330
82
100
AcDbEntity
  8
SUNPOU
370
    -2
100
AcDbLine
 10
14459.99999999999
 20
11910.0
 30
0.0
 11
15605.99999999999
 21
11910.0
 31
0.0
  0
LINE
  5
84
330
82
100
AcDbEntity
  8
SUNPOU
370
    -2
100
AcDbLine
 10
14459.99999999999
 20
13710.0
 30
0.0
 11
15605.99999999999
 21
13710.0
 31
0.0
  0
LINE
  5
85
330
82
100
AcDbEntity
  8
SUNPOU
370
    -2
100
AcDbLine
 10
15569.99999999999
 20
12000.0
 30
0.0
 11
15569.99999999999
 21
13620.0
 31
0.0
  0
MTEXT
  5
86
330
82
100
AcDbEntity
  8
SUNPOU
 62
     0
100
AcDbMText
 10
15404.05869794343
 20
12806.25726232369
 30
0.0
 40
180.0
 41
0.0
 71
     5
 72
     1
  1
\A1;15@120=1800
 11
6.123031769111886E-17
 21
1.0
 31
0.0
 73
     1
 44
1.0
  0
SOLID
  5
87
330
82
100
AcDbEntity
  8
SUNPOU
100
AcDbTrace
 10
15554.99999999999
 20
12000.0
 30
0.0
 11
15584.99999999999
 21
12000.0
 31
0.0
 12
15569.99999999999
 22
11910.0
 32
0.0
 13
15569.99999999999
 23
11910.0
 33
0.0
  0
SOLID
  5
88
330
82
100
AcDbEntity
  8
SUNPOU
100
AcDbTrace
 10
15554.99999999999
 20
13620.0
 30
0.0
 11
15584.99999999999
 21
13620.0
 31
0.0
 12
15569.99999999999
 22
13710.0
 32
0.0
 13
15569.99999999999
 23
13710.0
 33
0.0
  0
POINT
  5
89
330
82
100
AcDbEntity
  8
DEFPOINTS
 62
     0
100
AcDbPoint
 10
14369.99999999999
 20
11910.0
 30
0.0
  0
POINT
  5
8A
330
82
100
AcDbEntity
  8
DEFPOINTS
 62
     0
100
AcDbPoint
 10
14369.99999999999
 20
13710.0
 30
0.0
  0
POINT
  5
8B
330
82
100
AcDbEntity
  8
DEFPOINTS
 62
     0
100
AcDbPoint
 10
15569.99999999999
 20
13710.0
 30
0.0
  0
ENDBLK
  5
8D
330
82
100
AcDbEntity
  8
0
100
AcDbBlockEnd
  0
BLOCK
  5
9A
330
8E
100
AcDbEntity
  8
0
100
AcDbBlockBegin
  2
*D3
 70
     1
 10
0.0
 20
0.0
 30
0.0
  3
*D3
  1

  0
LINE
  5
8F
330
8E
100
AcDbEntity
  8
SUNPOU
370
    -2
100
AcDbLine
 10
14333.74999999999
 20
11805.0
 30
0.0
 11
15605.99999999999
 21
11805.0
 31
0.0
  0
LINE
  5
90
330
8E
100
AcDbEntity
  8
SUNPOU
370
    -2
100
AcDbLine
 10
14489.70588235293
 20
11910.0
 30
0.0
 11
15605.99999999999
 21
11910.0
 31
0.0
  0
LINE
  5
91
330
8E
100
AcDbEntity
  8
SUNPOU
370
    -2
100
AcDbLine
 10
15569.99999999999
 20
11715.0
 30
0.0
 11
15569.99999999999
 21
11625.0
 31
0.0
  0
LINE
  5
92
330
8E
100
AcDbEntity
  8
SUNPOU
370
    -2
100
AcDbLine
 10
15569.99999999999
 20
12000.0
 30
0.0
 11
15569.99999999999
 21
12090.0
 31
0.0
  0
MTEXT
  5
93
330
8E
100
AcDbEntity
  8
SUNPOU
 62
     0
100
AcDbMText
 10
15730.33993097525
 20
11906.05735268755
 30
0.0
 40
180.0
 41
0.0
 71
     5
 72
     1
  1
\A1;105
 11
6.123031769111886E-17
 21
1.0
 31
0.0
 73
     1
 44
1.0
  0
LINE
  5
94
330
8E
100
AcDbEntity
  8
SUNPOU
370
    -2
100
AcDbLine
 10
15569.99999999999
 20
11805.0
 30
0.0
 11
15569.99999999999
 21
11910.0
 31
0.0
  0
SOLID
  5
95
330
8E
100
AcDbEntity
  8
SUNPOU
100
AcDbTrace
 10
15554.99999999999
 20
11715.0
 30
0.0
 11
15584.99999999999
 21
11715.0
 31
0.0
 12
15569.99999999999
 22
11805.0
 32
0.0
 13
15569.99999999999
 23
11805.0
 33
0.0
  0
SOLID
  5
96
330
8E
100
AcDbEntity
  8
SUNPOU
100
AcDbTrace
 10
15554.99999999999
 20
12000.0
 30
0.0
 11
15584.99999999999
 21
12000.0
 31
0.0
 12
15569.99999999999
 22
11910.0
 32
0.0
 13
15569.99999999999
 23
11910.0
 33
0.0
  0
POINT
  5
97
330
8E
100
AcDbEntity
  8
DEFPOINTS
 62
     0
100
AcDbPoint
 10
14243.74999999999
 20
11805.0
 30
0.0
  0
POINT
  5
98
330
8E
100
AcDbEntity
  8
DEFPOINTS
 62
     0
100
AcDbPoint
 10
14399.70588235293
 20
11910.0
 30
0.0
  0
POINT
  5
99
330
8E
100
AcDbEntity
  8
DEFPOINTS
 62
     0
100
AcDbPoint
 10
15569.99999999999
 20
11910.0
 30
0.0
  0
ENDBLK
  5
9B
330
8E
100
AcDbEntity
  8
0
100
AcDbBlockEnd
  0
BLOCK
  5
A8
330
9C
100
AcDbEntity
  8
0
100
AcDbBlockBegin
  2
*D4
 70
     1
 10
0.0
 20
0.0
 30
0.0
  3
*D4
  1

  0
LINE
  5
9D
330
9C
100
AcDbEntity
  8
SUNPOU
370
    -2
100
AcDbLine
 10
14459.99999999999
 20
13710.0
 30
0.0
 11
15605.99999999999
 21
13710.0
 31
0.0
  0
LINE
  5
9E
330
9C
100
AcDbEntity
  8
SUNPOU
370
    -2
100
AcDbLine
 10
14459.99999999999
 20
13770.0
 30
0.0
 11
15605.99999999999
 21
13770.0
 31
0.0
  0
LINE
  5
9F
330
9C
100
AcDbEntity
  8
SUNPOU
370
    -2
100
AcDbLine
 10
15569.99999999999
 20
13620.0
 30
0.0
 11
15569.99999999999
 21
13530.0
 31
0.0
  0
LINE
  5
A0
330
9C
100
AcDbEntity
  8
SUNPOU
370
    -2
100
AcDbLine
 10
15569.99999999999
 20
13860.0
 30
0.0
 11
15569.99999999999
 21
13950.0
 31
0.0
  0
MTEXT
  5
A1
330
9C
100
AcDbEntity
  8
SUNPOU
 62
     0
100
AcDbMText
 10
15437.48050855183
 20
13968.0082924672
 30
0.0
 40
180.0
 41
0.0
 71
     5
 72
     1
  1
\A1;60
 11
6.123031769111886E-17
 21
1.0
 31
0.0
 73
     1
 44
1.0
  0
LINE
  5
A2
330
9C
100
AcDbEntity
  8
SUNPOU
370
    -2
100
AcDbLine
 10
15569.99999999999
 20
13710.0
 30
0.0
 11
15569.99999999999
 21
13770.0
 31
0.0
  0
SOLID
  5
A3
330
9C
100
AcDbEntity
  8
SUNPOU
100
AcDbTrace
 10
15554.99999999999
 20
13620.0
 30
0.0
 11
15584.99999999999
 21
13620.0
 31
0.0
 12
15569.99999999999
 22
13710.0
 32
0.0
 13
15569.99999999999
 23
13710.0
 33
0.0
  0
SOLID
  5
A4
330
9C
100
AcDbEntity
  8
SUNPOU
100
AcDbTrace
 10
15554.99999999999
 20
13860.0
 30
0.0
 11
15584.99999999999
 21
13860.0
 31
0.0
 12
15569.99999999999
 22
13770.0
 32
0.0
 13
15569.99999999999
 23
13770.0
 33
0.0
  0
POINT
  5
A5
330
9C
100
AcDbEntity
  8
DEFPOINTS
 62
     0
100
AcDbPoint
 10
14369.99999999999
 20
13710.0
 30
0.0
  0
POINT
  5
A6
330
9C
100
AcDbEntity
  8
DEFPOINTS
 62
     0
100
AcDbPoint
 10
14369.99999999999
 20
13770.0
 30
0.0
  0
POINT
  5
A7
330
9C
100
AcDbEntity
  8
DEFPOINTS
 62
     0
100
AcDbPoint
 10
15569.99999999999
 20
13770.0
 30
0.0
  0
ENDBLK
  5
A9
330
9C
100
AcDbEntity
  8
0
100
AcDbBlockEnd
  0
BLOCK
  5
B4
330
AA
100
AcDbEntity
  8
0
100
AcDbBlockBegin
  2
*D5
 70
     1
 10
0.0
 20
0.0
 30
0.0
  3
*D5
  1

  0
LINE
  5
AB
330
AA
100
AcDbEntity
  8
SUNPOU
370
    -2
100
AcDbLine
 10
14324.99999999999
 20
11770.0
 30
0.0
 11
15905.99999999999
 21
11770.0
 31
0.0
  0
LINE
  5
AC
330
AA
100
AcDbEntity
  8
SUNPOU
370
    -2
100
AcDbLine
 10
14594.99999999999
 20
13770.0
 30
0.0
 11
15905.99999999999
 21
13770.0
 31
0.0
  0
LINE
  5
AD
330
AA
100
AcDbEntity
  8
SUNPOU
370
    -2
100
AcDbLine
 10
15869.99999999999
 20
11860.0
 30
0.0
 11
15869.99999999999
 21
13680.0
 31
0.0
  0
SOLID
  5
AE
330
AA
100
AcDbEntity
  8
SUNPOU
100
AcDbTrace
 10
15854.99999999999
 20
11860.0
 30
0.0
 11
15884.99999999999
 21
11860.0
 31
0.0
 12
15869.99999999999
 22
11770.0
 32
0.0
 13
15869.99999999999
 23
11770.0
 33
0.0
  0
SOLID
  5
AF
330
AA
100
AcDbEntity
  8
SUNPOU
100
AcDbTrace
 10
15854.99999999999
 20
13680.0
 30
0.0
 11
15884.99999999999
 21
13680.0
 31
0.0
 12
15869.99999999999
 22
13770.0
 32
0.0
 13
15869.99999999999
 23
13770.0
 33
0.0
  0
MTEXT
  5
B0
330
AA
100
AcDbEntity
  8
SUNPOU
 62
     0
100
AcDbMText
 10
15731.99999999999
 20
12770.0
 30
0.0
 40
180.0
 41
0.0
 71
     5
 72
     1
  1
\A1;2000
 11
6.123031769111886E-17
 21
1.0
 31
0.0
 73
     1
 44
1.0
  0
POINT
  5
B1
330
AA
100
AcDbEntity
  8
DEFPOINTS
 62
     0
100
AcDbPoint
 10
14234.99999999999
 20
11770.0
 30
0.0
  0
POINT
  5
B2
330
AA
100
AcDbEntity
  8
DEFPOINTS
 62
     0
100
AcDbPoint
 10
14504.99999999999
 20
13770.0
 30
0.0
  0
POINT
  5
B3
330
AA
100
AcDbEntity
  8
DEFPOINTS
 62
     0
100
AcDbPoint
 10
15869.99999999999
 20
13770.0
 30
0.0
  0
ENDBLK
  5
B5
330
AA
100
AcDbEntity
  8
0
100
AcDbBlockEnd
  0
BLOCK
  5
C1
330
B6
100
AcDbEntity
  8
0
100
AcDbBlockBegin
  2
*D6
 70
     1
 10
0.0
 20
0.0
 30
0.0
  3
*D6
  1

  0
LINE
  5
B7
330
B6
100
AcDbEntity
  8
SUNPOU
 62
     0
370
    -2
100
AcDbLine
 10
14388.74999999999
 20
11805.0
 30
0.0
 11
15629.99999999999
 21
11805.0
 31
0.0
  0
LINE
  5
B8
330
B6
100
AcDbEntity
  8
SUNPOU
 62
     0
370
    -2
100
AcDbLine
 10
14379.99999999999
 20
11770.0
 30
0.0
 11
15629.99999999999
 21
11770.0
 31
0.0
  0
LINE
  5
B9
330
B6
100
AcDbEntity
  8
SUNPOU
 62
     0
370
    -2
100
AcDbLine
 10
15569.99999999999
 20
11895.0
 30
0.0
 11
15569.99999999999
 21
11985.0
 31
0.0
  0
LINE
  5
BA
330
B6
100
AcDbEntity
  8
SUNPOU
 62
     0
370
    -2
100
AcDbLine
 10
15569.99999999999
 20
11680.0
 30
0.0
 11
15569.99999999999
 21
11590.0
 31
0.0
  0
MTEXT
  5
BB
330
B6
100
AcDbEntity
  8
SUNPOU
 62
     0
100
AcDbMText
 10
15422.1488453184
 20
11572.59656658611
 30
0.0
 40
180.0
 41
0.0
 71
     5
 72
     1
  1
\A1;35
 11
6.123031769111886E-17
 21
1.0
 31
0.0
 73
     1
 44
1.0
  0
SOLID
  5
BC
330
B6
100
AcDbEntity
  8
SUNPOU
 62
     0
100
AcDbTrace
 10
15554.99999999999
 20
11895.0
 30
0.0
 11
15584.99999999999
 21
11895.0
 31
0.0
 12
15569.99999999999
 22
11805.0
 32
0.0
 13
15569.99999999999
 23
11805.0
 33
0.0
  0
SOLID
  5
BD
330
B6
100
AcDbEntity
  8
SUNPOU
 62
     0
100
AcDbTrace
 10
15554.99999999999
 20
11680.0
 30
0.0
 11
15584.99999999999
 21
11680.0
 31
0.0
 12
15569.99999999999
 22
11770.0
 32
0.0
 13
15569.99999999999
 23
11770.0
 33
0.0
  0
POINT
  5
BE
330
B6
100
AcDbEntity
  8
DEFPOINTS
 62
     0
100
AcDbPoint
 10
14268.74999999999
 20
11805.0
 30
0.0
  0
POINT
  5
BF
330
B6
100
AcDbEntity
  8
DEFPOINTS
 62
     0
100
AcDbPoint
 10
14259.99999999999
 20
11770.0
 30
0.0
  0
POINT
  5
C0
330
B6
100
AcDbEntity
  8
DEFPOINTS
 62
     0
100
AcDbPoint
 10
15569.99999999999
 20
11770.0
 30
0.0
  0
ENDBLK
  5
C2
330
B6
100
AcDbEntity
  8
0
100
AcDbBlockEnd
  0
BLOCK
  5
169
330
C3
100
AcDbEntity
  8
0
100
AcDbBlockBegin
  2
A$C79F54BAC
 70
     0
 10
0.0
 20
0.0
 30
0.0
  3
A$C79F54BAC
  1

  0
DIMENSION
  5
C4
330
C3
100
AcDbEntity
  8
SUNPOU
100
AcDbDimension
  2
*D2
 10
4229.99998564875
 20
2257.403415746125
 30
0.0
 11
4064.058683592186
 21
1353.660678069813
 31
0.0
 12
-11340.00001435124
 22
-11452.59658425388
 32
0.0
 70
   128
  1
15@120=<>
 71
     5
 42
-1.0
  3
STANDARD
100
AcDbAlignedDimension
 13
3029.99998564875
 23
457.4034157461228
 33
0.0
 14
3029.99998564875
 24
2257.403415746125
 34
0.0
 50
90.0
100
AcDbRotatedDimension
1001
ACAD
1000
DSTYLE
1002
{
1070
   287
1070
     5
1070
   287
1070
     5
1070
   287
1070
     5
1070
   287
1070
     5
1070
   287
1070
     5
1070
   287
1070
     5
1070
   287
1070
     5
1070
   287
1070
     5
1070
    40
1040
60.0
1070
    41
1040
1.5
1070
    42
1040
1.5
1070
    43
1040
7.0
1070
    44
1040
0.6
1070
    73
1070
     0
1070
    74
1070
     0
1070
    77
1070
     1
1070
    78
1070
     8
1070
   140
1040
3.0
1070
   141
1040
0.0
1070
   145
1040
1.0
1070
   147
1040
0.8
1070
   172
1070
     1
1070
   176
1070
   256
1070
   177
1070
   256
1070
   271
1070
     0
1070
   275
1070
     1
1070
   279
1070
     2
1070
   284
1070
     8
1070
   285
1070
     8
1070
   286
1070
     8
1002
}
  0
DIMENSION
  5
C5
330
C3
100
AcDbEntity
  8
SUNPOU
100
AcDbDimension
  2
*D3
 10
4229.99998564875
 20
457.4034157461228
 30
0.0
 11
4390.339916624003
 21
453.4607684336734
 31
0.0
 12
-11340.00001435124
 22
-11452.59658425388
 32
0.0
 70
   128
 71
     5
 42
-1.0
  3
STANDARD
100
AcDbAlignedDimension
 13
2903.74998564875
 23
352.4034157461247
 33
0.0
 14
3059.705868001689
 24
457.4034157461228
 34
0.0
 50
90.0
100
AcDbRotatedDimension
1001
ACAD
1000
DSTYLE
1002
{
1070
   287
1070
     5
1070
   287
1070
     5
1070
   287
1070
     5
1070
   287
1070
     5
1070
   287
1070
     5
1070
   287
1070
     5
1070
   287
1070
     5
1070
   287
1070
     5
1070
    40
1040
60.0
1070
    41
1040
1.5
1070
    42
1040
1.5
1070
    43
1040
7.0
1070
    44
1040
0.6
1070
    73
1070
     0
1070
    74
1070
     0
1070
    77
1070
     1
1070
    78
1070
     8
1070
   140
1040
3.0
1070
   141
1040
0.0
1070
   145
1040
1.0
1070
   147
1040
0.8
1070
   172
1070
     1
1070
   176
1070
   256
1070
   177
1070
   256
1070
   271
1070
     0
1070
   275
1070
     1
1070
   279
1070
     2
1070
   284
1070
     8
1070
   285
1070
     8
1070
   286
1070
     8
1002
}
  0
DIMENSION
  5
C6
330
C3
100
AcDbEntity
  8
SUNPOU
100
AcDbDimension
  2
*D4
 10
4229.99998564875
 20
2317.403415746121
 30
0.0
 11
4097.480494200581
 21
2515.411708213323
 31
0.0
 12
-11340.00001435124
 22
-11452.59658425388
 32
0.0
 70
   128
 71
     5
 42
-1.0
  3
STANDARD
100
AcDbAlignedDimension
 13
3029.99998564875
 23
2257.403415746125
 33
0.0
 14
3029.99998564875
 24
2317.403415746121
 34
0.0
 50
90.0
100
AcDbRotatedDimension
1001
ACAD
1000
DSTYLE
1002
{
1070
   287
1070
     5
1070
   287
1070
     5
1070
   287
1070
     5
1070
   287
1070
     5
1070
   287
1070
     5
1070
   287
1070
     5
1070
   287
1070
     5
1070
   287
1070
     5
1070
    40
1040
60.0
1070
    41
1040
1.5
1070
    42
1040
1.5
1070
    43
1040
7.0
1070
    44
1040
0.6
1070
    73
1070
     0
1070
    74
1070
     0
1070
    77
1070
     1
1070
    78
1070
     8
1070
   140
1040
3.0
1070
   141
1040
0.0
1070
   145
1040
1.0
1070
   147
1040
0.8
1070
   172
1070
     1
1070
   176
1070
   256
1070
   177
1070
   256
1070
   271
1070
     0
1070
   275
1070
     1
1070
   279
1070
     2
1070
   284
1070
     8
1070
   285
1070
     8
1070
   286
1070
     8
1002
}
  0
DIMENSION
  5
C7
330
C3
100
AcDbEntity
  8
SUNPOU
100
AcDbDimension
  2
*D5
 10
4529.99998564875
 20
2317.403415746123
 30
0.0
 11
4391.999985648747
 21
1317.403415746123
 31
0.0
 12
-11340.00001435124
 22
-11452.59658425388
 32
0.0
 71
     5
 42
-1.0
  3
STANDARD
100
AcDbAlignedDimension
 13
2894.99998564875
 23
317.403415746121
 33
0.0
 14
3164.99998564875
 24
2317.403415746123
 34
0.0
 50
90.0
100
AcDbRotatedDimension
1001
ACAD
1000
DSTYLE
1002
{
1070
   287
1070
     5
1070
   287
1070
     5
1070
   287
1070
     5
1070
   287
1070
     5
1070
   287
1070
     5
1070
   287
1070
     5
1070
   287
1070
     5
1070
   287
1070
     5
1070
    40
1040
60.0
1070
    41
1040
1.5
1070
    42
1040
1.5
1070
    43
1040
7.0
1070
    44
1040
0.6
1070
    73
1070
     0
1070
    74
1070
     0
1070
    77
1070
     1
1070
    78
1070
     8
1070
   140
1040
3.0
1070
   141
1040
0.0
1070
   145
1040
1.0
1070
   147
1040
0.8
1070
   172
1070
     1
1070
   176
1070
   256
1070
   177
1070
   256
1070
   271
1070
     0
1070
   275
1070
     1
1070
   279
1070
     2
1070
   284
1070
     8
1070
   285
1070
     8
1070
   286
1070
     8
1002
}
  0
DIMENSION
  5
C8
330
C3
100
AcDbEntity
  8
SUNPOU
100
AcDbDimension
  2
*D6
 10
4229.99998564875
 20
317.403415746121
 30
0.0
 11
4082.14883096716
 21
119.9999823322287
 31
0.0
 12
-11340.00001435124
 22
-11452.59658425388
 32
0.0
 70
   128
 71
     5
 42
-1.0
  3
STANDARD
100
AcDbAlignedDimension
 13
2928.74998564875
 23
352.4034157461247
 33
0.0
 14
2919.99998564875
 24
317.403415746121
 34
0.0
 50
90.0
100
AcDbRotatedDimension
1001
ACAD
1000
DSTYLE
1002
{
1070
   287
1070
     5
1070
   287
1070
     5
1070
   287
1070
     5
1070
   287
1070
     5
1070
   287
1070
     5
1070
   287
1070
     5
1070
   287
1070
     5
1070
   287
1070
     5
1070
    40
1040
60.0
1070
    41
1040
1.5
1070
    42
1040
2.0
1070
    43
1040
3.75
1070
    44
1040
1.0
1070
    73
1070
     0
1070
    74
1070
     0
1070
    77
1070
     1
1070
    78
1070
     8
1070
   140
1040
3.0
1070
   141
1040
2.5
1070
   143
1040
0.0394
1070
   147
1040
1.0
1070
   171
1070
     4
1070
   271
1070
     0
1070
   273
1070
     8
1070
   274
1070
     4
1070
   279
1070
     2
1002
}
  0
LINE
  5
C9
330
C3
100
AcDbEntity
  8
SUNPOU
100
AcDbLine
 10
1679.999985648763
 20
3227.403415746123
 30
0.0
 11
899.9999856487611
 21
3227.403415746123
 31
0.0
1001
ACAD
1000
DSTYLE
1002
{
1070
    78
1070
     8
1070
   284
1070
     8
1070
   140
1040
3.0
1070
   145
1040
1.0
1070
    74
1070
     0
1070
   172
1070
     1
1070
    73
1070
     0
1070
    77
1070
     1
1070
    40
1040
60.0
1070
   147
1040
0.8
1070
   287
1070
     5
1070
    42
1040
1.5
1070
    44
1040
0.6
1070
    43
1040
7.0
1070
   271
1070
     0
1070
   177
1070
   256
1070
   176
1070
   256
1070
   141
1040
0.0
1070
   275
1070
     1
1070
    41
1040
1.5
1070
   285
1070
     8
1070
   286
1070
     8
1002
}
  0
SOLID
  5
CA
330
C3
100
AcDbEntity
  8
SUNPOU
100
AcDbTrace
 10
1216.999985648774
 20
1372.403415746125
 30
0.0
 11
1306.999985648774
 21
1357.403415746123
 31
0.0
 12
1216.999985648774
 22
1342.403415746125
 32
0.0
 13
1216.999985648774
 23
1342.403415746125
 33
0.0
1001
ACAD
1000
DSTYLE
1002
{
1070
    78
1070
     8
1070
   284
1070
     8
1070
   140
1040
3.0
1070
   145
1040
1.0
1070
    74
1070
     0
1070
   172
1070
     1
1070
    73
1070
     0
1070
    77
1070
     1
1070
    40
1040
60.0
1070
   147
1040
0.8
1070
   287
1070
     5
1070
    42
1040
1.5
1070
    44
1040
0.6
1070
    43
1040
7.0
1070
   271
1070
     0
1070
   177
1070
   256
1070
   176
1070
   256
1070
   141
1040
0.0
1070
   275
1070
     1
1070
    41
1040
1.5
1070
   285
1070
     8
1070
   286
1070
     8
1002
}
  0
LINE
  5
CB
330
C3
100
AcDbEntity
  8
SUNPOU
100
AcDbLine
 10
329.9999856487375
 20
1357.403415746123
 30
0.0
 11
1426.999985648756
 21
1357.403415746126
 31
0.0
1001
ACAD
1000
DSTYLE
1002
{
1070
    78
1070
     8
1070
   284
1070
     8
1070
   140
1040
3.0
1070
   145
1040
1.0
1070
    74
1070
     0
1070
   172
1070
     1
1070
    73
1070
     0
1070
    77
1070
     1
1070
    40
1040
60.0
1070
   147
1040
0.8
1070
   287
1070
     5
1070
    42
1040
1.5
1070
    44
1040
0.6
1070
    43
1040
7.0
1070
   271
1070
     0
1070
   177
1070
   256
1070
   176
1070
   256
1070
   141
1040
0.0
1070
   275
1070
     1
1070
    41
1040
1.5
1070
   285
1070
     8
1070
   286
1070
     8
1002
}
  0
LINE
  5
CC
330
C3
100
AcDbEntity
  8
HAIKIN
100
AcDbLine
 10
1979.999985648756
 20
2052.403415746123
 30
0.0
 11
964.9999856487557
 21
2052.403415746117
 31
0.0
  0
LINE
  5
CD
330
C3
100
AcDbEntity
  8
HAIKIN
100
AcDbLine
 10
1979.999985648765
 20
1992.403415746121
 30
0.0
 11
964.9999856487557
 21
1992.403415746117
 31
0.0
  0
LINE
  5
CE
330
C3
100
AcDbEntity
  8
HAIKIN
100
AcDbLine
 10
1979.999985648765
 20
1932.403415746121
 30
0.0
 11
964.9999856487557
 21
1932.403415746117
 31
0.0
  0
LINE
  5
CF
330
C3
100
AcDbEntity
  8
HAIKIN
100
AcDbLine
 10
1979.999985648765
 20
847.4034157461283
 30
0.0
 11
964.9999856487557
 21
847.4034157461247
 31
0.0
  0
LINE
  5
D0
330
C3
100
AcDbEntity
  8
HAIKIN
100
AcDbLine
 10
1979.999985648765
 20
787.4034157461283
 30
0.0
 11
964.9999856487557
 21
787.4034157461247
 31
0.0
  0
LINE
  5
D1
330
C3
100
AcDbEntity
  8
HAIKIN
100
AcDbLine
 10
1979.999985648758
 20
727.4034157461283
 30
0.0
 11
964.9999856487557
 21
727.4034157461247
 31
0.0
  0
LINE
  5
D2
330
C3
100
AcDbEntity
  8
SUNPOU
100
AcDbLine
 10
964.9999856487557
 20
1897.403415746125
 30
0.0
 11
1486.999985648752
 21
1897.403415746121
 31
0.0
  0
LINE
  5
D3
330
C3
100
AcDbEntity
  8
SUNPOU
100
AcDbLine
 10
964.9999856487557
 20
1657.403415746125
 30
0.0
 11
1486.999985648752
 21
1657.403415746121
 31
0.0
  0
LINE
  5
D4
330
C3
100
AcDbEntity
  8
SUNPOU
100
AcDbLine
 10
964.9999856487557
 20
1777.403415746125
 30
0.0
 11
1486.999985648752
 21
1777.403415746123
 31
0.0
  0
LINE
  5
D5
330
C3
100
AcDbEntity
  8
SUNPOU
100
AcDbLine
 10
964.9999856487557
 20
457.4034157461247
 30
0.0
 11
1979.999985648759
 21
457.403415746121
 31
0.0
  0
LINE
  5
D6
330
C3
100
AcDbEntity
  8
SUNPOU
100
AcDbLine
 10
964.9999856487557
 20
817.4034157461247
 30
0.0
 11
1979.999985648759
 21
817.403415746121
 31
0.0
  0
LINE
  5
D7
330
C3
100
AcDbEntity
  8
SUNPOU
100
AcDbLine
 10
964.9999856487557
 20
697.4034157461247
 30
0.0
 11
1979.999985648759
 21
697.403415746121
 31
0.0
  0
LINE
  5
D8
330
C3
100
AcDbEntity
  8
SUNPOU
100
AcDbLine
 10
964.9999856487557
 20
577.4034157461247
 30
0.0
 11
1979.999985648759
 21
577.403415746121
 31
0.0
  0
LINE
  5
D9
330
C3
100
AcDbEntity
  8
SUNPOU
100
AcDbLine
 10
964.9999856487557
 20
937.4034157461247
 30
0.0
 11
1486.999985648752
 21
937.403415746121
 31
0.0
  0
LINE
  5
DA
330
C3
100
AcDbEntity
  8
SUNPOU
100
AcDbLine
 10
964.9999856487557
 20
1057.403415746125
 30
0.0
 11
1486.999985648752
 21
1057.403415746119
 31
0.0
  0
LINE
  5
DB
330
C3
100
AcDbEntity
  8
SUNPOU
100
AcDbLine
 10
964.9999856487557
 20
1177.403415746125
 30
0.0
 11
1486.999985648752
 21
1177.403415746117
 31
0.0
  0
LINE
  5
DC
330
C3
100
AcDbEntity
  8
SUNPOU
100
AcDbLine
 10
964.9999856487557
 20
1297.403415746125
 30
0.0
 11
1486.999985648752
 21
1297.403415746121
 31
0.0
  0
LINE
  5
DD
330
C3
100
AcDbEntity
  8
SUNPOU
100
AcDbLine
 10
964.9999856487557
 20
1417.403415746125
 30
0.0
 11
1486.999985648752
 21
1417.403415746119
 31
0.0
  0
LINE
  5
DE
330
C3
100
AcDbEntity
  8
SUNPOU
100
AcDbLine
 10
964.9999856487557
 20
1537.403415746125
 30
0.0
 11
1486.999985648752
 21
1537.403415746121
 31
0.0
  0
LINE
  5
DF
330
C3
100
AcDbEntity
  8
SUNPOU
100
AcDbLine
 10
964.9999856487557
 20
2017.403415746125
 30
0.0
 11
1979.999985648759
 21
2017.403415746121
 31
0.0
  0
LINE
  5
E0
330
C3
100
AcDbEntity
  8
SUNPOU
100
AcDbLine
 10
964.9999856487557
 20
2137.403415746125
 30
0.0
 11
1979.999985648759
 21
2137.403415746121
 31
0.0
  0
LINE
  5
E1
330
C3
100
AcDbEntity
  8
SUNPOU
100
AcDbLine
 10
964.9999856487557
 20
2257.403415746125
 30
0.0
 11
1979.999985648759
 21
2257.403415746121
 31
0.0
  0
LINE
  5
E2
330
C3
100
AcDbEntity
  8
SUNPOU
100
AcDbLine
 10
964.9999856487557
 20
2362.403415746125
 30
0.0
 11
1979.999985648759
 21
2362.403415746121
 31
0.0
  0
TEXT
  5
E3
330
C3
100
AcDbEntity
  8
HAIKIN
 62
     3
100
AcDbText
 10
1009.999985648752
 20
4617.403415746125
 30
0.0
 40
240.0
  1
頂　版
 72
     1
 11
1409.999985648752
 21
4617.403415746125
 31
0.0
100
AcDbText
  0
TEXT
  5
E4
330
C3
100
AcDbEntity
  8
SUNPOU
100
AcDbText
 10
1019.999985648756
 20
4105.403415746121
 30
0.0
 40
210.0
  1
外　側
 11
1019.999985648756
 21
4077.403415746121
 31
0.0
100
AcDbText
 73
     1
  0
LINE
  5
E5
330
C3
100
AcDbEntity
  8
SUNPOU
100
AcDbLine
 10
1019.999985648752
 20
317.4034157461247
 30
0.0
 11
1979.999985648759
 21
317.403415746121
 31
0.0
  0
LINE
  5
E6
330
C3
100
AcDbEntity
  8
SUNPOU
100
AcDbLine
 10
929.999985648752
 20
397.403415746121
 30
0.0
 11
1979.999985648759
 21
397.403415746121
 31
0.0
  0
LINE
  5
E7
330
C3
100
AcDbEntity
  8
SUNPOU
100
AcDbLine
 10
929.999985648752
 20
2397.403415746123
 30
0.0
 11
1979.999985648759
 21
2397.403415746121
 31
0.0
  0
LINE
  5
E8
330
C3
100
AcDbEntity
  8
SUNPOU
100
AcDbLine
 10
1019.999985648756
 20
4077.403415746121
 30
0.0
 11
2939.999985648754
 21
4077.403415746121
 31
0.0
  0
LINE
  5
E9
330
C3
100
AcDbEntity
  8
HAIKIN
 62
     3
100
AcDbLine
 10
1889.999985648752
 20
4887.403415746125
 30
0.0
 11
929.999985648752
 21
4887.403415746125
 31
0.0
  0
LINE
  5
EA
330
C3
100
AcDbEntity
  8
HAIKIN
 62
     3
100
AcDbLine
 10
1889.999985648752
 20
4587.403415746125
 30
0.0
 11
929.999985648752
 21
4587.403415746125
 31
0.0
  0
TEXT
  5
EB
330
C3
100
AcDbEntity
  8
SUNPOU
100
AcDbText
 10
762.4999856487557
 20
2907.403415746125
 30
0.0
 40
150.0
  1
D13
 41
0.8
 11
762.4999856487557
 21
2982.403415746125
 31
0.0
100
AcDbText
 73
     2
  0
TEXT
  5
EC
330
C3
100
AcDbEntity
  8
SUNPOU
100
AcDbText
 10
457.4999856487557
 20
2907.403415746125
 30
0.0
 40
150.0
  1
H1
 41
0.8
 72
     4
 11
537.4999856487557
 21
2982.403415746125
 31
0.0
100
AcDbText
  0
CIRCLE
  5
ED
330
C3
100
AcDbEntity
  8
SUNPOU
100
AcDbCircle
 10
537.4999856487557
 20
2982.403415746125
 30
0.0
 40
165.0
  0
TEXT
  5
EE
330
C3
100
AcDbEntity
  8
SUNPOU
100
AcDbText
 10
239.9999856487393
 20
1437.403415746128
 30
0.0
 40
150.0
  1
H2
 50
90.0
 41
0.8
 72
     4
 11
164.9999856487393
 21
1537.403415746128
 31
0.0
100
AcDbText
  0
LINE
  5
EF
330
C3
100
AcDbEntity
  8
SUNPOU
100
AcDbLine
 10
1137.499985648754
 20
727.4034157461247
 30
0.0
 11
1137.499985648756
 21
2817.403415746125
 31
0.0
1001
ACAD
1000
DSTYLE
1002
{
1070
    78
1070
     8
1070
   284
1070
     8
1070
   140
1040
3.0
1070
   145
1040
1.0
1070
    74
1070
     0
1070
   172
1070
     1
1070
    73
1070
     0
1070
    77
1070
     1
1070
    40
1040
60.0
1070
   147
1040
0.8
1070
   287
1070
     5
1070
    42
1040
1.5
1070
    44
1040
0.6
1070
    43
1040
7.0
1070
   271
1070
     0
1070
   177
1070
   256
1070
   176
1070
   256
1070
   141
1040
0.0
1070
   275
1070
     1
1070
    41
1040
1.5
1070
   285
1070
     8
1070
   286
1070
     8
1002
}
  0
LINE
  5
F0
330
C3
100
AcDbEntity
  8
SUNPOU
100
AcDbLine
 10
1044.999985648752
 20
2362.403415746125
 30
0.0
 11
1044.999985648756
 21
457.4034157461265
 31
0.0
  0
LINE
  5
F1
330
C3
100
AcDbEntity
  8
SUNPOU
100
AcDbLine
 10
1229.999985648759
 20
2362.403415746123
 30
0.0
 11
1229.999985648763
 21
457.4034157461228
 31
0.0
  0
LINE
  5
F2
330
C3
100
AcDbEntity
  8
SUNPOU
100
AcDbLine
 10
329.9999856487393
 20
2137.403415746126
 30
0.0
 11
329.9999856487393
 21
1357.403415746128
 31
0.0
1001
ACAD
1000
DSTYLE
1002
{
1070
    78
1070
     8
1070
   284
1070
     8
1070
   140
1040
3.0
1070
   145
1040
1.0
1070
    74
1070
     0
1070
   172
1070
     1
1070
    73
1070
     0
1070
    77
1070
     1
1070
    40
1040
60.0
1070
   147
1040
0.8
1070
   287
1070
     5
1070
    42
1040
1.5
1070
    44
1040
0.6
1070
    43
1040
7.0
1070
   271
1070
     0
1070
   177
1070
   256
1070
   176
1070
   256
1070
   141
1040
0.0
1070
   275
1070
     1
1070
    41
1040
1.5
1070
   285
1070
     8
1070
   286
1070
     8
1002
}
  0
CIRCLE
  5
F3
330
C3
100
AcDbEntity
  8
SUNPOU
100
AcDbCircle
 10
164.9999856487393
 20
1537.403415746128
 30
0.0
 40
165.0
  0
LINE
  5
F4
330
C3
100
AcDbEntity
  8
SUNPOU
100
AcDbLine
 10
929.999985648752
 20
2397.403415746126
 30
0.0
 11
929.999985648752
 21
397.4034157461247
 31
0.0
  0
LINE
  5
F5
330
C3
100
AcDbEntity
  8
SUNPOU
100
AcDbLine
 10
999.999985648752
 20
397.4034157461247
 30
0.0
 11
1019.999985648752
 21
317.4034157461301
 31
0.0
  0
SOLID
  5
F6
330
C3
100
AcDbEntity
  8
SUNPOU
100
AcDbTrace
 10
1152.499985648758
 20
937.4034157461138
 30
0.0
 11
1137.499985648758
 21
847.4034157461138
 31
0.0
 12
1122.499985648756
 22
937.4034157461138
 32
0.0
 13
1122.499985648756
 23
937.4034157461138
 33
0.0
1001
ACAD
1000
DSTYLE
1002
{
1070
    78
1070
     8
1070
   284
1070
     8
1070
   140
1040
3.0
1070
   145
1040
1.0
1070
    74
1070
     0
1070
   172
1070
     1
1070
    73
1070
     0
1070
    77
1070
     1
1070
    40
1040
60.0
1070
   147
1040
0.8
1070
   287
1070
     5
1070
    42
1040
1.5
1070
    44
1040
0.6
1070
    43
1040
7.0
1070
   271
1070
     0
1070
   177
1070
   256
1070
   176
1070
   256
1070
   141
1040
0.0
1070
   275
1070
     1
1070
    41
1040
1.5
1070
   285
1070
     8
1070
   286
1070
     8
1002
}
  0
SOLID
  5
F7
330
C3
100
AcDbEntity
  8
SUNPOU
100
AcDbTrace
 10
1152.499985648758
 20
817.4034157461356
 30
0.0
 11
1137.499985648758
 21
727.4034157461356
 31
0.0
 12
1122.499985648756
 22
817.4034157461356
 32
0.0
 13
1122.499985648756
 23
817.4034157461356
 33
0.0
1001
ACAD
1000
DSTYLE
1002
{
1070
    78
1070
     8
1070
   284
1070
     8
1070
   140
1040
3.0
1070
   145
1040
1.0
1070
    74
1070
     0
1070
   172
1070
     1
1070
    73
1070
     0
1070
    77
1070
     1
1070
    40
1040
60.0
1070
   147
1040
0.8
1070
   287
1070
     5
1070
    42
1040
1.5
1070
    44
1040
0.6
1070
    43
1040
7.0
1070
   271
1070
     0
1070
   177
1070
   256
1070
   176
1070
   256
1070
   141
1040
0.0
1070
   275
1070
     1
1070
    41
1040
1.5
1070
   285
1070
     8
1070
   286
1070
     8
1002
}
  0
SOLID
  5
F8
330
C3
100
AcDbEntity
  8
SUNPOU
100
AcDbTrace
 10
1152.499985648754
 20
877.4034157461301
 30
0.0
 11
1137.499985648754
 21
787.4034157461301
 31
0.0
 12
1122.499985648752
 22
877.4034157461301
 32
0.0
 13
1122.499985648752
 23
877.4034157461301
 33
0.0
1001
ACAD
1000
DSTYLE
1002
{
1070
    78
1070
     8
1070
   284
1070
     8
1070
   140
1040
3.0
1070
   145
1040
1.0
1070
    74
1070
     0
1070
   172
1070
     1
1070
    73
1070
     0
1070
    77
1070
     1
1070
    40
1040
60.0
1070
   147
1040
0.8
1070
   287
1070
     5
1070
    42
1040
1.5
1070
    44
1040
0.6
1070
    43
1040
7.0
1070
   271
1070
     0
1070
   177
1070
   256
1070
   176
1070
   256
1070
   141
1040
0.0
1070
   275
1070
     1
1070
    41
1040
1.5
1070
   285
1070
     8
1070
   286
1070
     8
1002
}
  0
TEXT
  5
F9
330
C3
100
AcDbEntity
  8
SUNPOU
100
AcDbText
 10
239.9999856487393
 20
1762.40341574613
 30
0.0
 40
150.0
  1
D13
 50
90.0
 41
0.8
 11
164.9999856487393
 21
1762.40341574613
 31
0.0
100
AcDbText
 73
     2
  0
SOLID
  5
FA
330
C3
100
AcDbEntity
  8
SUNPOU
100
AcDbTrace
 10
1152.499985648756
 20
2022.403415746117
 30
0.0
 11
1137.499985648756
 21
1932.403415746117
 31
0.0
 12
1122.499985648756
 22
2022.403415746117
 32
0.0
 13
1122.499985648756
 23
2022.403415746117
 33
0.0
1001
ACAD
1000
DSTYLE
1002
{
1070
    78
1070
     8
1070
   284
1070
     8
1070
   140
1040
3.0
1070
   145
1040
1.0
1070
    74
1070
     0
1070
   172
1070
     1
1070
    73
1070
     0
1070
    77
1070
     1
1070
    40
1040
60.0
1070
   147
1040
0.8
1070
   287
1070
     5
1070
    42
1040
1.5
1070
    44
1040
0.6
1070
    43
1040
7.0
1070
   271
1070
     0
1070
   177
1070
   256
1070
   176
1070
   256
1070
   141
1040
0.0
1070
   275
1070
     1
1070
    41
1040
1.5
1070
   285
1070
     8
1070
   286
1070
     8
1002
}
  0
SOLID
  5
FB
330
C3
100
AcDbEntity
  8
SUNPOU
100
AcDbTrace
 10
1152.499985648756
 20
2082.403415746117
 30
0.0
 11
1137.499985648756
 21
1992.403415746117
 31
0.0
 12
1122.499985648756
 22
2082.403415746117
 32
0.0
 13
1122.499985648756
 23
2082.403415746117
 33
0.0
1001
ACAD
1000
DSTYLE
1002
{
1070
    78
1070
     8
1070
   284
1070
     8
1070
   140
1040
3.0
1070
   145
1040
1.0
1070
    74
1070
     0
1070
   172
1070
     1
1070
    73
1070
     0
1070
    77
1070
     1
1070
    40
1040
60.0
1070
   147
1040
0.8
1070
   287
1070
     5
1070
    42
1040
1.5
1070
    44
1040
0.6
1070
    43
1040
7.0
1070
   271
1070
     0
1070
   177
1070
   256
1070
   176
1070
   256
1070
   141
1040
0.0
1070
   275
1070
     1
1070
    41
1040
1.5
1070
   285
1070
     8
1070
   286
1070
     8
1002
}
  0
SOLID
  5
FC
330
C3
100
AcDbEntity
  8
SUNPOU
100
AcDbTrace
 10
1152.499985648756
 20
2142.403415746119
 30
0.0
 11
1137.499985648756
 21
2052.403415746119
 31
0.0
 12
1122.499985648756
 22
2142.403415746119
 32
0.0
 13
1122.499985648756
 23
2142.403415746119
 33
0.0
1001
ACAD
1000
DSTYLE
1002
{
1070
    78
1070
     8
1070
   284
1070
     8
1070
   140
1040
3.0
1070
   145
1040
1.0
1070
    74
1070
     0
1070
   172
1070
     1
1070
    73
1070
     0
1070
    77
1070
     1
1070
    40
1040
60.0
1070
   147
1040
0.8
1070
   287
1070
     5
1070
    42
1040
1.5
1070
    44
1040
0.6
1070
    43
1040
7.0
1070
   271
1070
     0
1070
   177
1070
   256
1070
   176
1070
   256
1070
   141
1040
0.0
1070
   275
1070
     1
1070
    41
1040
1.5
1070
   285
1070
     8
1070
   286
1070
     8
1002
}
  0
LINE
  5
FD
330
C3
100
AcDbEntity
  8
SUNPOU
100
AcDbLine
 10
1137.499985648756
 20
2817.403415746125
 30
0.0
 11
357.4999856487557
 21
2817.403415746125
 31
0.0
1001
ACAD
1000
DSTYLE
1002
{
1070
    78
1070
     8
1070
   284
1070
     8
1070
   140
1040
3.0
1070
   145
1040
1.0
1070
    74
1070
     0
1070
   172
1070
     1
1070
    73
1070
     0
1070
    77
1070
     1
1070
    40
1040
60.0
1070
   147
1040
0.8
1070
   287
1070
     5
1070
    42
1040
1.5
1070
    44
1040
0.6
1070
    43
1040
7.0
1070
   271
1070
     0
1070
   177
1070
   256
1070
   176
1070
   256
1070
   141
1040
0.0
1070
   275
1070
     1
1070
    41
1040
1.5
1070
   285
1070
     8
1070
   286
1070
     8
1002
}
  0
TEXT
  5
FE
330
C3
100
AcDbEntity
  8
SUNPOU
100
AcDbText
 10
979.9999856487611
 20
3317.403415746123
 30
0.0
 40
150.0
  1
H3
 41
0.8
 72
     4
 11
1079.999985648761
 21
3392.403415746123
 31
0.0
100
AcDbText
  0
CIRCLE
  5
FF
330
C3
100
AcDbEntity
  8
SUNPOU
100
AcDbCircle
 10
1079.999985648761
 20
3392.403415746123
 30
0.0
 40
165.0
  0
LINE
  5
100
330
C3
100
AcDbEntity
  8
HAIKIN
 62
     3
100
AcDbLine
 10
929.999985648752
 20
4587.403415746125
 30
0.0
 11
929.999985648752
 21
4887.403415746125
 31
0.0
  0
TEXT
  5
101
330
C3
100
AcDbEntity
  8
SUNPOU
100
AcDbText
 10
3194.999985648759
 20
2907.403415746125
 30
0.0
 40
150.0
  1
D13
 41
0.8
 11
3194.999985648759
 21
2982.403415746125
 31
0.0
100
AcDbText
 73
     2
  0
TEXT
  5
102
330
C3
100
AcDbEntity
  8
SUNPOU
100
AcDbText
 10
2889.999985648759
 20
2907.403415746125
 30
0.0
 40
150.0
  1
H1
 41
0.8
 72
     4
 11
2969.999985648759
 21
2982.403415746125
 31
0.0
100
AcDbText
  0
LINE
  5
103
330
C3
100
AcDbEntity
  8
SUNPOU
100
AcDbLine
 10
1679.999985648761
 20
1890.403415746132
 30
0.0
 11
1679.999985648763
 21
3227.403415746123
 31
0.0
1001
ACAD
1000
DSTYLE
1002
{
1070
    78
1070
     8
1070
   284
1070
     8
1070
   140
1040
3.0
1070
   145
1040
1.0
1070
    74
1070
     0
1070
   172
1070
     1
1070
    73
1070
     0
1070
    77
1070
     1
1070
    40
1040
60.0
1070
   147
1040
0.8
1070
   287
1070
     5
1070
    42
1040
1.5
1070
    44
1040
0.6
1070
    43
1040
7.0
1070
   271
1070
     0
1070
   177
1070
   256
1070
   176
1070
   256
1070
   141
1040
0.0
1070
   275
1070
     1
1070
    41
1040
1.5
1070
   285
1070
     8
1070
   286
1070
     8
1002
}
  0
LINE
  5
104
330
C3
100
AcDbEntity
  8
SUNPOU
100
AcDbLine
 10
2279.999985648761
 20
1827.403415746126
 30
0.0
 11
2279.999985648759
 21
3227.403415746123
 31
0.0
1001
ACAD
1000
DSTYLE
1002
{
1070
    78
1070
     8
1070
   284
1070
     8
1070
   140
1040
3.0
1070
   145
1040
1.0
1070
    74
1070
     0
1070
   172
1070
     1
1070
    73
1070
     0
1070
    77
1070
     1
1070
    40
1040
60.0
1070
   147
1040
0.8
1070
   287
1070
     5
1070
    42
1040
1.5
1070
    44
1040
0.6
1070
    43
1040
7.0
1070
   271
1070
     0
1070
   177
1070
   256
1070
   176
1070
   256
1070
   141
1040
0.0
1070
   275
1070
     1
1070
    41
1040
1.5
1070
   285
1070
     8
1070
   286
1070
     8
1002
}
  0
CIRCLE
  5
105
330
C3
100
AcDbEntity
  8
SUNPOU
100
AcDbCircle
 10
2969.999985648759
 20
2982.403415746125
 30
0.0
 40
165.0
  0
LINE
  5
106
330
C3
100
AcDbEntity
  8
1HASEN
100
AcDbLine
 10
1979.999985648754
 20
4077.403415746121
 30
0.0
 11
1979.999985648759
 21
17.40341574611921
 31
0.0
  0
TEXT
  5
107
330
C3
100
AcDbEntity
  8
SUNPOU
100
AcDbText
 10
3359.999985648745
 20
1762.403415746126
 30
0.0
 40
150.0
  1
D13
 50
90.0
 41
0.8
 11
3284.999985648745
 21
1762.403415746126
 31
0.0
100
AcDbText
 73
     2
  0
TEXT
  5
108
330
C3
100
AcDbEntity
  8
SUNPOU
100
AcDbText
 10
3359.999985648745
 20
1437.403415746125
 30
0.0
 40
150.0
  1
H2
 50
90.0
 41
0.8
 72
     4
 11
3284.999985648745
 21
1537.403415746125
 31
0.0
100
AcDbText
  0
LINE
  5
109
330
C3
100
AcDbEntity
  8
SUNPOU
100
AcDbLine
 10
2789.999985648759
 20
2817.403415746125
 30
0.0
 11
3569.999985648759
 21
2817.403415746125
 31
0.0
1001
ACAD
1000
DSTYLE
1002
{
1070
    78
1070
     8
1070
   284
1070
     8
1070
   140
1040
3.0
1070
   145
1040
1.0
1070
    74
1070
     0
1070
   172
1070
     1
1070
    73
1070
     0
1070
    77
1070
     1
1070
    40
1040
60.0
1070
   147
1040
0.8
1070
   287
1070
     5
1070
    42
1040
1.5
1070
    44
1040
0.6
1070
    43
1040
7.0
1070
   271
1070
     0
1070
   177
1070
   256
1070
   176
1070
   256
1070
   141
1040
0.0
1070
   275
1070
     1
1070
    41
1040
1.5
1070
   285
1070
     8
1070
   286
1070
     8
1002
}
  0
LINE
  5
10A
330
C3
100
AcDbEntity
  8
SUNPOU
100
AcDbLine
 10
2429.999985648759
 20
1357.403415746125
 30
0.0
 11
3449.999985648745
 21
1357.403415746123
 31
0.0
1001
ACAD
1000
DSTYLE
1002
{
1070
    78
1070
     8
1070
   284
1070
     8
1070
   140
1040
3.0
1070
   145
1040
1.0
1070
    74
1070
     0
1070
   172
1070
     1
1070
    73
1070
     0
1070
    77
1070
     1
1070
    40
1040
60.0
1070
   147
1040
0.8
1070
   287
1070
     5
1070
    42
1040
1.5
1070
    44
1040
0.6
1070
    43
1040
7.0
1070
   271
1070
     0
1070
   177
1070
   256
1070
   176
1070
   256
1070
   141
1040
0.0
1070
   275
1070
     1
1070
    41
1040
1.5
1070
   285
1070
     8
1070
   286
1070
     8
1002
}
  0
CIRCLE
  5
10B
330
C3
100
AcDbEntity
  8
SUNPOU
100
AcDbCircle
 10
3284.999985648745
 20
1537.403415746125
 30
0.0
 40
165.0
  0
LINE
  5
10C
330
C3
100
AcDbEntity
  8
HAIKIN
100
AcDbLine
 10
1486.99998564875
 20
939.4034157461192
 30
0.0
 11
1486.99998564875
 21
1855.403415746132
 31
0.0
  0
LINE
  5
10D
330
C3
100
AcDbEntity
  8
HAIKIN
100
AcDbLine
 10
2409.999985648758
 20
1792.403415746126
 30
0.0
 11
2409.999985648759
 21
1002.403415746126
 31
0.0
  0
LINE
  5
10E
330
C3
100
AcDbEntity
  8
SUNPOU
100
AcDbLine
 10
2789.999985648759
 20
787.4034157461319
 30
0.0
 11
2789.999985648759
 21
2817.403415746125
 31
0.0
1001
ACAD
1000
DSTYLE
1002
{
1070
    78
1070
     8
1070
   284
1070
     8
1070
   140
1040
3.0
1070
   145
1040
1.0
1070
    74
1070
     0
1070
   172
1070
     1
1070
    73
1070
     0
1070
    77
1070
     1
1070
    40
1040
60.0
1070
   147
1040
0.8
1070
   287
1070
     5
1070
    42
1040
1.5
1070
    44
1040
0.6
1070
    43
1040
7.0
1070
   271
1070
     0
1070
   177
1070
   256
1070
   176
1070
   256
1070
   141
1040
0.0
1070
   275
1070
     1
1070
    41
1040
1.5
1070
   285
1070
     8
1070
   286
1070
     8
1002
}
  0
LINE
  5
10F
330
C3
100
AcDbEntity
  8
HAIKIN
100
AcDbLine
 10
2469.999985648758
 20
352.4034157461247
 30
0.0
 11
2469.999985648758
 21
2257.403415746121
 31
0.0
  0
LINE
  5
110
330
C3
100
AcDbEntity
  8
HAIKIN
100
AcDbLine
 10
2529.999985648759
 20
352.4034157461247
 30
0.0
 11
2529.999985648759
 21
2257.403415746121
 31
0.0
  0
LINE
  5
111
330
C3
100
AcDbEntity
  8
HAIKIN
100
AcDbLine
 10
2589.999985648761
 20
352.4034157461247
 30
0.0
 11
2589.999985648758
 21
2257.403415746121
 31
0.0
  0
LINE
  5
112
330
C3
100
AcDbEntity
  8
HAIKIN
100
AcDbLine
 10
1426.999985648754
 20
457.4034157461228
 30
0.0
 11
1426.999985648752
 21
2362.403415746123
 31
0.0
  0
LINE
  5
113
330
C3
100
AcDbEntity
  8
HAIKIN
100
AcDbLine
 10
1366.999985648756
 20
457.4034157461228
 30
0.0
 11
1366.999985648748
 21
2362.403415746123
 31
0.0
  0
LINE
  5
114
330
C3
100
AcDbEntity
  8
HAIKIN
100
AcDbLine
 10
1306.999985648754
 20
457.4034157461228
 30
0.0
 11
1306.999985648748
 21
2362.403415746123
 31
0.0
  0
LINE
  5
115
330
C3
100
AcDbEntity
  8
SUNPOU
100
AcDbLine
 10
2914.99998564875
 20
2257.403415746121
 30
0.0
 11
2914.99998564875
 21
352.4034157461265
 31
0.0
  0
LINE
  5
116
330
C3
100
AcDbEntity
  8
SUNPOU
100
AcDbLine
 10
2729.999985648759
 20
2257.403415746121
 30
0.0
 11
2729.999985648759
 21
352.4034157461228
 31
0.0
  0
LINE
  5
117
330
C3
100
AcDbEntity
  8
SUNPOU
100
AcDbLine
 10
2429.999985648759
 20
2257.403415746121
 30
0.0
 11
2429.999985648758
 21
352.403415746121
 31
0.0
  0
LINE
  5
118
330
C3
100
AcDbEntity
  8
SUNPOU
100
AcDbLine
 10
2379.999985648758
 20
1797.403415746126
 30
0.0
 11
2379.999985648758
 21
997.4034157461265
 31
0.0
  0
LINE
  5
119
330
C3
100
AcDbEntity
  8
SUNPOU
100
AcDbLine
 10
3029.99998564875
 20
2397.403415746121
 30
0.0
 11
3029.99998564875
 21
397.403415746121
 31
0.0
  0
LINE
  5
11A
330
C3
100
AcDbEntity
  8
SUNPOU
100
AcDbLine
 10
1516.999985648752
 20
934.403415746121
 30
0.0
 11
1516.999985648752
 21
1860.403415746126
 31
0.0
  0
LINE
  5
11B
330
C3
100
AcDbEntity
  8
SUNPOU
100
AcDbLine
 10
1579.999985648756
 20
1797.403415746126
 30
0.0
 11
1579.999985648758
 21
997.4034157461265
 31
0.0
  0
LINE
  5
11C
330
C3
100
AcDbEntity
  8
HAIKIN
100
AcDbLine
 10
2374.999985648759
 20
967.4034157461265
 30
0.0
 11
1979.999985648752
 21
967.4034157461265
 31
0.0
  0
LINE
  5
11D
330
C3
100
AcDbEntity
  8
HAIKIN
100
AcDbLine
 10
2994.999985648774
 20
787.4034157461319
 30
0.0
 11
1979.999985648759
 21
787.4034157461283
 31
0.0
  0
LINE
  5
11E
330
C3
100
AcDbEntity
  8
HAIKIN
100
AcDbLine
 10
2994.999985648774
 20
847.4034157461319
 30
0.0
 11
1979.999985648758
 21
847.4034157461283
 31
0.0
  0
LINE
  5
11F
330
C3
100
AcDbEntity
  8
HAIKIN
100
AcDbLine
 10
2994.999985648774
 20
907.4034157461319
 30
0.0
 11
1979.999985648759
 21
907.4034157461283
 31
0.0
  0
LINE
  5
120
330
C3
100
AcDbEntity
  8
SUNPOU
100
AcDbLine
 10
2914.99998564875
 20
352.4034157461265
 30
0.0
 11
1979.999985648759
 21
352.403415746121
 31
0.0
  0
LINE
  5
121
330
C3
100
AcDbEntity
  8
SUNPOU
100
AcDbLine
 10
2994.999985648774
 20
457.4034157461247
 30
0.0
 11
1979.999985648759
 21
457.403415746121
 31
0.0
  0
LINE
  5
122
330
C3
100
AcDbEntity
  8
SUNPOU
100
AcDbLine
 10
2994.999985648774
 20
937.4034157461247
 30
0.0
 11
1979.999985648759
 21
937.403415746121
 31
0.0
  0
LINE
  5
123
330
C3
100
AcDbEntity
  8
SUNPOU
100
AcDbLine
 10
2994.999985648774
 20
817.4034157461247
 30
0.0
 11
1979.999985648759
 21
817.403415746121
 31
0.0
  0
LINE
  5
124
330
C3
100
AcDbEntity
  8
SUNPOU
100
AcDbLine
 10
2994.999985648774
 20
697.4034157461247
 30
0.0
 11
1979.999985648759
 21
697.403415746121
 31
0.0
  0
LINE
  5
125
330
C3
100
AcDbEntity
  8
SUNPOU
100
AcDbLine
 10
2994.999985648774
 20
577.4034157461247
 30
0.0
 11
1979.999985648759
 21
577.403415746121
 31
0.0
  0
LINE
  5
126
330
C3
100
AcDbEntity
  8
SUNPOU
100
AcDbLine
 10
2939.99998564875
 20
317.4034157461247
 30
0.0
 11
1963.628976814191
 21
317.403415746121
 31
0.0
  0
LINE
  5
127
330
C3
100
AcDbEntity
  8
1HASEN
100
AcDbLine
 10
1379.999985648756
 20
1397.403415746126
 30
0.0
 11
2579.999985648758
 21
1397.403415746126
 31
0.0
  0
LINE
  5
128
330
C3
100
AcDbEntity
  8
SUNPOU
100
AcDbLine
 10
2379.999985648758
 20
997.4034157461265
 30
0.0
 11
1579.999985648758
 21
997.4034157461265
 31
0.0
  0
ARC
  5
129
330
C3
100
AcDbEntity
  8
HAIKIN
100
AcDbCircle
 10
1521.99998564875
 20
939.4034157461192
 30
0.0
 40
35.0
100
AcDbArc
 50
180.0
 51
270.0
  0
LINE
  5
12A
330
C3
100
AcDbEntity
  8
SUNPOU
100
AcDbLine
 10
2129.999985648758
 20
967.4034157461283
 30
0.0
 11
2129.999985648759
 21
352.4034157461192
 31
0.0
  0
LINE
  5
12B
330
C3
100
AcDbEntity
  8
HAIKIN
100
AcDbLine
 10
1521.99998564875
 20
904.4034157461192
 30
0.0
 11
1979.999985648758
 21
904.4034157461228
 31
0.0
  0
LINE
  5
12C
330
C3
100
AcDbEntity
  8
SUNPOU
100
AcDbLine
 10
1516.999985648752
 20
934.403415746121
 30
0.0
 11
1979.999985648758
 21
934.4034157461228
 31
0.0
  0
LINE
  5
12D
330
C3
100
AcDbEntity
  8
SUNPOU
100
AcDbLine
 10
1529.999985648765
 20
904.403415746121
 30
0.0
 11
1529.999985648767
 21
457.4034157461247
 31
0.0
  0
LINE
  5
12E
330
C3
100
AcDbEntity
  8
SUNPOU
100
AcDbLine
 10
1829.999985648759
 20
904.4034157461228
 30
0.0
 11
1829.999985648759
 21
457.4034157461192
 31
0.0
  0
SOLID
  5
12F
330
C3
100
AcDbEntity
  8
SUNPOU
100
AcDbTrace
 10
1276.999985648759
 20
1372.403415746128
 30
0.0
 11
1366.999985648759
 21
1357.403415746128
 31
0.0
 12
1276.999985648759
 22
1342.403415746128
 32
0.0
 13
1276.999985648759
 23
1342.403415746128
 33
0.0
1001
ACAD
1000
DSTYLE
1002
{
1070
    78
1070
     8
1070
   284
1070
     8
1070
   140
1040
3.0
1070
   145
1040
1.0
1070
    74
1070
     0
1070
   172
1070
     1
1070
    73
1070
     0
1070
    77
1070
     1
1070
    40
1040
60.0
1070
   147
1040
0.8
1070
   287
1070
     5
1070
    42
1040
1.5
1070
    44
1040
0.6
1070
    43
1040
7.0
1070
   271
1070
     0
1070
   177
1070
   256
1070
   176
1070
   256
1070
   141
1040
0.0
1070
   275
1070
     1
1070
    41
1040
1.5
1070
   285
1070
     8
1070
   286
1070
     8
1002
}
  0
SOLID
  5
130
330
C3
100
AcDbEntity
  8
SUNPOU
100
AcDbTrace
 10
1336.99998564877
 20
1372.403415746125
 30
0.0
 11
1426.99998564877
 21
1357.403415746123
 31
0.0
 12
1336.99998564877
 22
1342.403415746125
 32
0.0
 13
1336.99998564877
 23
1342.403415746125
 33
0.0
1001
ACAD
1000
DSTYLE
1002
{
1070
    78
1070
     8
1070
   284
1070
     8
1070
   140
1040
3.0
1070
   145
1040
1.0
1070
    74
1070
     0
1070
   172
1070
     1
1070
    73
1070
     0
1070
    77
1070
     1
1070
    40
1040
60.0
1070
   147
1040
0.8
1070
   287
1070
     5
1070
    42
1040
1.5
1070
    44
1040
0.6
1070
    43
1040
7.0
1070
   271
1070
     0
1070
   177
1070
   256
1070
   176
1070
   256
1070
   141
1040
0.0
1070
   275
1070
     1
1070
    41
1040
1.5
1070
   285
1070
     8
1070
   286
1070
     8
1002
}
  0
SOLID
  5
131
330
C3
100
AcDbEntity
  8
SUNPOU
100
AcDbTrace
 10
2804.999985648759
 20
997.4034157461319
 30
0.0
 11
2789.999985648759
 21
907.4034157461319
 31
0.0
 12
2774.999985648759
 22
997.4034157461319
 32
0.0
 13
2774.999985648759
 23
997.4034157461319
 33
0.0
1001
ACAD
1000
DSTYLE
1002
{
1070
    78
1070
     8
1070
   284
1070
     8
1070
   140
1040
3.0
1070
   145
1040
1.0
1070
    74
1070
     0
1070
   172
1070
     1
1070
    73
1070
     0
1070
    77
1070
     1
1070
    40
1040
60.0
1070
   147
1040
0.8
1070
   287
1070
     5
1070
    42
1040
1.5
1070
    44
1040
0.6
1070
    43
1040
7.0
1070
   271
1070
     0
1070
   177
1070
   256
1070
   176
1070
   256
1070
   141
1040
0.0
1070
   275
1070
     1
1070
    41
1040
1.5
1070
   285
1070
     8
1070
   286
1070
     8
1002
}
  0
LINE
  5
132
330
C3
100
AcDbEntity
  8
HASEN
100
AcDbLine
 10
2994.999985648772
 20
715.4034157461156
 30
0.0
 11
2644.497460331817
 21
715.4034157461119
 31
0.0
  0
LINE
  5
133
330
C3
100
AcDbEntity
  8
HASEN
100
AcDbLine
 10
2994.999985648772
 20
475.4034157461156
 30
0.0
 11
2644.497460331817
 21
475.4034157461119
 31
0.0
  0
LINE
  5
134
330
C3
100
AcDbEntity
  8
SUNPOU
100
AcDbLine
 10
3029.99998564875
 20
397.403415746121
 30
0.0
 11
2959.999985648748
 21
397.403415746121
 31
0.0
  0
LINE
  5
135
330
C3
100
AcDbEntity
  8
SUNPOU
100
AcDbLine
 10
2959.999985648748
 20
397.403415746121
 30
0.0
 11
2939.999985648748
 21
317.4034157461228
 31
0.0
  0
SOLID
  5
136
330
C3
100
AcDbEntity
  8
SUNPOU
100
AcDbTrace
 10
2804.999985648759
 20
937.4034157461319
 30
0.0
 11
2789.999985648759
 21
847.4034157461319
 31
0.0
 12
2774.999985648759
 22
937.4034157461319
 32
0.0
 13
2774.999985648759
 23
937.4034157461319
 33
0.0
1001
ACAD
1000
DSTYLE
1002
{
1070
    78
1070
     8
1070
   284
1070
     8
1070
   140
1040
3.0
1070
   145
1040
1.0
1070
    74
1070
     0
1070
   172
1070
     1
1070
    73
1070
     0
1070
    77
1070
     1
1070
    40
1040
60.0
1070
   147
1040
0.8
1070
   287
1070
     5
1070
    42
1040
1.5
1070
    44
1040
0.6
1070
    43
1040
7.0
1070
   271
1070
     0
1070
   177
1070
   256
1070
   176
1070
   256
1070
   141
1040
0.0
1070
   275
1070
     1
1070
    41
1040
1.5
1070
   285
1070
     8
1070
   286
1070
     8
1002
}
  0
SOLID
  5
137
330
C3
100
AcDbEntity
  8
SUNPOU
100
AcDbTrace
 10
2804.999985648759
 20
877.4034157461319
 30
0.0
 11
2789.999985648759
 21
787.4034157461319
 31
0.0
 12
2774.999985648759
 22
877.4034157461319
 32
0.0
 13
2774.999985648759
 23
877.4034157461319
 33
0.0
1001
ACAD
1000
DSTYLE
1002
{
1070
    78
1070
     8
1070
   284
1070
     8
1070
   140
1040
3.0
1070
   145
1040
1.0
1070
    74
1070
     0
1070
   172
1070
     1
1070
    73
1070
     0
1070
    77
1070
     1
1070
    40
1040
60.0
1070
   147
1040
0.8
1070
   287
1070
     5
1070
    42
1040
1.5
1070
    44
1040
0.6
1070
    43
1040
7.0
1070
   271
1070
     0
1070
   177
1070
   256
1070
   176
1070
   256
1070
   141
1040
0.0
1070
   275
1070
     1
1070
    41
1040
1.5
1070
   285
1070
     8
1070
   286
1070
     8
1002
}
  0
LINE
  5
138
330
C3
100
AcDbEntity
  8
SUNPOU
100
AcDbLine
 10
2994.999985648774
 20
1537.403415746125
 30
0.0
 11
2409.999985648759
 21
1537.403415746121
 31
0.0
  0
LINE
  5
139
330
C3
100
AcDbEntity
  8
SUNPOU
100
AcDbLine
 10
2994.999985648774
 20
1417.403415746125
 30
0.0
 11
2409.999985648759
 21
1417.403415746121
 31
0.0
  0
LINE
  5
13A
330
C3
100
AcDbEntity
  8
SUNPOU
100
AcDbLine
 10
2994.999985648774
 20
1297.403415746125
 30
0.0
 11
2409.999985648759
 21
1297.403415746125
 31
0.0
  0
LINE
  5
13B
330
C3
100
AcDbEntity
  8
SUNPOU
100
AcDbLine
 10
2994.999985648774
 20
1177.403415746125
 30
0.0
 11
2409.999985648759
 21
1177.403415746121
 31
0.0
  0
LINE
  5
13C
330
C3
100
AcDbEntity
  8
SUNPOU
100
AcDbLine
 10
2994.999985648774
 20
1057.403415746125
 30
0.0
 11
2409.999985648759
 21
1057.403415746121
 31
0.0
  0
LINE
  5
13D
330
C3
100
AcDbEntity
  8
HASEN
100
AcDbLine
 10
2994.999985648772
 20
955.4034157461156
 30
0.0
 11
2644.497460331817
 21
955.4034157461119
 31
0.0
  0
LINE
  5
13E
330
C3
100
AcDbEntity
  8
HASEN
100
AcDbLine
 10
2994.999985648772
 20
1195.403415746116
 30
0.0
 11
2644.497460331817
 21
1195.403415746112
 31
0.0
  0
LINE
  5
13F
330
C3
100
AcDbEntity
  8
HASEN
100
AcDbLine
 10
2994.999985648772
 20
1435.403415746116
 30
0.0
 11
2644.497460331817
 21
1435.403415746112
 31
0.0
  0
ARC
  5
140
330
C3
100
AcDbEntity
  8
HAIKIN
100
AcDbCircle
 10
2374.999985648759
 20
1002.403415746126
 30
0.0
 40
35.0
100
AcDbArc
 50
270.0
 51
0.0
  0
LINE
  5
141
330
C3
100
AcDbEntity
  8
HAIKIN
100
AcDbLine
 10
2374.999985648758
 20
1827.403415746126
 30
0.0
 11
1979.999985648752
 21
1827.403415746126
 31
0.0
  0
LINE
  5
142
330
C3
100
AcDbEntity
  8
HAIKIN
100
AcDbLine
 10
2994.999985648774
 20
1872.403415746125
 30
0.0
 11
1979.999985648759
 21
1872.403415746121
 31
0.0
  0
LINE
  5
143
330
C3
100
AcDbEntity
  8
HAIKIN
100
AcDbLine
 10
2994.999985648774
 20
1932.403415746125
 30
0.0
 11
1979.999985648758
 21
1932.403415746121
 31
0.0
  0
LINE
  5
144
330
C3
100
AcDbEntity
  8
HAIKIN
100
AcDbLine
 10
2994.999985648774
 20
1992.403415746125
 30
0.0
 11
1979.999985648758
 21
1992.403415746121
 31
0.0
  0
LINE
  5
145
330
C3
100
AcDbEntity
  8
SUNPOU
100
AcDbLine
 10
2994.999985648774
 20
2017.403415746125
 30
0.0
 11
1979.999985648759
 21
2017.403415746121
 31
0.0
  0
LINE
  5
146
330
C3
100
AcDbEntity
  8
SUNPOU
100
AcDbLine
 10
2994.999985648774
 20
2137.403415746125
 30
0.0
 11
1979.999985648759
 21
2137.403415746121
 31
0.0
  0
LINE
  5
147
330
C3
100
AcDbEntity
  8
SUNPOU
100
AcDbLine
 10
2994.999985648774
 20
2257.403415746125
 30
0.0
 11
1979.999985648759
 21
2257.403415746121
 31
0.0
  0
LINE
  5
148
330
C3
100
AcDbEntity
  8
SUNPOU
100
AcDbLine
 10
2994.999985648774
 20
1897.403415746125
 30
0.0
 11
1979.999985648759
 21
1897.403415746121
 31
0.0
  0
LINE
  5
149
330
C3
100
AcDbEntity
  8
SUNPOU
100
AcDbLine
 10
2949.999985648748
 20
2317.403415746123
 30
0.0
 11
1979.999985648759
 21
2317.403415746121
 31
0.0
  0
LINE
  5
14A
330
C3
100
AcDbEntity
  8
SUNPOU
100
AcDbLine
 10
2379.999985648758
 20
1797.403415746126
 30
0.0
 11
1579.999985648756
 21
1797.403415746126
 31
0.0
  0
LINE
  5
14B
330
C3
100
AcDbEntity
  8
SUNPOU
100
AcDbLine
 10
1829.999985648765
 20
2362.403415746123
 30
0.0
 11
1829.999985648759
 21
1890.403415746126
 31
0.0
  0
LINE
  5
14C
330
C3
100
AcDbEntity
  8
SUNPOU
100
AcDbLine
 10
1529.999985648763
 20
2362.403415746125
 30
0.0
 11
1529.999985648763
 21
1890.403415746128
 31
0.0
  0
LINE
  5
14D
330
C3
100
AcDbEntity
  8
HAIKIN
100
AcDbLine
 10
1979.999985648758
 20
1890.403415746128
 30
0.0
 11
1521.99998564875
 21
1890.403415746132
 31
0.0
  0
LINE
  5
14E
330
C3
100
AcDbEntity
  8
SUNPOU
100
AcDbLine
 10
1979.999985648758
 20
1860.403415746128
 30
0.0
 11
1516.999985648752
 21
1860.403415746126
 31
0.0
  0
ARC
  5
14F
330
C3
100
AcDbEntity
  8
HAIKIN
100
AcDbCircle
 10
1521.99998564875
 20
1855.403415746132
 30
0.0
 40
35.0
100
AcDbArc
 50
90.0
 51
180.0
  0
SOLID
  5
150
330
C3
100
AcDbEntity
  8
SUNPOU
100
AcDbTrace
 10
1694.999985648759
 20
1980.403415746141
 30
0.0
 11
1679.999985648759
 21
1890.403415746141
 31
0.0
 12
1664.999985648759
 22
1980.403415746141
 32
0.0
 13
1664.999985648759
 23
1980.403415746141
 33
0.0
1001
ACAD
1000
DSTYLE
1002
{
1070
    78
1070
     8
1070
   284
1070
     8
1070
   140
1040
3.0
1070
   145
1040
1.0
1070
    74
1070
     0
1070
   172
1070
     1
1070
    73
1070
     0
1070
    77
1070
     1
1070
    40
1040
60.0
1070
   147
1040
0.8
1070
   287
1070
     5
1070
    42
1040
1.5
1070
    44
1040
0.6
1070
    43
1040
7.0
1070
   271
1070
     0
1070
   177
1070
   256
1070
   176
1070
   256
1070
   141
1040
0.0
1070
   275
1070
     1
1070
    41
1040
1.5
1070
   285
1070
     8
1070
   286
1070
     8
1002
}
  0
LINE
  5
151
330
C3
100
AcDbEntity
  8
SUNPOU
100
AcDbLine
 10
2129.999985648759
 20
2257.403415746121
 30
0.0
 11
2129.999985648759
 21
1827.40341574613
 31
0.0
  0
LINE
  5
152
330
C3
100
AcDbEntity
  8
SUNPOU
100
AcDbLine
 10
2969.99998564875
 20
2397.403415746121
 30
0.0
 11
2949.99998564875
 21
2317.403415746125
 31
0.0
  0
LINE
  5
153
330
C3
100
AcDbEntity
  8
SUNPOU
100
AcDbLine
 10
2994.999985648774
 20
1777.403415746125
 30
0.0
 11
2409.999985648758
 21
1777.403415746119
 31
0.0
  0
LINE
  5
154
330
C3
100
AcDbEntity
  8
SUNPOU
100
AcDbLine
 10
2994.999985648774
 20
1657.403415746125
 30
0.0
 11
2409.999985648758
 21
1657.403415746121
 31
0.0
  0
LINE
  5
155
330
C3
100
AcDbEntity
  8
HASEN
100
AcDbLine
 10
2994.999985648772
 20
2155.403415746116
 30
0.0
 11
2644.497460331817
 21
2155.403415746112
 31
0.0
  0
LINE
  5
156
330
C3
100
AcDbEntity
  8
HASEN
100
AcDbLine
 10
2994.999985648772
 20
1915.403415746116
 30
0.0
 11
2644.497460331817
 21
1915.403415746112
 31
0.0
  0
LINE
  5
157
330
C3
100
AcDbEntity
  8
HASEN
100
AcDbLine
 10
2994.999985648772
 20
1675.403415746116
 30
0.0
 11
2644.497460331817
 21
1675.403415746112
 31
0.0
  0
ARC
  5
158
330
C3
100
AcDbEntity
  8
HAIKIN
100
AcDbCircle
 10
2374.999985648758
 20
1792.403415746126
 30
0.0
 40
35.0
100
AcDbArc
 50
0.0
 51
90.0
  0
SOLID
  5
159
330
C3
100
AcDbEntity
  8
SUNPOU
100
AcDbTrace
 10
2294.999985648761
 20
1917.403415746126
 30
0.0
 11
2279.999985648761
 21
1827.403415746126
 31
0.0
 12
2264.999985648761
 22
1917.403415746126
 32
0.0
 13
2264.999985648761
 23
1917.403415746126
 33
0.0
1001
ACAD
1000
DSTYLE
1002
{
1070
    78
1070
     8
1070
   284
1070
     8
1070
   140
1040
3.0
1070
   145
1040
1.0
1070
    74
1070
     0
1070
   172
1070
     1
1070
    73
1070
     0
1070
    77
1070
     1
1070
    40
1040
60.0
1070
   147
1040
0.8
1070
   287
1070
     5
1070
    42
1040
1.5
1070
    44
1040
0.6
1070
    43
1040
7.0
1070
   271
1070
     0
1070
   177
1070
   256
1070
   176
1070
   256
1070
   141
1040
0.0
1070
   275
1070
     1
1070
    41
1040
1.5
1070
   285
1070
     8
1070
   286
1070
     8
1002
}
  0
SOLID
  5
15A
330
C3
100
AcDbEntity
  8
SUNPOU
100
AcDbTrace
 10
2804.999985648759
 20
2022.403415746125
 30
0.0
 11
2789.999985648759
 21
1932.403415746125
 31
0.0
 12
2774.999985648759
 22
2022.403415746125
 32
0.0
 13
2774.999985648759
 23
2022.403415746125
 33
0.0
1001
ACAD
1000
DSTYLE
1002
{
1070
    78
1070
     8
1070
   284
1070
     8
1070
   140
1040
3.0
1070
   145
1040
1.0
1070
    74
1070
     0
1070
   172
1070
     1
1070
    73
1070
     0
1070
    77
1070
     1
1070
    40
1040
60.0
1070
   147
1040
0.8
1070
   287
1070
     5
1070
    42
1040
1.5
1070
    44
1040
0.6
1070
    43
1040
7.0
1070
   271
1070
     0
1070
   177
1070
   256
1070
   176
1070
   256
1070
   141
1040
0.0
1070
   275
1070
     1
1070
    41
1040
1.5
1070
   285
1070
     8
1070
   286
1070
     8
1002
}
  0
SOLID
  5
15B
330
C3
100
AcDbEntity
  8
SUNPOU
100
AcDbTrace
 10
2804.999985648759
 20
1962.403415746125
 30
0.0
 11
2789.999985648759
 21
1872.403415746125
 31
0.0
 12
2774.999985648759
 22
1962.403415746125
 32
0.0
 13
2774.999985648759
 23
1962.403415746125
 33
0.0
1001
ACAD
1000
DSTYLE
1002
{
1070
    78
1070
     8
1070
   284
1070
     8
1070
   140
1040
3.0
1070
   145
1040
1.0
1070
    74
1070
     0
1070
   172
1070
     1
1070
    73
1070
     0
1070
    77
1070
     1
1070
    40
1040
60.0
1070
   147
1040
0.8
1070
   287
1070
     5
1070
    42
1040
1.5
1070
    44
1040
0.6
1070
    43
1040
7.0
1070
   271
1070
     0
1070
   177
1070
   256
1070
   176
1070
   256
1070
   141
1040
0.0
1070
   275
1070
     1
1070
    41
1040
1.5
1070
   285
1070
     8
1070
   286
1070
     8
1002
}
  0
SOLID
  5
15C
330
C3
100
AcDbEntity
  8
SUNPOU
100
AcDbTrace
 10
2804.999985648759
 20
2082.403415746125
 30
0.0
 11
2789.999985648759
 21
1992.403415746125
 31
0.0
 12
2774.999985648759
 22
2082.403415746125
 32
0.0
 13
2774.999985648759
 23
2082.403415746125
 33
0.0
1001
ACAD
1000
DSTYLE
1002
{
1070
    78
1070
     8
1070
   284
1070
     8
1070
   140
1040
3.0
1070
   145
1040
1.0
1070
    74
1070
     0
1070
   172
1070
     1
1070
    73
1070
     0
1070
    77
1070
     1
1070
    40
1040
60.0
1070
   147
1040
0.8
1070
   287
1070
     5
1070
    42
1040
1.5
1070
    44
1040
0.6
1070
    43
1040
7.0
1070
   271
1070
     0
1070
   177
1070
   256
1070
   176
1070
   256
1070
   141
1040
0.0
1070
   275
1070
     1
1070
    41
1040
1.5
1070
   285
1070
     8
1070
   286
1070
     8
1002
}
  0
LINE
  5
15D
330
C3
100
AcDbEntity
  8
SUNPOU
100
AcDbLine
 10
2969.99998564875
 20
2397.403415746121
 30
0.0
 11
3029.99998564875
 21
2397.403415746121
 31
0.0
  0
LINE
  5
15E
330
C3
100
AcDbEntity
  8
SUNPOU
100
AcDbLine
 10
3449.999985648745
 20
1357.403415746123
 30
0.0
 11
3449.999985648745
 21
2102.632833953865
 31
0.0
1001
ACAD
1000
DSTYLE
1002
{
1070
    78
1070
     8
1070
   284
1070
     8
1070
   140
1040
3.0
1070
   145
1040
1.0
1070
    74
1070
     0
1070
   172
1070
     1
1070
    73
1070
     0
1070
    77
1070
     1
1070
    40
1040
60.0
1070
   147
1040
0.8
1070
   287
1070
     5
1070
    42
1040
1.5
1070
    44
1040
0.6
1070
    43
1040
7.0
1070
   271
1070
     0
1070
   177
1070
   256
1070
   176
1070
   256
1070
   141
1040
0.0
1070
   275
1070
     1
1070
    41
1040
1.5
1070
   285
1070
     8
1070
   286
1070
     8
1002
}
  0
TEXT
  5
15F
330
C3
100
AcDbEntity
  8
SUNPOU
100
AcDbText
 10
1304.999985648761
 20
3317.403415746123
 30
0.0
 40
150.0
  1
D10
 41
0.8
 11
1304.999985648761
 21
3392.403415746123
 31
0.0
100
AcDbText
 73
     2
  0
TEXT
  5
160
330
C3
100
AcDbEntity
  8
SUNPOU
100
AcDbText
 10
2684.999985648759
 20
3317.403415746123
 30
0.0
 40
150.0
  1
D10
 41
0.8
 11
2684.999985648759
 21
3392.403415746123
 31
0.0
100
AcDbText
 73
     2
  0
LINE
  5
161
330
C3
100
AcDbEntity
  8
SUNPOU
100
AcDbLine
 10
2279.999985648759
 20
3227.403415746123
 30
0.0
 11
3059.999985648759
 21
3227.403415746123
 31
0.0
1001
ACAD
1000
DSTYLE
1002
{
1070
    78
1070
     8
1070
   284
1070
     8
1070
   140
1040
3.0
1070
   145
1040
1.0
1070
    74
1070
     0
1070
   172
1070
     1
1070
    73
1070
     0
1070
    77
1070
     1
1070
    40
1040
60.0
1070
   147
1040
0.8
1070
   287
1070
     5
1070
    42
1040
1.5
1070
    44
1040
0.6
1070
    43
1040
7.0
1070
   271
1070
     0
1070
   177
1070
   256
1070
   176
1070
   256
1070
   141
1040
0.0
1070
   275
1070
     1
1070
    41
1040
1.5
1070
   285
1070
     8
1070
   286
1070
     8
1002
}
  0
TEXT
  5
162
330
C3
100
AcDbEntity
  8
SUNPOU
100
AcDbText
 10
2359.999985648759
 20
3317.403415746123
 30
0.0
 40
150.0
  1
H4
 41
0.8
 72
     4
 11
2459.999985648759
 21
3392.403415746123
 31
0.0
100
AcDbText
  0
CIRCLE
  5
163
330
C3
100
AcDbEntity
  8
SUNPOU
100
AcDbCircle
 10
2459.999985648759
 20
3392.403415746123
 30
0.0
 40
165.0
  0
TEXT
  5
164
330
C3
100
AcDbEntity
  8
SUNPOU
100
AcDbText
 10
2239.999985648754
 20
4105.403415746121
 30
0.0
 40
210.0
  1
内　側
 72
     2
 11
2939.999985648754
 21
4077.403415746121
 31
0.0
100
AcDbText
 73
     1
  0
LINE
  5
165
330
C3
100
AcDbEntity
  8
HAIKIN
 62
     3
100
AcDbLine
 10
1889.999985648752
 20
4587.403415746125
 30
0.0
 11
1889.999985648752
 21
4887.403415746125
 31
0.0
  0
SOLID
  5
166
330
C3
100
AcDbEntity
  8
SUNPOU
100
AcDbTrace
 10
2559.999985648748
 20
1342.403415746126
 30
0.0000000000000092
 11
2469.999985648748
 21
1357.403415746126
 31
0.0000000000000092
 12
2559.999985648748
 22
1372.403415746126
 32
0.0000000000000092
 13
2559.999985648748
 23
1372.403415746126
 33
0.0000000000000092
1001
ACAD
1000
DSTYLE
1002
{
1070
    78
1070
     8
1070
   284
1070
     8
1070
   140
1040
3.0
1070
   145
1040
1.0
1070
    74
1070
     0
1070
   172
1070
     1
1070
    73
1070
     0
1070
    77
1070
     1
1070
    40
1040
60.0
1070
   147
1040
0.8
1070
   287
1070
     5
1070
    42
1040
1.5
1070
    44
1040
0.6
1070
    43
1040
7.0
1070
   271
1070
     0
1070
   177
1070
   256
1070
   176
1070
   256
1070
   141
1040
0.0
1070
   275
1070
     1
1070
    41
1040
1.5
1070
   285
1070
     8
1070
   286
1070
     8
1002
}
  0
SOLID
  5
167
330
C3
100
AcDbEntity
  8
SUNPOU
100
AcDbTrace
 10
2679.99998564875
 20
1342.403415746126
 30
0.0000000000000092
 11
2589.99998564875
 21
1357.403415746126
 31
0.0000000000000092
 12
2679.99998564875
 22
1372.403415746126
 32
0.0000000000000092
 13
2679.99998564875
 23
1372.403415746126
 33
0.0000000000000092
1001
ACAD
1000
DSTYLE
1002
{
1070
    78
1070
     8
1070
   284
1070
     8
1070
   140
1040
3.0
1070
   145
1040
1.0
1070
    74
1070
     0
1070
   172
1070
     1
1070
    73
1070
     0
1070
    77
1070
     1
1070
    40
1040
60.0
1070
   147
1040
0.8
1070
   287
1070
     5
1070
    42
1040
1.5
1070
    44
1040
0.6
1070
    43
1040
7.0
1070
   271
1070
     0
1070
   177
1070
   256
1070
   176
1070
   256
1070
   141
1040
0.0
1070
   275
1070
     1
1070
    41
1040
1.5
1070
   285
1070
     8
1070
   286
1070
     8
1002
}
  0
SOLID
  5
168
330
C3
100
AcDbEntity
  8
SUNPOU
100
AcDbTrace
 10
2619.99998564875
 20
1342.403415746126
 30
0.0000000000000092
 11
2529.99998564875
 21
1357.403415746126
 31
0.0000000000000092
 12
2619.99998564875
 22
1372.403415746126
 32
0.0000000000000092
 13
2619.99998564875
 23
1372.403415746126
 33
0.0000000000000092
1001
ACAD
1000
DSTYLE
1002
{
1070
    78
1070
     8
1070
   284
1070
     8
1070
   140
1040
3.0
1070
   145
1040
1.0
1070
    74
1070
     0
1070
   172
1070
     1
1070
    73
1070
     0
1070
    77
1070
     1
1070
    40
1040
60.0
1070
   147
1040
0.8
1070
   287
1070
     5
1070
    42
1040
1.5
1070
    44
1040
0.6
1070
    43
1040
7.0
1070
   271
1070
     0
1070
   177
1070
   256
1070
   176
1070
   256
1070
   141
1040
0.0
1070
   275
1070
     1
1070
    41
1040
1.5
1070
   285
1070
     8
1070
   286
1070
     8
1002
}
  0
ENDBLK
  5
16A
330
C3
100
AcDbEntity
  8
0
100
AcDbBlockEnd
  0
BLOCK
  5
D62
330
D61
100
AcDbEntity
  8
0
100
AcDbBlockBegin
  2
FG
 70
     0
 10
0.0
 20
0.0
 30
0.0
  3
FG
  1

  0
LWPOLYLINE
  5
D63
330
D61
100
AcDbEntity
  8
SUNPOU
100
AcDbPolyline
 90
        4
 70
     0
 43
0.0
 10
0.0
 20
-31.5
 10
-4.500000000000909
 20
-29.5
 10
-4.500000000000909
 20
29.5
 10
0.0
 20
31.50000000000045
  0
LWPOLYLINE
  5
D64
330
D61
100
AcDbEntity
  8
SUNPOU
100
AcDbPolyline
 90
        2
 70
     0
 43
0.0
 10
-4.500000000000909
 20
27.0
 10
-41.49999999909687
 20
27.00000000000045
  0
LWPOLYLINE
  5
D65
330
D61
100
AcDbEntity
  8
SUNPOU
100
AcDbPolyline
 90
        2
 70
     0
 43
0.0
 10
-41.50000000000091
 20
27.00000000000045
 42
1.111111111111126
 10
-41.50000000000091
 20
-27.00000000000045
 42
1.111111111111126
  0
LWPOLYLINE
  5
D66
330
D61
100
AcDbEntity
  8
SUNPOU
100
AcDbPolyline
 90
        2
 70
     0
 43
0.0
 10
-4.500000000000909
 20
-27.00000000000045
 10
-41.49999999909687
 20
-27.0
  0
ENDBLK
  5
D67
330
D61
100
AcDbEntity
  8
0
100
AcDbBlockEnd
  0
BLOCK
  5
D69
330
D68
100
AcDbEntity
  8
0
100
AcDbBlockBegin
  2
_DOT
 70
     0
 10
0.0
 20
0.0
 30
0.0
  3
_DOT
  1

  0
LWPOLYLINE
  5
D6A
330
D68
100
AcDbEntity
  8
0
  6
ByBlock
 62
     0
100
AcDbPolyline
 90
        2
 70
     1
 43
0.5
 10
-0.25
 20
0.0
 42
1.0
 10
0.25
 20
0.0
 42
1.0
  0
LINE
  5
D6B
330
D68
100
AcDbEntity
  8
0
  6
ByBlock
 62
     0
100
AcDbLine
 10
-0.5
 20
0.0
 30
0.0
 11
-1.0
 21
0.0
 31
0.0
  0
ENDBLK
  5
D6C
330
D68
100
AcDbEntity
  8
0
100
AcDbBlockEnd
  0
BLOCK
  5
DF4
330
DF3
100
AcDbEntity
  8
0
100
AcDbBlockBegin
  2
FGG
 70
     0
 10
0.0
 20
0.0
 30
0.0
  3
FGG
  1

  0
LWPOLYLINE
  5
DF5
330
DF3
100
AcDbEntity
  8
SUNPOU
100
AcDbPolyline
 90
        4
 70
     0
 43
0.0
 10
0.0
 20
-31.5
 10
-4.500000000000909
 20
-29.5
 10
-4.500000000000909
 20
29.5
 10
0.0
 20
31.50000000000045
  0
LWPOLYLINE
  5
DF6
330
DF3
100
AcDbEntity
  8
SUNPOU
100
AcDbPolyline
 90
        2
 70
     0
 43
0.0
 10
-4.500000000000909
 20
27.0
 10
-41.49999999909687
 20
27.00000000000045
  0
LWPOLYLINE
  5
DF7
330
DF3
100
AcDbEntity
  8
SUNPOU
100
AcDbPolyline
 90
        2
 70
     0
 43
0.0
 10
-41.50000000000091
 20
27.00000000000045
 42
1.111111111111126
 10
-41.50000000000091
 20
-27.00000000000045
 42
1.111111111111126
  0
LWPOLYLINE
  5
DF8
330
DF3
100
AcDbEntity
  8
SUNPOU
100
AcDbPolyline
 90
        2
 70
     0
 43
0.0
 10
-4.500000000000909
 20
-27.00000000000045
 10
-41.49999999909687
 20
-27.0
  0
ENDBLK
  5
DF9
330
DF3
100
AcDbEntity
  8
0
100
AcDbBlockEnd
  0
BLOCK
  5
153E
330
1534
100
AcDbEntity
  8
0
100
AcDbBlockBegin
  2
*D11
 70
     1
 10
0.0
 20
0.0
 30
0.0
  3
*D11
  1

  0
LINE
  5
1D7D
330
1534
100
AcDbEntity
  8
SUNPOU
 62
     0
370
    -2
100
AcDbLine
 10
3823.825394026459
 20
7021.415242119016
 30
0.0
 11
3823.825394026459
 21
7716.505240529448
 31
0.0
  0
LINE
  5
1D7E
330
1534
100
AcDbEntity
  8
SUNPOU
 62
     0
370
    -2
100
AcDbLine
 10
4733.82539402646
 20
7025.632475529314
 30
0.0
 11
4733.82539402646
 21
7716.505240529448
 31
0.0
  0
LINE
  5
1D7F
330
1534
100
AcDbEntity
  8
SUNPOU
 62
     0
370
    -2
100
AcDbLine
 10
3883.825394026459
 20
7701.505240529448
 30
0.0
 11
4673.82539402646
 21
7701.505240529448
 31
0.0
  0
SOLID
  5
1D80
330
1534
100
AcDbEntity
  8
SUNPOU
 62
     0
100
AcDbTrace
 10
3883.825394026459
 20
7711.505240529448
 30
0.0
 11
3883.825394026459
 21
7691.505240529448
 31
0.0
 12
3823.825394026459
 22
7701.505240529448
 32
0.0
 13
3823.825394026459
 23
7701.505240529448
 33
0.0
  0
SOLID
  5
1D81
330
1534
100
AcDbEntity
  8
SUNPOU
 62
     0
100
AcDbTrace
 10
4673.82539402646
 20
7711.505240529448
 30
0.0
 11
4673.82539402646
 21
7691.505240529448
 31
0.0
 12
4733.82539402646
 22
7701.505240529448
 32
0.0
 13
4733.82539402646
 23
7701.505240529448
 33
0.0
  0
MTEXT
  5
1D82
330
1534
100
AcDbEntity
  8
SUNPOU
 62
     0
100
AcDbMText
 10
4278.82539402646
 20
7770.505240529448
 30
0.0
 40
90.0
 41
0.0
 71
     5
 72
     1
  1
\A1;910
 73
     1
 44
1.0
  0
POINT
  5
1D83
330
1534
100
AcDbEntity
  8
DEFPOINTS
 62
     0
100
AcDbPoint
 10
3823.825394026459
 20
6961.415242119016
 30
0.0
  0
POINT
  5
1D84
330
1534
100
AcDbEntity
  8
DEFPOINTS
 62
     0
100
AcDbPoint
 10
4733.82539402646
 20
6965.632475529314
 30
0.0
  0
POINT
  5
1D85
330
1534
100
AcDbEntity
  8
DEFPOINTS
 62
     0
100
AcDbPoint
 10
4733.82539402646
 20
7701.505240529448
 30
0.0
  0
ENDBLK
  5
153F
330
1534
100
AcDbEntity
  8
0
100
AcDbBlockEnd
  0
BLOCK
  5
1554
330
154A
100
AcDbEntity
  8
0
100
AcDbBlockBegin
  2
*D12
 70
     1
 10
0.0
 20
0.0
 30
0.0
  3
*D12
  1

  0
LINE
  5
1D86
330
154A
100
AcDbEntity
  8
SUNPOU
 62
     0
370
    -2
100
AcDbLine
 10
3823.825394026459
 20
7021.415242119016
 30
0.0
 11
3823.825394026459
 21
7716.505240529448
 31
0.0
  0
LINE
  5
1D87
330
154A
100
AcDbEntity
  8
SUNPOU
 62
     0
370
    -2
100
AcDbLine
 10
2263.825394026459
 20
7171.415242119017
 30
0.0
 11
2263.825394026459
 21
7716.505240529448
 31
0.0
  0
LINE
  5
1D88
330
154A
100
AcDbEntity
  8
SUNPOU
 62
     0
370
    -2
100
AcDbLine
 10
3763.825394026459
 20
7701.505240529448
 30
0.0
 11
2323.825394026459
 21
7701.505240529448
 31
0.0
  0
SOLID
  5
1D89
330
154A
100
AcDbEntity
  8
SUNPOU
 62
     0
100
AcDbTrace
 10
3763.825394026459
 20
7711.505240529448
 30
0.0
 11
3763.825394026459
 21
7691.505240529448
 31
0.0
 12
3823.825394026459
 22
7701.505240529448
 32
0.0
 13
3823.825394026459
 23
7701.505240529448
 33
0.0
  0
SOLID
  5
1D8A
330
154A
100
AcDbEntity
  8
SUNPOU
 62
     0
100
AcDbTrace
 10
2323.825394026459
 20
7711.505240529448
 30
0.0
 11
2323.825394026459
 21
7691.505240529448
 31
0.0
 12
2263.825394026459
 22
7701.505240529448
 32
0.0
 13
2263.825394026459
 23
7701.505240529448
 33
0.0
  0
MTEXT
  5
1D8B
330
154A
100
AcDbEntity
  8
SUNPOU
 62
     0
100
AcDbMText
 10
3043.825394026459
 20
7770.505240529448
 30
0.0
 40
90.0
 41
0.0
 71
     5
 72
     1
  1
\A1;1560
 73
     1
 44
1.0
  0
POINT
  5
1D8C
330
154A
100
AcDbEntity
  8
DEFPOINTS
 62
     0
100
AcDbPoint
 10
3823.825394026459
 20
6961.415242119016
 30
0.0
  0
POINT
  5
1D8D
330
154A
100
AcDbEntity
  8
DEFPOINTS
 62
     0
100
AcDbPoint
 10
2263.825394026459
 20
7111.415242119017
 30
0.0
  0
POINT
  5
1D8E
330
154A
100
AcDbEntity
  8
DEFPOINTS
 62
     0
100
AcDbPoint
 10
2263.825394026459
 20
7701.505240529448
 30
0.0
  0
ENDBLK
  5
1555
330
154A
100
AcDbEntity
  8
0
100
AcDbBlockEnd
  0
BLOCK
  5
1562
330
1557
100
AcDbEntity
  8
0
100
AcDbBlockBegin
  2
*D13
 70
     1
 10
0.0
 20
0.0
 30
0.0
  3
*D13
  1

  0
LINE
  5
1D8F
330
1557
100
AcDbEntity
  8
SUNPOU
 62
     0
370
    -2
100
AcDbLine
 10
2263.825394026459
 20
7171.415242119017
 30
0.0
 11
2263.825394026459
 21
7352.538044271038
 31
0.0
  0
LINE
  5
1D90
330
1557
100
AcDbEntity
  8
SUNPOU
 62
     0
370
    -2
100
AcDbLine
 10
2453.825394026459
 20
7171.415242119017
 30
0.0
 11
2453.825394026459
 21
7352.538044271038
 31
0.0
  0
LINE
  5
1D91
330
1557
100
AcDbEntity
  8
SUNPOU
 62
     0
370
    -2
100
AcDbLine
 10
2323.825394026459
 20
7337.538044271038
 30
0.0
 11
2393.825394026459
 21
7337.538044271038
 31
0.0
  0
MTEXT
  5
1D92
330
1557
100
AcDbEntity
  8
SUNPOU
 62
     0
100
AcDbMText
 10
2358.825394026459
 20
7406.538044271038
 30
0.0
 40
90.0
 41
0.0
 71
     5
 72
     1
  1
\A1;190
 73
     1
 44
1.0
  0
SOLID
  5
1D93
330
1557
100
AcDbEntity
  8
SUNPOU
 62
     0
100
AcDbTrace
 10
2323.825394026459
 20
7347.538044271038
 30
0.0
 11
2323.825394026459
 21
7327.538044271038
 31
0.0
 12
2263.825394026459
 22
7337.538044271038
 32
0.0
 13
2263.825394026459
 23
7337.538044271038
 33
0.0
  0
SOLID
  5
1D94
330
1557
100
AcDbEntity
  8
SUNPOU
 62
     0
100
AcDbTrace
 10
2393.825394026459
 20
7347.538044271038
 30
0.0
 11
2393.825394026459
 21
7327.538044271038
 31
0.0
 12
2453.825394026459
 22
7337.538044271038
 32
0.0
 13
2453.825394026459
 23
7337.538044271038
 33
0.0
  0
POINT
  5
1D95
330
1557
100
AcDbEntity
  8
DEFPOINTS
 62
     0
100
AcDbPoint
 10
2263.825394026459
 20
7111.415242119017
 30
0.0
  0
POINT
  5
1D96
330
1557
100
AcDbEntity
  8
DEFPOINTS
 62
     0
100
AcDbPoint
 10
2453.825394026459
 20
7111.415242119017
 30
0.0
  0
POINT
  5
1D97
330
1557
100
AcDbEntity
  8
DEFPOINTS
 62
     0
100
AcDbPoint
 10
2453.825394026459
 20
7337.538044271038
 30
0.0
  0
ENDBLK
  5
1563
330
1557
100
AcDbEntity
  8
0
100
AcDbBlockEnd
  0
BLOCK
  5
1570
330
1565
100
AcDbEntity
  8
0
100
AcDbBlockBegin
  2
*D14
 70
     1
 10
0.0
 20
0.0
 30
0.0
  3
*D14
  1

  0
LINE
  5
1D98
330
1565
100
AcDbEntity
  8
SUNPOU
 62
     0
370
    -2
100
AcDbLine
 10
2453.825394026459
 20
7171.415242119017
 30
0.0
 11
2453.825394026459
 21
7352.538044271038
 31
0.0
  0
LINE
  5
1D99
330
1565
100
AcDbEntity
  8
SUNPOU
 62
     0
370
    -2
100
AcDbLine
 10
2523.825394026459
 20
7021.415242119016
 30
0.0
 11
2523.825394026459
 21
7352.538044271038
 31
0.0
  0
LINE
  5
1D9A
330
1565
100
AcDbEntity
  8
SUNPOU
 62
     0
370
    -2
100
AcDbLine
 10
2393.825394026459
 20
7337.538044271038
 30
0.0
 11
2333.825394026459
 21
7337.538044271038
 31
0.0
  0
LINE
  5
1D9B
330
1565
100
AcDbEntity
  8
SUNPOU
 62
     0
370
    -2
100
AcDbLine
 10
2583.825394026459
 20
7337.538044271038
 30
0.0
 11
2643.825394026459
 21
7337.538044271038
 31
0.0
  0
MTEXT
  5
1D9C
330
1565
100
AcDbEntity
  8
SUNPOU
 62
     0
100
AcDbMText
 10
2511.866204384067
 20
7406.538044271038
 30
0.0
 40
90.0
 41
0.0
 71
     5
 72
     1
  1
\A1;70
 73
     1
 44
1.0
  0
SOLID
  5
1D9D
330
1565
100
AcDbEntity
  8
SUNPOU
 62
     0
100
AcDbTrace
 10
2393.825394026459
 20
7347.538044271038
 30
0.0
 11
2393.825394026459
 21
7327.538044271038
 31
0.0
 12
2453.825394026459
 22
7337.538044271038
 32
0.0
 13
2453.825394026459
 23
7337.538044271038
 33
0.0
  0
SOLID
  5
1D9E
330
1565
100
AcDbEntity
  8
SUNPOU
 62
     0
100
AcDbTrace
 10
2583.825394026459
 20
7347.538044271038
 30
0.0
 11
2583.825394026459
 21
7327.538044271038
 31
0.0
 12
2523.825394026459
 22
7337.538044271038
 32
0.0
 13
2523.825394026459
 23
7337.538044271038
 33
0.0
  0
POINT
  5
1D9F
330
1565
100
AcDbEntity
  8
DEFPOINTS
 62
     0
100
AcDbPoint
 10
2453.825394026459
 20
7111.415242119017
 30
0.0
  0
POINT
  5
1DA0
330
1565
100
AcDbEntity
  8
DEFPOINTS
 62
     0
100
AcDbPoint
 10
2523.825394026459
 20
6961.415242119016
 30
0.0
  0
POINT
  5
1DA1
330
1565
100
AcDbEntity
  8
DEFPOINTS
 62
     0
100
AcDbPoint
 10
2523.825394026459
 20
7337.538044271038
 30
0.0
  0
ENDBLK
  5
1571
330
1565
100
AcDbEntity
  8
0
100
AcDbBlockEnd
  0
BLOCK
  5
157D
330
1573
100
AcDbEntity
  8
0
100
AcDbBlockBegin
  2
*D15
 70
     1
 10
0.0
 20
0.0
 30
0.0
  3
*D15
  1

  0
LINE
  5
1DA2
330
1573
100
AcDbEntity
  8
SUNPOU
 62
     0
370
    -2
100
AcDbLine
 10
2263.825394026459
 20
7171.415242119017
 30
0.0
 11
2263.825394026459
 21
7538.04749187356
 31
0.0
  0
LINE
  5
1DA3
330
1573
100
AcDbEntity
  8
SUNPOU
 62
     0
370
    -2
100
AcDbLine
 10
2523.825394026459
 20
7021.415242119016
 30
0.0
 11
2523.825394026459
 21
7538.04749187356
 31
0.0
  0
LINE
  5
1DA4
330
1573
100
AcDbEntity
  8
SUNPOU
 62
     0
370
    -2
100
AcDbLine
 10
2323.825394026459
 20
7523.04749187356
 30
0.0
 11
2463.825394026459
 21
7523.04749187356
 31
0.0
  0
SOLID
  5
1DA5
330
1573
100
AcDbEntity
  8
SUNPOU
 62
     0
100
AcDbTrace
 10
2323.825394026459
 20
7533.04749187356
 30
0.0
 11
2323.825394026459
 21
7513.04749187356
 31
0.0
 12
2263.825394026459
 22
7523.04749187356
 32
0.0
 13
2263.825394026459
 23
7523.04749187356
 33
0.0
  0
SOLID
  5
1DA6
330
1573
100
AcDbEntity
  8
SUNPOU
 62
     0
100
AcDbTrace
 10
2463.825394026459
 20
7533.04749187356
 30
0.0
 11
2463.825394026459
 21
7513.04749187356
 31
0.0
 12
2523.825394026459
 22
7523.04749187356
 32
0.0
 13
2523.825394026459
 23
7523.04749187356
 33
0.0
  0
MTEXT
  5
1DA7
330
1573
100
AcDbEntity
  8
SUNPOU
 62
     0
100
AcDbMText
 10
2393.825394026459
 20
7592.04749187356
 30
0.0
 40
90.0
 41
0.0
 71
     5
 72
     1
  1
\A1;260
 73
     1
 44
1.0
  0
POINT
  5
1DA8
330
1573
100
AcDbEntity
  8
DEFPOINTS
 62
     0
100
AcDbPoint
 10
2263.825394026459
 20
7111.415242119017
 30
0.0
  0
POINT
  5
1DA9
330
1573
100
AcDbEntity
  8
DEFPOINTS
 62
     0
100
AcDbPoint
 10
2523.825394026459
 20
6961.415242119016
 30
0.0
  0
POINT
  5
1DAA
330
1573
100
AcDbEntity
  8
DEFPOINTS
 62
     0
100
AcDbPoint
 10
2523.825394026459
 20
7523.04749187356
 30
0.0
  0
ENDBLK
  5
157E
330
1573
100
AcDbEntity
  8
0
100
AcDbBlockEnd
  0
BLOCK
  5
158A
330
1580
100
AcDbEntity
  8
0
100
AcDbBlockBegin
  2
*D16
 70
     1
 10
0.0
 20
0.0
 30
0.0
  3
*D16
  1

  0
LINE
  5
1DAB
330
1580
100
AcDbEntity
  8
SUNPOU
 62
     0
370
    -2
100
AcDbLine
 10
2523.825394026459
 20
7021.415242119016
 30
0.0
 11
2523.825394026459
 21
7538.04749187356
 31
0.0
  0
LINE
  5
1DAC
330
1580
100
AcDbEntity
  8
SUNPOU
 62
     0
370
    -2
100
AcDbLine
 10
3823.825394026459
 20
7021.415242119016
 30
0.0
 11
3823.825394026459
 21
7538.04749187356
 31
0.0
  0
LINE
  5
1DAD
330
1580
100
AcDbEntity
  8
SUNPOU
 62
     0
370
    -2
100
AcDbLine
 10
2583.825394026459
 20
7523.04749187356
 30
0.0
 11
3763.825394026459
 21
7523.04749187356
 31
0.0
  0
SOLID
  5
1DAE
330
1580
100
AcDbEntity
  8
SUNPOU
 62
     0
100
AcDbTrace
 10
2583.825394026459
 20
7533.04749187356
 30
0.0
 11
2583.825394026459
 21
7513.04749187356
 31
0.0
 12
2523.825394026459
 22
7523.04749187356
 32
0.0
 13
2523.825394026459
 23
7523.04749187356
 33
0.0
  0
SOLID
  5
1DAF
330
1580
100
AcDbEntity
  8
SUNPOU
 62
     0
100
AcDbTrace
 10
3763.825394026459
 20
7533.04749187356
 30
0.0
 11
3763.825394026459
 21
7513.04749187356
 31
0.0
 12
3823.825394026459
 22
7523.04749187356
 32
0.0
 13
3823.825394026459
 23
7523.04749187356
 33
0.0
  0
MTEXT
  5
1DB0
330
1580
100
AcDbEntity
  8
SUNPOU
 62
     0
100
AcDbMText
 10
3173.825394026459
 20
7592.04749187356
 30
0.0
 40
90.0
 41
0.0
 71
     5
 72
     1
  1
\A1;1300
 73
     1
 44
1.0
  0
POINT
  5
1DB1
330
1580
100
AcDbEntity
  8
DEFPOINTS
 62
     0
100
AcDbPoint
 10
2523.825394026459
 20
6961.415242119016
 30
0.0
  0
POINT
  5
1DB2
330
1580
100
AcDbEntity
  8
DEFPOINTS
 62
     0
100
AcDbPoint
 10
3823.825394026459
 20
6961.415242119016
 30
0.0
  0
POINT
  5
1DB3
330
1580
100
AcDbEntity
  8
DEFPOINTS
 62
     0
100
AcDbPoint
 10
3823.825394026459
 20
7523.04749187356
 30
0.0
  0
ENDBLK
  5
158B
330
1580
100
AcDbEntity
  8
0
100
AcDbBlockEnd
  0
BLOCK
  5
15C6
330
15BB
100
AcDbEntity
  8
0
100
AcDbBlockBegin
  2
*D17
 70
     1
 10
0.0
 20
0.0
 30
0.0
  3
*D17
  1

  0
LINE
  5
1DB4
330
15BB
100
AcDbEntity
  8
SUNPOU
 62
     0
370
    -2
100
AcDbLine
 10
2203.825394026459
 20
7111.415242119017
 30
0.0
 11
1759.851475742391
 21
7111.415242119017
 31
0.0
  0
LINE
  5
1DB5
330
15BB
100
AcDbEntity
  8
SUNPOU
 62
     0
370
    -2
100
AcDbLine
 10
2203.825394026459
 20
6961.415242119016
 30
0.0
 11
1759.851475742391
 21
6961.415242119017
 31
0.0
  0
LINE
  5
1DB6
330
15BB
100
AcDbEntity
  8
SUNPOU
 62
     0
370
    -2
100
AcDbLine
 10
1774.851475742391
 20
7171.415242119017
 30
0.0
 11
1774.851475742391
 21
7231.415242119017
 31
0.0
  0
LINE
  5
1DB7
330
15BB
100
AcDbEntity
  8
SUNPOU
 62
     0
370
    -2
100
AcDbLine
 10
1774.851475742391
 20
6901.415242119017
 30
0.0
 11
1774.851475742391
 21
6841.415242119017
 31
0.0
  0
SOLID
  5
1DB8
330
15BB
100
AcDbEntity
  8
SUNPOU
 62
     0
100
AcDbTrace
 10
1764.851475742391
 20
7171.415242119017
 30
0.0
 11
1784.851475742391
 21
7171.415242119017
 31
0.0
 12
1774.851475742391
 22
7111.415242119017
 32
0.0
 13
1774.851475742391
 23
7111.415242119017
 33
0.0
  0
SOLID
  5
1DB9
330
15BB
100
AcDbEntity
  8
SUNPOU
 62
     0
100
AcDbTrace
 10
1764.851475742391
 20
6901.415242119017
 30
0.0
 11
1784.851475742391
 21
6901.415242119017
 31
0.0
 12
1774.851475742391
 22
6961.415242119017
 32
0.0
 13
1774.851475742391
 23
6961.415242119017
 33
0.0
  0
MTEXT
  5
1DBA
330
15BB
100
AcDbEntity
  8
SUNPOU
 62
     0
100
AcDbMText
 10
1705.85147574239
 20
7036.415242119017
 30
0.0
 40
90.0
 41
0.0
 71
     5
 72
     1
  1
\A1;150
 11
6.123031769111886E-17
 21
1.0
 31
0.0
 73
     1
 44
1.0
  0
POINT
  5
1DBB
330
15BB
100
AcDbEntity
  8
DEFPOINTS
 62
     0
100
AcDbPoint
 10
2263.825394026459
 20
7111.415242119017
 30
0.0
  0
POINT
  5
1DBC
330
15BB
100
AcDbEntity
  8
DEFPOINTS
 62
     0
100
AcDbPoint
 10
2263.825394026459
 20
6961.415242119016
 30
0.0
  0
POINT
  5
1DBD
330
15BB
100
AcDbEntity
  8
DEFPOINTS
 62
     0
100
AcDbPoint
 10
1774.851475742391
 20
6961.415242119017
 30
0.0
  0
ENDBLK
  5
15C7
330
15BB
100
AcDbEntity
  8
0
100
AcDbBlockEnd
  0
BLOCK
  5
15D3
330
15C9
100
AcDbEntity
  8
0
100
AcDbBlockBegin
  2
*D18
 70
     1
 10
0.0
 20
0.0
 30
0.0
  3
*D18
  1

  0
LINE
  5
1DBE
330
15C9
100
AcDbEntity
  8
SUNPOU
 62
     0
370
    -2
100
AcDbLine
 10
2203.825394026459
 20
6961.415242119016
 30
0.0
 11
1759.851475742391
 21
6961.415242119017
 31
0.0
  0
LINE
  5
1DBF
330
15C9
100
AcDbEntity
  8
SUNPOU
 62
     0
370
    -2
100
AcDbLine
 10
2763.825394026459
 20
4711.415242119016
 30
0.0
 11
1759.85147574239
 21
4711.415242119017
 31
0.0
  0
LINE
  5
1DC0
330
15C9
100
AcDbEntity
  8
SUNPOU
 62
     0
370
    -2
100
AcDbLine
 10
1774.851475742391
 20
6901.415242119017
 30
0.0
 11
1774.85147574239
 21
4771.415242119017
 31
0.0
  0
SOLID
  5
1DC1
330
15C9
100
AcDbEntity
  8
SUNPOU
 62
     0
100
AcDbTrace
 10
1764.851475742391
 20
6901.415242119017
 30
0.0
 11
1784.851475742391
 21
6901.415242119017
 31
0.0
 12
1774.851475742391
 22
6961.415242119017
 32
0.0
 13
1774.851475742391
 23
6961.415242119017
 33
0.0
  0
SOLID
  5
1DC2
330
15C9
100
AcDbEntity
  8
SUNPOU
 62
     0
100
AcDbTrace
 10
1764.85147574239
 20
4771.415242119017
 30
0.0
 11
1784.85147574239
 21
4771.415242119017
 31
0.0
 12
1774.85147574239
 22
4711.415242119017
 32
0.0
 13
1774.85147574239
 23
4711.415242119017
 33
0.0
  0
MTEXT
  5
1DC3
330
15C9
100
AcDbEntity
  8
SUNPOU
 62
     0
100
AcDbMText
 10
1705.85147574239
 20
5836.415242119017
 30
0.0
 40
90.0
 41
0.0
 71
     5
 72
     1
  1
\A1;2250
 11
6.123031769111886E-17
 21
1.0
 31
0.0
 73
     1
 44
1.0
  0
POINT
  5
1DC4
330
15C9
100
AcDbEntity
  8
DEFPOINTS
 62
     0
100
AcDbPoint
 10
2263.825394026459
 20
6961.415242119016
 30
0.0
  0
POINT
  5
1DC5
330
15C9
100
AcDbEntity
  8
DEFPOINTS
 62
     0
100
AcDbPoint
 10
2823.825394026459
 20
4711.415242119016
 30
0.0
  0
POINT
  5
1DC6
330
15C9
100
AcDbEntity
  8
DEFPOINTS
 62
     0
100
AcDbPoint
 10
1774.85147574239
 20
4711.415242119017
 30
0.0
  0
ENDBLK
  5
15D4
330
15C9
100
AcDbEntity
  8
0
100
AcDbBlockEnd
  0
BLOCK
  5
15F3
330
15E9
100
AcDbEntity
  8
0
100
AcDbBlockBegin
  2
*D19
 70
     1
 10
0.0
 20
0.0
 30
0.0
  3
*D19
  1

  0
LINE
  5
1DC7
330
15E9
100
AcDbEntity
  8
SUNPOU
 62
     0
370
    -2
100
AcDbLine
 10
2823.825394026459
 20
4651.415242119016
 30
0.0
 11
2823.825394026459
 21
4210.601695150814
 31
0.0
  0
LINE
  5
1DC8
330
15E9
100
AcDbEntity
  8
SUNPOU
 62
     0
370
    -2
100
AcDbLine
 10
3423.825394026459
 20
4651.415242119016
 30
0.0
 11
3423.825394026459
 21
4210.601695150814
 31
0.0
  0
LINE
  5
1DC9
330
15E9
100
AcDbEntity
  8
SUNPOU
 62
     0
370
    -2
100
AcDbLine
 10
2883.825394026459
 20
4225.601695150814
 30
0.0
 11
3363.825394026459
 21
4225.601695150814
 31
0.0
  0
SOLID
  5
1DCA
330
15E9
100
AcDbEntity
  8
SUNPOU
 62
     0
100
AcDbTrace
 10
2883.825394026459
 20
4235.601695150814
 30
0.0
 11
2883.825394026459
 21
4215.601695150814
 31
0.0
 12
2823.825394026459
 22
4225.601695150814
 32
0.0
 13
2823.825394026459
 23
4225.601695150814
 33
0.0
  0
SOLID
  5
1DCB
330
15E9
100
AcDbEntity
  8
SUNPOU
 62
     0
100
AcDbTrace
 10
3363.825394026459
 20
4235.601695150814
 30
0.0
 11
3363.825394026459
 21
4215.601695150814
 31
0.0
 12
3423.825394026459
 22
4225.601695150814
 32
0.0
 13
3423.825394026459
 23
4225.601695150814
 33
0.0
  0
MTEXT
  5
1DCC
330
15E9
100
AcDbEntity
  8
SUNPOU
 62
     0
100
AcDbMText
 10
3123.825394026459
 20
4294.601695150814
 30
0.0
 40
90.0
 41
0.0
 71
     5
 72
     1
  1
\A1;600
 73
     1
 44
1.0
  0
POINT
  5
1DCD
330
15E9
100
AcDbEntity
  8
DEFPOINTS
 62
     0
100
AcDbPoint
 10
2823.825394026459
 20
4711.415242119016
 30
0.0
  0
POINT
  5
1DCE
330
15E9
100
AcDbEntity
  8
DEFPOINTS
 62
     0
100
AcDbPoint
 10
3423.825394026459
 20
4711.415242119016
 30
0.0
  0
POINT
  5
1DCF
330
15E9
100
AcDbEntity
  8
DEFPOINTS
 62
     0
100
AcDbPoint
 10
3423.825394026459
 20
4225.601695150814
 30
0.0
  0
ENDBLK
  5
15F4
330
15E9
100
AcDbEntity
  8
0
100
AcDbBlockEnd
  0
BLOCK
  5
1600
330
15F6
100
AcDbEntity
  8
0
100
AcDbBlockBegin
  2
*D20
 70
     1
 10
0.0
 20
0.0
 30
0.0
  3
*D20
  1

  0
LINE
  5
1DD0
330
15F6
100
AcDbEntity
  8
SUNPOU
 62
     0
370
    -2
100
AcDbLine
 10
3423.825394026459
 20
4651.415242119016
 30
0.0
 11
3423.825394026459
 21
4210.601695150814
 31
0.0
  0
LINE
  5
1DD1
330
15F6
100
AcDbEntity
  8
SUNPOU
 62
     0
370
    -2
100
AcDbLine
 10
3823.825394026459
 20
4651.415242119016
 30
0.0
 11
3823.825394026459
 21
4210.601695150814
 31
0.0
  0
LINE
  5
1DD2
330
15F6
100
AcDbEntity
  8
SUNPOU
 62
     0
370
    -2
100
AcDbLine
 10
3483.825394026459
 20
4225.601695150814
 30
0.0
 11
3763.825394026459
 21
4225.601695150814
 31
0.0
  0
SOLID
  5
1DD3
330
15F6
100
AcDbEntity
  8
SUNPOU
 62
     0
100
AcDbTrace
 10
3483.825394026459
 20
4235.601695150814
 30
0.0
 11
3483.825394026459
 21
4215.601695150814
 31
0.0
 12
3423.825394026459
 22
4225.601695150814
 32
0.0
 13
3423.825394026459
 23
4225.601695150814
 33
0.0
  0
SOLID
  5
1DD4
330
15F6
100
AcDbEntity
  8
SUNPOU
 62
     0
100
AcDbTrace
 10
3763.825394026459
 20
4235.601695150814
 30
0.0
 11
3763.825394026459
 21
4215.601695150814
 31
0.0
 12
3823.825394026459
 22
4225.601695150814
 32
0.0
 13
3823.825394026459
 23
4225.601695150814
 33
0.0
  0
MTEXT
  5
1DD5
330
15F6
100
AcDbEntity
  8
SUNPOU
 62
     0
100
AcDbMText
 10
3623.825394026459
 20
4294.601695150814
 30
0.0
 40
90.0
 41
0.0
 71
     5
 72
     1
  1
\A1;400
 73
     1
 44
1.0
  0
POINT
  5
1DD6
330
15F6
100
AcDbEntity
  8
DEFPOINTS
 62
     0
100
AcDbPoint
 10
3423.825394026459
 20
4711.415242119016
 30
0.0
  0
POINT
  5
1DD7
330
15F6
100
AcDbEntity
  8
DEFPOINTS
 62
     0
100
AcDbPoint
 10
3823.825394026459
 20
4711.415242119016
 30
0.0
  0
POINT
  5
1DD8
330
15F6
100
AcDbEntity
  8
DEFPOINTS
 62
     0
100
AcDbPoint
 10
3823.825394026459
 20
4225.601695150814
 30
0.0
  0
ENDBLK
  5
1601
330
15F6
100
AcDbEntity
  8
0
100
AcDbBlockEnd
  0
BLOCK
  5
160D
330
1603
100
AcDbEntity
  8
0
100
AcDbBlockBegin
  2
*D21
 70
     1
 10
0.0
 20
0.0
 30
0.0
  3
*D21
  1

  0
LINE
  5
1DD9
330
1603
100
AcDbEntity
  8
SUNPOU
 62
     0
370
    -2
100
AcDbLine
 10
3823.825394026459
 20
4651.415242119016
 30
0.0
 11
3823.825394026459
 21
4210.601695150814
 31
0.0
  0
LINE
  5
1DDA
330
1603
100
AcDbEntity
  8
SUNPOU
 62
     0
370
    -2
100
AcDbLine
 10
4733.82539402646
 20
4651.415242119016
 30
0.0
 11
4733.82539402646
 21
4210.601695150814
 31
0.0
  0
LINE
  5
1DDB
330
1603
100
AcDbEntity
  8
SUNPOU
 62
     0
370
    -2
100
AcDbLine
 10
3883.825394026459
 20
4225.601695150814
 30
0.0
 11
4673.82539402646
 21
4225.601695150814
 31
0.0
  0
SOLID
  5
1DDC
330
1603
100
AcDbEntity
  8
SUNPOU
 62
     0
100
AcDbTrace
 10
3883.825394026459
 20
4235.601695150814
 30
0.0
 11
3883.825394026459
 21
4215.601695150814
 31
0.0
 12
3823.825394026459
 22
4225.601695150814
 32
0.0
 13
3823.825394026459
 23
4225.601695150814
 33
0.0
  0
SOLID
  5
1DDD
330
1603
100
AcDbEntity
  8
SUNPOU
 62
     0
100
AcDbTrace
 10
4673.82539402646
 20
4235.601695150814
 30
0.0
 11
4673.82539402646
 21
4215.601695150814
 31
0.0
 12
4733.82539402646
 22
4225.601695150814
 32
0.0
 13
4733.82539402646
 23
4225.601695150814
 33
0.0
  0
MTEXT
  5
1DDE
330
1603
100
AcDbEntity
  8
SUNPOU
 62
     0
100
AcDbMText
 10
4278.825394026459
 20
4294.601695150814
 30
0.0
 40
90.0
 41
0.0
 71
     5
 72
     1
  1
\A1;910
 73
     1
 44
1.0
  0
POINT
  5
1DDF
330
1603
100
AcDbEntity
  8
DEFPOINTS
 62
     0
100
AcDbPoint
 10
3823.825394026459
 20
4711.415242119016
 30
0.0
  0
POINT
  5
1DE0
330
1603
100
AcDbEntity
  8
DEFPOINTS
 62
     0
100
AcDbPoint
 10
4733.82539402646
 20
4711.415242119016
 30
0.0
  0
POINT
  5
1DE1
330
1603
100
AcDbEntity
  8
DEFPOINTS
 62
     0
100
AcDbPoint
 10
4733.82539402646
 20
4225.601695150814
 30
0.0
  0
ENDBLK
  5
160E
330
1603
100
AcDbEntity
  8
0
100
AcDbBlockEnd
  0
BLOCK
  5
163F
330
1634
100
AcDbEntity
  8
0
100
AcDbBlockBegin
  2
*D22
 70
     1
 10
0.0
 20
0.0
 30
0.0
  3
*D22
  1

  0
LINE
  5
1DE2
330
1634
100
AcDbEntity
  8
SUNPOU
 62
     0
370
    -2
100
AcDbLine
 10
3823.825394026459
 20
4651.415242119016
 30
0.0
 11
3823.825394026459
 21
4403.76151033134
 31
0.0
  0
LINE
  5
1DE3
330
1634
100
AcDbEntity
  8
SUNPOU
 62
     0
370
    -2
100
AcDbLine
 10
3723.825394026459
 20
4651.415242119016
 30
0.0
 11
3723.825394026459
 21
4403.76151033134
 31
0.0
  0
LINE
  5
1DE4
330
1634
100
AcDbEntity
  8
SUNPOU
 62
     0
370
    -2
100
AcDbLine
 10
3883.825394026459
 20
4418.76151033134
 30
0.0
 11
3943.825394026459
 21
4418.76151033134
 31
0.0
  0
LINE
  5
1DE5
330
1634
100
AcDbEntity
  8
SUNPOU
 62
     0
370
    -2
100
AcDbLine
 10
3663.825394026459
 20
4418.76151033134
 30
0.0
 11
3603.825394026459
 21
4418.76151033134
 31
0.0
  0
SOLID
  5
1DE6
330
1634
100
AcDbEntity
  8
SUNPOU
 62
     0
100
AcDbTrace
 10
3883.825394026459
 20
4428.76151033134
 30
0.0
 11
3883.825394026459
 21
4408.76151033134
 31
0.0
 12
3823.825394026459
 22
4418.76151033134
 32
0.0
 13
3823.825394026459
 23
4418.76151033134
 33
0.0
  0
SOLID
  5
1DE7
330
1634
100
AcDbEntity
  8
SUNPOU
 62
     0
100
AcDbTrace
 10
3663.825394026459
 20
4428.76151033134
 30
0.0
 11
3663.825394026459
 21
4408.76151033134
 31
0.0
 12
3723.825394026459
 22
4418.76151033134
 32
0.0
 13
3723.825394026459
 23
4418.76151033134
 33
0.0
  0
MTEXT
  5
1DE8
330
1634
100
AcDbEntity
  8
SUNPOU
 62
     0
100
AcDbMText
 10
3773.825394026459
 20
4487.76151033134
 30
0.0
 40
90.0
 41
0.0
 71
     5
 72
     1
  1
\A1;100
 73
     1
 44
1.0
  0
POINT
  5
1DE9
330
1634
100
AcDbEntity
  8
DEFPOINTS
 62
     0
100
AcDbPoint
 10
3823.825394026459
 20
4711.415242119016
 30
0.0
  0
POINT
  5
1DEA
330
1634
100
AcDbEntity
  8
DEFPOINTS
 62
     0
100
AcDbPoint
 10
3723.825394026459
 20
4711.415242119016
 30
0.0
  0
POINT
  5
1DEB
330
1634
100
AcDbEntity
  8
DEFPOINTS
 62
     0
100
AcDbPoint
 10
3723.825394026459
 20
4418.76151033134
 30
0.0
  0
ENDBLK
  5
1640
330
1634
100
AcDbEntity
  8
0
100
AcDbBlockEnd
  0
BLOCK
  5
164C
330
1642
100
AcDbEntity
  8
0
100
AcDbBlockBegin
  2
*D23
 70
     1
 10
0.0
 20
0.0
 30
0.0
  3
*D23
  1

  0
LINE
  5
1DEC
330
1642
100
AcDbEntity
  8
SUNPOU
 62
     0
370
    -2
100
AcDbLine
 10
3723.825394026459
 20
4651.415242119016
 30
0.0
 11
3723.825394026459
 21
4403.76151033134
 31
0.0
  0
LINE
  5
1DED
330
1642
100
AcDbEntity
  8
SUNPOU
 62
     0
370
    -2
100
AcDbLine
 10
3423.825394026459
 20
4651.415242119016
 30
0.0
 11
3423.825394026459
 21
4403.76151033134
 31
0.0
  0
LINE
  5
1DEE
330
1642
100
AcDbEntity
  8
SUNPOU
 62
     0
370
    -2
100
AcDbLine
 10
3663.825394026459
 20
4418.76151033134
 30
0.0
 11
3483.825394026459
 21
4418.76151033134
 31
0.0
  0
SOLID
  5
1DEF
330
1642
100
AcDbEntity
  8
SUNPOU
 62
     0
100
AcDbTrace
 10
3663.825394026459
 20
4428.76151033134
 30
0.0
 11
3663.825394026459
 21
4408.76151033134
 31
0.0
 12
3723.825394026459
 22
4418.76151033134
 32
0.0
 13
3723.825394026459
 23
4418.76151033134
 33
0.0
  0
SOLID
  5
1DF0
330
1642
100
AcDbEntity
  8
SUNPOU
 62
     0
100
AcDbTrace
 10
3483.825394026459
 20
4428.76151033134
 30
0.0
 11
3483.825394026459
 21
4408.76151033134
 31
0.0
 12
3423.825394026459
 22
4418.76151033134
 32
0.0
 13
3423.825394026459
 23
4418.76151033134
 33
0.0
  0
MTEXT
  5
1DF1
330
1642
100
AcDbEntity
  8
SUNPOU
 62
     0
100
AcDbMText
 10
3573.825394026459
 20
4487.76151033134
 30
0.0
 40
90.0
 41
0.0
 71
     5
 72
     1
  1
\A1;300
 73
     1
 44
1.0
  0
POINT
  5
1DF2
330
1642
100
AcDbEntity
  8
DEFPOINTS
 62
     0
100
AcDbPoint
 10
3723.825394026459
 20
4711.415242119016
 30
0.0
  0
POINT
  5
1DF3
330
1642
100
AcDbEntity
  8
DEFPOINTS
 62
     0
100
AcDbPoint
 10
3423.825394026459
 20
4711.415242119016
 30
0.0
  0
POINT
  5
1DF4
330
1642
100
AcDbEntity
  8
DEFPOINTS
 62
     0
100
AcDbPoint
 10
3423.825394026459
 20
4418.76151033134
 30
0.0
  0
ENDBLK
  5
164D
330
1642
100
AcDbEntity
  8
0
100
AcDbBlockEnd
  0
BLOCK
  5
166C
330
1662
100
AcDbEntity
  8
0
100
AcDbBlockBegin
  2
*D24
 70
     1
 10
0.0
 20
0.0
 30
0.0
  3
*D24
  1

  0
LINE
  5
1DF5
330
1662
100
AcDbEntity
  8
SUNPOU
 62
     0
370
    -2
100
AcDbLine
 10
2823.825394026459
 20
4651.415242119016
 30
0.0
 11
2823.825394026459
 21
4016.259944938836
 31
0.0
  0
LINE
  5
1DF6
330
1662
100
AcDbEntity
  8
SUNPOU
 62
     0
370
    -2
100
AcDbLine
 10
4733.82539402646
 20
4651.415242119016
 30
0.0
 11
4733.82539402646
 21
4016.259944938836
 31
0.0
  0
LINE
  5
1DF7
330
1662
100
AcDbEntity
  8
SUNPOU
 62
     0
370
    -2
100
AcDbLine
 10
2883.825394026459
 20
4031.259944938836
 30
0.0
 11
4673.82539402646
 21
4031.259944938836
 31
0.0
  0
SOLID
  5
1DF8
330
1662
100
AcDbEntity
  8
SUNPOU
 62
     0
100
AcDbTrace
 10
2883.825394026459
 20
4041.259944938836
 30
0.0
 11
2883.825394026459
 21
4021.259944938836
 31
0.0
 12
2823.825394026459
 22
4031.259944938836
 32
0.0
 13
2823.825394026459
 23
4031.259944938836
 33
0.0
  0
SOLID
  5
1DF9
330
1662
100
AcDbEntity
  8
SUNPOU
 62
     0
100
AcDbTrace
 10
4673.82539402646
 20
4041.259944938836
 30
0.0
 11
4673.82539402646
 21
4021.259944938836
 31
0.0
 12
4733.82539402646
 22
4031.259944938836
 32
0.0
 13
4733.82539402646
 23
4031.259944938836
 33
0.0
  0
MTEXT
  5
1DFA
330
1662
100
AcDbEntity
  8
SUNPOU
 62
     0
100
AcDbMText
 10
3778.82539402646
 20
4100.259944938836
 30
0.0
 40
90.0
 41
0.0
 71
     5
 72
     1
  1
\A1;1910
 73
     1
 44
1.0
  0
POINT
  5
1DFB
330
1662
100
AcDbEntity
  8
DEFPOINTS
 62
     0
100
AcDbPoint
 10
2823.825394026459
 20
4711.415242119016
 30
0.0
  0
POINT
  5
1DFC
330
1662
100
AcDbEntity
  8
DEFPOINTS
 62
     0
100
AcDbPoint
 10
4733.82539402646
 20
4711.415242119016
 30
0.0
  0
POINT
  5
1DFD
330
1662
100
AcDbEntity
  8
DEFPOINTS
 62
     0
100
AcDbPoint
 10
4733.82539402646
 20
4031.259944938836
 30
0.0
  0
ENDBLK
  5
166D
330
1662
100
AcDbEntity
  8
0
100
AcDbBlockEnd
  0
BLOCK
  5
1731
330
1727
100
AcDbEntity
  8
0
100
AcDbBlockBegin
  2
*D25
 70
     1
 10
0.0
 20
0.0
 30
0.0
  3
*D25
  1

  0
LINE
  5
1B6E
330
1727
100
AcDbEntity
  8
SUNPOU
 62
     0
370
    -2
100
AcDbLine
 10
6813.504660476114
 20
7111.415242119016
 30
0.0
 11
6450.849117220778
 21
7111.415242119016
 31
0.0
  0
LINE
  5
1B6F
330
1727
100
AcDbEntity
  8
SUNPOU
 62
     0
370
    -2
100
AcDbLine
 10
6813.504660476114
 20
6961.415242119016
 30
0.0
 11
6450.849117220778
 21
6961.415242119016
 31
0.0
  0
LINE
  5
1B70
330
1727
100
AcDbEntity
  8
SUNPOU
 62
     0
370
    -2
100
AcDbLine
 10
6465.849117220778
 20
7171.415242119016
 30
0.0
 11
6465.849117220778
 21
7231.415242119016
 31
0.0
  0
LINE
  5
1B71
330
1727
100
AcDbEntity
  8
SUNPOU
 62
     0
370
    -2
100
AcDbLine
 10
6465.849117220778
 20
6901.415242119016
 30
0.0
 11
6465.849117220778
 21
6841.415242119016
 31
0.0
  0
SOLID
  5
1B72
330
1727
100
AcDbEntity
  8
SUNPOU
 62
     0
100
AcDbTrace
 10
6455.849117220778
 20
7171.415242119016
 30
0.0
 11
6475.849117220778
 21
7171.415242119016
 31
0.0
 12
6465.849117220778
 22
7111.415242119016
 32
0.0
 13
6465.849117220778
 23
7111.415242119016
 33
0.0
  0
SOLID
  5
1B73
330
1727
100
AcDbEntity
  8
SUNPOU
 62
     0
100
AcDbTrace
 10
6455.849117220778
 20
6901.415242119016
 30
0.0
 11
6475.849117220778
 21
6901.415242119016
 31
0.0
 12
6465.849117220778
 22
6961.415242119016
 32
0.0
 13
6465.849117220778
 23
6961.415242119016
 33
0.0
  0
MTEXT
  5
1B74
330
1727
100
AcDbEntity
  8
SUNPOU
 62
     0
100
AcDbMText
 10
6396.849117220776
 20
7036.415242119017
 30
0.0
 40
90.0
 41
0.0
 71
     5
 72
     1
  1
\A1;150
 11
6.123031769111886E-17
 21
1.0
 31
0.0
 73
     1
 44
1.0
  0
POINT
  5
1B75
330
1727
100
AcDbEntity
  8
DEFPOINTS
 62
     0
100
AcDbPoint
 10
6873.504660476114
 20
7111.415242119016
 30
0.0
  0
POINT
  5
1B76
330
1727
100
AcDbEntity
  8
DEFPOINTS
 62
     0
100
AcDbPoint
 10
6873.504660476114
 20
6961.415242119016
 30
0.0
  0
POINT
  5
1B77
330
1727
100
AcDbEntity
  8
DEFPOINTS
 62
     0
100
AcDbPoint
 10
6465.849117220778
 20
6961.415242119016
 30
0.0
  0
ENDBLK
  5
1732
330
1727
100
AcDbEntity
  8
0
100
AcDbBlockEnd
  0
BLOCK
  5
173D
330
1733
100
AcDbEntity
  8
0
100
AcDbBlockBegin
  2
*D26
 70
     1
 10
0.0
 20
0.0
 30
0.0
  3
*D26
  1

  0
LINE
  5
1B78
330
1733
100
AcDbEntity
  8
SUNPOU
 62
     0
370
    -2
100
AcDbLine
 10
6813.504660476114
 20
6961.415242119016
 30
0.0
 11
6450.849117220779
 21
6961.415242119016
 31
0.0
  0
LINE
  5
1B79
330
1733
100
AcDbEntity
  8
SUNPOU
 62
     0
370
    -2
100
AcDbLine
 10
6807.504660476114
 20
4711.415242119016
 30
0.0
 11
6450.849117220778
 21
4711.415242119016
 31
0.0
  0
LINE
  5
1B7A
330
1733
100
AcDbEntity
  8
SUNPOU
 62
     0
370
    -2
100
AcDbLine
 10
6465.849117220779
 20
6901.415242119016
 30
0.0
 11
6465.849117220778
 21
4771.415242119016
 31
0.0
  0
SOLID
  5
1B7B
330
1733
100
AcDbEntity
  8
SUNPOU
 62
     0
100
AcDbTrace
 10
6455.849117220779
 20
6901.415242119016
 30
0.0
 11
6475.849117220779
 21
6901.415242119016
 31
0.0
 12
6465.849117220779
 22
6961.415242119016
 32
0.0
 13
6465.849117220779
 23
6961.415242119016
 33
0.0
  0
SOLID
  5
1B7C
330
1733
100
AcDbEntity
  8
SUNPOU
 62
     0
100
AcDbTrace
 10
6455.849117220778
 20
4771.415242119016
 30
0.0
 11
6475.849117220778
 21
4771.415242119016
 31
0.0
 12
6465.849117220778
 22
4711.415242119016
 32
0.0
 13
6465.849117220778
 23
4711.415242119016
 33
0.0
  0
MTEXT
  5
1B7D
330
1733
100
AcDbEntity
  8
SUNPOU
 62
     0
100
AcDbMText
 10
6396.849117220777
 20
5836.415242119017
 30
0.0
 40
90.0
 41
0.0
 71
     5
 72
     1
  1
\A1;2250
 11
6.123031769111886E-17
 21
1.0
 31
0.0
 73
     1
 44
1.0
  0
POINT
  5
1B7E
330
1733
100
AcDbEntity
  8
DEFPOINTS
 62
     0
100
AcDbPoint
 10
6873.504660476114
 20
6961.415242119016
 30
0.0
  0
POINT
  5
1B7F
330
1733
100
AcDbEntity
  8
DEFPOINTS
 62
     0
100
AcDbPoint
 10
6867.504660476114
 20
4711.415242119016
 30
0.0
  0
POINT
  5
1B80
330
1733
100
AcDbEntity
  8
DEFPOINTS
 62
     0
100
AcDbPoint
 10
6465.849117220778
 20
4711.415242119016
 30
0.0
  0
ENDBLK
  5
173E
330
1733
100
AcDbEntity
  8
0
100
AcDbBlockEnd
  0
BLOCK
  5
1749
330
173F
100
AcDbEntity
  8
0
100
AcDbBlockBegin
  2
*D27
 70
     1
 10
0.0
 20
0.0
 30
0.0
  3
*D27
  1

  0
LINE
  5
1B81
330
173F
100
AcDbEntity
  8
SUNPOU
 62
     0
370
    -2
100
AcDbLine
 10
6867.504660476114
 20
7171.415242119017
 30
0.0
 11
6867.504660476114
 21
7716.505240529448
 31
0.0
  0
LINE
  5
1B82
330
173F
100
AcDbEntity
  8
SUNPOU
 62
     0
370
    -2
100
AcDbLine
 10
8367.504660476114
 20
7171.415242119017
 30
0.0
 11
8367.504660476114
 21
7716.505240529448
 31
0.0
  0
LINE
  5
1B83
330
173F
100
AcDbEntity
  8
SUNPOU
 62
     0
370
    -2
100
AcDbLine
 10
6927.504660476114
 20
7701.505240529448
 30
0.0
 11
8307.504660476114
 21
7701.505240529448
 31
0.0
  0
SOLID
  5
1B84
330
173F
100
AcDbEntity
  8
SUNPOU
 62
     0
100
AcDbTrace
 10
6927.504660476114
 20
7711.505240529448
 30
0.0
 11
6927.504660476114
 21
7691.505240529448
 31
0.0
 12
6867.504660476114
 22
7701.505240529448
 32
0.0
 13
6867.504660476114
 23
7701.505240529448
 33
0.0
  0
SOLID
  5
1B85
330
173F
100
AcDbEntity
  8
SUNPOU
 62
     0
100
AcDbTrace
 10
8307.504660476114
 20
7711.505240529448
 30
0.0
 11
8307.504660476114
 21
7691.505240529448
 31
0.0
 12
8367.504660476114
 22
7701.505240529448
 32
0.0
 13
8367.504660476114
 23
7701.505240529448
 33
0.0
  0
MTEXT
  5
1B86
330
173F
100
AcDbEntity
  8
SUNPOU
 62
     0
100
AcDbMText
 10
7617.504660476114
 20
7770.505240529448
 30
0.0
 40
90.0
 41
0.0
 71
     5
 72
     1
  1
\A1;1500
 73
     1
 44
1.0
  0
POINT
  5
1B87
330
173F
100
AcDbEntity
  8
DEFPOINTS
 62
     0
100
AcDbPoint
 10
6867.504660476114
 20
7111.415242119017
 30
0.0
  0
POINT
  5
1B88
330
173F
100
AcDbEntity
  8
DEFPOINTS
 62
     0
100
AcDbPoint
 10
8367.504660476114
 20
7111.415242119017
 30
0.0
  0
POINT
  5
1B89
330
173F
100
AcDbEntity
  8
DEFPOINTS
 62
     0
100
AcDbPoint
 10
8367.504660476114
 20
7701.505240529448
 30
0.0
  0
ENDBLK
  5
174A
330
173F
100
AcDbEntity
  8
0
100
AcDbBlockEnd
  0
BLOCK
  5
1755
330
174B
100
AcDbEntity
  8
0
100
AcDbBlockBegin
  2
*D28
 70
     1
 10
0.0
 20
0.0
 30
0.0
  3
*D28
  1

  0
LINE
  5
1B8A
330
174B
100
AcDbEntity
  8
SUNPOU
 62
     0
370
    -2
100
AcDbLine
 10
6867.504660476114
 20
7171.415242119017
 30
0.0
 11
6867.504660476114
 21
7500.982562902471
 31
0.0
  0
LINE
  5
1B8B
330
174B
100
AcDbEntity
  8
SUNPOU
 62
     0
370
    -2
100
AcDbLine
 10
7242.504660476114
 20
7171.415242119017
 30
0.0
 11
7242.504660476114
 21
7500.982562902471
 31
0.0
  0
LINE
  5
1B8C
330
174B
100
AcDbEntity
  8
SUNPOU
 62
     0
370
    -2
100
AcDbLine
 10
6927.504660476114
 20
7485.982562902471
 30
0.0
 11
7182.504660476114
 21
7485.982562902471
 31
0.0
  0
SOLID
  5
1B8D
330
174B
100
AcDbEntity
  8
SUNPOU
 62
     0
100
AcDbTrace
 10
6927.504660476114
 20
7495.982562902471
 30
0.0
 11
6927.504660476114
 21
7475.982562902471
 31
0.0
 12
6867.504660476114
 22
7485.982562902471
 32
0.0
 13
6867.504660476114
 23
7485.982562902471
 33
0.0
  0
SOLID
  5
1B8E
330
174B
100
AcDbEntity
  8
SUNPOU
 62
     0
100
AcDbTrace
 10
7182.504660476114
 20
7495.982562902471
 30
0.0
 11
7182.504660476114
 21
7475.982562902471
 31
0.0
 12
7242.504660476114
 22
7485.982562902471
 32
0.0
 13
7242.504660476114
 23
7485.982562902471
 33
0.0
  0
MTEXT
  5
1B8F
330
174B
100
AcDbEntity
  8
SUNPOU
 62
     0
100
AcDbMText
 10
7055.004660476114
 20
7554.982562902471
 30
0.0
 40
90.0
 41
0.0
 71
     5
 72
     1
  1
\A1;375
 73
     1
 44
1.0
  0
POINT
  5
1B90
330
174B
100
AcDbEntity
  8
DEFPOINTS
 62
     0
100
AcDbPoint
 10
6867.504660476114
 20
7111.415242119017
 30
0.0
  0
POINT
  5
1B91
330
174B
100
AcDbEntity
  8
DEFPOINTS
 62
     0
100
AcDbPoint
 10
7242.504660476114
 20
7111.415242119017
 30
0.0
  0
POINT
  5
1B92
330
174B
100
AcDbEntity
  8
DEFPOINTS
 62
     0
100
AcDbPoint
 10
7242.504660476114
 20
7485.982562902471
 30
0.0
  0
ENDBLK
  5
1756
330
174B
100
AcDbEntity
  8
0
100
AcDbBlockEnd
  0
BLOCK
  5
1761
330
1757
100
AcDbEntity
  8
0
100
AcDbBlockBegin
  2
*D29
 70
     1
 10
0.0
 20
0.0
 30
0.0
  3
*D29
  1

  0
LINE
  5
1B93
330
1757
100
AcDbEntity
  8
SUNPOU
 62
     0
370
    -2
100
AcDbLine
 10
7242.504660476114
 20
7171.415242119017
 30
0.0
 11
7242.504660476114
 21
7500.982562902471
 31
0.0
  0
LINE
  5
1B94
330
1757
100
AcDbEntity
  8
SUNPOU
 62
     0
370
    -2
100
AcDbLine
 10
7992.504660476114
 20
7171.415242119017
 30
0.0
 11
7992.504660476114
 21
7500.982562902471
 31
0.0
  0
LINE
  5
1B95
330
1757
100
AcDbEntity
  8
SUNPOU
 62
     0
370
    -2
100
AcDbLine
 10
7302.504660476114
 20
7485.982562902471
 30
0.0
 11
7932.504660476114
 21
7485.982562902471
 31
0.0
  0
SOLID
  5
1B96
330
1757
100
AcDbEntity
  8
SUNPOU
 62
     0
100
AcDbTrace
 10
7302.504660476114
 20
7495.982562902471
 30
0.0
 11
7302.504660476114
 21
7475.982562902471
 31
0.0
 12
7242.504660476114
 22
7485.982562902471
 32
0.0
 13
7242.504660476114
 23
7485.982562902471
 33
0.0
  0
SOLID
  5
1B97
330
1757
100
AcDbEntity
  8
SUNPOU
 62
     0
100
AcDbTrace
 10
7932.504660476114
 20
7495.982562902471
 30
0.0
 11
7932.504660476114
 21
7475.982562902471
 31
0.0
 12
7992.504660476114
 22
7485.982562902471
 32
0.0
 13
7992.504660476114
 23
7485.982562902471
 33
0.0
  0
MTEXT
  5
1B98
330
1757
100
AcDbEntity
  8
SUNPOU
 62
     0
100
AcDbMText
 10
7617.504660476114
 20
7554.982562902471
 30
0.0
 40
90.0
 41
0.0
 71
     5
 72
     1
  1
\A1;750
 73
     1
 44
1.0
  0
POINT
  5
1B99
330
1757
100
AcDbEntity
  8
DEFPOINTS
 62
     0
100
AcDbPoint
 10
7242.504660476114
 20
7111.415242119017
 30
0.0
  0
POINT
  5
1B9A
330
1757
100
AcDbEntity
  8
DEFPOINTS
 62
     0
100
AcDbPoint
 10
7992.504660476114
 20
7111.415242119017
 30
0.0
  0
POINT
  5
1B9B
330
1757
100
AcDbEntity
  8
DEFPOINTS
 62
     0
100
AcDbPoint
 10
7992.504660476114
 20
7485.982562902471
 30
0.0
  0
ENDBLK
  5
1762
330
1757
100
AcDbEntity
  8
0
100
AcDbBlockEnd
  0
BLOCK
  5
176D
330
1763
100
AcDbEntity
  8
0
100
AcDbBlockBegin
  2
*D30
 70
     1
 10
0.0
 20
0.0
 30
0.0
  3
*D30
  1

  0
LINE
  5
1B9C
330
1763
100
AcDbEntity
  8
SUNPOU
 62
     0
370
    -2
100
AcDbLine
 10
7992.504660476114
 20
7171.415242119017
 30
0.0
 11
7992.504660476114
 21
7500.982562902471
 31
0.0
  0
LINE
  5
1B9D
330
1763
100
AcDbEntity
  8
SUNPOU
 62
     0
370
    -2
100
AcDbLine
 10
8367.504660476114
 20
7171.415242119017
 30
0.0
 11
8367.504660476114
 21
7500.982562902471
 31
0.0
  0
LINE
  5
1B9E
330
1763
100
AcDbEntity
  8
SUNPOU
 62
     0
370
    -2
100
AcDbLine
 10
8052.504660476114
 20
7485.982562902471
 30
0.0
 11
8307.504660476114
 21
7485.982562902471
 31
0.0
  0
SOLID
  5
1B9F
330
1763
100
AcDbEntity
  8
SUNPOU
 62
     0
100
AcDbTrace
 10
8052.504660476114
 20
7495.982562902471
 30
0.0
 11
8052.504660476114
 21
7475.982562902471
 31
0.0
 12
7992.504660476114
 22
7485.982562902471
 32
0.0
 13
7992.504660476114
 23
7485.982562902471
 33
0.0
  0
SOLID
  5
1BA0
330
1763
100
AcDbEntity
  8
SUNPOU
 62
     0
100
AcDbTrace
 10
8307.504660476114
 20
7495.982562902471
 30
0.0
 11
8307.504660476114
 21
7475.982562902471
 31
0.0
 12
8367.504660476114
 22
7485.982562902471
 32
0.0
 13
8367.504660476114
 23
7485.982562902471
 33
0.0
  0
MTEXT
  5
1BA1
330
1763
100
AcDbEntity
  8
SUNPOU
 62
     0
100
AcDbMText
 10
8180.004660476114
 20
7554.982562902471
 30
0.0
 40
90.0
 41
0.0
 71
     5
 72
     1
  1
\A1;375
 73
     1
 44
1.0
  0
POINT
  5
1BA2
330
1763
100
AcDbEntity
  8
DEFPOINTS
 62
     0
100
AcDbPoint
 10
7992.504660476114
 20
7111.415242119017
 30
0.0
  0
POINT
  5
1BA3
330
1763
100
AcDbEntity
  8
DEFPOINTS
 62
     0
100
AcDbPoint
 10
8367.504660476114
 20
7111.415242119017
 30
0.0
  0
POINT
  5
1BA4
330
1763
100
AcDbEntity
  8
DEFPOINTS
 62
     0
100
AcDbPoint
 10
8367.504660476114
 20
7485.982562902471
 30
0.0
  0
ENDBLK
  5
176E
330
1763
100
AcDbEntity
  8
0
100
AcDbBlockEnd
  0
BLOCK
  5
1818
330
180D
100
AcDbEntity
  8
0
100
AcDbBlockBegin
  2
*D31
 70
     1
 10
0.0
 20
0.0
 30
0.0
  3
*D31
  1

  0
LINE
  5
1BA5
330
180D
100
AcDbEntity
  8
SUNPOU
 62
     0
370
    -2
100
AcDbLine
 10
7132.504660476114
 20
5956.018451075079
 30
0.0
 11
7132.504660476114
 21
6044.781193914055
 31
0.0
  0
LINE
  5
1BA6
330
180D
100
AcDbEntity
  8
SUNPOU
 62
     0
370
    -2
100
AcDbLine
 10
7152.504660476114
 20
5956.018451075079
 30
0.0
 11
7152.504660476114
 21
6044.781193914055
 31
0.0
  0
LINE
  5
1BA7
330
180D
100
AcDbEntity
  8
SUNPOU
 62
     0
370
    -2
100
AcDbLine
 10
7072.504660476114
 20
6029.781193914055
 30
0.0
 11
7012.504660476114
 21
6029.781193914055
 31
0.0
  0
LINE
  5
1BA8
330
180D
100
AcDbEntity
  8
SUNPOU
 62
     0
370
    -2
100
AcDbLine
 10
7212.504660476114
 20
6029.781193914055
 30
0.0
 11
7272.504660476114
 21
6029.781193914055
 31
0.0
  0
MTEXT
  5
1BA9
330
180D
100
AcDbEntity
  8
SUNPOU
 62
     0
100
AcDbMText
 10
7056.056201432686
 20
6098.781193914055
 30
0.0
 40
90.0
 41
0.0
 71
     5
 72
     1
  1
\A1;20
 73
     1
 44
1.0
  0
SOLID
  5
1BAA
330
180D
100
AcDbEntity
  8
SUNPOU
 62
     0
100
AcDbTrace
 10
7072.504660476114
 20
6039.781193914055
 30
0.0
 11
7072.504660476114
 21
6019.781193914055
 31
0.0
 12
7132.504660476114
 22
6029.781193914055
 32
0.0
 13
7132.504660476114
 23
6029.781193914055
 33
0.0
  0
SOLID
  5
1BAB
330
180D
100
AcDbEntity
  8
SUNPOU
 62
     0
100
AcDbTrace
 10
7212.504660476114
 20
6039.781193914055
 30
0.0
 11
7212.504660476114
 21
6019.781193914055
 31
0.0
 12
7152.504660476114
 22
6029.781193914055
 32
0.0
 13
7152.504660476114
 23
6029.781193914055
 33
0.0
  0
POINT
  5
1BAC
330
180D
100
AcDbEntity
  8
DEFPOINTS
 62
     0
100
AcDbPoint
 10
7132.504660476114
 20
5896.018451075079
 30
0.0
  0
POINT
  5
1BAD
330
180D
100
AcDbEntity
  8
DEFPOINTS
 62
     0
100
AcDbPoint
 10
7152.504660476114
 20
5896.018451075079
 30
0.0
  0
POINT
  5
1BAE
330
180D
100
AcDbEntity
  8
DEFPOINTS
 62
     0
100
AcDbPoint
 10
7152.504660476114
 20
6029.781193914055
 30
0.0
  0
ENDBLK
  5
1819
330
180D
100
AcDbEntity
  8
0
100
AcDbBlockEnd
  0
BLOCK
  5
1824
330
181A
100
AcDbEntity
  8
0
100
AcDbBlockBegin
  2
*D32
 70
     1
 10
0.0
 20
0.0
 30
0.0
  3
*D32
  1

  0
LINE
  5
1BAF
330
181A
100
AcDbEntity
  8
SUNPOU
 62
     0
370
    -2
100
AcDbLine
 10
7152.504660476114
 20
5956.018451075079
 30
0.0
 11
7152.504660476114
 21
6044.781193914055
 31
0.0
  0
LINE
  5
1BB0
330
181A
100
AcDbEntity
  8
SUNPOU
 62
     0
370
    -2
100
AcDbLine
 10
7332.504660476114
 20
5956.018451075079
 30
0.0
 11
7332.504660476114
 21
6044.781193914055
 31
0.0
  0
LINE
  5
1BB1
330
181A
100
AcDbEntity
  8
SUNPOU
 62
     0
370
    -2
100
AcDbLine
 10
7092.504660476114
 20
6029.781193914055
 30
0.0
 11
7032.504660476114
 21
6029.781193914055
 31
0.0
  0
LINE
  5
1BB2
330
181A
100
AcDbEntity
  8
SUNPOU
 62
     0
370
    -2
100
AcDbLine
 10
7392.504660476114
 20
6029.781193914055
 30
0.0
 11
7452.504660476114
 21
6029.781193914055
 31
0.0
  0
SOLID
  5
1BB3
330
181A
100
AcDbEntity
  8
SUNPOU
 62
     0
100
AcDbTrace
 10
7092.504660476114
 20
6039.781193914055
 30
0.0
 11
7092.504660476114
 21
6019.781193914055
 31
0.0
 12
7152.504660476114
 22
6029.781193914055
 32
0.0
 13
7152.504660476114
 23
6029.781193914055
 33
0.0
  0
SOLID
  5
1BB4
330
181A
100
AcDbEntity
  8
SUNPOU
 62
     0
100
AcDbTrace
 10
7392.504660476114
 20
6039.781193914055
 30
0.0
 11
7392.504660476114
 21
6019.781193914055
 31
0.0
 12
7332.504660476114
 22
6029.781193914055
 32
0.0
 13
7332.504660476114
 23
6029.781193914055
 33
0.0
  0
MTEXT
  5
1BB5
330
181A
100
AcDbEntity
  8
SUNPOU
 62
     0
100
AcDbMText
 10
7242.504660476114
 20
6098.781193914055
 30
0.0
 40
90.0
 41
0.0
 71
     5
 72
     1
  1
\A1;180
 73
     1
 44
1.0
  0
POINT
  5
1BB6
330
181A
100
AcDbEntity
  8
DEFPOINTS
 62
     0
100
AcDbPoint
 10
7152.504660476114
 20
5896.018451075079
 30
0.0
  0
POINT
  5
1BB7
330
181A
100
AcDbEntity
  8
DEFPOINTS
 62
     0
100
AcDbPoint
 10
7332.504660476114
 20
5896.018451075079
 30
0.0
  0
POINT
  5
1BB8
330
181A
100
AcDbEntity
  8
DEFPOINTS
 62
     0
100
AcDbPoint
 10
7332.504660476114
 20
6029.781193914055
 30
0.0
  0
ENDBLK
  5
1825
330
181A
100
AcDbEntity
  8
0
100
AcDbBlockEnd
  0
BLOCK
  5
1831
330
1826
100
AcDbEntity
  8
0
100
AcDbBlockBegin
  2
*D33
 70
     1
 10
0.0
 20
0.0
 30
0.0
  3
*D33
  1

  0
LINE
  5
1BB9
330
1826
100
AcDbEntity
  8
SUNPOU
 62
     0
370
    -2
100
AcDbLine
 10
7332.504660476114
 20
5956.018451075079
 30
0.0
 11
7332.504660476114
 21
6044.781193914055
 31
0.0
  0
LINE
  5
1BBA
330
1826
100
AcDbEntity
  8
SUNPOU
 62
     0
370
    -2
100
AcDbLine
 10
7352.504660476114
 20
5956.018451075079
 30
0.0
 11
7352.504660476114
 21
6044.781193914055
 31
0.0
  0
LINE
  5
1BBB
330
1826
100
AcDbEntity
  8
SUNPOU
 62
     0
370
    -2
100
AcDbLine
 10
7272.504660476114
 20
6029.781193914055
 30
0.0
 11
7212.504660476114
 21
6029.781193914055
 31
0.0
  0
LINE
  5
1BBC
330
1826
100
AcDbEntity
  8
SUNPOU
 62
     0
370
    -2
100
AcDbLine
 10
7412.504660476114
 20
6029.781193914055
 30
0.0
 11
7472.504660476114
 21
6029.781193914055
 31
0.0
  0
MTEXT
  5
1BBD
330
1826
100
AcDbEntity
  8
SUNPOU
 62
     0
100
AcDbMText
 10
7429.612310274555
 20
6098.781193914055
 30
0.0
 40
90.0
 41
0.0
 71
     5
 72
     1
  1
\A1;20
 73
     1
 44
1.0
  0
SOLID
  5
1BBE
330
1826
100
AcDbEntity
  8
SUNPOU
 62
     0
100
AcDbTrace
 10
7272.504660476114
 20
6039.781193914055
 30
0.0
 11
7272.504660476114
 21
6019.781193914055
 31
0.0
 12
7332.504660476114
 22
6029.781193914055
 32
0.0
 13
7332.504660476114
 23
6029.781193914055
 33
0.0
  0
SOLID
  5
1BBF
330
1826
100
AcDbEntity
  8
SUNPOU
 62
     0
100
AcDbTrace
 10
7412.504660476114
 20
6039.781193914055
 30
0.0
 11
7412.504660476114
 21
6019.781193914055
 31
0.0
 12
7352.504660476114
 22
6029.781193914055
 32
0.0
 13
7352.504660476114
 23
6029.781193914055
 33
0.0
  0
POINT
  5
1BC0
330
1826
100
AcDbEntity
  8
DEFPOINTS
 62
     0
100
AcDbPoint
 10
7332.504660476114
 20
5896.018451075079
 30
0.0
  0
POINT
  5
1BC1
330
1826
100
AcDbEntity
  8
DEFPOINTS
 62
     0
100
AcDbPoint
 10
7352.504660476114
 20
5896.018451075079
 30
0.0
  0
POINT
  5
1BC2
330
1826
100
AcDbEntity
  8
DEFPOINTS
 62
     0
100
AcDbPoint
 10
7352.504660476114
 20
6029.781193914055
 30
0.0
  0
ENDBLK
  5
1832
330
1826
100
AcDbEntity
  8
0
100
AcDbBlockEnd
  0
BLOCK
  5
19B1
330
19A7
100
AcDbEntity
  8
0
100
AcDbBlockBegin
  2
*D34
 70
     1
 10
0.0
 20
0.0
 30
0.0
  3
*D34
  1

  0
LINE
  5
1BC3
330
19A7
100
AcDbEntity
  8
SUNPOU
 62
     0
370
    -2
100
AcDbLine
 10
8367.504660476112
 20
1181.264724814735
 30
0.0
 11
8367.504660476112
 21
661.1795513649704
 31
0.0
  0
LINE
  5
1BC4
330
19A7
100
AcDbEntity
  8
SUNPOU
 62
     0
370
    -2
100
AcDbLine
 10
6867.504660476112
 20
1181.264724814735
 30
0.0
 11
6867.504660476112
 21
661.1795513649704
 31
0.0
  0
LINE
  5
1BC5
330
19A7
100
AcDbEntity
  8
SUNPOU
 62
     0
370
    -2
100
AcDbLine
 10
8307.504660476112
 20
676.1795513649704
 30
0.0
 11
6927.504660476112
 21
676.1795513649704
 31
0.0
  0
SOLID
  5
1BC6
330
19A7
100
AcDbEntity
  8
SUNPOU
 62
     0
100
AcDbTrace
 10
8307.504660476112
 20
686.1795513649704
 30
0.0
 11
8307.504660476112
 21
666.1795513649704
 31
0.0
 12
8367.504660476112
 22
676.1795513649704
 32
0.0
 13
8367.504660476112
 23
676.1795513649704
 33
0.0
  0
SOLID
  5
1BC7
330
19A7
100
AcDbEntity
  8
SUNPOU
 62
     0
100
AcDbTrace
 10
6927.504660476112
 20
686.1795513649704
 30
0.0
 11
6927.504660476112
 21
666.1795513649704
 31
0.0
 12
6867.504660476112
 22
676.1795513649704
 32
0.0
 13
6867.504660476112
 23
676.1795513649704
 33
0.0
  0
MTEXT
  5
1BC8
330
19A7
100
AcDbEntity
  8
SUNPOU
 62
     0
100
AcDbMText
 10
7617.504660476112
 20
745.1795513649704
 30
0.0
 40
90.0
 41
0.0
 71
     5
 72
     1
  1
\A1;1500
 73
     1
 44
1.0
  0
POINT
  5
1BC9
330
19A7
100
AcDbEntity
  8
DEFPOINTS
 62
     0
100
AcDbPoint
 10
8367.504660476112
 20
1241.264724814735
 30
0.0
  0
POINT
  5
1BCA
330
19A7
100
AcDbEntity
  8
DEFPOINTS
 62
     0
100
AcDbPoint
 10
6867.504660476112
 20
1241.264724814735
 30
0.0
  0
POINT
  5
1BCB
330
19A7
100
AcDbEntity
  8
DEFPOINTS
 62
     0
100
AcDbPoint
 10
6867.504660476112
 20
676.1795513649704
 30
0.0
  0
ENDBLK
  5
19B2
330
19A7
100
AcDbEntity
  8
0
100
AcDbBlockEnd
  0
BLOCK
  5
19BD
330
19B3
100
AcDbEntity
  8
0
100
AcDbBlockBegin
  2
*D35
 70
     1
 10
0.0
 20
0.0
 30
0.0
  3
*D35
  1

  0
LINE
  5
1BCC
330
19B3
100
AcDbEntity
  8
SUNPOU
 62
     0
370
    -2
100
AcDbLine
 10
7617.504660476112
 20
1181.264724814735
 30
0.0
 11
7617.504660476112
 21
900.6611022228508
 31
0.0
  0
LINE
  5
1BCD
330
19B3
100
AcDbEntity
  8
SUNPOU
 62
     0
370
    -2
100
AcDbLine
 10
7242.504660476112
 20
1181.264724814735
 30
0.0
 11
7242.504660476112
 21
900.6611022228508
 31
0.0
  0
LINE
  5
1BCE
330
19B3
100
AcDbEntity
  8
SUNPOU
 62
     0
370
    -2
100
AcDbLine
 10
7557.504660476112
 20
915.6611022228508
 30
0.0
 11
7302.504660476112
 21
915.6611022228508
 31
0.0
  0
SOLID
  5
1BCF
330
19B3
100
AcDbEntity
  8
SUNPOU
 62
     0
100
AcDbTrace
 10
7557.504660476112
 20
925.6611022228508
 30
0.0
 11
7557.504660476112
 21
905.6611022228508
 31
0.0
 12
7617.504660476112
 22
915.6611022228508
 32
0.0
 13
7617.504660476112
 23
915.6611022228508
 33
0.0
  0
SOLID
  5
1BD0
330
19B3
100
AcDbEntity
  8
SUNPOU
 62
     0
100
AcDbTrace
 10
7302.504660476112
 20
925.6611022228508
 30
0.0
 11
7302.504660476112
 21
905.6611022228508
 31
0.0
 12
7242.504660476112
 22
915.6611022228508
 32
0.0
 13
7242.504660476112
 23
915.6611022228508
 33
0.0
  0
MTEXT
  5
1BD1
330
19B3
100
AcDbEntity
  8
SUNPOU
 62
     0
100
AcDbMText
 10
7430.004660476112
 20
984.6611022228508
 30
0.0
 40
90.0
 41
0.0
 71
     5
 72
     1
  1
\A1;375
 73
     1
 44
1.0
  0
POINT
  5
1BD2
330
19B3
100
AcDbEntity
  8
DEFPOINTS
 62
     0
100
AcDbPoint
 10
7617.504660476112
 20
1241.264724814735
 30
0.0
  0
POINT
  5
1BD3
330
19B3
100
AcDbEntity
  8
DEFPOINTS
 62
     0
100
AcDbPoint
 10
7242.504660476112
 20
1241.264724814735
 30
0.0
  0
POINT
  5
1BD4
330
19B3
100
AcDbEntity
  8
DEFPOINTS
 62
     0
100
AcDbPoint
 10
7242.504660476112
 20
915.6611022228508
 30
0.0
  0
ENDBLK
  5
19BE
330
19B3
100
AcDbEntity
  8
0
100
AcDbBlockEnd
  0
BLOCK
  5
19C9
330
19BF
100
AcDbEntity
  8
0
100
AcDbBlockBegin
  2
*D36
 70
     1
 10
0.0
 20
0.0
 30
0.0
  3
*D36
  1

  0
LINE
  5
1BD5
330
19BF
100
AcDbEntity
  8
SUNPOU
 62
     0
370
    -2
100
AcDbLine
 10
7242.504660476112
 20
1181.264724814735
 30
0.0
 11
7242.504660476112
 21
900.6611022228508
 31
0.0
  0
LINE
  5
1BD6
330
19BF
100
AcDbEntity
  8
SUNPOU
 62
     0
370
    -2
100
AcDbLine
 10
6867.504660476112
 20
1181.264724814735
 30
0.0
 11
6867.504660476112
 21
900.6611022228508
 31
0.0
  0
LINE
  5
1BD7
330
19BF
100
AcDbEntity
  8
SUNPOU
 62
     0
370
    -2
100
AcDbLine
 10
7182.504660476112
 20
915.6611022228508
 30
0.0
 11
6927.504660476112
 21
915.6611022228508
 31
0.0
  0
SOLID
  5
1BD8
330
19BF
100
AcDbEntity
  8
SUNPOU
 62
     0
100
AcDbTrace
 10
7182.504660476112
 20
925.6611022228508
 30
0.0
 11
7182.504660476112
 21
905.6611022228508
 31
0.0
 12
7242.504660476112
 22
915.6611022228508
 32
0.0
 13
7242.504660476112
 23
915.6611022228508
 33
0.0
  0
SOLID
  5
1BD9
330
19BF
100
AcDbEntity
  8
SUNPOU
 62
     0
100
AcDbTrace
 10
6927.504660476112
 20
925.6611022228508
 30
0.0
 11
6927.504660476112
 21
905.6611022228508
 31
0.0
 12
6867.504660476112
 22
915.6611022228508
 32
0.0
 13
6867.504660476112
 23
915.6611022228508
 33
0.0
  0
MTEXT
  5
1BDA
330
19BF
100
AcDbEntity
  8
SUNPOU
 62
     0
100
AcDbMText
 10
7055.004660476112
 20
984.6611022228508
 30
0.0
 40
90.0
 41
0.0
 71
     5
 72
     1
  1
\A1;375
 73
     1
 44
1.0
  0
POINT
  5
1BDB
330
19BF
100
AcDbEntity
  8
DEFPOINTS
 62
     0
100
AcDbPoint
 10
7242.504660476112
 20
1241.264724814735
 30
0.0
  0
POINT
  5
1BDC
330
19BF
100
AcDbEntity
  8
DEFPOINTS
 62
     0
100
AcDbPoint
 10
6867.504660476112
 20
1241.264724814735
 30
0.0
  0
POINT
  5
1BDD
330
19BF
100
AcDbEntity
  8
DEFPOINTS
 62
     0
100
AcDbPoint
 10
6867.504660476112
 20
915.6611022228508
 30
0.0
  0
ENDBLK
  5
19CA
330
19BF
100
AcDbEntity
  8
0
100
AcDbBlockEnd
  0
BLOCK
  5
19D5
330
19CB
100
AcDbEntity
  8
0
100
AcDbBlockBegin
  2
*D37
 70
     1
 10
0.0
 20
0.0
 30
0.0
  3
*D37
  1

  0
LINE
  5
1BDE
330
19CB
100
AcDbEntity
  8
SUNPOU
 62
     0
370
    -2
100
AcDbLine
 10
8427.504660476112
 20
1241.264724814735
 30
0.0
 11
8886.954942526834
 21
1241.264724814735
 31
0.0
  0
LINE
  5
1BDF
330
19CB
100
AcDbEntity
  8
SUNPOU
 62
     0
370
    -2
100
AcDbLine
 10
8427.504660476112
 20
1501.264724814735
 30
0.0
 11
8886.954942526834
 21
1501.264724814735
 31
0.0
  0
LINE
  5
1BE0
330
19CB
100
AcDbEntity
  8
SUNPOU
 62
     0
370
    -2
100
AcDbLine
 10
8871.954942526834
 20
1301.264724814735
 30
0.0
 11
8871.954942526834
 21
1441.264724814735
 31
0.0
  0
SOLID
  5
1BE1
330
19CB
100
AcDbEntity
  8
SUNPOU
 62
     0
100
AcDbTrace
 10
8861.954942526834
 20
1301.264724814735
 30
0.0
 11
8881.954942526834
 21
1301.264724814735
 31
0.0
 12
8871.954942526834
 22
1241.264724814735
 32
0.0
 13
8871.954942526834
 23
1241.264724814735
 33
0.0
  0
SOLID
  5
1BE2
330
19CB
100
AcDbEntity
  8
SUNPOU
 62
     0
100
AcDbTrace
 10
8861.954942526834
 20
1441.264724814735
 30
0.0
 11
8881.954942526834
 21
1441.264724814735
 31
0.0
 12
8871.954942526834
 22
1501.264724814735
 32
0.0
 13
8871.954942526834
 23
1501.264724814735
 33
0.0
  0
MTEXT
  5
1BE3
330
19CB
100
AcDbEntity
  8
SUNPOU
 62
     0
100
AcDbMText
 10
8802.954942526834
 20
1371.264724814736
 30
0.0
 40
90.0
 41
0.0
 71
     5
 72
     1
  1
\A1;260
 11
6.123031769111886E-17
 21
1.0
 31
0.0
 73
     1
 44
1.0
  0
POINT
  5
1BE4
330
19CB
100
AcDbEntity
  8
DEFPOINTS
 62
     0
100
AcDbPoint
 10
8367.504660476112
 20
1241.264724814735
 30
0.0
  0
POINT
  5
1BE5
330
19CB
100
AcDbEntity
  8
DEFPOINTS
 62
     0
100
AcDbPoint
 10
8367.504660476112
 20
1501.264724814735
 30
0.0
  0
POINT
  5
1BE6
330
19CB
100
AcDbEntity
  8
DEFPOINTS
 62
     0
100
AcDbPoint
 10
8871.954942526834
 20
1501.264724814735
 30
0.0
  0
ENDBLK
  5
19D6
330
19CB
100
AcDbEntity
  8
0
100
AcDbBlockEnd
  0
BLOCK
  5
19E1
330
19D7
100
AcDbEntity
  8
0
100
AcDbBlockBegin
  2
*D38
 70
     1
 10
0.0
 20
0.0
 30
0.0
  3
*D38
  1

  0
LINE
  5
1BE7
330
19D7
100
AcDbEntity
  8
SUNPOU
 62
     0
370
    -2
100
AcDbLine
 10
8427.504660476112
 20
1241.264724814735
 30
0.0
 11
8693.110731555687
 21
1241.264724814735
 31
0.0
  0
LINE
  5
1BE8
330
19D7
100
AcDbEntity
  8
SUNPOU
 62
     0
370
    -2
100
AcDbLine
 10
8427.504660476112
 20
1431.264724814735
 30
0.0
 11
8693.110731555687
 21
1431.264724814735
 31
0.0
  0
LINE
  5
1BE9
330
19D7
100
AcDbEntity
  8
SUNPOU
 62
     0
370
    -2
100
AcDbLine
 10
8678.110731555687
 20
1301.264724814735
 30
0.0
 11
8678.110731555687
 21
1371.264724814735
 31
0.0
  0
MTEXT
  5
1BEA
330
19D7
100
AcDbEntity
  8
SUNPOU
 62
     0
100
AcDbMText
 10
8609.110731555687
 20
1336.264724814736
 30
0.0
 40
90.0
 41
0.0
 71
     5
 72
     1
  1
\A1;190
 11
6.123031769111886E-17
 21
1.0
 31
0.0
 73
     1
 44
1.0
  0
SOLID
  5
1BEB
330
19D7
100
AcDbEntity
  8
SUNPOU
 62
     0
100
AcDbTrace
 10
8668.110731555687
 20
1301.264724814735
 30
0.0
 11
8688.110731555687
 21
1301.264724814735
 31
0.0
 12
8678.110731555687
 22
1241.264724814735
 32
0.0
 13
8678.110731555687
 23
1241.264724814735
 33
0.0
  0
SOLID
  5
1BEC
330
19D7
100
AcDbEntity
  8
SUNPOU
 62
     0
100
AcDbTrace
 10
8668.110731555687
 20
1371.264724814735
 30
0.0
 11
8688.110731555687
 21
1371.264724814735
 31
0.0
 12
8678.110731555687
 22
1431.264724814735
 32
0.0
 13
8678.110731555687
 23
1431.264724814735
 33
0.0
  0
POINT
  5
1BED
330
19D7
100
AcDbEntity
  8
DEFPOINTS
 62
     0
100
AcDbPoint
 10
8367.504660476112
 20
1241.264724814735
 30
0.0
  0
POINT
  5
1BEE
330
19D7
100
AcDbEntity
  8
DEFPOINTS
 62
     0
100
AcDbPoint
 10
8367.504660476112
 20
1431.264724814735
 30
0.0
  0
POINT
  5
1BEF
330
19D7
100
AcDbEntity
  8
DEFPOINTS
 62
     0
100
AcDbPoint
 10
8678.110731555687
 20
1431.264724814735
 30
0.0
  0
ENDBLK
  5
19E2
330
19D7
100
AcDbEntity
  8
0
100
AcDbBlockEnd
  0
BLOCK
  5
19EE
330
19E3
100
AcDbEntity
  8
0
100
AcDbBlockBegin
  2
*D39
 70
     1
 10
0.0
 20
0.0
 30
0.0
  3
*D39
  1

  0
LINE
  5
1BF0
330
19E3
100
AcDbEntity
  8
SUNPOU
 62
     0
370
    -2
100
AcDbLine
 10
8427.504660476112
 20
1431.264724814735
 30
0.0
 11
8693.110731555687
 21
1431.264724814735
 31
0.0
  0
LINE
  5
1BF1
330
19E3
100
AcDbEntity
  8
SUNPOU
 62
     0
370
    -2
100
AcDbLine
 10
8427.504660476112
 20
1501.264724814735
 30
0.0
 11
8693.110731555687
 21
1501.264724814735
 31
0.0
  0
LINE
  5
1BF2
330
19E3
100
AcDbEntity
  8
SUNPOU
 62
     0
370
    -2
100
AcDbLine
 10
8678.110731555687
 20
1371.264724814735
 30
0.0
 11
8678.110731555687
 21
1311.264724814735
 31
0.0
  0
LINE
  5
1BF3
330
19E3
100
AcDbEntity
  8
SUNPOU
 62
     0
370
    -2
100
AcDbLine
 10
8678.110731555687
 20
1561.264724814735
 30
0.0
 11
8678.110731555687
 21
1621.264724814735
 31
0.0
  0
MTEXT
  5
1BF4
330
19E3
100
AcDbEntity
  8
SUNPOU
 62
     0
100
AcDbMText
 10
8609.110731555687
 20
1494.908919971214
 30
0.0
 40
90.0
 41
0.0
 71
     5
 72
     1
  1
\A1;70
 11
6.123031769111886E-17
 21
1.0
 31
0.0
 73
     1
 44
1.0
  0
SOLID
  5
1BF5
330
19E3
100
AcDbEntity
  8
SUNPOU
 62
     0
100
AcDbTrace
 10
8668.110731555687
 20
1371.264724814735
 30
0.0
 11
8688.110731555687
 21
1371.264724814735
 31
0.0
 12
8678.110731555687
 22
1431.264724814735
 32
0.0
 13
8678.110731555687
 23
1431.264724814735
 33
0.0
  0
SOLID
  5
1BF6
330
19E3
100
AcDbEntity
  8
SUNPOU
 62
     0
100
AcDbTrace
 10
8668.110731555687
 20
1561.264724814735
 30
0.0
 11
8688.110731555687
 21
1561.264724814735
 31
0.0
 12
8678.110731555687
 22
1501.264724814735
 32
0.0
 13
8678.110731555687
 23
1501.264724814735
 33
0.0
  0
POINT
  5
1BF7
330
19E3
100
AcDbEntity
  8
DEFPOINTS
 62
     0
100
AcDbPoint
 10
8367.504660476112
 20
1431.264724814735
 30
0.0
  0
POINT
  5
1BF8
330
19E3
100
AcDbEntity
  8
DEFPOINTS
 62
     0
100
AcDbPoint
 10
8367.504660476112
 20
1501.264724814735
 30
0.0
  0
POINT
  5
1BF9
330
19E3
100
AcDbEntity
  8
DEFPOINTS
 62
     0
100
AcDbPoint
 10
8678.110731555687
 20
1501.264724814735
 30
0.0
  0
ENDBLK
  5
19EF
330
19E3
100
AcDbEntity
  8
0
100
AcDbBlockEnd
  0
BLOCK
  5
19FA
330
19F0
100
AcDbEntity
  8
0
100
AcDbBlockBegin
  2
*D40
 70
     1
 10
0.0
 20
0.0
 30
0.0
  3
*D40
  1

  0
LINE
  5
1BFA
330
19F0
100
AcDbEntity
  8
SUNPOU
 62
     0
370
    -2
100
AcDbLine
 10
7617.504660476112
 20
1181.264724814735
 30
0.0
 11
7617.504660476112
 21
900.6611022228508
 31
0.0
  0
LINE
  5
1BFB
330
19F0
100
AcDbEntity
  8
SUNPOU
 62
     0
370
    -2
100
AcDbLine
 10
7992.504660476112
 20
1181.264724814735
 30
0.0
 11
7992.504660476112
 21
900.6611022228508
 31
0.0
  0
LINE
  5
1BFC
330
19F0
100
AcDbEntity
  8
SUNPOU
 62
     0
370
    -2
100
AcDbLine
 10
7677.504660476112
 20
915.6611022228508
 30
0.0
 11
7932.504660476112
 21
915.6611022228508
 31
0.0
  0
SOLID
  5
1BFD
330
19F0
100
AcDbEntity
  8
SUNPOU
 62
     0
100
AcDbTrace
 10
7677.504660476112
 20
925.6611022228508
 30
0.0
 11
7677.504660476112
 21
905.6611022228508
 31
0.0
 12
7617.504660476112
 22
915.6611022228508
 32
0.0
 13
7617.504660476112
 23
915.6611022228508
 33
0.0
  0
SOLID
  5
1BFE
330
19F0
100
AcDbEntity
  8
SUNPOU
 62
     0
100
AcDbTrace
 10
7932.504660476112
 20
925.6611022228508
 30
0.0
 11
7932.504660476112
 21
905.6611022228508
 31
0.0
 12
7992.504660476112
 22
915.6611022228508
 32
0.0
 13
7992.504660476112
 23
915.6611022228508
 33
0.0
  0
MTEXT
  5
1BFF
330
19F0
100
AcDbEntity
  8
SUNPOU
 62
     0
100
AcDbMText
 10
7805.004660476112
 20
984.6611022228508
 30
0.0
 40
90.0
 41
0.0
 71
     5
 72
     1
  1
\A1;375
 73
     1
 44
1.0
  0
POINT
  5
1C00
330
19F0
100
AcDbEntity
  8
DEFPOINTS
 62
     0
100
AcDbPoint
 10
7617.504660476112
 20
1241.264724814735
 30
0.0
  0
POINT
  5
1C01
330
19F0
100
AcDbEntity
  8
DEFPOINTS
 62
     0
100
AcDbPoint
 10
7992.504660476112
 20
1241.264724814735
 30
0.0
  0
POINT
  5
1C02
330
19F0
100
AcDbEntity
  8
DEFPOINTS
 62
     0
100
AcDbPoint
 10
7992.504660476112
 20
915.6611022228508
 30
0.0
  0
ENDBLK
  5
19FB
330
19F0
100
AcDbEntity
  8
0
100
AcDbBlockEnd
  0
BLOCK
  5
1A06
330
19FC
100
AcDbEntity
  8
0
100
AcDbBlockBegin
  2
*D41
 70
     1
 10
0.0
 20
0.0
 30
0.0
  3
*D41
  1

  0
LINE
  5
1C03
330
19FC
100
AcDbEntity
  8
SUNPOU
 62
     0
370
    -2
100
AcDbLine
 10
7992.504660476112
 20
1181.264724814735
 30
0.0
 11
7992.504660476112
 21
900.6611022228508
 31
0.0
  0
LINE
  5
1C04
330
19FC
100
AcDbEntity
  8
SUNPOU
 62
     0
370
    -2
100
AcDbLine
 10
8367.504660476112
 20
1181.264724814735
 30
0.0
 11
8367.504660476112
 21
900.6611022228508
 31
0.0
  0
LINE
  5
1C05
330
19FC
100
AcDbEntity
  8
SUNPOU
 62
     0
370
    -2
100
AcDbLine
 10
8052.504660476112
 20
915.6611022228508
 30
0.0
 11
8307.504660476112
 21
915.6611022228508
 31
0.0
  0
SOLID
  5
1C06
330
19FC
100
AcDbEntity
  8
SUNPOU
 62
     0
100
AcDbTrace
 10
8052.504660476112
 20
925.6611022228508
 30
0.0
 11
8052.504660476112
 21
905.6611022228508
 31
0.0
 12
7992.504660476112
 22
915.6611022228508
 32
0.0
 13
7992.504660476112
 23
915.6611022228508
 33
0.0
  0
SOLID
  5
1C07
330
19FC
100
AcDbEntity
  8
SUNPOU
 62
     0
100
AcDbTrace
 10
8307.504660476112
 20
925.6611022228508
 30
0.0
 11
8307.504660476112
 21
905.6611022228508
 31
0.0
 12
8367.504660476112
 22
915.6611022228508
 32
0.0
 13
8367.504660476112
 23
915.6611022228508
 33
0.0
  0
MTEXT
  5
1C08
330
19FC
100
AcDbEntity
  8
SUNPOU
 62
     0
100
AcDbMText
 10
8180.004660476112
 20
984.6611022228508
 30
0.0
 40
90.0
 41
0.0
 71
     5
 72
     1
  1
\A1;375
 73
     1
 44
1.0
  0
POINT
  5
1C09
330
19FC
100
AcDbEntity
  8
DEFPOINTS
 62
     0
100
AcDbPoint
 10
7992.504660476112
 20
1241.264724814735
 30
0.0
  0
POINT
  5
1C0A
330
19FC
100
AcDbEntity
  8
DEFPOINTS
 62
     0
100
AcDbPoint
 10
8367.504660476112
 20
1241.264724814735
 30
0.0
  0
POINT
  5
1C0B
330
19FC
100
AcDbEntity
  8
DEFPOINTS
 62
     0
100
AcDbPoint
 10
8367.504660476112
 20
915.6611022228508
 30
0.0
  0
ENDBLK
  5
1A07
330
19FC
100
AcDbEntity
  8
0
100
AcDbBlockEnd
  0
BLOCK
  5
1C25
330
1C1B
100
AcDbEntity
  8
0
100
AcDbBlockBegin
  2
*D42
 70
     1
 10
0.0
 20
0.0
 30
0.0
  3
*D42
  1

  0
LINE
  5
1DFE
330
1C1B
100
AcDbEntity
  8
SUNPOU
 62
     0
370
    -2
100
AcDbLine
 10
2763.825394026462
 20
3102.326486313927
 30
0.0
 11
2264.552511235299
 21
3102.326486313927
 31
0.0
  0
LINE
  5
1DFF
330
1C1B
100
AcDbEntity
  8
SUNPOU
 62
     0
370
    -2
100
AcDbLine
 10
2763.825394026461
 20
1602.326486313927
 30
0.0
 11
2264.552511235299
 21
1602.326486313927
 31
0.0
  0
LINE
  5
1E00
330
1C1B
100
AcDbEntity
  8
SUNPOU
 62
     0
370
    -2
100
AcDbLine
 10
2279.552511235299
 20
3042.326486313927
 30
0.0
 11
2279.552511235299
 21
1662.326486313927
 31
0.0
  0
SOLID
  5
1E01
330
1C1B
100
AcDbEntity
  8
SUNPOU
 62
     0
100
AcDbTrace
 10
2269.552511235299
 20
3042.326486313927
 30
0.0
 11
2289.552511235299
 21
3042.326486313927
 31
0.0
 12
2279.552511235299
 22
3102.326486313927
 32
0.0
 13
2279.552511235299
 23
3102.326486313927
 33
0.0
  0
SOLID
  5
1E02
330
1C1B
100
AcDbEntity
  8
SUNPOU
 62
     0
100
AcDbTrace
 10
2269.552511235299
 20
1662.326486313927
 30
0.0
 11
2289.552511235299
 21
1662.326486313927
 31
0.0
 12
2279.552511235299
 22
1602.326486313927
 32
0.0
 13
2279.552511235299
 23
1602.326486313927
 33
0.0
  0
MTEXT
  5
1E03
330
1C1B
100
AcDbEntity
  8
SUNPOU
 62
     0
100
AcDbMText
 10
2210.552511235298
 20
2352.326486313927
 30
0.0
 40
90.0
 41
0.0
 71
     5
 72
     1
  1
\A1;1500
 11
6.123031769111886E-17
 21
1.0
 31
0.0
 73
     1
 44
1.0
  0
POINT
  5
1E04
330
1C1B
100
AcDbEntity
  8
DEFPOINTS
 62
     0
100
AcDbPoint
 10
2823.825394026462
 20
3102.326486313927
 30
0.0
  0
POINT
  5
1E05
330
1C1B
100
AcDbEntity
  8
DEFPOINTS
 62
     0
100
AcDbPoint
 10
2823.825394026461
 20
1602.326486313927
 30
0.0
  0
POINT
  5
1E06
330
1C1B
100
AcDbEntity
  8
DEFPOINTS
 62
     0
100
AcDbPoint
 10
2279.552511235299
 20
1602.326486313927
 30
0.0
  0
ENDBLK
  5
1C26
330
1C1B
100
AcDbEntity
  8
0
100
AcDbBlockEnd
  0
BLOCK
  5
1C32
330
1C28
100
AcDbEntity
  8
0
100
AcDbBlockBegin
  2
*D43
 70
     1
 10
0.0
 20
0.0
 30
0.0
  3
*D43
  1

  0
LINE
  5
1E07
330
1C28
100
AcDbEntity
  8
SUNPOU
 62
     0
370
    -2
100
AcDbLine
 10
4793.82539402646
 20
3054.635407166359
 30
0.0
 11
5223.666539225444
 21
3054.635407166359
 31
0.0
  0
LINE
  5
1E08
330
1C28
100
AcDbEntity
  8
SUNPOU
 62
     0
370
    -2
100
AcDbLine
 10
4793.82539402646
 20
1650.017565461494
 30
0.0
 11
5223.666539225444
 21
1650.017565461494
 31
0.0
  0
LINE
  5
1E09
330
1C28
100
AcDbEntity
  8
SUNPOU
 62
     0
370
    -2
100
AcDbLine
 10
5208.666539225444
 20
2994.635407166359
 30
0.0
 11
5208.666539225444
 21
1710.017565461494
 31
0.0
  0
SOLID
  5
1E0A
330
1C28
100
AcDbEntity
  8
SUNPOU
 62
     0
100
AcDbTrace
 10
5198.666539225444
 20
2994.635407166359
 30
0.0
 11
5218.666539225444
 21
2994.635407166359
 31
0.0
 12
5208.666539225444
 22
3054.635407166359
 32
0.0
 13
5208.666539225444
 23
3054.635407166359
 33
0.0
  0
SOLID
  5
1E0B
330
1C28
100
AcDbEntity
  8
SUNPOU
 62
     0
100
AcDbTrace
 10
5198.666539225444
 20
1710.017565461494
 30
0.0
 11
5218.666539225444
 21
1710.017565461494
 31
0.0
 12
5208.666539225444
 22
1650.017565461494
 32
0.0
 13
5208.666539225444
 23
1650.017565461494
 33
0.0
  0
MTEXT
  5
1E0C
330
1C28
100
AcDbEntity
  8
SUNPOU
 62
     0
100
AcDbMText
 10
5139.666539225444
 20
2352.326486313927
 30
0.0
 40
90.0
 41
0.0
 71
     5
 72
     1
  1
\A1;1405
 11
6.123031769111886E-17
 21
1.0
 31
0.0
 73
     1
 44
1.0
  0
POINT
  5
1E0D
330
1C28
100
AcDbEntity
  8
DEFPOINTS
 62
     0
100
AcDbPoint
 10
4733.82539402646
 20
3054.635407166359
 30
0.0
  0
POINT
  5
1E0E
330
1C28
100
AcDbEntity
  8
DEFPOINTS
 62
     0
100
AcDbPoint
 10
4733.82539402646
 20
1650.017565461494
 30
0.0
  0
POINT
  5
1E0F
330
1C28
100
AcDbEntity
  8
DEFPOINTS
 62
     0
100
AcDbPoint
 10
5208.666539225444
 20
1650.017565461494
 30
0.0
  0
ENDBLK
  5
1C33
330
1C28
100
AcDbEntity
  8
0
100
AcDbBlockEnd
  0
BLOCK
  5
1C44
330
1C3A
100
AcDbEntity
  8
0
100
AcDbBlockBegin
  2
*D44
 70
     1
 10
0.0
 20
0.0
 30
0.0
  3
*D44
  1

  0
LINE
  5
1E10
330
1C3A
100
AcDbEntity
  8
SUNPOU
 62
     0
370
    -2
100
AcDbLine
 10
2823.825394026462
 20
1542.326486313927
 30
0.0
 11
2823.825394026462
 21
1131.394390707308
 31
0.0
  0
LINE
  5
1E11
330
1C3A
100
AcDbEntity
  8
SUNPOU
 62
     0
370
    -2
100
AcDbLine
 10
3423.825394026459
 20
1542.326486313927
 30
0.0
 11
3423.825394026459
 21
1131.394390707308
 31
0.0
  0
LINE
  5
1E12
330
1C3A
100
AcDbEntity
  8
SUNPOU
 62
     0
370
    -2
100
AcDbLine
 10
2883.825394026462
 20
1146.394390707308
 30
0.0
 11
3363.825394026459
 21
1146.394390707308
 31
0.0
  0
SOLID
  5
1E13
330
1C3A
100
AcDbEntity
  8
SUNPOU
 62
     0
100
AcDbTrace
 10
2883.825394026462
 20
1156.394390707308
 30
0.0
 11
2883.825394026462
 21
1136.394390707308
 31
0.0
 12
2823.825394026462
 22
1146.394390707308
 32
0.0
 13
2823.825394026462
 23
1146.394390707308
 33
0.0
  0
SOLID
  5
1E14
330
1C3A
100
AcDbEntity
  8
SUNPOU
 62
     0
100
AcDbTrace
 10
3363.825394026459
 20
1156.394390707308
 30
0.0
 11
3363.825394026459
 21
1136.394390707308
 31
0.0
 12
3423.825394026459
 22
1146.394390707308
 32
0.0
 13
3423.825394026459
 23
1146.394390707308
 33
0.0
  0
MTEXT
  5
1E15
330
1C3A
100
AcDbEntity
  8
SUNPOU
 62
     0
100
AcDbMText
 10
3123.82539402646
 20
1215.394390707308
 30
0.0
 40
90.0
 41
0.0
 71
     5
 72
     1
  1
\A1;600
 73
     1
 44
1.0
  0
POINT
  5
1E16
330
1C3A
100
AcDbEntity
  8
DEFPOINTS
 62
     0
100
AcDbPoint
 10
2823.825394026462
 20
1602.326486313927
 30
0.0
  0
POINT
  5
1E17
330
1C3A
100
AcDbEntity
  8
DEFPOINTS
 62
     0
100
AcDbPoint
 10
3423.825394026459
 20
1602.326486313927
 30
0.0
  0
POINT
  5
1E18
330
1C3A
100
AcDbEntity
  8
DEFPOINTS
 62
     0
100
AcDbPoint
 10
3423.825394026459
 20
1146.394390707308
 30
0.0
  0
ENDBLK
  5
1C45
330
1C3A
100
AcDbEntity
  8
0
100
AcDbBlockEnd
  0
BLOCK
  5
1C50
330
1C46
100
AcDbEntity
  8
0
100
AcDbBlockBegin
  2
*D45
 70
     1
 10
0.0
 20
0.0
 30
0.0
  3
*D45
  1

  0
LINE
  5
1E19
330
1C46
100
AcDbEntity
  8
SUNPOU
 62
     0
370
    -2
100
AcDbLine
 10
3423.825394026459
 20
1542.326486313927
 30
0.0
 11
3423.825394026459
 21
1131.394390707308
 31
0.0
  0
LINE
  5
1E1A
330
1C46
100
AcDbEntity
  8
SUNPOU
 62
     0
370
    -2
100
AcDbLine
 10
3823.825394026462
 20
1542.326486313927
 30
0.0
 11
3823.825394026462
 21
1131.394390707308
 31
0.0
  0
LINE
  5
1E1B
330
1C46
100
AcDbEntity
  8
SUNPOU
 62
     0
370
    -2
100
AcDbLine
 10
3483.825394026459
 20
1146.394390707308
 30
0.0
 11
3763.825394026462
 21
1146.394390707308
 31
0.0
  0
SOLID
  5
1E1C
330
1C46
100
AcDbEntity
  8
SUNPOU
 62
     0
100
AcDbTrace
 10
3483.825394026459
 20
1156.394390707308
 30
0.0
 11
3483.825394026459
 21
1136.394390707308
 31
0.0
 12
3423.825394026459
 22
1146.394390707308
 32
0.0
 13
3423.825394026459
 23
1146.394390707308
 33
0.0
  0
SOLID
  5
1E1D
330
1C46
100
AcDbEntity
  8
SUNPOU
 62
     0
100
AcDbTrace
 10
3763.825394026462
 20
1156.394390707308
 30
0.0
 11
3763.825394026462
 21
1136.394390707308
 31
0.0
 12
3823.825394026462
 22
1146.394390707308
 32
0.0
 13
3823.825394026462
 23
1146.394390707308
 33
0.0
  0
MTEXT
  5
1E1E
330
1C46
100
AcDbEntity
  8
SUNPOU
 62
     0
100
AcDbMText
 10
3623.82539402646
 20
1215.394390707308
 30
0.0
 40
90.0
 41
0.0
 71
     5
 72
     1
  1
\A1;400
 73
     1
 44
1.0
  0
POINT
  5
1E1F
330
1C46
100
AcDbEntity
  8
DEFPOINTS
 62
     0
100
AcDbPoint
 10
3423.825394026459
 20
1602.326486313927
 30
0.0
  0
POINT
  5
1E20
330
1C46
100
AcDbEntity
  8
DEFPOINTS
 62
     0
100
AcDbPoint
 10
3823.825394026462
 20
1602.326486313927
 30
0.0
  0
POINT
  5
1E21
330
1C46
100
AcDbEntity
  8
DEFPOINTS
 62
     0
100
AcDbPoint
 10
3823.825394026462
 20
1146.394390707308
 30
0.0
  0
ENDBLK
  5
1C51
330
1C46
100
AcDbEntity
  8
0
100
AcDbBlockEnd
  0
BLOCK
  5
1C5C
330
1C52
100
AcDbEntity
  8
0
100
AcDbBlockBegin
  2
*D46
 70
     1
 10
0.0
 20
0.0
 30
0.0
  3
*D46
  1

  0
LINE
  5
1E22
330
1C52
100
AcDbEntity
  8
SUNPOU
 62
     0
370
    -2
100
AcDbLine
 10
3823.825394026462
 20
1542.326486313927
 30
0.0
 11
3823.825394026462
 21
1131.394390707308
 31
0.0
  0
LINE
  5
1E23
330
1C52
100
AcDbEntity
  8
SUNPOU
 62
     0
370
    -2
100
AcDbLine
 10
4733.82539402646
 20
1590.017565461494
 30
0.0
 11
4733.82539402646
 21
1131.394390707308
 31
0.0
  0
LINE
  5
1E24
330
1C52
100
AcDbEntity
  8
SUNPOU
 62
     0
370
    -2
100
AcDbLine
 10
3883.825394026462
 20
1146.394390707308
 30
0.0
 11
4673.82539402646
 21
1146.394390707308
 31
0.0
  0
SOLID
  5
1E25
330
1C52
100
AcDbEntity
  8
SUNPOU
 62
     0
100
AcDbTrace
 10
3883.825394026462
 20
1156.394390707308
 30
0.0
 11
3883.825394026462
 21
1136.394390707308
 31
0.0
 12
3823.825394026462
 22
1146.394390707308
 32
0.0
 13
3823.825394026462
 23
1146.394390707308
 33
0.0
  0
SOLID
  5
1E26
330
1C52
100
AcDbEntity
  8
SUNPOU
 62
     0
100
AcDbTrace
 10
4673.82539402646
 20
1156.394390707308
 30
0.0
 11
4673.82539402646
 21
1136.394390707308
 31
0.0
 12
4733.82539402646
 22
1146.394390707308
 32
0.0
 13
4733.82539402646
 23
1146.394390707308
 33
0.0
  0
MTEXT
  5
1E27
330
1C52
100
AcDbEntity
  8
SUNPOU
 62
     0
100
AcDbMText
 10
4278.825394026461
 20
1215.394390707308
 30
0.0
 40
90.0
 41
0.0
 71
     5
 72
     1
  1
\A1;910
 73
     1
 44
1.0
  0
POINT
  5
1E28
330
1C52
100
AcDbEntity
  8
DEFPOINTS
 62
     0
100
AcDbPoint
 10
3823.825394026462
 20
1602.326486313927
 30
0.0
  0
POINT
  5
1E29
330
1C52
100
AcDbEntity
  8
DEFPOINTS
 62
     0
100
AcDbPoint
 10
4733.82539402646
 20
1650.017565461494
 30
0.0
  0
POINT
  5
1E2A
330
1C52
100
AcDbEntity
  8
DEFPOINTS
 62
     0
100
AcDbPoint
 10
4733.82539402646
 20
1146.394390707308
 30
0.0
  0
ENDBLK
  5
1C5D
330
1C52
100
AcDbEntity
  8
0
100
AcDbBlockEnd
  0
BLOCK
  5
1C68
330
1C5E
100
AcDbEntity
  8
0
100
AcDbBlockBegin
  2
*D47
 70
     1
 10
0.0
 20
0.0
 30
0.0
  3
*D47
  1

  0
LINE
  5
1E2B
330
1C5E
100
AcDbEntity
  8
SUNPOU
 62
     0
370
    -2
100
AcDbLine
 10
3423.825394026459
 20
1542.326486313927
 30
0.0
 11
3423.825394026459
 21
1317.255542614763
 31
0.0
  0
LINE
  5
1E2C
330
1C5E
100
AcDbEntity
  8
SUNPOU
 62
     0
370
    -2
100
AcDbLine
 10
3723.825394026462
 20
1542.326486313927
 30
0.0
 11
3723.825394026462
 21
1317.255542614763
 31
0.0
  0
LINE
  5
1E2D
330
1C5E
100
AcDbEntity
  8
SUNPOU
 62
     0
370
    -2
100
AcDbLine
 10
3483.825394026459
 20
1332.255542614763
 30
0.0
 11
3663.825394026462
 21
1332.255542614763
 31
0.0
  0
SOLID
  5
1E2E
330
1C5E
100
AcDbEntity
  8
SUNPOU
 62
     0
100
AcDbTrace
 10
3483.825394026459
 20
1342.255542614763
 30
0.0
 11
3483.825394026459
 21
1322.255542614763
 31
0.0
 12
3423.825394026459
 22
1332.255542614763
 32
0.0
 13
3423.825394026459
 23
1332.255542614763
 33
0.0
  0
SOLID
  5
1E2F
330
1C5E
100
AcDbEntity
  8
SUNPOU
 62
     0
100
AcDbTrace
 10
3663.825394026462
 20
1342.255542614763
 30
0.0
 11
3663.825394026462
 21
1322.255542614763
 31
0.0
 12
3723.825394026462
 22
1332.255542614763
 32
0.0
 13
3723.825394026462
 23
1332.255542614763
 33
0.0
  0
MTEXT
  5
1E30
330
1C5E
100
AcDbEntity
  8
SUNPOU
 62
     0
100
AcDbMText
 10
3573.82539402646
 20
1401.255542614763
 30
0.0
 40
90.0
 41
0.0
 71
     5
 72
     1
  1
\A1;300
 73
     1
 44
1.0
  0
POINT
  5
1E31
330
1C5E
100
AcDbEntity
  8
DEFPOINTS
 62
     0
100
AcDbPoint
 10
3423.825394026459
 20
1602.326486313927
 30
0.0
  0
POINT
  5
1E32
330
1C5E
100
AcDbEntity
  8
DEFPOINTS
 62
     0
100
AcDbPoint
 10
3723.825394026462
 20
1602.326486313927
 30
0.0
  0
POINT
  5
1E33
330
1C5E
100
AcDbEntity
  8
DEFPOINTS
 62
     0
100
AcDbPoint
 10
3723.825394026462
 20
1332.255542614763
 30
0.0
  0
ENDBLK
  5
1C69
330
1C5E
100
AcDbEntity
  8
0
100
AcDbBlockEnd
  0
BLOCK
  5
1C75
330
1C6A
100
AcDbEntity
  8
0
100
AcDbBlockBegin
  2
*D48
 70
     1
 10
0.0
 20
0.0
 30
0.0
  3
*D48
  1

  0
LINE
  5
1E34
330
1C6A
100
AcDbEntity
  8
SUNPOU
 62
     0
370
    -2
100
AcDbLine
 10
3723.825394026462
 20
1542.326486313927
 30
0.0
 11
3723.825394026462
 21
1317.255542614763
 31
0.0
  0
LINE
  5
1E35
330
1C6A
100
AcDbEntity
  8
SUNPOU
 62
     0
370
    -2
100
AcDbLine
 10
3823.825394026462
 20
1542.326486313927
 30
0.0
 11
3823.825394026462
 21
1317.255542614763
 31
0.0
  0
LINE
  5
1E36
330
1C6A
100
AcDbEntity
  8
SUNPOU
 62
     0
370
    -2
100
AcDbLine
 10
3663.825394026462
 20
1332.255542614763
 30
0.0
 11
3603.825394026462
 21
1332.255542614763
 31
0.0
  0
LINE
  5
1E37
330
1C6A
100
AcDbEntity
  8
SUNPOU
 62
     0
370
    -2
100
AcDbLine
 10
3883.825394026462
 20
1332.255542614763
 30
0.0
 11
3943.825394026462
 21
1332.255542614763
 31
0.0
  0
MTEXT
  5
1E38
330
1C6A
100
AcDbEntity
  8
SUNPOU
 62
     0
100
AcDbMText
 10
3810.749230371475
 20
1401.255542614763
 30
0.0
 40
90.0
 41
0.0
 71
     5
 72
     1
  1
\A1;100
 73
     1
 44
1.0
  0
SOLID
  5
1E39
330
1C6A
100
AcDbEntity
  8
SUNPOU
 62
     0
100
AcDbTrace
 10
3663.825394026462
 20
1342.255542614763
 30
0.0
 11
3663.825394026462
 21
1322.255542614763
 31
0.0
 12
3723.825394026462
 22
1332.255542614763
 32
0.0
 13
3723.825394026462
 23
1332.255542614763
 33
0.0
  0
SOLID
  5
1E3A
330
1C6A
100
AcDbEntity
  8
SUNPOU
 62
     0
100
AcDbTrace
 10
3883.825394026462
 20
1342.255542614763
 30
0.0
 11
3883.825394026462
 21
1322.255542614763
 31
0.0
 12
3823.825394026462
 22
1332.255542614763
 32
0.0
 13
3823.825394026462
 23
1332.255542614763
 33
0.0
  0
POINT
  5
1E3B
330
1C6A
100
AcDbEntity
  8
DEFPOINTS
 62
     0
100
AcDbPoint
 10
3723.825394026462
 20
1602.326486313927
 30
0.0
  0
POINT
  5
1E3C
330
1C6A
100
AcDbEntity
  8
DEFPOINTS
 62
     0
100
AcDbPoint
 10
3823.825394026462
 20
1602.326486313927
 30
0.0
  0
POINT
  5
1E3D
330
1C6A
100
AcDbEntity
  8
DEFPOINTS
 62
     0
100
AcDbPoint
 10
3823.825394026462
 20
1332.255542614763
 30
0.0
  0
ENDBLK
  5
1C76
330
1C6A
100
AcDbEntity
  8
0
100
AcDbBlockEnd
  0
BLOCK
  5
1C81
330
1C77
100
AcDbEntity
  8
0
100
AcDbBlockBegin
  2
*D49
 70
     1
 10
0.0
 20
0.0
 30
0.0
  3
*D49
  1

  0
LINE
  5
1E3E
330
1C77
100
AcDbEntity
  8
SUNPOU
 62
     0
370
    -2
100
AcDbLine
 10
2823.825394026462
 20
1542.326486313927
 30
0.0
 11
2823.825394026462
 21
922.1884300443635
 31
0.0
  0
LINE
  5
1E3F
330
1C77
100
AcDbEntity
  8
SUNPOU
 62
     0
370
    -2
100
AcDbLine
 10
4733.82539402646
 20
1590.017565461494
 30
0.0
 11
4733.82539402646
 21
922.1884300443635
 31
0.0
  0
LINE
  5
1E40
330
1C77
100
AcDbEntity
  8
SUNPOU
 62
     0
370
    -2
100
AcDbLine
 10
2883.825394026462
 20
937.1884300443635
 30
0.0
 11
4673.82539402646
 21
937.1884300443635
 31
0.0
  0
SOLID
  5
1E41
330
1C77
100
AcDbEntity
  8
SUNPOU
 62
     0
100
AcDbTrace
 10
2883.825394026462
 20
947.1884300443635
 30
0.0
 11
2883.825394026462
 21
927.1884300443635
 31
0.0
 12
2823.825394026462
 22
937.1884300443635
 32
0.0
 13
2823.825394026462
 23
937.1884300443635
 33
0.0
  0
SOLID
  5
1E42
330
1C77
100
AcDbEntity
  8
SUNPOU
 62
     0
100
AcDbTrace
 10
4673.82539402646
 20
947.1884300443635
 30
0.0
 11
4673.82539402646
 21
927.1884300443635
 31
0.0
 12
4733.82539402646
 22
937.1884300443635
 32
0.0
 13
4733.82539402646
 23
937.1884300443635
 33
0.0
  0
MTEXT
  5
1E43
330
1C77
100
AcDbEntity
  8
SUNPOU
 62
     0
100
AcDbMText
 10
3778.825394026461
 20
1006.188430044363
 30
0.0
 40
90.0
 41
0.0
 71
     5
 72
     1
  1
\A1;1910
 73
     1
 44
1.0
  0
POINT
  5
1E44
330
1C77
100
AcDbEntity
  8
DEFPOINTS
 62
     0
100
AcDbPoint
 10
2823.825394026462
 20
1602.326486313927
 30
0.0
  0
POINT
  5
1E45
330
1C77
100
AcDbEntity
  8
DEFPOINTS
 62
     0
100
AcDbPoint
 10
4733.82539402646
 20
1650.017565461494
 30
0.0
  0
POINT
  5
1E46
330
1C77
100
AcDbEntity
  8
DEFPOINTS
 62
     0
100
AcDbPoint
 10
4733.82539402646
 20
937.1884300443635
 30
0.0
  0
ENDBLK
  5
1C82
330
1C77
100
AcDbEntity
  8
0
100
AcDbBlockEnd
  0
BLOCK
  5
1E5C
330
1E52
100
AcDbEntity
  8
0
100
AcDbBlockBegin
  2
*D50
 70
     1
 10
0.0
 20
0.0
 30
0.0
  3
*D50
  1

  0
LINE
  5
1E53
330
1E52
100
AcDbEntity
  8
SUNPOU
 62
     0
370
    -2
100
AcDbLine
 10
6807.504660476112
 20
1241.264724814735
 30
0.0
 11
6369.191448072524
 21
1241.264724814735
 31
0.0
  0
LINE
  5
1E54
330
1E52
100
AcDbEntity
  8
SUNPOU
 62
     0
370
    -2
100
AcDbLine
 10
6807.504660476114
 20
2801.264724814735
 30
0.0
 11
6369.191448072525
 21
2801.264724814735
 31
0.0
  0
LINE
  5
1E55
330
1E52
100
AcDbEntity
  8
SUNPOU
 62
     0
370
    -2
100
AcDbLine
 10
6384.191448072524
 20
1301.264724814735
 30
0.0
 11
6384.191448072525
 21
2741.264724814735
 31
0.0
  0
SOLID
  5
1E56
330
1E52
100
AcDbEntity
  8
SUNPOU
 62
     0
100
AcDbTrace
 10
6374.191448072524
 20
1301.264724814735
 30
0.0
 11
6394.191448072524
 21
1301.264724814735
 31
0.0
 12
6384.191448072524
 22
1241.264724814735
 32
0.0
 13
6384.191448072524
 23
1241.264724814735
 33
0.0
  0
SOLID
  5
1E57
330
1E52
100
AcDbEntity
  8
SUNPOU
 62
     0
100
AcDbTrace
 10
6374.191448072525
 20
2741.264724814735
 30
0.0
 11
6394.191448072525
 21
2741.264724814735
 31
0.0
 12
6384.191448072525
 22
2801.264724814735
 32
0.0
 13
6384.191448072525
 23
2801.264724814735
 33
0.0
  0
MTEXT
  5
1E58
330
1E52
100
AcDbEntity
  8
SUNPOU
 62
     0
100
AcDbMText
 10
6315.191448072524
 20
2021.264724814736
 30
0.0
 40
90.0
 41
0.0
 71
     5
 72
     1
  1
\A1;1560
 11
6.123031769111886E-17
 21
1.0
 31
0.0
 73
     1
 44
1.0
  0
POINT
  5
1E59
330
1E52
100
AcDbEntity
  8
DEFPOINTS
 62
     0
100
AcDbPoint
 10
6867.504660476112
 20
1241.264724814735
 30
0.0
  0
POINT
  5
1E5A
330
1E52
100
AcDbEntity
  8
DEFPOINTS
 62
     0
100
AcDbPoint
 10
6867.504660476114
 20
2801.264724814735
 30
0.0
  0
POINT
  5
1E5B
330
1E52
100
AcDbEntity
  8
DEFPOINTS
 62
     0
100
AcDbPoint
 10
6384.191448072525
 20
2801.264724814735
 30
0.0
  0
ENDBLK
  5
1E5D
330
1E52
100
AcDbEntity
  8
0
100
AcDbBlockEnd
  0
ENDSEC
  0
SECTION
  2
ENTITIES
  0
TEXT
  5
5F
330
17
100
AcDbEntity
  8
SUNPOU
100
AcDbText
 10
11549.99999999999
 20
480.0
 30
0.0
 40
90.0
  1
30
100
AcDbText
  0
INSERT
  5
60
330
17
100
AcDbEntity
  8
HAIKIN
100
AcDbBlockReference
  2
SA3
 10
510.0
 20
0.0
 30
0.0
 41
30.0
 42
30.0
 43
30.0
  0
LINE
  5
DAE
330
17
100
AcDbEntity
  8
SEIHIN
100
AcDbLine
 10
7617.504660476113
 20
1431.264724814735
 30
0.0
 11
8367.504660476112
 21
1431.264724814735
 31
0.0
  0
LINE
  5
DAF
330
17
100
AcDbEntity
  8
SEIHIN
100
AcDbLine
 10
7617.504660476113
 20
1501.264724814735
 30
0.0
 11
8367.504660476112
 21
1501.264724814735
 31
0.0
  0
LWPOLYLINE
  5
DB0
330
17
100
AcDbEntity
  8
SEIHIN
100
AcDbPolyline
 90
        2
 70
     0
 43
0.0
 10
6867.504660476114
 20
2801.264724814735
 10
8367.504660476112
 20
2801.264724814735
  0
LWPOLYLINE
  5
DB1
330
17
100
AcDbEntity
  8
SEIHIN
100
AcDbPolyline
 90
        2
 70
     0
 43
0.0
 10
6870.125049440265
 20
2851.264724814735
 10
8364.88427151196
 20
2851.264724814735
  0
LINE
  5
DB2
330
17
100
AcDbEntity
  8
SEIHIN
  6
DASHED2
 62
     7
 48
2.0
100
AcDbLine
 10
8090.323452422422
 20
2401.264724814735
 30
0.0
 11
7894.685868529804
 21
2401.264724814735
 31
0.0
  0
LINE
  5
DB3
330
17
100
AcDbEntity
  8
SEIHIN
  6
DASHED2
 62
     7
 48
2.0
100
AcDbLine
 10
7340.323452422422
 20
2401.264724814735
 30
0.0
 11
7144.685868529804
 21
2401.264724814735
 31
0.0
  0
LINE
  5
DB5
330
17
100
AcDbEntity
  8
SEIHIN
100
AcDbLine
 10
7617.504660476114
 20
4831.415242119016
 30
0.0
 11
8367.504660476114
 21
4831.415242119016
 31
0.0
  0
LWPOLYLINE
  5
DBA
330
17
100
AcDbEntity
  8
SEIHIN
100
AcDbPolyline
 90
        4
 70
     0
 43
0.0
 10
7617.504660476114
 20
6876.415242119016
 10
7934.654660476113
 20
6876.415242119016
 10
7882.504660476116
 20
6862.411819363314
 10
7617.504660476115
 20
6862.411819363314
  0
LINE
  5
DBB
330
17
100
AcDbEntity
  8
SEIHIN
100
AcDbLine
 10
7937.504660476116
 20
6846.415242119015
 30
0.0
 11
7934.654660476115
 21
6876.415242119016
 31
0.0
  0
LINE
  5
DBC
330
17
100
AcDbEntity
  8
SEIHIN
100
AcDbLine
 10
8050.354660476119
 20
6876.415242119015
 30
0.0
 11
8047.504660476116
 21
6846.415242119015
 31
0.0
  0
LWPOLYLINE
  5
DBD
330
17
100
AcDbEntity
  8
SEIHIN
100
AcDbPolyline
 90
        6
 70
     0
 43
0.0
 10
8102.504660476116
 20
6862.411819363313
 10
8102.504660476113
 20
5133.152586370361
 10
8072.004660476116
 20
4839.947777032079
 10
7913.004660476116
 20
4839.947777032079
 10
7882.504660476114
 20
5133.152586370361
 10
7882.504660476116
 20
6862.411819363314
  0
LWPOLYLINE
  5
DBE
330
17
100
AcDbEntity
  8
SEIHIN
100
AcDbPolyline
 90
        4
 70
     0
 43
0.0
 10
8367.504660476116
 20
6876.415242119016
 10
8050.354660476117
 20
6876.415242119016
 10
8102.504660476116
 20
6862.411819363314
 10
8367.504660476117
 20
6862.411819363314
  0
LINE
  5
DBF
330
17
100
AcDbEntity
  8
SEIHIN
 62
     5
100
AcDbLine
 10
7902.504660476113
 20
6530.952832380563
 30
0.0
 11
8082.504660476113
 21
6530.952832380563
 31
0.0
  0
LWPOLYLINE
  5
DC0
330
17
100
AcDbEntity
  8
SEIHIN
  6
DASHED2
 62
     7
 48
2.0
100
AcDbPolyline
 90
        4
 70
     0
 43
0.0
 10
2313.825394026459
 20
7111.415242119015
 10
2323.825394026459
 20
6911.415242119015
 10
2403.825394026459
 20
6911.415242119015
 10
2413.825394026459
 20
7111.415242119015
  0
CIRCLE
  5
DC5
330
17
100
AcDbEntity
  8
SUNPOU
100
AcDbCircle
 10
7617.504660476113
 20
1536.264724814735
 30
0.0
 40
11.0
  0
CIRCLE
  5
DC6
330
17
100
AcDbEntity
  8
SEIHIN
100
AcDbCircle
 10
7617.504660476115
 20
5161.415242119016
 30
0.0
 40
35.0
  0
CIRCLE
  5
DC7
330
17
100
AcDbEntity
  8
SEIHIN
 62
     1
100
AcDbCircle
 10
7617.504660476115
 20
5161.415242119016
 30
0.0
 40
25.0
  0
CIRCLE
  5
DC8
330
17
100
AcDbEntity
  8
SUNPOU
100
AcDbCircle
 10
7837.504660476115
 20
6591.415242119016
 30
0.0
 40
11.0
  0
LWPOLYLINE
  5
DC9
330
17
100
AcDbEntity
  8
SEIHIN
 48
2.0
100
AcDbPolyline
 90
        6
 70
     0
 43
0.0
 10
2873.82539402646
 20
4831.415242119016
 10
3554.062040685607
 20
4935.451435137475
 42
0.3704296647521173
 10
3723.825394026459
 20
5133.152586370364
 10
3723.82539402646
 20
6762.437361792904
 42
0.4112076825856629
 10
3624.852737067818
 20
6862.432084485031
 10
2263.825394026459
 20
6876.415242119017
  0
LINE
  5
DCA
330
17
100
AcDbEntity
  8
1HASEN
100
AcDbLine
 10
7617.504660476113
 20
977.0391035645762
 30
0.0
 11
7617.504660476114
 21
3814.225638028307
 31
0.0
  0
LWPOLYLINE
  5
DCB
330
17
100
AcDbEntity
  8
SEIHIN
100
AcDbPolyline
 90
        2
 70
     0
 43
0.0
 10
7657.504651441338
 20
1291.264724814735
 10
7617.504660476113
 20
1291.264724814735
 42
-0.9999999999999999
  0
LWPOLYLINE
  5
DCC
330
17
100
AcDbEntity
  8
SEIHIN
100
AcDbPolyline
 90
        3
 70
     0
 43
0.0
 10
7617.504660476113
 20
1391.264724814735
 10
7657.504651441338
 20
1391.264724814735
 42
-1.000000180695494
 10
7657.504651441338
 20
1291.264724814735
  0
LWPOLYLINE
  5
DCD
330
17
100
AcDbEntity
  8
SEIHIN
 48
2.0
100
AcDbPolyline
 90
        3
 70
     0
 43
0.0
 10
7617.504660476114
 20
1391.264724814735
 10
7577.504669510888
 20
1391.264724814735
 42
1.000000180695494
 10
7577.504669510888
 20
1291.264724814735
  0
LWPOLYLINE
  5
DCE
330
17
100
AcDbEntity
  8
SEIHIN
100
AcDbPolyline
 90
        2
 70
     0
 43
0.0
 10
7577.504669510888
 20
1291.264724814735
 10
7617.504660476114
 20
1291.264724814735
 42
0.9999999999999999
  0
LINE
  5
DCF
330
17
100
AcDbEntity
  8
1HASEN
100
AcDbLine
 10
2549.922063735577
 20
2352.326486313927
 30
0.0
 11
5011.740191104967
 21
2352.326486313927
 31
0.0
  0
LWPOLYLINE
  5
DD1
330
17
100
AcDbEntity
  8
SEIHIN
  6
DASHED2
 62
     7
 48
2.0
100
AcDbPolyline
 90
        2
 70
     0
 43
0.0
 10
3823.825394026462
 20
3102.326486313927
 10
3823.825394026462
 20
1602.326486313927
  0
LINE
  5
DD2
330
17
100
AcDbEntity
  8
1HASEN
100
AcDbLine
 10
7617.504660476114
 20
7189.659443504584
 30
0.0
 11
7617.504660476114
 21
4658.923769308694
 31
0.0
  0
LWPOLYLINE
  5
DD4
330
17
100
AcDbEntity
  8
SEIHIN
  6
DASHED2
 62
     7
 48
2.0
100
AcDbPolyline
 90
        3
 70
     0
 43
0.0
 10
7707.504660476114
 20
7111.415242119017
 10
7697.504660476113
 20
6911.415242119017
 10
7617.504660476114
 20
6911.415242119017
  0
LINE
  5
DD7
330
17
100
AcDbEntity
  8
SUNPOU
100
AcDbLine
 10
7882.504660476114
 20
5133.152586370361
 30
0.0
 11
7638.149812207935
 21
5133.152586370365
 31
0.0
  0
LINE
  5
DD8
330
17
100
AcDbEntity
  8
SUNPOU
100
AcDbLine
 10
8102.504660476113
 20
5133.152586370363
 30
0.0
 11
8367.504660476116
 21
5133.152586370364
 31
0.0
  0
INSERT
  5
DDB
330
17
100
AcDbEntity
  8
SUNPOU
100
AcDbBlockReference
  2
FG
 10
8367.504660476116
 20
5211.415242119016
 30
0.0
  0
LWPOLYLINE
  5
DDC
330
17
100
AcDbEntity
  8
SEIHIN
100
AcDbPolyline
 90
       17
 70
     1
 43
0.0
 10
2873.82539402646
 20
4831.415242119016
 10
2956.976172339111
 20
4844.132419978597
 42
0.3704296647521193
 10
3423.825394026459
 20
5387.810585869043
 10
3423.825394026459
 20
6530.952832380563
 42
0.3884789017169858
 10
3214.189545791732
 20
6760.049539739882
 10
2298.82539402646
 20
6841.415242119016
 10
2263.825394026459
 20
6876.415242119017
 10
2263.825394026459
 20
7111.415242119017
 10
2453.825394026459
 20
7111.415242119017
 10
2523.825394026459
 20
6961.415242119016
 10
3823.825394026459
 20
6961.415242119016
 10
3823.825394026459
 20
5011.415242119015
 10
3873.110256865709
 20
4952.988956168709
 10
4733.82539402646
 20
4853.960696664468
 10
4733.82539402646
 20
4711.415242119016
 10
2823.825394026459
 20
4711.415242119016
 10
2823.82539402646
 20
4831.415242119016
  0
LWPOLYLINE
  5
DDD
330
17
100
AcDbEntity
  8
SEIHIN
  6
DASHED2
 62
     7
 48
2.0
100
AcDbPolyline
 90
        6
 70
     0
 43
0.0
 10
3723.825394026462
 20
1602.326486313927
 10
3723.825394026462
 20
1867.433868864262
 10
3088.82539402646
 20
1891.873466179698
 10
3088.82539402646
 20
2062.779506448154
 10
3723.825394026462
 20
2087.219103763591
 10
3723.825394026462
 20
2352.326486313927
  0
LINE
  5
DDF
330
17
100
AcDbEntity
  8
SUNPOU
 62
     5
100
AcDbLine
 10
7902.504660476114
 20
5387.810585869042
 30
0.0
 11
8082.504660476114
 21
5387.810585869042
 31
0.0
  0
LWPOLYLINE
  5
DE1
330
17
100
AcDbEntity
  8
SEIHIN
100
AcDbPolyline
 90
        8
 70
     0
 43
0.0
 10
8072.004660476116
 20
4839.947777032079
 10
8082.504660476114
 20
5133.152586370361
 10
8082.504660476116
 20
6762.437361792904
 10
8047.504660476116
 20
6846.415242119015
 10
7937.504660476116
 20
6846.415242119014
 10
7902.504660476116
 20
6762.437361792905
 10
7902.504660476113
 20
5133.152586370361
 10
7913.004660476116
 20
4839.947777032079
  0
LWPOLYLINE
  5
DE2
330
17
100
AcDbEntity
  8
SEIHIN
  6
DASHED2
 62
     7
 48
2.0
100
AcDbPolyline
 90
       10
 70
     0
 43
0.0
 10
6867.504660476114
 20
2701.264724814735
 10
7132.612043026449
 20
2701.264724814735
 10
7187.504660476113
 20
1241.264724814735
 10
7297.504660476113
 20
1241.264724814735
 10
7352.397277925777
 20
2701.264724814735
 10
7882.612043026449
 20
2701.264724814735
 10
7937.504660476113
 20
1241.264724814735
 10
8047.504660476113
 20
1241.264724814735
 10
8102.397277925777
 20
2701.264724814735
 10
8367.504660476112
 20
2701.264724814735
  0
CIRCLE
  5
DE3
330
17
100
AcDbEntity
  8
SEIHIN
 62
     1
100
AcDbCircle
 10
7617.504660476114
 20
6047.915242119017
 30
0.0
 40
25.0
  0
CIRCLE
  5
DE4
330
17
100
AcDbEntity
  8
SEIHIN
100
AcDbCircle
 10
7617.504660476114
 20
6047.915242119017
 30
0.0
 40
35.0
  0
LWPOLYLINE
  5
DE5
330
17
100
AcDbEntity
  8
SEIHIN
100
AcDbPolyline
 90
        6
 70
     1
 43
0.0
 10
8319.813581328544
 20
3711.264724814736
 10
6915.195739623681
 20
3711.264724814736
 10
6867.504660476114
 20
2801.264724814736
 10
6867.504660476113
 20
1241.264724814735
 10
8367.504660476112
 20
1241.264724814735
 10
8367.504660476112
 20
2801.264724814734
  0
LWPOLYLINE
  5
DE6
330
17
100
AcDbEntity
  8
SEIHIN
100
AcDbPolyline
 90
        6
 70
     1
 43
0.0
 10
4733.82539402646
 20
1650.017565461494
 10
4733.82539402646
 20
3054.635407166359
 10
3823.825394026463
 20
3102.326486313927
 10
2823.825394026462
 20
3102.326486313927
 10
2823.825394026461
 20
1602.326486313927
 10
3823.825394026463
 20
1602.326486313927
  0
TEXT
  5
DF0
330
17
100
AcDbEntity
  8
SUNPOU
100
AcDbText
 10
10254.6554840521
 20
955.0091157608263
 30
0.0
 40
78.0
  1
ロードエル
100
AcDbText
  0
TEXT
  5
DF1
330
17
100
AcDbEntity
  8
SUNPOU
100
AcDbText
 10
10769.86850892367
 20
955.0091157608263
 30
0.0
 40
78.0
  1
Ｈ＝２２５０
100
AcDbText
  0
TEXT
  5
DF2
330
17
100
AcDbEntity
  8
SUNPOU
100
AcDbText
 10
11495.22849743578
 20
955.0091157608263
 30
0.0
 40
78.0
  1
(μ=0.6)
 41
0.8
100
AcDbText
  0
DIMENSION
  5
1533
330
17
100
AcDbEntity
  8
SUNPOU
100
AcDbDimension
  2
*D11
 10
4733.82539402646
 20
7701.505240529448
 30
0.0
 11
4278.82539402646
 21
7770.505240529448
 31
0.0
 70
    32
 71
     5
 42
910.0000000000009
  3
A3-30
100
AcDbAlignedDimension
 13
3823.825394026459
 23
6961.415242119016
 33
0.0
 14
4733.82539402646
 24
6965.632475529314
 34
0.0
100
AcDbRotatedDimension
  0
DIMENSION
  5
1549
330
17
100
AcDbEntity
  8
SUNPOU
100
AcDbDimension
  2
*D12
 10
2263.825394026459
 20
7701.505240529448
 30
0.0
 11
3043.825394026459
 21
7770.505240529448
 31
0.0
 70
    32
 71
     5
 42
1560.0
  3
A3-30
100
AcDbAlignedDimension
 13
3823.825394026459
 23
6961.415242119016
 33
0.0
 14
2263.825394026459
 24
7111.415242119017
 34
0.0
100
AcDbRotatedDimension
  0
DIMENSION
  5
1556
330
17
100
AcDbEntity
  8
SUNPOU
100
AcDbDimension
  2
*D13
 10
2453.825394026459
 20
7337.538044271038
 30
0.0
 11
2358.825394026459
 21
7406.538044271038
 31
0.0
 70
   160
 71
     5
 42
190.0
  3
A3-30
100
AcDbAlignedDimension
 13
2263.825394026459
 23
7111.415242119017
 33
0.0
 14
2453.825394026459
 24
7111.415242119017
 34
0.0
100
AcDbRotatedDimension
  0
DIMENSION
  5
1564
330
17
100
AcDbEntity
  8
SUNPOU
100
AcDbDimension
  2
*D14
 10
2523.825394026459
 20
7337.538044271038
 30
0.0
 11
2511.866204384067
 21
7406.538044271038
 31
0.0
 70
   160
 71
     5
 42
70.0
  3
A3-30
100
AcDbAlignedDimension
 13
2453.825394026459
 23
7111.415242119017
 33
0.0
 14
2523.825394026459
 24
6961.415242119016
 34
0.0
100
AcDbRotatedDimension
  0
DIMENSION
  5
1572
330
17
100
AcDbEntity
  8
SUNPOU
100
AcDbDimension
  2
*D15
 10
2523.825394026459
 20
7523.04749187356
 30
0.0
 11
2393.825394026459
 21
7592.04749187356
 31
0.0
 70
    32
 71
     5
 42
260.0
  3
A3-30
100
AcDbAlignedDimension
 13
2263.825394026459
 23
7111.415242119017
 33
0.0
 14
2523.825394026459
 24
6961.415242119016
 34
0.0
100
AcDbRotatedDimension
  0
DIMENSION
  5
157F
330
17
100
AcDbEntity
  8
SUNPOU
100
AcDbDimension
  2
*D16
 10
3823.825394026459
 20
7523.04749187356
 30
0.0
 11
3173.825394026459
 21
7592.04749187356
 31
0.0
 70
    32
 71
     5
 42
1300.0
  3
A3-30
100
AcDbAlignedDimension
 13
2523.825394026459
 23
6961.415242119016
 33
0.0
 14
3823.825394026459
 24
6961.415242119016
 34
0.0
100
AcDbRotatedDimension
  0
DIMENSION
  5
15BA
330
17
100
AcDbEntity
  8
SUNPOU
100
AcDbDimension
  2
*D17
 10
1774.851475742391
 20
6961.415242119017
 30
0.0
 11
1705.85147574239
 21
7036.415242119017
 31
0.0
 70
    32
 71
     5
 42
150.0000000000009
  3
A3-30
100
AcDbAlignedDimension
 13
2263.825394026459
 23
7111.415242119017
 33
0.0
 14
2263.825394026459
 24
6961.415242119016
 34
0.0
 50
90.0
100
AcDbRotatedDimension
  0
DIMENSION
  5
15C8
330
17
100
AcDbEntity
  8
SUNPOU
100
AcDbDimension
  2
*D18
 10
1774.85147574239
 20
4711.415242119017
 30
0.0
 11
1705.85147574239
 21
5836.415242119017
 31
0.0
 70
    32
 71
     5
 42
2250.0
  3
A3-30
100
AcDbAlignedDimension
 13
2263.825394026459
 23
6961.415242119016
 33
0.0
 14
2823.825394026459
 24
4711.415242119016
 34
0.0
 50
90.0
100
AcDbRotatedDimension
  0
DIMENSION
  5
15E8
330
17
100
AcDbEntity
  8
SUNPOU
100
AcDbDimension
  2
*D19
 10
3423.825394026459
 20
4225.601695150814
 30
0.0
 11
3123.825394026459
 21
4294.601695150814
 31
0.0
 70
    32
 71
     5
 42
599.9999999999991
  3
A3-30
100
AcDbAlignedDimension
 13
2823.825394026459
 23
4711.415242119016
 33
0.0
 14
3423.825394026459
 24
4711.415242119016
 34
0.0
100
AcDbRotatedDimension
  0
DIMENSION
  5
15F5
330
17
100
AcDbEntity
  8
SUNPOU
100
AcDbDimension
  2
*D20
 10
3823.825394026459
 20
4225.601695150814
 30
0.0
 11
3623.825394026459
 21
4294.601695150814
 31
0.0
 70
    32
 71
     5
 42
400.0000000000005
  3
A3-30
100
AcDbAlignedDimension
 13
3423.825394026459
 23
4711.415242119016
 33
0.0
 14
3823.825394026459
 24
4711.415242119016
 34
0.0
100
AcDbRotatedDimension
  0
DIMENSION
  5
1602
330
17
100
AcDbEntity
  8
SUNPOU
100
AcDbDimension
  2
*D21
 10
4733.82539402646
 20
4225.601695150814
 30
0.0
 11
4278.825394026459
 21
4294.601695150814
 31
0.0
 70
    32
 71
     5
 42
910.0000000000014
  3
A3-30
100
AcDbAlignedDimension
 13
3823.825394026459
 23
4711.415242119016
 33
0.0
 14
4733.82539402646
 24
4711.415242119016
 34
0.0
100
AcDbRotatedDimension
  0
DIMENSION
  5
1633
330
17
100
AcDbEntity
  8
SUNPOU
100
AcDbDimension
  2
*D22
 10
3723.825394026459
 20
4418.76151033134
 30
0.0
 11
3773.825394026459
 21
4487.76151033134
 31
0.0
 70
    32
 71
     5
 42
99.99999999999955
  3
A3-30
100
AcDbAlignedDimension
 13
3823.825394026459
 23
4711.415242119016
 33
0.0
 14
3723.825394026459
 24
4711.415242119016
 34
0.0
100
AcDbRotatedDimension
  0
DIMENSION
  5
1641
330
17
100
AcDbEntity
  8
SUNPOU
100
AcDbDimension
  2
*D23
 10
3423.825394026459
 20
4418.76151033134
 30
0.0
 11
3573.825394026459
 21
4487.76151033134
 31
0.0
 70
    32
 71
     5
 42
300.0000000000009
  3
A3-30
100
AcDbAlignedDimension
 13
3723.825394026459
 23
4711.415242119016
 33
0.0
 14
3423.825394026459
 24
4711.415242119016
 34
0.0
100
AcDbRotatedDimension
  0
DIMENSION
  5
1661
330
17
100
AcDbEntity
  8
SUNPOU
100
AcDbDimension
  2
*D24
 10
4733.82539402646
 20
4031.259944938836
 30
0.0
 11
3778.82539402646
 21
4100.259944938836
 31
0.0
 70
    32
 71
     5
 42
1910.000000000001
  3
A3-30
100
AcDbAlignedDimension
 13
2823.825394026459
 23
4711.415242119016
 33
0.0
 14
4733.82539402646
 24
4711.415242119016
 34
0.0
100
AcDbRotatedDimension
  0
TEXT
  5
16EF
330
17
100
AcDbEntity
  8
SUNPOU
100
AcDbText
 10
1259.980612990245
 20
7711.437311286571
 30
0.0
 40
100.0
  1
側 面 図
 72
     1
 11
1483.313946323578
 21
7711.437311286571
 31
0.0
100
AcDbText
  0
LWPOLYLINE
  5
16F0
330
17
100
AcDbEntity
  8
SUNPOU
100
AcDbPolyline
 90
        4
 70
     1
 43
0.0
 10
1211.420710927153
 20
7847.892785449778
 10
1772.163209271543
 20
7847.892785449778
 10
1772.163209271543
 20
7676.189762428028
 10
1211.420710927153
 20
7676.189762428028
  0
LINE
  5
16F2
330
17
100
AcDbEntity
  8
SEIHIN
100
AcDbLine
 10
7617.504660476115
 20
7111.415242119017
 30
0.0
 11
8361.504660476114
 21
7111.415242119016
 31
0.0
  0
LINE
  5
16F3
330
17
100
AcDbEntity
  8
SEIHIN
100
AcDbLine
 10
8361.504660476114
 20
7111.415242119016
 30
0.0
 11
8361.504660476114
 21
6946.415242119016
 31
0.0
  0
LINE
  5
16F4
330
17
100
AcDbEntity
  8
SEIHIN
100
AcDbLine
 10
8361.504660476114
 20
6946.415242119016
 30
0.0
 11
8355.504660476114
 21
6942.915242119017
 31
0.0
  0
LINE
  5
16F5
330
17
100
AcDbEntity
  8
SEIHIN
100
AcDbLine
 10
8355.504660476114
 20
6942.915242119017
 30
0.0
 11
8355.504660476114
 21
6930.915242119017
 31
0.0
  0
LINE
  5
16F6
330
17
100
AcDbEntity
  8
SEIHIN
100
AcDbLine
 10
8355.504660476114
 20
6930.915242119017
 30
0.0
 11
8361.504660476114
 21
6927.415242119016
 31
0.0
  0
LINE
  5
16F7
330
17
100
AcDbEntity
  8
SEIHIN
100
AcDbLine
 10
8361.504660476114
 20
6927.415242119016
 30
0.0
 11
8361.504660476114
 21
6918.915242119017
 31
0.0
  0
LINE
  5
16F8
330
17
100
AcDbEntity
  8
SEIHIN
100
AcDbLine
 10
8361.504660476114
 20
6918.915242119017
 30
0.0
 11
8355.504660476114
 21
6915.415242119016
 31
0.0
  0
LINE
  5
16F9
330
17
100
AcDbEntity
  8
SEIHIN
100
AcDbLine
 10
8355.504660476114
 20
6915.415242119016
 30
0.0
 11
8355.504660476114
 21
6909.415242119016
 31
0.0
  0
LINE
  5
16FA
330
17
100
AcDbEntity
  8
SEIHIN
100
AcDbLine
 10
8355.504660476114
 20
6909.415242119016
 30
0.0
 11
8367.504660476114
 21
6906.415242119017
 31
0.0
  0
LINE
  5
16FB
330
17
100
AcDbEntity
  8
SEIHIN
100
AcDbLine
 10
8367.504660476114
 20
6906.415242119017
 30
0.0
 11
8367.504660476114
 21
4711.415242119016
 31
0.0
  0
LINE
  5
16FC
330
17
100
AcDbEntity
  8
SEIHIN
100
AcDbLine
 10
8367.504660476114
 20
4711.415242119016
 30
0.0
 11
6867.504660476114
 21
4711.415242119016
 31
0.0
  0
LINE
  5
1708
330
17
100
AcDbEntity
  8
SEIHIN
100
AcDbLine
 10
7617.504660476114
 20
4831.415242119016
 30
0.0
 11
6867.504660476114
 21
4831.415242119016
 31
0.0
  0
LWPOLYLINE
  5
1709
330
17
100
AcDbEntity
  8
SEIHIN
100
AcDbPolyline
 90
        4
 70
     0
 43
0.0
 10
7617.504660476114
 20
6876.415242119016
 10
7300.354660476114
 20
6876.415242119016
 10
7352.504660476112
 20
6862.411819363314
 10
7617.504660476113
 20
6862.411819363314
  0
LINE
  5
170A
330
17
100
AcDbEntity
  8
SEIHIN
100
AcDbLine
 10
7297.504660476112
 20
6846.415242119015
 30
0.0
 11
7300.354660476112
 21
6876.415242119016
 31
0.0
  0
LINE
  5
170B
330
17
100
AcDbEntity
  8
SEIHIN
100
AcDbLine
 10
7184.654660476109
 20
6876.415242119015
 30
0.0
 11
7187.504660476112
 21
6846.415242119015
 31
0.0
  0
LWPOLYLINE
  5
170C
330
17
100
AcDbEntity
  8
SEIHIN
100
AcDbPolyline
 90
        6
 70
     0
 43
0.0
 10
7132.504660476111
 20
6862.411819363313
 10
7132.504660476115
 20
5133.152586370361
 10
7163.004660476112
 20
4839.947777032079
 10
7322.004660476112
 20
4839.947777032079
 10
7352.504660476114
 20
5133.152586370361
 10
7352.504660476112
 20
6862.411819363314
  0
LWPOLYLINE
  5
170D
330
17
100
AcDbEntity
  8
SEIHIN
100
AcDbPolyline
 90
        4
 70
     0
 43
0.0
 10
6867.504660476111
 20
6876.415242119016
 10
7184.654660476111
 20
6876.415242119016
 10
7132.504660476111
 20
6862.411819363314
 10
6867.50466047611
 20
6862.411819363314
  0
LINE
  5
170E
330
17
100
AcDbEntity
  8
SEIHIN
 62
     5
100
AcDbLine
 10
7332.504660476115
 20
6530.952832380563
 30
0.0
 11
7152.504660476115
 21
6530.952832380563
 31
0.0
  0
CIRCLE
  5
170F
330
17
100
AcDbEntity
  8
SUNPOU
100
AcDbCircle
 10
7397.504660476113
 20
6591.415242119016
 30
0.0
 40
11.0
  0
LINE
  5
1710
330
17
100
AcDbEntity
  8
SEIHIN
100
AcDbLine
 10
7617.504660476113
 20
7111.415242119017
 30
0.0
 11
6873.504660476114
 21
7111.415242119016
 31
0.0
  0
LINE
  5
1711
330
17
100
AcDbEntity
  8
SEIHIN
100
AcDbLine
 10
6873.504660476114
 20
7111.415242119016
 30
0.0
 11
6873.504660476114
 21
6946.415242119016
 31
0.0
  0
LINE
  5
1712
330
17
100
AcDbEntity
  8
SEIHIN
100
AcDbLine
 10
6873.504660476114
 20
6946.415242119016
 30
0.0
 11
6879.504660476114
 21
6942.915242119017
 31
0.0
  0
LINE
  5
1713
330
17
100
AcDbEntity
  8
SEIHIN
100
AcDbLine
 10
6879.504660476114
 20
6942.915242119017
 30
0.0
 11
6879.504660476114
 21
6930.915242119017
 31
0.0
  0
LINE
  5
1714
330
17
100
AcDbEntity
  8
SEIHIN
100
AcDbLine
 10
6879.504660476114
 20
6930.915242119017
 30
0.0
 11
6873.504660476114
 21
6927.415242119016
 31
0.0
  0
LINE
  5
1715
330
17
100
AcDbEntity
  8
SEIHIN
100
AcDbLine
 10
6873.504660476114
 20
6927.415242119016
 30
0.0
 11
6873.504660476114
 21
6918.915242119017
 31
0.0
  0
LINE
  5
1716
330
17
100
AcDbEntity
  8
SEIHIN
100
AcDbLine
 10
6873.504660476114
 20
6918.915242119017
 30
0.0
 11
6879.504660476114
 21
6915.415242119016
 31
0.0
  0
LINE
  5
1717
330
17
100
AcDbEntity
  8
SEIHIN
100
AcDbLine
 10
6879.504660476114
 20
6915.415242119016
 30
0.0
 11
6879.504660476114
 21
6909.415242119016
 31
0.0
  0
LINE
  5
1718
330
17
100
AcDbEntity
  8
SEIHIN
100
AcDbLine
 10
6879.504660476114
 20
6909.415242119016
 30
0.0
 11
6867.504660476114
 21
6906.415242119017
 31
0.0
  0
LINE
  5
1719
330
17
100
AcDbEntity
  8
SEIHIN
100
AcDbLine
 10
6867.504660476114
 20
6906.415242119017
 30
0.0
 11
6867.504660476114
 21
4711.415242119016
 31
0.0
  0
LINE
  5
171A
330
17
100
AcDbEntity
  8
SEIHIN
100
AcDbLine
 10
6867.504660476114
 20
4711.415242119016
 30
0.0
 11
8367.504660476114
 21
4711.415242119016
 31
0.0
  0
LWPOLYLINE
  5
171B
330
17
100
AcDbEntity
  8
SEIHIN
  6
DASHED2
 62
     7
 48
2.0
100
AcDbPolyline
 90
        3
 70
     0
 43
0.0
 10
7527.504660476114
 20
7111.415242119017
 10
7537.504660476115
 20
6911.415242119017
 10
7617.504660476114
 20
6911.415242119017
  0
LINE
  5
171C
330
17
100
AcDbEntity
  8
SUNPOU
100
AcDbLine
 10
7352.504660476114
 20
5133.152586370361
 30
0.0
 11
7596.859508744293
 21
5133.152586370365
 31
0.0
  0
LINE
  5
171D
330
17
100
AcDbEntity
  8
SUNPOU
100
AcDbLine
 10
7132.504660476115
 20
5133.152586370363
 30
0.0
 11
6867.504660476112
 21
5133.152586370364
 31
0.0
  0
INSERT
  5
171E
330
17
100
AcDbEntity
  8
SUNPOU
100
AcDbBlockReference
  2
FG
 10
6867.504660476111
 20
5211.415242119016
 30
0.0
 41
-1.0
  0
LINE
  5
171F
330
17
100
AcDbEntity
  8
SUNPOU
 62
     5
100
AcDbLine
 10
7332.504660476114
 20
5387.810585869042
 30
0.0
 11
7152.504660476114
 21
5387.810585869042
 31
0.0
  0
LWPOLYLINE
  5
1720
330
17
100
AcDbEntity
  8
SEIHIN
100
AcDbPolyline
 90
        8
 70
     0
 43
0.0
 10
7163.004660476111
 20
4839.947777032079
 10
7152.504660476114
 20
5133.152586370361
 10
7152.504660476112
 20
6762.437361792904
 10
7187.504660476112
 20
6846.415242119015
 10
7297.504660476112
 20
6846.415242119014
 10
7332.504660476112
 20
6762.437361792905
 10
7332.504660476115
 20
5133.152586370361
 10
7322.004660476112
 20
4839.947777032079
  0
DIMENSION
  5
1721
330
17
100
AcDbEntity
  8
SUNPOU
100
AcDbDimension
  2
*D25
 10
6465.849117220778
 20
6961.415242119016
 30
0.0
 11
6396.849117220776
 21
7036.415242119017
 31
0.0
 70
    32
 71
     5
 42
150.0
  3
A3-30
100
AcDbAlignedDimension
 13
6873.504660476114
 23
7111.415242119016
 33
0.0
 14
6873.504660476114
 24
6961.415242119016
 34
0.0
 50
90.0
100
AcDbRotatedDimension
  0
DIMENSION
  5
1722
330
17
100
AcDbEntity
  8
SUNPOU
100
AcDbDimension
  2
*D26
 10
6465.849117220778
 20
4711.415242119016
 30
0.0
 11
6396.849117220777
 21
5836.415242119017
 31
0.0
 70
    32
 71
     5
 42
2250.0
  3
A3-30
100
AcDbAlignedDimension
 13
6873.504660476114
 23
6961.415242119016
 33
0.0
 14
6867.504660476114
 24
4711.415242119016
 34
0.0
 50
90.0
100
AcDbRotatedDimension
  0
DIMENSION
  5
1723
330
17
100
AcDbEntity
  8
SUNPOU
100
AcDbDimension
  2
*D27
 10
8367.504660476114
 20
7701.505240529448
 30
0.0
 11
7617.504660476114
 21
7770.505240529448
 31
0.0
 70
    32
 71
     5
 42
1500.0
  3
A3-30
100
AcDbAlignedDimension
 13
6867.504660476114
 23
7111.415242119017
 33
0.0
 14
8367.504660476114
 24
7111.415242119017
 34
0.0
100
AcDbRotatedDimension
  0
DIMENSION
  5
1724
330
17
100
AcDbEntity
  8
SUNPOU
100
AcDbDimension
  2
*D28
 10
7242.504660476114
 20
7485.982562902471
 30
0.0
 11
7055.004660476114
 21
7554.982562902471
 31
0.0
 70
    32
 71
     5
 42
375.0
  3
A3-30
100
AcDbAlignedDimension
 13
6867.504660476114
 23
7111.415242119017
 33
0.0
 14
7242.504660476114
 24
7111.415242119017
 34
0.0
100
AcDbRotatedDimension
  0
DIMENSION
  5
1725
330
17
100
AcDbEntity
  8
SUNPOU
100
AcDbDimension
  2
*D29
 10
7992.504660476114
 20
7485.982562902471
 30
0.0
 11
7617.504660476114
 21
7554.982562902471
 31
0.0
 70
    32
 71
     5
 42
750.0
  3
A3-30
100
AcDbAlignedDimension
 13
7242.504660476114
 23
7111.415242119017
 33
0.0
 14
7992.504660476114
 24
7111.415242119017
 34
0.0
100
AcDbRotatedDimension
  0
DIMENSION
  5
1726
330
17
100
AcDbEntity
  8
SUNPOU
100
AcDbDimension
  2
*D30
 10
8367.504660476114
 20
7485.982562902471
 30
0.0
 11
8180.004660476114
 21
7554.982562902471
 31
0.0
 70
    32
 71
     5
 42
375.0
  3
A3-30
100
AcDbAlignedDimension
 13
7992.504660476114
 23
7111.415242119017
 33
0.0
 14
8367.504660476114
 24
7111.415242119017
 34
0.0
100
AcDbRotatedDimension
  0
LINE
  5
1808
330
17
100
AcDbEntity
  8
1HASEN
100
AcDbLine
 10
7242.504660476114
 20
7189.659443504584
 30
0.0
 11
7242.504660476114
 21
4658.923769308694
 31
0.0
  0
LINE
  5
1809
330
17
100
AcDbEntity
  8
1HASEN
100
AcDbLine
 10
7992.504660476114
 20
7189.659443504584
 30
0.0
 11
7992.504660476114
 21
4658.923769308694
 31
0.0
  0
DIMENSION
  5
180A
330
17
100
AcDbEntity
  8
SUNPOU
100
AcDbDimension
  2
*D31
 10
7152.504660476114
 20
6029.781193914055
 30
0.0
 11
7056.056201432686
 21
6098.781193914055
 31
0.0
 70
   160
 71
     5
 42
20.0
  3
A3-30
100
AcDbAlignedDimension
 13
7132.504660476114
 23
5896.018451075079
 33
0.0
 14
7152.504660476114
 24
5896.018451075079
 34
0.0
100
AcDbRotatedDimension
  0
DIMENSION
  5
180B
330
17
100
AcDbEntity
  8
SUNPOU
100
AcDbDimension
  2
*D32
 10
7332.504660476114
 20
6029.781193914055
 30
0.0
 11
7242.504660476114
 21
6098.781193914055
 31
0.0
 70
    32
 71
     5
 42
180.0
  3
A3-30
100
AcDbAlignedDimension
 13
7152.504660476114
 23
5896.018451075079
 33
0.0
 14
7332.504660476114
 24
5896.018451075079
 34
0.0
100
AcDbRotatedDimension
  0
DIMENSION
  5
180C
330
17
100
AcDbEntity
  8
SUNPOU
100
AcDbDimension
  2
*D33
 10
7352.504660476114
 20
6029.781193914055
 30
0.0
 11
7429.612310274555
 21
6098.781193914055
 31
0.0
 70
   160
 71
     5
 42
20.0
  3
A3-30
100
AcDbAlignedDimension
 13
7332.504660476114
 23
5896.018451075079
 33
0.0
 14
7352.504660476114
 24
5896.018451075079
 34
0.0
100
AcDbRotatedDimension
  0
TEXT
  5
189F
330
17
100
AcDbEntity
  8
SUNPOU
100
AcDbText
 10
7828.449332075721
 20
4511.940964259406
 30
0.0
 40
90.0
  1
水抜き孔
 41
0.8
100
AcDbText
  0
LINE
  5
18A0
330
17
100
AcDbEntity
  8
SUNPOU
100
AcDbLine
 10
7802.263111896082
 20
4499.770217701708
 30
0.0
 11
8185.436458476666
 21
4499.770217701708
 31
0.0
  0
LEADER
  5
18A1
330
17
100
AcDbEntity
  8
SUNPOU
100
AcDbLeader
  3
A3-30
 76
     2
 10
7617.504660476116
 20
5161.415242119016
 30
0.0
 10
7802.263111896082
 20
4499.770217701708
 30
0.0
  0
TEXT
  5
18A3
330
17
100
AcDbEntity
  8
SUNPOU
100
AcDbText
 10
8592.09386675033
 20
4899.064999023511
 30
0.0
 40
90.0
  1
ジョイント金具
 41
0.8
100
AcDbText
  0
LINE
  5
18A4
330
17
100
AcDbEntity
  8
SUNPOU
100
AcDbLine
 10
8565.907646570691
 20
4886.894252465812
 30
0.0
 11
9212.099728687841
 21
4886.894252465812
 31
0.0
  0
LEADER
  5
18A5
330
17
100
AcDbEntity
  8
SUNPOU
100
AcDbLeader
  3
A3-30
 76
     2
 10
8363.004660476116
 20
5211.415242119016
 30
0.0
 10
8565.907646570691
 20
4886.894252465812
 30
0.0
  0
TEXT
  5
18BB
330
17
100
AcDbEntity
  8
SUNPOU
100
AcDbText
 10
6067.362454226825
 20
7711.437311286571
 30
0.0
 40
100.0
  1
正 面 図
 72
     1
 11
6290.695787560158
 21
7711.437311286571
 31
0.0
100
AcDbText
  0
LWPOLYLINE
  5
18BC
330
17
100
AcDbEntity
  8
SUNPOU
100
AcDbPolyline
 90
        4
 70
     1
 43
0.0
 10
6018.802552163734
 20
7847.892785449778
 10
6579.545050508123
 20
7847.892785449778
 10
6579.545050508123
 20
7676.189762428028
 10
6018.802552163734
 20
7676.189762428028
  0
LINE
  5
1997
330
17
100
AcDbEntity
  8
SEIHIN
100
AcDbLine
 10
7617.504660476113
 20
1431.264724814735
 30
0.0
 11
6867.504660476114
 21
1431.264724814735
 31
0.0
  0
LINE
  5
1998
330
17
100
AcDbEntity
  8
SEIHIN
100
AcDbLine
 10
7617.504660476113
 20
1501.264724814735
 30
0.0
 11
6867.504660476114
 21
1501.264724814735
 31
0.0
  0
DIMENSION
  5
1999
330
17
100
AcDbEntity
  8
SUNPOU
100
AcDbDimension
  2
*D34
 10
6867.504660476112
 20
676.1795513649704
 30
0.0
 11
7617.504660476112
 21
745.1795513649704
 31
0.0
 70
    32
 71
     5
 42
1500.0
  3
A3-30
100
AcDbAlignedDimension
 13
8367.504660476112
 23
1241.264724814735
 33
0.0
 14
6867.504660476112
 24
1241.264724814735
 34
0.0
 50
180.0
100
AcDbRotatedDimension
  0
DIMENSION
  5
199A
330
17
100
AcDbEntity
  8
SUNPOU
100
AcDbDimension
  2
*D35
 10
7242.504660476112
 20
915.6611022228508
 30
0.0
 11
7430.004660476112
 21
984.6611022228508
 31
0.0
 70
    32
 71
     5
 42
375.0
  3
A3-30
100
AcDbAlignedDimension
 13
7617.504660476112
 23
1241.264724814735
 33
0.0
 14
7242.504660476112
 24
1241.264724814735
 34
0.0
 50
180.0
100
AcDbRotatedDimension
  0
DIMENSION
  5
199B
330
17
100
AcDbEntity
  8
SUNPOU
100
AcDbDimension
  2
*D36
 10
6867.504660476112
 20
915.6611022228508
 30
0.0
 11
7055.004660476112
 21
984.6611022228508
 31
0.0
 70
    32
 71
     5
 42
375.0
  3
A3-30
100
AcDbAlignedDimension
 13
7242.504660476112
 23
1241.264724814735
 33
0.0
 14
6867.504660476112
 24
1241.264724814735
 34
0.0
 50
180.0
100
AcDbRotatedDimension
  0
DIMENSION
  5
199C
330
17
100
AcDbEntity
  8
SUNPOU
100
AcDbDimension
  2
*D37
 10
8871.954942526834
 20
1501.264724814735
 30
0.0
 11
8802.954942526834
 21
1371.264724814736
 31
0.0
 70
    32
 71
     5
 42
260.0
  3
A3-30
100
AcDbAlignedDimension
 13
8367.504660476112
 23
1241.264724814735
 33
0.0
 14
8367.504660476112
 24
1501.264724814735
 34
0.0
 50
90.0
100
AcDbRotatedDimension
  0
DIMENSION
  5
199D
330
17
100
AcDbEntity
  8
SUNPOU
100
AcDbDimension
  2
*D38
 10
8678.110731555687
 20
1431.264724814735
 30
0.0
 11
8609.110731555687
 21
1336.264724814736
 31
0.0
 70
   160
 71
     5
 42
190.0
  3
A3-30
100
AcDbAlignedDimension
 13
8367.504660476112
 23
1241.264724814735
 33
0.0
 14
8367.504660476112
 24
1431.264724814735
 34
0.0
 50
90.0
100
AcDbRotatedDimension
  0
DIMENSION
  5
199E
330
17
100
AcDbEntity
  8
SUNPOU
100
AcDbDimension
  2
*D39
 10
8678.110731555687
 20
1501.264724814735
 30
0.0
 11
8609.110731555687
 21
1494.908919971214
 31
0.0
 70
   160
 71
     5
 42
70.0
  3
A3-30
100
AcDbAlignedDimension
 13
8367.504660476112
 23
1431.264724814735
 33
0.0
 14
8367.504660476112
 24
1501.264724814735
 34
0.0
 50
90.0
100
AcDbRotatedDimension
  0
DIMENSION
  5
199F
330
17
100
AcDbEntity
  8
SUNPOU
100
AcDbDimension
  2
*D40
 10
7992.504660476112
 20
915.6611022228508
 30
0.0
 11
7805.004660476112
 21
984.6611022228508
 31
0.0
 70
    32
 71
     5
 42
375.0
  3
A3-30
100
AcDbAlignedDimension
 13
7617.504660476112
 23
1241.264724814735
 33
0.0
 14
7992.504660476112
 24
1241.264724814735
 34
0.0
100
AcDbRotatedDimension
  0
DIMENSION
  5
19A0
330
17
100
AcDbEntity
  8
SUNPOU
100
AcDbDimension
  2
*D41
 10
8367.504660476112
 20
915.6611022228508
 30
0.0
 11
8180.004660476112
 21
984.6611022228508
 31
0.0
 70
    32
 71
     5
 42
375.0
  3
A3-30
100
AcDbAlignedDimension
 13
7992.504660476112
 23
1241.264724814735
 33
0.0
 14
8367.504660476112
 24
1241.264724814735
 34
0.0
100
AcDbRotatedDimension
  0
TEXT
  5
19A1
330
17
100
AcDbEntity
  8
SUNPOU
100
AcDbText
 10
8507.114374426743
 20
1923.868408180705
 30
0.0
 40
90.0
  1
水抜き孔
 41
0.8
100
AcDbText
  0
LINE
  5
19A2
330
17
100
AcDbEntity
  8
SUNPOU
100
AcDbLine
 10
8467.835044157284
 20
1905.612288344158
 30
0.0
 11
8873.185523204262
 21
1905.612288344158
 31
0.0
  0
LEADER
  5
19A3
330
17
100
AcDbEntity
  8
SUNPOU
100
AcDbLeader
  3
A3-30
 76
     2
 10
7617.504660476112
 20
1536.264724814735
 30
0.0
 10
8467.835044157284
 20
1905.612288344158
 30
0.0
  0
TEXT
  5
19A4
330
17
100
AcDbEntity
  8
SUNPOU
100
AcDbText
 10
8507.114374426743
 20
1749.372831621514
 30
0.0
 40
90.0
  1
防護柵取付用ホール
 41
0.8
100
AcDbText
  0
LINE
  5
19A5
330
17
100
AcDbEntity
  8
SUNPOU
100
AcDbLine
 10
8467.835044157284
 20
1731.116711784966
 30
0.0
 11
9301.622434789464
 21
1731.116711784966
 31
0.0
  0
LEADER
  5
19A6
330
17
100
AcDbEntity
  8
SUNPOU
100
AcDbLeader
  3
A3-30
 76
     2
 10
7617.504660476112
 20
1361.769148255544
 30
0.0
 10
8467.835044157284
 20
1731.116711784966
 30
0.0
  0
TEXT
  5
1B68
330
17
100
AcDbEntity
  8
SUNPOU
100
AcDbText
 10
5874.276320428129
 20
3600.457191222589
 30
0.0
 40
100.0
  1
平面図(頂版)
 72
     1
 11
6224.276320428129
 21
3600.457191222589
 31
0.0
100
AcDbText
  0
LINE
  5
1B6A
330
17
100
AcDbEntity
  8
SUNPOU
100
AcDbLine
 10
5826.249387844584
 20
3736.912665385796
 30
0.0
 11
6635.939958448505
 21
3736.912665385797
 31
0.0
  0
LINE
  5
1B6B
330
17
100
AcDbEntity
  8
SUNPOU
100
AcDbLine
 10
6635.939958448505
 20
3736.912665385797
 30
0.0
 11
6635.939958448505
 21
3565.209642364047
 31
0.0
  0
LINE
  5
1B6C
330
17
100
AcDbEntity
  8
SUNPOU
100
AcDbLine
 10
6635.939958448505
 20
3565.209642364047
 30
0.0
 11
5826.249387844584
 21
3565.209642364047
 31
0.0
  0
LINE
  5
1B6D
330
17
100
AcDbEntity
  8
SUNPOU
100
AcDbLine
 10
5826.249387844584
 20
3565.209642364047
 30
0.0
 11
5826.249387844584
 21
3736.912665385797
 31
0.0
  0
LWPOLYLINE
  5
1C0D
330
17
100
AcDbEntity
  8
SEIHIN
  6
DASHED2
 62
     7
 48
2.0
100
AcDbPolyline
 90
        6
 70
     0
 43
0.0
 10
3723.825394026462
 20
3102.326486313927
 10
3723.825394026462
 20
2837.219103763591
 10
3088.82539402646
 20
2812.779506448155
 10
3088.82539402646
 20
2641.873466179699
 10
3723.825394026462
 20
2617.433868864262
 10
3723.825394026462
 20
2352.326486313927
  0
LINE
  5
1C0E
330
17
100
AcDbEntity
  8
SUNPOU
100
AcDbLine
 10
4005.089119941185
 20
3102.326486313926
 30
0.0
 11
4217.856024534949
 21
3102.326486313926
 31
0.0
  0
ARC
  5
1C0F
330
17
100
AcDbEntity
  8
SUNPOU
100
AcDbCircle
 10
3823.825394026477
 20
3102.326486313926
 30
0.0
 40
351.0296520968843
100
AcDbArc
 50
0.0
 51
15.01603005968507
  0
ARC
  5
1C10
330
17
100
AcDbEntity
  8
SUNPOU
100
AcDbCircle
 10
3823.825394026477
 20
3102.326486313926
 30
0.0
 40
351.0296520968843
100
AcDbArc
 50
342.9241617726045
 51
357.0000000000068
  0
SOLID
  5
1C11
330
17
100
AcDbEntity
  8
SUNPOU
100
AcDbTrace
 10
4182.569359070298
 20
3149.135652290559
 30
0.0
 11
4160.986698647717
 21
3148.270337848544
 31
0.0
 12
4174.373972185047
 22
3083.955013801809
 32
0.0
 13
4174.373972185047
 23
3083.955013801809
 33
0.0
  0
SOLID
  5
1C12
330
17
100
AcDbEntity
  8
SUNPOU
100
AcDbTrace
 10
4158.120115394082
 20
3038.799939945608
 30
0.0
 11
4179.627910471878
 21
3036.806262215481
 31
0.0
 12
4174.855046123363
 22
3102.326486313928
 32
0.0
 13
4174.855046123363
 23
3102.326486313928
 33
0.0
  0
TEXT
  5
1C13
330
17
100
AcDbEntity
  8
SUNPOU
100
AcDbText
 10
4145.626251121801
 20
3126.66954675571
 30
0.0
 40
90.0
  1
3°
 50
90.0
 41
0.8
100
AcDbText
  0
LINE
  5
1C14
330
17
100
AcDbEntity
  8
SUNPOU
100
AcDbLine
 10
4005.089119941185
 20
1602.326486313927
 30
0.0
 11
4217.856024534949
 21
1602.326486313927
 31
0.0
  0
ARC
  5
1C15
330
17
100
AcDbEntity
  8
SUNPOU
100
AcDbCircle
 10
3823.825394026477
 20
1602.326486313927
 30
0.0
 40
351.0296520968843
100
AcDbArc
 50
344.9839699402974
 51
0.0
  0
ARC
  5
1C16
330
17
100
AcDbEntity
  8
SUNPOU
100
AcDbCircle
 10
3823.825394026477
 20
1602.326486313927
 30
0.0
 40
351.0296520968843
100
AcDbArc
 50
3.00000000000556
 51
17.07583822738234
  0
SOLID
  5
1C17
330
17
100
AcDbEntity
  8
SUNPOU
100
AcDbTrace
 10
4182.569359070298
 20
1555.517320337293
 30
0.0
 11
4160.986698647717
 21
1556.382634779308
 31
0.0
 12
4174.373972185047
 22
1620.697958826044
 32
0.0
 13
4174.373972185047
 23
1620.697958826044
 33
0.0
  0
SOLID
  5
1C18
330
17
100
AcDbEntity
  8
SUNPOU
100
AcDbTrace
 10
4158.120115394082
 20
1665.853032682245
 30
0.0
 11
4179.627910471878
 21
1667.846710412372
 31
0.0
 12
4174.855046123363
 22
1602.326486313925
 32
0.0
 13
4174.855046123363
 23
1602.326486313925
 33
0.0
  0
TEXT
  5
1C19
330
17
100
AcDbEntity
  8
SUNPOU
100
AcDbText
 10
4145.626251121801
 20
1486.783425872143
 30
0.0
 40
90.0
  1
3°
 50
90.0
 41
0.8
100
AcDbText
  0
DIMENSION
  5
1C1A
330
17
100
AcDbEntity
  8
SUNPOU
100
AcDbDimension
  2
*D42
 10
2279.552511235299
 20
1602.326486313927
 30
0.0
 11
2210.552511235298
 21
2352.326486313927
 31
0.0
 70
    32
 71
     5
 42
1500.0
  3
A3-30
100
AcDbAlignedDimension
 13
2823.825394026462
 23
3102.326486313927
 33
0.0
 14
2823.825394026461
 24
1602.326486313927
 34
0.0
 50
90.0
100
AcDbRotatedDimension
  0
DIMENSION
  5
1C27
330
17
100
AcDbEntity
  8
SUNPOU
100
AcDbDimension
  2
*D43
 10
5208.666539225444
 20
1650.017565461494
 30
0.0
 11
5139.666539225444
 21
2352.326486313927
 31
0.0
 70
    32
 71
     5
 42
1404.617841704865
  3
A3-30
100
AcDbAlignedDimension
 13
4733.82539402646
 23
3054.635407166359
 33
0.0
 14
4733.82539402646
 24
1650.017565461494
 34
0.0
 50
90.0
100
AcDbRotatedDimension
  0
DIMENSION
  5
1C34
330
17
100
AcDbEntity
  8
SUNPOU
100
AcDbDimension
  2
*D44
 10
3423.825394026459
 20
1146.394390707308
 30
0.0
 11
3123.82539402646
 21
1215.394390707308
 31
0.0
 70
    32
 71
     5
 42
599.9999999999964
  3
A3-30
100
AcDbAlignedDimension
 13
2823.825394026462
 23
1602.326486313927
 33
0.0
 14
3423.825394026459
 24
1602.326486313927
 34
0.0
100
AcDbRotatedDimension
  0
DIMENSION
  5
1C35
330
17
100
AcDbEntity
  8
SUNPOU
100
AcDbDimension
  2
*D45
 10
3823.825394026462
 20
1146.394390707308
 30
0.0
 11
3623.82539402646
 21
1215.394390707308
 31
0.0
 70
    32
 71
     5
 42
400.0000000000036
  3
A3-30
100
AcDbAlignedDimension
 13
3423.825394026459
 23
1602.326486313927
 33
0.0
 14
3823.825394026462
 24
1602.326486313927
 34
0.0
100
AcDbRotatedDimension
  0
DIMENSION
  5
1C36
330
17
100
AcDbEntity
  8
SUNPOU
100
AcDbDimension
  2
*D46
 10
4733.82539402646
 20
1146.394390707308
 30
0.0
 11
4278.825394026461
 21
1215.394390707308
 31
0.0
 70
    32
 71
     5
 42
909.9999999999982
  3
A3-30
100
AcDbAlignedDimension
 13
3823.825394026462
 23
1602.326486313927
 33
0.0
 14
4733.82539402646
 24
1650.017565461494
 34
0.0
100
AcDbRotatedDimension
  0
DIMENSION
  5
1C37
330
17
100
AcDbEntity
  8
SUNPOU
100
AcDbDimension
  2
*D47
 10
3723.825394026462
 20
1332.255542614763
 30
0.0
 11
3573.82539402646
 21
1401.255542614763
 31
0.0
 70
    32
 71
     5
 42
300.0000000000036
  3
A3-30
100
AcDbAlignedDimension
 13
3423.825394026459
 23
1602.326486313927
 33
0.0
 14
3723.825394026462
 24
1602.326486313927
 34
0.0
100
AcDbRotatedDimension
  0
DIMENSION
  5
1C38
330
17
100
AcDbEntity
  8
SUNPOU
100
AcDbDimension
  2
*D48
 10
3823.825394026462
 20
1332.255542614763
 30
0.0
 11
3810.749230371475
 21
1401.255542614763
 31
0.0
 70
   160
 71
     5
 42
100.0
  3
A3-30
100
AcDbAlignedDimension
 13
3723.825394026462
 23
1602.326486313927
 33
0.0
 14
3823.825394026462
 24
1602.326486313927
 34
0.0
100
AcDbRotatedDimension
  0
DIMENSION
  5
1C39
330
17
100
AcDbEntity
  8
SUNPOU
100
AcDbDimension
  2
*D49
 10
4733.82539402646
 20
937.1884300443635
 30
0.0
 11
3778.825394026461
 21
1006.188430044363
 31
0.0
 70
    32
 71
     5
 42
1909.999999999998
  3
A3-30
100
AcDbAlignedDimension
 13
2823.825394026462
 23
1602.326486313927
 33
0.0
 14
4733.82539402646
 24
1650.017565461494
 34
0.0
100
AcDbRotatedDimension
  0
LINE
  5
1D74
330
17
100
AcDbEntity
  8
SEIHIN
  6
HIDDEN
 62
     7
100
AcDbLine
 10
3423.825394026459
 20
1878.9801353125
 30
0.0
 11
3423.825394026459
 21
2075.672837315353
 31
0.0
  0
LINE
  5
1D75
330
17
100
AcDbEntity
  8
SEIHIN
  6
HIDDEN
 62
     7
100
AcDbLine
 10
3423.825394026459
 20
2825.672837315354
 30
0.0
 11
3423.825394026459
 21
2628.9801353125
 31
0.0
  0
TEXT
  5
1D76
330
17
100
AcDbEntity
  8
SUNPOU
100
AcDbText
 10
1382.209294719047
 20
3511.237111304401
 30
0.0
 40
100.0
  1
平面図(底版)
 72
     1
 11
1732.209294719047
 21
3511.237111304401
 31
0.0
100
AcDbText
  0
LINE
  5
1D77
330
17
100
AcDbEntity
  8
SUNPOU
100
AcDbLine
 10
1334.182362135502
 20
3647.692585467608
 30
0.0
 11
2143.872932739423
 21
3647.692585467609
 31
0.0
  0
LINE
  5
1D78
330
17
100
AcDbEntity
  8
SUNPOU
100
AcDbLine
 10
2143.872932739423
 20
3647.692585467608
 30
0.0
 11
2143.872932739423
 21
3475.989562445859
 31
0.0
  0
LINE
  5
1D79
330
17
100
AcDbEntity
  8
SUNPOU
100
AcDbLine
 10
2143.872932739423
 20
3475.989562445859
 30
0.0
 11
1334.182362135502
 21
3475.989562445859
 31
0.0
  0
LINE
  5
1D7A
330
17
100
AcDbEntity
  8
SUNPOU
100
AcDbLine
 10
1334.182362135502
 20
3475.989562445859
 30
0.0
 11
1334.182362135502
 21
3647.692585467608
 31
0.0
  0
DIMENSION
  5
1E51
330
17
100
AcDbEntity
  8
SUNPOU
100
AcDbDimension
  2
*D50
 10
6384.191448072525
 20
2801.264724814735
 30
0.0
 11
6315.191448072524
 21
2021.264724814736
 31
0.0
 70
    32
 71
     5
 42
1560.0
  3
A3-30
100
AcDbAlignedDimension
 13
6867.504660476112
 23
1241.264724814735
 33
0.0
 14
6867.504660476114
 24
2801.264724814735
 34
0.0
 50
90.0
100
AcDbRotatedDimension
  0
LWPOLYLINE
  5
1E6C
330
17
100
AcDbEntity
  8
SUNPOU
100
AcDbPolyline
 90
        4
 70
     1
 43
0.0
 10
3723.825394026459
 20
5244.415242119016
 10
3773.825394026459
 20
5244.415242119016
 10
3773.825394026459
 20
5178.415242119016
 10
3723.825394026459
 20
5178.415242119016
  0
CIRCLE
  5
1E6D
330
17
100
AcDbEntity
  8
SUNPOU
100
AcDbCircle
 10
3748.825394026459
 20
5211.415242119016
 30
0.0
 40
8.0
  0
LWPOLYLINE
  5
1E6F
330
17
100
AcDbEntity
  8
SUNPOU
100
AcDbPolyline
 90
        4
 70
     1
 43
0.0
 10
3773.825394026459
 20
6894.415242119016
 10
3823.825394026459
 20
6894.415242119016
 10
3823.825394026459
 20
6828.415242119016
 10
3773.825394026459
 20
6828.415242119016
  0
CIRCLE
  5
1E70
330
17
100
AcDbEntity
  8
SUNPOU
100
AcDbCircle
 10
3798.825394026459
 20
6861.415242119016
 30
0.0
 40
8.0
  0
TEXT
  5
1E72
330
17
100
AcDbEntity
  8
SUNPOU
100
AcDbText
 10
8592.09386675033
 20
6549.064999023511
 30
0.0
 40
90.0
  1
ジョイント金具
 41
0.8
100
AcDbText
  0
LINE
  5
1E73
330
17
100
AcDbEntity
  8
SUNPOU
100
AcDbLine
 10
8565.907646570691
 20
6536.894252465812
 30
0.0
 11
9212.099728687841
 21
6536.894252465812
 31
0.0
  0
LEADER
  5
1E74
330
17
100
AcDbEntity
  8
SUNPOU
100
AcDbLeader
  3
A3-30
 76
     2
 10
8363.004660476116
 20
6861.415242119016
 30
0.0
 10
8565.907646570691
 20
6536.894252465812
 30
0.0
  0
LWPOLYLINE
  5
1E75
330
17
100
AcDbEntity
  8
0
  6
HIDDEN
 48
0.3
100
AcDbPolyline
 90
        4
 70
     0
 43
0.0
 10
8367.504660476116
 20
6829.915242119016
 10
8363.004660476116
 20
6831.915242119016
 10
8363.004660476116
 20
6890.915242119016
 10
8367.504660476116
 20
6892.915242119016
  0
LWPOLYLINE
  5
1E76
330
17
100
AcDbEntity
  8
0
  6
HIDDEN
 48
0.3
100
AcDbPolyline
 90
        2
 70
     0
 43
0.0
 10
8363.004660476116
 20
6888.415242119016
 10
8326.004660477018
 20
6888.415242119016
  0
LWPOLYLINE
  5
1E77
330
17
100
AcDbEntity
  8
0
  6
HIDDEN
 48
0.3
100
AcDbPolyline
 90
        2
 70
     0
 43
0.0
 10
8326.004660476116
 20
6888.415242119016
 42
1.111111111111126
 10
8326.004660476116
 20
6834.415242119016
 42
1.111111111111126
  0
LWPOLYLINE
  5
1E78
330
17
100
AcDbEntity
  8
0
  6
HIDDEN
 48
0.3
100
AcDbPolyline
 90
        2
 70
     0
 43
0.0
 10
8363.004660476116
 20
6834.415242119016
 10
8326.004660477018
 20
6834.415242119016
  0
LWPOLYLINE
  5
1E79
330
17
100
AcDbEntity
  8
0
  6
HIDDEN
 48
0.3
100
AcDbPolyline
 90
        4
 70
     0
 43
0.0
 10
6867.504660476112
 20
6829.915242119016
 10
6872.004660476112
 20
6831.915242119016
 10
6872.004660476112
 20
6890.915242119016
 10
6867.504660476112
 20
6892.915242119016
  0
LWPOLYLINE
  5
1E7A
330
17
100
AcDbEntity
  8
0
  6
HIDDEN
 48
0.3
100
AcDbPolyline
 90
        2
 70
     0
 43
0.0
 10
6872.004660476112
 20
6888.415242119016
 10
6909.00466047521
 20
6888.415242119016
  0
LWPOLYLINE
  5
1E7B
330
17
100
AcDbEntity
  8
0
  6
HIDDEN
 48
0.3
100
AcDbPolyline
 90
        2
 70
     0
 43
0.0
 10
6909.004660476112
 20
6888.415242119016
 42
-1.111111111111126
 10
6909.004660476112
 20
6834.415242119016
 42
-1.111111111111126
  0
LWPOLYLINE
  5
1E7C
330
17
100
AcDbEntity
  8
0
  6
HIDDEN
 48
0.3
100
AcDbPolyline
 90
        2
 70
     0
 43
0.0
 10
6872.004660476112
 20
6834.415242119016
 10
6909.00466047521
 20
6834.415242119016
  0
LINE
  5
1E8D
330
17
100
AcDbEntity
  8
HASEN
100
AcDbLine
 10
7617.504660476115
 20
6961.415242119017
 30
0.0
 11
8361.504660476114
 21
6961.415242119016
 31
0.0
  0
LINE
  5
1E8E
330
17
100
AcDbEntity
  8
HASEN
100
AcDbLine
 10
7617.504660476113
 20
6961.415242119017
 30
0.0
 11
6873.504660476114
 21
6961.415242119016
 31
0.0
  0
ENDSEC
  0
SECTION
  2
OBJECTS
  0
DICTIONARY
  5
C
330
0
100
AcDbDictionary
281
     1
  3
ACAD_COLOR
350
9AA
  3
ACAD_GROUP
350
D
  3
ACAD_LAYOUT
350
7B
  3
ACAD_MATERIAL
350
9A9
  3
ACAD_MLEADERSTYLE
350
1EBC
  3
ACAD_MLINESTYLE
350
1A
  3
ACAD_PLOTSETTINGS
350
7C
  3
ACAD_PLOTSTYLENAME
350
79
  3
ACAD_SCALELIST
350
1E95
  3
ACAD_TABLESTYLE
350
9AB
  3
ACDB_RECOMPOSE_DATA
350
1EBB
  3
AcDbVariableDictionary
350
946
  0
DICTIONARY
  5
90E
330
17
100
AcDbDictionary
280
     1
281
     1
  3
ACAD_SORTENTS
360
1707
  0
DICTIONARY
  5
9AA
102
{ACAD_REACTORS
330
C
102
}
330
C
100
AcDbDictionary
281
     1
  0
DICTIONARY
  5
D
102
{ACAD_REACTORS
330
C
102
}
330
C
100
AcDbDictionary
281
     1
  0
DICTIONARY
  5
7B
102
{ACAD_REACTORS
330
C
102
}
330
C
100
AcDbDictionary
281
     1
  3
Model
350
7D
  3
ﾚｲｱｳﾄ1
350
7E
  0
DICTIONARY
  5
9A9
102
{ACAD_REACTORS
330
C
102
}
330
C
100
AcDbDictionary
281
     1
  0
DICTIONARY
  5
1EBC
102
{ACAD_REACTORS
330
C
102
}
330
C
100
AcDbDictionary
281
     1
  0
DICTIONARY
  5
1A
102
{ACAD_REACTORS
330
C
102
}
330
C
100
AcDbDictionary
281
     1
  3
STANDARD
350
1B
  0
DICTIONARY
  5
7C
102
{ACAD_REACTORS
330
C
102
}
330
C
100
AcDbDictionary
281
     1
  0
ACDBDICTIONARYWDFLT
  5
79
102
{ACAD_REACTORS
330
C
102
}
330
C
100
AcDbDictionary
281
     1
  3
Normal
350
7A
100
AcDbDictionaryWithDefault
340
7A
  0
DICTIONARY
  5
1E95
102
{ACAD_REACTORS
330
C
102
}
330
C
100
AcDbDictionary
281
     1
  3
A0
350
1E96
  3
A1
350
1E97
  3
A2
350
1E98
  3
A3
350
1E99
  3
A4
350
1E9A
  3
A5
350
1E9B
  3
A6
350
1E9C
  3
A7
350
1E9D
  3
A8
350
1E9E
  3
A9
350
1E9F
  3
B0
350
1EA0
  3
B1
350
1EA1
  3
B2
350
1EA2
  3
B3
350
1EA3
  3
B4
350
1EA4
  3
B5
350
1EA5
  3
B6
350
1EA6
  3
B7
350
1EA7
  3
B8
350
1EA8
  3
B9
350
1EA9
  3
C0
350
1EAA
  3
C1
350
1EAB
  3
C2
350
1EAC
  3
C3
350
1EAD
  3
C4
350
1EAE
  3
C5
350
1EAF
  3
C6
350
1EB0
  3
C7
350
1EB1
  3
C8
350
1EB2
  3
C9
350
1EB3
  3
D0
350
1EB4
  3
D1
350
1EB5
  3
D2
350
1EB6
  0
DICTIONARY
  5
9AB
102
{ACAD_REACTORS
330
C
102
}
330
C
100
AcDbDictionary
281
     1
  3
Standard
350
9AC
  0
XRECORD
  5
1EBB
102
{ACAD_REACTORS
330
C
102
}
330
C
100
AcDbXrecord
280
     1
 90
        1
330
9AC
  0
DICTIONARY
  5
946
102
{ACAD_REACTORS
330
C
102
}
330
C
100
AcDbDictionary
281
     1
  3
CANNOSCALE
350
1EB7
  3
CTABLESTYLE
350
CC1
  3
DIMASSOC
350
947
  3
PROJECTNAME
350
CC2
  0
SORTENTSTABLE
  5
1707
102
{ACAD_REACTORS
330
90E
102
}
330
90E
100
AcDbSortentsTable
330
17
331
5F
  5
5F
331
60
  5
60
331
DAE
  5
DAE
331
DAF
  5
DAF
331
DB0
  5
DB0
331
DB1
  5
DB1
331
DB2
  5
DB2
331
DB3
  5
DB3
331
DB5
  5
DB5
331
DBA
  5
DBA
331
DBB
  5
DBB
331
DBC
  5
DBC
331
DBD
  5
DBD
331
DBE
  5
DBE
331
DBF
  5
DBF
331
DC0
  5
DC0
331
DC5
  5
DC5
331
DC6
  5
DC6
331
DC7
  5
DC7
331
DC8
  5
DC8
331
DC9
  5
DC9
331
DCA
  5
DCA
331
DCB
  5
DCB
331
DCC
  5
DCC
331
DCD
  5
DCD
331
DCE
  5
DCE
331
DCF
  5
DCF
331
DD1
  5
DD1
331
DD2
  5
DD2
331
DD4
  5
10E1
331
DD7
  5
10E3
331
DD8
  5
10E4
331
DDB
  5
10E5
331
DDC
  5
10E6
331
DDD
  5
10E7
331
DDF
  5
10E9
331
DE1
  5
10EA
331
DE2
  5
10EB
331
DE3
  5
10EC
331
DE4
  5
10ED
331
DE5
  5
10EE
331
DE6
  5
10EF
331
DF0
  5
10F0
331
DF1
  5
10F1
331
DF2
  5
10F2
331
1533
  5
16F7
331
1549
  5
16F8
331
1556
  5
16F9
331
1564
  5
16FA
331
1572
  5
16FB
331
157F
  5
16FC
331
15BA
  5
16FD
331
15C8
  5
16FE
331
15E8
  5
16FF
331
15F5
  5
1700
331
1602
  5
1701
331
1633
  5
1702
331
1641
  5
1703
331
1661
  5
1704
331
16EF
  5
1705
331
16F0
  5
1706
331
16F2
  5
DD4
331
16F3
  5
DD6
331
16F4
  5
DD7
331
16F5
  5
DD8
331
16F6
  5
DDB
331
16F7
  5
DDC
331
16F8
  5
DDD
331
16F9
  5
DDE
331
16FA
  5
DDF
331
16FB
  5
DE1
331
16FC
  5
DE2
331
1708
  5
1708
331
1709
  5
1709
331
170A
  5
170A
331
170B
  5
170B
331
170C
  5
170C
331
170D
  5
170D
331
170E
  5
170E
331
170F
  5
170F
331
1710
  5
1710
331
1711
  5
1711
331
1712
  5
1712
331
1713
  5
1713
331
1714
  5
1714
331
1715
  5
1715
331
1716
  5
1716
331
1717
  5
1717
331
1718
  5
1718
331
1719
  5
1719
331
171A
  5
171A
331
171B
  5
171B
331
171C
  5
171C
331
171D
  5
171D
331
171E
  5
171E
331
171F
  5
171F
331
1720
  5
1720
331
1721
  5
1721
331
1722
  5
1722
331
1723
  5
1723
331
1724
  5
1724
331
1725
  5
1725
331
1726
  5
1726
331
1808
  5
1808
331
1809
  5
1809
331
180A
  5
180A
331
180B
  5
180B
331
180C
  5
180C
331
189F
  5
189F
331
18A0
  5
18A0
331
18A1
  5
18A1
331
18A3
  5
18A3
331
18A4
  5
18A4
331
18A5
  5
18A5
331
18BB
  5
18BB
331
18BC
  5
18BC
331
1997
  5
1997
331
1998
  5
1998
331
1999
  5
1999
331
199A
  5
199A
331
199B
  5
199B
331
199C
  5
199C
331
199D
  5
199D
331
199E
  5
199E
331
199F
  5
199F
331
19A0
  5
19A0
331
19A1
  5
19A1
331
19A2
  5
19A2
331
19A3
  5
19A3
331
19A4
  5
19A4
331
19A5
  5
19A5
331
19A6
  5
19A6
331
1B68
  5
1B68
331
1B6A
  5
1B6A
331
1B6B
  5
1B6B
331
1B6C
  5
1B6C
331
1B6D
  5
1B6D
331
1C0D
  5
1C0D
331
1C0E
  5
1C0E
331
1C0F
  5
1C0F
331
1C10
  5
1C10
331
1C11
  5
1C11
331
1C12
  5
1C12
331
1C13
  5
1C13
331
1C14
  5
1C14
331
1C15
  5
1C15
331
1C16
  5
1C16
331
1C17
  5
1C17
331
1C18
  5
1C18
331
1C19
  5
1C19
331
1C1A
  5
1C1A
331
1C27
  5
1C27
331
1C34
  5
1C34
331
1C35
  5
1C35
331
1C36
  5
1C36
331
1C37
  5
1C37
331
1C38
  5
1C38
331
1C39
  5
1C39
331
1D74
  5
1D74
331
1D75
  5
1D75
331
1D76
  5
1D76
331
1D77
  5
1D77
331
1D78
  5
1D78
331
1D79
  5
1D79
331
1D7A
  5
1D7A
331
1E51
  5
1E51
331
1E6C
  5
1E6C
331
1E6D
  5
1E6D
331
1E6F
  5
1E6F
331
1E70
  5
1E70
331
1E72
  5
1E76
331
1E73
  5
1E77
331
1E74
  5
1E78
331
1E75
  5
1E72
331
1E76
  5
1E73
331
1E77
  5
1E74
331
1E78
  5
1E75
  0
LAYOUT
  5
7D
102
{ACAD_REACTORS
330
7B
102
}
330
7B
100
AcDbPlotSettings
  1

  2
C:\PROGRAM FILES\MDT6\plotters\RICOH SP9II RPDL.pc3
  4
A3
  6

 40
5.873749732971191
 41
5.873758316040039
 42
4.349761962890625
 43
8.159759521484375
 44
420.1159973144531
 45
296.9259948730469
 46
0.0
 47
0.0
 48
0.0
 49
0.0
140
0.0
141
0.0
142
1.0
143
1.0
 70
 11952
 72
     0
 73
     0
 74
     0
  7
acad.ctb
 75
     0
 76
     0
 77
     2
 78
   300
147
1.0
148
-52067.63847066872
149
1270.867660243985
100
AcDbLayout
  1
Model
 70
     1
 71
     0
 10
0.0
 20
0.0
 11
12.0
 21
9.0
 12
0.0
 22
0.0
 32
0.0
 14
0.0
 24
0.0
 34
0.0
 15
0.0
 25
0.0
 35
0.0
146
0.0
 13
0.0
 23
0.0
 33
0.0
 16
1.0
 26
0.0
 36
0.0
 17
0.0
 27
1.0
 37
0.0
 76
     0
330
17
331
1E8F
  0
LAYOUT
  5
7E
102
{ACAD_REACTORS
330
7B
102
}
330
7B
100
AcDbPlotSettings
  1

  2
C:\PROGRAM FILES\MDT6\plotters\RICOH SP9II RPDL.pc3
  4

  6

 40
0.0
 41
0.0
 42
0.0
 43
0.0
 44
0.0
 45
0.0
 46
0.0
 47
0.0
 48
0.0
 49
0.0
140
0.0
141
0.0
142
1.0
143
1.0
 70
   688
 72
     0
 73
     0
 74
     5
  7
acad.ctb
 75
    16
 76
     0
 77
     2
 78
   300
147
1.0
148
0.0
149
0.0
100
AcDbLayout
  1
ﾚｲｱｳﾄ1
 70
     0
 71
     1
 10
0.0
 20
0.0
 11
12.0
 21
9.0
 12
0.0
 22
0.0
 32
0.0
 14
1.000000000000000E+20
 24
1.000000000000000E+20
 34
1.000000000000000E+20
 15
-1.000000000000000E+20
 25
-1.000000000000000E+20
 35
-1.000000000000000E+20
146
0.0
 13
0.0
 23
0.0
 33
0.0
 16
1.0
 26
0.0
 36
0.0
 17
0.0
 27
1.0
 37
0.0
 76
     0
330
14
  0
MLINESTYLE
  5
1B
102
{ACAD_REACTORS
330
1A
102
}
330
1A
100
AcDbMlineStyle
  2
STANDARD
 70
     0
  3

 62
   256
 51
90.0
 52
90.0
 71
     2
 49
0.5
 62
   256
  6
BYLAYER
 49
-0.5
 62
   256
  6
BYLAYER
  0
ACDBPLACEHOLDER
  5
7A
102
{ACAD_REACTORS
330
79
102
}
330
79
  0
SCALE
  5
1E96
102
{ACAD_REACTORS
330
1E95
102
}
330
1E95
100
AcDbScale
 70
     0
300
1:1
140
1.0
141
1.0
290
     1
  0
SCALE
  5
1E97
102
{ACAD_REACTORS
330
1E95
102
}
330
1E95
100
AcDbScale
 70
     0
300
1:2
140
1.0
141
2.0
290
     0
  0
SCALE
  5
1E98
102
{ACAD_REACTORS
330
1E95
102
}
330
1E95
100
AcDbScale
 70
     0
300
1:4
140
1.0
141
4.0
290
     0
  0
SCALE
  5
1E99
102
{ACAD_REACTORS
330
1E95
102
}
330
1E95
100
AcDbScale
 70
     0
300
1:5
140
1.0
141
5.0
290
     0
  0
SCALE
  5
1E9A
102
{ACAD_REACTORS
330
1E95
102
}
330
1E95
100
AcDbScale
 70
     0
300
1:8
140
1.0
141
8.0
290
     0
  0
SCALE
  5
1E9B
102
{ACAD_REACTORS
330
1E95
102
}
330
1E95
100
AcDbScale
 70
     0
300
1:10
140
1.0
141
10.0
290
     0
  0
SCALE
  5
1E9C
102
{ACAD_REACTORS
330
1E95
102
}
330
1E95
100
AcDbScale
 70
     0
300
1:16
140
1.0
141
16.0
290
     0
  0
SCALE
  5
1E9D
102
{ACAD_REACTORS
330
1E95
102
}
330
1E95
100
AcDbScale
 70
     0
300
1:20
140
1.0
141
20.0
290
     0
  0
SCALE
  5
1E9E
102
{ACAD_REACTORS
330
1E95
102
}
330
1E95
100
AcDbScale
 70
     0
300
1:30
140
1.0
141
30.0
290
     0
  0
SCALE
  5
1E9F
102
{ACAD_REACTORS
330
1E95
102
}
330
1E95
100
AcDbScale
 70
     0
300
1:40
140
1.0
141
40.0
290
     0
  0
SCALE
  5
1EA0
102
{ACAD_REACTORS
330
1E95
102
}
330
1E95
100
AcDbScale
 70
     0
300
1:50
140
1.0
141
50.0
290
     0
  0
SCALE
  5
1EA1
102
{ACAD_REACTORS
330
1E95
102
}
330
1E95
100
AcDbScale
 70
     0
300
1:100
140
1.0
141
100.0
290
     0
  0
SCALE
  5
1EA2
102
{ACAD_REACTORS
330
1E95
102
}
330
1E95
100
AcDbScale
 70
     0
300
2:1
140
2.0
141
1.0
290
     0
  0
SCALE
  5
1EA3
102
{ACAD_REACTORS
330
1E95
102
}
330
1E95
100
AcDbScale
 70
     0
300
4:1
140
4.0
141
1.0
290
     0
  0
SCALE
  5
1EA4
102
{ACAD_REACTORS
330
1E95
102
}
330
1E95
100
AcDbScale
 70
     0
300
8:1
140
8.0
141
1.0
290
     0
  0
SCALE
  5
1EA5
102
{ACAD_REACTORS
330
1E95
102
}
330
1E95
100
AcDbScale
 70
     0
300
10:1
140
10.0
141
1.0
290
     0
  0
SCALE
  5
1EA6
102
{ACAD_REACTORS
330
1E95
102
}
330
1E95
100
AcDbScale
 70
     0
300
100:1
140
100.0
141
1.0
290
     0
  0
SCALE
  5
1EA7
102
{ACAD_REACTORS
330
1E95
102
}
330
1E95
100
AcDbScale
 70
     0
300
1/128" = 1'-0"
140
0.0078125
141
12.0
290
     0
  0
SCALE
  5
1EA8
102
{ACAD_REACTORS
330
1E95
102
}
330
1E95
100
AcDbScale
 70
     0
300
1/64" = 1'-0"
140
0.015625
141
12.0
290
     0
  0
SCALE
  5
1EA9
102
{ACAD_REACTORS
330
1E95
102
}
330
1E95
100
AcDbScale
 70
     0
300
1/32" = 1'-0"
140
0.03125
141
12.0
290
     0
  0
SCALE
  5
1EAA
102
{ACAD_REACTORS
330
1E95
102
}
330
1E95
100
AcDbScale
 70
     0
300
1/16" = 1'-0"
140
0.0625
141
12.0
290
     0
  0
SCALE
  5
1EAB
102
{ACAD_REACTORS
330
1E95
102
}
330
1E95
100
AcDbScale
 70
     0
300
3/32" = 1'-0"
140
0.09375
141
12.0
290
     0
  0
SCALE
  5
1EAC
102
{ACAD_REACTORS
330
1E95
102
}
330
1E95
100
AcDbScale
 70
     0
300
1/8" = 1'-0"
140
0.125
141
12.0
290
     0
  0
SCALE
  5
1EAD
102
{ACAD_REACTORS
330
1E95
102
}
330
1E95
100
AcDbScale
 70
     0
300
3/16" = 1'-0"
140
0.1875
141
12.0
290
     0
  0
SCALE
  5
1EAE
102
{ACAD_REACTORS
330
1E95
102
}
330
1E95
100
AcDbScale
 70
     0
300
1/4" = 1'-0"
140
0.25
141
12.0
290
     0
  0
SCALE
  5
1EAF
102
{ACAD_REACTORS
330
1E95
102
}
330
1E95
100
AcDbScale
 70
     0
300
3/8" = 1'-0"
140
0.375
141
12.0
290
     0
  0
SCALE
  5
1EB0
102
{ACAD_REACTORS
330
1E95
102
}
330
1E95
100
AcDbScale
 70
     0
300
1/2" = 1'-0"
140
0.5
141
12.0
290
     0
  0
SCALE
  5
1EB1
102
{ACAD_REACTORS
330
1E95
102
}
330
1E95
100
AcDbScale
 70
     0
300
3/4" = 1'-0"
140
0.75
141
12.0
290
     0
  0
SCALE
  5
1EB2
102
{ACAD_REACTORS
330
1E95
102
}
330
1E95
100
AcDbScale
 70
     0
300
1" = 1'-0"
140
1.0
141
12.0
290
     0
  0
SCALE
  5
1EB3
102
{ACAD_REACTORS
330
1E95
102
}
330
1E95
100
AcDbScale
 70
     0
300
1-1/2" = 1'-0"
140
1.5
141
12.0
290
     0
  0
SCALE
  5
1EB4
102
{ACAD_REACTORS
330
1E95
102
}
330
1E95
100
AcDbScale
 70
     0
300
3" = 1'-0"
140
3.0
141
12.0
290
     0
  0
SCALE
  5
1EB5
102
{ACAD_REACTORS
330
1E95
102
}
330
1E95
100
AcDbScale
 70
     0
300
6" = 1'-0"
140
6.0
141
12.0
290
     0
  0
SCALE
  5
1EB6
102
{ACAD_REACTORS
330
1E95
102
}
330
1E95
100
AcDbScale
 70
     0
300
1'-0" = 1'-0"
140
12.0
141
12.0
290
     0
  0
TABLESTYLE
  5
9AC
102
{ACAD_REACTORS
330
9AB
102
}
102
{ACAD_XDICTIONARY
360
1EB8
102
}
330
9AB
100
AcDbTableStyle
  3
Standard
 70
     0
 71
     0
 40
0.06
 41
0.06
280
     0
281
     0
  7
STANDARD
140
0.18
170
     2
 62
     0
 63
   257
283
     0
274
    -2
284
     1
 64
     0
275
    -2
285
     1
 65
     0
276
    -2
286
     1
 66
     0
277
    -2
287
     1
 67
     0
278
    -2
288
     1
 68
     0
279
    -2
289
     1
 69
     0
  7
STANDARD
140
0.25
170
     5
 62
     0
 63
   257
283
     0
274
    -2
284
     1
 64
     0
275
    -2
285
     1
 65
     0
276
    -2
286
     1
 66
     0
277
    -2
287
     1
 67
     0
278
    -2
288
     1
 68
     0
279
    -2
289
     1
 69
     0
  7
STANDARD
140
0.18
170
     5
 62
     0
 63
   257
283
     0
274
    -2
284
     1
 64
     0
275
    -2
285
     1
 65
     0
276
    -2
286
     1
 66
     0
277
    -2
287
     1
 67
     0
278
    -2
288
     1
 68
     0
279
    -2
289
     1
 69
     0
  0
DICTIONARYVAR
  5
1EB7
102
{ACAD_REACTORS
330
946
102
}
330
946
100
DictionaryVariables
280
     0
  1
1:1
  0
DICTIONARYVAR
  5
CC1
102
{ACAD_REACTORS
330
946
102
}
330
946
100
DictionaryVariables
280
     0
  1
Standard
  0
DICTIONARYVAR
  5
947
102
{ACAD_REACTORS
330
946
102
}
330
946
100
DictionaryVariables
280
     0
  1
1
  0
DICTIONARYVAR
  5
CC2
102
{ACAD_REACTORS
330
946
102
}
330
946
100
DictionaryVariables
280
     0
  1

  0
DICTIONARY
  5
1EB8
330
9AC
100
AcDbDictionary
280
     1
281
     1
  3
ACAD_ROUNDTRIP_2008_TABLESTYLE_CELLSTYLEMAP
360
1EBA
  3
ACAD_XREC_ROUNDTRIP
360
1EB9
  0
CELLSTYLEMAP
  5
1EBA
102
{ACAD_REACTORS
330
1EB8
102
}
330
1EB8
100
AcDbCellStyleMap
 90
        3
300
CELLSTYLE
  1
TABLEFORMAT_BEGIN
 90
        5
170
     1
 91
        0
 92
    32768
 62
   257
 93
        1
300
CONTENTFORMAT
  1
CONTENTFORMAT_BEGIN
 90
        0
 91
        0
 92
        4
 93
        0
300

 40
0.0
140
1.0
 94
        5
 62
     0
340
F
144
0.25
309
CONTENTFORMAT_END
171
     1
301
MARGIN
  1
CELLMARGIN_BEGIN
 40
0.06
 40
0.06
 40
0.06
 40
0.06
 40
0.06
 40
0.06
309
CELLMARGIN_END
 94
        6
 95
        1
302
GRIDFORMAT
  1
GRIDFORMAT_BEGIN
 90
        0
 91
        1
 62
     0
 92
       -2
340
0
 93
        0
 40
0.045
309
GRIDFORMAT_END
 95
        2
302
GRIDFORMAT
  1
GRIDFORMAT_BEGIN
 90
        0
 91
        1
 62
     0
 92
       -2
340
0
 93
        0
 40
0.045
309
GRIDFORMAT_END
 95
        4
302
GRIDFORMAT
  1
GRIDFORMAT_BEGIN
 90
        0
 91
        1
 62
     0
 92
       -2
340
0
 93
        0
 40
0.045
309
GRIDFORMAT_END
 95
        8
302
GRIDFORMAT
  1
GRIDFORMAT_BEGIN
 90
        0
 91
        1
 62
     0
 92
       -2
340
0
 93
        0
 40
0.045
309
GRIDFORMAT_END
 95
       16
302
GRIDFORMAT
  1
GRIDFORMAT_BEGIN
 90
        0
 91
        1
 62
     0
 92
       -2
340
0
 93
        0
 40
0.045
309
GRIDFORMAT_END
 95
       32
302
GRIDFORMAT
  1
GRIDFORMAT_BEGIN
 90
        0
 91
        1
 62
     0
 92
       -2
340
0
 93
        0
 40
0.045
309
GRIDFORMAT_END
309
TABLEFORMAT_END
  1
CELLSTYLE_BEGIN
 90
        1
 91
        1
300
_TITLE
309
CELLSTYLE_END
300
CELLSTYLE
  1
TABLEFORMAT_BEGIN
 90
        5
170
     1
 91
        0
 92
        0
 62
   257
 93
        1
300
CONTENTFORMAT
  1
CONTENTFORMAT_BEGIN
 90
        0
 91
        0
 92
        4
 93
        0
300

 40
0.0
140
1.0
 94
        5
 62
     0
340
F
144
0.18
309
CONTENTFORMAT_END
171
     1
301
MARGIN
  1
CELLMARGIN_BEGIN
 40
0.06
 40
0.06
 40
0.06
 40
0.06
 40
0.06
 40
0.06
309
CELLMARGIN_END
 94
        6
 95
        1
302
GRIDFORMAT
  1
GRIDFORMAT_BEGIN
 90
        0
 91
        1
 62
     0
 92
       -2
340
0
 93
        0
 40
0.045
309
GRIDFORMAT_END
 95
        2
302
GRIDFORMAT
  1
GRIDFORMAT_BEGIN
 90
        0
 91
        1
 62
     0
 92
       -2
340
0
 93
        0
 40
0.045
309
GRIDFORMAT_END
 95
        4
302
GRIDFORMAT
  1
GRIDFORMAT_BEGIN
 90
        0
 91
        1
 62
     0
 92
       -2
340
0
 93
        0
 40
0.045
309
GRIDFORMAT_END
 95
        8
302
GRIDFORMAT
  1
GRIDFORMAT_BEGIN
 90
        0
 91
        1
 62
     0
 92
       -2
340
0
 93
        0
 40
0.045
309
GRIDFORMAT_END
 95
       16
302
GRIDFORMAT
  1
GRIDFORMAT_BEGIN
 90
        0
 91
        1
 62
     0
 92
       -2
340
0
 93
        0
 40
0.045
309
GRIDFORMAT_END
 95
       32
302
GRIDFORMAT
  1
GRIDFORMAT_BEGIN
 90
        0
 91
        1
 62
     0
 92
       -2
340
0
 93
        0
 40
0.045
309
GRIDFORMAT_END
309
TABLEFORMAT_END
  1
CELLSTYLE_BEGIN
 90
        2
 91
        1
300
_HEADER
309
CELLSTYLE_END
300
CELLSTYLE
  1
TABLEFORMAT_BEGIN
 90
        5
170
     1
 91
        0
 92
        0
 62
   257
 93
        1
300
CONTENTFORMAT
  1
CONTENTFORMAT_BEGIN
 90
        0
 91
        0
 92
        4
 93
        0
300

 40
0.0
140
1.0
 94
        2
 62
     0
340
F
144
0.18
309
CONTENTFORMAT_END
171
     1
301
MARGIN
  1
CELLMARGIN_BEGIN
 40
0.06
 40
0.06
 40
0.06
 40
0.06
 40
0.06
 40
0.06
309
CELLMARGIN_END
 94
        6
 95
        1
302
GRIDFORMAT
  1
GRIDFORMAT_BEGIN
 90
        0
 91
        1
 62
     0
 92
       -2
340
0
 93
        0
 40
0.045
309
GRIDFORMAT_END
 95
        2
302
GRIDFORMAT
  1
GRIDFORMAT_BEGIN
 90
        0
 91
        1
 62
     0
 92
       -2
340
0
 93
        0
 40
0.045
309
GRIDFORMAT_END
 95
        4
302
GRIDFORMAT
  1
GRIDFORMAT_BEGIN
 90
        0
 91
        1
 62
     0
 92
       -2
340
0
 93
        0
 40
0.045
309
GRIDFORMAT_END
 95
        8
302
GRIDFORMAT
  1
GRIDFORMAT_BEGIN
 90
        0
 91
        1
 62
     0
 92
       -2
340
0
 93
        0
 40
0.045
309
GRIDFORMAT_END
 95
       16
302
GRIDFORMAT
  1
GRIDFORMAT_BEGIN
 90
        0
 91
        1
 62
     0
 92
       -2
340
0
 93
        0
 40
0.045
309
GRIDFORMAT_END
 95
       32
302
GRIDFORMAT
  1
GRIDFORMAT_BEGIN
 90
        0
 91
        1
 62
     0
 92
       -2
340
0
 93
        0
 40
0.045
309
GRIDFORMAT_END
309
TABLEFORMAT_END
  1
CELLSTYLE_BEGIN
 90
        3
 91
        2
300
_DATA
309
CELLSTYLE_END
  0
XRECORD
  5
1EB9
102
{ACAD_REACTORS
330
1EB8
102
}
330
1EB8
100
AcDbXrecord
280
     1
102
ACAD_ROUNDTRIP_PRE2007_TABLESTYLE
 90
        4
 91
        0
  1

 92
        4
 93
        0
  2

 94
        4
 95
        0
  3

  0
ENDSEC
  0
EOF
