  0
SECTION
  2
HEADER
  9
$ACADVER
  1
AC1018
  9
$ACADMAINTVER
 70
     0
  9
$DWGCODEPAGE
  3
ANSI_932
  9
$INSBASE
 10
0.0
 20
0.0
 30
0.0
  9
$EXTMIN
 10
510.0
 20
0.0
 30
0.0
  9
$EXTMAX
 10
12000.0
 20
8310.0
 30
0.0
  9
$LIMMIN
 10
0.0
 20
0.0
  9
$LIMMAX
 10
12600.0
 20
8910.0
  9
$ORTHOMODE
 70
     1
  9
$REGENMODE
 70
     1
  9
$FILLMODE
 70
     1
  9
$QTEXTMODE
 70
     0
  9
$MIRRTEXT
 70
     0
  9
$LTSCALE
 40
300.0
  9
$ATTMODE
 70
     1
  9
$TEXTSIZE
 40
3.0
  9
$TRACEWID
 40
0.05
  9
$TEXTSTYLE
  7
STANDARD
  9
$CLAYER
  8
SUNPOU
  9
$CELTYPE
  6
BYLAYER
  9
$CECOLOR
 62
   256
  9
$CELTSCALE
 40
1.0
  9
$DISPSILH
 70
     0
  9
$DIMSCALE
 40
30.0
  9
$DIMASZ
 40
2.0
  9
$DIMEXO
 40
2.0
  9
$DIMDLI
 40
7.0
  9
$DIMRND
 40
0.0
  9
$DIMDLE
 40
0.0
  9
$DIMEXE
 40
0.5
  9
$DIMTP
 40
0.0
  9
$DIMTM
 40
0.0
  9
$DIMTXT
 40
3.0
  9
$DIMCEN
 40
0.0
  9
$DIMTSZ
 40
0.0
  9
$DIMTOL
 70
     0
  9
$DIMLIM
 70
     0
  9
$DIMTIH
 70
     0
  9
$DIMTOH
 70
     0
  9
$DIMSE1
 70
     0
  9
$DIMSE2
 70
     0
  9
$DIMTAD
 70
     1
  9
$DIMZIN
 70
     8
  9
$DIMBLK
  1

  9
$DIMASO
 70
     1
  9
$DIMSHO
 70
     1
  9
$DIMPOST
  1

  9
$DIMAPOST
  1

  9
$DIMALT
 70
     0
  9
$DIMALTD
 70
     2
  9
$DIMALTF
 40
25.4
  9
$DIMLFAC
 40
1.0
  9
$DIMTOFL
 70
     0
  9
$DIMTVP
 40
1.0
  9
$DIMTIX
 70
     1
  9
$DIMSOXD
 70
     0
  9
$DIMSAH
 70
     0
  9
$DIMBLK1
  1

  9
$DIMBLK2
  1

  9
$DIMSTYLE
  2
A3-30
  9
$DIMCLRD
 70
     0
  9
$DIMCLRE
 70
     0
  9
$DIMCLRT
 70
     0
  9
$DIMTFAC
 40
1.0
  9
$DIMGAP
 40
0.8
  9
$DIMJUST
 70
     0
  9
$DIMSD1
 70
     0
  9
$DIMSD2
 70
     0
  9
$DIMTOLJ
 70
     1
  9
$DIMTZIN
 70
     8
  9
$DIMALTZ
 70
     8
  9
$DIMALTTZ
 70
     8
  9
$DIMUPT
 70
     0
  9
$DIMDEC
 70
     0
  9
$DIMTDEC
 70
     0
  9
$DIMALTU
 70
     2
  9
$DIMALTTD
 70
     2
  9
$DIMTXSTY
  7
STANDARD
  9
$DIMAUNIT
 70
     0
  9
$DIMADEC
 70
     4
  9
$DIMALTRND
 40
0.0
  9
$DIMAZIN
 70
     0
  9
$DIMDSEP
 70
    46
  9
$DIMATFIT
 70
     3
  9
$DIMFRAC
 70
     0
  9
$DIMLDRBLK
  1

  9
$DIMLUNIT
 70
     2
  9
$DIMLWD
 70
    -2
  9
$DIMLWE
 70
    -2
  9
$DIMTMOVE
 70
     2
  9
$LUNITS
 70
     2
  9
$LUPREC
 70
     4
  9
$SKETCHINC
 40
0.1
  9
$FILLETRAD
 40
0.0
  9
$AUNITS
 70
     0
  9
$AUPREC
 70
     6
  9
$MENU
  1
acad
  9
$ELEVATION
 40
0.0
  9
$PELEVATION
 40
0.0
  9
$THICKNESS
 40
0.0
  9
$LIMCHECK
 70
     0
  9
$CHAMFERA
 40
0.0
  9
$CHAMFERB
 40
0.0
  9
$CHAMFERC
 40
0.0
  9
$CHAMFERD
 40
0.0
  9
$SKPOLY
 70
     0
  9
$TDCREATE
 40
2450014.659421296
  9
$TDUCREATE
 40
2450014.284421296
  9
$TDUPDATE
 40
2455838.381709248
  9
$TDUUPDATE
 40
2455838.006709248
  9
$TDINDWG
 40
0.086448912
  9
$TDUSRTIMER
 40
0.086448912
  9
$USRTIMER
 70
     1
  9
$ANGBASE
 50
0.0
  9
$ANGDIR
 70
     0
  9
$PDMODE
 70
     0
  9
$PDSIZE
 40
0.0
  9
$PLINEWID
 40
0.0
  9
$SPLFRAME
 70
     0
  9
$SPLINETYPE
 70
     6
  9
$SPLINESEGS
 70
     8
  9
$HANDSEED
  5
2FE0
  9
$SURFTAB1
 70
     6
  9
$SURFTAB2
 70
     6
  9
$SURFTYPE
 70
     6
  9
$SURFU
 70
     6
  9
$SURFV
 70
     6
  9
$UCSBASE
  2

  9
$UCSNAME
  2

  9
$UCSORG
 10
0.0
 20
0.0
 30
0.0
  9
$UCSXDIR
 10
1.0
 20
0.0
 30
0.0
  9
$UCSYDIR
 10
0.0
 20
1.0
 30
0.0
  9
$UCSORTHOREF
  2

  9
$UCSORTHOVIEW
 70
     0
  9
$UCSORGTOP
 10
0.0
 20
0.0
 30
0.0
  9
$UCSORGBOTTOM
 10
0.0
 20
0.0
 30
0.0
  9
$UCSORGLEFT
 10
0.0
 20
0.0
 30
0.0
  9
$UCSORGRIGHT
 10
0.0
 20
0.0
 30
0.0
  9
$UCSORGFRONT
 10
0.0
 20
0.0
 30
0.0
  9
$UCSORGBACK
 10
0.0
 20
0.0
 30
0.0
  9
$PUCSBASE
  2

  9
$PUCSNAME
  2

  9
$PUCSORG
 10
0.0
 20
0.0
 30
0.0
  9
$PUCSXDIR
 10
1.0
 20
0.0
 30
0.0
  9
$PUCSYDIR
 10
0.0
 20
1.0
 30
0.0
  9
$PUCSORTHOREF
  2

  9
$PUCSORTHOVIEW
 70
     0
  9
$PUCSORGTOP
 10
0.0
 20
0.0
 30
0.0
  9
$PUCSORGBOTTOM
 10
0.0
 20
0.0
 30
0.0
  9
$PUCSORGLEFT
 10
0.0
 20
0.0
 30
0.0
  9
$PUCSORGRIGHT
 10
0.0
 20
0.0
 30
0.0
  9
$PUCSORGFRONT
 10
0.0
 20
0.0
 30
0.0
  9
$PUCSORGBACK
 10
0.0
 20
0.0
 30
0.0
  9
$USERI1
 70
     0
  9
$USERI2
 70
     0
  9
$USERI3
 70
     0
  9
$USERI4
 70
     0
  9
$USERI5
 70
     0
  9
$USERR1
 40
0.0
  9
$USERR2
 40
0.0
  9
$USERR3
 40
0.0
  9
$USERR4
 40
0.0
  9
$USERR5
 40
0.0
  9
$WORLDVIEW
 70
     1
  9
$SHADEDGE
 70
     3
  9
$SHADEDIF
 70
    70
  9
$TILEMODE
 70
     1
  9
$MAXACTVP
 70
    48
  9
$PINSBASE
 10
0.0
 20
0.0
 30
0.0
  9
$PLIMCHECK
 70
     0
  9
$PEXTMIN
 10
1.000000000000000E+20
 20
1.000000000000000E+20
 30
1.000000000000000E+20
  9
$PEXTMAX
 10
-1.000000000000000E+20
 20
-1.000000000000000E+20
 30
-1.000000000000000E+20
  9
$PLIMMIN
 10
0.0
 20
0.0
  9
$PLIMMAX
 10
12.0
 20
9.0
  9
$UNITMODE
 70
     0
  9
$VISRETAIN
 70
     0
  9
$PLINEGEN
 70
     0
  9
$PSLTSCALE
 70
     0
  9
$TREEDEPTH
 70
  3020
  9
$CMLSTYLE
  2
STANDARD
  9
$CMLJUST
 70
     0
  9
$CMLSCALE
 40
1.0
  9
$PROXYGRAPHICS
 70
     1
  9
$MEASUREMENT
 70
     0
  9
$CELWEIGHT
370
    -1
  9
$ENDCAPS
280
     0
  9
$JOINSTYLE
280
     0
  9
$LWDISPLAY
290
     0
  9
$INSUNITS
 70
     0
  9
$HYPERLINKBASE
  1

  9
$STYLESHEET
  1
acad.ctb
  9
$XEDIT
290
     1
  9
$CEPSNTYPE
380
     0
  9
$PSTYLEMODE
290
     1
  9
$FINGERPRINTGUID
  2
{9E4B692F-34DC-11D6-9351-0080AD72C8A3}
  9
$VERSIONGUID
  2
{402C530E-D9A2-46B0-958C-57DD4394C100}
  9
$EXTNAMES
290
     1
  9
$PSVPSCALE
 40
0.0
  9
$OLESTARTUP
290
     0
  9
$SORTENTS
280
   127
  9
$INDEXCTL
280
     0
  9
$HIDETEXT
280
     1
  9
$XCLIPFRAME
290
     0
  9
$HALOGAP
280
     0
  9
$OBSCOLOR
 70
   257
  9
$OBSLTYPE
280
     0
  9
$INTERSECTIONDISPLAY
280
     0
  9
$INTERSECTIONCOLOR
 70
   257
  9
$DIMASSOC
280
     1
  9
$PROJECTNAME
  1

  0
ENDSEC
  0
SECTION
  2
CLASSES
  0
CLASS
  1
ACDBDICTIONARYWDFLT
  2
AcDbDictionaryWithDefault
  3
ObjectDBX Classes
 90
        0
 91
        4
280
     0
281
     0
  0
CLASS
  1
ACDBPLACEHOLDER
  2
AcDbPlaceHolder
  3
ObjectDBX Classes
 90
        0
 91
        1
280
     0
281
     0
  0
CLASS
  1
LAYOUT
  2
AcDbLayout
  3
ObjectDBX Classes
 90
        0
 91
        1
280
     0
281
     0
  0
CLASS
  1
DICTIONARYVAR
  2
AcDbDictionaryVar
  3
ObjectDBX Classes
 90
        0
 91
        4
280
     0
281
     0
  0
CLASS
  1
DUMMY
  2
AcDbLongTransaction
  3
DUMMY
 90
        0
 91
        1
280
     0
281
     0
  0
CLASS
  1
LWPOLYLINE
  2
AcDbPolyline
  3
AutoCAD 2000
 90
        0
 91
        1
280
     0
281
     1
  0
CLASS
  1
HATCH
  2
AcDbHatch
  3
AutoCAD 2000
 90
        0
 91
        1
280
     0
281
     1
  0
CLASS
  1
XRECORD
  2
AcDbXrecord
  3
AutoCAD 2000
 90
        0
 91
        1
280
     0
281
     0
  0
CLASS
  1
DUMMY
  2
AcDbLongTransaction
  3
DUMMY
 90
        0
 91
        1
280
     0
281
     0
  0
CLASS
  1
LWPOLYLINE
  2
AcDbPolyline
  3
AutoCAD 2000
 90
        0
 91
        1
280
     0
281
     1
  0
CLASS
  1
HATCH
  2
AcDbHatch
  3
AutoCAD 2000
 90
        0
 91
        1
280
     0
281
     1
  0
CLASS
  1
XRECORD
  2
AcDbXrecord
  3
AutoCAD 2000
 90
        0
 91
        1
280
     0
281
     0
  0
CLASS
  1
DUMMY
  2
AcDbLongTransaction
  3
DUMMY
 90
        0
 91
        1
280
     0
281
     0
  0
CLASS
  1
LWPOLYLINE
  2
AcDbPolyline
  3
AutoCAD 2000
 90
        0
 91
        1
280
     0
281
     1
  0
CLASS
  1
HATCH
  2
AcDbHatch
  3
AutoCAD 2000
 90
        0
 91
        1
280
     0
281
     1
  0
CLASS
  1
XRECORD
  2
AcDbXrecord
  3
AutoCAD 2000
 90
        0
 91
        1
280
     0
281
     0
  0
CLASS
  1
TABLESTYLE
  2
AcDbTableStyle
  3
ObjectDBX Classes
 90
     4095
 91
        4
280
     0
281
     0
  0
CLASS
  1
SORTENTSTABLE
  2
AcDbSortentsTable
  3
ObjectDBX Classes
 90
        0
 91
        4
280
     0
281
     0
  0
CLASS
  1
SCALE
  2
AcDbScale
  3
ObjectDBX Classes
 90
     1153
 91
        4
280
     0
281
     0
  0
CLASS
  1
CELLSTYLEMAP
  2
AcDbCellStyleMap
  3
ObjectDBX Classes
 90
     1152
 91
        4
280
     0
281
     0
  0
ENDSEC
  0
SECTION
  2
TABLES
  0
TABLE
  2
VPORT
  5
8
330
0
100
AcDbSymbolTable
 70
     2
  0
VPORT
  5
2FB2
330
8
100
AcDbSymbolTableRecord
100
AcDbViewportTableRecord
  2
*Active
 70
     0
 10
0.0
 20
0.0
 11
1.0
 21
1.0
 12
5867.623944411565
 22
3898.96521473453
 13
0.0
 23
0.0
 14
30.0
 24
30.0
 15
300.0
 25
300.0
 16
0.0
 26
0.0
 36
1.0
 17
0.0
 27
0.0
 37
0.0
 40
9420.374849863714
 41
1.507024265644955
 42
50.0
 43
0.0
 44
0.0
 50
0.0
 51
0.0
 71
     0
 72
   100
 73
     1
 74
     1
 75
     0
 76
     0
 77
     0
 78
     0
281
     0
 65
     1
110
0.0
120
0.0
130
0.0
111
1.0
121
0.0
131
0.0
112
0.0
122
1.0
132
0.0
 79
     0
146
0.0
  0
ENDTAB
  0
TABLE
  2
LTYPE
  5
5
330
0
100
AcDbSymbolTable
 70
     6
  0
LTYPE
  5
11
330
5
100
AcDbSymbolTableRecord
100
AcDbLinetypeTableRecord
  2
BYBLOCK
 70
     0
  3

 72
    65
 73
     0
 40
0.0
  0
LTYPE
  5
12
330
5
100
AcDbSymbolTableRecord
100
AcDbLinetypeTableRecord
  2
BYLAYER
 70
     0
  3

 72
    65
 73
     0
 40
0.0
  0
LTYPE
  5
13
330
5
100
AcDbSymbolTableRecord
100
AcDbLinetypeTableRecord
  2
CONTINUOUS
 70
     0
  3
Solid line
 72
    65
 73
     0
 40
0.0
  0
LTYPE
  5
1E
330
5
100
AcDbSymbolTableRecord
100
AcDbLinetypeTableRecord
  2
HIDDEN
 70
     0
  3
_ _ _ _ _ _ _ _ _ _ _ _ _ _ _ _ _ _ _ _ _ _ _
 72
    65
 73
     2
 40
0.375
 49
0.25
 74
     0
 49
-0.125
 74
     0
  0
LTYPE
  5
1F
330
5
100
AcDbSymbolTableRecord
100
AcDbLinetypeTableRecord
  2
CENTER
 70
     0
  3
____ _ ____ _ ____ _ ____ _ ____ _ ____ _ ____
 72
    65
 73
     4
 40
2.0
 49
1.25
 74
     0
 49
-0.25
 74
     0
 49
0.25
 74
     0
 49
-0.25
 74
     0
  0
LTYPE
  5
20
330
5
100
AcDbSymbolTableRecord
100
AcDbLinetypeTableRecord
  2
PHANTOM
 70
     0
  3
_____ _ _ _____ _ _ _____ _ _ _____ _ _ ____
 72
    65
 73
     6
 40
2.5
 49
1.25
 74
     0
 49
-0.25
 74
     0
 49
0.25
 74
     0
 49
-0.25
 74
     0
 49
0.25
 74
     0
 49
-0.25
 74
     0
  0
LTYPE
  5
D6D
330
5
100
AcDbSymbolTableRecord
100
AcDbLinetypeTableRecord
  2
DASHED2
 70
     0
  3
_ _ _ _ _ _ _ _ _ _ _ _ _ _ _ _ _ _ _ _ _ _ _ _
 72
    65
 73
     2
 40
0.375
 49
0.25
 74
     0
 49
-0.125
 74
     0
  0
LTYPE
  5
217B
330
5
100
AcDbSymbolTableRecord
100
AcDbLinetypeTableRecord
  2
CENTER2
 70
     0
  3
___ _ ___ _ ___ _ ___ _ ___ _ ___ _ ___ _ ___ _
 72
    65
 73
     4
 40
1.125
 49
0.75
 74
     0
 49
-0.125
 74
     0
 49
0.125
 74
     0
 49
-0.125
 74
     0
  0
ENDTAB
  0
TABLE
  2
LAYER
  5
2
330
0
100
AcDbSymbolTable
 70
    10
  0
LAYER
  5
E
330
2
100
AcDbSymbolTableRecord
100
AcDbLayerTableRecord
  2
0
 70
     0
 62
     7
  6
CONTINUOUS
370
    -3
390
7A
  0
LAYER
  5
23
330
2
100
AcDbSymbolTableRecord
100
AcDbLayerTableRecord
  2
SUNPOU
 70
     0
 62
     1
  6
CONTINUOUS
370
    -3
390
7A
  0
LAYER
  5
24
330
2
100
AcDbSymbolTableRecord
100
AcDbLayerTableRecord
  2
HAIKIN
 70
     0
 62
     2
  6
CONTINUOUS
370
    -3
390
7A
  0
LAYER
  5
25
330
2
100
AcDbSymbolTableRecord
100
AcDbLayerTableRecord
  2
SEIHIN
 70
     0
 62
     3
  6
CONTINUOUS
370
    -3
390
7A
  0
LAYER
  5
26
330
2
100
AcDbSymbolTableRecord
100
AcDbLayerTableRecord
  2
HASEN
 70
     0
 62
     4
  6
HIDDEN
370
    -3
390
7A
  0
LAYER
  5
27
330
2
100
AcDbSymbolTableRecord
100
AcDbLayerTableRecord
  2
1HASEN
 70
     0
 62
     5
  6
CENTER
370
    -3
390
7A
  0
LAYER
  5
28
330
2
100
AcDbSymbolTableRecord
100
AcDbLayerTableRecord
  2
2HASEN
 70
     0
 62
     6
  6
PHANTOM
370
    -3
390
7A
  0
LAYER
  5
29
330
2
100
AcDbSymbolTableRecord
100
AcDbLayerTableRecord
  2
HOJO
 70
     0
 62
     7
  6
CONTINUOUS
370
    -3
390
7A
  0
LAYER
  5
2A
330
2
100
AcDbSymbolTableRecord
100
AcDbLayerTableRecord
  2
TEN
 70
     0
 62
     7
  6
CONTINUOUS
370
    -3
390
7A
  0
LAYER
  5
70
330
2
100
AcDbSymbolTableRecord
100
AcDbLayerTableRecord
  2
DEFPOINTS
 70
     0
 62
     7
  6
CONTINUOUS
290
     0
370
    -3
390
7A
  0
ENDTAB
  0
TABLE
  2
STYLE
  5
3
330
0
100
AcDbSymbolTable
 70
     1
  0
STYLE
  5
F
330
3
100
AcDbSymbolTableRecord
100
AcDbTextStyleTableRecord
  2
STANDARD
 70
     0
 40
0.0
 41
0.8
 50
0.0
 71
     0
 42
0.2
  3
TXT.shx
  4
BIGFONT.shx
  0
ENDTAB
  0
TABLE
  2
VIEW
  5
6
330
0
100
AcDbSymbolTable
 70
     0
  0
ENDTAB
  0
TABLE
  2
UCS
  5
7
330
0
100
AcDbSymbolTable
 70
     0
  0
ENDTAB
  0
TABLE
  2
APPID
  5
9
330
0
100
AcDbSymbolTable
 70
    12
  0
APPID
  5
10
330
9
100
AcDbSymbolTableRecord
100
AcDbRegAppTableRecord
  2
ACAD
 70
     0
  0
APPID
  5
9B0
330
9
100
AcDbSymbolTableRecord
100
AcDbRegAppTableRecord
  2
ACAD_DSTYLE_DIMTEXT_FILL
 70
     0
  0
APPID
  5
9B1
330
9
100
AcDbSymbolTableRecord
100
AcDbRegAppTableRecord
  2
ACAD_DSTYLE_DIMEXT_LENGTH
 70
     0
  0
APPID
  5
9B2
330
9
100
AcDbSymbolTableRecord
100
AcDbRegAppTableRecord
  2
ACAD_DSTYLE_DIMEXT_ENABLED
 70
     0
  0
APPID
  5
9B3
330
9
100
AcDbSymbolTableRecord
100
AcDbRegAppTableRecord
  2
ACAD_DSTYLE_DIM_LINETYPE
 70
     0
  0
APPID
  5
9B4
330
9
100
AcDbSymbolTableRecord
100
AcDbRegAppTableRecord
  2
ACAD_DSTYLE_DIM_EXT1_LINETYPE
 70
     0
  0
APPID
  5
9B5
330
9
100
AcDbSymbolTableRecord
100
AcDbRegAppTableRecord
  2
ACAD_DSTYLE_DIM_EXT2_LINETYPE
 70
     0
  0
APPID
  5
A71
330
9
100
AcDbSymbolTableRecord
100
AcDbRegAppTableRecord
  2
ACAD_DSTYLE_DIMJOGGED_JOGANGLE_SYMBOL
 70
     0
  0
APPID
  5
C55
330
9
100
AcDbSymbolTableRecord
100
AcDbRegAppTableRecord
  2
ACAD_DSTYLE_DIMARC_LENGTH_SYMBOL
 70
     0
  0
APPID
  5
D6F
330
9
100
AcDbSymbolTableRecord
100
AcDbRegAppTableRecord
  2
ACAD_PSEXT
 70
     0
  0
APPID
  5
D70
330
9
100
AcDbSymbolTableRecord
100
AcDbRegAppTableRecord
  2
AcAecLayerStandard
 70
     0
  0
APPID
  5
1801
330
9
100
AcDbSymbolTableRecord
100
AcDbRegAppTableRecord
  2
ACAD_EXEMPT_FROM_CAD_STANDARDS
 70
     0
  0
ENDTAB
  0
TABLE
  2
DIMSTYLE
  5
A
330
0
100
AcDbSymbolTable
 70
     3
100
AcDbDimStyleTable
  0
DIMSTYLE
105
61
330
A
100
AcDbSymbolTableRecord
100
AcDbDimStyleTableRecord
  2
STANDARD
 70
     0
178
     0
340
F
  0
DIMSTYLE
105
C5A
102
{ACAD_REACTORS
330
2A66
330
2A67
330
2A68
330
2A69
330
2A6A
330
2A6B
330
2A6C
330
2A6D
330
2B37
330
2B38
330
2B39
330
2B3A
330
2B3B
330
2B3C
330
2BCF
330
2BD0
330
2BD1
330
2BD2
330
2BD3
330
2BD4
330
2BD5
330
2BD6
330
2BD7
330
2CEC
330
2CED
330
2CEE
330
2CEF
330
2CF0
330
2CF1
330
2CF2
330
2CF3
330
2DB0
330
2DB1
330
2DB2
330
2DB3
330
2DB4
330
2DB5
330
2DB6
330
2E4C
330
2FA5
102
}
330
A
100
AcDbSymbolTableRecord
100
AcDbDimStyleTableRecord
  2
A3-30
 70
     0
 40
30.0
 41
2.0
 42
2.0
 43
7.0
 44
0.5
 73
     0
 74
     0
 77
     1
 78
     8
140
3.0
141
0.0
145
1.0
147
0.8
174
     1
178
     0
179
     4
271
     0
272
     0
279
     2
284
     8
285
     8
286
     8
340
F
  0
DIMSTYLE
105
D6E
330
A
100
AcDbSymbolTableRecord
100
AcDbDimStyleTableRecord
  2
A3-25
 70
     0
 40
25.0
 41
1.8
 42
2.0
 43
7.0
 44
0.5
 73
     0
 74
     0
 77
     1
 78
     8
140
2.5
141
0.0
145
1.0
147
0.7
174
     1
178
     0
179
     4
271
     0
272
     0
279
     2
284
     8
285
     8
286
     8
340
F
  0
ENDTAB
  0
TABLE
  2
BLOCK_RECORD
  5
1
330
0
100
AcDbSymbolTable
 70
    51
  0
BLOCK_RECORD
  5
17
102
{ACAD_XDICTIONARY
360
90E
102
}
330
1
100
AcDbSymbolTableRecord
100
AcDbBlockTableRecord
  2
*MODEL_SPACE
340
7D
  0
BLOCK_RECORD
  5
14
330
1
100
AcDbSymbolTableRecord
100
AcDbBlockTableRecord
  2
*PAPER_SPACE
340
7E
  0
BLOCK_RECORD
  5
1C
330
1
100
AcDbSymbolTableRecord
100
AcDbBlockTableRecord
  2
BORDER
340
0
  0
BLOCK_RECORD
  5
1D
330
1
100
AcDbSymbolTableRecord
100
AcDbBlockTableRecord
  2
SA3
340
0
102
{BLKREFS
331
60
102
}
  0
BLOCK_RECORD
  5
82
330
1
100
AcDbSymbolTableRecord
100
AcDbBlockTableRecord
  2
*D2
340
0
  0
BLOCK_RECORD
  5
8E
330
1
100
AcDbSymbolTableRecord
100
AcDbBlockTableRecord
  2
*D3
340
0
  0
BLOCK_RECORD
  5
9C
330
1
100
AcDbSymbolTableRecord
100
AcDbBlockTableRecord
  2
*D4
340
0
  0
BLOCK_RECORD
  5
AA
330
1
100
AcDbSymbolTableRecord
100
AcDbBlockTableRecord
  2
*D5
340
0
  0
BLOCK_RECORD
  5
B6
330
1
100
AcDbSymbolTableRecord
100
AcDbBlockTableRecord
  2
*D6
340
0
  0
BLOCK_RECORD
  5
C3
330
1
100
AcDbSymbolTableRecord
100
AcDbBlockTableRecord
  2
A$C79F54BAC
340
0
  0
BLOCK_RECORD
  5
D61
330
1
100
AcDbSymbolTableRecord
100
AcDbBlockTableRecord
  2
FG
340
0
102
{BLKREFS
331
25E7
331
2A4A
102
}
  0
BLOCK_RECORD
  5
D68
330
1
100
AcDbSymbolTableRecord
100
AcDbBlockTableRecord
  2
_DOT
340
0
  0
BLOCK_RECORD
  5
DF3
330
1
100
AcDbSymbolTableRecord
100
AcDbBlockTableRecord
  2
FGG
340
0
  0
BLOCK_RECORD
  5
2A70
330
1
100
AcDbSymbolTableRecord
100
AcDbBlockTableRecord
  2
*D11
340
0
  0
BLOCK_RECORD
  5
2A7C
330
1
100
AcDbSymbolTableRecord
100
AcDbBlockTableRecord
  2
*D12
340
0
  0
BLOCK_RECORD
  5
2A88
330
1
100
AcDbSymbolTableRecord
100
AcDbBlockTableRecord
  2
*D13
340
0
  0
BLOCK_RECORD
  5
2A94
330
1
100
AcDbSymbolTableRecord
100
AcDbBlockTableRecord
  2
*D14
340
0
  0
BLOCK_RECORD
  5
2AA1
330
1
100
AcDbSymbolTableRecord
100
AcDbBlockTableRecord
  2
*D15
340
0
  0
BLOCK_RECORD
  5
2AAD
330
1
100
AcDbSymbolTableRecord
100
AcDbBlockTableRecord
  2
*D16
340
0
  0
BLOCK_RECORD
  5
2AB9
330
1
100
AcDbSymbolTableRecord
100
AcDbBlockTableRecord
  2
*D17
340
0
  0
BLOCK_RECORD
  5
2AC6
330
1
100
AcDbSymbolTableRecord
100
AcDbBlockTableRecord
  2
*D18
340
0
  0
BLOCK_RECORD
  5
2B3D
330
1
100
AcDbSymbolTableRecord
100
AcDbBlockTableRecord
  2
*D19
340
0
  0
BLOCK_RECORD
  5
2B49
330
1
100
AcDbSymbolTableRecord
100
AcDbBlockTableRecord
  2
*D20
340
0
  0
BLOCK_RECORD
  5
2B55
330
1
100
AcDbSymbolTableRecord
100
AcDbBlockTableRecord
  2
*D21
340
0
  0
BLOCK_RECORD
  5
2B61
330
1
100
AcDbSymbolTableRecord
100
AcDbBlockTableRecord
  2
*D22
340
0
  0
BLOCK_RECORD
  5
2B6E
330
1
100
AcDbSymbolTableRecord
100
AcDbBlockTableRecord
  2
*D23
340
0
  0
BLOCK_RECORD
  5
2B7A
330
1
100
AcDbSymbolTableRecord
100
AcDbBlockTableRecord
  2
*D24
340
0
  0
BLOCK_RECORD
  5
2BDA
330
1
100
AcDbSymbolTableRecord
100
AcDbBlockTableRecord
  2
*D25
340
0
  0
BLOCK_RECORD
  5
2BE7
330
1
100
AcDbSymbolTableRecord
100
AcDbBlockTableRecord
  2
*D26
340
0
  0
BLOCK_RECORD
  5
2BF3
330
1
100
AcDbSymbolTableRecord
100
AcDbBlockTableRecord
  2
*D27
340
0
  0
BLOCK_RECORD
  5
2BFF
330
1
100
AcDbSymbolTableRecord
100
AcDbBlockTableRecord
  2
*D28
340
0
  0
BLOCK_RECORD
  5
2C0B
330
1
100
AcDbSymbolTableRecord
100
AcDbBlockTableRecord
  2
*D29
340
0
  0
BLOCK_RECORD
  5
2C17
330
1
100
AcDbSymbolTableRecord
100
AcDbBlockTableRecord
  2
*D30
340
0
  0
BLOCK_RECORD
  5
2C23
330
1
100
AcDbSymbolTableRecord
100
AcDbBlockTableRecord
  2
*D31
340
0
  0
BLOCK_RECORD
  5
2C30
330
1
100
AcDbSymbolTableRecord
100
AcDbBlockTableRecord
  2
*D32
340
0
  0
BLOCK_RECORD
  5
2C3D
330
1
100
AcDbSymbolTableRecord
100
AcDbBlockTableRecord
  2
*D33
340
0
  0
BLOCK_RECORD
  5
2CFA
330
1
100
AcDbSymbolTableRecord
100
AcDbBlockTableRecord
  2
*D34
340
0
  0
BLOCK_RECORD
  5
2D06
330
1
100
AcDbSymbolTableRecord
100
AcDbBlockTableRecord
  2
*D35
340
0
  0
BLOCK_RECORD
  5
2D12
330
1
100
AcDbSymbolTableRecord
100
AcDbBlockTableRecord
  2
*D36
340
0
  0
BLOCK_RECORD
  5
2D1E
330
1
100
AcDbSymbolTableRecord
100
AcDbBlockTableRecord
  2
*D37
340
0
  0
BLOCK_RECORD
  5
2D2A
330
1
100
AcDbSymbolTableRecord
100
AcDbBlockTableRecord
  2
*D38
340
0
  0
BLOCK_RECORD
  5
2D36
330
1
100
AcDbSymbolTableRecord
100
AcDbBlockTableRecord
  2
*D39
340
0
  0
BLOCK_RECORD
  5
2D43
330
1
100
AcDbSymbolTableRecord
100
AcDbBlockTableRecord
  2
*D40
340
0
  0
BLOCK_RECORD
  5
2D4F
330
1
100
AcDbSymbolTableRecord
100
AcDbBlockTableRecord
  2
*D41
340
0
  0
BLOCK_RECORD
  5
2DB7
330
1
100
AcDbSymbolTableRecord
100
AcDbBlockTableRecord
  2
*D42
340
0
  0
BLOCK_RECORD
  5
2DC3
330
1
100
AcDbSymbolTableRecord
100
AcDbBlockTableRecord
  2
*D43
340
0
  0
BLOCK_RECORD
  5
2DCF
330
1
100
AcDbSymbolTableRecord
100
AcDbBlockTableRecord
  2
*D44
340
0
  0
BLOCK_RECORD
  5
2DDB
330
1
100
AcDbSymbolTableRecord
100
AcDbBlockTableRecord
  2
*D45
340
0
  0
BLOCK_RECORD
  5
2DE7
330
1
100
AcDbSymbolTableRecord
100
AcDbBlockTableRecord
  2
*D46
340
0
  0
BLOCK_RECORD
  5
2DF3
330
1
100
AcDbSymbolTableRecord
100
AcDbBlockTableRecord
  2
*D47
340
0
  0
BLOCK_RECORD
  5
2E00
330
1
100
AcDbSymbolTableRecord
100
AcDbBlockTableRecord
  2
*D48
340
0
  0
BLOCK_RECORD
  5
2E4D
330
1
100
AcDbSymbolTableRecord
100
AcDbBlockTableRecord
  2
*D49
340
0
  0
BLOCK_RECORD
  5
2FA6
330
1
100
AcDbSymbolTableRecord
100
AcDbBlockTableRecord
  2
*D50
340
0
  0
ENDTAB
  0
ENDSEC
  0
SECTION
  2
BLOCKS
  0
BLOCK
  5
2D
330
17
100
AcDbEntity
  8
0
100
AcDbBlockBegin
  2
*MODEL_SPACE
 70
     0
 10
0.0
 20
0.0
 30
0.0
  3
*MODEL_SPACE
  1

  0
ENDBLK
  5
2E
330
17
100
AcDbEntity
  8
0
100
AcDbBlockEnd
  0
BLOCK
  5
2B
330
14
100
AcDbEntity
 67
     1
  8
0
100
AcDbBlockBegin
  2
*PAPER_SPACE
 70
     0
 10
0.0
 20
0.0
 30
0.0
  3
*PAPER_SPACE
  1

  0
ENDBLK
  5
2C
330
14
100
AcDbEntity
 67
     1
  8
0
100
AcDbBlockEnd
  0
BLOCK
  5
2F
330
1C
100
AcDbEntity
  8
0
100
AcDbBlockBegin
  2
BORDER
 70
     0
 10
0.0
 20
0.0
 30
0.0
  3
BORDER
  1

  0
LINE
  5
30
330
1C
100
AcDbEntity
  8
0
100
AcDbLine
 10
0.0
 20
0.0
 30
0.0
 11
1.00000000000004
 21
0.0
 31
0.0
  0
LINE
  5
31
330
1C
100
AcDbEntity
  8
0
100
AcDbLine
 10
1.00000000000004
 20
0.0
 30
0.0
 11
1.00000000000004
 21
1.00000000000004
 31
0.0
  0
LINE
  5
32
330
1C
100
AcDbEntity
  8
0
100
AcDbLine
 10
1.00000000000004
 20
1.00000000000004
 30
0.0
 11
0.0
 21
1.00000000000004
 31
0.0
  0
LINE
  5
33
330
1C
100
AcDbEntity
  8
0
100
AcDbLine
 10
0.0
 20
1.00000000000004
 30
0.0
 11
0.0
 21
0.0
 31
0.0
  0
ENDBLK
  5
34
330
1C
100
AcDbEntity
  8
0
100
AcDbBlockEnd
  0
BLOCK
  5
35
330
1D
100
AcDbEntity
  8
HAIKIN
100
AcDbBlockBegin
  2
SA3
 70
     0
 10
0.0
 20
0.0
 30
0.0
  3
SA3
  1

  0
TEXT
  5
36
330
1D
100
AcDbEntity
  8
SUNPOU
100
AcDbText
 10
340.0
 20
0.0
 30
0.0
 40
2.5
  1
新和コンクリート工業株式会社
100
AcDbText
  0
TEXT
  5
39
330
1D
100
AcDbEntity
  8
SUNPOU
100
AcDbText
 10
361.4166666666667
 20
6.25
 30
0.0
 40
2.5
  1
製図
 72
     4
 11
364.0
 21
7.5
 31
0.0
100
AcDbText
  0
TEXT
  5
3A
330
1D
100
AcDbEntity
  8
SUNPOU
100
AcDbText
 10
361.3333333333333
 20
11.25
 30
0.0
 40
2.5
  1
設計
 72
     4
 11
364.0
 21
12.5
 31
0.0
100
AcDbText
  0
TEXT
  5
3B
330
1D
100
AcDbEntity
  8
SUNPOU
100
AcDbText
 10
339.0833333333333
 20
6.250000000000014
 30
0.0
 40
2.5
  1
認
 72
     4
 11
340.25
 21
7.500000000000014
 31
0.0
100
AcDbText
  0
TEXT
  5
3C
330
1D
100
AcDbEntity
  8
SUNPOU
100
AcDbText
 10
339.0833333333333
 20
11.33333333333336
 30
0.0
 40
2.5
  1
承
 72
     4
 11
340.25
 21
12.50000000000003
 31
0.0
100
AcDbText
  0
TEXT
  5
3D
330
1D
100
AcDbEntity
  8
SUNPOU
100
AcDbText
 10
312.75
 20
11.75000000000001
 30
0.0
 40
2.5
  1
図　面　番　号
 72
     4
 11
323.0
 21
13.00000000000001
 31
0.0
100
AcDbText
  0
TEXT
  5
3E
330
1D
100
AcDbEntity
  8
SUNPOU
100
AcDbText
 10
362.0
 20
17.0
 30
0.0
 40
2.5
  1
１／
100
AcDbText
  0
TEXT
  5
3F
330
1D
100
AcDbEntity
  8
SUNPOU
100
AcDbText
 10
347.3333333333333
 20
16.25000000000001
 30
0.0
 40
2.5
  1
縮　　尺
 72
     4
 11
353.0
 21
17.50000000000001
 31
0.0
100
AcDbText
  0
TEXT
  5
40
330
1D
100
AcDbEntity
  8
SUNPOU
100
AcDbText
 10
347.3333333333333
 20
21.25
 30
0.0
 40
2.5
  1
鉄 筋 量
 72
     4
 11
353.0
 21
22.5
 31
0.0
100
AcDbText
  0
TEXT
  5
41
330
1D
100
AcDbEntity
  8
SUNPOU
100
AcDbText
 10
347.3333333333333
 20
26.25
 30
0.0
 40
2.5
  1
製 造 数
 72
     4
 11
353.0
 21
27.5
 31
0.0
100
AcDbText
  0
TEXT
  5
42
330
1D
100
AcDbEntity
  8
SUNPOU
100
AcDbText
 10
377.0
 20
21.0
 30
0.0
 40
2.5
  1
ｋｇ
 72
     2
 11
382.0
 21
21.0
 31
0.0
100
AcDbText
  0
TEXT
  5
43
330
1D
100
AcDbEntity
  8
SUNPOU
100
AcDbText
 10
339.5
 20
21.0
 30
0.0
 40
2.5
  1
ｋｇ
 72
     2
 11
344.5
 21
21.0
 31
0.0
100
AcDbText
  0
TEXT
  5
44
330
1D
100
AcDbEntity
  8
SUNPOU
100
AcDbText
 10
310.0
 20
16.25000000000001
 30
0.0
 40
2.5
  1
年 月 日
 72
     4
 11
315.5
 21
17.50000000000001
 31
0.0
100
AcDbText
  0
TEXT
  5
45
330
1D
100
AcDbEntity
  8
SUNPOU
100
AcDbText
 10
309.8333333333333
 20
21.25
 30
0.0
 40
2.5
  1
製品質量
 72
     4
 11
315.5
 21
22.5
 31
0.0
100
AcDbText
  0
TEXT
  5
46
330
1D
100
AcDbEntity
  8
SUNPOU
100
AcDbText
 10
309.9166666666667
 20
26.25
 30
0.0
 40
2.5
  1
業 者 名
 72
     4
 11
315.5
 21
27.5
 31
0.0
100
AcDbText
  0
TEXT
  5
47
330
1D
100
AcDbEntity
  8
SUNPOU
100
AcDbText
 10
309.8333333333333
 20
32.5
 30
0.0
 40
2.5
  1
名　　称
 72
     4
 11
315.5
 21
33.75
 31
0.0
100
AcDbText
  0
LINE
  5
48
330
1D
100
AcDbEntity
  8
SUNPOU
100
AcDbLine
 10
338.0
 20
11.00000000000001
 30
0.0
 11
308.0
 21
11.00000000000001
 31
0.0
  0
LINE
  5
49
330
1D
100
AcDbEntity
  8
SUNPOU
100
AcDbLine
 10
367.5
 20
4.999999999999986
 30
0.0
 11
367.5
 21
14.99999999999999
 31
0.0
  0
LINE
  5
4A
330
1D
100
AcDbEntity
  8
SUNPOU
100
AcDbLine
 10
360.5
 20
4.999999999999986
 30
0.0
 11
360.5
 21
14.99999999999999
 31
0.0
  0
LINE
  5
4B
330
1D
100
AcDbEntity
  8
SUNPOU
100
AcDbLine
 10
342.5
 20
4.999999999999995
 30
0.0
 11
342.5
 21
15.0
 31
0.0
  0
LINE
  5
4C
330
1D
100
AcDbEntity
  8
SUNPOU
100
AcDbLine
 10
338.0
 20
4.999999999999995
 30
0.0
 11
338.0
 21
15.0
 31
0.0
  0
LINE
  5
4D
330
1D
100
AcDbEntity
  8
SUNPOU
100
AcDbLine
 10
323.0
 20
15.00000000000001
 30
0.0
 11
323.0
 21
37.5
 31
0.0
  0
LINE
  5
4E
330
1D
100
AcDbEntity
  8
SUNPOU
100
AcDbLine
 10
360.5
 20
15.00000000000001
 30
0.0
 11
360.5
 21
30.0
 31
0.0
  0
LINE
  5
4F
330
1D
100
AcDbEntity
  8
SUNPOU
100
AcDbLine
 10
345.5
 20
15.00000000000001
 30
0.0
 11
345.5
 21
30.0
 31
0.0
  0
LINE
  5
50
330
1D
100
AcDbEntity
  8
SUNPOU
100
AcDbLine
 10
383.0
 20
30.0
 30
0.0
 11
308.0
 21
30.0
 31
0.0
  0
LINE
  5
51
330
1D
100
AcDbEntity
  8
SUNPOU
100
AcDbLine
 10
383.0
 20
25.0
 30
0.0
 11
308.0
 21
25.0
 31
0.0
  0
LINE
  5
52
330
1D
100
AcDbEntity
  8
SUNPOU
100
AcDbLine
 10
383.0
 20
20.0
 30
0.0
 11
308.0
 21
20.0
 31
0.0
  0
LINE
  5
53
330
1D
100
AcDbEntity
  8
SUNPOU
100
AcDbLine
 10
383.0
 20
14.99999999999999
 30
0.0
 11
308.0
 21
15.00000000000004
 31
0.0
  0
LINE
  5
54
330
1D
100
AcDbEntity
  8
HAIKIN
100
AcDbLine
 10
308.0
 20
37.5
 30
0.0
 11
383.0
 21
37.5
 31
0.0
  0
LINE
  5
55
330
1D
100
AcDbEntity
  8
HAIKIN
100
AcDbLine
 10
308.0
 20
5.000000000000009
 30
0.0
 11
308.0
 21
37.5
 31
0.0
  0
LINE
  5
56
330
1D
100
AcDbEntity
  8
SUNPOU
100
AcDbLine
 10
0.000000000000016
 20
277.0
 30
0.0
 11
0.000000000000016
 21
272.0
 31
0.0
  0
LINE
  5
57
330
1D
100
AcDbEntity
  8
SUNPOU
100
AcDbLine
 10
25.00000000000001
 20
277.0
 30
0.0
 11
0.000000000000016
 21
277.0
 31
0.0
  0
LINE
  5
58
330
1D
100
AcDbEntity
  8
SUNPOU
100
AcDbLine
 10
25.00000000000001
 20
272.0
 30
0.0
 11
25.00000000000001
 21
277.0
 31
0.0
  0
LINE
  5
59
330
1D
100
AcDbEntity
  8
HAIKIN
100
AcDbLine
 10
0.0000000000000004
 20
5.0
 30
0.0
 11
383.0
 21
5.0
 31
0.0
  0
LINE
  5
5A
330
1D
100
AcDbEntity
  8
HAIKIN
100
AcDbLine
 10
0.0000000000000158
 20
272.0
 30
0.0
 11
383.0
 21
272.0
 31
0.0
  0
LINE
  5
5B
330
1D
100
AcDbEntity
  8
HAIKIN
100
AcDbLine
 10
383.0
 20
272.0
 30
0.0
 11
383.0
 21
5.0
 31
0.0
  0
TEXT
  5
5C
330
1D
100
AcDbEntity
  8
SUNPOU
100
AcDbText
 10
3.700000000000017
 20
273.0
 30
0.0
 40
3.0
  1
Ｈ－２－共
 72
     4
 11
12.50000000000002
 21
274.5
 31
0.0
100
AcDbText
  0
LINE
  5
5D
330
1D
100
AcDbEntity
  8
HAIKIN
100
AcDbLine
 10
0.0000000000000004
 20
5.0
 30
0.0
 11
0.0000000000000158
 21
272.0
 31
0.0
  0
ENDBLK
  5
5E
330
1D
100
AcDbEntity
  8
HAIKIN
100
AcDbBlockEnd
  0
BLOCK
  5
8C
330
82
100
AcDbEntity
  8
0
100
AcDbBlockBegin
  2
*D2
 70
     1
 10
0.0
 20
0.0
 30
0.0
  3
*D2
  1

  0
LINE
  5
83
330
82
100
AcDbEntity
  8
SUNPOU
370
    -2
100
AcDbLine
 10
14459.99999999999
 20
11910.0
 30
0.0
 11
15605.99999999999
 21
11910.0
 31
0.0
  0
LINE
  5
84
330
82
100
AcDbEntity
  8
SUNPOU
370
    -2
100
AcDbLine
 10
14459.99999999999
 20
13710.0
 30
0.0
 11
15605.99999999999
 21
13710.0
 31
0.0
  0
LINE
  5
85
330
82
100
AcDbEntity
  8
SUNPOU
370
    -2
100
AcDbLine
 10
15569.99999999999
 20
12000.0
 30
0.0
 11
15569.99999999999
 21
13620.0
 31
0.0
  0
MTEXT
  5
86
330
82
100
AcDbEntity
  8
SUNPOU
 62
     0
100
AcDbMText
 10
15404.05869794343
 20
12806.25726232369
 30
0.0
 40
180.0
 41
0.0
 71
     5
 72
     1
  1
\A1;15@120=1800
 11
6.123031769111886E-17
 21
1.0
 31
0.0
 73
     1
 44
1.0
  0
SOLID
  5
87
330
82
100
AcDbEntity
  8
SUNPOU
100
AcDbTrace
 10
15554.99999999999
 20
12000.0
 30
0.0
 11
15584.99999999999
 21
12000.0
 31
0.0
 12
15569.99999999999
 22
11910.0
 32
0.0
 13
15569.99999999999
 23
11910.0
 33
0.0
  0
SOLID
  5
88
330
82
100
AcDbEntity
  8
SUNPOU
100
AcDbTrace
 10
15554.99999999999
 20
13620.0
 30
0.0
 11
15584.99999999999
 21
13620.0
 31
0.0
 12
15569.99999999999
 22
13710.0
 32
0.0
 13
15569.99999999999
 23
13710.0
 33
0.0
  0
POINT
  5
89
330
82
100
AcDbEntity
  8
DEFPOINTS
 62
     0
100
AcDbPoint
 10
14369.99999999999
 20
11910.0
 30
0.0
  0
POINT
  5
8A
330
82
100
AcDbEntity
  8
DEFPOINTS
 62
     0
100
AcDbPoint
 10
14369.99999999999
 20
13710.0
 30
0.0
  0
POINT
  5
8B
330
82
100
AcDbEntity
  8
DEFPOINTS
 62
     0
100
AcDbPoint
 10
15569.99999999999
 20
13710.0
 30
0.0
  0
ENDBLK
  5
8D
330
82
100
AcDbEntity
  8
0
100
AcDbBlockEnd
  0
BLOCK
  5
9A
330
8E
100
AcDbEntity
  8
0
100
AcDbBlockBegin
  2
*D3
 70
     1
 10
0.0
 20
0.0
 30
0.0
  3
*D3
  1

  0
LINE
  5
8F
330
8E
100
AcDbEntity
  8
SUNPOU
370
    -2
100
AcDbLine
 10
14333.74999999999
 20
11805.0
 30
0.0
 11
15605.99999999999
 21
11805.0
 31
0.0
  0
LINE
  5
90
330
8E
100
AcDbEntity
  8
SUNPOU
370
    -2
100
AcDbLine
 10
14489.70588235293
 20
11910.0
 30
0.0
 11
15605.99999999999
 21
11910.0
 31
0.0
  0
LINE
  5
91
330
8E
100
AcDbEntity
  8
SUNPOU
370
    -2
100
AcDbLine
 10
15569.99999999999
 20
11715.0
 30
0.0
 11
15569.99999999999
 21
11625.0
 31
0.0
  0
LINE
  5
92
330
8E
100
AcDbEntity
  8
SUNPOU
370
    -2
100
AcDbLine
 10
15569.99999999999
 20
12000.0
 30
0.0
 11
15569.99999999999
 21
12090.0
 31
0.0
  0
MTEXT
  5
93
330
8E
100
AcDbEntity
  8
SUNPOU
 62
     0
100
AcDbMText
 10
15730.33993097525
 20
11906.05735268755
 30
0.0
 40
180.0
 41
0.0
 71
     5
 72
     1
  1
\A1;105
 11
6.123031769111886E-17
 21
1.0
 31
0.0
 73
     1
 44
1.0
  0
LINE
  5
94
330
8E
100
AcDbEntity
  8
SUNPOU
370
    -2
100
AcDbLine
 10
15569.99999999999
 20
11805.0
 30
0.0
 11
15569.99999999999
 21
11910.0
 31
0.0
  0
SOLID
  5
95
330
8E
100
AcDbEntity
  8
SUNPOU
100
AcDbTrace
 10
15554.99999999999
 20
11715.0
 30
0.0
 11
15584.99999999999
 21
11715.0
 31
0.0
 12
15569.99999999999
 22
11805.0
 32
0.0
 13
15569.99999999999
 23
11805.0
 33
0.0
  0
SOLID
  5
96
330
8E
100
AcDbEntity
  8
SUNPOU
100
AcDbTrace
 10
15554.99999999999
 20
12000.0
 30
0.0
 11
15584.99999999999
 21
12000.0
 31
0.0
 12
15569.99999999999
 22
11910.0
 32
0.0
 13
15569.99999999999
 23
11910.0
 33
0.0
  0
POINT
  5
97
330
8E
100
AcDbEntity
  8
DEFPOINTS
 62
     0
100
AcDbPoint
 10
14243.74999999999
 20
11805.0
 30
0.0
  0
POINT
  5
98
330
8E
100
AcDbEntity
  8
DEFPOINTS
 62
     0
100
AcDbPoint
 10
14399.70588235293
 20
11910.0
 30
0.0
  0
POINT
  5
99
330
8E
100
AcDbEntity
  8
DEFPOINTS
 62
     0
100
AcDbPoint
 10
15569.99999999999
 20
11910.0
 30
0.0
  0
ENDBLK
  5
9B
330
8E
100
AcDbEntity
  8
0
100
AcDbBlockEnd
  0
BLOCK
  5
A8
330
9C
100
AcDbEntity
  8
0
100
AcDbBlockBegin
  2
*D4
 70
     1
 10
0.0
 20
0.0
 30
0.0
  3
*D4
  1

  0
LINE
  5
9D
330
9C
100
AcDbEntity
  8
SUNPOU
370
    -2
100
AcDbLine
 10
14459.99999999999
 20
13710.0
 30
0.0
 11
15605.99999999999
 21
13710.0
 31
0.0
  0
LINE
  5
9E
330
9C
100
AcDbEntity
  8
SUNPOU
370
    -2
100
AcDbLine
 10
14459.99999999999
 20
13770.0
 30
0.0
 11
15605.99999999999
 21
13770.0
 31
0.0
  0
LINE
  5
9F
330
9C
100
AcDbEntity
  8
SUNPOU
370
    -2
100
AcDbLine
 10
15569.99999999999
 20
13620.0
 30
0.0
 11
15569.99999999999
 21
13530.0
 31
0.0
  0
LINE
  5
A0
330
9C
100
AcDbEntity
  8
SUNPOU
370
    -2
100
AcDbLine
 10
15569.99999999999
 20
13860.0
 30
0.0
 11
15569.99999999999
 21
13950.0
 31
0.0
  0
MTEXT
  5
A1
330
9C
100
AcDbEntity
  8
SUNPOU
 62
     0
100
AcDbMText
 10
15437.48050855183
 20
13968.0082924672
 30
0.0
 40
180.0
 41
0.0
 71
     5
 72
     1
  1
\A1;60
 11
6.123031769111886E-17
 21
1.0
 31
0.0
 73
     1
 44
1.0
  0
LINE
  5
A2
330
9C
100
AcDbEntity
  8
SUNPOU
370
    -2
100
AcDbLine
 10
15569.99999999999
 20
13710.0
 30
0.0
 11
15569.99999999999
 21
13770.0
 31
0.0
  0
SOLID
  5
A3
330
9C
100
AcDbEntity
  8
SUNPOU
100
AcDbTrace
 10
15554.99999999999
 20
13620.0
 30
0.0
 11
15584.99999999999
 21
13620.0
 31
0.0
 12
15569.99999999999
 22
13710.0
 32
0.0
 13
15569.99999999999
 23
13710.0
 33
0.0
  0
SOLID
  5
A4
330
9C
100
AcDbEntity
  8
SUNPOU
100
AcDbTrace
 10
15554.99999999999
 20
13860.0
 30
0.0
 11
15584.99999999999
 21
13860.0
 31
0.0
 12
15569.99999999999
 22
13770.0
 32
0.0
 13
15569.99999999999
 23
13770.0
 33
0.0
  0
POINT
  5
A5
330
9C
100
AcDbEntity
  8
DEFPOINTS
 62
     0
100
AcDbPoint
 10
14369.99999999999
 20
13710.0
 30
0.0
  0
POINT
  5
A6
330
9C
100
AcDbEntity
  8
DEFPOINTS
 62
     0
100
AcDbPoint
 10
14369.99999999999
 20
13770.0
 30
0.0
  0
POINT
  5
A7
330
9C
100
AcDbEntity
  8
DEFPOINTS
 62
     0
100
AcDbPoint
 10
15569.99999999999
 20
13770.0
 30
0.0
  0
ENDBLK
  5
A9
330
9C
100
AcDbEntity
  8
0
100
AcDbBlockEnd
  0
BLOCK
  5
B4
330
AA
100
AcDbEntity
  8
0
100
AcDbBlockBegin
  2
*D5
 70
     1
 10
0.0
 20
0.0
 30
0.0
  3
*D5
  1

  0
LINE
  5
AB
330
AA
100
AcDbEntity
  8
SUNPOU
370
    -2
100
AcDbLine
 10
14324.99999999999
 20
11770.0
 30
0.0
 11
15905.99999999999
 21
11770.0
 31
0.0
  0
LINE
  5
AC
330
AA
100
AcDbEntity
  8
SUNPOU
370
    -2
100
AcDbLine
 10
14594.99999999999
 20
13770.0
 30
0.0
 11
15905.99999999999
 21
13770.0
 31
0.0
  0
LINE
  5
AD
330
AA
100
AcDbEntity
  8
SUNPOU
370
    -2
100
AcDbLine
 10
15869.99999999999
 20
11860.0
 30
0.0
 11
15869.99999999999
 21
13680.0
 31
0.0
  0
SOLID
  5
AE
330
AA
100
AcDbEntity
  8
SUNPOU
100
AcDbTrace
 10
15854.99999999999
 20
11860.0
 30
0.0
 11
15884.99999999999
 21
11860.0
 31
0.0
 12
15869.99999999999
 22
11770.0
 32
0.0
 13
15869.99999999999
 23
11770.0
 33
0.0
  0
SOLID
  5
AF
330
AA
100
AcDbEntity
  8
SUNPOU
100
AcDbTrace
 10
15854.99999999999
 20
13680.0
 30
0.0
 11
15884.99999999999
 21
13680.0
 31
0.0
 12
15869.99999999999
 22
13770.0
 32
0.0
 13
15869.99999999999
 23
13770.0
 33
0.0
  0
MTEXT
  5
B0
330
AA
100
AcDbEntity
  8
SUNPOU
 62
     0
100
AcDbMText
 10
15731.99999999999
 20
12770.0
 30
0.0
 40
180.0
 41
0.0
 71
     5
 72
     1
  1
\A1;2000
 11
6.123031769111886E-17
 21
1.0
 31
0.0
 73
     1
 44
1.0
  0
POINT
  5
B1
330
AA
100
AcDbEntity
  8
DEFPOINTS
 62
     0
100
AcDbPoint
 10
14234.99999999999
 20
11770.0
 30
0.0
  0
POINT
  5
B2
330
AA
100
AcDbEntity
  8
DEFPOINTS
 62
     0
100
AcDbPoint
 10
14504.99999999999
 20
13770.0
 30
0.0
  0
POINT
  5
B3
330
AA
100
AcDbEntity
  8
DEFPOINTS
 62
     0
100
AcDbPoint
 10
15869.99999999999
 20
13770.0
 30
0.0
  0
ENDBLK
  5
B5
330
AA
100
AcDbEntity
  8
0
100
AcDbBlockEnd
  0
BLOCK
  5
C1
330
B6
100
AcDbEntity
  8
0
100
AcDbBlockBegin
  2
*D6
 70
     1
 10
0.0
 20
0.0
 30
0.0
  3
*D6
  1

  0
LINE
  5
B7
330
B6
100
AcDbEntity
  8
SUNPOU
 62
     0
370
    -2
100
AcDbLine
 10
14388.74999999999
 20
11805.0
 30
0.0
 11
15629.99999999999
 21
11805.0
 31
0.0
  0
LINE
  5
B8
330
B6
100
AcDbEntity
  8
SUNPOU
 62
     0
370
    -2
100
AcDbLine
 10
14379.99999999999
 20
11770.0
 30
0.0
 11
15629.99999999999
 21
11770.0
 31
0.0
  0
LINE
  5
B9
330
B6
100
AcDbEntity
  8
SUNPOU
 62
     0
370
    -2
100
AcDbLine
 10
15569.99999999999
 20
11895.0
 30
0.0
 11
15569.99999999999
 21
11985.0
 31
0.0
  0
LINE
  5
BA
330
B6
100
AcDbEntity
  8
SUNPOU
 62
     0
370
    -2
100
AcDbLine
 10
15569.99999999999
 20
11680.0
 30
0.0
 11
15569.99999999999
 21
11590.0
 31
0.0
  0
MTEXT
  5
BB
330
B6
100
AcDbEntity
  8
SUNPOU
 62
     0
100
AcDbMText
 10
15422.1488453184
 20
11572.59656658611
 30
0.0
 40
180.0
 41
0.0
 71
     5
 72
     1
  1
\A1;35
 11
6.123031769111886E-17
 21
1.0
 31
0.0
 73
     1
 44
1.0
  0
SOLID
  5
BC
330
B6
100
AcDbEntity
  8
SUNPOU
 62
     0
100
AcDbTrace
 10
15554.99999999999
 20
11895.0
 30
0.0
 11
15584.99999999999
 21
11895.0
 31
0.0
 12
15569.99999999999
 22
11805.0
 32
0.0
 13
15569.99999999999
 23
11805.0
 33
0.0
  0
SOLID
  5
BD
330
B6
100
AcDbEntity
  8
SUNPOU
 62
     0
100
AcDbTrace
 10
15554.99999999999
 20
11680.0
 30
0.0
 11
15584.99999999999
 21
11680.0
 31
0.0
 12
15569.99999999999
 22
11770.0
 32
0.0
 13
15569.99999999999
 23
11770.0
 33
0.0
  0
POINT
  5
BE
330
B6
100
AcDbEntity
  8
DEFPOINTS
 62
     0
100
AcDbPoint
 10
14268.74999999999
 20
11805.0
 30
0.0
  0
POINT
  5
BF
330
B6
100
AcDbEntity
  8
DEFPOINTS
 62
     0
100
AcDbPoint
 10
14259.99999999999
 20
11770.0
 30
0.0
  0
POINT
  5
C0
330
B6
100
AcDbEntity
  8
DEFPOINTS
 62
     0
100
AcDbPoint
 10
15569.99999999999
 20
11770.0
 30
0.0
  0
ENDBLK
  5
C2
330
B6
100
AcDbEntity
  8
0
100
AcDbBlockEnd
  0
BLOCK
  5
169
330
C3
100
AcDbEntity
  8
0
100
AcDbBlockBegin
  2
A$C79F54BAC
 70
     0
 10
0.0
 20
0.0
 30
0.0
  3
A$C79F54BAC
  1

  0
DIMENSION
  5
C4
330
C3
100
AcDbEntity
  8
SUNPOU
100
AcDbDimension
  2
*D2
 10
4229.99998564875
 20
2257.403415746125
 30
0.0
 11
4064.058683592186
 21
1353.660678069813
 31
0.0
 12
-11340.00001435124
 22
-11452.59658425388
 32
0.0
 70
   128
  1
15@120=<>
 71
     5
 42
-1.0
  3
STANDARD
100
AcDbAlignedDimension
 13
3029.99998564875
 23
457.4034157461228
 33
0.0
 14
3029.99998564875
 24
2257.403415746125
 34
0.0
 50
90.0
100
AcDbRotatedDimension
1001
ACAD
1000
DSTYLE
1002
{
1070
   287
1070
     5
1070
   287
1070
     5
1070
   287
1070
     5
1070
   287
1070
     5
1070
   287
1070
     5
1070
   287
1070
     5
1070
   287
1070
     5
1070
   287
1070
     5
1070
    40
1040
60.0
1070
    41
1040
1.5
1070
    42
1040
1.5
1070
    43
1040
7.0
1070
    44
1040
0.6
1070
    73
1070
     0
1070
    74
1070
     0
1070
    77
1070
     1
1070
    78
1070
     8
1070
   140
1040
3.0
1070
   141
1040
0.0
1070
   145
1040
1.0
1070
   147
1040
0.8
1070
   172
1070
     1
1070
   176
1070
   256
1070
   177
1070
   256
1070
   271
1070
     0
1070
   275
1070
     1
1070
   279
1070
     2
1070
   284
1070
     8
1070
   285
1070
     8
1070
   286
1070
     8
1002
}
  0
DIMENSION
  5
C5
330
C3
100
AcDbEntity
  8
SUNPOU
100
AcDbDimension
  2
*D3
 10
4229.99998564875
 20
457.4034157461228
 30
0.0
 11
4390.339916624003
 21
453.4607684336734
 31
0.0
 12
-11340.00001435124
 22
-11452.59658425388
 32
0.0
 70
   128
 71
     5
 42
-1.0
  3
STANDARD
100
AcDbAlignedDimension
 13
2903.74998564875
 23
352.4034157461247
 33
0.0
 14
3059.705868001689
 24
457.4034157461228
 34
0.0
 50
90.0
100
AcDbRotatedDimension
1001
ACAD
1000
DSTYLE
1002
{
1070
   287
1070
     5
1070
   287
1070
     5
1070
   287
1070
     5
1070
   287
1070
     5
1070
   287
1070
     5
1070
   287
1070
     5
1070
   287
1070
     5
1070
   287
1070
     5
1070
    40
1040
60.0
1070
    41
1040
1.5
1070
    42
1040
1.5
1070
    43
1040
7.0
1070
    44
1040
0.6
1070
    73
1070
     0
1070
    74
1070
     0
1070
    77
1070
     1
1070
    78
1070
     8
1070
   140
1040
3.0
1070
   141
1040
0.0
1070
   145
1040
1.0
1070
   147
1040
0.8
1070
   172
1070
     1
1070
   176
1070
   256
1070
   177
1070
   256
1070
   271
1070
     0
1070
   275
1070
     1
1070
   279
1070
     2
1070
   284
1070
     8
1070
   285
1070
     8
1070
   286
1070
     8
1002
}
  0
DIMENSION
  5
C6
330
C3
100
AcDbEntity
  8
SUNPOU
100
AcDbDimension
  2
*D4
 10
4229.99998564875
 20
2317.403415746121
 30
0.0
 11
4097.480494200581
 21
2515.411708213323
 31
0.0
 12
-11340.00001435124
 22
-11452.59658425388
 32
0.0
 70
   128
 71
     5
 42
-1.0
  3
STANDARD
100
AcDbAlignedDimension
 13
3029.99998564875
 23
2257.403415746125
 33
0.0
 14
3029.99998564875
 24
2317.403415746121
 34
0.0
 50
90.0
100
AcDbRotatedDimension
1001
ACAD
1000
DSTYLE
1002
{
1070
   287
1070
     5
1070
   287
1070
     5
1070
   287
1070
     5
1070
   287
1070
     5
1070
   287
1070
     5
1070
   287
1070
     5
1070
   287
1070
     5
1070
   287
1070
     5
1070
    40
1040
60.0
1070
    41
1040
1.5
1070
    42
1040
1.5
1070
    43
1040
7.0
1070
    44
1040
0.6
1070
    73
1070
     0
1070
    74
1070
     0
1070
    77
1070
     1
1070
    78
1070
     8
1070
   140
1040
3.0
1070
   141
1040
0.0
1070
   145
1040
1.0
1070
   147
1040
0.8
1070
   172
1070
     1
1070
   176
1070
   256
1070
   177
1070
   256
1070
   271
1070
     0
1070
   275
1070
     1
1070
   279
1070
     2
1070
   284
1070
     8
1070
   285
1070
     8
1070
   286
1070
     8
1002
}
  0
DIMENSION
  5
C7
330
C3
100
AcDbEntity
  8
SUNPOU
100
AcDbDimension
  2
*D5
 10
4529.99998564875
 20
2317.403415746123
 30
0.0
 11
4391.999985648747
 21
1317.403415746123
 31
0.0
 12
-11340.00001435124
 22
-11452.59658425388
 32
0.0
 71
     5
 42
-1.0
  3
STANDARD
100
AcDbAlignedDimension
 13
2894.99998564875
 23
317.403415746121
 33
0.0
 14
3164.99998564875
 24
2317.403415746123
 34
0.0
 50
90.0
100
AcDbRotatedDimension
1001
ACAD
1000
DSTYLE
1002
{
1070
   287
1070
     5
1070
   287
1070
     5
1070
   287
1070
     5
1070
   287
1070
     5
1070
   287
1070
     5
1070
   287
1070
     5
1070
   287
1070
     5
1070
   287
1070
     5
1070
    40
1040
60.0
1070
    41
1040
1.5
1070
    42
1040
1.5
1070
    43
1040
7.0
1070
    44
1040
0.6
1070
    73
1070
     0
1070
    74
1070
     0
1070
    77
1070
     1
1070
    78
1070
     8
1070
   140
1040
3.0
1070
   141
1040
0.0
1070
   145
1040
1.0
1070
   147
1040
0.8
1070
   172
1070
     1
1070
   176
1070
   256
1070
   177
1070
   256
1070
   271
1070
     0
1070
   275
1070
     1
1070
   279
1070
     2
1070
   284
1070
     8
1070
   285
1070
     8
1070
   286
1070
     8
1002
}
  0
DIMENSION
  5
C8
330
C3
100
AcDbEntity
  8
SUNPOU
100
AcDbDimension
  2
*D6
 10
4229.99998564875
 20
317.403415746121
 30
0.0
 11
4082.14883096716
 21
119.9999823322287
 31
0.0
 12
-11340.00001435124
 22
-11452.59658425388
 32
0.0
 70
   128
 71
     5
 42
-1.0
  3
STANDARD
100
AcDbAlignedDimension
 13
2928.74998564875
 23
352.4034157461247
 33
0.0
 14
2919.99998564875
 24
317.403415746121
 34
0.0
 50
90.0
100
AcDbRotatedDimension
1001
ACAD
1000
DSTYLE
1002
{
1070
   287
1070
     5
1070
   287
1070
     5
1070
   287
1070
     5
1070
   287
1070
     5
1070
   287
1070
     5
1070
   287
1070
     5
1070
   287
1070
     5
1070
   287
1070
     5
1070
    40
1040
60.0
1070
    41
1040
1.5
1070
    42
1040
2.0
1070
    43
1040
3.75
1070
    44
1040
1.0
1070
    73
1070
     0
1070
    74
1070
     0
1070
    77
1070
     1
1070
    78
1070
     8
1070
   140
1040
3.0
1070
   141
1040
2.5
1070
   143
1040
0.0394
1070
   147
1040
1.0
1070
   171
1070
     4
1070
   271
1070
     0
1070
   273
1070
     8
1070
   274
1070
     4
1070
   279
1070
     2
1002
}
  0
LINE
  5
C9
330
C3
100
AcDbEntity
  8
SUNPOU
100
AcDbLine
 10
1679.999985648763
 20
3227.403415746123
 30
0.0
 11
899.9999856487611
 21
3227.403415746123
 31
0.0
1001
ACAD
1000
DSTYLE
1002
{
1070
    78
1070
     8
1070
   284
1070
     8
1070
   140
1040
3.0
1070
   145
1040
1.0
1070
    74
1070
     0
1070
   172
1070
     1
1070
    73
1070
     0
1070
    77
1070
     1
1070
    40
1040
60.0
1070
   147
1040
0.8
1070
   287
1070
     5
1070
    42
1040
1.5
1070
    44
1040
0.6
1070
    43
1040
7.0
1070
   271
1070
     0
1070
   177
1070
   256
1070
   176
1070
   256
1070
   141
1040
0.0
1070
   275
1070
     1
1070
    41
1040
1.5
1070
   285
1070
     8
1070
   286
1070
     8
1002
}
  0
SOLID
  5
CA
330
C3
100
AcDbEntity
  8
SUNPOU
100
AcDbTrace
 10
1216.999985648774
 20
1372.403415746125
 30
0.0
 11
1306.999985648774
 21
1357.403415746123
 31
0.0
 12
1216.999985648774
 22
1342.403415746125
 32
0.0
 13
1216.999985648774
 23
1342.403415746125
 33
0.0
1001
ACAD
1000
DSTYLE
1002
{
1070
    78
1070
     8
1070
   284
1070
     8
1070
   140
1040
3.0
1070
   145
1040
1.0
1070
    74
1070
     0
1070
   172
1070
     1
1070
    73
1070
     0
1070
    77
1070
     1
1070
    40
1040
60.0
1070
   147
1040
0.8
1070
   287
1070
     5
1070
    42
1040
1.5
1070
    44
1040
0.6
1070
    43
1040
7.0
1070
   271
1070
     0
1070
   177
1070
   256
1070
   176
1070
   256
1070
   141
1040
0.0
1070
   275
1070
     1
1070
    41
1040
1.5
1070
   285
1070
     8
1070
   286
1070
     8
1002
}
  0
LINE
  5
CB
330
C3
100
AcDbEntity
  8
SUNPOU
100
AcDbLine
 10
329.9999856487375
 20
1357.403415746123
 30
0.0
 11
1426.999985648756
 21
1357.403415746126
 31
0.0
1001
ACAD
1000
DSTYLE
1002
{
1070
    78
1070
     8
1070
   284
1070
     8
1070
   140
1040
3.0
1070
   145
1040
1.0
1070
    74
1070
     0
1070
   172
1070
     1
1070
    73
1070
     0
1070
    77
1070
     1
1070
    40
1040
60.0
1070
   147
1040
0.8
1070
   287
1070
     5
1070
    42
1040
1.5
1070
    44
1040
0.6
1070
    43
1040
7.0
1070
   271
1070
     0
1070
   177
1070
   256
1070
   176
1070
   256
1070
   141
1040
0.0
1070
   275
1070
     1
1070
    41
1040
1.5
1070
   285
1070
     8
1070
   286
1070
     8
1002
}
  0
LINE
  5
CC
330
C3
100
AcDbEntity
  8
HAIKIN
100
AcDbLine
 10
1979.999985648756
 20
2052.403415746123
 30
0.0
 11
964.9999856487557
 21
2052.403415746117
 31
0.0
  0
LINE
  5
CD
330
C3
100
AcDbEntity
  8
HAIKIN
100
AcDbLine
 10
1979.999985648765
 20
1992.403415746121
 30
0.0
 11
964.9999856487557
 21
1992.403415746117
 31
0.0
  0
LINE
  5
CE
330
C3
100
AcDbEntity
  8
HAIKIN
100
AcDbLine
 10
1979.999985648765
 20
1932.403415746121
 30
0.0
 11
964.9999856487557
 21
1932.403415746117
 31
0.0
  0
LINE
  5
CF
330
C3
100
AcDbEntity
  8
HAIKIN
100
AcDbLine
 10
1979.999985648765
 20
847.4034157461283
 30
0.0
 11
964.9999856487557
 21
847.4034157461247
 31
0.0
  0
LINE
  5
D0
330
C3
100
AcDbEntity
  8
HAIKIN
100
AcDbLine
 10
1979.999985648765
 20
787.4034157461283
 30
0.0
 11
964.9999856487557
 21
787.4034157461247
 31
0.0
  0
LINE
  5
D1
330
C3
100
AcDbEntity
  8
HAIKIN
100
AcDbLine
 10
1979.999985648758
 20
727.4034157461283
 30
0.0
 11
964.9999856487557
 21
727.4034157461247
 31
0.0
  0
LINE
  5
D2
330
C3
100
AcDbEntity
  8
SUNPOU
100
AcDbLine
 10
964.9999856487557
 20
1897.403415746125
 30
0.0
 11
1486.999985648752
 21
1897.403415746121
 31
0.0
  0
LINE
  5
D3
330
C3
100
AcDbEntity
  8
SUNPOU
100
AcDbLine
 10
964.9999856487557
 20
1657.403415746125
 30
0.0
 11
1486.999985648752
 21
1657.403415746121
 31
0.0
  0
LINE
  5
D4
330
C3
100
AcDbEntity
  8
SUNPOU
100
AcDbLine
 10
964.9999856487557
 20
1777.403415746125
 30
0.0
 11
1486.999985648752
 21
1777.403415746123
 31
0.0
  0
LINE
  5
D5
330
C3
100
AcDbEntity
  8
SUNPOU
100
AcDbLine
 10
964.9999856487557
 20
457.4034157461247
 30
0.0
 11
1979.999985648759
 21
457.403415746121
 31
0.0
  0
LINE
  5
D6
330
C3
100
AcDbEntity
  8
SUNPOU
100
AcDbLine
 10
964.9999856487557
 20
817.4034157461247
 30
0.0
 11
1979.999985648759
 21
817.403415746121
 31
0.0
  0
LINE
  5
D7
330
C3
100
AcDbEntity
  8
SUNPOU
100
AcDbLine
 10
964.9999856487557
 20
697.4034157461247
 30
0.0
 11
1979.999985648759
 21
697.403415746121
 31
0.0
  0
LINE
  5
D8
330
C3
100
AcDbEntity
  8
SUNPOU
100
AcDbLine
 10
964.9999856487557
 20
577.4034157461247
 30
0.0
 11
1979.999985648759
 21
577.403415746121
 31
0.0
  0
LINE
  5
D9
330
C3
100
AcDbEntity
  8
SUNPOU
100
AcDbLine
 10
964.9999856487557
 20
937.4034157461247
 30
0.0
 11
1486.999985648752
 21
937.403415746121
 31
0.0
  0
LINE
  5
DA
330
C3
100
AcDbEntity
  8
SUNPOU
100
AcDbLine
 10
964.9999856487557
 20
1057.403415746125
 30
0.0
 11
1486.999985648752
 21
1057.403415746119
 31
0.0
  0
LINE
  5
DB
330
C3
100
AcDbEntity
  8
SUNPOU
100
AcDbLine
 10
964.9999856487557
 20
1177.403415746125
 30
0.0
 11
1486.999985648752
 21
1177.403415746117
 31
0.0
  0
LINE
  5
DC
330
C3
100
AcDbEntity
  8
SUNPOU
100
AcDbLine
 10
964.9999856487557
 20
1297.403415746125
 30
0.0
 11
1486.999985648752
 21
1297.403415746121
 31
0.0
  0
LINE
  5
DD
330
C3
100
AcDbEntity
  8
SUNPOU
100
AcDbLine
 10
964.9999856487557
 20
1417.403415746125
 30
0.0
 11
1486.999985648752
 21
1417.403415746119
 31
0.0
  0
LINE
  5
DE
330
C3
100
AcDbEntity
  8
SUNPOU
100
AcDbLine
 10
964.9999856487557
 20
1537.403415746125
 30
0.0
 11
1486.999985648752
 21
1537.403415746121
 31
0.0
  0
LINE
  5
DF
330
C3
100
AcDbEntity
  8
SUNPOU
100
AcDbLine
 10
964.9999856487557
 20
2017.403415746125
 30
0.0
 11
1979.999985648759
 21
2017.403415746121
 31
0.0
  0
LINE
  5
E0
330
C3
100
AcDbEntity
  8
SUNPOU
100
AcDbLine
 10
964.9999856487557
 20
2137.403415746125
 30
0.0
 11
1979.999985648759
 21
2137.403415746121
 31
0.0
  0
LINE
  5
E1
330
C3
100
AcDbEntity
  8
SUNPOU
100
AcDbLine
 10
964.9999856487557
 20
2257.403415746125
 30
0.0
 11
1979.999985648759
 21
2257.403415746121
 31
0.0
  0
LINE
  5
E2
330
C3
100
AcDbEntity
  8
SUNPOU
100
AcDbLine
 10
964.9999856487557
 20
2362.403415746125
 30
0.0
 11
1979.999985648759
 21
2362.403415746121
 31
0.0
  0
TEXT
  5
E3
330
C3
100
AcDbEntity
  8
HAIKIN
 62
     3
100
AcDbText
 10
1009.999985648752
 20
4617.403415746125
 30
0.0
 40
240.0
  1
頂　版
 72
     1
 11
1409.999985648752
 21
4617.403415746125
 31
0.0
100
AcDbText
  0
TEXT
  5
E4
330
C3
100
AcDbEntity
  8
SUNPOU
100
AcDbText
 10
1019.999985648756
 20
4105.403415746121
 30
0.0
 40
210.0
  1
外　側
 11
1019.999985648756
 21
4077.403415746121
 31
0.0
100
AcDbText
 73
     1
  0
LINE
  5
E5
330
C3
100
AcDbEntity
  8
SUNPOU
100
AcDbLine
 10
1019.999985648752
 20
317.4034157461247
 30
0.0
 11
1979.999985648759
 21
317.403415746121
 31
0.0
  0
LINE
  5
E6
330
C3
100
AcDbEntity
  8
SUNPOU
100
AcDbLine
 10
929.999985648752
 20
397.403415746121
 30
0.0
 11
1979.999985648759
 21
397.403415746121
 31
0.0
  0
LINE
  5
E7
330
C3
100
AcDbEntity
  8
SUNPOU
100
AcDbLine
 10
929.999985648752
 20
2397.403415746123
 30
0.0
 11
1979.999985648759
 21
2397.403415746121
 31
0.0
  0
LINE
  5
E8
330
C3
100
AcDbEntity
  8
SUNPOU
100
AcDbLine
 10
1019.999985648756
 20
4077.403415746121
 30
0.0
 11
2939.999985648754
 21
4077.403415746121
 31
0.0
  0
LINE
  5
E9
330
C3
100
AcDbEntity
  8
HAIKIN
 62
     3
100
AcDbLine
 10
1889.999985648752
 20
4887.403415746125
 30
0.0
 11
929.999985648752
 21
4887.403415746125
 31
0.0
  0
LINE
  5
EA
330
C3
100
AcDbEntity
  8
HAIKIN
 62
     3
100
AcDbLine
 10
1889.999985648752
 20
4587.403415746125
 30
0.0
 11
929.999985648752
 21
4587.403415746125
 31
0.0
  0
TEXT
  5
EB
330
C3
100
AcDbEntity
  8
SUNPOU
100
AcDbText
 10
762.4999856487557
 20
2907.403415746125
 30
0.0
 40
150.0
  1
D13
 41
0.8
 11
762.4999856487557
 21
2982.403415746125
 31
0.0
100
AcDbText
 73
     2
  0
TEXT
  5
EC
330
C3
100
AcDbEntity
  8
SUNPOU
100
AcDbText
 10
457.4999856487557
 20
2907.403415746125
 30
0.0
 40
150.0
  1
H1
 41
0.8
 72
     4
 11
537.4999856487557
 21
2982.403415746125
 31
0.0
100
AcDbText
  0
CIRCLE
  5
ED
330
C3
100
AcDbEntity
  8
SUNPOU
100
AcDbCircle
 10
537.4999856487557
 20
2982.403415746125
 30
0.0
 40
165.0
  0
TEXT
  5
EE
330
C3
100
AcDbEntity
  8
SUNPOU
100
AcDbText
 10
239.9999856487393
 20
1437.403415746128
 30
0.0
 40
150.0
  1
H2
 50
90.0
 41
0.8
 72
     4
 11
164.9999856487393
 21
1537.403415746128
 31
0.0
100
AcDbText
  0
LINE
  5
EF
330
C3
100
AcDbEntity
  8
SUNPOU
100
AcDbLine
 10
1137.499985648754
 20
727.4034157461247
 30
0.0
 11
1137.499985648756
 21
2817.403415746125
 31
0.0
1001
ACAD
1000
DSTYLE
1002
{
1070
    78
1070
     8
1070
   284
1070
     8
1070
   140
1040
3.0
1070
   145
1040
1.0
1070
    74
1070
     0
1070
   172
1070
     1
1070
    73
1070
     0
1070
    77
1070
     1
1070
    40
1040
60.0
1070
   147
1040
0.8
1070
   287
1070
     5
1070
    42
1040
1.5
1070
    44
1040
0.6
1070
    43
1040
7.0
1070
   271
1070
     0
1070
   177
1070
   256
1070
   176
1070
   256
1070
   141
1040
0.0
1070
   275
1070
     1
1070
    41
1040
1.5
1070
   285
1070
     8
1070
   286
1070
     8
1002
}
  0
LINE
  5
F0
330
C3
100
AcDbEntity
  8
SUNPOU
100
AcDbLine
 10
1044.999985648752
 20
2362.403415746125
 30
0.0
 11
1044.999985648756
 21
457.4034157461265
 31
0.0
  0
LINE
  5
F1
330
C3
100
AcDbEntity
  8
SUNPOU
100
AcDbLine
 10
1229.999985648759
 20
2362.403415746123
 30
0.0
 11
1229.999985648763
 21
457.4034157461228
 31
0.0
  0
LINE
  5
F2
330
C3
100
AcDbEntity
  8
SUNPOU
100
AcDbLine
 10
329.9999856487393
 20
2137.403415746126
 30
0.0
 11
329.9999856487393
 21
1357.403415746128
 31
0.0
1001
ACAD
1000
DSTYLE
1002
{
1070
    78
1070
     8
1070
   284
1070
     8
1070
   140
1040
3.0
1070
   145
1040
1.0
1070
    74
1070
     0
1070
   172
1070
     1
1070
    73
1070
     0
1070
    77
1070
     1
1070
    40
1040
60.0
1070
   147
1040
0.8
1070
   287
1070
     5
1070
    42
1040
1.5
1070
    44
1040
0.6
1070
    43
1040
7.0
1070
   271
1070
     0
1070
   177
1070
   256
1070
   176
1070
   256
1070
   141
1040
0.0
1070
   275
1070
     1
1070
    41
1040
1.5
1070
   285
1070
     8
1070
   286
1070
     8
1002
}
  0
CIRCLE
  5
F3
330
C3
100
AcDbEntity
  8
SUNPOU
100
AcDbCircle
 10
164.9999856487393
 20
1537.403415746128
 30
0.0
 40
165.0
  0
LINE
  5
F4
330
C3
100
AcDbEntity
  8
SUNPOU
100
AcDbLine
 10
929.999985648752
 20
2397.403415746126
 30
0.0
 11
929.999985648752
 21
397.4034157461247
 31
0.0
  0
LINE
  5
F5
330
C3
100
AcDbEntity
  8
SUNPOU
100
AcDbLine
 10
999.999985648752
 20
397.4034157461247
 30
0.0
 11
1019.999985648752
 21
317.4034157461301
 31
0.0
  0
SOLID
  5
F6
330
C3
100
AcDbEntity
  8
SUNPOU
100
AcDbTrace
 10
1152.499985648758
 20
937.4034157461138
 30
0.0
 11
1137.499985648758
 21
847.4034157461138
 31
0.0
 12
1122.499985648756
 22
937.4034157461138
 32
0.0
 13
1122.499985648756
 23
937.4034157461138
 33
0.0
1001
ACAD
1000
DSTYLE
1002
{
1070
    78
1070
     8
1070
   284
1070
     8
1070
   140
1040
3.0
1070
   145
1040
1.0
1070
    74
1070
     0
1070
   172
1070
     1
1070
    73
1070
     0
1070
    77
1070
     1
1070
    40
1040
60.0
1070
   147
1040
0.8
1070
   287
1070
     5
1070
    42
1040
1.5
1070
    44
1040
0.6
1070
    43
1040
7.0
1070
   271
1070
     0
1070
   177
1070
   256
1070
   176
1070
   256
1070
   141
1040
0.0
1070
   275
1070
     1
1070
    41
1040
1.5
1070
   285
1070
     8
1070
   286
1070
     8
1002
}
  0
SOLID
  5
F7
330
C3
100
AcDbEntity
  8
SUNPOU
100
AcDbTrace
 10
1152.499985648758
 20
817.4034157461356
 30
0.0
 11
1137.499985648758
 21
727.4034157461356
 31
0.0
 12
1122.499985648756
 22
817.4034157461356
 32
0.0
 13
1122.499985648756
 23
817.4034157461356
 33
0.0
1001
ACAD
1000
DSTYLE
1002
{
1070
    78
1070
     8
1070
   284
1070
     8
1070
   140
1040
3.0
1070
   145
1040
1.0
1070
    74
1070
     0
1070
   172
1070
     1
1070
    73
1070
     0
1070
    77
1070
     1
1070
    40
1040
60.0
1070
   147
1040
0.8
1070
   287
1070
     5
1070
    42
1040
1.5
1070
    44
1040
0.6
1070
    43
1040
7.0
1070
   271
1070
     0
1070
   177
1070
   256
1070
   176
1070
   256
1070
   141
1040
0.0
1070
   275
1070
     1
1070
    41
1040
1.5
1070
   285
1070
     8
1070
   286
1070
     8
1002
}
  0
SOLID
  5
F8
330
C3
100
AcDbEntity
  8
SUNPOU
100
AcDbTrace
 10
1152.499985648754
 20
877.4034157461301
 30
0.0
 11
1137.499985648754
 21
787.4034157461301
 31
0.0
 12
1122.499985648752
 22
877.4034157461301
 32
0.0
 13
1122.499985648752
 23
877.4034157461301
 33
0.0
1001
ACAD
1000
DSTYLE
1002
{
1070
    78
1070
     8
1070
   284
1070
     8
1070
   140
1040
3.0
1070
   145
1040
1.0
1070
    74
1070
     0
1070
   172
1070
     1
1070
    73
1070
     0
1070
    77
1070
     1
1070
    40
1040
60.0
1070
   147
1040
0.8
1070
   287
1070
     5
1070
    42
1040
1.5
1070
    44
1040
0.6
1070
    43
1040
7.0
1070
   271
1070
     0
1070
   177
1070
   256
1070
   176
1070
   256
1070
   141
1040
0.0
1070
   275
1070
     1
1070
    41
1040
1.5
1070
   285
1070
     8
1070
   286
1070
     8
1002
}
  0
TEXT
  5
F9
330
C3
100
AcDbEntity
  8
SUNPOU
100
AcDbText
 10
239.9999856487393
 20
1762.40341574613
 30
0.0
 40
150.0
  1
D13
 50
90.0
 41
0.8
 11
164.9999856487393
 21
1762.40341574613
 31
0.0
100
AcDbText
 73
     2
  0
SOLID
  5
FA
330
C3
100
AcDbEntity
  8
SUNPOU
100
AcDbTrace
 10
1152.499985648756
 20
2022.403415746117
 30
0.0
 11
1137.499985648756
 21
1932.403415746117
 31
0.0
 12
1122.499985648756
 22
2022.403415746117
 32
0.0
 13
1122.499985648756
 23
2022.403415746117
 33
0.0
1001
ACAD
1000
DSTYLE
1002
{
1070
    78
1070
     8
1070
   284
1070
     8
1070
   140
1040
3.0
1070
   145
1040
1.0
1070
    74
1070
     0
1070
   172
1070
     1
1070
    73
1070
     0
1070
    77
1070
     1
1070
    40
1040
60.0
1070
   147
1040
0.8
1070
   287
1070
     5
1070
    42
1040
1.5
1070
    44
1040
0.6
1070
    43
1040
7.0
1070
   271
1070
     0
1070
   177
1070
   256
1070
   176
1070
   256
1070
   141
1040
0.0
1070
   275
1070
     1
1070
    41
1040
1.5
1070
   285
1070
     8
1070
   286
1070
     8
1002
}
  0
SOLID
  5
FB
330
C3
100
AcDbEntity
  8
SUNPOU
100
AcDbTrace
 10
1152.499985648756
 20
2082.403415746117
 30
0.0
 11
1137.499985648756
 21
1992.403415746117
 31
0.0
 12
1122.499985648756
 22
2082.403415746117
 32
0.0
 13
1122.499985648756
 23
2082.403415746117
 33
0.0
1001
ACAD
1000
DSTYLE
1002
{
1070
    78
1070
     8
1070
   284
1070
     8
1070
   140
1040
3.0
1070
   145
1040
1.0
1070
    74
1070
     0
1070
   172
1070
     1
1070
    73
1070
     0
1070
    77
1070
     1
1070
    40
1040
60.0
1070
   147
1040
0.8
1070
   287
1070
     5
1070
    42
1040
1.5
1070
    44
1040
0.6
1070
    43
1040
7.0
1070
   271
1070
     0
1070
   177
1070
   256
1070
   176
1070
   256
1070
   141
1040
0.0
1070
   275
1070
     1
1070
    41
1040
1.5
1070
   285
1070
     8
1070
   286
1070
     8
1002
}
  0
SOLID
  5
FC
330
C3
100
AcDbEntity
  8
SUNPOU
100
AcDbTrace
 10
1152.499985648756
 20
2142.403415746119
 30
0.0
 11
1137.499985648756
 21
2052.403415746119
 31
0.0
 12
1122.499985648756
 22
2142.403415746119
 32
0.0
 13
1122.499985648756
 23
2142.403415746119
 33
0.0
1001
ACAD
1000
DSTYLE
1002
{
1070
    78
1070
     8
1070
   284
1070
     8
1070
   140
1040
3.0
1070
   145
1040
1.0
1070
    74
1070
     0
1070
   172
1070
     1
1070
    73
1070
     0
1070
    77
1070
     1
1070
    40
1040
60.0
1070
   147
1040
0.8
1070
   287
1070
     5
1070
    42
1040
1.5
1070
    44
1040
0.6
1070
    43
1040
7.0
1070
   271
1070
     0
1070
   177
1070
   256
1070
   176
1070
   256
1070
   141
1040
0.0
1070
   275
1070
     1
1070
    41
1040
1.5
1070
   285
1070
     8
1070
   286
1070
     8
1002
}
  0
LINE
  5
FD
330
C3
100
AcDbEntity
  8
SUNPOU
100
AcDbLine
 10
1137.499985648756
 20
2817.403415746125
 30
0.0
 11
357.4999856487557
 21
2817.403415746125
 31
0.0
1001
ACAD
1000
DSTYLE
1002
{
1070
    78
1070
     8
1070
   284
1070
     8
1070
   140
1040
3.0
1070
   145
1040
1.0
1070
    74
1070
     0
1070
   172
1070
     1
1070
    73
1070
     0
1070
    77
1070
     1
1070
    40
1040
60.0
1070
   147
1040
0.8
1070
   287
1070
     5
1070
    42
1040
1.5
1070
    44
1040
0.6
1070
    43
1040
7.0
1070
   271
1070
     0
1070
   177
1070
   256
1070
   176
1070
   256
1070
   141
1040
0.0
1070
   275
1070
     1
1070
    41
1040
1.5
1070
   285
1070
     8
1070
   286
1070
     8
1002
}
  0
TEXT
  5
FE
330
C3
100
AcDbEntity
  8
SUNPOU
100
AcDbText
 10
979.9999856487611
 20
3317.403415746123
 30
0.0
 40
150.0
  1
H3
 41
0.8
 72
     4
 11
1079.999985648761
 21
3392.403415746123
 31
0.0
100
AcDbText
  0
CIRCLE
  5
FF
330
C3
100
AcDbEntity
  8
SUNPOU
100
AcDbCircle
 10
1079.999985648761
 20
3392.403415746123
 30
0.0
 40
165.0
  0
LINE
  5
100
330
C3
100
AcDbEntity
  8
HAIKIN
 62
     3
100
AcDbLine
 10
929.999985648752
 20
4587.403415746125
 30
0.0
 11
929.999985648752
 21
4887.403415746125
 31
0.0
  0
TEXT
  5
101
330
C3
100
AcDbEntity
  8
SUNPOU
100
AcDbText
 10
3194.999985648759
 20
2907.403415746125
 30
0.0
 40
150.0
  1
D13
 41
0.8
 11
3194.999985648759
 21
2982.403415746125
 31
0.0
100
AcDbText
 73
     2
  0
TEXT
  5
102
330
C3
100
AcDbEntity
  8
SUNPOU
100
AcDbText
 10
2889.999985648759
 20
2907.403415746125
 30
0.0
 40
150.0
  1
H1
 41
0.8
 72
     4
 11
2969.999985648759
 21
2982.403415746125
 31
0.0
100
AcDbText
  0
LINE
  5
103
330
C3
100
AcDbEntity
  8
SUNPOU
100
AcDbLine
 10
1679.999985648761
 20
1890.403415746132
 30
0.0
 11
1679.999985648763
 21
3227.403415746123
 31
0.0
1001
ACAD
1000
DSTYLE
1002
{
1070
    78
1070
     8
1070
   284
1070
     8
1070
   140
1040
3.0
1070
   145
1040
1.0
1070
    74
1070
     0
1070
   172
1070
     1
1070
    73
1070
     0
1070
    77
1070
     1
1070
    40
1040
60.0
1070
   147
1040
0.8
1070
   287
1070
     5
1070
    42
1040
1.5
1070
    44
1040
0.6
1070
    43
1040
7.0
1070
   271
1070
     0
1070
   177
1070
   256
1070
   176
1070
   256
1070
   141
1040
0.0
1070
   275
1070
     1
1070
    41
1040
1.5
1070
   285
1070
     8
1070
   286
1070
     8
1002
}
  0
LINE
  5
104
330
C3
100
AcDbEntity
  8
SUNPOU
100
AcDbLine
 10
2279.999985648761
 20
1827.403415746126
 30
0.0
 11
2279.999985648759
 21
3227.403415746123
 31
0.0
1001
ACAD
1000
DSTYLE
1002
{
1070
    78
1070
     8
1070
   284
1070
     8
1070
   140
1040
3.0
1070
   145
1040
1.0
1070
    74
1070
     0
1070
   172
1070
     1
1070
    73
1070
     0
1070
    77
1070
     1
1070
    40
1040
60.0
1070
   147
1040
0.8
1070
   287
1070
     5
1070
    42
1040
1.5
1070
    44
1040
0.6
1070
    43
1040
7.0
1070
   271
1070
     0
1070
   177
1070
   256
1070
   176
1070
   256
1070
   141
1040
0.0
1070
   275
1070
     1
1070
    41
1040
1.5
1070
   285
1070
     8
1070
   286
1070
     8
1002
}
  0
CIRCLE
  5
105
330
C3
100
AcDbEntity
  8
SUNPOU
100
AcDbCircle
 10
2969.999985648759
 20
2982.403415746125
 30
0.0
 40
165.0
  0
LINE
  5
106
330
C3
100
AcDbEntity
  8
1HASEN
100
AcDbLine
 10
1979.999985648754
 20
4077.403415746121
 30
0.0
 11
1979.999985648759
 21
17.40341574611921
 31
0.0
  0
TEXT
  5
107
330
C3
100
AcDbEntity
  8
SUNPOU
100
AcDbText
 10
3359.999985648745
 20
1762.403415746126
 30
0.0
 40
150.0
  1
D13
 50
90.0
 41
0.8
 11
3284.999985648745
 21
1762.403415746126
 31
0.0
100
AcDbText
 73
     2
  0
TEXT
  5
108
330
C3
100
AcDbEntity
  8
SUNPOU
100
AcDbText
 10
3359.999985648745
 20
1437.403415746125
 30
0.0
 40
150.0
  1
H2
 50
90.0
 41
0.8
 72
     4
 11
3284.999985648745
 21
1537.403415746125
 31
0.0
100
AcDbText
  0
LINE
  5
109
330
C3
100
AcDbEntity
  8
SUNPOU
100
AcDbLine
 10
2789.999985648759
 20
2817.403415746125
 30
0.0
 11
3569.999985648759
 21
2817.403415746125
 31
0.0
1001
ACAD
1000
DSTYLE
1002
{
1070
    78
1070
     8
1070
   284
1070
     8
1070
   140
1040
3.0
1070
   145
1040
1.0
1070
    74
1070
     0
1070
   172
1070
     1
1070
    73
1070
     0
1070
    77
1070
     1
1070
    40
1040
60.0
1070
   147
1040
0.8
1070
   287
1070
     5
1070
    42
1040
1.5
1070
    44
1040
0.6
1070
    43
1040
7.0
1070
   271
1070
     0
1070
   177
1070
   256
1070
   176
1070
   256
1070
   141
1040
0.0
1070
   275
1070
     1
1070
    41
1040
1.5
1070
   285
1070
     8
1070
   286
1070
     8
1002
}
  0
LINE
  5
10A
330
C3
100
AcDbEntity
  8
SUNPOU
100
AcDbLine
 10
2429.999985648759
 20
1357.403415746125
 30
0.0
 11
3449.999985648745
 21
1357.403415746123
 31
0.0
1001
ACAD
1000
DSTYLE
1002
{
1070
    78
1070
     8
1070
   284
1070
     8
1070
   140
1040
3.0
1070
   145
1040
1.0
1070
    74
1070
     0
1070
   172
1070
     1
1070
    73
1070
     0
1070
    77
1070
     1
1070
    40
1040
60.0
1070
   147
1040
0.8
1070
   287
1070
     5
1070
    42
1040
1.5
1070
    44
1040
0.6
1070
    43
1040
7.0
1070
   271
1070
     0
1070
   177
1070
   256
1070
   176
1070
   256
1070
   141
1040
0.0
1070
   275
1070
     1
1070
    41
1040
1.5
1070
   285
1070
     8
1070
   286
1070
     8
1002
}
  0
CIRCLE
  5
10B
330
C3
100
AcDbEntity
  8
SUNPOU
100
AcDbCircle
 10
3284.999985648745
 20
1537.403415746125
 30
0.0
 40
165.0
  0
LINE
  5
10C
330
C3
100
AcDbEntity
  8
HAIKIN
100
AcDbLine
 10
1486.99998564875
 20
939.4034157461192
 30
0.0
 11
1486.99998564875
 21
1855.403415746132
 31
0.0
  0
LINE
  5
10D
330
C3
100
AcDbEntity
  8
HAIKIN
100
AcDbLine
 10
2409.999985648758
 20
1792.403415746126
 30
0.0
 11
2409.999985648759
 21
1002.403415746126
 31
0.0
  0
LINE
  5
10E
330
C3
100
AcDbEntity
  8
SUNPOU
100
AcDbLine
 10
2789.999985648759
 20
787.4034157461319
 30
0.0
 11
2789.999985648759
 21
2817.403415746125
 31
0.0
1001
ACAD
1000
DSTYLE
1002
{
1070
    78
1070
     8
1070
   284
1070
     8
1070
   140
1040
3.0
1070
   145
1040
1.0
1070
    74
1070
     0
1070
   172
1070
     1
1070
    73
1070
     0
1070
    77
1070
     1
1070
    40
1040
60.0
1070
   147
1040
0.8
1070
   287
1070
     5
1070
    42
1040
1.5
1070
    44
1040
0.6
1070
    43
1040
7.0
1070
   271
1070
     0
1070
   177
1070
   256
1070
   176
1070
   256
1070
   141
1040
0.0
1070
   275
1070
     1
1070
    41
1040
1.5
1070
   285
1070
     8
1070
   286
1070
     8
1002
}
  0
LINE
  5
10F
330
C3
100
AcDbEntity
  8
HAIKIN
100
AcDbLine
 10
2469.999985648758
 20
352.4034157461247
 30
0.0
 11
2469.999985648758
 21
2257.403415746121
 31
0.0
  0
LINE
  5
110
330
C3
100
AcDbEntity
  8
HAIKIN
100
AcDbLine
 10
2529.999985648759
 20
352.4034157461247
 30
0.0
 11
2529.999985648759
 21
2257.403415746121
 31
0.0
  0
LINE
  5
111
330
C3
100
AcDbEntity
  8
HAIKIN
100
AcDbLine
 10
2589.999985648761
 20
352.4034157461247
 30
0.0
 11
2589.999985648758
 21
2257.403415746121
 31
0.0
  0
LINE
  5
112
330
C3
100
AcDbEntity
  8
HAIKIN
100
AcDbLine
 10
1426.999985648754
 20
457.4034157461228
 30
0.0
 11
1426.999985648752
 21
2362.403415746123
 31
0.0
  0
LINE
  5
113
330
C3
100
AcDbEntity
  8
HAIKIN
100
AcDbLine
 10
1366.999985648756
 20
457.4034157461228
 30
0.0
 11
1366.999985648748
 21
2362.403415746123
 31
0.0
  0
LINE
  5
114
330
C3
100
AcDbEntity
  8
HAIKIN
100
AcDbLine
 10
1306.999985648754
 20
457.4034157461228
 30
0.0
 11
1306.999985648748
 21
2362.403415746123
 31
0.0
  0
LINE
  5
115
330
C3
100
AcDbEntity
  8
SUNPOU
100
AcDbLine
 10
2914.99998564875
 20
2257.403415746121
 30
0.0
 11
2914.99998564875
 21
352.4034157461265
 31
0.0
  0
LINE
  5
116
330
C3
100
AcDbEntity
  8
SUNPOU
100
AcDbLine
 10
2729.999985648759
 20
2257.403415746121
 30
0.0
 11
2729.999985648759
 21
352.4034157461228
 31
0.0
  0
LINE
  5
117
330
C3
100
AcDbEntity
  8
SUNPOU
100
AcDbLine
 10
2429.999985648759
 20
2257.403415746121
 30
0.0
 11
2429.999985648758
 21
352.403415746121
 31
0.0
  0
LINE
  5
118
330
C3
100
AcDbEntity
  8
SUNPOU
100
AcDbLine
 10
2379.999985648758
 20
1797.403415746126
 30
0.0
 11
2379.999985648758
 21
997.4034157461265
 31
0.0
  0
LINE
  5
119
330
C3
100
AcDbEntity
  8
SUNPOU
100
AcDbLine
 10
3029.99998564875
 20
2397.403415746121
 30
0.0
 11
3029.99998564875
 21
397.403415746121
 31
0.0
  0
LINE
  5
11A
330
C3
100
AcDbEntity
  8
SUNPOU
100
AcDbLine
 10
1516.999985648752
 20
934.403415746121
 30
0.0
 11
1516.999985648752
 21
1860.403415746126
 31
0.0
  0
LINE
  5
11B
330
C3
100
AcDbEntity
  8
SUNPOU
100
AcDbLine
 10
1579.999985648756
 20
1797.403415746126
 30
0.0
 11
1579.999985648758
 21
997.4034157461265
 31
0.0
  0
LINE
  5
11C
330
C3
100
AcDbEntity
  8
HAIKIN
100
AcDbLine
 10
2374.999985648759
 20
967.4034157461265
 30
0.0
 11
1979.999985648752
 21
967.4034157461265
 31
0.0
  0
LINE
  5
11D
330
C3
100
AcDbEntity
  8
HAIKIN
100
AcDbLine
 10
2994.999985648774
 20
787.4034157461319
 30
0.0
 11
1979.999985648759
 21
787.4034157461283
 31
0.0
  0
LINE
  5
11E
330
C3
100
AcDbEntity
  8
HAIKIN
100
AcDbLine
 10
2994.999985648774
 20
847.4034157461319
 30
0.0
 11
1979.999985648758
 21
847.4034157461283
 31
0.0
  0
LINE
  5
11F
330
C3
100
AcDbEntity
  8
HAIKIN
100
AcDbLine
 10
2994.999985648774
 20
907.4034157461319
 30
0.0
 11
1979.999985648759
 21
907.4034157461283
 31
0.0
  0
LINE
  5
120
330
C3
100
AcDbEntity
  8
SUNPOU
100
AcDbLine
 10
2914.99998564875
 20
352.4034157461265
 30
0.0
 11
1979.999985648759
 21
352.403415746121
 31
0.0
  0
LINE
  5
121
330
C3
100
AcDbEntity
  8
SUNPOU
100
AcDbLine
 10
2994.999985648774
 20
457.4034157461247
 30
0.0
 11
1979.999985648759
 21
457.403415746121
 31
0.0
  0
LINE
  5
122
330
C3
100
AcDbEntity
  8
SUNPOU
100
AcDbLine
 10
2994.999985648774
 20
937.4034157461247
 30
0.0
 11
1979.999985648759
 21
937.403415746121
 31
0.0
  0
LINE
  5
123
330
C3
100
AcDbEntity
  8
SUNPOU
100
AcDbLine
 10
2994.999985648774
 20
817.4034157461247
 30
0.0
 11
1979.999985648759
 21
817.403415746121
 31
0.0
  0
LINE
  5
124
330
C3
100
AcDbEntity
  8
SUNPOU
100
AcDbLine
 10
2994.999985648774
 20
697.4034157461247
 30
0.0
 11
1979.999985648759
 21
697.403415746121
 31
0.0
  0
LINE
  5
125
330
C3
100
AcDbEntity
  8
SUNPOU
100
AcDbLine
 10
2994.999985648774
 20
577.4034157461247
 30
0.0
 11
1979.999985648759
 21
577.403415746121
 31
0.0
  0
LINE
  5
126
330
C3
100
AcDbEntity
  8
SUNPOU
100
AcDbLine
 10
2939.99998564875
 20
317.4034157461247
 30
0.0
 11
1963.628976814191
 21
317.403415746121
 31
0.0
  0
LINE
  5
127
330
C3
100
AcDbEntity
  8
1HASEN
100
AcDbLine
 10
1379.999985648756
 20
1397.403415746126
 30
0.0
 11
2579.999985648758
 21
1397.403415746126
 31
0.0
  0
LINE
  5
128
330
C3
100
AcDbEntity
  8
SUNPOU
100
AcDbLine
 10
2379.999985648758
 20
997.4034157461265
 30
0.0
 11
1579.999985648758
 21
997.4034157461265
 31
0.0
  0
ARC
  5
129
330
C3
100
AcDbEntity
  8
HAIKIN
100
AcDbCircle
 10
1521.99998564875
 20
939.4034157461192
 30
0.0
 40
35.0
100
AcDbArc
 50
180.0
 51
270.0
  0
LINE
  5
12A
330
C3
100
AcDbEntity
  8
SUNPOU
100
AcDbLine
 10
2129.999985648758
 20
967.4034157461283
 30
0.0
 11
2129.999985648759
 21
352.4034157461192
 31
0.0
  0
LINE
  5
12B
330
C3
100
AcDbEntity
  8
HAIKIN
100
AcDbLine
 10
1521.99998564875
 20
904.4034157461192
 30
0.0
 11
1979.999985648758
 21
904.4034157461228
 31
0.0
  0
LINE
  5
12C
330
C3
100
AcDbEntity
  8
SUNPOU
100
AcDbLine
 10
1516.999985648752
 20
934.403415746121
 30
0.0
 11
1979.999985648758
 21
934.4034157461228
 31
0.0
  0
LINE
  5
12D
330
C3
100
AcDbEntity
  8
SUNPOU
100
AcDbLine
 10
1529.999985648765
 20
904.403415746121
 30
0.0
 11
1529.999985648767
 21
457.4034157461247
 31
0.0
  0
LINE
  5
12E
330
C3
100
AcDbEntity
  8
SUNPOU
100
AcDbLine
 10
1829.999985648759
 20
904.4034157461228
 30
0.0
 11
1829.999985648759
 21
457.4034157461192
 31
0.0
  0
SOLID
  5
12F
330
C3
100
AcDbEntity
  8
SUNPOU
100
AcDbTrace
 10
1276.999985648759
 20
1372.403415746128
 30
0.0
 11
1366.999985648759
 21
1357.403415746128
 31
0.0
 12
1276.999985648759
 22
1342.403415746128
 32
0.0
 13
1276.999985648759
 23
1342.403415746128
 33
0.0
1001
ACAD
1000
DSTYLE
1002
{
1070
    78
1070
     8
1070
   284
1070
     8
1070
   140
1040
3.0
1070
   145
1040
1.0
1070
    74
1070
     0
1070
   172
1070
     1
1070
    73
1070
     0
1070
    77
1070
     1
1070
    40
1040
60.0
1070
   147
1040
0.8
1070
   287
1070
     5
1070
    42
1040
1.5
1070
    44
1040
0.6
1070
    43
1040
7.0
1070
   271
1070
     0
1070
   177
1070
   256
1070
   176
1070
   256
1070
   141
1040
0.0
1070
   275
1070
     1
1070
    41
1040
1.5
1070
   285
1070
     8
1070
   286
1070
     8
1002
}
  0
SOLID
  5
130
330
C3
100
AcDbEntity
  8
SUNPOU
100
AcDbTrace
 10
1336.99998564877
 20
1372.403415746125
 30
0.0
 11
1426.99998564877
 21
1357.403415746123
 31
0.0
 12
1336.99998564877
 22
1342.403415746125
 32
0.0
 13
1336.99998564877
 23
1342.403415746125
 33
0.0
1001
ACAD
1000
DSTYLE
1002
{
1070
    78
1070
     8
1070
   284
1070
     8
1070
   140
1040
3.0
1070
   145
1040
1.0
1070
    74
1070
     0
1070
   172
1070
     1
1070
    73
1070
     0
1070
    77
1070
     1
1070
    40
1040
60.0
1070
   147
1040
0.8
1070
   287
1070
     5
1070
    42
1040
1.5
1070
    44
1040
0.6
1070
    43
1040
7.0
1070
   271
1070
     0
1070
   177
1070
   256
1070
   176
1070
   256
1070
   141
1040
0.0
1070
   275
1070
     1
1070
    41
1040
1.5
1070
   285
1070
     8
1070
   286
1070
     8
1002
}
  0
SOLID
  5
131
330
C3
100
AcDbEntity
  8
SUNPOU
100
AcDbTrace
 10
2804.999985648759
 20
997.4034157461319
 30
0.0
 11
2789.999985648759
 21
907.4034157461319
 31
0.0
 12
2774.999985648759
 22
997.4034157461319
 32
0.0
 13
2774.999985648759
 23
997.4034157461319
 33
0.0
1001
ACAD
1000
DSTYLE
1002
{
1070
    78
1070
     8
1070
   284
1070
     8
1070
   140
1040
3.0
1070
   145
1040
1.0
1070
    74
1070
     0
1070
   172
1070
     1
1070
    73
1070
     0
1070
    77
1070
     1
1070
    40
1040
60.0
1070
   147
1040
0.8
1070
   287
1070
     5
1070
    42
1040
1.5
1070
    44
1040
0.6
1070
    43
1040
7.0
1070
   271
1070
     0
1070
   177
1070
   256
1070
   176
1070
   256
1070
   141
1040
0.0
1070
   275
1070
     1
1070
    41
1040
1.5
1070
   285
1070
     8
1070
   286
1070
     8
1002
}
  0
LINE
  5
132
330
C3
100
AcDbEntity
  8
HASEN
100
AcDbLine
 10
2994.999985648772
 20
715.4034157461156
 30
0.0
 11
2644.497460331817
 21
715.4034157461119
 31
0.0
  0
LINE
  5
133
330
C3
100
AcDbEntity
  8
HASEN
100
AcDbLine
 10
2994.999985648772
 20
475.4034157461156
 30
0.0
 11
2644.497460331817
 21
475.4034157461119
 31
0.0
  0
LINE
  5
134
330
C3
100
AcDbEntity
  8
SUNPOU
100
AcDbLine
 10
3029.99998564875
 20
397.403415746121
 30
0.0
 11
2959.999985648748
 21
397.403415746121
 31
0.0
  0
LINE
  5
135
330
C3
100
AcDbEntity
  8
SUNPOU
100
AcDbLine
 10
2959.999985648748
 20
397.403415746121
 30
0.0
 11
2939.999985648748
 21
317.4034157461228
 31
0.0
  0
SOLID
  5
136
330
C3
100
AcDbEntity
  8
SUNPOU
100
AcDbTrace
 10
2804.999985648759
 20
937.4034157461319
 30
0.0
 11
2789.999985648759
 21
847.4034157461319
 31
0.0
 12
2774.999985648759
 22
937.4034157461319
 32
0.0
 13
2774.999985648759
 23
937.4034157461319
 33
0.0
1001
ACAD
1000
DSTYLE
1002
{
1070
    78
1070
     8
1070
   284
1070
     8
1070
   140
1040
3.0
1070
   145
1040
1.0
1070
    74
1070
     0
1070
   172
1070
     1
1070
    73
1070
     0
1070
    77
1070
     1
1070
    40
1040
60.0
1070
   147
1040
0.8
1070
   287
1070
     5
1070
    42
1040
1.5
1070
    44
1040
0.6
1070
    43
1040
7.0
1070
   271
1070
     0
1070
   177
1070
   256
1070
   176
1070
   256
1070
   141
1040
0.0
1070
   275
1070
     1
1070
    41
1040
1.5
1070
   285
1070
     8
1070
   286
1070
     8
1002
}
  0
SOLID
  5
137
330
C3
100
AcDbEntity
  8
SUNPOU
100
AcDbTrace
 10
2804.999985648759
 20
877.4034157461319
 30
0.0
 11
2789.999985648759
 21
787.4034157461319
 31
0.0
 12
2774.999985648759
 22
877.4034157461319
 32
0.0
 13
2774.999985648759
 23
877.4034157461319
 33
0.0
1001
ACAD
1000
DSTYLE
1002
{
1070
    78
1070
     8
1070
   284
1070
     8
1070
   140
1040
3.0
1070
   145
1040
1.0
1070
    74
1070
     0
1070
   172
1070
     1
1070
    73
1070
     0
1070
    77
1070
     1
1070
    40
1040
60.0
1070
   147
1040
0.8
1070
   287
1070
     5
1070
    42
1040
1.5
1070
    44
1040
0.6
1070
    43
1040
7.0
1070
   271
1070
     0
1070
   177
1070
   256
1070
   176
1070
   256
1070
   141
1040
0.0
1070
   275
1070
     1
1070
    41
1040
1.5
1070
   285
1070
     8
1070
   286
1070
     8
1002
}
  0
LINE
  5
138
330
C3
100
AcDbEntity
  8
SUNPOU
100
AcDbLine
 10
2994.999985648774
 20
1537.403415746125
 30
0.0
 11
2409.999985648759
 21
1537.403415746121
 31
0.0
  0
LINE
  5
139
330
C3
100
AcDbEntity
  8
SUNPOU
100
AcDbLine
 10
2994.999985648774
 20
1417.403415746125
 30
0.0
 11
2409.999985648759
 21
1417.403415746121
 31
0.0
  0
LINE
  5
13A
330
C3
100
AcDbEntity
  8
SUNPOU
100
AcDbLine
 10
2994.999985648774
 20
1297.403415746125
 30
0.0
 11
2409.999985648759
 21
1297.403415746125
 31
0.0
  0
LINE
  5
13B
330
C3
100
AcDbEntity
  8
SUNPOU
100
AcDbLine
 10
2994.999985648774
 20
1177.403415746125
 30
0.0
 11
2409.999985648759
 21
1177.403415746121
 31
0.0
  0
LINE
  5
13C
330
C3
100
AcDbEntity
  8
SUNPOU
100
AcDbLine
 10
2994.999985648774
 20
1057.403415746125
 30
0.0
 11
2409.999985648759
 21
1057.403415746121
 31
0.0
  0
LINE
  5
13D
330
C3
100
AcDbEntity
  8
HASEN
100
AcDbLine
 10
2994.999985648772
 20
955.4034157461156
 30
0.0
 11
2644.497460331817
 21
955.4034157461119
 31
0.0
  0
LINE
  5
13E
330
C3
100
AcDbEntity
  8
HASEN
100
AcDbLine
 10
2994.999985648772
 20
1195.403415746116
 30
0.0
 11
2644.497460331817
 21
1195.403415746112
 31
0.0
  0
LINE
  5
13F
330
C3
100
AcDbEntity
  8
HASEN
100
AcDbLine
 10
2994.999985648772
 20
1435.403415746116
 30
0.0
 11
2644.497460331817
 21
1435.403415746112
 31
0.0
  0
ARC
  5
140
330
C3
100
AcDbEntity
  8
HAIKIN
100
AcDbCircle
 10
2374.999985648759
 20
1002.403415746126
 30
0.0
 40
35.0
100
AcDbArc
 50
270.0
 51
0.0
  0
LINE
  5
141
330
C3
100
AcDbEntity
  8
HAIKIN
100
AcDbLine
 10
2374.999985648758
 20
1827.403415746126
 30
0.0
 11
1979.999985648752
 21
1827.403415746126
 31
0.0
  0
LINE
  5
142
330
C3
100
AcDbEntity
  8
HAIKIN
100
AcDbLine
 10
2994.999985648774
 20
1872.403415746125
 30
0.0
 11
1979.999985648759
 21
1872.403415746121
 31
0.0
  0
LINE
  5
143
330
C3
100
AcDbEntity
  8
HAIKIN
100
AcDbLine
 10
2994.999985648774
 20
1932.403415746125
 30
0.0
 11
1979.999985648758
 21
1932.403415746121
 31
0.0
  0
LINE
  5
144
330
C3
100
AcDbEntity
  8
HAIKIN
100
AcDbLine
 10
2994.999985648774
 20
1992.403415746125
 30
0.0
 11
1979.999985648758
 21
1992.403415746121
 31
0.0
  0
LINE
  5
145
330
C3
100
AcDbEntity
  8
SUNPOU
100
AcDbLine
 10
2994.999985648774
 20
2017.403415746125
 30
0.0
 11
1979.999985648759
 21
2017.403415746121
 31
0.0
  0
LINE
  5
146
330
C3
100
AcDbEntity
  8
SUNPOU
100
AcDbLine
 10
2994.999985648774
 20
2137.403415746125
 30
0.0
 11
1979.999985648759
 21
2137.403415746121
 31
0.0
  0
LINE
  5
147
330
C3
100
AcDbEntity
  8
SUNPOU
100
AcDbLine
 10
2994.999985648774
 20
2257.403415746125
 30
0.0
 11
1979.999985648759
 21
2257.403415746121
 31
0.0
  0
LINE
  5
148
330
C3
100
AcDbEntity
  8
SUNPOU
100
AcDbLine
 10
2994.999985648774
 20
1897.403415746125
 30
0.0
 11
1979.999985648759
 21
1897.403415746121
 31
0.0
  0
LINE
  5
149
330
C3
100
AcDbEntity
  8
SUNPOU
100
AcDbLine
 10
2949.999985648748
 20
2317.403415746123
 30
0.0
 11
1979.999985648759
 21
2317.403415746121
 31
0.0
  0
LINE
  5
14A
330
C3
100
AcDbEntity
  8
SUNPOU
100
AcDbLine
 10
2379.999985648758
 20
1797.403415746126
 30
0.0
 11
1579.999985648756
 21
1797.403415746126
 31
0.0
  0
LINE
  5
14B
330
C3
100
AcDbEntity
  8
SUNPOU
100
AcDbLine
 10
1829.999985648765
 20
2362.403415746123
 30
0.0
 11
1829.999985648759
 21
1890.403415746126
 31
0.0
  0
LINE
  5
14C
330
C3
100
AcDbEntity
  8
SUNPOU
100
AcDbLine
 10
1529.999985648763
 20
2362.403415746125
 30
0.0
 11
1529.999985648763
 21
1890.403415746128
 31
0.0
  0
LINE
  5
14D
330
C3
100
AcDbEntity
  8
HAIKIN
100
AcDbLine
 10
1979.999985648758
 20
1890.403415746128
 30
0.0
 11
1521.99998564875
 21
1890.403415746132
 31
0.0
  0
LINE
  5
14E
330
C3
100
AcDbEntity
  8
SUNPOU
100
AcDbLine
 10
1979.999985648758
 20
1860.403415746128
 30
0.0
 11
1516.999985648752
 21
1860.403415746126
 31
0.0
  0
ARC
  5
14F
330
C3
100
AcDbEntity
  8
HAIKIN
100
AcDbCircle
 10
1521.99998564875
 20
1855.403415746132
 30
0.0
 40
35.0
100
AcDbArc
 50
90.0
 51
180.0
  0
SOLID
  5
150
330
C3
100
AcDbEntity
  8
SUNPOU
100
AcDbTrace
 10
1694.999985648759
 20
1980.403415746141
 30
0.0
 11
1679.999985648759
 21
1890.403415746141
 31
0.0
 12
1664.999985648759
 22
1980.403415746141
 32
0.0
 13
1664.999985648759
 23
1980.403415746141
 33
0.0
1001
ACAD
1000
DSTYLE
1002
{
1070
    78
1070
     8
1070
   284
1070
     8
1070
   140
1040
3.0
1070
   145
1040
1.0
1070
    74
1070
     0
1070
   172
1070
     1
1070
    73
1070
     0
1070
    77
1070
     1
1070
    40
1040
60.0
1070
   147
1040
0.8
1070
   287
1070
     5
1070
    42
1040
1.5
1070
    44
1040
0.6
1070
    43
1040
7.0
1070
   271
1070
     0
1070
   177
1070
   256
1070
   176
1070
   256
1070
   141
1040
0.0
1070
   275
1070
     1
1070
    41
1040
1.5
1070
   285
1070
     8
1070
   286
1070
     8
1002
}
  0
LINE
  5
151
330
C3
100
AcDbEntity
  8
SUNPOU
100
AcDbLine
 10
2129.999985648759
 20
2257.403415746121
 30
0.0
 11
2129.999985648759
 21
1827.40341574613
 31
0.0
  0
LINE
  5
152
330
C3
100
AcDbEntity
  8
SUNPOU
100
AcDbLine
 10
2969.99998564875
 20
2397.403415746121
 30
0.0
 11
2949.99998564875
 21
2317.403415746125
 31
0.0
  0
LINE
  5
153
330
C3
100
AcDbEntity
  8
SUNPOU
100
AcDbLine
 10
2994.999985648774
 20
1777.403415746125
 30
0.0
 11
2409.999985648758
 21
1777.403415746119
 31
0.0
  0
LINE
  5
154
330
C3
100
AcDbEntity
  8
SUNPOU
100
AcDbLine
 10
2994.999985648774
 20
1657.403415746125
 30
0.0
 11
2409.999985648758
 21
1657.403415746121
 31
0.0
  0
LINE
  5
155
330
C3
100
AcDbEntity
  8
HASEN
100
AcDbLine
 10
2994.999985648772
 20
2155.403415746116
 30
0.0
 11
2644.497460331817
 21
2155.403415746112
 31
0.0
  0
LINE
  5
156
330
C3
100
AcDbEntity
  8
HASEN
100
AcDbLine
 10
2994.999985648772
 20
1915.403415746116
 30
0.0
 11
2644.497460331817
 21
1915.403415746112
 31
0.0
  0
LINE
  5
157
330
C3
100
AcDbEntity
  8
HASEN
100
AcDbLine
 10
2994.999985648772
 20
1675.403415746116
 30
0.0
 11
2644.497460331817
 21
1675.403415746112
 31
0.0
  0
ARC
  5
158
330
C3
100
AcDbEntity
  8
HAIKIN
100
AcDbCircle
 10
2374.999985648758
 20
1792.403415746126
 30
0.0
 40
35.0
100
AcDbArc
 50
0.0
 51
90.0
  0
SOLID
  5
159
330
C3
100
AcDbEntity
  8
SUNPOU
100
AcDbTrace
 10
2294.999985648761
 20
1917.403415746126
 30
0.0
 11
2279.999985648761
 21
1827.403415746126
 31
0.0
 12
2264.999985648761
 22
1917.403415746126
 32
0.0
 13
2264.999985648761
 23
1917.403415746126
 33
0.0
1001
ACAD
1000
DSTYLE
1002
{
1070
    78
1070
     8
1070
   284
1070
     8
1070
   140
1040
3.0
1070
   145
1040
1.0
1070
    74
1070
     0
1070
   172
1070
     1
1070
    73
1070
     0
1070
    77
1070
     1
1070
    40
1040
60.0
1070
   147
1040
0.8
1070
   287
1070
     5
1070
    42
1040
1.5
1070
    44
1040
0.6
1070
    43
1040
7.0
1070
   271
1070
     0
1070
   177
1070
   256
1070
   176
1070
   256
1070
   141
1040
0.0
1070
   275
1070
     1
1070
    41
1040
1.5
1070
   285
1070
     8
1070
   286
1070
     8
1002
}
  0
SOLID
  5
15A
330
C3
100
AcDbEntity
  8
SUNPOU
100
AcDbTrace
 10
2804.999985648759
 20
2022.403415746125
 30
0.0
 11
2789.999985648759
 21
1932.403415746125
 31
0.0
 12
2774.999985648759
 22
2022.403415746125
 32
0.0
 13
2774.999985648759
 23
2022.403415746125
 33
0.0
1001
ACAD
1000
DSTYLE
1002
{
1070
    78
1070
     8
1070
   284
1070
     8
1070
   140
1040
3.0
1070
   145
1040
1.0
1070
    74
1070
     0
1070
   172
1070
     1
1070
    73
1070
     0
1070
    77
1070
     1
1070
    40
1040
60.0
1070
   147
1040
0.8
1070
   287
1070
     5
1070
    42
1040
1.5
1070
    44
1040
0.6
1070
    43
1040
7.0
1070
   271
1070
     0
1070
   177
1070
   256
1070
   176
1070
   256
1070
   141
1040
0.0
1070
   275
1070
     1
1070
    41
1040
1.5
1070
   285
1070
     8
1070
   286
1070
     8
1002
}
  0
SOLID
  5
15B
330
C3
100
AcDbEntity
  8
SUNPOU
100
AcDbTrace
 10
2804.999985648759
 20
1962.403415746125
 30
0.0
 11
2789.999985648759
 21
1872.403415746125
 31
0.0
 12
2774.999985648759
 22
1962.403415746125
 32
0.0
 13
2774.999985648759
 23
1962.403415746125
 33
0.0
1001
ACAD
1000
DSTYLE
1002
{
1070
    78
1070
     8
1070
   284
1070
     8
1070
   140
1040
3.0
1070
   145
1040
1.0
1070
    74
1070
     0
1070
   172
1070
     1
1070
    73
1070
     0
1070
    77
1070
     1
1070
    40
1040
60.0
1070
   147
1040
0.8
1070
   287
1070
     5
1070
    42
1040
1.5
1070
    44
1040
0.6
1070
    43
1040
7.0
1070
   271
1070
     0
1070
   177
1070
   256
1070
   176
1070
   256
1070
   141
1040
0.0
1070
   275
1070
     1
1070
    41
1040
1.5
1070
   285
1070
     8
1070
   286
1070
     8
1002
}
  0
SOLID
  5
15C
330
C3
100
AcDbEntity
  8
SUNPOU
100
AcDbTrace
 10
2804.999985648759
 20
2082.403415746125
 30
0.0
 11
2789.999985648759
 21
1992.403415746125
 31
0.0
 12
2774.999985648759
 22
2082.403415746125
 32
0.0
 13
2774.999985648759
 23
2082.403415746125
 33
0.0
1001
ACAD
1000
DSTYLE
1002
{
1070
    78
1070
     8
1070
   284
1070
     8
1070
   140
1040
3.0
1070
   145
1040
1.0
1070
    74
1070
     0
1070
   172
1070
     1
1070
    73
1070
     0
1070
    77
1070
     1
1070
    40
1040
60.0
1070
   147
1040
0.8
1070
   287
1070
     5
1070
    42
1040
1.5
1070
    44
1040
0.6
1070
    43
1040
7.0
1070
   271
1070
     0
1070
   177
1070
   256
1070
   176
1070
   256
1070
   141
1040
0.0
1070
   275
1070
     1
1070
    41
1040
1.5
1070
   285
1070
     8
1070
   286
1070
     8
1002
}
  0
LINE
  5
15D
330
C3
100
AcDbEntity
  8
SUNPOU
100
AcDbLine
 10
2969.99998564875
 20
2397.403415746121
 30
0.0
 11
3029.99998564875
 21
2397.403415746121
 31
0.0
  0
LINE
  5
15E
330
C3
100
AcDbEntity
  8
SUNPOU
100
AcDbLine
 10
3449.999985648745
 20
1357.403415746123
 30
0.0
 11
3449.999985648745
 21
2102.632833953865
 31
0.0
1001
ACAD
1000
DSTYLE
1002
{
1070
    78
1070
     8
1070
   284
1070
     8
1070
   140
1040
3.0
1070
   145
1040
1.0
1070
    74
1070
     0
1070
   172
1070
     1
1070
    73
1070
     0
1070
    77
1070
     1
1070
    40
1040
60.0
1070
   147
1040
0.8
1070
   287
1070
     5
1070
    42
1040
1.5
1070
    44
1040
0.6
1070
    43
1040
7.0
1070
   271
1070
     0
1070
   177
1070
   256
1070
   176
1070
   256
1070
   141
1040
0.0
1070
   275
1070
     1
1070
    41
1040
1.5
1070
   285
1070
     8
1070
   286
1070
     8
1002
}
  0
TEXT
  5
15F
330
C3
100
AcDbEntity
  8
SUNPOU
100
AcDbText
 10
1304.999985648761
 20
3317.403415746123
 30
0.0
 40
150.0
  1
D10
 41
0.8
 11
1304.999985648761
 21
3392.403415746123
 31
0.0
100
AcDbText
 73
     2
  0
TEXT
  5
160
330
C3
100
AcDbEntity
  8
SUNPOU
100
AcDbText
 10
2684.999985648759
 20
3317.403415746123
 30
0.0
 40
150.0
  1
D10
 41
0.8
 11
2684.999985648759
 21
3392.403415746123
 31
0.0
100
AcDbText
 73
     2
  0
LINE
  5
161
330
C3
100
AcDbEntity
  8
SUNPOU
100
AcDbLine
 10
2279.999985648759
 20
3227.403415746123
 30
0.0
 11
3059.999985648759
 21
3227.403415746123
 31
0.0
1001
ACAD
1000
DSTYLE
1002
{
1070
    78
1070
     8
1070
   284
1070
     8
1070
   140
1040
3.0
1070
   145
1040
1.0
1070
    74
1070
     0
1070
   172
1070
     1
1070
    73
1070
     0
1070
    77
1070
     1
1070
    40
1040
60.0
1070
   147
1040
0.8
1070
   287
1070
     5
1070
    42
1040
1.5
1070
    44
1040
0.6
1070
    43
1040
7.0
1070
   271
1070
     0
1070
   177
1070
   256
1070
   176
1070
   256
1070
   141
1040
0.0
1070
   275
1070
     1
1070
    41
1040
1.5
1070
   285
1070
     8
1070
   286
1070
     8
1002
}
  0
TEXT
  5
162
330
C3
100
AcDbEntity
  8
SUNPOU
100
AcDbText
 10
2359.999985648759
 20
3317.403415746123
 30
0.0
 40
150.0
  1
H4
 41
0.8
 72
     4
 11
2459.999985648759
 21
3392.403415746123
 31
0.0
100
AcDbText
  0
CIRCLE
  5
163
330
C3
100
AcDbEntity
  8
SUNPOU
100
AcDbCircle
 10
2459.999985648759
 20
3392.403415746123
 30
0.0
 40
165.0
  0
TEXT
  5
164
330
C3
100
AcDbEntity
  8
SUNPOU
100
AcDbText
 10
2239.999985648754
 20
4105.403415746121
 30
0.0
 40
210.0
  1
内　側
 72
     2
 11
2939.999985648754
 21
4077.403415746121
 31
0.0
100
AcDbText
 73
     1
  0
LINE
  5
165
330
C3
100
AcDbEntity
  8
HAIKIN
 62
     3
100
AcDbLine
 10
1889.999985648752
 20
4587.403415746125
 30
0.0
 11
1889.999985648752
 21
4887.403415746125
 31
0.0
  0
SOLID
  5
166
330
C3
100
AcDbEntity
  8
SUNPOU
100
AcDbTrace
 10
2559.999985648748
 20
1342.403415746126
 30
0.0000000000000092
 11
2469.999985648748
 21
1357.403415746126
 31
0.0000000000000092
 12
2559.999985648748
 22
1372.403415746126
 32
0.0000000000000092
 13
2559.999985648748
 23
1372.403415746126
 33
0.0000000000000092
1001
ACAD
1000
DSTYLE
1002
{
1070
    78
1070
     8
1070
   284
1070
     8
1070
   140
1040
3.0
1070
   145
1040
1.0
1070
    74
1070
     0
1070
   172
1070
     1
1070
    73
1070
     0
1070
    77
1070
     1
1070
    40
1040
60.0
1070
   147
1040
0.8
1070
   287
1070
     5
1070
    42
1040
1.5
1070
    44
1040
0.6
1070
    43
1040
7.0
1070
   271
1070
     0
1070
   177
1070
   256
1070
   176
1070
   256
1070
   141
1040
0.0
1070
   275
1070
     1
1070
    41
1040
1.5
1070
   285
1070
     8
1070
   286
1070
     8
1002
}
  0
SOLID
  5
167
330
C3
100
AcDbEntity
  8
SUNPOU
100
AcDbTrace
 10
2679.99998564875
 20
1342.403415746126
 30
0.0000000000000092
 11
2589.99998564875
 21
1357.403415746126
 31
0.0000000000000092
 12
2679.99998564875
 22
1372.403415746126
 32
0.0000000000000092
 13
2679.99998564875
 23
1372.403415746126
 33
0.0000000000000092
1001
ACAD
1000
DSTYLE
1002
{
1070
    78
1070
     8
1070
   284
1070
     8
1070
   140
1040
3.0
1070
   145
1040
1.0
1070
    74
1070
     0
1070
   172
1070
     1
1070
    73
1070
     0
1070
    77
1070
     1
1070
    40
1040
60.0
1070
   147
1040
0.8
1070
   287
1070
     5
1070
    42
1040
1.5
1070
    44
1040
0.6
1070
    43
1040
7.0
1070
   271
1070
     0
1070
   177
1070
   256
1070
   176
1070
   256
1070
   141
1040
0.0
1070
   275
1070
     1
1070
    41
1040
1.5
1070
   285
1070
     8
1070
   286
1070
     8
1002
}
  0
SOLID
  5
168
330
C3
100
AcDbEntity
  8
SUNPOU
100
AcDbTrace
 10
2619.99998564875
 20
1342.403415746126
 30
0.0000000000000092
 11
2529.99998564875
 21
1357.403415746126
 31
0.0000000000000092
 12
2619.99998564875
 22
1372.403415746126
 32
0.0000000000000092
 13
2619.99998564875
 23
1372.403415746126
 33
0.0000000000000092
1001
ACAD
1000
DSTYLE
1002
{
1070
    78
1070
     8
1070
   284
1070
     8
1070
   140
1040
3.0
1070
   145
1040
1.0
1070
    74
1070
     0
1070
   172
1070
     1
1070
    73
1070
     0
1070
    77
1070
     1
1070
    40
1040
60.0
1070
   147
1040
0.8
1070
   287
1070
     5
1070
    42
1040
1.5
1070
    44
1040
0.6
1070
    43
1040
7.0
1070
   271
1070
     0
1070
   177
1070
   256
1070
   176
1070
   256
1070
   141
1040
0.0
1070
   275
1070
     1
1070
    41
1040
1.5
1070
   285
1070
     8
1070
   286
1070
     8
1002
}
  0
ENDBLK
  5
16A
330
C3
100
AcDbEntity
  8
0
100
AcDbBlockEnd
  0
BLOCK
  5
D62
330
D61
100
AcDbEntity
  8
0
100
AcDbBlockBegin
  2
FG
 70
     0
 10
0.0
 20
0.0
 30
0.0
  3
FG
  1

  0
LWPOLYLINE
  5
D63
330
D61
100
AcDbEntity
  8
SUNPOU
100
AcDbPolyline
 90
        4
 70
     0
 43
0.0
 10
0.0
 20
-31.5
 10
-4.500000000000909
 20
-29.5
 10
-4.500000000000909
 20
29.5
 10
0.0
 20
31.50000000000045
  0
LWPOLYLINE
  5
D64
330
D61
100
AcDbEntity
  8
SUNPOU
100
AcDbPolyline
 90
        2
 70
     0
 43
0.0
 10
-4.500000000000909
 20
27.0
 10
-41.49999999909687
 20
27.00000000000045
  0
LWPOLYLINE
  5
D65
330
D61
100
AcDbEntity
  8
SUNPOU
100
AcDbPolyline
 90
        2
 70
     0
 43
0.0
 10
-41.50000000000091
 20
27.00000000000045
 42
1.111111111111126
 10
-41.50000000000091
 20
-27.00000000000045
 42
1.111111111111126
  0
LWPOLYLINE
  5
D66
330
D61
100
AcDbEntity
  8
SUNPOU
100
AcDbPolyline
 90
        2
 70
     0
 43
0.0
 10
-4.500000000000909
 20
-27.00000000000045
 10
-41.49999999909687
 20
-27.0
  0
ENDBLK
  5
D67
330
D61
100
AcDbEntity
  8
0
100
AcDbBlockEnd
  0
BLOCK
  5
D69
330
D68
100
AcDbEntity
  8
0
100
AcDbBlockBegin
  2
_DOT
 70
     0
 10
0.0
 20
0.0
 30
0.0
  3
_DOT
  1

  0
LWPOLYLINE
  5
D6A
330
D68
100
AcDbEntity
  8
0
  6
ByBlock
 62
     0
100
AcDbPolyline
 90
        2
 70
     1
 43
0.5
 10
-0.25
 20
0.0
 42
1.0
 10
0.25
 20
0.0
 42
1.0
  0
LINE
  5
D6B
330
D68
100
AcDbEntity
  8
0
  6
ByBlock
 62
     0
100
AcDbLine
 10
-0.5
 20
0.0
 30
0.0
 11
-1.0
 21
0.0
 31
0.0
  0
ENDBLK
  5
D6C
330
D68
100
AcDbEntity
  8
0
100
AcDbBlockEnd
  0
BLOCK
  5
DF4
330
DF3
100
AcDbEntity
  8
0
100
AcDbBlockBegin
  2
FGG
 70
     0
 10
0.0
 20
0.0
 30
0.0
  3
FGG
  1

  0
LWPOLYLINE
  5
DF5
330
DF3
100
AcDbEntity
  8
SUNPOU
100
AcDbPolyline
 90
        4
 70
     0
 43
0.0
 10
0.0
 20
-31.5
 10
-4.500000000000909
 20
-29.5
 10
-4.500000000000909
 20
29.5
 10
0.0
 20
31.50000000000045
  0
LWPOLYLINE
  5
DF6
330
DF3
100
AcDbEntity
  8
SUNPOU
100
AcDbPolyline
 90
        2
 70
     0
 43
0.0
 10
-4.500000000000909
 20
27.0
 10
-41.49999999909687
 20
27.00000000000045
  0
LWPOLYLINE
  5
DF7
330
DF3
100
AcDbEntity
  8
SUNPOU
100
AcDbPolyline
 90
        2
 70
     0
 43
0.0
 10
-41.50000000000091
 20
27.00000000000045
 42
1.111111111111126
 10
-41.50000000000091
 20
-27.00000000000045
 42
1.111111111111126
  0
LWPOLYLINE
  5
DF8
330
DF3
100
AcDbEntity
  8
SUNPOU
100
AcDbPolyline
 90
        2
 70
     0
 43
0.0
 10
-4.500000000000909
 20
-27.00000000000045
 10
-41.49999999909687
 20
-27.0
  0
ENDBLK
  5
DF9
330
DF3
100
AcDbEntity
  8
0
100
AcDbBlockEnd
  0
BLOCK
  5
2A7A
330
2A70
100
AcDbEntity
  8
0
100
AcDbBlockBegin
  2
*D11
 70
     1
 10
0.0
 20
0.0
 30
0.0
  3
*D11
  1

  0
LINE
  5
2E70
330
2A70
100
AcDbEntity
  8
SUNPOU
 62
     0
370
    -2
100
AcDbLine
 10
3564.83907004372
 20
7016.206382115543
 30
0.0
 11
3564.83907004372
 21
7711.296380525975
 31
0.0
  0
LINE
  5
2E71
330
2A70
100
AcDbEntity
  8
SUNPOU
 62
     0
370
    -2
100
AcDbLine
 10
4604.839070043721
 20
6982.762939222201
 30
0.0
 11
4604.839070043721
 21
7711.296380525975
 31
0.0
  0
LINE
  5
2E72
330
2A70
100
AcDbEntity
  8
SUNPOU
 62
     0
370
    -2
100
AcDbLine
 10
3624.83907004372
 20
7696.296380525975
 30
0.0
 11
4544.839070043721
 21
7696.296380525975
 31
0.0
  0
SOLID
  5
2E73
330
2A70
100
AcDbEntity
  8
SUNPOU
 62
     0
100
AcDbTrace
 10
3624.83907004372
 20
7706.296380525975
 30
0.0
 11
3624.83907004372
 21
7686.296380525975
 31
0.0
 12
3564.83907004372
 22
7696.296380525975
 32
0.0
 13
3564.83907004372
 23
7696.296380525975
 33
0.0
  0
SOLID
  5
2E74
330
2A70
100
AcDbEntity
  8
SUNPOU
 62
     0
100
AcDbTrace
 10
4544.839070043721
 20
7706.296380525975
 30
0.0
 11
4544.839070043721
 21
7686.296380525975
 31
0.0
 12
4604.839070043721
 22
7696.296380525975
 32
0.0
 13
4604.839070043721
 23
7696.296380525975
 33
0.0
  0
MTEXT
  5
2E75
330
2A70
100
AcDbEntity
  8
SUNPOU
 62
     0
100
AcDbMText
 10
4084.839070043721
 20
7765.296380525975
 30
0.0
 40
90.0
 41
0.0
 71
     5
 72
     1
  1
\A1;1040
 73
     1
 44
1.0
  0
POINT
  5
2E76
330
2A70
100
AcDbEntity
  8
DEFPOINTS
 62
     0
100
AcDbPoint
 10
3564.83907004372
 20
6956.206382115543
 30
0.0
  0
POINT
  5
2E77
330
2A70
100
AcDbEntity
  8
DEFPOINTS
 62
     0
100
AcDbPoint
 10
4604.839070043721
 20
6922.762939222201
 30
0.0
  0
POINT
  5
2E78
330
2A70
100
AcDbEntity
  8
DEFPOINTS
 62
     0
100
AcDbPoint
 10
4604.839070043721
 20
7696.296380525975
 30
0.0
  0
ENDBLK
  5
2A7B
330
2A70
100
AcDbEntity
  8
0
100
AcDbBlockEnd
  0
BLOCK
  5
2A86
330
2A7C
100
AcDbEntity
  8
0
100
AcDbBlockBegin
  2
*D12
 70
     1
 10
0.0
 20
0.0
 30
0.0
  3
*D12
  1

  0
LINE
  5
2E79
330
2A7C
100
AcDbEntity
  8
SUNPOU
 62
     0
370
    -2
100
AcDbLine
 10
3564.83907004372
 20
7016.206382115543
 30
0.0
 11
3564.83907004372
 21
7711.296380525975
 31
0.0
  0
LINE
  5
2E7A
330
2A7C
100
AcDbEntity
  8
SUNPOU
 62
     0
370
    -2
100
AcDbLine
 10
2004.83907004372
 20
7166.206382115543
 30
0.0
 11
2004.83907004372
 21
7711.296380525975
 31
0.0
  0
LINE
  5
2E7B
330
2A7C
100
AcDbEntity
  8
SUNPOU
 62
     0
370
    -2
100
AcDbLine
 10
3504.83907004372
 20
7696.296380525975
 30
0.0
 11
2064.83907004372
 21
7696.296380525975
 31
0.0
  0
SOLID
  5
2E7C
330
2A7C
100
AcDbEntity
  8
SUNPOU
 62
     0
100
AcDbTrace
 10
3504.83907004372
 20
7706.296380525975
 30
0.0
 11
3504.83907004372
 21
7686.296380525975
 31
0.0
 12
3564.83907004372
 22
7696.296380525975
 32
0.0
 13
3564.83907004372
 23
7696.296380525975
 33
0.0
  0
SOLID
  5
2E7D
330
2A7C
100
AcDbEntity
  8
SUNPOU
 62
     0
100
AcDbTrace
 10
2064.83907004372
 20
7706.296380525975
 30
0.0
 11
2064.83907004372
 21
7686.296380525975
 31
0.0
 12
2004.83907004372
 22
7696.296380525975
 32
0.0
 13
2004.83907004372
 23
7696.296380525975
 33
0.0
  0
MTEXT
  5
2E7E
330
2A7C
100
AcDbEntity
  8
SUNPOU
 62
     0
100
AcDbMText
 10
2784.83907004372
 20
7765.296380525975
 30
0.0
 40
90.0
 41
0.0
 71
     5
 72
     1
  1
\A1;1560
 73
     1
 44
1.0
  0
POINT
  5
2E7F
330
2A7C
100
AcDbEntity
  8
DEFPOINTS
 62
     0
100
AcDbPoint
 10
3564.83907004372
 20
6956.206382115543
 30
0.0
  0
POINT
  5
2E80
330
2A7C
100
AcDbEntity
  8
DEFPOINTS
 62
     0
100
AcDbPoint
 10
2004.83907004372
 20
7106.206382115543
 30
0.0
  0
POINT
  5
2E81
330
2A7C
100
AcDbEntity
  8
DEFPOINTS
 62
     0
100
AcDbPoint
 10
2004.83907004372
 20
7696.296380525975
 30
0.0
  0
ENDBLK
  5
2A87
330
2A7C
100
AcDbEntity
  8
0
100
AcDbBlockEnd
  0
BLOCK
  5
2A92
330
2A88
100
AcDbEntity
  8
0
100
AcDbBlockBegin
  2
*D13
 70
     1
 10
0.0
 20
0.0
 30
0.0
  3
*D13
  1

  0
LINE
  5
2E82
330
2A88
100
AcDbEntity
  8
SUNPOU
 62
     0
370
    -2
100
AcDbLine
 10
2004.83907004372
 20
7166.206382115543
 30
0.0
 11
2004.83907004372
 21
7347.329184267564
 31
0.0
  0
LINE
  5
2E83
330
2A88
100
AcDbEntity
  8
SUNPOU
 62
     0
370
    -2
100
AcDbLine
 10
2194.83907004372
 20
7166.206382115543
 30
0.0
 11
2194.83907004372
 21
7347.329184267564
 31
0.0
  0
LINE
  5
2E84
330
2A88
100
AcDbEntity
  8
SUNPOU
 62
     0
370
    -2
100
AcDbLine
 10
2064.83907004372
 20
7332.329184267564
 30
0.0
 11
2134.83907004372
 21
7332.329184267564
 31
0.0
  0
MTEXT
  5
2E85
330
2A88
100
AcDbEntity
  8
SUNPOU
 62
     0
100
AcDbMText
 10
2099.83907004372
 20
7401.329184267564
 30
0.0
 40
90.0
 41
0.0
 71
     5
 72
     1
  1
\A1;190
 73
     1
 44
1.0
  0
SOLID
  5
2E86
330
2A88
100
AcDbEntity
  8
SUNPOU
 62
     0
100
AcDbTrace
 10
2064.83907004372
 20
7342.329184267564
 30
0.0
 11
2064.83907004372
 21
7322.329184267564
 31
0.0
 12
2004.83907004372
 22
7332.329184267564
 32
0.0
 13
2004.83907004372
 23
7332.329184267564
 33
0.0
  0
SOLID
  5
2E87
330
2A88
100
AcDbEntity
  8
SUNPOU
 62
     0
100
AcDbTrace
 10
2134.83907004372
 20
7342.329184267564
 30
0.0
 11
2134.83907004372
 21
7322.329184267564
 31
0.0
 12
2194.83907004372
 22
7332.329184267564
 32
0.0
 13
2194.83907004372
 23
7332.329184267564
 33
0.0
  0
POINT
  5
2E88
330
2A88
100
AcDbEntity
  8
DEFPOINTS
 62
     0
100
AcDbPoint
 10
2004.83907004372
 20
7106.206382115543
 30
0.0
  0
POINT
  5
2E89
330
2A88
100
AcDbEntity
  8
DEFPOINTS
 62
     0
100
AcDbPoint
 10
2194.83907004372
 20
7106.206382115543
 30
0.0
  0
POINT
  5
2E8A
330
2A88
100
AcDbEntity
  8
DEFPOINTS
 62
     0
100
AcDbPoint
 10
2194.83907004372
 20
7332.329184267564
 30
0.0
  0
ENDBLK
  5
2A93
330
2A88
100
AcDbEntity
  8
0
100
AcDbBlockEnd
  0
BLOCK
  5
2A9F
330
2A94
100
AcDbEntity
  8
0
100
AcDbBlockBegin
  2
*D14
 70
     1
 10
0.0
 20
0.0
 30
0.0
  3
*D14
  1

  0
LINE
  5
2E8B
330
2A94
100
AcDbEntity
  8
SUNPOU
 62
     0
370
    -2
100
AcDbLine
 10
2194.83907004372
 20
7166.206382115543
 30
0.0
 11
2194.83907004372
 21
7347.329184267564
 31
0.0
  0
LINE
  5
2E8C
330
2A94
100
AcDbEntity
  8
SUNPOU
 62
     0
370
    -2
100
AcDbLine
 10
2264.83907004372
 20
7016.206382115543
 30
0.0
 11
2264.83907004372
 21
7347.329184267564
 31
0.0
  0
LINE
  5
2E8D
330
2A94
100
AcDbEntity
  8
SUNPOU
 62
     0
370
    -2
100
AcDbLine
 10
2134.83907004372
 20
7332.329184267564
 30
0.0
 11
2074.83907004372
 21
7332.329184267564
 31
0.0
  0
LINE
  5
2E8E
330
2A94
100
AcDbEntity
  8
SUNPOU
 62
     0
370
    -2
100
AcDbLine
 10
2324.83907004372
 20
7332.329184267564
 30
0.0
 11
2384.83907004372
 21
7332.329184267564
 31
0.0
  0
MTEXT
  5
2E8F
330
2A94
100
AcDbEntity
  8
SUNPOU
 62
     0
100
AcDbMText
 10
2252.879880401328
 20
7401.329184267564
 30
0.0
 40
90.0
 41
0.0
 71
     5
 72
     1
  1
\A1;70
 73
     1
 44
1.0
  0
SOLID
  5
2E90
330
2A94
100
AcDbEntity
  8
SUNPOU
 62
     0
100
AcDbTrace
 10
2134.83907004372
 20
7342.329184267564
 30
0.0
 11
2134.83907004372
 21
7322.329184267564
 31
0.0
 12
2194.83907004372
 22
7332.329184267564
 32
0.0
 13
2194.83907004372
 23
7332.329184267564
 33
0.0
  0
SOLID
  5
2E91
330
2A94
100
AcDbEntity
  8
SUNPOU
 62
     0
100
AcDbTrace
 10
2324.83907004372
 20
7342.329184267564
 30
0.0
 11
2324.83907004372
 21
7322.329184267564
 31
0.0
 12
2264.83907004372
 22
7332.329184267564
 32
0.0
 13
2264.83907004372
 23
7332.329184267564
 33
0.0
  0
POINT
  5
2E92
330
2A94
100
AcDbEntity
  8
DEFPOINTS
 62
     0
100
AcDbPoint
 10
2194.83907004372
 20
7106.206382115543
 30
0.0
  0
POINT
  5
2E93
330
2A94
100
AcDbEntity
  8
DEFPOINTS
 62
     0
100
AcDbPoint
 10
2264.83907004372
 20
6956.206382115543
 30
0.0
  0
POINT
  5
2E94
330
2A94
100
AcDbEntity
  8
DEFPOINTS
 62
     0
100
AcDbPoint
 10
2264.83907004372
 20
7332.329184267564
 30
0.0
  0
ENDBLK
  5
2AA0
330
2A94
100
AcDbEntity
  8
0
100
AcDbBlockEnd
  0
BLOCK
  5
2AAB
330
2AA1
100
AcDbEntity
  8
0
100
AcDbBlockBegin
  2
*D15
 70
     1
 10
0.0
 20
0.0
 30
0.0
  3
*D15
  1

  0
LINE
  5
2E95
330
2AA1
100
AcDbEntity
  8
SUNPOU
 62
     0
370
    -2
100
AcDbLine
 10
2004.83907004372
 20
7166.206382115543
 30
0.0
 11
2004.83907004372
 21
7532.838631870087
 31
0.0
  0
LINE
  5
2E96
330
2AA1
100
AcDbEntity
  8
SUNPOU
 62
     0
370
    -2
100
AcDbLine
 10
2264.83907004372
 20
7016.206382115543
 30
0.0
 11
2264.83907004372
 21
7532.838631870087
 31
0.0
  0
LINE
  5
2E97
330
2AA1
100
AcDbEntity
  8
SUNPOU
 62
     0
370
    -2
100
AcDbLine
 10
2064.83907004372
 20
7517.838631870087
 30
0.0
 11
2204.83907004372
 21
7517.838631870087
 31
0.0
  0
SOLID
  5
2E98
330
2AA1
100
AcDbEntity
  8
SUNPOU
 62
     0
100
AcDbTrace
 10
2064.83907004372
 20
7527.838631870087
 30
0.0
 11
2064.83907004372
 21
7507.838631870087
 31
0.0
 12
2004.83907004372
 22
7517.838631870087
 32
0.0
 13
2004.83907004372
 23
7517.838631870087
 33
0.0
  0
SOLID
  5
2E99
330
2AA1
100
AcDbEntity
  8
SUNPOU
 62
     0
100
AcDbTrace
 10
2204.83907004372
 20
7527.838631870087
 30
0.0
 11
2204.83907004372
 21
7507.838631870087
 31
0.0
 12
2264.83907004372
 22
7517.838631870087
 32
0.0
 13
2264.83907004372
 23
7517.838631870087
 33
0.0
  0
MTEXT
  5
2E9A
330
2AA1
100
AcDbEntity
  8
SUNPOU
 62
     0
100
AcDbMText
 10
2134.83907004372
 20
7586.838631870087
 30
0.0
 40
90.0
 41
0.0
 71
     5
 72
     1
  1
\A1;260
 73
     1
 44
1.0
  0
POINT
  5
2E9B
330
2AA1
100
AcDbEntity
  8
DEFPOINTS
 62
     0
100
AcDbPoint
 10
2004.83907004372
 20
7106.206382115543
 30
0.0
  0
POINT
  5
2E9C
330
2AA1
100
AcDbEntity
  8
DEFPOINTS
 62
     0
100
AcDbPoint
 10
2264.83907004372
 20
6956.206382115543
 30
0.0
  0
POINT
  5
2E9D
330
2AA1
100
AcDbEntity
  8
DEFPOINTS
 62
     0
100
AcDbPoint
 10
2264.83907004372
 20
7517.838631870087
 30
0.0
  0
ENDBLK
  5
2AAC
330
2AA1
100
AcDbEntity
  8
0
100
AcDbBlockEnd
  0
BLOCK
  5
2AB7
330
2AAD
100
AcDbEntity
  8
0
100
AcDbBlockBegin
  2
*D16
 70
     1
 10
0.0
 20
0.0
 30
0.0
  3
*D16
  1

  0
LINE
  5
2E9E
330
2AAD
100
AcDbEntity
  8
SUNPOU
 62
     0
370
    -2
100
AcDbLine
 10
2264.83907004372
 20
7016.206382115543
 30
0.0
 11
2264.83907004372
 21
7532.838631870087
 31
0.0
  0
LINE
  5
2E9F
330
2AAD
100
AcDbEntity
  8
SUNPOU
 62
     0
370
    -2
100
AcDbLine
 10
3564.83907004372
 20
7016.206382115543
 30
0.0
 11
3564.83907004372
 21
7532.838631870087
 31
0.0
  0
LINE
  5
2EA0
330
2AAD
100
AcDbEntity
  8
SUNPOU
 62
     0
370
    -2
100
AcDbLine
 10
2324.83907004372
 20
7517.838631870087
 30
0.0
 11
3504.83907004372
 21
7517.838631870087
 31
0.0
  0
SOLID
  5
2EA1
330
2AAD
100
AcDbEntity
  8
SUNPOU
 62
     0
100
AcDbTrace
 10
2324.83907004372
 20
7527.838631870087
 30
0.0
 11
2324.83907004372
 21
7507.838631870087
 31
0.0
 12
2264.83907004372
 22
7517.838631870087
 32
0.0
 13
2264.83907004372
 23
7517.838631870087
 33
0.0
  0
SOLID
  5
2EA2
330
2AAD
100
AcDbEntity
  8
SUNPOU
 62
     0
100
AcDbTrace
 10
3504.83907004372
 20
7527.838631870087
 30
0.0
 11
3504.83907004372
 21
7507.838631870087
 31
0.0
 12
3564.83907004372
 22
7517.838631870087
 32
0.0
 13
3564.83907004372
 23
7517.838631870087
 33
0.0
  0
MTEXT
  5
2EA3
330
2AAD
100
AcDbEntity
  8
SUNPOU
 62
     0
100
AcDbMText
 10
2914.83907004372
 20
7586.838631870087
 30
0.0
 40
90.0
 41
0.0
 71
     5
 72
     1
  1
\A1;1300
 73
     1
 44
1.0
  0
POINT
  5
2EA4
330
2AAD
100
AcDbEntity
  8
DEFPOINTS
 62
     0
100
AcDbPoint
 10
2264.83907004372
 20
6956.206382115543
 30
0.0
  0
POINT
  5
2EA5
330
2AAD
100
AcDbEntity
  8
DEFPOINTS
 62
     0
100
AcDbPoint
 10
3564.83907004372
 20
6956.206382115543
 30
0.0
  0
POINT
  5
2EA6
330
2AAD
100
AcDbEntity
  8
DEFPOINTS
 62
     0
100
AcDbPoint
 10
3564.83907004372
 20
7517.838631870087
 30
0.0
  0
ENDBLK
  5
2AB8
330
2AAD
100
AcDbEntity
  8
0
100
AcDbBlockEnd
  0
BLOCK
  5
2AC4
330
2AB9
100
AcDbEntity
  8
0
100
AcDbBlockBegin
  2
*D17
 70
     1
 10
0.0
 20
0.0
 30
0.0
  3
*D17
  1

  0
LINE
  5
2EA7
330
2AB9
100
AcDbEntity
  8
SUNPOU
 62
     0
370
    -2
100
AcDbLine
 10
1944.83907004372
 20
7106.206382115543
 30
0.0
 11
1500.865151759652
 21
7106.206382115543
 31
0.0
  0
LINE
  5
2EA8
330
2AB9
100
AcDbEntity
  8
SUNPOU
 62
     0
370
    -2
100
AcDbLine
 10
1944.83907004372
 20
6956.206382115543
 30
0.0
 11
1500.865151759652
 21
6956.206382115543
 31
0.0
  0
LINE
  5
2EA9
330
2AB9
100
AcDbEntity
  8
SUNPOU
 62
     0
370
    -2
100
AcDbLine
 10
1515.865151759652
 20
7166.206382115543
 30
0.0
 11
1515.865151759652
 21
7226.206382115543
 31
0.0
  0
LINE
  5
2EAA
330
2AB9
100
AcDbEntity
  8
SUNPOU
 62
     0
370
    -2
100
AcDbLine
 10
1515.865151759652
 20
6896.206382115543
 30
0.0
 11
1515.865151759652
 21
6836.206382115543
 31
0.0
  0
SOLID
  5
2EAB
330
2AB9
100
AcDbEntity
  8
SUNPOU
 62
     0
100
AcDbTrace
 10
1505.865151759652
 20
7166.206382115543
 30
0.0
 11
1525.865151759652
 21
7166.206382115543
 31
0.0
 12
1515.865151759652
 22
7106.206382115543
 32
0.0
 13
1515.865151759652
 23
7106.206382115543
 33
0.0
  0
SOLID
  5
2EAC
330
2AB9
100
AcDbEntity
  8
SUNPOU
 62
     0
100
AcDbTrace
 10
1505.865151759652
 20
6896.206382115543
 30
0.0
 11
1525.865151759652
 21
6896.206382115543
 31
0.0
 12
1515.865151759652
 22
6956.206382115543
 32
0.0
 13
1515.865151759652
 23
6956.206382115543
 33
0.0
  0
MTEXT
  5
2EAD
330
2AB9
100
AcDbEntity
  8
SUNPOU
 62
     0
100
AcDbMText
 10
1446.865151759651
 20
7031.206382115543
 30
0.0
 40
90.0
 41
0.0
 71
     5
 72
     1
  1
\A1;150
 11
6.123031769111886E-17
 21
1.0
 31
0.0
 73
     1
 44
1.0
  0
POINT
  5
2EAE
330
2AB9
100
AcDbEntity
  8
DEFPOINTS
 62
     0
100
AcDbPoint
 10
2004.83907004372
 20
7106.206382115543
 30
0.0
  0
POINT
  5
2EAF
330
2AB9
100
AcDbEntity
  8
DEFPOINTS
 62
     0
100
AcDbPoint
 10
2004.83907004372
 20
6956.206382115543
 30
0.0
  0
POINT
  5
2EB0
330
2AB9
100
AcDbEntity
  8
DEFPOINTS
 62
     0
100
AcDbPoint
 10
1515.865151759652
 20
6956.206382115543
 30
0.0
  0
ENDBLK
  5
2AC5
330
2AB9
100
AcDbEntity
  8
0
100
AcDbBlockEnd
  0
BLOCK
  5
2AD0
330
2AC6
100
AcDbEntity
  8
0
100
AcDbBlockBegin
  2
*D18
 70
     1
 10
0.0
 20
0.0
 30
0.0
  3
*D18
  1

  0
LINE
  5
2EB1
330
2AC6
100
AcDbEntity
  8
SUNPOU
 62
     0
370
    -2
100
AcDbLine
 10
1944.83907004372
 20
6956.206382115543
 30
0.0
 11
1500.865151759652
 21
6956.206382115543
 31
0.0
  0
LINE
  5
2EB2
330
2AC6
100
AcDbEntity
  8
SUNPOU
 62
     0
370
    -2
100
AcDbLine
 10
2504.83907004372
 20
4456.206382115543
 30
0.0
 11
1500.865151759652
 21
4456.206382115543
 31
0.0
  0
LINE
  5
2EB3
330
2AC6
100
AcDbEntity
  8
SUNPOU
 62
     0
370
    -2
100
AcDbLine
 10
1515.865151759652
 20
6896.206382115543
 30
0.0
 11
1515.865151759652
 21
4516.206382115543
 31
0.0
  0
SOLID
  5
2EB4
330
2AC6
100
AcDbEntity
  8
SUNPOU
 62
     0
100
AcDbTrace
 10
1505.865151759652
 20
6896.206382115543
 30
0.0
 11
1525.865151759652
 21
6896.206382115543
 31
0.0
 12
1515.865151759652
 22
6956.206382115543
 32
0.0
 13
1515.865151759652
 23
6956.206382115543
 33
0.0
  0
SOLID
  5
2EB5
330
2AC6
100
AcDbEntity
  8
SUNPOU
 62
     0
100
AcDbTrace
 10
1505.865151759652
 20
4516.206382115543
 30
0.0
 11
1525.865151759652
 21
4516.206382115543
 31
0.0
 12
1515.865151759652
 22
4456.206382115543
 32
0.0
 13
1515.865151759652
 23
4456.206382115543
 33
0.0
  0
MTEXT
  5
2EB6
330
2AC6
100
AcDbEntity
  8
SUNPOU
 62
     0
100
AcDbMText
 10
1446.865151759651
 20
5706.206382115543
 30
0.0
 40
90.0
 41
0.0
 71
     5
 72
     1
  1
\A1;2500
 11
6.123031769111886E-17
 21
1.0
 31
0.0
 73
     1
 44
1.0
  0
POINT
  5
2EB7
330
2AC6
100
AcDbEntity
  8
DEFPOINTS
 62
     0
100
AcDbPoint
 10
2004.83907004372
 20
6956.206382115543
 30
0.0
  0
POINT
  5
2EB8
330
2AC6
100
AcDbEntity
  8
DEFPOINTS
 62
     0
100
AcDbPoint
 10
2564.83907004372
 20
4456.206382115543
 30
0.0
  0
POINT
  5
2EB9
330
2AC6
100
AcDbEntity
  8
DEFPOINTS
 62
     0
100
AcDbPoint
 10
1515.865151759652
 20
4456.206382115543
 30
0.0
  0
ENDBLK
  5
2AD1
330
2AC6
100
AcDbEntity
  8
0
100
AcDbBlockEnd
  0
BLOCK
  5
2B47
330
2B3D
100
AcDbEntity
  8
0
100
AcDbBlockBegin
  2
*D19
 70
     1
 10
0.0
 20
0.0
 30
0.0
  3
*D19
  1

  0
LINE
  5
2EBA
330
2B3D
100
AcDbEntity
  8
SUNPOU
 62
     0
370
    -2
100
AcDbLine
 10
2564.83907004372
 20
4396.206382115543
 30
0.0
 11
2564.83907004372
 21
3955.392835147341
 31
0.0
  0
LINE
  5
2EBB
330
2B3D
100
AcDbEntity
  8
SUNPOU
 62
     0
370
    -2
100
AcDbLine
 10
3164.839070043719
 20
4396.206382115543
 30
0.0
 11
3164.839070043719
 21
3955.392835147341
 31
0.0
  0
LINE
  5
2EBC
330
2B3D
100
AcDbEntity
  8
SUNPOU
 62
     0
370
    -2
100
AcDbLine
 10
2624.83907004372
 20
3970.392835147341
 30
0.0
 11
3104.839070043719
 21
3970.392835147341
 31
0.0
  0
SOLID
  5
2EBD
330
2B3D
100
AcDbEntity
  8
SUNPOU
 62
     0
100
AcDbTrace
 10
2624.83907004372
 20
3980.392835147341
 30
0.0
 11
2624.83907004372
 21
3960.392835147341
 31
0.0
 12
2564.83907004372
 22
3970.392835147341
 32
0.0
 13
2564.83907004372
 23
3970.392835147341
 33
0.0
  0
SOLID
  5
2EBE
330
2B3D
100
AcDbEntity
  8
SUNPOU
 62
     0
100
AcDbTrace
 10
3104.839070043719
 20
3980.392835147341
 30
0.0
 11
3104.839070043719
 21
3960.392835147341
 31
0.0
 12
3164.839070043719
 22
3970.392835147341
 32
0.0
 13
3164.839070043719
 23
3970.392835147341
 33
0.0
  0
MTEXT
  5
2EBF
330
2B3D
100
AcDbEntity
  8
SUNPOU
 62
     0
100
AcDbMText
 10
2864.83907004372
 20
4039.392835147341
 30
0.0
 40
90.0
 41
0.0
 71
     5
 72
     1
  1
\A1;600
 73
     1
 44
1.0
  0
POINT
  5
2EC0
330
2B3D
100
AcDbEntity
  8
DEFPOINTS
 62
     0
100
AcDbPoint
 10
2564.83907004372
 20
4456.206382115543
 30
0.0
  0
POINT
  5
2EC1
330
2B3D
100
AcDbEntity
  8
DEFPOINTS
 62
     0
100
AcDbPoint
 10
3164.839070043719
 20
4456.206382115543
 30
0.0
  0
POINT
  5
2EC2
330
2B3D
100
AcDbEntity
  8
DEFPOINTS
 62
     0
100
AcDbPoint
 10
3164.839070043719
 20
3970.392835147341
 30
0.0
  0
ENDBLK
  5
2B48
330
2B3D
100
AcDbEntity
  8
0
100
AcDbBlockEnd
  0
BLOCK
  5
2B53
330
2B49
100
AcDbEntity
  8
0
100
AcDbBlockBegin
  2
*D20
 70
     1
 10
0.0
 20
0.0
 30
0.0
  3
*D20
  1

  0
LINE
  5
2EC3
330
2B49
100
AcDbEntity
  8
SUNPOU
 62
     0
370
    -2
100
AcDbLine
 10
3164.839070043719
 20
4396.206382115543
 30
0.0
 11
3164.839070043719
 21
3955.392835147341
 31
0.0
  0
LINE
  5
2EC4
330
2B49
100
AcDbEntity
  8
SUNPOU
 62
     0
370
    -2
100
AcDbLine
 10
3564.839070043719
 20
4396.206382115543
 30
0.0
 11
3564.839070043719
 21
3955.392835147341
 31
0.0
  0
LINE
  5
2EC5
330
2B49
100
AcDbEntity
  8
SUNPOU
 62
     0
370
    -2
100
AcDbLine
 10
3224.839070043719
 20
3970.392835147341
 30
0.0
 11
3504.839070043719
 21
3970.392835147341
 31
0.0
  0
SOLID
  5
2EC6
330
2B49
100
AcDbEntity
  8
SUNPOU
 62
     0
100
AcDbTrace
 10
3224.839070043719
 20
3980.392835147341
 30
0.0
 11
3224.839070043719
 21
3960.392835147341
 31
0.0
 12
3164.839070043719
 22
3970.392835147341
 32
0.0
 13
3164.839070043719
 23
3970.392835147341
 33
0.0
  0
SOLID
  5
2EC7
330
2B49
100
AcDbEntity
  8
SUNPOU
 62
     0
100
AcDbTrace
 10
3504.839070043719
 20
3980.392835147341
 30
0.0
 11
3504.839070043719
 21
3960.392835147341
 31
0.0
 12
3564.839070043719
 22
3970.392835147341
 32
0.0
 13
3564.839070043719
 23
3970.392835147341
 33
0.0
  0
MTEXT
  5
2EC8
330
2B49
100
AcDbEntity
  8
SUNPOU
 62
     0
100
AcDbMText
 10
3364.839070043719
 20
4039.392835147341
 30
0.0
 40
90.0
 41
0.0
 71
     5
 72
     1
  1
\A1;400
 73
     1
 44
1.0
  0
POINT
  5
2EC9
330
2B49
100
AcDbEntity
  8
DEFPOINTS
 62
     0
100
AcDbPoint
 10
3164.839070043719
 20
4456.206382115543
 30
0.0
  0
POINT
  5
2ECA
330
2B49
100
AcDbEntity
  8
DEFPOINTS
 62
     0
100
AcDbPoint
 10
3564.839070043719
 20
4456.206382115543
 30
0.0
  0
POINT
  5
2ECB
330
2B49
100
AcDbEntity
  8
DEFPOINTS
 62
     0
100
AcDbPoint
 10
3564.839070043719
 20
3970.392835147341
 30
0.0
  0
ENDBLK
  5
2B54
330
2B49
100
AcDbEntity
  8
0
100
AcDbBlockEnd
  0
BLOCK
  5
2B5F
330
2B55
100
AcDbEntity
  8
0
100
AcDbBlockBegin
  2
*D21
 70
     1
 10
0.0
 20
0.0
 30
0.0
  3
*D21
  1

  0
LINE
  5
2ECC
330
2B55
100
AcDbEntity
  8
SUNPOU
 62
     0
370
    -2
100
AcDbLine
 10
3564.839070043719
 20
4396.206382115543
 30
0.0
 11
3564.839070043719
 21
3955.392835147341
 31
0.0
  0
LINE
  5
2ECD
330
2B55
100
AcDbEntity
  8
SUNPOU
 62
     0
370
    -2
100
AcDbLine
 10
4604.839070043721
 20
4396.206382115543
 30
0.0
 11
4604.839070043721
 21
3955.392835147341
 31
0.0
  0
LINE
  5
2ECE
330
2B55
100
AcDbEntity
  8
SUNPOU
 62
     0
370
    -2
100
AcDbLine
 10
3624.839070043719
 20
3970.392835147341
 30
0.0
 11
4544.839070043721
 21
3970.392835147341
 31
0.0
  0
SOLID
  5
2ECF
330
2B55
100
AcDbEntity
  8
SUNPOU
 62
     0
100
AcDbTrace
 10
3624.839070043719
 20
3980.392835147341
 30
0.0
 11
3624.839070043719
 21
3960.392835147341
 31
0.0
 12
3564.839070043719
 22
3970.392835147341
 32
0.0
 13
3564.839070043719
 23
3970.392835147341
 33
0.0
  0
SOLID
  5
2ED0
330
2B55
100
AcDbEntity
  8
SUNPOU
 62
     0
100
AcDbTrace
 10
4544.839070043721
 20
3980.392835147341
 30
0.0
 11
4544.839070043721
 21
3960.392835147341
 31
0.0
 12
4604.839070043721
 22
3970.392835147341
 32
0.0
 13
4604.839070043721
 23
3970.392835147341
 33
0.0
  0
MTEXT
  5
2ED1
330
2B55
100
AcDbEntity
  8
SUNPOU
 62
     0
100
AcDbMText
 10
4084.83907004372
 20
4039.392835147341
 30
0.0
 40
90.0
 41
0.0
 71
     5
 72
     1
  1
\A1;1040
 73
     1
 44
1.0
  0
POINT
  5
2ED2
330
2B55
100
AcDbEntity
  8
DEFPOINTS
 62
     0
100
AcDbPoint
 10
3564.839070043719
 20
4456.206382115543
 30
0.0
  0
POINT
  5
2ED3
330
2B55
100
AcDbEntity
  8
DEFPOINTS
 62
     0
100
AcDbPoint
 10
4604.839070043721
 20
4456.206382115543
 30
0.0
  0
POINT
  5
2ED4
330
2B55
100
AcDbEntity
  8
DEFPOINTS
 62
     0
100
AcDbPoint
 10
4604.839070043721
 20
3970.392835147341
 30
0.0
  0
ENDBLK
  5
2B60
330
2B55
100
AcDbEntity
  8
0
100
AcDbBlockEnd
  0
BLOCK
  5
2B6C
330
2B61
100
AcDbEntity
  8
0
100
AcDbBlockBegin
  2
*D22
 70
     1
 10
0.0
 20
0.0
 30
0.0
  3
*D22
  1

  0
LINE
  5
2ED5
330
2B61
100
AcDbEntity
  8
SUNPOU
 62
     0
370
    -2
100
AcDbLine
 10
3564.839070043719
 20
4396.206382115543
 30
0.0
 11
3564.839070043719
 21
4148.552650327867
 31
0.0
  0
LINE
  5
2ED6
330
2B61
100
AcDbEntity
  8
SUNPOU
 62
     0
370
    -2
100
AcDbLine
 10
3464.83907004372
 20
4396.206382115543
 30
0.0
 11
3464.83907004372
 21
4148.552650327867
 31
0.0
  0
LINE
  5
2ED7
330
2B61
100
AcDbEntity
  8
SUNPOU
 62
     0
370
    -2
100
AcDbLine
 10
3624.839070043719
 20
4163.552650327867
 30
0.0
 11
3684.839070043719
 21
4163.552650327867
 31
0.0
  0
LINE
  5
2ED8
330
2B61
100
AcDbEntity
  8
SUNPOU
 62
     0
370
    -2
100
AcDbLine
 10
3404.83907004372
 20
4163.552650327867
 30
0.0
 11
3344.83907004372
 21
4163.552650327867
 31
0.0
  0
SOLID
  5
2ED9
330
2B61
100
AcDbEntity
  8
SUNPOU
 62
     0
100
AcDbTrace
 10
3624.839070043719
 20
4173.552650327867
 30
0.0
 11
3624.839070043719
 21
4153.552650327867
 31
0.0
 12
3564.839070043719
 22
4163.552650327867
 32
0.0
 13
3564.839070043719
 23
4163.552650327867
 33
0.0
  0
SOLID
  5
2EDA
330
2B61
100
AcDbEntity
  8
SUNPOU
 62
     0
100
AcDbTrace
 10
3404.83907004372
 20
4173.552650327867
 30
0.0
 11
3404.83907004372
 21
4153.552650327867
 31
0.0
 12
3464.83907004372
 22
4163.552650327867
 32
0.0
 13
3464.83907004372
 23
4163.552650327867
 33
0.0
  0
MTEXT
  5
2EDB
330
2B61
100
AcDbEntity
  8
SUNPOU
 62
     0
100
AcDbMText
 10
3514.83907004372
 20
4232.552650327867
 30
0.0
 40
90.0
 41
0.0
 71
     5
 72
     1
  1
\A1;100
 73
     1
 44
1.0
  0
POINT
  5
2EDC
330
2B61
100
AcDbEntity
  8
DEFPOINTS
 62
     0
100
AcDbPoint
 10
3564.839070043719
 20
4456.206382115543
 30
0.0
  0
POINT
  5
2EDD
330
2B61
100
AcDbEntity
  8
DEFPOINTS
 62
     0
100
AcDbPoint
 10
3464.83907004372
 20
4456.206382115543
 30
0.0
  0
POINT
  5
2EDE
330
2B61
100
AcDbEntity
  8
DEFPOINTS
 62
     0
100
AcDbPoint
 10
3464.83907004372
 20
4163.552650327867
 30
0.0
  0
ENDBLK
  5
2B6D
330
2B61
100
AcDbEntity
  8
0
100
AcDbBlockEnd
  0
BLOCK
  5
2B78
330
2B6E
100
AcDbEntity
  8
0
100
AcDbBlockBegin
  2
*D23
 70
     1
 10
0.0
 20
0.0
 30
0.0
  3
*D23
  1

  0
LINE
  5
2EDF
330
2B6E
100
AcDbEntity
  8
SUNPOU
 62
     0
370
    -2
100
AcDbLine
 10
3464.83907004372
 20
4396.206382115543
 30
0.0
 11
3464.83907004372
 21
4148.552650327867
 31
0.0
  0
LINE
  5
2EE0
330
2B6E
100
AcDbEntity
  8
SUNPOU
 62
     0
370
    -2
100
AcDbLine
 10
3164.839070043719
 20
4396.206382115543
 30
0.0
 11
3164.839070043719
 21
4148.552650327867
 31
0.0
  0
LINE
  5
2EE1
330
2B6E
100
AcDbEntity
  8
SUNPOU
 62
     0
370
    -2
100
AcDbLine
 10
3404.83907004372
 20
4163.552650327867
 30
0.0
 11
3224.839070043719
 21
4163.552650327867
 31
0.0
  0
SOLID
  5
2EE2
330
2B6E
100
AcDbEntity
  8
SUNPOU
 62
     0
100
AcDbTrace
 10
3404.83907004372
 20
4173.552650327867
 30
0.0
 11
3404.83907004372
 21
4153.552650327867
 31
0.0
 12
3464.83907004372
 22
4163.552650327867
 32
0.0
 13
3464.83907004372
 23
4163.552650327867
 33
0.0
  0
SOLID
  5
2EE3
330
2B6E
100
AcDbEntity
  8
SUNPOU
 62
     0
100
AcDbTrace
 10
3224.839070043719
 20
4173.552650327867
 30
0.0
 11
3224.839070043719
 21
4153.552650327867
 31
0.0
 12
3164.839070043719
 22
4163.552650327867
 32
0.0
 13
3164.839070043719
 23
4163.552650327867
 33
0.0
  0
MTEXT
  5
2EE4
330
2B6E
100
AcDbEntity
  8
SUNPOU
 62
     0
100
AcDbMText
 10
3314.83907004372
 20
4232.552650327867
 30
0.0
 40
90.0
 41
0.0
 71
     5
 72
     1
  1
\A1;300
 73
     1
 44
1.0
  0
POINT
  5
2EE5
330
2B6E
100
AcDbEntity
  8
DEFPOINTS
 62
     0
100
AcDbPoint
 10
3464.83907004372
 20
4456.206382115543
 30
0.0
  0
POINT
  5
2EE6
330
2B6E
100
AcDbEntity
  8
DEFPOINTS
 62
     0
100
AcDbPoint
 10
3164.839070043719
 20
4456.206382115543
 30
0.0
  0
POINT
  5
2EE7
330
2B6E
100
AcDbEntity
  8
DEFPOINTS
 62
     0
100
AcDbPoint
 10
3164.839070043719
 20
4163.552650327867
 30
0.0
  0
ENDBLK
  5
2B79
330
2B6E
100
AcDbEntity
  8
0
100
AcDbBlockEnd
  0
BLOCK
  5
2B84
330
2B7A
100
AcDbEntity
  8
0
100
AcDbBlockBegin
  2
*D24
 70
     1
 10
0.0
 20
0.0
 30
0.0
  3
*D24
  1

  0
LINE
  5
2EE8
330
2B7A
100
AcDbEntity
  8
SUNPOU
 62
     0
370
    -2
100
AcDbLine
 10
2564.83907004372
 20
4396.206382115543
 30
0.0
 11
2564.83907004372
 21
3761.051084935363
 31
0.0
  0
LINE
  5
2EE9
330
2B7A
100
AcDbEntity
  8
SUNPOU
 62
     0
370
    -2
100
AcDbLine
 10
4604.839070043721
 20
4396.206382115543
 30
0.0
 11
4604.839070043721
 21
3761.051084935363
 31
0.0
  0
LINE
  5
2EEA
330
2B7A
100
AcDbEntity
  8
SUNPOU
 62
     0
370
    -2
100
AcDbLine
 10
2624.83907004372
 20
3776.051084935363
 30
0.0
 11
4544.839070043721
 21
3776.051084935363
 31
0.0
  0
SOLID
  5
2EEB
330
2B7A
100
AcDbEntity
  8
SUNPOU
 62
     0
100
AcDbTrace
 10
2624.83907004372
 20
3786.051084935363
 30
0.0
 11
2624.83907004372
 21
3766.051084935363
 31
0.0
 12
2564.83907004372
 22
3776.051084935363
 32
0.0
 13
2564.83907004372
 23
3776.051084935363
 33
0.0
  0
SOLID
  5
2EEC
330
2B7A
100
AcDbEntity
  8
SUNPOU
 62
     0
100
AcDbTrace
 10
4544.839070043721
 20
3786.051084935363
 30
0.0
 11
4544.839070043721
 21
3766.051084935363
 31
0.0
 12
4604.839070043721
 22
3776.051084935363
 32
0.0
 13
4604.839070043721
 23
3776.051084935363
 33
0.0
  0
MTEXT
  5
2EED
330
2B7A
100
AcDbEntity
  8
SUNPOU
 62
     0
100
AcDbMText
 10
3584.839070043721
 20
3845.051084935363
 30
0.0
 40
90.0
 41
0.0
 71
     5
 72
     1
  1
\A1;2040
 73
     1
 44
1.0
  0
POINT
  5
2EEE
330
2B7A
100
AcDbEntity
  8
DEFPOINTS
 62
     0
100
AcDbPoint
 10
2564.83907004372
 20
4456.206382115543
 30
0.0
  0
POINT
  5
2EEF
330
2B7A
100
AcDbEntity
  8
DEFPOINTS
 62
     0
100
AcDbPoint
 10
4604.839070043721
 20
4456.206382115543
 30
0.0
  0
POINT
  5
2EF0
330
2B7A
100
AcDbEntity
  8
DEFPOINTS
 62
     0
100
AcDbPoint
 10
4604.839070043721
 20
3776.051084935363
 30
0.0
  0
ENDBLK
  5
2B85
330
2B7A
100
AcDbEntity
  8
0
100
AcDbBlockEnd
  0
BLOCK
  5
2BE5
330
2BDA
100
AcDbEntity
  8
0
100
AcDbBlockBegin
  2
*D25
 70
     1
 10
0.0
 20
0.0
 30
0.0
  3
*D25
  1

  0
LINE
  5
2EF1
330
2BDA
100
AcDbEntity
  8
SUNPOU
 62
     0
370
    -2
100
AcDbLine
 10
6507.644624399487
 20
7106.206382115543
 30
0.0
 11
6144.989081144151
 21
7106.206382115543
 31
0.0
  0
LINE
  5
2EF2
330
2BDA
100
AcDbEntity
  8
SUNPOU
 62
     0
370
    -2
100
AcDbLine
 10
6507.644624399487
 20
6956.206382115543
 30
0.0
 11
6144.989081144151
 21
6956.206382115543
 31
0.0
  0
LINE
  5
2EF3
330
2BDA
100
AcDbEntity
  8
SUNPOU
 62
     0
370
    -2
100
AcDbLine
 10
6159.989081144151
 20
7166.206382115543
 30
0.0
 11
6159.989081144151
 21
7226.206382115543
 31
0.0
  0
LINE
  5
2EF4
330
2BDA
100
AcDbEntity
  8
SUNPOU
 62
     0
370
    -2
100
AcDbLine
 10
6159.989081144151
 20
6896.206382115543
 30
0.0
 11
6159.989081144151
 21
6836.206382115543
 31
0.0
  0
SOLID
  5
2EF5
330
2BDA
100
AcDbEntity
  8
SUNPOU
 62
     0
100
AcDbTrace
 10
6149.989081144151
 20
7166.206382115543
 30
0.0
 11
6169.989081144151
 21
7166.206382115543
 31
0.0
 12
6159.989081144151
 22
7106.206382115543
 32
0.0
 13
6159.989081144151
 23
7106.206382115543
 33
0.0
  0
SOLID
  5
2EF6
330
2BDA
100
AcDbEntity
  8
SUNPOU
 62
     0
100
AcDbTrace
 10
6149.989081144151
 20
6896.206382115543
 30
0.0
 11
6169.989081144151
 21
6896.206382115543
 31
0.0
 12
6159.989081144151
 22
6956.206382115543
 32
0.0
 13
6159.989081144151
 23
6956.206382115543
 33
0.0
  0
MTEXT
  5
2EF7
330
2BDA
100
AcDbEntity
  8
SUNPOU
 62
     0
100
AcDbMText
 10
6090.989081144149
 20
7031.206382115544
 30
0.0
 40
90.0
 41
0.0
 71
     5
 72
     1
  1
\A1;150
 11
6.123031769111886E-17
 21
1.0
 31
0.0
 73
     1
 44
1.0
  0
POINT
  5
2EF8
330
2BDA
100
AcDbEntity
  8
DEFPOINTS
 62
     0
100
AcDbPoint
 10
6567.644624399487
 20
7106.206382115543
 30
0.0
  0
POINT
  5
2EF9
330
2BDA
100
AcDbEntity
  8
DEFPOINTS
 62
     0
100
AcDbPoint
 10
6567.644624399487
 20
6956.206382115543
 30
0.0
  0
POINT
  5
2EFA
330
2BDA
100
AcDbEntity
  8
DEFPOINTS
 62
     0
100
AcDbPoint
 10
6159.989081144151
 20
6956.206382115543
 30
0.0
  0
ENDBLK
  5
2BE6
330
2BDA
100
AcDbEntity
  8
0
100
AcDbBlockEnd
  0
BLOCK
  5
2BF1
330
2BE7
100
AcDbEntity
  8
0
100
AcDbBlockBegin
  2
*D26
 70
     1
 10
0.0
 20
0.0
 30
0.0
  3
*D26
  1

  0
LINE
  5
2EFB
330
2BE7
100
AcDbEntity
  8
SUNPOU
 62
     0
370
    -2
100
AcDbLine
 10
6507.644624399487
 20
6956.206382115543
 30
0.0
 11
6144.989081144152
 21
6956.206382115543
 31
0.0
  0
LINE
  5
2EFC
330
2BE7
100
AcDbEntity
  8
SUNPOU
 62
     0
370
    -2
100
AcDbLine
 10
6501.644624399485
 20
4456.206382115543
 30
0.0
 11
6144.989081144151
 21
4456.206382115543
 31
0.0
  0
LINE
  5
2EFD
330
2BE7
100
AcDbEntity
  8
SUNPOU
 62
     0
370
    -2
100
AcDbLine
 10
6159.989081144152
 20
6896.206382115543
 30
0.0
 11
6159.989081144151
 21
4516.206382115543
 31
0.0
  0
SOLID
  5
2EFE
330
2BE7
100
AcDbEntity
  8
SUNPOU
 62
     0
100
AcDbTrace
 10
6149.989081144152
 20
6896.206382115543
 30
0.0
 11
6169.989081144152
 21
6896.206382115543
 31
0.0
 12
6159.989081144152
 22
6956.206382115543
 32
0.0
 13
6159.989081144152
 23
6956.206382115543
 33
0.0
  0
SOLID
  5
2EFF
330
2BE7
100
AcDbEntity
  8
SUNPOU
 62
     0
100
AcDbTrace
 10
6149.989081144151
 20
4516.206382115543
 30
0.0
 11
6169.989081144151
 21
4516.206382115543
 31
0.0
 12
6159.989081144151
 22
4456.206382115543
 32
0.0
 13
6159.989081144151
 23
4456.206382115543
 33
0.0
  0
MTEXT
  5
2F00
330
2BE7
100
AcDbEntity
  8
SUNPOU
 62
     0
100
AcDbMText
 10
6090.98908114415
 20
5706.206382115544
 30
0.0
 40
90.0
 41
0.0
 71
     5
 72
     1
  1
\A1;2500
 11
6.123031769111886E-17
 21
1.0
 31
0.0
 73
     1
 44
1.0
  0
POINT
  5
2F01
330
2BE7
100
AcDbEntity
  8
DEFPOINTS
 62
     0
100
AcDbPoint
 10
6567.644624399487
 20
6956.206382115543
 30
0.0
  0
POINT
  5
2F02
330
2BE7
100
AcDbEntity
  8
DEFPOINTS
 62
     0
100
AcDbPoint
 10
6561.644624399485
 20
4456.206382115543
 30
0.0
  0
POINT
  5
2F03
330
2BE7
100
AcDbEntity
  8
DEFPOINTS
 62
     0
100
AcDbPoint
 10
6159.989081144151
 20
4456.206382115543
 30
0.0
  0
ENDBLK
  5
2BF2
330
2BE7
100
AcDbEntity
  8
0
100
AcDbBlockEnd
  0
BLOCK
  5
2BFD
330
2BF3
100
AcDbEntity
  8
0
100
AcDbBlockBegin
  2
*D27
 70
     1
 10
0.0
 20
0.0
 30
0.0
  3
*D27
  1

  0
LINE
  5
2F04
330
2BF3
100
AcDbEntity
  8
SUNPOU
 62
     0
370
    -2
100
AcDbLine
 10
6561.644624399487
 20
7166.206382115543
 30
0.0
 11
6561.644624399487
 21
7711.296380525975
 31
0.0
  0
LINE
  5
2F05
330
2BF3
100
AcDbEntity
  8
SUNPOU
 62
     0
370
    -2
100
AcDbLine
 10
8061.644624399487
 20
7166.206382115543
 30
0.0
 11
8061.644624399487
 21
7711.296380525975
 31
0.0
  0
LINE
  5
2F06
330
2BF3
100
AcDbEntity
  8
SUNPOU
 62
     0
370
    -2
100
AcDbLine
 10
6621.644624399487
 20
7696.296380525975
 30
0.0
 11
8001.644624399487
 21
7696.296380525975
 31
0.0
  0
SOLID
  5
2F07
330
2BF3
100
AcDbEntity
  8
SUNPOU
 62
     0
100
AcDbTrace
 10
6621.644624399487
 20
7706.296380525975
 30
0.0
 11
6621.644624399487
 21
7686.296380525975
 31
0.0
 12
6561.644624399487
 22
7696.296380525975
 32
0.0
 13
6561.644624399487
 23
7696.296380525975
 33
0.0
  0
SOLID
  5
2F08
330
2BF3
100
AcDbEntity
  8
SUNPOU
 62
     0
100
AcDbTrace
 10
8001.644624399487
 20
7706.296380525975
 30
0.0
 11
8001.644624399487
 21
7686.296380525975
 31
0.0
 12
8061.644624399487
 22
7696.296380525975
 32
0.0
 13
8061.644624399487
 23
7696.296380525975
 33
0.0
  0
MTEXT
  5
2F09
330
2BF3
100
AcDbEntity
  8
SUNPOU
 62
     0
100
AcDbMText
 10
7311.644624399487
 20
7765.296380525975
 30
0.0
 40
90.0
 41
0.0
 71
     5
 72
     1
  1
\A1;1500
 73
     1
 44
1.0
  0
POINT
  5
2F0A
330
2BF3
100
AcDbEntity
  8
DEFPOINTS
 62
     0
100
AcDbPoint
 10
6561.644624399487
 20
7106.206382115543
 30
0.0
  0
POINT
  5
2F0B
330
2BF3
100
AcDbEntity
  8
DEFPOINTS
 62
     0
100
AcDbPoint
 10
8061.644624399487
 20
7106.206382115543
 30
0.0
  0
POINT
  5
2F0C
330
2BF3
100
AcDbEntity
  8
DEFPOINTS
 62
     0
100
AcDbPoint
 10
8061.644624399487
 20
7696.296380525975
 30
0.0
  0
ENDBLK
  5
2BFE
330
2BF3
100
AcDbEntity
  8
0
100
AcDbBlockEnd
  0
BLOCK
  5
2C09
330
2BFF
100
AcDbEntity
  8
0
100
AcDbBlockBegin
  2
*D28
 70
     1
 10
0.0
 20
0.0
 30
0.0
  3
*D28
  1

  0
LINE
  5
2F0D
330
2BFF
100
AcDbEntity
  8
SUNPOU
 62
     0
370
    -2
100
AcDbLine
 10
6561.644624399487
 20
7166.206382115543
 30
0.0
 11
6561.644624399487
 21
7495.773702898998
 31
0.0
  0
LINE
  5
2F0E
330
2BFF
100
AcDbEntity
  8
SUNPOU
 62
     0
370
    -2
100
AcDbLine
 10
6936.644624399487
 20
7166.206382115543
 30
0.0
 11
6936.644624399487
 21
7495.773702898998
 31
0.0
  0
LINE
  5
2F0F
330
2BFF
100
AcDbEntity
  8
SUNPOU
 62
     0
370
    -2
100
AcDbLine
 10
6621.644624399487
 20
7480.773702898998
 30
0.0
 11
6876.644624399487
 21
7480.773702898998
 31
0.0
  0
SOLID
  5
2F10
330
2BFF
100
AcDbEntity
  8
SUNPOU
 62
     0
100
AcDbTrace
 10
6621.644624399487
 20
7490.773702898998
 30
0.0
 11
6621.644624399487
 21
7470.773702898998
 31
0.0
 12
6561.644624399487
 22
7480.773702898998
 32
0.0
 13
6561.644624399487
 23
7480.773702898998
 33
0.0
  0
SOLID
  5
2F11
330
2BFF
100
AcDbEntity
  8
SUNPOU
 62
     0
100
AcDbTrace
 10
6876.644624399487
 20
7490.773702898998
 30
0.0
 11
6876.644624399487
 21
7470.773702898998
 31
0.0
 12
6936.644624399487
 22
7480.773702898998
 32
0.0
 13
6936.644624399487
 23
7480.773702898998
 33
0.0
  0
MTEXT
  5
2F12
330
2BFF
100
AcDbEntity
  8
SUNPOU
 62
     0
100
AcDbMText
 10
6749.144624399487
 20
7549.773702898998
 30
0.0
 40
90.0
 41
0.0
 71
     5
 72
     1
  1
\A1;375
 73
     1
 44
1.0
  0
POINT
  5
2F13
330
2BFF
100
AcDbEntity
  8
DEFPOINTS
 62
     0
100
AcDbPoint
 10
6561.644624399487
 20
7106.206382115543
 30
0.0
  0
POINT
  5
2F14
330
2BFF
100
AcDbEntity
  8
DEFPOINTS
 62
     0
100
AcDbPoint
 10
6936.644624399487
 20
7106.206382115543
 30
0.0
  0
POINT
  5
2F15
330
2BFF
100
AcDbEntity
  8
DEFPOINTS
 62
     0
100
AcDbPoint
 10
6936.644624399487
 20
7480.773702898998
 30
0.0
  0
ENDBLK
  5
2C0A
330
2BFF
100
AcDbEntity
  8
0
100
AcDbBlockEnd
  0
BLOCK
  5
2C15
330
2C0B
100
AcDbEntity
  8
0
100
AcDbBlockBegin
  2
*D29
 70
     1
 10
0.0
 20
0.0
 30
0.0
  3
*D29
  1

  0
LINE
  5
2F16
330
2C0B
100
AcDbEntity
  8
SUNPOU
 62
     0
370
    -2
100
AcDbLine
 10
6936.644624399487
 20
7166.206382115543
 30
0.0
 11
6936.644624399487
 21
7495.773702898998
 31
0.0
  0
LINE
  5
2F17
330
2C0B
100
AcDbEntity
  8
SUNPOU
 62
     0
370
    -2
100
AcDbLine
 10
7686.644624399487
 20
7166.206382115543
 30
0.0
 11
7686.644624399487
 21
7495.773702898998
 31
0.0
  0
LINE
  5
2F18
330
2C0B
100
AcDbEntity
  8
SUNPOU
 62
     0
370
    -2
100
AcDbLine
 10
6996.644624399487
 20
7480.773702898998
 30
0.0
 11
7626.644624399487
 21
7480.773702898998
 31
0.0
  0
SOLID
  5
2F19
330
2C0B
100
AcDbEntity
  8
SUNPOU
 62
     0
100
AcDbTrace
 10
6996.644624399487
 20
7490.773702898998
 30
0.0
 11
6996.644624399487
 21
7470.773702898998
 31
0.0
 12
6936.644624399487
 22
7480.773702898998
 32
0.0
 13
6936.644624399487
 23
7480.773702898998
 33
0.0
  0
SOLID
  5
2F1A
330
2C0B
100
AcDbEntity
  8
SUNPOU
 62
     0
100
AcDbTrace
 10
7626.644624399487
 20
7490.773702898998
 30
0.0
 11
7626.644624399487
 21
7470.773702898998
 31
0.0
 12
7686.644624399487
 22
7480.773702898998
 32
0.0
 13
7686.644624399487
 23
7480.773702898998
 33
0.0
  0
MTEXT
  5
2F1B
330
2C0B
100
AcDbEntity
  8
SUNPOU
 62
     0
100
AcDbMText
 10
7311.644624399487
 20
7549.773702898998
 30
0.0
 40
90.0
 41
0.0
 71
     5
 72
     1
  1
\A1;750
 73
     1
 44
1.0
  0
POINT
  5
2F1C
330
2C0B
100
AcDbEntity
  8
DEFPOINTS
 62
     0
100
AcDbPoint
 10
6936.644624399487
 20
7106.206382115543
 30
0.0
  0
POINT
  5
2F1D
330
2C0B
100
AcDbEntity
  8
DEFPOINTS
 62
     0
100
AcDbPoint
 10
7686.644624399487
 20
7106.206382115543
 30
0.0
  0
POINT
  5
2F1E
330
2C0B
100
AcDbEntity
  8
DEFPOINTS
 62
     0
100
AcDbPoint
 10
7686.644624399487
 20
7480.773702898998
 30
0.0
  0
ENDBLK
  5
2C16
330
2C0B
100
AcDbEntity
  8
0
100
AcDbBlockEnd
  0
BLOCK
  5
2C21
330
2C17
100
AcDbEntity
  8
0
100
AcDbBlockBegin
  2
*D30
 70
     1
 10
0.0
 20
0.0
 30
0.0
  3
*D30
  1

  0
LINE
  5
2F1F
330
2C17
100
AcDbEntity
  8
SUNPOU
 62
     0
370
    -2
100
AcDbLine
 10
7686.644624399487
 20
7166.206382115543
 30
0.0
 11
7686.644624399487
 21
7495.773702898998
 31
0.0
  0
LINE
  5
2F20
330
2C17
100
AcDbEntity
  8
SUNPOU
 62
     0
370
    -2
100
AcDbLine
 10
8061.644624399487
 20
7166.206382115543
 30
0.0
 11
8061.644624399487
 21
7495.773702898998
 31
0.0
  0
LINE
  5
2F21
330
2C17
100
AcDbEntity
  8
SUNPOU
 62
     0
370
    -2
100
AcDbLine
 10
7746.644624399487
 20
7480.773702898998
 30
0.0
 11
8001.644624399487
 21
7480.773702898998
 31
0.0
  0
SOLID
  5
2F22
330
2C17
100
AcDbEntity
  8
SUNPOU
 62
     0
100
AcDbTrace
 10
7746.644624399487
 20
7490.773702898998
 30
0.0
 11
7746.644624399487
 21
7470.773702898998
 31
0.0
 12
7686.644624399487
 22
7480.773702898998
 32
0.0
 13
7686.644624399487
 23
7480.773702898998
 33
0.0
  0
SOLID
  5
2F23
330
2C17
100
AcDbEntity
  8
SUNPOU
 62
     0
100
AcDbTrace
 10
8001.644624399487
 20
7490.773702898998
 30
0.0
 11
8001.644624399487
 21
7470.773702898998
 31
0.0
 12
8061.644624399487
 22
7480.773702898998
 32
0.0
 13
8061.644624399487
 23
7480.773702898998
 33
0.0
  0
MTEXT
  5
2F24
330
2C17
100
AcDbEntity
  8
SUNPOU
 62
     0
100
AcDbMText
 10
7874.144624399487
 20
7549.773702898998
 30
0.0
 40
90.0
 41
0.0
 71
     5
 72
     1
  1
\A1;375
 73
     1
 44
1.0
  0
POINT
  5
2F25
330
2C17
100
AcDbEntity
  8
DEFPOINTS
 62
     0
100
AcDbPoint
 10
7686.644624399487
 20
7106.206382115543
 30
0.0
  0
POINT
  5
2F26
330
2C17
100
AcDbEntity
  8
DEFPOINTS
 62
     0
100
AcDbPoint
 10
8061.644624399487
 20
7106.206382115543
 30
0.0
  0
POINT
  5
2F27
330
2C17
100
AcDbEntity
  8
DEFPOINTS
 62
     0
100
AcDbPoint
 10
8061.644624399487
 20
7480.773702898998
 30
0.0
  0
ENDBLK
  5
2C22
330
2C17
100
AcDbEntity
  8
0
100
AcDbBlockEnd
  0
BLOCK
  5
2C2E
330
2C23
100
AcDbEntity
  8
0
100
AcDbBlockBegin
  2
*D31
 70
     1
 10
0.0
 20
0.0
 30
0.0
  3
*D31
  1

  0
LINE
  5
2F28
330
2C23
100
AcDbEntity
  8
SUNPOU
 62
     0
370
    -2
100
AcDbLine
 10
6826.644624399487
 20
5950.809591071606
 30
0.0
 11
6826.644624399487
 21
6039.572333910582
 31
0.0
  0
LINE
  5
2F29
330
2C23
100
AcDbEntity
  8
SUNPOU
 62
     0
370
    -2
100
AcDbLine
 10
6846.644624399487
 20
5950.809591071606
 30
0.0
 11
6846.644624399487
 21
6039.572333910582
 31
0.0
  0
LINE
  5
2F2A
330
2C23
100
AcDbEntity
  8
SUNPOU
 62
     0
370
    -2
100
AcDbLine
 10
6766.644624399487
 20
6024.572333910582
 30
0.0
 11
6706.644624399487
 21
6024.572333910582
 31
0.0
  0
LINE
  5
2F2B
330
2C23
100
AcDbEntity
  8
SUNPOU
 62
     0
370
    -2
100
AcDbLine
 10
6906.644624399487
 20
6024.572333910582
 30
0.0
 11
6966.644624399487
 21
6024.572333910582
 31
0.0
  0
MTEXT
  5
2F2C
330
2C23
100
AcDbEntity
  8
SUNPOU
 62
     0
100
AcDbMText
 10
6750.196165356059
 20
6093.572333910582
 30
0.0
 40
90.0
 41
0.0
 71
     5
 72
     1
  1
\A1;20
 73
     1
 44
1.0
  0
SOLID
  5
2F2D
330
2C23
100
AcDbEntity
  8
SUNPOU
 62
     0
100
AcDbTrace
 10
6766.644624399487
 20
6034.572333910582
 30
0.0
 11
6766.644624399487
 21
6014.572333910582
 31
0.0
 12
6826.644624399487
 22
6024.572333910582
 32
0.0
 13
6826.644624399487
 23
6024.572333910582
 33
0.0
  0
SOLID
  5
2F2E
330
2C23
100
AcDbEntity
  8
SUNPOU
 62
     0
100
AcDbTrace
 10
6906.644624399487
 20
6034.572333910582
 30
0.0
 11
6906.644624399487
 21
6014.572333910582
 31
0.0
 12
6846.644624399487
 22
6024.572333910582
 32
0.0
 13
6846.644624399487
 23
6024.572333910582
 33
0.0
  0
POINT
  5
2F2F
330
2C23
100
AcDbEntity
  8
DEFPOINTS
 62
     0
100
AcDbPoint
 10
6826.644624399487
 20
5890.809591071606
 30
0.0
  0
POINT
  5
2F30
330
2C23
100
AcDbEntity
  8
DEFPOINTS
 62
     0
100
AcDbPoint
 10
6846.644624399487
 20
5890.809591071606
 30
0.0
  0
POINT
  5
2F31
330
2C23
100
AcDbEntity
  8
DEFPOINTS
 62
     0
100
AcDbPoint
 10
6846.644624399487
 20
6024.572333910582
 30
0.0
  0
ENDBLK
  5
2C2F
330
2C23
100
AcDbEntity
  8
0
100
AcDbBlockEnd
  0
BLOCK
  5
2C3B
330
2C30
100
AcDbEntity
  8
0
100
AcDbBlockBegin
  2
*D32
 70
     1
 10
0.0
 20
0.0
 30
0.0
  3
*D32
  1

  0
LINE
  5
2F32
330
2C30
100
AcDbEntity
  8
SUNPOU
 62
     0
370
    -2
100
AcDbLine
 10
6846.644624399487
 20
5950.809591071606
 30
0.0
 11
6846.644624399487
 21
6039.572333910582
 31
0.0
  0
LINE
  5
2F33
330
2C30
100
AcDbEntity
  8
SUNPOU
 62
     0
370
    -2
100
AcDbLine
 10
7026.644624399487
 20
5950.809591071606
 30
0.0
 11
7026.644624399487
 21
6039.572333910582
 31
0.0
  0
LINE
  5
2F34
330
2C30
100
AcDbEntity
  8
SUNPOU
 62
     0
370
    -2
100
AcDbLine
 10
6786.644624399487
 20
6024.572333910582
 30
0.0
 11
6726.644624399487
 21
6024.572333910582
 31
0.0
  0
LINE
  5
2F35
330
2C30
100
AcDbEntity
  8
SUNPOU
 62
     0
370
    -2
100
AcDbLine
 10
7086.644624399487
 20
6024.572333910582
 30
0.0
 11
7146.644624399487
 21
6024.572333910582
 31
0.0
  0
SOLID
  5
2F36
330
2C30
100
AcDbEntity
  8
SUNPOU
 62
     0
100
AcDbTrace
 10
6786.644624399487
 20
6034.572333910582
 30
0.0
 11
6786.644624399487
 21
6014.572333910582
 31
0.0
 12
6846.644624399487
 22
6024.572333910582
 32
0.0
 13
6846.644624399487
 23
6024.572333910582
 33
0.0
  0
SOLID
  5
2F37
330
2C30
100
AcDbEntity
  8
SUNPOU
 62
     0
100
AcDbTrace
 10
7086.644624399487
 20
6034.572333910582
 30
0.0
 11
7086.644624399487
 21
6014.572333910582
 31
0.0
 12
7026.644624399487
 22
6024.572333910582
 32
0.0
 13
7026.644624399487
 23
6024.572333910582
 33
0.0
  0
MTEXT
  5
2F38
330
2C30
100
AcDbEntity
  8
SUNPOU
 62
     0
100
AcDbMText
 10
6936.644624399487
 20
6093.572333910582
 30
0.0
 40
90.0
 41
0.0
 71
     5
 72
     1
  1
\A1;180
 73
     1
 44
1.0
  0
POINT
  5
2F39
330
2C30
100
AcDbEntity
  8
DEFPOINTS
 62
     0
100
AcDbPoint
 10
6846.644624399487
 20
5890.809591071606
 30
0.0
  0
POINT
  5
2F3A
330
2C30
100
AcDbEntity
  8
DEFPOINTS
 62
     0
100
AcDbPoint
 10
7026.644624399487
 20
5890.809591071606
 30
0.0
  0
POINT
  5
2F3B
330
2C30
100
AcDbEntity
  8
DEFPOINTS
 62
     0
100
AcDbPoint
 10
7026.644624399487
 20
6024.572333910582
 30
0.0
  0
ENDBLK
  5
2C3C
330
2C30
100
AcDbEntity
  8
0
100
AcDbBlockEnd
  0
BLOCK
  5
2C48
330
2C3D
100
AcDbEntity
  8
0
100
AcDbBlockBegin
  2
*D33
 70
     1
 10
0.0
 20
0.0
 30
0.0
  3
*D33
  1

  0
LINE
  5
2F3C
330
2C3D
100
AcDbEntity
  8
SUNPOU
 62
     0
370
    -2
100
AcDbLine
 10
7026.644624399487
 20
5950.809591071606
 30
0.0
 11
7026.644624399487
 21
6039.572333910582
 31
0.0
  0
LINE
  5
2F3D
330
2C3D
100
AcDbEntity
  8
SUNPOU
 62
     0
370
    -2
100
AcDbLine
 10
7046.644624399487
 20
5950.809591071606
 30
0.0
 11
7046.644624399487
 21
6039.572333910582
 31
0.0
  0
LINE
  5
2F3E
330
2C3D
100
AcDbEntity
  8
SUNPOU
 62
     0
370
    -2
100
AcDbLine
 10
6966.644624399487
 20
6024.572333910582
 30
0.0
 11
6906.644624399487
 21
6024.572333910582
 31
0.0
  0
LINE
  5
2F3F
330
2C3D
100
AcDbEntity
  8
SUNPOU
 62
     0
370
    -2
100
AcDbLine
 10
7106.644624399487
 20
6024.572333910582
 30
0.0
 11
7166.644624399487
 21
6024.572333910582
 31
0.0
  0
MTEXT
  5
2F40
330
2C3D
100
AcDbEntity
  8
SUNPOU
 62
     0
100
AcDbMText
 10
7123.752274197928
 20
6093.572333910582
 30
0.0
 40
90.0
 41
0.0
 71
     5
 72
     1
  1
\A1;20
 73
     1
 44
1.0
  0
SOLID
  5
2F41
330
2C3D
100
AcDbEntity
  8
SUNPOU
 62
     0
100
AcDbTrace
 10
6966.644624399487
 20
6034.572333910582
 30
0.0
 11
6966.644624399487
 21
6014.572333910582
 31
0.0
 12
7026.644624399487
 22
6024.572333910582
 32
0.0
 13
7026.644624399487
 23
6024.572333910582
 33
0.0
  0
SOLID
  5
2F42
330
2C3D
100
AcDbEntity
  8
SUNPOU
 62
     0
100
AcDbTrace
 10
7106.644624399487
 20
6034.572333910582
 30
0.0
 11
7106.644624399487
 21
6014.572333910582
 31
0.0
 12
7046.644624399487
 22
6024.572333910582
 32
0.0
 13
7046.644624399487
 23
6024.572333910582
 33
0.0
  0
POINT
  5
2F43
330
2C3D
100
AcDbEntity
  8
DEFPOINTS
 62
     0
100
AcDbPoint
 10
7026.644624399487
 20
5890.809591071606
 30
0.0
  0
POINT
  5
2F44
330
2C3D
100
AcDbEntity
  8
DEFPOINTS
 62
     0
100
AcDbPoint
 10
7046.644624399487
 20
5890.809591071606
 30
0.0
  0
POINT
  5
2F45
330
2C3D
100
AcDbEntity
  8
DEFPOINTS
 62
     0
100
AcDbPoint
 10
7046.644624399487
 20
6024.572333910582
 30
0.0
  0
ENDBLK
  5
2C49
330
2C3D
100
AcDbEntity
  8
0
100
AcDbBlockEnd
  0
BLOCK
  5
2D04
330
2CFA
100
AcDbEntity
  8
0
100
AcDbBlockBegin
  2
*D34
 70
     1
 10
0.0
 20
0.0
 30
0.0
  3
*D34
  1

  0
LINE
  5
2D5B
330
2CFA
100
AcDbEntity
  8
SUNPOU
 62
     0
370
    -2
100
AcDbLine
 10
8061.644624399485
 20
920.8059789714534
 30
0.0
 11
8061.644624399485
 21
400.7208055216888
 31
0.0
  0
LINE
  5
2D5C
330
2CFA
100
AcDbEntity
  8
SUNPOU
 62
     0
370
    -2
100
AcDbLine
 10
6561.644624399485
 20
920.8059789714534
 30
0.0
 11
6561.644624399485
 21
400.7208055216888
 31
0.0
  0
LINE
  5
2D5D
330
2CFA
100
AcDbEntity
  8
SUNPOU
 62
     0
370
    -2
100
AcDbLine
 10
8001.644624399485
 20
415.7208055216888
 30
0.0
 11
6621.644624399485
 21
415.7208055216888
 31
0.0
  0
SOLID
  5
2D5E
330
2CFA
100
AcDbEntity
  8
SUNPOU
 62
     0
100
AcDbTrace
 10
8001.644624399485
 20
425.7208055216888
 30
0.0
 11
8001.644624399485
 21
405.7208055216888
 31
0.0
 12
8061.644624399485
 22
415.7208055216888
 32
0.0
 13
8061.644624399485
 23
415.7208055216888
 33
0.0
  0
SOLID
  5
2D5F
330
2CFA
100
AcDbEntity
  8
SUNPOU
 62
     0
100
AcDbTrace
 10
6621.644624399485
 20
425.7208055216888
 30
0.0
 11
6621.644624399485
 21
405.7208055216888
 31
0.0
 12
6561.644624399485
 22
415.7208055216888
 32
0.0
 13
6561.644624399485
 23
415.7208055216888
 33
0.0
  0
MTEXT
  5
2D60
330
2CFA
100
AcDbEntity
  8
SUNPOU
 62
     0
100
AcDbMText
 10
7311.644624399485
 20
484.7208055216888
 30
0.0
 40
90.0
 41
0.0
 71
     5
 72
     1
  1
\A1;1500
 73
     1
 44
1.0
  0
POINT
  5
2D61
330
2CFA
100
AcDbEntity
  8
DEFPOINTS
 62
     0
100
AcDbPoint
 10
8061.644624399485
 20
980.8059789714534
 30
0.0
  0
POINT
  5
2D62
330
2CFA
100
AcDbEntity
  8
DEFPOINTS
 62
     0
100
AcDbPoint
 10
6561.644624399485
 20
980.8059789714534
 30
0.0
  0
POINT
  5
2D63
330
2CFA
100
AcDbEntity
  8
DEFPOINTS
 62
     0
100
AcDbPoint
 10
6561.644624399485
 20
415.7208055216888
 30
0.0
  0
ENDBLK
  5
2D05
330
2CFA
100
AcDbEntity
  8
0
100
AcDbBlockEnd
  0
BLOCK
  5
2D10
330
2D06
100
AcDbEntity
  8
0
100
AcDbBlockBegin
  2
*D35
 70
     1
 10
0.0
 20
0.0
 30
0.0
  3
*D35
  1

  0
LINE
  5
2D64
330
2D06
100
AcDbEntity
  8
SUNPOU
 62
     0
370
    -2
100
AcDbLine
 10
7311.644624399485
 20
920.8059789714534
 30
0.0
 11
7311.644624399485
 21
640.2023563795692
 31
0.0
  0
LINE
  5
2D65
330
2D06
100
AcDbEntity
  8
SUNPOU
 62
     0
370
    -2
100
AcDbLine
 10
6936.644624399485
 20
920.8059789714534
 30
0.0
 11
6936.644624399485
 21
640.2023563795692
 31
0.0
  0
LINE
  5
2D66
330
2D06
100
AcDbEntity
  8
SUNPOU
 62
     0
370
    -2
100
AcDbLine
 10
7251.644624399485
 20
655.2023563795692
 30
0.0
 11
6996.644624399485
 21
655.2023563795692
 31
0.0
  0
SOLID
  5
2D67
330
2D06
100
AcDbEntity
  8
SUNPOU
 62
     0
100
AcDbTrace
 10
7251.644624399485
 20
665.2023563795692
 30
0.0
 11
7251.644624399485
 21
645.2023563795692
 31
0.0
 12
7311.644624399485
 22
655.2023563795692
 32
0.0
 13
7311.644624399485
 23
655.2023563795692
 33
0.0
  0
SOLID
  5
2D68
330
2D06
100
AcDbEntity
  8
SUNPOU
 62
     0
100
AcDbTrace
 10
6996.644624399485
 20
665.2023563795692
 30
0.0
 11
6996.644624399485
 21
645.2023563795692
 31
0.0
 12
6936.644624399485
 22
655.2023563795692
 32
0.0
 13
6936.644624399485
 23
655.2023563795692
 33
0.0
  0
MTEXT
  5
2D69
330
2D06
100
AcDbEntity
  8
SUNPOU
 62
     0
100
AcDbMText
 10
7124.144624399485
 20
724.2023563795692
 30
0.0
 40
90.0
 41
0.0
 71
     5
 72
     1
  1
\A1;375
 73
     1
 44
1.0
  0
POINT
  5
2D6A
330
2D06
100
AcDbEntity
  8
DEFPOINTS
 62
     0
100
AcDbPoint
 10
7311.644624399485
 20
980.8059789714534
 30
0.0
  0
POINT
  5
2D6B
330
2D06
100
AcDbEntity
  8
DEFPOINTS
 62
     0
100
AcDbPoint
 10
6936.644624399485
 20
980.8059789714534
 30
0.0
  0
POINT
  5
2D6C
330
2D06
100
AcDbEntity
  8
DEFPOINTS
 62
     0
100
AcDbPoint
 10
6936.644624399485
 20
655.2023563795692
 30
0.0
  0
ENDBLK
  5
2D11
330
2D06
100
AcDbEntity
  8
0
100
AcDbBlockEnd
  0
BLOCK
  5
2D1C
330
2D12
100
AcDbEntity
  8
0
100
AcDbBlockBegin
  2
*D36
 70
     1
 10
0.0
 20
0.0
 30
0.0
  3
*D36
  1

  0
LINE
  5
2D6D
330
2D12
100
AcDbEntity
  8
SUNPOU
 62
     0
370
    -2
100
AcDbLine
 10
6936.644624399485
 20
920.8059789714534
 30
0.0
 11
6936.644624399485
 21
640.2023563795692
 31
0.0
  0
LINE
  5
2D6E
330
2D12
100
AcDbEntity
  8
SUNPOU
 62
     0
370
    -2
100
AcDbLine
 10
6561.644624399485
 20
920.8059789714534
 30
0.0
 11
6561.644624399485
 21
640.2023563795692
 31
0.0
  0
LINE
  5
2D6F
330
2D12
100
AcDbEntity
  8
SUNPOU
 62
     0
370
    -2
100
AcDbLine
 10
6876.644624399485
 20
655.2023563795692
 30
0.0
 11
6621.644624399485
 21
655.2023563795692
 31
0.0
  0
SOLID
  5
2D70
330
2D12
100
AcDbEntity
  8
SUNPOU
 62
     0
100
AcDbTrace
 10
6876.644624399485
 20
665.2023563795692
 30
0.0
 11
6876.644624399485
 21
645.2023563795692
 31
0.0
 12
6936.644624399485
 22
655.2023563795692
 32
0.0
 13
6936.644624399485
 23
655.2023563795692
 33
0.0
  0
SOLID
  5
2D71
330
2D12
100
AcDbEntity
  8
SUNPOU
 62
     0
100
AcDbTrace
 10
6621.644624399485
 20
665.2023563795692
 30
0.0
 11
6621.644624399485
 21
645.2023563795692
 31
0.0
 12
6561.644624399485
 22
655.2023563795692
 32
0.0
 13
6561.644624399485
 23
655.2023563795692
 33
0.0
  0
MTEXT
  5
2D72
330
2D12
100
AcDbEntity
  8
SUNPOU
 62
     0
100
AcDbMText
 10
6749.144624399485
 20
724.2023563795692
 30
0.0
 40
90.0
 41
0.0
 71
     5
 72
     1
  1
\A1;375
 73
     1
 44
1.0
  0
POINT
  5
2D73
330
2D12
100
AcDbEntity
  8
DEFPOINTS
 62
     0
100
AcDbPoint
 10
6936.644624399485
 20
980.8059789714534
 30
0.0
  0
POINT
  5
2D74
330
2D12
100
AcDbEntity
  8
DEFPOINTS
 62
     0
100
AcDbPoint
 10
6561.644624399485
 20
980.8059789714534
 30
0.0
  0
POINT
  5
2D75
330
2D12
100
AcDbEntity
  8
DEFPOINTS
 62
     0
100
AcDbPoint
 10
6561.644624399485
 20
655.2023563795692
 30
0.0
  0
ENDBLK
  5
2D1D
330
2D12
100
AcDbEntity
  8
0
100
AcDbBlockEnd
  0
BLOCK
  5
2D28
330
2D1E
100
AcDbEntity
  8
0
100
AcDbBlockBegin
  2
*D37
 70
     1
 10
0.0
 20
0.0
 30
0.0
  3
*D37
  1

  0
LINE
  5
2D76
330
2D1E
100
AcDbEntity
  8
SUNPOU
 62
     0
370
    -2
100
AcDbLine
 10
8121.644624399485
 20
980.8059789714534
 30
0.0
 11
8581.094906450207
 21
980.8059789714533
 31
0.0
  0
LINE
  5
2D77
330
2D1E
100
AcDbEntity
  8
SUNPOU
 62
     0
370
    -2
100
AcDbLine
 10
8121.644624399485
 20
1240.805978971453
 30
0.0
 11
8581.094906450207
 21
1240.805978971453
 31
0.0
  0
LINE
  5
2D78
330
2D1E
100
AcDbEntity
  8
SUNPOU
 62
     0
370
    -2
100
AcDbLine
 10
8566.094906450207
 20
1040.805978971453
 30
0.0
 11
8566.094906450207
 21
1180.805978971453
 31
0.0
  0
SOLID
  5
2D79
330
2D1E
100
AcDbEntity
  8
SUNPOU
 62
     0
100
AcDbTrace
 10
8556.094906450207
 20
1040.805978971453
 30
0.0
 11
8576.094906450207
 21
1040.805978971453
 31
0.0
 12
8566.094906450207
 22
980.8059789714533
 32
0.0
 13
8566.094906450207
 23
980.8059789714533
 33
0.0
  0
SOLID
  5
2D7A
330
2D1E
100
AcDbEntity
  8
SUNPOU
 62
     0
100
AcDbTrace
 10
8556.094906450207
 20
1180.805978971453
 30
0.0
 11
8576.094906450207
 21
1180.805978971453
 31
0.0
 12
8566.094906450207
 22
1240.805978971453
 32
0.0
 13
8566.094906450207
 23
1240.805978971453
 33
0.0
  0
MTEXT
  5
2D7B
330
2D1E
100
AcDbEntity
  8
SUNPOU
 62
     0
100
AcDbMText
 10
8497.094906450207
 20
1110.805978971455
 30
0.0
 40
90.0
 41
0.0
 71
     5
 72
     1
  1
\A1;260
 11
6.123031769111886E-17
 21
1.0
 31
0.0
 73
     1
 44
1.0
  0
POINT
  5
2D7C
330
2D1E
100
AcDbEntity
  8
DEFPOINTS
 62
     0
100
AcDbPoint
 10
8061.644624399485
 20
980.8059789714534
 30
0.0
  0
POINT
  5
2D7D
330
2D1E
100
AcDbEntity
  8
DEFPOINTS
 62
     0
100
AcDbPoint
 10
8061.644624399485
 20
1240.805978971453
 30
0.0
  0
POINT
  5
2D7E
330
2D1E
100
AcDbEntity
  8
DEFPOINTS
 62
     0
100
AcDbPoint
 10
8566.094906450207
 20
1240.805978971453
 30
0.0
  0
ENDBLK
  5
2D29
330
2D1E
100
AcDbEntity
  8
0
100
AcDbBlockEnd
  0
BLOCK
  5
2D34
330
2D2A
100
AcDbEntity
  8
0
100
AcDbBlockBegin
  2
*D38
 70
     1
 10
0.0
 20
0.0
 30
0.0
  3
*D38
  1

  0
LINE
  5
2D7F
330
2D2A
100
AcDbEntity
  8
SUNPOU
 62
     0
370
    -2
100
AcDbLine
 10
8121.644624399485
 20
980.8059789714534
 30
0.0
 11
8387.25069547906
 21
980.8059789714534
 31
0.0
  0
LINE
  5
2D80
330
2D2A
100
AcDbEntity
  8
SUNPOU
 62
     0
370
    -2
100
AcDbLine
 10
8121.644624399485
 20
1170.805978971453
 30
0.0
 11
8387.25069547906
 21
1170.805978971453
 31
0.0
  0
LINE
  5
2D81
330
2D2A
100
AcDbEntity
  8
SUNPOU
 62
     0
370
    -2
100
AcDbLine
 10
8372.25069547906
 20
1040.805978971453
 30
0.0
 11
8372.25069547906
 21
1110.805978971453
 31
0.0
  0
MTEXT
  5
2D82
330
2D2A
100
AcDbEntity
  8
SUNPOU
 62
     0
100
AcDbMText
 10
8303.25069547906
 20
1075.805978971455
 30
0.0
 40
90.0
 41
0.0
 71
     5
 72
     1
  1
\A1;190
 11
6.123031769111886E-17
 21
1.0
 31
0.0
 73
     1
 44
1.0
  0
SOLID
  5
2D83
330
2D2A
100
AcDbEntity
  8
SUNPOU
 62
     0
100
AcDbTrace
 10
8362.25069547906
 20
1040.805978971453
 30
0.0
 11
8382.25069547906
 21
1040.805978971453
 31
0.0
 12
8372.25069547906
 22
980.8059789714534
 32
0.0
 13
8372.25069547906
 23
980.8059789714534
 33
0.0
  0
SOLID
  5
2D84
330
2D2A
100
AcDbEntity
  8
SUNPOU
 62
     0
100
AcDbTrace
 10
8362.25069547906
 20
1110.805978971453
 30
0.0
 11
8382.25069547906
 21
1110.805978971453
 31
0.0
 12
8372.25069547906
 22
1170.805978971453
 32
0.0
 13
8372.25069547906
 23
1170.805978971453
 33
0.0
  0
POINT
  5
2D85
330
2D2A
100
AcDbEntity
  8
DEFPOINTS
 62
     0
100
AcDbPoint
 10
8061.644624399485
 20
980.8059789714534
 30
0.0
  0
POINT
  5
2D86
330
2D2A
100
AcDbEntity
  8
DEFPOINTS
 62
     0
100
AcDbPoint
 10
8061.644624399485
 20
1170.805978971453
 30
0.0
  0
POINT
  5
2D87
330
2D2A
100
AcDbEntity
  8
DEFPOINTS
 62
     0
100
AcDbPoint
 10
8372.25069547906
 20
1170.805978971453
 30
0.0
  0
ENDBLK
  5
2D35
330
2D2A
100
AcDbEntity
  8
0
100
AcDbBlockEnd
  0
BLOCK
  5
2D41
330
2D36
100
AcDbEntity
  8
0
100
AcDbBlockBegin
  2
*D39
 70
     1
 10
0.0
 20
0.0
 30
0.0
  3
*D39
  1

  0
LINE
  5
2D88
330
2D36
100
AcDbEntity
  8
SUNPOU
 62
     0
370
    -2
100
AcDbLine
 10
8121.644624399485
 20
1170.805978971453
 30
0.0
 11
8387.25069547906
 21
1170.805978971453
 31
0.0
  0
LINE
  5
2D89
330
2D36
100
AcDbEntity
  8
SUNPOU
 62
     0
370
    -2
100
AcDbLine
 10
8121.644624399485
 20
1240.805978971453
 30
0.0
 11
8387.25069547906
 21
1240.805978971453
 31
0.0
  0
LINE
  5
2D8A
330
2D36
100
AcDbEntity
  8
SUNPOU
 62
     0
370
    -2
100
AcDbLine
 10
8372.25069547906
 20
1110.805978971453
 30
0.0
 11
8372.25069547906
 21
1050.805978971453
 31
0.0
  0
LINE
  5
2D8B
330
2D36
100
AcDbEntity
  8
SUNPOU
 62
     0
370
    -2
100
AcDbLine
 10
8372.25069547906
 20
1300.805978971453
 30
0.0
 11
8372.25069547906
 21
1360.805978971453
 31
0.0
  0
MTEXT
  5
2D8C
330
2D36
100
AcDbEntity
  8
SUNPOU
 62
     0
100
AcDbMText
 10
8303.25069547906
 20
1234.450174127933
 30
0.0
 40
90.0
 41
0.0
 71
     5
 72
     1
  1
\A1;70
 11
6.123031769111886E-17
 21
1.0
 31
0.0
 73
     1
 44
1.0
  0
SOLID
  5
2D8D
330
2D36
100
AcDbEntity
  8
SUNPOU
 62
     0
100
AcDbTrace
 10
8362.25069547906
 20
1110.805978971453
 30
0.0
 11
8382.25069547906
 21
1110.805978971453
 31
0.0
 12
8372.25069547906
 22
1170.805978971453
 32
0.0
 13
8372.25069547906
 23
1170.805978971453
 33
0.0
  0
SOLID
  5
2D8E
330
2D36
100
AcDbEntity
  8
SUNPOU
 62
     0
100
AcDbTrace
 10
8362.25069547906
 20
1300.805978971453
 30
0.0
 11
8382.25069547906
 21
1300.805978971453
 31
0.0
 12
8372.25069547906
 22
1240.805978971453
 32
0.0
 13
8372.25069547906
 23
1240.805978971453
 33
0.0
  0
POINT
  5
2D8F
330
2D36
100
AcDbEntity
  8
DEFPOINTS
 62
     0
100
AcDbPoint
 10
8061.644624399485
 20
1170.805978971453
 30
0.0
  0
POINT
  5
2D90
330
2D36
100
AcDbEntity
  8
DEFPOINTS
 62
     0
100
AcDbPoint
 10
8061.644624399485
 20
1240.805978971453
 30
0.0
  0
POINT
  5
2D91
330
2D36
100
AcDbEntity
  8
DEFPOINTS
 62
     0
100
AcDbPoint
 10
8372.25069547906
 20
1240.805978971453
 30
0.0
  0
ENDBLK
  5
2D42
330
2D36
100
AcDbEntity
  8
0
100
AcDbBlockEnd
  0
BLOCK
  5
2D4D
330
2D43
100
AcDbEntity
  8
0
100
AcDbBlockBegin
  2
*D40
 70
     1
 10
0.0
 20
0.0
 30
0.0
  3
*D40
  1

  0
LINE
  5
2D92
330
2D43
100
AcDbEntity
  8
SUNPOU
 62
     0
370
    -2
100
AcDbLine
 10
7311.644624399485
 20
920.8059789714534
 30
0.0
 11
7311.644624399485
 21
640.2023563795692
 31
0.0
  0
LINE
  5
2D93
330
2D43
100
AcDbEntity
  8
SUNPOU
 62
     0
370
    -2
100
AcDbLine
 10
7686.644624399485
 20
920.8059789714534
 30
0.0
 11
7686.644624399485
 21
640.2023563795692
 31
0.0
  0
LINE
  5
2D94
330
2D43
100
AcDbEntity
  8
SUNPOU
 62
     0
370
    -2
100
AcDbLine
 10
7371.644624399485
 20
655.2023563795692
 30
0.0
 11
7626.644624399485
 21
655.2023563795692
 31
0.0
  0
SOLID
  5
2D95
330
2D43
100
AcDbEntity
  8
SUNPOU
 62
     0
100
AcDbTrace
 10
7371.644624399485
 20
665.2023563795692
 30
0.0
 11
7371.644624399485
 21
645.2023563795692
 31
0.0
 12
7311.644624399485
 22
655.2023563795692
 32
0.0
 13
7311.644624399485
 23
655.2023563795692
 33
0.0
  0
SOLID
  5
2D96
330
2D43
100
AcDbEntity
  8
SUNPOU
 62
     0
100
AcDbTrace
 10
7626.644624399485
 20
665.2023563795692
 30
0.0
 11
7626.644624399485
 21
645.2023563795692
 31
0.0
 12
7686.644624399485
 22
655.2023563795692
 32
0.0
 13
7686.644624399485
 23
655.2023563795692
 33
0.0
  0
MTEXT
  5
2D97
330
2D43
100
AcDbEntity
  8
SUNPOU
 62
     0
100
AcDbMText
 10
7499.144624399485
 20
724.2023563795692
 30
0.0
 40
90.0
 41
0.0
 71
     5
 72
     1
  1
\A1;375
 73
     1
 44
1.0
  0
POINT
  5
2D98
330
2D43
100
AcDbEntity
  8
DEFPOINTS
 62
     0
100
AcDbPoint
 10
7311.644624399485
 20
980.8059789714534
 30
0.0
  0
POINT
  5
2D99
330
2D43
100
AcDbEntity
  8
DEFPOINTS
 62
     0
100
AcDbPoint
 10
7686.644624399485
 20
980.8059789714534
 30
0.0
  0
POINT
  5
2D9A
330
2D43
100
AcDbEntity
  8
DEFPOINTS
 62
     0
100
AcDbPoint
 10
7686.644624399485
 20
655.2023563795692
 30
0.0
  0
ENDBLK
  5
2D4E
330
2D43
100
AcDbEntity
  8
0
100
AcDbBlockEnd
  0
BLOCK
  5
2D59
330
2D4F
100
AcDbEntity
  8
0
100
AcDbBlockBegin
  2
*D41
 70
     1
 10
0.0
 20
0.0
 30
0.0
  3
*D41
  1

  0
LINE
  5
2D9B
330
2D4F
100
AcDbEntity
  8
SUNPOU
 62
     0
370
    -2
100
AcDbLine
 10
7686.644624399485
 20
920.8059789714534
 30
0.0
 11
7686.644624399485
 21
640.2023563795692
 31
0.0
  0
LINE
  5
2D9C
330
2D4F
100
AcDbEntity
  8
SUNPOU
 62
     0
370
    -2
100
AcDbLine
 10
8061.644624399485
 20
920.8059789714534
 30
0.0
 11
8061.644624399485
 21
640.2023563795692
 31
0.0
  0
LINE
  5
2D9D
330
2D4F
100
AcDbEntity
  8
SUNPOU
 62
     0
370
    -2
100
AcDbLine
 10
7746.644624399485
 20
655.2023563795692
 30
0.0
 11
8001.644624399485
 21
655.2023563795692
 31
0.0
  0
SOLID
  5
2D9E
330
2D4F
100
AcDbEntity
  8
SUNPOU
 62
     0
100
AcDbTrace
 10
7746.644624399485
 20
665.2023563795692
 30
0.0
 11
7746.644624399485
 21
645.2023563795692
 31
0.0
 12
7686.644624399485
 22
655.2023563795692
 32
0.0
 13
7686.644624399485
 23
655.2023563795692
 33
0.0
  0
SOLID
  5
2D9F
330
2D4F
100
AcDbEntity
  8
SUNPOU
 62
     0
100
AcDbTrace
 10
8001.644624399485
 20
665.2023563795692
 30
0.0
 11
8001.644624399485
 21
645.2023563795692
 31
0.0
 12
8061.644624399485
 22
655.2023563795692
 32
0.0
 13
8061.644624399485
 23
655.2023563795692
 33
0.0
  0
MTEXT
  5
2DA0
330
2D4F
100
AcDbEntity
  8
SUNPOU
 62
     0
100
AcDbMText
 10
7874.144624399485
 20
724.2023563795692
 30
0.0
 40
90.0
 41
0.0
 71
     5
 72
     1
  1
\A1;375
 73
     1
 44
1.0
  0
POINT
  5
2DA1
330
2D4F
100
AcDbEntity
  8
DEFPOINTS
 62
     0
100
AcDbPoint
 10
7686.644624399485
 20
980.8059789714534
 30
0.0
  0
POINT
  5
2DA2
330
2D4F
100
AcDbEntity
  8
DEFPOINTS
 62
     0
100
AcDbPoint
 10
8061.644624399485
 20
980.8059789714534
 30
0.0
  0
POINT
  5
2DA3
330
2D4F
100
AcDbEntity
  8
DEFPOINTS
 62
     0
100
AcDbPoint
 10
8061.644624399485
 20
655.2023563795692
 30
0.0
  0
ENDBLK
  5
2D5A
330
2D4F
100
AcDbEntity
  8
0
100
AcDbBlockEnd
  0
BLOCK
  5
2DC1
330
2DB7
100
AcDbEntity
  8
0
100
AcDbBlockBegin
  2
*D42
 70
     1
 10
0.0
 20
0.0
 30
0.0
  3
*D42
  1

  0
LINE
  5
2F46
330
2DB7
100
AcDbEntity
  8
SUNPOU
 62
     0
370
    -2
100
AcDbLine
 10
2504.839070043719
 20
2829.20012530226
 30
0.0
 11
2005.566187252557
 21
2829.20012530226
 31
0.0
  0
LINE
  5
2F47
330
2DB7
100
AcDbEntity
  8
SUNPOU
 62
     0
370
    -2
100
AcDbLine
 10
2504.839070043718
 20
1329.20012530226
 30
0.0
 11
2005.566187252556
 21
1329.20012530226
 31
0.0
  0
LINE
  5
2F48
330
2DB7
100
AcDbEntity
  8
SUNPOU
 62
     0
370
    -2
100
AcDbLine
 10
2020.566187252557
 20
2769.20012530226
 30
0.0
 11
2020.566187252556
 21
1389.20012530226
 31
0.0
  0
SOLID
  5
2F49
330
2DB7
100
AcDbEntity
  8
SUNPOU
 62
     0
100
AcDbTrace
 10
2010.566187252557
 20
2769.20012530226
 30
0.0
 11
2030.566187252557
 21
2769.20012530226
 31
0.0
 12
2020.566187252557
 22
2829.20012530226
 32
0.0
 13
2020.566187252557
 23
2829.20012530226
 33
0.0
  0
SOLID
  5
2F4A
330
2DB7
100
AcDbEntity
  8
SUNPOU
 62
     0
100
AcDbTrace
 10
2010.566187252556
 20
1389.20012530226
 30
0.0
 11
2030.566187252556
 21
1389.20012530226
 31
0.0
 12
2020.566187252556
 22
1329.20012530226
 32
0.0
 13
2020.566187252556
 23
1329.20012530226
 33
0.0
  0
MTEXT
  5
2F4B
330
2DB7
100
AcDbEntity
  8
SUNPOU
 62
     0
100
AcDbMText
 10
1951.566187252556
 20
2079.20012530226
 30
0.0
 40
90.0
 41
0.0
 71
     5
 72
     1
  1
\A1;1500
 11
6.123031769111886E-17
 21
1.0
 31
0.0
 73
     1
 44
1.0
  0
POINT
  5
2F4C
330
2DB7
100
AcDbEntity
  8
DEFPOINTS
 62
     0
100
AcDbPoint
 10
2564.839070043719
 20
2829.20012530226
 30
0.0
  0
POINT
  5
2F4D
330
2DB7
100
AcDbEntity
  8
DEFPOINTS
 62
     0
100
AcDbPoint
 10
2564.839070043718
 20
1329.20012530226
 30
0.0
  0
POINT
  5
2F4E
330
2DB7
100
AcDbEntity
  8
DEFPOINTS
 62
     0
100
AcDbPoint
 10
2020.566187252556
 20
1329.20012530226
 30
0.0
  0
ENDBLK
  5
2DC2
330
2DB7
100
AcDbEntity
  8
0
100
AcDbBlockEnd
  0
BLOCK
  5
2DCD
330
2DC3
100
AcDbEntity
  8
0
100
AcDbBlockBegin
  2
*D43
 70
     1
 10
0.0
 20
0.0
 30
0.0
  3
*D43
  1

  0
LINE
  5
2F4F
330
2DC3
100
AcDbEntity
  8
SUNPOU
 62
     0
370
    -2
100
AcDbLine
 10
2564.839070043719
 20
1269.20012530226
 30
0.0
 11
2564.839070043719
 21
858.2680296956414
 31
0.0
  0
LINE
  5
2F50
330
2DC3
100
AcDbEntity
  8
SUNPOU
 62
     0
370
    -2
100
AcDbLine
 10
3164.839070043716
 20
1269.20012530226
 30
0.0
 11
3164.839070043716
 21
858.2680296956414
 31
0.0
  0
LINE
  5
2F51
330
2DC3
100
AcDbEntity
  8
SUNPOU
 62
     0
370
    -2
100
AcDbLine
 10
2624.839070043719
 20
873.2680296956414
 30
0.0
 11
3104.839070043716
 21
873.2680296956414
 31
0.0
  0
SOLID
  5
2F52
330
2DC3
100
AcDbEntity
  8
SUNPOU
 62
     0
100
AcDbTrace
 10
2624.839070043719
 20
883.2680296956414
 30
0.0
 11
2624.839070043719
 21
863.2680296956414
 31
0.0
 12
2564.839070043719
 22
873.2680296956414
 32
0.0
 13
2564.839070043719
 23
873.2680296956414
 33
0.0
  0
SOLID
  5
2F53
330
2DC3
100
AcDbEntity
  8
SUNPOU
 62
     0
100
AcDbTrace
 10
3104.839070043716
 20
883.2680296956414
 30
0.0
 11
3104.839070043716
 21
863.2680296956414
 31
0.0
 12
3164.839070043716
 22
873.2680296956414
 32
0.0
 13
3164.839070043716
 23
873.2680296956414
 33
0.0
  0
MTEXT
  5
2F54
330
2DC3
100
AcDbEntity
  8
SUNPOU
 62
     0
100
AcDbMText
 10
2864.839070043718
 20
942.2680296956414
 30
0.0
 40
90.0
 41
0.0
 71
     5
 72
     1
  1
\A1;600
 73
     1
 44
1.0
  0
POINT
  5
2F55
330
2DC3
100
AcDbEntity
  8
DEFPOINTS
 62
     0
100
AcDbPoint
 10
2564.839070043719
 20
1329.20012530226
 30
0.0
  0
POINT
  5
2F56
330
2DC3
100
AcDbEntity
  8
DEFPOINTS
 62
     0
100
AcDbPoint
 10
3164.839070043716
 20
1329.20012530226
 30
0.0
  0
POINT
  5
2F57
330
2DC3
100
AcDbEntity
  8
DEFPOINTS
 62
     0
100
AcDbPoint
 10
3164.839070043716
 20
873.2680296956414
 30
0.0
  0
ENDBLK
  5
2DCE
330
2DC3
100
AcDbEntity
  8
0
100
AcDbBlockEnd
  0
BLOCK
  5
2DD9
330
2DCF
100
AcDbEntity
  8
0
100
AcDbBlockBegin
  2
*D44
 70
     1
 10
0.0
 20
0.0
 30
0.0
  3
*D44
  1

  0
LINE
  5
2F58
330
2DCF
100
AcDbEntity
  8
SUNPOU
 62
     0
370
    -2
100
AcDbLine
 10
3164.839070043716
 20
1269.20012530226
 30
0.0
 11
3164.839070043716
 21
858.2680296956414
 31
0.0
  0
LINE
  5
2F59
330
2DCF
100
AcDbEntity
  8
SUNPOU
 62
     0
370
    -2
100
AcDbLine
 10
3564.839070043719
 20
1269.20012530226
 30
0.0
 11
3564.839070043719
 21
858.2680296956414
 31
0.0
  0
LINE
  5
2F5A
330
2DCF
100
AcDbEntity
  8
SUNPOU
 62
     0
370
    -2
100
AcDbLine
 10
3224.839070043716
 20
873.2680296956414
 30
0.0
 11
3504.839070043719
 21
873.2680296956414
 31
0.0
  0
SOLID
  5
2F5B
330
2DCF
100
AcDbEntity
  8
SUNPOU
 62
     0
100
AcDbTrace
 10
3224.839070043716
 20
883.2680296956414
 30
0.0
 11
3224.839070043716
 21
863.2680296956414
 31
0.0
 12
3164.839070043716
 22
873.2680296956414
 32
0.0
 13
3164.839070043716
 23
873.2680296956414
 33
0.0
  0
SOLID
  5
2F5C
330
2DCF
100
AcDbEntity
  8
SUNPOU
 62
     0
100
AcDbTrace
 10
3504.839070043719
 20
883.2680296956414
 30
0.0
 11
3504.839070043719
 21
863.2680296956414
 31
0.0
 12
3564.839070043719
 22
873.2680296956414
 32
0.0
 13
3564.839070043719
 23
873.2680296956414
 33
0.0
  0
MTEXT
  5
2F5D
330
2DCF
100
AcDbEntity
  8
SUNPOU
 62
     0
100
AcDbMText
 10
3364.839070043718
 20
942.2680296956414
 30
0.0
 40
90.0
 41
0.0
 71
     5
 72
     1
  1
\A1;400
 73
     1
 44
1.0
  0
POINT
  5
2F5E
330
2DCF
100
AcDbEntity
  8
DEFPOINTS
 62
     0
100
AcDbPoint
 10
3164.839070043716
 20
1329.20012530226
 30
0.0
  0
POINT
  5
2F5F
330
2DCF
100
AcDbEntity
  8
DEFPOINTS
 62
     0
100
AcDbPoint
 10
3564.839070043719
 20
1329.20012530226
 30
0.0
  0
POINT
  5
2F60
330
2DCF
100
AcDbEntity
  8
DEFPOINTS
 62
     0
100
AcDbPoint
 10
3564.839070043719
 20
873.2680296956414
 30
0.0
  0
ENDBLK
  5
2DDA
330
2DCF
100
AcDbEntity
  8
0
100
AcDbBlockEnd
  0
BLOCK
  5
2DE5
330
2DDB
100
AcDbEntity
  8
0
100
AcDbBlockBegin
  2
*D45
 70
     1
 10
0.0
 20
0.0
 30
0.0
  3
*D45
  1

  0
LINE
  5
2F61
330
2DDB
100
AcDbEntity
  8
SUNPOU
 62
     0
370
    -2
100
AcDbLine
 10
3564.839070043719
 20
1269.20012530226
 30
0.0
 11
3564.839070043719
 21
858.2680296956414
 31
0.0
  0
LINE
  5
2F62
330
2DDB
100
AcDbEntity
  8
SUNPOU
 62
     0
370
    -2
100
AcDbLine
 10
4604.839070043721
 20
1323.704215756623
 30
0.0
 11
4604.839070043721
 21
858.2680296956414
 31
0.0
  0
LINE
  5
2F63
330
2DDB
100
AcDbEntity
  8
SUNPOU
 62
     0
370
    -2
100
AcDbLine
 10
3624.839070043719
 20
873.2680296956414
 30
0.0
 11
4544.839070043721
 21
873.2680296956414
 31
0.0
  0
SOLID
  5
2F64
330
2DDB
100
AcDbEntity
  8
SUNPOU
 62
     0
100
AcDbTrace
 10
3624.839070043719
 20
883.2680296956414
 30
0.0
 11
3624.839070043719
 21
863.2680296956414
 31
0.0
 12
3564.839070043719
 22
873.2680296956414
 32
0.0
 13
3564.839070043719
 23
873.2680296956414
 33
0.0
  0
SOLID
  5
2F65
330
2DDB
100
AcDbEntity
  8
SUNPOU
 62
     0
100
AcDbTrace
 10
4544.839070043721
 20
883.2680296956414
 30
0.0
 11
4544.839070043721
 21
863.2680296956414
 31
0.0
 12
4604.839070043721
 22
873.2680296956414
 32
0.0
 13
4604.839070043721
 23
873.2680296956414
 33
0.0
  0
MTEXT
  5
2F66
330
2DDB
100
AcDbEntity
  8
SUNPOU
 62
     0
100
AcDbMText
 10
4084.83907004372
 20
942.2680296956414
 30
0.0
 40
90.0
 41
0.0
 71
     5
 72
     1
  1
\A1;1040
 73
     1
 44
1.0
  0
POINT
  5
2F67
330
2DDB
100
AcDbEntity
  8
DEFPOINTS
 62
     0
100
AcDbPoint
 10
3564.839070043719
 20
1329.20012530226
 30
0.0
  0
POINT
  5
2F68
330
2DDB
100
AcDbEntity
  8
DEFPOINTS
 62
     0
100
AcDbPoint
 10
4604.839070043721
 20
1383.704215756623
 30
0.0
  0
POINT
  5
2F69
330
2DDB
100
AcDbEntity
  8
DEFPOINTS
 62
     0
100
AcDbPoint
 10
4604.839070043721
 20
873.2680296956414
 30
0.0
  0
ENDBLK
  5
2DE6
330
2DDB
100
AcDbEntity
  8
0
100
AcDbBlockEnd
  0
BLOCK
  5
2DF1
330
2DE7
100
AcDbEntity
  8
0
100
AcDbBlockBegin
  2
*D46
 70
     1
 10
0.0
 20
0.0
 30
0.0
  3
*D46
  1

  0
LINE
  5
2F6A
330
2DE7
100
AcDbEntity
  8
SUNPOU
 62
     0
370
    -2
100
AcDbLine
 10
3164.839070043716
 20
1269.20012530226
 30
0.0
 11
3164.839070043716
 21
1044.129181603096
 31
0.0
  0
LINE
  5
2F6B
330
2DE7
100
AcDbEntity
  8
SUNPOU
 62
     0
370
    -2
100
AcDbLine
 10
3464.839070043719
 20
1269.20012530226
 30
0.0
 11
3464.839070043719
 21
1044.129181603096
 31
0.0
  0
LINE
  5
2F6C
330
2DE7
100
AcDbEntity
  8
SUNPOU
 62
     0
370
    -2
100
AcDbLine
 10
3224.839070043716
 20
1059.129181603096
 30
0.0
 11
3404.839070043719
 21
1059.129181603096
 31
0.0
  0
SOLID
  5
2F6D
330
2DE7
100
AcDbEntity
  8
SUNPOU
 62
     0
100
AcDbTrace
 10
3224.839070043716
 20
1069.129181603096
 30
0.0
 11
3224.839070043716
 21
1049.129181603096
 31
0.0
 12
3164.839070043716
 22
1059.129181603096
 32
0.0
 13
3164.839070043716
 23
1059.129181603096
 33
0.0
  0
SOLID
  5
2F6E
330
2DE7
100
AcDbEntity
  8
SUNPOU
 62
     0
100
AcDbTrace
 10
3404.839070043719
 20
1069.129181603096
 30
0.0
 11
3404.839070043719
 21
1049.129181603096
 31
0.0
 12
3464.839070043719
 22
1059.129181603096
 32
0.0
 13
3464.839070043719
 23
1059.129181603096
 33
0.0
  0
MTEXT
  5
2F6F
330
2DE7
100
AcDbEntity
  8
SUNPOU
 62
     0
100
AcDbMText
 10
3314.839070043718
 20
1128.129181603096
 30
0.0
 40
90.0
 41
0.0
 71
     5
 72
     1
  1
\A1;300
 73
     1
 44
1.0
  0
POINT
  5
2F70
330
2DE7
100
AcDbEntity
  8
DEFPOINTS
 62
     0
100
AcDbPoint
 10
3164.839070043716
 20
1329.20012530226
 30
0.0
  0
POINT
  5
2F71
330
2DE7
100
AcDbEntity
  8
DEFPOINTS
 62
     0
100
AcDbPoint
 10
3464.839070043719
 20
1329.20012530226
 30
0.0
  0
POINT
  5
2F72
330
2DE7
100
AcDbEntity
  8
DEFPOINTS
 62
     0
100
AcDbPoint
 10
3464.839070043719
 20
1059.129181603096
 30
0.0
  0
ENDBLK
  5
2DF2
330
2DE7
100
AcDbEntity
  8
0
100
AcDbBlockEnd
  0
BLOCK
  5
2DFE
330
2DF3
100
AcDbEntity
  8
0
100
AcDbBlockBegin
  2
*D47
 70
     1
 10
0.0
 20
0.0
 30
0.0
  3
*D47
  1

  0
LINE
  5
2F73
330
2DF3
100
AcDbEntity
  8
SUNPOU
 62
     0
370
    -2
100
AcDbLine
 10
3464.839070043719
 20
1269.20012530226
 30
0.0
 11
3464.839070043719
 21
1044.129181603096
 31
0.0
  0
LINE
  5
2F74
330
2DF3
100
AcDbEntity
  8
SUNPOU
 62
     0
370
    -2
100
AcDbLine
 10
3564.839070043719
 20
1269.20012530226
 30
0.0
 11
3564.839070043719
 21
1044.129181603096
 31
0.0
  0
LINE
  5
2F75
330
2DF3
100
AcDbEntity
  8
SUNPOU
 62
     0
370
    -2
100
AcDbLine
 10
3404.839070043719
 20
1059.129181603096
 30
0.0
 11
3344.839070043719
 21
1059.129181603096
 31
0.0
  0
LINE
  5
2F76
330
2DF3
100
AcDbEntity
  8
SUNPOU
 62
     0
370
    -2
100
AcDbLine
 10
3624.839070043719
 20
1059.129181603096
 30
0.0
 11
3684.839070043719
 21
1059.129181603096
 31
0.0
  0
MTEXT
  5
2F77
330
2DF3
100
AcDbEntity
  8
SUNPOU
 62
     0
100
AcDbMText
 10
3551.762906388733
 20
1128.129181603096
 30
0.0
 40
90.0
 41
0.0
 71
     5
 72
     1
  1
\A1;100
 73
     1
 44
1.0
  0
SOLID
  5
2F78
330
2DF3
100
AcDbEntity
  8
SUNPOU
 62
     0
100
AcDbTrace
 10
3404.839070043719
 20
1069.129181603096
 30
0.0
 11
3404.839070043719
 21
1049.129181603096
 31
0.0
 12
3464.839070043719
 22
1059.129181603096
 32
0.0
 13
3464.839070043719
 23
1059.129181603096
 33
0.0
  0
SOLID
  5
2F79
330
2DF3
100
AcDbEntity
  8
SUNPOU
 62
     0
100
AcDbTrace
 10
3624.839070043719
 20
1069.129181603096
 30
0.0
 11
3624.839070043719
 21
1049.129181603096
 31
0.0
 12
3564.839070043719
 22
1059.129181603096
 32
0.0
 13
3564.839070043719
 23
1059.129181603096
 33
0.0
  0
POINT
  5
2F7A
330
2DF3
100
AcDbEntity
  8
DEFPOINTS
 62
     0
100
AcDbPoint
 10
3464.839070043719
 20
1329.20012530226
 30
0.0
  0
POINT
  5
2F7B
330
2DF3
100
AcDbEntity
  8
DEFPOINTS
 62
     0
100
AcDbPoint
 10
3564.839070043719
 20
1329.20012530226
 30
0.0
  0
POINT
  5
2F7C
330
2DF3
100
AcDbEntity
  8
DEFPOINTS
 62
     0
100
AcDbPoint
 10
3564.839070043719
 20
1059.129181603096
 30
0.0
  0
ENDBLK
  5
2DFF
330
2DF3
100
AcDbEntity
  8
0
100
AcDbBlockEnd
  0
BLOCK
  5
2E0A
330
2E00
100
AcDbEntity
  8
0
100
AcDbBlockBegin
  2
*D48
 70
     1
 10
0.0
 20
0.0
 30
0.0
  3
*D48
  1

  0
LINE
  5
2F7D
330
2E00
100
AcDbEntity
  8
SUNPOU
 62
     0
370
    -2
100
AcDbLine
 10
2564.839070043719
 20
1269.200125302261
 30
0.0
 11
2564.839070043719
 21
649.0620690326969
 31
0.0
  0
LINE
  5
2F7E
330
2E00
100
AcDbEntity
  8
SUNPOU
 62
     0
370
    -2
100
AcDbLine
 10
4604.839070043721
 20
1323.704215756623
 30
0.0
 11
4604.839070043721
 21
649.0620690326969
 31
0.0
  0
LINE
  5
2F7F
330
2E00
100
AcDbEntity
  8
SUNPOU
 62
     0
370
    -2
100
AcDbLine
 10
2624.839070043719
 20
664.0620690326969
 30
0.0
 11
4544.839070043721
 21
664.0620690326969
 31
0.0
  0
SOLID
  5
2F80
330
2E00
100
AcDbEntity
  8
SUNPOU
 62
     0
100
AcDbTrace
 10
2624.839070043719
 20
674.0620690326969
 30
0.0
 11
2624.839070043719
 21
654.0620690326969
 31
0.0
 12
2564.839070043719
 22
664.0620690326969
 32
0.0
 13
2564.839070043719
 23
664.0620690326969
 33
0.0
  0
SOLID
  5
2F81
330
2E00
100
AcDbEntity
  8
SUNPOU
 62
     0
100
AcDbTrace
 10
4544.839070043721
 20
674.0620690326969
 30
0.0
 11
4544.839070043721
 21
654.0620690326969
 31
0.0
 12
4604.839070043721
 22
664.0620690326969
 32
0.0
 13
4604.839070043721
 23
664.0620690326969
 33
0.0
  0
MTEXT
  5
2F82
330
2E00
100
AcDbEntity
  8
SUNPOU
 62
     0
100
AcDbMText
 10
3584.83907004372
 20
733.0620690326969
 30
0.0
 40
90.0
 41
0.0
 71
     5
 72
     1
  1
\A1;2040
 73
     1
 44
1.0
  0
POINT
  5
2F83
330
2E00
100
AcDbEntity
  8
DEFPOINTS
 62
     0
100
AcDbPoint
 10
2564.839070043719
 20
1329.200125302261
 30
0.0
  0
POINT
  5
2F84
330
2E00
100
AcDbEntity
  8
DEFPOINTS
 62
     0
100
AcDbPoint
 10
4604.839070043721
 20
1383.704215756623
 30
0.0
  0
POINT
  5
2F85
330
2E00
100
AcDbEntity
  8
DEFPOINTS
 62
     0
100
AcDbPoint
 10
4604.839070043721
 20
664.0620690326969
 30
0.0
  0
ENDBLK
  5
2E0B
330
2E00
100
AcDbEntity
  8
0
100
AcDbBlockEnd
  0
BLOCK
  5
2E57
330
2E4D
100
AcDbEntity
  8
0
100
AcDbBlockBegin
  2
*D49
 70
     1
 10
0.0
 20
0.0
 30
0.0
  3
*D49
  1

  0
LINE
  5
2F86
330
2E4D
100
AcDbEntity
  8
SUNPOU
 62
     0
370
    -2
100
AcDbLine
 10
4664.839070043721
 20
2774.696034847897
 30
0.0
 11
5009.966046479895
 21
2774.696034847897
 31
0.0
  0
LINE
  5
2F87
330
2E4D
100
AcDbEntity
  8
SUNPOU
 62
     0
370
    -2
100
AcDbLine
 10
4664.839070043721
 20
1383.704215756623
 30
0.0
 11
5009.966046479894
 21
1383.704215756623
 31
0.0
  0
LINE
  5
2F88
330
2E4D
100
AcDbEntity
  8
SUNPOU
 62
     0
370
    -2
100
AcDbLine
 10
4994.966046479895
 20
2714.696034847897
 30
0.0
 11
4994.966046479894
 21
1443.704215756623
 31
0.0
  0
SOLID
  5
2F89
330
2E4D
100
AcDbEntity
  8
SUNPOU
 62
     0
100
AcDbTrace
 10
4984.966046479895
 20
2714.696034847897
 30
0.0
 11
5004.966046479895
 21
2714.696034847897
 31
0.0
 12
4994.966046479895
 22
2774.696034847897
 32
0.0
 13
4994.966046479895
 23
2774.696034847897
 33
0.0
  0
SOLID
  5
2F8A
330
2E4D
100
AcDbEntity
  8
SUNPOU
 62
     0
100
AcDbTrace
 10
4984.966046479894
 20
1443.704215756623
 30
0.0
 11
5004.966046479894
 21
1443.704215756623
 31
0.0
 12
4994.966046479894
 22
1383.704215756623
 32
0.0
 13
4994.966046479894
 23
1383.704215756623
 33
0.0
  0
MTEXT
  5
2F8B
330
2E4D
100
AcDbEntity
  8
SUNPOU
 62
     0
100
AcDbMText
 10
4925.966046479894
 20
2079.20012530226
 30
0.0
 40
90.0
 41
0.0
 71
     5
 72
     1
  1
\A1;1391
 11
6.123031769111886E-17
 21
1.0
 31
0.0
 73
     1
 44
1.0
  0
POINT
  5
2F8C
330
2E4D
100
AcDbEntity
  8
DEFPOINTS
 62
     0
100
AcDbPoint
 10
4604.839070043721
 20
2774.696034847897
 30
0.0
  0
POINT
  5
2F8D
330
2E4D
100
AcDbEntity
  8
DEFPOINTS
 62
     0
100
AcDbPoint
 10
4604.839070043721
 20
1383.704215756623
 30
0.0
  0
POINT
  5
2F8E
330
2E4D
100
AcDbEntity
  8
DEFPOINTS
 62
     0
100
AcDbPoint
 10
4994.966046479894
 20
1383.704215756623
 30
0.0
  0
ENDBLK
  5
2E58
330
2E4D
100
AcDbEntity
  8
0
100
AcDbBlockEnd
  0
BLOCK
  5
2FB0
330
2FA6
100
AcDbEntity
  8
0
100
AcDbBlockBegin
  2
*D50
 70
     1
 10
0.0
 20
0.0
 30
0.0
  3
*D50
  1

  0
LINE
  5
2FA7
330
2FA6
100
AcDbEntity
  8
SUNPOU
 62
     0
370
    -2
100
AcDbLine
 10
6501.644624399485
 20
980.8059789714534
 30
0.0
 11
6080.953845758354
 21
980.8059789714536
 31
0.0
  0
LINE
  5
2FA8
330
2FA6
100
AcDbEntity
  8
SUNPOU
 62
     0
370
    -2
100
AcDbLine
 10
6501.644624399485
 20
2540.805978971454
 30
0.0
 11
6080.953845758355
 21
2540.805978971454
 31
0.0
  0
LINE
  5
2FA9
330
2FA6
100
AcDbEntity
  8
SUNPOU
 62
     0
370
    -2
100
AcDbLine
 10
6095.953845758354
 20
1040.805978971453
 30
0.0
 11
6095.953845758355
 21
2480.805978971454
 31
0.0
  0
SOLID
  5
2FAA
330
2FA6
100
AcDbEntity
  8
SUNPOU
 62
     0
100
AcDbTrace
 10
6085.953845758354
 20
1040.805978971453
 30
0.0
 11
6105.953845758354
 21
1040.805978971453
 31
0.0
 12
6095.953845758354
 22
980.8059789714536
 32
0.0
 13
6095.953845758354
 23
980.8059789714536
 33
0.0
  0
SOLID
  5
2FAB
330
2FA6
100
AcDbEntity
  8
SUNPOU
 62
     0
100
AcDbTrace
 10
6085.953845758355
 20
2480.805978971454
 30
0.0
 11
6105.953845758355
 21
2480.805978971454
 31
0.0
 12
6095.953845758355
 22
2540.805978971454
 32
0.0
 13
6095.953845758355
 23
2540.805978971454
 33
0.0
  0
MTEXT
  5
2FAC
330
2FA6
100
AcDbEntity
  8
SUNPOU
 62
     0
100
AcDbMText
 10
6026.953845758354
 20
1760.805978971455
 30
0.0
 40
90.0
 41
0.0
 71
     5
 72
     1
  1
\A1;1560
 11
6.123031769111886E-17
 21
1.0
 31
0.0
 73
     1
 44
1.0
  0
POINT
  5
2FAD
330
2FA6
100
AcDbEntity
  8
DEFPOINTS
 62
     0
100
AcDbPoint
 10
6561.644624399485
 20
980.8059789714534
 30
0.0
  0
POINT
  5
2FAE
330
2FA6
100
AcDbEntity
  8
DEFPOINTS
 62
     0
100
AcDbPoint
 10
6561.644624399485
 20
2540.805978971454
 30
0.0
  0
POINT
  5
2FAF
330
2FA6
100
AcDbEntity
  8
DEFPOINTS
 62
     0
100
AcDbPoint
 10
6095.953845758355
 20
2540.805978971454
 30
0.0
  0
ENDBLK
  5
2FB1
330
2FA6
100
AcDbEntity
  8
0
100
AcDbBlockEnd
  0
ENDSEC
  0
SECTION
  2
ENTITIES
  0
TEXT
  5
5F
330
17
100
AcDbEntity
  8
SUNPOU
100
AcDbText
 10
11549.99999999999
 20
480.0
 30
0.0
 40
90.0
  1
30
100
AcDbText
  0
INSERT
  5
60
330
17
100
AcDbEntity
  8
HAIKIN
100
AcDbBlockReference
  2
SA3
 10
510.0
 20
0.0
 30
0.0
 41
30.0
 42
30.0
 43
30.0
  0
TEXT
  5
DF0
330
17
100
AcDbEntity
  8
SUNPOU
100
AcDbText
 10
10254.6554840521
 20
955.0091157608263
 30
0.0
 40
78.0
  1
ロードエル
100
AcDbText
  0
TEXT
  5
DF1
330
17
100
AcDbEntity
  8
SUNPOU
100
AcDbText
 10
10769.86850892367
 20
955.0091157608263
 30
0.0
 40
78.0
  1
Ｈ＝２５００
100
AcDbText
  0
TEXT
  5
DF2
330
17
100
AcDbEntity
  8
SUNPOU
100
AcDbText
 10
11495.22849743578
 20
955.0091157608263
 30
0.0
 40
78.0
  1
(μ=0.6)
 41
0.8
100
AcDbText
  0
LINE
  5
2431
330
17
100
AcDbEntity
  8
SEIHIN
100
AcDbLine
 10
6561.644624399485
 20
1170.805978971453
 30
0.0
 11
8061.644624399485
 21
1170.805978971453
 31
0.0
  0
LINE
  5
2432
330
17
100
AcDbEntity
  8
SEIHIN
100
AcDbLine
 10
6561.644624399485
 20
1240.805978971453
 30
0.0
 11
8061.644624399485
 21
1240.805978971453
 31
0.0
  0
LWPOLYLINE
  5
2433
330
17
100
AcDbEntity
  8
SEIHIN
100
AcDbPolyline
 90
        2
 70
     0
 43
0.0
 10
6561.644624399485
 20
2540.805978971453
 10
8061.644624399485
 20
2540.805978971453
  0
LWPOLYLINE
  5
2434
330
17
100
AcDbEntity
  8
SUNPOU
100
AcDbPolyline
 90
        2
 70
     0
 43
0.0
 10
6564.265013363638
 20
2590.805978971453
 10
8059.024235435333
 20
2590.805978971453
  0
LINE
  5
2435
330
17
100
AcDbEntity
  8
SEIHIN
  6
DASHED2
 62
     7
 48
2.0
100
AcDbLine
 10
7784.463416345794
 20
2140.805978971453
 30
0.0
 11
7588.825832453176
 21
2140.805978971453
 31
0.0
  0
LINE
  5
2436
330
17
100
AcDbEntity
  8
SEIHIN
  6
DASHED2
 62
     7
 48
2.0
100
AcDbLine
 10
7034.463416345794
 20
2140.805978971453
 30
0.0
 11
6838.825832453176
 21
2140.805978971453
 31
0.0
  0
LINE
  5
2438
330
17
100
AcDbEntity
  8
SEIHIN
100
AcDbLine
 10
7311.644624399485
 20
4576.206382115543
 30
0.0
 11
8061.644624399485
 21
4576.206382115543
 31
0.0
  0
LWPOLYLINE
  5
243D
330
17
100
AcDbEntity
  8
SEIHIN
100
AcDbPolyline
 90
        4
 70
     0
 43
0.0
 10
7311.644624399485
 20
6871.206382115543
 10
7628.794624399485
 20
6871.206382115543
 10
7576.644624399487
 20
6857.202959359841
 10
7311.644624399486
 20
6857.202959359841
  0
LINE
  5
243E
330
17
100
AcDbEntity
  8
SEIHIN
100
AcDbLine
 10
7631.644624399487
 20
6841.206382115542
 30
0.0
 11
7628.794624399487
 21
6871.206382115543
 31
0.0
  0
LINE
  5
243F
330
17
100
AcDbEntity
  8
SEIHIN
100
AcDbLine
 10
7744.49462439949
 20
6871.206382115542
 30
0.0
 11
7741.644624399487
 21
6841.206382115542
 31
0.0
  0
LWPOLYLINE
  5
2440
330
17
100
AcDbEntity
  8
SEIHIN
100
AcDbPolyline
 90
        6
 70
     0
 43
0.0
 10
7796.644624399488
 20
6857.20295935984
 10
7796.644624399485
 20
4877.943726366892
 10
7766.144624399487
 20
4584.738917028606
 10
7607.144624399487
 20
4584.738917028606
 10
7576.644624399486
 20
4877.943726366892
 10
7576.644624399487
 20
6857.202959359841
  0
LWPOLYLINE
  5
2441
330
17
100
AcDbEntity
  8
SEIHIN
100
AcDbPolyline
 90
        4
 70
     0
 43
0.0
 10
8061.644624399488
 20
6871.206382115543
 10
7744.494624399488
 20
6871.206382115543
 10
7796.644624399488
 20
6857.202959359841
 10
8061.644624399489
 20
6857.202959359841
  0
LINE
  5
2442
330
17
100
AcDbEntity
  8
SEIHIN
 62
     5
100
AcDbLine
 10
7596.644624399484
 20
6525.74397237709
 30
0.0
 11
7776.644624399484
 21
6525.74397237709
 31
0.0
  0
LWPOLYLINE
  5
244C
330
17
100
AcDbEntity
  8
SEIHIN
  6
DASHED2
 62
     7
 48
2.0
100
AcDbPolyline
 90
        4
 70
     0
 43
0.0
 10
2054.83907004372
 20
7106.206382115542
 10
2064.83907004372
 20
6906.206382115542
 10
2144.83907004372
 20
6906.206382115542
 10
2154.83907004372
 20
7106.206382115542
  0
CIRCLE
  5
2457
330
17
100
AcDbEntity
  8
SUNPOU
100
AcDbCircle
 10
7311.644624399485
 20
1275.805978971453
 30
0.0
 40
11.0
  0
CIRCLE
  5
2458
330
17
100
AcDbEntity
  8
SEIHIN
100
AcDbCircle
 10
7311.644624399486
 20
4906.206382115543
 30
0.0
 40
35.0
  0
CIRCLE
  5
2459
330
17
100
AcDbEntity
  8
SEIHIN
100
AcDbCircle
 10
7311.644624399486
 20
4906.206382115543
 30
0.0
 40
25.0
  0
CIRCLE
  5
245B
330
17
100
AcDbEntity
  8
SUNPOU
100
AcDbCircle
 10
7531.644624399486
 20
6586.206382115543
 30
0.0
 40
11.0
  0
LWPOLYLINE
  5
2460
330
17
100
AcDbEntity
  8
SEIHIN
 48
2.0
100
AcDbPolyline
 90
        6
 70
     0
 43
0.0
 10
2614.839070043721
 20
4576.206382115543
 10
3295.075716702868
 20
4680.242575134002
 42
0.3704296647521173
 10
3464.83907004372
 20
4877.943726366891
 10
3464.839070043721
 20
6757.228501789431
 42
0.4112076825856629
 10
3365.866413085078
 20
6857.223224481558
 10
2004.83907004372
 20
6871.206382115543
  0
LINE
  5
247F
330
17
100
AcDbEntity
  8
1HASEN
100
AcDbLine
 10
7311.644624399485
 20
876.9822672554874
 30
0.0
 11
7311.644624399485
 21
3683.766892185025
 31
0.0
  0
LWPOLYLINE
  5
2480
330
17
100
AcDbEntity
  8
SEIHIN
100
AcDbPolyline
 90
        2
 70
     0
 43
0.0
 10
7351.64461536471
 20
1030.805978971453
 10
7311.644624399485
 20
1030.805978971453
 42
-0.9999999999999999
  0
LWPOLYLINE
  5
2481
330
17
100
AcDbEntity
  8
SEIHIN
100
AcDbPolyline
 90
        3
 70
     0
 43
0.0
 10
7311.644624399485
 20
1130.805978971453
 10
7351.64461536471
 20
1130.805978971453
 42
-1.000000180695494
 10
7351.64461536471
 20
1030.805978971453
  0
LWPOLYLINE
  5
2482
330
17
100
AcDbEntity
  8
SEIHIN
 48
2.0
100
AcDbPolyline
 90
        3
 70
     0
 43
0.0
 10
7311.644624399485
 20
1130.805978971453
 10
7271.64463343426
 20
1130.805978971453
 42
1.000000180695494
 10
7271.64463343426
 20
1030.805978971453
  0
LWPOLYLINE
  5
2483
330
17
100
AcDbEntity
  8
SEIHIN
100
AcDbPolyline
 90
        2
 70
     0
 43
0.0
 10
7271.64463343426
 20
1030.805978971453
 10
7311.644624399485
 20
1030.805978971453
 42
0.9999999999999999
  0
LINE
  5
24B1
330
17
100
AcDbEntity
  8
1HASEN
100
AcDbLine
 10
2431.244030370246
 20
2079.20012530226
 30
0.0
 11
4738.504798881135
 21
2079.20012530226
 31
0.0
  0
LINE
  5
24B5
330
17
100
AcDbEntity
  8
SEIHIN
  6
DASHED2
 62
     7
 48
2.0
100
AcDbLine
 10
3164.839070043719
 20
2352.690058188166
 30
0.0
 11
3164.839070043719
 21
2555.710192416354
 31
0.0
  0
LWPOLYLINE
  5
24B6
330
17
100
AcDbEntity
  8
SEIHIN
  6
DASHED2
 62
     7
 48
2.0
100
AcDbPolyline
 90
        2
 70
     0
 43
0.0
 10
3564.839070043719
 20
2829.20012530226
 10
3564.839070043719
 20
1329.20012530226
  0
LINE
  5
24B7
330
17
100
AcDbEntity
  8
1HASEN
100
AcDbLine
 10
7311.644624399485
 20
7174.160005598103
 30
0.0
 11
7311.644624399485
 21
4353.873732596061
 31
0.0
  0
LWPOLYLINE
  5
24B9
330
17
100
AcDbEntity
  8
1HASEN
  6
DASHED2
 62
     7
 48
2.0
100
AcDbPolyline
 90
        3
 70
     0
 43
0.0
 10
7401.644624399485
 20
7106.206382115543
 10
7391.644624399484
 20
6906.206382115543
 10
7311.644624399485
 20
6906.206382115543
  0
LINE
  5
25A1
330
17
100
AcDbEntity
  8
SUNPOU
100
AcDbLine
 10
7576.644624399486
 20
4877.943726366892
 30
0.0
 11
7332.289776131368
 21
4877.943726366891
 31
0.0
  0
LINE
  5
25A2
330
17
100
AcDbEntity
  8
SUNPOU
100
AcDbLine
 10
7796.644624399485
 20
4877.943726366895
 30
0.0
 11
8061.644624399487
 21
4877.94372636689
 31
0.0
  0
INSERT
  5
25E7
330
17
100
AcDbEntity
  8
SUNPOU
100
AcDbBlockReference
  2
FG
 10
8061.644624399488
 20
4956.206382115543
 30
0.0
  0
LWPOLYLINE
  5
2615
330
17
100
AcDbEntity
  8
SEIHIN
  6
DASHED2
 62
     7
 48
2.0
100
AcDbPolyline
 90
        6
 70
     0
 43
0.0
 10
3464.839070043719
 20
1329.20012530226
 10
3464.839070043719
 20
1594.307507852595
 10
2829.839070043718
 20
1618.747105168032
 10
2829.839070043718
 20
1789.653145436488
 10
3464.839070043719
 20
1814.092742751924
 10
3464.839070043719
 20
2079.20012530226
  0
LWPOLYLINE
  5
261C
330
17
100
AcDbEntity
  8
SEIHIN
  6
DASHED2
 62
     7
 48
2.0
100
AcDbPolyline
 90
       10
 70
     0
 43
0.0
 10
6561.644624399485
 20
2440.805978971454
 10
6826.75200694982
 20
2440.805978971453
 10
6881.644624399485
 20
980.8059789714534
 10
6991.644624399485
 20
980.8059789714534
 10
7046.53724184915
 20
2440.805978971453
 10
7576.75200694982
 20
2440.805978971453
 10
7631.644624399485
 20
980.8059789714534
 10
7741.644624399485
 20
980.8059789714534
 10
7796.53724184915
 20
2440.805978971453
 10
8061.644624399485
 20
2440.805978971453
  0
LINE
  5
2635
330
17
100
AcDbEntity
  8
SUNPOU
 62
     5
100
AcDbLine
 10
7596.644624399485
 20
5132.60172586557
 30
0.0
 11
7776.644624399488
 21
5132.60172586557
 31
0.0
  0
LWPOLYLINE
  5
263D
330
17
100
AcDbEntity
  8
SEIHIN
100
AcDbPolyline
 90
        8
 70
     0
 43
0.0
 10
7607.144624399487
 20
4584.738917028606
 10
7596.644624399485
 20
4877.943726366892
 10
7596.644624399487
 20
6757.228501789433
 10
7631.644624399487
 20
6841.206382115541
 10
7741.644624399487
 20
6841.206382115542
 10
7776.644624399487
 20
6757.228501789432
 10
7776.644624399486
 20
4877.943726366892
 10
7766.144624399488
 20
4584.738917028606
  0
CIRCLE
  5
2694
330
17
100
AcDbEntity
  8
SEIHIN
100
AcDbCircle
 10
7311.644624399485
 20
6042.706382115543
 30
0.0
 40
25.0
  0
CIRCLE
  5
2695
330
17
100
AcDbEntity
  8
SEIHIN
100
AcDbCircle
 10
7311.644624399485
 20
6042.706382115543
 30
0.0
 40
35.0
  0
LWPOLYLINE
  5
26AD
330
17
100
AcDbEntity
  8
SEIHIN
100
AcDbPolyline
 90
        2
 70
     0
 43
0.0
 10
4564.839070043718
 20
1381.607904585301
 10
4564.839070043718
 20
1381.607904585301
  0
LWPOLYLINE
  5
2A0D
330
17
100
AcDbEntity
  8
SEIHIN
100
AcDbPolyline
 90
       17
 70
     1
 43
0.0
 10
2955.203221808993
 20
6754.840679736409
 10
2039.839070043721
 20
6836.206382115543
 10
2004.83907004372
 20
6871.206382115543
 10
2004.83907004372
 20
7106.206382115543
 10
2194.83907004372
 20
7106.206382115543
 10
2264.83907004372
 20
6956.206382115543
 10
3564.83907004372
 20
6956.206382115543
 10
3564.83907004372
 20
4756.206382115542
 10
3614.12393288297
 20
4697.780096165236
 10
4604.839070043721
 20
4583.591277145112
 10
4604.839070043721
 20
4456.206382115543
 10
2564.83907004372
 20
4456.206382115543
 10
2564.839070043721
 20
4576.206382115543
 10
2614.839070043721
 20
4576.206382115543
 10
2697.989848356372
 20
4588.923559975124
 42
0.3704296647521196
 10
3164.839070043719
 20
5132.60172586557
 10
3164.83907004372
 20
6525.74397237709
 42
0.3884789017169865
  0
LINE
  5
2A1E
330
17
100
AcDbEntity
  8
SEIHIN
100
AcDbLine
 10
7311.644624399486
 20
7106.206382115543
 30
0.0
 11
8055.644624399485
 21
7106.206382115543
 31
0.0
  0
LINE
  5
2A1F
330
17
100
AcDbEntity
  8
SEIHIN
100
AcDbLine
 10
8055.644624399485
 20
7106.206382115543
 30
0.0
 11
8055.644624399485
 21
6941.206382115543
 31
0.0
  0
LINE
  5
2A20
330
17
100
AcDbEntity
  8
SEIHIN
100
AcDbLine
 10
8055.644624399485
 20
6941.206382115543
 30
0.0
 11
8049.644624399485
 21
6937.706382115543
 31
0.0
  0
LINE
  5
2A21
330
17
100
AcDbEntity
  8
SEIHIN
100
AcDbLine
 10
8049.644624399485
 20
6937.706382115543
 30
0.0
 11
8049.644624399485
 21
6925.706382115543
 31
0.0
  0
LINE
  5
2A22
330
17
100
AcDbEntity
  8
SEIHIN
100
AcDbLine
 10
8049.644624399485
 20
6925.706382115543
 30
0.0
 11
8055.644624399485
 21
6922.206382115543
 31
0.0
  0
LINE
  5
2A23
330
17
100
AcDbEntity
  8
SEIHIN
100
AcDbLine
 10
8055.644624399485
 20
6922.206382115543
 30
0.0
 11
8055.644624399485
 21
6913.706382115543
 31
0.0
  0
LINE
  5
2A24
330
17
100
AcDbEntity
  8
SEIHIN
100
AcDbLine
 10
8055.644624399485
 20
6913.706382115543
 30
0.0
 11
8049.644624399485
 21
6910.206382115543
 31
0.0
  0
LINE
  5
2A25
330
17
100
AcDbEntity
  8
SEIHIN
100
AcDbLine
 10
8049.644624399485
 20
6910.206382115543
 30
0.0
 11
8049.644624399485
 21
6904.206382115543
 31
0.0
  0
LINE
  5
2A26
330
17
100
AcDbEntity
  8
SEIHIN
100
AcDbLine
 10
8049.644624399485
 20
6904.206382115543
 30
0.0
 11
8061.644624399485
 21
6901.206382115543
 31
0.0
  0
LINE
  5
2A27
330
17
100
AcDbEntity
  8
SEIHIN
100
AcDbLine
 10
8061.644624399485
 20
6901.206382115543
 30
0.0
 11
8061.644624399485
 21
4456.206382115543
 31
0.0
  0
LINE
  5
2A28
330
17
100
AcDbEntity
  8
SEIHIN
100
AcDbLine
 10
8061.644624399485
 20
4456.206382115543
 30
0.0
 11
7311.644624399485
 21
4456.206382115543
 31
0.0
  0
LINE
  5
2A33
330
17
100
AcDbEntity
  8
SEIHIN
100
AcDbLine
 10
7311.644624399485
 20
4576.206382115543
 30
0.0
 11
6561.644624399485
 21
4576.206382115543
 31
0.0
  0
LWPOLYLINE
  5
2A34
330
17
100
AcDbEntity
  8
SEIHIN
100
AcDbPolyline
 90
        4
 70
     0
 43
0.0
 10
7311.644624399485
 20
6871.206382115543
 10
6994.494624399485
 20
6871.206382115543
 10
7046.644624399483
 20
6857.202959359841
 10
7311.644624399484
 20
6857.202959359841
  0
LINE
  5
2A35
330
17
100
AcDbEntity
  8
SEIHIN
100
AcDbLine
 10
6991.644624399483
 20
6841.206382115542
 30
0.0
 11
6994.494624399484
 21
6871.206382115543
 31
0.0
  0
LINE
  5
2A36
330
17
100
AcDbEntity
  8
SEIHIN
100
AcDbLine
 10
6878.79462439948
 20
6871.206382115542
 30
0.0
 11
6881.644624399483
 21
6841.206382115542
 31
0.0
  0
LWPOLYLINE
  5
2A37
330
17
100
AcDbEntity
  8
SEIHIN
100
AcDbPolyline
 90
        6
 70
     0
 43
0.0
 10
6826.644624399482
 20
6857.20295935984
 10
6826.644624399485
 20
4877.943726366892
 10
6857.144624399483
 20
4584.738917028606
 10
7016.144624399483
 20
4584.738917028606
 10
7046.644624399484
 20
4877.943726366892
 10
7046.644624399483
 20
6857.202959359841
  0
LWPOLYLINE
  5
2A38
330
17
100
AcDbEntity
  8
SEIHIN
100
AcDbPolyline
 90
        4
 70
     0
 43
0.0
 10
6561.644624399482
 20
6871.206382115543
 10
6878.794624399482
 20
6871.206382115543
 10
6826.644624399482
 20
6857.202959359841
 10
6561.644624399481
 20
6857.202959359841
  0
LINE
  5
2A39
330
17
100
AcDbEntity
  8
SEIHIN
 62
     5
100
AcDbLine
 10
7026.644624399486
 20
6525.74397237709
 30
0.0
 11
6846.644624399486
 21
6525.74397237709
 31
0.0
  0
CIRCLE
  5
2A3A
330
17
100
AcDbEntity
  8
SUNPOU
100
AcDbCircle
 10
7091.644624399484
 20
6586.206382115543
 30
0.0
 40
11.0
  0
LINE
  5
2A3B
330
17
100
AcDbEntity
  8
SEIHIN
100
AcDbLine
 10
7311.644624399484
 20
7106.206382115543
 30
0.0
 11
6567.644624399485
 21
7106.206382115543
 31
0.0
  0
LINE
  5
2A3C
330
17
100
AcDbEntity
  8
SEIHIN
100
AcDbLine
 10
6567.644624399485
 20
7106.206382115543
 30
0.0
 11
6567.644624399485
 21
6941.206382115543
 31
0.0
  0
LINE
  5
2A3D
330
17
100
AcDbEntity
  8
SEIHIN
100
AcDbLine
 10
6567.644624399485
 20
6941.206382115543
 30
0.0
 11
6573.644624399485
 21
6937.706382115543
 31
0.0
  0
LINE
  5
2A3E
330
17
100
AcDbEntity
  8
SEIHIN
100
AcDbLine
 10
6573.644624399485
 20
6937.706382115543
 30
0.0
 11
6573.644624399485
 21
6925.706382115543
 31
0.0
  0
LINE
  5
2A3F
330
17
100
AcDbEntity
  8
SEIHIN
100
AcDbLine
 10
6573.644624399485
 20
6925.706382115543
 30
0.0
 11
6567.644624399485
 21
6922.206382115543
 31
0.0
  0
LINE
  5
2A40
330
17
100
AcDbEntity
  8
SEIHIN
100
AcDbLine
 10
6567.644624399485
 20
6922.206382115543
 30
0.0
 11
6567.644624399485
 21
6913.706382115543
 31
0.0
  0
LINE
  5
2A41
330
17
100
AcDbEntity
  8
SEIHIN
100
AcDbLine
 10
6567.644624399485
 20
6913.706382115543
 30
0.0
 11
6573.644624399485
 21
6910.206382115543
 31
0.0
  0
LINE
  5
2A42
330
17
100
AcDbEntity
  8
SEIHIN
100
AcDbLine
 10
6573.644624399485
 20
6910.206382115543
 30
0.0
 11
6573.644624399485
 21
6904.206382115543
 31
0.0
  0
LINE
  5
2A43
330
17
100
AcDbEntity
  8
SEIHIN
100
AcDbLine
 10
6573.644624399485
 20
6904.206382115543
 30
0.0
 11
6561.644624399485
 21
6901.206382115543
 31
0.0
  0
LINE
  5
2A44
330
17
100
AcDbEntity
  8
SEIHIN
100
AcDbLine
 10
6561.644624399485
 20
6901.206382115543
 30
0.0
 11
6561.644624399485
 21
4456.206382115543
 31
0.0
  0
LINE
  5
2A45
330
17
100
AcDbEntity
  8
SEIHIN
100
AcDbLine
 10
6561.644624399485
 20
4456.206382115543
 30
0.0
 11
7311.644624399485
 21
4456.206382115543
 31
0.0
  0
LWPOLYLINE
  5
2A46
330
17
100
AcDbEntity
  8
1HASEN
  6
DASHED2
 62
     7
 48
2.0
100
AcDbPolyline
 90
        3
 70
     0
 43
0.0
 10
7221.644624399485
 20
7106.206382115543
 10
7231.644624399486
 20
6906.206382115543
 10
7311.644624399485
 20
6906.206382115543
  0
LINE
  5
2A48
330
17
100
AcDbEntity
  8
SUNPOU
100
AcDbLine
 10
7046.644624399484
 20
4877.943726366892
 30
0.0
 11
7290.999472667602
 21
4877.943726366891
 31
0.0
  0
LINE
  5
2A49
330
17
100
AcDbEntity
  8
SUNPOU
100
AcDbLine
 10
6826.644624399485
 20
4877.943726366895
 30
0.0
 11
6561.644624399483
 21
4877.94372636689
 31
0.0
  0
INSERT
  5
2A4A
330
17
100
AcDbEntity
  8
SUNPOU
100
AcDbBlockReference
  2
FG
 10
6561.644624399482
 20
4956.206382115543
 30
0.0
 41
-1.0
  0
LINE
  5
2A4B
330
17
100
AcDbEntity
  8
SUNPOU
 62
     5
100
AcDbLine
 10
7026.644624399485
 20
5132.60172586557
 30
0.0
 11
6846.644624399482
 21
5132.60172586557
 31
0.0
  0
LWPOLYLINE
  5
2A4C
330
17
100
AcDbEntity
  8
SEIHIN
100
AcDbPolyline
 90
        8
 70
     0
 43
0.0
 10
7016.144624399483
 20
4584.738917028606
 10
7026.644624399485
 20
4877.943726366892
 10
7026.644624399483
 20
6757.228501789433
 10
6991.644624399483
 20
6841.206382115541
 10
6881.644624399483
 20
6841.206382115542
 10
6846.644624399483
 20
6757.228501789432
 10
6846.644624399484
 20
4877.943726366892
 10
6857.144624399482
 20
4584.738917028606
  0
LINE
  5
2A4D
330
17
100
AcDbEntity
  8
SEIHIN
100
AcDbLine
 10
8007.140533945123
 20
3580.805978971454
 30
0.0
 11
6616.148714853848
 21
3580.805978971454
 31
0.0
  0
LINE
  5
2A4E
330
17
100
AcDbEntity
  8
SEIHIN
100
AcDbLine
 10
6616.148714853848
 20
3580.805978971454
 30
0.0
 11
6561.644624399485
 21
2540.805978971454
 31
0.0
  0
LINE
  5
2A4F
330
17
100
AcDbEntity
  8
SEIHIN
100
AcDbLine
 10
6561.644624399485
 20
2540.805978971454
 30
0.0
 11
6561.644624399485
 21
980.8059789714534
 31
0.0
  0
LINE
  5
2A50
330
17
100
AcDbEntity
  8
SEIHIN
100
AcDbLine
 10
6561.644624399485
 20
980.8059789714534
 30
0.0
 11
8061.644624399485
 21
980.8059789714534
 31
0.0
  0
LINE
  5
2A51
330
17
100
AcDbEntity
  8
SEIHIN
100
AcDbLine
 10
8061.644624399485
 20
980.8059789714534
 30
0.0
 11
8061.644624399485
 21
2540.805978971452
 31
0.0
  0
LINE
  5
2A52
330
17
100
AcDbEntity
  8
SEIHIN
100
AcDbLine
 10
8061.644624399485
 20
2540.805978971452
 30
0.0
 11
8007.140533945123
 21
3580.805978971454
 31
0.0
  0
LINE
  5
2A53
330
17
100
AcDbEntity
  8
SEIHIN
100
AcDbLine
 10
4604.839070043721
 20
2774.696034847897
 30
0.0
 11
3564.83907004372
 21
2829.20012530226
 31
0.0
  0
LINE
  5
2A54
330
17
100
AcDbEntity
  8
SEIHIN
100
AcDbLine
 10
3564.83907004372
 20
2829.20012530226
 30
0.0
 11
2564.839070043719
 21
2829.20012530226
 31
0.0
  0
LINE
  5
2A55
330
17
100
AcDbEntity
  8
SEIHIN
100
AcDbLine
 10
2564.839070043719
 20
2829.20012530226
 30
0.0
 11
2564.839070043718
 21
1329.20012530226
 31
0.0
  0
LINE
  5
2A56
330
17
100
AcDbEntity
  8
SEIHIN
100
AcDbLine
 10
2564.839070043718
 20
1329.20012530226
 30
0.0
 11
3564.83907004372
 21
1329.20012530226
 31
0.0
  0
LINE
  5
2A57
330
17
100
AcDbEntity
  8
SEIHIN
100
AcDbLine
 10
3564.83907004372
 20
1329.20012530226
 30
0.0
 11
4604.839070043721
 21
1383.704215756623
 31
0.0
  0
LINE
  5
2A58
330
17
100
AcDbEntity
  8
SEIHIN
100
AcDbLine
 10
4604.839070043721
 20
1383.704215756623
 30
0.0
 11
4604.839070043721
 21
2774.696034847897
 31
0.0
  0
LINE
  5
2A59
330
17
100
AcDbEntity
  8
SEIHIN
  6
DASHED2
 62
     7
 48
2.0
100
AcDbLine
 10
3164.839070043719
 20
1805.710192416353
 30
0.0
 11
3164.839070043719
 21
1602.690058188165
 31
0.0
  0
LWPOLYLINE
  5
2A5A
330
17
100
AcDbEntity
  8
SEIHIN
  6
DASHED2
 62
     7
 48
2.0
100
AcDbPolyline
 90
        6
 70
     0
 43
0.0
 10
3464.839070043719
 20
2829.20012530226
 10
3464.839070043719
 20
2564.092742751925
 10
2829.839070043718
 20
2539.653145436489
 10
2829.839070043718
 20
2368.747105168032
 10
3464.839070043719
 20
2344.307507852595
 10
3464.839070043719
 20
2079.20012530226
  0
DIMENSION
  5
2A66
330
17
100
AcDbEntity
  8
SUNPOU
100
AcDbDimension
  2
*D11
 10
4604.839070043721
 20
7696.296380525975
 30
0.0
 11
4084.839070043721
 21
7765.296380525975
 31
0.0
 70
    32
 71
     5
 42
1040.000000000001
  3
A3-30
100
AcDbAlignedDimension
 13
3564.83907004372
 23
6956.206382115543
 33
0.0
 14
4604.839070043721
 24
6922.762939222201
 34
0.0
100
AcDbRotatedDimension
  0
DIMENSION
  5
2A67
330
17
100
AcDbEntity
  8
SUNPOU
100
AcDbDimension
  2
*D12
 10
2004.83907004372
 20
7696.296380525975
 30
0.0
 11
2784.83907004372
 21
7765.296380525975
 31
0.0
 70
    32
 71
     5
 42
1560.0
  3
A3-30
100
AcDbAlignedDimension
 13
3564.83907004372
 23
6956.206382115543
 33
0.0
 14
2004.83907004372
 24
7106.206382115543
 34
0.0
100
AcDbRotatedDimension
  0
DIMENSION
  5
2A68
330
17
100
AcDbEntity
  8
SUNPOU
100
AcDbDimension
  2
*D13
 10
2194.83907004372
 20
7332.329184267564
 30
0.0
 11
2099.83907004372
 21
7401.329184267564
 31
0.0
 70
   160
 71
     5
 42
190.0
  3
A3-30
100
AcDbAlignedDimension
 13
2004.83907004372
 23
7106.206382115543
 33
0.0
 14
2194.83907004372
 24
7106.206382115543
 34
0.0
100
AcDbRotatedDimension
  0
DIMENSION
  5
2A69
330
17
100
AcDbEntity
  8
SUNPOU
100
AcDbDimension
  2
*D14
 10
2264.83907004372
 20
7332.329184267564
 30
0.0
 11
2252.879880401328
 21
7401.329184267564
 31
0.0
 70
   160
 71
     5
 42
70.0
  3
A3-30
100
AcDbAlignedDimension
 13
2194.83907004372
 23
7106.206382115543
 33
0.0
 14
2264.83907004372
 24
6956.206382115543
 34
0.0
100
AcDbRotatedDimension
  0
DIMENSION
  5
2A6A
330
17
100
AcDbEntity
  8
SUNPOU
100
AcDbDimension
  2
*D15
 10
2264.83907004372
 20
7517.838631870087
 30
0.0
 11
2134.83907004372
 21
7586.838631870087
 31
0.0
 70
    32
 71
     5
 42
260.0
  3
A3-30
100
AcDbAlignedDimension
 13
2004.83907004372
 23
7106.206382115543
 33
0.0
 14
2264.83907004372
 24
6956.206382115543
 34
0.0
100
AcDbRotatedDimension
  0
DIMENSION
  5
2A6B
330
17
100
AcDbEntity
  8
SUNPOU
100
AcDbDimension
  2
*D16
 10
3564.83907004372
 20
7517.838631870087
 30
0.0
 11
2914.83907004372
 21
7586.838631870087
 31
0.0
 70
    32
 71
     5
 42
1300.0
  3
A3-30
100
AcDbAlignedDimension
 13
2264.83907004372
 23
6956.206382115543
 33
0.0
 14
3564.83907004372
 24
6956.206382115543
 34
0.0
100
AcDbRotatedDimension
  0
DIMENSION
  5
2A6C
330
17
100
AcDbEntity
  8
SUNPOU
100
AcDbDimension
  2
*D17
 10
1515.865151759652
 20
6956.206382115543
 30
0.0
 11
1446.865151759651
 21
7031.206382115543
 31
0.0
 70
    32
 71
     5
 42
150.0000000000009
  3
A3-30
100
AcDbAlignedDimension
 13
2004.83907004372
 23
7106.206382115543
 33
0.0
 14
2004.83907004372
 24
6956.206382115543
 34
0.0
 50
90.0
100
AcDbRotatedDimension
  0
DIMENSION
  5
2A6D
330
17
100
AcDbEntity
  8
SUNPOU
100
AcDbDimension
  2
*D18
 10
1515.865151759652
 20
4456.206382115543
 30
0.0
 11
1446.865151759651
 21
5706.206382115543
 31
0.0
 70
    32
 71
     5
 42
2499.999999999999
  3
A3-30
100
AcDbAlignedDimension
 13
2004.83907004372
 23
6956.206382115543
 33
0.0
 14
2564.83907004372
 24
4456.206382115543
 34
0.0
 50
90.0
100
AcDbRotatedDimension
  0
TEXT
  5
2A6E
330
17
100
AcDbEntity
  8
SUNPOU
100
AcDbText
 10
1000.994289007506
 20
7706.228451283097
 30
0.0
 40
100.0
  1
側 面 図
 72
     1
 11
1224.327622340839
 21
7706.228451283097
 31
0.0
100
AcDbText
  0
LWPOLYLINE
  5
2A6F
330
17
100
AcDbEntity
  8
SUNPOU
100
AcDbPolyline
 90
        4
 70
     1
 43
0.0
 10
952.4343869444147
 20
7842.683925446305
 10
1513.176885288804
 20
7842.683925446305
 10
1513.176885288804
 20
7670.980902424555
 10
952.4343869444147
 20
7670.980902424555
  0
DIMENSION
  5
2B37
330
17
100
AcDbEntity
  8
SUNPOU
100
AcDbDimension
  2
*D19
 10
3164.839070043719
 20
3970.392835147341
 30
0.0
 11
2864.83907004372
 21
4039.392835147341
 31
0.0
 70
    32
 71
     5
 42
599.9999999999991
  3
A3-30
100
AcDbAlignedDimension
 13
2564.83907004372
 23
4456.206382115543
 33
0.0
 14
3164.839070043719
 24
4456.206382115543
 34
0.0
100
AcDbRotatedDimension
  0
DIMENSION
  5
2B38
330
17
100
AcDbEntity
  8
SUNPOU
100
AcDbDimension
  2
*D20
 10
3564.839070043719
 20
3970.392835147341
 30
0.0
 11
3364.839070043719
 21
4039.392835147341
 31
0.0
 70
    32
 71
     5
 42
400.0
  3
A3-30
100
AcDbAlignedDimension
 13
3164.839070043719
 23
4456.206382115543
 33
0.0
 14
3564.839070043719
 24
4456.206382115543
 34
0.0
100
AcDbRotatedDimension
  0
DIMENSION
  5
2B39
330
17
100
AcDbEntity
  8
SUNPOU
100
AcDbDimension
  2
*D21
 10
4604.839070043721
 20
3970.392835147341
 30
0.0
 11
4084.83907004372
 21
4039.392835147341
 31
0.0
 70
    32
 71
     5
 42
1040.000000000002
  3
A3-30
100
AcDbAlignedDimension
 13
3564.839070043719
 23
4456.206382115543
 33
0.0
 14
4604.839070043721
 24
4456.206382115543
 34
0.0
100
AcDbRotatedDimension
  0
DIMENSION
  5
2B3A
330
17
100
AcDbEntity
  8
SUNPOU
100
AcDbDimension
  2
*D22
 10
3464.83907004372
 20
4163.552650327867
 30
0.0
 11
3514.83907004372
 21
4232.552650327867
 31
0.0
 70
    32
 71
     5
 42
99.99999999999909
  3
A3-30
100
AcDbAlignedDimension
 13
3564.839070043719
 23
4456.206382115543
 33
0.0
 14
3464.83907004372
 24
4456.206382115543
 34
0.0
100
AcDbRotatedDimension
  0
DIMENSION
  5
2B3B
330
17
100
AcDbEntity
  8
SUNPOU
100
AcDbDimension
  2
*D23
 10
3164.839070043719
 20
4163.552650327867
 30
0.0
 11
3314.83907004372
 21
4232.552650327867
 31
0.0
 70
    32
 71
     5
 42
300.0000000000009
  3
A3-30
100
AcDbAlignedDimension
 13
3464.83907004372
 23
4456.206382115543
 33
0.0
 14
3164.839070043719
 24
4456.206382115543
 34
0.0
100
AcDbRotatedDimension
  0
DIMENSION
  5
2B3C
330
17
100
AcDbEntity
  8
SUNPOU
100
AcDbDimension
  2
*D24
 10
4604.839070043721
 20
3776.051084935363
 30
0.0
 11
3584.839070043721
 21
3845.051084935363
 31
0.0
 70
    32
 71
     5
 42
2040.000000000001
  3
A3-30
100
AcDbAlignedDimension
 13
2564.83907004372
 23
4456.206382115543
 33
0.0
 14
4604.839070043721
 24
4456.206382115543
 34
0.0
100
AcDbRotatedDimension
  0
DIMENSION
  5
2BCF
330
17
100
AcDbEntity
  8
SUNPOU
100
AcDbDimension
  2
*D25
 10
6159.989081144151
 20
6956.206382115543
 30
0.0
 11
6090.989081144149
 21
7031.206382115544
 31
0.0
 70
    32
 71
     5
 42
150.0
  3
A3-30
100
AcDbAlignedDimension
 13
6567.644624399487
 23
7106.206382115543
 33
0.0
 14
6567.644624399487
 24
6956.206382115543
 34
0.0
 50
90.0
100
AcDbRotatedDimension
  0
DIMENSION
  5
2BD0
330
17
100
AcDbEntity
  8
SUNPOU
100
AcDbDimension
  2
*D26
 10
6159.989081144151
 20
4456.206382115543
 30
0.0
 11
6090.98908114415
 21
5706.206382115544
 31
0.0
 70
    32
 71
     5
 42
2500.0
  3
A3-30
100
AcDbAlignedDimension
 13
6567.644624399487
 23
6956.206382115543
 33
0.0
 14
6561.644624399485
 24
4456.206382115543
 34
0.0
 50
90.0
100
AcDbRotatedDimension
  0
DIMENSION
  5
2BD1
330
17
100
AcDbEntity
  8
SUNPOU
100
AcDbDimension
  2
*D27
 10
8061.644624399487
 20
7696.296380525975
 30
0.0
 11
7311.644624399487
 21
7765.296380525975
 31
0.0
 70
    32
 71
     5
 42
1500.0
  3
A3-30
100
AcDbAlignedDimension
 13
6561.644624399487
 23
7106.206382115543
 33
0.0
 14
8061.644624399487
 24
7106.206382115543
 34
0.0
100
AcDbRotatedDimension
  0
DIMENSION
  5
2BD2
330
17
100
AcDbEntity
  8
SUNPOU
100
AcDbDimension
  2
*D28
 10
6936.644624399487
 20
7480.773702898998
 30
0.0
 11
6749.144624399487
 21
7549.773702898998
 31
0.0
 70
    32
 71
     5
 42
375.0
  3
A3-30
100
AcDbAlignedDimension
 13
6561.644624399487
 23
7106.206382115543
 33
0.0
 14
6936.644624399487
 24
7106.206382115543
 34
0.0
100
AcDbRotatedDimension
  0
DIMENSION
  5
2BD3
330
17
100
AcDbEntity
  8
SUNPOU
100
AcDbDimension
  2
*D29
 10
7686.644624399487
 20
7480.773702898998
 30
0.0
 11
7311.644624399487
 21
7549.773702898998
 31
0.0
 70
    32
 71
     5
 42
750.0
  3
A3-30
100
AcDbAlignedDimension
 13
6936.644624399487
 23
7106.206382115543
 33
0.0
 14
7686.644624399487
 24
7106.206382115543
 34
0.0
100
AcDbRotatedDimension
  0
DIMENSION
  5
2BD4
330
17
100
AcDbEntity
  8
SUNPOU
100
AcDbDimension
  2
*D30
 10
8061.644624399487
 20
7480.773702898998
 30
0.0
 11
7874.144624399487
 21
7549.773702898998
 31
0.0
 70
    32
 71
     5
 42
375.0
  3
A3-30
100
AcDbAlignedDimension
 13
7686.644624399487
 23
7106.206382115543
 33
0.0
 14
8061.644624399487
 24
7106.206382115543
 34
0.0
100
AcDbRotatedDimension
  0
DIMENSION
  5
2BD5
330
17
100
AcDbEntity
  8
SUNPOU
100
AcDbDimension
  2
*D31
 10
6846.644624399487
 20
6024.572333910582
 30
0.0
 11
6750.196165356059
 21
6093.572333910582
 31
0.0
 70
   160
 71
     5
 42
20.0
  3
A3-30
100
AcDbAlignedDimension
 13
6826.644624399487
 23
5890.809591071606
 33
0.0
 14
6846.644624399487
 24
5890.809591071606
 34
0.0
100
AcDbRotatedDimension
  0
DIMENSION
  5
2BD6
330
17
100
AcDbEntity
  8
SUNPOU
100
AcDbDimension
  2
*D32
 10
7026.644624399487
 20
6024.572333910582
 30
0.0
 11
6936.644624399487
 21
6093.572333910582
 31
0.0
 70
    32
 71
     5
 42
180.0
  3
A3-30
100
AcDbAlignedDimension
 13
6846.644624399487
 23
5890.809591071606
 33
0.0
 14
7026.644624399487
 24
5890.809591071606
 34
0.0
100
AcDbRotatedDimension
  0
DIMENSION
  5
2BD7
330
17
100
AcDbEntity
  8
SUNPOU
100
AcDbDimension
  2
*D33
 10
7046.644624399487
 20
6024.572333910582
 30
0.0
 11
7123.752274197928
 21
6093.572333910582
 31
0.0
 70
   160
 71
     5
 42
20.0
  3
A3-30
100
AcDbAlignedDimension
 13
7026.644624399487
 23
5890.809591071606
 33
0.0
 14
7046.644624399487
 24
5890.809591071606
 34
0.0
100
AcDbRotatedDimension
  0
TEXT
  5
2BD8
330
17
100
AcDbEntity
  8
SUNPOU
100
AcDbText
 10
5761.502418150199
 20
7706.228451283097
 30
0.0
 40
100.0
  1
正 面 図
 72
     1
 11
5984.835751483532
 21
7706.228451283097
 31
0.0
100
AcDbText
  0
LWPOLYLINE
  5
2BD9
330
17
100
AcDbEntity
  8
SUNPOU
100
AcDbPolyline
 90
        4
 70
     1
 43
0.0
 10
5712.942516087107
 20
7842.683925446305
 10
6273.685014431496
 20
7842.683925446305
 10
6273.685014431496
 20
7670.980902424555
 10
5712.942516087107
 20
7670.980902424555
  0
LINE
  5
2C9F
330
17
100
AcDbEntity
  8
1HASEN
100
AcDbLine
 10
6936.644624399485
 20
7174.160005598103
 30
0.0
 11
6936.644624399485
 21
4353.873732596061
 31
0.0
  0
LINE
  5
2CA0
330
17
100
AcDbEntity
  8
1HASEN
100
AcDbLine
 10
7686.644624399485
 20
7174.160005598103
 30
0.0
 11
7686.644624399485
 21
4353.873732596061
 31
0.0
  0
TEXT
  5
2CA1
330
17
100
AcDbEntity
  8
SUNPOU
100
AcDbText
 10
7522.589295999092
 20
4256.732104255933
 30
0.0
 40
90.0
  1
水抜き孔
 41
0.8
100
AcDbText
  0
LINE
  5
2CA2
330
17
100
AcDbEntity
  8
SUNPOU
100
AcDbLine
 10
7496.403075819453
 20
4244.561357698235
 30
0.0
 11
7879.576422400038
 21
4244.561357698235
 31
0.0
  0
LEADER
  5
2CA3
330
17
100
AcDbEntity
  8
SUNPOU
100
AcDbLeader
  3
A3-30
 76
     2
 10
7311.644624399487
 20
4906.206382115543
 30
0.0
 10
7496.403075819453
 20
4244.561357698235
 30
0.0
  0
TEXT
  5
2CA4
330
17
100
AcDbEntity
  8
SUNPOU
100
AcDbText
 10
8286.233830673702
 20
4643.856139020038
 30
0.0
 40
90.0
  1
ジョイント金具
 41
0.8
100
AcDbText
  0
LINE
  5
2CA5
330
17
100
AcDbEntity
  8
SUNPOU
100
AcDbLine
 10
8260.047610494063
 20
4631.685392462339
 30
0.0
 11
8906.239692611212
 21
4631.685392462339
 31
0.0
  0
LEADER
  5
2CA6
330
17
100
AcDbEntity
  8
SUNPOU
100
AcDbLeader
  3
A3-30
 76
     2
 10
8057.144624399487
 20
4956.206382115543
 30
0.0
 10
8260.047610494063
 20
4631.685392462339
 30
0.0
  0
LWPOLYLINE
  5
2CB6
330
17
100
AcDbEntity
  8
SUNPOU
100
AcDbPolyline
 90
        4
 70
     1
 43
0.0
 10
3514.83907004372
 20
6889.206382115543
 10
3564.83907004372
 20
6889.206382115543
 10
3564.83907004372
 20
6823.206382115543
 10
3514.83907004372
 20
6823.206382115543
  0
CIRCLE
  5
2CB7
330
17
100
AcDbEntity
  8
SUNPOU
100
AcDbCircle
 10
3539.83907004372
 20
6856.206382115543
 30
0.0
 40
8.0
  0
LWPOLYLINE
  5
2CC9
330
17
100
AcDbEntity
  8
0
  6
HIDDEN
 48
0.3
100
AcDbPolyline
 90
        4
 70
     0
 43
0.0
 10
8061.644624399487
 20
6824.706382115543
 10
8057.144624399487
 20
6826.706382115543
 10
8057.144624399487
 20
6885.706382115543
 10
8061.644624399487
 20
6887.706382115543
  0
LWPOLYLINE
  5
2CCA
330
17
100
AcDbEntity
  8
0
  6
HIDDEN
 48
0.3
100
AcDbPolyline
 90
        2
 70
     0
 43
0.0
 10
8057.144624399487
 20
6883.206382115543
 10
8020.144624400389
 20
6883.206382115543
  0
LWPOLYLINE
  5
2CCB
330
17
100
AcDbEntity
  8
0
  6
HIDDEN
 48
0.3
100
AcDbPolyline
 90
        2
 70
     0
 43
0.0
 10
8020.144624399487
 20
6883.206382115543
 42
1.111111111111126
 10
8020.144624399487
 20
6829.206382115543
 42
1.111111111111126
  0
LWPOLYLINE
  5
2CCC
330
17
100
AcDbEntity
  8
0
  6
HIDDEN
 48
0.3
100
AcDbPolyline
 90
        2
 70
     0
 43
0.0
 10
8057.144624399487
 20
6829.206382115543
 10
8020.144624400389
 20
6829.206382115543
  0
TEXT
  5
2CCD
330
17
100
AcDbEntity
  8
SUNPOU
100
AcDbText
 10
8286.233830673702
 20
6543.856139020038
 30
0.0
 40
90.0
  1
ジョイント金具
 41
0.8
100
AcDbText
  0
LINE
  5
2CCE
330
17
100
AcDbEntity
  8
SUNPOU
100
AcDbLine
 10
8260.047610494063
 20
6531.685392462339
 30
0.0
 11
8906.239692611212
 21
6531.685392462339
 31
0.0
  0
LEADER
  5
2CCF
330
17
100
AcDbEntity
  8
SUNPOU
100
AcDbLeader
  3
A3-30
 76
     2
 10
8057.144624399487
 20
6856.206382115543
 30
0.0
 10
8260.047610494063
 20
6531.685392462339
 30
0.0
  0
LWPOLYLINE
  5
2CD0
330
17
100
AcDbEntity
  8
0
  6
HIDDEN
 48
0.3
100
AcDbPolyline
 90
        4
 70
     0
 43
0.0
 10
6561.644624399483
 20
6824.706382115543
 10
6566.144624399483
 20
6826.706382115543
 10
6566.144624399483
 20
6885.706382115543
 10
6561.644624399483
 20
6887.706382115543
  0
LWPOLYLINE
  5
2CD1
330
17
100
AcDbEntity
  8
0
  6
HIDDEN
 48
0.3
100
AcDbPolyline
 90
        2
 70
     0
 43
0.0
 10
6566.144624399483
 20
6883.206382115543
 10
6603.144624398581
 20
6883.206382115543
  0
LWPOLYLINE
  5
2CD2
330
17
100
AcDbEntity
  8
0
  6
HIDDEN
 48
0.3
100
AcDbPolyline
 90
        2
 70
     0
 43
0.0
 10
6603.144624399483
 20
6883.206382115543
 42
-1.111111111111126
 10
6603.144624399483
 20
6829.206382115543
 42
-1.111111111111126
  0
LWPOLYLINE
  5
2CD3
330
17
100
AcDbEntity
  8
0
  6
HIDDEN
 48
0.3
100
AcDbPolyline
 90
        2
 70
     0
 43
0.0
 10
6566.144624399483
 20
6829.206382115543
 10
6603.144624398581
 20
6829.206382115543
  0
LWPOLYLINE
  5
2CDC
330
17
100
AcDbEntity
  8
SUNPOU
100
AcDbPolyline
 90
        4
 70
     1
 43
0.0
 10
3464.83907004372
 20
4989.206382115543
 10
3514.83907004372
 20
4989.206382115543
 10
3514.83907004372
 20
4923.206382115543
 10
3464.83907004372
 20
4923.206382115543
  0
CIRCLE
  5
2CDD
330
17
100
AcDbEntity
  8
SUNPOU
100
AcDbCircle
 10
3489.83907004372
 20
4956.206382115543
 30
0.0
 40
8.0
  0
TEXT
  5
2CE7
330
17
100
AcDbEntity
  8
SUNPOU
100
AcDbText
 10
5575.229295658297
 20
3469.998445379308
 30
0.0
 40
100.0
  1
平面図(頂版)
 72
     1
 11
5925.229295658297
 21
3469.998445379308
 31
0.0
100
AcDbText
  0
LINE
  5
2CE8
330
17
100
AcDbEntity
  8
SUNPOU
100
AcDbLine
 10
5527.202363074752
 20
3606.453919542515
 30
0.0
 11
6336.892933678673
 21
3606.453919542515
 31
0.0
  0
LINE
  5
2CE9
330
17
100
AcDbEntity
  8
SUNPOU
100
AcDbLine
 10
6336.892933678673
 20
3606.453919542515
 30
0.0
 11
6336.892933678673
 21
3434.750896520765
 31
0.0
  0
LINE
  5
2CEA
330
17
100
AcDbEntity
  8
SUNPOU
100
AcDbLine
 10
6336.892933678673
 20
3434.750896520766
 30
0.0
 11
5527.202363074752
 21
3434.750896520766
 31
0.0
  0
LINE
  5
2CEB
330
17
100
AcDbEntity
  8
SUNPOU
100
AcDbLine
 10
5527.202363074752
 20
3434.750896520765
 30
0.0
 11
5527.202363074752
 21
3606.453919542515
 31
0.0
  0
DIMENSION
  5
2CEC
330
17
100
AcDbEntity
  8
SUNPOU
100
AcDbDimension
  2
*D34
 10
6561.644624399485
 20
415.7208055216888
 30
0.0
 11
7311.644624399485
 21
484.7208055216888
 31
0.0
 70
    32
 71
     5
 42
1500.0
  3
A3-30
100
AcDbAlignedDimension
 13
8061.644624399485
 23
980.8059789714534
 33
0.0
 14
6561.644624399485
 24
980.8059789714534
 34
0.0
 50
180.0
100
AcDbRotatedDimension
  0
DIMENSION
  5
2CED
330
17
100
AcDbEntity
  8
SUNPOU
100
AcDbDimension
  2
*D35
 10
6936.644624399485
 20
655.2023563795692
 30
0.0
 11
7124.144624399485
 21
724.2023563795692
 31
0.0
 70
    32
 71
     5
 42
375.0
  3
A3-30
100
AcDbAlignedDimension
 13
7311.644624399485
 23
980.8059789714534
 33
0.0
 14
6936.644624399485
 24
980.8059789714534
 34
0.0
 50
180.0
100
AcDbRotatedDimension
  0
DIMENSION
  5
2CEE
330
17
100
AcDbEntity
  8
SUNPOU
100
AcDbDimension
  2
*D36
 10
6561.644624399485
 20
655.2023563795692
 30
0.0
 11
6749.144624399485
 21
724.2023563795692
 31
0.0
 70
    32
 71
     5
 42
375.0
  3
A3-30
100
AcDbAlignedDimension
 13
6936.644624399485
 23
980.8059789714534
 33
0.0
 14
6561.644624399485
 24
980.8059789714534
 34
0.0
 50
180.0
100
AcDbRotatedDimension
  0
DIMENSION
  5
2CEF
330
17
100
AcDbEntity
  8
SUNPOU
100
AcDbDimension
  2
*D37
 10
8566.094906450207
 20
1240.805978971453
 30
0.0
 11
8497.094906450207
 21
1110.805978971455
 31
0.0
 70
    32
 71
     5
 42
260.0
  3
A3-30
100
AcDbAlignedDimension
 13
8061.644624399485
 23
980.8059789714534
 33
0.0
 14
8061.644624399485
 24
1240.805978971453
 34
0.0
 50
90.0
100
AcDbRotatedDimension
  0
DIMENSION
  5
2CF0
330
17
100
AcDbEntity
  8
SUNPOU
100
AcDbDimension
  2
*D38
 10
8372.25069547906
 20
1170.805978971453
 30
0.0
 11
8303.25069547906
 21
1075.805978971455
 31
0.0
 70
   160
 71
     5
 42
190.0
  3
A3-30
100
AcDbAlignedDimension
 13
8061.644624399485
 23
980.8059789714534
 33
0.0
 14
8061.644624399485
 24
1170.805978971453
 34
0.0
 50
90.0
100
AcDbRotatedDimension
  0
DIMENSION
  5
2CF1
330
17
100
AcDbEntity
  8
SUNPOU
100
AcDbDimension
  2
*D39
 10
8372.25069547906
 20
1240.805978971453
 30
0.0
 11
8303.25069547906
 21
1234.450174127933
 31
0.0
 70
   160
 71
     5
 42
70.0
  3
A3-30
100
AcDbAlignedDimension
 13
8061.644624399485
 23
1170.805978971453
 33
0.0
 14
8061.644624399485
 24
1240.805978971453
 34
0.0
 50
90.0
100
AcDbRotatedDimension
  0
DIMENSION
  5
2CF2
330
17
100
AcDbEntity
  8
SUNPOU
100
AcDbDimension
  2
*D40
 10
7686.644624399485
 20
655.2023563795692
 30
0.0
 11
7499.144624399485
 21
724.2023563795692
 31
0.0
 70
    32
 71
     5
 42
375.0
  3
A3-30
100
AcDbAlignedDimension
 13
7311.644624399485
 23
980.8059789714534
 33
0.0
 14
7686.644624399485
 24
980.8059789714534
 34
0.0
100
AcDbRotatedDimension
  0
DIMENSION
  5
2CF3
330
17
100
AcDbEntity
  8
SUNPOU
100
AcDbDimension
  2
*D41
 10
8061.644624399485
 20
655.2023563795692
 30
0.0
 11
7874.144624399485
 21
724.2023563795692
 31
0.0
 70
    32
 71
     5
 42
375.0
  3
A3-30
100
AcDbAlignedDimension
 13
7686.644624399485
 23
980.8059789714534
 33
0.0
 14
8061.644624399485
 24
980.8059789714534
 34
0.0
100
AcDbRotatedDimension
  0
TEXT
  5
2CF4
330
17
100
AcDbEntity
  8
SUNPOU
100
AcDbText
 10
8201.254338350116
 20
1663.409662337423
 30
0.0
 40
90.0
  1
水抜き孔
 41
0.8
100
AcDbText
  0
LINE
  5
2CF5
330
17
100
AcDbEntity
  8
SUNPOU
100
AcDbLine
 10
8161.975008080657
 20
1645.153542500876
 30
0.0
 11
8567.325487127635
 21
1645.153542500876
 31
0.0
  0
LEADER
  5
2CF6
330
17
100
AcDbEntity
  8
SUNPOU
100
AcDbLeader
  3
A3-30
 76
     2
 10
7311.644624399485
 20
1275.805978971453
 30
0.0
 10
8161.975008080657
 20
1645.153542500876
 30
0.0
  0
TEXT
  5
2CF7
330
17
100
AcDbEntity
  8
SUNPOU
100
AcDbText
 10
8201.254338350116
 20
1488.914085778232
 30
0.0
 40
90.0
  1
防護柵取付用ホール
 41
0.8
100
AcDbText
  0
LINE
  5
2CF8
330
17
100
AcDbEntity
  8
SUNPOU
100
AcDbLine
 10
8161.975008080657
 20
1470.657965941685
 30
0.0
 11
8995.762398712837
 21
1470.657965941685
 31
0.0
  0
LEADER
  5
2CF9
330
17
100
AcDbEntity
  8
SUNPOU
100
AcDbLeader
  3
A3-30
 76
     2
 10
7311.644624399485
 20
1101.310402412262
 30
0.0
 10
8161.975008080657
 20
1470.657965941685
 30
0.0
  0
LINE
  5
2DA4
330
17
100
AcDbEntity
  8
SUNPOU
100
AcDbLine
 10
3746.102795958443
 20
2829.200125302259
 30
0.0
 11
3958.869700552206
 21
2829.200125302259
 31
0.0
  0
ARC
  5
2DA5
330
17
100
AcDbEntity
  8
SUNPOU
100
AcDbCircle
 10
3564.839070043734
 20
2829.200125302259
 30
0.0
 40
351.0296520968843
100
AcDbArc
 50
0.0
 51
15.01603005968278
  0
ARC
  5
2DA6
330
17
100
AcDbEntity
  8
SUNPOU
100
AcDbCircle
 10
3564.839070043734
 20
2829.200125302259
 30
0.0
 40
351.0296520968843
100
AcDbArc
 50
342.9241617726199
 51
357.0000000000115
  0
SOLID
  5
2DA7
330
17
100
AcDbEntity
  8
SUNPOU
100
AcDbTrace
 10
3923.583035087555
 20
2876.009291278893
 30
0.0
 11
3902.000374664975
 21
2875.143976836878
 31
0.0
 12
3915.387648202304
 22
2810.828652790142
 32
0.0
 13
3915.387648202304
 23
2810.828652790142
 33
0.0
  0
SOLID
  5
2DA8
330
17
100
AcDbEntity
  8
SUNPOU
100
AcDbTrace
 10
3899.133791411339
 20
2765.673578933941
 30
0.0
 11
3920.641586489135
 21
2763.679901203814
 31
0.0
 12
3915.86872214062
 22
2829.200125302261
 32
0.0
 13
3915.86872214062
 23
2829.200125302261
 33
0.0
  0
TEXT
  5
2DA9
330
17
100
AcDbEntity
  8
SUNPOU
100
AcDbText
 10
3886.639927139058
 20
2853.543185744043
 30
0.0
 40
90.0
  1
3°
 50
90.0
 41
0.8
100
AcDbText
  0
LINE
  5
2DAA
330
17
100
AcDbEntity
  8
SUNPOU
100
AcDbLine
 10
3746.102795958443
 20
1329.20012530226
 30
0.0
 11
3958.869700552206
 21
1329.20012530226
 31
0.0
  0
ARC
  5
2DAB
330
17
100
AcDbEntity
  8
SUNPOU
100
AcDbCircle
 10
3564.839070043734
 20
1329.20012530226
 30
0.0
 40
351.0296520968843
100
AcDbArc
 50
344.9839699403012
 51
0.0
  0
ARC
  5
2DAC
330
17
100
AcDbEntity
  8
SUNPOU
100
AcDbCircle
 10
3564.839070043734
 20
1329.20012530226
 30
0.0
 40
351.0296520968843
100
AcDbArc
 50
3.000000000001525
 51
17.07583822736909
  0
SOLID
  5
2DAD
330
17
100
AcDbEntity
  8
SUNPOU
100
AcDbTrace
 10
3923.583035087555
 20
1282.390959325627
 30
0.0
 11
3902.000374664975
 21
1283.256273767642
 31
0.0
 12
3915.387648202304
 22
1347.571597814377
 32
0.0
 13
3915.387648202304
 23
1347.571597814377
 33
0.0
  0
SOLID
  5
2DAE
330
17
100
AcDbEntity
  8
SUNPOU
100
AcDbTrace
 10
3899.133791411339
 20
1392.726671670578
 30
0.0
 11
3920.641586489135
 21
1394.720349400705
 31
0.0
 12
3915.86872214062
 22
1329.200125302258
 32
0.0
 13
3915.86872214062
 23
1329.200125302258
 33
0.0
  0
TEXT
  5
2DAF
330
17
100
AcDbEntity
  8
SUNPOU
100
AcDbText
 10
3886.639927139058
 20
1213.657064860476
 30
0.0
 40
90.0
  1
3°
 50
90.0
 41
0.8
100
AcDbText
  0
DIMENSION
  5
2DB0
330
17
100
AcDbEntity
  8
SUNPOU
100
AcDbDimension
  2
*D42
 10
2020.566187252556
 20
1329.20012530226
 30
0.0
 11
1951.566187252556
 21
2079.20012530226
 31
0.0
 70
    32
 71
     5
 42
1500.0
  3
A3-30
100
AcDbAlignedDimension
 13
2564.839070043719
 23
2829.20012530226
 33
0.0
 14
2564.839070043718
 24
1329.20012530226
 34
0.0
 50
90.0
100
AcDbRotatedDimension
  0
DIMENSION
  5
2DB1
330
17
100
AcDbEntity
  8
SUNPOU
100
AcDbDimension
  2
*D43
 10
3164.839070043716
 20
873.2680296956414
 30
0.0
 11
2864.839070043718
 21
942.2680296956414
 31
0.0
 70
    32
 71
     5
 42
599.9999999999964
  3
A3-30
100
AcDbAlignedDimension
 13
2564.839070043719
 23
1329.20012530226
 33
0.0
 14
3164.839070043716
 24
1329.20012530226
 34
0.0
100
AcDbRotatedDimension
  0
DIMENSION
  5
2DB2
330
17
100
AcDbEntity
  8
SUNPOU
100
AcDbDimension
  2
*D44
 10
3564.839070043719
 20
873.2680296956414
 30
0.0
 11
3364.839070043718
 21
942.2680296956414
 31
0.0
 70
    32
 71
     5
 42
400.0000000000036
  3
A3-30
100
AcDbAlignedDimension
 13
3164.839070043716
 23
1329.20012530226
 33
0.0
 14
3564.839070043719
 24
1329.20012530226
 34
0.0
100
AcDbRotatedDimension
  0
DIMENSION
  5
2DB3
330
17
100
AcDbEntity
  8
SUNPOU
100
AcDbDimension
  2
*D45
 10
4604.839070043721
 20
873.2680296956414
 30
0.0
 11
4084.83907004372
 21
942.2680296956414
 31
0.0
 70
    32
 71
     5
 42
1040.000000000002
  3
A3-30
100
AcDbAlignedDimension
 13
3564.839070043719
 23
1329.20012530226
 33
0.0
 14
4604.839070043721
 24
1383.704215756623
 34
0.0
100
AcDbRotatedDimension
  0
DIMENSION
  5
2DB4
330
17
100
AcDbEntity
  8
SUNPOU
100
AcDbDimension
  2
*D46
 10
3464.839070043719
 20
1059.129181603096
 30
0.0
 11
3314.839070043718
 21
1128.129181603096
 31
0.0
 70
    32
 71
     5
 42
300.0000000000036
  3
A3-30
100
AcDbAlignedDimension
 13
3164.839070043716
 23
1329.20012530226
 33
0.0
 14
3464.839070043719
 24
1329.20012530226
 34
0.0
100
AcDbRotatedDimension
  0
DIMENSION
  5
2DB5
330
17
100
AcDbEntity
  8
SUNPOU
100
AcDbDimension
  2
*D47
 10
3564.839070043719
 20
1059.129181603096
 30
0.0
 11
3551.762906388733
 21
1128.129181603096
 31
0.0
 70
   160
 71
     5
 42
100.0
  3
A3-30
100
AcDbAlignedDimension
 13
3464.839070043719
 23
1329.20012530226
 33
0.0
 14
3564.839070043719
 24
1329.20012530226
 34
0.0
100
AcDbRotatedDimension
  0
DIMENSION
  5
2DB6
330
17
100
AcDbEntity
  8
SUNPOU
100
AcDbDimension
  2
*D48
 10
4604.839070043721
 20
664.0620690326969
 30
0.0
 11
3584.83907004372
 21
733.0620690326969
 31
0.0
 70
    32
 71
     5
 42
2040.000000000002
  3
A3-30
100
AcDbAlignedDimension
 13
2564.839070043719
 23
1329.200125302261
 33
0.0
 14
4604.839070043721
 24
1383.704215756623
 34
0.0
100
AcDbRotatedDimension
  0
DIMENSION
  5
2E4C
330
17
100
AcDbEntity
  8
SUNPOU
100
AcDbDimension
  2
*D49
 10
4994.966046479894
 20
1383.704215756623
 30
0.0
 11
4925.966046479894
 21
2079.20012530226
 31
0.0
 70
    32
 71
     5
 42
1390.991819091274
  3
A3-30
100
AcDbAlignedDimension
 13
4604.839070043721
 23
2774.696034847897
 33
0.0
 14
4604.839070043721
 24
1383.704215756623
 34
0.0
 50
90.0
100
AcDbRotatedDimension
  0
TEXT
  5
2E59
330
17
100
AcDbEntity
  8
SUNPOU
100
AcDbText
 10
1123.222970736304
 20
3135.675286505016
 30
0.0
 40
100.0
  1
平面図(底版)
 72
     1
 11
1473.222970736304
 21
3135.675286505016
 31
0.0
100
AcDbText
  0
LINE
  5
2E5A
330
17
100
AcDbEntity
  8
SUNPOU
100
AcDbLine
 10
1075.196038152759
 20
3272.130760668223
 30
0.0
 11
1884.88660875668
 21
3272.130760668224
 31
0.0
  0
LINE
  5
2E5B
330
17
100
AcDbEntity
  8
SUNPOU
100
AcDbLine
 10
1884.88660875668
 20
3272.130760668223
 30
0.0
 11
1884.88660875668
 21
3100.427737646473
 31
0.0
  0
LINE
  5
2E5C
330
17
100
AcDbEntity
  8
SUNPOU
100
AcDbLine
 10
1884.88660875668
 20
3100.427737646474
 30
0.0
 11
1075.196038152759
 21
3100.427737646474
 31
0.0
  0
LINE
  5
2E5D
330
17
100
AcDbEntity
  8
SUNPOU
100
AcDbLine
 10
1075.196038152759
 20
3100.427737646473
 30
0.0
 11
1075.196038152759
 21
3272.130760668223
 31
0.0
  0
LINE
  5
2F99
330
17
100
AcDbEntity
  8
HASEN
100
AcDbLine
 10
7311.644624399486
 20
6956.206382115543
 30
0.0
 11
8055.644624399485
 21
6956.206382115543
 31
0.0
  0
LINE
  5
2F9A
330
17
100
AcDbEntity
  8
HASEN
100
AcDbLine
 10
7311.644624399484
 20
6956.206382115543
 30
0.0
 11
6567.644624399485
 21
6956.206382115543
 31
0.0
  0
DIMENSION
  5
2FA5
330
17
100
AcDbEntity
  8
SUNPOU
100
AcDbDimension
  2
*D50
 10
6095.953845758355
 20
2540.805978971454
 30
0.0
 11
6026.953845758354
 21
1760.805978971455
 31
0.0
 70
    32
 71
     5
 42
1560.000000000001
  3
A3-30
100
AcDbAlignedDimension
 13
6561.644624399485
 23
980.8059789714534
 33
0.0
 14
6561.644624399485
 24
2540.805978971454
 34
0.0
 50
90.0
100
AcDbRotatedDimension
  0
ENDSEC
  0
SECTION
  2
OBJECTS
  0
DICTIONARY
  5
C
330
0
100
AcDbDictionary
281
     1
  3
ACAD_COLOR
350
9AA
  3
ACAD_GROUP
350
D
  3
ACAD_LAYOUT
350
7B
  3
ACAD_MATERIAL
350
9A9
  3
ACAD_MLEADERSTYLE
350
2FDF
  3
ACAD_MLINESTYLE
350
1A
  3
ACAD_PLOTSETTINGS
350
7C
  3
ACAD_PLOTSTYLENAME
350
79
  3
ACAD_SCALELIST
350
2FB8
  3
ACAD_TABLESTYLE
350
9AB
  3
ACDB_RECOMPOSE_DATA
350
2FDE
  3
AcDbVariableDictionary
350
946
  0
DICTIONARY
  5
90E
330
17
100
AcDbDictionary
280
     1
281
     1
  3
ACAD_SORTENTS
360
1707
  0
DICTIONARY
  5
9AA
102
{ACAD_REACTORS
330
C
102
}
330
C
100
AcDbDictionary
281
     1
  0
DICTIONARY
  5
D
102
{ACAD_REACTORS
330
C
102
}
330
C
100
AcDbDictionary
281
     1
  0
DICTIONARY
  5
7B
102
{ACAD_REACTORS
330
C
102
}
330
C
100
AcDbDictionary
281
     1
  3
Model
350
7D
  3
ﾚｲｱｳﾄ1
350
7E
  0
DICTIONARY
  5
9A9
102
{ACAD_REACTORS
330
C
102
}
330
C
100
AcDbDictionary
281
     1
  0
DICTIONARY
  5
2FDF
102
{ACAD_REACTORS
330
C
102
}
330
C
100
AcDbDictionary
281
     1
  0
DICTIONARY
  5
1A
102
{ACAD_REACTORS
330
C
102
}
330
C
100
AcDbDictionary
281
     1
  3
STANDARD
350
1B
  0
DICTIONARY
  5
7C
102
{ACAD_REACTORS
330
C
102
}
330
C
100
AcDbDictionary
281
     1
  0
ACDBDICTIONARYWDFLT
  5
79
102
{ACAD_REACTORS
330
C
102
}
330
C
100
AcDbDictionary
281
     1
  3
Normal
350
7A
100
AcDbDictionaryWithDefault
340
7A
  0
DICTIONARY
  5
2FB8
102
{ACAD_REACTORS
330
C
102
}
330
C
100
AcDbDictionary
281
     1
  3
A0
350
2FB9
  3
A1
350
2FBA
  3
A2
350
2FBB
  3
A3
350
2FBC
  3
A4
350
2FBD
  3
A5
350
2FBE
  3
A6
350
2FBF
  3
A7
350
2FC0
  3
A8
350
2FC1
  3
A9
350
2FC2
  3
B0
350
2FC3
  3
B1
350
2FC4
  3
B2
350
2FC5
  3
B3
350
2FC6
  3
B4
350
2FC7
  3
B5
350
2FC8
  3
B6
350
2FC9
  3
B7
350
2FCA
  3
B8
350
2FCB
  3
B9
350
2FCC
  3
C0
350
2FCD
  3
C1
350
2FCE
  3
C2
350
2FCF
  3
C3
350
2FD0
  3
C4
350
2FD1
  3
C5
350
2FD2
  3
C6
350
2FD3
  3
C7
350
2FD4
  3
C8
350
2FD5
  3
C9
350
2FD6
  3
D0
350
2FD7
  3
D1
350
2FD8
  3
D2
350
2FD9
  0
DICTIONARY
  5
9AB
102
{ACAD_REACTORS
330
C
102
}
330
C
100
AcDbDictionary
281
     1
  3
Standard
350
9AC
  0
XRECORD
  5
2FDE
102
{ACAD_REACTORS
330
C
102
}
330
C
100
AcDbXrecord
280
     1
 90
        1
330
9AC
  0
DICTIONARY
  5
946
102
{ACAD_REACTORS
330
C
102
}
330
C
100
AcDbDictionary
281
     1
  3
CANNOSCALE
350
2FDA
  3
CTABLESTYLE
350
CC1
  3
DIMASSOC
350
947
  3
PROJECTNAME
350
CC2
  0
SORTENTSTABLE
  5
1707
102
{ACAD_REACTORS
330
90E
102
}
330
90E
100
AcDbSortentsTable
330
17
331
5F
  5
5F
331
60
  5
60
331
DF0
  5
10F0
331
DF1
  5
10F1
331
DF2
  5
10F2
331
2431
  5
2431
331
2432
  5
2432
331
2433
  5
2433
331
2434
  5
2434
331
2435
  5
2435
331
2436
  5
2436
331
2438
  5
2438
331
243D
  5
243D
331
243E
  5
243E
331
243F
  5
243F
331
2440
  5
2440
331
2441
  5
2441
331
2442
  5
2442
331
244C
  5
244C
331
2457
  5
2457
331
2458
  5
2458
331
2459
  5
2459
331
245B
  5
245B
331
2460
  5
2460
331
247F
  5
247F
331
2480
  5
2480
331
2481
  5
2481
331
2482
  5
2482
331
2483
  5
2483
331
24B1
  5
24B1
331
24B5
  5
24B5
331
24B6
  5
24B6
331
24B7
  5
24B7
331
24B9
  5
25B7
331
25A1
  5
260E
331
25A2
  5
2677
331
25E7
  5
2685
331
2615
  5
268F
331
261C
  5
26B8
331
2635
  5
29F7
331
263D
  5
29F8
331
2694
  5
29FB
331
2695
  5
29FC
331
26AD
  5
2A3A
331
2A0D
  5
26BA
331
2A1E
  5
24BC
331
2A1F
  5
24C2
331
2A20
  5
24C3
331
2A21
  5
24C8
331
2A22
  5
24C9
331
2A23
  5
24CA
331
2A24
  5
24CB
331
2A25
  5
24CC
331
2A26
  5
24CD
331
2A27
  5
2539
331
2A28
  5
253D
331
2A33
  5
2A41
331
2A34
  5
2A42
331
2A35
  5
2A43
331
2A36
  5
2A44
331
2A37
  5
2A45
331
2A38
  5
2A46
331
2A39
  5
2A47
331
2A3A
  5
2A48
331
2A3B
  5
2A49
331
2A3C
  5
2A4A
331
2A3D
  5
2A4B
331
2A3E
  5
2A4C
331
2A3F
  5
2A4D
331
2A40
  5
2A4E
331
2A41
  5
2A4F
331
2A42
  5
2A50
331
2A43
  5
2A51
331
2A44
  5
2A52
331
2A45
  5
2A53
331
2A46
  5
2A54
331
2A48
  5
2A56
331
2A49
  5
2A57
331
2A4A
  5
2A58
331
2A4B
  5
2A59
331
2A4C
  5
2A5A
331
2A4D
  5
29FD
331
2A4E
  5
29FE
331
2A4F
  5
29FF
331
2A50
  5
2A00
331
2A51
  5
2A01
331
2A52
  5
2A39
331
2A53
  5
2A3B
331
2A54
  5
2A3C
331
2A55
  5
2A3D
331
2A56
  5
2A3E
331
2A57
  5
2A3F
331
2A58
  5
2A40
331
2A59
  5
2A66
331
2A5A
  5
2A67
331
2A66
  5
2A68
331
2A67
  5
2A69
331
2A68
  5
2A6A
331
2A69
  5
2A6B
331
2A6A
  5
2A6C
331
2A6B
  5
2A6D
331
2A6C
  5
2A6E
331
2A6D
  5
2A6F
331
2A6E
  5
2B37
331
2A6F
  5
2B38
331
2B37
  5
2B39
331
2B38
  5
2B3A
331
2B39
  5
2B3B
331
2B3A
  5
2B3C
331
2B3B
  5
2BCF
331
2B3C
  5
2BD0
331
2BCF
  5
2BD1
331
2BD0
  5
2BD2
331
2BD1
  5
2BD3
331
2BD2
  5
2BD4
331
2BD3
  5
2BD5
331
2BD4
  5
2BD6
331
2BD5
  5
2BD7
331
2BD6
  5
2BD8
331
2BD7
  5
2BD9
331
2BD8
  5
2C9F
331
2BD9
  5
2CA0
331
2C9F
  5
24BA
331
2CA0
  5
24B9
  0
LAYOUT
  5
7D
102
{ACAD_REACTORS
330
7B
102
}
330
7B
100
AcDbPlotSettings
  1

  2
C:\PROGRAM FILES\MDT6\plotters\RICOH SP9II RPDL.pc3
  4
A3
  6

 40
5.873749732971191
 41
5.873758316040039
 42
4.349761962890625
 43
8.159759521484375
 44
420.1159973144531
 45
296.9259948730469
 46
0.0
 47
0.0
 48
0.0
 49
0.0
140
0.0
141
0.0
142
1.0
143
1.0
 70
 11952
 72
     0
 73
     0
 74
     0
  7
acad.ctb
 75
     0
 76
     0
 77
     2
 78
   300
147
1.0
148
-52067.63847066872
149
1270.867660243985
100
AcDbLayout
  1
Model
 70
     1
 71
     0
 10
0.0
 20
0.0
 11
12.0
 21
9.0
 12
0.0
 22
0.0
 32
0.0
 14
0.0
 24
0.0
 34
0.0
 15
0.0
 25
0.0
 35
0.0
146
0.0
 13
0.0
 23
0.0
 33
0.0
 16
1.0
 26
0.0
 36
0.0
 17
0.0
 27
1.0
 37
0.0
 76
     0
330
17
331
2FB2
  0
LAYOUT
  5
7E
102
{ACAD_REACTORS
330
7B
102
}
330
7B
100
AcDbPlotSettings
  1

  2
C:\PROGRAM FILES\MDT6\plotters\RICOH SP9II RPDL.pc3
  4

  6

 40
0.0
 41
0.0
 42
0.0
 43
0.0
 44
0.0
 45
0.0
 46
0.0
 47
0.0
 48
0.0
 49
0.0
140
0.0
141
0.0
142
1.0
143
1.0
 70
   688
 72
     0
 73
     0
 74
     5
  7
acad.ctb
 75
    16
 76
     0
 77
     2
 78
   300
147
1.0
148
0.0
149
0.0
100
AcDbLayout
  1
ﾚｲｱｳﾄ1
 70
     0
 71
     1
 10
0.0
 20
0.0
 11
12.0
 21
9.0
 12
0.0
 22
0.0
 32
0.0
 14
1.000000000000000E+20
 24
1.000000000000000E+20
 34
1.000000000000000E+20
 15
-1.000000000000000E+20
 25
-1.000000000000000E+20
 35
-1.000000000000000E+20
146
0.0
 13
0.0
 23
0.0
 33
0.0
 16
1.0
 26
0.0
 36
0.0
 17
0.0
 27
1.0
 37
0.0
 76
     0
330
14
  0
MLINESTYLE
  5
1B
102
{ACAD_REACTORS
330
1A
102
}
330
1A
100
AcDbMlineStyle
  2
STANDARD
 70
     0
  3

 62
   256
 51
90.0
 52
90.0
 71
     2
 49
0.5
 62
   256
  6
BYLAYER
 49
-0.5
 62
   256
  6
BYLAYER
  0
ACDBPLACEHOLDER
  5
7A
102
{ACAD_REACTORS
330
79
102
}
330
79
  0
SCALE
  5
2FB9
102
{ACAD_REACTORS
330
2FB8
102
}
330
2FB8
100
AcDbScale
 70
     0
300
1:1
140
1.0
141
1.0
290
     1
  0
SCALE
  5
2FBA
102
{ACAD_REACTORS
330
2FB8
102
}
330
2FB8
100
AcDbScale
 70
     0
300
1:2
140
1.0
141
2.0
290
     0
  0
SCALE
  5
2FBB
102
{ACAD_REACTORS
330
2FB8
102
}
330
2FB8
100
AcDbScale
 70
     0
300
1:4
140
1.0
141
4.0
290
     0
  0
SCALE
  5
2FBC
102
{ACAD_REACTORS
330
2FB8
102
}
330
2FB8
100
AcDbScale
 70
     0
300
1:5
140
1.0
141
5.0
290
     0
  0
SCALE
  5
2FBD
102
{ACAD_REACTORS
330
2FB8
102
}
330
2FB8
100
AcDbScale
 70
     0
300
1:8
140
1.0
141
8.0
290
     0
  0
SCALE
  5
2FBE
102
{ACAD_REACTORS
330
2FB8
102
}
330
2FB8
100
AcDbScale
 70
     0
300
1:10
140
1.0
141
10.0
290
     0
  0
SCALE
  5
2FBF
102
{ACAD_REACTORS
330
2FB8
102
}
330
2FB8
100
AcDbScale
 70
     0
300
1:16
140
1.0
141
16.0
290
     0
  0
SCALE
  5
2FC0
102
{ACAD_REACTORS
330
2FB8
102
}
330
2FB8
100
AcDbScale
 70
     0
300
1:20
140
1.0
141
20.0
290
     0
  0
SCALE
  5
2FC1
102
{ACAD_REACTORS
330
2FB8
102
}
330
2FB8
100
AcDbScale
 70
     0
300
1:30
140
1.0
141
30.0
290
     0
  0
SCALE
  5
2FC2
102
{ACAD_REACTORS
330
2FB8
102
}
330
2FB8
100
AcDbScale
 70
     0
300
1:40
140
1.0
141
40.0
290
     0
  0
SCALE
  5
2FC3
102
{ACAD_REACTORS
330
2FB8
102
}
330
2FB8
100
AcDbScale
 70
     0
300
1:50
140
1.0
141
50.0
290
     0
  0
SCALE
  5
2FC4
102
{ACAD_REACTORS
330
2FB8
102
}
330
2FB8
100
AcDbScale
 70
     0
300
1:100
140
1.0
141
100.0
290
     0
  0
SCALE
  5
2FC5
102
{ACAD_REACTORS
330
2FB8
102
}
330
2FB8
100
AcDbScale
 70
     0
300
2:1
140
2.0
141
1.0
290
     0
  0
SCALE
  5
2FC6
102
{ACAD_REACTORS
330
2FB8
102
}
330
2FB8
100
AcDbScale
 70
     0
300
4:1
140
4.0
141
1.0
290
     0
  0
SCALE
  5
2FC7
102
{ACAD_REACTORS
330
2FB8
102
}
330
2FB8
100
AcDbScale
 70
     0
300
8:1
140
8.0
141
1.0
290
     0
  0
SCALE
  5
2FC8
102
{ACAD_REACTORS
330
2FB8
102
}
330
2FB8
100
AcDbScale
 70
     0
300
10:1
140
10.0
141
1.0
290
     0
  0
SCALE
  5
2FC9
102
{ACAD_REACTORS
330
2FB8
102
}
330
2FB8
100
AcDbScale
 70
     0
300
100:1
140
100.0
141
1.0
290
     0
  0
SCALE
  5
2FCA
102
{ACAD_REACTORS
330
2FB8
102
}
330
2FB8
100
AcDbScale
 70
     0
300
1/128" = 1'-0"
140
0.0078125
141
12.0
290
     0
  0
SCALE
  5
2FCB
102
{ACAD_REACTORS
330
2FB8
102
}
330
2FB8
100
AcDbScale
 70
     0
300
1/64" = 1'-0"
140
0.015625
141
12.0
290
     0
  0
SCALE
  5
2FCC
102
{ACAD_REACTORS
330
2FB8
102
}
330
2FB8
100
AcDbScale
 70
     0
300
1/32" = 1'-0"
140
0.03125
141
12.0
290
     0
  0
SCALE
  5
2FCD
102
{ACAD_REACTORS
330
2FB8
102
}
330
2FB8
100
AcDbScale
 70
     0
300
1/16" = 1'-0"
140
0.0625
141
12.0
290
     0
  0
SCALE
  5
2FCE
102
{ACAD_REACTORS
330
2FB8
102
}
330
2FB8
100
AcDbScale
 70
     0
300
3/32" = 1'-0"
140
0.09375
141
12.0
290
     0
  0
SCALE
  5
2FCF
102
{ACAD_REACTORS
330
2FB8
102
}
330
2FB8
100
AcDbScale
 70
     0
300
1/8" = 1'-0"
140
0.125
141
12.0
290
     0
  0
SCALE
  5
2FD0
102
{ACAD_REACTORS
330
2FB8
102
}
330
2FB8
100
AcDbScale
 70
     0
300
3/16" = 1'-0"
140
0.1875
141
12.0
290
     0
  0
SCALE
  5
2FD1
102
{ACAD_REACTORS
330
2FB8
102
}
330
2FB8
100
AcDbScale
 70
     0
300
1/4" = 1'-0"
140
0.25
141
12.0
290
     0
  0
SCALE
  5
2FD2
102
{ACAD_REACTORS
330
2FB8
102
}
330
2FB8
100
AcDbScale
 70
     0
300
3/8" = 1'-0"
140
0.375
141
12.0
290
     0
  0
SCALE
  5
2FD3
102
{ACAD_REACTORS
330
2FB8
102
}
330
2FB8
100
AcDbScale
 70
     0
300
1/2" = 1'-0"
140
0.5
141
12.0
290
     0
  0
SCALE
  5
2FD4
102
{ACAD_REACTORS
330
2FB8
102
}
330
2FB8
100
AcDbScale
 70
     0
300
3/4" = 1'-0"
140
0.75
141
12.0
290
     0
  0
SCALE
  5
2FD5
102
{ACAD_REACTORS
330
2FB8
102
}
330
2FB8
100
AcDbScale
 70
     0
300
1" = 1'-0"
140
1.0
141
12.0
290
     0
  0
SCALE
  5
2FD6
102
{ACAD_REACTORS
330
2FB8
102
}
330
2FB8
100
AcDbScale
 70
     0
300
1-1/2" = 1'-0"
140
1.5
141
12.0
290
     0
  0
SCALE
  5
2FD7
102
{ACAD_REACTORS
330
2FB8
102
}
330
2FB8
100
AcDbScale
 70
     0
300
3" = 1'-0"
140
3.0
141
12.0
290
     0
  0
SCALE
  5
2FD8
102
{ACAD_REACTORS
330
2FB8
102
}
330
2FB8
100
AcDbScale
 70
     0
300
6" = 1'-0"
140
6.0
141
12.0
290
     0
  0
SCALE
  5
2FD9
102
{ACAD_REACTORS
330
2FB8
102
}
330
2FB8
100
AcDbScale
 70
     0
300
1'-0" = 1'-0"
140
12.0
141
12.0
290
     0
  0
TABLESTYLE
  5
9AC
102
{ACAD_REACTORS
330
9AB
102
}
102
{ACAD_XDICTIONARY
360
2FDB
102
}
330
9AB
100
AcDbTableStyle
  3
Standard
 70
     0
 71
     0
 40
0.06
 41
0.06
280
     0
281
     0
  7
STANDARD
140
0.18
170
     2
 62
     0
 63
   257
283
     0
274
    -2
284
     1
 64
     0
275
    -2
285
     1
 65
     0
276
    -2
286
     1
 66
     0
277
    -2
287
     1
 67
     0
278
    -2
288
     1
 68
     0
279
    -2
289
     1
 69
     0
  7
STANDARD
140
0.25
170
     5
 62
     0
 63
   257
283
     0
274
    -2
284
     1
 64
     0
275
    -2
285
     1
 65
     0
276
    -2
286
     1
 66
     0
277
    -2
287
     1
 67
     0
278
    -2
288
     1
 68
     0
279
    -2
289
     1
 69
     0
  7
STANDARD
140
0.18
170
     5
 62
     0
 63
   257
283
     0
274
    -2
284
     1
 64
     0
275
    -2
285
     1
 65
     0
276
    -2
286
     1
 66
     0
277
    -2
287
     1
 67
     0
278
    -2
288
     1
 68
     0
279
    -2
289
     1
 69
     0
  0
DICTIONARYVAR
  5
2FDA
102
{ACAD_REACTORS
330
946
102
}
330
946
100
DictionaryVariables
280
     0
  1
1:1
  0
DICTIONARYVAR
  5
CC1
102
{ACAD_REACTORS
330
946
102
}
330
946
100
DictionaryVariables
280
     0
  1
Standard
  0
DICTIONARYVAR
  5
947
102
{ACAD_REACTORS
330
946
102
}
330
946
100
DictionaryVariables
280
     0
  1
1
  0
DICTIONARYVAR
  5
CC2
102
{ACAD_REACTORS
330
946
102
}
330
946
100
DictionaryVariables
280
     0
  1

  0
DICTIONARY
  5
2FDB
330
9AC
100
AcDbDictionary
280
     1
281
     1
  3
ACAD_ROUNDTRIP_2008_TABLESTYLE_CELLSTYLEMAP
360
2FDD
  3
ACAD_XREC_ROUNDTRIP
360
2FDC
  0
CELLSTYLEMAP
  5
2FDD
102
{ACAD_REACTORS
330
2FDB
102
}
330
2FDB
100
AcDbCellStyleMap
 90
        3
300
CELLSTYLE
  1
TABLEFORMAT_BEGIN
 90
        5
170
     1
 91
        0
 92
    32768
 62
   257
 93
        1
300
CONTENTFORMAT
  1
CONTENTFORMAT_BEGIN
 90
        0
 91
        0
 92
        4
 93
        0
300

 40
0.0
140
1.0
 94
        5
 62
     0
340
F
144
0.25
309
CONTENTFORMAT_END
171
     1
301
MARGIN
  1
CELLMARGIN_BEGIN
 40
0.06
 40
0.06
 40
0.06
 40
0.06
 40
0.06
 40
0.06
309
CELLMARGIN_END
 94
        6
 95
        1
302
GRIDFORMAT
  1
GRIDFORMAT_BEGIN
 90
        0
 91
        1
 62
     0
 92
       -2
340
0
 93
        0
 40
0.045
309
GRIDFORMAT_END
 95
        2
302
GRIDFORMAT
  1
GRIDFORMAT_BEGIN
 90
        0
 91
        1
 62
     0
 92
       -2
340
0
 93
        0
 40
0.045
309
GRIDFORMAT_END
 95
        4
302
GRIDFORMAT
  1
GRIDFORMAT_BEGIN
 90
        0
 91
        1
 62
     0
 92
       -2
340
0
 93
        0
 40
0.045
309
GRIDFORMAT_END
 95
        8
302
GRIDFORMAT
  1
GRIDFORMAT_BEGIN
 90
        0
 91
        1
 62
     0
 92
       -2
340
0
 93
        0
 40
0.045
309
GRIDFORMAT_END
 95
       16
302
GRIDFORMAT
  1
GRIDFORMAT_BEGIN
 90
        0
 91
        1
 62
     0
 92
       -2
340
0
 93
        0
 40
0.045
309
GRIDFORMAT_END
 95
       32
302
GRIDFORMAT
  1
GRIDFORMAT_BEGIN
 90
        0
 91
        1
 62
     0
 92
       -2
340
0
 93
        0
 40
0.045
309
GRIDFORMAT_END
309
TABLEFORMAT_END
  1
CELLSTYLE_BEGIN
 90
        1
 91
        1
300
_TITLE
309
CELLSTYLE_END
300
CELLSTYLE
  1
TABLEFORMAT_BEGIN
 90
        5
170
     1
 91
        0
 92
        0
 62
   257
 93
        1
300
CONTENTFORMAT
  1
CONTENTFORMAT_BEGIN
 90
        0
 91
        0
 92
        4
 93
        0
300

 40
0.0
140
1.0
 94
        5
 62
     0
340
F
144
0.18
309
CONTENTFORMAT_END
171
     1
301
MARGIN
  1
CELLMARGIN_BEGIN
 40
0.06
 40
0.06
 40
0.06
 40
0.06
 40
0.06
 40
0.06
309
CELLMARGIN_END
 94
        6
 95
        1
302
GRIDFORMAT
  1
GRIDFORMAT_BEGIN
 90
        0
 91
        1
 62
     0
 92
       -2
340
0
 93
        0
 40
0.045
309
GRIDFORMAT_END
 95
        2
302
GRIDFORMAT
  1
GRIDFORMAT_BEGIN
 90
        0
 91
        1
 62
     0
 92
       -2
340
0
 93
        0
 40
0.045
309
GRIDFORMAT_END
 95
        4
302
GRIDFORMAT
  1
GRIDFORMAT_BEGIN
 90
        0
 91
        1
 62
     0
 92
       -2
340
0
 93
        0
 40
0.045
309
GRIDFORMAT_END
 95
        8
302
GRIDFORMAT
  1
GRIDFORMAT_BEGIN
 90
        0
 91
        1
 62
     0
 92
       -2
340
0
 93
        0
 40
0.045
309
GRIDFORMAT_END
 95
       16
302
GRIDFORMAT
  1
GRIDFORMAT_BEGIN
 90
        0
 91
        1
 62
     0
 92
       -2
340
0
 93
        0
 40
0.045
309
GRIDFORMAT_END
 95
       32
302
GRIDFORMAT
  1
GRIDFORMAT_BEGIN
 90
        0
 91
        1
 62
     0
 92
       -2
340
0
 93
        0
 40
0.045
309
GRIDFORMAT_END
309
TABLEFORMAT_END
  1
CELLSTYLE_BEGIN
 90
        2
 91
        1
300
_HEADER
309
CELLSTYLE_END
300
CELLSTYLE
  1
TABLEFORMAT_BEGIN
 90
        5
170
     1
 91
        0
 92
        0
 62
   257
 93
        1
300
CONTENTFORMAT
  1
CONTENTFORMAT_BEGIN
 90
        0
 91
        0
 92
        4
 93
        0
300

 40
0.0
140
1.0
 94
        2
 62
     0
340
F
144
0.18
309
CONTENTFORMAT_END
171
     1
301
MARGIN
  1
CELLMARGIN_BEGIN
 40
0.06
 40
0.06
 40
0.06
 40
0.06
 40
0.06
 40
0.06
309
CELLMARGIN_END
 94
        6
 95
        1
302
GRIDFORMAT
  1
GRIDFORMAT_BEGIN
 90
        0
 91
        1
 62
     0
 92
       -2
340
0
 93
        0
 40
0.045
309
GRIDFORMAT_END
 95
        2
302
GRIDFORMAT
  1
GRIDFORMAT_BEGIN
 90
        0
 91
        1
 62
     0
 92
       -2
340
0
 93
        0
 40
0.045
309
GRIDFORMAT_END
 95
        4
302
GRIDFORMAT
  1
GRIDFORMAT_BEGIN
 90
        0
 91
        1
 62
     0
 92
       -2
340
0
 93
        0
 40
0.045
309
GRIDFORMAT_END
 95
        8
302
GRIDFORMAT
  1
GRIDFORMAT_BEGIN
 90
        0
 91
        1
 62
     0
 92
       -2
340
0
 93
        0
 40
0.045
309
GRIDFORMAT_END
 95
       16
302
GRIDFORMAT
  1
GRIDFORMAT_BEGIN
 90
        0
 91
        1
 62
     0
 92
       -2
340
0
 93
        0
 40
0.045
309
GRIDFORMAT_END
 95
       32
302
GRIDFORMAT
  1
GRIDFORMAT_BEGIN
 90
        0
 91
        1
 62
     0
 92
       -2
340
0
 93
        0
 40
0.045
309
GRIDFORMAT_END
309
TABLEFORMAT_END
  1
CELLSTYLE_BEGIN
 90
        3
 91
        2
300
_DATA
309
CELLSTYLE_END
  0
XRECORD
  5
2FDC
102
{ACAD_REACTORS
330
2FDB
102
}
330
2FDB
100
AcDbXrecord
280
     1
102
ACAD_ROUNDTRIP_PRE2007_TABLESTYLE
 90
        4
 91
        0
  1

 92
        4
 93
        0
  2

 94
        4
 95
        0
  3

  0
ENDSEC
  0
EOF
