  0
SECTION
  2
HEADER
  9
$ACADVER
  1
AC1018
  9
$ACADMAINTVER
 70
     0
  9
$DWGCODEPAGE
  3
ANSI_932
  9
$INSBASE
 10
0.0
 20
0.0
 30
0.0
  9
$EXTMIN
 10
-8526.01567134338
 20
-1808.941775397375
 30
0.0
  9
$EXTMAX
 10
12000.0
 20
8310.0
 30
0.0
  9
$LIMMIN
 10
0.0
 20
0.0
  9
$LIMMAX
 10
12600.0
 20
8910.0
  9
$ORTHOMODE
 70
     1
  9
$REGENMODE
 70
     1
  9
$FILLMODE
 70
     1
  9
$QTEXTMODE
 70
     0
  9
$MIRRTEXT
 70
     0
  9
$LTSCALE
 40
300.0
  9
$ATTMODE
 70
     1
  9
$TEXTSIZE
 40
3.0
  9
$TRACEWID
 40
0.05
  9
$TEXTSTYLE
  7
STANDARD
  9
$CLAYER
  8
SUNPOU
  9
$CELTYPE
  6
BYLAYER
  9
$CECOLOR
 62
   256
  9
$CELTSCALE
 40
1.0
  9
$DISPSILH
 70
     0
  9
$DIMSCALE
 40
30.0
  9
$DIMASZ
 40
2.0
  9
$DIMEXO
 40
2.0
  9
$DIMDLI
 40
7.0
  9
$DIMRND
 40
0.0
  9
$DIMDLE
 40
0.0
  9
$DIMEXE
 40
0.5
  9
$DIMTP
 40
0.0
  9
$DIMTM
 40
0.0
  9
$DIMTXT
 40
3.0
  9
$DIMCEN
 40
0.0
  9
$DIMTSZ
 40
0.0
  9
$DIMTOL
 70
     0
  9
$DIMLIM
 70
     0
  9
$DIMTIH
 70
     0
  9
$DIMTOH
 70
     0
  9
$DIMSE1
 70
     0
  9
$DIMSE2
 70
     0
  9
$DIMTAD
 70
     1
  9
$DIMZIN
 70
     8
  9
$DIMBLK
  1

  9
$DIMASO
 70
     1
  9
$DIMSHO
 70
     1
  9
$DIMPOST
  1

  9
$DIMAPOST
  1

  9
$DIMALT
 70
     0
  9
$DIMALTD
 70
     2
  9
$DIMALTF
 40
25.4
  9
$DIMLFAC
 40
1.0
  9
$DIMTOFL
 70
     0
  9
$DIMTVP
 40
1.0
  9
$DIMTIX
 70
     1
  9
$DIMSOXD
 70
     0
  9
$DIMSAH
 70
     0
  9
$DIMBLK1
  1

  9
$DIMBLK2
  1

  9
$DIMSTYLE
  2
A3-30
  9
$DIMCLRD
 70
     0
  9
$DIMCLRE
 70
     0
  9
$DIMCLRT
 70
     0
  9
$DIMTFAC
 40
1.0
  9
$DIMGAP
 40
0.8
  9
$DIMJUST
 70
     0
  9
$DIMSD1
 70
     0
  9
$DIMSD2
 70
     0
  9
$DIMTOLJ
 70
     1
  9
$DIMTZIN
 70
     8
  9
$DIMALTZ
 70
     8
  9
$DIMALTTZ
 70
     8
  9
$DIMUPT
 70
     0
  9
$DIMDEC
 70
     0
  9
$DIMTDEC
 70
     0
  9
$DIMALTU
 70
     2
  9
$DIMALTTD
 70
     2
  9
$DIMTXSTY
  7
STANDARD
  9
$DIMAUNIT
 70
     0
  9
$DIMADEC
 70
     4
  9
$DIMALTRND
 40
0.0
  9
$DIMAZIN
 70
     0
  9
$DIMDSEP
 70
    46
  9
$DIMATFIT
 70
     3
  9
$DIMFRAC
 70
     0
  9
$DIMLDRBLK
  1

  9
$DIMLUNIT
 70
     2
  9
$DIMLWD
 70
    -2
  9
$DIMLWE
 70
    -2
  9
$DIMTMOVE
 70
     2
  9
$LUNITS
 70
     2
  9
$LUPREC
 70
     4
  9
$SKETCHINC
 40
0.1
  9
$FILLETRAD
 40
0.0
  9
$AUNITS
 70
     0
  9
$AUPREC
 70
     6
  9
$MENU
  1
acad
  9
$ELEVATION
 40
0.0
  9
$PELEVATION
 40
0.0
  9
$THICKNESS
 40
0.0
  9
$LIMCHECK
 70
     0
  9
$CHAMFERA
 40
0.0
  9
$CHAMFERB
 40
0.0
  9
$CHAMFERC
 40
0.0
  9
$CHAMFERD
 40
0.0
  9
$SKPOLY
 70
     0
  9
$TDCREATE
 40
2450014.659421296
  9
$TDUCREATE
 40
2450014.284421296
  9
$TDUPDATE
 40
2455838.383248067
  9
$TDUUPDATE
 40
2455838.008248067
  9
$TDINDWG
 40
0.0948989005
  9
$TDUSRTIMER
 40
0.0948989005
  9
$USRTIMER
 70
     1
  9
$ANGBASE
 50
0.0
  9
$ANGDIR
 70
     0
  9
$PDMODE
 70
     0
  9
$PDSIZE
 40
0.0
  9
$PLINEWID
 40
0.0
  9
$SPLFRAME
 70
     0
  9
$SPLINETYPE
 70
     6
  9
$SPLINESEGS
 70
     8
  9
$HANDSEED
  5
417F
  9
$SURFTAB1
 70
     6
  9
$SURFTAB2
 70
     6
  9
$SURFTYPE
 70
     6
  9
$SURFU
 70
     6
  9
$SURFV
 70
     6
  9
$UCSBASE
  2

  9
$UCSNAME
  2

  9
$UCSORG
 10
0.0
 20
0.0
 30
0.0
  9
$UCSXDIR
 10
1.0
 20
0.0
 30
0.0
  9
$UCSYDIR
 10
0.0
 20
1.0
 30
0.0
  9
$UCSORTHOREF
  2

  9
$UCSORTHOVIEW
 70
     0
  9
$UCSORGTOP
 10
0.0
 20
0.0
 30
0.0
  9
$UCSORGBOTTOM
 10
0.0
 20
0.0
 30
0.0
  9
$UCSORGLEFT
 10
0.0
 20
0.0
 30
0.0
  9
$UCSORGRIGHT
 10
0.0
 20
0.0
 30
0.0
  9
$UCSORGFRONT
 10
0.0
 20
0.0
 30
0.0
  9
$UCSORGBACK
 10
0.0
 20
0.0
 30
0.0
  9
$PUCSBASE
  2

  9
$PUCSNAME
  2

  9
$PUCSORG
 10
0.0
 20
0.0
 30
0.0
  9
$PUCSXDIR
 10
1.0
 20
0.0
 30
0.0
  9
$PUCSYDIR
 10
0.0
 20
1.0
 30
0.0
  9
$PUCSORTHOREF
  2

  9
$PUCSORTHOVIEW
 70
     0
  9
$PUCSORGTOP
 10
0.0
 20
0.0
 30
0.0
  9
$PUCSORGBOTTOM
 10
0.0
 20
0.0
 30
0.0
  9
$PUCSORGLEFT
 10
0.0
 20
0.0
 30
0.0
  9
$PUCSORGRIGHT
 10
0.0
 20
0.0
 30
0.0
  9
$PUCSORGFRONT
 10
0.0
 20
0.0
 30
0.0
  9
$PUCSORGBACK
 10
0.0
 20
0.0
 30
0.0
  9
$USERI1
 70
     0
  9
$USERI2
 70
     0
  9
$USERI3
 70
     0
  9
$USERI4
 70
     0
  9
$USERI5
 70
     0
  9
$USERR1
 40
0.0
  9
$USERR2
 40
0.0
  9
$USERR3
 40
0.0
  9
$USERR4
 40
0.0
  9
$USERR5
 40
0.0
  9
$WORLDVIEW
 70
     1
  9
$SHADEDGE
 70
     3
  9
$SHADEDIF
 70
    70
  9
$TILEMODE
 70
     1
  9
$MAXACTVP
 70
    48
  9
$PINSBASE
 10
0.0
 20
0.0
 30
0.0
  9
$PLIMCHECK
 70
     0
  9
$PEXTMIN
 10
1.000000000000000E+20
 20
1.000000000000000E+20
 30
1.000000000000000E+20
  9
$PEXTMAX
 10
-1.000000000000000E+20
 20
-1.000000000000000E+20
 30
-1.000000000000000E+20
  9
$PLIMMIN
 10
0.0
 20
0.0
  9
$PLIMMAX
 10
12.0
 20
9.0
  9
$UNITMODE
 70
     0
  9
$VISRETAIN
 70
     0
  9
$PLINEGEN
 70
     0
  9
$PSLTSCALE
 70
     0
  9
$TREEDEPTH
 70
  3020
  9
$CMLSTYLE
  2
STANDARD
  9
$CMLJUST
 70
     0
  9
$CMLSCALE
 40
1.0
  9
$PROXYGRAPHICS
 70
     1
  9
$MEASUREMENT
 70
     0
  9
$CELWEIGHT
370
    -1
  9
$ENDCAPS
280
     0
  9
$JOINSTYLE
280
     0
  9
$LWDISPLAY
290
     0
  9
$INSUNITS
 70
     0
  9
$HYPERLINKBASE
  1

  9
$STYLESHEET
  1
acad.ctb
  9
$XEDIT
290
     1
  9
$CEPSNTYPE
380
     0
  9
$PSTYLEMODE
290
     1
  9
$FINGERPRINTGUID
  2
{9E4B692F-34DC-11D6-9351-0080AD72C8A3}
  9
$VERSIONGUID
  2
{FB254BB0-1091-4C50-BDA2-A165790E026F}
  9
$EXTNAMES
290
     1
  9
$PSVPSCALE
 40
0.0
  9
$OLESTARTUP
290
     0
  9
$SORTENTS
280
   127
  9
$INDEXCTL
280
     0
  9
$HIDETEXT
280
     1
  9
$XCLIPFRAME
290
     0
  9
$HALOGAP
280
     0
  9
$OBSCOLOR
 70
   257
  9
$OBSLTYPE
280
     0
  9
$INTERSECTIONDISPLAY
280
     0
  9
$INTERSECTIONCOLOR
 70
   257
  9
$DIMASSOC
280
     1
  9
$PROJECTNAME
  1

  0
ENDSEC
  0
SECTION
  2
CLASSES
  0
CLASS
  1
ACDBDICTIONARYWDFLT
  2
AcDbDictionaryWithDefault
  3
ObjectDBX Classes
 90
        0
 91
        4
280
     0
281
     0
  0
CLASS
  1
ACDBPLACEHOLDER
  2
AcDbPlaceHolder
  3
ObjectDBX Classes
 90
        0
 91
        1
280
     0
281
     0
  0
CLASS
  1
LAYOUT
  2
AcDbLayout
  3
ObjectDBX Classes
 90
        0
 91
        1
280
     0
281
     0
  0
CLASS
  1
DICTIONARYVAR
  2
AcDbDictionaryVar
  3
ObjectDBX Classes
 90
        0
 91
        4
280
     0
281
     0
  0
CLASS
  1
DUMMY
  2
AcDbLongTransaction
  3
DUMMY
 90
        0
 91
        1
280
     0
281
     0
  0
CLASS
  1
LWPOLYLINE
  2
AcDbPolyline
  3
AutoCAD 2000
 90
        0
 91
        1
280
     0
281
     1
  0
CLASS
  1
HATCH
  2
AcDbHatch
  3
AutoCAD 2000
 90
        0
 91
        1
280
     0
281
     1
  0
CLASS
  1
XRECORD
  2
AcDbXrecord
  3
AutoCAD 2000
 90
        0
 91
        1
280
     0
281
     0
  0
CLASS
  1
DUMMY
  2
AcDbLongTransaction
  3
DUMMY
 90
        0
 91
        1
280
     0
281
     0
  0
CLASS
  1
LWPOLYLINE
  2
AcDbPolyline
  3
AutoCAD 2000
 90
        0
 91
        1
280
     0
281
     1
  0
CLASS
  1
HATCH
  2
AcDbHatch
  3
AutoCAD 2000
 90
        0
 91
        1
280
     0
281
     1
  0
CLASS
  1
XRECORD
  2
AcDbXrecord
  3
AutoCAD 2000
 90
        0
 91
        1
280
     0
281
     0
  0
CLASS
  1
DUMMY
  2
AcDbLongTransaction
  3
DUMMY
 90
        0
 91
        1
280
     0
281
     0
  0
CLASS
  1
LWPOLYLINE
  2
AcDbPolyline
  3
AutoCAD 2000
 90
        0
 91
        1
280
     0
281
     1
  0
CLASS
  1
HATCH
  2
AcDbHatch
  3
AutoCAD 2000
 90
        0
 91
        1
280
     0
281
     1
  0
CLASS
  1
XRECORD
  2
AcDbXrecord
  3
AutoCAD 2000
 90
        0
 91
        1
280
     0
281
     0
  0
CLASS
  1
TABLESTYLE
  2
AcDbTableStyle
  3
ObjectDBX Classes
 90
     4095
 91
        4
280
     0
281
     0
  0
CLASS
  1
SORTENTSTABLE
  2
AcDbSortentsTable
  3
ObjectDBX Classes
 90
        0
 91
        4
280
     0
281
     0
  0
CLASS
  1
SCALE
  2
AcDbScale
  3
ObjectDBX Classes
 90
     1153
 91
        4
280
     0
281
     0
  0
CLASS
  1
CELLSTYLEMAP
  2
AcDbCellStyleMap
  3
ObjectDBX Classes
 90
     1152
 91
        4
280
     0
281
     0
  0
ENDSEC
  0
SECTION
  2
TABLES
  0
TABLE
  2
VPORT
  5
8
330
0
100
AcDbSymbolTable
 70
     6
  0
VPORT
  5
4151
330
8
100
AcDbSymbolTableRecord
100
AcDbViewportTableRecord
  2
*Active
 70
     0
 10
0.0
 20
0.0
 11
1.0
 21
1.0
 12
6162.644501001575
 22
4168.396037659801
 13
0.0
 23
0.0
 14
30.0
 24
30.0
 15
300.0
 25
300.0
 16
0.0
 26
0.0
 36
1.0
 17
0.0
 27
0.0
 37
0.0
 40
9698.687059678145
 41
1.507024265644955
 42
50.0
 43
0.0
 44
0.0
 50
0.0
 51
0.0
 71
     0
 72
   100
 73
     1
 74
     1
 75
     0
 76
     0
 77
     0
 78
     0
281
     0
 65
     1
110
0.0
120
0.0
130
0.0
111
1.0
121
0.0
131
0.0
112
0.0
122
1.0
132
0.0
 79
     0
146
0.0
  0
ENDTAB
  0
TABLE
  2
LTYPE
  5
5
330
0
100
AcDbSymbolTable
 70
     6
  0
LTYPE
  5
11
330
5
100
AcDbSymbolTableRecord
100
AcDbLinetypeTableRecord
  2
BYBLOCK
 70
     0
  3

 72
    65
 73
     0
 40
0.0
  0
LTYPE
  5
12
330
5
100
AcDbSymbolTableRecord
100
AcDbLinetypeTableRecord
  2
BYLAYER
 70
     0
  3

 72
    65
 73
     0
 40
0.0
  0
LTYPE
  5
13
330
5
100
AcDbSymbolTableRecord
100
AcDbLinetypeTableRecord
  2
CONTINUOUS
 70
     0
  3
Solid line
 72
    65
 73
     0
 40
0.0
  0
LTYPE
  5
1E
330
5
100
AcDbSymbolTableRecord
100
AcDbLinetypeTableRecord
  2
HIDDEN
 70
     0
  3
_ _ _ _ _ _ _ _ _ _ _ _ _ _ _ _ _ _ _ _ _ _ _
 72
    65
 73
     2
 40
0.375
 49
0.25
 74
     0
 49
-0.125
 74
     0
  0
LTYPE
  5
1F
330
5
100
AcDbSymbolTableRecord
100
AcDbLinetypeTableRecord
  2
CENTER
 70
     0
  3
____ _ ____ _ ____ _ ____ _ ____ _ ____ _ ____
 72
    65
 73
     4
 40
2.0
 49
1.25
 74
     0
 49
-0.25
 74
     0
 49
0.25
 74
     0
 49
-0.25
 74
     0
  0
LTYPE
  5
20
330
5
100
AcDbSymbolTableRecord
100
AcDbLinetypeTableRecord
  2
PHANTOM
 70
     0
  3
_____ _ _ _____ _ _ _____ _ _ _____ _ _ ____
 72
    65
 73
     6
 40
2.5
 49
1.25
 74
     0
 49
-0.25
 74
     0
 49
0.25
 74
     0
 49
-0.25
 74
     0
 49
0.25
 74
     0
 49
-0.25
 74
     0
  0
LTYPE
  5
D6D
330
5
100
AcDbSymbolTableRecord
100
AcDbLinetypeTableRecord
  2
DASHED2
 70
     0
  3
_ _ _ _ _ _ _ _ _ _ _ _ _ _ _ _ _ _ _ _ _ _ _ _
 72
    65
 73
     2
 40
0.375
 49
0.25
 74
     0
 49
-0.125
 74
     0
  0
LTYPE
  5
217B
330
5
100
AcDbSymbolTableRecord
100
AcDbLinetypeTableRecord
  2
CENTER2
 70
     0
  3
___ _ ___ _ ___ _ ___ _ ___ _ ___ _ ___ _ ___ _
 72
    65
 73
     4
 40
1.125
 49
0.75
 74
     0
 49
-0.125
 74
     0
 49
0.125
 74
     0
 49
-0.125
 74
     0
  0
ENDTAB
  0
TABLE
  2
LAYER
  5
2
330
0
100
AcDbSymbolTable
 70
    10
  0
LAYER
  5
E
330
2
100
AcDbSymbolTableRecord
100
AcDbLayerTableRecord
  2
0
 70
     0
 62
     7
  6
CONTINUOUS
370
    -3
390
7A
  0
LAYER
  5
23
330
2
100
AcDbSymbolTableRecord
100
AcDbLayerTableRecord
  2
SUNPOU
 70
     0
 62
     1
  6
CONTINUOUS
370
    -3
390
7A
  0
LAYER
  5
24
330
2
100
AcDbSymbolTableRecord
100
AcDbLayerTableRecord
  2
HAIKIN
 70
     0
 62
     2
  6
CONTINUOUS
370
    -3
390
7A
  0
LAYER
  5
25
330
2
100
AcDbSymbolTableRecord
100
AcDbLayerTableRecord
  2
SEIHIN
 70
     0
 62
     3
  6
CONTINUOUS
370
    -3
390
7A
  0
LAYER
  5
26
330
2
100
AcDbSymbolTableRecord
100
AcDbLayerTableRecord
  2
HASEN
 70
     0
 62
     4
  6
HIDDEN
370
    -3
390
7A
  0
LAYER
  5
27
330
2
100
AcDbSymbolTableRecord
100
AcDbLayerTableRecord
  2
1HASEN
 70
     0
 62
     5
  6
CENTER
370
    -3
390
7A
  0
LAYER
  5
28
330
2
100
AcDbSymbolTableRecord
100
AcDbLayerTableRecord
  2
2HASEN
 70
     0
 62
     6
  6
PHANTOM
370
    -3
390
7A
  0
LAYER
  5
29
330
2
100
AcDbSymbolTableRecord
100
AcDbLayerTableRecord
  2
HOJO
 70
     0
 62
     7
  6
CONTINUOUS
370
    -3
390
7A
  0
LAYER
  5
2A
330
2
100
AcDbSymbolTableRecord
100
AcDbLayerTableRecord
  2
TEN
 70
     0
 62
     7
  6
CONTINUOUS
370
    -3
390
7A
  0
LAYER
  5
70
330
2
100
AcDbSymbolTableRecord
100
AcDbLayerTableRecord
  2
DEFPOINTS
 70
     0
 62
     7
  6
CONTINUOUS
290
     0
370
    -3
390
7A
  0
ENDTAB
  0
TABLE
  2
STYLE
  5
3
330
0
100
AcDbSymbolTable
 70
     1
  0
STYLE
  5
F
330
3
100
AcDbSymbolTableRecord
100
AcDbTextStyleTableRecord
  2
STANDARD
 70
     0
 40
0.0
 41
0.8
 50
0.0
 71
     0
 42
0.2
  3
TXT.shx
  4
BIGFONT.shx
  0
ENDTAB
  0
TABLE
  2
VIEW
  5
6
330
0
100
AcDbSymbolTable
 70
     0
  0
ENDTAB
  0
TABLE
  2
UCS
  5
7
330
0
100
AcDbSymbolTable
 70
     0
  0
ENDTAB
  0
TABLE
  2
APPID
  5
9
330
0
100
AcDbSymbolTable
 70
    12
  0
APPID
  5
10
330
9
100
AcDbSymbolTableRecord
100
AcDbRegAppTableRecord
  2
ACAD
 70
     0
  0
APPID
  5
9B0
330
9
100
AcDbSymbolTableRecord
100
AcDbRegAppTableRecord
  2
ACAD_DSTYLE_DIMTEXT_FILL
 70
     0
  0
APPID
  5
9B1
330
9
100
AcDbSymbolTableRecord
100
AcDbRegAppTableRecord
  2
ACAD_DSTYLE_DIMEXT_LENGTH
 70
     0
  0
APPID
  5
9B2
330
9
100
AcDbSymbolTableRecord
100
AcDbRegAppTableRecord
  2
ACAD_DSTYLE_DIMEXT_ENABLED
 70
     0
  0
APPID
  5
9B3
330
9
100
AcDbSymbolTableRecord
100
AcDbRegAppTableRecord
  2
ACAD_DSTYLE_DIM_LINETYPE
 70
     0
  0
APPID
  5
9B4
330
9
100
AcDbSymbolTableRecord
100
AcDbRegAppTableRecord
  2
ACAD_DSTYLE_DIM_EXT1_LINETYPE
 70
     0
  0
APPID
  5
9B5
330
9
100
AcDbSymbolTableRecord
100
AcDbRegAppTableRecord
  2
ACAD_DSTYLE_DIM_EXT2_LINETYPE
 70
     0
  0
APPID
  5
A71
330
9
100
AcDbSymbolTableRecord
100
AcDbRegAppTableRecord
  2
ACAD_DSTYLE_DIMJOGGED_JOGANGLE_SYMBOL
 70
     0
  0
APPID
  5
C55
330
9
100
AcDbSymbolTableRecord
100
AcDbRegAppTableRecord
  2
ACAD_DSTYLE_DIMARC_LENGTH_SYMBOL
 70
     0
  0
APPID
  5
D6F
330
9
100
AcDbSymbolTableRecord
100
AcDbRegAppTableRecord
  2
ACAD_PSEXT
 70
     0
  0
APPID
  5
D70
330
9
100
AcDbSymbolTableRecord
100
AcDbRegAppTableRecord
  2
AcAecLayerStandard
 70
     0
  0
APPID
  5
1801
330
9
100
AcDbSymbolTableRecord
100
AcDbRegAppTableRecord
  2
ACAD_EXEMPT_FROM_CAD_STANDARDS
 70
     0
  0
ENDTAB
  0
TABLE
  2
DIMSTYLE
  5
A
330
0
100
AcDbSymbolTable
 70
     3
100
AcDbDimStyleTable
  0
DIMSTYLE
105
61
330
A
100
AcDbSymbolTableRecord
100
AcDbDimStyleTableRecord
  2
STANDARD
 70
     0
178
     0
340
F
  0
DIMSTYLE
105
C5A
102
{ACAD_REACTORS
330
3BA0
330
3BA1
330
3BA2
330
3BA3
330
3BA4
330
3BA5
330
3BA6
330
3BA7
330
3C71
330
3C72
330
3C73
330
3C74
330
3C75
330
3C76
330
3D0D
330
3D0E
330
3D0F
330
3D10
330
3D11
330
3D12
330
3DB1
330
3DB2
330
3DB3
330
3E04
330
3E05
330
3E06
330
3E07
330
3E08
330
3E09
330
3E0A
330
3E0B
330
3F05
330
4047
330
4048
330
4049
330
404A
330
404B
330
404C
330
404D
330
40FA
102
}
330
A
100
AcDbSymbolTableRecord
100
AcDbDimStyleTableRecord
  2
A3-30
 70
     0
 40
30.0
 41
2.0
 42
2.0
 43
7.0
 44
0.5
 73
     0
 74
     0
 77
     1
 78
     8
140
3.0
141
0.0
145
1.0
147
0.8
174
     1
178
     0
179
     4
271
     0
272
     0
279
     2
284
     8
285
     8
286
     8
340
F
  0
DIMSTYLE
105
D6E
330
A
100
AcDbSymbolTableRecord
100
AcDbDimStyleTableRecord
  2
A3-25
 70
     0
 40
25.0
 41
1.8
 42
2.0
 43
7.0
 44
0.5
 73
     0
 74
     0
 77
     1
 78
     8
140
2.5
141
0.0
145
1.0
147
0.7
174
     1
178
     0
179
     4
271
     0
272
     0
279
     2
284
     8
285
     8
286
     8
340
F
  0
ENDTAB
  0
TABLE
  2
BLOCK_RECORD
  5
1
330
0
100
AcDbSymbolTable
 70
   279
  0
BLOCK_RECORD
  5
17
102
{ACAD_XDICTIONARY
360
90E
102
}
330
1
100
AcDbSymbolTableRecord
100
AcDbBlockTableRecord
  2
*MODEL_SPACE
340
7D
  0
BLOCK_RECORD
  5
14
330
1
100
AcDbSymbolTableRecord
100
AcDbBlockTableRecord
  2
*PAPER_SPACE
340
7E
  0
BLOCK_RECORD
  5
1C
330
1
100
AcDbSymbolTableRecord
100
AcDbBlockTableRecord
  2
BORDER
340
0
  0
BLOCK_RECORD
  5
1D
330
1
100
AcDbSymbolTableRecord
100
AcDbBlockTableRecord
  2
SA3
340
0
102
{BLKREFS
331
60
102
}
  0
BLOCK_RECORD
  5
82
330
1
100
AcDbSymbolTableRecord
100
AcDbBlockTableRecord
  2
*D2
340
0
  0
BLOCK_RECORD
  5
8E
330
1
100
AcDbSymbolTableRecord
100
AcDbBlockTableRecord
  2
*D3
340
0
  0
BLOCK_RECORD
  5
9C
330
1
100
AcDbSymbolTableRecord
100
AcDbBlockTableRecord
  2
*D4
340
0
  0
BLOCK_RECORD
  5
AA
330
1
100
AcDbSymbolTableRecord
100
AcDbBlockTableRecord
  2
*D5
340
0
  0
BLOCK_RECORD
  5
B6
330
1
100
AcDbSymbolTableRecord
100
AcDbBlockTableRecord
  2
*D6
340
0
  0
BLOCK_RECORD
  5
C3
330
1
100
AcDbSymbolTableRecord
100
AcDbBlockTableRecord
  2
A$C79F54BAC
340
0
  0
BLOCK_RECORD
  5
D61
330
1
100
AcDbSymbolTableRecord
100
AcDbBlockTableRecord
  2
FG
340
0
102
{BLKREFS
331
373F
331
3B90
102
}
  0
BLOCK_RECORD
  5
D68
330
1
100
AcDbSymbolTableRecord
100
AcDbBlockTableRecord
  2
_DOT
340
0
  0
BLOCK_RECORD
  5
DF3
330
1
100
AcDbSymbolTableRecord
100
AcDbBlockTableRecord
  2
FGG
340
0
  0
BLOCK_RECORD
  5
3BAA
330
1
100
AcDbSymbolTableRecord
100
AcDbBlockTableRecord
  2
*D239
340
0
  0
BLOCK_RECORD
  5
3BB6
330
1
100
AcDbSymbolTableRecord
100
AcDbBlockTableRecord
  2
*D240
340
0
  0
BLOCK_RECORD
  5
3BC2
330
1
100
AcDbSymbolTableRecord
100
AcDbBlockTableRecord
  2
*D241
340
0
  0
BLOCK_RECORD
  5
3BCE
330
1
100
AcDbSymbolTableRecord
100
AcDbBlockTableRecord
  2
*D242
340
0
  0
BLOCK_RECORD
  5
3BDB
330
1
100
AcDbSymbolTableRecord
100
AcDbBlockTableRecord
  2
*D243
340
0
  0
BLOCK_RECORD
  5
3BE7
330
1
100
AcDbSymbolTableRecord
100
AcDbBlockTableRecord
  2
*D244
340
0
  0
BLOCK_RECORD
  5
3BF3
330
1
100
AcDbSymbolTableRecord
100
AcDbBlockTableRecord
  2
*D245
340
0
  0
BLOCK_RECORD
  5
3C00
330
1
100
AcDbSymbolTableRecord
100
AcDbBlockTableRecord
  2
*D246
340
0
  0
BLOCK_RECORD
  5
3C79
330
1
100
AcDbSymbolTableRecord
100
AcDbBlockTableRecord
  2
*D247
340
0
  0
BLOCK_RECORD
  5
3C85
330
1
100
AcDbSymbolTableRecord
100
AcDbBlockTableRecord
  2
*D248
340
0
  0
BLOCK_RECORD
  5
3C91
330
1
100
AcDbSymbolTableRecord
100
AcDbBlockTableRecord
  2
*D249
340
0
  0
BLOCK_RECORD
  5
3C9D
330
1
100
AcDbSymbolTableRecord
100
AcDbBlockTableRecord
  2
*D250
340
0
  0
BLOCK_RECORD
  5
3CAA
330
1
100
AcDbSymbolTableRecord
100
AcDbBlockTableRecord
  2
*D251
340
0
  0
BLOCK_RECORD
  5
3CB6
330
1
100
AcDbSymbolTableRecord
100
AcDbBlockTableRecord
  2
*D252
340
0
  0
BLOCK_RECORD
  5
3D20
330
1
100
AcDbSymbolTableRecord
100
AcDbBlockTableRecord
  2
*D253
340
0
  0
BLOCK_RECORD
  5
3D2D
330
1
100
AcDbSymbolTableRecord
100
AcDbBlockTableRecord
  2
*D254
340
0
  0
BLOCK_RECORD
  5
3D39
330
1
100
AcDbSymbolTableRecord
100
AcDbBlockTableRecord
  2
*D255
340
0
  0
BLOCK_RECORD
  5
3D45
330
1
100
AcDbSymbolTableRecord
100
AcDbBlockTableRecord
  2
*D256
340
0
  0
BLOCK_RECORD
  5
3D51
330
1
100
AcDbSymbolTableRecord
100
AcDbBlockTableRecord
  2
*D257
340
0
  0
BLOCK_RECORD
  5
3D5D
330
1
100
AcDbSymbolTableRecord
100
AcDbBlockTableRecord
  2
*D258
340
0
  0
BLOCK_RECORD
  5
3DBA
330
1
100
AcDbSymbolTableRecord
100
AcDbBlockTableRecord
  2
*D259
340
0
  0
BLOCK_RECORD
  5
3DC7
330
1
100
AcDbSymbolTableRecord
100
AcDbBlockTableRecord
  2
*D260
340
0
  0
BLOCK_RECORD
  5
3DD4
330
1
100
AcDbSymbolTableRecord
100
AcDbBlockTableRecord
  2
*D261
340
0
  0
BLOCK_RECORD
  5
3E12
330
1
100
AcDbSymbolTableRecord
100
AcDbBlockTableRecord
  2
*D262
340
0
  0
BLOCK_RECORD
  5
3E1E
330
1
100
AcDbSymbolTableRecord
100
AcDbBlockTableRecord
  2
*D263
340
0
  0
BLOCK_RECORD
  5
3E2A
330
1
100
AcDbSymbolTableRecord
100
AcDbBlockTableRecord
  2
*D264
340
0
  0
BLOCK_RECORD
  5
3E36
330
1
100
AcDbSymbolTableRecord
100
AcDbBlockTableRecord
  2
*D265
340
0
  0
BLOCK_RECORD
  5
3E42
330
1
100
AcDbSymbolTableRecord
100
AcDbBlockTableRecord
  2
*D266
340
0
  0
BLOCK_RECORD
  5
3E4E
330
1
100
AcDbSymbolTableRecord
100
AcDbBlockTableRecord
  2
*D267
340
0
  0
BLOCK_RECORD
  5
3E5B
330
1
100
AcDbSymbolTableRecord
100
AcDbBlockTableRecord
  2
*D268
340
0
  0
BLOCK_RECORD
  5
3E67
330
1
100
AcDbSymbolTableRecord
100
AcDbBlockTableRecord
  2
*D269
340
0
  0
BLOCK_RECORD
  5
3F06
330
1
100
AcDbSymbolTableRecord
100
AcDbBlockTableRecord
  2
*D270
340
0
  0
BLOCK_RECORD
  5
4053
330
1
100
AcDbSymbolTableRecord
100
AcDbBlockTableRecord
  2
*D271
340
0
  0
BLOCK_RECORD
  5
405F
330
1
100
AcDbSymbolTableRecord
100
AcDbBlockTableRecord
  2
*D272
340
0
  0
BLOCK_RECORD
  5
406B
330
1
100
AcDbSymbolTableRecord
100
AcDbBlockTableRecord
  2
*D273
340
0
  0
BLOCK_RECORD
  5
4077
330
1
100
AcDbSymbolTableRecord
100
AcDbBlockTableRecord
  2
*D274
340
0
  0
BLOCK_RECORD
  5
4083
330
1
100
AcDbSymbolTableRecord
100
AcDbBlockTableRecord
  2
*D275
340
0
  0
BLOCK_RECORD
  5
408F
330
1
100
AcDbSymbolTableRecord
100
AcDbBlockTableRecord
  2
*D276
340
0
  0
BLOCK_RECORD
  5
409C
330
1
100
AcDbSymbolTableRecord
100
AcDbBlockTableRecord
  2
*D277
340
0
  0
BLOCK_RECORD
  5
40FB
330
1
100
AcDbSymbolTableRecord
100
AcDbBlockTableRecord
  2
*D278
340
0
  0
ENDTAB
  0
ENDSEC
  0
SECTION
  2
BLOCKS
  0
BLOCK
  5
2D
330
17
100
AcDbEntity
  8
0
100
AcDbBlockBegin
  2
*MODEL_SPACE
 70
     0
 10
0.0
 20
0.0
 30
0.0
  3
*MODEL_SPACE
  1

  0
ENDBLK
  5
2E
330
17
100
AcDbEntity
  8
0
100
AcDbBlockEnd
  0
BLOCK
  5
2B
330
14
100
AcDbEntity
 67
     1
  8
0
100
AcDbBlockBegin
  2
*PAPER_SPACE
 70
     0
 10
0.0
 20
0.0
 30
0.0
  3
*PAPER_SPACE
  1

  0
ENDBLK
  5
2C
330
14
100
AcDbEntity
 67
     1
  8
0
100
AcDbBlockEnd
  0
BLOCK
  5
2F
330
1C
100
AcDbEntity
  8
0
100
AcDbBlockBegin
  2
BORDER
 70
     0
 10
0.0
 20
0.0
 30
0.0
  3
BORDER
  1

  0
LINE
  5
30
330
1C
100
AcDbEntity
  8
0
100
AcDbLine
 10
0.0
 20
0.0
 30
0.0
 11
1.00000000000004
 21
0.0
 31
0.0
  0
LINE
  5
31
330
1C
100
AcDbEntity
  8
0
100
AcDbLine
 10
1.00000000000004
 20
0.0
 30
0.0
 11
1.00000000000004
 21
1.00000000000004
 31
0.0
  0
LINE
  5
32
330
1C
100
AcDbEntity
  8
0
100
AcDbLine
 10
1.00000000000004
 20
1.00000000000004
 30
0.0
 11
0.0
 21
1.00000000000004
 31
0.0
  0
LINE
  5
33
330
1C
100
AcDbEntity
  8
0
100
AcDbLine
 10
0.0
 20
1.00000000000004
 30
0.0
 11
0.0
 21
0.0
 31
0.0
  0
ENDBLK
  5
34
330
1C
100
AcDbEntity
  8
0
100
AcDbBlockEnd
  0
BLOCK
  5
35
330
1D
100
AcDbEntity
  8
HAIKIN
100
AcDbBlockBegin
  2
SA3
 70
     0
 10
0.0
 20
0.0
 30
0.0
  3
SA3
  1

  0
TEXT
  5
36
330
1D
100
AcDbEntity
  8
SUNPOU
100
AcDbText
 10
340.0
 20
0.0
 30
0.0
 40
2.5
  1
新和コンクリート工業株式会社
100
AcDbText
  0
TEXT
  5
39
330
1D
100
AcDbEntity
  8
SUNPOU
100
AcDbText
 10
361.4166666666667
 20
6.25
 30
0.0
 40
2.5
  1
製図
 72
     4
 11
364.0
 21
7.5
 31
0.0
100
AcDbText
  0
TEXT
  5
3A
330
1D
100
AcDbEntity
  8
SUNPOU
100
AcDbText
 10
361.3333333333333
 20
11.25
 30
0.0
 40
2.5
  1
設計
 72
     4
 11
364.0
 21
12.5
 31
0.0
100
AcDbText
  0
TEXT
  5
3B
330
1D
100
AcDbEntity
  8
SUNPOU
100
AcDbText
 10
339.0833333333333
 20
6.250000000000014
 30
0.0
 40
2.5
  1
認
 72
     4
 11
340.25
 21
7.500000000000014
 31
0.0
100
AcDbText
  0
TEXT
  5
3C
330
1D
100
AcDbEntity
  8
SUNPOU
100
AcDbText
 10
339.0833333333333
 20
11.33333333333336
 30
0.0
 40
2.5
  1
承
 72
     4
 11
340.25
 21
12.50000000000003
 31
0.0
100
AcDbText
  0
TEXT
  5
3D
330
1D
100
AcDbEntity
  8
SUNPOU
100
AcDbText
 10
312.75
 20
11.75000000000001
 30
0.0
 40
2.5
  1
図　面　番　号
 72
     4
 11
323.0
 21
13.00000000000001
 31
0.0
100
AcDbText
  0
TEXT
  5
3E
330
1D
100
AcDbEntity
  8
SUNPOU
100
AcDbText
 10
362.0
 20
17.0
 30
0.0
 40
2.5
  1
１／
100
AcDbText
  0
TEXT
  5
3F
330
1D
100
AcDbEntity
  8
SUNPOU
100
AcDbText
 10
347.3333333333333
 20
16.25000000000001
 30
0.0
 40
2.5
  1
縮　　尺
 72
     4
 11
353.0
 21
17.50000000000001
 31
0.0
100
AcDbText
  0
TEXT
  5
40
330
1D
100
AcDbEntity
  8
SUNPOU
100
AcDbText
 10
347.3333333333333
 20
21.25
 30
0.0
 40
2.5
  1
鉄 筋 量
 72
     4
 11
353.0
 21
22.5
 31
0.0
100
AcDbText
  0
TEXT
  5
41
330
1D
100
AcDbEntity
  8
SUNPOU
100
AcDbText
 10
347.3333333333333
 20
26.25
 30
0.0
 40
2.5
  1
製 造 数
 72
     4
 11
353.0
 21
27.5
 31
0.0
100
AcDbText
  0
TEXT
  5
42
330
1D
100
AcDbEntity
  8
SUNPOU
100
AcDbText
 10
377.0
 20
21.0
 30
0.0
 40
2.5
  1
ｋｇ
 72
     2
 11
382.0
 21
21.0
 31
0.0
100
AcDbText
  0
TEXT
  5
43
330
1D
100
AcDbEntity
  8
SUNPOU
100
AcDbText
 10
339.5
 20
21.0
 30
0.0
 40
2.5
  1
ｋｇ
 72
     2
 11
344.5
 21
21.0
 31
0.0
100
AcDbText
  0
TEXT
  5
44
330
1D
100
AcDbEntity
  8
SUNPOU
100
AcDbText
 10
310.0
 20
16.25000000000001
 30
0.0
 40
2.5
  1
年 月 日
 72
     4
 11
315.5
 21
17.50000000000001
 31
0.0
100
AcDbText
  0
TEXT
  5
45
330
1D
100
AcDbEntity
  8
SUNPOU
100
AcDbText
 10
309.8333333333333
 20
21.25
 30
0.0
 40
2.5
  1
製品質量
 72
     4
 11
315.5
 21
22.5
 31
0.0
100
AcDbText
  0
TEXT
  5
46
330
1D
100
AcDbEntity
  8
SUNPOU
100
AcDbText
 10
309.9166666666667
 20
26.25
 30
0.0
 40
2.5
  1
業 者 名
 72
     4
 11
315.5
 21
27.5
 31
0.0
100
AcDbText
  0
TEXT
  5
47
330
1D
100
AcDbEntity
  8
SUNPOU
100
AcDbText
 10
309.8333333333333
 20
32.5
 30
0.0
 40
2.5
  1
名　　称
 72
     4
 11
315.5
 21
33.75
 31
0.0
100
AcDbText
  0
LINE
  5
48
330
1D
100
AcDbEntity
  8
SUNPOU
100
AcDbLine
 10
338.0
 20
11.00000000000001
 30
0.0
 11
308.0
 21
11.00000000000001
 31
0.0
  0
LINE
  5
49
330
1D
100
AcDbEntity
  8
SUNPOU
100
AcDbLine
 10
367.5
 20
4.999999999999986
 30
0.0
 11
367.5
 21
14.99999999999999
 31
0.0
  0
LINE
  5
4A
330
1D
100
AcDbEntity
  8
SUNPOU
100
AcDbLine
 10
360.5
 20
4.999999999999986
 30
0.0
 11
360.5
 21
14.99999999999999
 31
0.0
  0
LINE
  5
4B
330
1D
100
AcDbEntity
  8
SUNPOU
100
AcDbLine
 10
342.5
 20
4.999999999999995
 30
0.0
 11
342.5
 21
15.0
 31
0.0
  0
LINE
  5
4C
330
1D
100
AcDbEntity
  8
SUNPOU
100
AcDbLine
 10
338.0
 20
4.999999999999995
 30
0.0
 11
338.0
 21
15.0
 31
0.0
  0
LINE
  5
4D
330
1D
100
AcDbEntity
  8
SUNPOU
100
AcDbLine
 10
323.0
 20
15.00000000000001
 30
0.0
 11
323.0
 21
37.5
 31
0.0
  0
LINE
  5
4E
330
1D
100
AcDbEntity
  8
SUNPOU
100
AcDbLine
 10
360.5
 20
15.00000000000001
 30
0.0
 11
360.5
 21
30.0
 31
0.0
  0
LINE
  5
4F
330
1D
100
AcDbEntity
  8
SUNPOU
100
AcDbLine
 10
345.5
 20
15.00000000000001
 30
0.0
 11
345.5
 21
30.0
 31
0.0
  0
LINE
  5
50
330
1D
100
AcDbEntity
  8
SUNPOU
100
AcDbLine
 10
383.0
 20
30.0
 30
0.0
 11
308.0
 21
30.0
 31
0.0
  0
LINE
  5
51
330
1D
100
AcDbEntity
  8
SUNPOU
100
AcDbLine
 10
383.0
 20
25.0
 30
0.0
 11
308.0
 21
25.0
 31
0.0
  0
LINE
  5
52
330
1D
100
AcDbEntity
  8
SUNPOU
100
AcDbLine
 10
383.0
 20
20.0
 30
0.0
 11
308.0
 21
20.0
 31
0.0
  0
LINE
  5
53
330
1D
100
AcDbEntity
  8
SUNPOU
100
AcDbLine
 10
383.0
 20
14.99999999999999
 30
0.0
 11
308.0
 21
15.00000000000004
 31
0.0
  0
LINE
  5
54
330
1D
100
AcDbEntity
  8
HAIKIN
100
AcDbLine
 10
308.0
 20
37.5
 30
0.0
 11
383.0
 21
37.5
 31
0.0
  0
LINE
  5
55
330
1D
100
AcDbEntity
  8
HAIKIN
100
AcDbLine
 10
308.0
 20
5.000000000000009
 30
0.0
 11
308.0
 21
37.5
 31
0.0
  0
LINE
  5
56
330
1D
100
AcDbEntity
  8
SUNPOU
100
AcDbLine
 10
0.000000000000016
 20
277.0
 30
0.0
 11
0.000000000000016
 21
272.0
 31
0.0
  0
LINE
  5
57
330
1D
100
AcDbEntity
  8
SUNPOU
100
AcDbLine
 10
25.00000000000001
 20
277.0
 30
0.0
 11
0.000000000000016
 21
277.0
 31
0.0
  0
LINE
  5
58
330
1D
100
AcDbEntity
  8
SUNPOU
100
AcDbLine
 10
25.00000000000001
 20
272.0
 30
0.0
 11
25.00000000000001
 21
277.0
 31
0.0
  0
LINE
  5
59
330
1D
100
AcDbEntity
  8
HAIKIN
100
AcDbLine
 10
0.0000000000000004
 20
5.0
 30
0.0
 11
383.0
 21
5.0
 31
0.0
  0
LINE
  5
5A
330
1D
100
AcDbEntity
  8
HAIKIN
100
AcDbLine
 10
0.0000000000000158
 20
272.0
 30
0.0
 11
383.0
 21
272.0
 31
0.0
  0
LINE
  5
5B
330
1D
100
AcDbEntity
  8
HAIKIN
100
AcDbLine
 10
383.0
 20
272.0
 30
0.0
 11
383.0
 21
5.0
 31
0.0
  0
TEXT
  5
5C
330
1D
100
AcDbEntity
  8
SUNPOU
100
AcDbText
 10
3.700000000000017
 20
273.0
 30
0.0
 40
3.0
  1
Ｈ－２－共
 72
     4
 11
12.50000000000002
 21
274.5
 31
0.0
100
AcDbText
  0
LINE
  5
5D
330
1D
100
AcDbEntity
  8
HAIKIN
100
AcDbLine
 10
0.0000000000000004
 20
5.0
 30
0.0
 11
0.0000000000000158
 21
272.0
 31
0.0
  0
ENDBLK
  5
5E
330
1D
100
AcDbEntity
  8
HAIKIN
100
AcDbBlockEnd
  0
BLOCK
  5
8C
330
82
100
AcDbEntity
  8
0
100
AcDbBlockBegin
  2
*D2
 70
     1
 10
0.0
 20
0.0
 30
0.0
  3
*D2
  1

  0
LINE
  5
83
330
82
100
AcDbEntity
  8
SUNPOU
370
    -2
100
AcDbLine
 10
14459.99999999999
 20
11910.0
 30
0.0
 11
15605.99999999999
 21
11910.0
 31
0.0
  0
LINE
  5
84
330
82
100
AcDbEntity
  8
SUNPOU
370
    -2
100
AcDbLine
 10
14459.99999999999
 20
13710.0
 30
0.0
 11
15605.99999999999
 21
13710.0
 31
0.0
  0
LINE
  5
85
330
82
100
AcDbEntity
  8
SUNPOU
370
    -2
100
AcDbLine
 10
15569.99999999999
 20
12000.0
 30
0.0
 11
15569.99999999999
 21
13620.0
 31
0.0
  0
MTEXT
  5
86
330
82
100
AcDbEntity
  8
SUNPOU
 62
     0
100
AcDbMText
 10
15404.05869794343
 20
12806.25726232369
 30
0.0
 40
180.0
 41
0.0
 71
     5
 72
     1
  1
\A1;15@120=1800
 11
6.123031769111886E-17
 21
1.0
 31
0.0
 73
     1
 44
1.0
  0
SOLID
  5
87
330
82
100
AcDbEntity
  8
SUNPOU
100
AcDbTrace
 10
15554.99999999999
 20
12000.0
 30
0.0
 11
15584.99999999999
 21
12000.0
 31
0.0
 12
15569.99999999999
 22
11910.0
 32
0.0
 13
15569.99999999999
 23
11910.0
 33
0.0
  0
SOLID
  5
88
330
82
100
AcDbEntity
  8
SUNPOU
100
AcDbTrace
 10
15554.99999999999
 20
13620.0
 30
0.0
 11
15584.99999999999
 21
13620.0
 31
0.0
 12
15569.99999999999
 22
13710.0
 32
0.0
 13
15569.99999999999
 23
13710.0
 33
0.0
  0
POINT
  5
89
330
82
100
AcDbEntity
  8
DEFPOINTS
 62
     0
100
AcDbPoint
 10
14369.99999999999
 20
11910.0
 30
0.0
  0
POINT
  5
8A
330
82
100
AcDbEntity
  8
DEFPOINTS
 62
     0
100
AcDbPoint
 10
14369.99999999999
 20
13710.0
 30
0.0
  0
POINT
  5
8B
330
82
100
AcDbEntity
  8
DEFPOINTS
 62
     0
100
AcDbPoint
 10
15569.99999999999
 20
13710.0
 30
0.0
  0
ENDBLK
  5
8D
330
82
100
AcDbEntity
  8
0
100
AcDbBlockEnd
  0
BLOCK
  5
9A
330
8E
100
AcDbEntity
  8
0
100
AcDbBlockBegin
  2
*D3
 70
     1
 10
0.0
 20
0.0
 30
0.0
  3
*D3
  1

  0
LINE
  5
8F
330
8E
100
AcDbEntity
  8
SUNPOU
370
    -2
100
AcDbLine
 10
14333.74999999999
 20
11805.0
 30
0.0
 11
15605.99999999999
 21
11805.0
 31
0.0
  0
LINE
  5
90
330
8E
100
AcDbEntity
  8
SUNPOU
370
    -2
100
AcDbLine
 10
14489.70588235293
 20
11910.0
 30
0.0
 11
15605.99999999999
 21
11910.0
 31
0.0
  0
LINE
  5
91
330
8E
100
AcDbEntity
  8
SUNPOU
370
    -2
100
AcDbLine
 10
15569.99999999999
 20
11715.0
 30
0.0
 11
15569.99999999999
 21
11625.0
 31
0.0
  0
LINE
  5
92
330
8E
100
AcDbEntity
  8
SUNPOU
370
    -2
100
AcDbLine
 10
15569.99999999999
 20
12000.0
 30
0.0
 11
15569.99999999999
 21
12090.0
 31
0.0
  0
MTEXT
  5
93
330
8E
100
AcDbEntity
  8
SUNPOU
 62
     0
100
AcDbMText
 10
15730.33993097525
 20
11906.05735268755
 30
0.0
 40
180.0
 41
0.0
 71
     5
 72
     1
  1
\A1;105
 11
6.123031769111886E-17
 21
1.0
 31
0.0
 73
     1
 44
1.0
  0
LINE
  5
94
330
8E
100
AcDbEntity
  8
SUNPOU
370
    -2
100
AcDbLine
 10
15569.99999999999
 20
11805.0
 30
0.0
 11
15569.99999999999
 21
11910.0
 31
0.0
  0
SOLID
  5
95
330
8E
100
AcDbEntity
  8
SUNPOU
100
AcDbTrace
 10
15554.99999999999
 20
11715.0
 30
0.0
 11
15584.99999999999
 21
11715.0
 31
0.0
 12
15569.99999999999
 22
11805.0
 32
0.0
 13
15569.99999999999
 23
11805.0
 33
0.0
  0
SOLID
  5
96
330
8E
100
AcDbEntity
  8
SUNPOU
100
AcDbTrace
 10
15554.99999999999
 20
12000.0
 30
0.0
 11
15584.99999999999
 21
12000.0
 31
0.0
 12
15569.99999999999
 22
11910.0
 32
0.0
 13
15569.99999999999
 23
11910.0
 33
0.0
  0
POINT
  5
97
330
8E
100
AcDbEntity
  8
DEFPOINTS
 62
     0
100
AcDbPoint
 10
14243.74999999999
 20
11805.0
 30
0.0
  0
POINT
  5
98
330
8E
100
AcDbEntity
  8
DEFPOINTS
 62
     0
100
AcDbPoint
 10
14399.70588235293
 20
11910.0
 30
0.0
  0
POINT
  5
99
330
8E
100
AcDbEntity
  8
DEFPOINTS
 62
     0
100
AcDbPoint
 10
15569.99999999999
 20
11910.0
 30
0.0
  0
ENDBLK
  5
9B
330
8E
100
AcDbEntity
  8
0
100
AcDbBlockEnd
  0
BLOCK
  5
A8
330
9C
100
AcDbEntity
  8
0
100
AcDbBlockBegin
  2
*D4
 70
     1
 10
0.0
 20
0.0
 30
0.0
  3
*D4
  1

  0
LINE
  5
9D
330
9C
100
AcDbEntity
  8
SUNPOU
370
    -2
100
AcDbLine
 10
14459.99999999999
 20
13710.0
 30
0.0
 11
15605.99999999999
 21
13710.0
 31
0.0
  0
LINE
  5
9E
330
9C
100
AcDbEntity
  8
SUNPOU
370
    -2
100
AcDbLine
 10
14459.99999999999
 20
13770.0
 30
0.0
 11
15605.99999999999
 21
13770.0
 31
0.0
  0
LINE
  5
9F
330
9C
100
AcDbEntity
  8
SUNPOU
370
    -2
100
AcDbLine
 10
15569.99999999999
 20
13620.0
 30
0.0
 11
15569.99999999999
 21
13530.0
 31
0.0
  0
LINE
  5
A0
330
9C
100
AcDbEntity
  8
SUNPOU
370
    -2
100
AcDbLine
 10
15569.99999999999
 20
13860.0
 30
0.0
 11
15569.99999999999
 21
13950.0
 31
0.0
  0
MTEXT
  5
A1
330
9C
100
AcDbEntity
  8
SUNPOU
 62
     0
100
AcDbMText
 10
15437.48050855183
 20
13968.0082924672
 30
0.0
 40
180.0
 41
0.0
 71
     5
 72
     1
  1
\A1;60
 11
6.123031769111886E-17
 21
1.0
 31
0.0
 73
     1
 44
1.0
  0
LINE
  5
A2
330
9C
100
AcDbEntity
  8
SUNPOU
370
    -2
100
AcDbLine
 10
15569.99999999999
 20
13710.0
 30
0.0
 11
15569.99999999999
 21
13770.0
 31
0.0
  0
SOLID
  5
A3
330
9C
100
AcDbEntity
  8
SUNPOU
100
AcDbTrace
 10
15554.99999999999
 20
13620.0
 30
0.0
 11
15584.99999999999
 21
13620.0
 31
0.0
 12
15569.99999999999
 22
13710.0
 32
0.0
 13
15569.99999999999
 23
13710.0
 33
0.0
  0
SOLID
  5
A4
330
9C
100
AcDbEntity
  8
SUNPOU
100
AcDbTrace
 10
15554.99999999999
 20
13860.0
 30
0.0
 11
15584.99999999999
 21
13860.0
 31
0.0
 12
15569.99999999999
 22
13770.0
 32
0.0
 13
15569.99999999999
 23
13770.0
 33
0.0
  0
POINT
  5
A5
330
9C
100
AcDbEntity
  8
DEFPOINTS
 62
     0
100
AcDbPoint
 10
14369.99999999999
 20
13710.0
 30
0.0
  0
POINT
  5
A6
330
9C
100
AcDbEntity
  8
DEFPOINTS
 62
     0
100
AcDbPoint
 10
14369.99999999999
 20
13770.0
 30
0.0
  0
POINT
  5
A7
330
9C
100
AcDbEntity
  8
DEFPOINTS
 62
     0
100
AcDbPoint
 10
15569.99999999999
 20
13770.0
 30
0.0
  0
ENDBLK
  5
A9
330
9C
100
AcDbEntity
  8
0
100
AcDbBlockEnd
  0
BLOCK
  5
B4
330
AA
100
AcDbEntity
  8
0
100
AcDbBlockBegin
  2
*D5
 70
     1
 10
0.0
 20
0.0
 30
0.0
  3
*D5
  1

  0
LINE
  5
AB
330
AA
100
AcDbEntity
  8
SUNPOU
370
    -2
100
AcDbLine
 10
14324.99999999999
 20
11770.0
 30
0.0
 11
15905.99999999999
 21
11770.0
 31
0.0
  0
LINE
  5
AC
330
AA
100
AcDbEntity
  8
SUNPOU
370
    -2
100
AcDbLine
 10
14594.99999999999
 20
13770.0
 30
0.0
 11
15905.99999999999
 21
13770.0
 31
0.0
  0
LINE
  5
AD
330
AA
100
AcDbEntity
  8
SUNPOU
370
    -2
100
AcDbLine
 10
15869.99999999999
 20
11860.0
 30
0.0
 11
15869.99999999999
 21
13680.0
 31
0.0
  0
SOLID
  5
AE
330
AA
100
AcDbEntity
  8
SUNPOU
100
AcDbTrace
 10
15854.99999999999
 20
11860.0
 30
0.0
 11
15884.99999999999
 21
11860.0
 31
0.0
 12
15869.99999999999
 22
11770.0
 32
0.0
 13
15869.99999999999
 23
11770.0
 33
0.0
  0
SOLID
  5
AF
330
AA
100
AcDbEntity
  8
SUNPOU
100
AcDbTrace
 10
15854.99999999999
 20
13680.0
 30
0.0
 11
15884.99999999999
 21
13680.0
 31
0.0
 12
15869.99999999999
 22
13770.0
 32
0.0
 13
15869.99999999999
 23
13770.0
 33
0.0
  0
MTEXT
  5
B0
330
AA
100
AcDbEntity
  8
SUNPOU
 62
     0
100
AcDbMText
 10
15731.99999999999
 20
12770.0
 30
0.0
 40
180.0
 41
0.0
 71
     5
 72
     1
  1
\A1;2000
 11
6.123031769111886E-17
 21
1.0
 31
0.0
 73
     1
 44
1.0
  0
POINT
  5
B1
330
AA
100
AcDbEntity
  8
DEFPOINTS
 62
     0
100
AcDbPoint
 10
14234.99999999999
 20
11770.0
 30
0.0
  0
POINT
  5
B2
330
AA
100
AcDbEntity
  8
DEFPOINTS
 62
     0
100
AcDbPoint
 10
14504.99999999999
 20
13770.0
 30
0.0
  0
POINT
  5
B3
330
AA
100
AcDbEntity
  8
DEFPOINTS
 62
     0
100
AcDbPoint
 10
15869.99999999999
 20
13770.0
 30
0.0
  0
ENDBLK
  5
B5
330
AA
100
AcDbEntity
  8
0
100
AcDbBlockEnd
  0
BLOCK
  5
C1
330
B6
100
AcDbEntity
  8
0
100
AcDbBlockBegin
  2
*D6
 70
     1
 10
0.0
 20
0.0
 30
0.0
  3
*D6
  1

  0
LINE
  5
B7
330
B6
100
AcDbEntity
  8
SUNPOU
 62
     0
370
    -2
100
AcDbLine
 10
14388.74999999999
 20
11805.0
 30
0.0
 11
15629.99999999999
 21
11805.0
 31
0.0
  0
LINE
  5
B8
330
B6
100
AcDbEntity
  8
SUNPOU
 62
     0
370
    -2
100
AcDbLine
 10
14379.99999999999
 20
11770.0
 30
0.0
 11
15629.99999999999
 21
11770.0
 31
0.0
  0
LINE
  5
B9
330
B6
100
AcDbEntity
  8
SUNPOU
 62
     0
370
    -2
100
AcDbLine
 10
15569.99999999999
 20
11895.0
 30
0.0
 11
15569.99999999999
 21
11985.0
 31
0.0
  0
LINE
  5
BA
330
B6
100
AcDbEntity
  8
SUNPOU
 62
     0
370
    -2
100
AcDbLine
 10
15569.99999999999
 20
11680.0
 30
0.0
 11
15569.99999999999
 21
11590.0
 31
0.0
  0
MTEXT
  5
BB
330
B6
100
AcDbEntity
  8
SUNPOU
 62
     0
100
AcDbMText
 10
15422.1488453184
 20
11572.59656658611
 30
0.0
 40
180.0
 41
0.0
 71
     5
 72
     1
  1
\A1;35
 11
6.123031769111886E-17
 21
1.0
 31
0.0
 73
     1
 44
1.0
  0
SOLID
  5
BC
330
B6
100
AcDbEntity
  8
SUNPOU
 62
     0
100
AcDbTrace
 10
15554.99999999999
 20
11895.0
 30
0.0
 11
15584.99999999999
 21
11895.0
 31
0.0
 12
15569.99999999999
 22
11805.0
 32
0.0
 13
15569.99999999999
 23
11805.0
 33
0.0
  0
SOLID
  5
BD
330
B6
100
AcDbEntity
  8
SUNPOU
 62
     0
100
AcDbTrace
 10
15554.99999999999
 20
11680.0
 30
0.0
 11
15584.99999999999
 21
11680.0
 31
0.0
 12
15569.99999999999
 22
11770.0
 32
0.0
 13
15569.99999999999
 23
11770.0
 33
0.0
  0
POINT
  5
BE
330
B6
100
AcDbEntity
  8
DEFPOINTS
 62
     0
100
AcDbPoint
 10
14268.74999999999
 20
11805.0
 30
0.0
  0
POINT
  5
BF
330
B6
100
AcDbEntity
  8
DEFPOINTS
 62
     0
100
AcDbPoint
 10
14259.99999999999
 20
11770.0
 30
0.0
  0
POINT
  5
C0
330
B6
100
AcDbEntity
  8
DEFPOINTS
 62
     0
100
AcDbPoint
 10
15569.99999999999
 20
11770.0
 30
0.0
  0
ENDBLK
  5
C2
330
B6
100
AcDbEntity
  8
0
100
AcDbBlockEnd
  0
BLOCK
  5
169
330
C3
100
AcDbEntity
  8
0
100
AcDbBlockBegin
  2
A$C79F54BAC
 70
     0
 10
0.0
 20
0.0
 30
0.0
  3
A$C79F54BAC
  1

  0
DIMENSION
  5
C4
330
C3
100
AcDbEntity
  8
SUNPOU
100
AcDbDimension
  2
*D2
 10
4229.99998564875
 20
2257.403415746125
 30
0.0
 11
4064.058683592186
 21
1353.660678069813
 31
0.0
 12
-11340.00001435124
 22
-11452.59658425388
 32
0.0
 70
   128
  1
15@120=<>
 71
     5
 42
-1.0
  3
STANDARD
100
AcDbAlignedDimension
 13
3029.99998564875
 23
457.4034157461228
 33
0.0
 14
3029.99998564875
 24
2257.403415746125
 34
0.0
 50
90.0
100
AcDbRotatedDimension
1001
ACAD
1000
DSTYLE
1002
{
1070
   287
1070
     5
1070
   287
1070
     5
1070
   287
1070
     5
1070
   287
1070
     5
1070
   287
1070
     5
1070
   287
1070
     5
1070
   287
1070
     5
1070
   287
1070
     5
1070
    40
1040
60.0
1070
    41
1040
1.5
1070
    42
1040
1.5
1070
    43
1040
7.0
1070
    44
1040
0.6
1070
    73
1070
     0
1070
    74
1070
     0
1070
    77
1070
     1
1070
    78
1070
     8
1070
   140
1040
3.0
1070
   141
1040
0.0
1070
   145
1040
1.0
1070
   147
1040
0.8
1070
   172
1070
     1
1070
   176
1070
   256
1070
   177
1070
   256
1070
   271
1070
     0
1070
   275
1070
     1
1070
   279
1070
     2
1070
   284
1070
     8
1070
   285
1070
     8
1070
   286
1070
     8
1002
}
  0
DIMENSION
  5
C5
330
C3
100
AcDbEntity
  8
SUNPOU
100
AcDbDimension
  2
*D3
 10
4229.99998564875
 20
457.4034157461228
 30
0.0
 11
4390.339916624003
 21
453.4607684336734
 31
0.0
 12
-11340.00001435124
 22
-11452.59658425388
 32
0.0
 70
   128
 71
     5
 42
-1.0
  3
STANDARD
100
AcDbAlignedDimension
 13
2903.74998564875
 23
352.4034157461247
 33
0.0
 14
3059.705868001689
 24
457.4034157461228
 34
0.0
 50
90.0
100
AcDbRotatedDimension
1001
ACAD
1000
DSTYLE
1002
{
1070
   287
1070
     5
1070
   287
1070
     5
1070
   287
1070
     5
1070
   287
1070
     5
1070
   287
1070
     5
1070
   287
1070
     5
1070
   287
1070
     5
1070
   287
1070
     5
1070
    40
1040
60.0
1070
    41
1040
1.5
1070
    42
1040
1.5
1070
    43
1040
7.0
1070
    44
1040
0.6
1070
    73
1070
     0
1070
    74
1070
     0
1070
    77
1070
     1
1070
    78
1070
     8
1070
   140
1040
3.0
1070
   141
1040
0.0
1070
   145
1040
1.0
1070
   147
1040
0.8
1070
   172
1070
     1
1070
   176
1070
   256
1070
   177
1070
   256
1070
   271
1070
     0
1070
   275
1070
     1
1070
   279
1070
     2
1070
   284
1070
     8
1070
   285
1070
     8
1070
   286
1070
     8
1002
}
  0
DIMENSION
  5
C6
330
C3
100
AcDbEntity
  8
SUNPOU
100
AcDbDimension
  2
*D4
 10
4229.99998564875
 20
2317.403415746121
 30
0.0
 11
4097.480494200581
 21
2515.411708213323
 31
0.0
 12
-11340.00001435124
 22
-11452.59658425388
 32
0.0
 70
   128
 71
     5
 42
-1.0
  3
STANDARD
100
AcDbAlignedDimension
 13
3029.99998564875
 23
2257.403415746125
 33
0.0
 14
3029.99998564875
 24
2317.403415746121
 34
0.0
 50
90.0
100
AcDbRotatedDimension
1001
ACAD
1000
DSTYLE
1002
{
1070
   287
1070
     5
1070
   287
1070
     5
1070
   287
1070
     5
1070
   287
1070
     5
1070
   287
1070
     5
1070
   287
1070
     5
1070
   287
1070
     5
1070
   287
1070
     5
1070
    40
1040
60.0
1070
    41
1040
1.5
1070
    42
1040
1.5
1070
    43
1040
7.0
1070
    44
1040
0.6
1070
    73
1070
     0
1070
    74
1070
     0
1070
    77
1070
     1
1070
    78
1070
     8
1070
   140
1040
3.0
1070
   141
1040
0.0
1070
   145
1040
1.0
1070
   147
1040
0.8
1070
   172
1070
     1
1070
   176
1070
   256
1070
   177
1070
   256
1070
   271
1070
     0
1070
   275
1070
     1
1070
   279
1070
     2
1070
   284
1070
     8
1070
   285
1070
     8
1070
   286
1070
     8
1002
}
  0
DIMENSION
  5
C7
330
C3
100
AcDbEntity
  8
SUNPOU
100
AcDbDimension
  2
*D5
 10
4529.99998564875
 20
2317.403415746123
 30
0.0
 11
4391.999985648747
 21
1317.403415746123
 31
0.0
 12
-11340.00001435124
 22
-11452.59658425388
 32
0.0
 71
     5
 42
-1.0
  3
STANDARD
100
AcDbAlignedDimension
 13
2894.99998564875
 23
317.403415746121
 33
0.0
 14
3164.99998564875
 24
2317.403415746123
 34
0.0
 50
90.0
100
AcDbRotatedDimension
1001
ACAD
1000
DSTYLE
1002
{
1070
   287
1070
     5
1070
   287
1070
     5
1070
   287
1070
     5
1070
   287
1070
     5
1070
   287
1070
     5
1070
   287
1070
     5
1070
   287
1070
     5
1070
   287
1070
     5
1070
    40
1040
60.0
1070
    41
1040
1.5
1070
    42
1040
1.5
1070
    43
1040
7.0
1070
    44
1040
0.6
1070
    73
1070
     0
1070
    74
1070
     0
1070
    77
1070
     1
1070
    78
1070
     8
1070
   140
1040
3.0
1070
   141
1040
0.0
1070
   145
1040
1.0
1070
   147
1040
0.8
1070
   172
1070
     1
1070
   176
1070
   256
1070
   177
1070
   256
1070
   271
1070
     0
1070
   275
1070
     1
1070
   279
1070
     2
1070
   284
1070
     8
1070
   285
1070
     8
1070
   286
1070
     8
1002
}
  0
DIMENSION
  5
C8
330
C3
100
AcDbEntity
  8
SUNPOU
100
AcDbDimension
  2
*D6
 10
4229.99998564875
 20
317.403415746121
 30
0.0
 11
4082.14883096716
 21
119.9999823322287
 31
0.0
 12
-11340.00001435124
 22
-11452.59658425388
 32
0.0
 70
   128
 71
     5
 42
-1.0
  3
STANDARD
100
AcDbAlignedDimension
 13
2928.74998564875
 23
352.4034157461247
 33
0.0
 14
2919.99998564875
 24
317.403415746121
 34
0.0
 50
90.0
100
AcDbRotatedDimension
1001
ACAD
1000
DSTYLE
1002
{
1070
   287
1070
     5
1070
   287
1070
     5
1070
   287
1070
     5
1070
   287
1070
     5
1070
   287
1070
     5
1070
   287
1070
     5
1070
   287
1070
     5
1070
   287
1070
     5
1070
    40
1040
60.0
1070
    41
1040
1.5
1070
    42
1040
2.0
1070
    43
1040
3.75
1070
    44
1040
1.0
1070
    73
1070
     0
1070
    74
1070
     0
1070
    77
1070
     1
1070
    78
1070
     8
1070
   140
1040
3.0
1070
   141
1040
2.5
1070
   143
1040
0.0394
1070
   147
1040
1.0
1070
   171
1070
     4
1070
   271
1070
     0
1070
   273
1070
     8
1070
   274
1070
     4
1070
   279
1070
     2
1002
}
  0
LINE
  5
C9
330
C3
100
AcDbEntity
  8
SUNPOU
100
AcDbLine
 10
1679.999985648763
 20
3227.403415746123
 30
0.0
 11
899.9999856487611
 21
3227.403415746123
 31
0.0
1001
ACAD
1000
DSTYLE
1002
{
1070
    78
1070
     8
1070
   284
1070
     8
1070
   140
1040
3.0
1070
   145
1040
1.0
1070
    74
1070
     0
1070
   172
1070
     1
1070
    73
1070
     0
1070
    77
1070
     1
1070
    40
1040
60.0
1070
   147
1040
0.8
1070
   287
1070
     5
1070
    42
1040
1.5
1070
    44
1040
0.6
1070
    43
1040
7.0
1070
   271
1070
     0
1070
   177
1070
   256
1070
   176
1070
   256
1070
   141
1040
0.0
1070
   275
1070
     1
1070
    41
1040
1.5
1070
   285
1070
     8
1070
   286
1070
     8
1002
}
  0
SOLID
  5
CA
330
C3
100
AcDbEntity
  8
SUNPOU
100
AcDbTrace
 10
1216.999985648774
 20
1372.403415746125
 30
0.0
 11
1306.999985648774
 21
1357.403415746123
 31
0.0
 12
1216.999985648774
 22
1342.403415746125
 32
0.0
 13
1216.999985648774
 23
1342.403415746125
 33
0.0
1001
ACAD
1000
DSTYLE
1002
{
1070
    78
1070
     8
1070
   284
1070
     8
1070
   140
1040
3.0
1070
   145
1040
1.0
1070
    74
1070
     0
1070
   172
1070
     1
1070
    73
1070
     0
1070
    77
1070
     1
1070
    40
1040
60.0
1070
   147
1040
0.8
1070
   287
1070
     5
1070
    42
1040
1.5
1070
    44
1040
0.6
1070
    43
1040
7.0
1070
   271
1070
     0
1070
   177
1070
   256
1070
   176
1070
   256
1070
   141
1040
0.0
1070
   275
1070
     1
1070
    41
1040
1.5
1070
   285
1070
     8
1070
   286
1070
     8
1002
}
  0
LINE
  5
CB
330
C3
100
AcDbEntity
  8
SUNPOU
100
AcDbLine
 10
329.9999856487375
 20
1357.403415746123
 30
0.0
 11
1426.999985648756
 21
1357.403415746126
 31
0.0
1001
ACAD
1000
DSTYLE
1002
{
1070
    78
1070
     8
1070
   284
1070
     8
1070
   140
1040
3.0
1070
   145
1040
1.0
1070
    74
1070
     0
1070
   172
1070
     1
1070
    73
1070
     0
1070
    77
1070
     1
1070
    40
1040
60.0
1070
   147
1040
0.8
1070
   287
1070
     5
1070
    42
1040
1.5
1070
    44
1040
0.6
1070
    43
1040
7.0
1070
   271
1070
     0
1070
   177
1070
   256
1070
   176
1070
   256
1070
   141
1040
0.0
1070
   275
1070
     1
1070
    41
1040
1.5
1070
   285
1070
     8
1070
   286
1070
     8
1002
}
  0
LINE
  5
CC
330
C3
100
AcDbEntity
  8
HAIKIN
100
AcDbLine
 10
1979.999985648756
 20
2052.403415746123
 30
0.0
 11
964.9999856487557
 21
2052.403415746117
 31
0.0
  0
LINE
  5
CD
330
C3
100
AcDbEntity
  8
HAIKIN
100
AcDbLine
 10
1979.999985648765
 20
1992.403415746121
 30
0.0
 11
964.9999856487557
 21
1992.403415746117
 31
0.0
  0
LINE
  5
CE
330
C3
100
AcDbEntity
  8
HAIKIN
100
AcDbLine
 10
1979.999985648765
 20
1932.403415746121
 30
0.0
 11
964.9999856487557
 21
1932.403415746117
 31
0.0
  0
LINE
  5
CF
330
C3
100
AcDbEntity
  8
HAIKIN
100
AcDbLine
 10
1979.999985648765
 20
847.4034157461283
 30
0.0
 11
964.9999856487557
 21
847.4034157461247
 31
0.0
  0
LINE
  5
D0
330
C3
100
AcDbEntity
  8
HAIKIN
100
AcDbLine
 10
1979.999985648765
 20
787.4034157461283
 30
0.0
 11
964.9999856487557
 21
787.4034157461247
 31
0.0
  0
LINE
  5
D1
330
C3
100
AcDbEntity
  8
HAIKIN
100
AcDbLine
 10
1979.999985648758
 20
727.4034157461283
 30
0.0
 11
964.9999856487557
 21
727.4034157461247
 31
0.0
  0
LINE
  5
D2
330
C3
100
AcDbEntity
  8
SUNPOU
100
AcDbLine
 10
964.9999856487557
 20
1897.403415746125
 30
0.0
 11
1486.999985648752
 21
1897.403415746121
 31
0.0
  0
LINE
  5
D3
330
C3
100
AcDbEntity
  8
SUNPOU
100
AcDbLine
 10
964.9999856487557
 20
1657.403415746125
 30
0.0
 11
1486.999985648752
 21
1657.403415746121
 31
0.0
  0
LINE
  5
D4
330
C3
100
AcDbEntity
  8
SUNPOU
100
AcDbLine
 10
964.9999856487557
 20
1777.403415746125
 30
0.0
 11
1486.999985648752
 21
1777.403415746123
 31
0.0
  0
LINE
  5
D5
330
C3
100
AcDbEntity
  8
SUNPOU
100
AcDbLine
 10
964.9999856487557
 20
457.4034157461247
 30
0.0
 11
1979.999985648759
 21
457.403415746121
 31
0.0
  0
LINE
  5
D6
330
C3
100
AcDbEntity
  8
SUNPOU
100
AcDbLine
 10
964.9999856487557
 20
817.4034157461247
 30
0.0
 11
1979.999985648759
 21
817.403415746121
 31
0.0
  0
LINE
  5
D7
330
C3
100
AcDbEntity
  8
SUNPOU
100
AcDbLine
 10
964.9999856487557
 20
697.4034157461247
 30
0.0
 11
1979.999985648759
 21
697.403415746121
 31
0.0
  0
LINE
  5
D8
330
C3
100
AcDbEntity
  8
SUNPOU
100
AcDbLine
 10
964.9999856487557
 20
577.4034157461247
 30
0.0
 11
1979.999985648759
 21
577.403415746121
 31
0.0
  0
LINE
  5
D9
330
C3
100
AcDbEntity
  8
SUNPOU
100
AcDbLine
 10
964.9999856487557
 20
937.4034157461247
 30
0.0
 11
1486.999985648752
 21
937.403415746121
 31
0.0
  0
LINE
  5
DA
330
C3
100
AcDbEntity
  8
SUNPOU
100
AcDbLine
 10
964.9999856487557
 20
1057.403415746125
 30
0.0
 11
1486.999985648752
 21
1057.403415746119
 31
0.0
  0
LINE
  5
DB
330
C3
100
AcDbEntity
  8
SUNPOU
100
AcDbLine
 10
964.9999856487557
 20
1177.403415746125
 30
0.0
 11
1486.999985648752
 21
1177.403415746117
 31
0.0
  0
LINE
  5
DC
330
C3
100
AcDbEntity
  8
SUNPOU
100
AcDbLine
 10
964.9999856487557
 20
1297.403415746125
 30
0.0
 11
1486.999985648752
 21
1297.403415746121
 31
0.0
  0
LINE
  5
DD
330
C3
100
AcDbEntity
  8
SUNPOU
100
AcDbLine
 10
964.9999856487557
 20
1417.403415746125
 30
0.0
 11
1486.999985648752
 21
1417.403415746119
 31
0.0
  0
LINE
  5
DE
330
C3
100
AcDbEntity
  8
SUNPOU
100
AcDbLine
 10
964.9999856487557
 20
1537.403415746125
 30
0.0
 11
1486.999985648752
 21
1537.403415746121
 31
0.0
  0
LINE
  5
DF
330
C3
100
AcDbEntity
  8
SUNPOU
100
AcDbLine
 10
964.9999856487557
 20
2017.403415746125
 30
0.0
 11
1979.999985648759
 21
2017.403415746121
 31
0.0
  0
LINE
  5
E0
330
C3
100
AcDbEntity
  8
SUNPOU
100
AcDbLine
 10
964.9999856487557
 20
2137.403415746125
 30
0.0
 11
1979.999985648759
 21
2137.403415746121
 31
0.0
  0
LINE
  5
E1
330
C3
100
AcDbEntity
  8
SUNPOU
100
AcDbLine
 10
964.9999856487557
 20
2257.403415746125
 30
0.0
 11
1979.999985648759
 21
2257.403415746121
 31
0.0
  0
LINE
  5
E2
330
C3
100
AcDbEntity
  8
SUNPOU
100
AcDbLine
 10
964.9999856487557
 20
2362.403415746125
 30
0.0
 11
1979.999985648759
 21
2362.403415746121
 31
0.0
  0
TEXT
  5
E3
330
C3
100
AcDbEntity
  8
HAIKIN
 62
     3
100
AcDbText
 10
1009.999985648752
 20
4617.403415746125
 30
0.0
 40
240.0
  1
頂　版
 72
     1
 11
1409.999985648752
 21
4617.403415746125
 31
0.0
100
AcDbText
  0
TEXT
  5
E4
330
C3
100
AcDbEntity
  8
SUNPOU
100
AcDbText
 10
1019.999985648756
 20
4105.403415746121
 30
0.0
 40
210.0
  1
外　側
 11
1019.999985648756
 21
4077.403415746121
 31
0.0
100
AcDbText
 73
     1
  0
LINE
  5
E5
330
C3
100
AcDbEntity
  8
SUNPOU
100
AcDbLine
 10
1019.999985648752
 20
317.4034157461247
 30
0.0
 11
1979.999985648759
 21
317.403415746121
 31
0.0
  0
LINE
  5
E6
330
C3
100
AcDbEntity
  8
SUNPOU
100
AcDbLine
 10
929.999985648752
 20
397.403415746121
 30
0.0
 11
1979.999985648759
 21
397.403415746121
 31
0.0
  0
LINE
  5
E7
330
C3
100
AcDbEntity
  8
SUNPOU
100
AcDbLine
 10
929.999985648752
 20
2397.403415746123
 30
0.0
 11
1979.999985648759
 21
2397.403415746121
 31
0.0
  0
LINE
  5
E8
330
C3
100
AcDbEntity
  8
SUNPOU
100
AcDbLine
 10
1019.999985648756
 20
4077.403415746121
 30
0.0
 11
2939.999985648754
 21
4077.403415746121
 31
0.0
  0
LINE
  5
E9
330
C3
100
AcDbEntity
  8
HAIKIN
 62
     3
100
AcDbLine
 10
1889.999985648752
 20
4887.403415746125
 30
0.0
 11
929.999985648752
 21
4887.403415746125
 31
0.0
  0
LINE
  5
EA
330
C3
100
AcDbEntity
  8
HAIKIN
 62
     3
100
AcDbLine
 10
1889.999985648752
 20
4587.403415746125
 30
0.0
 11
929.999985648752
 21
4587.403415746125
 31
0.0
  0
TEXT
  5
EB
330
C3
100
AcDbEntity
  8
SUNPOU
100
AcDbText
 10
762.4999856487557
 20
2907.403415746125
 30
0.0
 40
150.0
  1
D13
 41
0.8
 11
762.4999856487557
 21
2982.403415746125
 31
0.0
100
AcDbText
 73
     2
  0
TEXT
  5
EC
330
C3
100
AcDbEntity
  8
SUNPOU
100
AcDbText
 10
457.4999856487557
 20
2907.403415746125
 30
0.0
 40
150.0
  1
H1
 41
0.8
 72
     4
 11
537.4999856487557
 21
2982.403415746125
 31
0.0
100
AcDbText
  0
CIRCLE
  5
ED
330
C3
100
AcDbEntity
  8
SUNPOU
100
AcDbCircle
 10
537.4999856487557
 20
2982.403415746125
 30
0.0
 40
165.0
  0
TEXT
  5
EE
330
C3
100
AcDbEntity
  8
SUNPOU
100
AcDbText
 10
239.9999856487393
 20
1437.403415746128
 30
0.0
 40
150.0
  1
H2
 50
90.0
 41
0.8
 72
     4
 11
164.9999856487393
 21
1537.403415746128
 31
0.0
100
AcDbText
  0
LINE
  5
EF
330
C3
100
AcDbEntity
  8
SUNPOU
100
AcDbLine
 10
1137.499985648754
 20
727.4034157461247
 30
0.0
 11
1137.499985648756
 21
2817.403415746125
 31
0.0
1001
ACAD
1000
DSTYLE
1002
{
1070
    78
1070
     8
1070
   284
1070
     8
1070
   140
1040
3.0
1070
   145
1040
1.0
1070
    74
1070
     0
1070
   172
1070
     1
1070
    73
1070
     0
1070
    77
1070
     1
1070
    40
1040
60.0
1070
   147
1040
0.8
1070
   287
1070
     5
1070
    42
1040
1.5
1070
    44
1040
0.6
1070
    43
1040
7.0
1070
   271
1070
     0
1070
   177
1070
   256
1070
   176
1070
   256
1070
   141
1040
0.0
1070
   275
1070
     1
1070
    41
1040
1.5
1070
   285
1070
     8
1070
   286
1070
     8
1002
}
  0
LINE
  5
F0
330
C3
100
AcDbEntity
  8
SUNPOU
100
AcDbLine
 10
1044.999985648752
 20
2362.403415746125
 30
0.0
 11
1044.999985648756
 21
457.4034157461265
 31
0.0
  0
LINE
  5
F1
330
C3
100
AcDbEntity
  8
SUNPOU
100
AcDbLine
 10
1229.999985648759
 20
2362.403415746123
 30
0.0
 11
1229.999985648763
 21
457.4034157461228
 31
0.0
  0
LINE
  5
F2
330
C3
100
AcDbEntity
  8
SUNPOU
100
AcDbLine
 10
329.9999856487393
 20
2137.403415746126
 30
0.0
 11
329.9999856487393
 21
1357.403415746128
 31
0.0
1001
ACAD
1000
DSTYLE
1002
{
1070
    78
1070
     8
1070
   284
1070
     8
1070
   140
1040
3.0
1070
   145
1040
1.0
1070
    74
1070
     0
1070
   172
1070
     1
1070
    73
1070
     0
1070
    77
1070
     1
1070
    40
1040
60.0
1070
   147
1040
0.8
1070
   287
1070
     5
1070
    42
1040
1.5
1070
    44
1040
0.6
1070
    43
1040
7.0
1070
   271
1070
     0
1070
   177
1070
   256
1070
   176
1070
   256
1070
   141
1040
0.0
1070
   275
1070
     1
1070
    41
1040
1.5
1070
   285
1070
     8
1070
   286
1070
     8
1002
}
  0
CIRCLE
  5
F3
330
C3
100
AcDbEntity
  8
SUNPOU
100
AcDbCircle
 10
164.9999856487393
 20
1537.403415746128
 30
0.0
 40
165.0
  0
LINE
  5
F4
330
C3
100
AcDbEntity
  8
SUNPOU
100
AcDbLine
 10
929.999985648752
 20
2397.403415746126
 30
0.0
 11
929.999985648752
 21
397.4034157461247
 31
0.0
  0
LINE
  5
F5
330
C3
100
AcDbEntity
  8
SUNPOU
100
AcDbLine
 10
999.999985648752
 20
397.4034157461247
 30
0.0
 11
1019.999985648752
 21
317.4034157461301
 31
0.0
  0
SOLID
  5
F6
330
C3
100
AcDbEntity
  8
SUNPOU
100
AcDbTrace
 10
1152.499985648758
 20
937.4034157461138
 30
0.0
 11
1137.499985648758
 21
847.4034157461138
 31
0.0
 12
1122.499985648756
 22
937.4034157461138
 32
0.0
 13
1122.499985648756
 23
937.4034157461138
 33
0.0
1001
ACAD
1000
DSTYLE
1002
{
1070
    78
1070
     8
1070
   284
1070
     8
1070
   140
1040
3.0
1070
   145
1040
1.0
1070
    74
1070
     0
1070
   172
1070
     1
1070
    73
1070
     0
1070
    77
1070
     1
1070
    40
1040
60.0
1070
   147
1040
0.8
1070
   287
1070
     5
1070
    42
1040
1.5
1070
    44
1040
0.6
1070
    43
1040
7.0
1070
   271
1070
     0
1070
   177
1070
   256
1070
   176
1070
   256
1070
   141
1040
0.0
1070
   275
1070
     1
1070
    41
1040
1.5
1070
   285
1070
     8
1070
   286
1070
     8
1002
}
  0
SOLID
  5
F7
330
C3
100
AcDbEntity
  8
SUNPOU
100
AcDbTrace
 10
1152.499985648758
 20
817.4034157461356
 30
0.0
 11
1137.499985648758
 21
727.4034157461356
 31
0.0
 12
1122.499985648756
 22
817.4034157461356
 32
0.0
 13
1122.499985648756
 23
817.4034157461356
 33
0.0
1001
ACAD
1000
DSTYLE
1002
{
1070
    78
1070
     8
1070
   284
1070
     8
1070
   140
1040
3.0
1070
   145
1040
1.0
1070
    74
1070
     0
1070
   172
1070
     1
1070
    73
1070
     0
1070
    77
1070
     1
1070
    40
1040
60.0
1070
   147
1040
0.8
1070
   287
1070
     5
1070
    42
1040
1.5
1070
    44
1040
0.6
1070
    43
1040
7.0
1070
   271
1070
     0
1070
   177
1070
   256
1070
   176
1070
   256
1070
   141
1040
0.0
1070
   275
1070
     1
1070
    41
1040
1.5
1070
   285
1070
     8
1070
   286
1070
     8
1002
}
  0
SOLID
  5
F8
330
C3
100
AcDbEntity
  8
SUNPOU
100
AcDbTrace
 10
1152.499985648754
 20
877.4034157461301
 30
0.0
 11
1137.499985648754
 21
787.4034157461301
 31
0.0
 12
1122.499985648752
 22
877.4034157461301
 32
0.0
 13
1122.499985648752
 23
877.4034157461301
 33
0.0
1001
ACAD
1000
DSTYLE
1002
{
1070
    78
1070
     8
1070
   284
1070
     8
1070
   140
1040
3.0
1070
   145
1040
1.0
1070
    74
1070
     0
1070
   172
1070
     1
1070
    73
1070
     0
1070
    77
1070
     1
1070
    40
1040
60.0
1070
   147
1040
0.8
1070
   287
1070
     5
1070
    42
1040
1.5
1070
    44
1040
0.6
1070
    43
1040
7.0
1070
   271
1070
     0
1070
   177
1070
   256
1070
   176
1070
   256
1070
   141
1040
0.0
1070
   275
1070
     1
1070
    41
1040
1.5
1070
   285
1070
     8
1070
   286
1070
     8
1002
}
  0
TEXT
  5
F9
330
C3
100
AcDbEntity
  8
SUNPOU
100
AcDbText
 10
239.9999856487393
 20
1762.40341574613
 30
0.0
 40
150.0
  1
D13
 50
90.0
 41
0.8
 11
164.9999856487393
 21
1762.40341574613
 31
0.0
100
AcDbText
 73
     2
  0
SOLID
  5
FA
330
C3
100
AcDbEntity
  8
SUNPOU
100
AcDbTrace
 10
1152.499985648756
 20
2022.403415746117
 30
0.0
 11
1137.499985648756
 21
1932.403415746117
 31
0.0
 12
1122.499985648756
 22
2022.403415746117
 32
0.0
 13
1122.499985648756
 23
2022.403415746117
 33
0.0
1001
ACAD
1000
DSTYLE
1002
{
1070
    78
1070
     8
1070
   284
1070
     8
1070
   140
1040
3.0
1070
   145
1040
1.0
1070
    74
1070
     0
1070
   172
1070
     1
1070
    73
1070
     0
1070
    77
1070
     1
1070
    40
1040
60.0
1070
   147
1040
0.8
1070
   287
1070
     5
1070
    42
1040
1.5
1070
    44
1040
0.6
1070
    43
1040
7.0
1070
   271
1070
     0
1070
   177
1070
   256
1070
   176
1070
   256
1070
   141
1040
0.0
1070
   275
1070
     1
1070
    41
1040
1.5
1070
   285
1070
     8
1070
   286
1070
     8
1002
}
  0
SOLID
  5
FB
330
C3
100
AcDbEntity
  8
SUNPOU
100
AcDbTrace
 10
1152.499985648756
 20
2082.403415746117
 30
0.0
 11
1137.499985648756
 21
1992.403415746117
 31
0.0
 12
1122.499985648756
 22
2082.403415746117
 32
0.0
 13
1122.499985648756
 23
2082.403415746117
 33
0.0
1001
ACAD
1000
DSTYLE
1002
{
1070
    78
1070
     8
1070
   284
1070
     8
1070
   140
1040
3.0
1070
   145
1040
1.0
1070
    74
1070
     0
1070
   172
1070
     1
1070
    73
1070
     0
1070
    77
1070
     1
1070
    40
1040
60.0
1070
   147
1040
0.8
1070
   287
1070
     5
1070
    42
1040
1.5
1070
    44
1040
0.6
1070
    43
1040
7.0
1070
   271
1070
     0
1070
   177
1070
   256
1070
   176
1070
   256
1070
   141
1040
0.0
1070
   275
1070
     1
1070
    41
1040
1.5
1070
   285
1070
     8
1070
   286
1070
     8
1002
}
  0
SOLID
  5
FC
330
C3
100
AcDbEntity
  8
SUNPOU
100
AcDbTrace
 10
1152.499985648756
 20
2142.403415746119
 30
0.0
 11
1137.499985648756
 21
2052.403415746119
 31
0.0
 12
1122.499985648756
 22
2142.403415746119
 32
0.0
 13
1122.499985648756
 23
2142.403415746119
 33
0.0
1001
ACAD
1000
DSTYLE
1002
{
1070
    78
1070
     8
1070
   284
1070
     8
1070
   140
1040
3.0
1070
   145
1040
1.0
1070
    74
1070
     0
1070
   172
1070
     1
1070
    73
1070
     0
1070
    77
1070
     1
1070
    40
1040
60.0
1070
   147
1040
0.8
1070
   287
1070
     5
1070
    42
1040
1.5
1070
    44
1040
0.6
1070
    43
1040
7.0
1070
   271
1070
     0
1070
   177
1070
   256
1070
   176
1070
   256
1070
   141
1040
0.0
1070
   275
1070
     1
1070
    41
1040
1.5
1070
   285
1070
     8
1070
   286
1070
     8
1002
}
  0
LINE
  5
FD
330
C3
100
AcDbEntity
  8
SUNPOU
100
AcDbLine
 10
1137.499985648756
 20
2817.403415746125
 30
0.0
 11
357.4999856487557
 21
2817.403415746125
 31
0.0
1001
ACAD
1000
DSTYLE
1002
{
1070
    78
1070
     8
1070
   284
1070
     8
1070
   140
1040
3.0
1070
   145
1040
1.0
1070
    74
1070
     0
1070
   172
1070
     1
1070
    73
1070
     0
1070
    77
1070
     1
1070
    40
1040
60.0
1070
   147
1040
0.8
1070
   287
1070
     5
1070
    42
1040
1.5
1070
    44
1040
0.6
1070
    43
1040
7.0
1070
   271
1070
     0
1070
   177
1070
   256
1070
   176
1070
   256
1070
   141
1040
0.0
1070
   275
1070
     1
1070
    41
1040
1.5
1070
   285
1070
     8
1070
   286
1070
     8
1002
}
  0
TEXT
  5
FE
330
C3
100
AcDbEntity
  8
SUNPOU
100
AcDbText
 10
979.9999856487611
 20
3317.403415746123
 30
0.0
 40
150.0
  1
H3
 41
0.8
 72
     4
 11
1079.999985648761
 21
3392.403415746123
 31
0.0
100
AcDbText
  0
CIRCLE
  5
FF
330
C3
100
AcDbEntity
  8
SUNPOU
100
AcDbCircle
 10
1079.999985648761
 20
3392.403415746123
 30
0.0
 40
165.0
  0
LINE
  5
100
330
C3
100
AcDbEntity
  8
HAIKIN
 62
     3
100
AcDbLine
 10
929.999985648752
 20
4587.403415746125
 30
0.0
 11
929.999985648752
 21
4887.403415746125
 31
0.0
  0
TEXT
  5
101
330
C3
100
AcDbEntity
  8
SUNPOU
100
AcDbText
 10
3194.999985648759
 20
2907.403415746125
 30
0.0
 40
150.0
  1
D13
 41
0.8
 11
3194.999985648759
 21
2982.403415746125
 31
0.0
100
AcDbText
 73
     2
  0
TEXT
  5
102
330
C3
100
AcDbEntity
  8
SUNPOU
100
AcDbText
 10
2889.999985648759
 20
2907.403415746125
 30
0.0
 40
150.0
  1
H1
 41
0.8
 72
     4
 11
2969.999985648759
 21
2982.403415746125
 31
0.0
100
AcDbText
  0
LINE
  5
103
330
C3
100
AcDbEntity
  8
SUNPOU
100
AcDbLine
 10
1679.999985648761
 20
1890.403415746132
 30
0.0
 11
1679.999985648763
 21
3227.403415746123
 31
0.0
1001
ACAD
1000
DSTYLE
1002
{
1070
    78
1070
     8
1070
   284
1070
     8
1070
   140
1040
3.0
1070
   145
1040
1.0
1070
    74
1070
     0
1070
   172
1070
     1
1070
    73
1070
     0
1070
    77
1070
     1
1070
    40
1040
60.0
1070
   147
1040
0.8
1070
   287
1070
     5
1070
    42
1040
1.5
1070
    44
1040
0.6
1070
    43
1040
7.0
1070
   271
1070
     0
1070
   177
1070
   256
1070
   176
1070
   256
1070
   141
1040
0.0
1070
   275
1070
     1
1070
    41
1040
1.5
1070
   285
1070
     8
1070
   286
1070
     8
1002
}
  0
LINE
  5
104
330
C3
100
AcDbEntity
  8
SUNPOU
100
AcDbLine
 10
2279.999985648761
 20
1827.403415746126
 30
0.0
 11
2279.999985648759
 21
3227.403415746123
 31
0.0
1001
ACAD
1000
DSTYLE
1002
{
1070
    78
1070
     8
1070
   284
1070
     8
1070
   140
1040
3.0
1070
   145
1040
1.0
1070
    74
1070
     0
1070
   172
1070
     1
1070
    73
1070
     0
1070
    77
1070
     1
1070
    40
1040
60.0
1070
   147
1040
0.8
1070
   287
1070
     5
1070
    42
1040
1.5
1070
    44
1040
0.6
1070
    43
1040
7.0
1070
   271
1070
     0
1070
   177
1070
   256
1070
   176
1070
   256
1070
   141
1040
0.0
1070
   275
1070
     1
1070
    41
1040
1.5
1070
   285
1070
     8
1070
   286
1070
     8
1002
}
  0
CIRCLE
  5
105
330
C3
100
AcDbEntity
  8
SUNPOU
100
AcDbCircle
 10
2969.999985648759
 20
2982.403415746125
 30
0.0
 40
165.0
  0
LINE
  5
106
330
C3
100
AcDbEntity
  8
1HASEN
100
AcDbLine
 10
1979.999985648754
 20
4077.403415746121
 30
0.0
 11
1979.999985648759
 21
17.40341574611921
 31
0.0
  0
TEXT
  5
107
330
C3
100
AcDbEntity
  8
SUNPOU
100
AcDbText
 10
3359.999985648745
 20
1762.403415746126
 30
0.0
 40
150.0
  1
D13
 50
90.0
 41
0.8
 11
3284.999985648745
 21
1762.403415746126
 31
0.0
100
AcDbText
 73
     2
  0
TEXT
  5
108
330
C3
100
AcDbEntity
  8
SUNPOU
100
AcDbText
 10
3359.999985648745
 20
1437.403415746125
 30
0.0
 40
150.0
  1
H2
 50
90.0
 41
0.8
 72
     4
 11
3284.999985648745
 21
1537.403415746125
 31
0.0
100
AcDbText
  0
LINE
  5
109
330
C3
100
AcDbEntity
  8
SUNPOU
100
AcDbLine
 10
2789.999985648759
 20
2817.403415746125
 30
0.0
 11
3569.999985648759
 21
2817.403415746125
 31
0.0
1001
ACAD
1000
DSTYLE
1002
{
1070
    78
1070
     8
1070
   284
1070
     8
1070
   140
1040
3.0
1070
   145
1040
1.0
1070
    74
1070
     0
1070
   172
1070
     1
1070
    73
1070
     0
1070
    77
1070
     1
1070
    40
1040
60.0
1070
   147
1040
0.8
1070
   287
1070
     5
1070
    42
1040
1.5
1070
    44
1040
0.6
1070
    43
1040
7.0
1070
   271
1070
     0
1070
   177
1070
   256
1070
   176
1070
   256
1070
   141
1040
0.0
1070
   275
1070
     1
1070
    41
1040
1.5
1070
   285
1070
     8
1070
   286
1070
     8
1002
}
  0
LINE
  5
10A
330
C3
100
AcDbEntity
  8
SUNPOU
100
AcDbLine
 10
2429.999985648759
 20
1357.403415746125
 30
0.0
 11
3449.999985648745
 21
1357.403415746123
 31
0.0
1001
ACAD
1000
DSTYLE
1002
{
1070
    78
1070
     8
1070
   284
1070
     8
1070
   140
1040
3.0
1070
   145
1040
1.0
1070
    74
1070
     0
1070
   172
1070
     1
1070
    73
1070
     0
1070
    77
1070
     1
1070
    40
1040
60.0
1070
   147
1040
0.8
1070
   287
1070
     5
1070
    42
1040
1.5
1070
    44
1040
0.6
1070
    43
1040
7.0
1070
   271
1070
     0
1070
   177
1070
   256
1070
   176
1070
   256
1070
   141
1040
0.0
1070
   275
1070
     1
1070
    41
1040
1.5
1070
   285
1070
     8
1070
   286
1070
     8
1002
}
  0
CIRCLE
  5
10B
330
C3
100
AcDbEntity
  8
SUNPOU
100
AcDbCircle
 10
3284.999985648745
 20
1537.403415746125
 30
0.0
 40
165.0
  0
LINE
  5
10C
330
C3
100
AcDbEntity
  8
HAIKIN
100
AcDbLine
 10
1486.99998564875
 20
939.4034157461192
 30
0.0
 11
1486.99998564875
 21
1855.403415746132
 31
0.0
  0
LINE
  5
10D
330
C3
100
AcDbEntity
  8
HAIKIN
100
AcDbLine
 10
2409.999985648758
 20
1792.403415746126
 30
0.0
 11
2409.999985648759
 21
1002.403415746126
 31
0.0
  0
LINE
  5
10E
330
C3
100
AcDbEntity
  8
SUNPOU
100
AcDbLine
 10
2789.999985648759
 20
787.4034157461319
 30
0.0
 11
2789.999985648759
 21
2817.403415746125
 31
0.0
1001
ACAD
1000
DSTYLE
1002
{
1070
    78
1070
     8
1070
   284
1070
     8
1070
   140
1040
3.0
1070
   145
1040
1.0
1070
    74
1070
     0
1070
   172
1070
     1
1070
    73
1070
     0
1070
    77
1070
     1
1070
    40
1040
60.0
1070
   147
1040
0.8
1070
   287
1070
     5
1070
    42
1040
1.5
1070
    44
1040
0.6
1070
    43
1040
7.0
1070
   271
1070
     0
1070
   177
1070
   256
1070
   176
1070
   256
1070
   141
1040
0.0
1070
   275
1070
     1
1070
    41
1040
1.5
1070
   285
1070
     8
1070
   286
1070
     8
1002
}
  0
LINE
  5
10F
330
C3
100
AcDbEntity
  8
HAIKIN
100
AcDbLine
 10
2469.999985648758
 20
352.4034157461247
 30
0.0
 11
2469.999985648758
 21
2257.403415746121
 31
0.0
  0
LINE
  5
110
330
C3
100
AcDbEntity
  8
HAIKIN
100
AcDbLine
 10
2529.999985648759
 20
352.4034157461247
 30
0.0
 11
2529.999985648759
 21
2257.403415746121
 31
0.0
  0
LINE
  5
111
330
C3
100
AcDbEntity
  8
HAIKIN
100
AcDbLine
 10
2589.999985648761
 20
352.4034157461247
 30
0.0
 11
2589.999985648758
 21
2257.403415746121
 31
0.0
  0
LINE
  5
112
330
C3
100
AcDbEntity
  8
HAIKIN
100
AcDbLine
 10
1426.999985648754
 20
457.4034157461228
 30
0.0
 11
1426.999985648752
 21
2362.403415746123
 31
0.0
  0
LINE
  5
113
330
C3
100
AcDbEntity
  8
HAIKIN
100
AcDbLine
 10
1366.999985648756
 20
457.4034157461228
 30
0.0
 11
1366.999985648748
 21
2362.403415746123
 31
0.0
  0
LINE
  5
114
330
C3
100
AcDbEntity
  8
HAIKIN
100
AcDbLine
 10
1306.999985648754
 20
457.4034157461228
 30
0.0
 11
1306.999985648748
 21
2362.403415746123
 31
0.0
  0
LINE
  5
115
330
C3
100
AcDbEntity
  8
SUNPOU
100
AcDbLine
 10
2914.99998564875
 20
2257.403415746121
 30
0.0
 11
2914.99998564875
 21
352.4034157461265
 31
0.0
  0
LINE
  5
116
330
C3
100
AcDbEntity
  8
SUNPOU
100
AcDbLine
 10
2729.999985648759
 20
2257.403415746121
 30
0.0
 11
2729.999985648759
 21
352.4034157461228
 31
0.0
  0
LINE
  5
117
330
C3
100
AcDbEntity
  8
SUNPOU
100
AcDbLine
 10
2429.999985648759
 20
2257.403415746121
 30
0.0
 11
2429.999985648758
 21
352.403415746121
 31
0.0
  0
LINE
  5
118
330
C3
100
AcDbEntity
  8
SUNPOU
100
AcDbLine
 10
2379.999985648758
 20
1797.403415746126
 30
0.0
 11
2379.999985648758
 21
997.4034157461265
 31
0.0
  0
LINE
  5
119
330
C3
100
AcDbEntity
  8
SUNPOU
100
AcDbLine
 10
3029.99998564875
 20
2397.403415746121
 30
0.0
 11
3029.99998564875
 21
397.403415746121
 31
0.0
  0
LINE
  5
11A
330
C3
100
AcDbEntity
  8
SUNPOU
100
AcDbLine
 10
1516.999985648752
 20
934.403415746121
 30
0.0
 11
1516.999985648752
 21
1860.403415746126
 31
0.0
  0
LINE
  5
11B
330
C3
100
AcDbEntity
  8
SUNPOU
100
AcDbLine
 10
1579.999985648756
 20
1797.403415746126
 30
0.0
 11
1579.999985648758
 21
997.4034157461265
 31
0.0
  0
LINE
  5
11C
330
C3
100
AcDbEntity
  8
HAIKIN
100
AcDbLine
 10
2374.999985648759
 20
967.4034157461265
 30
0.0
 11
1979.999985648752
 21
967.4034157461265
 31
0.0
  0
LINE
  5
11D
330
C3
100
AcDbEntity
  8
HAIKIN
100
AcDbLine
 10
2994.999985648774
 20
787.4034157461319
 30
0.0
 11
1979.999985648759
 21
787.4034157461283
 31
0.0
  0
LINE
  5
11E
330
C3
100
AcDbEntity
  8
HAIKIN
100
AcDbLine
 10
2994.999985648774
 20
847.4034157461319
 30
0.0
 11
1979.999985648758
 21
847.4034157461283
 31
0.0
  0
LINE
  5
11F
330
C3
100
AcDbEntity
  8
HAIKIN
100
AcDbLine
 10
2994.999985648774
 20
907.4034157461319
 30
0.0
 11
1979.999985648759
 21
907.4034157461283
 31
0.0
  0
LINE
  5
120
330
C3
100
AcDbEntity
  8
SUNPOU
100
AcDbLine
 10
2914.99998564875
 20
352.4034157461265
 30
0.0
 11
1979.999985648759
 21
352.403415746121
 31
0.0
  0
LINE
  5
121
330
C3
100
AcDbEntity
  8
SUNPOU
100
AcDbLine
 10
2994.999985648774
 20
457.4034157461247
 30
0.0
 11
1979.999985648759
 21
457.403415746121
 31
0.0
  0
LINE
  5
122
330
C3
100
AcDbEntity
  8
SUNPOU
100
AcDbLine
 10
2994.999985648774
 20
937.4034157461247
 30
0.0
 11
1979.999985648759
 21
937.403415746121
 31
0.0
  0
LINE
  5
123
330
C3
100
AcDbEntity
  8
SUNPOU
100
AcDbLine
 10
2994.999985648774
 20
817.4034157461247
 30
0.0
 11
1979.999985648759
 21
817.403415746121
 31
0.0
  0
LINE
  5
124
330
C3
100
AcDbEntity
  8
SUNPOU
100
AcDbLine
 10
2994.999985648774
 20
697.4034157461247
 30
0.0
 11
1979.999985648759
 21
697.403415746121
 31
0.0
  0
LINE
  5
125
330
C3
100
AcDbEntity
  8
SUNPOU
100
AcDbLine
 10
2994.999985648774
 20
577.4034157461247
 30
0.0
 11
1979.999985648759
 21
577.403415746121
 31
0.0
  0
LINE
  5
126
330
C3
100
AcDbEntity
  8
SUNPOU
100
AcDbLine
 10
2939.99998564875
 20
317.4034157461247
 30
0.0
 11
1963.628976814191
 21
317.403415746121
 31
0.0
  0
LINE
  5
127
330
C3
100
AcDbEntity
  8
1HASEN
100
AcDbLine
 10
1379.999985648756
 20
1397.403415746126
 30
0.0
 11
2579.999985648758
 21
1397.403415746126
 31
0.0
  0
LINE
  5
128
330
C3
100
AcDbEntity
  8
SUNPOU
100
AcDbLine
 10
2379.999985648758
 20
997.4034157461265
 30
0.0
 11
1579.999985648758
 21
997.4034157461265
 31
0.0
  0
ARC
  5
129
330
C3
100
AcDbEntity
  8
HAIKIN
100
AcDbCircle
 10
1521.99998564875
 20
939.4034157461192
 30
0.0
 40
35.0
100
AcDbArc
 50
180.0
 51
270.0
  0
LINE
  5
12A
330
C3
100
AcDbEntity
  8
SUNPOU
100
AcDbLine
 10
2129.999985648758
 20
967.4034157461283
 30
0.0
 11
2129.999985648759
 21
352.4034157461192
 31
0.0
  0
LINE
  5
12B
330
C3
100
AcDbEntity
  8
HAIKIN
100
AcDbLine
 10
1521.99998564875
 20
904.4034157461192
 30
0.0
 11
1979.999985648758
 21
904.4034157461228
 31
0.0
  0
LINE
  5
12C
330
C3
100
AcDbEntity
  8
SUNPOU
100
AcDbLine
 10
1516.999985648752
 20
934.403415746121
 30
0.0
 11
1979.999985648758
 21
934.4034157461228
 31
0.0
  0
LINE
  5
12D
330
C3
100
AcDbEntity
  8
SUNPOU
100
AcDbLine
 10
1529.999985648765
 20
904.403415746121
 30
0.0
 11
1529.999985648767
 21
457.4034157461247
 31
0.0
  0
LINE
  5
12E
330
C3
100
AcDbEntity
  8
SUNPOU
100
AcDbLine
 10
1829.999985648759
 20
904.4034157461228
 30
0.0
 11
1829.999985648759
 21
457.4034157461192
 31
0.0
  0
SOLID
  5
12F
330
C3
100
AcDbEntity
  8
SUNPOU
100
AcDbTrace
 10
1276.999985648759
 20
1372.403415746128
 30
0.0
 11
1366.999985648759
 21
1357.403415746128
 31
0.0
 12
1276.999985648759
 22
1342.403415746128
 32
0.0
 13
1276.999985648759
 23
1342.403415746128
 33
0.0
1001
ACAD
1000
DSTYLE
1002
{
1070
    78
1070
     8
1070
   284
1070
     8
1070
   140
1040
3.0
1070
   145
1040
1.0
1070
    74
1070
     0
1070
   172
1070
     1
1070
    73
1070
     0
1070
    77
1070
     1
1070
    40
1040
60.0
1070
   147
1040
0.8
1070
   287
1070
     5
1070
    42
1040
1.5
1070
    44
1040
0.6
1070
    43
1040
7.0
1070
   271
1070
     0
1070
   177
1070
   256
1070
   176
1070
   256
1070
   141
1040
0.0
1070
   275
1070
     1
1070
    41
1040
1.5
1070
   285
1070
     8
1070
   286
1070
     8
1002
}
  0
SOLID
  5
130
330
C3
100
AcDbEntity
  8
SUNPOU
100
AcDbTrace
 10
1336.99998564877
 20
1372.403415746125
 30
0.0
 11
1426.99998564877
 21
1357.403415746123
 31
0.0
 12
1336.99998564877
 22
1342.403415746125
 32
0.0
 13
1336.99998564877
 23
1342.403415746125
 33
0.0
1001
ACAD
1000
DSTYLE
1002
{
1070
    78
1070
     8
1070
   284
1070
     8
1070
   140
1040
3.0
1070
   145
1040
1.0
1070
    74
1070
     0
1070
   172
1070
     1
1070
    73
1070
     0
1070
    77
1070
     1
1070
    40
1040
60.0
1070
   147
1040
0.8
1070
   287
1070
     5
1070
    42
1040
1.5
1070
    44
1040
0.6
1070
    43
1040
7.0
1070
   271
1070
     0
1070
   177
1070
   256
1070
   176
1070
   256
1070
   141
1040
0.0
1070
   275
1070
     1
1070
    41
1040
1.5
1070
   285
1070
     8
1070
   286
1070
     8
1002
}
  0
SOLID
  5
131
330
C3
100
AcDbEntity
  8
SUNPOU
100
AcDbTrace
 10
2804.999985648759
 20
997.4034157461319
 30
0.0
 11
2789.999985648759
 21
907.4034157461319
 31
0.0
 12
2774.999985648759
 22
997.4034157461319
 32
0.0
 13
2774.999985648759
 23
997.4034157461319
 33
0.0
1001
ACAD
1000
DSTYLE
1002
{
1070
    78
1070
     8
1070
   284
1070
     8
1070
   140
1040
3.0
1070
   145
1040
1.0
1070
    74
1070
     0
1070
   172
1070
     1
1070
    73
1070
     0
1070
    77
1070
     1
1070
    40
1040
60.0
1070
   147
1040
0.8
1070
   287
1070
     5
1070
    42
1040
1.5
1070
    44
1040
0.6
1070
    43
1040
7.0
1070
   271
1070
     0
1070
   177
1070
   256
1070
   176
1070
   256
1070
   141
1040
0.0
1070
   275
1070
     1
1070
    41
1040
1.5
1070
   285
1070
     8
1070
   286
1070
     8
1002
}
  0
LINE
  5
132
330
C3
100
AcDbEntity
  8
HASEN
100
AcDbLine
 10
2994.999985648772
 20
715.4034157461156
 30
0.0
 11
2644.497460331817
 21
715.4034157461119
 31
0.0
  0
LINE
  5
133
330
C3
100
AcDbEntity
  8
HASEN
100
AcDbLine
 10
2994.999985648772
 20
475.4034157461156
 30
0.0
 11
2644.497460331817
 21
475.4034157461119
 31
0.0
  0
LINE
  5
134
330
C3
100
AcDbEntity
  8
SUNPOU
100
AcDbLine
 10
3029.99998564875
 20
397.403415746121
 30
0.0
 11
2959.999985648748
 21
397.403415746121
 31
0.0
  0
LINE
  5
135
330
C3
100
AcDbEntity
  8
SUNPOU
100
AcDbLine
 10
2959.999985648748
 20
397.403415746121
 30
0.0
 11
2939.999985648748
 21
317.4034157461228
 31
0.0
  0
SOLID
  5
136
330
C3
100
AcDbEntity
  8
SUNPOU
100
AcDbTrace
 10
2804.999985648759
 20
937.4034157461319
 30
0.0
 11
2789.999985648759
 21
847.4034157461319
 31
0.0
 12
2774.999985648759
 22
937.4034157461319
 32
0.0
 13
2774.999985648759
 23
937.4034157461319
 33
0.0
1001
ACAD
1000
DSTYLE
1002
{
1070
    78
1070
     8
1070
   284
1070
     8
1070
   140
1040
3.0
1070
   145
1040
1.0
1070
    74
1070
     0
1070
   172
1070
     1
1070
    73
1070
     0
1070
    77
1070
     1
1070
    40
1040
60.0
1070
   147
1040
0.8
1070
   287
1070
     5
1070
    42
1040
1.5
1070
    44
1040
0.6
1070
    43
1040
7.0
1070
   271
1070
     0
1070
   177
1070
   256
1070
   176
1070
   256
1070
   141
1040
0.0
1070
   275
1070
     1
1070
    41
1040
1.5
1070
   285
1070
     8
1070
   286
1070
     8
1002
}
  0
SOLID
  5
137
330
C3
100
AcDbEntity
  8
SUNPOU
100
AcDbTrace
 10
2804.999985648759
 20
877.4034157461319
 30
0.0
 11
2789.999985648759
 21
787.4034157461319
 31
0.0
 12
2774.999985648759
 22
877.4034157461319
 32
0.0
 13
2774.999985648759
 23
877.4034157461319
 33
0.0
1001
ACAD
1000
DSTYLE
1002
{
1070
    78
1070
     8
1070
   284
1070
     8
1070
   140
1040
3.0
1070
   145
1040
1.0
1070
    74
1070
     0
1070
   172
1070
     1
1070
    73
1070
     0
1070
    77
1070
     1
1070
    40
1040
60.0
1070
   147
1040
0.8
1070
   287
1070
     5
1070
    42
1040
1.5
1070
    44
1040
0.6
1070
    43
1040
7.0
1070
   271
1070
     0
1070
   177
1070
   256
1070
   176
1070
   256
1070
   141
1040
0.0
1070
   275
1070
     1
1070
    41
1040
1.5
1070
   285
1070
     8
1070
   286
1070
     8
1002
}
  0
LINE
  5
138
330
C3
100
AcDbEntity
  8
SUNPOU
100
AcDbLine
 10
2994.999985648774
 20
1537.403415746125
 30
0.0
 11
2409.999985648759
 21
1537.403415746121
 31
0.0
  0
LINE
  5
139
330
C3
100
AcDbEntity
  8
SUNPOU
100
AcDbLine
 10
2994.999985648774
 20
1417.403415746125
 30
0.0
 11
2409.999985648759
 21
1417.403415746121
 31
0.0
  0
LINE
  5
13A
330
C3
100
AcDbEntity
  8
SUNPOU
100
AcDbLine
 10
2994.999985648774
 20
1297.403415746125
 30
0.0
 11
2409.999985648759
 21
1297.403415746125
 31
0.0
  0
LINE
  5
13B
330
C3
100
AcDbEntity
  8
SUNPOU
100
AcDbLine
 10
2994.999985648774
 20
1177.403415746125
 30
0.0
 11
2409.999985648759
 21
1177.403415746121
 31
0.0
  0
LINE
  5
13C
330
C3
100
AcDbEntity
  8
SUNPOU
100
AcDbLine
 10
2994.999985648774
 20
1057.403415746125
 30
0.0
 11
2409.999985648759
 21
1057.403415746121
 31
0.0
  0
LINE
  5
13D
330
C3
100
AcDbEntity
  8
HASEN
100
AcDbLine
 10
2994.999985648772
 20
955.4034157461156
 30
0.0
 11
2644.497460331817
 21
955.4034157461119
 31
0.0
  0
LINE
  5
13E
330
C3
100
AcDbEntity
  8
HASEN
100
AcDbLine
 10
2994.999985648772
 20
1195.403415746116
 30
0.0
 11
2644.497460331817
 21
1195.403415746112
 31
0.0
  0
LINE
  5
13F
330
C3
100
AcDbEntity
  8
HASEN
100
AcDbLine
 10
2994.999985648772
 20
1435.403415746116
 30
0.0
 11
2644.497460331817
 21
1435.403415746112
 31
0.0
  0
ARC
  5
140
330
C3
100
AcDbEntity
  8
HAIKIN
100
AcDbCircle
 10
2374.999985648759
 20
1002.403415746126
 30
0.0
 40
35.0
100
AcDbArc
 50
270.0
 51
0.0
  0
LINE
  5
141
330
C3
100
AcDbEntity
  8
HAIKIN
100
AcDbLine
 10
2374.999985648758
 20
1827.403415746126
 30
0.0
 11
1979.999985648752
 21
1827.403415746126
 31
0.0
  0
LINE
  5
142
330
C3
100
AcDbEntity
  8
HAIKIN
100
AcDbLine
 10
2994.999985648774
 20
1872.403415746125
 30
0.0
 11
1979.999985648759
 21
1872.403415746121
 31
0.0
  0
LINE
  5
143
330
C3
100
AcDbEntity
  8
HAIKIN
100
AcDbLine
 10
2994.999985648774
 20
1932.403415746125
 30
0.0
 11
1979.999985648758
 21
1932.403415746121
 31
0.0
  0
LINE
  5
144
330
C3
100
AcDbEntity
  8
HAIKIN
100
AcDbLine
 10
2994.999985648774
 20
1992.403415746125
 30
0.0
 11
1979.999985648758
 21
1992.403415746121
 31
0.0
  0
LINE
  5
145
330
C3
100
AcDbEntity
  8
SUNPOU
100
AcDbLine
 10
2994.999985648774
 20
2017.403415746125
 30
0.0
 11
1979.999985648759
 21
2017.403415746121
 31
0.0
  0
LINE
  5
146
330
C3
100
AcDbEntity
  8
SUNPOU
100
AcDbLine
 10
2994.999985648774
 20
2137.403415746125
 30
0.0
 11
1979.999985648759
 21
2137.403415746121
 31
0.0
  0
LINE
  5
147
330
C3
100
AcDbEntity
  8
SUNPOU
100
AcDbLine
 10
2994.999985648774
 20
2257.403415746125
 30
0.0
 11
1979.999985648759
 21
2257.403415746121
 31
0.0
  0
LINE
  5
148
330
C3
100
AcDbEntity
  8
SUNPOU
100
AcDbLine
 10
2994.999985648774
 20
1897.403415746125
 30
0.0
 11
1979.999985648759
 21
1897.403415746121
 31
0.0
  0
LINE
  5
149
330
C3
100
AcDbEntity
  8
SUNPOU
100
AcDbLine
 10
2949.999985648748
 20
2317.403415746123
 30
0.0
 11
1979.999985648759
 21
2317.403415746121
 31
0.0
  0
LINE
  5
14A
330
C3
100
AcDbEntity
  8
SUNPOU
100
AcDbLine
 10
2379.999985648758
 20
1797.403415746126
 30
0.0
 11
1579.999985648756
 21
1797.403415746126
 31
0.0
  0
LINE
  5
14B
330
C3
100
AcDbEntity
  8
SUNPOU
100
AcDbLine
 10
1829.999985648765
 20
2362.403415746123
 30
0.0
 11
1829.999985648759
 21
1890.403415746126
 31
0.0
  0
LINE
  5
14C
330
C3
100
AcDbEntity
  8
SUNPOU
100
AcDbLine
 10
1529.999985648763
 20
2362.403415746125
 30
0.0
 11
1529.999985648763
 21
1890.403415746128
 31
0.0
  0
LINE
  5
14D
330
C3
100
AcDbEntity
  8
HAIKIN
100
AcDbLine
 10
1979.999985648758
 20
1890.403415746128
 30
0.0
 11
1521.99998564875
 21
1890.403415746132
 31
0.0
  0
LINE
  5
14E
330
C3
100
AcDbEntity
  8
SUNPOU
100
AcDbLine
 10
1979.999985648758
 20
1860.403415746128
 30
0.0
 11
1516.999985648752
 21
1860.403415746126
 31
0.0
  0
ARC
  5
14F
330
C3
100
AcDbEntity
  8
HAIKIN
100
AcDbCircle
 10
1521.99998564875
 20
1855.403415746132
 30
0.0
 40
35.0
100
AcDbArc
 50
90.0
 51
180.0
  0
SOLID
  5
150
330
C3
100
AcDbEntity
  8
SUNPOU
100
AcDbTrace
 10
1694.999985648759
 20
1980.403415746141
 30
0.0
 11
1679.999985648759
 21
1890.403415746141
 31
0.0
 12
1664.999985648759
 22
1980.403415746141
 32
0.0
 13
1664.999985648759
 23
1980.403415746141
 33
0.0
1001
ACAD
1000
DSTYLE
1002
{
1070
    78
1070
     8
1070
   284
1070
     8
1070
   140
1040
3.0
1070
   145
1040
1.0
1070
    74
1070
     0
1070
   172
1070
     1
1070
    73
1070
     0
1070
    77
1070
     1
1070
    40
1040
60.0
1070
   147
1040
0.8
1070
   287
1070
     5
1070
    42
1040
1.5
1070
    44
1040
0.6
1070
    43
1040
7.0
1070
   271
1070
     0
1070
   177
1070
   256
1070
   176
1070
   256
1070
   141
1040
0.0
1070
   275
1070
     1
1070
    41
1040
1.5
1070
   285
1070
     8
1070
   286
1070
     8
1002
}
  0
LINE
  5
151
330
C3
100
AcDbEntity
  8
SUNPOU
100
AcDbLine
 10
2129.999985648759
 20
2257.403415746121
 30
0.0
 11
2129.999985648759
 21
1827.40341574613
 31
0.0
  0
LINE
  5
152
330
C3
100
AcDbEntity
  8
SUNPOU
100
AcDbLine
 10
2969.99998564875
 20
2397.403415746121
 30
0.0
 11
2949.99998564875
 21
2317.403415746125
 31
0.0
  0
LINE
  5
153
330
C3
100
AcDbEntity
  8
SUNPOU
100
AcDbLine
 10
2994.999985648774
 20
1777.403415746125
 30
0.0
 11
2409.999985648758
 21
1777.403415746119
 31
0.0
  0
LINE
  5
154
330
C3
100
AcDbEntity
  8
SUNPOU
100
AcDbLine
 10
2994.999985648774
 20
1657.403415746125
 30
0.0
 11
2409.999985648758
 21
1657.403415746121
 31
0.0
  0
LINE
  5
155
330
C3
100
AcDbEntity
  8
HASEN
100
AcDbLine
 10
2994.999985648772
 20
2155.403415746116
 30
0.0
 11
2644.497460331817
 21
2155.403415746112
 31
0.0
  0
LINE
  5
156
330
C3
100
AcDbEntity
  8
HASEN
100
AcDbLine
 10
2994.999985648772
 20
1915.403415746116
 30
0.0
 11
2644.497460331817
 21
1915.403415746112
 31
0.0
  0
LINE
  5
157
330
C3
100
AcDbEntity
  8
HASEN
100
AcDbLine
 10
2994.999985648772
 20
1675.403415746116
 30
0.0
 11
2644.497460331817
 21
1675.403415746112
 31
0.0
  0
ARC
  5
158
330
C3
100
AcDbEntity
  8
HAIKIN
100
AcDbCircle
 10
2374.999985648758
 20
1792.403415746126
 30
0.0
 40
35.0
100
AcDbArc
 50
0.0
 51
90.0
  0
SOLID
  5
159
330
C3
100
AcDbEntity
  8
SUNPOU
100
AcDbTrace
 10
2294.999985648761
 20
1917.403415746126
 30
0.0
 11
2279.999985648761
 21
1827.403415746126
 31
0.0
 12
2264.999985648761
 22
1917.403415746126
 32
0.0
 13
2264.999985648761
 23
1917.403415746126
 33
0.0
1001
ACAD
1000
DSTYLE
1002
{
1070
    78
1070
     8
1070
   284
1070
     8
1070
   140
1040
3.0
1070
   145
1040
1.0
1070
    74
1070
     0
1070
   172
1070
     1
1070
    73
1070
     0
1070
    77
1070
     1
1070
    40
1040
60.0
1070
   147
1040
0.8
1070
   287
1070
     5
1070
    42
1040
1.5
1070
    44
1040
0.6
1070
    43
1040
7.0
1070
   271
1070
     0
1070
   177
1070
   256
1070
   176
1070
   256
1070
   141
1040
0.0
1070
   275
1070
     1
1070
    41
1040
1.5
1070
   285
1070
     8
1070
   286
1070
     8
1002
}
  0
SOLID
  5
15A
330
C3
100
AcDbEntity
  8
SUNPOU
100
AcDbTrace
 10
2804.999985648759
 20
2022.403415746125
 30
0.0
 11
2789.999985648759
 21
1932.403415746125
 31
0.0
 12
2774.999985648759
 22
2022.403415746125
 32
0.0
 13
2774.999985648759
 23
2022.403415746125
 33
0.0
1001
ACAD
1000
DSTYLE
1002
{
1070
    78
1070
     8
1070
   284
1070
     8
1070
   140
1040
3.0
1070
   145
1040
1.0
1070
    74
1070
     0
1070
   172
1070
     1
1070
    73
1070
     0
1070
    77
1070
     1
1070
    40
1040
60.0
1070
   147
1040
0.8
1070
   287
1070
     5
1070
    42
1040
1.5
1070
    44
1040
0.6
1070
    43
1040
7.0
1070
   271
1070
     0
1070
   177
1070
   256
1070
   176
1070
   256
1070
   141
1040
0.0
1070
   275
1070
     1
1070
    41
1040
1.5
1070
   285
1070
     8
1070
   286
1070
     8
1002
}
  0
SOLID
  5
15B
330
C3
100
AcDbEntity
  8
SUNPOU
100
AcDbTrace
 10
2804.999985648759
 20
1962.403415746125
 30
0.0
 11
2789.999985648759
 21
1872.403415746125
 31
0.0
 12
2774.999985648759
 22
1962.403415746125
 32
0.0
 13
2774.999985648759
 23
1962.403415746125
 33
0.0
1001
ACAD
1000
DSTYLE
1002
{
1070
    78
1070
     8
1070
   284
1070
     8
1070
   140
1040
3.0
1070
   145
1040
1.0
1070
    74
1070
     0
1070
   172
1070
     1
1070
    73
1070
     0
1070
    77
1070
     1
1070
    40
1040
60.0
1070
   147
1040
0.8
1070
   287
1070
     5
1070
    42
1040
1.5
1070
    44
1040
0.6
1070
    43
1040
7.0
1070
   271
1070
     0
1070
   177
1070
   256
1070
   176
1070
   256
1070
   141
1040
0.0
1070
   275
1070
     1
1070
    41
1040
1.5
1070
   285
1070
     8
1070
   286
1070
     8
1002
}
  0
SOLID
  5
15C
330
C3
100
AcDbEntity
  8
SUNPOU
100
AcDbTrace
 10
2804.999985648759
 20
2082.403415746125
 30
0.0
 11
2789.999985648759
 21
1992.403415746125
 31
0.0
 12
2774.999985648759
 22
2082.403415746125
 32
0.0
 13
2774.999985648759
 23
2082.403415746125
 33
0.0
1001
ACAD
1000
DSTYLE
1002
{
1070
    78
1070
     8
1070
   284
1070
     8
1070
   140
1040
3.0
1070
   145
1040
1.0
1070
    74
1070
     0
1070
   172
1070
     1
1070
    73
1070
     0
1070
    77
1070
     1
1070
    40
1040
60.0
1070
   147
1040
0.8
1070
   287
1070
     5
1070
    42
1040
1.5
1070
    44
1040
0.6
1070
    43
1040
7.0
1070
   271
1070
     0
1070
   177
1070
   256
1070
   176
1070
   256
1070
   141
1040
0.0
1070
   275
1070
     1
1070
    41
1040
1.5
1070
   285
1070
     8
1070
   286
1070
     8
1002
}
  0
LINE
  5
15D
330
C3
100
AcDbEntity
  8
SUNPOU
100
AcDbLine
 10
2969.99998564875
 20
2397.403415746121
 30
0.0
 11
3029.99998564875
 21
2397.403415746121
 31
0.0
  0
LINE
  5
15E
330
C3
100
AcDbEntity
  8
SUNPOU
100
AcDbLine
 10
3449.999985648745
 20
1357.403415746123
 30
0.0
 11
3449.999985648745
 21
2102.632833953865
 31
0.0
1001
ACAD
1000
DSTYLE
1002
{
1070
    78
1070
     8
1070
   284
1070
     8
1070
   140
1040
3.0
1070
   145
1040
1.0
1070
    74
1070
     0
1070
   172
1070
     1
1070
    73
1070
     0
1070
    77
1070
     1
1070
    40
1040
60.0
1070
   147
1040
0.8
1070
   287
1070
     5
1070
    42
1040
1.5
1070
    44
1040
0.6
1070
    43
1040
7.0
1070
   271
1070
     0
1070
   177
1070
   256
1070
   176
1070
   256
1070
   141
1040
0.0
1070
   275
1070
     1
1070
    41
1040
1.5
1070
   285
1070
     8
1070
   286
1070
     8
1002
}
  0
TEXT
  5
15F
330
C3
100
AcDbEntity
  8
SUNPOU
100
AcDbText
 10
1304.999985648761
 20
3317.403415746123
 30
0.0
 40
150.0
  1
D10
 41
0.8
 11
1304.999985648761
 21
3392.403415746123
 31
0.0
100
AcDbText
 73
     2
  0
TEXT
  5
160
330
C3
100
AcDbEntity
  8
SUNPOU
100
AcDbText
 10
2684.999985648759
 20
3317.403415746123
 30
0.0
 40
150.0
  1
D10
 41
0.8
 11
2684.999985648759
 21
3392.403415746123
 31
0.0
100
AcDbText
 73
     2
  0
LINE
  5
161
330
C3
100
AcDbEntity
  8
SUNPOU
100
AcDbLine
 10
2279.999985648759
 20
3227.403415746123
 30
0.0
 11
3059.999985648759
 21
3227.403415746123
 31
0.0
1001
ACAD
1000
DSTYLE
1002
{
1070
    78
1070
     8
1070
   284
1070
     8
1070
   140
1040
3.0
1070
   145
1040
1.0
1070
    74
1070
     0
1070
   172
1070
     1
1070
    73
1070
     0
1070
    77
1070
     1
1070
    40
1040
60.0
1070
   147
1040
0.8
1070
   287
1070
     5
1070
    42
1040
1.5
1070
    44
1040
0.6
1070
    43
1040
7.0
1070
   271
1070
     0
1070
   177
1070
   256
1070
   176
1070
   256
1070
   141
1040
0.0
1070
   275
1070
     1
1070
    41
1040
1.5
1070
   285
1070
     8
1070
   286
1070
     8
1002
}
  0
TEXT
  5
162
330
C3
100
AcDbEntity
  8
SUNPOU
100
AcDbText
 10
2359.999985648759
 20
3317.403415746123
 30
0.0
 40
150.0
  1
H4
 41
0.8
 72
     4
 11
2459.999985648759
 21
3392.403415746123
 31
0.0
100
AcDbText
  0
CIRCLE
  5
163
330
C3
100
AcDbEntity
  8
SUNPOU
100
AcDbCircle
 10
2459.999985648759
 20
3392.403415746123
 30
0.0
 40
165.0
  0
TEXT
  5
164
330
C3
100
AcDbEntity
  8
SUNPOU
100
AcDbText
 10
2239.999985648754
 20
4105.403415746121
 30
0.0
 40
210.0
  1
内　側
 72
     2
 11
2939.999985648754
 21
4077.403415746121
 31
0.0
100
AcDbText
 73
     1
  0
LINE
  5
165
330
C3
100
AcDbEntity
  8
HAIKIN
 62
     3
100
AcDbLine
 10
1889.999985648752
 20
4587.403415746125
 30
0.0
 11
1889.999985648752
 21
4887.403415746125
 31
0.0
  0
SOLID
  5
166
330
C3
100
AcDbEntity
  8
SUNPOU
100
AcDbTrace
 10
2559.999985648748
 20
1342.403415746126
 30
0.0000000000000092
 11
2469.999985648748
 21
1357.403415746126
 31
0.0000000000000092
 12
2559.999985648748
 22
1372.403415746126
 32
0.0000000000000092
 13
2559.999985648748
 23
1372.403415746126
 33
0.0000000000000092
1001
ACAD
1000
DSTYLE
1002
{
1070
    78
1070
     8
1070
   284
1070
     8
1070
   140
1040
3.0
1070
   145
1040
1.0
1070
    74
1070
     0
1070
   172
1070
     1
1070
    73
1070
     0
1070
    77
1070
     1
1070
    40
1040
60.0
1070
   147
1040
0.8
1070
   287
1070
     5
1070
    42
1040
1.5
1070
    44
1040
0.6
1070
    43
1040
7.0
1070
   271
1070
     0
1070
   177
1070
   256
1070
   176
1070
   256
1070
   141
1040
0.0
1070
   275
1070
     1
1070
    41
1040
1.5
1070
   285
1070
     8
1070
   286
1070
     8
1002
}
  0
SOLID
  5
167
330
C3
100
AcDbEntity
  8
SUNPOU
100
AcDbTrace
 10
2679.99998564875
 20
1342.403415746126
 30
0.0000000000000092
 11
2589.99998564875
 21
1357.403415746126
 31
0.0000000000000092
 12
2679.99998564875
 22
1372.403415746126
 32
0.0000000000000092
 13
2679.99998564875
 23
1372.403415746126
 33
0.0000000000000092
1001
ACAD
1000
DSTYLE
1002
{
1070
    78
1070
     8
1070
   284
1070
     8
1070
   140
1040
3.0
1070
   145
1040
1.0
1070
    74
1070
     0
1070
   172
1070
     1
1070
    73
1070
     0
1070
    77
1070
     1
1070
    40
1040
60.0
1070
   147
1040
0.8
1070
   287
1070
     5
1070
    42
1040
1.5
1070
    44
1040
0.6
1070
    43
1040
7.0
1070
   271
1070
     0
1070
   177
1070
   256
1070
   176
1070
   256
1070
   141
1040
0.0
1070
   275
1070
     1
1070
    41
1040
1.5
1070
   285
1070
     8
1070
   286
1070
     8
1002
}
  0
SOLID
  5
168
330
C3
100
AcDbEntity
  8
SUNPOU
100
AcDbTrace
 10
2619.99998564875
 20
1342.403415746126
 30
0.0000000000000092
 11
2529.99998564875
 21
1357.403415746126
 31
0.0000000000000092
 12
2619.99998564875
 22
1372.403415746126
 32
0.0000000000000092
 13
2619.99998564875
 23
1372.403415746126
 33
0.0000000000000092
1001
ACAD
1000
DSTYLE
1002
{
1070
    78
1070
     8
1070
   284
1070
     8
1070
   140
1040
3.0
1070
   145
1040
1.0
1070
    74
1070
     0
1070
   172
1070
     1
1070
    73
1070
     0
1070
    77
1070
     1
1070
    40
1040
60.0
1070
   147
1040
0.8
1070
   287
1070
     5
1070
    42
1040
1.5
1070
    44
1040
0.6
1070
    43
1040
7.0
1070
   271
1070
     0
1070
   177
1070
   256
1070
   176
1070
   256
1070
   141
1040
0.0
1070
   275
1070
     1
1070
    41
1040
1.5
1070
   285
1070
     8
1070
   286
1070
     8
1002
}
  0
ENDBLK
  5
16A
330
C3
100
AcDbEntity
  8
0
100
AcDbBlockEnd
  0
BLOCK
  5
D62
330
D61
100
AcDbEntity
  8
0
100
AcDbBlockBegin
  2
FG
 70
     0
 10
0.0
 20
0.0
 30
0.0
  3
FG
  1

  0
LWPOLYLINE
  5
D63
330
D61
100
AcDbEntity
  8
SUNPOU
100
AcDbPolyline
 90
        4
 70
     0
 43
0.0
 10
0.0
 20
-31.5
 10
-4.500000000000909
 20
-29.5
 10
-4.500000000000909
 20
29.5
 10
0.0
 20
31.50000000000045
  0
LWPOLYLINE
  5
D64
330
D61
100
AcDbEntity
  8
SUNPOU
100
AcDbPolyline
 90
        2
 70
     0
 43
0.0
 10
-4.500000000000909
 20
27.0
 10
-41.49999999909687
 20
27.00000000000045
  0
LWPOLYLINE
  5
D65
330
D61
100
AcDbEntity
  8
SUNPOU
100
AcDbPolyline
 90
        2
 70
     0
 43
0.0
 10
-41.50000000000091
 20
27.00000000000045
 42
1.111111111111126
 10
-41.50000000000091
 20
-27.00000000000045
 42
1.111111111111126
  0
LWPOLYLINE
  5
D66
330
D61
100
AcDbEntity
  8
SUNPOU
100
AcDbPolyline
 90
        2
 70
     0
 43
0.0
 10
-4.500000000000909
 20
-27.00000000000045
 10
-41.49999999909687
 20
-27.0
  0
ENDBLK
  5
D67
330
D61
100
AcDbEntity
  8
0
100
AcDbBlockEnd
  0
BLOCK
  5
D69
330
D68
100
AcDbEntity
  8
0
100
AcDbBlockBegin
  2
_DOT
 70
     0
 10
0.0
 20
0.0
 30
0.0
  3
_DOT
  1

  0
LWPOLYLINE
  5
D6A
330
D68
100
AcDbEntity
  8
0
  6
ByBlock
 62
     0
100
AcDbPolyline
 90
        2
 70
     1
 43
0.5
 10
-0.25
 20
0.0
 42
1.0
 10
0.25
 20
0.0
 42
1.0
  0
LINE
  5
D6B
330
D68
100
AcDbEntity
  8
0
  6
ByBlock
 62
     0
100
AcDbLine
 10
-0.5
 20
0.0
 30
0.0
 11
-1.0
 21
0.0
 31
0.0
  0
ENDBLK
  5
D6C
330
D68
100
AcDbEntity
  8
0
100
AcDbBlockEnd
  0
BLOCK
  5
DF4
330
DF3
100
AcDbEntity
  8
0
100
AcDbBlockBegin
  2
FGG
 70
     0
 10
0.0
 20
0.0
 30
0.0
  3
FGG
  1

  0
LWPOLYLINE
  5
DF5
330
DF3
100
AcDbEntity
  8
SUNPOU
100
AcDbPolyline
 90
        4
 70
     0
 43
0.0
 10
0.0
 20
-31.5
 10
-4.500000000000909
 20
-29.5
 10
-4.500000000000909
 20
29.5
 10
0.0
 20
31.50000000000045
  0
LWPOLYLINE
  5
DF6
330
DF3
100
AcDbEntity
  8
SUNPOU
100
AcDbPolyline
 90
        2
 70
     0
 43
0.0
 10
-4.500000000000909
 20
27.0
 10
-41.49999999909687
 20
27.00000000000045
  0
LWPOLYLINE
  5
DF7
330
DF3
100
AcDbEntity
  8
SUNPOU
100
AcDbPolyline
 90
        2
 70
     0
 43
0.0
 10
-41.50000000000091
 20
27.00000000000045
 42
1.111111111111126
 10
-41.50000000000091
 20
-27.00000000000045
 42
1.111111111111126
  0
LWPOLYLINE
  5
DF8
330
DF3
100
AcDbEntity
  8
SUNPOU
100
AcDbPolyline
 90
        2
 70
     0
 43
0.0
 10
-4.500000000000909
 20
-27.00000000000045
 10
-41.49999999909687
 20
-27.0
  0
ENDBLK
  5
DF9
330
DF3
100
AcDbEntity
  8
0
100
AcDbBlockEnd
  0
BLOCK
  5
3BB4
330
3BAA
100
AcDbEntity
  8
0
100
AcDbBlockBegin
  2
*D239
 70
     1
 10
0.0
 20
0.0
 30
0.0
  3
*D239
  1

  0
LINE
  5
3F12
330
3BAA
100
AcDbEntity
  8
SUNPOU
 62
     0
370
    -2
100
AcDbLine
 10
3623.023336096137
 20
7076.121121809183
 30
0.0
 11
3623.023336096137
 21
7771.211120219616
 31
0.0
  0
LINE
  5
3F13
330
3BAA
100
AcDbEntity
  8
SUNPOU
 62
     0
370
    -2
100
AcDbLine
 10
4803.023336096137
 20
7022.313965397167
 30
0.0
 11
4803.023336096137
 21
7771.211120219616
 31
0.0
  0
LINE
  5
3F14
330
3BAA
100
AcDbEntity
  8
SUNPOU
 62
     0
370
    -2
100
AcDbLine
 10
3683.023336096137
 20
7756.211120219616
 30
0.0
 11
4743.023336096137
 21
7756.211120219616
 31
0.0
  0
SOLID
  5
3F15
330
3BAA
100
AcDbEntity
  8
SUNPOU
 62
     0
100
AcDbTrace
 10
3683.023336096137
 20
7766.211120219616
 30
0.0
 11
3683.023336096137
 21
7746.211120219616
 31
0.0
 12
3623.023336096137
 22
7756.211120219616
 32
0.0
 13
3623.023336096137
 23
7756.211120219616
 33
0.0
  0
SOLID
  5
3F16
330
3BAA
100
AcDbEntity
  8
SUNPOU
 62
     0
100
AcDbTrace
 10
4743.023336096137
 20
7766.211120219616
 30
0.0
 11
4743.023336096137
 21
7746.211120219616
 31
0.0
 12
4803.023336096137
 22
7756.211120219616
 32
0.0
 13
4803.023336096137
 23
7756.211120219616
 33
0.0
  0
MTEXT
  5
3F17
330
3BAA
100
AcDbEntity
  8
SUNPOU
 62
     0
100
AcDbMText
 10
4213.023336096137
 20
7825.211120219616
 30
0.0
 40
90.0
 41
0.0
 71
     5
 72
     1
  1
\A1;1180
 73
     1
 44
1.0
  0
POINT
  5
3F18
330
3BAA
100
AcDbEntity
  8
DEFPOINTS
 62
     0
100
AcDbPoint
 10
3623.023336096137
 20
7016.121121809183
 30
0.0
  0
POINT
  5
3F19
330
3BAA
100
AcDbEntity
  8
DEFPOINTS
 62
     0
100
AcDbPoint
 10
4803.023336096137
 20
6962.313965397167
 30
0.0
  0
POINT
  5
3F1A
330
3BAA
100
AcDbEntity
  8
DEFPOINTS
 62
     0
100
AcDbPoint
 10
4803.023336096137
 20
7756.211120219616
 30
0.0
  0
ENDBLK
  5
3BB5
330
3BAA
100
AcDbEntity
  8
0
100
AcDbBlockEnd
  0
BLOCK
  5
3BC0
330
3BB6
100
AcDbEntity
  8
0
100
AcDbBlockBegin
  2
*D240
 70
     1
 10
0.0
 20
0.0
 30
0.0
  3
*D240
  1

  0
LINE
  5
3F1B
330
3BB6
100
AcDbEntity
  8
SUNPOU
 62
     0
370
    -2
100
AcDbLine
 10
3623.023336096137
 20
7076.121121809183
 30
0.0
 11
3623.023336096137
 21
7771.211120219616
 31
0.0
  0
LINE
  5
3F1C
330
3BB6
100
AcDbEntity
  8
SUNPOU
 62
     0
370
    -2
100
AcDbLine
 10
2063.023336096137
 20
7226.121121809184
 30
0.0
 11
2063.023336096137
 21
7771.211120219616
 31
0.0
  0
LINE
  5
3F1D
330
3BB6
100
AcDbEntity
  8
SUNPOU
 62
     0
370
    -2
100
AcDbLine
 10
3563.023336096137
 20
7756.211120219616
 30
0.0
 11
2123.023336096137
 21
7756.211120219616
 31
0.0
  0
SOLID
  5
3F1E
330
3BB6
100
AcDbEntity
  8
SUNPOU
 62
     0
100
AcDbTrace
 10
3563.023336096137
 20
7766.211120219616
 30
0.0
 11
3563.023336096137
 21
7746.211120219616
 31
0.0
 12
3623.023336096137
 22
7756.211120219616
 32
0.0
 13
3623.023336096137
 23
7756.211120219616
 33
0.0
  0
SOLID
  5
3F1F
330
3BB6
100
AcDbEntity
  8
SUNPOU
 62
     0
100
AcDbTrace
 10
2123.023336096137
 20
7766.211120219616
 30
0.0
 11
2123.023336096137
 21
7746.211120219616
 31
0.0
 12
2063.023336096137
 22
7756.211120219616
 32
0.0
 13
2063.023336096137
 23
7756.211120219616
 33
0.0
  0
MTEXT
  5
3F20
330
3BB6
100
AcDbEntity
  8
SUNPOU
 62
     0
100
AcDbMText
 10
2843.023336096137
 20
7825.211120219616
 30
0.0
 40
90.0
 41
0.0
 71
     5
 72
     1
  1
\A1;1560
 73
     1
 44
1.0
  0
POINT
  5
3F21
330
3BB6
100
AcDbEntity
  8
DEFPOINTS
 62
     0
100
AcDbPoint
 10
3623.023336096137
 20
7016.121121809183
 30
0.0
  0
POINT
  5
3F22
330
3BB6
100
AcDbEntity
  8
DEFPOINTS
 62
     0
100
AcDbPoint
 10
2063.023336096137
 20
7166.121121809184
 30
0.0
  0
POINT
  5
3F23
330
3BB6
100
AcDbEntity
  8
DEFPOINTS
 62
     0
100
AcDbPoint
 10
2063.023336096137
 20
7756.211120219616
 30
0.0
  0
ENDBLK
  5
3BC1
330
3BB6
100
AcDbEntity
  8
0
100
AcDbBlockEnd
  0
BLOCK
  5
3BCC
330
3BC2
100
AcDbEntity
  8
0
100
AcDbBlockBegin
  2
*D241
 70
     1
 10
0.0
 20
0.0
 30
0.0
  3
*D241
  1

  0
LINE
  5
3F24
330
3BC2
100
AcDbEntity
  8
SUNPOU
 62
     0
370
    -2
100
AcDbLine
 10
2063.023336096137
 20
7226.121121809184
 30
0.0
 11
2063.023336096137
 21
7407.243923961205
 31
0.0
  0
LINE
  5
3F25
330
3BC2
100
AcDbEntity
  8
SUNPOU
 62
     0
370
    -2
100
AcDbLine
 10
2253.023336096137
 20
7226.121121809184
 30
0.0
 11
2253.023336096137
 21
7407.243923961205
 31
0.0
  0
LINE
  5
3F26
330
3BC2
100
AcDbEntity
  8
SUNPOU
 62
     0
370
    -2
100
AcDbLine
 10
2123.023336096137
 20
7392.243923961205
 30
0.0
 11
2193.023336096137
 21
7392.243923961205
 31
0.0
  0
MTEXT
  5
3F27
330
3BC2
100
AcDbEntity
  8
SUNPOU
 62
     0
100
AcDbMText
 10
2158.023336096137
 20
7461.243923961205
 30
0.0
 40
90.0
 41
0.0
 71
     5
 72
     1
  1
\A1;190
 73
     1
 44
1.0
  0
SOLID
  5
3F28
330
3BC2
100
AcDbEntity
  8
SUNPOU
 62
     0
100
AcDbTrace
 10
2123.023336096137
 20
7402.243923961205
 30
0.0
 11
2123.023336096137
 21
7382.243923961205
 31
0.0
 12
2063.023336096137
 22
7392.243923961205
 32
0.0
 13
2063.023336096137
 23
7392.243923961205
 33
0.0
  0
SOLID
  5
3F29
330
3BC2
100
AcDbEntity
  8
SUNPOU
 62
     0
100
AcDbTrace
 10
2193.023336096137
 20
7402.243923961205
 30
0.0
 11
2193.023336096137
 21
7382.243923961205
 31
0.0
 12
2253.023336096137
 22
7392.243923961205
 32
0.0
 13
2253.023336096137
 23
7392.243923961205
 33
0.0
  0
POINT
  5
3F2A
330
3BC2
100
AcDbEntity
  8
DEFPOINTS
 62
     0
100
AcDbPoint
 10
2063.023336096137
 20
7166.121121809184
 30
0.0
  0
POINT
  5
3F2B
330
3BC2
100
AcDbEntity
  8
DEFPOINTS
 62
     0
100
AcDbPoint
 10
2253.023336096137
 20
7166.121121809184
 30
0.0
  0
POINT
  5
3F2C
330
3BC2
100
AcDbEntity
  8
DEFPOINTS
 62
     0
100
AcDbPoint
 10
2253.023336096137
 20
7392.243923961205
 30
0.0
  0
ENDBLK
  5
3BCD
330
3BC2
100
AcDbEntity
  8
0
100
AcDbBlockEnd
  0
BLOCK
  5
3BD9
330
3BCE
100
AcDbEntity
  8
0
100
AcDbBlockBegin
  2
*D242
 70
     1
 10
0.0
 20
0.0
 30
0.0
  3
*D242
  1

  0
LINE
  5
3F2D
330
3BCE
100
AcDbEntity
  8
SUNPOU
 62
     0
370
    -2
100
AcDbLine
 10
2253.023336096137
 20
7226.121121809184
 30
0.0
 11
2253.023336096137
 21
7407.243923961205
 31
0.0
  0
LINE
  5
3F2E
330
3BCE
100
AcDbEntity
  8
SUNPOU
 62
     0
370
    -2
100
AcDbLine
 10
2323.023336096137
 20
7076.121121809183
 30
0.0
 11
2323.023336096137
 21
7407.243923961205
 31
0.0
  0
LINE
  5
3F2F
330
3BCE
100
AcDbEntity
  8
SUNPOU
 62
     0
370
    -2
100
AcDbLine
 10
2193.023336096137
 20
7392.243923961205
 30
0.0
 11
2133.023336096137
 21
7392.243923961205
 31
0.0
  0
LINE
  5
3F30
330
3BCE
100
AcDbEntity
  8
SUNPOU
 62
     0
370
    -2
100
AcDbLine
 10
2383.023336096137
 20
7392.243923961205
 30
0.0
 11
2443.023336096137
 21
7392.243923961205
 31
0.0
  0
MTEXT
  5
3F31
330
3BCE
100
AcDbEntity
  8
SUNPOU
 62
     0
100
AcDbMText
 10
2311.064146453744
 20
7461.243923961205
 30
0.0
 40
90.0
 41
0.0
 71
     5
 72
     1
  1
\A1;70
 73
     1
 44
1.0
  0
SOLID
  5
3F32
330
3BCE
100
AcDbEntity
  8
SUNPOU
 62
     0
100
AcDbTrace
 10
2193.023336096137
 20
7402.243923961205
 30
0.0
 11
2193.023336096137
 21
7382.243923961205
 31
0.0
 12
2253.023336096137
 22
7392.243923961205
 32
0.0
 13
2253.023336096137
 23
7392.243923961205
 33
0.0
  0
SOLID
  5
3F33
330
3BCE
100
AcDbEntity
  8
SUNPOU
 62
     0
100
AcDbTrace
 10
2383.023336096137
 20
7402.243923961205
 30
0.0
 11
2383.023336096137
 21
7382.243923961205
 31
0.0
 12
2323.023336096137
 22
7392.243923961205
 32
0.0
 13
2323.023336096137
 23
7392.243923961205
 33
0.0
  0
POINT
  5
3F34
330
3BCE
100
AcDbEntity
  8
DEFPOINTS
 62
     0
100
AcDbPoint
 10
2253.023336096137
 20
7166.121121809184
 30
0.0
  0
POINT
  5
3F35
330
3BCE
100
AcDbEntity
  8
DEFPOINTS
 62
     0
100
AcDbPoint
 10
2323.023336096137
 20
7016.121121809183
 30
0.0
  0
POINT
  5
3F36
330
3BCE
100
AcDbEntity
  8
DEFPOINTS
 62
     0
100
AcDbPoint
 10
2323.023336096137
 20
7392.243923961205
 30
0.0
  0
ENDBLK
  5
3BDA
330
3BCE
100
AcDbEntity
  8
0
100
AcDbBlockEnd
  0
BLOCK
  5
3BE5
330
3BDB
100
AcDbEntity
  8
0
100
AcDbBlockBegin
  2
*D243
 70
     1
 10
0.0
 20
0.0
 30
0.0
  3
*D243
  1

  0
LINE
  5
3F37
330
3BDB
100
AcDbEntity
  8
SUNPOU
 62
     0
370
    -2
100
AcDbLine
 10
2063.023336096137
 20
7226.121121809184
 30
0.0
 11
2063.023336096137
 21
7592.753371563727
 31
0.0
  0
LINE
  5
3F38
330
3BDB
100
AcDbEntity
  8
SUNPOU
 62
     0
370
    -2
100
AcDbLine
 10
2323.023336096137
 20
7076.121121809183
 30
0.0
 11
2323.023336096137
 21
7592.753371563727
 31
0.0
  0
LINE
  5
3F39
330
3BDB
100
AcDbEntity
  8
SUNPOU
 62
     0
370
    -2
100
AcDbLine
 10
2123.023336096137
 20
7577.753371563727
 30
0.0
 11
2263.023336096137
 21
7577.753371563727
 31
0.0
  0
SOLID
  5
3F3A
330
3BDB
100
AcDbEntity
  8
SUNPOU
 62
     0
100
AcDbTrace
 10
2123.023336096137
 20
7587.753371563727
 30
0.0
 11
2123.023336096137
 21
7567.753371563727
 31
0.0
 12
2063.023336096137
 22
7577.753371563727
 32
0.0
 13
2063.023336096137
 23
7577.753371563727
 33
0.0
  0
SOLID
  5
3F3B
330
3BDB
100
AcDbEntity
  8
SUNPOU
 62
     0
100
AcDbTrace
 10
2263.023336096137
 20
7587.753371563727
 30
0.0
 11
2263.023336096137
 21
7567.753371563727
 31
0.0
 12
2323.023336096137
 22
7577.753371563727
 32
0.0
 13
2323.023336096137
 23
7577.753371563727
 33
0.0
  0
MTEXT
  5
3F3C
330
3BDB
100
AcDbEntity
  8
SUNPOU
 62
     0
100
AcDbMText
 10
2193.023336096137
 20
7646.753371563727
 30
0.0
 40
90.0
 41
0.0
 71
     5
 72
     1
  1
\A1;260
 73
     1
 44
1.0
  0
POINT
  5
3F3D
330
3BDB
100
AcDbEntity
  8
DEFPOINTS
 62
     0
100
AcDbPoint
 10
2063.023336096137
 20
7166.121121809184
 30
0.0
  0
POINT
  5
3F3E
330
3BDB
100
AcDbEntity
  8
DEFPOINTS
 62
     0
100
AcDbPoint
 10
2323.023336096137
 20
7016.121121809183
 30
0.0
  0
POINT
  5
3F3F
330
3BDB
100
AcDbEntity
  8
DEFPOINTS
 62
     0
100
AcDbPoint
 10
2323.023336096137
 20
7577.753371563727
 30
0.0
  0
ENDBLK
  5
3BE6
330
3BDB
100
AcDbEntity
  8
0
100
AcDbBlockEnd
  0
BLOCK
  5
3BF1
330
3BE7
100
AcDbEntity
  8
0
100
AcDbBlockBegin
  2
*D244
 70
     1
 10
0.0
 20
0.0
 30
0.0
  3
*D244
  1

  0
LINE
  5
3F40
330
3BE7
100
AcDbEntity
  8
SUNPOU
 62
     0
370
    -2
100
AcDbLine
 10
2323.023336096137
 20
7076.121121809183
 30
0.0
 11
2323.023336096137
 21
7592.753371563727
 31
0.0
  0
LINE
  5
3F41
330
3BE7
100
AcDbEntity
  8
SUNPOU
 62
     0
370
    -2
100
AcDbLine
 10
3623.023336096137
 20
7076.121121809183
 30
0.0
 11
3623.023336096137
 21
7592.753371563727
 31
0.0
  0
LINE
  5
3F42
330
3BE7
100
AcDbEntity
  8
SUNPOU
 62
     0
370
    -2
100
AcDbLine
 10
2383.023336096137
 20
7577.753371563727
 30
0.0
 11
3563.023336096137
 21
7577.753371563727
 31
0.0
  0
SOLID
  5
3F43
330
3BE7
100
AcDbEntity
  8
SUNPOU
 62
     0
100
AcDbTrace
 10
2383.023336096137
 20
7587.753371563727
 30
0.0
 11
2383.023336096137
 21
7567.753371563727
 31
0.0
 12
2323.023336096137
 22
7577.753371563727
 32
0.0
 13
2323.023336096137
 23
7577.753371563727
 33
0.0
  0
SOLID
  5
3F44
330
3BE7
100
AcDbEntity
  8
SUNPOU
 62
     0
100
AcDbTrace
 10
3563.023336096137
 20
7587.753371563727
 30
0.0
 11
3563.023336096137
 21
7567.753371563727
 31
0.0
 12
3623.023336096137
 22
7577.753371563727
 32
0.0
 13
3623.023336096137
 23
7577.753371563727
 33
0.0
  0
MTEXT
  5
3F45
330
3BE7
100
AcDbEntity
  8
SUNPOU
 62
     0
100
AcDbMText
 10
2973.023336096137
 20
7646.753371563727
 30
0.0
 40
90.0
 41
0.0
 71
     5
 72
     1
  1
\A1;1300
 73
     1
 44
1.0
  0
POINT
  5
3F46
330
3BE7
100
AcDbEntity
  8
DEFPOINTS
 62
     0
100
AcDbPoint
 10
2323.023336096137
 20
7016.121121809183
 30
0.0
  0
POINT
  5
3F47
330
3BE7
100
AcDbEntity
  8
DEFPOINTS
 62
     0
100
AcDbPoint
 10
3623.023336096137
 20
7016.121121809183
 30
0.0
  0
POINT
  5
3F48
330
3BE7
100
AcDbEntity
  8
DEFPOINTS
 62
     0
100
AcDbPoint
 10
3623.023336096137
 20
7577.753371563727
 30
0.0
  0
ENDBLK
  5
3BF2
330
3BE7
100
AcDbEntity
  8
0
100
AcDbBlockEnd
  0
BLOCK
  5
3BFE
330
3BF3
100
AcDbEntity
  8
0
100
AcDbBlockBegin
  2
*D245
 70
     1
 10
0.0
 20
0.0
 30
0.0
  3
*D245
  1

  0
LINE
  5
3F49
330
3BF3
100
AcDbEntity
  8
SUNPOU
 62
     0
370
    -2
100
AcDbLine
 10
2003.023336096137
 20
7166.121121809185
 30
0.0
 11
1559.049417812068
 21
7166.121121809185
 31
0.0
  0
LINE
  5
3F4A
330
3BF3
100
AcDbEntity
  8
SUNPOU
 62
     0
370
    -2
100
AcDbLine
 10
2003.023336096137
 20
7016.121121809184
 30
0.0
 11
1559.049417812068
 21
7016.121121809184
 31
0.0
  0
LINE
  5
3F4B
330
3BF3
100
AcDbEntity
  8
SUNPOU
 62
     0
370
    -2
100
AcDbLine
 10
1574.049417812068
 20
7226.121121809185
 30
0.0
 11
1574.049417812068
 21
7286.121121809185
 31
0.0
  0
LINE
  5
3F4C
330
3BF3
100
AcDbEntity
  8
SUNPOU
 62
     0
370
    -2
100
AcDbLine
 10
1574.049417812068
 20
6956.121121809184
 30
0.0
 11
1574.049417812068
 21
6896.121121809184
 31
0.0
  0
SOLID
  5
3F4D
330
3BF3
100
AcDbEntity
  8
SUNPOU
 62
     0
100
AcDbTrace
 10
1564.049417812068
 20
7226.121121809185
 30
0.0
 11
1584.049417812068
 21
7226.121121809185
 31
0.0
 12
1574.049417812068
 22
7166.121121809185
 32
0.0
 13
1574.049417812068
 23
7166.121121809185
 33
0.0
  0
SOLID
  5
3F4E
330
3BF3
100
AcDbEntity
  8
SUNPOU
 62
     0
100
AcDbTrace
 10
1564.049417812068
 20
6956.121121809184
 30
0.0
 11
1584.049417812068
 21
6956.121121809184
 31
0.0
 12
1574.049417812068
 22
7016.121121809184
 32
0.0
 13
1574.049417812068
 23
7016.121121809184
 33
0.0
  0
MTEXT
  5
3F4F
330
3BF3
100
AcDbEntity
  8
SUNPOU
 62
     0
100
AcDbMText
 10
1505.049417812067
 20
7091.121121809185
 30
0.0
 40
90.0
 41
0.0
 71
     5
 72
     1
  1
\A1;150
 11
6.123031769111886E-17
 21
1.0
 31
0.0
 73
     1
 44
1.0
  0
POINT
  5
3F50
330
3BF3
100
AcDbEntity
  8
DEFPOINTS
 62
     0
100
AcDbPoint
 10
2063.023336096137
 20
7166.121121809184
 30
0.0
  0
POINT
  5
3F51
330
3BF3
100
AcDbEntity
  8
DEFPOINTS
 62
     0
100
AcDbPoint
 10
2063.023336096137
 20
7016.121121809183
 30
0.0
  0
POINT
  5
3F52
330
3BF3
100
AcDbEntity
  8
DEFPOINTS
 62
     0
100
AcDbPoint
 10
1574.049417812068
 20
7016.121121809184
 30
0.0
  0
ENDBLK
  5
3BFF
330
3BF3
100
AcDbEntity
  8
0
100
AcDbBlockEnd
  0
BLOCK
  5
3C0A
330
3C00
100
AcDbEntity
  8
0
100
AcDbBlockBegin
  2
*D246
 70
     1
 10
0.0
 20
0.0
 30
0.0
  3
*D246
  1

  0
LINE
  5
3F53
330
3C00
100
AcDbEntity
  8
SUNPOU
 62
     0
370
    -2
100
AcDbLine
 10
2003.023336096137
 20
7016.121121809184
 30
0.0
 11
1559.049417812069
 21
7016.121121809184
 31
0.0
  0
LINE
  5
3F54
330
3C00
100
AcDbEntity
  8
SUNPOU
 62
     0
370
    -2
100
AcDbLine
 10
2563.023336096137
 20
4266.121121809183
 30
0.0
 11
1559.049417812068
 21
4266.121121809184
 31
0.0
  0
LINE
  5
3F55
330
3C00
100
AcDbEntity
  8
SUNPOU
 62
     0
370
    -2
100
AcDbLine
 10
1574.049417812069
 20
6956.121121809184
 30
0.0
 11
1574.049417812068
 21
4326.121121809184
 31
0.0
  0
SOLID
  5
3F56
330
3C00
100
AcDbEntity
  8
SUNPOU
 62
     0
100
AcDbTrace
 10
1564.049417812069
 20
6956.121121809184
 30
0.0
 11
1584.049417812069
 21
6956.121121809184
 31
0.0
 12
1574.049417812069
 22
7016.121121809184
 32
0.0
 13
1574.049417812069
 23
7016.121121809184
 33
0.0
  0
SOLID
  5
3F57
330
3C00
100
AcDbEntity
  8
SUNPOU
 62
     0
100
AcDbTrace
 10
1564.049417812068
 20
4326.121121809184
 30
0.0
 11
1584.049417812068
 21
4326.121121809184
 31
0.0
 12
1574.049417812068
 22
4266.121121809184
 32
0.0
 13
1574.049417812068
 23
4266.121121809184
 33
0.0
  0
MTEXT
  5
3F58
330
3C00
100
AcDbEntity
  8
SUNPOU
 62
     0
100
AcDbMText
 10
1505.049417812068
 20
5641.121121809184
 30
0.0
 40
90.0
 41
0.0
 71
     5
 72
     1
  1
\A1;2750
 11
6.123031769111886E-17
 21
1.0
 31
0.0
 73
     1
 44
1.0
  0
POINT
  5
3F59
330
3C00
100
AcDbEntity
  8
DEFPOINTS
 62
     0
100
AcDbPoint
 10
2063.023336096137
 20
7016.121121809183
 30
0.0
  0
POINT
  5
3F5A
330
3C00
100
AcDbEntity
  8
DEFPOINTS
 62
     0
100
AcDbPoint
 10
2623.023336096137
 20
4266.121121809183
 30
0.0
  0
POINT
  5
3F5B
330
3C00
100
AcDbEntity
  8
DEFPOINTS
 62
     0
100
AcDbPoint
 10
1574.049417812068
 20
4266.121121809184
 30
0.0
  0
ENDBLK
  5
3C0B
330
3C00
100
AcDbEntity
  8
0
100
AcDbBlockEnd
  0
BLOCK
  5
3C83
330
3C79
100
AcDbEntity
  8
0
100
AcDbBlockBegin
  2
*D247
 70
     1
 10
0.0
 20
0.0
 30
0.0
  3
*D247
  1

  0
LINE
  5
3F5C
330
3C79
100
AcDbEntity
  8
SUNPOU
 62
     0
370
    -2
100
AcDbLine
 10
2623.023336096137
 20
4206.121121809183
 30
0.0
 11
2623.023336096137
 21
3765.307574840981
 31
0.0
  0
LINE
  5
3F5D
330
3C79
100
AcDbEntity
  8
SUNPOU
 62
     0
370
    -2
100
AcDbLine
 10
3223.023336096136
 20
4206.121121809183
 30
0.0
 11
3223.023336096136
 21
3765.307574840981
 31
0.0
  0
LINE
  5
3F5E
330
3C79
100
AcDbEntity
  8
SUNPOU
 62
     0
370
    -2
100
AcDbLine
 10
2683.023336096137
 20
3780.307574840981
 30
0.0
 11
3163.023336096136
 21
3780.307574840981
 31
0.0
  0
SOLID
  5
3F5F
330
3C79
100
AcDbEntity
  8
SUNPOU
 62
     0
100
AcDbTrace
 10
2683.023336096137
 20
3790.307574840981
 30
0.0
 11
2683.023336096137
 21
3770.307574840981
 31
0.0
 12
2623.023336096137
 22
3780.307574840981
 32
0.0
 13
2623.023336096137
 23
3780.307574840981
 33
0.0
  0
SOLID
  5
3F60
330
3C79
100
AcDbEntity
  8
SUNPOU
 62
     0
100
AcDbTrace
 10
3163.023336096136
 20
3790.307574840981
 30
0.0
 11
3163.023336096136
 21
3770.307574840981
 31
0.0
 12
3223.023336096136
 22
3780.307574840981
 32
0.0
 13
3223.023336096136
 23
3780.307574840981
 33
0.0
  0
MTEXT
  5
3F61
330
3C79
100
AcDbEntity
  8
SUNPOU
 62
     0
100
AcDbMText
 10
2923.023336096136
 20
3849.307574840981
 30
0.0
 40
90.0
 41
0.0
 71
     5
 72
     1
  1
\A1;600
 73
     1
 44
1.0
  0
POINT
  5
3F62
330
3C79
100
AcDbEntity
  8
DEFPOINTS
 62
     0
100
AcDbPoint
 10
2623.023336096137
 20
4266.121121809183
 30
0.0
  0
POINT
  5
3F63
330
3C79
100
AcDbEntity
  8
DEFPOINTS
 62
     0
100
AcDbPoint
 10
3223.023336096136
 20
4266.121121809183
 30
0.0
  0
POINT
  5
3F64
330
3C79
100
AcDbEntity
  8
DEFPOINTS
 62
     0
100
AcDbPoint
 10
3223.023336096136
 20
3780.307574840981
 30
0.0
  0
ENDBLK
  5
3C84
330
3C79
100
AcDbEntity
  8
0
100
AcDbBlockEnd
  0
BLOCK
  5
3C8F
330
3C85
100
AcDbEntity
  8
0
100
AcDbBlockBegin
  2
*D248
 70
     1
 10
0.0
 20
0.0
 30
0.0
  3
*D248
  1

  0
LINE
  5
3F65
330
3C85
100
AcDbEntity
  8
SUNPOU
 62
     0
370
    -2
100
AcDbLine
 10
3223.023336096136
 20
4206.121121809183
 30
0.0
 11
3223.023336096136
 21
3765.307574840981
 31
0.0
  0
LINE
  5
3F66
330
3C85
100
AcDbEntity
  8
SUNPOU
 62
     0
370
    -2
100
AcDbLine
 10
3623.023336096136
 20
4206.121121809183
 30
0.0
 11
3623.023336096136
 21
3765.307574840981
 31
0.0
  0
LINE
  5
3F67
330
3C85
100
AcDbEntity
  8
SUNPOU
 62
     0
370
    -2
100
AcDbLine
 10
3283.023336096136
 20
3780.307574840981
 30
0.0
 11
3563.023336096136
 21
3780.307574840981
 31
0.0
  0
SOLID
  5
3F68
330
3C85
100
AcDbEntity
  8
SUNPOU
 62
     0
100
AcDbTrace
 10
3283.023336096136
 20
3790.307574840981
 30
0.0
 11
3283.023336096136
 21
3770.307574840981
 31
0.0
 12
3223.023336096136
 22
3780.307574840981
 32
0.0
 13
3223.023336096136
 23
3780.307574840981
 33
0.0
  0
SOLID
  5
3F69
330
3C85
100
AcDbEntity
  8
SUNPOU
 62
     0
100
AcDbTrace
 10
3563.023336096136
 20
3790.307574840981
 30
0.0
 11
3563.023336096136
 21
3770.307574840981
 31
0.0
 12
3623.023336096136
 22
3780.307574840981
 32
0.0
 13
3623.023336096136
 23
3780.307574840981
 33
0.0
  0
MTEXT
  5
3F6A
330
3C85
100
AcDbEntity
  8
SUNPOU
 62
     0
100
AcDbMText
 10
3423.023336096136
 20
3849.307574840981
 30
0.0
 40
90.0
 41
0.0
 71
     5
 72
     1
  1
\A1;400
 73
     1
 44
1.0
  0
POINT
  5
3F6B
330
3C85
100
AcDbEntity
  8
DEFPOINTS
 62
     0
100
AcDbPoint
 10
3223.023336096136
 20
4266.121121809183
 30
0.0
  0
POINT
  5
3F6C
330
3C85
100
AcDbEntity
  8
DEFPOINTS
 62
     0
100
AcDbPoint
 10
3623.023336096136
 20
4266.121121809183
 30
0.0
  0
POINT
  5
3F6D
330
3C85
100
AcDbEntity
  8
DEFPOINTS
 62
     0
100
AcDbPoint
 10
3623.023336096136
 20
3780.307574840981
 30
0.0
  0
ENDBLK
  5
3C90
330
3C85
100
AcDbEntity
  8
0
100
AcDbBlockEnd
  0
BLOCK
  5
3C9B
330
3C91
100
AcDbEntity
  8
0
100
AcDbBlockBegin
  2
*D249
 70
     1
 10
0.0
 20
0.0
 30
0.0
  3
*D249
  1

  0
LINE
  5
3F6E
330
3C91
100
AcDbEntity
  8
SUNPOU
 62
     0
370
    -2
100
AcDbLine
 10
3623.023336096136
 20
4206.121121809183
 30
0.0
 11
3623.023336096136
 21
3765.307574840981
 31
0.0
  0
LINE
  5
3F6F
330
3C91
100
AcDbEntity
  8
SUNPOU
 62
     0
370
    -2
100
AcDbLine
 10
4803.023336096137
 20
4206.121121809181
 30
0.0
 11
4803.023336096137
 21
3765.307574840981
 31
0.0
  0
LINE
  5
3F70
330
3C91
100
AcDbEntity
  8
SUNPOU
 62
     0
370
    -2
100
AcDbLine
 10
3683.023336096136
 20
3780.307574840981
 30
0.0
 11
4743.023336096137
 21
3780.307574840981
 31
0.0
  0
SOLID
  5
3F71
330
3C91
100
AcDbEntity
  8
SUNPOU
 62
     0
100
AcDbTrace
 10
3683.023336096136
 20
3790.307574840981
 30
0.0
 11
3683.023336096136
 21
3770.307574840981
 31
0.0
 12
3623.023336096136
 22
3780.307574840981
 32
0.0
 13
3623.023336096136
 23
3780.307574840981
 33
0.0
  0
SOLID
  5
3F72
330
3C91
100
AcDbEntity
  8
SUNPOU
 62
     0
100
AcDbTrace
 10
4743.023336096137
 20
3790.307574840981
 30
0.0
 11
4743.023336096137
 21
3770.307574840981
 31
0.0
 12
4803.023336096137
 22
3780.307574840981
 32
0.0
 13
4803.023336096137
 23
3780.307574840981
 33
0.0
  0
MTEXT
  5
3F73
330
3C91
100
AcDbEntity
  8
SUNPOU
 62
     0
100
AcDbMText
 10
4213.023336096137
 20
3849.307574840981
 30
0.0
 40
90.0
 41
0.0
 71
     5
 72
     1
  1
\A1;1180
 73
     1
 44
1.0
  0
POINT
  5
3F74
330
3C91
100
AcDbEntity
  8
DEFPOINTS
 62
     0
100
AcDbPoint
 10
3623.023336096136
 20
4266.121121809183
 30
0.0
  0
POINT
  5
3F75
330
3C91
100
AcDbEntity
  8
DEFPOINTS
 62
     0
100
AcDbPoint
 10
4803.023336096137
 20
4266.121121809181
 30
0.0
  0
POINT
  5
3F76
330
3C91
100
AcDbEntity
  8
DEFPOINTS
 62
     0
100
AcDbPoint
 10
4803.023336096137
 20
3780.307574840981
 30
0.0
  0
ENDBLK
  5
3C9C
330
3C91
100
AcDbEntity
  8
0
100
AcDbBlockEnd
  0
BLOCK
  5
3CA8
330
3C9D
100
AcDbEntity
  8
0
100
AcDbBlockBegin
  2
*D250
 70
     1
 10
0.0
 20
0.0
 30
0.0
  3
*D250
  1

  0
LINE
  5
3F77
330
3C9D
100
AcDbEntity
  8
SUNPOU
 62
     0
370
    -2
100
AcDbLine
 10
3623.023336096136
 20
4206.121121809183
 30
0.0
 11
3623.023336096136
 21
3958.467390021508
 31
0.0
  0
LINE
  5
3F78
330
3C9D
100
AcDbEntity
  8
SUNPOU
 62
     0
370
    -2
100
AcDbLine
 10
3523.023336096137
 20
4206.121121809183
 30
0.0
 11
3523.023336096137
 21
3958.467390021508
 31
0.0
  0
LINE
  5
3F79
330
3C9D
100
AcDbEntity
  8
SUNPOU
 62
     0
370
    -2
100
AcDbLine
 10
3683.023336096136
 20
3973.467390021508
 30
0.0
 11
3743.023336096136
 21
3973.467390021508
 31
0.0
  0
LINE
  5
3F7A
330
3C9D
100
AcDbEntity
  8
SUNPOU
 62
     0
370
    -2
100
AcDbLine
 10
3463.023336096137
 20
3973.467390021508
 30
0.0
 11
3403.023336096137
 21
3973.467390021508
 31
0.0
  0
SOLID
  5
3F7B
330
3C9D
100
AcDbEntity
  8
SUNPOU
 62
     0
100
AcDbTrace
 10
3683.023336096136
 20
3983.467390021508
 30
0.0
 11
3683.023336096136
 21
3963.467390021508
 31
0.0
 12
3623.023336096136
 22
3973.467390021508
 32
0.0
 13
3623.023336096136
 23
3973.467390021508
 33
0.0
  0
SOLID
  5
3F7C
330
3C9D
100
AcDbEntity
  8
SUNPOU
 62
     0
100
AcDbTrace
 10
3463.023336096137
 20
3983.467390021508
 30
0.0
 11
3463.023336096137
 21
3963.467390021508
 31
0.0
 12
3523.023336096137
 22
3973.467390021508
 32
0.0
 13
3523.023336096137
 23
3973.467390021508
 33
0.0
  0
MTEXT
  5
3F7D
330
3C9D
100
AcDbEntity
  8
SUNPOU
 62
     0
100
AcDbMText
 10
3573.023336096136
 20
4042.467390021508
 30
0.0
 40
90.0
 41
0.0
 71
     5
 72
     1
  1
\A1;100
 73
     1
 44
1.0
  0
POINT
  5
3F7E
330
3C9D
100
AcDbEntity
  8
DEFPOINTS
 62
     0
100
AcDbPoint
 10
3623.023336096136
 20
4266.121121809183
 30
0.0
  0
POINT
  5
3F7F
330
3C9D
100
AcDbEntity
  8
DEFPOINTS
 62
     0
100
AcDbPoint
 10
3523.023336096137
 20
4266.121121809183
 30
0.0
  0
POINT
  5
3F80
330
3C9D
100
AcDbEntity
  8
DEFPOINTS
 62
     0
100
AcDbPoint
 10
3523.023336096137
 20
3973.467390021508
 30
0.0
  0
ENDBLK
  5
3CA9
330
3C9D
100
AcDbEntity
  8
0
100
AcDbBlockEnd
  0
BLOCK
  5
3CB4
330
3CAA
100
AcDbEntity
  8
0
100
AcDbBlockBegin
  2
*D251
 70
     1
 10
0.0
 20
0.0
 30
0.0
  3
*D251
  1

  0
LINE
  5
3F81
330
3CAA
100
AcDbEntity
  8
SUNPOU
 62
     0
370
    -2
100
AcDbLine
 10
3523.023336096137
 20
4206.121121809183
 30
0.0
 11
3523.023336096137
 21
3958.467390021508
 31
0.0
  0
LINE
  5
3F82
330
3CAA
100
AcDbEntity
  8
SUNPOU
 62
     0
370
    -2
100
AcDbLine
 10
3223.023336096136
 20
4206.121121809183
 30
0.0
 11
3223.023336096136
 21
3958.467390021508
 31
0.0
  0
LINE
  5
3F83
330
3CAA
100
AcDbEntity
  8
SUNPOU
 62
     0
370
    -2
100
AcDbLine
 10
3463.023336096137
 20
3973.467390021508
 30
0.0
 11
3283.023336096136
 21
3973.467390021508
 31
0.0
  0
SOLID
  5
3F84
330
3CAA
100
AcDbEntity
  8
SUNPOU
 62
     0
100
AcDbTrace
 10
3463.023336096137
 20
3983.467390021508
 30
0.0
 11
3463.023336096137
 21
3963.467390021508
 31
0.0
 12
3523.023336096137
 22
3973.467390021508
 32
0.0
 13
3523.023336096137
 23
3973.467390021508
 33
0.0
  0
SOLID
  5
3F85
330
3CAA
100
AcDbEntity
  8
SUNPOU
 62
     0
100
AcDbTrace
 10
3283.023336096136
 20
3983.467390021508
 30
0.0
 11
3283.023336096136
 21
3963.467390021508
 31
0.0
 12
3223.023336096136
 22
3973.467390021508
 32
0.0
 13
3223.023336096136
 23
3973.467390021508
 33
0.0
  0
MTEXT
  5
3F86
330
3CAA
100
AcDbEntity
  8
SUNPOU
 62
     0
100
AcDbMText
 10
3373.023336096136
 20
4042.467390021508
 30
0.0
 40
90.0
 41
0.0
 71
     5
 72
     1
  1
\A1;300
 73
     1
 44
1.0
  0
POINT
  5
3F87
330
3CAA
100
AcDbEntity
  8
DEFPOINTS
 62
     0
100
AcDbPoint
 10
3523.023336096137
 20
4266.121121809183
 30
0.0
  0
POINT
  5
3F88
330
3CAA
100
AcDbEntity
  8
DEFPOINTS
 62
     0
100
AcDbPoint
 10
3223.023336096136
 20
4266.121121809183
 30
0.0
  0
POINT
  5
3F89
330
3CAA
100
AcDbEntity
  8
DEFPOINTS
 62
     0
100
AcDbPoint
 10
3223.023336096136
 20
3973.467390021508
 30
0.0
  0
ENDBLK
  5
3CB5
330
3CAA
100
AcDbEntity
  8
0
100
AcDbBlockEnd
  0
BLOCK
  5
3CC0
330
3CB6
100
AcDbEntity
  8
0
100
AcDbBlockBegin
  2
*D252
 70
     1
 10
0.0
 20
0.0
 30
0.0
  3
*D252
  1

  0
LINE
  5
3F8A
330
3CB6
100
AcDbEntity
  8
SUNPOU
 62
     0
370
    -2
100
AcDbLine
 10
2623.023336096137
 20
4206.121121809183
 30
0.0
 11
2623.023336096137
 21
3570.965824629004
 31
0.0
  0
LINE
  5
3F8B
330
3CB6
100
AcDbEntity
  8
SUNPOU
 62
     0
370
    -2
100
AcDbLine
 10
4803.023336096137
 20
4206.121121809181
 30
0.0
 11
4803.023336096137
 21
3570.965824629004
 31
0.0
  0
LINE
  5
3F8C
330
3CB6
100
AcDbEntity
  8
SUNPOU
 62
     0
370
    -2
100
AcDbLine
 10
2683.023336096137
 20
3585.965824629004
 30
0.0
 11
4743.023336096137
 21
3585.965824629004
 31
0.0
  0
SOLID
  5
3F8D
330
3CB6
100
AcDbEntity
  8
SUNPOU
 62
     0
100
AcDbTrace
 10
2683.023336096137
 20
3595.965824629004
 30
0.0
 11
2683.023336096137
 21
3575.965824629004
 31
0.0
 12
2623.023336096137
 22
3585.965824629004
 32
0.0
 13
2623.023336096137
 23
3585.965824629004
 33
0.0
  0
SOLID
  5
3F8E
330
3CB6
100
AcDbEntity
  8
SUNPOU
 62
     0
100
AcDbTrace
 10
4743.023336096137
 20
3595.965824629004
 30
0.0
 11
4743.023336096137
 21
3575.965824629004
 31
0.0
 12
4803.023336096137
 22
3585.965824629004
 32
0.0
 13
4803.023336096137
 23
3585.965824629004
 33
0.0
  0
MTEXT
  5
3F8F
330
3CB6
100
AcDbEntity
  8
SUNPOU
 62
     0
100
AcDbMText
 10
3713.023336096137
 20
3654.965824629004
 30
0.0
 40
90.0
 41
0.0
 71
     5
 72
     1
  1
\A1;2180
 73
     1
 44
1.0
  0
POINT
  5
3F90
330
3CB6
100
AcDbEntity
  8
DEFPOINTS
 62
     0
100
AcDbPoint
 10
2623.023336096137
 20
4266.121121809183
 30
0.0
  0
POINT
  5
3F91
330
3CB6
100
AcDbEntity
  8
DEFPOINTS
 62
     0
100
AcDbPoint
 10
4803.023336096137
 20
4266.121121809181
 30
0.0
  0
POINT
  5
3F92
330
3CB6
100
AcDbEntity
  8
DEFPOINTS
 62
     0
100
AcDbPoint
 10
4803.023336096137
 20
3585.965824629004
 30
0.0
  0
ENDBLK
  5
3CC1
330
3CB6
100
AcDbEntity
  8
0
100
AcDbBlockEnd
  0
BLOCK
  5
3D2B
330
3D20
100
AcDbEntity
  8
0
100
AcDbBlockBegin
  2
*D253
 70
     1
 10
0.0
 20
0.0
 30
0.0
  3
*D253
  1

  0
LINE
  5
3F93
330
3D20
100
AcDbEntity
  8
SUNPOU
 62
     0
370
    -2
100
AcDbLine
 10
6645.352583971207
 20
7166.121121809183
 30
0.0
 11
6282.697040715871
 21
7166.121121809183
 31
0.0
  0
LINE
  5
3F94
330
3D20
100
AcDbEntity
  8
SUNPOU
 62
     0
370
    -2
100
AcDbLine
 10
6645.352583971207
 20
7016.121121809183
 30
0.0
 11
6282.697040715871
 21
7016.121121809183
 31
0.0
  0
LINE
  5
3F95
330
3D20
100
AcDbEntity
  8
SUNPOU
 62
     0
370
    -2
100
AcDbLine
 10
6297.697040715871
 20
7226.121121809183
 30
0.0
 11
6297.697040715871
 21
7286.121121809183
 31
0.0
  0
LINE
  5
3F96
330
3D20
100
AcDbEntity
  8
SUNPOU
 62
     0
370
    -2
100
AcDbLine
 10
6297.697040715871
 20
6956.121121809183
 30
0.0
 11
6297.697040715871
 21
6896.121121809183
 31
0.0
  0
SOLID
  5
3F97
330
3D20
100
AcDbEntity
  8
SUNPOU
 62
     0
100
AcDbTrace
 10
6287.697040715871
 20
7226.121121809183
 30
0.0
 11
6307.697040715871
 21
7226.121121809183
 31
0.0
 12
6297.697040715871
 22
7166.121121809183
 32
0.0
 13
6297.697040715871
 23
7166.121121809183
 33
0.0
  0
SOLID
  5
3F98
330
3D20
100
AcDbEntity
  8
SUNPOU
 62
     0
100
AcDbTrace
 10
6287.697040715871
 20
6956.121121809183
 30
0.0
 11
6307.697040715871
 21
6956.121121809183
 31
0.0
 12
6297.697040715871
 22
7016.121121809183
 32
0.0
 13
6297.697040715871
 23
7016.121121809183
 33
0.0
  0
MTEXT
  5
3F99
330
3D20
100
AcDbEntity
  8
SUNPOU
 62
     0
100
AcDbMText
 10
6228.69704071587
 20
7091.121121809185
 30
0.0
 40
90.0
 41
0.0
 71
     5
 72
     1
  1
\A1;150
 11
6.123031769111886E-17
 21
1.0
 31
0.0
 73
     1
 44
1.0
  0
POINT
  5
3F9A
330
3D20
100
AcDbEntity
  8
DEFPOINTS
 62
     0
100
AcDbPoint
 10
6705.352583971207
 20
7166.121121809183
 30
0.0
  0
POINT
  5
3F9B
330
3D20
100
AcDbEntity
  8
DEFPOINTS
 62
     0
100
AcDbPoint
 10
6705.352583971207
 20
7016.121121809183
 30
0.0
  0
POINT
  5
3F9C
330
3D20
100
AcDbEntity
  8
DEFPOINTS
 62
     0
100
AcDbPoint
 10
6297.697040715871
 20
7016.121121809183
 30
0.0
  0
ENDBLK
  5
3D2C
330
3D20
100
AcDbEntity
  8
0
100
AcDbBlockEnd
  0
BLOCK
  5
3D37
330
3D2D
100
AcDbEntity
  8
0
100
AcDbBlockBegin
  2
*D254
 70
     1
 10
0.0
 20
0.0
 30
0.0
  3
*D254
  1

  0
LINE
  5
3F9D
330
3D2D
100
AcDbEntity
  8
SUNPOU
 62
     0
370
    -2
100
AcDbLine
 10
6645.352583971207
 20
7016.121121809183
 30
0.0
 11
6282.697040715872
 21
7016.121121809183
 31
0.0
  0
LINE
  5
3F9E
330
3D2D
100
AcDbEntity
  8
SUNPOU
 62
     0
370
    -2
100
AcDbLine
 10
6639.352583971204
 20
4266.121121809183
 30
0.0
 11
6282.697040715871
 21
4266.121121809183
 31
0.0
  0
LINE
  5
3F9F
330
3D2D
100
AcDbEntity
  8
SUNPOU
 62
     0
370
    -2
100
AcDbLine
 10
6297.697040715872
 20
6956.121121809183
 30
0.0
 11
6297.697040715871
 21
4326.121121809183
 31
0.0
  0
SOLID
  5
3FA0
330
3D2D
100
AcDbEntity
  8
SUNPOU
 62
     0
100
AcDbTrace
 10
6287.697040715872
 20
6956.121121809183
 30
0.0
 11
6307.697040715872
 21
6956.121121809183
 31
0.0
 12
6297.697040715872
 22
7016.121121809183
 32
0.0
 13
6297.697040715872
 23
7016.121121809183
 33
0.0
  0
SOLID
  5
3FA1
330
3D2D
100
AcDbEntity
  8
SUNPOU
 62
     0
100
AcDbTrace
 10
6287.697040715871
 20
4326.121121809183
 30
0.0
 11
6307.697040715871
 21
4326.121121809183
 31
0.0
 12
6297.697040715871
 22
4266.121121809183
 32
0.0
 13
6297.697040715871
 23
4266.121121809183
 33
0.0
  0
MTEXT
  5
3FA2
330
3D2D
100
AcDbEntity
  8
SUNPOU
 62
     0
100
AcDbMText
 10
6228.697040715871
 20
5641.121121809185
 30
0.0
 40
90.0
 41
0.0
 71
     5
 72
     1
  1
\A1;2750
 11
6.123031769111886E-17
 21
1.0
 31
0.0
 73
     1
 44
1.0
  0
POINT
  5
3FA3
330
3D2D
100
AcDbEntity
  8
DEFPOINTS
 62
     0
100
AcDbPoint
 10
6705.352583971207
 20
7016.121121809183
 30
0.0
  0
POINT
  5
3FA4
330
3D2D
100
AcDbEntity
  8
DEFPOINTS
 62
     0
100
AcDbPoint
 10
6699.352583971204
 20
4266.121121809183
 30
0.0
  0
POINT
  5
3FA5
330
3D2D
100
AcDbEntity
  8
DEFPOINTS
 62
     0
100
AcDbPoint
 10
6297.697040715871
 20
4266.121121809183
 30
0.0
  0
ENDBLK
  5
3D38
330
3D2D
100
AcDbEntity
  8
0
100
AcDbBlockEnd
  0
BLOCK
  5
3D43
330
3D39
100
AcDbEntity
  8
0
100
AcDbBlockBegin
  2
*D255
 70
     1
 10
0.0
 20
0.0
 30
0.0
  3
*D255
  1

  0
LINE
  5
3FA6
330
3D39
100
AcDbEntity
  8
SUNPOU
 62
     0
370
    -2
100
AcDbLine
 10
6699.352583971207
 20
7226.121121809184
 30
0.0
 11
6699.352583971207
 21
7771.211120219616
 31
0.0
  0
LINE
  5
3FA7
330
3D39
100
AcDbEntity
  8
SUNPOU
 62
     0
370
    -2
100
AcDbLine
 10
8199.352583971207
 20
7226.121121809184
 30
0.0
 11
8199.352583971207
 21
7771.211120219616
 31
0.0
  0
LINE
  5
3FA8
330
3D39
100
AcDbEntity
  8
SUNPOU
 62
     0
370
    -2
100
AcDbLine
 10
6759.352583971207
 20
7756.211120219616
 30
0.0
 11
8139.352583971207
 21
7756.211120219616
 31
0.0
  0
SOLID
  5
3FA9
330
3D39
100
AcDbEntity
  8
SUNPOU
 62
     0
100
AcDbTrace
 10
6759.352583971207
 20
7766.211120219616
 30
0.0
 11
6759.352583971207
 21
7746.211120219616
 31
0.0
 12
6699.352583971207
 22
7756.211120219616
 32
0.0
 13
6699.352583971207
 23
7756.211120219616
 33
0.0
  0
SOLID
  5
3FAA
330
3D39
100
AcDbEntity
  8
SUNPOU
 62
     0
100
AcDbTrace
 10
8139.352583971207
 20
7766.211120219616
 30
0.0
 11
8139.352583971207
 21
7746.211120219616
 31
0.0
 12
8199.352583971207
 22
7756.211120219616
 32
0.0
 13
8199.352583971207
 23
7756.211120219616
 33
0.0
  0
MTEXT
  5
3FAB
330
3D39
100
AcDbEntity
  8
SUNPOU
 62
     0
100
AcDbMText
 10
7449.352583971207
 20
7825.211120219616
 30
0.0
 40
90.0
 41
0.0
 71
     5
 72
     1
  1
\A1;1500
 73
     1
 44
1.0
  0
POINT
  5
3FAC
330
3D39
100
AcDbEntity
  8
DEFPOINTS
 62
     0
100
AcDbPoint
 10
6699.352583971207
 20
7166.121121809184
 30
0.0
  0
POINT
  5
3FAD
330
3D39
100
AcDbEntity
  8
DEFPOINTS
 62
     0
100
AcDbPoint
 10
8199.352583971207
 20
7166.121121809184
 30
0.0
  0
POINT
  5
3FAE
330
3D39
100
AcDbEntity
  8
DEFPOINTS
 62
     0
100
AcDbPoint
 10
8199.352583971207
 20
7756.211120219616
 30
0.0
  0
ENDBLK
  5
3D44
330
3D39
100
AcDbEntity
  8
0
100
AcDbBlockEnd
  0
BLOCK
  5
3D4F
330
3D45
100
AcDbEntity
  8
0
100
AcDbBlockBegin
  2
*D256
 70
     1
 10
0.0
 20
0.0
 30
0.0
  3
*D256
  1

  0
LINE
  5
3FAF
330
3D45
100
AcDbEntity
  8
SUNPOU
 62
     0
370
    -2
100
AcDbLine
 10
6699.352583971207
 20
7226.121121809184
 30
0.0
 11
6699.352583971207
 21
7555.688442592638
 31
0.0
  0
LINE
  5
3FB0
330
3D45
100
AcDbEntity
  8
SUNPOU
 62
     0
370
    -2
100
AcDbLine
 10
7074.352583971207
 20
7226.121121809184
 30
0.0
 11
7074.352583971207
 21
7555.688442592638
 31
0.0
  0
LINE
  5
3FB1
330
3D45
100
AcDbEntity
  8
SUNPOU
 62
     0
370
    -2
100
AcDbLine
 10
6759.352583971207
 20
7540.688442592638
 30
0.0
 11
7014.352583971207
 21
7540.688442592638
 31
0.0
  0
SOLID
  5
3FB2
330
3D45
100
AcDbEntity
  8
SUNPOU
 62
     0
100
AcDbTrace
 10
6759.352583971207
 20
7550.688442592638
 30
0.0
 11
6759.352583971207
 21
7530.688442592638
 31
0.0
 12
6699.352583971207
 22
7540.688442592638
 32
0.0
 13
6699.352583971207
 23
7540.688442592638
 33
0.0
  0
SOLID
  5
3FB3
330
3D45
100
AcDbEntity
  8
SUNPOU
 62
     0
100
AcDbTrace
 10
7014.352583971207
 20
7550.688442592638
 30
0.0
 11
7014.352583971207
 21
7530.688442592638
 31
0.0
 12
7074.352583971207
 22
7540.688442592638
 32
0.0
 13
7074.352583971207
 23
7540.688442592638
 33
0.0
  0
MTEXT
  5
3FB4
330
3D45
100
AcDbEntity
  8
SUNPOU
 62
     0
100
AcDbMText
 10
6886.852583971207
 20
7609.688442592638
 30
0.0
 40
90.0
 41
0.0
 71
     5
 72
     1
  1
\A1;375
 73
     1
 44
1.0
  0
POINT
  5
3FB5
330
3D45
100
AcDbEntity
  8
DEFPOINTS
 62
     0
100
AcDbPoint
 10
6699.352583971207
 20
7166.121121809184
 30
0.0
  0
POINT
  5
3FB6
330
3D45
100
AcDbEntity
  8
DEFPOINTS
 62
     0
100
AcDbPoint
 10
7074.352583971207
 20
7166.121121809184
 30
0.0
  0
POINT
  5
3FB7
330
3D45
100
AcDbEntity
  8
DEFPOINTS
 62
     0
100
AcDbPoint
 10
7074.352583971207
 20
7540.688442592638
 30
0.0
  0
ENDBLK
  5
3D50
330
3D45
100
AcDbEntity
  8
0
100
AcDbBlockEnd
  0
BLOCK
  5
3D5B
330
3D51
100
AcDbEntity
  8
0
100
AcDbBlockBegin
  2
*D257
 70
     1
 10
0.0
 20
0.0
 30
0.0
  3
*D257
  1

  0
LINE
  5
3FB8
330
3D51
100
AcDbEntity
  8
SUNPOU
 62
     0
370
    -2
100
AcDbLine
 10
7074.352583971207
 20
7226.121121809184
 30
0.0
 11
7074.352583971207
 21
7555.688442592638
 31
0.0
  0
LINE
  5
3FB9
330
3D51
100
AcDbEntity
  8
SUNPOU
 62
     0
370
    -2
100
AcDbLine
 10
7824.352583971207
 20
7226.121121809184
 30
0.0
 11
7824.352583971207
 21
7555.688442592638
 31
0.0
  0
LINE
  5
3FBA
330
3D51
100
AcDbEntity
  8
SUNPOU
 62
     0
370
    -2
100
AcDbLine
 10
7134.352583971207
 20
7540.688442592638
 30
0.0
 11
7764.352583971207
 21
7540.688442592638
 31
0.0
  0
SOLID
  5
3FBB
330
3D51
100
AcDbEntity
  8
SUNPOU
 62
     0
100
AcDbTrace
 10
7134.352583971207
 20
7550.688442592638
 30
0.0
 11
7134.352583971207
 21
7530.688442592638
 31
0.0
 12
7074.352583971207
 22
7540.688442592638
 32
0.0
 13
7074.352583971207
 23
7540.688442592638
 33
0.0
  0
SOLID
  5
3FBC
330
3D51
100
AcDbEntity
  8
SUNPOU
 62
     0
100
AcDbTrace
 10
7764.352583971207
 20
7550.688442592638
 30
0.0
 11
7764.352583971207
 21
7530.688442592638
 31
0.0
 12
7824.352583971207
 22
7540.688442592638
 32
0.0
 13
7824.352583971207
 23
7540.688442592638
 33
0.0
  0
MTEXT
  5
3FBD
330
3D51
100
AcDbEntity
  8
SUNPOU
 62
     0
100
AcDbMText
 10
7449.352583971207
 20
7609.688442592638
 30
0.0
 40
90.0
 41
0.0
 71
     5
 72
     1
  1
\A1;750
 73
     1
 44
1.0
  0
POINT
  5
3FBE
330
3D51
100
AcDbEntity
  8
DEFPOINTS
 62
     0
100
AcDbPoint
 10
7074.352583971207
 20
7166.121121809184
 30
0.0
  0
POINT
  5
3FBF
330
3D51
100
AcDbEntity
  8
DEFPOINTS
 62
     0
100
AcDbPoint
 10
7824.352583971207
 20
7166.121121809184
 30
0.0
  0
POINT
  5
3FC0
330
3D51
100
AcDbEntity
  8
DEFPOINTS
 62
     0
100
AcDbPoint
 10
7824.352583971207
 20
7540.688442592638
 30
0.0
  0
ENDBLK
  5
3D5C
330
3D51
100
AcDbEntity
  8
0
100
AcDbBlockEnd
  0
BLOCK
  5
3D67
330
3D5D
100
AcDbEntity
  8
0
100
AcDbBlockBegin
  2
*D258
 70
     1
 10
0.0
 20
0.0
 30
0.0
  3
*D258
  1

  0
LINE
  5
3FC1
330
3D5D
100
AcDbEntity
  8
SUNPOU
 62
     0
370
    -2
100
AcDbLine
 10
7824.352583971207
 20
7226.121121809184
 30
0.0
 11
7824.352583971207
 21
7555.688442592638
 31
0.0
  0
LINE
  5
3FC2
330
3D5D
100
AcDbEntity
  8
SUNPOU
 62
     0
370
    -2
100
AcDbLine
 10
8199.352583971207
 20
7226.121121809184
 30
0.0
 11
8199.352583971207
 21
7555.688442592638
 31
0.0
  0
LINE
  5
3FC3
330
3D5D
100
AcDbEntity
  8
SUNPOU
 62
     0
370
    -2
100
AcDbLine
 10
7884.352583971207
 20
7540.688442592638
 30
0.0
 11
8139.352583971207
 21
7540.688442592638
 31
0.0
  0
SOLID
  5
3FC4
330
3D5D
100
AcDbEntity
  8
SUNPOU
 62
     0
100
AcDbTrace
 10
7884.352583971207
 20
7550.688442592638
 30
0.0
 11
7884.352583971207
 21
7530.688442592638
 31
0.0
 12
7824.352583971207
 22
7540.688442592638
 32
0.0
 13
7824.352583971207
 23
7540.688442592638
 33
0.0
  0
SOLID
  5
3FC5
330
3D5D
100
AcDbEntity
  8
SUNPOU
 62
     0
100
AcDbTrace
 10
8139.352583971207
 20
7550.688442592638
 30
0.0
 11
8139.352583971207
 21
7530.688442592638
 31
0.0
 12
8199.352583971207
 22
7540.688442592638
 32
0.0
 13
8199.352583971207
 23
7540.688442592638
 33
0.0
  0
MTEXT
  5
3FC6
330
3D5D
100
AcDbEntity
  8
SUNPOU
 62
     0
100
AcDbMText
 10
8011.852583971207
 20
7609.688442592638
 30
0.0
 40
90.0
 41
0.0
 71
     5
 72
     1
  1
\A1;375
 73
     1
 44
1.0
  0
POINT
  5
3FC7
330
3D5D
100
AcDbEntity
  8
DEFPOINTS
 62
     0
100
AcDbPoint
 10
7824.352583971207
 20
7166.121121809184
 30
0.0
  0
POINT
  5
3FC8
330
3D5D
100
AcDbEntity
  8
DEFPOINTS
 62
     0
100
AcDbPoint
 10
8199.352583971207
 20
7166.121121809184
 30
0.0
  0
POINT
  5
3FC9
330
3D5D
100
AcDbEntity
  8
DEFPOINTS
 62
     0
100
AcDbPoint
 10
8199.352583971207
 20
7540.688442592638
 30
0.0
  0
ENDBLK
  5
3D68
330
3D5D
100
AcDbEntity
  8
0
100
AcDbBlockEnd
  0
BLOCK
  5
3DC5
330
3DBA
100
AcDbEntity
  8
0
100
AcDbBlockBegin
  2
*D259
 70
     1
 10
0.0
 20
0.0
 30
0.0
  3
*D259
  1

  0
LINE
  5
3FCA
330
3DBA
100
AcDbEntity
  8
SUNPOU
 62
     0
370
    -2
100
AcDbLine
 10
6964.352583971206
 20
5760.724330765246
 30
0.0
 11
6964.352583971206
 21
5849.487073604222
 31
0.0
  0
LINE
  5
3FCB
330
3DBA
100
AcDbEntity
  8
SUNPOU
 62
     0
370
    -2
100
AcDbLine
 10
6984.352583971206
 20
5760.724330765246
 30
0.0
 11
6984.352583971206
 21
5849.487073604222
 31
0.0
  0
LINE
  5
3FCC
330
3DBA
100
AcDbEntity
  8
SUNPOU
 62
     0
370
    -2
100
AcDbLine
 10
6904.352583971206
 20
5834.487073604222
 30
0.0
 11
6844.352583971206
 21
5834.487073604222
 31
0.0
  0
LINE
  5
3FCD
330
3DBA
100
AcDbEntity
  8
SUNPOU
 62
     0
370
    -2
100
AcDbLine
 10
7044.352583971206
 20
5834.487073604222
 30
0.0
 11
7104.352583971206
 21
5834.487073604222
 31
0.0
  0
MTEXT
  5
3FCE
330
3DBA
100
AcDbEntity
  8
SUNPOU
 62
     0
100
AcDbMText
 10
6887.904124927778
 20
5903.487073604222
 30
0.0
 40
90.0
 41
0.0
 71
     5
 72
     1
  1
\A1;20
 73
     1
 44
1.0
  0
SOLID
  5
3FCF
330
3DBA
100
AcDbEntity
  8
SUNPOU
 62
     0
100
AcDbTrace
 10
6904.352583971206
 20
5844.487073604222
 30
0.0
 11
6904.352583971206
 21
5824.487073604222
 31
0.0
 12
6964.352583971206
 22
5834.487073604222
 32
0.0
 13
6964.352583971206
 23
5834.487073604222
 33
0.0
  0
SOLID
  5
3FD0
330
3DBA
100
AcDbEntity
  8
SUNPOU
 62
     0
100
AcDbTrace
 10
7044.352583971206
 20
5844.487073604222
 30
0.0
 11
7044.352583971206
 21
5824.487073604222
 31
0.0
 12
6984.352583971206
 22
5834.487073604222
 32
0.0
 13
6984.352583971206
 23
5834.487073604222
 33
0.0
  0
POINT
  5
3FD1
330
3DBA
100
AcDbEntity
  8
DEFPOINTS
 62
     0
100
AcDbPoint
 10
6964.352583971206
 20
5700.724330765246
 30
0.0
  0
POINT
  5
3FD2
330
3DBA
100
AcDbEntity
  8
DEFPOINTS
 62
     0
100
AcDbPoint
 10
6984.352583971206
 20
5700.724330765246
 30
0.0
  0
POINT
  5
3FD3
330
3DBA
100
AcDbEntity
  8
DEFPOINTS
 62
     0
100
AcDbPoint
 10
6984.352583971206
 20
5834.487073604222
 30
0.0
  0
ENDBLK
  5
3DC6
330
3DBA
100
AcDbEntity
  8
0
100
AcDbBlockEnd
  0
BLOCK
  5
3DD2
330
3DC7
100
AcDbEntity
  8
0
100
AcDbBlockBegin
  2
*D260
 70
     1
 10
0.0
 20
0.0
 30
0.0
  3
*D260
  1

  0
LINE
  5
3FD4
330
3DC7
100
AcDbEntity
  8
SUNPOU
 62
     0
370
    -2
100
AcDbLine
 10
6984.352583971206
 20
5760.724330765246
 30
0.0
 11
6984.352583971206
 21
5849.487073604222
 31
0.0
  0
LINE
  5
3FD5
330
3DC7
100
AcDbEntity
  8
SUNPOU
 62
     0
370
    -2
100
AcDbLine
 10
7164.352583971206
 20
5760.724330765246
 30
0.0
 11
7164.352583971206
 21
5849.487073604222
 31
0.0
  0
LINE
  5
3FD6
330
3DC7
100
AcDbEntity
  8
SUNPOU
 62
     0
370
    -2
100
AcDbLine
 10
6924.352583971206
 20
5834.487073604222
 30
0.0
 11
6864.352583971206
 21
5834.487073604222
 31
0.0
  0
LINE
  5
3FD7
330
3DC7
100
AcDbEntity
  8
SUNPOU
 62
     0
370
    -2
100
AcDbLine
 10
7224.352583971206
 20
5834.487073604222
 30
0.0
 11
7284.352583971206
 21
5834.487073604222
 31
0.0
  0
SOLID
  5
3FD8
330
3DC7
100
AcDbEntity
  8
SUNPOU
 62
     0
100
AcDbTrace
 10
6924.352583971206
 20
5844.487073604222
 30
0.0
 11
6924.352583971206
 21
5824.487073604222
 31
0.0
 12
6984.352583971206
 22
5834.487073604222
 32
0.0
 13
6984.352583971206
 23
5834.487073604222
 33
0.0
  0
SOLID
  5
3FD9
330
3DC7
100
AcDbEntity
  8
SUNPOU
 62
     0
100
AcDbTrace
 10
7224.352583971206
 20
5844.487073604222
 30
0.0
 11
7224.352583971206
 21
5824.487073604222
 31
0.0
 12
7164.352583971206
 22
5834.487073604222
 32
0.0
 13
7164.352583971206
 23
5834.487073604222
 33
0.0
  0
MTEXT
  5
3FDA
330
3DC7
100
AcDbEntity
  8
SUNPOU
 62
     0
100
AcDbMText
 10
7074.352583971206
 20
5903.487073604222
 30
0.0
 40
90.0
 41
0.0
 71
     5
 72
     1
  1
\A1;180
 73
     1
 44
1.0
  0
POINT
  5
3FDB
330
3DC7
100
AcDbEntity
  8
DEFPOINTS
 62
     0
100
AcDbPoint
 10
6984.352583971206
 20
5700.724330765246
 30
0.0
  0
POINT
  5
3FDC
330
3DC7
100
AcDbEntity
  8
DEFPOINTS
 62
     0
100
AcDbPoint
 10
7164.352583971206
 20
5700.724330765246
 30
0.0
  0
POINT
  5
3FDD
330
3DC7
100
AcDbEntity
  8
DEFPOINTS
 62
     0
100
AcDbPoint
 10
7164.352583971206
 20
5834.487073604222
 30
0.0
  0
ENDBLK
  5
3DD3
330
3DC7
100
AcDbEntity
  8
0
100
AcDbBlockEnd
  0
BLOCK
  5
3DDF
330
3DD4
100
AcDbEntity
  8
0
100
AcDbBlockBegin
  2
*D261
 70
     1
 10
0.0
 20
0.0
 30
0.0
  3
*D261
  1

  0
LINE
  5
3FDE
330
3DD4
100
AcDbEntity
  8
SUNPOU
 62
     0
370
    -2
100
AcDbLine
 10
7164.352583971206
 20
5760.724330765246
 30
0.0
 11
7164.352583971206
 21
5849.487073604222
 31
0.0
  0
LINE
  5
3FDF
330
3DD4
100
AcDbEntity
  8
SUNPOU
 62
     0
370
    -2
100
AcDbLine
 10
7184.352583971206
 20
5760.724330765246
 30
0.0
 11
7184.352583971206
 21
5849.487073604222
 31
0.0
  0
LINE
  5
3FE0
330
3DD4
100
AcDbEntity
  8
SUNPOU
 62
     0
370
    -2
100
AcDbLine
 10
7104.352583971206
 20
5834.487073604222
 30
0.0
 11
7044.352583971206
 21
5834.487073604222
 31
0.0
  0
LINE
  5
3FE1
330
3DD4
100
AcDbEntity
  8
SUNPOU
 62
     0
370
    -2
100
AcDbLine
 10
7244.352583971206
 20
5834.487073604222
 30
0.0
 11
7304.352583971206
 21
5834.487073604222
 31
0.0
  0
MTEXT
  5
3FE2
330
3DD4
100
AcDbEntity
  8
SUNPOU
 62
     0
100
AcDbMText
 10
7261.460233769647
 20
5903.487073604222
 30
0.0
 40
90.0
 41
0.0
 71
     5
 72
     1
  1
\A1;20
 73
     1
 44
1.0
  0
SOLID
  5
3FE3
330
3DD4
100
AcDbEntity
  8
SUNPOU
 62
     0
100
AcDbTrace
 10
7104.352583971206
 20
5844.487073604222
 30
0.0
 11
7104.352583971206
 21
5824.487073604222
 31
0.0
 12
7164.352583971206
 22
5834.487073604222
 32
0.0
 13
7164.352583971206
 23
5834.487073604222
 33
0.0
  0
SOLID
  5
3FE4
330
3DD4
100
AcDbEntity
  8
SUNPOU
 62
     0
100
AcDbTrace
 10
7244.352583971206
 20
5844.487073604222
 30
0.0
 11
7244.352583971206
 21
5824.487073604222
 31
0.0
 12
7184.352583971206
 22
5834.487073604222
 32
0.0
 13
7184.352583971206
 23
5834.487073604222
 33
0.0
  0
POINT
  5
3FE5
330
3DD4
100
AcDbEntity
  8
DEFPOINTS
 62
     0
100
AcDbPoint
 10
7164.352583971206
 20
5700.724330765246
 30
0.0
  0
POINT
  5
3FE6
330
3DD4
100
AcDbEntity
  8
DEFPOINTS
 62
     0
100
AcDbPoint
 10
7184.352583971206
 20
5700.724330765246
 30
0.0
  0
POINT
  5
3FE7
330
3DD4
100
AcDbEntity
  8
DEFPOINTS
 62
     0
100
AcDbPoint
 10
7184.352583971206
 20
5834.487073604222
 30
0.0
  0
ENDBLK
  5
3DE0
330
3DD4
100
AcDbEntity
  8
0
100
AcDbBlockEnd
  0
BLOCK
  5
3E1C
330
3E12
100
AcDbEntity
  8
0
100
AcDbBlockBegin
  2
*D262
 70
     1
 10
0.0
 20
0.0
 30
0.0
  3
*D262
  1

  0
LINE
  5
3FE8
330
3E12
100
AcDbEntity
  8
SUNPOU
 62
     0
370
    -2
100
AcDbLine
 10
8199.352583971204
 20
869.9444716293656
 30
0.0
 11
8199.352583971204
 21
349.859298179601
 31
0.0
  0
LINE
  5
3FE9
330
3E12
100
AcDbEntity
  8
SUNPOU
 62
     0
370
    -2
100
AcDbLine
 10
6699.352583971204
 20
869.9444716293656
 30
0.0
 11
6699.352583971204
 21
349.859298179601
 31
0.0
  0
LINE
  5
3FEA
330
3E12
100
AcDbEntity
  8
SUNPOU
 62
     0
370
    -2
100
AcDbLine
 10
8139.352583971204
 20
364.859298179601
 30
0.0
 11
6759.352583971204
 21
364.859298179601
 31
0.0
  0
SOLID
  5
3FEB
330
3E12
100
AcDbEntity
  8
SUNPOU
 62
     0
100
AcDbTrace
 10
8139.352583971204
 20
374.859298179601
 30
0.0
 11
8139.352583971204
 21
354.859298179601
 31
0.0
 12
8199.352583971204
 22
364.859298179601
 32
0.0
 13
8199.352583971204
 23
364.859298179601
 33
0.0
  0
SOLID
  5
3FEC
330
3E12
100
AcDbEntity
  8
SUNPOU
 62
     0
100
AcDbTrace
 10
6759.352583971204
 20
374.859298179601
 30
0.0
 11
6759.352583971204
 21
354.859298179601
 31
0.0
 12
6699.352583971204
 22
364.859298179601
 32
0.0
 13
6699.352583971204
 23
364.859298179601
 33
0.0
  0
MTEXT
  5
3FED
330
3E12
100
AcDbEntity
  8
SUNPOU
 62
     0
100
AcDbMText
 10
7449.352583971204
 20
433.859298179601
 30
0.0
 40
90.0
 41
0.0
 71
     5
 72
     1
  1
\A1;1500
 73
     1
 44
1.0
  0
POINT
  5
3FEE
330
3E12
100
AcDbEntity
  8
DEFPOINTS
 62
     0
100
AcDbPoint
 10
8199.352583971204
 20
929.9444716293656
 30
0.0
  0
POINT
  5
3FEF
330
3E12
100
AcDbEntity
  8
DEFPOINTS
 62
     0
100
AcDbPoint
 10
6699.352583971204
 20
929.9444716293656
 30
0.0
  0
POINT
  5
3FF0
330
3E12
100
AcDbEntity
  8
DEFPOINTS
 62
     0
100
AcDbPoint
 10
6699.352583971204
 20
364.859298179601
 30
0.0
  0
ENDBLK
  5
3E1D
330
3E12
100
AcDbEntity
  8
0
100
AcDbBlockEnd
  0
BLOCK
  5
3E28
330
3E1E
100
AcDbEntity
  8
0
100
AcDbBlockBegin
  2
*D263
 70
     1
 10
0.0
 20
0.0
 30
0.0
  3
*D263
  1

  0
LINE
  5
3FF1
330
3E1E
100
AcDbEntity
  8
SUNPOU
 62
     0
370
    -2
100
AcDbLine
 10
7449.352583971204
 20
869.9444716293656
 30
0.0
 11
7449.352583971204
 21
589.3408490374813
 31
0.0
  0
LINE
  5
3FF2
330
3E1E
100
AcDbEntity
  8
SUNPOU
 62
     0
370
    -2
100
AcDbLine
 10
7074.352583971204
 20
869.9444716293656
 30
0.0
 11
7074.352583971204
 21
589.3408490374813
 31
0.0
  0
LINE
  5
3FF3
330
3E1E
100
AcDbEntity
  8
SUNPOU
 62
     0
370
    -2
100
AcDbLine
 10
7389.352583971204
 20
604.3408490374813
 30
0.0
 11
7134.352583971204
 21
604.3408490374813
 31
0.0
  0
SOLID
  5
3FF4
330
3E1E
100
AcDbEntity
  8
SUNPOU
 62
     0
100
AcDbTrace
 10
7389.352583971204
 20
614.3408490374813
 30
0.0
 11
7389.352583971204
 21
594.3408490374813
 31
0.0
 12
7449.352583971204
 22
604.3408490374813
 32
0.0
 13
7449.352583971204
 23
604.3408490374813
 33
0.0
  0
SOLID
  5
3FF5
330
3E1E
100
AcDbEntity
  8
SUNPOU
 62
     0
100
AcDbTrace
 10
7134.352583971204
 20
614.3408490374813
 30
0.0
 11
7134.352583971204
 21
594.3408490374813
 31
0.0
 12
7074.352583971204
 22
604.3408490374813
 32
0.0
 13
7074.352583971204
 23
604.3408490374813
 33
0.0
  0
MTEXT
  5
3FF6
330
3E1E
100
AcDbEntity
  8
SUNPOU
 62
     0
100
AcDbMText
 10
7261.852583971204
 20
673.3408490374813
 30
0.0
 40
90.0
 41
0.0
 71
     5
 72
     1
  1
\A1;375
 73
     1
 44
1.0
  0
POINT
  5
3FF7
330
3E1E
100
AcDbEntity
  8
DEFPOINTS
 62
     0
100
AcDbPoint
 10
7449.352583971204
 20
929.9444716293656
 30
0.0
  0
POINT
  5
3FF8
330
3E1E
100
AcDbEntity
  8
DEFPOINTS
 62
     0
100
AcDbPoint
 10
7074.352583971204
 20
929.9444716293656
 30
0.0
  0
POINT
  5
3FF9
330
3E1E
100
AcDbEntity
  8
DEFPOINTS
 62
     0
100
AcDbPoint
 10
7074.352583971204
 20
604.3408490374813
 30
0.0
  0
ENDBLK
  5
3E29
330
3E1E
100
AcDbEntity
  8
0
100
AcDbBlockEnd
  0
BLOCK
  5
3E34
330
3E2A
100
AcDbEntity
  8
0
100
AcDbBlockBegin
  2
*D264
 70
     1
 10
0.0
 20
0.0
 30
0.0
  3
*D264
  1

  0
LINE
  5
3FFA
330
3E2A
100
AcDbEntity
  8
SUNPOU
 62
     0
370
    -2
100
AcDbLine
 10
7074.352583971204
 20
869.9444716293656
 30
0.0
 11
7074.352583971204
 21
589.3408490374813
 31
0.0
  0
LINE
  5
3FFB
330
3E2A
100
AcDbEntity
  8
SUNPOU
 62
     0
370
    -2
100
AcDbLine
 10
6699.352583971204
 20
869.9444716293656
 30
0.0
 11
6699.352583971204
 21
589.3408490374813
 31
0.0
  0
LINE
  5
3FFC
330
3E2A
100
AcDbEntity
  8
SUNPOU
 62
     0
370
    -2
100
AcDbLine
 10
7014.352583971204
 20
604.3408490374813
 30
0.0
 11
6759.352583971204
 21
604.3408490374813
 31
0.0
  0
SOLID
  5
3FFD
330
3E2A
100
AcDbEntity
  8
SUNPOU
 62
     0
100
AcDbTrace
 10
7014.352583971204
 20
614.3408490374813
 30
0.0
 11
7014.352583971204
 21
594.3408490374813
 31
0.0
 12
7074.352583971204
 22
604.3408490374813
 32
0.0
 13
7074.352583971204
 23
604.3408490374813
 33
0.0
  0
SOLID
  5
3FFE
330
3E2A
100
AcDbEntity
  8
SUNPOU
 62
     0
100
AcDbTrace
 10
6759.352583971204
 20
614.3408490374813
 30
0.0
 11
6759.352583971204
 21
594.3408490374813
 31
0.0
 12
6699.352583971204
 22
604.3408490374813
 32
0.0
 13
6699.352583971204
 23
604.3408490374813
 33
0.0
  0
MTEXT
  5
3FFF
330
3E2A
100
AcDbEntity
  8
SUNPOU
 62
     0
100
AcDbMText
 10
6886.852583971204
 20
673.3408490374813
 30
0.0
 40
90.0
 41
0.0
 71
     5
 72
     1
  1
\A1;375
 73
     1
 44
1.0
  0
POINT
  5
4000
330
3E2A
100
AcDbEntity
  8
DEFPOINTS
 62
     0
100
AcDbPoint
 10
7074.352583971204
 20
929.9444716293656
 30
0.0
  0
POINT
  5
4001
330
3E2A
100
AcDbEntity
  8
DEFPOINTS
 62
     0
100
AcDbPoint
 10
6699.352583971204
 20
929.9444716293656
 30
0.0
  0
POINT
  5
4002
330
3E2A
100
AcDbEntity
  8
DEFPOINTS
 62
     0
100
AcDbPoint
 10
6699.352583971204
 20
604.3408490374813
 30
0.0
  0
ENDBLK
  5
3E35
330
3E2A
100
AcDbEntity
  8
0
100
AcDbBlockEnd
  0
BLOCK
  5
3E40
330
3E36
100
AcDbEntity
  8
0
100
AcDbBlockBegin
  2
*D265
 70
     1
 10
0.0
 20
0.0
 30
0.0
  3
*D265
  1

  0
LINE
  5
4003
330
3E36
100
AcDbEntity
  8
SUNPOU
 62
     0
370
    -2
100
AcDbLine
 10
8259.352583971204
 20
929.9444716293656
 30
0.0
 11
8718.802866021926
 21
929.9444716293655
 31
0.0
  0
LINE
  5
4004
330
3E36
100
AcDbEntity
  8
SUNPOU
 62
     0
370
    -2
100
AcDbLine
 10
8259.352583971204
 20
1189.944471629366
 30
0.0
 11
8718.802866021926
 21
1189.944471629365
 31
0.0
  0
LINE
  5
4005
330
3E36
100
AcDbEntity
  8
SUNPOU
 62
     0
370
    -2
100
AcDbLine
 10
8703.802866021926
 20
989.9444716293655
 30
0.0
 11
8703.802866021926
 21
1129.944471629366
 31
0.0
  0
SOLID
  5
4006
330
3E36
100
AcDbEntity
  8
SUNPOU
 62
     0
100
AcDbTrace
 10
8693.802866021926
 20
989.9444716293655
 30
0.0
 11
8713.802866021926
 21
989.9444716293655
 31
0.0
 12
8703.802866021926
 22
929.9444716293655
 32
0.0
 13
8703.802866021926
 23
929.9444716293655
 33
0.0
  0
SOLID
  5
4007
330
3E36
100
AcDbEntity
  8
SUNPOU
 62
     0
100
AcDbTrace
 10
8693.802866021926
 20
1129.944471629366
 30
0.0
 11
8713.802866021926
 21
1129.944471629365
 31
0.0
 12
8703.802866021926
 22
1189.944471629366
 32
0.0
 13
8703.802866021926
 23
1189.944471629366
 33
0.0
  0
MTEXT
  5
4008
330
3E36
100
AcDbEntity
  8
SUNPOU
 62
     0
100
AcDbMText
 10
8634.802866021926
 20
1059.944471629367
 30
0.0
 40
90.0
 41
0.0
 71
     5
 72
     1
  1
\A1;260
 11
6.123031769111886E-17
 21
1.0
 31
0.0
 73
     1
 44
1.0
  0
POINT
  5
4009
330
3E36
100
AcDbEntity
  8
DEFPOINTS
 62
     0
100
AcDbPoint
 10
8199.352583971204
 20
929.9444716293656
 30
0.0
  0
POINT
  5
400A
330
3E36
100
AcDbEntity
  8
DEFPOINTS
 62
     0
100
AcDbPoint
 10
8199.352583971204
 20
1189.944471629366
 30
0.0
  0
POINT
  5
400B
330
3E36
100
AcDbEntity
  8
DEFPOINTS
 62
     0
100
AcDbPoint
 10
8703.802866021926
 20
1189.944471629366
 30
0.0
  0
ENDBLK
  5
3E41
330
3E36
100
AcDbEntity
  8
0
100
AcDbBlockEnd
  0
BLOCK
  5
3E4C
330
3E42
100
AcDbEntity
  8
0
100
AcDbBlockBegin
  2
*D266
 70
     1
 10
0.0
 20
0.0
 30
0.0
  3
*D266
  1

  0
LINE
  5
400C
330
3E42
100
AcDbEntity
  8
SUNPOU
 62
     0
370
    -2
100
AcDbLine
 10
8259.352583971204
 20
929.9444716293656
 30
0.0
 11
8524.95865505078
 21
929.9444716293655
 31
0.0
  0
LINE
  5
400D
330
3E42
100
AcDbEntity
  8
SUNPOU
 62
     0
370
    -2
100
AcDbLine
 10
8259.352583971204
 20
1119.944471629366
 30
0.0
 11
8524.95865505078
 21
1119.944471629366
 31
0.0
  0
LINE
  5
400E
330
3E42
100
AcDbEntity
  8
SUNPOU
 62
     0
370
    -2
100
AcDbLine
 10
8509.95865505078
 20
989.9444716293655
 30
0.0
 11
8509.95865505078
 21
1059.944471629366
 31
0.0
  0
MTEXT
  5
400F
330
3E42
100
AcDbEntity
  8
SUNPOU
 62
     0
100
AcDbMText
 10
8440.95865505078
 20
1024.944471629367
 30
0.0
 40
90.0
 41
0.0
 71
     5
 72
     1
  1
\A1;190
 11
6.123031769111886E-17
 21
1.0
 31
0.0
 73
     1
 44
1.0
  0
SOLID
  5
4010
330
3E42
100
AcDbEntity
  8
SUNPOU
 62
     0
100
AcDbTrace
 10
8499.95865505078
 20
989.9444716293655
 30
0.0
 11
8519.95865505078
 21
989.9444716293655
 31
0.0
 12
8509.95865505078
 22
929.9444716293655
 32
0.0
 13
8509.95865505078
 23
929.9444716293655
 33
0.0
  0
SOLID
  5
4011
330
3E42
100
AcDbEntity
  8
SUNPOU
 62
     0
100
AcDbTrace
 10
8499.95865505078
 20
1059.944471629366
 30
0.0
 11
8519.95865505078
 21
1059.944471629366
 31
0.0
 12
8509.95865505078
 22
1119.944471629366
 32
0.0
 13
8509.95865505078
 23
1119.944471629366
 33
0.0
  0
POINT
  5
4012
330
3E42
100
AcDbEntity
  8
DEFPOINTS
 62
     0
100
AcDbPoint
 10
8199.352583971204
 20
929.9444716293656
 30
0.0
  0
POINT
  5
4013
330
3E42
100
AcDbEntity
  8
DEFPOINTS
 62
     0
100
AcDbPoint
 10
8199.352583971204
 20
1119.944471629366
 30
0.0
  0
POINT
  5
4014
330
3E42
100
AcDbEntity
  8
DEFPOINTS
 62
     0
100
AcDbPoint
 10
8509.95865505078
 20
1119.944471629366
 30
0.0
  0
ENDBLK
  5
3E4D
330
3E42
100
AcDbEntity
  8
0
100
AcDbBlockEnd
  0
BLOCK
  5
3E59
330
3E4E
100
AcDbEntity
  8
0
100
AcDbBlockBegin
  2
*D267
 70
     1
 10
0.0
 20
0.0
 30
0.0
  3
*D267
  1

  0
LINE
  5
4015
330
3E4E
100
AcDbEntity
  8
SUNPOU
 62
     0
370
    -2
100
AcDbLine
 10
8259.352583971204
 20
1119.944471629366
 30
0.0
 11
8524.95865505078
 21
1119.944471629366
 31
0.0
  0
LINE
  5
4016
330
3E4E
100
AcDbEntity
  8
SUNPOU
 62
     0
370
    -2
100
AcDbLine
 10
8259.352583971204
 20
1189.944471629366
 30
0.0
 11
8524.95865505078
 21
1189.944471629366
 31
0.0
  0
LINE
  5
4017
330
3E4E
100
AcDbEntity
  8
SUNPOU
 62
     0
370
    -2
100
AcDbLine
 10
8509.95865505078
 20
1059.944471629366
 30
0.0
 11
8509.95865505078
 21
999.9444716293655
 31
0.0
  0
LINE
  5
4018
330
3E4E
100
AcDbEntity
  8
SUNPOU
 62
     0
370
    -2
100
AcDbLine
 10
8509.95865505078
 20
1249.944471629366
 30
0.0
 11
8509.95865505078
 21
1309.944471629366
 31
0.0
  0
MTEXT
  5
4019
330
3E4E
100
AcDbEntity
  8
SUNPOU
 62
     0
100
AcDbMText
 10
8440.95865505078
 20
1183.588666785845
 30
0.0
 40
90.0
 41
0.0
 71
     5
 72
     1
  1
\A1;70
 11
6.123031769111886E-17
 21
1.0
 31
0.0
 73
     1
 44
1.0
  0
SOLID
  5
401A
330
3E4E
100
AcDbEntity
  8
SUNPOU
 62
     0
100
AcDbTrace
 10
8499.95865505078
 20
1059.944471629366
 30
0.0
 11
8519.95865505078
 21
1059.944471629366
 31
0.0
 12
8509.95865505078
 22
1119.944471629366
 32
0.0
 13
8509.95865505078
 23
1119.944471629366
 33
0.0
  0
SOLID
  5
401B
330
3E4E
100
AcDbEntity
  8
SUNPOU
 62
     0
100
AcDbTrace
 10
8499.95865505078
 20
1249.944471629366
 30
0.0
 11
8519.95865505078
 21
1249.944471629366
 31
0.0
 12
8509.95865505078
 22
1189.944471629366
 32
0.0
 13
8509.95865505078
 23
1189.944471629366
 33
0.0
  0
POINT
  5
401C
330
3E4E
100
AcDbEntity
  8
DEFPOINTS
 62
     0
100
AcDbPoint
 10
8199.352583971204
 20
1119.944471629366
 30
0.0
  0
POINT
  5
401D
330
3E4E
100
AcDbEntity
  8
DEFPOINTS
 62
     0
100
AcDbPoint
 10
8199.352583971204
 20
1189.944471629366
 30
0.0
  0
POINT
  5
401E
330
3E4E
100
AcDbEntity
  8
DEFPOINTS
 62
     0
100
AcDbPoint
 10
8509.95865505078
 20
1189.944471629366
 30
0.0
  0
ENDBLK
  5
3E5A
330
3E4E
100
AcDbEntity
  8
0
100
AcDbBlockEnd
  0
BLOCK
  5
3E65
330
3E5B
100
AcDbEntity
  8
0
100
AcDbBlockBegin
  2
*D268
 70
     1
 10
0.0
 20
0.0
 30
0.0
  3
*D268
  1

  0
LINE
  5
401F
330
3E5B
100
AcDbEntity
  8
SUNPOU
 62
     0
370
    -2
100
AcDbLine
 10
7449.352583971204
 20
869.9444716293656
 30
0.0
 11
7449.352583971204
 21
589.3408490374813
 31
0.0
  0
LINE
  5
4020
330
3E5B
100
AcDbEntity
  8
SUNPOU
 62
     0
370
    -2
100
AcDbLine
 10
7824.352583971204
 20
869.9444716293656
 30
0.0
 11
7824.352583971204
 21
589.3408490374813
 31
0.0
  0
LINE
  5
4021
330
3E5B
100
AcDbEntity
  8
SUNPOU
 62
     0
370
    -2
100
AcDbLine
 10
7509.352583971204
 20
604.3408490374813
 30
0.0
 11
7764.352583971204
 21
604.3408490374813
 31
0.0
  0
SOLID
  5
4022
330
3E5B
100
AcDbEntity
  8
SUNPOU
 62
     0
100
AcDbTrace
 10
7509.352583971204
 20
614.3408490374813
 30
0.0
 11
7509.352583971204
 21
594.3408490374813
 31
0.0
 12
7449.352583971204
 22
604.3408490374813
 32
0.0
 13
7449.352583971204
 23
604.3408490374813
 33
0.0
  0
SOLID
  5
4023
330
3E5B
100
AcDbEntity
  8
SUNPOU
 62
     0
100
AcDbTrace
 10
7764.352583971204
 20
614.3408490374813
 30
0.0
 11
7764.352583971204
 21
594.3408490374813
 31
0.0
 12
7824.352583971204
 22
604.3408490374813
 32
0.0
 13
7824.352583971204
 23
604.3408490374813
 33
0.0
  0
MTEXT
  5
4024
330
3E5B
100
AcDbEntity
  8
SUNPOU
 62
     0
100
AcDbMText
 10
7636.852583971204
 20
673.3408490374813
 30
0.0
 40
90.0
 41
0.0
 71
     5
 72
     1
  1
\A1;375
 73
     1
 44
1.0
  0
POINT
  5
4025
330
3E5B
100
AcDbEntity
  8
DEFPOINTS
 62
     0
100
AcDbPoint
 10
7449.352583971204
 20
929.9444716293656
 30
0.0
  0
POINT
  5
4026
330
3E5B
100
AcDbEntity
  8
DEFPOINTS
 62
     0
100
AcDbPoint
 10
7824.352583971204
 20
929.9444716293656
 30
0.0
  0
POINT
  5
4027
330
3E5B
100
AcDbEntity
  8
DEFPOINTS
 62
     0
100
AcDbPoint
 10
7824.352583971204
 20
604.3408490374813
 30
0.0
  0
ENDBLK
  5
3E66
330
3E5B
100
AcDbEntity
  8
0
100
AcDbBlockEnd
  0
BLOCK
  5
3E71
330
3E67
100
AcDbEntity
  8
0
100
AcDbBlockBegin
  2
*D269
 70
     1
 10
0.0
 20
0.0
 30
0.0
  3
*D269
  1

  0
LINE
  5
4028
330
3E67
100
AcDbEntity
  8
SUNPOU
 62
     0
370
    -2
100
AcDbLine
 10
7824.352583971204
 20
869.9444716293656
 30
0.0
 11
7824.352583971204
 21
589.3408490374813
 31
0.0
  0
LINE
  5
4029
330
3E67
100
AcDbEntity
  8
SUNPOU
 62
     0
370
    -2
100
AcDbLine
 10
8199.352583971204
 20
869.9444716293656
 30
0.0
 11
8199.352583971204
 21
589.3408490374813
 31
0.0
  0
LINE
  5
402A
330
3E67
100
AcDbEntity
  8
SUNPOU
 62
     0
370
    -2
100
AcDbLine
 10
7884.352583971204
 20
604.3408490374813
 30
0.0
 11
8139.352583971204
 21
604.3408490374813
 31
0.0
  0
SOLID
  5
402B
330
3E67
100
AcDbEntity
  8
SUNPOU
 62
     0
100
AcDbTrace
 10
7884.352583971204
 20
614.3408490374813
 30
0.0
 11
7884.352583971204
 21
594.3408490374813
 31
0.0
 12
7824.352583971204
 22
604.3408490374813
 32
0.0
 13
7824.352583971204
 23
604.3408490374813
 33
0.0
  0
SOLID
  5
402C
330
3E67
100
AcDbEntity
  8
SUNPOU
 62
     0
100
AcDbTrace
 10
8139.352583971204
 20
614.3408490374813
 30
0.0
 11
8139.352583971204
 21
594.3408490374813
 31
0.0
 12
8199.352583971204
 22
604.3408490374813
 32
0.0
 13
8199.352583971204
 23
604.3408490374813
 33
0.0
  0
MTEXT
  5
402D
330
3E67
100
AcDbEntity
  8
SUNPOU
 62
     0
100
AcDbMText
 10
8011.852583971204
 20
673.3408490374813
 30
0.0
 40
90.0
 41
0.0
 71
     5
 72
     1
  1
\A1;375
 73
     1
 44
1.0
  0
POINT
  5
402E
330
3E67
100
AcDbEntity
  8
DEFPOINTS
 62
     0
100
AcDbPoint
 10
7824.352583971204
 20
929.9444716293656
 30
0.0
  0
POINT
  5
402F
330
3E67
100
AcDbEntity
  8
DEFPOINTS
 62
     0
100
AcDbPoint
 10
8199.352583971204
 20
929.9444716293656
 30
0.0
  0
POINT
  5
4030
330
3E67
100
AcDbEntity
  8
DEFPOINTS
 62
     0
100
AcDbPoint
 10
8199.352583971204
 20
604.3408490374813
 30
0.0
  0
ENDBLK
  5
3E72
330
3E67
100
AcDbEntity
  8
0
100
AcDbBlockEnd
  0
BLOCK
  5
3F10
330
3F06
100
AcDbEntity
  8
0
100
AcDbBlockBegin
  2
*D270
 70
     1
 10
0.0
 20
0.0
 30
0.0
  3
*D270
  1

  0
LINE
  5
4031
330
3F06
100
AcDbEntity
  8
SUNPOU
 62
     0
370
    -2
100
AcDbLine
 10
6639.352583971204
 20
929.9444716293656
 30
0.0
 11
6255.885486230028
 21
929.9444716293657
 31
0.0
  0
LINE
  5
4032
330
3F06
100
AcDbEntity
  8
SUNPOU
 62
     0
370
    -2
100
AcDbLine
 10
6639.352583971205
 20
2489.944471629366
 30
0.0
 11
6255.885486230029
 21
2489.944471629366
 31
0.0
  0
LINE
  5
4033
330
3F06
100
AcDbEntity
  8
SUNPOU
 62
     0
370
    -2
100
AcDbLine
 10
6270.885486230028
 20
989.9444716293657
 30
0.0
 11
6270.885486230029
 21
2429.944471629366
 31
0.0
  0
SOLID
  5
4034
330
3F06
100
AcDbEntity
  8
SUNPOU
 62
     0
100
AcDbTrace
 10
6260.885486230028
 20
989.9444716293657
 30
0.0
 11
6280.885486230028
 21
989.9444716293657
 31
0.0
 12
6270.885486230028
 22
929.9444716293657
 32
0.0
 13
6270.885486230028
 23
929.9444716293657
 33
0.0
  0
SOLID
  5
4035
330
3F06
100
AcDbEntity
  8
SUNPOU
 62
     0
100
AcDbTrace
 10
6260.885486230029
 20
2429.944471629366
 30
0.0
 11
6280.885486230029
 21
2429.944471629366
 31
0.0
 12
6270.885486230029
 22
2489.944471629366
 32
0.0
 13
6270.885486230029
 23
2489.944471629366
 33
0.0
  0
MTEXT
  5
4036
330
3F06
100
AcDbEntity
  8
SUNPOU
 62
     0
100
AcDbMText
 10
6201.885486230028
 20
1709.944471629366
 30
0.0
 40
90.0
 41
0.0
 71
     5
 72
     1
  1
\A1;1560
 11
6.123031769111886E-17
 21
1.0
 31
0.0
 73
     1
 44
1.0
  0
POINT
  5
4037
330
3F06
100
AcDbEntity
  8
DEFPOINTS
 62
     0
100
AcDbPoint
 10
6699.352583971204
 20
929.9444716293656
 30
0.0
  0
POINT
  5
4038
330
3F06
100
AcDbEntity
  8
DEFPOINTS
 62
     0
100
AcDbPoint
 10
6699.352583971205
 20
2489.944471629366
 30
0.0
  0
POINT
  5
4039
330
3F06
100
AcDbEntity
  8
DEFPOINTS
 62
     0
100
AcDbPoint
 10
6270.885486230029
 20
2489.944471629366
 30
0.0
  0
ENDBLK
  5
3F11
330
3F06
100
AcDbEntity
  8
0
100
AcDbBlockEnd
  0
BLOCK
  5
405D
330
4053
100
AcDbEntity
  8
0
100
AcDbBlockBegin
  2
*D271
 70
     1
 10
0.0
 20
0.0
 30
0.0
  3
*D271
  1

  0
LINE
  5
4107
330
4053
100
AcDbEntity
  8
SUNPOU
 62
     0
370
    -2
100
AcDbLine
 10
2563.023336096136
 20
2661.801543540336
 30
0.0
 11
2063.750453304972
 21
2661.801543540336
 31
0.0
  0
LINE
  5
4108
330
4053
100
AcDbEntity
  8
SUNPOU
 62
     0
370
    -2
100
AcDbLine
 10
2563.023336096135
 20
1161.801543540336
 30
0.0
 11
2063.750453304972
 21
1161.801543540336
 31
0.0
  0
LINE
  5
4109
330
4053
100
AcDbEntity
  8
SUNPOU
 62
     0
370
    -2
100
AcDbLine
 10
2078.750453304972
 20
2601.801543540336
 30
0.0
 11
2078.750453304972
 21
1221.801543540336
 31
0.0
  0
SOLID
  5
410A
330
4053
100
AcDbEntity
  8
SUNPOU
 62
     0
100
AcDbTrace
 10
2068.750453304972
 20
2601.801543540336
 30
0.0
 11
2088.750453304972
 21
2601.801543540336
 31
0.0
 12
2078.750453304972
 22
2661.801543540336
 32
0.0
 13
2078.750453304972
 23
2661.801543540336
 33
0.0
  0
SOLID
  5
410B
330
4053
100
AcDbEntity
  8
SUNPOU
 62
     0
100
AcDbTrace
 10
2068.750453304972
 20
1221.801543540336
 30
0.0
 11
2088.750453304972
 21
1221.801543540336
 31
0.0
 12
2078.750453304972
 22
1161.801543540336
 32
0.0
 13
2078.750453304972
 23
1161.801543540336
 33
0.0
  0
MTEXT
  5
410C
330
4053
100
AcDbEntity
  8
SUNPOU
 62
     0
100
AcDbMText
 10
2009.750453304972
 20
1911.801543540336
 30
0.0
 40
90.0
 41
0.0
 71
     5
 72
     1
  1
\A1;1500
 11
6.123031769111886E-17
 21
1.0
 31
0.0
 73
     1
 44
1.0
  0
POINT
  5
410D
330
4053
100
AcDbEntity
  8
DEFPOINTS
 62
     0
100
AcDbPoint
 10
2623.023336096136
 20
2661.801543540336
 30
0.0
  0
POINT
  5
410E
330
4053
100
AcDbEntity
  8
DEFPOINTS
 62
     0
100
AcDbPoint
 10
2623.023336096135
 20
1161.801543540336
 30
0.0
  0
POINT
  5
410F
330
4053
100
AcDbEntity
  8
DEFPOINTS
 62
     0
100
AcDbPoint
 10
2078.750453304972
 20
1161.801543540336
 30
0.0
  0
ENDBLK
  5
405E
330
4053
100
AcDbEntity
  8
0
100
AcDbBlockEnd
  0
BLOCK
  5
4069
330
405F
100
AcDbEntity
  8
0
100
AcDbBlockBegin
  2
*D272
 70
     1
 10
0.0
 20
0.0
 30
0.0
  3
*D272
  1

  0
LINE
  5
4110
330
405F
100
AcDbEntity
  8
SUNPOU
 62
     0
370
    -2
100
AcDbLine
 10
2623.023336096136
 20
1101.801543540336
 30
0.0
 11
2623.023336096136
 21
690.8694479337173
 31
0.0
  0
LINE
  5
4111
330
405F
100
AcDbEntity
  8
SUNPOU
 62
     0
370
    -2
100
AcDbLine
 10
3223.023336096132
 20
1101.801543540336
 30
0.0
 11
3223.023336096132
 21
690.8694479337173
 31
0.0
  0
LINE
  5
4112
330
405F
100
AcDbEntity
  8
SUNPOU
 62
     0
370
    -2
100
AcDbLine
 10
2683.023336096136
 20
705.8694479337173
 30
0.0
 11
3163.023336096132
 21
705.8694479337173
 31
0.0
  0
SOLID
  5
4113
330
405F
100
AcDbEntity
  8
SUNPOU
 62
     0
100
AcDbTrace
 10
2683.023336096136
 20
715.8694479337173
 30
0.0
 11
2683.023336096136
 21
695.8694479337173
 31
0.0
 12
2623.023336096136
 22
705.8694479337173
 32
0.0
 13
2623.023336096136
 23
705.8694479337173
 33
0.0
  0
SOLID
  5
4114
330
405F
100
AcDbEntity
  8
SUNPOU
 62
     0
100
AcDbTrace
 10
3163.023336096132
 20
715.8694479337173
 30
0.0
 11
3163.023336096132
 21
695.8694479337173
 31
0.0
 12
3223.023336096132
 22
705.8694479337173
 32
0.0
 13
3223.023336096132
 23
705.8694479337173
 33
0.0
  0
MTEXT
  5
4115
330
405F
100
AcDbEntity
  8
SUNPOU
 62
     0
100
AcDbMText
 10
2923.023336096134
 20
774.8694479337173
 30
0.0
 40
90.0
 41
0.0
 71
     5
 72
     1
  1
\A1;600
 73
     1
 44
1.0
  0
POINT
  5
4116
330
405F
100
AcDbEntity
  8
DEFPOINTS
 62
     0
100
AcDbPoint
 10
2623.023336096136
 20
1161.801543540336
 30
0.0
  0
POINT
  5
4117
330
405F
100
AcDbEntity
  8
DEFPOINTS
 62
     0
100
AcDbPoint
 10
3223.023336096132
 20
1161.801543540336
 30
0.0
  0
POINT
  5
4118
330
405F
100
AcDbEntity
  8
DEFPOINTS
 62
     0
100
AcDbPoint
 10
3223.023336096132
 20
705.8694479337173
 30
0.0
  0
ENDBLK
  5
406A
330
405F
100
AcDbEntity
  8
0
100
AcDbBlockEnd
  0
BLOCK
  5
4075
330
406B
100
AcDbEntity
  8
0
100
AcDbBlockBegin
  2
*D273
 70
     1
 10
0.0
 20
0.0
 30
0.0
  3
*D273
  1

  0
LINE
  5
4119
330
406B
100
AcDbEntity
  8
SUNPOU
 62
     0
370
    -2
100
AcDbLine
 10
3223.023336096132
 20
1101.801543540336
 30
0.0
 11
3223.023336096132
 21
690.8694479337173
 31
0.0
  0
LINE
  5
411A
330
406B
100
AcDbEntity
  8
SUNPOU
 62
     0
370
    -2
100
AcDbLine
 10
3623.023336096136
 20
1101.801543540336
 30
0.0
 11
3623.023336096136
 21
690.8694479337173
 31
0.0
  0
LINE
  5
411B
330
406B
100
AcDbEntity
  8
SUNPOU
 62
     0
370
    -2
100
AcDbLine
 10
3283.023336096132
 20
705.8694479337173
 30
0.0
 11
3563.023336096136
 21
705.8694479337173
 31
0.0
  0
SOLID
  5
411C
330
406B
100
AcDbEntity
  8
SUNPOU
 62
     0
100
AcDbTrace
 10
3283.023336096132
 20
715.8694479337173
 30
0.0
 11
3283.023336096132
 21
695.8694479337173
 31
0.0
 12
3223.023336096132
 22
705.8694479337173
 32
0.0
 13
3223.023336096132
 23
705.8694479337173
 33
0.0
  0
SOLID
  5
411D
330
406B
100
AcDbEntity
  8
SUNPOU
 62
     0
100
AcDbTrace
 10
3563.023336096136
 20
715.8694479337173
 30
0.0
 11
3563.023336096136
 21
695.8694479337173
 31
0.0
 12
3623.023336096136
 22
705.8694479337173
 32
0.0
 13
3623.023336096136
 23
705.8694479337173
 33
0.0
  0
MTEXT
  5
411E
330
406B
100
AcDbEntity
  8
SUNPOU
 62
     0
100
AcDbMText
 10
3423.023336096134
 20
774.8694479337173
 30
0.0
 40
90.0
 41
0.0
 71
     5
 72
     1
  1
\A1;400
 73
     1
 44
1.0
  0
POINT
  5
411F
330
406B
100
AcDbEntity
  8
DEFPOINTS
 62
     0
100
AcDbPoint
 10
3223.023336096132
 20
1161.801543540336
 30
0.0
  0
POINT
  5
4120
330
406B
100
AcDbEntity
  8
DEFPOINTS
 62
     0
100
AcDbPoint
 10
3623.023336096136
 20
1161.801543540336
 30
0.0
  0
POINT
  5
4121
330
406B
100
AcDbEntity
  8
DEFPOINTS
 62
     0
100
AcDbPoint
 10
3623.023336096136
 20
705.8694479337173
 30
0.0
  0
ENDBLK
  5
4076
330
406B
100
AcDbEntity
  8
0
100
AcDbBlockEnd
  0
BLOCK
  5
4081
330
4077
100
AcDbEntity
  8
0
100
AcDbBlockBegin
  2
*D274
 70
     1
 10
0.0
 20
0.0
 30
0.0
  3
*D274
  1

  0
LINE
  5
4122
330
4077
100
AcDbEntity
  8
SUNPOU
 62
     0
370
    -2
100
AcDbLine
 10
3623.023336096136
 20
1101.801543540336
 30
0.0
 11
3623.023336096136
 21
690.8694479337173
 31
0.0
  0
LINE
  5
4123
330
4077
100
AcDbEntity
  8
SUNPOU
 62
     0
370
    -2
100
AcDbLine
 10
4803.023336096137
 20
1163.642723094324
 30
0.0
 11
4803.023336096137
 21
690.8694479337173
 31
0.0
  0
LINE
  5
4124
330
4077
100
AcDbEntity
  8
SUNPOU
 62
     0
370
    -2
100
AcDbLine
 10
3683.023336096136
 20
705.8694479337173
 30
0.0
 11
4743.023336096137
 21
705.8694479337173
 31
0.0
  0
SOLID
  5
4125
330
4077
100
AcDbEntity
  8
SUNPOU
 62
     0
100
AcDbTrace
 10
3683.023336096136
 20
715.8694479337173
 30
0.0
 11
3683.023336096136
 21
695.8694479337173
 31
0.0
 12
3623.023336096136
 22
705.8694479337173
 32
0.0
 13
3623.023336096136
 23
705.8694479337173
 33
0.0
  0
SOLID
  5
4126
330
4077
100
AcDbEntity
  8
SUNPOU
 62
     0
100
AcDbTrace
 10
4743.023336096137
 20
715.8694479337173
 30
0.0
 11
4743.023336096137
 21
695.8694479337173
 31
0.0
 12
4803.023336096137
 22
705.8694479337173
 32
0.0
 13
4803.023336096137
 23
705.8694479337173
 33
0.0
  0
MTEXT
  5
4127
330
4077
100
AcDbEntity
  8
SUNPOU
 62
     0
100
AcDbMText
 10
4213.023336096136
 20
774.8694479337173
 30
0.0
 40
90.0
 41
0.0
 71
     5
 72
     1
  1
\A1;1180
 73
     1
 44
1.0
  0
POINT
  5
4128
330
4077
100
AcDbEntity
  8
DEFPOINTS
 62
     0
100
AcDbPoint
 10
3623.023336096136
 20
1161.801543540336
 30
0.0
  0
POINT
  5
4129
330
4077
100
AcDbEntity
  8
DEFPOINTS
 62
     0
100
AcDbPoint
 10
4803.023336096137
 20
1223.642723094324
 30
0.0
  0
POINT
  5
412A
330
4077
100
AcDbEntity
  8
DEFPOINTS
 62
     0
100
AcDbPoint
 10
4803.023336096137
 20
705.8694479337173
 30
0.0
  0
ENDBLK
  5
4082
330
4077
100
AcDbEntity
  8
0
100
AcDbBlockEnd
  0
BLOCK
  5
408D
330
4083
100
AcDbEntity
  8
0
100
AcDbBlockBegin
  2
*D275
 70
     1
 10
0.0
 20
0.0
 30
0.0
  3
*D275
  1

  0
LINE
  5
412B
330
4083
100
AcDbEntity
  8
SUNPOU
 62
     0
370
    -2
100
AcDbLine
 10
3223.023336096132
 20
1101.801543540336
 30
0.0
 11
3223.023336096132
 21
876.7305998411721
 31
0.0
  0
LINE
  5
412C
330
4083
100
AcDbEntity
  8
SUNPOU
 62
     0
370
    -2
100
AcDbLine
 10
3523.023336096136
 20
1101.801543540336
 30
0.0
 11
3523.023336096136
 21
876.7305998411721
 31
0.0
  0
LINE
  5
412D
330
4083
100
AcDbEntity
  8
SUNPOU
 62
     0
370
    -2
100
AcDbLine
 10
3283.023336096132
 20
891.7305998411721
 30
0.0
 11
3463.023336096136
 21
891.7305998411721
 31
0.0
  0
SOLID
  5
412E
330
4083
100
AcDbEntity
  8
SUNPOU
 62
     0
100
AcDbTrace
 10
3283.023336096132
 20
901.7305998411721
 30
0.0
 11
3283.023336096132
 21
881.7305998411721
 31
0.0
 12
3223.023336096132
 22
891.7305998411721
 32
0.0
 13
3223.023336096132
 23
891.7305998411721
 33
0.0
  0
SOLID
  5
412F
330
4083
100
AcDbEntity
  8
SUNPOU
 62
     0
100
AcDbTrace
 10
3463.023336096136
 20
901.7305998411721
 30
0.0
 11
3463.023336096136
 21
881.7305998411721
 31
0.0
 12
3523.023336096136
 22
891.7305998411721
 32
0.0
 13
3523.023336096136
 23
891.7305998411721
 33
0.0
  0
MTEXT
  5
4130
330
4083
100
AcDbEntity
  8
SUNPOU
 62
     0
100
AcDbMText
 10
3373.023336096134
 20
960.7305998411721
 30
0.0
 40
90.0
 41
0.0
 71
     5
 72
     1
  1
\A1;300
 73
     1
 44
1.0
  0
POINT
  5
4131
330
4083
100
AcDbEntity
  8
DEFPOINTS
 62
     0
100
AcDbPoint
 10
3223.023336096132
 20
1161.801543540336
 30
0.0
  0
POINT
  5
4132
330
4083
100
AcDbEntity
  8
DEFPOINTS
 62
     0
100
AcDbPoint
 10
3523.023336096136
 20
1161.801543540336
 30
0.0
  0
POINT
  5
4133
330
4083
100
AcDbEntity
  8
DEFPOINTS
 62
     0
100
AcDbPoint
 10
3523.023336096136
 20
891.7305998411721
 30
0.0
  0
ENDBLK
  5
408E
330
4083
100
AcDbEntity
  8
0
100
AcDbBlockEnd
  0
BLOCK
  5
409A
330
408F
100
AcDbEntity
  8
0
100
AcDbBlockBegin
  2
*D276
 70
     1
 10
0.0
 20
0.0
 30
0.0
  3
*D276
  1

  0
LINE
  5
4134
330
408F
100
AcDbEntity
  8
SUNPOU
 62
     0
370
    -2
100
AcDbLine
 10
3523.023336096136
 20
1101.801543540336
 30
0.0
 11
3523.023336096136
 21
876.7305998411721
 31
0.0
  0
LINE
  5
4135
330
408F
100
AcDbEntity
  8
SUNPOU
 62
     0
370
    -2
100
AcDbLine
 10
3623.023336096136
 20
1101.801543540336
 30
0.0
 11
3623.023336096136
 21
876.7305998411721
 31
0.0
  0
LINE
  5
4136
330
408F
100
AcDbEntity
  8
SUNPOU
 62
     0
370
    -2
100
AcDbLine
 10
3463.023336096136
 20
891.7305998411721
 30
0.0
 11
3403.023336096136
 21
891.7305998411721
 31
0.0
  0
LINE
  5
4137
330
408F
100
AcDbEntity
  8
SUNPOU
 62
     0
370
    -2
100
AcDbLine
 10
3683.023336096136
 20
891.7305998411721
 30
0.0
 11
3743.023336096136
 21
891.7305998411721
 31
0.0
  0
MTEXT
  5
4138
330
408F
100
AcDbEntity
  8
SUNPOU
 62
     0
100
AcDbMText
 10
3609.947172441149
 20
960.7305998411721
 30
0.0
 40
90.0
 41
0.0
 71
     5
 72
     1
  1
\A1;100
 73
     1
 44
1.0
  0
SOLID
  5
4139
330
408F
100
AcDbEntity
  8
SUNPOU
 62
     0
100
AcDbTrace
 10
3463.023336096136
 20
901.7305998411721
 30
0.0
 11
3463.023336096136
 21
881.7305998411721
 31
0.0
 12
3523.023336096136
 22
891.7305998411721
 32
0.0
 13
3523.023336096136
 23
891.7305998411721
 33
0.0
  0
SOLID
  5
413A
330
408F
100
AcDbEntity
  8
SUNPOU
 62
     0
100
AcDbTrace
 10
3683.023336096136
 20
901.7305998411721
 30
0.0
 11
3683.023336096136
 21
881.7305998411721
 31
0.0
 12
3623.023336096136
 22
891.7305998411721
 32
0.0
 13
3623.023336096136
 23
891.7305998411721
 33
0.0
  0
POINT
  5
413B
330
408F
100
AcDbEntity
  8
DEFPOINTS
 62
     0
100
AcDbPoint
 10
3523.023336096136
 20
1161.801543540336
 30
0.0
  0
POINT
  5
413C
330
408F
100
AcDbEntity
  8
DEFPOINTS
 62
     0
100
AcDbPoint
 10
3623.023336096136
 20
1161.801543540336
 30
0.0
  0
POINT
  5
413D
330
408F
100
AcDbEntity
  8
DEFPOINTS
 62
     0
100
AcDbPoint
 10
3623.023336096136
 20
891.7305998411721
 30
0.0
  0
ENDBLK
  5
409B
330
408F
100
AcDbEntity
  8
0
100
AcDbBlockEnd
  0
BLOCK
  5
40A6
330
409C
100
AcDbEntity
  8
0
100
AcDbBlockBegin
  2
*D277
 70
     1
 10
0.0
 20
0.0
 30
0.0
  3
*D277
  1

  0
LINE
  5
413E
330
409C
100
AcDbEntity
  8
SUNPOU
 62
     0
370
    -2
100
AcDbLine
 10
2623.023336096136
 20
1101.801543540337
 30
0.0
 11
2623.023336096136
 21
481.6634872707727
 31
0.0
  0
LINE
  5
413F
330
409C
100
AcDbEntity
  8
SUNPOU
 62
     0
370
    -2
100
AcDbLine
 10
4803.023336096137
 20
1163.642723094324
 30
0.0
 11
4803.023336096137
 21
481.6634872707727
 31
0.0
  0
LINE
  5
4140
330
409C
100
AcDbEntity
  8
SUNPOU
 62
     0
370
    -2
100
AcDbLine
 10
2683.023336096136
 20
496.6634872707727
 30
0.0
 11
4743.023336096137
 21
496.6634872707727
 31
0.0
  0
SOLID
  5
4141
330
409C
100
AcDbEntity
  8
SUNPOU
 62
     0
100
AcDbTrace
 10
2683.023336096136
 20
506.6634872707727
 30
0.0
 11
2683.023336096136
 21
486.6634872707727
 31
0.0
 12
2623.023336096136
 22
496.6634872707727
 32
0.0
 13
2623.023336096136
 23
496.6634872707727
 33
0.0
  0
SOLID
  5
4142
330
409C
100
AcDbEntity
  8
SUNPOU
 62
     0
100
AcDbTrace
 10
4743.023336096137
 20
506.6634872707727
 30
0.0
 11
4743.023336096137
 21
486.6634872707727
 31
0.0
 12
4803.023336096137
 22
496.6634872707727
 32
0.0
 13
4803.023336096137
 23
496.6634872707727
 33
0.0
  0
MTEXT
  5
4143
330
409C
100
AcDbEntity
  8
SUNPOU
 62
     0
100
AcDbMText
 10
3713.023336096136
 20
565.6634872707727
 30
0.0
 40
90.0
 41
0.0
 71
     5
 72
     1
  1
\A1;2180
 73
     1
 44
1.0
  0
POINT
  5
4144
330
409C
100
AcDbEntity
  8
DEFPOINTS
 62
     0
100
AcDbPoint
 10
2623.023336096136
 20
1161.801543540337
 30
0.0
  0
POINT
  5
4145
330
409C
100
AcDbEntity
  8
DEFPOINTS
 62
     0
100
AcDbPoint
 10
4803.023336096137
 20
1223.642723094324
 30
0.0
  0
POINT
  5
4146
330
409C
100
AcDbEntity
  8
DEFPOINTS
 62
     0
100
AcDbPoint
 10
4803.023336096137
 20
496.6634872707727
 30
0.0
  0
ENDBLK
  5
40A7
330
409C
100
AcDbEntity
  8
0
100
AcDbBlockEnd
  0
BLOCK
  5
4105
330
40FB
100
AcDbEntity
  8
0
100
AcDbBlockBegin
  2
*D278
 70
     1
 10
0.0
 20
0.0
 30
0.0
  3
*D278
  1

  0
LINE
  5
4147
330
40FB
100
AcDbEntity
  8
SUNPOU
 62
     0
370
    -2
100
AcDbLine
 10
4863.023336096137
 20
1223.642723094324
 30
0.0
 11
5212.102199074164
 21
1223.642723094324
 31
0.0
  0
LINE
  5
4148
330
40FB
100
AcDbEntity
  8
SUNPOU
 62
     0
370
    -2
100
AcDbLine
 10
4863.023336096137
 20
2599.960363986347
 30
0.0
 11
5212.102199074165
 21
2599.960363986347
 31
0.0
  0
LINE
  5
4149
330
40FB
100
AcDbEntity
  8
SUNPOU
 62
     0
370
    -2
100
AcDbLine
 10
5197.102199074164
 20
1283.642723094324
 30
0.0
 11
5197.102199074165
 21
2539.960363986347
 31
0.0
  0
SOLID
  5
414A
330
40FB
100
AcDbEntity
  8
SUNPOU
 62
     0
100
AcDbTrace
 10
5187.102199074164
 20
1283.642723094324
 30
0.0
 11
5207.102199074164
 21
1283.642723094324
 31
0.0
 12
5197.102199074164
 22
1223.642723094324
 32
0.0
 13
5197.102199074164
 23
1223.642723094324
 33
0.0
  0
SOLID
  5
414B
330
40FB
100
AcDbEntity
  8
SUNPOU
 62
     0
100
AcDbTrace
 10
5187.102199074165
 20
2539.960363986347
 30
0.0
 11
5207.102199074165
 21
2539.960363986347
 31
0.0
 12
5197.102199074165
 22
2599.960363986347
 32
0.0
 13
5197.102199074165
 23
2599.960363986347
 33
0.0
  0
MTEXT
  5
414C
330
40FB
100
AcDbEntity
  8
SUNPOU
 62
     0
100
AcDbMText
 10
5128.102199074164
 20
1911.801543540337
 30
0.0
 40
90.0
 41
0.0
 71
     5
 72
     1
  1
\A1;1376
 11
6.123031769111886E-17
 21
1.0
 31
0.0
 73
     1
 44
1.0
  0
POINT
  5
414D
330
40FB
100
AcDbEntity
  8
DEFPOINTS
 62
     0
100
AcDbPoint
 10
4803.023336096137
 20
1223.642723094324
 30
0.0
  0
POINT
  5
414E
330
40FB
100
AcDbEntity
  8
DEFPOINTS
 62
     0
100
AcDbPoint
 10
4803.023336096137
 20
2599.960363986347
 30
0.0
  0
POINT
  5
414F
330
40FB
100
AcDbEntity
  8
DEFPOINTS
 62
     0
100
AcDbPoint
 10
5197.102199074165
 20
2599.960363986347
 30
0.0
  0
ENDBLK
  5
4106
330
40FB
100
AcDbEntity
  8
0
100
AcDbBlockEnd
  0
ENDSEC
  0
SECTION
  2
ENTITIES
  0
TEXT
  5
5F
330
17
100
AcDbEntity
  8
SUNPOU
100
AcDbText
 10
11549.99999999999
 20
480.0
 30
0.0
 40
90.0
  1
30
100
AcDbText
  0
INSERT
  5
60
330
17
100
AcDbEntity
  8
HAIKIN
100
AcDbBlockReference
  2
SA3
 10
510.0
 20
0.0
 30
0.0
 41
30.0
 42
30.0
 43
30.0
  0
TEXT
  5
DF0
330
17
100
AcDbEntity
  8
SUNPOU
100
AcDbText
 10
10254.6554840521
 20
955.0091157608263
 30
0.0
 40
78.0
  1
ロードエル
100
AcDbText
  0
TEXT
  5
DF1
330
17
100
AcDbEntity
  8
SUNPOU
100
AcDbText
 10
10769.86850892367
 20
955.0091157608263
 30
0.0
 40
78.0
  1
Ｈ＝２７５０
100
AcDbText
  0
TEXT
  5
DF2
330
17
100
AcDbEntity
  8
SUNPOU
100
AcDbText
 10
11495.22849743578
 20
955.0091157608263
 30
0.0
 40
78.0
  1
(μ=0.6)
 41
0.8
100
AcDbText
  0
LINE
  5
358B
330
17
100
AcDbEntity
  8
SEIHIN
100
AcDbLine
 10
6699.352583971205
 20
1119.944471629366
 30
0.0
 11
8199.352583971204
 21
1119.944471629366
 31
0.0
  0
LINE
  5
358C
330
17
100
AcDbEntity
  8
SEIHIN
100
AcDbLine
 10
6699.352583971205
 20
1189.944471629366
 30
0.0
 11
8199.352583971204
 21
1189.944471629366
 31
0.0
  0
LWPOLYLINE
  5
358D
330
17
100
AcDbEntity
  8
SEIHIN
100
AcDbPolyline
 90
        2
 70
     0
 43
0.0
 10
6699.352583971205
 20
2489.944471629366
 10
8199.352583971204
 20
2489.944471629366
  0
LWPOLYLINE
  5
358E
330
17
100
AcDbEntity
  8
SUNPOU
100
AcDbPolyline
 90
        2
 70
     0
 43
0.0
 10
6701.972972935356
 20
2539.944471629366
 10
8196.73219500705
 20
2539.944471629366
  0
LINE
  5
3590
330
17
100
AcDbEntity
  8
SEIHIN
  6
DASHED2
 62
     7
 48
2.0
100
AcDbLine
 10
7172.171375917514
 20
2089.944471629366
 30
0.0
 11
6976.533792024896
 21
2089.944471629366
 31
0.0
  0
LINE
  5
3592
330
17
100
AcDbEntity
  8
SEIHIN
100
AcDbLine
 10
7449.352583971204
 20
4386.121121809183
 30
0.0
 11
8199.352583971204
 21
4386.121121809183
 31
0.0
  0
LWPOLYLINE
  5
3597
330
17
100
AcDbEntity
  8
SEIHIN
100
AcDbPolyline
 90
        4
 70
     0
 43
0.0
 10
7449.352583971204
 20
6931.121121809183
 10
7766.502583971203
 20
6931.121121809183
 10
7714.352583971206
 20
6917.117699053481
 10
7449.352583971205
 20
6917.117699053481
  0
LINE
  5
3598
330
17
100
AcDbEntity
  8
SEIHIN
100
AcDbLine
 10
7769.352583971206
 20
6901.121121809182
 30
0.0
 11
7766.502583971205
 21
6931.121121809183
 31
0.0
  0
LINE
  5
3599
330
17
100
AcDbEntity
  8
SEIHIN
100
AcDbLine
 10
7882.202583971209
 20
6931.121121809182
 30
0.0
 11
7879.352583971206
 21
6901.121121809182
 31
0.0
  0
LWPOLYLINE
  5
359A
330
17
100
AcDbEntity
  8
SEIHIN
100
AcDbPolyline
 90
        6
 70
     0
 43
0.0
 10
7934.352583971207
 20
6917.11769905348
 10
7934.352583971204
 20
4687.858466060534
 10
7903.852583971206
 20
4394.653656722247
 10
7744.852583971206
 20
4394.653656722247
 10
7714.352583971205
 20
4687.858466060534
 10
7714.352583971206
 20
6917.117699053481
  0
LWPOLYLINE
  5
359B
330
17
100
AcDbEntity
  8
SEIHIN
100
AcDbPolyline
 90
        4
 70
     0
 43
0.0
 10
8199.352583971206
 20
6931.121121809183
 10
7882.202583971207
 20
6931.121121809183
 10
7934.352583971207
 20
6917.117699053481
 10
8199.352583971207
 20
6917.117699053481
  0
LINE
  5
359C
330
17
100
AcDbEntity
  8
SUNPOU
 62
     5
100
AcDbLine
 10
7734.352583971203
 20
6585.658712070731
 30
0.0
 11
7914.352583971203
 21
6585.658712070731
 31
0.0
  0
LWPOLYLINE
  5
35A6
330
17
100
AcDbEntity
  8
SEIHIN
  6
DASHED2
 62
     7
 48
2.0
100
AcDbPolyline
 90
        4
 70
     0
 43
0.0
 10
2113.023336096137
 20
7166.121121809182
 10
2123.023336096137
 20
6966.121121809182
 10
2203.023336096137
 20
6966.121121809182
 10
2213.023336096137
 20
7166.121121809182
  0
CIRCLE
  5
35B1
330
17
100
AcDbEntity
  8
SUNPOU
100
AcDbCircle
 10
7449.352583971205
 20
1224.944471629366
 30
0.0
 40
11.0
  0
CIRCLE
  5
35B2
330
17
100
AcDbEntity
  8
SEIHIN
100
AcDbCircle
 10
7449.352583971205
 20
4716.121121809183
 30
0.0
 40
35.0
  0
CIRCLE
  5
35B3
330
17
100
AcDbEntity
  8
SEIHIN
 62
     1
100
AcDbCircle
 10
7449.352583971205
 20
4716.121121809183
 30
0.0
 40
25.0
  0
CIRCLE
  5
35B5
330
17
100
AcDbEntity
  8
SUNPOU
100
AcDbCircle
 10
7669.352583971205
 20
6646.121121809183
 30
0.0
 40
11.0
  0
LWPOLYLINE
  5
35BA
330
17
100
AcDbEntity
  8
SEIHIN
 48
2.0
100
AcDbPolyline
 90
        6
 70
     0
 43
0.0
 10
2673.023336096137
 20
4386.121121809183
 10
3353.259982755284
 20
4490.157314827642
 42
0.3704296647521173
 10
3523.023336096137
 20
4687.858466060531
 10
3523.023336096137
 20
6817.143241483072
 42
0.4112076825856629
 10
3424.050679137495
 20
6917.137964175198
 10
2063.023336096137
 20
6931.121121809184
  0
LINE
  5
35D9
330
17
100
AcDbEntity
  8
1HASEN
100
AcDbLine
 10
7449.352583971204
 20
814.538991233042
 30
0.0
 11
7449.352583971205
 21
3772.905384842938
 31
0.0
  0
LWPOLYLINE
  5
35DA
330
17
100
AcDbEntity
  8
SEIHIN
100
AcDbPolyline
 90
        2
 70
     0
 43
0.0
 10
7489.35257493643
 20
979.9444716293656
 10
7449.352583971205
 20
979.9444716293656
 42
-0.9999999999999999
  0
LWPOLYLINE
  5
35DB
330
17
100
AcDbEntity
  8
SEIHIN
100
AcDbPolyline
 90
        3
 70
     0
 43
0.0
 10
7449.352583971205
 20
1079.944471629366
 10
7489.35257493643
 20
1079.944471629366
 42
-1.000000180695494
 10
7489.35257493643
 20
979.9444716293656
  0
LWPOLYLINE
  5
35DC
330
17
100
AcDbEntity
  8
SEIHIN
 48
2.0
100
AcDbPolyline
 90
        3
 70
     0
 43
0.0
 10
7449.352583971205
 20
1079.944471629366
 10
7409.35259300598
 20
1079.944471629366
 42
1.000000180695494
 10
7409.35259300598
 20
979.9444716293656
  0
LWPOLYLINE
  5
35DD
330
17
100
AcDbEntity
  8
SEIHIN
100
AcDbPolyline
 90
        2
 70
     0
 43
0.0
 10
7409.35259300598
 20
979.9444716293656
 10
7449.352583971205
 20
979.9444716293656
 42
0.9999999999999999
  0
LINE
  5
360C
330
17
100
AcDbEntity
  8
1HASEN
100
AcDbLine
 10
2497.361569082436
 20
1911.801543540336
 30
0.0
 11
4895.109946787262
 21
1911.801543540336
 31
0.0
  0
LINE
  5
3610
330
17
100
AcDbEntity
  8
SEIHIN
  6
DASHED2
 62
     7
 48
2.0
100
AcDbLine
 10
3223.023336096137
 20
2185.291476426242
 30
0.0
 11
3223.023336096137
 21
2388.31161065443
 31
0.0
  0
LWPOLYLINE
  5
3611
330
17
100
AcDbEntity
  8
SEIHIN
  6
DASHED2
 62
     7
 48
2.0
100
AcDbPolyline
 90
        2
 70
     0
 43
0.0
 10
3623.023336096137
 20
2661.801543540336
 10
3623.023336096137
 20
1161.801543540336
  0
LINE
  5
3612
330
17
100
AcDbEntity
  8
1HASEN
100
AcDbLine
 10
7449.352583971204
 20
7300.457449507402
 30
0.0
 11
7449.352583971204
 21
4179.489921472887
 31
0.0
  0
LWPOLYLINE
  5
3614
330
17
100
AcDbEntity
  8
SEIHIN
  6
DASHED2
 62
     7
 48
2.0
100
AcDbPolyline
 90
        3
 70
     0
 43
0.0
 10
7539.352583971204
 20
7166.121121809184
 10
7529.352583971203
 20
6966.121121809184
 10
7449.352583971204
 20
6966.121121809184
  0
LINE
  5
36F7
330
17
100
AcDbEntity
  8
SUNPOU
100
AcDbLine
 10
7714.352583971205
 20
4687.858466060534
 30
0.0
 11
7470.79452795403
 21
4688.458095253236
 31
0.0
  0
LINE
  5
36F8
330
17
100
AcDbEntity
  8
SUNPOU
100
AcDbLine
 10
7934.352583971204
 20
4687.858466060537
 30
0.0
 11
8199.352583971206
 21
4687.85846606053
 31
0.0
  0
INSERT
  5
373F
330
17
100
AcDbEntity
  8
SUNPOU
100
AcDbBlockReference
  2
FG
 10
8199.352583971206
 20
4766.121121809183
 30
0.0
  0
LWPOLYLINE
  5
376E
330
17
100
AcDbEntity
  8
SEIHIN
  6
DASHED2
 62
     7
 48
2.0
100
AcDbPolyline
 90
        6
 70
     0
 43
0.0
 10
3523.023336096137
 20
1161.801543540336
 10
3523.023336096137
 20
1426.908926090671
 10
2888.023336096135
 20
1451.348523406108
 10
2888.023336096135
 20
1622.254563674564
 10
3523.023336096137
 20
1646.69416099
 10
3523.023336096137
 20
1911.801543540336
  0
LWPOLYLINE
  5
377F
330
17
100
AcDbEntity
  8
SEIHIN
100
AcDbPolyline
 90
       17
 70
     1
 43
0.0
 10
4803.023336096137
 20
4266.121121809181
 10
2623.023336096137
 20
4266.121121809183
 10
2623.023336096137
 20
4386.121121809183
 10
2673.023336096137
 20
4386.121121809183
 10
2756.174114408788
 20
4398.838299668764
 42
0.3704296647521193
 10
3223.023336096136
 20
4942.516465559211
 10
3223.023336096136
 20
6585.658712070731
 42
0.3884789017169858
 10
3013.387487861409
 20
6814.755419430049
 10
2098.023336096137
 20
6896.121121809183
 10
2063.023336096137
 20
6931.121121809184
 10
2063.023336096137
 20
7166.121121809184
 10
2253.023336096137
 20
7166.121121809184
 10
2323.023336096137
 20
7016.121121809183
 10
3623.023336096137
 20
7016.121121809183
 10
3623.023336096136
 20
4566.121121809182
 10
3672.308198935386
 20
4507.694835858876
 10
4803.023336096137
 20
4378.165410696547
  0
LINE
  5
3791
330
17
100
AcDbEntity
  8
SUNPOU
 62
     5
100
AcDbLine
 10
7734.352583971204
 20
4942.516465559211
 30
0.0
 11
7914.352583971206
 21
4942.516465559211
 31
0.0
  0
LWPOLYLINE
  5
3792
330
17
100
AcDbEntity
  8
SEIHIN
100
AcDbPolyline
 90
        8
 70
     0
 43
0.0
 10
7903.852583971207
 20
4394.653656722247
 10
7914.352583971206
 20
4687.858466060534
 10
7914.352583971206
 20
6817.143241483072
 10
7879.352583971206
 20
6901.121121809182
 10
7769.352583971206
 20
6901.121121809182
 10
7734.352583971206
 20
6817.143241483072
 10
7734.352583971204
 20
4687.858466060534
 10
7744.852583971206
 20
4394.653656722247
  0
LWPOLYLINE
  5
3794
330
17
100
AcDbEntity
  8
SEIHIN
  6
DASHED2
 62
     7
 48
2.0
100
AcDbPolyline
 90
       10
 70
     0
 43
0.0
 10
6699.352583971205
 20
2389.944471629366
 10
6964.45996652154
 20
2389.944471629366
 10
7019.352583971204
 20
929.9444716293656
 10
7129.352583971204
 20
929.9444716293656
 10
7184.245201420868
 20
2389.944471629366
 10
7714.459966521539
 20
2389.944471629365
 10
7769.352583971204
 20
929.9444716293656
 10
7879.352583971204
 20
929.9444716293656
 10
7934.245201420868
 20
2389.944471629366
 10
8199.352583971204
 20
2389.944471629366
  0
CIRCLE
  5
3801
330
17
100
AcDbEntity
  8
SEIHIN
 62
     1
100
AcDbCircle
 10
7449.352583971204
 20
6102.621121809183
 30
0.0
 40
25.0
  0
CIRCLE
  5
3802
330
17
100
AcDbEntity
  8
SEIHIN
100
AcDbCircle
 10
7449.352583971204
 20
6102.621121809183
 30
0.0
 40
35.0
  0
LWPOLYLINE
  5
3803
330
17
100
AcDbEntity
  8
SEIHIN
100
AcDbPolyline
 90
        6
 70
     1
 43
0.0
 10
6761.193763525193
 20
3669.944471629366
 10
6699.352583971205
 20
2489.944471629366
 10
6699.352583971204
 20
929.9444716293656
 10
8199.352583971204
 20
929.9444716293656
 10
8199.352583971204
 20
2489.944471629365
 10
8137.511404417216
 20
3669.944471629366
  0
LWPOLYLINE
  5
3804
330
17
100
AcDbEntity
  8
SEIHIN
100
AcDbPolyline
 90
        6
 70
     1
 43
0.0
 10
4803.023336096137
 20
2599.960363986347
 10
3623.023336096137
 20
2661.801543540336
 10
2623.023336096137
 20
2661.801543540336
 10
2623.023336096136
 20
1161.801543540336
 10
3623.023336096137
 20
1161.801543540336
 10
4803.023336096137
 20
1223.642723094324
  0
LINE
  5
3B65
330
17
100
AcDbEntity
  8
SEIHIN
100
AcDbLine
 10
7449.352583971205
 20
7166.121121809184
 30
0.0
 11
8193.352583971204
 21
7166.121121809183
 31
0.0
  0
LINE
  5
3B66
330
17
100
AcDbEntity
  8
SEIHIN
100
AcDbLine
 10
8193.352583971204
 20
7166.121121809183
 30
0.0
 11
8193.352583971204
 21
7001.121121809183
 31
0.0
  0
LINE
  5
3B67
330
17
100
AcDbEntity
  8
SEIHIN
100
AcDbLine
 10
8193.352583971204
 20
7001.121121809183
 30
0.0
 11
8187.352583971204
 21
6997.621121809184
 31
0.0
  0
LINE
  5
3B68
330
17
100
AcDbEntity
  8
SEIHIN
100
AcDbLine
 10
8187.352583971204
 20
6997.621121809184
 30
0.0
 11
8187.352583971204
 21
6985.621121809184
 31
0.0
  0
LINE
  5
3B69
330
17
100
AcDbEntity
  8
SEIHIN
100
AcDbLine
 10
8187.352583971204
 20
6985.621121809184
 30
0.0
 11
8193.352583971204
 21
6982.121121809183
 31
0.0
  0
LINE
  5
3B6A
330
17
100
AcDbEntity
  8
SEIHIN
100
AcDbLine
 10
8193.352583971204
 20
6982.121121809183
 30
0.0
 11
8193.352583971204
 21
6973.621121809184
 31
0.0
  0
LINE
  5
3B6B
330
17
100
AcDbEntity
  8
SEIHIN
100
AcDbLine
 10
8193.352583971204
 20
6973.621121809184
 30
0.0
 11
8187.352583971204
 21
6970.121121809183
 31
0.0
  0
LINE
  5
3B6C
330
17
100
AcDbEntity
  8
SEIHIN
100
AcDbLine
 10
8187.352583971204
 20
6970.121121809183
 30
0.0
 11
8187.352583971204
 21
6964.121121809183
 31
0.0
  0
LINE
  5
3B6D
330
17
100
AcDbEntity
  8
SEIHIN
100
AcDbLine
 10
8187.352583971204
 20
6964.121121809183
 30
0.0
 11
8199.352583971204
 21
6961.121121809184
 31
0.0
  0
LINE
  5
3B6E
330
17
100
AcDbEntity
  8
SEIHIN
100
AcDbLine
 10
8199.352583971204
 20
6961.121121809184
 30
0.0
 11
8199.352583971204
 21
4266.121121809183
 31
0.0
  0
LINE
  5
3B6F
330
17
100
AcDbEntity
  8
SEIHIN
100
AcDbLine
 10
8199.352583971204
 20
4266.121121809183
 30
0.0
 11
7449.352583971205
 21
4266.121121809183
 31
0.0
  0
LINE
  5
3B7A
330
17
100
AcDbEntity
  8
SEIHIN
100
AcDbLine
 10
7449.352583971205
 20
4386.121121809183
 30
0.0
 11
6699.352583971204
 21
4386.121121809183
 31
0.0
  0
LWPOLYLINE
  5
3B7B
330
17
100
AcDbEntity
  8
SEIHIN
100
AcDbPolyline
 90
        4
 70
     0
 43
0.0
 10
7449.352583971205
 20
6931.121121809183
 10
7132.202583971204
 20
6931.121121809183
 10
7184.352583971202
 20
6917.117699053481
 10
7449.352583971204
 20
6917.117699053481
  0
LINE
  5
3B7C
330
17
100
AcDbEntity
  8
SEIHIN
100
AcDbLine
 10
7129.352583971202
 20
6901.121121809182
 30
0.0
 11
7132.202583971202
 21
6931.121121809183
 31
0.0
  0
LINE
  5
3B7D
330
17
100
AcDbEntity
  8
SEIHIN
100
AcDbLine
 10
7016.502583971199
 20
6931.121121809182
 30
0.0
 11
7019.352583971202
 21
6901.121121809182
 31
0.0
  0
LWPOLYLINE
  5
3B7E
330
17
100
AcDbEntity
  8
SEIHIN
100
AcDbPolyline
 90
        6
 70
     0
 43
0.0
 10
6964.352583971201
 20
6917.11769905348
 10
6964.352583971204
 20
4687.858466060534
 10
6994.852583971202
 20
4394.653656722247
 10
7153.852583971202
 20
4394.653656722247
 10
7184.352583971203
 20
4687.858466060534
 10
7184.352583971202
 20
6917.117699053481
  0
LWPOLYLINE
  5
3B7F
330
17
100
AcDbEntity
  8
SEIHIN
100
AcDbPolyline
 90
        4
 70
     0
 43
0.0
 10
6699.352583971201
 20
6931.121121809183
 10
7016.502583971201
 20
6931.121121809183
 10
6964.352583971201
 20
6917.117699053481
 10
6699.3525839712
 20
6917.117699053481
  0
LINE
  5
3B80
330
17
100
AcDbEntity
  8
SUNPOU
 62
     5
100
AcDbLine
 10
7164.352583971205
 20
6585.658712070731
 30
0.0
 11
6984.352583971205
 21
6585.658712070731
 31
0.0
  0
CIRCLE
  5
3B81
330
17
100
AcDbEntity
  8
SUNPOU
100
AcDbCircle
 10
7229.352583971203
 20
6646.121121809183
 30
0.0
 40
11.00000000000001
  0
LINE
  5
3B82
330
17
100
AcDbEntity
  8
SEIHIN
100
AcDbLine
 10
7449.352583971204
 20
7166.121121809184
 30
0.0
 11
6705.352583971204
 21
7166.121121809183
 31
0.0
  0
LINE
  5
3B83
330
17
100
AcDbEntity
  8
SEIHIN
100
AcDbLine
 10
6705.352583971204
 20
7166.121121809183
 30
0.0
 11
6705.352583971204
 21
7001.121121809183
 31
0.0
  0
LINE
  5
3B84
330
17
100
AcDbEntity
  8
SEIHIN
100
AcDbLine
 10
6705.352583971204
 20
7001.121121809183
 30
0.0
 11
6711.352583971204
 21
6997.621121809184
 31
0.0
  0
LINE
  5
3B85
330
17
100
AcDbEntity
  8
SEIHIN
100
AcDbLine
 10
6711.352583971204
 20
6997.621121809184
 30
0.0
 11
6711.352583971204
 21
6985.621121809184
 31
0.0
  0
LINE
  5
3B86
330
17
100
AcDbEntity
  8
SEIHIN
100
AcDbLine
 10
6711.352583971204
 20
6985.621121809184
 30
0.0
 11
6705.352583971204
 21
6982.121121809183
 31
0.0
  0
LINE
  5
3B87
330
17
100
AcDbEntity
  8
SEIHIN
100
AcDbLine
 10
6705.352583971204
 20
6982.121121809183
 30
0.0
 11
6705.352583971204
 21
6973.621121809184
 31
0.0
  0
LINE
  5
3B88
330
17
100
AcDbEntity
  8
SEIHIN
100
AcDbLine
 10
6705.352583971204
 20
6973.621121809184
 30
0.0
 11
6711.352583971204
 21
6970.121121809183
 31
0.0
  0
LINE
  5
3B89
330
17
100
AcDbEntity
  8
SEIHIN
100
AcDbLine
 10
6711.352583971204
 20
6970.121121809183
 30
0.0
 11
6711.352583971204
 21
6964.121121809183
 31
0.0
  0
LINE
  5
3B8A
330
17
100
AcDbEntity
  8
SEIHIN
100
AcDbLine
 10
6711.352583971204
 20
6964.121121809183
 30
0.0
 11
6699.352583971204
 21
6961.121121809184
 31
0.0
  0
LINE
  5
3B8B
330
17
100
AcDbEntity
  8
SEIHIN
100
AcDbLine
 10
6699.352583971204
 20
6961.121121809184
 30
0.0
 11
6699.352583971204
 21
4266.121121809183
 31
0.0
  0
LINE
  5
3B8C
330
17
100
AcDbEntity
  8
SEIHIN
100
AcDbLine
 10
6699.352583971204
 20
4266.121121809183
 30
0.0
 11
7449.352583971204
 21
4266.121121809183
 31
0.0
  0
LWPOLYLINE
  5
3B8D
330
17
100
AcDbEntity
  8
SEIHIN
  6
DASHED2
 62
     7
 48
2.0
100
AcDbPolyline
 90
        3
 70
     0
 43
0.0
 10
7359.352583971204
 20
7166.121121809184
 10
7369.352583971205
 20
6966.121121809184
 10
7449.352583971205
 20
6966.121121809184
  0
LINE
  5
3B8E
330
17
100
AcDbEntity
  8
SUNPOU
100
AcDbLine
 10
7184.352583971203
 20
4687.858466060534
 30
0.0
 11
7427.910639988378
 21
4688.458095253236
 31
0.0
  0
LINE
  5
3B8F
330
17
100
AcDbEntity
  8
SUNPOU
100
AcDbLine
 10
6964.352583971204
 20
4687.858466060537
 30
0.0
 11
6699.352583971202
 21
4687.85846606053
 31
0.0
  0
INSERT
  5
3B90
330
17
100
AcDbEntity
  8
SUNPOU
100
AcDbBlockReference
  2
FG
 10
6699.352583971201
 20
4766.121121809183
 30
0.0
 41
-1.0
  0
LINE
  5
3B91
330
17
100
AcDbEntity
  8
SUNPOU
 62
     5
100
AcDbLine
 10
7164.352583971204
 20
4942.516465559211
 30
0.0
 11
6984.352583971202
 21
4942.516465559211
 31
0.0
  0
LWPOLYLINE
  5
3B92
330
17
100
AcDbEntity
  8
SEIHIN
100
AcDbPolyline
 90
        8
 70
     0
 43
0.0
 10
6994.852583971201
 20
4394.653656722247
 10
6984.352583971202
 20
4687.858466060534
 10
6984.352583971202
 20
6817.143241483072
 10
7019.352583971202
 20
6901.121121809182
 10
7129.352583971202
 20
6901.121121809182
 10
7164.352583971202
 20
6817.143241483072
 10
7164.352583971204
 20
4687.858466060534
 10
7153.852583971202
 20
4394.653656722247
  0
LINE
  5
3B9A
330
17
100
AcDbEntity
  8
SEIHIN
  6
DASHED2
 62
     7
 48
2.0
100
AcDbLine
 10
3223.023336096137
 20
1638.311610654429
 30
0.0
 11
3223.023336096137
 21
1435.291476426242
 31
0.0
  0
LWPOLYLINE
  5
3B9B
330
17
100
AcDbEntity
  8
SEIHIN
  6
DASHED2
 62
     7
 48
2.0
100
AcDbPolyline
 90
        6
 70
     0
 43
0.0
 10
3523.023336096137
 20
2661.801543540336
 10
3523.023336096137
 20
2396.69416099
 10
2888.023336096135
 20
2372.254563674564
 10
2888.023336096135
 20
2201.348523406108
 10
3523.023336096137
 20
2176.908926090671
 10
3523.023336096137
 20
1911.801543540336
  0
DIMENSION
  5
3BA0
330
17
100
AcDbEntity
  8
SUNPOU
100
AcDbDimension
  2
*D239
 10
4803.023336096137
 20
7756.211120219616
 30
0.0
 11
4213.023336096137
 21
7825.211120219616
 31
0.0
 70
    32
 71
     5
 42
1180.000000000001
  3
A3-30
100
AcDbAlignedDimension
 13
3623.023336096137
 23
7016.121121809183
 33
0.0
 14
4803.023336096137
 24
6962.313965397167
 34
0.0
100
AcDbRotatedDimension
  0
DIMENSION
  5
3BA1
330
17
100
AcDbEntity
  8
SUNPOU
100
AcDbDimension
  2
*D240
 10
2063.023336096137
 20
7756.211120219616
 30
0.0
 11
2843.023336096137
 21
7825.211120219616
 31
0.0
 70
    32
 71
     5
 42
1560.0
  3
A3-30
100
AcDbAlignedDimension
 13
3623.023336096137
 23
7016.121121809183
 33
0.0
 14
2063.023336096137
 24
7166.121121809184
 34
0.0
100
AcDbRotatedDimension
  0
DIMENSION
  5
3BA2
330
17
100
AcDbEntity
  8
SUNPOU
100
AcDbDimension
  2
*D241
 10
2253.023336096137
 20
7392.243923961205
 30
0.0
 11
2158.023336096137
 21
7461.243923961205
 31
0.0
 70
   160
 71
     5
 42
190.0
  3
A3-30
100
AcDbAlignedDimension
 13
2063.023336096137
 23
7166.121121809184
 33
0.0
 14
2253.023336096137
 24
7166.121121809184
 34
0.0
100
AcDbRotatedDimension
  0
DIMENSION
  5
3BA3
330
17
100
AcDbEntity
  8
SUNPOU
100
AcDbDimension
  2
*D242
 10
2323.023336096137
 20
7392.243923961205
 30
0.0
 11
2311.064146453744
 21
7461.243923961205
 31
0.0
 70
   160
 71
     5
 42
70.0
  3
A3-30
100
AcDbAlignedDimension
 13
2253.023336096137
 23
7166.121121809184
 33
0.0
 14
2323.023336096137
 24
7016.121121809183
 34
0.0
100
AcDbRotatedDimension
  0
DIMENSION
  5
3BA4
330
17
100
AcDbEntity
  8
SUNPOU
100
AcDbDimension
  2
*D243
 10
2323.023336096137
 20
7577.753371563727
 30
0.0
 11
2193.023336096137
 21
7646.753371563727
 31
0.0
 70
    32
 71
     5
 42
260.0
  3
A3-30
100
AcDbAlignedDimension
 13
2063.023336096137
 23
7166.121121809184
 33
0.0
 14
2323.023336096137
 24
7016.121121809183
 34
0.0
100
AcDbRotatedDimension
  0
DIMENSION
  5
3BA5
330
17
100
AcDbEntity
  8
SUNPOU
100
AcDbDimension
  2
*D244
 10
3623.023336096137
 20
7577.753371563727
 30
0.0
 11
2973.023336096137
 21
7646.753371563727
 31
0.0
 70
    32
 71
     5
 42
1300.0
  3
A3-30
100
AcDbAlignedDimension
 13
2323.023336096137
 23
7016.121121809183
 33
0.0
 14
3623.023336096137
 24
7016.121121809183
 34
0.0
100
AcDbRotatedDimension
  0
DIMENSION
  5
3BA6
330
17
100
AcDbEntity
  8
SUNPOU
100
AcDbDimension
  2
*D245
 10
1574.049417812068
 20
7016.121121809184
 30
0.0
 11
1505.049417812067
 21
7091.121121809185
 31
0.0
 70
    32
 71
     5
 42
150.0000000000009
  3
A3-30
100
AcDbAlignedDimension
 13
2063.023336096137
 23
7166.121121809184
 33
0.0
 14
2063.023336096137
 24
7016.121121809183
 34
0.0
 50
90.0
100
AcDbRotatedDimension
  0
DIMENSION
  5
3BA7
330
17
100
AcDbEntity
  8
SUNPOU
100
AcDbDimension
  2
*D246
 10
1574.049417812068
 20
4266.121121809184
 30
0.0
 11
1505.049417812068
 21
5641.121121809184
 31
0.0
 70
    32
 71
     5
 42
2750.0
  3
A3-30
100
AcDbAlignedDimension
 13
2063.023336096137
 23
7016.121121809183
 33
0.0
 14
2623.023336096137
 24
4266.121121809183
 34
0.0
 50
90.0
100
AcDbRotatedDimension
  0
TEXT
  5
3BA8
330
17
100
AcDbEntity
  8
SUNPOU
100
AcDbText
 10
1059.178555059922
 20
7766.143190976738
 30
0.0
 40
100.0
  1
側 面 図
 72
     1
 11
1282.511888393256
 21
7766.143190976738
 31
0.0
100
AcDbText
  0
LWPOLYLINE
  5
3BA9
330
17
100
AcDbEntity
  8
SUNPOU
100
AcDbPolyline
 90
        4
 70
     1
 43
0.0
 10
1010.618652996831
 20
7902.598665139945
 10
1571.36115134122
 20
7902.598665139945
 10
1571.36115134122
 20
7730.895642118196
 10
1010.618652996831
 20
7730.895642118196
  0
DIMENSION
  5
3C71
330
17
100
AcDbEntity
  8
SUNPOU
100
AcDbDimension
  2
*D247
 10
3223.023336096136
 20
3780.307574840981
 30
0.0
 11
2923.023336096136
 21
3849.307574840981
 31
0.0
 70
    32
 71
     5
 42
599.9999999999991
  3
A3-30
100
AcDbAlignedDimension
 13
2623.023336096137
 23
4266.121121809183
 33
0.0
 14
3223.023336096136
 24
4266.121121809183
 34
0.0
100
AcDbRotatedDimension
  0
DIMENSION
  5
3C72
330
17
100
AcDbEntity
  8
SUNPOU
100
AcDbDimension
  2
*D248
 10
3623.023336096136
 20
3780.307574840981
 30
0.0
 11
3423.023336096136
 21
3849.307574840981
 31
0.0
 70
    32
 71
     5
 42
400.0
  3
A3-30
100
AcDbAlignedDimension
 13
3223.023336096136
 23
4266.121121809183
 33
0.0
 14
3623.023336096136
 24
4266.121121809183
 34
0.0
100
AcDbRotatedDimension
  0
DIMENSION
  5
3C73
330
17
100
AcDbEntity
  8
SUNPOU
100
AcDbDimension
  2
*D249
 10
4803.023336096137
 20
3780.307574840981
 30
0.0
 11
4213.023336096137
 21
3849.307574840981
 31
0.0
 70
    32
 71
     5
 42
1180.000000000002
  3
A3-30
100
AcDbAlignedDimension
 13
3623.023336096136
 23
4266.121121809183
 33
0.0
 14
4803.023336096137
 24
4266.121121809181
 34
0.0
100
AcDbRotatedDimension
  0
DIMENSION
  5
3C74
330
17
100
AcDbEntity
  8
SUNPOU
100
AcDbDimension
  2
*D250
 10
3523.023336096137
 20
3973.467390021508
 30
0.0
 11
3573.023336096136
 21
4042.467390021508
 31
0.0
 70
    32
 71
     5
 42
99.99999999999909
  3
A3-30
100
AcDbAlignedDimension
 13
3623.023336096136
 23
4266.121121809183
 33
0.0
 14
3523.023336096137
 24
4266.121121809183
 34
0.0
100
AcDbRotatedDimension
  0
DIMENSION
  5
3C75
330
17
100
AcDbEntity
  8
SUNPOU
100
AcDbDimension
  2
*D251
 10
3223.023336096136
 20
3973.467390021508
 30
0.0
 11
3373.023336096136
 21
4042.467390021508
 31
0.0
 70
    32
 71
     5
 42
300.0000000000009
  3
A3-30
100
AcDbAlignedDimension
 13
3523.023336096137
 23
4266.121121809183
 33
0.0
 14
3223.023336096136
 24
4266.121121809183
 34
0.0
100
AcDbRotatedDimension
  0
DIMENSION
  5
3C76
330
17
100
AcDbEntity
  8
SUNPOU
100
AcDbDimension
  2
*D252
 10
4803.023336096137
 20
3585.965824629004
 30
0.0
 11
3713.023336096137
 21
3654.965824629004
 31
0.0
 70
    32
 71
     5
 42
2180.000000000001
  3
A3-30
100
AcDbAlignedDimension
 13
2623.023336096137
 23
4266.121121809183
 33
0.0
 14
4803.023336096137
 24
4266.121121809181
 34
0.0
100
AcDbRotatedDimension
  0
LWPOLYLINE
  5
3C77
330
17
100
AcDbEntity
  8
SUNPOU
100
AcDbPolyline
 90
        4
 70
     1
 43
0.0
 10
3523.023336096137
 20
4799.121121809183
 10
3573.023336096137
 20
4799.121121809183
 10
3573.023336096137
 20
4733.121121809183
 10
3523.023336096137
 20
4733.121121809183
  0
CIRCLE
  5
3C78
330
17
100
AcDbEntity
  8
SUNPOU
100
AcDbCircle
 10
3548.023336096137
 20
4766.121121809183
 30
0.0
 40
8.0
  0
LWPOLYLINE
  5
3D0B
330
17
100
AcDbEntity
  8
SUNPOU
100
AcDbPolyline
 90
        4
 70
     1
 43
0.0
 10
3573.023336096137
 20
6949.121121809183
 10
3623.023336096137
 20
6949.121121809183
 10
3623.023336096137
 20
6883.121121809183
 10
3573.023336096137
 20
6883.121121809183
  0
CIRCLE
  5
3D0C
330
17
100
AcDbEntity
  8
SUNPOU
100
AcDbCircle
 10
3598.023336096137
 20
6916.121121809183
 30
0.0
 40
8.0
  0
DIMENSION
  5
3D0D
330
17
100
AcDbEntity
  8
SUNPOU
100
AcDbDimension
  2
*D253
 10
6297.697040715871
 20
7016.121121809183
 30
0.0
 11
6228.69704071587
 21
7091.121121809185
 31
0.0
 70
    32
 71
     5
 42
150.0
  3
A3-30
100
AcDbAlignedDimension
 13
6705.352583971207
 23
7166.121121809183
 33
0.0
 14
6705.352583971207
 24
7016.121121809183
 34
0.0
 50
90.0
100
AcDbRotatedDimension
  0
DIMENSION
  5
3D0E
330
17
100
AcDbEntity
  8
SUNPOU
100
AcDbDimension
  2
*D254
 10
6297.697040715871
 20
4266.121121809183
 30
0.0
 11
6228.697040715871
 21
5641.121121809185
 31
0.0
 70
    32
 71
     5
 42
2750.0
  3
A3-30
100
AcDbAlignedDimension
 13
6705.352583971207
 23
7016.121121809183
 33
0.0
 14
6699.352583971204
 24
4266.121121809183
 34
0.0
 50
90.0
100
AcDbRotatedDimension
  0
DIMENSION
  5
3D0F
330
17
100
AcDbEntity
  8
SUNPOU
100
AcDbDimension
  2
*D255
 10
8199.352583971207
 20
7756.211120219616
 30
0.0
 11
7449.352583971207
 21
7825.211120219616
 31
0.0
 70
    32
 71
     5
 42
1500.0
  3
A3-30
100
AcDbAlignedDimension
 13
6699.352583971207
 23
7166.121121809184
 33
0.0
 14
8199.352583971207
 24
7166.121121809184
 34
0.0
100
AcDbRotatedDimension
  0
DIMENSION
  5
3D10
330
17
100
AcDbEntity
  8
SUNPOU
100
AcDbDimension
  2
*D256
 10
7074.352583971207
 20
7540.688442592638
 30
0.0
 11
6886.852583971207
 21
7609.688442592638
 31
0.0
 70
    32
 71
     5
 42
375.0
  3
A3-30
100
AcDbAlignedDimension
 13
6699.352583971207
 23
7166.121121809184
 33
0.0
 14
7074.352583971207
 24
7166.121121809184
 34
0.0
100
AcDbRotatedDimension
  0
DIMENSION
  5
3D11
330
17
100
AcDbEntity
  8
SUNPOU
100
AcDbDimension
  2
*D257
 10
7824.352583971207
 20
7540.688442592638
 30
0.0
 11
7449.352583971207
 21
7609.688442592638
 31
0.0
 70
    32
 71
     5
 42
750.0
  3
A3-30
100
AcDbAlignedDimension
 13
7074.352583971207
 23
7166.121121809184
 33
0.0
 14
7824.352583971207
 24
7166.121121809184
 34
0.0
100
AcDbRotatedDimension
  0
DIMENSION
  5
3D12
330
17
100
AcDbEntity
  8
SUNPOU
100
AcDbDimension
  2
*D258
 10
8199.352583971207
 20
7540.688442592638
 30
0.0
 11
8011.852583971207
 21
7609.688442592638
 31
0.0
 70
    32
 71
     5
 42
375.0
  3
A3-30
100
AcDbAlignedDimension
 13
7824.352583971207
 23
7166.121121809184
 33
0.0
 14
8199.352583971207
 24
7166.121121809184
 34
0.0
100
AcDbRotatedDimension
  0
TEXT
  5
3D13
330
17
100
AcDbEntity
  8
SUNPOU
100
AcDbText
 10
5899.210377721919
 20
7766.143190976738
 30
0.0
 40
100.0
  1
正 面 図
 72
     1
 11
6122.543711055252
 21
7766.143190976738
 31
0.0
100
AcDbText
  0
LWPOLYLINE
  5
3D14
330
17
100
AcDbEntity
  8
SUNPOU
100
AcDbPolyline
 90
        4
 70
     1
 43
0.0
 10
5850.650475658827
 20
7902.598665139945
 10
6411.392974003216
 20
7902.598665139945
 10
6411.392974003216
 20
7730.895642118196
 10
5850.650475658827
 20
7730.895642118196
  0
LWPOLYLINE
  5
3D15
330
17
100
AcDbEntity
  8
0
  6
HIDDEN
 48
0.3
100
AcDbPolyline
 90
        4
 70
     0
 43
0.0
 10
8199.352583971207
 20
6884.621121809183
 10
8194.852583971207
 20
6886.621121809183
 10
8194.852583971207
 20
6945.621121809183
 10
8199.352583971207
 20
6947.621121809183
  0
LWPOLYLINE
  5
3D16
330
17
100
AcDbEntity
  8
0
  6
HIDDEN
 48
0.3
100
AcDbPolyline
 90
        2
 70
     0
 43
0.0
 10
8194.852583971207
 20
6943.121121809183
 10
8157.85258397211
 20
6943.121121809183
  0
LWPOLYLINE
  5
3D17
330
17
100
AcDbEntity
  8
0
  6
HIDDEN
 48
0.3
100
AcDbPolyline
 90
        2
 70
     0
 43
0.0
 10
8157.852583971207
 20
6943.121121809183
 42
1.111111111111126
 10
8157.852583971207
 20
6889.121121809183
 42
1.111111111111126
  0
LWPOLYLINE
  5
3D18
330
17
100
AcDbEntity
  8
0
  6
HIDDEN
 48
0.3
100
AcDbPolyline
 90
        2
 70
     0
 43
0.0
 10
8194.852583971207
 20
6889.121121809183
 10
8157.85258397211
 20
6889.121121809183
  0
TEXT
  5
3D19
330
17
100
AcDbEntity
  8
SUNPOU
100
AcDbText
 10
8423.941790245422
 20
6603.770878713678
 30
0.0
 40
90.0
  1
ジョイント金具
 41
0.8
100
AcDbText
  0
LINE
  5
3D1A
330
17
100
AcDbEntity
  8
SUNPOU
100
AcDbLine
 10
8397.755570065783
 20
6591.60013215598
 30
0.0
 11
9043.947652182933
 21
6591.60013215598
 31
0.0
  0
LEADER
  5
3D1B
330
17
100
AcDbEntity
  8
SUNPOU
100
AcDbLeader
  3
A3-30
 76
     2
 10
8194.852583971207
 20
6916.121121809183
 30
0.0
 10
8397.755570065783
 20
6591.60013215598
 30
0.0
  0
LWPOLYLINE
  5
3D1C
330
17
100
AcDbEntity
  8
0
  6
HIDDEN
 48
0.3
100
AcDbPolyline
 90
        4
 70
     0
 43
0.0
 10
6699.352583971204
 20
6884.621121809183
 10
6703.852583971204
 20
6886.621121809183
 10
6703.852583971204
 20
6945.621121809183
 10
6699.352583971204
 20
6947.621121809183
  0
LWPOLYLINE
  5
3D1D
330
17
100
AcDbEntity
  8
0
  6
HIDDEN
 48
0.3
100
AcDbPolyline
 90
        2
 70
     0
 43
0.0
 10
6703.852583971204
 20
6943.121121809183
 10
6740.852583970302
 20
6943.121121809183
  0
LWPOLYLINE
  5
3D1E
330
17
100
AcDbEntity
  8
0
  6
HIDDEN
 48
0.3
100
AcDbPolyline
 90
        2
 70
     0
 43
0.0
 10
6740.852583971204
 20
6943.121121809183
 42
-1.111111111111126
 10
6740.852583971204
 20
6889.121121809183
 42
-1.111111111111126
  0
LWPOLYLINE
  5
3D1F
330
17
100
AcDbEntity
  8
0
  6
HIDDEN
 48
0.3
100
AcDbPolyline
 90
        2
 70
     0
 43
0.0
 10
6703.852583971204
 20
6889.121121809183
 10
6740.852583970302
 20
6889.121121809183
  0
LINE
  5
3DA9
330
17
100
AcDbEntity
  8
HASEN
100
AcDbLine
 10
7449.352583971205
 20
7016.121121809184
 30
0.0
 11
8193.352583971204
 21
7016.121121809183
 31
0.0
  0
LINE
  5
3DAA
330
17
100
AcDbEntity
  8
HASEN
100
AcDbLine
 10
7449.352583971204
 20
7016.121121809184
 30
0.0
 11
6705.352583971204
 21
7016.121121809183
 31
0.0
  0
DIMENSION
  5
3DB1
330
17
100
AcDbEntity
  8
SUNPOU
100
AcDbDimension
  2
*D259
 10
6984.352583971206
 20
5834.487073604222
 30
0.0
 11
6887.904124927778
 21
5903.487073604222
 31
0.0
 70
   160
 71
     5
 42
20.0
  3
A3-30
100
AcDbAlignedDimension
 13
6964.352583971206
 23
5700.724330765246
 33
0.0
 14
6984.352583971206
 24
5700.724330765246
 34
0.0
100
AcDbRotatedDimension
  0
DIMENSION
  5
3DB2
330
17
100
AcDbEntity
  8
SUNPOU
100
AcDbDimension
  2
*D260
 10
7164.352583971206
 20
5834.487073604222
 30
0.0
 11
7074.352583971206
 21
5903.487073604222
 31
0.0
 70
    32
 71
     5
 42
180.0
  3
A3-30
100
AcDbAlignedDimension
 13
6984.352583971206
 23
5700.724330765246
 33
0.0
 14
7164.352583971206
 24
5700.724330765246
 34
0.0
100
AcDbRotatedDimension
  0
DIMENSION
  5
3DB3
330
17
100
AcDbEntity
  8
SUNPOU
100
AcDbDimension
  2
*D261
 10
7184.352583971206
 20
5834.487073604222
 30
0.0
 11
7261.460233769647
 21
5903.487073604222
 31
0.0
 70
   160
 71
     5
 42
20.0
  3
A3-30
100
AcDbAlignedDimension
 13
7164.352583971206
 23
5700.724330765246
 33
0.0
 14
7184.352583971206
 24
5700.724330765246
 34
0.0
100
AcDbRotatedDimension
  0
TEXT
  5
3DB4
330
17
100
AcDbEntity
  8
SUNPOU
100
AcDbText
 10
7660.297255570811
 20
4066.646843949574
 30
0.0
 40
90.0
  1
水抜き孔
 41
0.8
100
AcDbText
  0
LINE
  5
3DB5
330
17
100
AcDbEntity
  8
SUNPOU
100
AcDbLine
 10
7634.111035391172
 20
4054.476097391876
 30
0.0
 11
8017.284381971756
 21
4054.476097391876
 31
0.0
  0
LEADER
  5
3DB6
330
17
100
AcDbEntity
  8
SUNPOU
100
AcDbLeader
  3
A3-30
 76
     2
 10
7449.352583971206
 20
4716.121121809183
 30
0.0
 10
7634.111035391172
 20
4054.476097391876
 30
0.0
  0
TEXT
  5
3DB7
330
17
100
AcDbEntity
  8
SUNPOU
100
AcDbText
 10
8423.94179024542
 20
4453.770878713678
 30
0.0
 40
90.0
  1
ジョイント金具
 41
0.8
100
AcDbText
  0
LINE
  5
3DB8
330
17
100
AcDbEntity
  8
SUNPOU
100
AcDbLine
 10
8397.755570065781
 20
4441.60013215598
 30
0.0
 11
9043.947652182931
 21
4441.60013215598
 31
0.0
  0
LEADER
  5
3DB9
330
17
100
AcDbEntity
  8
SUNPOU
100
AcDbLeader
  3
A3-30
 76
     2
 10
8194.852583971206
 20
4766.121121809183
 30
0.0
 10
8397.755570065781
 20
4441.60013215598
 30
0.0
  0
TEXT
  5
3DFF
330
17
100
AcDbEntity
  8
SUNPOU
100
AcDbText
 10
5712.937255230016
 20
3505.488648590894
 30
0.0
 40
100.0
  1
平面図(頂版)
 72
     1
 11
6062.937255230016
 21
3505.488648590894
 31
0.0
100
AcDbText
  0
LINE
  5
3E00
330
17
100
AcDbEntity
  8
SUNPOU
100
AcDbLine
 10
5664.91032264647
 20
3641.944122754101
 30
0.0
 11
6474.600893250392
 21
3641.944122754101
 31
0.0
  0
LINE
  5
3E01
330
17
100
AcDbEntity
  8
SUNPOU
100
AcDbLine
 10
6474.600893250392
 20
3641.944122754101
 30
0.0
 11
6474.600893250392
 21
3470.241099732351
 31
0.0
  0
LINE
  5
3E02
330
17
100
AcDbEntity
  8
SUNPOU
100
AcDbLine
 10
6474.600893250392
 20
3470.241099732352
 30
0.0
 11
5664.91032264647
 21
3470.241099732352
 31
0.0
  0
LINE
  5
3E03
330
17
100
AcDbEntity
  8
SUNPOU
100
AcDbLine
 10
5664.91032264647
 20
3470.241099732351
 30
0.0
 11
5664.91032264647
 21
3641.944122754101
 31
0.0
  0
DIMENSION
  5
3E04
330
17
100
AcDbEntity
  8
SUNPOU
100
AcDbDimension
  2
*D262
 10
6699.352583971204
 20
364.859298179601
 30
0.0
 11
7449.352583971204
 21
433.859298179601
 31
0.0
 70
    32
 71
     5
 42
1500.0
  3
A3-30
100
AcDbAlignedDimension
 13
8199.352583971204
 23
929.9444716293656
 33
0.0
 14
6699.352583971204
 24
929.9444716293656
 34
0.0
 50
180.0
100
AcDbRotatedDimension
  0
DIMENSION
  5
3E05
330
17
100
AcDbEntity
  8
SUNPOU
100
AcDbDimension
  2
*D263
 10
7074.352583971204
 20
604.3408490374813
 30
0.0
 11
7261.852583971204
 21
673.3408490374813
 31
0.0
 70
    32
 71
     5
 42
375.0
  3
A3-30
100
AcDbAlignedDimension
 13
7449.352583971204
 23
929.9444716293656
 33
0.0
 14
7074.352583971204
 24
929.9444716293656
 34
0.0
 50
180.0
100
AcDbRotatedDimension
  0
DIMENSION
  5
3E06
330
17
100
AcDbEntity
  8
SUNPOU
100
AcDbDimension
  2
*D264
 10
6699.352583971204
 20
604.3408490374813
 30
0.0
 11
6886.852583971204
 21
673.3408490374813
 31
0.0
 70
    32
 71
     5
 42
375.0
  3
A3-30
100
AcDbAlignedDimension
 13
7074.352583971204
 23
929.9444716293656
 33
0.0
 14
6699.352583971204
 24
929.9444716293656
 34
0.0
 50
180.0
100
AcDbRotatedDimension
  0
DIMENSION
  5
3E07
330
17
100
AcDbEntity
  8
SUNPOU
100
AcDbDimension
  2
*D265
 10
8703.802866021926
 20
1189.944471629366
 30
0.0
 11
8634.802866021926
 21
1059.944471629367
 31
0.0
 70
    32
 71
     5
 42
260.0
  3
A3-30
100
AcDbAlignedDimension
 13
8199.352583971204
 23
929.9444716293656
 33
0.0
 14
8199.352583971204
 24
1189.944471629366
 34
0.0
 50
90.0
100
AcDbRotatedDimension
  0
DIMENSION
  5
3E08
330
17
100
AcDbEntity
  8
SUNPOU
100
AcDbDimension
  2
*D266
 10
8509.95865505078
 20
1119.944471629366
 30
0.0
 11
8440.95865505078
 21
1024.944471629367
 31
0.0
 70
   160
 71
     5
 42
190.0
  3
A3-30
100
AcDbAlignedDimension
 13
8199.352583971204
 23
929.9444716293656
 33
0.0
 14
8199.352583971204
 24
1119.944471629366
 34
0.0
 50
90.0
100
AcDbRotatedDimension
  0
DIMENSION
  5
3E09
330
17
100
AcDbEntity
  8
SUNPOU
100
AcDbDimension
  2
*D267
 10
8509.95865505078
 20
1189.944471629366
 30
0.0
 11
8440.95865505078
 21
1183.588666785845
 31
0.0
 70
   160
 71
     5
 42
70.0
  3
A3-30
100
AcDbAlignedDimension
 13
8199.352583971204
 23
1119.944471629366
 33
0.0
 14
8199.352583971204
 24
1189.944471629366
 34
0.0
 50
90.0
100
AcDbRotatedDimension
  0
DIMENSION
  5
3E0A
330
17
100
AcDbEntity
  8
SUNPOU
100
AcDbDimension
  2
*D268
 10
7824.352583971204
 20
604.3408490374813
 30
0.0
 11
7636.852583971204
 21
673.3408490374813
 31
0.0
 70
    32
 71
     5
 42
375.0
  3
A3-30
100
AcDbAlignedDimension
 13
7449.352583971204
 23
929.9444716293656
 33
0.0
 14
7824.352583971204
 24
929.9444716293656
 34
0.0
100
AcDbRotatedDimension
  0
DIMENSION
  5
3E0B
330
17
100
AcDbEntity
  8
SUNPOU
100
AcDbDimension
  2
*D269
 10
8199.352583971204
 20
604.3408490374813
 30
0.0
 11
8011.852583971204
 21
673.3408490374813
 31
0.0
 70
    32
 71
     5
 42
375.0
  3
A3-30
100
AcDbAlignedDimension
 13
7824.352583971204
 23
929.9444716293656
 33
0.0
 14
8199.352583971204
 24
929.9444716293656
 34
0.0
100
AcDbRotatedDimension
  0
TEXT
  5
3E0C
330
17
100
AcDbEntity
  8
SUNPOU
100
AcDbText
 10
8338.962297921835
 20
1612.548154995336
 30
0.0
 40
90.0
  1
水抜き孔
 41
0.8
100
AcDbText
  0
LINE
  5
3E0D
330
17
100
AcDbEntity
  8
SUNPOU
100
AcDbLine
 10
8299.682967652376
 20
1594.292035158788
 30
0.0
 11
8705.033446699354
 21
1594.292035158788
 31
0.0
  0
LEADER
  5
3E0E
330
17
100
AcDbEntity
  8
SUNPOU
100
AcDbLeader
  3
A3-30
 76
     2
 10
7449.352583971204
 20
1224.944471629366
 30
0.0
 10
8299.682967652376
 20
1594.292035158788
 30
0.0
  0
TEXT
  5
3E0F
330
17
100
AcDbEntity
  8
SUNPOU
100
AcDbText
 10
8338.962297921835
 20
1438.052578436144
 30
0.0
 40
90.0
  1
防護柵取付用ホール
 41
0.8
100
AcDbText
  0
LINE
  5
3E10
330
17
100
AcDbEntity
  8
SUNPOU
100
AcDbLine
 10
8299.682967652376
 20
1419.796458599597
 30
0.0
 11
9133.470358284556
 21
1419.796458599597
 31
0.0
  0
LEADER
  5
3E11
330
17
100
AcDbEntity
  8
SUNPOU
100
AcDbLeader
  3
A3-30
 76
     2
 10
7449.352583971204
 20
1050.448895070174
 30
0.0
 10
8299.682967652376
 20
1419.796458599597
 30
0.0
  0
DIMENSION
  5
3F05
330
17
100
AcDbEntity
  8
SUNPOU
100
AcDbDimension
  2
*D270
 10
6270.885486230029
 20
2489.944471629366
 30
0.0
 11
6201.885486230028
 21
1709.944471629366
 31
0.0
 70
    32
 71
     5
 42
1560.0
  3
A3-30
100
AcDbAlignedDimension
 13
6699.352583971204
 23
929.9444716293656
 33
0.0
 14
6699.352583971205
 24
2489.944471629366
 34
0.0
 50
90.0
100
AcDbRotatedDimension
  0
LINE
  5
403B
330
17
100
AcDbEntity
  8
SUNPOU
100
AcDbLine
 10
3804.287062010859
 20
2661.801543540335
 30
0.0
 11
4017.053966604622
 21
2661.801543540335
 31
0.0
  0
ARC
  5
403C
330
17
100
AcDbEntity
  8
SUNPOU
100
AcDbCircle
 10
3623.02333609615
 20
2661.801543540335
 30
0.0
 40
351.0296520968843
100
AcDbArc
 50
0.0
 51
15.01603005968021
  0
ARC
  5
403D
330
17
100
AcDbEntity
  8
SUNPOU
100
AcDbCircle
 10
3623.02333609615
 20
2661.801543540335
 30
0.0
 40
351.0296520968843
100
AcDbArc
 50
342.9241617726325
 51
357.0000000000156
  0
SOLID
  5
403E
330
17
100
AcDbEntity
  8
SUNPOU
100
AcDbTrace
 10
3981.767301139971
 20
2708.610709516969
 30
0.0
 11
3960.184640717391
 21
2707.745395074954
 31
0.0
 12
3973.57191425472
 22
2643.430071028218
 32
0.0
 13
3973.57191425472
 23
2643.430071028218
 33
0.0
  0
SOLID
  5
403F
330
17
100
AcDbEntity
  8
SUNPOU
100
AcDbTrace
 10
3957.318057463755
 20
2598.274997172017
 30
0.0
 11
3978.825852541551
 21
2596.28131944189
 31
0.0
 12
3974.052988193036
 22
2661.801543540337
 32
0.0
 13
3974.052988193036
 23
2661.801543540337
 33
0.0
  0
TEXT
  5
4040
330
17
100
AcDbEntity
  8
SUNPOU
100
AcDbText
 10
3944.824193191474
 20
2686.144603982119
 30
0.0
 40
90.0
  1
3°
 50
90.0
 41
0.8
100
AcDbText
  0
LINE
  5
4041
330
17
100
AcDbEntity
  8
SUNPOU
100
AcDbLine
 10
3804.287062010859
 20
1161.801543540336
 30
0.0
 11
4017.053966604622
 21
1161.801543540336
 31
0.0
  0
ARC
  5
4042
330
17
100
AcDbEntity
  8
SUNPOU
100
AcDbCircle
 10
3623.02333609615
 20
1161.801543540336
 30
0.0
 40
351.0296520968843
100
AcDbArc
 50
344.9839699403046
 51
0.0
  0
ARC
  5
4043
330
17
100
AcDbEntity
  8
SUNPOU
100
AcDbCircle
 10
3623.02333609615
 20
1161.801543540336
 30
0.0
 40
351.0296520968843
100
AcDbArc
 50
2.999999999997445
 51
17.07583822735881
  0
SOLID
  5
4044
330
17
100
AcDbEntity
  8
SUNPOU
100
AcDbTrace
 10
3981.767301139971
 20
1114.992377563703
 30
0.0
 11
3960.184640717391
 21
1115.857692005718
 31
0.0
 12
3973.57191425472
 22
1180.173016052453
 32
0.0
 13
3973.57191425472
 23
1180.173016052453
 33
0.0
  0
SOLID
  5
4045
330
17
100
AcDbEntity
  8
SUNPOU
100
AcDbTrace
 10
3957.318057463755
 20
1225.328089908654
 30
0.0
 11
3978.825852541551
 21
1227.321767638781
 31
0.0
 12
3974.052988193036
 22
1161.801543540334
 32
0.0
 13
3974.052988193036
 23
1161.801543540334
 33
0.0
  0
TEXT
  5
4046
330
17
100
AcDbEntity
  8
SUNPOU
100
AcDbText
 10
3944.824193191474
 20
1046.258483098552
 30
0.0
 40
90.0
  1
3°
 50
90.0
 41
0.8
100
AcDbText
  0
DIMENSION
  5
4047
330
17
100
AcDbEntity
  8
SUNPOU
100
AcDbDimension
  2
*D271
 10
2078.750453304972
 20
1161.801543540336
 30
0.0
 11
2009.750453304972
 21
1911.801543540336
 31
0.0
 70
    32
 71
     5
 42
1500.0
  3
A3-30
100
AcDbAlignedDimension
 13
2623.023336096136
 23
2661.801543540336
 33
0.0
 14
2623.023336096135
 24
1161.801543540336
 34
0.0
 50
90.0
100
AcDbRotatedDimension
  0
DIMENSION
  5
4048
330
17
100
AcDbEntity
  8
SUNPOU
100
AcDbDimension
  2
*D272
 10
3223.023336096132
 20
705.8694479337173
 30
0.0
 11
2923.023336096134
 21
774.8694479337173
 31
0.0
 70
    32
 71
     5
 42
599.9999999999964
  3
A3-30
100
AcDbAlignedDimension
 13
2623.023336096136
 23
1161.801543540336
 33
0.0
 14
3223.023336096132
 24
1161.801543540336
 34
0.0
100
AcDbRotatedDimension
  0
DIMENSION
  5
4049
330
17
100
AcDbEntity
  8
SUNPOU
100
AcDbDimension
  2
*D273
 10
3623.023336096136
 20
705.8694479337173
 30
0.0
 11
3423.023336096134
 21
774.8694479337173
 31
0.0
 70
    32
 71
     5
 42
400.0000000000036
  3
A3-30
100
AcDbAlignedDimension
 13
3223.023336096132
 23
1161.801543540336
 33
0.0
 14
3623.023336096136
 24
1161.801543540336
 34
0.0
100
AcDbRotatedDimension
  0
DIMENSION
  5
404A
330
17
100
AcDbEntity
  8
SUNPOU
100
AcDbDimension
  2
*D274
 10
4803.023336096137
 20
705.8694479337173
 30
0.0
 11
4213.023336096136
 21
774.8694479337173
 31
0.0
 70
    32
 71
     5
 42
1180.000000000001
  3
A3-30
100
AcDbAlignedDimension
 13
3623.023336096136
 23
1161.801543540336
 33
0.0
 14
4803.023336096137
 24
1223.642723094324
 34
0.0
100
AcDbRotatedDimension
  0
DIMENSION
  5
404B
330
17
100
AcDbEntity
  8
SUNPOU
100
AcDbDimension
  2
*D275
 10
3523.023336096136
 20
891.7305998411721
 30
0.0
 11
3373.023336096134
 21
960.7305998411721
 31
0.0
 70
    32
 71
     5
 42
300.0000000000036
  3
A3-30
100
AcDbAlignedDimension
 13
3223.023336096132
 23
1161.801543540336
 33
0.0
 14
3523.023336096136
 24
1161.801543540336
 34
0.0
100
AcDbRotatedDimension
  0
DIMENSION
  5
404C
330
17
100
AcDbEntity
  8
SUNPOU
100
AcDbDimension
  2
*D276
 10
3623.023336096136
 20
891.7305998411721
 30
0.0
 11
3609.947172441149
 21
960.7305998411721
 31
0.0
 70
   160
 71
     5
 42
100.0
  3
A3-30
100
AcDbAlignedDimension
 13
3523.023336096136
 23
1161.801543540336
 33
0.0
 14
3623.023336096136
 24
1161.801543540336
 34
0.0
100
AcDbRotatedDimension
  0
DIMENSION
  5
404D
330
17
100
AcDbEntity
  8
SUNPOU
100
AcDbDimension
  2
*D277
 10
4803.023336096137
 20
496.6634872707727
 30
0.0
 11
3713.023336096136
 21
565.6634872707727
 31
0.0
 70
    32
 71
     5
 42
2180.000000000001
  3
A3-30
100
AcDbAlignedDimension
 13
2623.023336096136
 23
1161.801543540337
 33
0.0
 14
4803.023336096137
 24
1223.642723094324
 34
0.0
100
AcDbRotatedDimension
  0
TEXT
  5
404E
330
17
100
AcDbEntity
  8
SUNPOU
100
AcDbText
 10
1181.40723678872
 20
2968.276704743092
 30
0.0
 40
100.0
  1
平面図(底版)
 72
     1
 11
1531.40723678872
 21
2968.276704743092
 31
0.0
100
AcDbText
  0
LINE
  5
404F
330
17
100
AcDbEntity
  8
SUNPOU
100
AcDbLine
 10
1133.380304205175
 20
3104.732178906298
 30
0.0
 11
1943.070874809096
 21
3104.732178906299
 31
0.0
  0
LINE
  5
4050
330
17
100
AcDbEntity
  8
SUNPOU
100
AcDbLine
 10
1943.070874809096
 20
3104.732178906299
 30
0.0
 11
1943.070874809096
 21
2933.029155884549
 31
0.0
  0
LINE
  5
4051
330
17
100
AcDbEntity
  8
SUNPOU
100
AcDbLine
 10
1943.070874809096
 20
2933.02915588455
 30
0.0
 11
1133.380304205175
 21
2933.02915588455
 31
0.0
  0
LINE
  5
4052
330
17
100
AcDbEntity
  8
SUNPOU
100
AcDbLine
 10
1133.380304205175
 20
2933.029155884549
 30
0.0
 11
1133.380304205175
 21
3104.732178906299
 31
0.0
  0
DIMENSION
  5
40FA
330
17
100
AcDbEntity
  8
SUNPOU
100
AcDbDimension
  2
*D278
 10
5197.102199074165
 20
2599.960363986347
 30
0.0
 11
5128.102199074164
 21
1911.801543540337
 31
0.0
 70
    32
 71
     5
 42
1376.317640892023
  3
A3-30
100
AcDbAlignedDimension
 13
4803.023336096137
 23
1223.642723094324
 33
0.0
 14
4803.023336096137
 24
2599.960363986347
 34
0.0
 50
90.0
100
AcDbRotatedDimension
  0
LINE
  5
4150
330
17
100
AcDbEntity
  8
SEIHIN
  6
DASHED2
 62
     7
 48
2.0
100
AcDbLine
 10
7726.533792024896
 20
2089.944471629366
 30
0.0
 11
7922.171375917514
 21
2089.944471629366
 31
0.0
  0
ENDSEC
  0
SECTION
  2
OBJECTS
  0
DICTIONARY
  5
C
330
0
100
AcDbDictionary
281
     1
  3
ACAD_COLOR
350
9AA
  3
ACAD_GROUP
350
D
  3
ACAD_LAYOUT
350
7B
  3
ACAD_MATERIAL
350
9A9
  3
ACAD_MLEADERSTYLE
350
417E
  3
ACAD_MLINESTYLE
350
1A
  3
ACAD_PLOTSETTINGS
350
7C
  3
ACAD_PLOTSTYLENAME
350
79
  3
ACAD_SCALELIST
350
4157
  3
ACAD_TABLESTYLE
350
9AB
  3
ACDB_RECOMPOSE_DATA
350
417D
  3
AcDbVariableDictionary
350
946
  0
DICTIONARY
  5
90E
330
17
100
AcDbDictionary
280
     1
281
     1
  3
ACAD_SORTENTS
360
1707
  0
DICTIONARY
  5
9AA
102
{ACAD_REACTORS
330
C
102
}
330
C
100
AcDbDictionary
281
     1
  0
DICTIONARY
  5
D
102
{ACAD_REACTORS
330
C
102
}
330
C
100
AcDbDictionary
281
     1
  0
DICTIONARY
  5
7B
102
{ACAD_REACTORS
330
C
102
}
330
C
100
AcDbDictionary
281
     1
  3
Model
350
7D
  3
ﾚｲｱｳﾄ1
350
7E
  0
DICTIONARY
  5
9A9
102
{ACAD_REACTORS
330
C
102
}
330
C
100
AcDbDictionary
281
     1
  0
DICTIONARY
  5
417E
102
{ACAD_REACTORS
330
C
102
}
330
C
100
AcDbDictionary
281
     1
  0
DICTIONARY
  5
1A
102
{ACAD_REACTORS
330
C
102
}
330
C
100
AcDbDictionary
281
     1
  3
STANDARD
350
1B
  0
DICTIONARY
  5
7C
102
{ACAD_REACTORS
330
C
102
}
330
C
100
AcDbDictionary
281
     1
  0
ACDBDICTIONARYWDFLT
  5
79
102
{ACAD_REACTORS
330
C
102
}
330
C
100
AcDbDictionary
281
     1
  3
Normal
350
7A
100
AcDbDictionaryWithDefault
340
7A
  0
DICTIONARY
  5
4157
102
{ACAD_REACTORS
330
C
102
}
330
C
100
AcDbDictionary
281
     1
  3
A0
350
4158
  3
A1
350
4159
  3
A2
350
415A
  3
A3
350
415B
  3
A4
350
415C
  3
A5
350
415D
  3
A6
350
415E
  3
A7
350
415F
  3
A8
350
4160
  3
A9
350
4161
  3
B0
350
4162
  3
B1
350
4163
  3
B2
350
4164
  3
B3
350
4165
  3
B4
350
4166
  3
B5
350
4167
  3
B6
350
4168
  3
B7
350
4169
  3
B8
350
416A
  3
B9
350
416B
  3
C0
350
416C
  3
C1
350
416D
  3
C2
350
416E
  3
C3
350
416F
  3
C4
350
4170
  3
C5
350
4171
  3
C6
350
4172
  3
C7
350
4173
  3
C8
350
4174
  3
C9
350
4175
  3
D0
350
4176
  3
D1
350
4177
  3
D2
350
4178
  0
DICTIONARY
  5
9AB
102
{ACAD_REACTORS
330
C
102
}
330
C
100
AcDbDictionary
281
     1
  3
Standard
350
9AC
  0
XRECORD
  5
417D
102
{ACAD_REACTORS
330
C
102
}
330
C
100
AcDbXrecord
280
     1
 90
        1
330
9AC
  0
DICTIONARY
  5
946
102
{ACAD_REACTORS
330
C
102
}
330
C
100
AcDbDictionary
281
     1
  3
CANNOSCALE
350
4179
  3
CTABLESTYLE
350
CC1
  3
DIMASSOC
350
947
  3
PROJECTNAME
350
CC2
  0
SORTENTSTABLE
  5
1707
102
{ACAD_REACTORS
330
90E
102
}
330
90E
100
AcDbSortentsTable
330
17
331
0
  5
382F
331
5F
  5
5F
331
60
  5
60
331
DF0
  5
10F0
331
DF1
  5
10F1
331
DF2
  5
10F2
331
358B
  5
358B
331
358C
  5
358C
331
358D
  5
358D
331
358E
  5
358E
331
3590
  5
3590
331
3592
  5
3592
331
3597
  5
3597
331
3598
  5
3598
331
3599
  5
3599
331
359A
  5
359A
331
359B
  5
359B
331
359C
  5
359C
331
35A6
  5
35A6
331
35B1
  5
35B1
331
35B2
  5
35B2
331
35B3
  5
35B3
331
35B5
  5
35B5
331
35BA
  5
35BA
331
35D9
  5
35D9
331
35DA
  5
35DA
331
35DB
  5
35DB
331
35DC
  5
35DC
331
35DD
  5
35DD
331
360C
  5
360C
331
3610
  5
3610
331
3611
  5
3611
331
3612
  5
3612
331
3614
  5
368D
331
36F7
  5
370C
331
36F8
  5
370D
331
373F
  5
3763
331
376E
  5
378A
331
377F
  5
37B5
331
3791
  5
37C5
331
3792
  5
37C6
331
3794
  5
37C8
331
3801
  5
382B
331
3802
  5
382C
331
3803
  5
382D
331
3804
  5
382E
331
3B65
  5
3614
331
3B66
  5
3615
331
3B67
  5
3616
331
3B68
  5
3617
331
3B69
  5
3618
331
3B6A
  5
3619
331
3B6B
  5
361A
331
3B6C
  5
361B
331
3B6D
  5
361C
331
3B6E
  5
361D
331
3B6F
  5
3623
  0
LAYOUT
  5
7D
102
{ACAD_REACTORS
330
7B
102
}
330
7B
100
AcDbPlotSettings
  1

  2
C:\PROGRAM FILES\MDT6\plotters\RICOH SP9II RPDL.pc3
  4
A3
  6

 40
5.873749732971191
 41
5.873758316040039
 42
4.349761962890625
 43
8.159759521484375
 44
420.1159973144531
 45
296.9259948730469
 46
0.0
 47
0.0
 48
0.0
 49
0.0
140
0.0
141
0.0
142
1.0
143
1.0
 70
 11952
 72
     0
 73
     0
 74
     0
  7
acad.ctb
 75
     0
 76
     0
 77
     2
 78
   300
147
1.0
148
-52067.63847066872
149
1270.867660243985
100
AcDbLayout
  1
Model
 70
     1
 71
     0
 10
0.0
 20
0.0
 11
12.0
 21
9.0
 12
0.0
 22
0.0
 32
0.0
 14
0.0
 24
0.0
 34
0.0
 15
0.0
 25
0.0
 35
0.0
146
0.0
 13
0.0
 23
0.0
 33
0.0
 16
1.0
 26
0.0
 36
0.0
 17
0.0
 27
1.0
 37
0.0
 76
     0
330
17
331
4151
  0
LAYOUT
  5
7E
102
{ACAD_REACTORS
330
7B
102
}
330
7B
100
AcDbPlotSettings
  1

  2
C:\PROGRAM FILES\MDT6\plotters\RICOH SP9II RPDL.pc3
  4

  6

 40
0.0
 41
0.0
 42
0.0
 43
0.0
 44
0.0
 45
0.0
 46
0.0
 47
0.0
 48
0.0
 49
0.0
140
0.0
141
0.0
142
1.0
143
1.0
 70
   688
 72
     0
 73
     0
 74
     5
  7
acad.ctb
 75
    16
 76
     0
 77
     2
 78
   300
147
1.0
148
0.0
149
0.0
100
AcDbLayout
  1
ﾚｲｱｳﾄ1
 70
     0
 71
     1
 10
0.0
 20
0.0
 11
12.0
 21
9.0
 12
0.0
 22
0.0
 32
0.0
 14
1.000000000000000E+20
 24
1.000000000000000E+20
 34
1.000000000000000E+20
 15
-1.000000000000000E+20
 25
-1.000000000000000E+20
 35
-1.000000000000000E+20
146
0.0
 13
0.0
 23
0.0
 33
0.0
 16
1.0
 26
0.0
 36
0.0
 17
0.0
 27
1.0
 37
0.0
 76
     0
330
14
  0
MLINESTYLE
  5
1B
102
{ACAD_REACTORS
330
1A
102
}
330
1A
100
AcDbMlineStyle
  2
STANDARD
 70
     0
  3

 62
   256
 51
90.0
 52
90.0
 71
     2
 49
0.5
 62
   256
  6
BYLAYER
 49
-0.5
 62
   256
  6
BYLAYER
  0
ACDBPLACEHOLDER
  5
7A
102
{ACAD_REACTORS
330
79
102
}
330
79
  0
SCALE
  5
4158
102
{ACAD_REACTORS
330
4157
102
}
330
4157
100
AcDbScale
 70
     0
300
1:1
140
1.0
141
1.0
290
     1
  0
SCALE
  5
4159
102
{ACAD_REACTORS
330
4157
102
}
330
4157
100
AcDbScale
 70
     0
300
1:2
140
1.0
141
2.0
290
     0
  0
SCALE
  5
415A
102
{ACAD_REACTORS
330
4157
102
}
330
4157
100
AcDbScale
 70
     0
300
1:4
140
1.0
141
4.0
290
     0
  0
SCALE
  5
415B
102
{ACAD_REACTORS
330
4157
102
}
330
4157
100
AcDbScale
 70
     0
300
1:5
140
1.0
141
5.0
290
     0
  0
SCALE
  5
415C
102
{ACAD_REACTORS
330
4157
102
}
330
4157
100
AcDbScale
 70
     0
300
1:8
140
1.0
141
8.0
290
     0
  0
SCALE
  5
415D
102
{ACAD_REACTORS
330
4157
102
}
330
4157
100
AcDbScale
 70
     0
300
1:10
140
1.0
141
10.0
290
     0
  0
SCALE
  5
415E
102
{ACAD_REACTORS
330
4157
102
}
330
4157
100
AcDbScale
 70
     0
300
1:16
140
1.0
141
16.0
290
     0
  0
SCALE
  5
415F
102
{ACAD_REACTORS
330
4157
102
}
330
4157
100
AcDbScale
 70
     0
300
1:20
140
1.0
141
20.0
290
     0
  0
SCALE
  5
4160
102
{ACAD_REACTORS
330
4157
102
}
330
4157
100
AcDbScale
 70
     0
300
1:30
140
1.0
141
30.0
290
     0
  0
SCALE
  5
4161
102
{ACAD_REACTORS
330
4157
102
}
330
4157
100
AcDbScale
 70
     0
300
1:40
140
1.0
141
40.0
290
     0
  0
SCALE
  5
4162
102
{ACAD_REACTORS
330
4157
102
}
330
4157
100
AcDbScale
 70
     0
300
1:50
140
1.0
141
50.0
290
     0
  0
SCALE
  5
4163
102
{ACAD_REACTORS
330
4157
102
}
330
4157
100
AcDbScale
 70
     0
300
1:100
140
1.0
141
100.0
290
     0
  0
SCALE
  5
4164
102
{ACAD_REACTORS
330
4157
102
}
330
4157
100
AcDbScale
 70
     0
300
2:1
140
2.0
141
1.0
290
     0
  0
SCALE
  5
4165
102
{ACAD_REACTORS
330
4157
102
}
330
4157
100
AcDbScale
 70
     0
300
4:1
140
4.0
141
1.0
290
     0
  0
SCALE
  5
4166
102
{ACAD_REACTORS
330
4157
102
}
330
4157
100
AcDbScale
 70
     0
300
8:1
140
8.0
141
1.0
290
     0
  0
SCALE
  5
4167
102
{ACAD_REACTORS
330
4157
102
}
330
4157
100
AcDbScale
 70
     0
300
10:1
140
10.0
141
1.0
290
     0
  0
SCALE
  5
4168
102
{ACAD_REACTORS
330
4157
102
}
330
4157
100
AcDbScale
 70
     0
300
100:1
140
100.0
141
1.0
290
     0
  0
SCALE
  5
4169
102
{ACAD_REACTORS
330
4157
102
}
330
4157
100
AcDbScale
 70
     0
300
1/128" = 1'-0"
140
0.0078125
141
12.0
290
     0
  0
SCALE
  5
416A
102
{ACAD_REACTORS
330
4157
102
}
330
4157
100
AcDbScale
 70
     0
300
1/64" = 1'-0"
140
0.015625
141
12.0
290
     0
  0
SCALE
  5
416B
102
{ACAD_REACTORS
330
4157
102
}
330
4157
100
AcDbScale
 70
     0
300
1/32" = 1'-0"
140
0.03125
141
12.0
290
     0
  0
SCALE
  5
416C
102
{ACAD_REACTORS
330
4157
102
}
330
4157
100
AcDbScale
 70
     0
300
1/16" = 1'-0"
140
0.0625
141
12.0
290
     0
  0
SCALE
  5
416D
102
{ACAD_REACTORS
330
4157
102
}
330
4157
100
AcDbScale
 70
     0
300
3/32" = 1'-0"
140
0.09375
141
12.0
290
     0
  0
SCALE
  5
416E
102
{ACAD_REACTORS
330
4157
102
}
330
4157
100
AcDbScale
 70
     0
300
1/8" = 1'-0"
140
0.125
141
12.0
290
     0
  0
SCALE
  5
416F
102
{ACAD_REACTORS
330
4157
102
}
330
4157
100
AcDbScale
 70
     0
300
3/16" = 1'-0"
140
0.1875
141
12.0
290
     0
  0
SCALE
  5
4170
102
{ACAD_REACTORS
330
4157
102
}
330
4157
100
AcDbScale
 70
     0
300
1/4" = 1'-0"
140
0.25
141
12.0
290
     0
  0
SCALE
  5
4171
102
{ACAD_REACTORS
330
4157
102
}
330
4157
100
AcDbScale
 70
     0
300
3/8" = 1'-0"
140
0.375
141
12.0
290
     0
  0
SCALE
  5
4172
102
{ACAD_REACTORS
330
4157
102
}
330
4157
100
AcDbScale
 70
     0
300
1/2" = 1'-0"
140
0.5
141
12.0
290
     0
  0
SCALE
  5
4173
102
{ACAD_REACTORS
330
4157
102
}
330
4157
100
AcDbScale
 70
     0
300
3/4" = 1'-0"
140
0.75
141
12.0
290
     0
  0
SCALE
  5
4174
102
{ACAD_REACTORS
330
4157
102
}
330
4157
100
AcDbScale
 70
     0
300
1" = 1'-0"
140
1.0
141
12.0
290
     0
  0
SCALE
  5
4175
102
{ACAD_REACTORS
330
4157
102
}
330
4157
100
AcDbScale
 70
     0
300
1-1/2" = 1'-0"
140
1.5
141
12.0
290
     0
  0
SCALE
  5
4176
102
{ACAD_REACTORS
330
4157
102
}
330
4157
100
AcDbScale
 70
     0
300
3" = 1'-0"
140
3.0
141
12.0
290
     0
  0
SCALE
  5
4177
102
{ACAD_REACTORS
330
4157
102
}
330
4157
100
AcDbScale
 70
     0
300
6" = 1'-0"
140
6.0
141
12.0
290
     0
  0
SCALE
  5
4178
102
{ACAD_REACTORS
330
4157
102
}
330
4157
100
AcDbScale
 70
     0
300
1'-0" = 1'-0"
140
12.0
141
12.0
290
     0
  0
TABLESTYLE
  5
9AC
102
{ACAD_REACTORS
330
9AB
102
}
102
{ACAD_XDICTIONARY
360
417A
102
}
330
9AB
100
AcDbTableStyle
  3
Standard
 70
     0
 71
     0
 40
0.06
 41
0.06
280
     0
281
     0
  7
STANDARD
140
0.18
170
     2
 62
     0
 63
   257
283
     0
274
    -2
284
     1
 64
     0
275
    -2
285
     1
 65
     0
276
    -2
286
     1
 66
     0
277
    -2
287
     1
 67
     0
278
    -2
288
     1
 68
     0
279
    -2
289
     1
 69
     0
  7
STANDARD
140
0.25
170
     5
 62
     0
 63
   257
283
     0
274
    -2
284
     1
 64
     0
275
    -2
285
     1
 65
     0
276
    -2
286
     1
 66
     0
277
    -2
287
     1
 67
     0
278
    -2
288
     1
 68
     0
279
    -2
289
     1
 69
     0
  7
STANDARD
140
0.18
170
     5
 62
     0
 63
   257
283
     0
274
    -2
284
     1
 64
     0
275
    -2
285
     1
 65
     0
276
    -2
286
     1
 66
     0
277
    -2
287
     1
 67
     0
278
    -2
288
     1
 68
     0
279
    -2
289
     1
 69
     0
  0
DICTIONARYVAR
  5
4179
102
{ACAD_REACTORS
330
946
102
}
330
946
100
DictionaryVariables
280
     0
  1
1:1
  0
DICTIONARYVAR
  5
CC1
102
{ACAD_REACTORS
330
946
102
}
330
946
100
DictionaryVariables
280
     0
  1
Standard
  0
DICTIONARYVAR
  5
947
102
{ACAD_REACTORS
330
946
102
}
330
946
100
DictionaryVariables
280
     0
  1
1
  0
DICTIONARYVAR
  5
CC2
102
{ACAD_REACTORS
330
946
102
}
330
946
100
DictionaryVariables
280
     0
  1

  0
DICTIONARY
  5
417A
330
9AC
100
AcDbDictionary
280
     1
281
     1
  3
ACAD_ROUNDTRIP_2008_TABLESTYLE_CELLSTYLEMAP
360
417C
  3
ACAD_XREC_ROUNDTRIP
360
417B
  0
CELLSTYLEMAP
  5
417C
102
{ACAD_REACTORS
330
417A
102
}
330
417A
100
AcDbCellStyleMap
 90
        3
300
CELLSTYLE
  1
TABLEFORMAT_BEGIN
 90
        5
170
     1
 91
        0
 92
    32768
 62
   257
 93
        1
300
CONTENTFORMAT
  1
CONTENTFORMAT_BEGIN
 90
        0
 91
        0
 92
        4
 93
        0
300

 40
0.0
140
1.0
 94
        5
 62
     0
340
F
144
0.25
309
CONTENTFORMAT_END
171
     1
301
MARGIN
  1
CELLMARGIN_BEGIN
 40
0.06
 40
0.06
 40
0.06
 40
0.06
 40
0.06
 40
0.06
309
CELLMARGIN_END
 94
        6
 95
        1
302
GRIDFORMAT
  1
GRIDFORMAT_BEGIN
 90
        0
 91
        1
 62
     0
 92
       -2
340
0
 93
        0
 40
0.045
309
GRIDFORMAT_END
 95
        2
302
GRIDFORMAT
  1
GRIDFORMAT_BEGIN
 90
        0
 91
        1
 62
     0
 92
       -2
340
0
 93
        0
 40
0.045
309
GRIDFORMAT_END
 95
        4
302
GRIDFORMAT
  1
GRIDFORMAT_BEGIN
 90
        0
 91
        1
 62
     0
 92
       -2
340
0
 93
        0
 40
0.045
309
GRIDFORMAT_END
 95
        8
302
GRIDFORMAT
  1
GRIDFORMAT_BEGIN
 90
        0
 91
        1
 62
     0
 92
       -2
340
0
 93
        0
 40
0.045
309
GRIDFORMAT_END
 95
       16
302
GRIDFORMAT
  1
GRIDFORMAT_BEGIN
 90
        0
 91
        1
 62
     0
 92
       -2
340
0
 93
        0
 40
0.045
309
GRIDFORMAT_END
 95
       32
302
GRIDFORMAT
  1
GRIDFORMAT_BEGIN
 90
        0
 91
        1
 62
     0
 92
       -2
340
0
 93
        0
 40
0.045
309
GRIDFORMAT_END
309
TABLEFORMAT_END
  1
CELLSTYLE_BEGIN
 90
        1
 91
        1
300
_TITLE
309
CELLSTYLE_END
300
CELLSTYLE
  1
TABLEFORMAT_BEGIN
 90
        5
170
     1
 91
        0
 92
        0
 62
   257
 93
        1
300
CONTENTFORMAT
  1
CONTENTFORMAT_BEGIN
 90
        0
 91
        0
 92
        4
 93
        0
300

 40
0.0
140
1.0
 94
        5
 62
     0
340
F
144
0.18
309
CONTENTFORMAT_END
171
     1
301
MARGIN
  1
CELLMARGIN_BEGIN
 40
0.06
 40
0.06
 40
0.06
 40
0.06
 40
0.06
 40
0.06
309
CELLMARGIN_END
 94
        6
 95
        1
302
GRIDFORMAT
  1
GRIDFORMAT_BEGIN
 90
        0
 91
        1
 62
     0
 92
       -2
340
0
 93
        0
 40
0.045
309
GRIDFORMAT_END
 95
        2
302
GRIDFORMAT
  1
GRIDFORMAT_BEGIN
 90
        0
 91
        1
 62
     0
 92
       -2
340
0
 93
        0
 40
0.045
309
GRIDFORMAT_END
 95
        4
302
GRIDFORMAT
  1
GRIDFORMAT_BEGIN
 90
        0
 91
        1
 62
     0
 92
       -2
340
0
 93
        0
 40
0.045
309
GRIDFORMAT_END
 95
        8
302
GRIDFORMAT
  1
GRIDFORMAT_BEGIN
 90
        0
 91
        1
 62
     0
 92
       -2
340
0
 93
        0
 40
0.045
309
GRIDFORMAT_END
 95
       16
302
GRIDFORMAT
  1
GRIDFORMAT_BEGIN
 90
        0
 91
        1
 62
     0
 92
       -2
340
0
 93
        0
 40
0.045
309
GRIDFORMAT_END
 95
       32
302
GRIDFORMAT
  1
GRIDFORMAT_BEGIN
 90
        0
 91
        1
 62
     0
 92
       -2
340
0
 93
        0
 40
0.045
309
GRIDFORMAT_END
309
TABLEFORMAT_END
  1
CELLSTYLE_BEGIN
 90
        2
 91
        1
300
_HEADER
309
CELLSTYLE_END
300
CELLSTYLE
  1
TABLEFORMAT_BEGIN
 90
        5
170
     1
 91
        0
 92
        0
 62
   257
 93
        1
300
CONTENTFORMAT
  1
CONTENTFORMAT_BEGIN
 90
        0
 91
        0
 92
        4
 93
        0
300

 40
0.0
140
1.0
 94
        2
 62
     0
340
F
144
0.18
309
CONTENTFORMAT_END
171
     1
301
MARGIN
  1
CELLMARGIN_BEGIN
 40
0.06
 40
0.06
 40
0.06
 40
0.06
 40
0.06
 40
0.06
309
CELLMARGIN_END
 94
        6
 95
        1
302
GRIDFORMAT
  1
GRIDFORMAT_BEGIN
 90
        0
 91
        1
 62
     0
 92
       -2
340
0
 93
        0
 40
0.045
309
GRIDFORMAT_END
 95
        2
302
GRIDFORMAT
  1
GRIDFORMAT_BEGIN
 90
        0
 91
        1
 62
     0
 92
       -2
340
0
 93
        0
 40
0.045
309
GRIDFORMAT_END
 95
        4
302
GRIDFORMAT
  1
GRIDFORMAT_BEGIN
 90
        0
 91
        1
 62
     0
 92
       -2
340
0
 93
        0
 40
0.045
309
GRIDFORMAT_END
 95
        8
302
GRIDFORMAT
  1
GRIDFORMAT_BEGIN
 90
        0
 91
        1
 62
     0
 92
       -2
340
0
 93
        0
 40
0.045
309
GRIDFORMAT_END
 95
       16
302
GRIDFORMAT
  1
GRIDFORMAT_BEGIN
 90
        0
 91
        1
 62
     0
 92
       -2
340
0
 93
        0
 40
0.045
309
GRIDFORMAT_END
 95
       32
302
GRIDFORMAT
  1
GRIDFORMAT_BEGIN
 90
        0
 91
        1
 62
     0
 92
       -2
340
0
 93
        0
 40
0.045
309
GRIDFORMAT_END
309
TABLEFORMAT_END
  1
CELLSTYLE_BEGIN
 90
        3
 91
        2
300
_DATA
309
CELLSTYLE_END
  0
XRECORD
  5
417B
102
{ACAD_REACTORS
330
417A
102
}
330
417A
100
AcDbXrecord
280
     1
102
ACAD_ROUNDTRIP_PRE2007_TABLESTYLE
 90
        4
 91
        0
  1

 92
        4
 93
        0
  2

 94
        4
 95
        0
  3

  0
ENDSEC
  0
EOF
