  0
SECTION
  2
HEADER
  9
$ACADVER
  1
AC1018
  9
$ACADMAINTVER
 70
     0
  9
$DWGCODEPAGE
  3
ANSI_932
  9
$INSBASE
 10
0.0
 20
0.0
 30
0.0
  9
$EXTMIN
 10
-8568.471388410691
 20
-2598.547150069066
 30
0.0
  9
$EXTMAX
 10
12000.0
 20
8310.0
 30
0.0
  9
$LIMMIN
 10
0.0
 20
0.0
  9
$LIMMAX
 10
12600.0
 20
8910.0
  9
$ORTHOMODE
 70
     1
  9
$REGENMODE
 70
     1
  9
$FILLMODE
 70
     1
  9
$QTEXTMODE
 70
     0
  9
$MIRRTEXT
 70
     0
  9
$LTSCALE
 40
300.0
  9
$ATTMODE
 70
     1
  9
$TEXTSIZE
 40
3.0
  9
$TRACEWID
 40
0.05
  9
$TEXTSTYLE
  7
STANDARD
  9
$CLAYER
  8
SUNPOU
  9
$CELTYPE
  6
BYLAYER
  9
$CECOLOR
 62
   256
  9
$CELTSCALE
 40
1.0
  9
$DISPSILH
 70
     0
  9
$DIMSCALE
 40
30.0
  9
$DIMASZ
 40
2.0
  9
$DIMEXO
 40
2.0
  9
$DIMDLI
 40
7.0
  9
$DIMRND
 40
0.0
  9
$DIMDLE
 40
0.0
  9
$DIMEXE
 40
0.5
  9
$DIMTP
 40
0.0
  9
$DIMTM
 40
0.0
  9
$DIMTXT
 40
3.0
  9
$DIMCEN
 40
0.0
  9
$DIMTSZ
 40
0.0
  9
$DIMTOL
 70
     0
  9
$DIMLIM
 70
     0
  9
$DIMTIH
 70
     0
  9
$DIMTOH
 70
     0
  9
$DIMSE1
 70
     0
  9
$DIMSE2
 70
     0
  9
$DIMTAD
 70
     1
  9
$DIMZIN
 70
     8
  9
$DIMBLK
  1

  9
$DIMASO
 70
     1
  9
$DIMSHO
 70
     1
  9
$DIMPOST
  1

  9
$DIMAPOST
  1

  9
$DIMALT
 70
     0
  9
$DIMALTD
 70
     2
  9
$DIMALTF
 40
25.4
  9
$DIMLFAC
 40
1.0
  9
$DIMTOFL
 70
     0
  9
$DIMTVP
 40
1.0
  9
$DIMTIX
 70
     1
  9
$DIMSOXD
 70
     0
  9
$DIMSAH
 70
     0
  9
$DIMBLK1
  1

  9
$DIMBLK2
  1

  9
$DIMSTYLE
  2
A3-30
  9
$DIMCLRD
 70
     0
  9
$DIMCLRE
 70
     0
  9
$DIMCLRT
 70
     0
  9
$DIMTFAC
 40
1.0
  9
$DIMGAP
 40
0.8
  9
$DIMJUST
 70
     0
  9
$DIMSD1
 70
     0
  9
$DIMSD2
 70
     0
  9
$DIMTOLJ
 70
     1
  9
$DIMTZIN
 70
     8
  9
$DIMALTZ
 70
     8
  9
$DIMALTTZ
 70
     8
  9
$DIMUPT
 70
     0
  9
$DIMDEC
 70
     0
  9
$DIMTDEC
 70
     0
  9
$DIMALTU
 70
     2
  9
$DIMALTTD
 70
     2
  9
$DIMTXSTY
  7
STANDARD
  9
$DIMAUNIT
 70
     0
  9
$DIMADEC
 70
     4
  9
$DIMALTRND
 40
0.0
  9
$DIMAZIN
 70
     0
  9
$DIMDSEP
 70
    46
  9
$DIMATFIT
 70
     3
  9
$DIMFRAC
 70
     0
  9
$DIMLDRBLK
  1

  9
$DIMLUNIT
 70
     2
  9
$DIMLWD
 70
    -2
  9
$DIMLWE
 70
    -2
  9
$DIMTMOVE
 70
     2
  9
$LUNITS
 70
     2
  9
$LUPREC
 70
     4
  9
$SKETCHINC
 40
0.1
  9
$FILLETRAD
 40
0.0
  9
$AUNITS
 70
     0
  9
$AUPREC
 70
     6
  9
$MENU
  1
acad
  9
$ELEVATION
 40
0.0
  9
$PELEVATION
 40
0.0
  9
$THICKNESS
 40
0.0
  9
$LIMCHECK
 70
     0
  9
$CHAMFERA
 40
0.0
  9
$CHAMFERB
 40
0.0
  9
$CHAMFERC
 40
0.0
  9
$CHAMFERD
 40
0.0
  9
$SKPOLY
 70
     0
  9
$TDCREATE
 40
2450014.659421296
  9
$TDUCREATE
 40
2450014.284421296
  9
$TDUPDATE
 40
2455838.393265961
  9
$TDUUPDATE
 40
2455838.018265961
  9
$TDINDWG
 40
0.1046303356
  9
$TDUSRTIMER
 40
0.1046303356
  9
$USRTIMER
 70
     1
  9
$ANGBASE
 50
0.0
  9
$ANGDIR
 70
     0
  9
$PDMODE
 70
     0
  9
$PDSIZE
 40
0.0
  9
$PLINEWID
 40
0.0
  9
$SPLFRAME
 70
     0
  9
$SPLINETYPE
 70
     6
  9
$SPLINESEGS
 70
     8
  9
$HANDSEED
  5
4E11
  9
$SURFTAB1
 70
     6
  9
$SURFTAB2
 70
     6
  9
$SURFTYPE
 70
     6
  9
$SURFU
 70
     6
  9
$SURFV
 70
     6
  9
$UCSBASE
  2

  9
$UCSNAME
  2

  9
$UCSORG
 10
0.0
 20
0.0
 30
0.0
  9
$UCSXDIR
 10
1.0
 20
0.0
 30
0.0
  9
$UCSYDIR
 10
0.0
 20
1.0
 30
0.0
  9
$UCSORTHOREF
  2

  9
$UCSORTHOVIEW
 70
     0
  9
$UCSORGTOP
 10
0.0
 20
0.0
 30
0.0
  9
$UCSORGBOTTOM
 10
0.0
 20
0.0
 30
0.0
  9
$UCSORGLEFT
 10
0.0
 20
0.0
 30
0.0
  9
$UCSORGRIGHT
 10
0.0
 20
0.0
 30
0.0
  9
$UCSORGFRONT
 10
0.0
 20
0.0
 30
0.0
  9
$UCSORGBACK
 10
0.0
 20
0.0
 30
0.0
  9
$PUCSBASE
  2

  9
$PUCSNAME
  2

  9
$PUCSORG
 10
0.0
 20
0.0
 30
0.0
  9
$PUCSXDIR
 10
1.0
 20
0.0
 30
0.0
  9
$PUCSYDIR
 10
0.0
 20
1.0
 30
0.0
  9
$PUCSORTHOREF
  2

  9
$PUCSORTHOVIEW
 70
     0
  9
$PUCSORGTOP
 10
0.0
 20
0.0
 30
0.0
  9
$PUCSORGBOTTOM
 10
0.0
 20
0.0
 30
0.0
  9
$PUCSORGLEFT
 10
0.0
 20
0.0
 30
0.0
  9
$PUCSORGRIGHT
 10
0.0
 20
0.0
 30
0.0
  9
$PUCSORGFRONT
 10
0.0
 20
0.0
 30
0.0
  9
$PUCSORGBACK
 10
0.0
 20
0.0
 30
0.0
  9
$USERI1
 70
     0
  9
$USERI2
 70
     0
  9
$USERI3
 70
     0
  9
$USERI4
 70
     0
  9
$USERI5
 70
     0
  9
$USERR1
 40
0.0
  9
$USERR2
 40
0.0
  9
$USERR3
 40
0.0
  9
$USERR4
 40
0.0
  9
$USERR5
 40
0.0
  9
$WORLDVIEW
 70
     1
  9
$SHADEDGE
 70
     3
  9
$SHADEDIF
 70
    70
  9
$TILEMODE
 70
     1
  9
$MAXACTVP
 70
    48
  9
$PINSBASE
 10
0.0
 20
0.0
 30
0.0
  9
$PLIMCHECK
 70
     0
  9
$PEXTMIN
 10
1.000000000000000E+20
 20
1.000000000000000E+20
 30
1.000000000000000E+20
  9
$PEXTMAX
 10
-1.000000000000000E+20
 20
-1.000000000000000E+20
 30
-1.000000000000000E+20
  9
$PLIMMIN
 10
0.0
 20
0.0
  9
$PLIMMAX
 10
12.0
 20
9.0
  9
$UNITMODE
 70
     0
  9
$VISRETAIN
 70
     0
  9
$PLINEGEN
 70
     0
  9
$PSLTSCALE
 70
     0
  9
$TREEDEPTH
 70
  3020
  9
$CMLSTYLE
  2
STANDARD
  9
$CMLJUST
 70
     0
  9
$CMLSCALE
 40
1.0
  9
$PROXYGRAPHICS
 70
     1
  9
$MEASUREMENT
 70
     0
  9
$CELWEIGHT
370
    -1
  9
$ENDCAPS
280
     0
  9
$JOINSTYLE
280
     0
  9
$LWDISPLAY
290
     0
  9
$INSUNITS
 70
     0
  9
$HYPERLINKBASE
  1

  9
$STYLESHEET
  1
acad.ctb
  9
$XEDIT
290
     1
  9
$CEPSNTYPE
380
     0
  9
$PSTYLEMODE
290
     1
  9
$FINGERPRINTGUID
  2
{9E4B692F-34DC-11D6-9351-0080AD72C8A3}
  9
$VERSIONGUID
  2
{BA3DED52-A1E2-4576-B011-0C6A4A581D0A}
  9
$EXTNAMES
290
     1
  9
$PSVPSCALE
 40
0.0
  9
$OLESTARTUP
290
     0
  9
$SORTENTS
280
   127
  9
$INDEXCTL
280
     0
  9
$HIDETEXT
280
     1
  9
$XCLIPFRAME
290
     0
  9
$HALOGAP
280
     0
  9
$OBSCOLOR
 70
   257
  9
$OBSLTYPE
280
     0
  9
$INTERSECTIONDISPLAY
280
     0
  9
$INTERSECTIONCOLOR
 70
   257
  9
$DIMASSOC
280
     1
  9
$PROJECTNAME
  1

  0
ENDSEC
  0
SECTION
  2
CLASSES
  0
CLASS
  1
ACDBDICTIONARYWDFLT
  2
AcDbDictionaryWithDefault
  3
ObjectDBX Classes
 90
        0
 91
        4
280
     0
281
     0
  0
CLASS
  1
ACDBPLACEHOLDER
  2
AcDbPlaceHolder
  3
ObjectDBX Classes
 90
        0
 91
        1
280
     0
281
     0
  0
CLASS
  1
LAYOUT
  2
AcDbLayout
  3
ObjectDBX Classes
 90
        0
 91
        1
280
     0
281
     0
  0
CLASS
  1
DICTIONARYVAR
  2
AcDbDictionaryVar
  3
ObjectDBX Classes
 90
        0
 91
        4
280
     0
281
     0
  0
CLASS
  1
DUMMY
  2
AcDbLongTransaction
  3
DUMMY
 90
        0
 91
        1
280
     0
281
     0
  0
CLASS
  1
LWPOLYLINE
  2
AcDbPolyline
  3
AutoCAD 2000
 90
        0
 91
        1
280
     0
281
     1
  0
CLASS
  1
HATCH
  2
AcDbHatch
  3
AutoCAD 2000
 90
        0
 91
        1
280
     0
281
     1
  0
CLASS
  1
XRECORD
  2
AcDbXrecord
  3
AutoCAD 2000
 90
        0
 91
        1
280
     0
281
     0
  0
CLASS
  1
DUMMY
  2
AcDbLongTransaction
  3
DUMMY
 90
        0
 91
        1
280
     0
281
     0
  0
CLASS
  1
LWPOLYLINE
  2
AcDbPolyline
  3
AutoCAD 2000
 90
        0
 91
        1
280
     0
281
     1
  0
CLASS
  1
HATCH
  2
AcDbHatch
  3
AutoCAD 2000
 90
        0
 91
        1
280
     0
281
     1
  0
CLASS
  1
XRECORD
  2
AcDbXrecord
  3
AutoCAD 2000
 90
        0
 91
        1
280
     0
281
     0
  0
CLASS
  1
DUMMY
  2
AcDbLongTransaction
  3
DUMMY
 90
        0
 91
        1
280
     0
281
     0
  0
CLASS
  1
LWPOLYLINE
  2
AcDbPolyline
  3
AutoCAD 2000
 90
        0
 91
        1
280
     0
281
     1
  0
CLASS
  1
HATCH
  2
AcDbHatch
  3
AutoCAD 2000
 90
        0
 91
        1
280
     0
281
     1
  0
CLASS
  1
XRECORD
  2
AcDbXrecord
  3
AutoCAD 2000
 90
        0
 91
        1
280
     0
281
     0
  0
CLASS
  1
TABLESTYLE
  2
AcDbTableStyle
  3
ObjectDBX Classes
 90
     4095
 91
        4
280
     0
281
     0
  0
CLASS
  1
SORTENTSTABLE
  2
AcDbSortentsTable
  3
ObjectDBX Classes
 90
        0
 91
        4
280
     0
281
     0
  0
CLASS
  1
SCALE
  2
AcDbScale
  3
ObjectDBX Classes
 90
     1153
 91
        4
280
     0
281
     0
  0
CLASS
  1
CELLSTYLEMAP
  2
AcDbCellStyleMap
  3
ObjectDBX Classes
 90
     1152
 91
        4
280
     0
281
     0
  0
ENDSEC
  0
SECTION
  2
TABLES
  0
TABLE
  2
VPORT
  5
8
330
0
100
AcDbSymbolTable
 70
     5
  0
VPORT
  5
4DE3
330
8
100
AcDbSymbolTableRecord
100
AcDbViewportTableRecord
  2
*Active
 70
     0
 10
0.0
 20
0.0
 11
1.0
 21
1.0
 12
6197.367136174641
 22
4072.447990342049
 13
0.0
 23
0.0
 14
30.0
 24
30.0
 15
300.0
 25
300.0
 16
0.0
 26
0.0
 36
1.0
 17
0.0
 27
0.0
 37
0.0
 40
10386.74575146562
 41
1.507024265644955
 42
50.0
 43
0.0
 44
0.0
 50
0.0
 51
0.0
 71
     0
 72
   100
 73
     1
 74
     1
 75
     0
 76
     0
 77
     0
 78
     0
281
     0
 65
     1
110
0.0
120
0.0
130
0.0
111
1.0
121
0.0
131
0.0
112
0.0
122
1.0
132
0.0
 79
     0
146
0.0
  0
ENDTAB
  0
TABLE
  2
LTYPE
  5
5
330
0
100
AcDbSymbolTable
 70
     6
  0
LTYPE
  5
11
330
5
100
AcDbSymbolTableRecord
100
AcDbLinetypeTableRecord
  2
BYBLOCK
 70
     0
  3

 72
    65
 73
     0
 40
0.0
  0
LTYPE
  5
12
330
5
100
AcDbSymbolTableRecord
100
AcDbLinetypeTableRecord
  2
BYLAYER
 70
     0
  3

 72
    65
 73
     0
 40
0.0
  0
LTYPE
  5
13
330
5
100
AcDbSymbolTableRecord
100
AcDbLinetypeTableRecord
  2
CONTINUOUS
 70
     0
  3
Solid line
 72
    65
 73
     0
 40
0.0
  0
LTYPE
  5
1E
330
5
100
AcDbSymbolTableRecord
100
AcDbLinetypeTableRecord
  2
HIDDEN
 70
     0
  3
_ _ _ _ _ _ _ _ _ _ _ _ _ _ _ _ _ _ _ _ _ _ _
 72
    65
 73
     2
 40
0.375
 49
0.25
 74
     0
 49
-0.125
 74
     0
  0
LTYPE
  5
1F
330
5
100
AcDbSymbolTableRecord
100
AcDbLinetypeTableRecord
  2
CENTER
 70
     0
  3
____ _ ____ _ ____ _ ____ _ ____ _ ____ _ ____
 72
    65
 73
     4
 40
2.0
 49
1.25
 74
     0
 49
-0.25
 74
     0
 49
0.25
 74
     0
 49
-0.25
 74
     0
  0
LTYPE
  5
20
330
5
100
AcDbSymbolTableRecord
100
AcDbLinetypeTableRecord
  2
PHANTOM
 70
     0
  3
_____ _ _ _____ _ _ _____ _ _ _____ _ _ ____
 72
    65
 73
     6
 40
2.5
 49
1.25
 74
     0
 49
-0.25
 74
     0
 49
0.25
 74
     0
 49
-0.25
 74
     0
 49
0.25
 74
     0
 49
-0.25
 74
     0
  0
LTYPE
  5
D6D
330
5
100
AcDbSymbolTableRecord
100
AcDbLinetypeTableRecord
  2
DASHED2
 70
     0
  3
_ _ _ _ _ _ _ _ _ _ _ _ _ _ _ _ _ _ _ _ _ _ _ _
 72
    65
 73
     2
 40
0.375
 49
0.25
 74
     0
 49
-0.125
 74
     0
  0
LTYPE
  5
217B
330
5
100
AcDbSymbolTableRecord
100
AcDbLinetypeTableRecord
  2
CENTER2
 70
     0
  3
___ _ ___ _ ___ _ ___ _ ___ _ ___ _ ___ _ ___ _
 72
    65
 73
     4
 40
1.125
 49
0.75
 74
     0
 49
-0.125
 74
     0
 49
0.125
 74
     0
 49
-0.125
 74
     0
  0
ENDTAB
  0
TABLE
  2
LAYER
  5
2
330
0
100
AcDbSymbolTable
 70
    10
  0
LAYER
  5
E
330
2
100
AcDbSymbolTableRecord
100
AcDbLayerTableRecord
  2
0
 70
     0
 62
     7
  6
CONTINUOUS
370
    -3
390
7A
  0
LAYER
  5
23
330
2
100
AcDbSymbolTableRecord
100
AcDbLayerTableRecord
  2
SUNPOU
 70
     0
 62
     1
  6
CONTINUOUS
370
    -3
390
7A
  0
LAYER
  5
24
330
2
100
AcDbSymbolTableRecord
100
AcDbLayerTableRecord
  2
HAIKIN
 70
     0
 62
     2
  6
CONTINUOUS
370
    -3
390
7A
  0
LAYER
  5
25
330
2
100
AcDbSymbolTableRecord
100
AcDbLayerTableRecord
  2
SEIHIN
 70
     0
 62
     3
  6
CONTINUOUS
370
    -3
390
7A
  0
LAYER
  5
26
330
2
100
AcDbSymbolTableRecord
100
AcDbLayerTableRecord
  2
HASEN
 70
     0
 62
     4
  6
HIDDEN
370
    -3
390
7A
  0
LAYER
  5
27
330
2
100
AcDbSymbolTableRecord
100
AcDbLayerTableRecord
  2
1HASEN
 70
     0
 62
     5
  6
CENTER
370
    -3
390
7A
  0
LAYER
  5
28
330
2
100
AcDbSymbolTableRecord
100
AcDbLayerTableRecord
  2
2HASEN
 70
     0
 62
     6
  6
PHANTOM
370
    -3
390
7A
  0
LAYER
  5
29
330
2
100
AcDbSymbolTableRecord
100
AcDbLayerTableRecord
  2
HOJO
 70
     0
 62
     7
  6
CONTINUOUS
370
    -3
390
7A
  0
LAYER
  5
2A
330
2
100
AcDbSymbolTableRecord
100
AcDbLayerTableRecord
  2
TEN
 70
     0
 62
     7
  6
CONTINUOUS
370
    -3
390
7A
  0
LAYER
  5
70
330
2
100
AcDbSymbolTableRecord
100
AcDbLayerTableRecord
  2
DEFPOINTS
 70
     0
 62
     7
  6
CONTINUOUS
290
     0
370
    -3
390
7A
  0
ENDTAB
  0
TABLE
  2
STYLE
  5
3
330
0
100
AcDbSymbolTable
 70
     1
  0
STYLE
  5
F
330
3
100
AcDbSymbolTableRecord
100
AcDbTextStyleTableRecord
  2
STANDARD
 70
     0
 40
0.0
 41
0.8
 50
0.0
 71
     0
 42
0.2
  3
TXT.shx
  4
BIGFONT.shx
  0
ENDTAB
  0
TABLE
  2
VIEW
  5
6
330
0
100
AcDbSymbolTable
 70
     0
  0
ENDTAB
  0
TABLE
  2
UCS
  5
7
330
0
100
AcDbSymbolTable
 70
     0
  0
ENDTAB
  0
TABLE
  2
APPID
  5
9
330
0
100
AcDbSymbolTable
 70
    12
  0
APPID
  5
10
330
9
100
AcDbSymbolTableRecord
100
AcDbRegAppTableRecord
  2
ACAD
 70
     0
  0
APPID
  5
9B0
330
9
100
AcDbSymbolTableRecord
100
AcDbRegAppTableRecord
  2
ACAD_DSTYLE_DIMTEXT_FILL
 70
     0
  0
APPID
  5
9B1
330
9
100
AcDbSymbolTableRecord
100
AcDbRegAppTableRecord
  2
ACAD_DSTYLE_DIMEXT_LENGTH
 70
     0
  0
APPID
  5
9B2
330
9
100
AcDbSymbolTableRecord
100
AcDbRegAppTableRecord
  2
ACAD_DSTYLE_DIMEXT_ENABLED
 70
     0
  0
APPID
  5
9B3
330
9
100
AcDbSymbolTableRecord
100
AcDbRegAppTableRecord
  2
ACAD_DSTYLE_DIM_LINETYPE
 70
     0
  0
APPID
  5
9B4
330
9
100
AcDbSymbolTableRecord
100
AcDbRegAppTableRecord
  2
ACAD_DSTYLE_DIM_EXT1_LINETYPE
 70
     0
  0
APPID
  5
9B5
330
9
100
AcDbSymbolTableRecord
100
AcDbRegAppTableRecord
  2
ACAD_DSTYLE_DIM_EXT2_LINETYPE
 70
     0
  0
APPID
  5
A71
330
9
100
AcDbSymbolTableRecord
100
AcDbRegAppTableRecord
  2
ACAD_DSTYLE_DIMJOGGED_JOGANGLE_SYMBOL
 70
     0
  0
APPID
  5
C55
330
9
100
AcDbSymbolTableRecord
100
AcDbRegAppTableRecord
  2
ACAD_DSTYLE_DIMARC_LENGTH_SYMBOL
 70
     0
  0
APPID
  5
D6F
330
9
100
AcDbSymbolTableRecord
100
AcDbRegAppTableRecord
  2
ACAD_PSEXT
 70
     0
  0
APPID
  5
D70
330
9
100
AcDbSymbolTableRecord
100
AcDbRegAppTableRecord
  2
AcAecLayerStandard
 70
     0
  0
APPID
  5
1801
330
9
100
AcDbSymbolTableRecord
100
AcDbRegAppTableRecord
  2
ACAD_EXEMPT_FROM_CAD_STANDARDS
 70
     0
  0
ENDTAB
  0
TABLE
  2
DIMSTYLE
  5
A
330
0
100
AcDbSymbolTable
 70
     3
100
AcDbDimStyleTable
  0
DIMSTYLE
105
61
330
A
100
AcDbSymbolTableRecord
100
AcDbDimStyleTableRecord
  2
STANDARD
 70
     0
178
     0
340
F
  0
DIMSTYLE
105
C5A
102
{ACAD_REACTORS
330
48C7
330
48C8
330
48C9
330
48CA
330
48CB
330
48CC
330
48CD
330
48CE
330
49E4
330
49E5
330
49E6
330
49E7
330
49E8
330
49E9
330
49F7
330
49F8
330
49F9
330
4ACD
330
4ACE
330
4ACF
330
4AD0
330
4AD1
330
4AD2
330
4B82
330
4B74
330
4B75
330
4B76
330
4B77
330
4B78
330
4B79
330
4B7A
330
4B7B
330
4D23
330
4D24
330
4D25
330
4D26
330
4D27
330
4D28
330
4D29
330
4DD6
102
}
330
A
100
AcDbSymbolTableRecord
100
AcDbDimStyleTableRecord
  2
A3-30
 70
     0
 40
30.0
 41
2.0
 42
2.0
 43
7.0
 44
0.5
 73
     0
 74
     0
 77
     1
 78
     8
140
3.0
141
0.0
145
1.0
147
0.8
174
     1
178
     0
179
     4
271
     0
272
     0
279
     2
284
     8
285
     8
286
     8
340
F
  0
DIMSTYLE
105
D6E
330
A
100
AcDbSymbolTableRecord
100
AcDbDimStyleTableRecord
  2
A3-25
 70
     0
 40
25.0
 41
1.8
 42
2.0
 43
7.0
 44
0.5
 73
     0
 74
     0
 77
     1
 78
     8
140
2.5
141
0.0
145
1.0
147
0.7
174
     1
178
     0
179
     4
271
     0
272
     0
279
     2
284
     8
285
     8
286
     8
340
F
  0
ENDTAB
  0
TABLE
  2
BLOCK_RECORD
  5
1
330
0
100
AcDbSymbolTable
 70
   275
  0
BLOCK_RECORD
  5
17
102
{ACAD_XDICTIONARY
360
90E
102
}
330
1
100
AcDbSymbolTableRecord
100
AcDbBlockTableRecord
  2
*MODEL_SPACE
340
7D
  0
BLOCK_RECORD
  5
14
330
1
100
AcDbSymbolTableRecord
100
AcDbBlockTableRecord
  2
*PAPER_SPACE
340
7E
  0
BLOCK_RECORD
  5
1C
330
1
100
AcDbSymbolTableRecord
100
AcDbBlockTableRecord
  2
BORDER
340
0
  0
BLOCK_RECORD
  5
1D
330
1
100
AcDbSymbolTableRecord
100
AcDbBlockTableRecord
  2
SA3
340
0
102
{BLKREFS
331
60
102
}
  0
BLOCK_RECORD
  5
82
330
1
100
AcDbSymbolTableRecord
100
AcDbBlockTableRecord
  2
*D2
340
0
  0
BLOCK_RECORD
  5
8E
330
1
100
AcDbSymbolTableRecord
100
AcDbBlockTableRecord
  2
*D3
340
0
  0
BLOCK_RECORD
  5
9C
330
1
100
AcDbSymbolTableRecord
100
AcDbBlockTableRecord
  2
*D4
340
0
  0
BLOCK_RECORD
  5
AA
330
1
100
AcDbSymbolTableRecord
100
AcDbBlockTableRecord
  2
*D5
340
0
  0
BLOCK_RECORD
  5
B6
330
1
100
AcDbSymbolTableRecord
100
AcDbBlockTableRecord
  2
*D6
340
0
  0
BLOCK_RECORD
  5
C3
330
1
100
AcDbSymbolTableRecord
100
AcDbBlockTableRecord
  2
A$C79F54BAC
340
0
  0
BLOCK_RECORD
  5
D61
330
1
100
AcDbSymbolTableRecord
100
AcDbBlockTableRecord
  2
FG
340
0
102
{BLKREFS
331
4B67
331
4B68
102
}
  0
BLOCK_RECORD
  5
D68
330
1
100
AcDbSymbolTableRecord
100
AcDbBlockTableRecord
  2
_DOT
340
0
102
{BLKREFS
331
444A
331
444B
331
4456
331
4457
331
4462
331
4463
102
}
  0
BLOCK_RECORD
  5
DF3
330
1
100
AcDbSymbolTableRecord
100
AcDbBlockTableRecord
  2
FGG
340
0
  0
BLOCK_RECORD
  5
42CC
330
1
100
AcDbSymbolTableRecord
100
AcDbBlockTableRecord
  2
DOT
340
0
102
{BLKREFS
331
42D6
331
42D7
331
42E2
331
42E3
331
42EE
331
42EF
331
42FA
331
42FB
331
4306
331
4307
331
4312
331
4313
331
431E
331
431F
331
432A
331
432B
331
4336
331
4337
331
4342
331
4343
331
434E
331
434F
331
435A
331
435B
331
4366
331
4367
331
4372
331
4373
331
437E
331
437F
331
438A
331
438B
331
4396
331
4397
331
43A2
331
43A3
331
43AE
331
43AF
331
43BA
331
43BB
331
43C6
331
43C7
331
43D2
331
43D3
331
43DE
331
43DF
331
43EA
331
43EB
331
43F6
331
43F7
331
4402
331
4403
331
440E
331
440F
331
441A
331
441B
331
4426
331
4427
331
4432
331
4433
331
443E
331
443F
102
}
  0
BLOCK_RECORD
  5
48D3
330
1
100
AcDbSymbolTableRecord
100
AcDbBlockTableRecord
  2
*D235
340
0
  0
BLOCK_RECORD
  5
48DF
330
1
100
AcDbSymbolTableRecord
100
AcDbBlockTableRecord
  2
*D236
340
0
  0
BLOCK_RECORD
  5
48EB
330
1
100
AcDbSymbolTableRecord
100
AcDbBlockTableRecord
  2
*D237
340
0
  0
BLOCK_RECORD
  5
48F7
330
1
100
AcDbSymbolTableRecord
100
AcDbBlockTableRecord
  2
*D238
340
0
  0
BLOCK_RECORD
  5
4904
330
1
100
AcDbSymbolTableRecord
100
AcDbBlockTableRecord
  2
*D239
340
0
  0
BLOCK_RECORD
  5
4910
330
1
100
AcDbSymbolTableRecord
100
AcDbBlockTableRecord
  2
*D240
340
0
  0
BLOCK_RECORD
  5
491C
330
1
100
AcDbSymbolTableRecord
100
AcDbBlockTableRecord
  2
*D241
340
0
  0
BLOCK_RECORD
  5
4929
330
1
100
AcDbSymbolTableRecord
100
AcDbBlockTableRecord
  2
*D242
340
0
  0
BLOCK_RECORD
  5
49FA
330
1
100
AcDbSymbolTableRecord
100
AcDbBlockTableRecord
  2
*D243
340
0
  0
BLOCK_RECORD
  5
4A07
330
1
100
AcDbSymbolTableRecord
100
AcDbBlockTableRecord
  2
*D244
340
0
  0
BLOCK_RECORD
  5
4A13
330
1
100
AcDbSymbolTableRecord
100
AcDbBlockTableRecord
  2
*D245
340
0
  0
BLOCK_RECORD
  5
4A1F
330
1
100
AcDbSymbolTableRecord
100
AcDbBlockTableRecord
  2
*D246
340
0
  0
BLOCK_RECORD
  5
4A2B
330
1
100
AcDbSymbolTableRecord
100
AcDbBlockTableRecord
  2
*D247
340
0
  0
BLOCK_RECORD
  5
4A37
330
1
100
AcDbSymbolTableRecord
100
AcDbBlockTableRecord
  2
*D248
340
0
  0
BLOCK_RECORD
  5
4A43
330
1
100
AcDbSymbolTableRecord
100
AcDbBlockTableRecord
  2
*D249
340
0
  0
BLOCK_RECORD
  5
4A50
330
1
100
AcDbSymbolTableRecord
100
AcDbBlockTableRecord
  2
*D250
340
0
  0
BLOCK_RECORD
  5
4A5D
330
1
100
AcDbSymbolTableRecord
100
AcDbBlockTableRecord
  2
*D251
340
0
  0
BLOCK_RECORD
  5
4AD5
330
1
100
AcDbSymbolTableRecord
100
AcDbBlockTableRecord
  2
*D252
340
0
  0
BLOCK_RECORD
  5
4AE1
330
1
100
AcDbSymbolTableRecord
100
AcDbBlockTableRecord
  2
*D253
340
0
  0
BLOCK_RECORD
  5
4AED
330
1
100
AcDbSymbolTableRecord
100
AcDbBlockTableRecord
  2
*D254
340
0
  0
BLOCK_RECORD
  5
4AF9
330
1
100
AcDbSymbolTableRecord
100
AcDbBlockTableRecord
  2
*D255
340
0
  0
BLOCK_RECORD
  5
4B06
330
1
100
AcDbSymbolTableRecord
100
AcDbBlockTableRecord
  2
*D256
340
0
  0
BLOCK_RECORD
  5
4B12
330
1
100
AcDbSymbolTableRecord
100
AcDbBlockTableRecord
  2
*D257
340
0
  0
BLOCK_RECORD
  5
4B83
330
1
100
AcDbSymbolTableRecord
100
AcDbBlockTableRecord
  2
*D258
340
0
  0
BLOCK_RECORD
  5
4B8F
330
1
100
AcDbSymbolTableRecord
100
AcDbBlockTableRecord
  2
*D259
340
0
  0
BLOCK_RECORD
  5
4B9B
330
1
100
AcDbSymbolTableRecord
100
AcDbBlockTableRecord
  2
*D260
340
0
  0
BLOCK_RECORD
  5
4BA7
330
1
100
AcDbSymbolTableRecord
100
AcDbBlockTableRecord
  2
*D261
340
0
  0
BLOCK_RECORD
  5
4BB3
330
1
100
AcDbSymbolTableRecord
100
AcDbBlockTableRecord
  2
*D262
340
0
  0
BLOCK_RECORD
  5
4BBF
330
1
100
AcDbSymbolTableRecord
100
AcDbBlockTableRecord
  2
*D263
340
0
  0
BLOCK_RECORD
  5
4BCB
330
1
100
AcDbSymbolTableRecord
100
AcDbBlockTableRecord
  2
*D264
340
0
  0
BLOCK_RECORD
  5
4BD8
330
1
100
AcDbSymbolTableRecord
100
AcDbBlockTableRecord
  2
*D265
340
0
  0
BLOCK_RECORD
  5
4BE4
330
1
100
AcDbSymbolTableRecord
100
AcDbBlockTableRecord
  2
*D266
340
0
  0
BLOCK_RECORD
  5
4D2F
330
1
100
AcDbSymbolTableRecord
100
AcDbBlockTableRecord
  2
*D267
340
0
  0
BLOCK_RECORD
  5
4D3B
330
1
100
AcDbSymbolTableRecord
100
AcDbBlockTableRecord
  2
*D268
340
0
  0
BLOCK_RECORD
  5
4D47
330
1
100
AcDbSymbolTableRecord
100
AcDbBlockTableRecord
  2
*D269
340
0
  0
BLOCK_RECORD
  5
4D53
330
1
100
AcDbSymbolTableRecord
100
AcDbBlockTableRecord
  2
*D270
340
0
  0
BLOCK_RECORD
  5
4D5F
330
1
100
AcDbSymbolTableRecord
100
AcDbBlockTableRecord
  2
*D271
340
0
  0
BLOCK_RECORD
  5
4D6B
330
1
100
AcDbSymbolTableRecord
100
AcDbBlockTableRecord
  2
*D272
340
0
  0
BLOCK_RECORD
  5
4D78
330
1
100
AcDbSymbolTableRecord
100
AcDbBlockTableRecord
  2
*D273
340
0
  0
BLOCK_RECORD
  5
4DD7
330
1
100
AcDbSymbolTableRecord
100
AcDbBlockTableRecord
  2
*D274
340
0
  0
ENDTAB
  0
ENDSEC
  0
SECTION
  2
BLOCKS
  0
BLOCK
  5
2D
330
17
100
AcDbEntity
  8
0
100
AcDbBlockBegin
  2
*MODEL_SPACE
 70
     0
 10
0.0
 20
0.0
 30
0.0
  3
*MODEL_SPACE
  1

  0
ENDBLK
  5
2E
330
17
100
AcDbEntity
  8
0
100
AcDbBlockEnd
  0
BLOCK
  5
2B
330
14
100
AcDbEntity
 67
     1
  8
0
100
AcDbBlockBegin
  2
*PAPER_SPACE
 70
     0
 10
0.0
 20
0.0
 30
0.0
  3
*PAPER_SPACE
  1

  0
ENDBLK
  5
2C
330
14
100
AcDbEntity
 67
     1
  8
0
100
AcDbBlockEnd
  0
BLOCK
  5
2F
330
1C
100
AcDbEntity
  8
0
100
AcDbBlockBegin
  2
BORDER
 70
     0
 10
0.0
 20
0.0
 30
0.0
  3
BORDER
  1

  0
LINE
  5
30
330
1C
100
AcDbEntity
  8
0
100
AcDbLine
 10
0.0
 20
0.0
 30
0.0
 11
1.00000000000004
 21
0.0
 31
0.0
  0
LINE
  5
31
330
1C
100
AcDbEntity
  8
0
100
AcDbLine
 10
1.00000000000004
 20
0.0
 30
0.0
 11
1.00000000000004
 21
1.00000000000004
 31
0.0
  0
LINE
  5
32
330
1C
100
AcDbEntity
  8
0
100
AcDbLine
 10
1.00000000000004
 20
1.00000000000004
 30
0.0
 11
0.0
 21
1.00000000000004
 31
0.0
  0
LINE
  5
33
330
1C
100
AcDbEntity
  8
0
100
AcDbLine
 10
0.0
 20
1.00000000000004
 30
0.0
 11
0.0
 21
0.0
 31
0.0
  0
ENDBLK
  5
34
330
1C
100
AcDbEntity
  8
0
100
AcDbBlockEnd
  0
BLOCK
  5
35
330
1D
100
AcDbEntity
  8
HAIKIN
100
AcDbBlockBegin
  2
SA3
 70
     0
 10
0.0
 20
0.0
 30
0.0
  3
SA3
  1

  0
TEXT
  5
36
330
1D
100
AcDbEntity
  8
SUNPOU
100
AcDbText
 10
340.0
 20
0.0
 30
0.0
 40
2.5
  1
新和コンクリート工業株式会社
100
AcDbText
  0
TEXT
  5
39
330
1D
100
AcDbEntity
  8
SUNPOU
100
AcDbText
 10
361.4166666666667
 20
6.25
 30
0.0
 40
2.5
  1
製図
 72
     4
 11
364.0
 21
7.5
 31
0.0
100
AcDbText
  0
TEXT
  5
3A
330
1D
100
AcDbEntity
  8
SUNPOU
100
AcDbText
 10
361.3333333333333
 20
11.25
 30
0.0
 40
2.5
  1
設計
 72
     4
 11
364.0
 21
12.5
 31
0.0
100
AcDbText
  0
TEXT
  5
3B
330
1D
100
AcDbEntity
  8
SUNPOU
100
AcDbText
 10
339.0833333333333
 20
6.250000000000014
 30
0.0
 40
2.5
  1
認
 72
     4
 11
340.25
 21
7.500000000000014
 31
0.0
100
AcDbText
  0
TEXT
  5
3C
330
1D
100
AcDbEntity
  8
SUNPOU
100
AcDbText
 10
339.0833333333333
 20
11.33333333333336
 30
0.0
 40
2.5
  1
承
 72
     4
 11
340.25
 21
12.50000000000003
 31
0.0
100
AcDbText
  0
TEXT
  5
3D
330
1D
100
AcDbEntity
  8
SUNPOU
100
AcDbText
 10
312.75
 20
11.75000000000001
 30
0.0
 40
2.5
  1
図　面　番　号
 72
     4
 11
323.0
 21
13.00000000000001
 31
0.0
100
AcDbText
  0
TEXT
  5
3E
330
1D
100
AcDbEntity
  8
SUNPOU
100
AcDbText
 10
362.0
 20
17.0
 30
0.0
 40
2.5
  1
１／
100
AcDbText
  0
TEXT
  5
3F
330
1D
100
AcDbEntity
  8
SUNPOU
100
AcDbText
 10
347.3333333333333
 20
16.25000000000001
 30
0.0
 40
2.5
  1
縮　　尺
 72
     4
 11
353.0
 21
17.50000000000001
 31
0.0
100
AcDbText
  0
TEXT
  5
40
330
1D
100
AcDbEntity
  8
SUNPOU
100
AcDbText
 10
347.3333333333333
 20
21.25
 30
0.0
 40
2.5
  1
鉄 筋 量
 72
     4
 11
353.0
 21
22.5
 31
0.0
100
AcDbText
  0
TEXT
  5
41
330
1D
100
AcDbEntity
  8
SUNPOU
100
AcDbText
 10
347.3333333333333
 20
26.25
 30
0.0
 40
2.5
  1
製 造 数
 72
     4
 11
353.0
 21
27.5
 31
0.0
100
AcDbText
  0
TEXT
  5
42
330
1D
100
AcDbEntity
  8
SUNPOU
100
AcDbText
 10
377.0
 20
21.0
 30
0.0
 40
2.5
  1
ｋｇ
 72
     2
 11
382.0
 21
21.0
 31
0.0
100
AcDbText
  0
TEXT
  5
43
330
1D
100
AcDbEntity
  8
SUNPOU
100
AcDbText
 10
339.5
 20
21.0
 30
0.0
 40
2.5
  1
ｋｇ
 72
     2
 11
344.5
 21
21.0
 31
0.0
100
AcDbText
  0
TEXT
  5
44
330
1D
100
AcDbEntity
  8
SUNPOU
100
AcDbText
 10
310.0
 20
16.25000000000001
 30
0.0
 40
2.5
  1
年 月 日
 72
     4
 11
315.5
 21
17.50000000000001
 31
0.0
100
AcDbText
  0
TEXT
  5
45
330
1D
100
AcDbEntity
  8
SUNPOU
100
AcDbText
 10
309.8333333333333
 20
21.25
 30
0.0
 40
2.5
  1
製品質量
 72
     4
 11
315.5
 21
22.5
 31
0.0
100
AcDbText
  0
TEXT
  5
46
330
1D
100
AcDbEntity
  8
SUNPOU
100
AcDbText
 10
309.9166666666667
 20
26.25
 30
0.0
 40
2.5
  1
業 者 名
 72
     4
 11
315.5
 21
27.5
 31
0.0
100
AcDbText
  0
TEXT
  5
47
330
1D
100
AcDbEntity
  8
SUNPOU
100
AcDbText
 10
309.8333333333333
 20
32.5
 30
0.0
 40
2.5
  1
名　　称
 72
     4
 11
315.5
 21
33.75
 31
0.0
100
AcDbText
  0
LINE
  5
48
330
1D
100
AcDbEntity
  8
SUNPOU
100
AcDbLine
 10
338.0
 20
11.00000000000001
 30
0.0
 11
308.0
 21
11.00000000000001
 31
0.0
  0
LINE
  5
49
330
1D
100
AcDbEntity
  8
SUNPOU
100
AcDbLine
 10
367.5
 20
4.999999999999986
 30
0.0
 11
367.5
 21
14.99999999999999
 31
0.0
  0
LINE
  5
4A
330
1D
100
AcDbEntity
  8
SUNPOU
100
AcDbLine
 10
360.5
 20
4.999999999999986
 30
0.0
 11
360.5
 21
14.99999999999999
 31
0.0
  0
LINE
  5
4B
330
1D
100
AcDbEntity
  8
SUNPOU
100
AcDbLine
 10
342.5
 20
4.999999999999995
 30
0.0
 11
342.5
 21
15.0
 31
0.0
  0
LINE
  5
4C
330
1D
100
AcDbEntity
  8
SUNPOU
100
AcDbLine
 10
338.0
 20
4.999999999999995
 30
0.0
 11
338.0
 21
15.0
 31
0.0
  0
LINE
  5
4D
330
1D
100
AcDbEntity
  8
SUNPOU
100
AcDbLine
 10
323.0
 20
15.00000000000001
 30
0.0
 11
323.0
 21
37.5
 31
0.0
  0
LINE
  5
4E
330
1D
100
AcDbEntity
  8
SUNPOU
100
AcDbLine
 10
360.5
 20
15.00000000000001
 30
0.0
 11
360.5
 21
30.0
 31
0.0
  0
LINE
  5
4F
330
1D
100
AcDbEntity
  8
SUNPOU
100
AcDbLine
 10
345.5
 20
15.00000000000001
 30
0.0
 11
345.5
 21
30.0
 31
0.0
  0
LINE
  5
50
330
1D
100
AcDbEntity
  8
SUNPOU
100
AcDbLine
 10
383.0
 20
30.0
 30
0.0
 11
308.0
 21
30.0
 31
0.0
  0
LINE
  5
51
330
1D
100
AcDbEntity
  8
SUNPOU
100
AcDbLine
 10
383.0
 20
25.0
 30
0.0
 11
308.0
 21
25.0
 31
0.0
  0
LINE
  5
52
330
1D
100
AcDbEntity
  8
SUNPOU
100
AcDbLine
 10
383.0
 20
20.0
 30
0.0
 11
308.0
 21
20.0
 31
0.0
  0
LINE
  5
53
330
1D
100
AcDbEntity
  8
SUNPOU
100
AcDbLine
 10
383.0
 20
14.99999999999999
 30
0.0
 11
308.0
 21
15.00000000000004
 31
0.0
  0
LINE
  5
54
330
1D
100
AcDbEntity
  8
HAIKIN
100
AcDbLine
 10
308.0
 20
37.5
 30
0.0
 11
383.0
 21
37.5
 31
0.0
  0
LINE
  5
55
330
1D
100
AcDbEntity
  8
HAIKIN
100
AcDbLine
 10
308.0
 20
5.000000000000009
 30
0.0
 11
308.0
 21
37.5
 31
0.0
  0
LINE
  5
56
330
1D
100
AcDbEntity
  8
SUNPOU
100
AcDbLine
 10
0.000000000000016
 20
277.0
 30
0.0
 11
0.000000000000016
 21
272.0
 31
0.0
  0
LINE
  5
57
330
1D
100
AcDbEntity
  8
SUNPOU
100
AcDbLine
 10
25.00000000000001
 20
277.0
 30
0.0
 11
0.000000000000016
 21
277.0
 31
0.0
  0
LINE
  5
58
330
1D
100
AcDbEntity
  8
SUNPOU
100
AcDbLine
 10
25.00000000000001
 20
272.0
 30
0.0
 11
25.00000000000001
 21
277.0
 31
0.0
  0
LINE
  5
59
330
1D
100
AcDbEntity
  8
HAIKIN
100
AcDbLine
 10
0.0000000000000004
 20
5.0
 30
0.0
 11
383.0
 21
5.0
 31
0.0
  0
LINE
  5
5A
330
1D
100
AcDbEntity
  8
HAIKIN
100
AcDbLine
 10
0.0000000000000158
 20
272.0
 30
0.0
 11
383.0
 21
272.0
 31
0.0
  0
LINE
  5
5B
330
1D
100
AcDbEntity
  8
HAIKIN
100
AcDbLine
 10
383.0
 20
272.0
 30
0.0
 11
383.0
 21
5.0
 31
0.0
  0
TEXT
  5
5C
330
1D
100
AcDbEntity
  8
SUNPOU
100
AcDbText
 10
3.700000000000017
 20
273.0
 30
0.0
 40
3.0
  1
Ｈ－２－共
 72
     4
 11
12.50000000000002
 21
274.5
 31
0.0
100
AcDbText
  0
LINE
  5
5D
330
1D
100
AcDbEntity
  8
HAIKIN
100
AcDbLine
 10
0.0000000000000004
 20
5.0
 30
0.0
 11
0.0000000000000158
 21
272.0
 31
0.0
  0
ENDBLK
  5
5E
330
1D
100
AcDbEntity
  8
HAIKIN
100
AcDbBlockEnd
  0
BLOCK
  5
8C
330
82
100
AcDbEntity
  8
0
100
AcDbBlockBegin
  2
*D2
 70
     1
 10
0.0
 20
0.0
 30
0.0
  3
*D2
  1

  0
LINE
  5
83
330
82
100
AcDbEntity
  8
SUNPOU
370
    -2
100
AcDbLine
 10
14459.99999999999
 20
11910.0
 30
0.0
 11
15605.99999999999
 21
11910.0
 31
0.0
  0
LINE
  5
84
330
82
100
AcDbEntity
  8
SUNPOU
370
    -2
100
AcDbLine
 10
14459.99999999999
 20
13710.0
 30
0.0
 11
15605.99999999999
 21
13710.0
 31
0.0
  0
LINE
  5
85
330
82
100
AcDbEntity
  8
SUNPOU
370
    -2
100
AcDbLine
 10
15569.99999999999
 20
12000.0
 30
0.0
 11
15569.99999999999
 21
13620.0
 31
0.0
  0
MTEXT
  5
86
330
82
100
AcDbEntity
  8
SUNPOU
 62
     0
100
AcDbMText
 10
15404.05869794343
 20
12806.25726232369
 30
0.0
 40
180.0
 41
0.0
 71
     5
 72
     1
  1
\A1;15@120=1800
 11
6.123031769111886E-17
 21
1.0
 31
0.0
 73
     1
 44
1.0
  0
SOLID
  5
87
330
82
100
AcDbEntity
  8
SUNPOU
100
AcDbTrace
 10
15554.99999999999
 20
12000.0
 30
0.0
 11
15584.99999999999
 21
12000.0
 31
0.0
 12
15569.99999999999
 22
11910.0
 32
0.0
 13
15569.99999999999
 23
11910.0
 33
0.0
  0
SOLID
  5
88
330
82
100
AcDbEntity
  8
SUNPOU
100
AcDbTrace
 10
15554.99999999999
 20
13620.0
 30
0.0
 11
15584.99999999999
 21
13620.0
 31
0.0
 12
15569.99999999999
 22
13710.0
 32
0.0
 13
15569.99999999999
 23
13710.0
 33
0.0
  0
POINT
  5
89
330
82
100
AcDbEntity
  8
DEFPOINTS
 62
     0
100
AcDbPoint
 10
14369.99999999999
 20
11910.0
 30
0.0
  0
POINT
  5
8A
330
82
100
AcDbEntity
  8
DEFPOINTS
 62
     0
100
AcDbPoint
 10
14369.99999999999
 20
13710.0
 30
0.0
  0
POINT
  5
8B
330
82
100
AcDbEntity
  8
DEFPOINTS
 62
     0
100
AcDbPoint
 10
15569.99999999999
 20
13710.0
 30
0.0
  0
ENDBLK
  5
8D
330
82
100
AcDbEntity
  8
0
100
AcDbBlockEnd
  0
BLOCK
  5
9A
330
8E
100
AcDbEntity
  8
0
100
AcDbBlockBegin
  2
*D3
 70
     1
 10
0.0
 20
0.0
 30
0.0
  3
*D3
  1

  0
LINE
  5
8F
330
8E
100
AcDbEntity
  8
SUNPOU
370
    -2
100
AcDbLine
 10
14333.74999999999
 20
11805.0
 30
0.0
 11
15605.99999999999
 21
11805.0
 31
0.0
  0
LINE
  5
90
330
8E
100
AcDbEntity
  8
SUNPOU
370
    -2
100
AcDbLine
 10
14489.70588235293
 20
11910.0
 30
0.0
 11
15605.99999999999
 21
11910.0
 31
0.0
  0
LINE
  5
91
330
8E
100
AcDbEntity
  8
SUNPOU
370
    -2
100
AcDbLine
 10
15569.99999999999
 20
11715.0
 30
0.0
 11
15569.99999999999
 21
11625.0
 31
0.0
  0
LINE
  5
92
330
8E
100
AcDbEntity
  8
SUNPOU
370
    -2
100
AcDbLine
 10
15569.99999999999
 20
12000.0
 30
0.0
 11
15569.99999999999
 21
12090.0
 31
0.0
  0
MTEXT
  5
93
330
8E
100
AcDbEntity
  8
SUNPOU
 62
     0
100
AcDbMText
 10
15730.33993097525
 20
11906.05735268755
 30
0.0
 40
180.0
 41
0.0
 71
     5
 72
     1
  1
\A1;105
 11
6.123031769111886E-17
 21
1.0
 31
0.0
 73
     1
 44
1.0
  0
LINE
  5
94
330
8E
100
AcDbEntity
  8
SUNPOU
370
    -2
100
AcDbLine
 10
15569.99999999999
 20
11805.0
 30
0.0
 11
15569.99999999999
 21
11910.0
 31
0.0
  0
SOLID
  5
95
330
8E
100
AcDbEntity
  8
SUNPOU
100
AcDbTrace
 10
15554.99999999999
 20
11715.0
 30
0.0
 11
15584.99999999999
 21
11715.0
 31
0.0
 12
15569.99999999999
 22
11805.0
 32
0.0
 13
15569.99999999999
 23
11805.0
 33
0.0
  0
SOLID
  5
96
330
8E
100
AcDbEntity
  8
SUNPOU
100
AcDbTrace
 10
15554.99999999999
 20
12000.0
 30
0.0
 11
15584.99999999999
 21
12000.0
 31
0.0
 12
15569.99999999999
 22
11910.0
 32
0.0
 13
15569.99999999999
 23
11910.0
 33
0.0
  0
POINT
  5
97
330
8E
100
AcDbEntity
  8
DEFPOINTS
 62
     0
100
AcDbPoint
 10
14243.74999999999
 20
11805.0
 30
0.0
  0
POINT
  5
98
330
8E
100
AcDbEntity
  8
DEFPOINTS
 62
     0
100
AcDbPoint
 10
14399.70588235293
 20
11910.0
 30
0.0
  0
POINT
  5
99
330
8E
100
AcDbEntity
  8
DEFPOINTS
 62
     0
100
AcDbPoint
 10
15569.99999999999
 20
11910.0
 30
0.0
  0
ENDBLK
  5
9B
330
8E
100
AcDbEntity
  8
0
100
AcDbBlockEnd
  0
BLOCK
  5
A8
330
9C
100
AcDbEntity
  8
0
100
AcDbBlockBegin
  2
*D4
 70
     1
 10
0.0
 20
0.0
 30
0.0
  3
*D4
  1

  0
LINE
  5
9D
330
9C
100
AcDbEntity
  8
SUNPOU
370
    -2
100
AcDbLine
 10
14459.99999999999
 20
13710.0
 30
0.0
 11
15605.99999999999
 21
13710.0
 31
0.0
  0
LINE
  5
9E
330
9C
100
AcDbEntity
  8
SUNPOU
370
    -2
100
AcDbLine
 10
14459.99999999999
 20
13770.0
 30
0.0
 11
15605.99999999999
 21
13770.0
 31
0.0
  0
LINE
  5
9F
330
9C
100
AcDbEntity
  8
SUNPOU
370
    -2
100
AcDbLine
 10
15569.99999999999
 20
13620.0
 30
0.0
 11
15569.99999999999
 21
13530.0
 31
0.0
  0
LINE
  5
A0
330
9C
100
AcDbEntity
  8
SUNPOU
370
    -2
100
AcDbLine
 10
15569.99999999999
 20
13860.0
 30
0.0
 11
15569.99999999999
 21
13950.0
 31
0.0
  0
MTEXT
  5
A1
330
9C
100
AcDbEntity
  8
SUNPOU
 62
     0
100
AcDbMText
 10
15437.48050855183
 20
13968.0082924672
 30
0.0
 40
180.0
 41
0.0
 71
     5
 72
     1
  1
\A1;60
 11
6.123031769111886E-17
 21
1.0
 31
0.0
 73
     1
 44
1.0
  0
LINE
  5
A2
330
9C
100
AcDbEntity
  8
SUNPOU
370
    -2
100
AcDbLine
 10
15569.99999999999
 20
13710.0
 30
0.0
 11
15569.99999999999
 21
13770.0
 31
0.0
  0
SOLID
  5
A3
330
9C
100
AcDbEntity
  8
SUNPOU
100
AcDbTrace
 10
15554.99999999999
 20
13620.0
 30
0.0
 11
15584.99999999999
 21
13620.0
 31
0.0
 12
15569.99999999999
 22
13710.0
 32
0.0
 13
15569.99999999999
 23
13710.0
 33
0.0
  0
SOLID
  5
A4
330
9C
100
AcDbEntity
  8
SUNPOU
100
AcDbTrace
 10
15554.99999999999
 20
13860.0
 30
0.0
 11
15584.99999999999
 21
13860.0
 31
0.0
 12
15569.99999999999
 22
13770.0
 32
0.0
 13
15569.99999999999
 23
13770.0
 33
0.0
  0
POINT
  5
A5
330
9C
100
AcDbEntity
  8
DEFPOINTS
 62
     0
100
AcDbPoint
 10
14369.99999999999
 20
13710.0
 30
0.0
  0
POINT
  5
A6
330
9C
100
AcDbEntity
  8
DEFPOINTS
 62
     0
100
AcDbPoint
 10
14369.99999999999
 20
13770.0
 30
0.0
  0
POINT
  5
A7
330
9C
100
AcDbEntity
  8
DEFPOINTS
 62
     0
100
AcDbPoint
 10
15569.99999999999
 20
13770.0
 30
0.0
  0
ENDBLK
  5
A9
330
9C
100
AcDbEntity
  8
0
100
AcDbBlockEnd
  0
BLOCK
  5
B4
330
AA
100
AcDbEntity
  8
0
100
AcDbBlockBegin
  2
*D5
 70
     1
 10
0.0
 20
0.0
 30
0.0
  3
*D5
  1

  0
LINE
  5
AB
330
AA
100
AcDbEntity
  8
SUNPOU
370
    -2
100
AcDbLine
 10
14324.99999999999
 20
11770.0
 30
0.0
 11
15905.99999999999
 21
11770.0
 31
0.0
  0
LINE
  5
AC
330
AA
100
AcDbEntity
  8
SUNPOU
370
    -2
100
AcDbLine
 10
14594.99999999999
 20
13770.0
 30
0.0
 11
15905.99999999999
 21
13770.0
 31
0.0
  0
LINE
  5
AD
330
AA
100
AcDbEntity
  8
SUNPOU
370
    -2
100
AcDbLine
 10
15869.99999999999
 20
11860.0
 30
0.0
 11
15869.99999999999
 21
13680.0
 31
0.0
  0
SOLID
  5
AE
330
AA
100
AcDbEntity
  8
SUNPOU
100
AcDbTrace
 10
15854.99999999999
 20
11860.0
 30
0.0
 11
15884.99999999999
 21
11860.0
 31
0.0
 12
15869.99999999999
 22
11770.0
 32
0.0
 13
15869.99999999999
 23
11770.0
 33
0.0
  0
SOLID
  5
AF
330
AA
100
AcDbEntity
  8
SUNPOU
100
AcDbTrace
 10
15854.99999999999
 20
13680.0
 30
0.0
 11
15884.99999999999
 21
13680.0
 31
0.0
 12
15869.99999999999
 22
13770.0
 32
0.0
 13
15869.99999999999
 23
13770.0
 33
0.0
  0
MTEXT
  5
B0
330
AA
100
AcDbEntity
  8
SUNPOU
 62
     0
100
AcDbMText
 10
15731.99999999999
 20
12770.0
 30
0.0
 40
180.0
 41
0.0
 71
     5
 72
     1
  1
\A1;2000
 11
6.123031769111886E-17
 21
1.0
 31
0.0
 73
     1
 44
1.0
  0
POINT
  5
B1
330
AA
100
AcDbEntity
  8
DEFPOINTS
 62
     0
100
AcDbPoint
 10
14234.99999999999
 20
11770.0
 30
0.0
  0
POINT
  5
B2
330
AA
100
AcDbEntity
  8
DEFPOINTS
 62
     0
100
AcDbPoint
 10
14504.99999999999
 20
13770.0
 30
0.0
  0
POINT
  5
B3
330
AA
100
AcDbEntity
  8
DEFPOINTS
 62
     0
100
AcDbPoint
 10
15869.99999999999
 20
13770.0
 30
0.0
  0
ENDBLK
  5
B5
330
AA
100
AcDbEntity
  8
0
100
AcDbBlockEnd
  0
BLOCK
  5
C1
330
B6
100
AcDbEntity
  8
0
100
AcDbBlockBegin
  2
*D6
 70
     1
 10
0.0
 20
0.0
 30
0.0
  3
*D6
  1

  0
LINE
  5
B7
330
B6
100
AcDbEntity
  8
SUNPOU
 62
     0
370
    -2
100
AcDbLine
 10
14388.74999999999
 20
11805.0
 30
0.0
 11
15629.99999999999
 21
11805.0
 31
0.0
  0
LINE
  5
B8
330
B6
100
AcDbEntity
  8
SUNPOU
 62
     0
370
    -2
100
AcDbLine
 10
14379.99999999999
 20
11770.0
 30
0.0
 11
15629.99999999999
 21
11770.0
 31
0.0
  0
LINE
  5
B9
330
B6
100
AcDbEntity
  8
SUNPOU
 62
     0
370
    -2
100
AcDbLine
 10
15569.99999999999
 20
11895.0
 30
0.0
 11
15569.99999999999
 21
11985.0
 31
0.0
  0
LINE
  5
BA
330
B6
100
AcDbEntity
  8
SUNPOU
 62
     0
370
    -2
100
AcDbLine
 10
15569.99999999999
 20
11680.0
 30
0.0
 11
15569.99999999999
 21
11590.0
 31
0.0
  0
MTEXT
  5
BB
330
B6
100
AcDbEntity
  8
SUNPOU
 62
     0
100
AcDbMText
 10
15422.1488453184
 20
11572.59656658611
 30
0.0
 40
180.0
 41
0.0
 71
     5
 72
     1
  1
\A1;35
 11
6.123031769111886E-17
 21
1.0
 31
0.0
 73
     1
 44
1.0
  0
SOLID
  5
BC
330
B6
100
AcDbEntity
  8
SUNPOU
 62
     0
100
AcDbTrace
 10
15554.99999999999
 20
11895.0
 30
0.0
 11
15584.99999999999
 21
11895.0
 31
0.0
 12
15569.99999999999
 22
11805.0
 32
0.0
 13
15569.99999999999
 23
11805.0
 33
0.0
  0
SOLID
  5
BD
330
B6
100
AcDbEntity
  8
SUNPOU
 62
     0
100
AcDbTrace
 10
15554.99999999999
 20
11680.0
 30
0.0
 11
15584.99999999999
 21
11680.0
 31
0.0
 12
15569.99999999999
 22
11770.0
 32
0.0
 13
15569.99999999999
 23
11770.0
 33
0.0
  0
POINT
  5
BE
330
B6
100
AcDbEntity
  8
DEFPOINTS
 62
     0
100
AcDbPoint
 10
14268.74999999999
 20
11805.0
 30
0.0
  0
POINT
  5
BF
330
B6
100
AcDbEntity
  8
DEFPOINTS
 62
     0
100
AcDbPoint
 10
14259.99999999999
 20
11770.0
 30
0.0
  0
POINT
  5
C0
330
B6
100
AcDbEntity
  8
DEFPOINTS
 62
     0
100
AcDbPoint
 10
15569.99999999999
 20
11770.0
 30
0.0
  0
ENDBLK
  5
C2
330
B6
100
AcDbEntity
  8
0
100
AcDbBlockEnd
  0
BLOCK
  5
169
330
C3
100
AcDbEntity
  8
0
100
AcDbBlockBegin
  2
A$C79F54BAC
 70
     0
 10
0.0
 20
0.0
 30
0.0
  3
A$C79F54BAC
  1

  0
DIMENSION
  5
C4
330
C3
100
AcDbEntity
  8
SUNPOU
100
AcDbDimension
  2
*D2
 10
4229.99998564875
 20
2257.403415746125
 30
0.0
 11
4064.058683592186
 21
1353.660678069813
 31
0.0
 12
-11340.00001435124
 22
-11452.59658425388
 32
0.0
 70
   128
  1
15@120=<>
 71
     5
 42
-1.0
  3
STANDARD
100
AcDbAlignedDimension
 13
3029.99998564875
 23
457.4034157461228
 33
0.0
 14
3029.99998564875
 24
2257.403415746125
 34
0.0
 50
90.0
100
AcDbRotatedDimension
1001
ACAD
1000
DSTYLE
1002
{
1070
   287
1070
     5
1070
   287
1070
     5
1070
   287
1070
     5
1070
   287
1070
     5
1070
   287
1070
     5
1070
   287
1070
     5
1070
   287
1070
     5
1070
   287
1070
     5
1070
    40
1040
60.0
1070
    41
1040
1.5
1070
    42
1040
1.5
1070
    43
1040
7.0
1070
    44
1040
0.6
1070
    73
1070
     0
1070
    74
1070
     0
1070
    77
1070
     1
1070
    78
1070
     8
1070
   140
1040
3.0
1070
   141
1040
0.0
1070
   145
1040
1.0
1070
   147
1040
0.8
1070
   172
1070
     1
1070
   176
1070
   256
1070
   177
1070
   256
1070
   271
1070
     0
1070
   275
1070
     1
1070
   279
1070
     2
1070
   284
1070
     8
1070
   285
1070
     8
1070
   286
1070
     8
1002
}
  0
DIMENSION
  5
C5
330
C3
100
AcDbEntity
  8
SUNPOU
100
AcDbDimension
  2
*D3
 10
4229.99998564875
 20
457.4034157461228
 30
0.0
 11
4390.339916624003
 21
453.4607684336734
 31
0.0
 12
-11340.00001435124
 22
-11452.59658425388
 32
0.0
 70
   128
 71
     5
 42
-1.0
  3
STANDARD
100
AcDbAlignedDimension
 13
2903.74998564875
 23
352.4034157461247
 33
0.0
 14
3059.705868001689
 24
457.4034157461228
 34
0.0
 50
90.0
100
AcDbRotatedDimension
1001
ACAD
1000
DSTYLE
1002
{
1070
   287
1070
     5
1070
   287
1070
     5
1070
   287
1070
     5
1070
   287
1070
     5
1070
   287
1070
     5
1070
   287
1070
     5
1070
   287
1070
     5
1070
   287
1070
     5
1070
    40
1040
60.0
1070
    41
1040
1.5
1070
    42
1040
1.5
1070
    43
1040
7.0
1070
    44
1040
0.6
1070
    73
1070
     0
1070
    74
1070
     0
1070
    77
1070
     1
1070
    78
1070
     8
1070
   140
1040
3.0
1070
   141
1040
0.0
1070
   145
1040
1.0
1070
   147
1040
0.8
1070
   172
1070
     1
1070
   176
1070
   256
1070
   177
1070
   256
1070
   271
1070
     0
1070
   275
1070
     1
1070
   279
1070
     2
1070
   284
1070
     8
1070
   285
1070
     8
1070
   286
1070
     8
1002
}
  0
DIMENSION
  5
C6
330
C3
100
AcDbEntity
  8
SUNPOU
100
AcDbDimension
  2
*D4
 10
4229.99998564875
 20
2317.403415746121
 30
0.0
 11
4097.480494200581
 21
2515.411708213323
 31
0.0
 12
-11340.00001435124
 22
-11452.59658425388
 32
0.0
 70
   128
 71
     5
 42
-1.0
  3
STANDARD
100
AcDbAlignedDimension
 13
3029.99998564875
 23
2257.403415746125
 33
0.0
 14
3029.99998564875
 24
2317.403415746121
 34
0.0
 50
90.0
100
AcDbRotatedDimension
1001
ACAD
1000
DSTYLE
1002
{
1070
   287
1070
     5
1070
   287
1070
     5
1070
   287
1070
     5
1070
   287
1070
     5
1070
   287
1070
     5
1070
   287
1070
     5
1070
   287
1070
     5
1070
   287
1070
     5
1070
    40
1040
60.0
1070
    41
1040
1.5
1070
    42
1040
1.5
1070
    43
1040
7.0
1070
    44
1040
0.6
1070
    73
1070
     0
1070
    74
1070
     0
1070
    77
1070
     1
1070
    78
1070
     8
1070
   140
1040
3.0
1070
   141
1040
0.0
1070
   145
1040
1.0
1070
   147
1040
0.8
1070
   172
1070
     1
1070
   176
1070
   256
1070
   177
1070
   256
1070
   271
1070
     0
1070
   275
1070
     1
1070
   279
1070
     2
1070
   284
1070
     8
1070
   285
1070
     8
1070
   286
1070
     8
1002
}
  0
DIMENSION
  5
C7
330
C3
100
AcDbEntity
  8
SUNPOU
100
AcDbDimension
  2
*D5
 10
4529.99998564875
 20
2317.403415746123
 30
0.0
 11
4391.999985648747
 21
1317.403415746123
 31
0.0
 12
-11340.00001435124
 22
-11452.59658425388
 32
0.0
 71
     5
 42
-1.0
  3
STANDARD
100
AcDbAlignedDimension
 13
2894.99998564875
 23
317.403415746121
 33
0.0
 14
3164.99998564875
 24
2317.403415746123
 34
0.0
 50
90.0
100
AcDbRotatedDimension
1001
ACAD
1000
DSTYLE
1002
{
1070
   287
1070
     5
1070
   287
1070
     5
1070
   287
1070
     5
1070
   287
1070
     5
1070
   287
1070
     5
1070
   287
1070
     5
1070
   287
1070
     5
1070
   287
1070
     5
1070
    40
1040
60.0
1070
    41
1040
1.5
1070
    42
1040
1.5
1070
    43
1040
7.0
1070
    44
1040
0.6
1070
    73
1070
     0
1070
    74
1070
     0
1070
    77
1070
     1
1070
    78
1070
     8
1070
   140
1040
3.0
1070
   141
1040
0.0
1070
   145
1040
1.0
1070
   147
1040
0.8
1070
   172
1070
     1
1070
   176
1070
   256
1070
   177
1070
   256
1070
   271
1070
     0
1070
   275
1070
     1
1070
   279
1070
     2
1070
   284
1070
     8
1070
   285
1070
     8
1070
   286
1070
     8
1002
}
  0
DIMENSION
  5
C8
330
C3
100
AcDbEntity
  8
SUNPOU
100
AcDbDimension
  2
*D6
 10
4229.99998564875
 20
317.403415746121
 30
0.0
 11
4082.14883096716
 21
119.9999823322287
 31
0.0
 12
-11340.00001435124
 22
-11452.59658425388
 32
0.0
 70
   128
 71
     5
 42
-1.0
  3
STANDARD
100
AcDbAlignedDimension
 13
2928.74998564875
 23
352.4034157461247
 33
0.0
 14
2919.99998564875
 24
317.403415746121
 34
0.0
 50
90.0
100
AcDbRotatedDimension
1001
ACAD
1000
DSTYLE
1002
{
1070
   287
1070
     5
1070
   287
1070
     5
1070
   287
1070
     5
1070
   287
1070
     5
1070
   287
1070
     5
1070
   287
1070
     5
1070
   287
1070
     5
1070
   287
1070
     5
1070
    40
1040
60.0
1070
    41
1040
1.5
1070
    42
1040
2.0
1070
    43
1040
3.75
1070
    44
1040
1.0
1070
    73
1070
     0
1070
    74
1070
     0
1070
    77
1070
     1
1070
    78
1070
     8
1070
   140
1040
3.0
1070
   141
1040
2.5
1070
   143
1040
0.0394
1070
   147
1040
1.0
1070
   171
1070
     4
1070
   271
1070
     0
1070
   273
1070
     8
1070
   274
1070
     4
1070
   279
1070
     2
1002
}
  0
LINE
  5
C9
330
C3
100
AcDbEntity
  8
SUNPOU
100
AcDbLine
 10
1679.999985648763
 20
3227.403415746123
 30
0.0
 11
899.9999856487611
 21
3227.403415746123
 31
0.0
1001
ACAD
1000
DSTYLE
1002
{
1070
    78
1070
     8
1070
   284
1070
     8
1070
   140
1040
3.0
1070
   145
1040
1.0
1070
    74
1070
     0
1070
   172
1070
     1
1070
    73
1070
     0
1070
    77
1070
     1
1070
    40
1040
60.0
1070
   147
1040
0.8
1070
   287
1070
     5
1070
    42
1040
1.5
1070
    44
1040
0.6
1070
    43
1040
7.0
1070
   271
1070
     0
1070
   177
1070
   256
1070
   176
1070
   256
1070
   141
1040
0.0
1070
   275
1070
     1
1070
    41
1040
1.5
1070
   285
1070
     8
1070
   286
1070
     8
1002
}
  0
SOLID
  5
CA
330
C3
100
AcDbEntity
  8
SUNPOU
100
AcDbTrace
 10
1216.999985648774
 20
1372.403415746125
 30
0.0
 11
1306.999985648774
 21
1357.403415746123
 31
0.0
 12
1216.999985648774
 22
1342.403415746125
 32
0.0
 13
1216.999985648774
 23
1342.403415746125
 33
0.0
1001
ACAD
1000
DSTYLE
1002
{
1070
    78
1070
     8
1070
   284
1070
     8
1070
   140
1040
3.0
1070
   145
1040
1.0
1070
    74
1070
     0
1070
   172
1070
     1
1070
    73
1070
     0
1070
    77
1070
     1
1070
    40
1040
60.0
1070
   147
1040
0.8
1070
   287
1070
     5
1070
    42
1040
1.5
1070
    44
1040
0.6
1070
    43
1040
7.0
1070
   271
1070
     0
1070
   177
1070
   256
1070
   176
1070
   256
1070
   141
1040
0.0
1070
   275
1070
     1
1070
    41
1040
1.5
1070
   285
1070
     8
1070
   286
1070
     8
1002
}
  0
LINE
  5
CB
330
C3
100
AcDbEntity
  8
SUNPOU
100
AcDbLine
 10
329.9999856487375
 20
1357.403415746123
 30
0.0
 11
1426.999985648756
 21
1357.403415746126
 31
0.0
1001
ACAD
1000
DSTYLE
1002
{
1070
    78
1070
     8
1070
   284
1070
     8
1070
   140
1040
3.0
1070
   145
1040
1.0
1070
    74
1070
     0
1070
   172
1070
     1
1070
    73
1070
     0
1070
    77
1070
     1
1070
    40
1040
60.0
1070
   147
1040
0.8
1070
   287
1070
     5
1070
    42
1040
1.5
1070
    44
1040
0.6
1070
    43
1040
7.0
1070
   271
1070
     0
1070
   177
1070
   256
1070
   176
1070
   256
1070
   141
1040
0.0
1070
   275
1070
     1
1070
    41
1040
1.5
1070
   285
1070
     8
1070
   286
1070
     8
1002
}
  0
LINE
  5
CC
330
C3
100
AcDbEntity
  8
HAIKIN
100
AcDbLine
 10
1979.999985648756
 20
2052.403415746123
 30
0.0
 11
964.9999856487557
 21
2052.403415746117
 31
0.0
  0
LINE
  5
CD
330
C3
100
AcDbEntity
  8
HAIKIN
100
AcDbLine
 10
1979.999985648765
 20
1992.403415746121
 30
0.0
 11
964.9999856487557
 21
1992.403415746117
 31
0.0
  0
LINE
  5
CE
330
C3
100
AcDbEntity
  8
HAIKIN
100
AcDbLine
 10
1979.999985648765
 20
1932.403415746121
 30
0.0
 11
964.9999856487557
 21
1932.403415746117
 31
0.0
  0
LINE
  5
CF
330
C3
100
AcDbEntity
  8
HAIKIN
100
AcDbLine
 10
1979.999985648765
 20
847.4034157461283
 30
0.0
 11
964.9999856487557
 21
847.4034157461247
 31
0.0
  0
LINE
  5
D0
330
C3
100
AcDbEntity
  8
HAIKIN
100
AcDbLine
 10
1979.999985648765
 20
787.4034157461283
 30
0.0
 11
964.9999856487557
 21
787.4034157461247
 31
0.0
  0
LINE
  5
D1
330
C3
100
AcDbEntity
  8
HAIKIN
100
AcDbLine
 10
1979.999985648758
 20
727.4034157461283
 30
0.0
 11
964.9999856487557
 21
727.4034157461247
 31
0.0
  0
LINE
  5
D2
330
C3
100
AcDbEntity
  8
SUNPOU
100
AcDbLine
 10
964.9999856487557
 20
1897.403415746125
 30
0.0
 11
1486.999985648752
 21
1897.403415746121
 31
0.0
  0
LINE
  5
D3
330
C3
100
AcDbEntity
  8
SUNPOU
100
AcDbLine
 10
964.9999856487557
 20
1657.403415746125
 30
0.0
 11
1486.999985648752
 21
1657.403415746121
 31
0.0
  0
LINE
  5
D4
330
C3
100
AcDbEntity
  8
SUNPOU
100
AcDbLine
 10
964.9999856487557
 20
1777.403415746125
 30
0.0
 11
1486.999985648752
 21
1777.403415746123
 31
0.0
  0
LINE
  5
D5
330
C3
100
AcDbEntity
  8
SUNPOU
100
AcDbLine
 10
964.9999856487557
 20
457.4034157461247
 30
0.0
 11
1979.999985648759
 21
457.403415746121
 31
0.0
  0
LINE
  5
D6
330
C3
100
AcDbEntity
  8
SUNPOU
100
AcDbLine
 10
964.9999856487557
 20
817.4034157461247
 30
0.0
 11
1979.999985648759
 21
817.403415746121
 31
0.0
  0
LINE
  5
D7
330
C3
100
AcDbEntity
  8
SUNPOU
100
AcDbLine
 10
964.9999856487557
 20
697.4034157461247
 30
0.0
 11
1979.999985648759
 21
697.403415746121
 31
0.0
  0
LINE
  5
D8
330
C3
100
AcDbEntity
  8
SUNPOU
100
AcDbLine
 10
964.9999856487557
 20
577.4034157461247
 30
0.0
 11
1979.999985648759
 21
577.403415746121
 31
0.0
  0
LINE
  5
D9
330
C3
100
AcDbEntity
  8
SUNPOU
100
AcDbLine
 10
964.9999856487557
 20
937.4034157461247
 30
0.0
 11
1486.999985648752
 21
937.403415746121
 31
0.0
  0
LINE
  5
DA
330
C3
100
AcDbEntity
  8
SUNPOU
100
AcDbLine
 10
964.9999856487557
 20
1057.403415746125
 30
0.0
 11
1486.999985648752
 21
1057.403415746119
 31
0.0
  0
LINE
  5
DB
330
C3
100
AcDbEntity
  8
SUNPOU
100
AcDbLine
 10
964.9999856487557
 20
1177.403415746125
 30
0.0
 11
1486.999985648752
 21
1177.403415746117
 31
0.0
  0
LINE
  5
DC
330
C3
100
AcDbEntity
  8
SUNPOU
100
AcDbLine
 10
964.9999856487557
 20
1297.403415746125
 30
0.0
 11
1486.999985648752
 21
1297.403415746121
 31
0.0
  0
LINE
  5
DD
330
C3
100
AcDbEntity
  8
SUNPOU
100
AcDbLine
 10
964.9999856487557
 20
1417.403415746125
 30
0.0
 11
1486.999985648752
 21
1417.403415746119
 31
0.0
  0
LINE
  5
DE
330
C3
100
AcDbEntity
  8
SUNPOU
100
AcDbLine
 10
964.9999856487557
 20
1537.403415746125
 30
0.0
 11
1486.999985648752
 21
1537.403415746121
 31
0.0
  0
LINE
  5
DF
330
C3
100
AcDbEntity
  8
SUNPOU
100
AcDbLine
 10
964.9999856487557
 20
2017.403415746125
 30
0.0
 11
1979.999985648759
 21
2017.403415746121
 31
0.0
  0
LINE
  5
E0
330
C3
100
AcDbEntity
  8
SUNPOU
100
AcDbLine
 10
964.9999856487557
 20
2137.403415746125
 30
0.0
 11
1979.999985648759
 21
2137.403415746121
 31
0.0
  0
LINE
  5
E1
330
C3
100
AcDbEntity
  8
SUNPOU
100
AcDbLine
 10
964.9999856487557
 20
2257.403415746125
 30
0.0
 11
1979.999985648759
 21
2257.403415746121
 31
0.0
  0
LINE
  5
E2
330
C3
100
AcDbEntity
  8
SUNPOU
100
AcDbLine
 10
964.9999856487557
 20
2362.403415746125
 30
0.0
 11
1979.999985648759
 21
2362.403415746121
 31
0.0
  0
TEXT
  5
E3
330
C3
100
AcDbEntity
  8
HAIKIN
 62
     3
100
AcDbText
 10
1009.999985648752
 20
4617.403415746125
 30
0.0
 40
240.0
  1
頂　版
 72
     1
 11
1409.999985648752
 21
4617.403415746125
 31
0.0
100
AcDbText
  0
TEXT
  5
E4
330
C3
100
AcDbEntity
  8
SUNPOU
100
AcDbText
 10
1019.999985648756
 20
4105.403415746121
 30
0.0
 40
210.0
  1
外　側
 11
1019.999985648756
 21
4077.403415746121
 31
0.0
100
AcDbText
 73
     1
  0
LINE
  5
E5
330
C3
100
AcDbEntity
  8
SUNPOU
100
AcDbLine
 10
1019.999985648752
 20
317.4034157461247
 30
0.0
 11
1979.999985648759
 21
317.403415746121
 31
0.0
  0
LINE
  5
E6
330
C3
100
AcDbEntity
  8
SUNPOU
100
AcDbLine
 10
929.999985648752
 20
397.403415746121
 30
0.0
 11
1979.999985648759
 21
397.403415746121
 31
0.0
  0
LINE
  5
E7
330
C3
100
AcDbEntity
  8
SUNPOU
100
AcDbLine
 10
929.999985648752
 20
2397.403415746123
 30
0.0
 11
1979.999985648759
 21
2397.403415746121
 31
0.0
  0
LINE
  5
E8
330
C3
100
AcDbEntity
  8
SUNPOU
100
AcDbLine
 10
1019.999985648756
 20
4077.403415746121
 30
0.0
 11
2939.999985648754
 21
4077.403415746121
 31
0.0
  0
LINE
  5
E9
330
C3
100
AcDbEntity
  8
HAIKIN
 62
     3
100
AcDbLine
 10
1889.999985648752
 20
4887.403415746125
 30
0.0
 11
929.999985648752
 21
4887.403415746125
 31
0.0
  0
LINE
  5
EA
330
C3
100
AcDbEntity
  8
HAIKIN
 62
     3
100
AcDbLine
 10
1889.999985648752
 20
4587.403415746125
 30
0.0
 11
929.999985648752
 21
4587.403415746125
 31
0.0
  0
TEXT
  5
EB
330
C3
100
AcDbEntity
  8
SUNPOU
100
AcDbText
 10
762.4999856487557
 20
2907.403415746125
 30
0.0
 40
150.0
  1
D13
 41
0.8
 11
762.4999856487557
 21
2982.403415746125
 31
0.0
100
AcDbText
 73
     2
  0
TEXT
  5
EC
330
C3
100
AcDbEntity
  8
SUNPOU
100
AcDbText
 10
457.4999856487557
 20
2907.403415746125
 30
0.0
 40
150.0
  1
H1
 41
0.8
 72
     4
 11
537.4999856487557
 21
2982.403415746125
 31
0.0
100
AcDbText
  0
CIRCLE
  5
ED
330
C3
100
AcDbEntity
  8
SUNPOU
100
AcDbCircle
 10
537.4999856487557
 20
2982.403415746125
 30
0.0
 40
165.0
  0
TEXT
  5
EE
330
C3
100
AcDbEntity
  8
SUNPOU
100
AcDbText
 10
239.9999856487393
 20
1437.403415746128
 30
0.0
 40
150.0
  1
H2
 50
90.0
 41
0.8
 72
     4
 11
164.9999856487393
 21
1537.403415746128
 31
0.0
100
AcDbText
  0
LINE
  5
EF
330
C3
100
AcDbEntity
  8
SUNPOU
100
AcDbLine
 10
1137.499985648754
 20
727.4034157461247
 30
0.0
 11
1137.499985648756
 21
2817.403415746125
 31
0.0
1001
ACAD
1000
DSTYLE
1002
{
1070
    78
1070
     8
1070
   284
1070
     8
1070
   140
1040
3.0
1070
   145
1040
1.0
1070
    74
1070
     0
1070
   172
1070
     1
1070
    73
1070
     0
1070
    77
1070
     1
1070
    40
1040
60.0
1070
   147
1040
0.8
1070
   287
1070
     5
1070
    42
1040
1.5
1070
    44
1040
0.6
1070
    43
1040
7.0
1070
   271
1070
     0
1070
   177
1070
   256
1070
   176
1070
   256
1070
   141
1040
0.0
1070
   275
1070
     1
1070
    41
1040
1.5
1070
   285
1070
     8
1070
   286
1070
     8
1002
}
  0
LINE
  5
F0
330
C3
100
AcDbEntity
  8
SUNPOU
100
AcDbLine
 10
1044.999985648752
 20
2362.403415746125
 30
0.0
 11
1044.999985648756
 21
457.4034157461265
 31
0.0
  0
LINE
  5
F1
330
C3
100
AcDbEntity
  8
SUNPOU
100
AcDbLine
 10
1229.999985648759
 20
2362.403415746123
 30
0.0
 11
1229.999985648763
 21
457.4034157461228
 31
0.0
  0
LINE
  5
F2
330
C3
100
AcDbEntity
  8
SUNPOU
100
AcDbLine
 10
329.9999856487393
 20
2137.403415746126
 30
0.0
 11
329.9999856487393
 21
1357.403415746128
 31
0.0
1001
ACAD
1000
DSTYLE
1002
{
1070
    78
1070
     8
1070
   284
1070
     8
1070
   140
1040
3.0
1070
   145
1040
1.0
1070
    74
1070
     0
1070
   172
1070
     1
1070
    73
1070
     0
1070
    77
1070
     1
1070
    40
1040
60.0
1070
   147
1040
0.8
1070
   287
1070
     5
1070
    42
1040
1.5
1070
    44
1040
0.6
1070
    43
1040
7.0
1070
   271
1070
     0
1070
   177
1070
   256
1070
   176
1070
   256
1070
   141
1040
0.0
1070
   275
1070
     1
1070
    41
1040
1.5
1070
   285
1070
     8
1070
   286
1070
     8
1002
}
  0
CIRCLE
  5
F3
330
C3
100
AcDbEntity
  8
SUNPOU
100
AcDbCircle
 10
164.9999856487393
 20
1537.403415746128
 30
0.0
 40
165.0
  0
LINE
  5
F4
330
C3
100
AcDbEntity
  8
SUNPOU
100
AcDbLine
 10
929.999985648752
 20
2397.403415746126
 30
0.0
 11
929.999985648752
 21
397.4034157461247
 31
0.0
  0
LINE
  5
F5
330
C3
100
AcDbEntity
  8
SUNPOU
100
AcDbLine
 10
999.999985648752
 20
397.4034157461247
 30
0.0
 11
1019.999985648752
 21
317.4034157461301
 31
0.0
  0
SOLID
  5
F6
330
C3
100
AcDbEntity
  8
SUNPOU
100
AcDbTrace
 10
1152.499985648758
 20
937.4034157461138
 30
0.0
 11
1137.499985648758
 21
847.4034157461138
 31
0.0
 12
1122.499985648756
 22
937.4034157461138
 32
0.0
 13
1122.499985648756
 23
937.4034157461138
 33
0.0
1001
ACAD
1000
DSTYLE
1002
{
1070
    78
1070
     8
1070
   284
1070
     8
1070
   140
1040
3.0
1070
   145
1040
1.0
1070
    74
1070
     0
1070
   172
1070
     1
1070
    73
1070
     0
1070
    77
1070
     1
1070
    40
1040
60.0
1070
   147
1040
0.8
1070
   287
1070
     5
1070
    42
1040
1.5
1070
    44
1040
0.6
1070
    43
1040
7.0
1070
   271
1070
     0
1070
   177
1070
   256
1070
   176
1070
   256
1070
   141
1040
0.0
1070
   275
1070
     1
1070
    41
1040
1.5
1070
   285
1070
     8
1070
   286
1070
     8
1002
}
  0
SOLID
  5
F7
330
C3
100
AcDbEntity
  8
SUNPOU
100
AcDbTrace
 10
1152.499985648758
 20
817.4034157461356
 30
0.0
 11
1137.499985648758
 21
727.4034157461356
 31
0.0
 12
1122.499985648756
 22
817.4034157461356
 32
0.0
 13
1122.499985648756
 23
817.4034157461356
 33
0.0
1001
ACAD
1000
DSTYLE
1002
{
1070
    78
1070
     8
1070
   284
1070
     8
1070
   140
1040
3.0
1070
   145
1040
1.0
1070
    74
1070
     0
1070
   172
1070
     1
1070
    73
1070
     0
1070
    77
1070
     1
1070
    40
1040
60.0
1070
   147
1040
0.8
1070
   287
1070
     5
1070
    42
1040
1.5
1070
    44
1040
0.6
1070
    43
1040
7.0
1070
   271
1070
     0
1070
   177
1070
   256
1070
   176
1070
   256
1070
   141
1040
0.0
1070
   275
1070
     1
1070
    41
1040
1.5
1070
   285
1070
     8
1070
   286
1070
     8
1002
}
  0
SOLID
  5
F8
330
C3
100
AcDbEntity
  8
SUNPOU
100
AcDbTrace
 10
1152.499985648754
 20
877.4034157461301
 30
0.0
 11
1137.499985648754
 21
787.4034157461301
 31
0.0
 12
1122.499985648752
 22
877.4034157461301
 32
0.0
 13
1122.499985648752
 23
877.4034157461301
 33
0.0
1001
ACAD
1000
DSTYLE
1002
{
1070
    78
1070
     8
1070
   284
1070
     8
1070
   140
1040
3.0
1070
   145
1040
1.0
1070
    74
1070
     0
1070
   172
1070
     1
1070
    73
1070
     0
1070
    77
1070
     1
1070
    40
1040
60.0
1070
   147
1040
0.8
1070
   287
1070
     5
1070
    42
1040
1.5
1070
    44
1040
0.6
1070
    43
1040
7.0
1070
   271
1070
     0
1070
   177
1070
   256
1070
   176
1070
   256
1070
   141
1040
0.0
1070
   275
1070
     1
1070
    41
1040
1.5
1070
   285
1070
     8
1070
   286
1070
     8
1002
}
  0
TEXT
  5
F9
330
C3
100
AcDbEntity
  8
SUNPOU
100
AcDbText
 10
239.9999856487393
 20
1762.40341574613
 30
0.0
 40
150.0
  1
D13
 50
90.0
 41
0.8
 11
164.9999856487393
 21
1762.40341574613
 31
0.0
100
AcDbText
 73
     2
  0
SOLID
  5
FA
330
C3
100
AcDbEntity
  8
SUNPOU
100
AcDbTrace
 10
1152.499985648756
 20
2022.403415746117
 30
0.0
 11
1137.499985648756
 21
1932.403415746117
 31
0.0
 12
1122.499985648756
 22
2022.403415746117
 32
0.0
 13
1122.499985648756
 23
2022.403415746117
 33
0.0
1001
ACAD
1000
DSTYLE
1002
{
1070
    78
1070
     8
1070
   284
1070
     8
1070
   140
1040
3.0
1070
   145
1040
1.0
1070
    74
1070
     0
1070
   172
1070
     1
1070
    73
1070
     0
1070
    77
1070
     1
1070
    40
1040
60.0
1070
   147
1040
0.8
1070
   287
1070
     5
1070
    42
1040
1.5
1070
    44
1040
0.6
1070
    43
1040
7.0
1070
   271
1070
     0
1070
   177
1070
   256
1070
   176
1070
   256
1070
   141
1040
0.0
1070
   275
1070
     1
1070
    41
1040
1.5
1070
   285
1070
     8
1070
   286
1070
     8
1002
}
  0
SOLID
  5
FB
330
C3
100
AcDbEntity
  8
SUNPOU
100
AcDbTrace
 10
1152.499985648756
 20
2082.403415746117
 30
0.0
 11
1137.499985648756
 21
1992.403415746117
 31
0.0
 12
1122.499985648756
 22
2082.403415746117
 32
0.0
 13
1122.499985648756
 23
2082.403415746117
 33
0.0
1001
ACAD
1000
DSTYLE
1002
{
1070
    78
1070
     8
1070
   284
1070
     8
1070
   140
1040
3.0
1070
   145
1040
1.0
1070
    74
1070
     0
1070
   172
1070
     1
1070
    73
1070
     0
1070
    77
1070
     1
1070
    40
1040
60.0
1070
   147
1040
0.8
1070
   287
1070
     5
1070
    42
1040
1.5
1070
    44
1040
0.6
1070
    43
1040
7.0
1070
   271
1070
     0
1070
   177
1070
   256
1070
   176
1070
   256
1070
   141
1040
0.0
1070
   275
1070
     1
1070
    41
1040
1.5
1070
   285
1070
     8
1070
   286
1070
     8
1002
}
  0
SOLID
  5
FC
330
C3
100
AcDbEntity
  8
SUNPOU
100
AcDbTrace
 10
1152.499985648756
 20
2142.403415746119
 30
0.0
 11
1137.499985648756
 21
2052.403415746119
 31
0.0
 12
1122.499985648756
 22
2142.403415746119
 32
0.0
 13
1122.499985648756
 23
2142.403415746119
 33
0.0
1001
ACAD
1000
DSTYLE
1002
{
1070
    78
1070
     8
1070
   284
1070
     8
1070
   140
1040
3.0
1070
   145
1040
1.0
1070
    74
1070
     0
1070
   172
1070
     1
1070
    73
1070
     0
1070
    77
1070
     1
1070
    40
1040
60.0
1070
   147
1040
0.8
1070
   287
1070
     5
1070
    42
1040
1.5
1070
    44
1040
0.6
1070
    43
1040
7.0
1070
   271
1070
     0
1070
   177
1070
   256
1070
   176
1070
   256
1070
   141
1040
0.0
1070
   275
1070
     1
1070
    41
1040
1.5
1070
   285
1070
     8
1070
   286
1070
     8
1002
}
  0
LINE
  5
FD
330
C3
100
AcDbEntity
  8
SUNPOU
100
AcDbLine
 10
1137.499985648756
 20
2817.403415746125
 30
0.0
 11
357.4999856487557
 21
2817.403415746125
 31
0.0
1001
ACAD
1000
DSTYLE
1002
{
1070
    78
1070
     8
1070
   284
1070
     8
1070
   140
1040
3.0
1070
   145
1040
1.0
1070
    74
1070
     0
1070
   172
1070
     1
1070
    73
1070
     0
1070
    77
1070
     1
1070
    40
1040
60.0
1070
   147
1040
0.8
1070
   287
1070
     5
1070
    42
1040
1.5
1070
    44
1040
0.6
1070
    43
1040
7.0
1070
   271
1070
     0
1070
   177
1070
   256
1070
   176
1070
   256
1070
   141
1040
0.0
1070
   275
1070
     1
1070
    41
1040
1.5
1070
   285
1070
     8
1070
   286
1070
     8
1002
}
  0
TEXT
  5
FE
330
C3
100
AcDbEntity
  8
SUNPOU
100
AcDbText
 10
979.9999856487611
 20
3317.403415746123
 30
0.0
 40
150.0
  1
H3
 41
0.8
 72
     4
 11
1079.999985648761
 21
3392.403415746123
 31
0.0
100
AcDbText
  0
CIRCLE
  5
FF
330
C3
100
AcDbEntity
  8
SUNPOU
100
AcDbCircle
 10
1079.999985648761
 20
3392.403415746123
 30
0.0
 40
165.0
  0
LINE
  5
100
330
C3
100
AcDbEntity
  8
HAIKIN
 62
     3
100
AcDbLine
 10
929.999985648752
 20
4587.403415746125
 30
0.0
 11
929.999985648752
 21
4887.403415746125
 31
0.0
  0
TEXT
  5
101
330
C3
100
AcDbEntity
  8
SUNPOU
100
AcDbText
 10
3194.999985648759
 20
2907.403415746125
 30
0.0
 40
150.0
  1
D13
 41
0.8
 11
3194.999985648759
 21
2982.403415746125
 31
0.0
100
AcDbText
 73
     2
  0
TEXT
  5
102
330
C3
100
AcDbEntity
  8
SUNPOU
100
AcDbText
 10
2889.999985648759
 20
2907.403415746125
 30
0.0
 40
150.0
  1
H1
 41
0.8
 72
     4
 11
2969.999985648759
 21
2982.403415746125
 31
0.0
100
AcDbText
  0
LINE
  5
103
330
C3
100
AcDbEntity
  8
SUNPOU
100
AcDbLine
 10
1679.999985648761
 20
1890.403415746132
 30
0.0
 11
1679.999985648763
 21
3227.403415746123
 31
0.0
1001
ACAD
1000
DSTYLE
1002
{
1070
    78
1070
     8
1070
   284
1070
     8
1070
   140
1040
3.0
1070
   145
1040
1.0
1070
    74
1070
     0
1070
   172
1070
     1
1070
    73
1070
     0
1070
    77
1070
     1
1070
    40
1040
60.0
1070
   147
1040
0.8
1070
   287
1070
     5
1070
    42
1040
1.5
1070
    44
1040
0.6
1070
    43
1040
7.0
1070
   271
1070
     0
1070
   177
1070
   256
1070
   176
1070
   256
1070
   141
1040
0.0
1070
   275
1070
     1
1070
    41
1040
1.5
1070
   285
1070
     8
1070
   286
1070
     8
1002
}
  0
LINE
  5
104
330
C3
100
AcDbEntity
  8
SUNPOU
100
AcDbLine
 10
2279.999985648761
 20
1827.403415746126
 30
0.0
 11
2279.999985648759
 21
3227.403415746123
 31
0.0
1001
ACAD
1000
DSTYLE
1002
{
1070
    78
1070
     8
1070
   284
1070
     8
1070
   140
1040
3.0
1070
   145
1040
1.0
1070
    74
1070
     0
1070
   172
1070
     1
1070
    73
1070
     0
1070
    77
1070
     1
1070
    40
1040
60.0
1070
   147
1040
0.8
1070
   287
1070
     5
1070
    42
1040
1.5
1070
    44
1040
0.6
1070
    43
1040
7.0
1070
   271
1070
     0
1070
   177
1070
   256
1070
   176
1070
   256
1070
   141
1040
0.0
1070
   275
1070
     1
1070
    41
1040
1.5
1070
   285
1070
     8
1070
   286
1070
     8
1002
}
  0
CIRCLE
  5
105
330
C3
100
AcDbEntity
  8
SUNPOU
100
AcDbCircle
 10
2969.999985648759
 20
2982.403415746125
 30
0.0
 40
165.0
  0
LINE
  5
106
330
C3
100
AcDbEntity
  8
1HASEN
100
AcDbLine
 10
1979.999985648754
 20
4077.403415746121
 30
0.0
 11
1979.999985648759
 21
17.40341574611921
 31
0.0
  0
TEXT
  5
107
330
C3
100
AcDbEntity
  8
SUNPOU
100
AcDbText
 10
3359.999985648745
 20
1762.403415746126
 30
0.0
 40
150.0
  1
D13
 50
90.0
 41
0.8
 11
3284.999985648745
 21
1762.403415746126
 31
0.0
100
AcDbText
 73
     2
  0
TEXT
  5
108
330
C3
100
AcDbEntity
  8
SUNPOU
100
AcDbText
 10
3359.999985648745
 20
1437.403415746125
 30
0.0
 40
150.0
  1
H2
 50
90.0
 41
0.8
 72
     4
 11
3284.999985648745
 21
1537.403415746125
 31
0.0
100
AcDbText
  0
LINE
  5
109
330
C3
100
AcDbEntity
  8
SUNPOU
100
AcDbLine
 10
2789.999985648759
 20
2817.403415746125
 30
0.0
 11
3569.999985648759
 21
2817.403415746125
 31
0.0
1001
ACAD
1000
DSTYLE
1002
{
1070
    78
1070
     8
1070
   284
1070
     8
1070
   140
1040
3.0
1070
   145
1040
1.0
1070
    74
1070
     0
1070
   172
1070
     1
1070
    73
1070
     0
1070
    77
1070
     1
1070
    40
1040
60.0
1070
   147
1040
0.8
1070
   287
1070
     5
1070
    42
1040
1.5
1070
    44
1040
0.6
1070
    43
1040
7.0
1070
   271
1070
     0
1070
   177
1070
   256
1070
   176
1070
   256
1070
   141
1040
0.0
1070
   275
1070
     1
1070
    41
1040
1.5
1070
   285
1070
     8
1070
   286
1070
     8
1002
}
  0
LINE
  5
10A
330
C3
100
AcDbEntity
  8
SUNPOU
100
AcDbLine
 10
2429.999985648759
 20
1357.403415746125
 30
0.0
 11
3449.999985648745
 21
1357.403415746123
 31
0.0
1001
ACAD
1000
DSTYLE
1002
{
1070
    78
1070
     8
1070
   284
1070
     8
1070
   140
1040
3.0
1070
   145
1040
1.0
1070
    74
1070
     0
1070
   172
1070
     1
1070
    73
1070
     0
1070
    77
1070
     1
1070
    40
1040
60.0
1070
   147
1040
0.8
1070
   287
1070
     5
1070
    42
1040
1.5
1070
    44
1040
0.6
1070
    43
1040
7.0
1070
   271
1070
     0
1070
   177
1070
   256
1070
   176
1070
   256
1070
   141
1040
0.0
1070
   275
1070
     1
1070
    41
1040
1.5
1070
   285
1070
     8
1070
   286
1070
     8
1002
}
  0
CIRCLE
  5
10B
330
C3
100
AcDbEntity
  8
SUNPOU
100
AcDbCircle
 10
3284.999985648745
 20
1537.403415746125
 30
0.0
 40
165.0
  0
LINE
  5
10C
330
C3
100
AcDbEntity
  8
HAIKIN
100
AcDbLine
 10
1486.99998564875
 20
939.4034157461192
 30
0.0
 11
1486.99998564875
 21
1855.403415746132
 31
0.0
  0
LINE
  5
10D
330
C3
100
AcDbEntity
  8
HAIKIN
100
AcDbLine
 10
2409.999985648758
 20
1792.403415746126
 30
0.0
 11
2409.999985648759
 21
1002.403415746126
 31
0.0
  0
LINE
  5
10E
330
C3
100
AcDbEntity
  8
SUNPOU
100
AcDbLine
 10
2789.999985648759
 20
787.4034157461319
 30
0.0
 11
2789.999985648759
 21
2817.403415746125
 31
0.0
1001
ACAD
1000
DSTYLE
1002
{
1070
    78
1070
     8
1070
   284
1070
     8
1070
   140
1040
3.0
1070
   145
1040
1.0
1070
    74
1070
     0
1070
   172
1070
     1
1070
    73
1070
     0
1070
    77
1070
     1
1070
    40
1040
60.0
1070
   147
1040
0.8
1070
   287
1070
     5
1070
    42
1040
1.5
1070
    44
1040
0.6
1070
    43
1040
7.0
1070
   271
1070
     0
1070
   177
1070
   256
1070
   176
1070
   256
1070
   141
1040
0.0
1070
   275
1070
     1
1070
    41
1040
1.5
1070
   285
1070
     8
1070
   286
1070
     8
1002
}
  0
LINE
  5
10F
330
C3
100
AcDbEntity
  8
HAIKIN
100
AcDbLine
 10
2469.999985648758
 20
352.4034157461247
 30
0.0
 11
2469.999985648758
 21
2257.403415746121
 31
0.0
  0
LINE
  5
110
330
C3
100
AcDbEntity
  8
HAIKIN
100
AcDbLine
 10
2529.999985648759
 20
352.4034157461247
 30
0.0
 11
2529.999985648759
 21
2257.403415746121
 31
0.0
  0
LINE
  5
111
330
C3
100
AcDbEntity
  8
HAIKIN
100
AcDbLine
 10
2589.999985648761
 20
352.4034157461247
 30
0.0
 11
2589.999985648758
 21
2257.403415746121
 31
0.0
  0
LINE
  5
112
330
C3
100
AcDbEntity
  8
HAIKIN
100
AcDbLine
 10
1426.999985648754
 20
457.4034157461228
 30
0.0
 11
1426.999985648752
 21
2362.403415746123
 31
0.0
  0
LINE
  5
113
330
C3
100
AcDbEntity
  8
HAIKIN
100
AcDbLine
 10
1366.999985648756
 20
457.4034157461228
 30
0.0
 11
1366.999985648748
 21
2362.403415746123
 31
0.0
  0
LINE
  5
114
330
C3
100
AcDbEntity
  8
HAIKIN
100
AcDbLine
 10
1306.999985648754
 20
457.4034157461228
 30
0.0
 11
1306.999985648748
 21
2362.403415746123
 31
0.0
  0
LINE
  5
115
330
C3
100
AcDbEntity
  8
SUNPOU
100
AcDbLine
 10
2914.99998564875
 20
2257.403415746121
 30
0.0
 11
2914.99998564875
 21
352.4034157461265
 31
0.0
  0
LINE
  5
116
330
C3
100
AcDbEntity
  8
SUNPOU
100
AcDbLine
 10
2729.999985648759
 20
2257.403415746121
 30
0.0
 11
2729.999985648759
 21
352.4034157461228
 31
0.0
  0
LINE
  5
117
330
C3
100
AcDbEntity
  8
SUNPOU
100
AcDbLine
 10
2429.999985648759
 20
2257.403415746121
 30
0.0
 11
2429.999985648758
 21
352.403415746121
 31
0.0
  0
LINE
  5
118
330
C3
100
AcDbEntity
  8
SUNPOU
100
AcDbLine
 10
2379.999985648758
 20
1797.403415746126
 30
0.0
 11
2379.999985648758
 21
997.4034157461265
 31
0.0
  0
LINE
  5
119
330
C3
100
AcDbEntity
  8
SUNPOU
100
AcDbLine
 10
3029.99998564875
 20
2397.403415746121
 30
0.0
 11
3029.99998564875
 21
397.403415746121
 31
0.0
  0
LINE
  5
11A
330
C3
100
AcDbEntity
  8
SUNPOU
100
AcDbLine
 10
1516.999985648752
 20
934.403415746121
 30
0.0
 11
1516.999985648752
 21
1860.403415746126
 31
0.0
  0
LINE
  5
11B
330
C3
100
AcDbEntity
  8
SUNPOU
100
AcDbLine
 10
1579.999985648756
 20
1797.403415746126
 30
0.0
 11
1579.999985648758
 21
997.4034157461265
 31
0.0
  0
LINE
  5
11C
330
C3
100
AcDbEntity
  8
HAIKIN
100
AcDbLine
 10
2374.999985648759
 20
967.4034157461265
 30
0.0
 11
1979.999985648752
 21
967.4034157461265
 31
0.0
  0
LINE
  5
11D
330
C3
100
AcDbEntity
  8
HAIKIN
100
AcDbLine
 10
2994.999985648774
 20
787.4034157461319
 30
0.0
 11
1979.999985648759
 21
787.4034157461283
 31
0.0
  0
LINE
  5
11E
330
C3
100
AcDbEntity
  8
HAIKIN
100
AcDbLine
 10
2994.999985648774
 20
847.4034157461319
 30
0.0
 11
1979.999985648758
 21
847.4034157461283
 31
0.0
  0
LINE
  5
11F
330
C3
100
AcDbEntity
  8
HAIKIN
100
AcDbLine
 10
2994.999985648774
 20
907.4034157461319
 30
0.0
 11
1979.999985648759
 21
907.4034157461283
 31
0.0
  0
LINE
  5
120
330
C3
100
AcDbEntity
  8
SUNPOU
100
AcDbLine
 10
2914.99998564875
 20
352.4034157461265
 30
0.0
 11
1979.999985648759
 21
352.403415746121
 31
0.0
  0
LINE
  5
121
330
C3
100
AcDbEntity
  8
SUNPOU
100
AcDbLine
 10
2994.999985648774
 20
457.4034157461247
 30
0.0
 11
1979.999985648759
 21
457.403415746121
 31
0.0
  0
LINE
  5
122
330
C3
100
AcDbEntity
  8
SUNPOU
100
AcDbLine
 10
2994.999985648774
 20
937.4034157461247
 30
0.0
 11
1979.999985648759
 21
937.403415746121
 31
0.0
  0
LINE
  5
123
330
C3
100
AcDbEntity
  8
SUNPOU
100
AcDbLine
 10
2994.999985648774
 20
817.4034157461247
 30
0.0
 11
1979.999985648759
 21
817.403415746121
 31
0.0
  0
LINE
  5
124
330
C3
100
AcDbEntity
  8
SUNPOU
100
AcDbLine
 10
2994.999985648774
 20
697.4034157461247
 30
0.0
 11
1979.999985648759
 21
697.403415746121
 31
0.0
  0
LINE
  5
125
330
C3
100
AcDbEntity
  8
SUNPOU
100
AcDbLine
 10
2994.999985648774
 20
577.4034157461247
 30
0.0
 11
1979.999985648759
 21
577.403415746121
 31
0.0
  0
LINE
  5
126
330
C3
100
AcDbEntity
  8
SUNPOU
100
AcDbLine
 10
2939.99998564875
 20
317.4034157461247
 30
0.0
 11
1963.628976814191
 21
317.403415746121
 31
0.0
  0
LINE
  5
127
330
C3
100
AcDbEntity
  8
1HASEN
100
AcDbLine
 10
1379.999985648756
 20
1397.403415746126
 30
0.0
 11
2579.999985648758
 21
1397.403415746126
 31
0.0
  0
LINE
  5
128
330
C3
100
AcDbEntity
  8
SUNPOU
100
AcDbLine
 10
2379.999985648758
 20
997.4034157461265
 30
0.0
 11
1579.999985648758
 21
997.4034157461265
 31
0.0
  0
ARC
  5
129
330
C3
100
AcDbEntity
  8
HAIKIN
100
AcDbCircle
 10
1521.99998564875
 20
939.4034157461192
 30
0.0
 40
35.0
100
AcDbArc
 50
180.0
 51
270.0
  0
LINE
  5
12A
330
C3
100
AcDbEntity
  8
SUNPOU
100
AcDbLine
 10
2129.999985648758
 20
967.4034157461283
 30
0.0
 11
2129.999985648759
 21
352.4034157461192
 31
0.0
  0
LINE
  5
12B
330
C3
100
AcDbEntity
  8
HAIKIN
100
AcDbLine
 10
1521.99998564875
 20
904.4034157461192
 30
0.0
 11
1979.999985648758
 21
904.4034157461228
 31
0.0
  0
LINE
  5
12C
330
C3
100
AcDbEntity
  8
SUNPOU
100
AcDbLine
 10
1516.999985648752
 20
934.403415746121
 30
0.0
 11
1979.999985648758
 21
934.4034157461228
 31
0.0
  0
LINE
  5
12D
330
C3
100
AcDbEntity
  8
SUNPOU
100
AcDbLine
 10
1529.999985648765
 20
904.403415746121
 30
0.0
 11
1529.999985648767
 21
457.4034157461247
 31
0.0
  0
LINE
  5
12E
330
C3
100
AcDbEntity
  8
SUNPOU
100
AcDbLine
 10
1829.999985648759
 20
904.4034157461228
 30
0.0
 11
1829.999985648759
 21
457.4034157461192
 31
0.0
  0
SOLID
  5
12F
330
C3
100
AcDbEntity
  8
SUNPOU
100
AcDbTrace
 10
1276.999985648759
 20
1372.403415746128
 30
0.0
 11
1366.999985648759
 21
1357.403415746128
 31
0.0
 12
1276.999985648759
 22
1342.403415746128
 32
0.0
 13
1276.999985648759
 23
1342.403415746128
 33
0.0
1001
ACAD
1000
DSTYLE
1002
{
1070
    78
1070
     8
1070
   284
1070
     8
1070
   140
1040
3.0
1070
   145
1040
1.0
1070
    74
1070
     0
1070
   172
1070
     1
1070
    73
1070
     0
1070
    77
1070
     1
1070
    40
1040
60.0
1070
   147
1040
0.8
1070
   287
1070
     5
1070
    42
1040
1.5
1070
    44
1040
0.6
1070
    43
1040
7.0
1070
   271
1070
     0
1070
   177
1070
   256
1070
   176
1070
   256
1070
   141
1040
0.0
1070
   275
1070
     1
1070
    41
1040
1.5
1070
   285
1070
     8
1070
   286
1070
     8
1002
}
  0
SOLID
  5
130
330
C3
100
AcDbEntity
  8
SUNPOU
100
AcDbTrace
 10
1336.99998564877
 20
1372.403415746125
 30
0.0
 11
1426.99998564877
 21
1357.403415746123
 31
0.0
 12
1336.99998564877
 22
1342.403415746125
 32
0.0
 13
1336.99998564877
 23
1342.403415746125
 33
0.0
1001
ACAD
1000
DSTYLE
1002
{
1070
    78
1070
     8
1070
   284
1070
     8
1070
   140
1040
3.0
1070
   145
1040
1.0
1070
    74
1070
     0
1070
   172
1070
     1
1070
    73
1070
     0
1070
    77
1070
     1
1070
    40
1040
60.0
1070
   147
1040
0.8
1070
   287
1070
     5
1070
    42
1040
1.5
1070
    44
1040
0.6
1070
    43
1040
7.0
1070
   271
1070
     0
1070
   177
1070
   256
1070
   176
1070
   256
1070
   141
1040
0.0
1070
   275
1070
     1
1070
    41
1040
1.5
1070
   285
1070
     8
1070
   286
1070
     8
1002
}
  0
SOLID
  5
131
330
C3
100
AcDbEntity
  8
SUNPOU
100
AcDbTrace
 10
2804.999985648759
 20
997.4034157461319
 30
0.0
 11
2789.999985648759
 21
907.4034157461319
 31
0.0
 12
2774.999985648759
 22
997.4034157461319
 32
0.0
 13
2774.999985648759
 23
997.4034157461319
 33
0.0
1001
ACAD
1000
DSTYLE
1002
{
1070
    78
1070
     8
1070
   284
1070
     8
1070
   140
1040
3.0
1070
   145
1040
1.0
1070
    74
1070
     0
1070
   172
1070
     1
1070
    73
1070
     0
1070
    77
1070
     1
1070
    40
1040
60.0
1070
   147
1040
0.8
1070
   287
1070
     5
1070
    42
1040
1.5
1070
    44
1040
0.6
1070
    43
1040
7.0
1070
   271
1070
     0
1070
   177
1070
   256
1070
   176
1070
   256
1070
   141
1040
0.0
1070
   275
1070
     1
1070
    41
1040
1.5
1070
   285
1070
     8
1070
   286
1070
     8
1002
}
  0
LINE
  5
132
330
C3
100
AcDbEntity
  8
HASEN
100
AcDbLine
 10
2994.999985648772
 20
715.4034157461156
 30
0.0
 11
2644.497460331817
 21
715.4034157461119
 31
0.0
  0
LINE
  5
133
330
C3
100
AcDbEntity
  8
HASEN
100
AcDbLine
 10
2994.999985648772
 20
475.4034157461156
 30
0.0
 11
2644.497460331817
 21
475.4034157461119
 31
0.0
  0
LINE
  5
134
330
C3
100
AcDbEntity
  8
SUNPOU
100
AcDbLine
 10
3029.99998564875
 20
397.403415746121
 30
0.0
 11
2959.999985648748
 21
397.403415746121
 31
0.0
  0
LINE
  5
135
330
C3
100
AcDbEntity
  8
SUNPOU
100
AcDbLine
 10
2959.999985648748
 20
397.403415746121
 30
0.0
 11
2939.999985648748
 21
317.4034157461228
 31
0.0
  0
SOLID
  5
136
330
C3
100
AcDbEntity
  8
SUNPOU
100
AcDbTrace
 10
2804.999985648759
 20
937.4034157461319
 30
0.0
 11
2789.999985648759
 21
847.4034157461319
 31
0.0
 12
2774.999985648759
 22
937.4034157461319
 32
0.0
 13
2774.999985648759
 23
937.4034157461319
 33
0.0
1001
ACAD
1000
DSTYLE
1002
{
1070
    78
1070
     8
1070
   284
1070
     8
1070
   140
1040
3.0
1070
   145
1040
1.0
1070
    74
1070
     0
1070
   172
1070
     1
1070
    73
1070
     0
1070
    77
1070
     1
1070
    40
1040
60.0
1070
   147
1040
0.8
1070
   287
1070
     5
1070
    42
1040
1.5
1070
    44
1040
0.6
1070
    43
1040
7.0
1070
   271
1070
     0
1070
   177
1070
   256
1070
   176
1070
   256
1070
   141
1040
0.0
1070
   275
1070
     1
1070
    41
1040
1.5
1070
   285
1070
     8
1070
   286
1070
     8
1002
}
  0
SOLID
  5
137
330
C3
100
AcDbEntity
  8
SUNPOU
100
AcDbTrace
 10
2804.999985648759
 20
877.4034157461319
 30
0.0
 11
2789.999985648759
 21
787.4034157461319
 31
0.0
 12
2774.999985648759
 22
877.4034157461319
 32
0.0
 13
2774.999985648759
 23
877.4034157461319
 33
0.0
1001
ACAD
1000
DSTYLE
1002
{
1070
    78
1070
     8
1070
   284
1070
     8
1070
   140
1040
3.0
1070
   145
1040
1.0
1070
    74
1070
     0
1070
   172
1070
     1
1070
    73
1070
     0
1070
    77
1070
     1
1070
    40
1040
60.0
1070
   147
1040
0.8
1070
   287
1070
     5
1070
    42
1040
1.5
1070
    44
1040
0.6
1070
    43
1040
7.0
1070
   271
1070
     0
1070
   177
1070
   256
1070
   176
1070
   256
1070
   141
1040
0.0
1070
   275
1070
     1
1070
    41
1040
1.5
1070
   285
1070
     8
1070
   286
1070
     8
1002
}
  0
LINE
  5
138
330
C3
100
AcDbEntity
  8
SUNPOU
100
AcDbLine
 10
2994.999985648774
 20
1537.403415746125
 30
0.0
 11
2409.999985648759
 21
1537.403415746121
 31
0.0
  0
LINE
  5
139
330
C3
100
AcDbEntity
  8
SUNPOU
100
AcDbLine
 10
2994.999985648774
 20
1417.403415746125
 30
0.0
 11
2409.999985648759
 21
1417.403415746121
 31
0.0
  0
LINE
  5
13A
330
C3
100
AcDbEntity
  8
SUNPOU
100
AcDbLine
 10
2994.999985648774
 20
1297.403415746125
 30
0.0
 11
2409.999985648759
 21
1297.403415746125
 31
0.0
  0
LINE
  5
13B
330
C3
100
AcDbEntity
  8
SUNPOU
100
AcDbLine
 10
2994.999985648774
 20
1177.403415746125
 30
0.0
 11
2409.999985648759
 21
1177.403415746121
 31
0.0
  0
LINE
  5
13C
330
C3
100
AcDbEntity
  8
SUNPOU
100
AcDbLine
 10
2994.999985648774
 20
1057.403415746125
 30
0.0
 11
2409.999985648759
 21
1057.403415746121
 31
0.0
  0
LINE
  5
13D
330
C3
100
AcDbEntity
  8
HASEN
100
AcDbLine
 10
2994.999985648772
 20
955.4034157461156
 30
0.0
 11
2644.497460331817
 21
955.4034157461119
 31
0.0
  0
LINE
  5
13E
330
C3
100
AcDbEntity
  8
HASEN
100
AcDbLine
 10
2994.999985648772
 20
1195.403415746116
 30
0.0
 11
2644.497460331817
 21
1195.403415746112
 31
0.0
  0
LINE
  5
13F
330
C3
100
AcDbEntity
  8
HASEN
100
AcDbLine
 10
2994.999985648772
 20
1435.403415746116
 30
0.0
 11
2644.497460331817
 21
1435.403415746112
 31
0.0
  0
ARC
  5
140
330
C3
100
AcDbEntity
  8
HAIKIN
100
AcDbCircle
 10
2374.999985648759
 20
1002.403415746126
 30
0.0
 40
35.0
100
AcDbArc
 50
270.0
 51
0.0
  0
LINE
  5
141
330
C3
100
AcDbEntity
  8
HAIKIN
100
AcDbLine
 10
2374.999985648758
 20
1827.403415746126
 30
0.0
 11
1979.999985648752
 21
1827.403415746126
 31
0.0
  0
LINE
  5
142
330
C3
100
AcDbEntity
  8
HAIKIN
100
AcDbLine
 10
2994.999985648774
 20
1872.403415746125
 30
0.0
 11
1979.999985648759
 21
1872.403415746121
 31
0.0
  0
LINE
  5
143
330
C3
100
AcDbEntity
  8
HAIKIN
100
AcDbLine
 10
2994.999985648774
 20
1932.403415746125
 30
0.0
 11
1979.999985648758
 21
1932.403415746121
 31
0.0
  0
LINE
  5
144
330
C3
100
AcDbEntity
  8
HAIKIN
100
AcDbLine
 10
2994.999985648774
 20
1992.403415746125
 30
0.0
 11
1979.999985648758
 21
1992.403415746121
 31
0.0
  0
LINE
  5
145
330
C3
100
AcDbEntity
  8
SUNPOU
100
AcDbLine
 10
2994.999985648774
 20
2017.403415746125
 30
0.0
 11
1979.999985648759
 21
2017.403415746121
 31
0.0
  0
LINE
  5
146
330
C3
100
AcDbEntity
  8
SUNPOU
100
AcDbLine
 10
2994.999985648774
 20
2137.403415746125
 30
0.0
 11
1979.999985648759
 21
2137.403415746121
 31
0.0
  0
LINE
  5
147
330
C3
100
AcDbEntity
  8
SUNPOU
100
AcDbLine
 10
2994.999985648774
 20
2257.403415746125
 30
0.0
 11
1979.999985648759
 21
2257.403415746121
 31
0.0
  0
LINE
  5
148
330
C3
100
AcDbEntity
  8
SUNPOU
100
AcDbLine
 10
2994.999985648774
 20
1897.403415746125
 30
0.0
 11
1979.999985648759
 21
1897.403415746121
 31
0.0
  0
LINE
  5
149
330
C3
100
AcDbEntity
  8
SUNPOU
100
AcDbLine
 10
2949.999985648748
 20
2317.403415746123
 30
0.0
 11
1979.999985648759
 21
2317.403415746121
 31
0.0
  0
LINE
  5
14A
330
C3
100
AcDbEntity
  8
SUNPOU
100
AcDbLine
 10
2379.999985648758
 20
1797.403415746126
 30
0.0
 11
1579.999985648756
 21
1797.403415746126
 31
0.0
  0
LINE
  5
14B
330
C3
100
AcDbEntity
  8
SUNPOU
100
AcDbLine
 10
1829.999985648765
 20
2362.403415746123
 30
0.0
 11
1829.999985648759
 21
1890.403415746126
 31
0.0
  0
LINE
  5
14C
330
C3
100
AcDbEntity
  8
SUNPOU
100
AcDbLine
 10
1529.999985648763
 20
2362.403415746125
 30
0.0
 11
1529.999985648763
 21
1890.403415746128
 31
0.0
  0
LINE
  5
14D
330
C3
100
AcDbEntity
  8
HAIKIN
100
AcDbLine
 10
1979.999985648758
 20
1890.403415746128
 30
0.0
 11
1521.99998564875
 21
1890.403415746132
 31
0.0
  0
LINE
  5
14E
330
C3
100
AcDbEntity
  8
SUNPOU
100
AcDbLine
 10
1979.999985648758
 20
1860.403415746128
 30
0.0
 11
1516.999985648752
 21
1860.403415746126
 31
0.0
  0
ARC
  5
14F
330
C3
100
AcDbEntity
  8
HAIKIN
100
AcDbCircle
 10
1521.99998564875
 20
1855.403415746132
 30
0.0
 40
35.0
100
AcDbArc
 50
90.0
 51
180.0
  0
SOLID
  5
150
330
C3
100
AcDbEntity
  8
SUNPOU
100
AcDbTrace
 10
1694.999985648759
 20
1980.403415746141
 30
0.0
 11
1679.999985648759
 21
1890.403415746141
 31
0.0
 12
1664.999985648759
 22
1980.403415746141
 32
0.0
 13
1664.999985648759
 23
1980.403415746141
 33
0.0
1001
ACAD
1000
DSTYLE
1002
{
1070
    78
1070
     8
1070
   284
1070
     8
1070
   140
1040
3.0
1070
   145
1040
1.0
1070
    74
1070
     0
1070
   172
1070
     1
1070
    73
1070
     0
1070
    77
1070
     1
1070
    40
1040
60.0
1070
   147
1040
0.8
1070
   287
1070
     5
1070
    42
1040
1.5
1070
    44
1040
0.6
1070
    43
1040
7.0
1070
   271
1070
     0
1070
   177
1070
   256
1070
   176
1070
   256
1070
   141
1040
0.0
1070
   275
1070
     1
1070
    41
1040
1.5
1070
   285
1070
     8
1070
   286
1070
     8
1002
}
  0
LINE
  5
151
330
C3
100
AcDbEntity
  8
SUNPOU
100
AcDbLine
 10
2129.999985648759
 20
2257.403415746121
 30
0.0
 11
2129.999985648759
 21
1827.40341574613
 31
0.0
  0
LINE
  5
152
330
C3
100
AcDbEntity
  8
SUNPOU
100
AcDbLine
 10
2969.99998564875
 20
2397.403415746121
 30
0.0
 11
2949.99998564875
 21
2317.403415746125
 31
0.0
  0
LINE
  5
153
330
C3
100
AcDbEntity
  8
SUNPOU
100
AcDbLine
 10
2994.999985648774
 20
1777.403415746125
 30
0.0
 11
2409.999985648758
 21
1777.403415746119
 31
0.0
  0
LINE
  5
154
330
C3
100
AcDbEntity
  8
SUNPOU
100
AcDbLine
 10
2994.999985648774
 20
1657.403415746125
 30
0.0
 11
2409.999985648758
 21
1657.403415746121
 31
0.0
  0
LINE
  5
155
330
C3
100
AcDbEntity
  8
HASEN
100
AcDbLine
 10
2994.999985648772
 20
2155.403415746116
 30
0.0
 11
2644.497460331817
 21
2155.403415746112
 31
0.0
  0
LINE
  5
156
330
C3
100
AcDbEntity
  8
HASEN
100
AcDbLine
 10
2994.999985648772
 20
1915.403415746116
 30
0.0
 11
2644.497460331817
 21
1915.403415746112
 31
0.0
  0
LINE
  5
157
330
C3
100
AcDbEntity
  8
HASEN
100
AcDbLine
 10
2994.999985648772
 20
1675.403415746116
 30
0.0
 11
2644.497460331817
 21
1675.403415746112
 31
0.0
  0
ARC
  5
158
330
C3
100
AcDbEntity
  8
HAIKIN
100
AcDbCircle
 10
2374.999985648758
 20
1792.403415746126
 30
0.0
 40
35.0
100
AcDbArc
 50
0.0
 51
90.0
  0
SOLID
  5
159
330
C3
100
AcDbEntity
  8
SUNPOU
100
AcDbTrace
 10
2294.999985648761
 20
1917.403415746126
 30
0.0
 11
2279.999985648761
 21
1827.403415746126
 31
0.0
 12
2264.999985648761
 22
1917.403415746126
 32
0.0
 13
2264.999985648761
 23
1917.403415746126
 33
0.0
1001
ACAD
1000
DSTYLE
1002
{
1070
    78
1070
     8
1070
   284
1070
     8
1070
   140
1040
3.0
1070
   145
1040
1.0
1070
    74
1070
     0
1070
   172
1070
     1
1070
    73
1070
     0
1070
    77
1070
     1
1070
    40
1040
60.0
1070
   147
1040
0.8
1070
   287
1070
     5
1070
    42
1040
1.5
1070
    44
1040
0.6
1070
    43
1040
7.0
1070
   271
1070
     0
1070
   177
1070
   256
1070
   176
1070
   256
1070
   141
1040
0.0
1070
   275
1070
     1
1070
    41
1040
1.5
1070
   285
1070
     8
1070
   286
1070
     8
1002
}
  0
SOLID
  5
15A
330
C3
100
AcDbEntity
  8
SUNPOU
100
AcDbTrace
 10
2804.999985648759
 20
2022.403415746125
 30
0.0
 11
2789.999985648759
 21
1932.403415746125
 31
0.0
 12
2774.999985648759
 22
2022.403415746125
 32
0.0
 13
2774.999985648759
 23
2022.403415746125
 33
0.0
1001
ACAD
1000
DSTYLE
1002
{
1070
    78
1070
     8
1070
   284
1070
     8
1070
   140
1040
3.0
1070
   145
1040
1.0
1070
    74
1070
     0
1070
   172
1070
     1
1070
    73
1070
     0
1070
    77
1070
     1
1070
    40
1040
60.0
1070
   147
1040
0.8
1070
   287
1070
     5
1070
    42
1040
1.5
1070
    44
1040
0.6
1070
    43
1040
7.0
1070
   271
1070
     0
1070
   177
1070
   256
1070
   176
1070
   256
1070
   141
1040
0.0
1070
   275
1070
     1
1070
    41
1040
1.5
1070
   285
1070
     8
1070
   286
1070
     8
1002
}
  0
SOLID
  5
15B
330
C3
100
AcDbEntity
  8
SUNPOU
100
AcDbTrace
 10
2804.999985648759
 20
1962.403415746125
 30
0.0
 11
2789.999985648759
 21
1872.403415746125
 31
0.0
 12
2774.999985648759
 22
1962.403415746125
 32
0.0
 13
2774.999985648759
 23
1962.403415746125
 33
0.0
1001
ACAD
1000
DSTYLE
1002
{
1070
    78
1070
     8
1070
   284
1070
     8
1070
   140
1040
3.0
1070
   145
1040
1.0
1070
    74
1070
     0
1070
   172
1070
     1
1070
    73
1070
     0
1070
    77
1070
     1
1070
    40
1040
60.0
1070
   147
1040
0.8
1070
   287
1070
     5
1070
    42
1040
1.5
1070
    44
1040
0.6
1070
    43
1040
7.0
1070
   271
1070
     0
1070
   177
1070
   256
1070
   176
1070
   256
1070
   141
1040
0.0
1070
   275
1070
     1
1070
    41
1040
1.5
1070
   285
1070
     8
1070
   286
1070
     8
1002
}
  0
SOLID
  5
15C
330
C3
100
AcDbEntity
  8
SUNPOU
100
AcDbTrace
 10
2804.999985648759
 20
2082.403415746125
 30
0.0
 11
2789.999985648759
 21
1992.403415746125
 31
0.0
 12
2774.999985648759
 22
2082.403415746125
 32
0.0
 13
2774.999985648759
 23
2082.403415746125
 33
0.0
1001
ACAD
1000
DSTYLE
1002
{
1070
    78
1070
     8
1070
   284
1070
     8
1070
   140
1040
3.0
1070
   145
1040
1.0
1070
    74
1070
     0
1070
   172
1070
     1
1070
    73
1070
     0
1070
    77
1070
     1
1070
    40
1040
60.0
1070
   147
1040
0.8
1070
   287
1070
     5
1070
    42
1040
1.5
1070
    44
1040
0.6
1070
    43
1040
7.0
1070
   271
1070
     0
1070
   177
1070
   256
1070
   176
1070
   256
1070
   141
1040
0.0
1070
   275
1070
     1
1070
    41
1040
1.5
1070
   285
1070
     8
1070
   286
1070
     8
1002
}
  0
LINE
  5
15D
330
C3
100
AcDbEntity
  8
SUNPOU
100
AcDbLine
 10
2969.99998564875
 20
2397.403415746121
 30
0.0
 11
3029.99998564875
 21
2397.403415746121
 31
0.0
  0
LINE
  5
15E
330
C3
100
AcDbEntity
  8
SUNPOU
100
AcDbLine
 10
3449.999985648745
 20
1357.403415746123
 30
0.0
 11
3449.999985648745
 21
2102.632833953865
 31
0.0
1001
ACAD
1000
DSTYLE
1002
{
1070
    78
1070
     8
1070
   284
1070
     8
1070
   140
1040
3.0
1070
   145
1040
1.0
1070
    74
1070
     0
1070
   172
1070
     1
1070
    73
1070
     0
1070
    77
1070
     1
1070
    40
1040
60.0
1070
   147
1040
0.8
1070
   287
1070
     5
1070
    42
1040
1.5
1070
    44
1040
0.6
1070
    43
1040
7.0
1070
   271
1070
     0
1070
   177
1070
   256
1070
   176
1070
   256
1070
   141
1040
0.0
1070
   275
1070
     1
1070
    41
1040
1.5
1070
   285
1070
     8
1070
   286
1070
     8
1002
}
  0
TEXT
  5
15F
330
C3
100
AcDbEntity
  8
SUNPOU
100
AcDbText
 10
1304.999985648761
 20
3317.403415746123
 30
0.0
 40
150.0
  1
D10
 41
0.8
 11
1304.999985648761
 21
3392.403415746123
 31
0.0
100
AcDbText
 73
     2
  0
TEXT
  5
160
330
C3
100
AcDbEntity
  8
SUNPOU
100
AcDbText
 10
2684.999985648759
 20
3317.403415746123
 30
0.0
 40
150.0
  1
D10
 41
0.8
 11
2684.999985648759
 21
3392.403415746123
 31
0.0
100
AcDbText
 73
     2
  0
LINE
  5
161
330
C3
100
AcDbEntity
  8
SUNPOU
100
AcDbLine
 10
2279.999985648759
 20
3227.403415746123
 30
0.0
 11
3059.999985648759
 21
3227.403415746123
 31
0.0
1001
ACAD
1000
DSTYLE
1002
{
1070
    78
1070
     8
1070
   284
1070
     8
1070
   140
1040
3.0
1070
   145
1040
1.0
1070
    74
1070
     0
1070
   172
1070
     1
1070
    73
1070
     0
1070
    77
1070
     1
1070
    40
1040
60.0
1070
   147
1040
0.8
1070
   287
1070
     5
1070
    42
1040
1.5
1070
    44
1040
0.6
1070
    43
1040
7.0
1070
   271
1070
     0
1070
   177
1070
   256
1070
   176
1070
   256
1070
   141
1040
0.0
1070
   275
1070
     1
1070
    41
1040
1.5
1070
   285
1070
     8
1070
   286
1070
     8
1002
}
  0
TEXT
  5
162
330
C3
100
AcDbEntity
  8
SUNPOU
100
AcDbText
 10
2359.999985648759
 20
3317.403415746123
 30
0.0
 40
150.0
  1
H4
 41
0.8
 72
     4
 11
2459.999985648759
 21
3392.403415746123
 31
0.0
100
AcDbText
  0
CIRCLE
  5
163
330
C3
100
AcDbEntity
  8
SUNPOU
100
AcDbCircle
 10
2459.999985648759
 20
3392.403415746123
 30
0.0
 40
165.0
  0
TEXT
  5
164
330
C3
100
AcDbEntity
  8
SUNPOU
100
AcDbText
 10
2239.999985648754
 20
4105.403415746121
 30
0.0
 40
210.0
  1
内　側
 72
     2
 11
2939.999985648754
 21
4077.403415746121
 31
0.0
100
AcDbText
 73
     1
  0
LINE
  5
165
330
C3
100
AcDbEntity
  8
HAIKIN
 62
     3
100
AcDbLine
 10
1889.999985648752
 20
4587.403415746125
 30
0.0
 11
1889.999985648752
 21
4887.403415746125
 31
0.0
  0
SOLID
  5
166
330
C3
100
AcDbEntity
  8
SUNPOU
100
AcDbTrace
 10
2559.999985648748
 20
1342.403415746126
 30
0.0000000000000092
 11
2469.999985648748
 21
1357.403415746126
 31
0.0000000000000092
 12
2559.999985648748
 22
1372.403415746126
 32
0.0000000000000092
 13
2559.999985648748
 23
1372.403415746126
 33
0.0000000000000092
1001
ACAD
1000
DSTYLE
1002
{
1070
    78
1070
     8
1070
   284
1070
     8
1070
   140
1040
3.0
1070
   145
1040
1.0
1070
    74
1070
     0
1070
   172
1070
     1
1070
    73
1070
     0
1070
    77
1070
     1
1070
    40
1040
60.0
1070
   147
1040
0.8
1070
   287
1070
     5
1070
    42
1040
1.5
1070
    44
1040
0.6
1070
    43
1040
7.0
1070
   271
1070
     0
1070
   177
1070
   256
1070
   176
1070
   256
1070
   141
1040
0.0
1070
   275
1070
     1
1070
    41
1040
1.5
1070
   285
1070
     8
1070
   286
1070
     8
1002
}
  0
SOLID
  5
167
330
C3
100
AcDbEntity
  8
SUNPOU
100
AcDbTrace
 10
2679.99998564875
 20
1342.403415746126
 30
0.0000000000000092
 11
2589.99998564875
 21
1357.403415746126
 31
0.0000000000000092
 12
2679.99998564875
 22
1372.403415746126
 32
0.0000000000000092
 13
2679.99998564875
 23
1372.403415746126
 33
0.0000000000000092
1001
ACAD
1000
DSTYLE
1002
{
1070
    78
1070
     8
1070
   284
1070
     8
1070
   140
1040
3.0
1070
   145
1040
1.0
1070
    74
1070
     0
1070
   172
1070
     1
1070
    73
1070
     0
1070
    77
1070
     1
1070
    40
1040
60.0
1070
   147
1040
0.8
1070
   287
1070
     5
1070
    42
1040
1.5
1070
    44
1040
0.6
1070
    43
1040
7.0
1070
   271
1070
     0
1070
   177
1070
   256
1070
   176
1070
   256
1070
   141
1040
0.0
1070
   275
1070
     1
1070
    41
1040
1.5
1070
   285
1070
     8
1070
   286
1070
     8
1002
}
  0
SOLID
  5
168
330
C3
100
AcDbEntity
  8
SUNPOU
100
AcDbTrace
 10
2619.99998564875
 20
1342.403415746126
 30
0.0000000000000092
 11
2529.99998564875
 21
1357.403415746126
 31
0.0000000000000092
 12
2619.99998564875
 22
1372.403415746126
 32
0.0000000000000092
 13
2619.99998564875
 23
1372.403415746126
 33
0.0000000000000092
1001
ACAD
1000
DSTYLE
1002
{
1070
    78
1070
     8
1070
   284
1070
     8
1070
   140
1040
3.0
1070
   145
1040
1.0
1070
    74
1070
     0
1070
   172
1070
     1
1070
    73
1070
     0
1070
    77
1070
     1
1070
    40
1040
60.0
1070
   147
1040
0.8
1070
   287
1070
     5
1070
    42
1040
1.5
1070
    44
1040
0.6
1070
    43
1040
7.0
1070
   271
1070
     0
1070
   177
1070
   256
1070
   176
1070
   256
1070
   141
1040
0.0
1070
   275
1070
     1
1070
    41
1040
1.5
1070
   285
1070
     8
1070
   286
1070
     8
1002
}
  0
ENDBLK
  5
16A
330
C3
100
AcDbEntity
  8
0
100
AcDbBlockEnd
  0
BLOCK
  5
D62
330
D61
100
AcDbEntity
  8
0
100
AcDbBlockBegin
  2
FG
 70
     0
 10
0.0
 20
0.0
 30
0.0
  3
FG
  1

  0
LWPOLYLINE
  5
D63
330
D61
100
AcDbEntity
  8
SUNPOU
100
AcDbPolyline
 90
        4
 70
     0
 43
0.0
 10
0.0
 20
-31.5
 10
-4.500000000000909
 20
-29.5
 10
-4.500000000000909
 20
29.5
 10
0.0
 20
31.50000000000045
  0
LWPOLYLINE
  5
D64
330
D61
100
AcDbEntity
  8
SUNPOU
100
AcDbPolyline
 90
        2
 70
     0
 43
0.0
 10
-4.500000000000909
 20
27.0
 10
-41.49999999909687
 20
27.00000000000045
  0
LWPOLYLINE
  5
D65
330
D61
100
AcDbEntity
  8
SUNPOU
100
AcDbPolyline
 90
        2
 70
     0
 43
0.0
 10
-41.50000000000091
 20
27.00000000000045
 42
1.111111111111126
 10
-41.50000000000091
 20
-27.00000000000045
 42
1.111111111111126
  0
LWPOLYLINE
  5
D66
330
D61
100
AcDbEntity
  8
SUNPOU
100
AcDbPolyline
 90
        2
 70
     0
 43
0.0
 10
-4.500000000000909
 20
-27.00000000000045
 10
-41.49999999909687
 20
-27.0
  0
ENDBLK
  5
D67
330
D61
100
AcDbEntity
  8
0
100
AcDbBlockEnd
  0
BLOCK
  5
D69
330
D68
100
AcDbEntity
  8
0
100
AcDbBlockBegin
  2
_DOT
 70
     0
 10
0.0
 20
0.0
 30
0.0
  3
_DOT
  1

  0
LWPOLYLINE
  5
D6A
330
D68
100
AcDbEntity
  8
0
  6
ByBlock
 62
     0
100
AcDbPolyline
 90
        2
 70
     1
 43
0.5
 10
-0.25
 20
0.0
 42
1.0
 10
0.25
 20
0.0
 42
1.0
  0
LINE
  5
D6B
330
D68
100
AcDbEntity
  8
0
  6
ByBlock
 62
     0
100
AcDbLine
 10
-0.5
 20
0.0
 30
0.0
 11
-1.0
 21
0.0
 31
0.0
  0
ENDBLK
  5
D6C
330
D68
100
AcDbEntity
  8
0
100
AcDbBlockEnd
  0
BLOCK
  5
DF4
330
DF3
100
AcDbEntity
  8
0
100
AcDbBlockBegin
  2
FGG
 70
     0
 10
0.0
 20
0.0
 30
0.0
  3
FGG
  1

  0
LWPOLYLINE
  5
DF5
330
DF3
100
AcDbEntity
  8
SUNPOU
100
AcDbPolyline
 90
        4
 70
     0
 43
0.0
 10
0.0
 20
-31.5
 10
-4.500000000000909
 20
-29.5
 10
-4.500000000000909
 20
29.5
 10
0.0
 20
31.50000000000045
  0
LWPOLYLINE
  5
DF6
330
DF3
100
AcDbEntity
  8
SUNPOU
100
AcDbPolyline
 90
        2
 70
     0
 43
0.0
 10
-4.500000000000909
 20
27.0
 10
-41.49999999909687
 20
27.00000000000045
  0
LWPOLYLINE
  5
DF7
330
DF3
100
AcDbEntity
  8
SUNPOU
100
AcDbPolyline
 90
        2
 70
     0
 43
0.0
 10
-41.50000000000091
 20
27.00000000000045
 42
1.111111111111126
 10
-41.50000000000091
 20
-27.00000000000045
 42
1.111111111111126
  0
LWPOLYLINE
  5
DF8
330
DF3
100
AcDbEntity
  8
SUNPOU
100
AcDbPolyline
 90
        2
 70
     0
 43
0.0
 10
-4.500000000000909
 20
-27.00000000000045
 10
-41.49999999909687
 20
-27.0
  0
ENDBLK
  5
DF9
330
DF3
100
AcDbEntity
  8
0
100
AcDbBlockEnd
  0
BLOCK
  5
42CD
330
42CC
100
AcDbEntity
  8
0
100
AcDbBlockBegin
  2
DOT
 70
     0
 10
0.0
 20
0.0
 30
0.0
  3
DOT
  1

  0
LWPOLYLINE
  5
42CE
330
42CC
100
AcDbEntity
  8
0
  6
ByBlock
 62
     0
100
AcDbPolyline
 90
        2
 70
     1
 43
0.5
 10
-0.25
 20
0.0
 42
1.0
 10
0.25
 20
0.0
 42
1.0
  0
LINE
  5
42CF
330
42CC
100
AcDbEntity
  8
0
  6
ByBlock
 62
     0
100
AcDbLine
 10
-0.5
 20
0.0
 30
0.0
 11
-1.0
 21
0.0
 31
0.0
  0
ENDBLK
  5
42D0
330
42CC
100
AcDbEntity
  8
0
 62
     0
100
AcDbBlockEnd
  0
BLOCK
  5
48DD
330
48D3
100
AcDbEntity
  8
0
100
AcDbBlockBegin
  2
*D235
 70
     1
 10
0.0
 20
0.0
 30
0.0
  3
*D235
  1

  0
LINE
  5
499A
330
48D3
100
AcDbEntity
  8
SUNPOU
 62
     0
370
    -2
100
AcDbLine
 10
3718.651908374505
 20
7172.507559186999
 30
0.0
 11
3718.651908374505
 21
7867.597557597432
 31
0.0
  0
LINE
  5
499B
330
48D3
100
AcDbEntity
  8
SUNPOU
 62
     0
370
    -2
100
AcDbLine
 10
4998.651908374506
 20
7134.087416681636
 30
0.0
 11
4998.651908374506
 21
7867.597557597432
 31
0.0
  0
LINE
  5
499C
330
48D3
100
AcDbEntity
  8
SUNPOU
 62
     0
370
    -2
100
AcDbLine
 10
3778.651908374505
 20
7852.597557597432
 30
0.0
 11
4938.651908374506
 21
7852.597557597432
 31
0.0
  0
SOLID
  5
499D
330
48D3
100
AcDbEntity
  8
SUNPOU
 62
     0
100
AcDbTrace
 10
3778.651908374505
 20
7862.597557597432
 30
0.0
 11
3778.651908374505
 21
7842.597557597432
 31
0.0
 12
3718.651908374505
 22
7852.597557597432
 32
0.0
 13
3718.651908374505
 23
7852.597557597432
 33
0.0
  0
SOLID
  5
499E
330
48D3
100
AcDbEntity
  8
SUNPOU
 62
     0
100
AcDbTrace
 10
4938.651908374506
 20
7862.597557597432
 30
0.0
 11
4938.651908374506
 21
7842.597557597432
 31
0.0
 12
4998.651908374506
 22
7852.597557597432
 32
0.0
 13
4998.651908374506
 23
7852.597557597432
 33
0.0
  0
MTEXT
  5
499F
330
48D3
100
AcDbEntity
  8
SUNPOU
 62
     0
100
AcDbMText
 10
4358.651908374506
 20
7921.597557597432
 30
0.0
 40
90.0
 41
0.0
 71
     5
 72
     1
  1
\A1;1280
 73
     1
 44
1.0
  0
POINT
  5
49A0
330
48D3
100
AcDbEntity
  8
DEFPOINTS
 62
     0
100
AcDbPoint
 10
3718.651908374505
 20
7112.507559186999
 30
0.0
  0
POINT
  5
49A1
330
48D3
100
AcDbEntity
  8
DEFPOINTS
 62
     0
100
AcDbPoint
 10
4998.651908374506
 20
7074.087416681636
 30
0.0
  0
POINT
  5
49A2
330
48D3
100
AcDbEntity
  8
DEFPOINTS
 62
     0
100
AcDbPoint
 10
4998.651908374506
 20
7852.597557597432
 30
0.0
  0
ENDBLK
  5
48DE
330
48D3
100
AcDbEntity
  8
0
100
AcDbBlockEnd
  0
BLOCK
  5
48E9
330
48DF
100
AcDbEntity
  8
0
100
AcDbBlockBegin
  2
*D236
 70
     1
 10
0.0
 20
0.0
 30
0.0
  3
*D236
  1

  0
LINE
  5
49A3
330
48DF
100
AcDbEntity
  8
SUNPOU
 62
     0
370
    -2
100
AcDbLine
 10
3718.651908374505
 20
7172.507559186999
 30
0.0
 11
3718.651908374505
 21
7867.597557597432
 31
0.0
  0
LINE
  5
49A4
330
48DF
100
AcDbEntity
  8
SUNPOU
 62
     0
370
    -2
100
AcDbLine
 10
2158.651908374505
 20
7322.507559187
 30
0.0
 11
2158.651908374505
 21
7867.597557597432
 31
0.0
  0
LINE
  5
49A5
330
48DF
100
AcDbEntity
  8
SUNPOU
 62
     0
370
    -2
100
AcDbLine
 10
3658.651908374505
 20
7852.597557597432
 30
0.0
 11
2218.651908374505
 21
7852.597557597432
 31
0.0
  0
SOLID
  5
49A6
330
48DF
100
AcDbEntity
  8
SUNPOU
 62
     0
100
AcDbTrace
 10
3658.651908374505
 20
7862.597557597432
 30
0.0
 11
3658.651908374505
 21
7842.597557597432
 31
0.0
 12
3718.651908374505
 22
7852.597557597432
 32
0.0
 13
3718.651908374505
 23
7852.597557597432
 33
0.0
  0
SOLID
  5
49A7
330
48DF
100
AcDbEntity
  8
SUNPOU
 62
     0
100
AcDbTrace
 10
2218.651908374505
 20
7862.597557597432
 30
0.0
 11
2218.651908374505
 21
7842.597557597432
 31
0.0
 12
2158.651908374505
 22
7852.597557597432
 32
0.0
 13
2158.651908374505
 23
7852.597557597432
 33
0.0
  0
MTEXT
  5
49A8
330
48DF
100
AcDbEntity
  8
SUNPOU
 62
     0
100
AcDbMText
 10
2938.651908374505
 20
7921.597557597432
 30
0.0
 40
90.0
 41
0.0
 71
     5
 72
     1
  1
\A1;1560
 73
     1
 44
1.0
  0
POINT
  5
49A9
330
48DF
100
AcDbEntity
  8
DEFPOINTS
 62
     0
100
AcDbPoint
 10
3718.651908374505
 20
7112.507559186999
 30
0.0
  0
POINT
  5
49AA
330
48DF
100
AcDbEntity
  8
DEFPOINTS
 62
     0
100
AcDbPoint
 10
2158.651908374505
 20
7262.507559187
 30
0.0
  0
POINT
  5
49AB
330
48DF
100
AcDbEntity
  8
DEFPOINTS
 62
     0
100
AcDbPoint
 10
2158.651908374505
 20
7852.597557597432
 30
0.0
  0
ENDBLK
  5
48EA
330
48DF
100
AcDbEntity
  8
0
100
AcDbBlockEnd
  0
BLOCK
  5
48F5
330
48EB
100
AcDbEntity
  8
0
100
AcDbBlockBegin
  2
*D237
 70
     1
 10
0.0
 20
0.0
 30
0.0
  3
*D237
  1

  0
LINE
  5
49AC
330
48EB
100
AcDbEntity
  8
SUNPOU
 62
     0
370
    -2
100
AcDbLine
 10
2158.651908374505
 20
7322.507559187
 30
0.0
 11
2158.651908374505
 21
7503.630361339021
 31
0.0
  0
LINE
  5
49AD
330
48EB
100
AcDbEntity
  8
SUNPOU
 62
     0
370
    -2
100
AcDbLine
 10
2348.651908374505
 20
7322.507559187
 30
0.0
 11
2348.651908374505
 21
7503.630361339021
 31
0.0
  0
LINE
  5
49AE
330
48EB
100
AcDbEntity
  8
SUNPOU
 62
     0
370
    -2
100
AcDbLine
 10
2218.651908374505
 20
7488.630361339021
 30
0.0
 11
2288.651908374505
 21
7488.630361339021
 31
0.0
  0
MTEXT
  5
49AF
330
48EB
100
AcDbEntity
  8
SUNPOU
 62
     0
100
AcDbMText
 10
2253.651908374505
 20
7557.630361339021
 30
0.0
 40
90.0
 41
0.0
 71
     5
 72
     1
  1
\A1;190
 73
     1
 44
1.0
  0
SOLID
  5
49B0
330
48EB
100
AcDbEntity
  8
SUNPOU
 62
     0
100
AcDbTrace
 10
2218.651908374505
 20
7498.630361339021
 30
0.0
 11
2218.651908374505
 21
7478.630361339021
 31
0.0
 12
2158.651908374505
 22
7488.630361339021
 32
0.0
 13
2158.651908374505
 23
7488.630361339021
 33
0.0
  0
SOLID
  5
49B1
330
48EB
100
AcDbEntity
  8
SUNPOU
 62
     0
100
AcDbTrace
 10
2288.651908374505
 20
7498.630361339021
 30
0.0
 11
2288.651908374505
 21
7478.630361339021
 31
0.0
 12
2348.651908374505
 22
7488.630361339021
 32
0.0
 13
2348.651908374505
 23
7488.630361339021
 33
0.0
  0
POINT
  5
49B2
330
48EB
100
AcDbEntity
  8
DEFPOINTS
 62
     0
100
AcDbPoint
 10
2158.651908374505
 20
7262.507559187
 30
0.0
  0
POINT
  5
49B3
330
48EB
100
AcDbEntity
  8
DEFPOINTS
 62
     0
100
AcDbPoint
 10
2348.651908374505
 20
7262.507559187
 30
0.0
  0
POINT
  5
49B4
330
48EB
100
AcDbEntity
  8
DEFPOINTS
 62
     0
100
AcDbPoint
 10
2348.651908374505
 20
7488.630361339021
 30
0.0
  0
ENDBLK
  5
48F6
330
48EB
100
AcDbEntity
  8
0
100
AcDbBlockEnd
  0
BLOCK
  5
4902
330
48F7
100
AcDbEntity
  8
0
100
AcDbBlockBegin
  2
*D238
 70
     1
 10
0.0
 20
0.0
 30
0.0
  3
*D238
  1

  0
LINE
  5
49B5
330
48F7
100
AcDbEntity
  8
SUNPOU
 62
     0
370
    -2
100
AcDbLine
 10
2348.651908374505
 20
7322.507559187
 30
0.0
 11
2348.651908374505
 21
7503.630361339021
 31
0.0
  0
LINE
  5
49B6
330
48F7
100
AcDbEntity
  8
SUNPOU
 62
     0
370
    -2
100
AcDbLine
 10
2418.651908374505
 20
7172.507559186999
 30
0.0
 11
2418.651908374505
 21
7503.630361339021
 31
0.0
  0
LINE
  5
49B7
330
48F7
100
AcDbEntity
  8
SUNPOU
 62
     0
370
    -2
100
AcDbLine
 10
2288.651908374505
 20
7488.630361339021
 30
0.0
 11
2228.651908374505
 21
7488.630361339021
 31
0.0
  0
LINE
  5
49B8
330
48F7
100
AcDbEntity
  8
SUNPOU
 62
     0
370
    -2
100
AcDbLine
 10
2478.651908374505
 20
7488.630361339021
 30
0.0
 11
2538.651908374505
 21
7488.630361339021
 31
0.0
  0
MTEXT
  5
49B9
330
48F7
100
AcDbEntity
  8
SUNPOU
 62
     0
100
AcDbMText
 10
2406.692718732113
 20
7557.630361339021
 30
0.0
 40
90.0
 41
0.0
 71
     5
 72
     1
  1
\A1;70
 73
     1
 44
1.0
  0
SOLID
  5
49BA
330
48F7
100
AcDbEntity
  8
SUNPOU
 62
     0
100
AcDbTrace
 10
2288.651908374505
 20
7498.630361339021
 30
0.0
 11
2288.651908374505
 21
7478.630361339021
 31
0.0
 12
2348.651908374505
 22
7488.630361339021
 32
0.0
 13
2348.651908374505
 23
7488.630361339021
 33
0.0
  0
SOLID
  5
49BB
330
48F7
100
AcDbEntity
  8
SUNPOU
 62
     0
100
AcDbTrace
 10
2478.651908374505
 20
7498.630361339021
 30
0.0
 11
2478.651908374505
 21
7478.630361339021
 31
0.0
 12
2418.651908374505
 22
7488.630361339021
 32
0.0
 13
2418.651908374505
 23
7488.630361339021
 33
0.0
  0
POINT
  5
49BC
330
48F7
100
AcDbEntity
  8
DEFPOINTS
 62
     0
100
AcDbPoint
 10
2348.651908374505
 20
7262.507559187
 30
0.0
  0
POINT
  5
49BD
330
48F7
100
AcDbEntity
  8
DEFPOINTS
 62
     0
100
AcDbPoint
 10
2418.651908374505
 20
7112.507559186999
 30
0.0
  0
POINT
  5
49BE
330
48F7
100
AcDbEntity
  8
DEFPOINTS
 62
     0
100
AcDbPoint
 10
2418.651908374505
 20
7488.630361339021
 30
0.0
  0
ENDBLK
  5
4903
330
48F7
100
AcDbEntity
  8
0
100
AcDbBlockEnd
  0
BLOCK
  5
490E
330
4904
100
AcDbEntity
  8
0
100
AcDbBlockBegin
  2
*D239
 70
     1
 10
0.0
 20
0.0
 30
0.0
  3
*D239
  1

  0
LINE
  5
49BF
330
4904
100
AcDbEntity
  8
SUNPOU
 62
     0
370
    -2
100
AcDbLine
 10
2158.651908374505
 20
7322.507559187
 30
0.0
 11
2158.651908374505
 21
7689.139808941543
 31
0.0
  0
LINE
  5
49C0
330
4904
100
AcDbEntity
  8
SUNPOU
 62
     0
370
    -2
100
AcDbLine
 10
2418.651908374505
 20
7172.507559186999
 30
0.0
 11
2418.651908374505
 21
7689.139808941543
 31
0.0
  0
LINE
  5
49C1
330
4904
100
AcDbEntity
  8
SUNPOU
 62
     0
370
    -2
100
AcDbLine
 10
2218.651908374505
 20
7674.139808941543
 30
0.0
 11
2358.651908374505
 21
7674.139808941543
 31
0.0
  0
SOLID
  5
49C2
330
4904
100
AcDbEntity
  8
SUNPOU
 62
     0
100
AcDbTrace
 10
2218.651908374505
 20
7684.139808941543
 30
0.0
 11
2218.651908374505
 21
7664.139808941543
 31
0.0
 12
2158.651908374505
 22
7674.139808941543
 32
0.0
 13
2158.651908374505
 23
7674.139808941543
 33
0.0
  0
SOLID
  5
49C3
330
4904
100
AcDbEntity
  8
SUNPOU
 62
     0
100
AcDbTrace
 10
2358.651908374505
 20
7684.139808941543
 30
0.0
 11
2358.651908374505
 21
7664.139808941543
 31
0.0
 12
2418.651908374505
 22
7674.139808941543
 32
0.0
 13
2418.651908374505
 23
7674.139808941543
 33
0.0
  0
MTEXT
  5
49C4
330
4904
100
AcDbEntity
  8
SUNPOU
 62
     0
100
AcDbMText
 10
2288.651908374505
 20
7743.139808941543
 30
0.0
 40
90.0
 41
0.0
 71
     5
 72
     1
  1
\A1;260
 73
     1
 44
1.0
  0
POINT
  5
49C5
330
4904
100
AcDbEntity
  8
DEFPOINTS
 62
     0
100
AcDbPoint
 10
2158.651908374505
 20
7262.507559187
 30
0.0
  0
POINT
  5
49C6
330
4904
100
AcDbEntity
  8
DEFPOINTS
 62
     0
100
AcDbPoint
 10
2418.651908374505
 20
7112.507559186999
 30
0.0
  0
POINT
  5
49C7
330
4904
100
AcDbEntity
  8
DEFPOINTS
 62
     0
100
AcDbPoint
 10
2418.651908374505
 20
7674.139808941543
 30
0.0
  0
ENDBLK
  5
490F
330
4904
100
AcDbEntity
  8
0
100
AcDbBlockEnd
  0
BLOCK
  5
491A
330
4910
100
AcDbEntity
  8
0
100
AcDbBlockBegin
  2
*D240
 70
     1
 10
0.0
 20
0.0
 30
0.0
  3
*D240
  1

  0
LINE
  5
49C8
330
4910
100
AcDbEntity
  8
SUNPOU
 62
     0
370
    -2
100
AcDbLine
 10
2418.651908374505
 20
7172.507559186999
 30
0.0
 11
2418.651908374505
 21
7689.139808941543
 31
0.0
  0
LINE
  5
49C9
330
4910
100
AcDbEntity
  8
SUNPOU
 62
     0
370
    -2
100
AcDbLine
 10
3718.651908374505
 20
7172.507559186999
 30
0.0
 11
3718.651908374505
 21
7689.139808941543
 31
0.0
  0
LINE
  5
49CA
330
4910
100
AcDbEntity
  8
SUNPOU
 62
     0
370
    -2
100
AcDbLine
 10
2478.651908374505
 20
7674.139808941543
 30
0.0
 11
3658.651908374505
 21
7674.139808941543
 31
0.0
  0
SOLID
  5
49CB
330
4910
100
AcDbEntity
  8
SUNPOU
 62
     0
100
AcDbTrace
 10
2478.651908374505
 20
7684.139808941543
 30
0.0
 11
2478.651908374505
 21
7664.139808941543
 31
0.0
 12
2418.651908374505
 22
7674.139808941543
 32
0.0
 13
2418.651908374505
 23
7674.139808941543
 33
0.0
  0
SOLID
  5
49CC
330
4910
100
AcDbEntity
  8
SUNPOU
 62
     0
100
AcDbTrace
 10
3658.651908374505
 20
7684.139808941543
 30
0.0
 11
3658.651908374505
 21
7664.139808941543
 31
0.0
 12
3718.651908374505
 22
7674.139808941543
 32
0.0
 13
3718.651908374505
 23
7674.139808941543
 33
0.0
  0
MTEXT
  5
49CD
330
4910
100
AcDbEntity
  8
SUNPOU
 62
     0
100
AcDbMText
 10
3068.651908374505
 20
7743.139808941543
 30
0.0
 40
90.0
 41
0.0
 71
     5
 72
     1
  1
\A1;1300
 73
     1
 44
1.0
  0
POINT
  5
49CE
330
4910
100
AcDbEntity
  8
DEFPOINTS
 62
     0
100
AcDbPoint
 10
2418.651908374505
 20
7112.507559186999
 30
0.0
  0
POINT
  5
49CF
330
4910
100
AcDbEntity
  8
DEFPOINTS
 62
     0
100
AcDbPoint
 10
3718.651908374505
 20
7112.507559186999
 30
0.0
  0
POINT
  5
49D0
330
4910
100
AcDbEntity
  8
DEFPOINTS
 62
     0
100
AcDbPoint
 10
3718.651908374505
 20
7674.139808941543
 30
0.0
  0
ENDBLK
  5
491B
330
4910
100
AcDbEntity
  8
0
100
AcDbBlockEnd
  0
BLOCK
  5
4927
330
491C
100
AcDbEntity
  8
0
100
AcDbBlockBegin
  2
*D241
 70
     1
 10
0.0
 20
0.0
 30
0.0
  3
*D241
  1

  0
LINE
  5
49D1
330
491C
100
AcDbEntity
  8
SUNPOU
 62
     0
370
    -2
100
AcDbLine
 10
2098.651908374505
 20
7262.507559187
 30
0.0
 11
1654.677990090437
 21
7262.507559187001
 31
0.0
  0
LINE
  5
49D2
330
491C
100
AcDbEntity
  8
SUNPOU
 62
     0
370
    -2
100
AcDbLine
 10
2098.651908374505
 20
7112.507559186999
 30
0.0
 11
1654.677990090437
 21
7112.507559187
 31
0.0
  0
LINE
  5
49D3
330
491C
100
AcDbEntity
  8
SUNPOU
 62
     0
370
    -2
100
AcDbLine
 10
1669.677990090437
 20
7322.507559187001
 30
0.0
 11
1669.677990090437
 21
7382.507559187001
 31
0.0
  0
LINE
  5
49D4
330
491C
100
AcDbEntity
  8
SUNPOU
 62
     0
370
    -2
100
AcDbLine
 10
1669.677990090437
 20
7052.507559187
 30
0.0
 11
1669.677990090437
 21
6992.507559187
 31
0.0
  0
SOLID
  5
49D5
330
491C
100
AcDbEntity
  8
SUNPOU
 62
     0
100
AcDbTrace
 10
1659.677990090437
 20
7322.507559187001
 30
0.0
 11
1679.677990090437
 21
7322.507559187001
 31
0.0
 12
1669.677990090437
 22
7262.507559187001
 32
0.0
 13
1669.677990090437
 23
7262.507559187001
 33
0.0
  0
SOLID
  5
49D6
330
491C
100
AcDbEntity
  8
SUNPOU
 62
     0
100
AcDbTrace
 10
1659.677990090437
 20
7052.507559187
 30
0.0
 11
1679.677990090437
 21
7052.507559187
 31
0.0
 12
1669.677990090437
 22
7112.507559187
 32
0.0
 13
1669.677990090437
 23
7112.507559187
 33
0.0
  0
MTEXT
  5
49D7
330
491C
100
AcDbEntity
  8
SUNPOU
 62
     0
100
AcDbMText
 10
1600.677990090436
 20
7187.507559187001
 30
0.0
 40
90.0
 41
0.0
 71
     5
 72
     1
  1
\A1;150
 11
6.123031769111886E-17
 21
1.0
 31
0.0
 73
     1
 44
1.0
  0
POINT
  5
49D8
330
491C
100
AcDbEntity
  8
DEFPOINTS
 62
     0
100
AcDbPoint
 10
2158.651908374505
 20
7262.507559187
 30
0.0
  0
POINT
  5
49D9
330
491C
100
AcDbEntity
  8
DEFPOINTS
 62
     0
100
AcDbPoint
 10
2158.651908374505
 20
7112.507559186999
 30
0.0
  0
POINT
  5
49DA
330
491C
100
AcDbEntity
  8
DEFPOINTS
 62
     0
100
AcDbPoint
 10
1669.677990090437
 20
7112.507559187
 30
0.0
  0
ENDBLK
  5
4928
330
491C
100
AcDbEntity
  8
0
100
AcDbBlockEnd
  0
BLOCK
  5
4933
330
4929
100
AcDbEntity
  8
0
100
AcDbBlockBegin
  2
*D242
 70
     1
 10
0.0
 20
0.0
 30
0.0
  3
*D242
  1

  0
LINE
  5
49DB
330
4929
100
AcDbEntity
  8
SUNPOU
 62
     0
370
    -2
100
AcDbLine
 10
2098.651908374505
 20
7112.507559186999
 30
0.0
 11
1654.677990090437
 21
7112.507559187
 31
0.0
  0
LINE
  5
49DC
330
4929
100
AcDbEntity
  8
SUNPOU
 62
     0
370
    -2
100
AcDbLine
 10
2658.651908374505
 20
4112.507559186999
 30
0.0
 11
1654.677990090437
 21
4112.507559187
 31
0.0
  0
LINE
  5
49DD
330
4929
100
AcDbEntity
  8
SUNPOU
 62
     0
370
    -2
100
AcDbLine
 10
1669.677990090437
 20
7052.507559187
 30
0.0
 11
1669.677990090437
 21
4172.507559187
 31
0.0
  0
SOLID
  5
49DE
330
4929
100
AcDbEntity
  8
SUNPOU
 62
     0
100
AcDbTrace
 10
1659.677990090437
 20
7052.507559187
 30
0.0
 11
1679.677990090437
 21
7052.507559187
 31
0.0
 12
1669.677990090437
 22
7112.507559187
 32
0.0
 13
1669.677990090437
 23
7112.507559187
 33
0.0
  0
SOLID
  5
49DF
330
4929
100
AcDbEntity
  8
SUNPOU
 62
     0
100
AcDbTrace
 10
1659.677990090437
 20
4172.507559187
 30
0.0
 11
1679.677990090437
 21
4172.507559187
 31
0.0
 12
1669.677990090437
 22
4112.507559187
 32
0.0
 13
1669.677990090437
 23
4112.507559187
 33
0.0
  0
MTEXT
  5
49E0
330
4929
100
AcDbEntity
  8
SUNPOU
 62
     0
100
AcDbMText
 10
1600.677990090436
 20
5612.507559187
 30
0.0
 40
90.0
 41
0.0
 71
     5
 72
     1
  1
\A1;3000
 11
6.123031769111886E-17
 21
1.0
 31
0.0
 73
     1
 44
1.0
  0
POINT
  5
49E1
330
4929
100
AcDbEntity
  8
DEFPOINTS
 62
     0
100
AcDbPoint
 10
2158.651908374505
 20
7112.507559186999
 30
0.0
  0
POINT
  5
49E2
330
4929
100
AcDbEntity
  8
DEFPOINTS
 62
     0
100
AcDbPoint
 10
2718.651908374505
 20
4112.507559186999
 30
0.0
  0
POINT
  5
49E3
330
4929
100
AcDbEntity
  8
DEFPOINTS
 62
     0
100
AcDbPoint
 10
1669.677990090437
 20
4112.507559187
 30
0.0
  0
ENDBLK
  5
4934
330
4929
100
AcDbEntity
  8
0
100
AcDbBlockEnd
  0
BLOCK
  5
4A05
330
49FA
100
AcDbEntity
  8
0
100
AcDbBlockBegin
  2
*D243
 70
     1
 10
0.0
 20
0.0
 30
0.0
  3
*D243
  1

  0
LINE
  5
4C6F
330
49FA
100
AcDbEntity
  8
SUNPOU
 62
     0
370
    -2
100
AcDbLine
 10
6942.051245672972
 20
7262.507559186999
 30
0.0
 11
6579.395702417636
 21
7262.507559186999
 31
0.0
  0
LINE
  5
4C70
330
49FA
100
AcDbEntity
  8
SUNPOU
 62
     0
370
    -2
100
AcDbLine
 10
6942.051245672972
 20
7112.507559186999
 30
0.0
 11
6579.395702417636
 21
7112.507559186999
 31
0.0
  0
LINE
  5
4C71
330
49FA
100
AcDbEntity
  8
SUNPOU
 62
     0
370
    -2
100
AcDbLine
 10
6594.395702417636
 20
7322.507559186999
 30
0.0
 11
6594.395702417636
 21
7382.507559186999
 31
0.0
  0
LINE
  5
4C72
330
49FA
100
AcDbEntity
  8
SUNPOU
 62
     0
370
    -2
100
AcDbLine
 10
6594.395702417636
 20
7052.507559186999
 30
0.0
 11
6594.395702417636
 21
6992.507559186999
 31
0.0
  0
SOLID
  5
4C73
330
49FA
100
AcDbEntity
  8
SUNPOU
 62
     0
100
AcDbTrace
 10
6584.395702417636
 20
7322.507559186999
 30
0.0
 11
6604.395702417636
 21
7322.507559186999
 31
0.0
 12
6594.395702417636
 22
7262.507559186999
 32
0.0
 13
6594.395702417636
 23
7262.507559186999
 33
0.0
  0
SOLID
  5
4C74
330
49FA
100
AcDbEntity
  8
SUNPOU
 62
     0
100
AcDbTrace
 10
6584.395702417636
 20
7052.507559186999
 30
0.0
 11
6604.395702417636
 21
7052.507559186999
 31
0.0
 12
6594.395702417636
 22
7112.507559186999
 32
0.0
 13
6594.395702417636
 23
7112.507559186999
 33
0.0
  0
MTEXT
  5
4C75
330
49FA
100
AcDbEntity
  8
SUNPOU
 62
     0
100
AcDbMText
 10
6525.395702417634
 20
7187.507559187001
 30
0.0
 40
90.0
 41
0.0
 71
     5
 72
     1
  1
\A1;150
 11
6.123031769111886E-17
 21
1.0
 31
0.0
 73
     1
 44
1.0
  0
POINT
  5
4C76
330
49FA
100
AcDbEntity
  8
DEFPOINTS
 62
     0
100
AcDbPoint
 10
7002.051245672972
 20
7262.507559186999
 30
0.0
  0
POINT
  5
4C77
330
49FA
100
AcDbEntity
  8
DEFPOINTS
 62
     0
100
AcDbPoint
 10
7002.051245672972
 20
7112.507559186999
 30
0.0
  0
POINT
  5
4C78
330
49FA
100
AcDbEntity
  8
DEFPOINTS
 62
     0
100
AcDbPoint
 10
6594.395702417636
 20
7112.507559186999
 30
0.0
  0
ENDBLK
  5
4A06
330
49FA
100
AcDbEntity
  8
0
100
AcDbBlockEnd
  0
BLOCK
  5
4A11
330
4A07
100
AcDbEntity
  8
0
100
AcDbBlockBegin
  2
*D244
 70
     1
 10
0.0
 20
0.0
 30
0.0
  3
*D244
  1

  0
LINE
  5
4C79
330
4A07
100
AcDbEntity
  8
SUNPOU
 62
     0
370
    -2
100
AcDbLine
 10
6942.051245672972
 20
7112.507559186999
 30
0.0
 11
6579.395702417637
 21
7112.507559186999
 31
0.0
  0
LINE
  5
4C7A
330
4A07
100
AcDbEntity
  8
SUNPOU
 62
     0
370
    -2
100
AcDbLine
 10
6936.051245672968
 20
4112.507559186999
 30
0.0
 11
6579.395702417636
 21
4112.507559186999
 31
0.0
  0
LINE
  5
4C7B
330
4A07
100
AcDbEntity
  8
SUNPOU
 62
     0
370
    -2
100
AcDbLine
 10
6594.395702417637
 20
7052.507559186999
 30
0.0
 11
6594.395702417636
 21
4172.507559186999
 31
0.0
  0
SOLID
  5
4C7C
330
4A07
100
AcDbEntity
  8
SUNPOU
 62
     0
100
AcDbTrace
 10
6584.395702417637
 20
7052.507559186999
 30
0.0
 11
6604.395702417637
 21
7052.507559186999
 31
0.0
 12
6594.395702417637
 22
7112.507559186999
 32
0.0
 13
6594.395702417637
 23
7112.507559186999
 33
0.0
  0
SOLID
  5
4C7D
330
4A07
100
AcDbEntity
  8
SUNPOU
 62
     0
100
AcDbTrace
 10
6584.395702417636
 20
4172.507559186999
 30
0.0
 11
6604.395702417636
 21
4172.507559186999
 31
0.0
 12
6594.395702417636
 22
4112.507559186999
 32
0.0
 13
6594.395702417636
 23
4112.507559186999
 33
0.0
  0
MTEXT
  5
4C7E
330
4A07
100
AcDbEntity
  8
SUNPOU
 62
     0
100
AcDbMText
 10
6525.395702417635
 20
5612.507559187001
 30
0.0
 40
90.0
 41
0.0
 71
     5
 72
     1
  1
\A1;3000
 11
6.123031769111886E-17
 21
1.0
 31
0.0
 73
     1
 44
1.0
  0
POINT
  5
4C7F
330
4A07
100
AcDbEntity
  8
DEFPOINTS
 62
     0
100
AcDbPoint
 10
7002.051245672972
 20
7112.507559186999
 30
0.0
  0
POINT
  5
4C80
330
4A07
100
AcDbEntity
  8
DEFPOINTS
 62
     0
100
AcDbPoint
 10
6996.051245672968
 20
4112.507559186999
 30
0.0
  0
POINT
  5
4C81
330
4A07
100
AcDbEntity
  8
DEFPOINTS
 62
     0
100
AcDbPoint
 10
6594.395702417636
 20
4112.507559186999
 30
0.0
  0
ENDBLK
  5
4A12
330
4A07
100
AcDbEntity
  8
0
100
AcDbBlockEnd
  0
BLOCK
  5
4A1D
330
4A13
100
AcDbEntity
  8
0
100
AcDbBlockBegin
  2
*D245
 70
     1
 10
0.0
 20
0.0
 30
0.0
  3
*D245
  1

  0
LINE
  5
4C82
330
4A13
100
AcDbEntity
  8
SUNPOU
 62
     0
370
    -2
100
AcDbLine
 10
6996.051245672972
 20
7322.507559187
 30
0.0
 11
6996.051245672972
 21
7867.597557597432
 31
0.0
  0
LINE
  5
4C83
330
4A13
100
AcDbEntity
  8
SUNPOU
 62
     0
370
    -2
100
AcDbLine
 10
8496.051245672972
 20
7322.507559187
 30
0.0
 11
8496.051245672972
 21
7867.597557597432
 31
0.0
  0
LINE
  5
4C84
330
4A13
100
AcDbEntity
  8
SUNPOU
 62
     0
370
    -2
100
AcDbLine
 10
7056.051245672972
 20
7852.597557597432
 30
0.0
 11
8436.051245672972
 21
7852.597557597432
 31
0.0
  0
SOLID
  5
4C85
330
4A13
100
AcDbEntity
  8
SUNPOU
 62
     0
100
AcDbTrace
 10
7056.051245672972
 20
7862.597557597432
 30
0.0
 11
7056.051245672972
 21
7842.597557597432
 31
0.0
 12
6996.051245672972
 22
7852.597557597432
 32
0.0
 13
6996.051245672972
 23
7852.597557597432
 33
0.0
  0
SOLID
  5
4C86
330
4A13
100
AcDbEntity
  8
SUNPOU
 62
     0
100
AcDbTrace
 10
8436.051245672972
 20
7862.597557597432
 30
0.0
 11
8436.051245672972
 21
7842.597557597432
 31
0.0
 12
8496.051245672972
 22
7852.597557597432
 32
0.0
 13
8496.051245672972
 23
7852.597557597432
 33
0.0
  0
MTEXT
  5
4C87
330
4A13
100
AcDbEntity
  8
SUNPOU
 62
     0
100
AcDbMText
 10
7746.051245672972
 20
7921.597557597432
 30
0.0
 40
90.0
 41
0.0
 71
     5
 72
     1
  1
\A1;1500
 73
     1
 44
1.0
  0
POINT
  5
4C88
330
4A13
100
AcDbEntity
  8
DEFPOINTS
 62
     0
100
AcDbPoint
 10
6996.051245672972
 20
7262.507559187
 30
0.0
  0
POINT
  5
4C89
330
4A13
100
AcDbEntity
  8
DEFPOINTS
 62
     0
100
AcDbPoint
 10
8496.051245672972
 20
7262.507559187
 30
0.0
  0
POINT
  5
4C8A
330
4A13
100
AcDbEntity
  8
DEFPOINTS
 62
     0
100
AcDbPoint
 10
8496.051245672972
 20
7852.597557597432
 30
0.0
  0
ENDBLK
  5
4A1E
330
4A13
100
AcDbEntity
  8
0
100
AcDbBlockEnd
  0
BLOCK
  5
4A29
330
4A1F
100
AcDbEntity
  8
0
100
AcDbBlockBegin
  2
*D246
 70
     1
 10
0.0
 20
0.0
 30
0.0
  3
*D246
  1

  0
LINE
  5
4C8B
330
4A1F
100
AcDbEntity
  8
SUNPOU
 62
     0
370
    -2
100
AcDbLine
 10
6996.051245672972
 20
7322.507559187
 30
0.0
 11
6996.051245672972
 21
7652.074879970454
 31
0.0
  0
LINE
  5
4C8C
330
4A1F
100
AcDbEntity
  8
SUNPOU
 62
     0
370
    -2
100
AcDbLine
 10
7371.051245672972
 20
7322.507559187
 30
0.0
 11
7371.051245672972
 21
7652.074879970454
 31
0.0
  0
LINE
  5
4C8D
330
4A1F
100
AcDbEntity
  8
SUNPOU
 62
     0
370
    -2
100
AcDbLine
 10
7056.051245672972
 20
7637.074879970454
 30
0.0
 11
7311.051245672972
 21
7637.074879970454
 31
0.0
  0
SOLID
  5
4C8E
330
4A1F
100
AcDbEntity
  8
SUNPOU
 62
     0
100
AcDbTrace
 10
7056.051245672972
 20
7647.074879970454
 30
0.0
 11
7056.051245672972
 21
7627.074879970454
 31
0.0
 12
6996.051245672972
 22
7637.074879970454
 32
0.0
 13
6996.051245672972
 23
7637.074879970454
 33
0.0
  0
SOLID
  5
4C8F
330
4A1F
100
AcDbEntity
  8
SUNPOU
 62
     0
100
AcDbTrace
 10
7311.051245672972
 20
7647.074879970454
 30
0.0
 11
7311.051245672972
 21
7627.074879970454
 31
0.0
 12
7371.051245672972
 22
7637.074879970454
 32
0.0
 13
7371.051245672972
 23
7637.074879970454
 33
0.0
  0
MTEXT
  5
4C90
330
4A1F
100
AcDbEntity
  8
SUNPOU
 62
     0
100
AcDbMText
 10
7183.551245672972
 20
7706.074879970454
 30
0.0
 40
90.0
 41
0.0
 71
     5
 72
     1
  1
\A1;375
 73
     1
 44
1.0
  0
POINT
  5
4C91
330
4A1F
100
AcDbEntity
  8
DEFPOINTS
 62
     0
100
AcDbPoint
 10
6996.051245672972
 20
7262.507559187
 30
0.0
  0
POINT
  5
4C92
330
4A1F
100
AcDbEntity
  8
DEFPOINTS
 62
     0
100
AcDbPoint
 10
7371.051245672972
 20
7262.507559187
 30
0.0
  0
POINT
  5
4C93
330
4A1F
100
AcDbEntity
  8
DEFPOINTS
 62
     0
100
AcDbPoint
 10
7371.051245672972
 20
7637.074879970454
 30
0.0
  0
ENDBLK
  5
4A2A
330
4A1F
100
AcDbEntity
  8
0
100
AcDbBlockEnd
  0
BLOCK
  5
4A35
330
4A2B
100
AcDbEntity
  8
0
100
AcDbBlockBegin
  2
*D247
 70
     1
 10
0.0
 20
0.0
 30
0.0
  3
*D247
  1

  0
LINE
  5
4C94
330
4A2B
100
AcDbEntity
  8
SUNPOU
 62
     0
370
    -2
100
AcDbLine
 10
7371.051245672972
 20
7322.507559187
 30
0.0
 11
7371.051245672972
 21
7652.074879970454
 31
0.0
  0
LINE
  5
4C95
330
4A2B
100
AcDbEntity
  8
SUNPOU
 62
     0
370
    -2
100
AcDbLine
 10
8121.051245672972
 20
7322.507559187
 30
0.0
 11
8121.051245672972
 21
7652.074879970454
 31
0.0
  0
LINE
  5
4C96
330
4A2B
100
AcDbEntity
  8
SUNPOU
 62
     0
370
    -2
100
AcDbLine
 10
7431.051245672972
 20
7637.074879970454
 30
0.0
 11
8061.051245672972
 21
7637.074879970454
 31
0.0
  0
SOLID
  5
4C97
330
4A2B
100
AcDbEntity
  8
SUNPOU
 62
     0
100
AcDbTrace
 10
7431.051245672972
 20
7647.074879970454
 30
0.0
 11
7431.051245672972
 21
7627.074879970454
 31
0.0
 12
7371.051245672972
 22
7637.074879970454
 32
0.0
 13
7371.051245672972
 23
7637.074879970454
 33
0.0
  0
SOLID
  5
4C98
330
4A2B
100
AcDbEntity
  8
SUNPOU
 62
     0
100
AcDbTrace
 10
8061.051245672972
 20
7647.074879970454
 30
0.0
 11
8061.051245672972
 21
7627.074879970454
 31
0.0
 12
8121.051245672972
 22
7637.074879970454
 32
0.0
 13
8121.051245672972
 23
7637.074879970454
 33
0.0
  0
MTEXT
  5
4C99
330
4A2B
100
AcDbEntity
  8
SUNPOU
 62
     0
100
AcDbMText
 10
7746.051245672972
 20
7706.074879970454
 30
0.0
 40
90.0
 41
0.0
 71
     5
 72
     1
  1
\A1;750
 73
     1
 44
1.0
  0
POINT
  5
4C9A
330
4A2B
100
AcDbEntity
  8
DEFPOINTS
 62
     0
100
AcDbPoint
 10
7371.051245672972
 20
7262.507559187
 30
0.0
  0
POINT
  5
4C9B
330
4A2B
100
AcDbEntity
  8
DEFPOINTS
 62
     0
100
AcDbPoint
 10
8121.051245672972
 20
7262.507559187
 30
0.0
  0
POINT
  5
4C9C
330
4A2B
100
AcDbEntity
  8
DEFPOINTS
 62
     0
100
AcDbPoint
 10
8121.051245672972
 20
7637.074879970454
 30
0.0
  0
ENDBLK
  5
4A36
330
4A2B
100
AcDbEntity
  8
0
100
AcDbBlockEnd
  0
BLOCK
  5
4A41
330
4A37
100
AcDbEntity
  8
0
100
AcDbBlockBegin
  2
*D248
 70
     1
 10
0.0
 20
0.0
 30
0.0
  3
*D248
  1

  0
LINE
  5
4C9D
330
4A37
100
AcDbEntity
  8
SUNPOU
 62
     0
370
    -2
100
AcDbLine
 10
8121.051245672972
 20
7322.507559187
 30
0.0
 11
8121.051245672972
 21
7652.074879970454
 31
0.0
  0
LINE
  5
4C9E
330
4A37
100
AcDbEntity
  8
SUNPOU
 62
     0
370
    -2
100
AcDbLine
 10
8496.051245672972
 20
7322.507559187
 30
0.0
 11
8496.051245672972
 21
7652.074879970454
 31
0.0
  0
LINE
  5
4C9F
330
4A37
100
AcDbEntity
  8
SUNPOU
 62
     0
370
    -2
100
AcDbLine
 10
8181.051245672972
 20
7637.074879970454
 30
0.0
 11
8436.051245672972
 21
7637.074879970454
 31
0.0
  0
SOLID
  5
4CA0
330
4A37
100
AcDbEntity
  8
SUNPOU
 62
     0
100
AcDbTrace
 10
8181.051245672972
 20
7647.074879970454
 30
0.0
 11
8181.051245672972
 21
7627.074879970454
 31
0.0
 12
8121.051245672972
 22
7637.074879970454
 32
0.0
 13
8121.051245672972
 23
7637.074879970454
 33
0.0
  0
SOLID
  5
4CA1
330
4A37
100
AcDbEntity
  8
SUNPOU
 62
     0
100
AcDbTrace
 10
8436.051245672972
 20
7647.074879970454
 30
0.0
 11
8436.051245672972
 21
7627.074879970454
 31
0.0
 12
8496.051245672972
 22
7637.074879970454
 32
0.0
 13
8496.051245672972
 23
7637.074879970454
 33
0.0
  0
MTEXT
  5
4CA2
330
4A37
100
AcDbEntity
  8
SUNPOU
 62
     0
100
AcDbMText
 10
8308.551245672972
 20
7706.074879970454
 30
0.0
 40
90.0
 41
0.0
 71
     5
 72
     1
  1
\A1;375
 73
     1
 44
1.0
  0
POINT
  5
4CA3
330
4A37
100
AcDbEntity
  8
DEFPOINTS
 62
     0
100
AcDbPoint
 10
8121.051245672972
 20
7262.507559187
 30
0.0
  0
POINT
  5
4CA4
330
4A37
100
AcDbEntity
  8
DEFPOINTS
 62
     0
100
AcDbPoint
 10
8496.051245672972
 20
7262.507559187
 30
0.0
  0
POINT
  5
4CA5
330
4A37
100
AcDbEntity
  8
DEFPOINTS
 62
     0
100
AcDbPoint
 10
8496.051245672972
 20
7637.074879970454
 30
0.0
  0
ENDBLK
  5
4A42
330
4A37
100
AcDbEntity
  8
0
100
AcDbBlockEnd
  0
BLOCK
  5
4A4E
330
4A43
100
AcDbEntity
  8
0
100
AcDbBlockBegin
  2
*D249
 70
     1
 10
0.0
 20
0.0
 30
0.0
  3
*D249
  1

  0
LINE
  5
4CA6
330
4A43
100
AcDbEntity
  8
SUNPOU
 62
     0
370
    -2
100
AcDbLine
 10
7261.05124567297
 20
5857.110768143062
 30
0.0
 11
7261.05124567297
 21
5945.873510982038
 31
0.0
  0
LINE
  5
4CA7
330
4A43
100
AcDbEntity
  8
SUNPOU
 62
     0
370
    -2
100
AcDbLine
 10
7281.05124567297
 20
5857.110768143062
 30
0.0
 11
7281.05124567297
 21
5945.873510982038
 31
0.0
  0
LINE
  5
4CA8
330
4A43
100
AcDbEntity
  8
SUNPOU
 62
     0
370
    -2
100
AcDbLine
 10
7201.05124567297
 20
5930.873510982038
 30
0.0
 11
7141.05124567297
 21
5930.873510982038
 31
0.0
  0
LINE
  5
4CA9
330
4A43
100
AcDbEntity
  8
SUNPOU
 62
     0
370
    -2
100
AcDbLine
 10
7341.05124567297
 20
5930.873510982038
 30
0.0
 11
7401.05124567297
 21
5930.873510982038
 31
0.0
  0
MTEXT
  5
4CAA
330
4A43
100
AcDbEntity
  8
SUNPOU
 62
     0
100
AcDbMText
 10
7184.602786629543
 20
5999.873510982038
 30
0.0
 40
90.0
 41
0.0
 71
     5
 72
     1
  1
\A1;20
 73
     1
 44
1.0
  0
SOLID
  5
4CAB
330
4A43
100
AcDbEntity
  8
SUNPOU
 62
     0
100
AcDbTrace
 10
7201.05124567297
 20
5940.873510982038
 30
0.0
 11
7201.05124567297
 21
5920.873510982038
 31
0.0
 12
7261.05124567297
 22
5930.873510982038
 32
0.0
 13
7261.05124567297
 23
5930.873510982038
 33
0.0
  0
SOLID
  5
4CAC
330
4A43
100
AcDbEntity
  8
SUNPOU
 62
     0
100
AcDbTrace
 10
7341.05124567297
 20
5940.873510982038
 30
0.0
 11
7341.05124567297
 21
5920.873510982038
 31
0.0
 12
7281.05124567297
 22
5930.873510982038
 32
0.0
 13
7281.05124567297
 23
5930.873510982038
 33
0.0
  0
POINT
  5
4CAD
330
4A43
100
AcDbEntity
  8
DEFPOINTS
 62
     0
100
AcDbPoint
 10
7261.05124567297
 20
5797.110768143062
 30
0.0
  0
POINT
  5
4CAE
330
4A43
100
AcDbEntity
  8
DEFPOINTS
 62
     0
100
AcDbPoint
 10
7281.05124567297
 20
5797.110768143062
 30
0.0
  0
POINT
  5
4CAF
330
4A43
100
AcDbEntity
  8
DEFPOINTS
 62
     0
100
AcDbPoint
 10
7281.05124567297
 20
5930.873510982038
 30
0.0
  0
ENDBLK
  5
4A4F
330
4A43
100
AcDbEntity
  8
0
100
AcDbBlockEnd
  0
BLOCK
  5
4A5B
330
4A50
100
AcDbEntity
  8
0
100
AcDbBlockBegin
  2
*D250
 70
     1
 10
0.0
 20
0.0
 30
0.0
  3
*D250
  1

  0
LINE
  5
4CB0
330
4A50
100
AcDbEntity
  8
SUNPOU
 62
     0
370
    -2
100
AcDbLine
 10
7281.05124567297
 20
5857.110768143062
 30
0.0
 11
7281.05124567297
 21
5945.873510982038
 31
0.0
  0
LINE
  5
4CB1
330
4A50
100
AcDbEntity
  8
SUNPOU
 62
     0
370
    -2
100
AcDbLine
 10
7461.05124567297
 20
5857.110768143062
 30
0.0
 11
7461.05124567297
 21
5945.873510982038
 31
0.0
  0
LINE
  5
4CB2
330
4A50
100
AcDbEntity
  8
SUNPOU
 62
     0
370
    -2
100
AcDbLine
 10
7221.05124567297
 20
5930.873510982038
 30
0.0
 11
7161.05124567297
 21
5930.873510982038
 31
0.0
  0
LINE
  5
4CB3
330
4A50
100
AcDbEntity
  8
SUNPOU
 62
     0
370
    -2
100
AcDbLine
 10
7521.05124567297
 20
5930.873510982038
 30
0.0
 11
7581.05124567297
 21
5930.873510982038
 31
0.0
  0
SOLID
  5
4CB4
330
4A50
100
AcDbEntity
  8
SUNPOU
 62
     0
100
AcDbTrace
 10
7221.05124567297
 20
5940.873510982038
 30
0.0
 11
7221.05124567297
 21
5920.873510982038
 31
0.0
 12
7281.05124567297
 22
5930.873510982038
 32
0.0
 13
7281.05124567297
 23
5930.873510982038
 33
0.0
  0
SOLID
  5
4CB5
330
4A50
100
AcDbEntity
  8
SUNPOU
 62
     0
100
AcDbTrace
 10
7521.05124567297
 20
5940.873510982038
 30
0.0
 11
7521.05124567297
 21
5920.873510982038
 31
0.0
 12
7461.05124567297
 22
5930.873510982038
 32
0.0
 13
7461.05124567297
 23
5930.873510982038
 33
0.0
  0
MTEXT
  5
4CB6
330
4A50
100
AcDbEntity
  8
SUNPOU
 62
     0
100
AcDbMText
 10
7371.05124567297
 20
5999.873510982038
 30
0.0
 40
90.0
 41
0.0
 71
     5
 72
     1
  1
\A1;180
 73
     1
 44
1.0
  0
POINT
  5
4CB7
330
4A50
100
AcDbEntity
  8
DEFPOINTS
 62
     0
100
AcDbPoint
 10
7281.05124567297
 20
5797.110768143062
 30
0.0
  0
POINT
  5
4CB8
330
4A50
100
AcDbEntity
  8
DEFPOINTS
 62
     0
100
AcDbPoint
 10
7461.05124567297
 20
5797.110768143062
 30
0.0
  0
POINT
  5
4CB9
330
4A50
100
AcDbEntity
  8
DEFPOINTS
 62
     0
100
AcDbPoint
 10
7461.05124567297
 20
5930.873510982038
 30
0.0
  0
ENDBLK
  5
4A5C
330
4A50
100
AcDbEntity
  8
0
100
AcDbBlockEnd
  0
BLOCK
  5
4A68
330
4A5D
100
AcDbEntity
  8
0
100
AcDbBlockBegin
  2
*D251
 70
     1
 10
0.0
 20
0.0
 30
0.0
  3
*D251
  1

  0
LINE
  5
4CBA
330
4A5D
100
AcDbEntity
  8
SUNPOU
 62
     0
370
    -2
100
AcDbLine
 10
7461.05124567297
 20
5857.110768143062
 30
0.0
 11
7461.05124567297
 21
5945.873510982038
 31
0.0
  0
LINE
  5
4CBB
330
4A5D
100
AcDbEntity
  8
SUNPOU
 62
     0
370
    -2
100
AcDbLine
 10
7481.05124567297
 20
5857.110768143062
 30
0.0
 11
7481.05124567297
 21
5945.873510982038
 31
0.0
  0
LINE
  5
4CBC
330
4A5D
100
AcDbEntity
  8
SUNPOU
 62
     0
370
    -2
100
AcDbLine
 10
7401.05124567297
 20
5930.873510982038
 30
0.0
 11
7341.05124567297
 21
5930.873510982038
 31
0.0
  0
LINE
  5
4CBD
330
4A5D
100
AcDbEntity
  8
SUNPOU
 62
     0
370
    -2
100
AcDbLine
 10
7541.05124567297
 20
5930.873510982038
 30
0.0
 11
7601.05124567297
 21
5930.873510982038
 31
0.0
  0
MTEXT
  5
4CBE
330
4A5D
100
AcDbEntity
  8
SUNPOU
 62
     0
100
AcDbMText
 10
7558.158895471412
 20
5999.873510982038
 30
0.0
 40
90.0
 41
0.0
 71
     5
 72
     1
  1
\A1;20
 73
     1
 44
1.0
  0
SOLID
  5
4CBF
330
4A5D
100
AcDbEntity
  8
SUNPOU
 62
     0
100
AcDbTrace
 10
7401.05124567297
 20
5940.873510982038
 30
0.0
 11
7401.05124567297
 21
5920.873510982038
 31
0.0
 12
7461.05124567297
 22
5930.873510982038
 32
0.0
 13
7461.05124567297
 23
5930.873510982038
 33
0.0
  0
SOLID
  5
4CC0
330
4A5D
100
AcDbEntity
  8
SUNPOU
 62
     0
100
AcDbTrace
 10
7541.05124567297
 20
5940.873510982038
 30
0.0
 11
7541.05124567297
 21
5920.873510982038
 31
0.0
 12
7481.05124567297
 22
5930.873510982038
 32
0.0
 13
7481.05124567297
 23
5930.873510982038
 33
0.0
  0
POINT
  5
4CC1
330
4A5D
100
AcDbEntity
  8
DEFPOINTS
 62
     0
100
AcDbPoint
 10
7461.05124567297
 20
5797.110768143062
 30
0.0
  0
POINT
  5
4CC2
330
4A5D
100
AcDbEntity
  8
DEFPOINTS
 62
     0
100
AcDbPoint
 10
7481.05124567297
 20
5797.110768143062
 30
0.0
  0
POINT
  5
4CC3
330
4A5D
100
AcDbEntity
  8
DEFPOINTS
 62
     0
100
AcDbPoint
 10
7481.05124567297
 20
5930.873510982038
 30
0.0
  0
ENDBLK
  5
4A69
330
4A5D
100
AcDbEntity
  8
0
100
AcDbBlockEnd
  0
BLOCK
  5
4ADF
330
4AD5
100
AcDbEntity
  8
0
100
AcDbBlockBegin
  2
*D252
 70
     1
 10
0.0
 20
0.0
 30
0.0
  3
*D252
  1

  0
LINE
  5
4B1E
330
4AD5
100
AcDbEntity
  8
SUNPOU
 62
     0
370
    -2
100
AcDbLine
 10
2718.651908374505
 20
4052.507559186999
 30
0.0
 11
2718.651908374505
 21
3611.694012218797
 31
0.0
  0
LINE
  5
4B1F
330
4AD5
100
AcDbEntity
  8
SUNPOU
 62
     0
370
    -2
100
AcDbLine
 10
3318.651908374504
 20
4052.507559186999
 30
0.0
 11
3318.651908374504
 21
3611.694012218797
 31
0.0
  0
LINE
  5
4B20
330
4AD5
100
AcDbEntity
  8
SUNPOU
 62
     0
370
    -2
100
AcDbLine
 10
2778.651908374505
 20
3626.694012218797
 30
0.0
 11
3258.651908374504
 21
3626.694012218797
 31
0.0
  0
SOLID
  5
4B21
330
4AD5
100
AcDbEntity
  8
SUNPOU
 62
     0
100
AcDbTrace
 10
2778.651908374505
 20
3636.694012218797
 30
0.0
 11
2778.651908374505
 21
3616.694012218797
 31
0.0
 12
2718.651908374505
 22
3626.694012218797
 32
0.0
 13
2718.651908374505
 23
3626.694012218797
 33
0.0
  0
SOLID
  5
4B22
330
4AD5
100
AcDbEntity
  8
SUNPOU
 62
     0
100
AcDbTrace
 10
3258.651908374504
 20
3636.694012218797
 30
0.0
 11
3258.651908374504
 21
3616.694012218797
 31
0.0
 12
3318.651908374504
 22
3626.694012218797
 32
0.0
 13
3318.651908374504
 23
3626.694012218797
 33
0.0
  0
MTEXT
  5
4B23
330
4AD5
100
AcDbEntity
  8
SUNPOU
 62
     0
100
AcDbMText
 10
3018.651908374505
 20
3695.694012218797
 30
0.0
 40
90.0
 41
0.0
 71
     5
 72
     1
  1
\A1;600
 73
     1
 44
1.0
  0
POINT
  5
4B24
330
4AD5
100
AcDbEntity
  8
DEFPOINTS
 62
     0
100
AcDbPoint
 10
2718.651908374505
 20
4112.507559186999
 30
0.0
  0
POINT
  5
4B25
330
4AD5
100
AcDbEntity
  8
DEFPOINTS
 62
     0
100
AcDbPoint
 10
3318.651908374504
 20
4112.507559186999
 30
0.0
  0
POINT
  5
4B26
330
4AD5
100
AcDbEntity
  8
DEFPOINTS
 62
     0
100
AcDbPoint
 10
3318.651908374504
 20
3626.694012218797
 30
0.0
  0
ENDBLK
  5
4AE0
330
4AD5
100
AcDbEntity
  8
0
100
AcDbBlockEnd
  0
BLOCK
  5
4AEB
330
4AE1
100
AcDbEntity
  8
0
100
AcDbBlockBegin
  2
*D253
 70
     1
 10
0.0
 20
0.0
 30
0.0
  3
*D253
  1

  0
LINE
  5
4B27
330
4AE1
100
AcDbEntity
  8
SUNPOU
 62
     0
370
    -2
100
AcDbLine
 10
3318.651908374504
 20
4052.507559186999
 30
0.0
 11
3318.651908374504
 21
3611.694012218797
 31
0.0
  0
LINE
  5
4B28
330
4AE1
100
AcDbEntity
  8
SUNPOU
 62
     0
370
    -2
100
AcDbLine
 10
3718.651908374504
 20
4052.507559186999
 30
0.0
 11
3718.651908374504
 21
3611.694012218797
 31
0.0
  0
LINE
  5
4B29
330
4AE1
100
AcDbEntity
  8
SUNPOU
 62
     0
370
    -2
100
AcDbLine
 10
3378.651908374504
 20
3626.694012218797
 30
0.0
 11
3658.651908374504
 21
3626.694012218797
 31
0.0
  0
SOLID
  5
4B2A
330
4AE1
100
AcDbEntity
  8
SUNPOU
 62
     0
100
AcDbTrace
 10
3378.651908374504
 20
3636.694012218797
 30
0.0
 11
3378.651908374504
 21
3616.694012218797
 31
0.0
 12
3318.651908374504
 22
3626.694012218797
 32
0.0
 13
3318.651908374504
 23
3626.694012218797
 33
0.0
  0
SOLID
  5
4B2B
330
4AE1
100
AcDbEntity
  8
SUNPOU
 62
     0
100
AcDbTrace
 10
3658.651908374504
 20
3636.694012218797
 30
0.0
 11
3658.651908374504
 21
3616.694012218797
 31
0.0
 12
3718.651908374504
 22
3626.694012218797
 32
0.0
 13
3718.651908374504
 23
3626.694012218797
 33
0.0
  0
MTEXT
  5
4B2C
330
4AE1
100
AcDbEntity
  8
SUNPOU
 62
     0
100
AcDbMText
 10
3518.651908374504
 20
3695.694012218797
 30
0.0
 40
90.0
 41
0.0
 71
     5
 72
     1
  1
\A1;400
 73
     1
 44
1.0
  0
POINT
  5
4B2D
330
4AE1
100
AcDbEntity
  8
DEFPOINTS
 62
     0
100
AcDbPoint
 10
3318.651908374504
 20
4112.507559186999
 30
0.0
  0
POINT
  5
4B2E
330
4AE1
100
AcDbEntity
  8
DEFPOINTS
 62
     0
100
AcDbPoint
 10
3718.651908374504
 20
4112.507559186999
 30
0.0
  0
POINT
  5
4B2F
330
4AE1
100
AcDbEntity
  8
DEFPOINTS
 62
     0
100
AcDbPoint
 10
3718.651908374504
 20
3626.694012218797
 30
0.0
  0
ENDBLK
  5
4AEC
330
4AE1
100
AcDbEntity
  8
0
100
AcDbBlockEnd
  0
BLOCK
  5
4AF7
330
4AED
100
AcDbEntity
  8
0
100
AcDbBlockBegin
  2
*D254
 70
     1
 10
0.0
 20
0.0
 30
0.0
  3
*D254
  1

  0
LINE
  5
4B55
330
4AED
100
AcDbEntity
  8
SUNPOU
 62
     0
370
    -2
100
AcDbLine
 10
3718.651908374504
 20
4052.507559186999
 30
0.0
 11
3718.651908374504
 21
3611.694012218797
 31
0.0
  0
LINE
  5
4B56
330
4AED
100
AcDbEntity
  8
SUNPOU
 62
     0
370
    -2
100
AcDbLine
 10
4998.651908374506
 20
4052.507559186997
 30
0.0
 11
4998.651908374506
 21
3611.694012218797
 31
0.0
  0
LINE
  5
4B57
330
4AED
100
AcDbEntity
  8
SUNPOU
 62
     0
370
    -2
100
AcDbLine
 10
3778.651908374504
 20
3626.694012218797
 30
0.0
 11
4938.651908374506
 21
3626.694012218797
 31
0.0
  0
SOLID
  5
4B58
330
4AED
100
AcDbEntity
  8
SUNPOU
 62
     0
100
AcDbTrace
 10
3778.651908374504
 20
3636.694012218797
 30
0.0
 11
3778.651908374504
 21
3616.694012218797
 31
0.0
 12
3718.651908374504
 22
3626.694012218797
 32
0.0
 13
3718.651908374504
 23
3626.694012218797
 33
0.0
  0
SOLID
  5
4B59
330
4AED
100
AcDbEntity
  8
SUNPOU
 62
     0
100
AcDbTrace
 10
4938.651908374506
 20
3636.694012218797
 30
0.0
 11
4938.651908374506
 21
3616.694012218797
 31
0.0
 12
4998.651908374506
 22
3626.694012218797
 32
0.0
 13
4998.651908374506
 23
3626.694012218797
 33
0.0
  0
MTEXT
  5
4B5A
330
4AED
100
AcDbEntity
  8
SUNPOU
 62
     0
100
AcDbMText
 10
4358.651908374505
 20
3695.694012218797
 30
0.0
 40
90.0
 41
0.0
 71
     5
 72
     1
  1
\A1;1280
 73
     1
 44
1.0
  0
POINT
  5
4B5B
330
4AED
100
AcDbEntity
  8
DEFPOINTS
 62
     0
100
AcDbPoint
 10
3718.651908374504
 20
4112.507559186999
 30
0.0
  0
POINT
  5
4B5C
330
4AED
100
AcDbEntity
  8
DEFPOINTS
 62
     0
100
AcDbPoint
 10
4998.651908374506
 20
4112.507559186997
 30
0.0
  0
POINT
  5
4B5D
330
4AED
100
AcDbEntity
  8
DEFPOINTS
 62
     0
100
AcDbPoint
 10
4998.651908374506
 20
3626.694012218797
 30
0.0
  0
ENDBLK
  5
4AF8
330
4AED
100
AcDbEntity
  8
0
100
AcDbBlockEnd
  0
BLOCK
  5
4B04
330
4AF9
100
AcDbEntity
  8
0
100
AcDbBlockBegin
  2
*D255
 70
     1
 10
0.0
 20
0.0
 30
0.0
  3
*D255
  1

  0
LINE
  5
4B39
330
4AF9
100
AcDbEntity
  8
SUNPOU
 62
     0
370
    -2
100
AcDbLine
 10
3718.651908374504
 20
4052.507559186999
 30
0.0
 11
3718.651908374504
 21
3804.853827399324
 31
0.0
  0
LINE
  5
4B3A
330
4AF9
100
AcDbEntity
  8
SUNPOU
 62
     0
370
    -2
100
AcDbLine
 10
3618.651908374505
 20
4052.507559186999
 30
0.0
 11
3618.651908374505
 21
3804.853827399324
 31
0.0
  0
LINE
  5
4B3B
330
4AF9
100
AcDbEntity
  8
SUNPOU
 62
     0
370
    -2
100
AcDbLine
 10
3778.651908374504
 20
3819.853827399324
 30
0.0
 11
3838.651908374504
 21
3819.853827399324
 31
0.0
  0
LINE
  5
4B3C
330
4AF9
100
AcDbEntity
  8
SUNPOU
 62
     0
370
    -2
100
AcDbLine
 10
3558.651908374505
 20
3819.853827399324
 30
0.0
 11
3498.651908374505
 21
3819.853827399324
 31
0.0
  0
SOLID
  5
4B3D
330
4AF9
100
AcDbEntity
  8
SUNPOU
 62
     0
100
AcDbTrace
 10
3778.651908374504
 20
3829.853827399324
 30
0.0
 11
3778.651908374504
 21
3809.853827399324
 31
0.0
 12
3718.651908374504
 22
3819.853827399324
 32
0.0
 13
3718.651908374504
 23
3819.853827399324
 33
0.0
  0
SOLID
  5
4B3E
330
4AF9
100
AcDbEntity
  8
SUNPOU
 62
     0
100
AcDbTrace
 10
3558.651908374505
 20
3829.853827399324
 30
0.0
 11
3558.651908374505
 21
3809.853827399324
 31
0.0
 12
3618.651908374505
 22
3819.853827399324
 32
0.0
 13
3618.651908374505
 23
3819.853827399324
 33
0.0
  0
MTEXT
  5
4B3F
330
4AF9
100
AcDbEntity
  8
SUNPOU
 62
     0
100
AcDbMText
 10
3668.651908374505
 20
3888.853827399324
 30
0.0
 40
90.0
 41
0.0
 71
     5
 72
     1
  1
\A1;100
 73
     1
 44
1.0
  0
POINT
  5
4B40
330
4AF9
100
AcDbEntity
  8
DEFPOINTS
 62
     0
100
AcDbPoint
 10
3718.651908374504
 20
4112.507559186999
 30
0.0
  0
POINT
  5
4B41
330
4AF9
100
AcDbEntity
  8
DEFPOINTS
 62
     0
100
AcDbPoint
 10
3618.651908374505
 20
4112.507559186999
 30
0.0
  0
POINT
  5
4B42
330
4AF9
100
AcDbEntity
  8
DEFPOINTS
 62
     0
100
AcDbPoint
 10
3618.651908374505
 20
3819.853827399324
 30
0.0
  0
ENDBLK
  5
4B05
330
4AF9
100
AcDbEntity
  8
0
100
AcDbBlockEnd
  0
BLOCK
  5
4B10
330
4B06
100
AcDbEntity
  8
0
100
AcDbBlockBegin
  2
*D256
 70
     1
 10
0.0
 20
0.0
 30
0.0
  3
*D256
  1

  0
LINE
  5
4B43
330
4B06
100
AcDbEntity
  8
SUNPOU
 62
     0
370
    -2
100
AcDbLine
 10
3618.651908374505
 20
4052.507559186999
 30
0.0
 11
3618.651908374505
 21
3804.853827399324
 31
0.0
  0
LINE
  5
4B44
330
4B06
100
AcDbEntity
  8
SUNPOU
 62
     0
370
    -2
100
AcDbLine
 10
3318.651908374504
 20
4052.507559186999
 30
0.0
 11
3318.651908374504
 21
3804.853827399324
 31
0.0
  0
LINE
  5
4B45
330
4B06
100
AcDbEntity
  8
SUNPOU
 62
     0
370
    -2
100
AcDbLine
 10
3558.651908374505
 20
3819.853827399324
 30
0.0
 11
3378.651908374504
 21
3819.853827399324
 31
0.0
  0
SOLID
  5
4B46
330
4B06
100
AcDbEntity
  8
SUNPOU
 62
     0
100
AcDbTrace
 10
3558.651908374505
 20
3829.853827399324
 30
0.0
 11
3558.651908374505
 21
3809.853827399324
 31
0.0
 12
3618.651908374505
 22
3819.853827399324
 32
0.0
 13
3618.651908374505
 23
3819.853827399324
 33
0.0
  0
SOLID
  5
4B47
330
4B06
100
AcDbEntity
  8
SUNPOU
 62
     0
100
AcDbTrace
 10
3378.651908374504
 20
3829.853827399324
 30
0.0
 11
3378.651908374504
 21
3809.853827399324
 31
0.0
 12
3318.651908374504
 22
3819.853827399324
 32
0.0
 13
3318.651908374504
 23
3819.853827399324
 33
0.0
  0
MTEXT
  5
4B48
330
4B06
100
AcDbEntity
  8
SUNPOU
 62
     0
100
AcDbMText
 10
3468.651908374505
 20
3888.853827399324
 30
0.0
 40
90.0
 41
0.0
 71
     5
 72
     1
  1
\A1;300
 73
     1
 44
1.0
  0
POINT
  5
4B49
330
4B06
100
AcDbEntity
  8
DEFPOINTS
 62
     0
100
AcDbPoint
 10
3618.651908374505
 20
4112.507559186999
 30
0.0
  0
POINT
  5
4B4A
330
4B06
100
AcDbEntity
  8
DEFPOINTS
 62
     0
100
AcDbPoint
 10
3318.651908374504
 20
4112.507559186999
 30
0.0
  0
POINT
  5
4B4B
330
4B06
100
AcDbEntity
  8
DEFPOINTS
 62
     0
100
AcDbPoint
 10
3318.651908374504
 20
3819.853827399324
 30
0.0
  0
ENDBLK
  5
4B11
330
4B06
100
AcDbEntity
  8
0
100
AcDbBlockEnd
  0
BLOCK
  5
4B1C
330
4B12
100
AcDbEntity
  8
0
100
AcDbBlockBegin
  2
*D257
 70
     1
 10
0.0
 20
0.0
 30
0.0
  3
*D257
  1

  0
LINE
  5
4B5E
330
4B12
100
AcDbEntity
  8
SUNPOU
 62
     0
370
    -2
100
AcDbLine
 10
2718.651908374505
 20
4052.507559186999
 30
0.0
 11
2718.651908374505
 21
3417.35226200682
 31
0.0
  0
LINE
  5
4B5F
330
4B12
100
AcDbEntity
  8
SUNPOU
 62
     0
370
    -2
100
AcDbLine
 10
4998.651908374506
 20
4052.507559186997
 30
0.0
 11
4998.651908374506
 21
3417.35226200682
 31
0.0
  0
LINE
  5
4B60
330
4B12
100
AcDbEntity
  8
SUNPOU
 62
     0
370
    -2
100
AcDbLine
 10
2778.651908374505
 20
3432.35226200682
 30
0.0
 11
4938.651908374506
 21
3432.35226200682
 31
0.0
  0
SOLID
  5
4B61
330
4B12
100
AcDbEntity
  8
SUNPOU
 62
     0
100
AcDbTrace
 10
2778.651908374505
 20
3442.35226200682
 30
0.0
 11
2778.651908374505
 21
3422.35226200682
 31
0.0
 12
2718.651908374505
 22
3432.35226200682
 32
0.0
 13
2718.651908374505
 23
3432.35226200682
 33
0.0
  0
SOLID
  5
4B62
330
4B12
100
AcDbEntity
  8
SUNPOU
 62
     0
100
AcDbTrace
 10
4938.651908374506
 20
3442.35226200682
 30
0.0
 11
4938.651908374506
 21
3422.35226200682
 31
0.0
 12
4998.651908374506
 22
3432.35226200682
 32
0.0
 13
4998.651908374506
 23
3432.35226200682
 33
0.0
  0
MTEXT
  5
4B63
330
4B12
100
AcDbEntity
  8
SUNPOU
 62
     0
100
AcDbMText
 10
3858.651908374506
 20
3501.35226200682
 30
0.0
 40
90.0
 41
0.0
 71
     5
 72
     1
  1
\A1;2280
 73
     1
 44
1.0
  0
POINT
  5
4B64
330
4B12
100
AcDbEntity
  8
DEFPOINTS
 62
     0
100
AcDbPoint
 10
2718.651908374505
 20
4112.507559186999
 30
0.0
  0
POINT
  5
4B65
330
4B12
100
AcDbEntity
  8
DEFPOINTS
 62
     0
100
AcDbPoint
 10
4998.651908374506
 20
4112.507559186997
 30
0.0
  0
POINT
  5
4B66
330
4B12
100
AcDbEntity
  8
DEFPOINTS
 62
     0
100
AcDbPoint
 10
4998.651908374506
 20
3432.35226200682
 30
0.0
  0
ENDBLK
  5
4B1D
330
4B12
100
AcDbEntity
  8
0
100
AcDbBlockEnd
  0
BLOCK
  5
4B8D
330
4B83
100
AcDbEntity
  8
0
100
AcDbBlockBegin
  2
*D258
 70
     1
 10
0.0
 20
0.0
 30
0.0
  3
*D258
  1

  0
LINE
  5
4D0D
330
4B83
100
AcDbEntity
  8
SUNPOU
 62
     0
370
    -2
100
AcDbLine
 10
6936.051245672968
 20
750.051693693902
 30
0.0
 11
6552.584147931792
 21
750.0516936939022
 31
0.0
  0
LINE
  5
4D0E
330
4B83
100
AcDbEntity
  8
SUNPOU
 62
     0
370
    -2
100
AcDbLine
 10
6936.051245672969
 20
2310.051693693902
 30
0.0
 11
6552.584147931793
 21
2310.051693693902
 31
0.0
  0
LINE
  5
4D0F
330
4B83
100
AcDbEntity
  8
SUNPOU
 62
     0
370
    -2
100
AcDbLine
 10
6567.584147931792
 20
810.0516936939022
 30
0.0
 11
6567.584147931793
 21
2250.051693693902
 31
0.0
  0
SOLID
  5
4D10
330
4B83
100
AcDbEntity
  8
SUNPOU
 62
     0
100
AcDbTrace
 10
6557.584147931792
 20
810.0516936939022
 30
0.0
 11
6577.584147931792
 21
810.0516936939022
 31
0.0
 12
6567.584147931792
 22
750.0516936939022
 32
0.0
 13
6567.584147931792
 23
750.0516936939022
 33
0.0
  0
SOLID
  5
4D11
330
4B83
100
AcDbEntity
  8
SUNPOU
 62
     0
100
AcDbTrace
 10
6557.584147931793
 20
2250.051693693902
 30
0.0
 11
6577.584147931793
 21
2250.051693693902
 31
0.0
 12
6567.584147931793
 22
2310.051693693902
 32
0.0
 13
6567.584147931793
 23
2310.051693693902
 33
0.0
  0
MTEXT
  5
4D12
330
4B83
100
AcDbEntity
  8
SUNPOU
 62
     0
100
AcDbMText
 10
6498.584147931792
 20
1530.051693693903
 30
0.0
 40
90.0
 41
0.0
 71
     5
 72
     1
  1
\A1;1560
 11
6.123031769111886E-17
 21
1.0
 31
0.0
 73
     1
 44
1.0
  0
POINT
  5
4D13
330
4B83
100
AcDbEntity
  8
DEFPOINTS
 62
     0
100
AcDbPoint
 10
6996.051245672968
 20
750.051693693902
 30
0.0
  0
POINT
  5
4D14
330
4B83
100
AcDbEntity
  8
DEFPOINTS
 62
     0
100
AcDbPoint
 10
6996.051245672969
 20
2310.051693693902
 30
0.0
  0
POINT
  5
4D15
330
4B83
100
AcDbEntity
  8
DEFPOINTS
 62
     0
100
AcDbPoint
 10
6567.584147931793
 20
2310.051693693902
 30
0.0
  0
ENDBLK
  5
4B8E
330
4B83
100
AcDbEntity
  8
0
100
AcDbBlockEnd
  0
BLOCK
  5
4B99
330
4B8F
100
AcDbEntity
  8
0
100
AcDbBlockBegin
  2
*D259
 70
     1
 10
0.0
 20
0.0
 30
0.0
  3
*D259
  1

  0
LINE
  5
4CC4
330
4B8F
100
AcDbEntity
  8
SUNPOU
 62
     0
370
    -2
100
AcDbLine
 10
8496.051245672968
 20
690.051693693902
 30
0.0
 11
8496.051245672968
 21
239.8489147025977
 31
0.0
  0
LINE
  5
4CC5
330
4B8F
100
AcDbEntity
  8
SUNPOU
 62
     0
370
    -2
100
AcDbLine
 10
6996.051245672968
 20
690.051693693902
 30
0.0
 11
6996.051245672968
 21
239.8489147025977
 31
0.0
  0
LINE
  5
4CC6
330
4B8F
100
AcDbEntity
  8
SUNPOU
 62
     0
370
    -2
100
AcDbLine
 10
8436.051245672968
 20
254.8489147025977
 30
0.0
 11
7056.051245672968
 21
254.8489147025977
 31
0.0
  0
SOLID
  5
4CC7
330
4B8F
100
AcDbEntity
  8
SUNPOU
 62
     0
100
AcDbTrace
 10
8436.051245672968
 20
264.8489147025977
 30
0.0
 11
8436.051245672968
 21
244.8489147025977
 31
0.0
 12
8496.051245672968
 22
254.8489147025977
 32
0.0
 13
8496.051245672968
 23
254.8489147025977
 33
0.0
  0
SOLID
  5
4CC8
330
4B8F
100
AcDbEntity
  8
SUNPOU
 62
     0
100
AcDbTrace
 10
7056.051245672968
 20
264.8489147025977
 30
0.0
 11
7056.051245672968
 21
244.8489147025977
 31
0.0
 12
6996.051245672968
 22
254.8489147025977
 32
0.0
 13
6996.051245672968
 23
254.8489147025977
 33
0.0
  0
MTEXT
  5
4CC9
330
4B8F
100
AcDbEntity
  8
SUNPOU
 62
     0
100
AcDbMText
 10
7746.051245672968
 20
323.8489147025977
 30
0.0
 40
90.0
 41
0.0
 71
     5
 72
     1
  1
\A1;1500
 73
     1
 44
1.0
  0
POINT
  5
4CCA
330
4B8F
100
AcDbEntity
  8
DEFPOINTS
 62
     0
100
AcDbPoint
 10
8496.051245672968
 20
750.051693693902
 30
0.0
  0
POINT
  5
4CCB
330
4B8F
100
AcDbEntity
  8
DEFPOINTS
 62
     0
100
AcDbPoint
 10
6996.051245672968
 20
750.051693693902
 30
0.0
  0
POINT
  5
4CCC
330
4B8F
100
AcDbEntity
  8
DEFPOINTS
 62
     0
100
AcDbPoint
 10
6996.051245672968
 20
254.8489147025977
 30
0.0
  0
ENDBLK
  5
4B9A
330
4B8F
100
AcDbEntity
  8
0
100
AcDbBlockEnd
  0
BLOCK
  5
4BA5
330
4B9B
100
AcDbEntity
  8
0
100
AcDbBlockBegin
  2
*D260
 70
     1
 10
0.0
 20
0.0
 30
0.0
  3
*D260
  1

  0
LINE
  5
4CCD
330
4B9B
100
AcDbEntity
  8
SUNPOU
 62
     0
370
    -2
100
AcDbLine
 10
7746.051245672968
 20
690.051693693902
 30
0.0
 11
7746.051245672968
 21
446.5664060525524
 31
0.0
  0
LINE
  5
4CCE
330
4B9B
100
AcDbEntity
  8
SUNPOU
 62
     0
370
    -2
100
AcDbLine
 10
7371.051245672968
 20
690.051693693902
 30
0.0
 11
7371.051245672968
 21
446.5664060525524
 31
0.0
  0
LINE
  5
4CCF
330
4B9B
100
AcDbEntity
  8
SUNPOU
 62
     0
370
    -2
100
AcDbLine
 10
7686.051245672968
 20
461.5664060525524
 30
0.0
 11
7431.051245672968
 21
461.5664060525524
 31
0.0
  0
SOLID
  5
4CD0
330
4B9B
100
AcDbEntity
  8
SUNPOU
 62
     0
100
AcDbTrace
 10
7686.051245672968
 20
471.5664060525524
 30
0.0
 11
7686.051245672968
 21
451.5664060525524
 31
0.0
 12
7746.051245672968
 22
461.5664060525524
 32
0.0
 13
7746.051245672968
 23
461.5664060525524
 33
0.0
  0
SOLID
  5
4CD1
330
4B9B
100
AcDbEntity
  8
SUNPOU
 62
     0
100
AcDbTrace
 10
7431.051245672968
 20
471.5664060525524
 30
0.0
 11
7431.051245672968
 21
451.5664060525524
 31
0.0
 12
7371.051245672968
 22
461.5664060525524
 32
0.0
 13
7371.051245672968
 23
461.5664060525524
 33
0.0
  0
MTEXT
  5
4CD2
330
4B9B
100
AcDbEntity
  8
SUNPOU
 62
     0
100
AcDbMText
 10
7558.551245672968
 20
530.5664060525523
 30
0.0
 40
90.0
 41
0.0
 71
     5
 72
     1
  1
\A1;375
 73
     1
 44
1.0
  0
POINT
  5
4CD3
330
4B9B
100
AcDbEntity
  8
DEFPOINTS
 62
     0
100
AcDbPoint
 10
7746.051245672968
 20
750.051693693902
 30
0.0
  0
POINT
  5
4CD4
330
4B9B
100
AcDbEntity
  8
DEFPOINTS
 62
     0
100
AcDbPoint
 10
7371.051245672968
 20
750.051693693902
 30
0.0
  0
POINT
  5
4CD5
330
4B9B
100
AcDbEntity
  8
DEFPOINTS
 62
     0
100
AcDbPoint
 10
7371.051245672968
 20
461.5664060525524
 30
0.0
  0
ENDBLK
  5
4BA6
330
4B9B
100
AcDbEntity
  8
0
100
AcDbBlockEnd
  0
BLOCK
  5
4BB1
330
4BA7
100
AcDbEntity
  8
0
100
AcDbBlockBegin
  2
*D261
 70
     1
 10
0.0
 20
0.0
 30
0.0
  3
*D261
  1

  0
LINE
  5
4CD6
330
4BA7
100
AcDbEntity
  8
SUNPOU
 62
     0
370
    -2
100
AcDbLine
 10
7371.051245672968
 20
690.051693693902
 30
0.0
 11
7371.051245672968
 21
446.5664060525524
 31
0.0
  0
LINE
  5
4CD7
330
4BA7
100
AcDbEntity
  8
SUNPOU
 62
     0
370
    -2
100
AcDbLine
 10
6996.051245672968
 20
690.051693693902
 30
0.0
 11
6996.051245672968
 21
446.5664060525524
 31
0.0
  0
LINE
  5
4CD8
330
4BA7
100
AcDbEntity
  8
SUNPOU
 62
     0
370
    -2
100
AcDbLine
 10
7311.051245672968
 20
461.5664060525524
 30
0.0
 11
7056.051245672968
 21
461.5664060525524
 31
0.0
  0
SOLID
  5
4CD9
330
4BA7
100
AcDbEntity
  8
SUNPOU
 62
     0
100
AcDbTrace
 10
7311.051245672968
 20
471.5664060525524
 30
0.0
 11
7311.051245672968
 21
451.5664060525524
 31
0.0
 12
7371.051245672968
 22
461.5664060525524
 32
0.0
 13
7371.051245672968
 23
461.5664060525524
 33
0.0
  0
SOLID
  5
4CDA
330
4BA7
100
AcDbEntity
  8
SUNPOU
 62
     0
100
AcDbTrace
 10
7056.051245672968
 20
471.5664060525524
 30
0.0
 11
7056.051245672968
 21
451.5664060525524
 31
0.0
 12
6996.051245672968
 22
461.5664060525524
 32
0.0
 13
6996.051245672968
 23
461.5664060525524
 33
0.0
  0
MTEXT
  5
4CDB
330
4BA7
100
AcDbEntity
  8
SUNPOU
 62
     0
100
AcDbMText
 10
7183.551245672968
 20
530.5664060525523
 30
0.0
 40
90.0
 41
0.0
 71
     5
 72
     1
  1
\A1;375
 73
     1
 44
1.0
  0
POINT
  5
4CDC
330
4BA7
100
AcDbEntity
  8
DEFPOINTS
 62
     0
100
AcDbPoint
 10
7371.051245672968
 20
750.051693693902
 30
0.0
  0
POINT
  5
4CDD
330
4BA7
100
AcDbEntity
  8
DEFPOINTS
 62
     0
100
AcDbPoint
 10
6996.051245672968
 20
750.051693693902
 30
0.0
  0
POINT
  5
4CDE
330
4BA7
100
AcDbEntity
  8
DEFPOINTS
 62
     0
100
AcDbPoint
 10
6996.051245672968
 20
461.5664060525524
 30
0.0
  0
ENDBLK
  5
4BB2
330
4BA7
100
AcDbEntity
  8
0
100
AcDbBlockEnd
  0
BLOCK
  5
4BBD
330
4BB3
100
AcDbEntity
  8
0
100
AcDbBlockBegin
  2
*D262
 70
     1
 10
0.0
 20
0.0
 30
0.0
  3
*D262
  1

  0
LINE
  5
4CDF
330
4BB3
100
AcDbEntity
  8
SUNPOU
 62
     0
370
    -2
100
AcDbLine
 10
8556.051245672968
 20
750.051693693902
 30
0.0
 11
9015.50152772369
 21
750.0516936939019
 31
0.0
  0
LINE
  5
4CE0
330
4BB3
100
AcDbEntity
  8
SUNPOU
 62
     0
370
    -2
100
AcDbLine
 10
8556.051245672968
 20
1010.051693693902
 30
0.0
 11
9015.50152772369
 21
1010.051693693902
 31
0.0
  0
LINE
  5
4CE1
330
4BB3
100
AcDbEntity
  8
SUNPOU
 62
     0
370
    -2
100
AcDbLine
 10
9000.50152772369
 20
810.0516936939019
 30
0.0
 11
9000.50152772369
 21
950.0516936939019
 31
0.0
  0
SOLID
  5
4CE2
330
4BB3
100
AcDbEntity
  8
SUNPOU
 62
     0
100
AcDbTrace
 10
8990.50152772369
 20
810.0516936939019
 30
0.0
 11
9010.50152772369
 21
810.0516936939019
 31
0.0
 12
9000.50152772369
 22
750.0516936939019
 32
0.0
 13
9000.50152772369
 23
750.0516936939019
 33
0.0
  0
SOLID
  5
4CE3
330
4BB3
100
AcDbEntity
  8
SUNPOU
 62
     0
100
AcDbTrace
 10
8990.50152772369
 20
950.0516936939019
 30
0.0
 11
9010.50152772369
 21
950.0516936939019
 31
0.0
 12
9000.50152772369
 22
1010.051693693902
 32
0.0
 13
9000.50152772369
 23
1010.051693693902
 33
0.0
  0
MTEXT
  5
4CE4
330
4BB3
100
AcDbEntity
  8
SUNPOU
 62
     0
100
AcDbMText
 10
8931.50152772369
 20
880.0516936939034
 30
0.0
 40
90.0
 41
0.0
 71
     5
 72
     1
  1
\A1;260
 11
6.123031769111886E-17
 21
1.0
 31
0.0
 73
     1
 44
1.0
  0
POINT
  5
4CE5
330
4BB3
100
AcDbEntity
  8
DEFPOINTS
 62
     0
100
AcDbPoint
 10
8496.051245672968
 20
750.051693693902
 30
0.0
  0
POINT
  5
4CE6
330
4BB3
100
AcDbEntity
  8
DEFPOINTS
 62
     0
100
AcDbPoint
 10
8496.051245672968
 20
1010.051693693902
 30
0.0
  0
POINT
  5
4CE7
330
4BB3
100
AcDbEntity
  8
DEFPOINTS
 62
     0
100
AcDbPoint
 10
9000.50152772369
 20
1010.051693693902
 30
0.0
  0
ENDBLK
  5
4BBE
330
4BB3
100
AcDbEntity
  8
0
100
AcDbBlockEnd
  0
BLOCK
  5
4BC9
330
4BBF
100
AcDbEntity
  8
0
100
AcDbBlockBegin
  2
*D263
 70
     1
 10
0.0
 20
0.0
 30
0.0
  3
*D263
  1

  0
LINE
  5
4CE8
330
4BBF
100
AcDbEntity
  8
SUNPOU
 62
     0
370
    -2
100
AcDbLine
 10
8556.051245672968
 20
750.051693693902
 30
0.0
 11
8821.657316752544
 21
750.051693693902
 31
0.0
  0
LINE
  5
4CE9
330
4BBF
100
AcDbEntity
  8
SUNPOU
 62
     0
370
    -2
100
AcDbLine
 10
8556.051245672968
 20
940.051693693902
 30
0.0
 11
8821.657316752544
 21
940.051693693902
 31
0.0
  0
LINE
  5
4CEA
330
4BBF
100
AcDbEntity
  8
SUNPOU
 62
     0
370
    -2
100
AcDbLine
 10
8806.657316752544
 20
810.051693693902
 30
0.0
 11
8806.657316752544
 21
880.051693693902
 31
0.0
  0
MTEXT
  5
4CEB
330
4BBF
100
AcDbEntity
  8
SUNPOU
 62
     0
100
AcDbMText
 10
8737.657316752544
 20
845.0516936939034
 30
0.0
 40
90.0
 41
0.0
 71
     5
 72
     1
  1
\A1;190
 11
6.123031769111886E-17
 21
1.0
 31
0.0
 73
     1
 44
1.0
  0
SOLID
  5
4CEC
330
4BBF
100
AcDbEntity
  8
SUNPOU
 62
     0
100
AcDbTrace
 10
8796.657316752544
 20
810.051693693902
 30
0.0
 11
8816.657316752544
 21
810.051693693902
 31
0.0
 12
8806.657316752544
 22
750.051693693902
 32
0.0
 13
8806.657316752544
 23
750.051693693902
 33
0.0
  0
SOLID
  5
4CED
330
4BBF
100
AcDbEntity
  8
SUNPOU
 62
     0
100
AcDbTrace
 10
8796.657316752544
 20
880.051693693902
 30
0.0
 11
8816.657316752544
 21
880.051693693902
 31
0.0
 12
8806.657316752544
 22
940.051693693902
 32
0.0
 13
8806.657316752544
 23
940.051693693902
 33
0.0
  0
POINT
  5
4CEE
330
4BBF
100
AcDbEntity
  8
DEFPOINTS
 62
     0
100
AcDbPoint
 10
8496.051245672968
 20
750.051693693902
 30
0.0
  0
POINT
  5
4CEF
330
4BBF
100
AcDbEntity
  8
DEFPOINTS
 62
     0
100
AcDbPoint
 10
8496.051245672968
 20
940.051693693902
 30
0.0
  0
POINT
  5
4CF0
330
4BBF
100
AcDbEntity
  8
DEFPOINTS
 62
     0
100
AcDbPoint
 10
8806.657316752544
 20
940.051693693902
 30
0.0
  0
ENDBLK
  5
4BCA
330
4BBF
100
AcDbEntity
  8
0
100
AcDbBlockEnd
  0
BLOCK
  5
4BD6
330
4BCB
100
AcDbEntity
  8
0
100
AcDbBlockBegin
  2
*D264
 70
     1
 10
0.0
 20
0.0
 30
0.0
  3
*D264
  1

  0
LINE
  5
4CF1
330
4BCB
100
AcDbEntity
  8
SUNPOU
 62
     0
370
    -2
100
AcDbLine
 10
8556.051245672968
 20
940.051693693902
 30
0.0
 11
8821.657316752544
 21
940.051693693902
 31
0.0
  0
LINE
  5
4CF2
330
4BCB
100
AcDbEntity
  8
SUNPOU
 62
     0
370
    -2
100
AcDbLine
 10
8556.051245672968
 20
1010.051693693902
 30
0.0
 11
8821.657316752544
 21
1010.051693693902
 31
0.0
  0
LINE
  5
4CF3
330
4BCB
100
AcDbEntity
  8
SUNPOU
 62
     0
370
    -2
100
AcDbLine
 10
8806.657316752544
 20
880.051693693902
 30
0.0
 11
8806.657316752544
 21
820.051693693902
 31
0.0
  0
LINE
  5
4CF4
330
4BCB
100
AcDbEntity
  8
SUNPOU
 62
     0
370
    -2
100
AcDbLine
 10
8806.657316752544
 20
1070.051693693902
 30
0.0
 11
8806.657316752544
 21
1130.051693693902
 31
0.0
  0
MTEXT
  5
4CF5
330
4BCB
100
AcDbEntity
  8
SUNPOU
 62
     0
100
AcDbMText
 10
8737.657316752544
 20
1003.695888850381
 30
0.0
 40
90.0
 41
0.0
 71
     5
 72
     1
  1
\A1;70
 11
6.123031769111886E-17
 21
1.0
 31
0.0
 73
     1
 44
1.0
  0
SOLID
  5
4CF6
330
4BCB
100
AcDbEntity
  8
SUNPOU
 62
     0
100
AcDbTrace
 10
8796.657316752544
 20
880.051693693902
 30
0.0
 11
8816.657316752544
 21
880.051693693902
 31
0.0
 12
8806.657316752544
 22
940.051693693902
 32
0.0
 13
8806.657316752544
 23
940.051693693902
 33
0.0
  0
SOLID
  5
4CF7
330
4BCB
100
AcDbEntity
  8
SUNPOU
 62
     0
100
AcDbTrace
 10
8796.657316752544
 20
1070.051693693902
 30
0.0
 11
8816.657316752544
 21
1070.051693693902
 31
0.0
 12
8806.657316752544
 22
1010.051693693902
 32
0.0
 13
8806.657316752544
 23
1010.051693693902
 33
0.0
  0
POINT
  5
4CF8
330
4BCB
100
AcDbEntity
  8
DEFPOINTS
 62
     0
100
AcDbPoint
 10
8496.051245672968
 20
940.051693693902
 30
0.0
  0
POINT
  5
4CF9
330
4BCB
100
AcDbEntity
  8
DEFPOINTS
 62
     0
100
AcDbPoint
 10
8496.051245672968
 20
1010.051693693902
 30
0.0
  0
POINT
  5
4CFA
330
4BCB
100
AcDbEntity
  8
DEFPOINTS
 62
     0
100
AcDbPoint
 10
8806.657316752544
 20
1010.051693693902
 30
0.0
  0
ENDBLK
  5
4BD7
330
4BCB
100
AcDbEntity
  8
0
100
AcDbBlockEnd
  0
BLOCK
  5
4BE2
330
4BD8
100
AcDbEntity
  8
0
100
AcDbBlockBegin
  2
*D265
 70
     1
 10
0.0
 20
0.0
 30
0.0
  3
*D265
  1

  0
LINE
  5
4CFB
330
4BD8
100
AcDbEntity
  8
SUNPOU
 62
     0
370
    -2
100
AcDbLine
 10
7746.051245672968
 20
690.051693693902
 30
0.0
 11
7746.051245672968
 21
446.5664060525524
 31
0.0
  0
LINE
  5
4CFC
330
4BD8
100
AcDbEntity
  8
SUNPOU
 62
     0
370
    -2
100
AcDbLine
 10
8121.051245672968
 20
690.051693693902
 30
0.0
 11
8121.051245672968
 21
446.5664060525524
 31
0.0
  0
LINE
  5
4CFD
330
4BD8
100
AcDbEntity
  8
SUNPOU
 62
     0
370
    -2
100
AcDbLine
 10
7806.051245672968
 20
461.5664060525524
 30
0.0
 11
8061.051245672968
 21
461.5664060525524
 31
0.0
  0
SOLID
  5
4CFE
330
4BD8
100
AcDbEntity
  8
SUNPOU
 62
     0
100
AcDbTrace
 10
7806.051245672968
 20
471.5664060525524
 30
0.0
 11
7806.051245672968
 21
451.5664060525524
 31
0.0
 12
7746.051245672968
 22
461.5664060525524
 32
0.0
 13
7746.051245672968
 23
461.5664060525524
 33
0.0
  0
SOLID
  5
4CFF
330
4BD8
100
AcDbEntity
  8
SUNPOU
 62
     0
100
AcDbTrace
 10
8061.051245672968
 20
471.5664060525524
 30
0.0
 11
8061.051245672968
 21
451.5664060525524
 31
0.0
 12
8121.051245672968
 22
461.5664060525524
 32
0.0
 13
8121.051245672968
 23
461.5664060525524
 33
0.0
  0
MTEXT
  5
4D00
330
4BD8
100
AcDbEntity
  8
SUNPOU
 62
     0
100
AcDbMText
 10
7933.551245672968
 20
530.5664060525523
 30
0.0
 40
90.0
 41
0.0
 71
     5
 72
     1
  1
\A1;375
 73
     1
 44
1.0
  0
POINT
  5
4D01
330
4BD8
100
AcDbEntity
  8
DEFPOINTS
 62
     0
100
AcDbPoint
 10
7746.051245672968
 20
750.051693693902
 30
0.0
  0
POINT
  5
4D02
330
4BD8
100
AcDbEntity
  8
DEFPOINTS
 62
     0
100
AcDbPoint
 10
8121.051245672968
 20
750.051693693902
 30
0.0
  0
POINT
  5
4D03
330
4BD8
100
AcDbEntity
  8
DEFPOINTS
 62
     0
100
AcDbPoint
 10
8121.051245672968
 20
461.5664060525524
 30
0.0
  0
ENDBLK
  5
4BE3
330
4BD8
100
AcDbEntity
  8
0
100
AcDbBlockEnd
  0
BLOCK
  5
4BEE
330
4BE4
100
AcDbEntity
  8
0
100
AcDbBlockBegin
  2
*D266
 70
     1
 10
0.0
 20
0.0
 30
0.0
  3
*D266
  1

  0
LINE
  5
4D04
330
4BE4
100
AcDbEntity
  8
SUNPOU
 62
     0
370
    -2
100
AcDbLine
 10
8121.051245672968
 20
690.051693693902
 30
0.0
 11
8121.051245672968
 21
446.5664060525524
 31
0.0
  0
LINE
  5
4D05
330
4BE4
100
AcDbEntity
  8
SUNPOU
 62
     0
370
    -2
100
AcDbLine
 10
8496.051245672968
 20
690.051693693902
 30
0.0
 11
8496.051245672968
 21
446.5664060525524
 31
0.0
  0
LINE
  5
4D06
330
4BE4
100
AcDbEntity
  8
SUNPOU
 62
     0
370
    -2
100
AcDbLine
 10
8181.051245672968
 20
461.5664060525524
 30
0.0
 11
8436.051245672968
 21
461.5664060525524
 31
0.0
  0
SOLID
  5
4D07
330
4BE4
100
AcDbEntity
  8
SUNPOU
 62
     0
100
AcDbTrace
 10
8181.051245672968
 20
471.5664060525524
 30
0.0
 11
8181.051245672968
 21
451.5664060525524
 31
0.0
 12
8121.051245672968
 22
461.5664060525524
 32
0.0
 13
8121.051245672968
 23
461.5664060525524
 33
0.0
  0
SOLID
  5
4D08
330
4BE4
100
AcDbEntity
  8
SUNPOU
 62
     0
100
AcDbTrace
 10
8436.051245672968
 20
471.5664060525524
 30
0.0
 11
8436.051245672968
 21
451.5664060525524
 31
0.0
 12
8496.051245672968
 22
461.5664060525524
 32
0.0
 13
8496.051245672968
 23
461.5664060525524
 33
0.0
  0
MTEXT
  5
4D09
330
4BE4
100
AcDbEntity
  8
SUNPOU
 62
     0
100
AcDbMText
 10
8308.551245672968
 20
530.5664060525523
 30
0.0
 40
90.0
 41
0.0
 71
     5
 72
     1
  1
\A1;375
 73
     1
 44
1.0
  0
POINT
  5
4D0A
330
4BE4
100
AcDbEntity
  8
DEFPOINTS
 62
     0
100
AcDbPoint
 10
8121.051245672968
 20
750.051693693902
 30
0.0
  0
POINT
  5
4D0B
330
4BE4
100
AcDbEntity
  8
DEFPOINTS
 62
     0
100
AcDbPoint
 10
8496.051245672968
 20
750.051693693902
 30
0.0
  0
POINT
  5
4D0C
330
4BE4
100
AcDbEntity
  8
DEFPOINTS
 62
     0
100
AcDbPoint
 10
8496.051245672968
 20
461.5664060525524
 30
0.0
  0
ENDBLK
  5
4BEF
330
4BE4
100
AcDbEntity
  8
0
100
AcDbBlockEnd
  0
BLOCK
  5
4D39
330
4D2F
100
AcDbEntity
  8
0
100
AcDbBlockBegin
  2
*D267
 70
     1
 10
0.0
 20
0.0
 30
0.0
  3
*D267
  1

  0
LINE
  5
4D84
330
4D2F
100
AcDbEntity
  8
SUNPOU
 62
     0
370
    -2
100
AcDbLine
 10
2658.651908374504
 20
2440.832596245578
 30
0.0
 11
2159.379025583341
 21
2440.832596245578
 31
0.0
  0
LINE
  5
4D85
330
4D2F
100
AcDbEntity
  8
SUNPOU
 62
     0
370
    -2
100
AcDbLine
 10
2658.651908374503
 20
940.8325962455783
 30
0.0
 11
2159.379025583341
 21
940.8325962455784
 31
0.0
  0
LINE
  5
4D86
330
4D2F
100
AcDbEntity
  8
SUNPOU
 62
     0
370
    -2
100
AcDbLine
 10
2174.379025583341
 20
2380.832596245578
 30
0.0
 11
2174.379025583341
 21
1000.832596245578
 31
0.0
  0
SOLID
  5
4D87
330
4D2F
100
AcDbEntity
  8
SUNPOU
 62
     0
100
AcDbTrace
 10
2164.379025583341
 20
2380.832596245578
 30
0.0
 11
2184.379025583341
 21
2380.832596245578
 31
0.0
 12
2174.379025583341
 22
2440.832596245578
 32
0.0
 13
2174.379025583341
 23
2440.832596245578
 33
0.0
  0
SOLID
  5
4D88
330
4D2F
100
AcDbEntity
  8
SUNPOU
 62
     0
100
AcDbTrace
 10
2164.379025583341
 20
1000.832596245578
 30
0.0
 11
2184.379025583341
 21
1000.832596245578
 31
0.0
 12
2174.379025583341
 22
940.8325962455784
 32
0.0
 13
2174.379025583341
 23
940.8325962455784
 33
0.0
  0
MTEXT
  5
4D89
330
4D2F
100
AcDbEntity
  8
SUNPOU
 62
     0
100
AcDbMText
 10
2105.379025583341
 20
1690.832596245579
 30
0.0
 40
90.0
 41
0.0
 71
     5
 72
     1
  1
\A1;1500
 11
6.123031769111886E-17
 21
1.0
 31
0.0
 73
     1
 44
1.0
  0
POINT
  5
4D8A
330
4D2F
100
AcDbEntity
  8
DEFPOINTS
 62
     0
100
AcDbPoint
 10
2718.651908374504
 20
2440.832596245578
 30
0.0
  0
POINT
  5
4D8B
330
4D2F
100
AcDbEntity
  8
DEFPOINTS
 62
     0
100
AcDbPoint
 10
2718.651908374503
 20
940.8325962455783
 30
0.0
  0
POINT
  5
4D8C
330
4D2F
100
AcDbEntity
  8
DEFPOINTS
 62
     0
100
AcDbPoint
 10
2174.379025583341
 20
940.8325962455784
 30
0.0
  0
ENDBLK
  5
4D3A
330
4D2F
100
AcDbEntity
  8
0
100
AcDbBlockEnd
  0
BLOCK
  5
4D45
330
4D3B
100
AcDbEntity
  8
0
100
AcDbBlockBegin
  2
*D268
 70
     1
 10
0.0
 20
0.0
 30
0.0
  3
*D268
  1

  0
LINE
  5
4D8D
330
4D3B
100
AcDbEntity
  8
SUNPOU
 62
     0
370
    -2
100
AcDbLine
 10
2718.651908374504
 20
880.8325962455788
 30
0.0
 11
2718.651908374504
 21
469.9005006389598
 31
0.0
  0
LINE
  5
4D8E
330
4D3B
100
AcDbEntity
  8
SUNPOU
 62
     0
370
    -2
100
AcDbLine
 10
3318.651908374501
 20
880.8325962455788
 30
0.0
 11
3318.651908374501
 21
469.9005006389598
 31
0.0
  0
LINE
  5
4D8F
330
4D3B
100
AcDbEntity
  8
SUNPOU
 62
     0
370
    -2
100
AcDbLine
 10
2778.651908374504
 20
484.9005006389598
 30
0.0
 11
3258.651908374501
 21
484.9005006389598
 31
0.0
  0
SOLID
  5
4D90
330
4D3B
100
AcDbEntity
  8
SUNPOU
 62
     0
100
AcDbTrace
 10
2778.651908374504
 20
494.9005006389598
 30
0.0
 11
2778.651908374504
 21
474.9005006389598
 31
0.0
 12
2718.651908374504
 22
484.9005006389598
 32
0.0
 13
2718.651908374504
 23
484.9005006389598
 33
0.0
  0
SOLID
  5
4D91
330
4D3B
100
AcDbEntity
  8
SUNPOU
 62
     0
100
AcDbTrace
 10
3258.651908374501
 20
494.9005006389598
 30
0.0
 11
3258.651908374501
 21
474.9005006389598
 31
0.0
 12
3318.651908374501
 22
484.9005006389598
 32
0.0
 13
3318.651908374501
 23
484.9005006389598
 33
0.0
  0
MTEXT
  5
4D92
330
4D3B
100
AcDbEntity
  8
SUNPOU
 62
     0
100
AcDbMText
 10
3018.651908374502
 20
553.9005006389598
 30
0.0
 40
90.0
 41
0.0
 71
     5
 72
     1
  1
\A1;600
 73
     1
 44
1.0
  0
POINT
  5
4D93
330
4D3B
100
AcDbEntity
  8
DEFPOINTS
 62
     0
100
AcDbPoint
 10
2718.651908374504
 20
940.8325962455788
 30
0.0
  0
POINT
  5
4D94
330
4D3B
100
AcDbEntity
  8
DEFPOINTS
 62
     0
100
AcDbPoint
 10
3318.651908374501
 20
940.8325962455788
 30
0.0
  0
POINT
  5
4D95
330
4D3B
100
AcDbEntity
  8
DEFPOINTS
 62
     0
100
AcDbPoint
 10
3318.651908374501
 20
484.9005006389598
 30
0.0
  0
ENDBLK
  5
4D46
330
4D3B
100
AcDbEntity
  8
0
100
AcDbBlockEnd
  0
BLOCK
  5
4D51
330
4D47
100
AcDbEntity
  8
0
100
AcDbBlockBegin
  2
*D269
 70
     1
 10
0.0
 20
0.0
 30
0.0
  3
*D269
  1

  0
LINE
  5
4D96
330
4D47
100
AcDbEntity
  8
SUNPOU
 62
     0
370
    -2
100
AcDbLine
 10
3318.651908374501
 20
880.8325962455788
 30
0.0
 11
3318.651908374501
 21
469.9005006389598
 31
0.0
  0
LINE
  5
4D97
330
4D47
100
AcDbEntity
  8
SUNPOU
 62
     0
370
    -2
100
AcDbLine
 10
3718.651908374504
 20
880.8325962455788
 30
0.0
 11
3718.651908374504
 21
469.9005006389598
 31
0.0
  0
LINE
  5
4D98
330
4D47
100
AcDbEntity
  8
SUNPOU
 62
     0
370
    -2
100
AcDbLine
 10
3378.651908374501
 20
484.9005006389598
 30
0.0
 11
3658.651908374504
 21
484.9005006389598
 31
0.0
  0
SOLID
  5
4D99
330
4D47
100
AcDbEntity
  8
SUNPOU
 62
     0
100
AcDbTrace
 10
3378.651908374501
 20
494.9005006389598
 30
0.0
 11
3378.651908374501
 21
474.9005006389598
 31
0.0
 12
3318.651908374501
 22
484.9005006389598
 32
0.0
 13
3318.651908374501
 23
484.9005006389598
 33
0.0
  0
SOLID
  5
4D9A
330
4D47
100
AcDbEntity
  8
SUNPOU
 62
     0
100
AcDbTrace
 10
3658.651908374504
 20
494.9005006389598
 30
0.0
 11
3658.651908374504
 21
474.9005006389598
 31
0.0
 12
3718.651908374504
 22
484.9005006389598
 32
0.0
 13
3718.651908374504
 23
484.9005006389598
 33
0.0
  0
MTEXT
  5
4D9B
330
4D47
100
AcDbEntity
  8
SUNPOU
 62
     0
100
AcDbMText
 10
3518.651908374502
 20
553.9005006389598
 30
0.0
 40
90.0
 41
0.0
 71
     5
 72
     1
  1
\A1;400
 73
     1
 44
1.0
  0
POINT
  5
4D9C
330
4D47
100
AcDbEntity
  8
DEFPOINTS
 62
     0
100
AcDbPoint
 10
3318.651908374501
 20
940.8325962455788
 30
0.0
  0
POINT
  5
4D9D
330
4D47
100
AcDbEntity
  8
DEFPOINTS
 62
     0
100
AcDbPoint
 10
3718.651908374504
 20
940.8325962455788
 30
0.0
  0
POINT
  5
4D9E
330
4D47
100
AcDbEntity
  8
DEFPOINTS
 62
     0
100
AcDbPoint
 10
3718.651908374504
 20
484.9005006389598
 30
0.0
  0
ENDBLK
  5
4D52
330
4D47
100
AcDbEntity
  8
0
100
AcDbBlockEnd
  0
BLOCK
  5
4D5D
330
4D53
100
AcDbEntity
  8
0
100
AcDbBlockBegin
  2
*D270
 70
     1
 10
0.0
 20
0.0
 30
0.0
  3
*D270
  1

  0
LINE
  5
4DC4
330
4D53
100
AcDbEntity
  8
SUNPOU
 62
     0
370
    -2
100
AcDbLine
 10
3718.651908374504
 20
880.8325962455788
 30
0.0
 11
3718.651908374504
 21
469.9005006389598
 31
0.0
  0
LINE
  5
4DC5
330
4D53
100
AcDbEntity
  8
SUNPOU
 62
     0
370
    -2
100
AcDbLine
 10
4998.651908374507
 20
947.914553727871
 30
0.0
 11
4998.651908374507
 21
469.9005006389598
 31
0.0
  0
LINE
  5
4DC6
330
4D53
100
AcDbEntity
  8
SUNPOU
 62
     0
370
    -2
100
AcDbLine
 10
3778.651908374504
 20
484.9005006389598
 30
0.0
 11
4938.651908374507
 21
484.9005006389598
 31
0.0
  0
SOLID
  5
4DC7
330
4D53
100
AcDbEntity
  8
SUNPOU
 62
     0
100
AcDbTrace
 10
3778.651908374504
 20
494.9005006389598
 30
0.0
 11
3778.651908374504
 21
474.9005006389598
 31
0.0
 12
3718.651908374504
 22
484.9005006389598
 32
0.0
 13
3718.651908374504
 23
484.9005006389598
 33
0.0
  0
SOLID
  5
4DC8
330
4D53
100
AcDbEntity
  8
SUNPOU
 62
     0
100
AcDbTrace
 10
4938.651908374507
 20
494.9005006389598
 30
0.0
 11
4938.651908374507
 21
474.9005006389598
 31
0.0
 12
4998.651908374507
 22
484.9005006389598
 32
0.0
 13
4998.651908374507
 23
484.9005006389598
 33
0.0
  0
MTEXT
  5
4DC9
330
4D53
100
AcDbEntity
  8
SUNPOU
 62
     0
100
AcDbMText
 10
4358.651908374506
 20
553.9005006389598
 30
0.0
 40
90.0
 41
0.0
 71
     5
 72
     1
  1
\A1;1280
 73
     1
 44
1.0
  0
POINT
  5
4DCA
330
4D53
100
AcDbEntity
  8
DEFPOINTS
 62
     0
100
AcDbPoint
 10
3718.651908374504
 20
940.8325962455788
 30
0.0
  0
POINT
  5
4DCB
330
4D53
100
AcDbEntity
  8
DEFPOINTS
 62
     0
100
AcDbPoint
 10
4998.651908374507
 20
1007.914553727871
 30
0.0
  0
POINT
  5
4DCC
330
4D53
100
AcDbEntity
  8
DEFPOINTS
 62
     0
100
AcDbPoint
 10
4998.651908374507
 20
484.9005006389598
 30
0.0
  0
ENDBLK
  5
4D5E
330
4D53
100
AcDbEntity
  8
0
100
AcDbBlockEnd
  0
BLOCK
  5
4D69
330
4D5F
100
AcDbEntity
  8
0
100
AcDbBlockBegin
  2
*D271
 70
     1
 10
0.0
 20
0.0
 30
0.0
  3
*D271
  1

  0
LINE
  5
4DA8
330
4D5F
100
AcDbEntity
  8
SUNPOU
 62
     0
370
    -2
100
AcDbLine
 10
3318.651908374501
 20
880.8325962455788
 30
0.0
 11
3318.651908374501
 21
655.7616525464146
 31
0.0
  0
LINE
  5
4DA9
330
4D5F
100
AcDbEntity
  8
SUNPOU
 62
     0
370
    -2
100
AcDbLine
 10
3618.651908374504
 20
880.8325962455783
 30
0.0
 11
3618.651908374504
 21
655.7616525464146
 31
0.0
  0
LINE
  5
4DAA
330
4D5F
100
AcDbEntity
  8
SUNPOU
 62
     0
370
    -2
100
AcDbLine
 10
3378.651908374501
 20
670.7616525464146
 30
0.0
 11
3558.651908374504
 21
670.7616525464146
 31
0.0
  0
SOLID
  5
4DAB
330
4D5F
100
AcDbEntity
  8
SUNPOU
 62
     0
100
AcDbTrace
 10
3378.651908374501
 20
680.7616525464146
 30
0.0
 11
3378.651908374501
 21
660.7616525464146
 31
0.0
 12
3318.651908374501
 22
670.7616525464146
 32
0.0
 13
3318.651908374501
 23
670.7616525464146
 33
0.0
  0
SOLID
  5
4DAC
330
4D5F
100
AcDbEntity
  8
SUNPOU
 62
     0
100
AcDbTrace
 10
3558.651908374504
 20
680.7616525464146
 30
0.0
 11
3558.651908374504
 21
660.7616525464146
 31
0.0
 12
3618.651908374504
 22
670.7616525464146
 32
0.0
 13
3618.651908374504
 23
670.7616525464146
 33
0.0
  0
MTEXT
  5
4DAD
330
4D5F
100
AcDbEntity
  8
SUNPOU
 62
     0
100
AcDbMText
 10
3468.651908374502
 20
739.7616525464146
 30
0.0
 40
90.0
 41
0.0
 71
     5
 72
     1
  1
\A1;300
 73
     1
 44
1.0
  0
POINT
  5
4DAE
330
4D5F
100
AcDbEntity
  8
DEFPOINTS
 62
     0
100
AcDbPoint
 10
3318.651908374501
 20
940.8325962455788
 30
0.0
  0
POINT
  5
4DAF
330
4D5F
100
AcDbEntity
  8
DEFPOINTS
 62
     0
100
AcDbPoint
 10
3618.651908374504
 20
940.8325962455783
 30
0.0
  0
POINT
  5
4DB0
330
4D5F
100
AcDbEntity
  8
DEFPOINTS
 62
     0
100
AcDbPoint
 10
3618.651908374504
 20
670.7616525464146
 30
0.0
  0
ENDBLK
  5
4D6A
330
4D5F
100
AcDbEntity
  8
0
100
AcDbBlockEnd
  0
BLOCK
  5
4D76
330
4D6B
100
AcDbEntity
  8
0
100
AcDbBlockBegin
  2
*D272
 70
     1
 10
0.0
 20
0.0
 30
0.0
  3
*D272
  1

  0
LINE
  5
4DB1
330
4D6B
100
AcDbEntity
  8
SUNPOU
 62
     0
370
    -2
100
AcDbLine
 10
3618.651908374504
 20
880.8325962455783
 30
0.0
 11
3618.651908374504
 21
655.7616525464146
 31
0.0
  0
LINE
  5
4DB2
330
4D6B
100
AcDbEntity
  8
SUNPOU
 62
     0
370
    -2
100
AcDbLine
 10
3718.651908374504
 20
880.8325962455788
 30
0.0
 11
3718.651908374504
 21
655.7616525464146
 31
0.0
  0
LINE
  5
4DB3
330
4D6B
100
AcDbEntity
  8
SUNPOU
 62
     0
370
    -2
100
AcDbLine
 10
3558.651908374504
 20
670.7616525464146
 30
0.0
 11
3498.651908374504
 21
670.7616525464146
 31
0.0
  0
LINE
  5
4DB4
330
4D6B
100
AcDbEntity
  8
SUNPOU
 62
     0
370
    -2
100
AcDbLine
 10
3778.651908374504
 20
670.7616525464146
 30
0.0
 11
3838.651908374504
 21
670.7616525464146
 31
0.0
  0
MTEXT
  5
4DB5
330
4D6B
100
AcDbEntity
  8
SUNPOU
 62
     0
100
AcDbMText
 10
3705.575744719517
 20
739.7616525464146
 30
0.0
 40
90.0
 41
0.0
 71
     5
 72
     1
  1
\A1;100
 73
     1
 44
1.0
  0
SOLID
  5
4DB6
330
4D6B
100
AcDbEntity
  8
SUNPOU
 62
     0
100
AcDbTrace
 10
3558.651908374504
 20
680.7616525464146
 30
0.0
 11
3558.651908374504
 21
660.7616525464146
 31
0.0
 12
3618.651908374504
 22
670.7616525464146
 32
0.0
 13
3618.651908374504
 23
670.7616525464146
 33
0.0
  0
SOLID
  5
4DB7
330
4D6B
100
AcDbEntity
  8
SUNPOU
 62
     0
100
AcDbTrace
 10
3778.651908374504
 20
680.7616525464146
 30
0.0
 11
3778.651908374504
 21
660.7616525464146
 31
0.0
 12
3718.651908374504
 22
670.7616525464146
 32
0.0
 13
3718.651908374504
 23
670.7616525464146
 33
0.0
  0
POINT
  5
4DB8
330
4D6B
100
AcDbEntity
  8
DEFPOINTS
 62
     0
100
AcDbPoint
 10
3618.651908374504
 20
940.8325962455783
 30
0.0
  0
POINT
  5
4DB9
330
4D6B
100
AcDbEntity
  8
DEFPOINTS
 62
     0
100
AcDbPoint
 10
3718.651908374504
 20
940.8325962455788
 30
0.0
  0
POINT
  5
4DBA
330
4D6B
100
AcDbEntity
  8
DEFPOINTS
 62
     0
100
AcDbPoint
 10
3718.651908374504
 20
670.7616525464146
 30
0.0
  0
ENDBLK
  5
4D77
330
4D6B
100
AcDbEntity
  8
0
100
AcDbBlockEnd
  0
BLOCK
  5
4D82
330
4D78
100
AcDbEntity
  8
0
100
AcDbBlockBegin
  2
*D273
 70
     1
 10
0.0
 20
0.0
 30
0.0
  3
*D273
  1

  0
LINE
  5
4DCD
330
4D78
100
AcDbEntity
  8
SUNPOU
 62
     0
370
    -2
100
AcDbLine
 10
2718.651908374504
 20
880.8325962455792
 30
0.0
 11
2718.651908374504
 21
260.6945399760152
 31
0.0
  0
LINE
  5
4DCE
330
4D78
100
AcDbEntity
  8
SUNPOU
 62
     0
370
    -2
100
AcDbLine
 10
4998.651908374507
 20
947.914553727871
 30
0.0
 11
4998.651908374507
 21
260.6945399760152
 31
0.0
  0
LINE
  5
4DCF
330
4D78
100
AcDbEntity
  8
SUNPOU
 62
     0
370
    -2
100
AcDbLine
 10
2778.651908374504
 20
275.6945399760152
 30
0.0
 11
4938.651908374507
 21
275.6945399760152
 31
0.0
  0
SOLID
  5
4DD0
330
4D78
100
AcDbEntity
  8
SUNPOU
 62
     0
100
AcDbTrace
 10
2778.651908374504
 20
285.6945399760152
 30
0.0
 11
2778.651908374504
 21
265.6945399760152
 31
0.0
 12
2718.651908374504
 22
275.6945399760152
 32
0.0
 13
2718.651908374504
 23
275.6945399760152
 33
0.0
  0
SOLID
  5
4DD1
330
4D78
100
AcDbEntity
  8
SUNPOU
 62
     0
100
AcDbTrace
 10
4938.651908374507
 20
285.6945399760152
 30
0.0
 11
4938.651908374507
 21
265.6945399760152
 31
0.0
 12
4998.651908374507
 22
275.6945399760152
 32
0.0
 13
4998.651908374507
 23
275.6945399760152
 33
0.0
  0
MTEXT
  5
4DD2
330
4D78
100
AcDbEntity
  8
SUNPOU
 62
     0
100
AcDbMText
 10
3858.651908374506
 20
344.6945399760152
 30
0.0
 40
90.0
 41
0.0
 71
     5
 72
     1
  1
\A1;2280
 73
     1
 44
1.0
  0
POINT
  5
4DD3
330
4D78
100
AcDbEntity
  8
DEFPOINTS
 62
     0
100
AcDbPoint
 10
2718.651908374504
 20
940.8325962455792
 30
0.0
  0
POINT
  5
4DD4
330
4D78
100
AcDbEntity
  8
DEFPOINTS
 62
     0
100
AcDbPoint
 10
4998.651908374507
 20
1007.914553727871
 30
0.0
  0
POINT
  5
4DD5
330
4D78
100
AcDbEntity
  8
DEFPOINTS
 62
     0
100
AcDbPoint
 10
4998.651908374507
 20
275.6945399760152
 30
0.0
  0
ENDBLK
  5
4D83
330
4D78
100
AcDbEntity
  8
0
100
AcDbBlockEnd
  0
BLOCK
  5
4DE1
330
4DD7
100
AcDbEntity
  8
0
100
AcDbBlockBegin
  2
*D274
 70
     1
 10
0.0
 20
0.0
 30
0.0
  3
*D274
  1

  0
LINE
  5
4DD8
330
4DD7
100
AcDbEntity
  8
SUNPOU
 62
     0
370
    -2
100
AcDbLine
 10
5058.651908374507
 20
2373.750638763286
 30
0.0
 11
5388.488435503067
 21
2373.750638763286
 31
0.0
  0
LINE
  5
4DD9
330
4DD7
100
AcDbEntity
  8
SUNPOU
 62
     0
370
    -2
100
AcDbLine
 10
5058.651908374507
 20
1007.914553727871
 30
0.0
 11
5388.488435503066
 21
1007.914553727871
 31
0.0
  0
LINE
  5
4DDA
330
4DD7
100
AcDbEntity
  8
SUNPOU
 62
     0
370
    -2
100
AcDbLine
 10
5373.488435503067
 20
2313.750638763286
 30
0.0
 11
5373.488435503066
 21
1067.914553727871
 31
0.0
  0
SOLID
  5
4DDB
330
4DD7
100
AcDbEntity
  8
SUNPOU
 62
     0
100
AcDbTrace
 10
5363.488435503067
 20
2313.750638763286
 30
0.0
 11
5383.488435503067
 21
2313.750638763286
 31
0.0
 12
5373.488435503067
 22
2373.750638763286
 32
0.0
 13
5373.488435503067
 23
2373.750638763286
 33
0.0
  0
SOLID
  5
4DDC
330
4DD7
100
AcDbEntity
  8
SUNPOU
 62
     0
100
AcDbTrace
 10
5363.488435503066
 20
1067.914553727871
 30
0.0
 11
5383.488435503066
 21
1067.914553727871
 31
0.0
 12
5373.488435503066
 22
1007.914553727871
 32
0.0
 13
5373.488435503066
 23
1007.914553727871
 33
0.0
  0
MTEXT
  5
4DDD
330
4DD7
100
AcDbEntity
  8
SUNPOU
 62
     0
100
AcDbMText
 10
5304.488435503066
 20
1690.832596245579
 30
0.0
 40
90.0
 41
0.0
 71
     5
 72
     1
  1
\A1;1366
 11
6.123031769111886E-17
 21
1.0
 31
0.0
 73
     1
 44
1.0
  0
POINT
  5
4DDE
330
4DD7
100
AcDbEntity
  8
DEFPOINTS
 62
     0
100
AcDbPoint
 10
4998.651908374507
 20
2373.750638763286
 30
0.0
  0
POINT
  5
4DDF
330
4DD7
100
AcDbEntity
  8
DEFPOINTS
 62
     0
100
AcDbPoint
 10
4998.651908374507
 20
1007.914553727871
 30
0.0
  0
POINT
  5
4DE0
330
4DD7
100
AcDbEntity
  8
DEFPOINTS
 62
     0
100
AcDbPoint
 10
5373.488435503066
 20
1007.914553727871
 30
0.0
  0
ENDBLK
  5
4DE2
330
4DD7
100
AcDbEntity
  8
0
100
AcDbBlockEnd
  0
ENDSEC
  0
SECTION
  2
ENTITIES
  0
TEXT
  5
5F
330
17
100
AcDbEntity
  8
SUNPOU
100
AcDbText
 10
11549.99999999999
 20
480.0
 30
0.0
 40
90.0
  1
30
100
AcDbText
  0
INSERT
  5
60
330
17
100
AcDbEntity
  8
HAIKIN
100
AcDbBlockReference
  2
SA3
 10
510.0
 20
0.0
 30
0.0
 41
30.0
 42
30.0
 43
30.0
  0
TEXT
  5
DF0
330
17
100
AcDbEntity
  8
SUNPOU
100
AcDbText
 10
10254.6554840521
 20
955.0091157608263
 30
0.0
 40
78.0
  1
ロードエル
100
AcDbText
  0
TEXT
  5
DF1
330
17
100
AcDbEntity
  8
SUNPOU
100
AcDbText
 10
10769.86850892367
 20
955.0091157608263
 30
0.0
 40
78.0
  1
Ｈ＝３０００
100
AcDbText
  0
TEXT
  5
DF2
330
17
100
AcDbEntity
  8
SUNPOU
100
AcDbText
 10
11495.22849743578
 20
955.0091157608263
 30
0.0
 40
78.0
  1
(μ=0.6)
 41
0.8
100
AcDbText
  0
LINE
  5
44D3
330
17
100
AcDbEntity
  8
SEIHIN
100
AcDbLine
 10
6996.051245672968
 20
940.051693693902
 30
0.0
 11
8496.051245672968
 21
940.051693693902
 31
0.0
  0
LINE
  5
44D4
330
17
100
AcDbEntity
  8
SEIHIN
100
AcDbLine
 10
6996.051245672968
 20
1010.051693693902
 30
0.0
 11
8496.051245672968
 21
1010.051693693902
 31
0.0
  0
LWPOLYLINE
  5
44D5
330
17
100
AcDbEntity
  8
SEIHIN
100
AcDbPolyline
 90
        2
 70
     0
 43
0.0
 10
6996.051245672968
 20
2310.051693693902
 10
8496.051245672968
 20
2310.051693693902
  0
LWPOLYLINE
  5
44D6
330
17
100
AcDbEntity
  8
SUNPOU
100
AcDbPolyline
 90
        2
 70
     0
 43
0.0
 10
6998.671634637119
 20
2360.051693693902
 10
8493.430856708816
 20
2360.051693693902
  0
LINE
  5
44D7
330
17
100
AcDbEntity
  8
SEIHIN
  6
DASHED2
 62
     7
100
AcDbLine
 10
8218.870037619277
 20
1910.051693693902
 30
0.0
 11
8023.23245372666
 21
1910.051693693902
 31
0.0
  0
LINE
  5
44D8
330
17
100
AcDbEntity
  8
SEIHIN
  6
DASHED2
 62
     7
100
AcDbLine
 10
7468.870037619277
 20
1910.051693693902
 30
0.0
 11
7273.23245372666
 21
1910.051693693902
 31
0.0
  0
LINE
  5
44DA
330
17
100
AcDbEntity
  8
SEIHIN
100
AcDbLine
 10
7746.051245672968
 20
4232.507559186999
 30
0.0
 11
8496.051245672968
 21
4232.507559186999
 31
0.0
  0
LWPOLYLINE
  5
44DF
330
17
100
AcDbEntity
  8
SEIHIN
100
AcDbPolyline
 90
        4
 70
     0
 43
0.0
 10
7746.051245672968
 20
7027.507559186999
 10
8063.201245672968
 20
7027.507559186999
 10
8011.05124567297
 20
7013.504136431297
 10
7746.051245672969
 20
7013.504136431297
  0
LWPOLYLINE
  5
44E0
330
17
100
AcDbEntity
  8
SEIHIN
100
AcDbPolyline
 90
        6
 70
     0
 43
0.0
 10
8231.05124567297
 20
7013.504136431297
 10
8231.05124567297
 20
4534.24490343835
 10
8200.55124567297
 20
4241.040094100063
 10
8041.55124567297
 20
4241.040094100063
 10
8011.05124567297
 20
4534.24490343835
 10
8011.05124567297
 20
7013.504136431297
  0
LWPOLYLINE
  5
44E1
330
17
100
AcDbEntity
  8
SEIHIN
100
AcDbPolyline
 90
        4
 70
     0
 43
0.0
 10
8496.05124567297
 20
7027.507559186999
 10
8178.901245672972
 20
7027.507559186999
 10
8231.05124567297
 20
7013.504136431297
 10
8496.051245672972
 20
7013.504136431297
  0
LINE
  5
44E2
330
17
100
AcDbEntity
  8
SEIHIN
 62
     5
100
AcDbLine
 10
8031.051245672968
 20
6682.045149448547
 30
0.0
 11
8211.051245672967
 21
6682.045149448547
 31
0.0
  0
LWPOLYLINE
  5
44EC
330
17
100
AcDbEntity
  8
SEIHIN
  6
DASHED2
 62
     7
100
AcDbPolyline
 90
        4
 70
     0
 43
0.0
 10
2208.651908374505
 20
7262.507559186998
 10
2218.651908374505
 20
7062.507559186998
 10
2298.651908374505
 20
7062.507559186998
 10
2308.651908374505
 20
7262.507559186998
  0
CIRCLE
  5
44F8
330
17
100
AcDbEntity
  8
SUNPOU
100
AcDbCircle
 10
7746.051245672968
 20
1045.051693693902
 30
0.0
 40
11.0
  0
CIRCLE
  5
44FB
330
17
100
AcDbEntity
  8
SEIHIN
100
AcDbCircle
 10
7746.051245672969
 20
4562.507559186999
 30
0.0
 40
35.0
  0
CIRCLE
  5
44FC
330
17
100
AcDbEntity
  8
SEIHIN
 62
     1
100
AcDbCircle
 10
7746.051245672969
 20
4562.507559186999
 30
0.0
 40
25.0
  0
CIRCLE
  5
44FE
330
17
100
AcDbEntity
  8
SUNPOU
100
AcDbCircle
 10
7966.051245672969
 20
6742.507559186999
 30
0.0
 40
11.0
  0
LWPOLYLINE
  5
4503
330
17
100
AcDbEntity
  8
SEIHIN
100
AcDbPolyline
 90
        6
 70
     0
 43
0.0
 10
2768.651908374506
 20
4232.507559186999
 10
3448.888555033653
 20
4336.543752205458
 42
0.3704296647521173
 10
3618.651908374505
 20
4534.244903438347
 10
3618.651908374506
 20
6913.529678860888
 42
0.4112076825856629
 10
3519.679251415863
 20
7013.524401553014
 10
2158.651908374505
 20
7027.507559187
  0
LINE
  5
4505
330
17
100
AcDbEntity
  8
1HASEN
100
AcDbLine
 10
7746.051245672968
 20
617.7668327769888
 30
0.0
 11
7746.051245672968
 21
3693.012606907475
 31
0.0
  0
LWPOLYLINE
  5
4506
330
17
100
AcDbEntity
  8
SEIHIN
100
AcDbPolyline
 90
        2
 70
     0
 43
0.0
 10
7786.051236638194
 20
800.051693693902
 10
7746.051245672968
 20
800.051693693902
 42
-0.9999999999999999
  0
LWPOLYLINE
  5
4507
330
17
100
AcDbEntity
  8
SEIHIN
100
AcDbPolyline
 90
        3
 70
     0
 43
0.0
 10
7746.051245672968
 20
900.051693693902
 10
7786.051236638194
 20
900.051693693902
 42
-1.000000180695494
 10
7786.051236638194
 20
800.051693693902
  0
LINE
  5
4508
330
17
100
AcDbEntity
  8
1HASEN
100
AcDbLine
 10
2620.632561533318
 20
1690.832596245578
 30
0.0
 11
5122.650129520988
 21
1690.832596245578
 31
0.0
  0
LINE
  5
450C
330
17
100
AcDbEntity
  8
SEIHIN
  6
DASHED2
 62
     7
100
AcDbLine
 10
3318.651908374505
 20
1964.322529131485
 30
0.0
 11
3318.651908374505
 21
2167.342663359672
 31
0.0
  0
LWPOLYLINE
  5
450D
330
17
100
AcDbEntity
  8
SEIHIN
  6
DASHED2
 62
     7
100
AcDbPolyline
 90
        2
 70
     0
 43
0.0
 10
3718.651908374505
 20
2440.832596245578
 10
3718.651908374505
 20
940.8325962455783
  0
LINE
  5
450E
330
17
100
AcDbEntity
  8
1HASEN
100
AcDbLine
 10
7746.051245672968
 20
7396.843886885218
 30
0.0
 11
7746.051245672968
 21
4023.287966295546
 31
0.0
  0
LWPOLYLINE
  5
4510
330
17
100
AcDbEntity
  8
SEIHIN
  6
DASHED2
 62
     7
100
AcDbPolyline
 90
        3
 70
     0
 43
0.0
 10
7836.051245672968
 20
7262.507559187
 10
7826.051245672968
 20
7062.507559187
 10
7746.051245672968
 20
7062.507559187
  0
LINE
  5
451B
330
17
100
AcDbEntity
  8
SUNPOU
100
AcDbLine
 10
8011.05124567297
 20
4534.24490343835
 30
0.0
 11
7766.696397404851
 21
4534.24490343835
 31
0.0
  0
LINE
  5
451C
330
17
100
AcDbEntity
  8
SUNPOU
100
AcDbLine
 10
8231.05124567297
 20
4534.244903438353
 30
0.0
 11
8496.05124567297
 21
4534.244903438353
 31
0.0
  0
LWPOLYLINE
  5
4529
330
17
100
AcDbEntity
  8
SEIHIN
  6
DASHED2
 62
     7
100
AcDbPolyline
 90
        6
 70
     0
 43
0.0
 10
3618.651908374505
 20
940.8325962455783
 10
3618.651908374505
 20
1205.939978795914
 10
2983.651908374503
 20
1230.37957611135
 10
2983.651908374503
 20
1401.285616379806
 10
3618.651908374505
 20
1425.725213695243
 10
3618.651908374505
 20
1690.832596245578
  0
LWPOLYLINE
  5
452B
330
17
100
AcDbEntity
  8
SEIHIN
100
AcDbPolyline
 90
       17
 70
     1
 43
0.0
 10
4998.651908374506
 20
4112.507559186997
 10
2718.651908374505
 20
4112.507559186999
 10
2718.651908374506
 20
4232.507559186999
 10
2768.651908374506
 20
4232.507559186999
 10
2851.802686687157
 20
4245.22473704658
 42
0.3704296647521193
 10
3318.651908374504
 20
4788.902902937027
 10
3318.651908374505
 20
6682.045149448547
 42
0.3884789017169858
 10
3109.016060139777
 20
6911.141856807865
 10
2193.651908374506
 20
6992.507559186999
 10
2158.651908374505
 20
7027.507559187
 10
2158.651908374505
 20
7262.507559187
 10
2348.651908374505
 20
7262.507559187
 10
2418.651908374505
 20
7112.507559186999
 10
3718.651908374505
 20
7112.507559186999
 10
3718.651908374505
 20
4412.507559186998
 10
3767.936771213755
 20
4354.081273236692
 10
4998.651908374506
 20
4212.391288558481
  0
LINE
  5
452C
330
17
100
AcDbEntity
  8
SUNPOU
 62
     5
100
AcDbLine
 10
8031.05124567297
 20
4788.902902937028
 30
0.0
 11
8211.05124567297
 21
4788.902902937027
 31
0.0
  0
LINE
  5
452D
330
17
100
AcDbEntity
  8
SEIHIN
100
AcDbLine
 10
8178.901245672973
 20
7027.507559186998
 30
0.0
 11
8176.05124567297
 21
6997.507559186998
 31
0.0
  0
LINE
  5
452E
330
17
100
AcDbEntity
  8
SEIHIN
100
AcDbLine
 10
8066.05124567297
 20
6997.507559186998
 30
0.0
 11
8063.20124567297
 21
7027.507559186999
 31
0.0
  0
LWPOLYLINE
  5
4531
330
17
100
AcDbEntity
  8
SEIHIN
100
AcDbPolyline
 90
        8
 70
     0
 43
0.0
 10
8200.55124567297
 20
4241.040094100063
 10
8211.05124567297
 20
4534.24490343835
 10
8211.05124567297
 20
6913.529678860888
 10
8176.05124567297
 20
6997.507559186998
 10
8066.05124567297
 20
6997.507559186998
 10
8031.05124567297
 20
6913.529678860888
 10
8031.051245672969
 20
4534.24490343835
 10
8041.55124567297
 20
4241.040094100063
  0
LWPOLYLINE
  5
4532
330
17
100
AcDbEntity
  8
SEIHIN
  6
DASHED2
 62
     7
100
AcDbPolyline
 90
       10
 70
     0
 43
0.0
 10
6996.051245672968
 20
2210.051693693903
 10
7261.158628223304
 20
2210.051693693902
 10
7316.051245672968
 20
750.051693693902
 10
7426.051245672968
 20
750.051693693902
 10
7480.943863122632
 20
2210.051693693902
 10
8011.158628223304
 20
2210.051693693901
 10
8066.051245672968
 20
750.051693693902
 10
8176.051245672968
 20
750.051693693902
 10
8230.943863122633
 20
2210.051693693902
 10
8496.051245672968
 20
2210.051693693902
  0
CIRCLE
  5
4533
330
17
100
AcDbEntity
  8
SEIHIN
 62
     1
100
AcDbCircle
 10
7746.051245672968
 20
6199.007559186999
 30
0.0
 40
25.0
  0
CIRCLE
  5
4534
330
17
100
AcDbEntity
  8
SEIHIN
100
AcDbCircle
 10
7746.051245672968
 20
6199.007559186999
 30
0.0
 40
35.0
  0
LWPOLYLINE
  5
4535
330
17
100
AcDbEntity
  8
SEIHIN
100
AcDbPolyline
 90
        6
 70
     1
 43
0.0
 10
4998.651908374507
 20
2373.750638763286
 10
3718.651908374506
 20
2440.832596245578
 10
2718.651908374505
 20
2440.832596245578
 10
2718.651908374504
 20
940.8325962455783
 10
3718.651908374506
 20
940.8325962455783
 10
4998.651908374507
 20
1007.914553727871
  0
LWPOLYLINE
  5
4536
330
17
100
AcDbEntity
  8
SEIHIN
100
AcDbPolyline
 90
        6
 70
     1
 43
0.0
 10
7063.13320315526
 20
3590.051693693903
 10
6996.051245672968
 20
2310.051693693903
 10
6996.051245672968
 20
750.051693693902
 10
8496.051245672968
 20
750.051693693902
 10
8496.051245672968
 20
2310.051693693901
 10
8428.969288190676
 20
3590.051693693903
  0
LWPOLYLINE
  5
4537
330
17
100
AcDbEntity
  8
SEIHIN
100
AcDbPolyline
 90
        2
 70
     0
 43
0.0
 10
7706.051254707742
 20
800.051693693902
 10
7746.051245672968
 20
800.051693693902
 42
0.9999999999999999
  0
LWPOLYLINE
  5
4538
330
17
100
AcDbEntity
  8
SEIHIN
100
AcDbPolyline
 90
        3
 70
     0
 43
0.0
 10
7746.051245672968
 20
900.051693693902
 10
7706.051254707742
 20
900.051693693902
 42
1.000000180695494
 10
7706.051254707742
 20
800.051693693902
  0
LINE
  5
4847
330
17
100
AcDbEntity
  8
SEIHIN
100
AcDbLine
 10
7746.051245672969
 20
7262.507559187
 30
0.0
 11
8490.051245672968
 21
7262.507559186999
 31
0.0
  0
LINE
  5
4848
330
17
100
AcDbEntity
  8
SEIHIN
100
AcDbLine
 10
8490.051245672968
 20
7262.507559186999
 30
0.0
 11
8490.051245672968
 21
7097.507559186999
 31
0.0
  0
LINE
  5
4849
330
17
100
AcDbEntity
  8
SEIHIN
100
AcDbLine
 10
8490.051245672968
 20
7097.507559186999
 30
0.0
 11
8484.051245672968
 21
7094.007559187
 31
0.0
  0
LINE
  5
484A
330
17
100
AcDbEntity
  8
SEIHIN
100
AcDbLine
 10
8484.051245672968
 20
7094.007559187
 30
0.0
 11
8484.051245672968
 21
7082.007559187
 31
0.0
  0
LINE
  5
484B
330
17
100
AcDbEntity
  8
SEIHIN
100
AcDbLine
 10
8484.051245672968
 20
7082.007559187
 30
0.0
 11
8490.051245672968
 21
7078.507559186999
 31
0.0
  0
LINE
  5
484C
330
17
100
AcDbEntity
  8
SEIHIN
100
AcDbLine
 10
8490.051245672968
 20
7078.507559186999
 30
0.0
 11
8490.051245672968
 21
7070.007559187
 31
0.0
  0
LINE
  5
484D
330
17
100
AcDbEntity
  8
SEIHIN
100
AcDbLine
 10
8490.051245672968
 20
7070.007559187
 30
0.0
 11
8484.051245672968
 21
7066.507559186999
 31
0.0
  0
LINE
  5
484E
330
17
100
AcDbEntity
  8
SEIHIN
100
AcDbLine
 10
8484.051245672968
 20
7066.507559186999
 30
0.0
 11
8484.051245672968
 21
7060.507559186999
 31
0.0
  0
LINE
  5
484F
330
17
100
AcDbEntity
  8
SEIHIN
100
AcDbLine
 10
8484.051245672968
 20
7060.507559186999
 30
0.0
 11
8496.051245672968
 21
7057.507559187
 31
0.0
  0
LINE
  5
4850
330
17
100
AcDbEntity
  8
SEIHIN
100
AcDbLine
 10
8496.051245672968
 20
7057.507559187
 30
0.0
 11
8496.051245672968
 21
4112.507559186999
 31
0.0
  0
LINE
  5
4851
330
17
100
AcDbEntity
  8
SEIHIN
100
AcDbLine
 10
8496.051245672968
 20
4112.507559186999
 30
0.0
 11
7746.051245672968
 21
4112.507559186999
 31
0.0
  0
LINE
  5
485C
330
17
100
AcDbEntity
  8
SEIHIN
100
AcDbLine
 10
7746.051245672968
 20
4232.507559186999
 30
0.0
 11
6996.051245672968
 21
4232.507559186999
 31
0.0
  0
LWPOLYLINE
  5
485D
330
17
100
AcDbEntity
  8
SEIHIN
100
AcDbPolyline
 90
        4
 70
     0
 43
0.0
 10
7746.051245672968
 20
7027.507559186999
 10
7428.901245672969
 20
7027.507559186999
 10
7481.051245672967
 20
7013.504136431297
 10
7746.051245672968
 20
7013.504136431297
  0
LWPOLYLINE
  5
485E
330
17
100
AcDbEntity
  8
SEIHIN
100
AcDbPolyline
 90
        6
 70
     0
 43
0.0
 10
7261.051245672966
 20
7013.504136431297
 10
7261.051245672968
 20
4534.24490343835
 10
7291.551245672967
 20
4241.040094100063
 10
7450.551245672967
 20
4241.040094100063
 10
7481.051245672967
 20
4534.24490343835
 10
7481.051245672967
 20
7013.504136431297
  0
LWPOLYLINE
  5
485F
330
17
100
AcDbEntity
  8
SEIHIN
100
AcDbPolyline
 90
        4
 70
     0
 43
0.0
 10
6996.051245672966
 20
7027.507559186999
 10
7313.201245672965
 20
7027.507559186999
 10
7261.051245672966
 20
7013.504136431297
 10
6996.051245672965
 20
7013.504136431297
  0
LINE
  5
4860
330
17
100
AcDbEntity
  8
SEIHIN
 62
     5
100
AcDbLine
 10
7461.051245672969
 20
6682.045149448547
 30
0.0
 11
7281.051245672969
 21
6682.045149448547
 31
0.0
  0
CIRCLE
  5
4861
330
17
100
AcDbEntity
  8
SUNPOU
100
AcDbCircle
 10
7526.051245672968
 20
6742.507559186999
 30
0.0
 40
11.0
  0
LINE
  5
4862
330
17
100
AcDbEntity
  8
SEIHIN
100
AcDbLine
 10
7746.051245672968
 20
7262.507559187
 30
0.0
 11
7002.051245672968
 21
7262.507559186999
 31
0.0
  0
LINE
  5
4863
330
17
100
AcDbEntity
  8
SEIHIN
100
AcDbLine
 10
7002.051245672968
 20
7262.507559186999
 30
0.0
 11
7002.051245672968
 21
7097.507559186999
 31
0.0
  0
LINE
  5
4864
330
17
100
AcDbEntity
  8
SEIHIN
100
AcDbLine
 10
7002.051245672968
 20
7097.507559186999
 30
0.0
 11
7008.051245672968
 21
7094.007559187
 31
0.0
  0
LINE
  5
4865
330
17
100
AcDbEntity
  8
SEIHIN
100
AcDbLine
 10
7008.051245672968
 20
7094.007559187
 30
0.0
 11
7008.051245672968
 21
7082.007559187
 31
0.0
  0
LINE
  5
4866
330
17
100
AcDbEntity
  8
SEIHIN
100
AcDbLine
 10
7008.051245672968
 20
7082.007559187
 30
0.0
 11
7002.051245672968
 21
7078.507559186999
 31
0.0
  0
LINE
  5
4867
330
17
100
AcDbEntity
  8
SEIHIN
100
AcDbLine
 10
7002.051245672968
 20
7078.507559186999
 30
0.0
 11
7002.051245672968
 21
7070.007559187
 31
0.0
  0
LINE
  5
4868
330
17
100
AcDbEntity
  8
SEIHIN
100
AcDbLine
 10
7002.051245672968
 20
7070.007559187
 30
0.0
 11
7008.051245672968
 21
7066.507559186999
 31
0.0
  0
LINE
  5
4869
330
17
100
AcDbEntity
  8
SEIHIN
100
AcDbLine
 10
7008.051245672968
 20
7066.507559186999
 30
0.0
 11
7008.051245672968
 21
7060.507559186999
 31
0.0
  0
LINE
  5
486A
330
17
100
AcDbEntity
  8
SEIHIN
100
AcDbLine
 10
7008.051245672968
 20
7060.507559186999
 30
0.0
 11
6996.051245672968
 21
7057.507559187
 31
0.0
  0
LINE
  5
486B
330
17
100
AcDbEntity
  8
SEIHIN
100
AcDbLine
 10
6996.051245672968
 20
7057.507559187
 30
0.0
 11
6996.051245672968
 21
4112.507559186999
 31
0.0
  0
LINE
  5
486C
330
17
100
AcDbEntity
  8
SEIHIN
100
AcDbLine
 10
6996.051245672968
 20
4112.507559186999
 30
0.0
 11
7746.051245672969
 21
4112.507559186999
 31
0.0
  0
LWPOLYLINE
  5
486D
330
17
100
AcDbEntity
  8
SEIHIN
  6
DASHED2
 62
     7
100
AcDbPolyline
 90
        3
 70
     0
 43
0.0
 10
7656.051245672968
 20
7262.507559187
 10
7666.051245672969
 20
7062.507559187
 10
7746.051245672968
 20
7062.507559187
  0
LINE
  5
486E
330
17
100
AcDbEntity
  8
SUNPOU
100
AcDbLine
 10
7481.051245672967
 20
4534.24490343835
 30
0.0
 11
7725.406093941086
 21
4534.24490343835
 31
0.0
  0
LINE
  5
486F
330
17
100
AcDbEntity
  8
SUNPOU
100
AcDbLine
 10
7261.051245672968
 20
4534.244903438353
 30
0.0
 11
6996.051245672966
 21
4534.244903438353
 31
0.0
  0
LINE
  5
4871
330
17
100
AcDbEntity
  8
SUNPOU
 62
     5
100
AcDbLine
 10
7461.051245672967
 20
4788.902902937028
 30
0.0
 11
7281.051245672966
 21
4788.902902937027
 31
0.0
  0
LINE
  5
4872
330
17
100
AcDbEntity
  8
SEIHIN
100
AcDbLine
 10
7313.201245672964
 20
7027.507559186998
 30
0.0
 11
7316.051245672967
 21
6997.507559186998
 31
0.0
  0
LINE
  5
4873
330
17
100
AcDbEntity
  8
SEIHIN
100
AcDbLine
 10
7426.051245672967
 20
6997.507559186998
 30
0.0
 11
7428.901245672967
 21
7027.507559186999
 31
0.0
  0
LWPOLYLINE
  5
4874
330
17
100
AcDbEntity
  8
SEIHIN
100
AcDbPolyline
 90
        8
 70
     0
 43
0.0
 10
7291.551245672966
 20
4241.040094100063
 10
7281.051245672966
 20
4534.24490343835
 10
7281.051245672967
 20
6913.529678860888
 10
7316.051245672967
 20
6997.507559186998
 10
7426.051245672967
 20
6997.507559186998
 10
7461.051245672967
 20
6913.529678860888
 10
7461.051245672968
 20
4534.24490343835
 10
7450.551245672967
 20
4241.040094100063
  0
LINE
  5
48C3
330
17
100
AcDbEntity
  8
SEIHIN
  6
DASHED2
 62
     7
100
AcDbLine
 10
3318.651908374505
 20
1417.342663359672
 30
0.0
 11
3318.651908374505
 21
1214.322529131484
 31
0.0
  0
LWPOLYLINE
  5
48C4
330
17
100
AcDbEntity
  8
SEIHIN
  6
DASHED2
 62
     7
100
AcDbPolyline
 90
        6
 70
     0
 43
0.0
 10
3618.651908374505
 20
2440.832596245578
 10
3618.651908374505
 20
2175.725213695243
 10
2983.651908374503
 20
2151.285616379806
 10
2983.651908374503
 20
1980.379576111351
 10
3618.651908374505
 20
1955.939978795914
 10
3618.651908374505
 20
1690.832596245578
  0
DIMENSION
  5
48C7
330
17
100
AcDbEntity
  8
SUNPOU
100
AcDbDimension
  2
*D235
 10
4998.651908374506
 20
7852.597557597432
 30
0.0
 11
4358.651908374506
 21
7921.597557597432
 31
0.0
 70
    32
 71
     5
 42
1280.000000000001
  3
A3-30
100
AcDbAlignedDimension
 13
3718.651908374505
 23
7112.507559186999
 33
0.0
 14
4998.651908374506
 24
7074.087416681636
 34
0.0
100
AcDbRotatedDimension
  0
DIMENSION
  5
48C8
330
17
100
AcDbEntity
  8
SUNPOU
100
AcDbDimension
  2
*D236
 10
2158.651908374505
 20
7852.597557597432
 30
0.0
 11
2938.651908374505
 21
7921.597557597432
 31
0.0
 70
    32
 71
     5
 42
1560.0
  3
A3-30
100
AcDbAlignedDimension
 13
3718.651908374505
 23
7112.507559186999
 33
0.0
 14
2158.651908374505
 24
7262.507559187
 34
0.0
100
AcDbRotatedDimension
  0
DIMENSION
  5
48C9
330
17
100
AcDbEntity
  8
SUNPOU
100
AcDbDimension
  2
*D237
 10
2348.651908374505
 20
7488.630361339021
 30
0.0
 11
2253.651908374505
 21
7557.630361339021
 31
0.0
 70
   160
 71
     5
 42
190.0
  3
A3-30
100
AcDbAlignedDimension
 13
2158.651908374505
 23
7262.507559187
 33
0.0
 14
2348.651908374505
 24
7262.507559187
 34
0.0
100
AcDbRotatedDimension
  0
DIMENSION
  5
48CA
330
17
100
AcDbEntity
  8
SUNPOU
100
AcDbDimension
  2
*D238
 10
2418.651908374505
 20
7488.630361339021
 30
0.0
 11
2406.692718732113
 21
7557.630361339021
 31
0.0
 70
   160
 71
     5
 42
70.0
  3
A3-30
100
AcDbAlignedDimension
 13
2348.651908374505
 23
7262.507559187
 33
0.0
 14
2418.651908374505
 24
7112.507559186999
 34
0.0
100
AcDbRotatedDimension
  0
DIMENSION
  5
48CB
330
17
100
AcDbEntity
  8
SUNPOU
100
AcDbDimension
  2
*D239
 10
2418.651908374505
 20
7674.139808941543
 30
0.0
 11
2288.651908374505
 21
7743.139808941543
 31
0.0
 70
    32
 71
     5
 42
260.0
  3
A3-30
100
AcDbAlignedDimension
 13
2158.651908374505
 23
7262.507559187
 33
0.0
 14
2418.651908374505
 24
7112.507559186999
 34
0.0
100
AcDbRotatedDimension
  0
DIMENSION
  5
48CC
330
17
100
AcDbEntity
  8
SUNPOU
100
AcDbDimension
  2
*D240
 10
3718.651908374505
 20
7674.139808941543
 30
0.0
 11
3068.651908374505
 21
7743.139808941543
 31
0.0
 70
    32
 71
     5
 42
1300.0
  3
A3-30
100
AcDbAlignedDimension
 13
2418.651908374505
 23
7112.507559186999
 33
0.0
 14
3718.651908374505
 24
7112.507559186999
 34
0.0
100
AcDbRotatedDimension
  0
DIMENSION
  5
48CD
330
17
100
AcDbEntity
  8
SUNPOU
100
AcDbDimension
  2
*D241
 10
1669.677990090437
 20
7112.507559187
 30
0.0
 11
1600.677990090436
 21
7187.507559187001
 31
0.0
 70
    32
 71
     5
 42
150.0000000000009
  3
A3-30
100
AcDbAlignedDimension
 13
2158.651908374505
 23
7262.507559187
 33
0.0
 14
2158.651908374505
 24
7112.507559186999
 34
0.0
 50
90.0
100
AcDbRotatedDimension
  0
DIMENSION
  5
48CE
330
17
100
AcDbEntity
  8
SUNPOU
100
AcDbDimension
  2
*D242
 10
1669.677990090437
 20
4112.507559187
 30
0.0
 11
1600.677990090436
 21
5612.507559187
 31
0.0
 70
    32
 71
     5
 42
3000.0
  3
A3-30
100
AcDbAlignedDimension
 13
2158.651908374505
 23
7112.507559186999
 33
0.0
 14
2718.651908374505
 24
4112.507559186999
 34
0.0
 50
90.0
100
AcDbRotatedDimension
  0
TEXT
  5
48CF
330
17
100
AcDbEntity
  8
SUNPOU
100
AcDbText
 10
1154.807127338291
 20
7862.529628354554
 30
0.0
 40
100.0
  1
側 面 図
 72
     1
 11
1378.140460671624
 21
7862.529628354554
 31
0.0
100
AcDbText
  0
LWPOLYLINE
  5
48D0
330
17
100
AcDbEntity
  8
SUNPOU
100
AcDbPolyline
 90
        4
 70
     1
 43
0.0
 10
1106.2472252752
 20
7998.985102517761
 10
1666.989723619588
 20
7998.985102517761
 10
1666.989723619588
 20
7827.282079496012
 10
1106.2472252752
 20
7827.282079496012
  0
LWPOLYLINE
  5
48D1
330
17
100
AcDbEntity
  8
SUNPOU
100
AcDbPolyline
 90
        4
 70
     1
 43
0.0
 10
3668.651908374505
 20
7045.507559186999
 10
3718.651908374505
 20
7045.507559186999
 10
3718.651908374505
 20
6979.507559186999
 10
3668.651908374505
 20
6979.507559186999
  0
CIRCLE
  5
48D2
330
17
100
AcDbEntity
  8
SUNPOU
100
AcDbCircle
 10
3693.651908374505
 20
7012.507559186999
 30
0.0
 40
8.0
  0
DIMENSION
  5
49E4
330
17
100
AcDbEntity
  8
SUNPOU
100
AcDbDimension
  2
*D243
 10
6594.395702417636
 20
7112.507559186999
 30
0.0
 11
6525.395702417634
 21
7187.507559187001
 31
0.0
 70
    32
 71
     5
 42
150.0
  3
A3-30
100
AcDbAlignedDimension
 13
7002.051245672972
 23
7262.507559186999
 33
0.0
 14
7002.051245672972
 24
7112.507559186999
 34
0.0
 50
90.0
100
AcDbRotatedDimension
  0
DIMENSION
  5
49E5
330
17
100
AcDbEntity
  8
SUNPOU
100
AcDbDimension
  2
*D244
 10
6594.395702417636
 20
4112.507559186999
 30
0.0
 11
6525.395702417635
 21
5612.507559187001
 31
0.0
 70
    32
 71
     5
 42
3000.0
  3
A3-30
100
AcDbAlignedDimension
 13
7002.051245672972
 23
7112.507559186999
 33
0.0
 14
6996.051245672968
 24
4112.507559186999
 34
0.0
 50
90.0
100
AcDbRotatedDimension
  0
DIMENSION
  5
49E6
330
17
100
AcDbEntity
  8
SUNPOU
100
AcDbDimension
  2
*D245
 10
8496.051245672972
 20
7852.597557597432
 30
0.0
 11
7746.051245672972
 21
7921.597557597432
 31
0.0
 70
    32
 71
     5
 42
1500.0
  3
A3-30
100
AcDbAlignedDimension
 13
6996.051245672972
 23
7262.507559187
 33
0.0
 14
8496.051245672972
 24
7262.507559187
 34
0.0
100
AcDbRotatedDimension
  0
DIMENSION
  5
49E7
330
17
100
AcDbEntity
  8
SUNPOU
100
AcDbDimension
  2
*D246
 10
7371.051245672972
 20
7637.074879970454
 30
0.0
 11
7183.551245672972
 21
7706.074879970454
 31
0.0
 70
    32
 71
     5
 42
375.0
  3
A3-30
100
AcDbAlignedDimension
 13
6996.051245672972
 23
7262.507559187
 33
0.0
 14
7371.051245672972
 24
7262.507559187
 34
0.0
100
AcDbRotatedDimension
  0
DIMENSION
  5
49E8
330
17
100
AcDbEntity
  8
SUNPOU
100
AcDbDimension
  2
*D247
 10
8121.051245672972
 20
7637.074879970454
 30
0.0
 11
7746.051245672972
 21
7706.074879970454
 31
0.0
 70
    32
 71
     5
 42
750.0
  3
A3-30
100
AcDbAlignedDimension
 13
7371.051245672972
 23
7262.507559187
 33
0.0
 14
8121.051245672972
 24
7262.507559187
 34
0.0
100
AcDbRotatedDimension
  0
DIMENSION
  5
49E9
330
17
100
AcDbEntity
  8
SUNPOU
100
AcDbDimension
  2
*D248
 10
8496.051245672972
 20
7637.074879970454
 30
0.0
 11
8308.551245672972
 21
7706.074879970454
 31
0.0
 70
    32
 71
     5
 42
375.0
  3
A3-30
100
AcDbAlignedDimension
 13
8121.051245672972
 23
7262.507559187
 33
0.0
 14
8496.051245672972
 24
7262.507559187
 34
0.0
100
AcDbRotatedDimension
  0
TEXT
  5
49EA
330
17
100
AcDbEntity
  8
SUNPOU
100
AcDbText
 10
6195.909039423684
 20
7862.529628354554
 30
0.0
 40
100.0
  1
正 面 図
 72
     1
 11
6419.242372757017
 21
7862.529628354554
 31
0.0
100
AcDbText
  0
LWPOLYLINE
  5
49EB
330
17
100
AcDbEntity
  8
SUNPOU
100
AcDbPolyline
 90
        4
 70
     1
 43
0.0
 10
6147.349137360592
 20
7998.985102517761
 10
6708.091635704981
 20
7998.985102517761
 10
6708.091635704981
 20
7827.282079496012
 10
6147.349137360592
 20
7827.282079496012
  0
LWPOLYLINE
  5
49EC
330
17
100
AcDbEntity
  8
0
  6
HIDDEN
 48
0.3
100
AcDbPolyline
 90
        4
 70
     0
 43
0.0
 10
8496.051245672972
 20
6981.007559186999
 10
8491.551245672972
 20
6983.007559186999
 10
8491.551245672972
 20
7042.007559186999
 10
8496.051245672972
 20
7044.007559186999
  0
LWPOLYLINE
  5
49ED
330
17
100
AcDbEntity
  8
0
  6
HIDDEN
 48
0.3
100
AcDbPolyline
 90
        2
 70
     0
 43
0.0
 10
8491.551245672972
 20
7039.507559186999
 10
8454.551245673874
 20
7039.507559186999
  0
LWPOLYLINE
  5
49EE
330
17
100
AcDbEntity
  8
0
  6
HIDDEN
 48
0.3
100
AcDbPolyline
 90
        2
 70
     0
 43
0.0
 10
8454.551245672972
 20
7039.507559186999
 42
1.111111111111126
 10
8454.551245672972
 20
6985.507559186999
 42
1.111111111111126
  0
LWPOLYLINE
  5
49EF
330
17
100
AcDbEntity
  8
0
  6
HIDDEN
 48
0.3
100
AcDbPolyline
 90
        2
 70
     0
 43
0.0
 10
8491.551245672972
 20
6985.507559186999
 10
8454.551245673874
 20
6985.507559186999
  0
TEXT
  5
49F0
330
17
100
AcDbEntity
  8
SUNPOU
100
AcDbText
 10
8720.640451947187
 20
6700.157316091494
 30
0.0
 40
90.0
  1
ジョイント金具
 41
0.8
100
AcDbText
  0
LINE
  5
49F1
330
17
100
AcDbEntity
  8
SUNPOU
100
AcDbLine
 10
8694.454231767548
 20
6687.986569533796
 30
0.0
 11
9340.646313884698
 21
6687.986569533796
 31
0.0
  0
LEADER
  5
49F2
330
17
100
AcDbEntity
  8
SUNPOU
100
AcDbLeader
  3
A3-30
 76
     2
 10
8491.551245672972
 20
7012.507559186999
 30
0.0
 10
8694.454231767548
 20
6687.986569533796
 30
0.0
  0
LWPOLYLINE
  5
49F3
330
17
100
AcDbEntity
  8
0
  6
HIDDEN
 48
0.3
100
AcDbPolyline
 90
        4
 70
     0
 43
0.0
 10
6996.051245672968
 20
6981.007559186999
 10
7000.551245672968
 20
6983.007559186999
 10
7000.551245672968
 20
7042.007559186999
 10
6996.051245672968
 20
7044.007559186999
  0
LWPOLYLINE
  5
49F4
330
17
100
AcDbEntity
  8
0
  6
HIDDEN
 48
0.3
100
AcDbPolyline
 90
        2
 70
     0
 43
0.0
 10
7000.551245672968
 20
7039.507559186999
 10
7037.551245672066
 20
7039.507559186999
  0
LWPOLYLINE
  5
49F5
330
17
100
AcDbEntity
  8
0
  6
HIDDEN
 48
0.3
100
AcDbPolyline
 90
        2
 70
     0
 43
0.0
 10
7037.551245672968
 20
7039.507559186999
 42
-1.111111111111126
 10
7037.551245672968
 20
6985.507559186999
 42
-1.111111111111126
  0
LWPOLYLINE
  5
49F6
330
17
100
AcDbEntity
  8
0
  6
HIDDEN
 48
0.3
100
AcDbPolyline
 90
        2
 70
     0
 43
0.0
 10
7000.551245672968
 20
6985.507559186999
 10
7037.551245672066
 20
6985.507559186999
  0
DIMENSION
  5
49F7
330
17
100
AcDbEntity
  8
SUNPOU
100
AcDbDimension
  2
*D249
 10
7281.05124567297
 20
5930.873510982038
 30
0.0
 11
7184.602786629543
 21
5999.873510982038
 31
0.0
 70
   160
 71
     5
 42
20.0
  3
A3-30
100
AcDbAlignedDimension
 13
7261.05124567297
 23
5797.110768143062
 33
0.0
 14
7281.05124567297
 24
5797.110768143062
 34
0.0
100
AcDbRotatedDimension
  0
DIMENSION
  5
49F8
330
17
100
AcDbEntity
  8
SUNPOU
100
AcDbDimension
  2
*D250
 10
7461.05124567297
 20
5930.873510982038
 30
0.0
 11
7371.05124567297
 21
5999.873510982038
 31
0.0
 70
    32
 71
     5
 42
180.0
  3
A3-30
100
AcDbAlignedDimension
 13
7281.05124567297
 23
5797.110768143062
 33
0.0
 14
7461.05124567297
 24
5797.110768143062
 34
0.0
100
AcDbRotatedDimension
  0
DIMENSION
  5
49F9
330
17
100
AcDbEntity
  8
SUNPOU
100
AcDbDimension
  2
*D251
 10
7481.05124567297
 20
5930.873510982038
 30
0.0
 11
7558.158895471412
 21
5999.873510982038
 31
0.0
 70
   160
 71
     5
 42
20.0
  3
A3-30
100
AcDbAlignedDimension
 13
7461.05124567297
 23
5797.110768143062
 33
0.0
 14
7481.05124567297
 24
5797.110768143062
 34
0.0
100
AcDbRotatedDimension
  0
LINE
  5
4AC0
330
17
100
AcDbEntity
  8
HASEN
100
AcDbLine
 10
7746.051245672969
 20
7112.507559187
 30
0.0
 11
8490.051245672968
 21
7112.507559186999
 31
0.0
  0
LINE
  5
4AC1
330
17
100
AcDbEntity
  8
HASEN
100
AcDbLine
 10
7746.051245672968
 20
7112.507559187
 30
0.0
 11
7002.051245672968
 21
7112.507559186999
 31
0.0
  0
LINE
  5
4ACB
330
17
100
AcDbEntity
  8
1HASEN
100
AcDbLine
 10
7371.051245672968
 20
7396.843886885218
 30
0.0
 11
7371.051245672968
 21
4023.287966295546
 31
0.0
  0
LINE
  5
4ACC
330
17
100
AcDbEntity
  8
1HASEN
100
AcDbLine
 10
8121.051245672968
 20
7396.843886885218
 30
0.0
 11
8121.051245672968
 21
4023.287966295546
 31
0.0
  0
DIMENSION
  5
4ACD
330
17
100
AcDbEntity
  8
SUNPOU
100
AcDbDimension
  2
*D252
 10
3318.651908374504
 20
3626.694012218797
 30
0.0
 11
3018.651908374505
 21
3695.694012218797
 31
0.0
 70
    32
 71
     5
 42
599.9999999999991
  3
A3-30
100
AcDbAlignedDimension
 13
2718.651908374505
 23
4112.507559186999
 33
0.0
 14
3318.651908374504
 24
4112.507559186999
 34
0.0
100
AcDbRotatedDimension
  0
DIMENSION
  5
4ACE
330
17
100
AcDbEntity
  8
SUNPOU
100
AcDbDimension
  2
*D253
 10
3718.651908374504
 20
3626.694012218797
 30
0.0
 11
3518.651908374504
 21
3695.694012218797
 31
0.0
 70
    32
 71
     5
 42
400.0
  3
A3-30
100
AcDbAlignedDimension
 13
3318.651908374504
 23
4112.507559186999
 33
0.0
 14
3718.651908374504
 24
4112.507559186999
 34
0.0
100
AcDbRotatedDimension
  0
DIMENSION
  5
4ACF
330
17
100
AcDbEntity
  8
SUNPOU
100
AcDbDimension
  2
*D254
 10
4998.651908374506
 20
3626.694012218797
 30
0.0
 11
4358.651908374505
 21
3695.694012218797
 31
0.0
 70
    32
 71
     5
 42
1280.000000000002
  3
A3-30
100
AcDbAlignedDimension
 13
3718.651908374504
 23
4112.507559186999
 33
0.0
 14
4998.651908374506
 24
4112.507559186997
 34
0.0
100
AcDbRotatedDimension
  0
DIMENSION
  5
4AD0
330
17
100
AcDbEntity
  8
SUNPOU
100
AcDbDimension
  2
*D255
 10
3618.651908374505
 20
3819.853827399324
 30
0.0
 11
3668.651908374505
 21
3888.853827399324
 31
0.0
 70
    32
 71
     5
 42
99.99999999999909
  3
A3-30
100
AcDbAlignedDimension
 13
3718.651908374504
 23
4112.507559186999
 33
0.0
 14
3618.651908374505
 24
4112.507559186999
 34
0.0
100
AcDbRotatedDimension
  0
DIMENSION
  5
4AD1
330
17
100
AcDbEntity
  8
SUNPOU
100
AcDbDimension
  2
*D256
 10
3318.651908374504
 20
3819.853827399324
 30
0.0
 11
3468.651908374505
 21
3888.853827399324
 31
0.0
 70
    32
 71
     5
 42
300.0000000000009
  3
A3-30
100
AcDbAlignedDimension
 13
3618.651908374505
 23
4112.507559186999
 33
0.0
 14
3318.651908374504
 24
4112.507559186999
 34
0.0
100
AcDbRotatedDimension
  0
DIMENSION
  5
4AD2
330
17
100
AcDbEntity
  8
SUNPOU
100
AcDbDimension
  2
*D257
 10
4998.651908374506
 20
3432.35226200682
 30
0.0
 11
3858.651908374506
 21
3501.35226200682
 31
0.0
 70
    32
 71
     5
 42
2280.000000000001
  3
A3-30
100
AcDbAlignedDimension
 13
2718.651908374505
 23
4112.507559186999
 33
0.0
 14
4998.651908374506
 24
4112.507559186997
 34
0.0
100
AcDbRotatedDimension
  0
LWPOLYLINE
  5
4AD3
330
17
100
AcDbEntity
  8
SUNPOU
100
AcDbPolyline
 90
        4
 70
     1
 43
0.0
 10
3618.651908374505
 20
4645.507559186999
 10
3668.651908374505
 20
4645.507559186999
 10
3668.651908374505
 20
4579.507559186999
 10
3618.651908374505
 20
4579.507559186999
  0
CIRCLE
  5
4AD4
330
17
100
AcDbEntity
  8
SUNPOU
100
AcDbCircle
 10
3643.651908374505
 20
4612.507559186999
 30
0.0
 40
8.0
  0
INSERT
  5
4B67
330
17
100
AcDbEntity
  8
SUNPOU
100
AcDbBlockReference
  2
FG
 10
8496.05124567297
 20
4612.507559186999
 30
0.0
  0
INSERT
  5
4B68
330
17
100
AcDbEntity
  8
SUNPOU
100
AcDbBlockReference
  2
FG
 10
6996.051245672966
 20
4612.507559186999
 30
0.0
 41
-1.0
  0
TEXT
  5
4B69
330
17
100
AcDbEntity
  8
SUNPOU
100
AcDbText
 10
7956.995917272576
 20
3913.03328132739
 30
0.0
 40
90.0
  1
水抜き孔
 41
0.8
100
AcDbText
  0
LINE
  5
4B6A
330
17
100
AcDbEntity
  8
SUNPOU
100
AcDbLine
 10
7930.809697092936
 20
3900.862534769692
 30
0.0
 11
8313.983043673521
 21
3900.862534769692
 31
0.0
  0
LEADER
  5
4B6B
330
17
100
AcDbEntity
  8
SUNPOU
100
AcDbLeader
  3
A3-30
 76
     2
 10
7746.05124567297
 20
4562.507559186999
 30
0.0
 10
7930.809697092936
 20
3900.862534769692
 30
0.0
  0
TEXT
  5
4B6C
330
17
100
AcDbEntity
  8
SUNPOU
100
AcDbText
 10
8720.640451947185
 20
4300.157316091494
 30
0.0
 40
90.0
  1
ジョイント金具
 41
0.8
100
AcDbText
  0
LINE
  5
4B6D
330
17
100
AcDbEntity
  8
SUNPOU
100
AcDbLine
 10
8694.454231767546
 20
4287.986569533796
 30
0.0
 11
9340.646313884696
 21
4287.986569533796
 31
0.0
  0
LEADER
  5
4B6E
330
17
100
AcDbEntity
  8
SUNPOU
100
AcDbLeader
  3
A3-30
 76
     2
 10
8491.55124567297
 20
4612.507559186999
 30
0.0
 10
8694.454231767546
 20
4287.986569533796
 30
0.0
  0
TEXT
  5
4B6F
330
17
100
AcDbEntity
  8
SUNPOU
100
AcDbText
 10
6009.63591693178
 20
3325.59587065543
 30
0.0
 40
100.0
  1
平面図(頂版)
 72
     1
 11
6359.63591693178
 21
3325.59587065543
 31
0.0
100
AcDbText
  0
LINE
  5
4B70
330
17
100
AcDbEntity
  8
SUNPOU
100
AcDbLine
 10
5961.608984348235
 20
3462.051344818637
 30
0.0
 11
6771.299554952157
 21
3462.051344818638
 31
0.0
  0
LINE
  5
4B71
330
17
100
AcDbEntity
  8
SUNPOU
100
AcDbLine
 10
6771.299554952157
 20
3462.051344818638
 30
0.0
 11
6771.299554952157
 21
3290.348321796888
 31
0.0
  0
LINE
  5
4B72
330
17
100
AcDbEntity
  8
SUNPOU
100
AcDbLine
 10
6771.299554952157
 20
3290.348321796888
 30
0.0
 11
5961.608984348235
 21
3290.348321796888
 31
0.0
  0
LINE
  5
4B73
330
17
100
AcDbEntity
  8
SUNPOU
100
AcDbLine
 10
5961.608984348235
 20
3290.348321796888
 30
0.0
 11
5961.608984348235
 21
3462.051344818638
 31
0.0
  0
DIMENSION
  5
4B74
330
17
100
AcDbEntity
  8
SUNPOU
100
AcDbDimension
  2
*D259
 10
6996.051245672968
 20
254.8489147025977
 30
0.0
 11
7746.051245672968
 21
323.8489147025977
 31
0.0
 70
    32
 71
     5
 42
1500.0
  3
A3-30
100
AcDbAlignedDimension
 13
8496.051245672968
 23
750.051693693902
 33
0.0
 14
6996.051245672968
 24
750.051693693902
 34
0.0
 50
180.0
100
AcDbRotatedDimension
  0
DIMENSION
  5
4B75
330
17
100
AcDbEntity
  8
SUNPOU
100
AcDbDimension
  2
*D260
 10
7371.051245672968
 20
461.5664060525524
 30
0.0
 11
7558.551245672968
 21
530.5664060525523
 31
0.0
 70
    32
 71
     5
 42
375.0
  3
A3-30
100
AcDbAlignedDimension
 13
7746.051245672968
 23
750.051693693902
 33
0.0
 14
7371.051245672968
 24
750.051693693902
 34
0.0
 50
180.0
100
AcDbRotatedDimension
  0
DIMENSION
  5
4B76
330
17
100
AcDbEntity
  8
SUNPOU
100
AcDbDimension
  2
*D261
 10
6996.051245672968
 20
461.5664060525524
 30
0.0
 11
7183.551245672968
 21
530.5664060525523
 31
0.0
 70
    32
 71
     5
 42
375.0
  3
A3-30
100
AcDbAlignedDimension
 13
7371.051245672968
 23
750.051693693902
 33
0.0
 14
6996.051245672968
 24
750.051693693902
 34
0.0
 50
180.0
100
AcDbRotatedDimension
  0
DIMENSION
  5
4B77
330
17
100
AcDbEntity
  8
SUNPOU
100
AcDbDimension
  2
*D262
 10
9000.50152772369
 20
1010.051693693902
 30
0.0
 11
8931.50152772369
 21
880.0516936939034
 31
0.0
 70
    32
 71
     5
 42
260.0
  3
A3-30
100
AcDbAlignedDimension
 13
8496.051245672968
 23
750.051693693902
 33
0.0
 14
8496.051245672968
 24
1010.051693693902
 34
0.0
 50
90.0
100
AcDbRotatedDimension
  0
DIMENSION
  5
4B78
330
17
100
AcDbEntity
  8
SUNPOU
100
AcDbDimension
  2
*D263
 10
8806.657316752544
 20
940.051693693902
 30
0.0
 11
8737.657316752544
 21
845.0516936939034
 31
0.0
 70
   160
 71
     5
 42
190.0
  3
A3-30
100
AcDbAlignedDimension
 13
8496.051245672968
 23
750.051693693902
 33
0.0
 14
8496.051245672968
 24
940.051693693902
 34
0.0
 50
90.0
100
AcDbRotatedDimension
  0
DIMENSION
  5
4B79
330
17
100
AcDbEntity
  8
SUNPOU
100
AcDbDimension
  2
*D264
 10
8806.657316752544
 20
1010.051693693902
 30
0.0
 11
8737.657316752544
 21
1003.695888850381
 31
0.0
 70
   160
 71
     5
 42
70.0
  3
A3-30
100
AcDbAlignedDimension
 13
8496.051245672968
 23
940.051693693902
 33
0.0
 14
8496.051245672968
 24
1010.051693693902
 34
0.0
 50
90.0
100
AcDbRotatedDimension
  0
DIMENSION
  5
4B7A
330
17
100
AcDbEntity
  8
SUNPOU
100
AcDbDimension
  2
*D265
 10
8121.051245672968
 20
461.5664060525524
 30
0.0
 11
7933.551245672968
 21
530.5664060525523
 31
0.0
 70
    32
 71
     5
 42
375.0
  3
A3-30
100
AcDbAlignedDimension
 13
7746.051245672968
 23
750.051693693902
 33
0.0
 14
8121.051245672968
 24
750.051693693902
 34
0.0
100
AcDbRotatedDimension
  0
DIMENSION
  5
4B7B
330
17
100
AcDbEntity
  8
SUNPOU
100
AcDbDimension
  2
*D266
 10
8496.051245672968
 20
461.5664060525524
 30
0.0
 11
8308.551245672968
 21
530.5664060525523
 31
0.0
 70
    32
 71
     5
 42
375.0
  3
A3-30
100
AcDbAlignedDimension
 13
8121.051245672968
 23
750.051693693902
 33
0.0
 14
8496.051245672968
 24
750.051693693902
 34
0.0
100
AcDbRotatedDimension
  0
TEXT
  5
4B7C
330
17
100
AcDbEntity
  8
SUNPOU
100
AcDbText
 10
8635.6609596236
 20
1432.655377059872
 30
0.0
 40
90.0
  1
水抜き孔
 41
0.8
100
AcDbText
  0
LINE
  5
4B7D
330
17
100
AcDbEntity
  8
SUNPOU
100
AcDbLine
 10
8596.38162935414
 20
1414.399257223325
 30
0.0
 11
9001.732108401118
 21
1414.399257223325
 31
0.0
  0
LEADER
  5
4B7E
330
17
100
AcDbEntity
  8
SUNPOU
100
AcDbLeader
  3
A3-30
 76
     2
 10
7746.051245672968
 20
1045.051693693902
 30
0.0
 10
8596.38162935414
 20
1414.399257223325
 30
0.0
  0
TEXT
  5
4B7F
330
17
100
AcDbEntity
  8
SUNPOU
100
AcDbText
 10
8635.6609596236
 20
1258.159800500681
 30
0.0
 40
90.0
  1
防護柵取付用ホール
 41
0.8
100
AcDbText
  0
LINE
  5
4B80
330
17
100
AcDbEntity
  8
SUNPOU
100
AcDbLine
 10
8596.38162935414
 20
1239.903680664133
 30
0.0
 11
9430.16901998632
 21
1239.903680664133
 31
0.0
  0
LEADER
  5
4B81
330
17
100
AcDbEntity
  8
SUNPOU
100
AcDbLeader
  3
A3-30
 76
     2
 10
7746.051245672968
 20
870.5561171347108
 30
0.0
 10
8596.38162935414
 20
1239.903680664133
 30
0.0
  0
DIMENSION
  5
4B82
330
17
100
AcDbEntity
  8
SUNPOU
100
AcDbDimension
  2
*D258
 10
6567.584147931793
 20
2310.051693693902
 30
0.0
 11
6498.584147931792
 21
1530.051693693903
 31
0.0
 70
    32
 71
     5
 42
1560.0
  3
A3-30
100
AcDbAlignedDimension
 13
6996.051245672968
 23
750.051693693902
 33
0.0
 14
6996.051245672969
 24
2310.051693693902
 34
0.0
 50
90.0
100
AcDbRotatedDimension
  0
LINE
  5
4D17
330
17
100
AcDbEntity
  8
SUNPOU
100
AcDbLine
 10
3899.915634289227
 20
2440.832596245578
 30
0.0
 11
4112.682538882991
 21
2440.832596245578
 31
0.0
  0
ARC
  5
4D18
330
17
100
AcDbEntity
  8
SUNPOU
100
AcDbCircle
 10
3718.651908374519
 20
2440.832596245578
 30
0.0
 40
351.0296520968843
100
AcDbArc
 50
0.0
 51
15.01603005967957
  0
ARC
  5
4D19
330
17
100
AcDbEntity
  8
SUNPOU
100
AcDbCircle
 10
3718.651908374519
 20
2440.832596245578
 30
0.0
 40
351.0296520968843
100
AcDbArc
 50
342.9241617726431
 51
357.0000000000193
  0
SOLID
  5
4D1A
330
17
100
AcDbEntity
  8
SUNPOU
100
AcDbTrace
 10
4077.39587341834
 20
2487.641762222211
 30
0.0
 11
4055.813212995759
 21
2486.776447780196
 31
0.0
 12
4069.200486533089
 22
2422.461123733461
 32
0.0
 13
4069.200486533089
 23
2422.461123733461
 33
0.0
  0
SOLID
  5
4D1B
330
17
100
AcDbEntity
  8
SUNPOU
100
AcDbTrace
 10
4052.946629742124
 20
2377.30604987726
 30
0.0
 11
4074.45442481992
 21
2375.312372147132
 31
0.0
 12
4069.681560471405
 22
2440.83259624558
 32
0.0
 13
4069.681560471405
 23
2440.83259624558
 33
0.0
  0
TEXT
  5
4D1C
330
17
100
AcDbEntity
  8
SUNPOU
100
AcDbText
 10
4040.452765469843
 20
2465.175656687361
 30
0.0
 40
90.0
  1
3°
 50
90.0
 41
0.8
100
AcDbText
  0
LINE
  5
4D1D
330
17
100
AcDbEntity
  8
SUNPOU
100
AcDbLine
 10
3899.915634289227
 20
940.8325962455783
 30
0.0
 11
4112.682538882991
 21
940.8325962455783
 31
0.0
  0
ARC
  5
4D1E
330
17
100
AcDbEntity
  8
SUNPOU
100
AcDbCircle
 10
3718.651908374519
 20
940.8325962455783
 30
0.0
 40
351.0296520968843
100
AcDbArc
 50
344.9839699403079
 51
0.0
  0
ARC
  5
4D1F
330
17
100
AcDbEntity
  8
SUNPOU
100
AcDbCircle
 10
3718.651908374519
 20
940.8325962455783
 30
0.0
 40
351.0296520968843
100
AcDbArc
 50
2.999999999993622
 51
17.07583822734911
  0
SOLID
  5
4D20
330
17
100
AcDbEntity
  8
SUNPOU
100
AcDbTrace
 10
4077.39587341834
 20
894.023430268945
 30
0.0
 11
4055.813212995759
 21
894.88874471096
 31
0.0
 12
4069.200486533089
 22
959.2040687576955
 32
0.0
 13
4069.200486533089
 23
959.2040687576955
 33
0.0
  0
SOLID
  5
4D21
330
17
100
AcDbEntity
  8
SUNPOU
100
AcDbTrace
 10
4052.946629742124
 20
1004.359142613896
 30
0.0
 11
4074.45442481992
 21
1006.352820344024
 31
0.0
 12
4069.681560471405
 22
940.8325962455765
 32
0.0
 13
4069.681560471405
 23
940.8325962455765
 33
0.0
  0
TEXT
  5
4D22
330
17
100
AcDbEntity
  8
SUNPOU
100
AcDbText
 10
4040.452765469843
 20
825.2895358037947
 30
0.0
 40
90.0
  1
3°
 50
90.0
 41
0.8
100
AcDbText
  0
DIMENSION
  5
4D23
330
17
100
AcDbEntity
  8
SUNPOU
100
AcDbDimension
  2
*D267
 10
2174.379025583341
 20
940.8325962455784
 30
0.0
 11
2105.379025583341
 21
1690.832596245579
 31
0.0
 70
    32
 71
     5
 42
1500.0
  3
A3-30
100
AcDbAlignedDimension
 13
2718.651908374504
 23
2440.832596245578
 33
0.0
 14
2718.651908374503
 24
940.8325962455783
 34
0.0
 50
90.0
100
AcDbRotatedDimension
  0
DIMENSION
  5
4D24
330
17
100
AcDbEntity
  8
SUNPOU
100
AcDbDimension
  2
*D268
 10
3318.651908374501
 20
484.9005006389598
 30
0.0
 11
3018.651908374502
 21
553.9005006389598
 31
0.0
 70
    32
 71
     5
 42
599.9999999999964
  3
A3-30
100
AcDbAlignedDimension
 13
2718.651908374504
 23
940.8325962455788
 33
0.0
 14
3318.651908374501
 24
940.8325962455788
 34
0.0
100
AcDbRotatedDimension
  0
DIMENSION
  5
4D25
330
17
100
AcDbEntity
  8
SUNPOU
100
AcDbDimension
  2
*D269
 10
3718.651908374504
 20
484.9005006389598
 30
0.0
 11
3518.651908374502
 21
553.9005006389598
 31
0.0
 70
    32
 71
     5
 42
400.0000000000036
  3
A3-30
100
AcDbAlignedDimension
 13
3318.651908374501
 23
940.8325962455788
 33
0.0
 14
3718.651908374504
 24
940.8325962455788
 34
0.0
100
AcDbRotatedDimension
  0
DIMENSION
  5
4D26
330
17
100
AcDbEntity
  8
SUNPOU
100
AcDbDimension
  2
*D270
 10
4998.651908374507
 20
484.9005006389598
 30
0.0
 11
4358.651908374506
 21
553.9005006389598
 31
0.0
 70
    32
 71
     5
 42
1280.000000000003
  3
A3-30
100
AcDbAlignedDimension
 13
3718.651908374504
 23
940.8325962455788
 33
0.0
 14
4998.651908374507
 24
1007.914553727871
 34
0.0
100
AcDbRotatedDimension
  0
DIMENSION
  5
4D27
330
17
100
AcDbEntity
  8
SUNPOU
100
AcDbDimension
  2
*D271
 10
3618.651908374504
 20
670.7616525464146
 30
0.0
 11
3468.651908374502
 21
739.7616525464146
 31
0.0
 70
    32
 71
     5
 42
300.0000000000036
  3
A3-30
100
AcDbAlignedDimension
 13
3318.651908374501
 23
940.8325962455788
 33
0.0
 14
3618.651908374504
 24
940.8325962455783
 34
0.0
100
AcDbRotatedDimension
  0
DIMENSION
  5
4D28
330
17
100
AcDbEntity
  8
SUNPOU
100
AcDbDimension
  2
*D272
 10
3718.651908374504
 20
670.7616525464146
 30
0.0
 11
3705.575744719517
 21
739.7616525464146
 31
0.0
 70
   160
 71
     5
 42
100.0
  3
A3-30
100
AcDbAlignedDimension
 13
3618.651908374504
 23
940.8325962455783
 33
0.0
 14
3718.651908374504
 24
940.8325962455788
 34
0.0
100
AcDbRotatedDimension
  0
DIMENSION
  5
4D29
330
17
100
AcDbEntity
  8
SUNPOU
100
AcDbDimension
  2
*D273
 10
4998.651908374507
 20
275.6945399760152
 30
0.0
 11
3858.651908374506
 21
344.6945399760152
 31
0.0
 70
    32
 71
     5
 42
2280.000000000003
  3
A3-30
100
AcDbAlignedDimension
 13
2718.651908374504
 23
940.8325962455792
 33
0.0
 14
4998.651908374507
 24
1007.914553727871
 34
0.0
100
AcDbRotatedDimension
  0
TEXT
  5
4D2A
330
17
100
AcDbEntity
  8
SUNPOU
100
AcDbText
 10
1277.035809067089
 20
2747.307757448334
 30
0.0
 40
100.0
  1
平面図(底版)
 72
     1
 11
1627.035809067089
 21
2747.307757448334
 31
0.0
100
AcDbText
  0
LINE
  5
4D2B
330
17
100
AcDbEntity
  8
SUNPOU
100
AcDbLine
 10
1229.008876483544
 20
2883.763231611541
 30
0.0
 11
2038.699447087465
 21
2883.763231611542
 31
0.0
  0
LINE
  5
4D2C
330
17
100
AcDbEntity
  8
SUNPOU
100
AcDbLine
 10
2038.699447087465
 20
2883.763231611541
 30
0.0
 11
2038.699447087465
 21
2712.060208589792
 31
0.0
  0
LINE
  5
4D2D
330
17
100
AcDbEntity
  8
SUNPOU
100
AcDbLine
 10
2038.699447087465
 20
2712.060208589792
 30
0.0
 11
1229.008876483544
 21
2712.060208589792
 31
0.0
  0
LINE
  5
4D2E
330
17
100
AcDbEntity
  8
SUNPOU
100
AcDbLine
 10
1229.008876483544
 20
2712.060208589792
 30
0.0
 11
1229.008876483544
 21
2883.763231611541
 31
0.0
  0
DIMENSION
  5
4DD6
330
17
100
AcDbEntity
  8
SUNPOU
100
AcDbDimension
  2
*D274
 10
5373.488435503066
 20
1007.914553727871
 30
0.0
 11
5304.488435503066
 21
1690.832596245579
 31
0.0
 70
    32
 71
     5
 42
1365.836085035415
  3
A3-30
100
AcDbAlignedDimension
 13
4998.651908374507
 23
2373.750638763286
 33
0.0
 14
4998.651908374507
 24
1007.914553727871
 34
0.0
 50
90.0
100
AcDbRotatedDimension
  0
ENDSEC
  0
SECTION
  2
OBJECTS
  0
DICTIONARY
  5
C
330
0
100
AcDbDictionary
281
     1
  3
ACAD_COLOR
350
9AA
  3
ACAD_GROUP
350
D
  3
ACAD_LAYOUT
350
7B
  3
ACAD_MATERIAL
350
9A9
  3
ACAD_MLEADERSTYLE
350
4E10
  3
ACAD_MLINESTYLE
350
1A
  3
ACAD_PLOTSETTINGS
350
7C
  3
ACAD_PLOTSTYLENAME
350
79
  3
ACAD_SCALELIST
350
4DE9
  3
ACAD_TABLESTYLE
350
9AB
  3
ACDB_RECOMPOSE_DATA
350
4E0F
  3
AcDbVariableDictionary
350
946
  0
DICTIONARY
  5
90E
330
17
100
AcDbDictionary
280
     1
281
     1
  3
ACAD_SORTENTS
360
1707
  0
DICTIONARY
  5
9AA
102
{ACAD_REACTORS
330
C
102
}
330
C
100
AcDbDictionary
281
     1
  0
DICTIONARY
  5
D
102
{ACAD_REACTORS
330
C
102
}
330
C
100
AcDbDictionary
281
     1
  0
DICTIONARY
  5
7B
102
{ACAD_REACTORS
330
C
102
}
330
C
100
AcDbDictionary
281
     1
  3
Model
350
7D
  3
ﾚｲｱｳﾄ1
350
7E
  0
DICTIONARY
  5
9A9
102
{ACAD_REACTORS
330
C
102
}
330
C
100
AcDbDictionary
281
     1
  0
DICTIONARY
  5
4E10
102
{ACAD_REACTORS
330
C
102
}
330
C
100
AcDbDictionary
281
     1
  0
DICTIONARY
  5
1A
102
{ACAD_REACTORS
330
C
102
}
330
C
100
AcDbDictionary
281
     1
  3
STANDARD
350
1B
  0
DICTIONARY
  5
7C
102
{ACAD_REACTORS
330
C
102
}
330
C
100
AcDbDictionary
281
     1
  0
ACDBDICTIONARYWDFLT
  5
79
102
{ACAD_REACTORS
330
C
102
}
330
C
100
AcDbDictionary
281
     1
  3
Normal
350
7A
100
AcDbDictionaryWithDefault
340
7A
  0
DICTIONARY
  5
4DE9
102
{ACAD_REACTORS
330
C
102
}
330
C
100
AcDbDictionary
281
     1
  3
A0
350
4DEA
  3
A1
350
4DEB
  3
A2
350
4DEC
  3
A3
350
4DED
  3
A4
350
4DEE
  3
A5
350
4DEF
  3
A6
350
4DF0
  3
A7
350
4DF1
  3
A8
350
4DF2
  3
A9
350
4DF3
  3
B0
350
4DF4
  3
B1
350
4DF5
  3
B2
350
4DF6
  3
B3
350
4DF7
  3
B4
350
4DF8
  3
B5
350
4DF9
  3
B6
350
4DFA
  3
B7
350
4DFB
  3
B8
350
4DFC
  3
B9
350
4DFD
  3
C0
350
4DFE
  3
C1
350
4DFF
  3
C2
350
4E00
  3
C3
350
4E01
  3
C4
350
4E02
  3
C5
350
4E03
  3
C6
350
4E04
  3
C7
350
4E05
  3
C8
350
4E06
  3
C9
350
4E07
  3
D0
350
4E08
  3
D1
350
4E09
  3
D2
350
4E0A
  0
DICTIONARY
  5
9AB
102
{ACAD_REACTORS
330
C
102
}
330
C
100
AcDbDictionary
281
     1
  3
Standard
350
9AC
  0
XRECORD
  5
4E0F
102
{ACAD_REACTORS
330
C
102
}
330
C
100
AcDbXrecord
280
     1
 90
        1
330
9AC
  0
DICTIONARY
  5
946
102
{ACAD_REACTORS
330
C
102
}
330
C
100
AcDbDictionary
281
     1
  3
CANNOSCALE
350
4E0B
  3
CTABLESTYLE
350
CC1
  3
DIMASSOC
350
947
  3
PROJECTNAME
350
CC2
  0
SORTENTSTABLE
  5
1707
102
{ACAD_REACTORS
330
90E
102
}
330
90E
100
AcDbSortentsTable
330
17
331
0
  5
35DD
331
5F
  5
5F
331
60
  5
60
331
DF0
  5
10F0
331
DF1
  5
10F1
331
DF2
  5
10F2
331
44D3
  5
44D3
331
44D4
  5
44D4
331
44D5
  5
44D5
331
44D6
  5
44D6
331
44D7
  5
44D7
331
44D8
  5
44D8
331
44DA
  5
44DA
331
44DF
  5
44DF
331
44E0
  5
44E0
331
44E1
  5
44E1
331
44E2
  5
44E2
331
44EC
  5
44EC
331
44F8
  5
44F8
331
44FB
  5
44FB
331
44FC
  5
44FC
331
44FE
  5
44FE
331
4503
  5
4503
331
4505
  5
4505
331
4506
  5
4506
331
4507
  5
4507
331
4508
  5
4508
331
450C
  5
450C
331
450D
  5
450D
331
450E
  5
450E
331
4510
  5
4534
331
451B
  5
484C
331
451C
  5
484E
331
4529
  5
484F
331
452B
  5
4850
331
452C
  5
4851
331
452D
  5
4854
331
452E
  5
4855
331
4531
  5
4856
331
4532
  5
4857
331
4533
  5
4858
331
4534
  5
4859
331
4535
  5
485A
331
4536
  5
485B
331
4537
  5
485C
331
4538
  5
485D
331
4847
  5
4512
331
4848
  5
4513
331
4849
  5
4514
331
484A
  5
4516
331
484B
  5
4517
331
484C
  5
4518
331
484D
  5
451B
331
484E
  5
451C
331
484F
  5
451D
331
4850
  5
452B
331
4851
  5
4533
331
485C
  5
485E
331
485D
  5
485F
331
485E
  5
4860
331
485F
  5
4861
331
4860
  5
4862
331
4861
  5
4863
331
4862
  5
4864
331
4863
  5
4865
331
4864
  5
4866
331
4865
  5
4867
331
4866
  5
4868
331
4867
  5
4869
331
4868
  5
486A
331
4869
  5
486B
331
486A
  5
486C
331
486B
  5
486D
331
486C
  5
486E
331
486D
  5
486F
331
486E
  5
4871
331
486F
  5
4872
331
4871
  5
4873
331
4872
  5
4874
331
4873
  5
48C3
331
4874
  5
48C4
331
48C3
  5
48C7
331
48C4
  5
48C8
331
48C7
  5
48C9
331
48C8
  5
48CA
331
48C9
  5
48CB
331
48CA
  5
48CC
331
48CB
  5
48CD
331
48CC
  5
48CE
331
48CD
  5
48CF
331
48CE
  5
48D0
331
48CF
  5
48D1
331
48D0
  5
48D2
331
48D1
  5
49E4
331
48D2
  5
49E5
331
49E4
  5
49E6
331
49E5
  5
49E7
331
49E6
  5
49E8
331
49E7
  5
49E9
331
49E8
  5
49EA
331
49E9
  5
49EB
331
49EA
  5
49EC
331
49EB
  5
49ED
331
49EC
  5
49EE
331
49ED
  5
49EF
331
49EE
  5
49F0
331
49EF
  5
49F1
331
49F0
  5
49F2
331
49F1
  5
49F3
331
49F2
  5
49F4
331
49F3
  5
49F5
331
49F4
  5
49F6
331
49F5
  5
49F7
331
49F6
  5
49F8
331
49F7
  5
49F9
331
49F8
  5
4AC0
331
49F9
  5
4AC1
331
4AC0
  5
4ACB
331
4AC1
  5
4ACC
331
4ACB
  5
4511
331
4ACC
  5
4510
  0
LAYOUT
  5
7D
102
{ACAD_REACTORS
330
7B
102
}
330
7B
100
AcDbPlotSettings
  1

  2
C:\PROGRAM FILES\MDT6\plotters\RICOH SP9II RPDL.pc3
  4
A3
  6

 40
5.873749732971191
 41
5.873758316040039
 42
4.349761962890625
 43
8.159759521484375
 44
420.1159973144531
 45
296.9259948730469
 46
0.0
 47
0.0
 48
0.0
 49
0.0
140
0.0
141
0.0
142
1.0
143
1.0
 70
 11952
 72
     0
 73
     0
 74
     0
  7
acad.ctb
 75
     0
 76
     0
 77
     2
 78
   300
147
1.0
148
-52067.63847066872
149
1270.867660243985
100
AcDbLayout
  1
Model
 70
     1
 71
     0
 10
0.0
 20
0.0
 11
12.0
 21
9.0
 12
0.0
 22
0.0
 32
0.0
 14
0.0
 24
0.0
 34
0.0
 15
0.0
 25
0.0
 35
0.0
146
0.0
 13
0.0
 23
0.0
 33
0.0
 16
1.0
 26
0.0
 36
0.0
 17
0.0
 27
1.0
 37
0.0
 76
     0
330
17
331
4DE3
  0
LAYOUT
  5
7E
102
{ACAD_REACTORS
330
7B
102
}
330
7B
100
AcDbPlotSettings
  1

  2
C:\PROGRAM FILES\MDT6\plotters\RICOH SP9II RPDL.pc3
  4

  6

 40
0.0
 41
0.0
 42
0.0
 43
0.0
 44
0.0
 45
0.0
 46
0.0
 47
0.0
 48
0.0
 49
0.0
140
0.0
141
0.0
142
1.0
143
1.0
 70
   688
 72
     0
 73
     0
 74
     5
  7
acad.ctb
 75
    16
 76
     0
 77
     2
 78
   300
147
1.0
148
0.0
149
0.0
100
AcDbLayout
  1
ﾚｲｱｳﾄ1
 70
     0
 71
     1
 10
0.0
 20
0.0
 11
12.0
 21
9.0
 12
0.0
 22
0.0
 32
0.0
 14
1.000000000000000E+20
 24
1.000000000000000E+20
 34
1.000000000000000E+20
 15
-1.000000000000000E+20
 25
-1.000000000000000E+20
 35
-1.000000000000000E+20
146
0.0
 13
0.0
 23
0.0
 33
0.0
 16
1.0
 26
0.0
 36
0.0
 17
0.0
 27
1.0
 37
0.0
 76
     0
330
14
  0
MLINESTYLE
  5
1B
102
{ACAD_REACTORS
330
1A
102
}
330
1A
100
AcDbMlineStyle
  2
STANDARD
 70
     0
  3

 62
   256
 51
90.0
 52
90.0
 71
     2
 49
0.5
 62
   256
  6
BYLAYER
 49
-0.5
 62
   256
  6
BYLAYER
  0
ACDBPLACEHOLDER
  5
7A
102
{ACAD_REACTORS
330
79
102
}
330
79
  0
SCALE
  5
4DEA
102
{ACAD_REACTORS
330
4DE9
102
}
330
4DE9
100
AcDbScale
 70
     0
300
1:1
140
1.0
141
1.0
290
     1
  0
SCALE
  5
4DEB
102
{ACAD_REACTORS
330
4DE9
102
}
330
4DE9
100
AcDbScale
 70
     0
300
1:2
140
1.0
141
2.0
290
     0
  0
SCALE
  5
4DEC
102
{ACAD_REACTORS
330
4DE9
102
}
330
4DE9
100
AcDbScale
 70
     0
300
1:4
140
1.0
141
4.0
290
     0
  0
SCALE
  5
4DED
102
{ACAD_REACTORS
330
4DE9
102
}
330
4DE9
100
AcDbScale
 70
     0
300
1:5
140
1.0
141
5.0
290
     0
  0
SCALE
  5
4DEE
102
{ACAD_REACTORS
330
4DE9
102
}
330
4DE9
100
AcDbScale
 70
     0
300
1:8
140
1.0
141
8.0
290
     0
  0
SCALE
  5
4DEF
102
{ACAD_REACTORS
330
4DE9
102
}
330
4DE9
100
AcDbScale
 70
     0
300
1:10
140
1.0
141
10.0
290
     0
  0
SCALE
  5
4DF0
102
{ACAD_REACTORS
330
4DE9
102
}
330
4DE9
100
AcDbScale
 70
     0
300
1:16
140
1.0
141
16.0
290
     0
  0
SCALE
  5
4DF1
102
{ACAD_REACTORS
330
4DE9
102
}
330
4DE9
100
AcDbScale
 70
     0
300
1:20
140
1.0
141
20.0
290
     0
  0
SCALE
  5
4DF2
102
{ACAD_REACTORS
330
4DE9
102
}
330
4DE9
100
AcDbScale
 70
     0
300
1:30
140
1.0
141
30.0
290
     0
  0
SCALE
  5
4DF3
102
{ACAD_REACTORS
330
4DE9
102
}
330
4DE9
100
AcDbScale
 70
     0
300
1:40
140
1.0
141
40.0
290
     0
  0
SCALE
  5
4DF4
102
{ACAD_REACTORS
330
4DE9
102
}
330
4DE9
100
AcDbScale
 70
     0
300
1:50
140
1.0
141
50.0
290
     0
  0
SCALE
  5
4DF5
102
{ACAD_REACTORS
330
4DE9
102
}
330
4DE9
100
AcDbScale
 70
     0
300
1:100
140
1.0
141
100.0
290
     0
  0
SCALE
  5
4DF6
102
{ACAD_REACTORS
330
4DE9
102
}
330
4DE9
100
AcDbScale
 70
     0
300
2:1
140
2.0
141
1.0
290
     0
  0
SCALE
  5
4DF7
102
{ACAD_REACTORS
330
4DE9
102
}
330
4DE9
100
AcDbScale
 70
     0
300
4:1
140
4.0
141
1.0
290
     0
  0
SCALE
  5
4DF8
102
{ACAD_REACTORS
330
4DE9
102
}
330
4DE9
100
AcDbScale
 70
     0
300
8:1
140
8.0
141
1.0
290
     0
  0
SCALE
  5
4DF9
102
{ACAD_REACTORS
330
4DE9
102
}
330
4DE9
100
AcDbScale
 70
     0
300
10:1
140
10.0
141
1.0
290
     0
  0
SCALE
  5
4DFA
102
{ACAD_REACTORS
330
4DE9
102
}
330
4DE9
100
AcDbScale
 70
     0
300
100:1
140
100.0
141
1.0
290
     0
  0
SCALE
  5
4DFB
102
{ACAD_REACTORS
330
4DE9
102
}
330
4DE9
100
AcDbScale
 70
     0
300
1/128" = 1'-0"
140
0.0078125
141
12.0
290
     0
  0
SCALE
  5
4DFC
102
{ACAD_REACTORS
330
4DE9
102
}
330
4DE9
100
AcDbScale
 70
     0
300
1/64" = 1'-0"
140
0.015625
141
12.0
290
     0
  0
SCALE
  5
4DFD
102
{ACAD_REACTORS
330
4DE9
102
}
330
4DE9
100
AcDbScale
 70
     0
300
1/32" = 1'-0"
140
0.03125
141
12.0
290
     0
  0
SCALE
  5
4DFE
102
{ACAD_REACTORS
330
4DE9
102
}
330
4DE9
100
AcDbScale
 70
     0
300
1/16" = 1'-0"
140
0.0625
141
12.0
290
     0
  0
SCALE
  5
4DFF
102
{ACAD_REACTORS
330
4DE9
102
}
330
4DE9
100
AcDbScale
 70
     0
300
3/32" = 1'-0"
140
0.09375
141
12.0
290
     0
  0
SCALE
  5
4E00
102
{ACAD_REACTORS
330
4DE9
102
}
330
4DE9
100
AcDbScale
 70
     0
300
1/8" = 1'-0"
140
0.125
141
12.0
290
     0
  0
SCALE
  5
4E01
102
{ACAD_REACTORS
330
4DE9
102
}
330
4DE9
100
AcDbScale
 70
     0
300
3/16" = 1'-0"
140
0.1875
141
12.0
290
     0
  0
SCALE
  5
4E02
102
{ACAD_REACTORS
330
4DE9
102
}
330
4DE9
100
AcDbScale
 70
     0
300
1/4" = 1'-0"
140
0.25
141
12.0
290
     0
  0
SCALE
  5
4E03
102
{ACAD_REACTORS
330
4DE9
102
}
330
4DE9
100
AcDbScale
 70
     0
300
3/8" = 1'-0"
140
0.375
141
12.0
290
     0
  0
SCALE
  5
4E04
102
{ACAD_REACTORS
330
4DE9
102
}
330
4DE9
100
AcDbScale
 70
     0
300
1/2" = 1'-0"
140
0.5
141
12.0
290
     0
  0
SCALE
  5
4E05
102
{ACAD_REACTORS
330
4DE9
102
}
330
4DE9
100
AcDbScale
 70
     0
300
3/4" = 1'-0"
140
0.75
141
12.0
290
     0
  0
SCALE
  5
4E06
102
{ACAD_REACTORS
330
4DE9
102
}
330
4DE9
100
AcDbScale
 70
     0
300
1" = 1'-0"
140
1.0
141
12.0
290
     0
  0
SCALE
  5
4E07
102
{ACAD_REACTORS
330
4DE9
102
}
330
4DE9
100
AcDbScale
 70
     0
300
1-1/2" = 1'-0"
140
1.5
141
12.0
290
     0
  0
SCALE
  5
4E08
102
{ACAD_REACTORS
330
4DE9
102
}
330
4DE9
100
AcDbScale
 70
     0
300
3" = 1'-0"
140
3.0
141
12.0
290
     0
  0
SCALE
  5
4E09
102
{ACAD_REACTORS
330
4DE9
102
}
330
4DE9
100
AcDbScale
 70
     0
300
6" = 1'-0"
140
6.0
141
12.0
290
     0
  0
SCALE
  5
4E0A
102
{ACAD_REACTORS
330
4DE9
102
}
330
4DE9
100
AcDbScale
 70
     0
300
1'-0" = 1'-0"
140
12.0
141
12.0
290
     0
  0
TABLESTYLE
  5
9AC
102
{ACAD_REACTORS
330
9AB
102
}
102
{ACAD_XDICTIONARY
360
4E0C
102
}
330
9AB
100
AcDbTableStyle
  3
Standard
 70
     0
 71
     0
 40
0.06
 41
0.06
280
     0
281
     0
  7
STANDARD
140
0.18
170
     2
 62
     0
 63
   257
283
     0
274
    -2
284
     1
 64
     0
275
    -2
285
     1
 65
     0
276
    -2
286
     1
 66
     0
277
    -2
287
     1
 67
     0
278
    -2
288
     1
 68
     0
279
    -2
289
     1
 69
     0
  7
STANDARD
140
0.25
170
     5
 62
     0
 63
   257
283
     0
274
    -2
284
     1
 64
     0
275
    -2
285
     1
 65
     0
276
    -2
286
     1
 66
     0
277
    -2
287
     1
 67
     0
278
    -2
288
     1
 68
     0
279
    -2
289
     1
 69
     0
  7
STANDARD
140
0.18
170
     5
 62
     0
 63
   257
283
     0
274
    -2
284
     1
 64
     0
275
    -2
285
     1
 65
     0
276
    -2
286
     1
 66
     0
277
    -2
287
     1
 67
     0
278
    -2
288
     1
 68
     0
279
    -2
289
     1
 69
     0
  0
DICTIONARYVAR
  5
4E0B
102
{ACAD_REACTORS
330
946
102
}
330
946
100
DictionaryVariables
280
     0
  1
1:1
  0
DICTIONARYVAR
  5
CC1
102
{ACAD_REACTORS
330
946
102
}
330
946
100
DictionaryVariables
280
     0
  1
Standard
  0
DICTIONARYVAR
  5
947
102
{ACAD_REACTORS
330
946
102
}
330
946
100
DictionaryVariables
280
     0
  1
1
  0
DICTIONARYVAR
  5
CC2
102
{ACAD_REACTORS
330
946
102
}
330
946
100
DictionaryVariables
280
     0
  1

  0
DICTIONARY
  5
4E0C
330
9AC
100
AcDbDictionary
280
     1
281
     1
  3
ACAD_ROUNDTRIP_2008_TABLESTYLE_CELLSTYLEMAP
360
4E0E
  3
ACAD_XREC_ROUNDTRIP
360
4E0D
  0
CELLSTYLEMAP
  5
4E0E
102
{ACAD_REACTORS
330
4E0C
102
}
330
4E0C
100
AcDbCellStyleMap
 90
        3
300
CELLSTYLE
  1
TABLEFORMAT_BEGIN
 90
        5
170
     1
 91
        0
 92
    32768
 62
   257
 93
        1
300
CONTENTFORMAT
  1
CONTENTFORMAT_BEGIN
 90
        0
 91
        0
 92
        4
 93
        0
300

 40
0.0
140
1.0
 94
        5
 62
     0
340
F
144
0.25
309
CONTENTFORMAT_END
171
     1
301
MARGIN
  1
CELLMARGIN_BEGIN
 40
0.06
 40
0.06
 40
0.06
 40
0.06
 40
0.06
 40
0.06
309
CELLMARGIN_END
 94
        6
 95
        1
302
GRIDFORMAT
  1
GRIDFORMAT_BEGIN
 90
        0
 91
        1
 62
     0
 92
       -2
340
0
 93
        0
 40
0.045
309
GRIDFORMAT_END
 95
        2
302
GRIDFORMAT
  1
GRIDFORMAT_BEGIN
 90
        0
 91
        1
 62
     0
 92
       -2
340
0
 93
        0
 40
0.045
309
GRIDFORMAT_END
 95
        4
302
GRIDFORMAT
  1
GRIDFORMAT_BEGIN
 90
        0
 91
        1
 62
     0
 92
       -2
340
0
 93
        0
 40
0.045
309
GRIDFORMAT_END
 95
        8
302
GRIDFORMAT
  1
GRIDFORMAT_BEGIN
 90
        0
 91
        1
 62
     0
 92
       -2
340
0
 93
        0
 40
0.045
309
GRIDFORMAT_END
 95
       16
302
GRIDFORMAT
  1
GRIDFORMAT_BEGIN
 90
        0
 91
        1
 62
     0
 92
       -2
340
0
 93
        0
 40
0.045
309
GRIDFORMAT_END
 95
       32
302
GRIDFORMAT
  1
GRIDFORMAT_BEGIN
 90
        0
 91
        1
 62
     0
 92
       -2
340
0
 93
        0
 40
0.045
309
GRIDFORMAT_END
309
TABLEFORMAT_END
  1
CELLSTYLE_BEGIN
 90
        1
 91
        1
300
_TITLE
309
CELLSTYLE_END
300
CELLSTYLE
  1
TABLEFORMAT_BEGIN
 90
        5
170
     1
 91
        0
 92
        0
 62
   257
 93
        1
300
CONTENTFORMAT
  1
CONTENTFORMAT_BEGIN
 90
        0
 91
        0
 92
        4
 93
        0
300

 40
0.0
140
1.0
 94
        5
 62
     0
340
F
144
0.18
309
CONTENTFORMAT_END
171
     1
301
MARGIN
  1
CELLMARGIN_BEGIN
 40
0.06
 40
0.06
 40
0.06
 40
0.06
 40
0.06
 40
0.06
309
CELLMARGIN_END
 94
        6
 95
        1
302
GRIDFORMAT
  1
GRIDFORMAT_BEGIN
 90
        0
 91
        1
 62
     0
 92
       -2
340
0
 93
        0
 40
0.045
309
GRIDFORMAT_END
 95
        2
302
GRIDFORMAT
  1
GRIDFORMAT_BEGIN
 90
        0
 91
        1
 62
     0
 92
       -2
340
0
 93
        0
 40
0.045
309
GRIDFORMAT_END
 95
        4
302
GRIDFORMAT
  1
GRIDFORMAT_BEGIN
 90
        0
 91
        1
 62
     0
 92
       -2
340
0
 93
        0
 40
0.045
309
GRIDFORMAT_END
 95
        8
302
GRIDFORMAT
  1
GRIDFORMAT_BEGIN
 90
        0
 91
        1
 62
     0
 92
       -2
340
0
 93
        0
 40
0.045
309
GRIDFORMAT_END
 95
       16
302
GRIDFORMAT
  1
GRIDFORMAT_BEGIN
 90
        0
 91
        1
 62
     0
 92
       -2
340
0
 93
        0
 40
0.045
309
GRIDFORMAT_END
 95
       32
302
GRIDFORMAT
  1
GRIDFORMAT_BEGIN
 90
        0
 91
        1
 62
     0
 92
       -2
340
0
 93
        0
 40
0.045
309
GRIDFORMAT_END
309
TABLEFORMAT_END
  1
CELLSTYLE_BEGIN
 90
        2
 91
        1
300
_HEADER
309
CELLSTYLE_END
300
CELLSTYLE
  1
TABLEFORMAT_BEGIN
 90
        5
170
     1
 91
        0
 92
        0
 62
   257
 93
        1
300
CONTENTFORMAT
  1
CONTENTFORMAT_BEGIN
 90
        0
 91
        0
 92
        4
 93
        0
300

 40
0.0
140
1.0
 94
        2
 62
     0
340
F
144
0.18
309
CONTENTFORMAT_END
171
     1
301
MARGIN
  1
CELLMARGIN_BEGIN
 40
0.06
 40
0.06
 40
0.06
 40
0.06
 40
0.06
 40
0.06
309
CELLMARGIN_END
 94
        6
 95
        1
302
GRIDFORMAT
  1
GRIDFORMAT_BEGIN
 90
        0
 91
        1
 62
     0
 92
       -2
340
0
 93
        0
 40
0.045
309
GRIDFORMAT_END
 95
        2
302
GRIDFORMAT
  1
GRIDFORMAT_BEGIN
 90
        0
 91
        1
 62
     0
 92
       -2
340
0
 93
        0
 40
0.045
309
GRIDFORMAT_END
 95
        4
302
GRIDFORMAT
  1
GRIDFORMAT_BEGIN
 90
        0
 91
        1
 62
     0
 92
       -2
340
0
 93
        0
 40
0.045
309
GRIDFORMAT_END
 95
        8
302
GRIDFORMAT
  1
GRIDFORMAT_BEGIN
 90
        0
 91
        1
 62
     0
 92
       -2
340
0
 93
        0
 40
0.045
309
GRIDFORMAT_END
 95
       16
302
GRIDFORMAT
  1
GRIDFORMAT_BEGIN
 90
        0
 91
        1
 62
     0
 92
       -2
340
0
 93
        0
 40
0.045
309
GRIDFORMAT_END
 95
       32
302
GRIDFORMAT
  1
GRIDFORMAT_BEGIN
 90
        0
 91
        1
 62
     0
 92
       -2
340
0
 93
        0
 40
0.045
309
GRIDFORMAT_END
309
TABLEFORMAT_END
  1
CELLSTYLE_BEGIN
 90
        3
 91
        2
300
_DATA
309
CELLSTYLE_END
  0
XRECORD
  5
4E0D
102
{ACAD_REACTORS
330
4E0C
102
}
330
4E0C
100
AcDbXrecord
280
     1
102
ACAD_ROUNDTRIP_PRE2007_TABLESTYLE
 90
        4
 91
        0
  1

 92
        4
 93
        0
  2

 94
        4
 95
        0
  3

  0
ENDSEC
  0
EOF
