  0
SECTION
  2
HEADER
  9
$ACADVER
  1
AC1018
  9
$ACADMAINTVER
 70
     0
  9
$DWGCODEPAGE
  3
ANSI_932
  9
$LASTSAVEDBY
  1
shinwa
  9
$INSBASE
 10
0.0
 20
0.0
 30
0.0
  9
$EXTMIN
 10
-2452.882163968076
 20
1811.721951313844
 30
0.0
  9
$EXTMAX
 10
7167.501745225502
 20
6726.427462192147
 30
0.0
  9
$LIMMIN
 10
0.0
 20
0.0
  9
$LIMMAX
 10
8400.0
 20
5940.0
  9
$ORTHOMODE
 70
     1
  9
$REGENMODE
 70
     1
  9
$FILLMODE
 70
     1
  9
$QTEXTMODE
 70
     0
  9
$MIRRTEXT
 70
     1
  9
$LTSCALE
 40
200.0
  9
$ATTMODE
 70
     1
  9
$TEXTSIZE
 40
60.0
  9
$TRACEWID
 40
0.05
  9
$TEXTSTYLE
  7
STANDARD
  9
$CLAYER
  8
SUNPOU
  9
$CELTYPE
  6
BYLAYER
  9
$CECOLOR
 62
   256
  9
$CELTSCALE
 40
1.0
  9
$DISPSILH
 70
     0
  9
$DIMSCALE
 40
20.0
  9
$DIMASZ
 40
2.0
  9
$DIMEXO
 40
2.0
  9
$DIMDLI
 40
7.0
  9
$DIMRND
 40
0.0
  9
$DIMDLE
 40
0.0
  9
$DIMEXE
 40
0.5
  9
$DIMTP
 40
0.0
  9
$DIMTM
 40
0.0
  9
$DIMTXT
 40
3.0
  9
$DIMCEN
 40
0.0
  9
$DIMTSZ
 40
0.0
  9
$DIMTOL
 70
     0
  9
$DIMLIM
 70
     0
  9
$DIMTIH
 70
     0
  9
$DIMTOH
 70
     0
  9
$DIMSE1
 70
     0
  9
$DIMSE2
 70
     0
  9
$DIMTAD
 70
     1
  9
$DIMZIN
 70
     8
  9
$DIMBLK
  1

  9
$DIMASO
 70
     1
  9
$DIMSHO
 70
     1
  9
$DIMPOST
  1

  9
$DIMAPOST
  1

  9
$DIMALT
 70
     0
  9
$DIMALTD
 70
     2
  9
$DIMALTF
 40
25.4
  9
$DIMLFAC
 40
1.0
  9
$DIMTOFL
 70
     0
  9
$DIMTVP
 40
1.0
  9
$DIMTIX
 70
     1
  9
$DIMSOXD
 70
     0
  9
$DIMSAH
 70
     0
  9
$DIMBLK1
  1

  9
$DIMBLK2
  1

  9
$DIMSTYLE
  2
A3-20
  9
$DIMCLRD
 70
     0
  9
$DIMCLRE
 70
     0
  9
$DIMCLRT
 70
     0
  9
$DIMTFAC
 40
1.0
  9
$DIMGAP
 40
0.8
  9
$DIMJUST
 70
     0
  9
$DIMSD1
 70
     0
  9
$DIMSD2
 70
     0
  9
$DIMTOLJ
 70
     1
  9
$DIMTZIN
 70
     8
  9
$DIMALTZ
 70
     8
  9
$DIMALTTZ
 70
     8
  9
$DIMUPT
 70
     0
  9
$DIMDEC
 70
     0
  9
$DIMTDEC
 70
     0
  9
$DIMALTU
 70
     2
  9
$DIMALTTD
 70
     2
  9
$DIMTXSTY
  7
STANDARD
  9
$DIMAUNIT
 70
     0
  9
$DIMADEC
 70
     4
  9
$DIMALTRND
 40
0.0
  9
$DIMAZIN
 70
     0
  9
$DIMDSEP
 70
    46
  9
$DIMATFIT
 70
     3
  9
$DIMFRAC
 70
     0
  9
$DIMLDRBLK
  1

  9
$DIMLUNIT
 70
     2
  9
$DIMLWD
 70
    -2
  9
$DIMLWE
 70
    -2
  9
$DIMTMOVE
 70
     2
  9
$LUNITS
 70
     2
  9
$LUPREC
 70
     4
  9
$SKETCHINC
 40
0.1
  9
$FILLETRAD
 40
30.0
  9
$AUNITS
 70
     0
  9
$AUPREC
 70
     6
  9
$MENU
  1
acad
  9
$ELEVATION
 40
0.0
  9
$PELEVATION
 40
0.0
  9
$THICKNESS
 40
0.0
  9
$LIMCHECK
 70
     0
  9
$CHAMFERA
 40
0.0
  9
$CHAMFERB
 40
0.0
  9
$CHAMFERC
 40
0.0
  9
$CHAMFERD
 40
0.0
  9
$SKPOLY
 70
     0
  9
$TDCREATE
 40
2450014.656655093
  9
$TDUCREATE
 40
2450014.281655093
  9
$TDUPDATE
 40
2458085.686834479
  9
$TDUUPDATE
 40
2458085.311834479
  9
$TDINDWG
 40
0.1305083102
  9
$TDUSRTIMER
 40
0.1305083102
  9
$USRTIMER
 70
     1
  9
$ANGBASE
 50
0.0
  9
$ANGDIR
 70
     0
  9
$PDMODE
 70
     0
  9
$PDSIZE
 40
0.0
  9
$PLINEWID
 40
0.0
  9
$SPLFRAME
 70
     0
  9
$SPLINETYPE
 70
     6
  9
$SPLINESEGS
 70
     8
  9
$HANDSEED
  5
397A
  9
$SURFTAB1
 70
     6
  9
$SURFTAB2
 70
     6
  9
$SURFTYPE
 70
     6
  9
$SURFU
 70
     6
  9
$SURFV
 70
     6
  9
$UCSBASE
  2

  9
$UCSNAME
  2

  9
$UCSORG
 10
0.0
 20
0.0
 30
0.0
  9
$UCSXDIR
 10
1.0
 20
0.0
 30
0.0
  9
$UCSYDIR
 10
0.0
 20
1.0
 30
0.0
  9
$UCSORTHOREF
  2

  9
$UCSORTHOVIEW
 70
     0
  9
$UCSORGTOP
 10
0.0
 20
0.0
 30
0.0
  9
$UCSORGBOTTOM
 10
0.0
 20
0.0
 30
0.0
  9
$UCSORGLEFT
 10
0.0
 20
0.0
 30
0.0
  9
$UCSORGRIGHT
 10
0.0
 20
0.0
 30
0.0
  9
$UCSORGFRONT
 10
0.0
 20
0.0
 30
0.0
  9
$UCSORGBACK
 10
0.0
 20
0.0
 30
0.0
  9
$PUCSBASE
  2

  9
$PUCSNAME
  2

  9
$PUCSORG
 10
0.0
 20
0.0
 30
0.0
  9
$PUCSXDIR
 10
1.0
 20
0.0
 30
0.0
  9
$PUCSYDIR
 10
0.0
 20
1.0
 30
0.0
  9
$PUCSORTHOREF
  2

  9
$PUCSORTHOVIEW
 70
     0
  9
$PUCSORGTOP
 10
0.0
 20
0.0
 30
0.0
  9
$PUCSORGBOTTOM
 10
0.0
 20
0.0
 30
0.0
  9
$PUCSORGLEFT
 10
0.0
 20
0.0
 30
0.0
  9
$PUCSORGRIGHT
 10
0.0
 20
0.0
 30
0.0
  9
$PUCSORGFRONT
 10
0.0
 20
0.0
 30
0.0
  9
$PUCSORGBACK
 10
0.0
 20
0.0
 30
0.0
  9
$USERI1
 70
     0
  9
$USERI2
 70
     0
  9
$USERI3
 70
     0
  9
$USERI4
 70
     0
  9
$USERI5
 70
     0
  9
$USERR1
 40
0.0
  9
$USERR2
 40
0.0
  9
$USERR3
 40
0.0
  9
$USERR4
 40
0.0
  9
$USERR5
 40
0.0
  9
$WORLDVIEW
 70
     1
  9
$SHADEDGE
 70
     3
  9
$SHADEDIF
 70
    70
  9
$TILEMODE
 70
     1
  9
$MAXACTVP
 70
    48
  9
$PINSBASE
 10
0.0
 20
0.0
 30
0.0
  9
$PLIMCHECK
 70
     0
  9
$PEXTMIN
 10
1.000000000000000E+20
 20
1.000000000000000E+20
 30
1.000000000000000E+20
  9
$PEXTMAX
 10
-1.000000000000000E+20
 20
-1.000000000000000E+20
 30
-1.000000000000000E+20
  9
$PLIMMIN
 10
0.0
 20
0.0
  9
$PLIMMAX
 10
12.0
 20
9.0
  9
$UNITMODE
 70
     0
  9
$VISRETAIN
 70
     0
  9
$PLINEGEN
 70
     0
  9
$PSLTSCALE
 70
     0
  9
$TREEDEPTH
 70
  3020
  9
$CMLSTYLE
  2
STANDARD
  9
$CMLJUST
 70
     0
  9
$CMLSCALE
 40
1.0
  9
$PROXYGRAPHICS
 70
     1
  9
$MEASUREMENT
 70
     0
  9
$CELWEIGHT
370
    -1
  9
$ENDCAPS
280
     0
  9
$JOINSTYLE
280
     0
  9
$LWDISPLAY
290
     0
  9
$INSUNITS
 70
     0
  9
$HYPERLINKBASE
  1

  9
$STYLESHEET
  1

  9
$XEDIT
290
     1
  9
$CEPSNTYPE
380
     0
  9
$PSTYLEMODE
290
     1
  9
$FINGERPRINTGUID
  2
{F67648C0-8D40-11D8-A1CD-0050FC45377D}
  9
$VERSIONGUID
  2
{92AE5185-268A-4F15-B89A-3B5F52EC4091}
  9
$EXTNAMES
290
     1
  9
$PSVPSCALE
 40
0.0
  9
$OLESTARTUP
290
     0
  9
$SORTENTS
280
   127
  9
$INDEXCTL
280
     0
  9
$HIDETEXT
280
     0
  9
$XCLIPFRAME
290
     0
  9
$HALOGAP
280
     0
  9
$OBSCOLOR
 70
   257
  9
$OBSLTYPE
280
     0
  9
$INTERSECTIONDISPLAY
280
     0
  9
$INTERSECTIONCOLOR
 70
   257
  9
$DIMASSOC
280
     1
  9
$PROJECTNAME
  1

  0
ENDSEC
  0
SECTION
  2
CLASSES
  0
CLASS
  1
ACDBDICTIONARYWDFLT
  2
AcDbDictionaryWithDefault
  3
ObjectDBX Classes
 90
        0
 91
        4
280
     0
281
     0
  0
CLASS
  1
ACDBPLACEHOLDER
  2
AcDbPlaceHolder
  3
ObjectDBX Classes
 90
        0
 91
        1
280
     0
281
     0
  0
CLASS
  1
LAYOUT
  2
AcDbLayout
  3
ObjectDBX Classes
 90
        0
 91
        1
280
     0
281
     0
  0
CLASS
  1
DICTIONARYVAR
  2
AcDbDictionaryVar
  3
ObjectDBX Classes
 90
        0
 91
        4
280
     0
281
     0
  0
CLASS
  1
DUMMY
  2
AcDbLongTransaction
  3
DUMMY
 90
        0
 91
        1
280
     0
281
     0
  0
CLASS
  1
LWPOLYLINE
  2
AcDbPolyline
  3
AutoCAD 2000
 90
        0
 91
        1
280
     0
281
     1
  0
CLASS
  1
HATCH
  2
AcDbHatch
  3
AutoCAD 2000
 90
        0
 91
        1
280
     0
281
     1
  0
CLASS
  1
XRECORD
  2
AcDbXrecord
  3
AutoCAD 2000
 90
        0
 91
        1
280
     0
281
     0
  0
CLASS
  1
TABLESTYLE
  2
AcDbTableStyle
  3
ObjectDBX Classes
 90
     4095
 91
        4
280
     0
281
     0
  0
CLASS
  1
SORTENTSTABLE
  2
AcDbSortentsTable
  3
ObjectDBX Classes
 90
        0
 91
        4
280
     0
281
     0
  0
CLASS
  1
MATERIAL
  2
AcDbMaterial
  3
ObjectDBX Classes
 90
     1153
 91
        4
280
     0
281
     0
  0
CLASS
  1
VISUALSTYLE
  2
AcDbVisualStyle
  3
ObjectDBX Classes
 90
     4095
 91
        4
280
     0
281
     0
  0
CLASS
  1
SCALE
  2
AcDbScale
  3
ObjectDBX Classes
 90
     1153
 91
        4
280
     0
281
     0
  0
CLASS
  1
MLEADERSTYLE
  2
AcDbMLeaderStyle
  3
ACDB_MLEADERSTYLE_CLASS
 90
     4095
 91
        4
280
     0
281
     0
  0
CLASS
  1
ACDBSECTIONVIEWSTYLE
  2
AcDbSectionViewStyle
  3
ObjectDBX Classes
 90
     1025
 91
        2
280
     1
281
     0
  0
CLASS
  1
ACDBDETAILVIEWSTYLE
  2
AcDbDetailViewStyle
  3
ObjectDBX Classes
 90
     1025
 91
        2
280
     1
281
     0
  0
CLASS
  1
CELLSTYLEMAP
  2
AcDbCellStyleMap
  3
ObjectDBX Classes
 90
     1152
 91
        4
280
     0
281
     0
  0
ENDSEC
  0
SECTION
  2
TABLES
  0
TABLE
  2
VPORT
  5
8
102
{ACAD_XDICTIONARY
360
393E
102
}
330
0
100
AcDbSymbolTable
 70
     1
  0
VPORT
  5
3342
330
8
100
AcDbSymbolTableRecord
100
AcDbViewportTableRecord
  2
*Active
 70
     0
 10
0.0
 20
0.0
 11
1.0
 21
1.0
 12
4014.174441083326
 22
4091.463132076162
 13
0.0
 23
0.0
 14
20.0
 24
20.0
 15
200.0
 25
200.0
 16
0.0
 26
0.0
 36
1.0
 17
0.0
 27
0.0
 37
0.0
 40
7626.92831799202
 41
1.560747663551402
 42
50.0
 43
0.0
 44
0.0
 50
0.0
 51
0.0
 71
     0
 72
   100
 73
     1
 74
     1
 75
     0
 76
     0
 77
     0
 78
     0
281
     0
 65
     1
110
0.0
120
0.0
130
0.0
111
1.0
121
0.0
131
0.0
112
0.0
122
1.0
132
0.0
 79
     0
146
0.0
1001
ACAD_NAV_VCDISPLAY
1070
     3
  0
ENDTAB
  0
TABLE
  2
LTYPE
  5
5
330
0
100
AcDbSymbolTable
 70
     4
  0
LTYPE
  5
11
330
5
100
AcDbSymbolTableRecord
100
AcDbLinetypeTableRecord
  2
BYBLOCK
 70
     0
  3

 72
    65
 73
     0
 40
0.0
  0
LTYPE
  5
12
330
5
100
AcDbSymbolTableRecord
100
AcDbLinetypeTableRecord
  2
BYLAYER
 70
     0
  3

 72
    65
 73
     0
 40
0.0
  0
LTYPE
  5
13
330
5
100
AcDbSymbolTableRecord
100
AcDbLinetypeTableRecord
  2
CONTINUOUS
 70
     0
  3
Solid line
 72
    65
 73
     0
 40
0.0
  0
LTYPE
  5
1E
330
5
100
AcDbSymbolTableRecord
100
AcDbLinetypeTableRecord
  2
HIDDEN
 70
     0
  3
_ _ _ _ _ _ _ _ _ _ _ _ _ _ _ _ _ _ _ _ _ _ _
 72
    65
 73
     2
 40
0.375
 49
0.25
 74
     0
 49
-0.125
 74
     0
  0
LTYPE
  5
1F
330
5
100
AcDbSymbolTableRecord
100
AcDbLinetypeTableRecord
  2
CENTER
 70
     0
  3
____ _ ____ _ ____ _ ____ _ ____ _ ____ _ ____
 72
    65
 73
     4
 40
2.0
 49
1.25
 74
     0
 49
-0.25
 74
     0
 49
0.25
 74
     0
 49
-0.25
 74
     0
  0
LTYPE
  5
20
330
5
100
AcDbSymbolTableRecord
100
AcDbLinetypeTableRecord
  2
PHANTOM
 70
     0
  3
_____ _ _ _____ _ _ _____ _ _ _____ _ _ ____
 72
    65
 73
     6
 40
2.5
 49
1.25
 74
     0
 49
-0.25
 74
     0
 49
0.25
 74
     0
 49
-0.25
 74
     0
 49
0.25
 74
     0
 49
-0.25
 74
     0
  0
ENDTAB
  0
TABLE
  2
LAYER
  5
2
102
{ACAD_XDICTIONARY
360
38FA
102
}
330
0
100
AcDbSymbolTable
 70
    10
  0
LAYER
  5
E
102
{ACAD_XDICTIONARY
360
3824
102
}
330
2
100
AcDbSymbolTableRecord
100
AcDbLayerTableRecord
  2
0
 70
     0
 62
     7
  6
CONTINUOUS
370
    -3
390
6E
  0
LAYER
  5
23
102
{ACAD_XDICTIONARY
360
3826
102
}
330
2
100
AcDbSymbolTableRecord
100
AcDbLayerTableRecord
  2
SUNPOU
 70
     0
 62
     1
  6
CONTINUOUS
370
    -3
390
6E
  0
LAYER
  5
24
102
{ACAD_XDICTIONARY
360
3828
102
}
330
2
100
AcDbSymbolTableRecord
100
AcDbLayerTableRecord
  2
HAIKIN
 70
     0
 62
     2
  6
CONTINUOUS
370
    -3
390
6E
  0
LAYER
  5
25
102
{ACAD_XDICTIONARY
360
382A
102
}
330
2
100
AcDbSymbolTableRecord
100
AcDbLayerTableRecord
  2
SEIHIN
 70
     0
 62
     3
  6
CONTINUOUS
370
    -3
390
6E
  0
LAYER
  5
26
102
{ACAD_XDICTIONARY
360
382C
102
}
330
2
100
AcDbSymbolTableRecord
100
AcDbLayerTableRecord
  2
HASEN
 70
     0
 62
     4
  6
HIDDEN
370
    -3
390
6E
  0
LAYER
  5
27
102
{ACAD_XDICTIONARY
360
382E
102
}
330
2
100
AcDbSymbolTableRecord
100
AcDbLayerTableRecord
  2
1HASEN
 70
     0
 62
     5
  6
CENTER
370
    -3
390
6E
  0
LAYER
  5
28
102
{ACAD_XDICTIONARY
360
3830
102
}
330
2
100
AcDbSymbolTableRecord
100
AcDbLayerTableRecord
  2
2HASEN
 70
     0
 62
     6
  6
PHANTOM
370
    -3
390
6E
  0
LAYER
  5
29
102
{ACAD_XDICTIONARY
360
3832
102
}
330
2
100
AcDbSymbolTableRecord
100
AcDbLayerTableRecord
  2
HOJO
 70
     0
 62
     7
  6
CONTINUOUS
370
    -3
390
6E
  0
LAYER
  5
2A
102
{ACAD_XDICTIONARY
360
3834
102
}
330
2
100
AcDbSymbolTableRecord
100
AcDbLayerTableRecord
  2
TEN
 70
     0
 62
     7
  6
CONTINUOUS
370
    -3
390
6E
  0
LAYER
  5
6E5
330
2
100
AcDbSymbolTableRecord
100
AcDbLayerTableRecord
  2
DEFPOINTS
 70
     0
 62
     7
  6
CONTINUOUS
290
     0
370
    -3
390
6E
  0
ENDTAB
  0
TABLE
  2
STYLE
  5
3
330
0
100
AcDbSymbolTable
 70
     1
  0
STYLE
  5
F
330
3
100
AcDbSymbolTableRecord
100
AcDbTextStyleTableRecord
  2
STANDARD
 70
     0
 40
0.0
 41
0.8
 50
0.0
 71
     0
 42
60.0
  3
TXT.shx
  4
BIGFONT.shx
  0
ENDTAB
  0
TABLE
  2
VIEW
  5
6
330
0
100
AcDbSymbolTable
 70
     0
  0
ENDTAB
  0
TABLE
  2
UCS
  5
7
330
0
100
AcDbSymbolTable
 70
     0
  0
ENDTAB
  0
TABLE
  2
APPID
  5
9
330
0
100
AcDbSymbolTable
 70
    13
  0
APPID
  5
10
330
9
100
AcDbSymbolTableRecord
100
AcDbRegAppTableRecord
  2
ACAD
 70
     0
  0
APPID
  5
B6
330
9
100
AcDbSymbolTableRecord
100
AcDbRegAppTableRecord
  2
ACAD_DSTYLE_DIMTEXT_FILL
 70
     0
  0
APPID
  5
B7
330
9
100
AcDbSymbolTableRecord
100
AcDbRegAppTableRecord
  2
ACAD_DSTYLE_DIMEXT_LENGTH
 70
     0
  0
APPID
  5
B8
330
9
100
AcDbSymbolTableRecord
100
AcDbRegAppTableRecord
  2
ACAD_DSTYLE_DIMEXT_ENABLED
 70
     0
  0
APPID
  5
B9
330
9
100
AcDbSymbolTableRecord
100
AcDbRegAppTableRecord
  2
ACAD_DSTYLE_DIM_LINETYPE
 70
     0
  0
APPID
  5
BA
330
9
100
AcDbSymbolTableRecord
100
AcDbRegAppTableRecord
  2
ACAD_DSTYLE_DIM_EXT1_LINETYPE
 70
     0
  0
APPID
  5
BB
330
9
100
AcDbSymbolTableRecord
100
AcDbRegAppTableRecord
  2
ACAD_DSTYLE_DIM_EXT2_LINETYPE
 70
     0
  0
APPID
  5
177
330
9
100
AcDbSymbolTableRecord
100
AcDbRegAppTableRecord
  2
ACAD_DSTYLE_DIMJOGGED_JOGANGLE_SYMBOL
 70
     0
  0
APPID
  5
35B
330
9
100
AcDbSymbolTableRecord
100
AcDbRegAppTableRecord
  2
ACAD_DSTYLE_DIMARC_LENGTH_SYMBOL
 70
     0
  0
APPID
  5
E10
330
9
100
AcDbSymbolTableRecord
100
AcDbRegAppTableRecord
  2
ACAD_EXEMPT_FROM_CAD_STANDARDS
 70
     0
  0
APPID
  5
25EE
330
9
100
AcDbSymbolTableRecord
100
AcDbRegAppTableRecord
  2
ACAD_PSEXT
 70
     0
  0
APPID
  5
3396
330
9
100
AcDbSymbolTableRecord
100
AcDbRegAppTableRecord
  2
ACAD_NAV_VCDISPLAY
 70
     0
  0
APPID
  5
3869
330
9
100
AcDbSymbolTableRecord
100
AcDbRegAppTableRecord
  2
ACAD_MLEADERVER
 70
     0
  0
ENDTAB
  0
TABLE
  2
DIMSTYLE
  5
A
330
0
100
AcDbSymbolTable
 70
     3
100
AcDbDimStyleTable
  0
DIMSTYLE
105
61
330
A
100
AcDbSymbolTableRecord
100
AcDbDimStyleTableRecord
  2
STANDARD
 70
     0
178
     0
340
F
  0
DIMSTYLE
105
360
102
{ACAD_REACTORS
330
2EAC
330
2EAB
330
2EAA
330
2EA8
330
2EA4
330
2EA3
330
2EA2
330
2EA1
330
2EA0
330
3186
330
319C
330
31B3
330
31C0
330
3225
330
3232
330
3719
330
371A
330
371B
330
371C
330
371D
330
371E
330
371F
330
3720
330
3721
330
373A
330
380E
330
38AC
330
38BA
330
38ED
102
}
330
A
100
AcDbSymbolTableRecord
100
AcDbDimStyleTableRecord
  2
A3-20
 70
     0
 40
20.0
 41
2.0
 42
2.0
 43
7.0
 44
0.5
 73
     0
 74
     0
 77
     1
 78
     8
140
3.0
141
0.0
145
1.0
147
0.8
174
     1
178
     0
179
     4
271
     0
272
     0
279
     2
284
     8
285
     8
286
     8
340
F
1001
ACAD_DSTYLE_DIMJOGGED_JOGANGLE_SYMBOL
1070
   384
1040
0.7853981633974483
  0
DIMSTYLE
105
25ED
330
A
100
AcDbSymbolTableRecord
100
AcDbDimStyleTableRecord
  2
A3-25
 70
     0
 40
25.0
 41
2.0
 42
2.0
 43
7.0
 44
0.5
 73
     0
 74
     0
 77
     1
 78
     8
140
3.0
141
0.0
145
1.0
147
0.8
174
     1
178
     0
179
     4
271
     0
272
     0
279
     2
284
     8
285
     8
286
     8
340
F
1001
ACAD_DSTYLE_DIMJOGGED_JOGANGLE_SYMBOL
1070
   384
1040
0.7853981633974483
  0
ENDTAB
  0
TABLE
  2
BLOCK_RECORD
  5
1
330
0
100
AcDbSymbolTable
 70
    81
  0
BLOCK_RECORD
  5
17
102
{ACAD_XDICTIONARY
360
9C
102
}
330
1
100
AcDbSymbolTableRecord
100
AcDbBlockTableRecord
  2
*MODEL_SPACE
340
71
  0
BLOCK_RECORD
  5
14
330
1
100
AcDbSymbolTableRecord
100
AcDbBlockTableRecord
  2
*PAPER_SPACE
340
72
  0
BLOCK_RECORD
  5
1C
330
1
100
AcDbSymbolTableRecord
100
AcDbBlockTableRecord
  2
BORDER
340
0
  0
BLOCK_RECORD
  5
1D
330
1
100
AcDbSymbolTableRecord
100
AcDbBlockTableRecord
  2
SA3
340
0
  0
BLOCK_RECORD
  5
2EB6
330
1
100
AcDbSymbolTableRecord
100
AcDbBlockTableRecord
  2
*D2
340
0
  0
BLOCK_RECORD
  5
2EC2
330
1
100
AcDbSymbolTableRecord
100
AcDbBlockTableRecord
  2
*D3
340
0
  0
BLOCK_RECORD
  5
2ECF
330
1
100
AcDbSymbolTableRecord
100
AcDbBlockTableRecord
  2
*D4
340
0
  0
BLOCK_RECORD
  5
2EDC
330
1
100
AcDbSymbolTableRecord
100
AcDbBlockTableRecord
  2
*D5
340
0
  0
BLOCK_RECORD
  5
2EE9
330
1
100
AcDbSymbolTableRecord
100
AcDbBlockTableRecord
  2
*D6
340
0
  0
BLOCK_RECORD
  5
2F1C
330
1
100
AcDbSymbolTableRecord
100
AcDbBlockTableRecord
  2
*D7
340
0
  0
BLOCK_RECORD
  5
2F36
330
1
100
AcDbSymbolTableRecord
100
AcDbBlockTableRecord
  2
*D8
340
0
  0
BLOCK_RECORD
  5
2F42
330
1
100
AcDbSymbolTableRecord
100
AcDbBlockTableRecord
  2
*D9
340
0
  0
BLOCK_RECORD
  5
2F4A
330
1
100
AcDbSymbolTableRecord
100
AcDbBlockTableRecord
  2
*D10
340
0
  0
BLOCK_RECORD
  5
3187
330
1
100
AcDbSymbolTableRecord
100
AcDbBlockTableRecord
  2
*D20
340
0
  0
BLOCK_RECORD
  5
319D
330
1
100
AcDbSymbolTableRecord
100
AcDbBlockTableRecord
  2
*D21
340
0
  0
BLOCK_RECORD
  5
31B4
330
1
100
AcDbSymbolTableRecord
100
AcDbBlockTableRecord
  2
*D22
340
0
  0
BLOCK_RECORD
  5
31C1
330
1
100
AcDbSymbolTableRecord
100
AcDbBlockTableRecord
  2
*D23
340
0
  0
BLOCK_RECORD
  5
3226
330
1
100
AcDbSymbolTableRecord
100
AcDbBlockTableRecord
  2
*D24
340
0
  0
BLOCK_RECORD
  5
3233
330
1
100
AcDbSymbolTableRecord
100
AcDbBlockTableRecord
  2
*D25
340
0
  0
BLOCK_RECORD
  5
373B
330
1
100
AcDbSymbolTableRecord
100
AcDbBlockTableRecord
  2
*D67
340
0
  0
BLOCK_RECORD
  5
3747
330
1
100
AcDbSymbolTableRecord
100
AcDbBlockTableRecord
  2
*D68
340
0
  0
BLOCK_RECORD
  5
3753
330
1
100
AcDbSymbolTableRecord
100
AcDbBlockTableRecord
  2
*D69
340
0
  0
BLOCK_RECORD
  5
375F
330
1
100
AcDbSymbolTableRecord
100
AcDbBlockTableRecord
  2
*D70
340
0
  0
BLOCK_RECORD
  5
376B
330
1
100
AcDbSymbolTableRecord
100
AcDbBlockTableRecord
  2
*D71
340
0
  0
BLOCK_RECORD
  5
3777
330
1
100
AcDbSymbolTableRecord
100
AcDbBlockTableRecord
  2
*D72
340
0
  0
BLOCK_RECORD
  5
3783
330
1
100
AcDbSymbolTableRecord
100
AcDbBlockTableRecord
  2
*D73
340
0
  0
BLOCK_RECORD
  5
378F
330
1
100
AcDbSymbolTableRecord
100
AcDbBlockTableRecord
  2
*D74
340
0
  0
BLOCK_RECORD
  5
379B
330
1
100
AcDbSymbolTableRecord
100
AcDbBlockTableRecord
  2
*D75
340
0
  0
BLOCK_RECORD
  5
37A7
330
1
100
AcDbSymbolTableRecord
100
AcDbBlockTableRecord
  2
*D76
340
0
  0
BLOCK_RECORD
  5
380F
330
1
100
AcDbSymbolTableRecord
100
AcDbBlockTableRecord
  2
*D77
340
0
  0
BLOCK_RECORD
  5
38AD
330
1
100
AcDbSymbolTableRecord
100
AcDbBlockTableRecord
  2
*D78
340
0
  0
BLOCK_RECORD
  5
38BB
330
1
100
AcDbSymbolTableRecord
100
AcDbBlockTableRecord
  2
*D79
340
0
  0
BLOCK_RECORD
  5
38EE
330
1
100
AcDbSymbolTableRecord
100
AcDbBlockTableRecord
  2
*D80
340
0
  0
ENDTAB
  0
ENDSEC
  0
SECTION
  2
BLOCKS
  0
BLOCK
  5
2D
330
17
100
AcDbEntity
  8
0
100
AcDbBlockBegin
  2
*MODEL_SPACE
 70
     0
 10
0.0
 20
0.0
 30
0.0
  3
*MODEL_SPACE
  1

  0
ENDBLK
  5
2E
330
17
100
AcDbEntity
  8
0
100
AcDbBlockEnd
  0
BLOCK
  5
2B
330
14
100
AcDbEntity
 67
     1
  8
0
100
AcDbBlockBegin
  2
*PAPER_SPACE
 70
     0
 10
0.0
 20
0.0
 30
0.0
  3
*PAPER_SPACE
  1

  0
ENDBLK
  5
2C
330
14
100
AcDbEntity
 67
     1
  8
0
100
AcDbBlockEnd
  0
BLOCK
  5
2F
330
1C
100
AcDbEntity
  8
0
100
AcDbBlockBegin
  2
BORDER
 70
     0
 10
0.0
 20
0.0
 30
0.0
  3
BORDER
  1

  0
LINE
  5
30
330
1C
100
AcDbEntity
  8
0
100
AcDbLine
 10
0.0
 20
0.0
 30
0.0
 11
1.00000000000004
 21
0.0
 31
0.0
  0
LINE
  5
31
330
1C
100
AcDbEntity
  8
0
100
AcDbLine
 10
1.00000000000004
 20
0.0
 30
0.0
 11
1.00000000000004
 21
1.00000000000004
 31
0.0
  0
LINE
  5
32
330
1C
100
AcDbEntity
  8
0
100
AcDbLine
 10
1.00000000000004
 20
1.00000000000004
 30
0.0
 11
0.0
 21
1.00000000000004
 31
0.0
  0
LINE
  5
33
330
1C
100
AcDbEntity
  8
0
100
AcDbLine
 10
0.0
 20
1.00000000000004
 30
0.0
 11
0.0
 21
0.0
 31
0.0
  0
ENDBLK
  5
34
330
1C
100
AcDbEntity
  8
0
100
AcDbBlockEnd
  0
BLOCK
  5
35
330
1D
100
AcDbEntity
  8
HAIKIN
100
AcDbBlockBegin
  2
SA3
 70
     0
 10
0.0
 20
0.0
 30
0.0
  3
SA3
  1

  0
TEXT
  5
36
330
1D
100
AcDbEntity
  8
SUNPOU
100
AcDbText
 10
340.0
 20
0.0
 30
0.0
 40
2.5
  1
新和コンクリート工業株式会社
100
AcDbText
  0
TEXT
  5
39
330
1D
100
AcDbEntity
  8
SUNPOU
100
AcDbText
 10
361.4166666666667
 20
6.25
 30
0.0
 40
2.5
  1
製図
 72
     4
 11
364.0
 21
7.5
 31
0.0
100
AcDbText
  0
TEXT
  5
3A
330
1D
100
AcDbEntity
  8
SUNPOU
100
AcDbText
 10
361.3333333333333
 20
11.25
 30
0.0
 40
2.5
  1
設計
 72
     4
 11
364.0
 21
12.5
 31
0.0
100
AcDbText
  0
TEXT
  5
3B
330
1D
100
AcDbEntity
  8
SUNPOU
100
AcDbText
 10
339.0833333333333
 20
6.250000000000014
 30
0.0
 40
2.5
  1
認
 72
     4
 11
340.25
 21
7.500000000000014
 31
0.0
100
AcDbText
  0
TEXT
  5
3C
330
1D
100
AcDbEntity
  8
SUNPOU
100
AcDbText
 10
339.0833333333333
 20
11.33333333333336
 30
0.0
 40
2.5
  1
承
 72
     4
 11
340.25
 21
12.50000000000003
 31
0.0
100
AcDbText
  0
TEXT
  5
3D
330
1D
100
AcDbEntity
  8
SUNPOU
100
AcDbText
 10
312.75
 20
11.75000000000001
 30
0.0
 40
2.5
  1
図　面　番　号
 72
     4
 11
323.0
 21
13.00000000000001
 31
0.0
100
AcDbText
  0
TEXT
  5
3E
330
1D
100
AcDbEntity
  8
SUNPOU
100
AcDbText
 10
362.0
 20
17.0
 30
0.0
 40
2.5
  1
１／
100
AcDbText
  0
TEXT
  5
3F
330
1D
100
AcDbEntity
  8
SUNPOU
100
AcDbText
 10
347.3333333333333
 20
16.25000000000001
 30
0.0
 40
2.5
  1
縮　　尺
 72
     4
 11
353.0
 21
17.50000000000001
 31
0.0
100
AcDbText
  0
TEXT
  5
40
330
1D
100
AcDbEntity
  8
SUNPOU
100
AcDbText
 10
347.3333333333333
 20
21.25
 30
0.0
 40
2.5
  1
鉄 筋 量
 72
     4
 11
353.0
 21
22.5
 31
0.0
100
AcDbText
  0
TEXT
  5
41
330
1D
100
AcDbEntity
  8
SUNPOU
100
AcDbText
 10
347.3333333333333
 20
26.25
 30
0.0
 40
2.5
  1
製 造 数
 72
     4
 11
353.0
 21
27.5
 31
0.0
100
AcDbText
  0
TEXT
  5
42
330
1D
100
AcDbEntity
  8
SUNPOU
100
AcDbText
 10
377.0
 20
21.0
 30
0.0
 40
2.5
  1
ｋｇ
 72
     2
 11
382.0
 21
21.0
 31
0.0
100
AcDbText
  0
TEXT
  5
43
330
1D
100
AcDbEntity
  8
SUNPOU
100
AcDbText
 10
339.5
 20
21.0
 30
0.0
 40
2.5
  1
ｋｇ
 72
     2
 11
344.5
 21
21.0
 31
0.0
100
AcDbText
  0
TEXT
  5
44
330
1D
100
AcDbEntity
  8
SUNPOU
100
AcDbText
 10
310.0
 20
16.25000000000001
 30
0.0
 40
2.5
  1
年 月 日
 72
     4
 11
315.5
 21
17.50000000000001
 31
0.0
100
AcDbText
  0
TEXT
  5
45
330
1D
100
AcDbEntity
  8
SUNPOU
100
AcDbText
 10
309.8333333333333
 20
21.25
 30
0.0
 40
2.5
  1
製品質量
 72
     4
 11
315.5
 21
22.5
 31
0.0
100
AcDbText
  0
TEXT
  5
46
330
1D
100
AcDbEntity
  8
SUNPOU
100
AcDbText
 10
309.9166666666667
 20
26.25
 30
0.0
 40
2.5
  1
業 者 名
 72
     4
 11
315.5
 21
27.5
 31
0.0
100
AcDbText
  0
TEXT
  5
47
330
1D
100
AcDbEntity
  8
SUNPOU
100
AcDbText
 10
309.8333333333333
 20
32.5
 30
0.0
 40
2.5
  1
名　　称
 72
     4
 11
315.5
 21
33.75
 31
0.0
100
AcDbText
  0
LINE
  5
48
330
1D
100
AcDbEntity
  8
SUNPOU
100
AcDbLine
 10
338.0
 20
11.00000000000001
 30
0.0
 11
308.0
 21
11.00000000000001
 31
0.0
  0
LINE
  5
49
330
1D
100
AcDbEntity
  8
SUNPOU
100
AcDbLine
 10
367.5
 20
4.999999999999986
 30
0.0
 11
367.5
 21
14.99999999999999
 31
0.0
  0
LINE
  5
4A
330
1D
100
AcDbEntity
  8
SUNPOU
100
AcDbLine
 10
360.5
 20
4.999999999999986
 30
0.0
 11
360.5
 21
14.99999999999999
 31
0.0
  0
LINE
  5
4B
330
1D
100
AcDbEntity
  8
SUNPOU
100
AcDbLine
 10
342.5
 20
4.999999999999995
 30
0.0
 11
342.5
 21
15.0
 31
0.0
  0
LINE
  5
4C
330
1D
100
AcDbEntity
  8
SUNPOU
100
AcDbLine
 10
338.0
 20
4.999999999999995
 30
0.0
 11
338.0
 21
15.0
 31
0.0
  0
LINE
  5
4D
330
1D
100
AcDbEntity
  8
SUNPOU
100
AcDbLine
 10
323.0
 20
15.00000000000001
 30
0.0
 11
323.0
 21
37.5
 31
0.0
  0
LINE
  5
4E
330
1D
100
AcDbEntity
  8
SUNPOU
100
AcDbLine
 10
360.5
 20
15.00000000000001
 30
0.0
 11
360.5
 21
30.0
 31
0.0
  0
LINE
  5
4F
330
1D
100
AcDbEntity
  8
SUNPOU
100
AcDbLine
 10
345.5
 20
15.00000000000001
 30
0.0
 11
345.5
 21
30.0
 31
0.0
  0
LINE
  5
50
330
1D
100
AcDbEntity
  8
SUNPOU
100
AcDbLine
 10
383.0
 20
30.0
 30
0.0
 11
308.0
 21
30.0
 31
0.0
  0
LINE
  5
51
330
1D
100
AcDbEntity
  8
SUNPOU
100
AcDbLine
 10
383.0
 20
25.0
 30
0.0
 11
308.0
 21
25.0
 31
0.0
  0
LINE
  5
52
330
1D
100
AcDbEntity
  8
SUNPOU
100
AcDbLine
 10
383.0
 20
20.0
 30
0.0
 11
308.0
 21
20.0
 31
0.0
  0
LINE
  5
53
330
1D
100
AcDbEntity
  8
SUNPOU
100
AcDbLine
 10
383.0
 20
14.99999999999999
 30
0.0
 11
308.0
 21
15.00000000000004
 31
0.0
  0
LINE
  5
54
330
1D
100
AcDbEntity
  8
HAIKIN
100
AcDbLine
 10
308.0
 20
37.5
 30
0.0
 11
383.0
 21
37.5
 31
0.0
  0
LINE
  5
55
330
1D
100
AcDbEntity
  8
HAIKIN
100
AcDbLine
 10
308.0
 20
5.000000000000009
 30
0.0
 11
308.0
 21
37.5
 31
0.0
  0
LINE
  5
56
330
1D
100
AcDbEntity
  8
SUNPOU
100
AcDbLine
 10
0.000000000000016
 20
277.0
 30
0.0
 11
0.000000000000016
 21
272.0
 31
0.0
  0
LINE
  5
57
330
1D
100
AcDbEntity
  8
SUNPOU
100
AcDbLine
 10
25.00000000000001
 20
277.0
 30
0.0
 11
0.000000000000016
 21
277.0
 31
0.0
  0
LINE
  5
58
330
1D
100
AcDbEntity
  8
SUNPOU
100
AcDbLine
 10
25.00000000000001
 20
272.0
 30
0.0
 11
25.00000000000001
 21
277.0
 31
0.0
  0
LINE
  5
59
330
1D
100
AcDbEntity
  8
HAIKIN
100
AcDbLine
 10
0.0000000000000004
 20
5.0
 30
0.0
 11
383.0
 21
5.0
 31
0.0
  0
LINE
  5
5A
330
1D
100
AcDbEntity
  8
HAIKIN
100
AcDbLine
 10
0.0000000000000158
 20
272.0
 30
0.0
 11
383.0
 21
272.0
 31
0.0
  0
LINE
  5
5B
330
1D
100
AcDbEntity
  8
HAIKIN
100
AcDbLine
 10
383.0
 20
272.0
 30
0.0
 11
383.0
 21
5.0
 31
0.0
  0
TEXT
  5
5C
330
1D
100
AcDbEntity
  8
SUNPOU
100
AcDbText
 10
3.700000000000017
 20
273.0
 30
0.0
 40
3.0
  1
Ｈ－２－共
 72
     4
 11
12.50000000000002
 21
274.5
 31
0.0
100
AcDbText
  0
LINE
  5
5D
330
1D
100
AcDbEntity
  8
HAIKIN
100
AcDbLine
 10
0.0000000000000004
 20
5.0
 30
0.0
 11
0.0000000000000158
 21
272.0
 31
0.0
  0
ENDBLK
  5
5E
330
1D
100
AcDbEntity
  8
HAIKIN
100
AcDbBlockEnd
  0
BLOCK
  5
2EC0
330
2EB6
100
AcDbEntity
  8
0
100
AcDbBlockBegin
  2
*D2
 70
     1
 10
0.0
 20
0.0
 30
0.0
  3
*D2
  1

  0
LINE
  5
31F4
330
2EB6
100
AcDbEntity
  8
SUNPOU
 62
     0
440
 16777216
370
    -2
100
AcDbLine
 10
1562.705467175587
 20
4043.908908144418
 30
0.0
 11
1562.705467175587
 21
4398.716824155214
 31
0.0
  0
LINE
  5
31F5
330
2EB6
100
AcDbEntity
  8
SUNPOU
 62
     0
440
 16777216
370
    -2
100
AcDbLine
 10
3362.705467175587
 20
4043.908908144418
 30
0.0
 11
3362.705467175587
 21
4398.716824155214
 31
0.0
  0
LINE
  5
31F6
330
2EB6
100
AcDbEntity
  8
SUNPOU
 62
     0
440
 16777216
370
    -2
100
AcDbLine
 10
1602.705467175587
 20
4388.716824155214
 30
0.0
 11
3322.705467175587
 21
4388.716824155214
 31
0.0
  0
SOLID
  5
31F7
330
2EB6
100
AcDbEntity
  8
SUNPOU
 62
     0
440
 16777216
100
AcDbTrace
 10
1602.705467175587
 20
4395.383490821881
 30
0.0
 11
1602.705467175587
 21
4382.050157488547
 31
0.0
 12
1562.705467175587
 22
4388.716824155214
 32
0.0
 13
1562.705467175587
 23
4388.716824155214
 33
0.0
  0
SOLID
  5
31F8
330
2EB6
100
AcDbEntity
  8
SUNPOU
 62
     0
440
 16777216
100
AcDbTrace
 10
3322.705467175587
 20
4395.383490821881
 30
0.0
 11
3322.705467175587
 21
4382.050157488547
 31
0.0
 12
3362.705467175587
 22
4388.716824155214
 32
0.0
 13
3362.705467175587
 23
4388.716824155214
 33
0.0
  0
MTEXT
  5
31F9
330
2EB6
100
AcDbEntity
  8
SUNPOU
 62
     0
440
 16777216
100
AcDbMText
 10
2462.705467175587
 20
4434.716824155214
 30
0.0
 40
60.0
 41
0.0
 71
     5
 72
     1
  1
\A1;1800
 73
     1
 44
1.0
  0
POINT
  5
31FA
330
2EB6
100
AcDbEntity
  8
DEFPOINTS
 62
     0
440
 16777216
100
AcDbPoint
 10
1562.705467175587
 20
4003.908908144418
 30
0.0
  0
POINT
  5
31FB
330
2EB6
100
AcDbEntity
  8
DEFPOINTS
 62
     0
440
 16777216
100
AcDbPoint
 10
3362.705467175587
 20
4003.908908144418
 30
0.0
  0
POINT
  5
31FC
330
2EB6
100
AcDbEntity
  8
DEFPOINTS
 62
     0
440
 16777216
100
AcDbPoint
 10
3362.705467175587
 20
4388.716824155214
 30
0.0
  0
ENDBLK
  5
2EC1
330
2EB6
100
AcDbEntity
  8
0
100
AcDbBlockEnd
  0
BLOCK
  5
2ECD
330
2EC2
100
AcDbEntity
  8
0
100
AcDbBlockBegin
  2
*D3
 70
     1
 10
0.0
 20
0.0
 30
0.0
  3
*D3
  1

  0
LINE
  5
321B
330
2EC2
100
AcDbEntity
  8
SUNPOU
 62
     0
440
 16777216
370
    -2
100
AcDbLine
 10
3362.705467175587
 20
4043.908908144418
 30
0.0
 11
3362.705467175587
 21
4398.716824155214
 31
0.0
  0
LINE
  5
321C
330
2EC2
100
AcDbEntity
  8
SUNPOU
 62
     0
440
 16777216
370
    -2
100
AcDbLine
 10
3472.705467175587
 20
4043.908908144418
 30
0.0
 11
3472.705467175587
 21
4398.716824155214
 31
0.0
  0
LINE
  5
321D
330
2EC2
100
AcDbEntity
  8
SUNPOU
 62
     0
440
 16777216
370
    -2
100
AcDbLine
 10
3322.705467175587
 20
4388.716824155214
 30
0.0
 11
3282.705467175587
 21
4388.716824155214
 31
0.0
  0
LINE
  5
321E
330
2EC2
100
AcDbEntity
  8
SUNPOU
 62
     0
440
 16777216
370
    -2
100
AcDbLine
 10
3512.705467175587
 20
4388.716824155214
 30
0.0
 11
3552.705467175587
 21
4388.716824155214
 31
0.0
  0
SOLID
  5
321F
330
2EC2
100
AcDbEntity
  8
SUNPOU
 62
     0
440
 16777216
100
AcDbTrace
 10
3322.705467175587
 20
4395.383490821881
 30
0.0
 11
3322.705467175587
 21
4382.050157488547
 31
0.0
 12
3362.705467175587
 22
4388.716824155214
 32
0.0
 13
3362.705467175587
 23
4388.716824155214
 33
0.0
  0
SOLID
  5
3220
330
2EC2
100
AcDbEntity
  8
SUNPOU
 62
     0
440
 16777216
100
AcDbTrace
 10
3512.705467175587
 20
4395.383490821881
 30
0.0
 11
3512.705467175587
 21
4382.050157488547
 31
0.0
 12
3472.705467175587
 22
4388.716824155214
 32
0.0
 13
3472.705467175587
 23
4388.716824155214
 33
0.0
  0
MTEXT
  5
3221
330
2EC2
100
AcDbEntity
  8
SUNPOU
 62
     0
440
 16777216
100
AcDbMText
 10
3417.705467175587
 20
4434.716824155214
 30
0.0
 40
60.0
 41
0.0
 71
     5
 72
     1
  1
\A1;110
 73
     1
 44
1.0
  0
POINT
  5
3222
330
2EC2
100
AcDbEntity
  8
DEFPOINTS
 62
     0
440
 16777216
100
AcDbPoint
 10
3362.705467175587
 20
4003.908908144418
 30
0.0
  0
POINT
  5
3223
330
2EC2
100
AcDbEntity
  8
DEFPOINTS
 62
     0
440
 16777216
100
AcDbPoint
 10
3472.705467175587
 20
4003.908908144418
 30
0.0
  0
POINT
  5
3224
330
2EC2
100
AcDbEntity
  8
DEFPOINTS
 62
     0
440
 16777216
100
AcDbPoint
 10
3472.705467175587
 20
4388.716824155214
 30
0.0
  0
ENDBLK
  5
2ECE
330
2EC2
100
AcDbEntity
  8
0
100
AcDbBlockEnd
  0
BLOCK
  5
2EDA
330
2ECF
100
AcDbEntity
  8
0
100
AcDbBlockBegin
  2
*D4
 70
     1
 10
0.0
 20
0.0
 30
0.0
  3
*D4
  1

  0
LINE
  5
31FD
330
2ECF
100
AcDbEntity
  8
SUNPOU
 62
     0
440
 16777216
370
    -2
100
AcDbLine
 10
1467.705467175587
 20
4043.908908144418
 30
0.0
 11
1467.705467175587
 21
4398.716824155214
 31
0.0
  0
LINE
  5
31FE
330
2ECF
100
AcDbEntity
  8
SUNPOU
 62
     0
440
 16777216
370
    -2
100
AcDbLine
 10
1562.705467175587
 20
4043.908908144418
 30
0.0
 11
1562.705467175587
 21
4398.716824155214
 31
0.0
  0
LINE
  5
31FF
330
2ECF
100
AcDbEntity
  8
SUNPOU
 62
     0
440
 16777216
370
    -2
100
AcDbLine
 10
1427.705467175587
 20
4388.716824155214
 30
0.0
 11
1387.705467175587
 21
4388.716824155214
 31
0.0
  0
LINE
  5
3200
330
2ECF
100
AcDbEntity
  8
SUNPOU
 62
     0
440
 16777216
370
    -2
100
AcDbLine
 10
1602.705467175587
 20
4388.716824155214
 30
0.0
 11
1642.705467175587
 21
4388.716824155214
 31
0.0
  0
SOLID
  5
3201
330
2ECF
100
AcDbEntity
  8
SUNPOU
 62
     0
440
 16777216
100
AcDbTrace
 10
1427.705467175587
 20
4395.383490821881
 30
0.0
 11
1427.705467175587
 21
4382.050157488547
 31
0.0
 12
1467.705467175587
 22
4388.716824155214
 32
0.0
 13
1467.705467175587
 23
4388.716824155214
 33
0.0
  0
SOLID
  5
3202
330
2ECF
100
AcDbEntity
  8
SUNPOU
 62
     0
440
 16777216
100
AcDbTrace
 10
1602.705467175587
 20
4395.383490821881
 30
0.0
 11
1602.705467175587
 21
4382.050157488547
 31
0.0
 12
1562.705467175587
 22
4388.716824155214
 32
0.0
 13
1562.705467175587
 23
4388.716824155214
 33
0.0
  0
MTEXT
  5
3203
330
2ECF
100
AcDbEntity
  8
SUNPOU
 62
     0
440
 16777216
100
AcDbMText
 10
1515.205467175587
 20
4434.716824155214
 30
0.0
 40
60.0
 41
0.0
 71
     5
 72
     1
  1
\A1;95
 73
     1
 44
1.0
  0
POINT
  5
3204
330
2ECF
100
AcDbEntity
  8
DEFPOINTS
 62
     0
440
 16777216
100
AcDbPoint
 10
1467.705467175587
 20
4003.908908144418
 30
0.0
  0
POINT
  5
3205
330
2ECF
100
AcDbEntity
  8
DEFPOINTS
 62
     0
440
 16777216
100
AcDbPoint
 10
1562.705467175587
 20
4003.908908144418
 30
0.0
  0
POINT
  5
3206
330
2ECF
100
AcDbEntity
  8
DEFPOINTS
 62
     0
440
 16777216
100
AcDbPoint
 10
1562.705467175587
 20
4388.716824155214
 30
0.0
  0
ENDBLK
  5
2EDB
330
2ECF
100
AcDbEntity
  8
0
100
AcDbBlockEnd
  0
BLOCK
  5
2EE7
330
2EDC
100
AcDbEntity
  8
0
100
AcDbBlockBegin
  2
*D5
 70
     1
 10
0.0
 20
0.0
 30
0.0
  3
*D5
  1

  0
LINE
  5
3211
330
2EDC
100
AcDbEntity
  8
SUNPOU
 62
     0
440
 16777216
370
    -2
100
AcDbLine
 10
1452.705467175587
 20
4043.908908144418
 30
0.0
 11
1452.705467175587
 21
4398.716824155214
 31
0.0
  0
LINE
  5
3212
330
2EDC
100
AcDbEntity
  8
SUNPOU
 62
     0
440
 16777216
370
    -2
100
AcDbLine
 10
1467.705467175587
 20
4043.908908144418
 30
0.0
 11
1467.705467175587
 21
4398.716824155214
 31
0.0
  0
LINE
  5
3213
330
2EDC
100
AcDbEntity
  8
SUNPOU
 62
     0
440
 16777216
370
    -2
100
AcDbLine
 10
1412.705467175587
 20
4388.716824155214
 30
0.0
 11
1372.705467175587
 21
4388.716824155214
 31
0.0
  0
LINE
  5
3214
330
2EDC
100
AcDbEntity
  8
SUNPOU
 62
     0
440
 16777216
370
    -2
100
AcDbLine
 10
1507.705467175587
 20
4388.716824155214
 30
0.0
 11
1547.705467175587
 21
4388.716824155214
 31
0.0
  0
MTEXT
  5
3215
330
2EDC
100
AcDbEntity
  8
SUNPOU
 62
     0
440
 16777216
100
AcDbMText
 10
1423.515413170826
 20
4434.716824155214
 30
0.0
 40
60.0
 41
0.0
 71
     5
 72
     1
  1
\A1;15
 73
     1
 44
1.0
  0
SOLID
  5
3216
330
2EDC
100
AcDbEntity
  8
SUNPOU
 62
     0
440
 16777216
100
AcDbTrace
 10
1412.705467175587
 20
4395.383490821881
 30
0.0
 11
1412.705467175587
 21
4382.050157488547
 31
0.0
 12
1452.705467175587
 22
4388.716824155214
 32
0.0
 13
1452.705467175587
 23
4388.716824155214
 33
0.0
  0
SOLID
  5
3217
330
2EDC
100
AcDbEntity
  8
SUNPOU
 62
     0
440
 16777216
100
AcDbTrace
 10
1507.705467175587
 20
4395.383490821881
 30
0.0
 11
1507.705467175587
 21
4382.050157488547
 31
0.0
 12
1467.705467175587
 22
4388.716824155214
 32
0.0
 13
1467.705467175587
 23
4388.716824155214
 33
0.0
  0
POINT
  5
3218
330
2EDC
100
AcDbEntity
  8
DEFPOINTS
 62
     0
440
 16777216
100
AcDbPoint
 10
1452.705467175587
 20
4003.908908144418
 30
0.0
  0
POINT
  5
3219
330
2EDC
100
AcDbEntity
  8
DEFPOINTS
 62
     0
440
 16777216
100
AcDbPoint
 10
1467.705467175587
 20
4003.908908144418
 30
0.0
  0
POINT
  5
321A
330
2EDC
100
AcDbEntity
  8
DEFPOINTS
 62
     0
440
 16777216
100
AcDbPoint
 10
1467.705467175587
 20
4388.716824155214
 30
0.0
  0
ENDBLK
  5
2EE8
330
2EDC
100
AcDbEntity
  8
0
100
AcDbBlockEnd
  0
BLOCK
  5
2EF4
330
2EE9
100
AcDbEntity
  8
0
100
AcDbBlockBegin
  2
*D6
 70
     1
 10
0.0
 20
0.0
 30
0.0
  3
*D6
  1

  0
LINE
  5
31A9
330
2EE9
100
AcDbEntity
  8
SUNPOU
 62
     0
440
 16777216
370
    -2
100
AcDbLine
 10
1412.705467175587
 20
4003.908908144418
 30
0.0
 11
1239.399477049385
 21
4003.908908144418
 31
0.0
  0
LINE
  5
31AA
330
2EE9
100
AcDbEntity
  8
SUNPOU
 62
     0
440
 16777216
370
    -2
100
AcDbLine
 10
1412.705467175587
 20
3913.908908144418
 30
0.0
 11
1239.399477049385
 21
3913.908908144418
 31
0.0
  0
LINE
  5
31AB
330
2EE9
100
AcDbEntity
  8
SUNPOU
 62
     0
440
 16777216
370
    -2
100
AcDbLine
 10
1249.399477049385
 20
4043.908908144418
 30
0.0
 11
1249.399477049385
 21
4083.908908144418
 31
0.0
  0
LINE
  5
31AC
330
2EE9
100
AcDbEntity
  8
SUNPOU
 62
     0
440
 16777216
370
    -2
100
AcDbLine
 10
1249.399477049385
 20
3873.908908144418
 30
0.0
 11
1249.399477049385
 21
3833.908908144418
 31
0.0
  0
SOLID
  5
31AD
330
2EE9
100
AcDbEntity
  8
SUNPOU
 62
     0
440
 16777216
100
AcDbTrace
 10
1242.732810382718
 20
4043.908908144418
 30
0.0
 11
1256.066143716051
 21
4043.908908144418
 31
0.0
 12
1249.399477049385
 22
4003.908908144418
 32
0.0
 13
1249.399477049385
 23
4003.908908144418
 33
0.0
  0
SOLID
  5
31AE
330
2EE9
100
AcDbEntity
  8
SUNPOU
 62
     0
440
 16777216
100
AcDbTrace
 10
1242.732810382718
 20
3873.908908144418
 30
0.0
 11
1256.066143716051
 21
3873.908908144418
 31
0.0
 12
1249.399477049385
 22
3913.908908144418
 32
0.0
 13
1249.399477049385
 23
3913.908908144418
 33
0.0
  0
MTEXT
  5
31AF
330
2EE9
100
AcDbEntity
  8
SUNPOU
 62
     0
440
 16777216
100
AcDbMText
 10
1203.399477049384
 20
3958.908908144419
 30
0.0
 40
60.0
 41
0.0
 71
     5
 72
     1
  1
\A1;90
 11
6.123031769111886E-17
 21
1.0
 31
0.0
 73
     1
 44
1.0
  0
POINT
  5
31B0
330
2EE9
100
AcDbEntity
  8
DEFPOINTS
 62
     0
440
 16777216
100
AcDbPoint
 10
1452.705467175587
 20
4003.908908144418
 30
0.0
  0
POINT
  5
31B1
330
2EE9
100
AcDbEntity
  8
DEFPOINTS
 62
     0
440
 16777216
100
AcDbPoint
 10
1452.705467175587
 20
3913.908908144418
 30
0.0
  0
POINT
  5
31B2
330
2EE9
100
AcDbEntity
  8
DEFPOINTS
 62
     0
440
 16777216
100
AcDbPoint
 10
1249.399477049385
 20
3913.908908144418
 30
0.0
  0
ENDBLK
  5
2EF5
330
2EE9
100
AcDbEntity
  8
0
100
AcDbBlockEnd
  0
BLOCK
  5
2F27
330
2F1C
100
AcDbEntity
  8
0
100
AcDbBlockBegin
  2
*D7
 70
     1
 10
0.0
 20
0.0
 30
0.0
  3
*D7
  1

  0
LINE
  5
317D
330
2F1C
100
AcDbEntity
  8
SUNPOU
 62
     0
440
 16777216
370
    -2
100
AcDbLine
 10
1482.705467175587
 20
2543.908908144417
 30
0.0
 11
1482.705467175587
 21
3020.038726369032
 31
0.0
  0
LINE
  5
317E
330
2F1C
100
AcDbEntity
  8
SUNPOU
 62
     0
440
 16777216
370
    -2
100
AcDbLine
 10
1622.705467175587
 20
2543.908908144417
 30
0.0
 11
1622.705467175587
 21
3020.038726369032
 31
0.0
  0
LINE
  5
317F
330
2F1C
100
AcDbEntity
  8
SUNPOU
 62
     0
440
 16777216
370
    -2
100
AcDbLine
 10
1522.705467175587
 20
3010.038726369032
 30
0.0
 11
1582.705467175587
 21
3010.038726369032
 31
0.0
  0
SOLID
  5
3180
330
2F1C
100
AcDbEntity
  8
SUNPOU
 62
     0
440
 16777216
100
AcDbTrace
 10
1522.705467175587
 20
3016.705393035698
 30
0.0
 11
1522.705467175587
 21
3003.372059702365
 31
0.0
 12
1482.705467175587
 22
3010.038726369032
 32
0.0
 13
1482.705467175587
 23
3010.038726369032
 33
0.0
  0
SOLID
  5
3181
330
2F1C
100
AcDbEntity
  8
SUNPOU
 62
     0
440
 16777216
100
AcDbTrace
 10
1582.705467175587
 20
3016.705393035698
 30
0.0
 11
1582.705467175587
 21
3003.372059702365
 31
0.0
 12
1622.705467175587
 22
3010.038726369032
 32
0.0
 13
1622.705467175587
 23
3010.038726369032
 33
0.0
  0
MTEXT
  5
3182
330
2F1C
100
AcDbEntity
  8
SUNPOU
 62
     0
440
 16777216
100
AcDbMText
 10
1552.705467175587
 20
3056.038726369032
 30
0.0
 40
60.0
 41
0.0
 71
     5
 72
     1
  1
\A1;140
 73
     1
 44
1.0
  0
POINT
  5
3183
330
2F1C
100
AcDbEntity
  8
DEFPOINTS
 62
     0
440
 16777216
100
AcDbPoint
 10
1482.705467175587
 20
2503.908908144417
 30
0.0
  0
POINT
  5
3184
330
2F1C
100
AcDbEntity
  8
DEFPOINTS
 62
     0
440
 16777216
100
AcDbPoint
 10
1622.705467175587
 20
2503.908908144417
 30
0.0
  0
POINT
  5
3185
330
2F1C
100
AcDbEntity
  8
DEFPOINTS
 62
     0
440
 16777216
100
AcDbPoint
 10
1622.705467175587
 20
3010.038726369032
 30
0.0
  0
ENDBLK
  5
2F28
330
2F1C
100
AcDbEntity
  8
0
100
AcDbBlockEnd
  0
BLOCK
  5
2F40
330
2F36
100
AcDbEntity
  8
0
100
AcDbBlockBegin
  2
*D8
 70
     1
 10
0.0
 20
0.0
 30
0.0
  3
*D8
  1

  0
LINE
  5
316A
330
2F36
100
AcDbEntity
  8
SUNPOU
 62
     0
440
 16777216
370
    -2
100
AcDbLine
 10
1622.705467175587
 20
2543.908908144417
 30
0.0
 11
1622.705467175587
 21
3020.038726369032
 31
0.0
  0
LINE
  5
316B
330
2F36
100
AcDbEntity
  8
SUNPOU
 62
     0
440
 16777216
370
    -2
100
AcDbLine
 10
3302.705467175587
 20
2543.908908144418
 30
0.0
 11
3302.705467175587
 21
3020.038726369032
 31
0.0
  0
LINE
  5
316C
330
2F36
100
AcDbEntity
  8
SUNPOU
 62
     0
440
 16777216
370
    -2
100
AcDbLine
 10
1662.705467175587
 20
3010.038726369032
 30
0.0
 11
3262.705467175587
 21
3010.038726369032
 31
0.0
  0
SOLID
  5
316D
330
2F36
100
AcDbEntity
  8
SUNPOU
 62
     0
440
 16777216
100
AcDbTrace
 10
1662.705467175587
 20
3016.705393035698
 30
0.0
 11
1662.705467175587
 21
3003.372059702365
 31
0.0
 12
1622.705467175587
 22
3010.038726369032
 32
0.0
 13
1622.705467175587
 23
3010.038726369032
 33
0.0
  0
SOLID
  5
316E
330
2F36
100
AcDbEntity
  8
SUNPOU
 62
     0
440
 16777216
100
AcDbTrace
 10
3262.705467175587
 20
3016.705393035698
 30
0.0
 11
3262.705467175587
 21
3003.372059702365
 31
0.0
 12
3302.705467175587
 22
3010.038726369032
 32
0.0
 13
3302.705467175587
 23
3010.038726369032
 33
0.0
  0
MTEXT
  5
316F
330
2F36
100
AcDbEntity
  8
SUNPOU
 62
     0
440
 16777216
100
AcDbMText
 10
2462.705467175587
 20
3056.038726369032
 30
0.0
 40
60.0
 41
0.0
 71
     5
 72
     1
  1
\A1;1680
 73
     1
 44
1.0
  0
POINT
  5
3170
330
2F36
100
AcDbEntity
  8
DEFPOINTS
 62
     0
440
 16777216
100
AcDbPoint
 10
1622.705467175587
 20
2503.908908144417
 30
0.0
  0
POINT
  5
3171
330
2F36
100
AcDbEntity
  8
DEFPOINTS
 62
     0
440
 16777216
100
AcDbPoint
 10
3302.705467175587
 20
2503.908908144418
 30
0.0
  0
POINT
  5
3172
330
2F36
100
AcDbEntity
  8
DEFPOINTS
 62
     0
440
 16777216
100
AcDbPoint
 10
3302.705467175587
 20
3010.038726369032
 30
0.0
  0
ENDBLK
  5
2F41
330
2F36
100
AcDbEntity
  8
0
100
AcDbBlockEnd
  0
BLOCK
  5
2F48
330
2F42
100
AcDbEntity
  8
0
100
AcDbBlockBegin
  2
*D9
 70
     1
 10
0.0
 20
0.0
 30
0.0
  3
*D9
  1

  0
LINE
  5
3244
330
2F42
100
AcDbEntity
  8
SUNPOU
 62
     0
440
 16777216
370
    -2
100
AcDbLine
 10
1830.178607787305
 20
2713.122282330891
 30
0.0
 11
1675.941907283418
 21
2561.903764226545
 31
0.0
  0
MTEXT
  5
3245
330
2F42
100
AcDbEntity
  8
SUNPOU
 62
     0
440
 16777216
100
AcDbMText
 10
1735.137489837573
 20
2684.361442654948
 30
0.0
 40
60.0
 41
0.0
 71
     5
 72
     1
  1
\A1;R100
 11
0.7140587986291043
 21
0.7000857319645647
 31
0.0
 73
     1
 44
1.0
  0
SOLID
  5
3246
330
2F42
100
AcDbEntity
  8
SUNPOU
 62
     0
440
 16777216
100
AcDbTrace
 10
1671.274669070321
 20
2566.664156217406
 30
0.0
 11
1680.609145496515
 21
2557.143372235685
 31
0.0
 12
1647.379555338254
 22
2533.900334947963
 32
0.0
 13
1647.379555338254
 23
2533.900334947963
 33
0.0
  0
POINT
  5
3247
330
2F42
100
AcDbEntity
  8
DEFPOINTS
 62
     0
440
 16777216
100
AcDbPoint
 10
1647.379555338254
 20
2533.900334947963
 30
0.0
  0
POINT
  5
3248
330
2F42
100
AcDbEntity
  8
DEFPOINTS
 62
     0
440
 16777216
100
AcDbPoint
 10
1718.785435201163
 20
2603.908908144419
 30
0.0
  0
ENDBLK
  5
2F49
330
2F42
100
AcDbEntity
  8
0
100
AcDbBlockEnd
  0
BLOCK
  5
2F54
330
2F4A
100
AcDbEntity
  8
0
100
AcDbBlockBegin
  2
*D10
 70
     1
 10
0.0
 20
0.0
 30
0.0
  3
*D10
  1

  0
LINE
  5
38E4
330
2F4A
100
AcDbEntity
  8
SUNPOU
 62
     0
440
 16777216
370
    -2
100
AcDbLine
 10
1482.705467175587
 20
2323.908908144417
 30
0.0
 11
1482.705467175587
 21
1969.831040133389
 31
0.0
  0
LINE
  5
38E5
330
2F4A
100
AcDbEntity
  8
SUNPOU
 62
     0
440
 16777216
370
    -2
100
AcDbLine
 10
3442.705467175587
 20
2323.908908144417
 30
0.0
 11
3442.705467175587
 21
1969.831040133389
 31
0.0
  0
LINE
  5
38E6
330
2F4A
100
AcDbEntity
  8
SUNPOU
 62
     0
440
 16777216
370
    -2
100
AcDbLine
 10
1522.705467175587
 20
1979.831040133389
 30
0.0
 11
3402.705467175587
 21
1979.831040133389
 31
0.0
  0
SOLID
  5
38E7
330
2F4A
100
AcDbEntity
  8
SUNPOU
 62
     0
440
 16777216
100
AcDbTrace
 10
1522.705467175587
 20
1986.497706800056
 30
0.0
 11
1522.705467175587
 21
1973.164373466723
 31
0.0
 12
1482.705467175587
 22
1979.831040133389
 32
0.0
 13
1482.705467175587
 23
1979.831040133389
 33
0.0
  0
SOLID
  5
38E8
330
2F4A
100
AcDbEntity
  8
SUNPOU
 62
     0
440
 16777216
100
AcDbTrace
 10
3402.705467175587
 20
1986.497706800056
 30
0.0
 11
3402.705467175587
 21
1973.164373466723
 31
0.0
 12
3442.705467175587
 22
1979.831040133389
 32
0.0
 13
3442.705467175587
 23
1979.831040133389
 33
0.0
  0
MTEXT
  5
38E9
330
2F4A
100
AcDbEntity
  8
SUNPOU
 62
     0
440
 16777216
100
AcDbMText
 10
2462.705467175587
 20
2025.831040133389
 30
0.0
 40
60.0
 41
0.0
 71
     5
 72
     1
  1
\A1;1960
 73
     1
 44
1.0
  0
POINT
  5
38EA
330
2F4A
100
AcDbEntity
  8
DEFPOINTS
 62
     0
440
 16777216
100
AcDbPoint
 10
1482.705467175587
 20
2363.908908144417
 30
0.0
  0
POINT
  5
38EB
330
2F4A
100
AcDbEntity
  8
DEFPOINTS
 62
     0
440
 16777216
100
AcDbPoint
 10
3442.705467175587
 20
2363.908908144417
 30
0.0
  0
POINT
  5
38EC
330
2F4A
100
AcDbEntity
  8
DEFPOINTS
 62
     0
440
 16777216
100
AcDbPoint
 10
3442.705467175587
 20
1979.831040133389
 30
0.0
  0
ENDBLK
  5
2F55
330
2F4A
100
AcDbEntity
  8
0
100
AcDbBlockEnd
  0
BLOCK
  5
3191
330
3187
100
AcDbEntity
  8
0
100
AcDbBlockBegin
  2
*D20
 70
     1
 10
0.0
 20
0.0
 30
0.0
  3
*D20
  1

  0
LINE
  5
3193
330
3187
100
AcDbEntity
  8
SUNPOU
 62
     0
440
 16777216
370
    -2
100
AcDbLine
 10
3442.705467175587
 20
2543.908908144417
 30
0.0
 11
3442.705467175587
 21
3020.038726369032
 31
0.0
  0
LINE
  5
3194
330
3187
100
AcDbEntity
  8
SUNPOU
 62
     0
440
 16777216
370
    -2
100
AcDbLine
 10
3302.705467175587
 20
2543.908908144417
 30
0.0
 11
3302.705467175587
 21
3020.038726369032
 31
0.0
  0
LINE
  5
3195
330
3187
100
AcDbEntity
  8
SUNPOU
 62
     0
440
 16777216
370
    -2
100
AcDbLine
 10
3402.705467175587
 20
3010.038726369032
 30
0.0
 11
3342.705467175587
 21
3010.038726369032
 31
0.0
  0
SOLID
  5
3196
330
3187
100
AcDbEntity
  8
SUNPOU
 62
     0
440
 16777216
100
AcDbTrace
 10
3402.705467175587
 20
3016.705393035698
 30
0.0
 11
3402.705467175587
 21
3003.372059702365
 31
0.0
 12
3442.705467175587
 22
3010.038726369032
 32
0.0
 13
3442.705467175587
 23
3010.038726369032
 33
0.0
  0
SOLID
  5
3197
330
3187
100
AcDbEntity
  8
SUNPOU
 62
     0
440
 16777216
100
AcDbTrace
 10
3342.705467175587
 20
3016.705393035698
 30
0.0
 11
3342.705467175587
 21
3003.372059702365
 31
0.0
 12
3302.705467175587
 22
3010.038726369032
 32
0.0
 13
3302.705467175587
 23
3010.038726369032
 33
0.0
  0
MTEXT
  5
3198
330
3187
100
AcDbEntity
  8
SUNPOU
 62
     0
440
 16777216
100
AcDbMText
 10
3372.705467175587
 20
3056.038726369032
 30
0.0
 40
60.0
 41
0.0
 71
     5
 72
     1
  1
\A1;140
 73
     1
 44
1.0
  0
POINT
  5
3199
330
3187
100
AcDbEntity
  8
DEFPOINTS
 62
     0
440
 16777216
100
AcDbPoint
 10
3442.705467175587
 20
2503.908908144417
 30
0.0
  0
POINT
  5
319A
330
3187
100
AcDbEntity
  8
DEFPOINTS
 62
     0
440
 16777216
100
AcDbPoint
 10
3302.705467175587
 20
2503.908908144417
 30
0.0
  0
POINT
  5
319B
330
3187
100
AcDbEntity
  8
DEFPOINTS
 62
     0
440
 16777216
100
AcDbPoint
 10
3302.705467175587
 20
3010.038726369032
 30
0.0
  0
ENDBLK
  5
3192
330
3187
100
AcDbEntity
  8
0
100
AcDbBlockEnd
  0
BLOCK
  5
31A7
330
319D
100
AcDbEntity
  8
0
100
AcDbBlockBegin
  2
*D21
 70
     1
 10
0.0
 20
0.0
 30
0.0
  3
*D21
  1

  0
LINE
  5
389A
330
319D
100
AcDbEntity
  8
SUNPOU
 62
     0
440
 16777216
370
    -2
100
AcDbLine
 10
1392.705467175587
 20
2363.908908144417
 30
0.0
 11
980.457905718478
 21
2363.908908144418
 31
0.0
  0
LINE
  5
389B
330
319D
100
AcDbEntity
  8
SUNPOU
 62
     0
440
 16777216
370
    -2
100
AcDbLine
 10
1392.705467175587
 20
2503.908908144417
 30
0.0
 11
980.457905718478
 21
2503.908908144418
 31
0.0
  0
LINE
  5
389C
330
319D
100
AcDbEntity
  8
SUNPOU
 62
     0
440
 16777216
370
    -2
100
AcDbLine
 10
990.457905718478
 20
2403.908908144418
 30
0.0
 11
990.457905718478
 21
2463.908908144418
 31
0.0
  0
SOLID
  5
389D
330
319D
100
AcDbEntity
  8
SUNPOU
 62
     0
440
 16777216
100
AcDbTrace
 10
983.7912390518113
 20
2403.908908144418
 30
0.0
 11
997.1245723851446
 21
2403.908908144418
 31
0.0
 12
990.457905718478
 22
2363.908908144418
 32
0.0
 13
990.457905718478
 23
2363.908908144418
 33
0.0
  0
SOLID
  5
389E
330
319D
100
AcDbEntity
  8
SUNPOU
 62
     0
440
 16777216
100
AcDbTrace
 10
983.7912390518113
 20
2463.908908144418
 30
0.0
 11
997.1245723851446
 21
2463.908908144418
 31
0.0
 12
990.457905718478
 22
2503.908908144418
 32
0.0
 13
990.457905718478
 23
2503.908908144418
 33
0.0
  0
MTEXT
  5
389F
330
319D
100
AcDbEntity
  8
SUNPOU
 62
     0
440
 16777216
100
AcDbMText
 10
944.4579057184775
 20
2433.908908144418
 30
0.0
 40
60.0
 41
0.0
 71
     5
 72
     1
  1
\A1;140
 11
6.123031769111886E-17
 21
1.0
 31
0.0
 73
     1
 44
1.0
  0
POINT
  5
38A0
330
319D
100
AcDbEntity
  8
DEFPOINTS
 62
     0
440
 16777216
100
AcDbPoint
 10
1432.705467175587
 20
2363.908908144417
 30
0.0
  0
POINT
  5
38A1
330
319D
100
AcDbEntity
  8
DEFPOINTS
 62
     0
440
 16777216
100
AcDbPoint
 10
1432.705467175587
 20
2503.908908144417
 30
0.0
  0
POINT
  5
38A2
330
319D
100
AcDbEntity
  8
DEFPOINTS
 62
     0
440
 16777216
100
AcDbPoint
 10
990.457905718478
 20
2503.908908144418
 30
0.0
  0
ENDBLK
  5
31A8
330
319D
100
AcDbEntity
  8
0
100
AcDbBlockEnd
  0
BLOCK
  5
31BE
330
31B4
100
AcDbEntity
  8
0
100
AcDbBlockBegin
  2
*D22
 70
     1
 10
0.0
 20
0.0
 30
0.0
  3
*D22
  1

  0
LINE
  5
3891
330
31B4
100
AcDbEntity
  8
SUNPOU
 62
     0
440
 16777216
370
    -2
100
AcDbLine
 10
1392.705467175587
 20
2503.908908144417
 30
0.0
 11
980.457905718478
 21
2503.908908144418
 31
0.0
  0
LINE
  5
3892
330
31B4
100
AcDbEntity
  8
SUNPOU
 62
     0
440
 16777216
370
    -2
100
AcDbLine
 10
1412.705467175587
 20
4003.908908144418
 30
0.0
 11
980.4579057184783
 21
4003.908908144419
 31
0.0
  0
LINE
  5
3893
330
31B4
100
AcDbEntity
  8
SUNPOU
 62
     0
440
 16777216
370
    -2
100
AcDbLine
 10
990.457905718478
 20
2543.908908144418
 30
0.0
 11
990.4579057184783
 21
3963.908908144419
 31
0.0
  0
SOLID
  5
3894
330
31B4
100
AcDbEntity
  8
SUNPOU
 62
     0
440
 16777216
100
AcDbTrace
 10
983.7912390518113
 20
2543.908908144418
 30
0.0
 11
997.1245723851446
 21
2543.908908144418
 31
0.0
 12
990.457905718478
 22
2503.908908144418
 32
0.0
 13
990.457905718478
 23
2503.908908144418
 33
0.0
  0
SOLID
  5
3895
330
31B4
100
AcDbEntity
  8
SUNPOU
 62
     0
440
 16777216
100
AcDbTrace
 10
983.7912390518117
 20
3963.908908144419
 30
0.0
 11
997.1245723851449
 21
3963.908908144419
 31
0.0
 12
990.4579057184783
 22
4003.908908144419
 32
0.0
 13
990.4579057184783
 23
4003.908908144419
 33
0.0
  0
MTEXT
  5
3896
330
31B4
100
AcDbEntity
  8
SUNPOU
 62
     0
440
 16777216
100
AcDbMText
 10
944.4579057184776
 20
3253.908908144418
 30
0.0
 40
60.0
 41
0.0
 71
     5
 72
     1
  1
\A1;1500
 11
6.123031769111886E-17
 21
1.0
 31
0.0
 73
     1
 44
1.0
  0
POINT
  5
3897
330
31B4
100
AcDbEntity
  8
DEFPOINTS
 62
     0
440
 16777216
100
AcDbPoint
 10
1432.705467175587
 20
2503.908908144417
 30
0.0
  0
POINT
  5
3898
330
31B4
100
AcDbEntity
  8
DEFPOINTS
 62
     0
440
 16777216
100
AcDbPoint
 10
1452.705467175587
 20
4003.908908144418
 30
0.0
  0
POINT
  5
3899
330
31B4
100
AcDbEntity
  8
DEFPOINTS
 62
     0
440
 16777216
100
AcDbPoint
 10
990.4579057184783
 20
4003.908908144419
 30
0.0
  0
ENDBLK
  5
31BF
330
31B4
100
AcDbEntity
  8
0
100
AcDbBlockEnd
  0
BLOCK
  5
31CB
330
31C1
100
AcDbEntity
  8
0
100
AcDbBlockBegin
  2
*D23
 70
     1
 10
0.0
 20
0.0
 30
0.0
  3
*D23
  1

  0
LINE
  5
38A3
330
31C1
100
AcDbEntity
  8
SUNPOU
 62
     0
440
 16777216
370
    -2
100
AcDbLine
 10
1412.705467175587
 20
4003.908908144418
 30
0.0
 11
848.401457774908
 21
4003.908908144419
 31
0.0
  0
LINE
  5
38A4
330
31C1
100
AcDbEntity
  8
SUNPOU
 62
     0
440
 16777216
370
    -2
100
AcDbLine
 10
1392.705467175587
 20
2363.908908144417
 30
0.0
 11
848.4014577749076
 21
2363.908908144418
 31
0.0
  0
LINE
  5
38A5
330
31C1
100
AcDbEntity
  8
SUNPOU
 62
     0
440
 16777216
370
    -2
100
AcDbLine
 10
858.401457774908
 20
3963.908908144419
 30
0.0
 11
858.4014577749076
 21
2403.908908144418
 31
0.0
  0
SOLID
  5
38A6
330
31C1
100
AcDbEntity
  8
SUNPOU
 62
     0
440
 16777216
100
AcDbTrace
 10
851.7347911082413
 20
3963.908908144419
 30
0.0
 11
865.0681244415746
 21
3963.908908144419
 31
0.0
 12
858.401457774908
 22
4003.908908144419
 32
0.0
 13
858.401457774908
 23
4003.908908144419
 33
0.0
  0
SOLID
  5
38A7
330
31C1
100
AcDbEntity
  8
SUNPOU
 62
     0
440
 16777216
100
AcDbTrace
 10
851.734791108241
 20
2403.908908144418
 30
0.0
 11
865.0681244415742
 21
2403.908908144418
 31
0.0
 12
858.4014577749076
 22
2363.908908144418
 32
0.0
 13
858.4014577749076
 23
2363.908908144418
 33
0.0
  0
MTEXT
  5
38A8
330
31C1
100
AcDbEntity
  8
SUNPOU
 62
     0
440
 16777216
100
AcDbMText
 10
812.4014577749073
 20
3183.908908144418
 30
0.0
 40
60.0
 41
0.0
 71
     5
 72
     1
  1
\A1;1640
 11
6.123031769111886E-17
 21
1.0
 31
0.0
 73
     1
 44
1.0
  0
POINT
  5
38A9
330
31C1
100
AcDbEntity
  8
DEFPOINTS
 62
     0
440
 16777216
100
AcDbPoint
 10
1452.705467175587
 20
4003.908908144418
 30
0.0
  0
POINT
  5
38AA
330
31C1
100
AcDbEntity
  8
DEFPOINTS
 62
     0
440
 16777216
100
AcDbPoint
 10
1432.705467175587
 20
2363.908908144417
 30
0.0
  0
POINT
  5
38AB
330
31C1
100
AcDbEntity
  8
DEFPOINTS
 62
     0
440
 16777216
100
AcDbPoint
 10
858.4014577749076
 20
2363.908908144418
 30
0.0
  0
ENDBLK
  5
31CC
330
31C1
100
AcDbEntity
  8
0
100
AcDbBlockEnd
  0
BLOCK
  5
3230
330
3226
100
AcDbEntity
  8
0
100
AcDbBlockBegin
  2
*D24
 70
     1
 10
0.0
 20
0.0
 30
0.0
  3
*D24
  1

  0
LINE
  5
3227
330
3226
100
AcDbEntity
  8
SUNPOU
 62
     0
440
 16777216
370
    -2
100
AcDbLine
 10
1452.705467175587
 20
4043.908908144418
 30
0.0
 11
1452.705467175587
 21
4531.708906854794
 31
0.0
  0
LINE
  5
3228
330
3226
100
AcDbEntity
  8
SUNPOU
 62
     0
440
 16777216
370
    -2
100
AcDbLine
 10
3472.705467175587
 20
4043.908908144418
 30
0.0
 11
3472.705467175587
 21
4531.708906854794
 31
0.0
  0
LINE
  5
3229
330
3226
100
AcDbEntity
  8
SUNPOU
 62
     0
440
 16777216
370
    -2
100
AcDbLine
 10
1492.705467175587
 20
4521.708906854794
 30
0.0
 11
3432.705467175587
 21
4521.708906854794
 31
0.0
  0
SOLID
  5
322A
330
3226
100
AcDbEntity
  8
SUNPOU
 62
     0
440
 16777216
100
AcDbTrace
 10
1492.705467175587
 20
4528.375573521461
 30
0.0
 11
1492.705467175587
 21
4515.042240188127
 31
0.0
 12
1452.705467175587
 22
4521.708906854794
 32
0.0
 13
1452.705467175587
 23
4521.708906854794
 33
0.0
  0
SOLID
  5
322B
330
3226
100
AcDbEntity
  8
SUNPOU
 62
     0
440
 16777216
100
AcDbTrace
 10
3432.705467175587
 20
4528.375573521461
 30
0.0
 11
3432.705467175587
 21
4515.042240188127
 31
0.0
 12
3472.705467175587
 22
4521.708906854794
 32
0.0
 13
3472.705467175587
 23
4521.708906854794
 33
0.0
  0
MTEXT
  5
322C
330
3226
100
AcDbEntity
  8
SUNPOU
 62
     0
440
 16777216
100
AcDbMText
 10
2462.705467175587
 20
4567.708906854794
 30
0.0
 40
60.0
 41
0.0
 71
     5
 72
     1
  1
\A1;2020
 73
     1
 44
1.0
  0
POINT
  5
322D
330
3226
100
AcDbEntity
  8
DEFPOINTS
 62
     0
440
 16777216
100
AcDbPoint
 10
1452.705467175587
 20
4003.908908144418
 30
0.0
  0
POINT
  5
322E
330
3226
100
AcDbEntity
  8
DEFPOINTS
 62
     0
440
 16777216
100
AcDbPoint
 10
3472.705467175587
 20
4003.908908144418
 30
0.0
  0
POINT
  5
322F
330
3226
100
AcDbEntity
  8
DEFPOINTS
 62
     0
440
 16777216
100
AcDbPoint
 10
3472.705467175587
 20
4521.708906854794
 30
0.0
  0
ENDBLK
  5
3231
330
3226
100
AcDbEntity
  8
0
100
AcDbBlockEnd
  0
BLOCK
  5
323D
330
3233
100
AcDbEntity
  8
0
100
AcDbBlockBegin
  2
*D25
 70
     1
 10
0.0
 20
0.0
 30
0.0
  3
*D25
  1

  0
LINE
  5
3234
330
3233
100
AcDbEntity
  8
SUNPOU
 62
     0
440
 16777216
370
    -2
100
AcDbLine
 10
1758.785435201162
 20
2503.908908144418
 30
0.0
 11
2045.527229520408
 21
2503.908908144418
 31
0.0
  0
LINE
  5
3235
330
3233
100
AcDbEntity
  8
SUNPOU
 62
     0
440
 16777216
370
    -2
100
AcDbLine
 10
1685.67603509622
 20
2903.908908144417
 30
0.0
 11
2045.527229520409
 21
2903.908908144417
 31
0.0
  0
LINE
  5
3236
330
3233
100
AcDbEntity
  8
SUNPOU
 62
     0
440
 16777216
370
    -2
100
AcDbLine
 10
2035.527229520408
 20
2543.908908144418
 30
0.0
 11
2035.527229520409
 21
2863.908908144417
 31
0.0
  0
SOLID
  5
3237
330
3233
100
AcDbEntity
  8
SUNPOU
 62
     0
440
 16777216
100
AcDbTrace
 10
2028.860562853742
 20
2543.908908144418
 30
0.0
 11
2042.193896187075
 21
2543.908908144418
 31
0.0
 12
2035.527229520408
 22
2503.908908144418
 32
0.0
 13
2035.527229520408
 23
2503.908908144418
 33
0.0
  0
SOLID
  5
3238
330
3233
100
AcDbEntity
  8
SUNPOU
 62
     0
440
 16777216
100
AcDbTrace
 10
2028.860562853742
 20
2863.908908144417
 30
0.0
 11
2042.193896187075
 21
2863.908908144417
 31
0.0
 12
2035.527229520409
 22
2903.908908144417
 32
0.0
 13
2035.527229520409
 23
2903.908908144417
 33
0.0
  0
MTEXT
  5
3239
330
3233
100
AcDbEntity
  8
SUNPOU
 62
     0
440
 16777216
100
AcDbMText
 10
1989.527229520408
 20
2703.908908144418
 30
0.0
 40
60.0
 41
0.0
 71
     5
 72
     1
  1
\A1;400
 11
6.123031769111886E-17
 21
1.0
 31
0.0
 73
     1
 44
1.0
  0
POINT
  5
323A
330
3233
100
AcDbEntity
  8
DEFPOINTS
 62
     0
440
 16777216
100
AcDbPoint
 10
1718.785435201162
 20
2503.908908144418
 30
0.0
  0
POINT
  5
323B
330
3233
100
AcDbEntity
  8
DEFPOINTS
 62
     0
440
 16777216
100
AcDbPoint
 10
1645.67603509622
 20
2903.908908144417
 30
0.0
  0
POINT
  5
323C
330
3233
100
AcDbEntity
  8
DEFPOINTS
 62
     0
440
 16777216
100
AcDbPoint
 10
2035.527229520409
 20
2903.908908144417
 30
0.0
  0
ENDBLK
  5
323E
330
3233
100
AcDbEntity
  8
0
100
AcDbBlockEnd
  0
BLOCK
  5
373C
330
373B
100
AcDbEntity
  8
0
100
AcDbBlockBegin
  2
*D67
 70
     1
 10
0.0
 20
0.0
 30
0.0
  3
*D67
  1

  0
LINE
  5
37B3
330
373B
100
AcDbEntity
  8
SUNPOU
 62
     0
440
 16777216
370
    -2
100
AcDbLine
 10
5167.501745225501
 20
4043.908908144417
 30
0.0
 11
5167.501745225501
 21
4463.540378294827
 31
0.0
  0
LINE
  5
37B4
330
373B
100
AcDbEntity
  8
SUNPOU
 62
     0
440
 16777216
370
    -2
100
AcDbLine
 10
7167.501745225502
 20
4043.908908144417
 30
0.0
 11
7167.501745225502
 21
4463.540378294827
 31
0.0
  0
LINE
  5
37B5
330
373B
100
AcDbEntity
  8
SUNPOU
 62
     0
440
 16777216
370
    -2
100
AcDbLine
 10
5207.501745225501
 20
4453.540378294827
 30
0.0
 11
7127.501745225502
 21
4453.540378294827
 31
0.0
  0
SOLID
  5
37B6
330
373B
100
AcDbEntity
  8
SUNPOU
 62
     0
440
 16777216
100
AcDbTrace
 10
5207.501745225501
 20
4460.207044961494
 30
0.0
 11
5207.501745225501
 21
4446.87371162816
 31
0.0
 12
5167.501745225501
 22
4453.540378294827
 32
0.0
 13
5167.501745225501
 23
4453.540378294827
 33
0.0
  0
SOLID
  5
37B7
330
373B
100
AcDbEntity
  8
SUNPOU
 62
     0
440
 16777216
100
AcDbTrace
 10
7127.501745225502
 20
4460.207044961494
 30
0.0
 11
7127.501745225502
 21
4446.87371162816
 31
0.0
 12
7167.501745225502
 22
4453.540378294827
 32
0.0
 13
7167.501745225502
 23
4453.540378294827
 33
0.0
  0
MTEXT
  5
37B8
330
373B
100
AcDbEntity
  8
SUNPOU
 62
     0
440
 16777216
100
AcDbMText
 10
6167.501745225502
 20
4499.540378294827
 30
0.0
 40
60.0
 41
0.0
 71
     5
 72
     1
  1
\A1;2000
 73
     1
 44
1.0
  0
POINT
  5
37B9
330
373B
100
AcDbEntity
  8
DEFPOINTS
 62
     0
440
 16777216
100
AcDbPoint
 10
5167.501745225501
 20
4003.908908144417
 30
0.0
  0
POINT
  5
37BA
330
373B
100
AcDbEntity
  8
DEFPOINTS
 62
     0
440
 16777216
100
AcDbPoint
 10
7167.501745225502
 20
4003.908908144417
 30
0.0
  0
POINT
  5
37BB
330
373B
100
AcDbEntity
  8
DEFPOINTS
 62
     0
440
 16777216
100
AcDbPoint
 10
7167.501745225502
 20
4453.540378294827
 30
0.0
  0
ENDBLK
  5
373D
330
373B
100
AcDbEntity
  8
0
100
AcDbBlockEnd
  0
BLOCK
  5
3748
330
3747
100
AcDbEntity
  8
0
100
AcDbBlockBegin
  2
*D68
 70
     1
 10
0.0
 20
0.0
 30
0.0
  3
*D68
  1

  0
LINE
  5
37BC
330
3747
100
AcDbEntity
  8
SUNPOU
 62
     0
440
 16777216
370
    -2
100
AcDbLine
 10
5127.501745225501
 20
2503.908908144418
 30
0.0
 11
4897.628747391584
 21
2503.908908144419
 31
0.0
  0
LINE
  5
37BD
330
3747
100
AcDbEntity
  8
SUNPOU
 62
     0
440
 16777216
370
    -2
100
AcDbLine
 10
5127.501745225501
 20
2903.908908144418
 30
0.0
 11
4897.628747391584
 21
2903.908908144419
 31
0.0
  0
LINE
  5
37BE
330
3747
100
AcDbEntity
  8
SUNPOU
 62
     0
440
 16777216
370
    -2
100
AcDbLine
 10
4907.628747391584
 20
2543.908908144419
 30
0.0
 11
4907.628747391584
 21
2863.908908144419
 31
0.0
  0
SOLID
  5
37BF
330
3747
100
AcDbEntity
  8
SUNPOU
 62
     0
440
 16777216
100
AcDbTrace
 10
4900.962080724917
 20
2543.908908144419
 30
0.0
 11
4914.295414058251
 21
2543.908908144419
 31
0.0
 12
4907.628747391584
 22
2503.908908144419
 32
0.0
 13
4907.628747391584
 23
2503.908908144419
 33
0.0
  0
SOLID
  5
37C0
330
3747
100
AcDbEntity
  8
SUNPOU
 62
     0
440
 16777216
100
AcDbTrace
 10
4900.962080724917
 20
2863.908908144419
 30
0.0
 11
4914.295414058251
 21
2863.908908144419
 31
0.0
 12
4907.628747391584
 22
2903.908908144419
 32
0.0
 13
4907.628747391584
 23
2903.908908144419
 33
0.0
  0
MTEXT
  5
37C1
330
3747
100
AcDbEntity
  8
SUNPOU
 62
     0
440
 16777216
100
AcDbMText
 10
4861.628747391583
 20
2703.908908144419
 30
0.0
 40
60.0
 41
0.0
 71
     5
 72
     1
  1
\A1;400
 11
6.123031769111886E-17
 21
1.0
 31
0.0
 73
     1
 44
1.0
  0
POINT
  5
37C2
330
3747
100
AcDbEntity
  8
DEFPOINTS
 62
     0
440
 16777216
100
AcDbPoint
 10
5167.501745225501
 20
2503.908908144418
 30
0.0
  0
POINT
  5
37C3
330
3747
100
AcDbEntity
  8
DEFPOINTS
 62
     0
440
 16777216
100
AcDbPoint
 10
5167.501745225501
 20
2903.908908144418
 30
0.0
  0
POINT
  5
37C4
330
3747
100
AcDbEntity
  8
DEFPOINTS
 62
     0
440
 16777216
100
AcDbPoint
 10
4907.628747391584
 20
2903.908908144419
 30
0.0
  0
ENDBLK
  5
3749
330
3747
100
AcDbEntity
  8
0
100
AcDbBlockEnd
  0
BLOCK
  5
3754
330
3753
100
AcDbEntity
  8
0
100
AcDbBlockBegin
  2
*D69
 70
     1
 10
0.0
 20
0.0
 30
0.0
  3
*D69
  1

  0
LINE
  5
37C5
330
3753
100
AcDbEntity
  8
SUNPOU
 62
     0
440
 16777216
370
    -2
100
AcDbLine
 10
5292.501745225501
 20
2323.908908144418
 30
0.0
 11
5292.501745225501
 21
1811.721951313844
 31
0.0
  0
LINE
  5
37C6
330
3753
100
AcDbEntity
  8
SUNPOU
 62
     0
440
 16777216
370
    -2
100
AcDbLine
 10
5652.501745225501
 20
2323.908908144418
 30
0.0
 11
5652.501745225501
 21
1811.721951313844
 31
0.0
  0
LINE
  5
37C7
330
3753
100
AcDbEntity
  8
SUNPOU
 62
     0
440
 16777216
370
    -2
100
AcDbLine
 10
5332.501745225501
 20
1821.721951313844
 30
0.0
 11
5612.501745225501
 21
1821.721951313844
 31
0.0
  0
SOLID
  5
37C8
330
3753
100
AcDbEntity
  8
SUNPOU
 62
     0
440
 16777216
100
AcDbTrace
 10
5332.501745225501
 20
1828.388617980511
 30
0.0
 11
5332.501745225501
 21
1815.055284647178
 31
0.0
 12
5292.501745225501
 22
1821.721951313844
 32
0.0
 13
5292.501745225501
 23
1821.721951313844
 33
0.0
  0
SOLID
  5
37C9
330
3753
100
AcDbEntity
  8
SUNPOU
 62
     0
440
 16777216
100
AcDbTrace
 10
5612.501745225501
 20
1828.388617980511
 30
0.0
 11
5612.501745225501
 21
1815.055284647178
 31
0.0
 12
5652.501745225501
 22
1821.721951313844
 32
0.0
 13
5652.501745225501
 23
1821.721951313844
 33
0.0
  0
MTEXT
  5
37CA
330
3753
100
AcDbEntity
  8
SUNPOU
 62
     0
440
 16777216
100
AcDbMText
 10
5472.501745225501
 20
1867.721951313844
 30
0.0
 40
60.0
 41
0.0
 71
     5
 72
     1
  1
\A1;360
 73
     1
 44
1.0
  0
POINT
  5
37CB
330
3753
100
AcDbEntity
  8
DEFPOINTS
 62
     0
440
 16777216
100
AcDbPoint
 10
5292.501745225501
 20
2363.908908144418
 30
0.0
  0
POINT
  5
37CC
330
3753
100
AcDbEntity
  8
DEFPOINTS
 62
     0
440
 16777216
100
AcDbPoint
 10
5652.501745225501
 20
2363.908908144418
 30
0.0
  0
POINT
  5
37CD
330
3753
100
AcDbEntity
  8
DEFPOINTS
 62
     0
440
 16777216
100
AcDbPoint
 10
5652.501745225501
 20
1821.721951313844
 30
0.0
  0
ENDBLK
  5
3755
330
3753
100
AcDbEntity
  8
0
100
AcDbBlockEnd
  0
BLOCK
  5
3760
330
375F
100
AcDbEntity
  8
0
100
AcDbBlockBegin
  2
*D70
 70
     1
 10
0.0
 20
0.0
 30
0.0
  3
*D70
  1

  0
LINE
  5
37CE
330
375F
100
AcDbEntity
  8
SUNPOU
 62
     0
440
 16777216
370
    -2
100
AcDbLine
 10
5167.501745225501
 20
2323.908908144418
 30
0.0
 11
5167.501745225501
 21
1811.721951313844
 31
0.0
  0
LINE
  5
37CF
330
375F
100
AcDbEntity
  8
SUNPOU
 62
     0
440
 16777216
370
    -2
100
AcDbLine
 10
5292.501745225501
 20
2323.908908144418
 30
0.0
 11
5292.501745225501
 21
1811.721951313844
 31
0.0
  0
LINE
  5
37D0
330
375F
100
AcDbEntity
  8
SUNPOU
 62
     0
440
 16777216
370
    -2
100
AcDbLine
 10
5207.501745225501
 20
1821.721951313844
 30
0.0
 11
5252.501745225501
 21
1821.721951313844
 31
0.0
  0
MTEXT
  5
37D1
330
375F
100
AcDbEntity
  8
SUNPOU
 62
     0
440
 16777216
100
AcDbMText
 10
5230.001745225501
 20
1867.721951313844
 30
0.0
 40
60.0
 41
0.0
 71
     5
 72
     1
  1
\A1;125
 73
     1
 44
1.0
  0
SOLID
  5
37D2
330
375F
100
AcDbEntity
  8
SUNPOU
 62
     0
440
 16777216
100
AcDbTrace
 10
5207.501745225501
 20
1828.388617980511
 30
0.0
 11
5207.501745225501
 21
1815.055284647178
 31
0.0
 12
5167.501745225501
 22
1821.721951313844
 32
0.0
 13
5167.501745225501
 23
1821.721951313844
 33
0.0
  0
SOLID
  5
37D3
330
375F
100
AcDbEntity
  8
SUNPOU
 62
     0
440
 16777216
100
AcDbTrace
 10
5252.501745225501
 20
1828.388617980511
 30
0.0
 11
5252.501745225501
 21
1815.055284647178
 31
0.0
 12
5292.501745225501
 22
1821.721951313844
 32
0.0
 13
5292.501745225501
 23
1821.721951313844
 33
0.0
  0
POINT
  5
37D4
330
375F
100
AcDbEntity
  8
DEFPOINTS
 62
     0
440
 16777216
100
AcDbPoint
 10
5167.501745225501
 20
2363.908908144418
 30
0.0
  0
POINT
  5
37D5
330
375F
100
AcDbEntity
  8
DEFPOINTS
 62
     0
440
 16777216
100
AcDbPoint
 10
5292.501745225501
 20
2363.908908144418
 30
0.0
  0
POINT
  5
37D6
330
375F
100
AcDbEntity
  8
DEFPOINTS
 62
     0
440
 16777216
100
AcDbPoint
 10
5292.501745225501
 20
1821.721951313844
 30
0.0
  0
ENDBLK
  5
3761
330
375F
100
AcDbEntity
  8
0
100
AcDbBlockEnd
  0
BLOCK
  5
376C
330
376B
100
AcDbEntity
  8
0
100
AcDbBlockBegin
  2
*D71
 70
     1
 10
0.0
 20
0.0
 30
0.0
  3
*D71
  1

  0
LINE
  5
37D7
330
376B
100
AcDbEntity
  8
SUNPOU
 62
     0
440
 16777216
370
    -2
100
AcDbLine
 10
5652.501745225501
 20
2323.908908144418
 30
0.0
 11
5652.501745225501
 21
1811.721951313844
 31
0.0
  0
LINE
  5
37D8
330
376B
100
AcDbEntity
  8
SUNPOU
 62
     0
440
 16777216
370
    -2
100
AcDbLine
 10
6012.501745225501
 20
2323.908908144418
 30
0.0
 11
6012.501745225501
 21
1811.721951313844
 31
0.0
  0
LINE
  5
37D9
330
376B
100
AcDbEntity
  8
SUNPOU
 62
     0
440
 16777216
370
    -2
100
AcDbLine
 10
5692.501745225501
 20
1821.721951313844
 30
0.0
 11
5972.501745225501
 21
1821.721951313844
 31
0.0
  0
SOLID
  5
37DA
330
376B
100
AcDbEntity
  8
SUNPOU
 62
     0
440
 16777216
100
AcDbTrace
 10
5692.501745225501
 20
1828.388617980511
 30
0.0
 11
5692.501745225501
 21
1815.055284647178
 31
0.0
 12
5652.501745225501
 22
1821.721951313844
 32
0.0
 13
5652.501745225501
 23
1821.721951313844
 33
0.0
  0
SOLID
  5
37DB
330
376B
100
AcDbEntity
  8
SUNPOU
 62
     0
440
 16777216
100
AcDbTrace
 10
5972.501745225501
 20
1828.388617980511
 30
0.0
 11
5972.501745225501
 21
1815.055284647178
 31
0.0
 12
6012.501745225501
 22
1821.721951313844
 32
0.0
 13
6012.501745225501
 23
1821.721951313844
 33
0.0
  0
MTEXT
  5
37DC
330
376B
100
AcDbEntity
  8
SUNPOU
 62
     0
440
 16777216
100
AcDbMText
 10
5832.501745225501
 20
1867.721951313844
 30
0.0
 40
60.0
 41
0.0
 71
     5
 72
     1
  1
\A1;360
 73
     1
 44
1.0
  0
POINT
  5
37DD
330
376B
100
AcDbEntity
  8
DEFPOINTS
 62
     0
440
 16777216
100
AcDbPoint
 10
5652.501745225501
 20
2363.908908144418
 30
0.0
  0
POINT
  5
37DE
330
376B
100
AcDbEntity
  8
DEFPOINTS
 62
     0
440
 16777216
100
AcDbPoint
 10
6012.501745225501
 20
2363.908908144418
 30
0.0
  0
POINT
  5
37DF
330
376B
100
AcDbEntity
  8
DEFPOINTS
 62
     0
440
 16777216
100
AcDbPoint
 10
6012.501745225501
 20
1821.721951313844
 30
0.0
  0
ENDBLK
  5
376D
330
376B
100
AcDbEntity
  8
0
100
AcDbBlockEnd
  0
BLOCK
  5
3778
330
3777
100
AcDbEntity
  8
0
100
AcDbBlockBegin
  2
*D72
 70
     1
 10
0.0
 20
0.0
 30
0.0
  3
*D72
  1

  0
LINE
  5
37E0
330
3777
100
AcDbEntity
  8
SUNPOU
 62
     0
440
 16777216
370
    -2
100
AcDbLine
 10
6012.501745225501
 20
2323.908908144418
 30
0.0
 11
6012.501745225501
 21
1811.721951313844
 31
0.0
  0
LINE
  5
37E1
330
3777
100
AcDbEntity
  8
SUNPOU
 62
     0
440
 16777216
370
    -2
100
AcDbLine
 10
6322.501745225502
 20
2323.908908144418
 30
0.0
 11
6322.501745225502
 21
1811.721951313844
 31
0.0
  0
LINE
  5
37E2
330
3777
100
AcDbEntity
  8
SUNPOU
 62
     0
440
 16777216
370
    -2
100
AcDbLine
 10
6052.501745225501
 20
1821.721951313844
 30
0.0
 11
6282.501745225502
 21
1821.721951313844
 31
0.0
  0
SOLID
  5
37E3
330
3777
100
AcDbEntity
  8
SUNPOU
 62
     0
440
 16777216
100
AcDbTrace
 10
6052.501745225501
 20
1828.388617980511
 30
0.0
 11
6052.501745225501
 21
1815.055284647178
 31
0.0
 12
6012.501745225501
 22
1821.721951313844
 32
0.0
 13
6012.501745225501
 23
1821.721951313844
 33
0.0
  0
SOLID
  5
37E4
330
3777
100
AcDbEntity
  8
SUNPOU
 62
     0
440
 16777216
100
AcDbTrace
 10
6282.501745225502
 20
1828.388617980511
 30
0.0
 11
6282.501745225502
 21
1815.055284647178
 31
0.0
 12
6322.501745225502
 22
1821.721951313844
 32
0.0
 13
6322.501745225502
 23
1821.721951313844
 33
0.0
  0
MTEXT
  5
37E5
330
3777
100
AcDbEntity
  8
SUNPOU
 62
     0
440
 16777216
100
AcDbMText
 10
6167.501745225502
 20
1867.721951313844
 30
0.0
 40
60.0
 41
0.0
 71
     5
 72
     1
  1
\A1;310
 73
     1
 44
1.0
  0
POINT
  5
37E6
330
3777
100
AcDbEntity
  8
DEFPOINTS
 62
     0
440
 16777216
100
AcDbPoint
 10
6012.501745225501
 20
2363.908908144418
 30
0.0
  0
POINT
  5
37E7
330
3777
100
AcDbEntity
  8
DEFPOINTS
 62
     0
440
 16777216
100
AcDbPoint
 10
6322.501745225502
 20
2363.908908144418
 30
0.0
  0
POINT
  5
37E8
330
3777
100
AcDbEntity
  8
DEFPOINTS
 62
     0
440
 16777216
100
AcDbPoint
 10
6322.501745225502
 20
1821.721951313844
 30
0.0
  0
ENDBLK
  5
3779
330
3777
100
AcDbEntity
  8
0
100
AcDbBlockEnd
  0
BLOCK
  5
3784
330
3783
100
AcDbEntity
  8
0
100
AcDbBlockBegin
  2
*D73
 70
     1
 10
0.0
 20
0.0
 30
0.0
  3
*D73
  1

  0
LINE
  5
37E9
330
3783
100
AcDbEntity
  8
SUNPOU
 62
     0
440
 16777216
370
    -2
100
AcDbLine
 10
7042.501745225502
 20
2323.908908144418
 30
0.0
 11
7042.501745225502
 21
1811.721951313844
 31
0.0
  0
LINE
  5
37EA
330
3783
100
AcDbEntity
  8
SUNPOU
 62
     0
440
 16777216
370
    -2
100
AcDbLine
 10
6682.501745225502
 20
2323.908908144418
 30
0.0
 11
6682.501745225502
 21
1811.721951313844
 31
0.0
  0
LINE
  5
37EB
330
3783
100
AcDbEntity
  8
SUNPOU
 62
     0
440
 16777216
370
    -2
100
AcDbLine
 10
7002.501745225502
 20
1821.721951313844
 30
0.0
 11
6722.501745225502
 21
1821.721951313844
 31
0.0
  0
SOLID
  5
37EC
330
3783
100
AcDbEntity
  8
SUNPOU
 62
     0
440
 16777216
100
AcDbTrace
 10
7002.501745225502
 20
1828.388617980511
 30
0.0
 11
7002.501745225502
 21
1815.055284647178
 31
0.0
 12
7042.501745225502
 22
1821.721951313844
 32
0.0
 13
7042.501745225502
 23
1821.721951313844
 33
0.0
  0
SOLID
  5
37ED
330
3783
100
AcDbEntity
  8
SUNPOU
 62
     0
440
 16777216
100
AcDbTrace
 10
6722.501745225502
 20
1828.388617980511
 30
0.0
 11
6722.501745225502
 21
1815.055284647178
 31
0.0
 12
6682.501745225502
 22
1821.721951313844
 32
0.0
 13
6682.501745225502
 23
1821.721951313844
 33
0.0
  0
MTEXT
  5
37EE
330
3783
100
AcDbEntity
  8
SUNPOU
 62
     0
440
 16777216
100
AcDbMText
 10
6862.501745225502
 20
1867.721951313844
 30
0.0
 40
60.0
 41
0.0
 71
     5
 72
     1
  1
\A1;360
 73
     1
 44
1.0
  0
POINT
  5
37EF
330
3783
100
AcDbEntity
  8
DEFPOINTS
 62
     0
440
 16777216
100
AcDbPoint
 10
7042.501745225502
 20
2363.908908144418
 30
0.0
  0
POINT
  5
37F0
330
3783
100
AcDbEntity
  8
DEFPOINTS
 62
     0
440
 16777216
100
AcDbPoint
 10
6682.501745225502
 20
2363.908908144418
 30
0.0
  0
POINT
  5
37F1
330
3783
100
AcDbEntity
  8
DEFPOINTS
 62
     0
440
 16777216
100
AcDbPoint
 10
6682.501745225502
 20
1821.721951313844
 30
0.0
  0
ENDBLK
  5
3785
330
3783
100
AcDbEntity
  8
0
100
AcDbBlockEnd
  0
BLOCK
  5
3790
330
378F
100
AcDbEntity
  8
0
100
AcDbBlockBegin
  2
*D74
 70
     1
 10
0.0
 20
0.0
 30
0.0
  3
*D74
  1

  0
LINE
  5
37F2
330
378F
100
AcDbEntity
  8
SUNPOU
 62
     0
440
 16777216
370
    -2
100
AcDbLine
 10
6682.501745225502
 20
2323.908908144418
 30
0.0
 11
6682.501745225502
 21
1811.721951313844
 31
0.0
  0
LINE
  5
37F3
330
378F
100
AcDbEntity
  8
SUNPOU
 62
     0
440
 16777216
370
    -2
100
AcDbLine
 10
6322.501745225502
 20
2323.908908144418
 30
0.0
 11
6322.501745225502
 21
1811.721951313844
 31
0.0
  0
LINE
  5
37F4
330
378F
100
AcDbEntity
  8
SUNPOU
 62
     0
440
 16777216
370
    -2
100
AcDbLine
 10
6642.501745225502
 20
1821.721951313844
 30
0.0
 11
6362.501745225502
 21
1821.721951313844
 31
0.0
  0
SOLID
  5
37F5
330
378F
100
AcDbEntity
  8
SUNPOU
 62
     0
440
 16777216
100
AcDbTrace
 10
6642.501745225502
 20
1828.388617980511
 30
0.0
 11
6642.501745225502
 21
1815.055284647178
 31
0.0
 12
6682.501745225502
 22
1821.721951313844
 32
0.0
 13
6682.501745225502
 23
1821.721951313844
 33
0.0
  0
SOLID
  5
37F6
330
378F
100
AcDbEntity
  8
SUNPOU
 62
     0
440
 16777216
100
AcDbTrace
 10
6362.501745225502
 20
1828.388617980511
 30
0.0
 11
6362.501745225502
 21
1815.055284647178
 31
0.0
 12
6322.501745225502
 22
1821.721951313844
 32
0.0
 13
6322.501745225502
 23
1821.721951313844
 33
0.0
  0
MTEXT
  5
37F7
330
378F
100
AcDbEntity
  8
SUNPOU
 62
     0
440
 16777216
100
AcDbMText
 10
6502.501745225502
 20
1867.721951313844
 30
0.0
 40
60.0
 41
0.0
 71
     5
 72
     1
  1
\A1;360
 73
     1
 44
1.0
  0
POINT
  5
37F8
330
378F
100
AcDbEntity
  8
DEFPOINTS
 62
     0
440
 16777216
100
AcDbPoint
 10
6682.501745225502
 20
2363.908908144418
 30
0.0
  0
POINT
  5
37F9
330
378F
100
AcDbEntity
  8
DEFPOINTS
 62
     0
440
 16777216
100
AcDbPoint
 10
6322.501745225502
 20
2363.908908144418
 30
0.0
  0
POINT
  5
37FA
330
378F
100
AcDbEntity
  8
DEFPOINTS
 62
     0
440
 16777216
100
AcDbPoint
 10
6322.501745225502
 20
1821.721951313844
 30
0.0
  0
ENDBLK
  5
3791
330
378F
100
AcDbEntity
  8
0
100
AcDbBlockEnd
  0
BLOCK
  5
379C
330
379B
100
AcDbEntity
  8
0
100
AcDbBlockBegin
  2
*D75
 70
     1
 10
0.0
 20
0.0
 30
0.0
  3
*D75
  1

  0
LINE
  5
37FB
330
379B
100
AcDbEntity
  8
SUNPOU
 62
     0
440
 16777216
370
    -2
100
AcDbLine
 10
7167.501745225502
 20
2323.908908144418
 30
0.0
 11
7167.501745225502
 21
1811.721951313844
 31
0.0
  0
LINE
  5
37FC
330
379B
100
AcDbEntity
  8
SUNPOU
 62
     0
440
 16777216
370
    -2
100
AcDbLine
 10
7042.501745225502
 20
2323.908908144418
 30
0.0
 11
7042.501745225502
 21
1811.721951313844
 31
0.0
  0
LINE
  5
37FD
330
379B
100
AcDbEntity
  8
SUNPOU
 62
     0
440
 16777216
370
    -2
100
AcDbLine
 10
7127.501745225502
 20
1821.721951313844
 30
0.0
 11
7082.501745225502
 21
1821.721951313844
 31
0.0
  0
MTEXT
  5
37FE
330
379B
100
AcDbEntity
  8
SUNPOU
 62
     0
440
 16777216
100
AcDbMText
 10
7105.001745225502
 20
1867.721951313844
 30
0.0
 40
60.0
 41
0.0
 71
     5
 72
     1
  1
\A1;125
 73
     1
 44
1.0
  0
SOLID
  5
37FF
330
379B
100
AcDbEntity
  8
SUNPOU
 62
     0
440
 16777216
100
AcDbTrace
 10
7127.501745225502
 20
1828.388617980511
 30
0.0
 11
7127.501745225502
 21
1815.055284647178
 31
0.0
 12
7167.501745225502
 22
1821.721951313844
 32
0.0
 13
7167.501745225502
 23
1821.721951313844
 33
0.0
  0
SOLID
  5
3800
330
379B
100
AcDbEntity
  8
SUNPOU
 62
     0
440
 16777216
100
AcDbTrace
 10
7082.501745225502
 20
1828.388617980511
 30
0.0
 11
7082.501745225502
 21
1815.055284647178
 31
0.0
 12
7042.501745225502
 22
1821.721951313844
 32
0.0
 13
7042.501745225502
 23
1821.721951313844
 33
0.0
  0
POINT
  5
3801
330
379B
100
AcDbEntity
  8
DEFPOINTS
 62
     0
440
 16777216
100
AcDbPoint
 10
7167.501745225502
 20
2363.908908144418
 30
0.0
  0
POINT
  5
3802
330
379B
100
AcDbEntity
  8
DEFPOINTS
 62
     0
440
 16777216
100
AcDbPoint
 10
7042.501745225502
 20
2363.908908144418
 30
0.0
  0
POINT
  5
3803
330
379B
100
AcDbEntity
  8
DEFPOINTS
 62
     0
440
 16777216
100
AcDbPoint
 10
7042.501745225502
 20
1821.721951313844
 30
0.0
  0
ENDBLK
  5
379D
330
379B
100
AcDbEntity
  8
0
100
AcDbBlockEnd
  0
BLOCK
  5
37A8
330
37A7
100
AcDbEntity
  8
0
100
AcDbBlockBegin
  2
*D76
 70
     1
 10
0.0
 20
0.0
 30
0.0
  3
*D76
  1

  0
LINE
  5
381B
330
37A7
100
AcDbEntity
  8
SUNPOU
 62
     0
440
 16777216
370
    -2
100
AcDbLine
 10
5127.501745225501
 20
2503.908908144418
 30
0.0
 11
4714.386525594804
 21
2503.908908144419
 31
0.0
  0
LINE
  5
381C
330
37A7
100
AcDbEntity
  8
SUNPOU
 62
     0
440
 16777216
370
    -2
100
AcDbLine
 10
5127.501745225501
 20
2363.908908144418
 30
0.0
 11
4714.386525594804
 21
2363.908908144419
 31
0.0
  0
LINE
  5
381D
330
37A7
100
AcDbEntity
  8
SUNPOU
 62
     0
440
 16777216
370
    -2
100
AcDbLine
 10
4724.386525594804
 20
2463.908908144419
 30
0.0
 11
4724.386525594804
 21
2403.908908144419
 31
0.0
  0
SOLID
  5
381E
330
37A7
100
AcDbEntity
  8
SUNPOU
 62
     0
440
 16777216
100
AcDbTrace
 10
4717.719858928137
 20
2463.908908144419
 30
0.0
 11
4731.053192261471
 21
2463.908908144419
 31
0.0
 12
4724.386525594804
 22
2503.908908144419
 32
0.0
 13
4724.386525594804
 23
2503.908908144419
 33
0.0
  0
SOLID
  5
381F
330
37A7
100
AcDbEntity
  8
SUNPOU
 62
     0
440
 16777216
100
AcDbTrace
 10
4717.719858928137
 20
2403.908908144419
 30
0.0
 11
4731.053192261471
 21
2403.908908144419
 31
0.0
 12
4724.386525594804
 22
2363.908908144419
 32
0.0
 13
4724.386525594804
 23
2363.908908144419
 33
0.0
  0
MTEXT
  5
3820
330
37A7
100
AcDbEntity
  8
SUNPOU
 62
     0
440
 16777216
100
AcDbMText
 10
4678.386525594803
 20
2433.908908144419
 30
0.0
 40
60.0
 41
0.0
 71
     5
 72
     1
  1
\A1;140
 11
6.123031769111886E-17
 21
1.0
 31
0.0
 73
     1
 44
1.0
  0
POINT
  5
3821
330
37A7
100
AcDbEntity
  8
DEFPOINTS
 62
     0
440
 16777216
100
AcDbPoint
 10
5167.501745225501
 20
2503.908908144418
 30
0.0
  0
POINT
  5
3822
330
37A7
100
AcDbEntity
  8
DEFPOINTS
 62
     0
440
 16777216
100
AcDbPoint
 10
5167.501745225501
 20
2363.908908144418
 30
0.0
  0
POINT
  5
3823
330
37A7
100
AcDbEntity
  8
DEFPOINTS
 62
     0
440
 16777216
100
AcDbPoint
 10
4724.386525594804
 20
2363.908908144419
 30
0.0
  0
ENDBLK
  5
37A9
330
37A7
100
AcDbEntity
  8
0
100
AcDbBlockEnd
  0
BLOCK
  5
3810
330
380F
100
AcDbEntity
  8
0
100
AcDbBlockBegin
  2
*D77
 70
     1
 10
0.0
 20
0.0
 30
0.0
  3
*D77
  1

  0
LINE
  5
3812
330
380F
100
AcDbEntity
  8
SUNPOU
 62
     0
440
 16777216
370
    -2
100
AcDbLine
 10
5127.501745225501
 20
2503.908908144418
 30
0.0
 11
4714.386525594804
 21
2503.908908144419
 31
0.0
  0
LINE
  5
3813
330
380F
100
AcDbEntity
  8
SUNPOU
 62
     0
440
 16777216
370
    -2
100
AcDbLine
 10
5127.501745225501
 20
4003.908908144417
 30
0.0
 11
4714.386525594804
 21
4003.908908144418
 31
0.0
  0
LINE
  5
3814
330
380F
100
AcDbEntity
  8
SUNPOU
 62
     0
440
 16777216
370
    -2
100
AcDbLine
 10
4724.386525594804
 20
2543.908908144419
 30
0.0
 11
4724.386525594804
 21
3963.908908144418
 31
0.0
  0
SOLID
  5
3815
330
380F
100
AcDbEntity
  8
SUNPOU
 62
     0
440
 16777216
100
AcDbTrace
 10
4717.719858928137
 20
2543.908908144419
 30
0.0
 11
4731.053192261471
 21
2543.908908144419
 31
0.0
 12
4724.386525594804
 22
2503.908908144419
 32
0.0
 13
4724.386525594804
 23
2503.908908144419
 33
0.0
  0
SOLID
  5
3816
330
380F
100
AcDbEntity
  8
SUNPOU
 62
     0
440
 16777216
100
AcDbTrace
 10
4717.719858928137
 20
3963.908908144418
 30
0.0
 11
4731.053192261471
 21
3963.908908144418
 31
0.0
 12
4724.386525594804
 22
4003.908908144418
 32
0.0
 13
4724.386525594804
 23
4003.908908144418
 33
0.0
  0
MTEXT
  5
3817
330
380F
100
AcDbEntity
  8
SUNPOU
 62
     0
440
 16777216
100
AcDbMText
 10
4678.386525594803
 20
3253.908908144419
 30
0.0
 40
60.0
 41
0.0
 71
     5
 72
     1
  1
\A1;1500
 11
6.123031769111886E-17
 21
1.0
 31
0.0
 73
     1
 44
1.0
  0
POINT
  5
3818
330
380F
100
AcDbEntity
  8
DEFPOINTS
 62
     0
440
 16777216
100
AcDbPoint
 10
5167.501745225501
 20
2503.908908144418
 30
0.0
  0
POINT
  5
3819
330
380F
100
AcDbEntity
  8
DEFPOINTS
 62
     0
440
 16777216
100
AcDbPoint
 10
5167.501745225501
 20
4003.908908144417
 30
0.0
  0
POINT
  5
381A
330
380F
100
AcDbEntity
  8
DEFPOINTS
 62
     0
440
 16777216
100
AcDbPoint
 10
4724.386525594804
 20
4003.908908144418
 30
0.0
  0
ENDBLK
  5
3811
330
380F
100
AcDbEntity
  8
0
100
AcDbBlockEnd
  0
BLOCK
  5
38AE
330
38AD
100
AcDbEntity
  8
0
100
AcDbBlockBegin
  2
*D78
 70
     1
 10
0.0
 20
0.0
 30
0.0
  3
*D78
  1

  0
LINE
  5
38B0
330
38AD
100
AcDbEntity
  8
SUNPOU
 62
     0
440
 16777216
370
    -2
100
AcDbLine
 10
1432.705467175587
 20
2323.908908144417
 30
0.0
 11
1432.705467175587
 21
1969.831040133389
 31
0.0
  0
LINE
  5
38B1
330
38AD
100
AcDbEntity
  8
SUNPOU
 62
     0
440
 16777216
370
    -2
100
AcDbLine
 10
1482.705467175587
 20
2323.908908144417
 30
0.0
 11
1482.705467175587
 21
1969.831040133389
 31
0.0
  0
LINE
  5
38B2
330
38AD
100
AcDbEntity
  8
SUNPOU
 62
     0
440
 16777216
370
    -2
100
AcDbLine
 10
1392.705467175587
 20
1979.831040133389
 30
0.0
 11
1352.705467175587
 21
1979.831040133389
 31
0.0
  0
LINE
  5
38B3
330
38AD
100
AcDbEntity
  8
SUNPOU
 62
     0
440
 16777216
370
    -2
100
AcDbLine
 10
1522.705467175587
 20
1979.831040133389
 30
0.0
 11
1562.705467175587
 21
1979.831040133389
 31
0.0
  0
SOLID
  5
38B4
330
38AD
100
AcDbEntity
  8
SUNPOU
 62
     0
440
 16777216
100
AcDbTrace
 10
1392.705467175587
 20
1986.497706800056
 30
0.0
 11
1392.705467175587
 21
1973.164373466723
 31
0.0
 12
1432.705467175587
 22
1979.831040133389
 32
0.0
 13
1432.705467175587
 23
1979.831040133389
 33
0.0
  0
SOLID
  5
38B5
330
38AD
100
AcDbEntity
  8
SUNPOU
 62
     0
440
 16777216
100
AcDbTrace
 10
1522.705467175587
 20
1986.497706800056
 30
0.0
 11
1522.705467175587
 21
1973.164373466723
 31
0.0
 12
1482.705467175587
 22
1979.831040133389
 32
0.0
 13
1482.705467175587
 23
1979.831040133389
 33
0.0
  0
MTEXT
  5
38B6
330
38AD
100
AcDbEntity
  8
SUNPOU
 62
     0
440
 16777216
100
AcDbMText
 10
1457.705467175587
 20
2025.831040133389
 30
0.0
 40
60.0
 41
0.0
 71
     5
 72
     1
  1
\A1;50
 73
     1
 44
1.0
  0
POINT
  5
38B7
330
38AD
100
AcDbEntity
  8
DEFPOINTS
 62
     0
440
 16777216
100
AcDbPoint
 10
1432.705467175587
 20
2363.908908144417
 30
0.0
  0
POINT
  5
38B8
330
38AD
100
AcDbEntity
  8
DEFPOINTS
 62
     0
440
 16777216
100
AcDbPoint
 10
1482.705467175587
 20
2363.908908144417
 30
0.0
  0
POINT
  5
38B9
330
38AD
100
AcDbEntity
  8
DEFPOINTS
 62
     0
440
 16777216
100
AcDbPoint
 10
1482.705467175587
 20
1979.831040133389
 30
0.0
  0
ENDBLK
  5
38AF
330
38AD
100
AcDbEntity
  8
0
100
AcDbBlockEnd
  0
BLOCK
  5
38BC
330
38BB
100
AcDbEntity
  8
0
100
AcDbBlockBegin
  2
*D79
 70
     1
 10
0.0
 20
0.0
 30
0.0
  3
*D79
  1

  0
LINE
  5
38C8
330
38BB
100
AcDbEntity
  8
SUNPOU
 62
     0
440
 16777216
370
    -2
100
AcDbLine
 10
3492.705467175587
 20
2323.908908144417
 30
0.0
 11
3492.705467175587
 21
1969.831040133389
 31
0.0
  0
LINE
  5
38C9
330
38BB
100
AcDbEntity
  8
SUNPOU
 62
     0
440
 16777216
370
    -2
100
AcDbLine
 10
3442.705467175587
 20
2323.908908144417
 30
0.0
 11
3442.705467175587
 21
1969.831040133389
 31
0.0
  0
LINE
  5
38CA
330
38BB
100
AcDbEntity
  8
SUNPOU
 62
     0
440
 16777216
370
    -2
100
AcDbLine
 10
3532.705467175587
 20
1979.831040133389
 30
0.0
 11
3572.705467175587
 21
1979.831040133389
 31
0.0
  0
LINE
  5
38CB
330
38BB
100
AcDbEntity
  8
SUNPOU
 62
     0
440
 16777216
370
    -2
100
AcDbLine
 10
3402.705467175587
 20
1979.831040133389
 30
0.0
 11
3362.705467175587
 21
1979.831040133389
 31
0.0
  0
SOLID
  5
38CC
330
38BB
100
AcDbEntity
  8
SUNPOU
 62
     0
440
 16777216
100
AcDbTrace
 10
3532.705467175587
 20
1986.497706800056
 30
0.0
 11
3532.705467175587
 21
1973.164373466723
 31
0.0
 12
3492.705467175587
 22
1979.831040133389
 32
0.0
 13
3492.705467175587
 23
1979.831040133389
 33
0.0
  0
SOLID
  5
38CD
330
38BB
100
AcDbEntity
  8
SUNPOU
 62
     0
440
 16777216
100
AcDbTrace
 10
3402.705467175587
 20
1986.497706800056
 30
0.0
 11
3402.705467175587
 21
1973.164373466723
 31
0.0
 12
3442.705467175587
 22
1979.831040133389
 32
0.0
 13
3442.705467175587
 23
1979.831040133389
 33
0.0
  0
MTEXT
  5
38CE
330
38BB
100
AcDbEntity
  8
SUNPOU
 62
     0
440
 16777216
100
AcDbMText
 10
3467.705467175587
 20
2025.831040133389
 30
0.0
 40
60.0
 41
0.0
 71
     5
 72
     1
  1
\A1;50
 73
     1
 44
1.0
  0
POINT
  5
38CF
330
38BB
100
AcDbEntity
  8
DEFPOINTS
 62
     0
440
 16777216
100
AcDbPoint
 10
3492.705467175587
 20
2363.908908144417
 30
0.0
  0
POINT
  5
38D0
330
38BB
100
AcDbEntity
  8
DEFPOINTS
 62
     0
440
 16777216
100
AcDbPoint
 10
3442.705467175587
 20
2363.908908144417
 30
0.0
  0
POINT
  5
38D1
330
38BB
100
AcDbEntity
  8
DEFPOINTS
 62
     0
440
 16777216
100
AcDbPoint
 10
3442.705467175587
 20
1979.831040133389
 30
0.0
  0
ENDBLK
  5
38BD
330
38BB
100
AcDbEntity
  8
0
100
AcDbBlockEnd
  0
BLOCK
  5
38EF
330
38EE
100
AcDbEntity
  8
0
100
AcDbBlockBegin
  2
*D80
 70
     1
 10
0.0
 20
0.0
 30
0.0
  3
*D80
  1

  0
LINE
  5
38F1
330
38EE
100
AcDbEntity
  8
SUNPOU
 62
     0
440
 16777216
370
    -2
100
AcDbLine
 10
1432.705467175587
 20
2323.908908144418
 30
0.0
 11
1432.705467175587
 21
1833.487242940397
 31
0.0
  0
LINE
  5
38F2
330
38EE
100
AcDbEntity
  8
SUNPOU
 62
     0
440
 16777216
370
    -2
100
AcDbLine
 10
3492.705467175587
 20
2323.908908144418
 30
0.0
 11
3492.705467175587
 21
1833.487242940397
 31
0.0
  0
LINE
  5
38F3
330
38EE
100
AcDbEntity
  8
SUNPOU
 62
     0
440
 16777216
370
    -2
100
AcDbLine
 10
1472.705467175587
 20
1843.487242940397
 30
0.0
 11
3452.705467175587
 21
1843.487242940397
 31
0.0
  0
SOLID
  5
38F4
330
38EE
100
AcDbEntity
  8
SUNPOU
 62
     0
440
 16777216
100
AcDbTrace
 10
1472.705467175587
 20
1850.153909607063
 30
0.0
 11
1472.705467175587
 21
1836.82057627373
 31
0.0
 12
1432.705467175587
 22
1843.487242940397
 32
0.0
 13
1432.705467175587
 23
1843.487242940397
 33
0.0
  0
SOLID
  5
38F5
330
38EE
100
AcDbEntity
  8
SUNPOU
 62
     0
440
 16777216
100
AcDbTrace
 10
3452.705467175587
 20
1850.153909607063
 30
0.0
 11
3452.705467175587
 21
1836.82057627373
 31
0.0
 12
3492.705467175587
 22
1843.487242940397
 32
0.0
 13
3492.705467175587
 23
1843.487242940397
 33
0.0
  0
MTEXT
  5
38F6
330
38EE
100
AcDbEntity
  8
SUNPOU
 62
     0
440
 16777216
100
AcDbMText
 10
2462.705467175587
 20
1889.487242940397
 30
0.0
 40
60.0
 41
0.0
 71
     5
 72
     1
  1
\A1;2060
 73
     1
 44
1.0
  0
POINT
  5
38F7
330
38EE
100
AcDbEntity
  8
DEFPOINTS
 62
     0
440
 16777216
100
AcDbPoint
 10
1432.705467175587
 20
2363.908908144418
 30
0.0
  0
POINT
  5
38F8
330
38EE
100
AcDbEntity
  8
DEFPOINTS
 62
     0
440
 16777216
100
AcDbPoint
 10
3492.705467175587
 20
2363.908908144418
 30
0.0
  0
POINT
  5
38F9
330
38EE
100
AcDbEntity
  8
DEFPOINTS
 62
     0
440
 16777216
100
AcDbPoint
 10
3492.705467175587
 20
1843.487242940397
 30
0.0
  0
ENDBLK
  5
38F0
330
38EE
100
AcDbEntity
  8
0
100
AcDbBlockEnd
  0
ENDSEC
  0
SECTION
  2
ENTITIES
  0
TEXT
  5
E79
330
17
100
AcDbEntity
  8
0
100
AcDbText
 10
2191.24600368004
 20
4814.828435299551
 30
0.0
 40
90.0
  1
1500×1800
 41
0.8
100
AcDbText
  0
LINE
  5
2E7B
330
17
100
AcDbEntity
  8
SEIHIN
100
AcDbLine
 10
3457.705467175587
 20
3898.908908144416
 30
0.0
 11
3443.031516229333
 21
2534.231470142759
 31
0.0
  0
LINE
  5
2E7F
330
17
100
AcDbEntity
  8
SEIHIN
100
AcDbLine
 10
3306.545595022191
 20
2599.912104309531
 30
0.0
 11
3362.705467175587
 21
4003.908908144418
 31
0.0
  0
LINE
  5
2E80
330
17
100
AcDbEntity
  8
SEIHIN
100
AcDbLine
 10
1618.865339328982
 20
2599.912104309531
 30
0.0
 11
1562.705467175587
 21
4003.908908144418
 31
0.0
  0
LINE
  5
2E81
330
17
100
AcDbEntity
  8
SEIHIN
100
AcDbLine
 10
1467.705467175587
 20
3898.908908144416
 30
0.0
 11
1482.379418121842
 21
2534.231470142759
 31
0.0
  0
LINE
  5
2E82
330
17
100
AcDbEntity
  8
1HASEN
100
AcDbLine
 10
2462.705467175587
 20
4160.076084480857
 30
0.0
 11
2462.705467175587
 21
2226.460542970748
 31
0.0
  0
LINE
  5
2E86
330
17
100
AcDbEntity
  8
SEIHIN
100
AcDbLine
 10
2462.705467175587
 20
2503.908908144419
 30
0.0
 11
1718.785435201162
 21
2503.908908144418
 31
0.0
  0
LINE
  5
2E87
330
17
100
AcDbEntity
  8
SEIHIN
100
AcDbLine
 10
2462.705467175587
 20
2363.908908144418
 30
0.0
 11
1432.705467175587
 21
2363.908908144418
 31
0.0
  0
ARC
  5
2E89
330
17
100
AcDbEntity
  8
SEIHIN
100
AcDbCircle
 10
1718.785435201162
 20
2603.908908144418
 30
0.0
 40
100.0
100
AcDbArc
 50
182.2906100426396
 51
270.0
  0
ARC
  5
2E8B
330
17
100
AcDbEntity
  8
SEIHIN
100
AcDbCircle
 10
3206.625499150014
 20
2603.908908144418
 30
0.0
 40
100.0
100
AcDbArc
 50
270.0
 51
357.7093899573604
  0
LINE
  5
2E94
330
17
100
AcDbEntity
  8
SEIHIN
100
AcDbLine
 10
1452.705467175587
 20
4003.908908144418
 30
0.0
 11
1452.705467175587
 21
3913.908908144418
 31
0.0
  0
LINE
  5
2E95
330
17
100
AcDbEntity
  8
SEIHIN
100
AcDbLine
 10
1452.705467175587
 20
3913.908908144418
 30
0.0
 11
1467.705467175587
 21
3898.908908144418
 31
0.0
  0
LINE
  5
2E96
330
17
100
AcDbEntity
  8
SEIHIN
100
AcDbLine
 10
1562.705467175587
 20
4003.908908144418
 30
0.0
 11
1452.705467175587
 21
4003.908908144418
 31
0.0
  0
LINE
  5
2E99
330
17
100
AcDbEntity
  8
SEIHIN
100
AcDbLine
 10
3362.705467175587
 20
4003.908908144418
 30
0.0
 11
3472.705467175587
 21
4003.908908144418
 31
0.0
  0
LINE
  5
2E9A
330
17
100
AcDbEntity
  8
SEIHIN
100
AcDbLine
 10
3472.705467175587
 20
4003.908908144418
 30
0.0
 11
3472.705467175587
 21
3913.908908144418
 31
0.0
  0
LINE
  5
2E9B
330
17
100
AcDbEntity
  8
SEIHIN
100
AcDbLine
 10
3472.705467175587
 20
3913.908908144418
 30
0.0
 11
3457.705467175587
 21
3898.908908144418
 31
0.0
  0
DIMENSION
  5
2EA0
330
17
100
AcDbEntity
  8
SUNPOU
100
AcDbDimension
  2
*D2
 10
3362.705467175587
 20
4388.716824155214
 30
0.0
 11
2462.705467175587
 21
4434.716824155214
 31
0.0
 70
    32
 71
     5
 42
1800.0
  3
A3-20
100
AcDbAlignedDimension
 13
1562.705467175587
 23
4003.908908144418
 33
0.0
 14
3362.705467175587
 24
4003.908908144418
 34
0.0
100
AcDbRotatedDimension
  0
DIMENSION
  5
2EA1
330
17
100
AcDbEntity
  8
SUNPOU
100
AcDbDimension
  2
*D3
 10
3472.705467175587
 20
4388.716824155214
 30
0.0
 11
3417.705467175587
 21
4434.716824155214
 31
0.0
 70
    32
 71
     5
 42
110.0
  3
A3-20
100
AcDbAlignedDimension
 13
3362.705467175587
 23
4003.908908144418
 33
0.0
 14
3472.705467175587
 24
4003.908908144418
 34
0.0
100
AcDbRotatedDimension
  0
DIMENSION
  5
2EA2
330
17
100
AcDbEntity
  8
SUNPOU
100
AcDbDimension
  2
*D4
 10
1562.705467175587
 20
4388.716824155214
 30
0.0
 11
1515.205467175587
 21
4434.716824155214
 31
0.0
 70
    32
 71
     5
 42
95.0
  3
A3-20
100
AcDbAlignedDimension
 13
1467.705467175587
 23
4003.908908144418
 33
0.0
 14
1562.705467175587
 24
4003.908908144418
 34
0.0
100
AcDbRotatedDimension
  0
DIMENSION
  5
2EA3
330
17
100
AcDbEntity
  8
SUNPOU
100
AcDbDimension
  2
*D5
 10
1467.705467175587
 20
4388.716824155214
 30
0.0
 11
1423.515413170826
 21
4434.716824155214
 31
0.0
 70
   160
 71
     5
 42
15.0
  3
A3-20
100
AcDbAlignedDimension
 13
1452.705467175587
 23
4003.908908144418
 33
0.0
 14
1467.705467175587
 24
4003.908908144418
 34
0.0
100
AcDbRotatedDimension
  0
DIMENSION
  5
2EA4
330
17
100
AcDbEntity
  8
SUNPOU
100
AcDbDimension
  2
*D6
 10
1249.399477049385
 20
3913.908908144418
 30
0.0
 11
1203.399477049384
 21
3958.908908144419
 31
0.0
 70
    32
 71
     5
 42
90.0
  3
A3-20
100
AcDbAlignedDimension
 13
1452.705467175587
 23
4003.908908144418
 33
0.0
 14
1452.705467175587
 24
3913.908908144418
 34
0.0
 50
90.0
100
AcDbRotatedDimension
  0
DIMENSION
  5
2EA8
330
17
100
AcDbEntity
  8
SUNPOU
100
AcDbDimension
  2
*D7
 10
1622.705467175587
 20
3010.038726369032
 30
0.0
 11
1552.705467175587
 21
3056.038726369032
 31
0.0
 70
    32
 71
     5
 42
140.0
  3
A3-20
100
AcDbAlignedDimension
 13
1482.705467175587
 23
2503.908908144417
 33
0.0
 14
1622.705467175587
 24
2503.908908144417
 34
0.0
100
AcDbRotatedDimension
  0
DIMENSION
  5
2EAA
330
17
100
AcDbEntity
  8
SUNPOU
100
AcDbDimension
  2
*D8
 10
3302.705467175587
 20
3010.038726369032
 30
0.0
 11
2462.705467175587
 21
3056.038726369032
 31
0.0
 70
    32
 71
     5
 42
1680.0
  3
A3-20
100
AcDbAlignedDimension
 13
1622.705467175587
 23
2503.908908144417
 33
0.0
 14
3302.705467175587
 24
2503.908908144418
 34
0.0
100
AcDbRotatedDimension
  0
DIMENSION
  5
2EAB
330
17
100
AcDbEntity
  8
SUNPOU
100
AcDbDimension
  2
*D9
 10
1718.785435201163
 20
2603.908908144419
 30
0.0
 11
1767.341433507944
 21
2651.514737918009
 31
0.0
 70
   164
 71
     5
 42
99.99999999999864
  3
A3-20
100
AcDbRadialDimension
 15
1647.379555338254
 25
2533.900334947963
 35
0.0
 40
0.0
1001
ACAD
1000
DSTYLE
1002
{
1070
   279
1070
     0
1002
}
  0
DIMENSION
  5
2EAC
330
17
100
AcDbEntity
  8
SUNPOU
100
AcDbDimension
  2
*D10
 10
3442.705467175587
 20
1979.831040133389
 30
0.0
 11
2462.705467175587
 21
2025.831040133389
 31
0.0
 70
    32
 71
     5
 42
1960.0
  3
A3-20
100
AcDbAlignedDimension
 13
1482.705467175587
 23
2363.908908144417
 33
0.0
 14
3442.705467175587
 24
2363.908908144417
 34
0.0
100
AcDbRotatedDimension
  0
LINE
  5
3157
330
17
100
AcDbEntity
  8
1HASEN
 48
0.5
100
AcDbLine
 10
1645.67603509622
 20
2903.908908144417
 30
0.0
 11
1417.11018185468
 21
2903.908908144417
 31
0.0
  0
LINE
  5
3158
330
17
100
AcDbEntity
  8
HASEN
100
AcDbLine
 10
1478.135574702469
 20
2928.908908144416
 30
0.0
 11
1606.205467175587
 21
2916.408908144417
 31
0.0
  0
LINE
  5
3159
330
17
100
AcDbEntity
  8
HASEN
100
AcDbLine
 10
1478.672775368159
 20
2878.949246235243
 30
0.0
 11
1607.201344805375
 21
2891.51196739972
 31
0.0
  0
LINE
  5
3161
330
17
100
AcDbEntity
  8
SEIHIN
100
AcDbLine
 10
2462.705467175587
 20
2503.908908144419
 30
0.0
 11
3206.625499150012
 21
2503.908908144418
 31
0.0
  0
LINE
  5
3162
330
17
100
AcDbEntity
  8
SEIHIN
100
AcDbLine
 10
2462.705467175587
 20
2363.908908144418
 30
0.0
 11
3492.705467175587
 21
2363.908908144418
 31
0.0
  0
LINE
  5
3167
330
17
100
AcDbEntity
  8
1HASEN
 48
0.5
100
AcDbLine
 10
3279.734899254954
 20
2903.908908144417
 30
0.0
 11
3508.300752496494
 21
2903.908908144417
 31
0.0
  0
LINE
  5
3168
330
17
100
AcDbEntity
  8
HASEN
100
AcDbLine
 10
3447.275359648705
 20
2928.908908144416
 30
0.0
 11
3319.205467175587
 21
2916.408908144417
 31
0.0
  0
LINE
  5
3169
330
17
100
AcDbEntity
  8
HASEN
100
AcDbLine
 10
3446.738158983015
 20
2878.949246235243
 30
0.0
 11
3318.209589545799
 21
2891.51196739972
 31
0.0
  0
DIMENSION
  5
3186
330
17
100
AcDbEntity
  8
SUNPOU
100
AcDbDimension
  2
*D20
 10
3302.705467175587
 20
3010.038726369032
 30
0.0
 11
3372.705467175587
 21
3056.038726369032
 31
0.0
 70
    32
 71
     5
 42
140.0
  3
A3-20
100
AcDbAlignedDimension
 13
3442.705467175587
 23
2503.908908144417
 33
0.0
 14
3302.705467175587
 24
2503.908908144417
 34
0.0
 50
180.0
100
AcDbRotatedDimension
  0
DIMENSION
  5
319C
330
17
100
AcDbEntity
  8
SUNPOU
100
AcDbDimension
  2
*D21
 10
990.457905718478
 20
2503.908908144418
 30
0.0
 11
944.4579057184775
 21
2433.908908144418
 31
0.0
 70
    32
 71
     5
 42
140.0
  3
A3-20
100
AcDbAlignedDimension
 13
1432.705467175587
 23
2363.908908144417
 33
0.0
 14
1432.705467175587
 24
2503.908908144417
 34
0.0
 50
90.0
100
AcDbRotatedDimension
  0
DIMENSION
  5
31B3
330
17
100
AcDbEntity
  8
SUNPOU
100
AcDbDimension
  2
*D22
 10
990.4579057184783
 20
4003.908908144419
 30
0.0
 11
944.4579057184776
 21
3253.908908144418
 31
0.0
 70
    32
 71
     5
 42
1500.000000000001
  3
A3-20
100
AcDbAlignedDimension
 13
1432.705467175587
 23
2503.908908144417
 33
0.0
 14
1452.705467175587
 24
4003.908908144418
 34
0.0
 50
90.0
100
AcDbRotatedDimension
  0
DIMENSION
  5
31C0
330
17
100
AcDbEntity
  8
SUNPOU
100
AcDbDimension
  2
*D23
 10
858.4014577749076
 20
2363.908908144418
 30
0.0
 11
812.4014577749073
 21
3183.908908144418
 31
0.0
 70
    32
 71
     5
 42
1640.000000000001
  3
A3-20
100
AcDbAlignedDimension
 13
1452.705467175587
 23
4003.908908144418
 33
0.0
 14
1432.705467175587
 24
2363.908908144417
 34
0.0
 50
90.0
100
AcDbRotatedDimension
  0
DIMENSION
  5
3225
330
17
100
AcDbEntity
  8
SUNPOU
100
AcDbDimension
  2
*D24
 10
3472.705467175587
 20
4521.708906854794
 30
0.0
 11
2462.705467175587
 21
4567.708906854794
 31
0.0
 70
    32
 71
     5
 42
2020.0
  3
A3-20
100
AcDbAlignedDimension
 13
1452.705467175587
 23
4003.908908144418
 33
0.0
 14
3472.705467175587
 24
4003.908908144418
 34
0.0
100
AcDbRotatedDimension
  0
DIMENSION
  5
3232
330
17
100
AcDbEntity
  8
SUNPOU
100
AcDbDimension
  2
*D25
 10
2035.527229520409
 20
2903.908908144417
 30
0.0
 11
1989.527229520408
 21
2703.908908144418
 31
0.0
 70
    32
 71
     5
 42
399.9999999999991
  3
A3-20
100
AcDbAlignedDimension
 13
1718.785435201162
 23
2503.908908144418
 33
0.0
 14
1645.67603509622
 24
2903.908908144417
 34
0.0
 50
90.0
100
AcDbRotatedDimension
  0
TEXT
  5
3249
330
17
100
AcDbEntity
  8
SUNPOU
100
AcDbText
 10
1101.94941651717
 20
3022.451510377301
 30
0.0
 40
75.0
  1
排水孔
 41
0.8
100
AcDbText
  0
LINE
  5
324A
330
17
100
AcDbEntity
  8
SUNPOU
100
AcDbLine
 10
1063.428145935736
 20
3010.57520463139
 30
0.0
 11
1359.763151699843
 21
3010.57520463139
 31
0.0
  0
LEADER
  5
324B
330
17
100
AcDbEntity
  8
SUNPOU
100
AcDbLeader
  3
A3-20
 76
     2
 10
1478.404391906771
 20
2903.908908144417
 30
0.0
 10
1359.763151699843
 20
3010.57520463139
 30
0.0
  0
LINE
  5
3713
330
17
100
AcDbEntity
  8
SEIHIN
100
AcDbLine
 10
5167.501745225501
 20
4003.908908144417
 30
0.0
 11
5167.501745225501
 21
2363.908908144418
 31
0.0
  0
LINE
  5
3714
330
17
100
AcDbEntity
  8
1HASEN
100
AcDbLine
 10
6167.501745225502
 20
4055.849465313961
 30
0.0
 11
6167.501745225502
 21
2250.351220000257
 31
0.0
  0
LINE
  5
3715
330
17
100
AcDbEntity
  8
SEIHIN
100
AcDbLine
 10
7167.501745225502
 20
4003.908908144417
 30
0.0
 11
7167.501745225502
 21
2363.908908144416
 31
0.0
  0
LINE
  5
3716
330
17
100
AcDbEntity
  8
SEIHIN
100
AcDbLine
 10
5167.501745225501
 20
2503.908908144418
 30
0.0
 11
7167.501745225502
 21
2503.908908144417
 31
0.0
  0
LINE
  5
3717
330
17
100
AcDbEntity
  8
SEIHIN
100
AcDbLine
 10
5167.501745225501
 20
2363.908908144418
 30
0.0
 11
7167.501745225502
 21
2363.908908144417
 31
0.0
  0
LINE
  5
3718
330
17
100
AcDbEntity
  8
SEIHIN
100
AcDbLine
 10
5167.501745225501
 20
4003.908908144418
 30
0.0
 11
7167.501745225502
 21
4003.908908144418
 31
0.0
  0
DIMENSION
  5
3719
330
17
100
AcDbEntity
  8
SUNPOU
100
AcDbDimension
  2
*D67
 10
7167.501745225502
 20
4453.540378294827
 30
0.0
 11
6167.501745225502
 21
4499.540378294827
 31
0.0
 70
    32
 71
     5
 42
2000.000000000001
  3
A3-20
100
AcDbAlignedDimension
 13
5167.501745225501
 23
4003.908908144417
 33
0.0
 14
7167.501745225502
 24
4003.908908144417
 34
0.0
100
AcDbRotatedDimension
  0
DIMENSION
  5
371A
330
17
100
AcDbEntity
  8
SUNPOU
100
AcDbDimension
  2
*D68
 10
4907.628747391584
 20
2903.908908144419
 30
0.0
 11
4861.628747391583
 21
2703.908908144419
 31
0.0
 70
    32
 71
     5
 42
400.0
  3
A3-20
100
AcDbAlignedDimension
 13
5167.501745225501
 23
2503.908908144418
 33
0.0
 14
5167.501745225501
 24
2903.908908144418
 34
0.0
 50
90.0
100
AcDbRotatedDimension
  0
DIMENSION
  5
371B
330
17
100
AcDbEntity
  8
SUNPOU
100
AcDbDimension
  2
*D69
 10
5652.501745225501
 20
1821.721951313844
 30
0.0
 11
5472.501745225501
 21
1867.721951313844
 31
0.0
 70
    32
 71
     5
 42
360.0
  3
A3-20
100
AcDbAlignedDimension
 13
5292.501745225501
 23
2363.908908144418
 33
0.0
 14
5652.501745225501
 24
2363.908908144418
 34
0.0
100
AcDbRotatedDimension
  0
DIMENSION
  5
371C
330
17
100
AcDbEntity
  8
SUNPOU
100
AcDbDimension
  2
*D70
 10
5292.501745225501
 20
1821.721951313844
 30
0.0
 11
5230.001745225501
 21
1867.721951313844
 31
0.0
 70
   160
 71
     5
 42
125.0
  3
A3-20
100
AcDbAlignedDimension
 13
5167.501745225501
 23
2363.908908144418
 33
0.0
 14
5292.501745225501
 24
2363.908908144418
 34
0.0
100
AcDbRotatedDimension
  0
DIMENSION
  5
371D
330
17
100
AcDbEntity
  8
SUNPOU
100
AcDbDimension
  2
*D71
 10
6012.501745225501
 20
1821.721951313844
 30
0.0
 11
5832.501745225501
 21
1867.721951313844
 31
0.0
 70
    32
 71
     5
 42
360.0
  3
A3-20
100
AcDbAlignedDimension
 13
5652.501745225501
 23
2363.908908144418
 33
0.0
 14
6012.501745225501
 24
2363.908908144418
 34
0.0
100
AcDbRotatedDimension
  0
DIMENSION
  5
371E
330
17
100
AcDbEntity
  8
SUNPOU
100
AcDbDimension
  2
*D72
 10
6322.501745225502
 20
1821.721951313844
 30
0.0
 11
6167.501745225502
 21
1867.721951313844
 31
0.0
 70
    32
 71
     5
 42
310.0000000000009
  3
A3-20
100
AcDbAlignedDimension
 13
6012.501745225501
 23
2363.908908144418
 33
0.0
 14
6322.501745225502
 24
2363.908908144418
 34
0.0
100
AcDbRotatedDimension
  0
DIMENSION
  5
371F
330
17
100
AcDbEntity
  8
SUNPOU
100
AcDbDimension
  2
*D73
 10
6682.501745225502
 20
1821.721951313844
 30
0.0
 11
6862.501745225502
 21
1867.721951313844
 31
0.0
 70
    32
 71
     5
 42
360.0
  3
A3-20
100
AcDbAlignedDimension
 13
7042.501745225502
 23
2363.908908144418
 33
0.0
 14
6682.501745225502
 24
2363.908908144418
 34
0.0
 50
180.0
100
AcDbRotatedDimension
  0
DIMENSION
  5
3720
330
17
100
AcDbEntity
  8
SUNPOU
100
AcDbDimension
  2
*D74
 10
6322.501745225502
 20
1821.721951313844
 30
0.0
 11
6502.501745225502
 21
1867.721951313844
 31
0.0
 70
    32
 71
     5
 42
360.0
  3
A3-20
100
AcDbAlignedDimension
 13
6682.501745225502
 23
2363.908908144418
 33
0.0
 14
6322.501745225502
 24
2363.908908144418
 34
0.0
 50
180.0
100
AcDbRotatedDimension
  0
DIMENSION
  5
3721
330
17
100
AcDbEntity
  8
SUNPOU
100
AcDbDimension
  2
*D75
 10
7042.501745225502
 20
1821.721951313844
 30
0.0
 11
7105.001745225502
 21
1867.721951313844
 31
0.0
 70
   160
 71
     5
 42
125.0
  3
A3-20
100
AcDbAlignedDimension
 13
7167.501745225502
 23
2363.908908144418
 33
0.0
 14
7042.501745225502
 24
2363.908908144418
 34
0.0
 50
180.0
100
AcDbRotatedDimension
  0
CIRCLE
  5
3722
330
17
100
AcDbEntity
  8
HASEN
  6
ByBlock
100
AcDbCircle
 10
5292.501745225501
 20
2903.908908144418
 30
0.0
 40
25.0
  0
LINE
  5
3723
330
17
100
AcDbEntity
  8
1HASEN
 48
0.3
100
AcDbLine
 10
5237.501745225501
 20
2903.908908144418
 30
0.0
 11
5347.501745225501
 21
2903.908908144418
 31
0.0
  0
LINE
  5
3724
330
17
100
AcDbEntity
  8
1HASEN
 48
0.3
100
AcDbLine
 10
5292.501745225501
 20
2848.908908144418
 30
0.0
 11
5292.501745225501
 21
2958.908908144418
 31
0.0
  0
TEXT
  5
3725
330
17
100
AcDbEntity
  8
SUNPOU
100
AcDbText
 10
4792.83474825044
 20
3088.978959237974
 30
0.0
 40
60.0
  1
排水孔
 41
0.8
100
AcDbText
  0
LINE
  5
3726
330
17
100
AcDbEntity
  8
SUNPOU
100
AcDbLine
 10
4767.661997940429
 20
3075.010380799765
 30
0.0
 11
4976.602218940036
 21
3075.010380799765
 31
0.0
  0
LEADER
  5
3727
330
17
100
AcDbEntity
  8
SUNPOU
100
AcDbLeader
  3
A3-20
 76
     2
 10
5267.501745225501
 20
2903.908908144418
 30
0.0
 10
4976.602218940036
 20
3075.010380799765
 30
0.0
1001
ACAD
1000
DSTYLE
1002
{
1070
   147
1040
0.8
1070
    77
1070
     0
1002
}
  0
CIRCLE
  5
3728
330
17
100
AcDbEntity
  8
HASEN
  6
ByBlock
100
AcDbCircle
 10
5652.501745225501
 20
2903.908908144418
 30
0.0
 40
25.0
  0
LINE
  5
3729
330
17
100
AcDbEntity
  8
1HASEN
 48
0.3
100
AcDbLine
 10
5597.501745225501
 20
2903.908908144418
 30
0.0
 11
5707.501745225501
 21
2903.908908144418
 31
0.0
  0
LINE
  5
372A
330
17
100
AcDbEntity
  8
1HASEN
 48
0.3
100
AcDbLine
 10
5652.501745225501
 20
2848.908908144418
 30
0.0
 11
5652.501745225501
 21
2958.908908144418
 31
0.0
  0
CIRCLE
  5
372B
330
17
100
AcDbEntity
  8
HASEN
  6
ByBlock
100
AcDbCircle
 10
6012.501745225501
 20
2903.908908144418
 30
0.0
 40
25.0
  0
LINE
  5
372C
330
17
100
AcDbEntity
  8
1HASEN
 48
0.3
100
AcDbLine
 10
5957.501745225501
 20
2903.908908144418
 30
0.0
 11
6067.501745225501
 21
2903.908908144418
 31
0.0
  0
LINE
  5
372D
330
17
100
AcDbEntity
  8
1HASEN
 48
0.3
100
AcDbLine
 10
6012.501745225501
 20
2848.908908144418
 30
0.0
 11
6012.501745225501
 21
2958.908908144418
 31
0.0
  0
CIRCLE
  5
372E
330
17
100
AcDbEntity
  8
HASEN
  6
ByBlock
100
AcDbCircle
 10
7042.501745225502
 20
2903.908908144418
 30
0.0
 40
25.0
  0
LINE
  5
372F
330
17
100
AcDbEntity
  8
1HASEN
 48
0.3
100
AcDbLine
 10
7097.501745225502
 20
2903.908908144418
 30
0.0
 11
6987.501745225502
 21
2903.908908144418
 31
0.0
  0
LINE
  5
3730
330
17
100
AcDbEntity
  8
1HASEN
 48
0.3
100
AcDbLine
 10
7042.501745225502
 20
2848.908908144418
 30
0.0
 11
7042.501745225502
 21
2958.908908144418
 31
0.0
  0
CIRCLE
  5
3731
330
17
100
AcDbEntity
  8
HASEN
  6
ByBlock
100
AcDbCircle
 10
6682.501745225502
 20
2903.908908144418
 30
0.0
 40
25.0
  0
LINE
  5
3732
330
17
100
AcDbEntity
  8
1HASEN
 48
0.3
100
AcDbLine
 10
6737.501745225502
 20
2903.908908144418
 30
0.0
 11
6627.501745225502
 21
2903.908908144418
 31
0.0
  0
LINE
  5
3733
330
17
100
AcDbEntity
  8
1HASEN
 48
0.3
100
AcDbLine
 10
6682.501745225502
 20
2848.908908144418
 30
0.0
 11
6682.501745225502
 21
2958.908908144418
 31
0.0
  0
CIRCLE
  5
3734
330
17
100
AcDbEntity
  8
HASEN
  6
ByBlock
100
AcDbCircle
 10
6322.501745225502
 20
2903.908908144418
 30
0.0
 40
25.0
  0
LINE
  5
3735
330
17
100
AcDbEntity
  8
1HASEN
 48
0.3
100
AcDbLine
 10
6377.501745225502
 20
2903.908908144418
 30
0.0
 11
6267.501745225502
 21
2903.908908144418
 31
0.0
  0
LINE
  5
3736
330
17
100
AcDbEntity
  8
1HASEN
 48
0.3
100
AcDbLine
 10
6322.501745225502
 20
2848.908908144418
 30
0.0
 11
6322.501745225502
 21
2958.908908144418
 31
0.0
  0
LINE
  5
3738
330
17
100
AcDbEntity
  8
SEIHIN
100
AcDbLine
 10
5167.501745225501
 20
3913.908908144418
 30
0.0
 11
7167.501745225502
 21
3913.908908144419
 31
0.0
  0
LINE
  5
3739
330
17
100
AcDbEntity
  8
SEIHIN
100
AcDbLine
 10
5167.501745225501
 20
3898.908908144416
 30
0.0
 11
7167.501745225501
 21
3898.908908144416
 31
0.0
  0
DIMENSION
  5
373A
330
17
100
AcDbEntity
  8
SUNPOU
100
AcDbDimension
  2
*D76
 10
4724.386525594804
 20
2363.908908144419
 30
0.0
 11
4678.386525594803
 21
2433.908908144419
 31
0.0
 70
    32
 71
     5
 42
140.0
  3
A3-20
100
AcDbAlignedDimension
 13
5167.501745225501
 23
2503.908908144418
 33
0.0
 14
5167.501745225501
 24
2363.908908144418
 34
0.0
 50
90.0
100
AcDbRotatedDimension
  0
TEXT
  5
380D
330
17
100
AcDbEntity
  8
0
100
AcDbText
 10
5989.681626494719
 20
4814.828435299551
 30
0.0
 40
90.0
  1
側 面 図
 41
0.8
100
AcDbText
  0
DIMENSION
  5
380E
330
17
100
AcDbEntity
  8
SUNPOU
100
AcDbDimension
  2
*D77
 10
4724.386525594804
 20
4003.908908144418
 30
0.0
 11
4678.386525594803
 21
3253.908908144419
 31
0.0
 70
    32
 71
     5
 42
1499.999999999999
  3
A3-20
100
AcDbAlignedDimension
 13
5167.501745225501
 23
2503.908908144418
 33
0.0
 14
5167.501745225501
 24
4003.908908144417
 34
0.0
 50
90.0
100
AcDbRotatedDimension
  0
POINT
  5
387E
330
17
100
AcDbEntity
  8
DEFPOINTS
100
AcDbPoint
 10
1622.705467175587
 20
2503.908908144417
 30
0.0
  0
POINT
  5
387F
330
17
100
AcDbEntity
  8
DEFPOINTS
100
AcDbPoint
 10
1482.705467175587
 20
2503.908908144417
 30
0.0
  0
POINT
  5
3880
330
17
100
AcDbEntity
  8
DEFPOINTS
100
AcDbPoint
 10
3302.705467175587
 20
2503.908908144417
 30
0.0
 50
180.0
  0
POINT
  5
3881
330
17
100
AcDbEntity
  8
DEFPOINTS
100
AcDbPoint
 10
3442.705467175587
 20
2503.908908144417
 30
0.0
 50
180.0
  0
LINE
  5
3882
330
17
100
AcDbEntity
  8
SEIHIN
100
AcDbLine
 10
1452.38115227601
 20
2503.908908144417
 30
0.0
 11
1432.705467175587
 21
2503.908908144417
 31
0.0
  0
LINE
  5
3883
330
17
100
AcDbEntity
  8
SEIHIN
100
AcDbLine
 10
1432.705467175587
 20
2503.908908144417
 30
0.0
 11
1432.705467175587
 21
2363.908908144417
 31
0.0
  0
ARC
  5
3884
330
17
100
AcDbEntity
  8
SEIHIN
100
AcDbCircle
 10
1452.38115227601
 20
2533.908908144417
 30
0.0
 40
30.0
100
AcDbArc
 50
270.0
 51
0.6160599083992547
  0
ARC
  5
3885
330
17
100
AcDbEntity
  8
SEIHIN
100
AcDbCircle
 10
3473.029782075164
 20
2533.908908144417
 30
0.0
 40
30.0
100
AcDbArc
 50
179.3839400916009
 51
270.0
  0
LINE
  5
3886
330
17
100
AcDbEntity
  8
SEIHIN
100
AcDbLine
 10
3473.029782075164
 20
2503.908908144417
 30
0.0
 11
3492.705467175587
 21
2503.908908144417
 31
0.0
  0
LINE
  5
3887
330
17
100
AcDbEntity
  8
SEIHIN
100
AcDbLine
 10
3492.705467175587
 20
2503.908908144417
 30
0.0
 11
3492.705467175587
 21
2363.908908144417
 31
0.0
  0
DIMENSION
  5
38AC
330
17
100
AcDbEntity
  8
SUNPOU
100
AcDbDimension
  2
*D78
 10
1482.705467175587
 20
1979.831040133389
 30
0.0
 11
1457.705467175587
 21
2025.831040133389
 31
0.0
 70
    32
 71
     5
 42
50.0
  3
A3-20
100
AcDbAlignedDimension
 13
1432.705467175587
 23
2363.908908144417
 33
0.0
 14
1482.705467175587
 24
2363.908908144417
 34
0.0
100
AcDbRotatedDimension
  0
DIMENSION
  5
38BA
330
17
100
AcDbEntity
  8
SUNPOU
100
AcDbDimension
  2
*D79
 10
3442.705467175587
 20
1979.831040133389
 30
0.0
 11
3467.705467175587
 21
2025.831040133389
 31
0.0
 70
    32
 71
     5
 42
50.0
  3
A3-20
100
AcDbAlignedDimension
 13
3492.705467175587
 23
2363.908908144417
 33
0.0
 14
3442.705467175587
 24
2363.908908144417
 34
0.0
 50
180.0
100
AcDbRotatedDimension
  0
DIMENSION
  5
38ED
330
17
100
AcDbEntity
  8
SUNPOU
100
AcDbDimension
  2
*D80
 10
3492.705467175587
 20
1843.487242940397
 30
0.0
 11
2462.705467175587
 21
1889.487242940397
 31
0.0
 70
    32
 71
     5
 42
2060.0
  3
A3-20
100
AcDbAlignedDimension
 13
1432.705467175587
 23
2363.908908144418
 33
0.0
 14
3492.705467175587
 24
2363.908908144418
 34
0.0
100
AcDbRotatedDimension
  0
TEXT
  5
3903
330
17
100
AcDbEntity
  8
0
100
AcDbText
 10
1734.573806791461
 20
6426.427462192147
 30
0.0
 40
300.0
  1
排水フリューム改良型　H=1500
 41
0.8
100
AcDbText
  0
ENDSEC
  0
SECTION
  2
OBJECTS
  0
DICTIONARY
  5
C
330
0
100
AcDbDictionary
281
     1
  3
ACAD_CIP_PREVIOUS_PRODUCT_INFO
350
3395
  3
ACAD_COLOR
350
A4
  3
ACAD_DETAILVIEWSTYLE
350
3390
  3
ACAD_GROUP
350
D
  3
ACAD_LAYOUT
350
6F
  3
ACAD_MATERIAL
350
A3
  3
ACAD_MLEADERSTYLE
350
338C
  3
ACAD_MLINESTYLE
350
1A
  3
ACAD_PLOTSETTINGS
350
70
  3
ACAD_PLOTSTYLENAME
350
6D
  3
ACAD_SCALELIST
350
337A
  3
ACAD_SECTIONVIEWSTYLE
350
338E
  3
ACAD_TABLESTYLE
350
A5
  3
ACAD_VISUALSTYLE
350
3361
  3
AcadDim
350
3090
  3
ACDB_RECOMPOSE_DATA
350
3949
  3
AcDbVariableDictionary
350
A0
  0
DICTIONARY
  5
393E
330
8
100
AcDbDictionary
280
     1
281
     1
  3
ACAD_XREC_ROUNDTRIP
360
393F
  0
DICTIONARY
  5
38FA
330
2
100
AcDbDictionary
280
     1
281
     1
  3
ACAD_LAYERSTATES
360
38FB
  0
DICTIONARY
  5
3824
330
E
100
AcDbDictionary
280
     1
281
     1
  3
ADSK_XREC_LAYER_RECONCILED
360
3825
  0
DICTIONARY
  5
3826
330
23
100
AcDbDictionary
280
     1
281
     1
  3
ADSK_XREC_LAYER_RECONCILED
360
3827
  0
DICTIONARY
  5
3828
330
24
100
AcDbDictionary
280
     1
281
     1
  3
ADSK_XREC_LAYER_RECONCILED
360
3829
  0
DICTIONARY
  5
382A
330
25
100
AcDbDictionary
280
     1
281
     1
  3
ADSK_XREC_LAYER_RECONCILED
360
382B
  0
DICTIONARY
  5
382C
330
26
100
AcDbDictionary
280
     1
281
     1
  3
ADSK_XREC_LAYER_RECONCILED
360
382D
  0
DICTIONARY
  5
382E
330
27
100
AcDbDictionary
280
     1
281
     1
  3
ADSK_XREC_LAYER_RECONCILED
360
382F
  0
DICTIONARY
  5
3830
330
28
100
AcDbDictionary
280
     1
281
     1
  3
ADSK_XREC_LAYER_RECONCILED
360
3831
  0
DICTIONARY
  5
3832
330
29
100
AcDbDictionary
280
     1
281
     1
  3
ADSK_XREC_LAYER_RECONCILED
360
3833
  0
DICTIONARY
  5
3834
330
2A
100
AcDbDictionary
280
     1
281
     1
  3
ADSK_XREC_LAYER_RECONCILED
360
3835
  0
DICTIONARY
  5
9C
330
17
100
AcDbDictionary
280
     1
281
     1
  3
ACAD_SORTENTS
360
D97
  0
XRECORD
  5
3395
102
{ACAD_REACTORS
330
C
102
}
330
C
100
AcDbXrecord
280
     1
300
ACD
300
2014
300
ACD_F_S
  0
DICTIONARY
  5
A4
102
{ACAD_REACTORS
330
C
102
}
330
C
100
AcDbDictionary
281
     1
  0
DICTIONARY
  5
3390
102
{ACAD_REACTORS
330
C
102
}
330
C
100
AcDbDictionary
281
     1
  3
Imperial24
350
3391
  0
DICTIONARY
  5
D
102
{ACAD_REACTORS
330
C
102
}
330
C
100
AcDbDictionary
281
     1
  0
DICTIONARY
  5
6F
102
{ACAD_REACTORS
330
C
102
}
330
C
100
AcDbDictionary
281
     1
  3
Model
350
71
  3
ﾚｲｱｳﾄ1
350
72
  0
DICTIONARY
  5
A3
102
{ACAD_REACTORS
330
C
102
}
330
C
100
AcDbDictionary
281
     1
  3
ByBlock
350
3351
  3
ByLayer
350
3349
  3
Global
350
3359
  0
DICTIONARY
  5
338C
102
{ACAD_REACTORS
330
C
102
}
330
C
100
AcDbDictionary
281
     1
  3
Standard
350
338D
  0
DICTIONARY
  5
1A
102
{ACAD_REACTORS
330
C
102
}
330
C
100
AcDbDictionary
281
     1
  3
STANDARD
350
1B
  0
DICTIONARY
  5
70
102
{ACAD_REACTORS
330
C
102
}
330
C
100
AcDbDictionary
281
     1
  0
ACDBDICTIONARYWDFLT
  5
6D
102
{ACAD_REACTORS
330
C
102
}
330
C
100
AcDbDictionary
281
     1
  3
Normal
350
6E
100
AcDbDictionaryWithDefault
340
6E
  0
DICTIONARY
  5
337A
102
{ACAD_REACTORS
330
C
102
}
330
C
100
AcDbDictionary
281
     1
  3
A0
350
337B
  3
A1
350
337C
  3
A2
350
337D
  3
A3
350
337E
  3
A4
350
337F
  3
A5
350
3380
  3
A6
350
3381
  3
A7
350
3382
  3
A8
350
3383
  3
A9
350
3384
  3
B0
350
3385
  3
B1
350
3386
  3
B2
350
3387
  3
B3
350
3388
  3
B4
350
3389
  3
B5
350
338A
  3
B6
350
338B
  0
DICTIONARY
  5
338E
102
{ACAD_REACTORS
330
C
102
}
330
C
100
AcDbDictionary
281
     1
  3
Imperial24
350
338F
  0
DICTIONARY
  5
A5
102
{ACAD_REACTORS
330
C
102
}
330
C
100
AcDbDictionary
281
     1
  3
Standard
350
A6
  0
DICTIONARY
  5
3361
102
{ACAD_REACTORS
330
C
102
}
330
C
100
AcDbDictionary
281
     1
  3
2dWireframe
350
3367
  3
Basic
350
3366
  3
Brighten
350
336D
  3
ColorChange
350
3371
  3
Conceptual
350
336A
  3
Dim
350
336C
  3
EdgeColorOff
350
3379
  3
Facepattern
350
3370
  3
Flat
350
3362
  3
FlatWithEdges
350
3363
  3
Gouraud
350
3364
  3
GouraudWithEdges
350
3365
  3
Hidden
350
3369
  3
JitterOff
350
3377
  3
Linepattern
350
336F
  3
OverhangOff
350
3378
  3
Realistic
350
336B
  3
Shaded
350
3376
  3
Shaded with edges
350
3375
  3
Shades of Gray
350
3372
  3
Sketchy
350
3373
  3
Thicken
350
336E
  3
Wireframe
350
3368
  3
X-Ray
350
3374
  0
XRECORD
  5
3090
102
{ACAD_REACTORS
330
C
102
}
330
C
100
AcDbXrecord
280
     1
 90
   990106
  3

 60
     0
 61
     0
 62
     1
 63
     3
 64
     0
 65
     0
 66
     0
 67
     3
 68
     1
 69
     0
 70
     0
 71
     0
 72
     0
 40
0.0
170
     0
  0
XRECORD
  5
3949
102
{ACAD_REACTORS
330
C
102
}
330
C
100
AcDbXrecord
280
     1
 90
        1
330
A6
  0
DICTIONARY
  5
A0
102
{ACAD_REACTORS
330
C
102
}
330
C
100
AcDbDictionary
281
     1
  3
CANNOSCALE
350
3874
  3
CMLEADERSTYLE
350
3870
  3
CTABLESTYLE
350
B0
  3
CVIEWDETAILSTYLE
350
3871
  3
CVIEWSECTIONSTYLE
350
3872
  3
DIMASSOC
350
A1
  3
LAYEREVAL
350
3876
  3
LAYERNOTIFY
350
3877
  3
LIGHTINGUNITS
350
3875
  3
MSLTSCALE
350
3873
  3
PROJECTNAME
350
B1
  3
XCLIPFRAME
350
393D
  0
XRECORD
  5
393F
102
{ACAD_REACTORS
330
393E
102
}
330
393E
100
AcDbXrecord
280
     1
102
VTR_0.000_0.000_1.000_1.000_VISUALSTYLE
340
3367
102
VTR_0.000_0.000_1.000_1.000_GRIDDISPLAY
 70
     3
102
VTR_0.000_0.000_1.000_1.000_GRIDMAJOR
 70
     5
102
VTR_0.000_0.000_1.000_1.000_DEFAULTLIGHTING
280
     1
102
VTR_0.000_0.000_1.000_1.000_DEFAULTLIGHTINGTYPE
 70
     1
102
VTR_0.000_0.000_1.000_1.000_BRIGHTNESS
141
0.0
102
VTR_0.000_0.000_1.000_1.000_CONTRAST
142
0.0
  0
DICTIONARY
  5
38FB
102
{ACAD_REACTORS
330
38FA
102
}
330
38FA
100
AcDbDictionary
281
     1
  0
XRECORD
  5
3825
102
{ACAD_REACTORS
330
3824
102
}
330
3824
100
AcDbXrecord
280
     1
290
     1
  0
XRECORD
  5
3827
102
{ACAD_REACTORS
330
3826
102
}
330
3826
100
AcDbXrecord
280
     1
290
     1
  0
XRECORD
  5
3829
102
{ACAD_REACTORS
330
3828
102
}
330
3828
100
AcDbXrecord
280
     1
290
     1
  0
XRECORD
  5
382B
102
{ACAD_REACTORS
330
382A
102
}
330
382A
100
AcDbXrecord
280
     1
290
     1
  0
XRECORD
  5
382D
102
{ACAD_REACTORS
330
382C
102
}
330
382C
100
AcDbXrecord
280
     1
290
     1
  0
XRECORD
  5
382F
102
{ACAD_REACTORS
330
382E
102
}
330
382E
100
AcDbXrecord
280
     1
290
     1
  0
XRECORD
  5
3831
102
{ACAD_REACTORS
330
3830
102
}
330
3830
100
AcDbXrecord
280
     1
290
     1
  0
XRECORD
  5
3833
102
{ACAD_REACTORS
330
3832
102
}
330
3832
100
AcDbXrecord
280
     1
290
     1
  0
XRECORD
  5
3835
102
{ACAD_REACTORS
330
3834
102
}
330
3834
100
AcDbXrecord
280
     1
290
     1
  0
SORTENTSTABLE
  5
D97
102
{ACAD_REACTORS
330
9C
102
}
330
9C
100
AcDbSortentsTable
330
17
331
0
  5
3738
331
E79
  5
E79
331
2E7B
  5
2E7B
331
2E7F
  5
2E7F
331
2E80
  5
2E80
331
2E81
  5
2E81
331
2E82
  5
2E86
331
2E86
  5
2E87
331
2E87
  5
2E89
331
2E89
  5
2E8A
331
2E8B
  5
2E94
331
2E94
  5
2E95
331
2E95
  5
2E96
331
2E96
  5
2E99
331
2E99
  5
2E9A
331
2E9A
  5
2E9B
331
2E9B
  5
2EA0
331
2EA0
  5
2EA1
331
2EA1
  5
2EA2
331
2EA2
  5
2EA3
331
2EA3
  5
2EA4
331
2EA4
  5
2EA8
331
2EA8
  5
2EAA
331
2EAA
  5
2EAB
331
2EAB
  5
2EAC
331
2EAC
  5
3157
331
3157
  5
3158
331
3158
  5
3159
331
3159
  5
3161
331
3161
  5
3162
331
3162
  5
3167
331
3167
  5
3168
331
3168
  5
3169
331
3169
  5
3186
331
3186
  5
319C
331
319C
  5
31B3
331
31B3
  5
31C0
331
31C0
  5
3225
331
3225
  5
3232
331
3232
  5
3249
331
3249
  5
324A
331
324A
  5
324B
331
324B
  5
3713
331
3713
  5
3714
331
3714
  5
3715
331
3715
  5
3716
331
3716
  5
3717
331
3717
  5
3718
331
3718
  5
3719
331
3719
  5
371A
331
371A
  5
371B
331
371B
  5
371C
331
371C
  5
371D
331
371D
  5
371E
331
371E
  5
371F
331
371F
  5
3720
331
3720
  5
3721
331
3721
  5
3722
331
3722
  5
3723
331
3723
  5
3724
331
3724
  5
3725
331
3725
  5
3726
331
3726
  5
3727
331
3727
  5
3728
331
3728
  5
3729
331
3729
  5
372A
331
372A
  5
372B
331
372B
  5
372C
331
372C
  5
372D
331
372D
  5
372E
331
372E
  5
372F
331
372F
  5
3730
331
3730
  5
3731
331
3731
  5
3732
331
3732
  5
3733
331
3733
  5
3734
331
3734
  5
3735
331
3735
  5
3736
331
3736
  5
3737
331
3738
  5
3739
331
3739
  5
373A
331
373A
  5
380D
331
380D
  5
380E
331
380E
  5
387E
331
387E
  5
387F
331
387F
  5
3880
331
3880
  5
3881
331
3881
  5
3882
331
3882
  5
3883
331
3883
  5
3884
331
3884
  5
2E82
  0
ACAD_PROXY_OBJECT
  5
3391
102
{ACAD_REACTORS
330
3390
102
}
102
{ACAD_XDICTIONARY
360
393B
102
}
330
3390
100
AcDbProxyObject
 90
      499
 91
      515
 95
  3276827
 70
     0
 93
     2314
310
9207000000180005C0F42F5A8DC671F815AF46E07A15AE7E07000000180005C0F42F5A8DC671FA3300000018001000000180005C0F42F5A8DC671FA02000000000000741FA028CC00000060002330000001800000852480368038003280390034803080360019001A004AD12801E002E00208031802B003080390010002B00
310
348032803B802A003C803800328010002E0033001000110012803A003180188011001F001280100012801E002E00208031802B003080390010002B00348032803B80220032803A00308034803600248032001F0012802E00280029802180208026002280100012801E002E00208031802B003080390010002B00348032803B
310
802980318030803600328010002E0033001000110012803980370011001F0012802B0353
340
F
340
0
340
13
340
F
340
13
340
13
 94
        0
  0
LAYOUT
  5
71
102
{ACAD_REACTORS
330
6F
102
}
330
6F
100
AcDbPlotSettings
  1

  2
RICOH IPSiO NX850 RPCS
  4

  6

 40
0.0
 41
0.0
 42
0.0
 43
0.0
 44
0.0
 45
0.0
 46
0.0
 47
0.0
 48
0.0
 49
0.0
140
0.0
141
0.0
142
1.0
143
1.0
 70
  1712
 72
     0
 73
     0
 74
     0
  7
acad.ctb
 75
     0
 76
     0
 77
     2
 78
   300
147
1.0
148
0.0
149
0.0
100
AcDbLayout
  1
Model
 70
     1
 71
     0
 10
0.0
 20
0.0
 11
12.0
 21
9.0
 12
0.0
 22
0.0
 32
0.0
 14
0.0
 24
0.0
 34
0.0
 15
0.0
 25
0.0
 35
0.0
146
0.0
 13
0.0
 23
0.0
 33
0.0
 16
1.0
 26
0.0
 36
0.0
 17
0.0
 27
1.0
 37
0.0
 76
     0
330
17
331
3342
  0
LAYOUT
  5
72
102
{ACAD_REACTORS
330
6F
102
}
330
6F
100
AcDbPlotSettings
  1

  2
RICOH IPSiO NX850 RPCS
  4

  6

 40
0.0
 41
0.0
 42
0.0
 43
0.0
 44
0.0
 45
0.0
 46
0.0
 47
0.0
 48
0.0
 49
0.0
140
0.0
141
0.0
142
1.0
143
1.0
 70
   688
 72
     0
 73
     0
 74
     5
  7
acad.ctb
 75
    16
 76
     0
 77
     2
 78
   300
147
1.0
148
0.0
149
0.0
100
AcDbLayout
  1
ﾚｲｱｳﾄ1
 70
     0
 71
     1
 10
0.0
 20
0.0
 11
12.0
 21
9.0
 12
0.0
 22
0.0
 32
0.0
 14
1.000000000000000E+20
 24
1.000000000000000E+20
 34
1.000000000000000E+20
 15
-1.000000000000000E+20
 25
-1.000000000000000E+20
 35
-1.000000000000000E+20
146
0.0
 13
0.0
 23
0.0
 33
0.0
 16
1.0
 26
0.0
 36
0.0
 17
0.0
 27
1.0
 37
0.0
 76
     0
330
14
  0
MATERIAL
  5
3351
102
{ACAD_REACTORS
330
A3
102
}
102
{ACAD_XDICTIONARY
360
3940
102
}
330
A3
100
AcDbMaterial
  1
ByBlock
 72
     0
 73
     2
 43
0.0208333333333333
 43
0.0
 43
0.0
 43
0.0
 43
0.0
 43
0.0208333333333333
 43
0.0
 43
0.0
 43
0.0
 43
0.0
 43
1.0
 43
0.0
 43
0.0
 43
0.0
 43
0.0
 43
1.0
 77
     0
 78
     2
 47
0.0208333333333333
 47
0.0
 47
0.0
 47
0.0
 47
0.0
 47
0.0208333333333333
 47
0.0
 47
0.0
 47
0.0
 47
0.0
 47
1.0
 47
0.0
 47
0.0
 47
0.0
 47
0.0
 47
1.0
171
     0
172
     2
 49
0.0208333333333333
 49
0.0
 49
0.0
 49
0.0
 49
0.0
 49
0.0208333333333333
 49
0.0
 49
0.0
 49
0.0
 49
0.0
 49
1.0
 49
0.0
 49
0.0
 49
0.0
 49
0.0
 49
1.0
175
     0
176
     2
142
0.0208333333333333
142
0.0
142
0.0
142
0.0
142
0.0
142
0.0208333333333333
142
0.0
142
0.0
142
0.0
142
0.0
142
1.0
142
0.0
142
0.0
142
0.0
142
0.0
142
1.0
179
     0
270
     2
144
0.0208333333333333
144
0.0
144
0.0
144
0.0
144
0.0
144
0.0208333333333333
144
0.0
144
0.0
144
0.0
144
0.0
144
1.0
144
0.0
144
0.0
144
0.0
144
0.0
144
1.0
274
     2
147
0.0208333333333333
147
0.0
147
0.0
147
0.0
147
0.0
147
0.0208333333333333
147
0.0
147
0.0
147
0.0
147
0.0
147
1.0
147
0.0
147
0.0
147
0.0
147
0.0
147
1.0
  0
MATERIAL
  5
3349
102
{ACAD_REACTORS
330
A3
102
}
102
{ACAD_XDICTIONARY
360
3942
102
}
330
A3
100
AcDbMaterial
  1
ByLayer
 72
     0
 73
     2
 43
0.0208333333333333
 43
0.0
 43
0.0
 43
0.0
 43
0.0
 43
0.0208333333333333
 43
0.0
 43
0.0
 43
0.0
 43
0.0
 43
1.0
 43
0.0
 43
0.0
 43
0.0
 43
0.0
 43
1.0
 77
     0
 78
     2
 47
0.0208333333333333
 47
0.0
 47
0.0
 47
0.0
 47
0.0
 47
0.0208333333333333
 47
0.0
 47
0.0
 47
0.0
 47
0.0
 47
1.0
 47
0.0
 47
0.0
 47
0.0
 47
0.0
 47
1.0
171
     0
172
     2
 49
0.0208333333333333
 49
0.0
 49
0.0
 49
0.0
 49
0.0
 49
0.0208333333333333
 49
0.0
 49
0.0
 49
0.0
 49
0.0
 49
1.0
 49
0.0
 49
0.0
 49
0.0
 49
0.0
 49
1.0
175
     0
176
     2
142
0.0208333333333333
142
0.0
142
0.0
142
0.0
142
0.0
142
0.0208333333333333
142
0.0
142
0.0
142
0.0
142
0.0
142
1.0
142
0.0
142
0.0
142
0.0
142
0.0
142
1.0
179
     0
270
     2
144
0.0208333333333333
144
0.0
144
0.0
144
0.0
144
0.0
144
0.0208333333333333
144
0.0
144
0.0
144
0.0
144
0.0
144
1.0
144
0.0
144
0.0
144
0.0
144
0.0
144
1.0
274
     2
147
0.0208333333333333
147
0.0
147
0.0
147
0.0
147
0.0
147
0.0208333333333333
147
0.0
147
0.0
147
0.0
147
0.0
147
1.0
147
0.0
147
0.0
147
0.0
147
0.0
147
1.0
  0
MATERIAL
  5
3359
102
{ACAD_REACTORS
330
A3
102
}
102
{ACAD_XDICTIONARY
360
3944
102
}
330
A3
100
AcDbMaterial
  1
Global
 72
     0
 73
     2
 43
0.0208333333333333
 43
0.0
 43
0.0
 43
0.0
 43
0.0
 43
0.0208333333333333
 43
0.0
 43
0.0
 43
0.0
 43
0.0
 43
1.0
 43
0.0
 43
0.0
 43
0.0
 43
0.0
 43
1.0
 77
     0
 78
     2
 47
0.0208333333333333
 47
0.0
 47
0.0
 47
0.0
 47
0.0
 47
0.0208333333333333
 47
0.0
 47
0.0
 47
0.0
 47
0.0
 47
1.0
 47
0.0
 47
0.0
 47
0.0
 47
0.0
 47
1.0
171
     0
172
     2
 49
0.0208333333333333
 49
0.0
 49
0.0
 49
0.0
 49
0.0
 49
0.0208333333333333
 49
0.0
 49
0.0
 49
0.0
 49
0.0
 49
1.0
 49
0.0
 49
0.0
 49
0.0
 49
0.0
 49
1.0
175
     0
176
     2
142
0.0208333333333333
142
0.0
142
0.0
142
0.0
142
0.0
142
0.0208333333333333
142
0.0
142
0.0
142
0.0
142
0.0
142
1.0
142
0.0
142
0.0
142
0.0
142
0.0
142
1.0
179
     0
270
     2
144
0.0208333333333333
144
0.0
144
0.0
144
0.0
144
0.0
144
0.0208333333333333
144
0.0
144
0.0
144
0.0
144
0.0
144
1.0
144
0.0
144
0.0
144
0.0
144
0.0
144
1.0
274
     2
147
0.0208333333333333
147
0.0
147
0.0
147
0.0
147
0.0
147
0.0208333333333333
147
0.0
147
0.0
147
0.0
147
0.0
147
1.0
147
0.0
147
0.0
147
0.0
147
0.0
147
1.0
  0
MLEADERSTYLE
  5
338D
102
{ACAD_REACTORS
330
338C
102
}
330
338C
100
AcDbMLeaderStyle
170
     2
171
     1
172
     0
 90
        2
 40
0.0
 41
0.0
173
     1
 91
-1056964608
340
11
 92
       -2
290
     1
 42
0.09
291
     1
 43
0.36
  3
Standard
341
0
 44
0.18
300

342
F
174
     1
178
     6
175
     1
176
     0
 93
-1056964608
 45
0.18
292
     0
297
     0
 46
0.18
343
0
 94
-1056964608
 47
1.0
 49
1.0
140
1.0
293
     1
141
0.0
294
     1
177
     0
142
1.0
295
     0
296
     0
143
0.125
1001
ACAD_MLEADERVER
1070
     2
  0
MLINESTYLE
  5
1B
102
{ACAD_REACTORS
330
1A
102
}
330
1A
100
AcDbMlineStyle
  2
STANDARD
 70
     0
  3

 62
   256
 51
90.0
 52
90.0
 71
     2
 49
0.5
 62
   256
  6
BYLAYER
 49
-0.5
 62
   256
  6
BYLAYER
  0
ACDBPLACEHOLDER
  5
6E
102
{ACAD_REACTORS
330
6D
102
}
330
6D
  0
SCALE
  5
337B
102
{ACAD_REACTORS
330
337A
102
}
330
337A
100
AcDbScale
 70
     0
300
1:1
140
1.0
141
1.0
290
     1
  0
SCALE
  5
337C
102
{ACAD_REACTORS
330
337A
102
}
330
337A
100
AcDbScale
 70
     0
300
1/128" = 1'-0"
140
0.0078125
141
12.0
290
     0
  0
SCALE
  5
337D
102
{ACAD_REACTORS
330
337A
102
}
330
337A
100
AcDbScale
 70
     0
300
1/64" = 1'-0"
140
0.015625
141
12.0
290
     0
  0
SCALE
  5
337E
102
{ACAD_REACTORS
330
337A
102
}
330
337A
100
AcDbScale
 70
     0
300
1/32" = 1'-0"
140
0.03125
141
12.0
290
     0
  0
SCALE
  5
337F
102
{ACAD_REACTORS
330
337A
102
}
330
337A
100
AcDbScale
 70
     0
300
1/16" = 1'-0"
140
0.0625
141
12.0
290
     0
  0
SCALE
  5
3380
102
{ACAD_REACTORS
330
337A
102
}
330
337A
100
AcDbScale
 70
     0
300
3/32" = 1'-0"
140
0.09375
141
12.0
290
     0
  0
SCALE
  5
3381
102
{ACAD_REACTORS
330
337A
102
}
330
337A
100
AcDbScale
 70
     0
300
1/8" = 1'-0"
140
0.125
141
12.0
290
     0
  0
SCALE
  5
3382
102
{ACAD_REACTORS
330
337A
102
}
330
337A
100
AcDbScale
 70
     0
300
3/16" = 1'-0"
140
0.1875
141
12.0
290
     0
  0
SCALE
  5
3383
102
{ACAD_REACTORS
330
337A
102
}
330
337A
100
AcDbScale
 70
     0
300
1/4" = 1'-0"
140
0.25
141
12.0
290
     0
  0
SCALE
  5
3384
102
{ACAD_REACTORS
330
337A
102
}
330
337A
100
AcDbScale
 70
     0
300
3/8" = 1'-0"
140
0.375
141
12.0
290
     0
  0
SCALE
  5
3385
102
{ACAD_REACTORS
330
337A
102
}
330
337A
100
AcDbScale
 70
     0
300
1/2" = 1'-0"
140
0.5
141
12.0
290
     0
  0
SCALE
  5
3386
102
{ACAD_REACTORS
330
337A
102
}
330
337A
100
AcDbScale
 70
     0
300
3/4" = 1'-0"
140
0.75
141
12.0
290
     0
  0
SCALE
  5
3387
102
{ACAD_REACTORS
330
337A
102
}
330
337A
100
AcDbScale
 70
     0
300
1" = 1'-0"
140
1.0
141
12.0
290
     0
  0
SCALE
  5
3388
102
{ACAD_REACTORS
330
337A
102
}
330
337A
100
AcDbScale
 70
     0
300
1-1/2" = 1'-0"
140
1.5
141
12.0
290
     0
  0
SCALE
  5
3389
102
{ACAD_REACTORS
330
337A
102
}
330
337A
100
AcDbScale
 70
     0
300
3" = 1'-0"
140
3.0
141
12.0
290
     0
  0
SCALE
  5
338A
102
{ACAD_REACTORS
330
337A
102
}
330
337A
100
AcDbScale
 70
     0
300
6" = 1'-0"
140
6.0
141
12.0
290
     0
  0
SCALE
  5
338B
102
{ACAD_REACTORS
330
337A
102
}
330
337A
100
AcDbScale
 70
     0
300
1'-0" = 1'-0"
140
12.0
141
12.0
290
     0
  0
ACAD_PROXY_OBJECT
  5
338F
102
{ACAD_REACTORS
330
338E
102
}
102
{ACAD_XDICTIONARY
360
3939
102
}
330
338E
100
AcDbProxyObject
 90
      499
 91
      514
 95
  3276827
 70
     0
 93
     3814
310
929D000000180005C0F42F5A8DC671FC00000060001703D0BD6A3719C7E5C0F42F5A8DC6F1FA330000001800099400000060001703D0BD6A3719C7E5C0F42F5A8DC671FC00000060001703D0BD6A3719C7E808000000000001D07E80C0000006000400000064003081815AF46E07A158E7E80C8340C16A22A7D90FC9F8CAE6
310
5A70A583A07E1FE81C635378FA1F8CAE65A70A583A17E7944A7F127A97E9FA149200DA00E000CA00E400D200C200D80064006800882480160010002780160010002880160010002980160010002C00160010002D002F84A007800B8008200C600AC00C200E4004000AC00D200CA00EE00A800F200E000CA004000B800CC004
310
00044004A00E800C600620044007C004A0040004A007800B8008200C600AC00C200E4004000AC00D200CA00EE00A600CA00C600E800D200DE00DC00A600E800C200E400E8009200C8007C004A005A004A007800B8008200C600AC00C200E4004000AC00D200CA00EE00A600CA00C600E800D200DE00DC008A00DC00C800920
310
0C8007C004A00B800A000A6008600820098008A0040004A007800B8008200C600AC00C200E4004000AC00D200CA00EE00A600C600C200D800CA004000B800CC00400044004A00E600DC0044007C004A00832080270029802480198018807404C
340
F
340
0
340
0
340
13
340
13
340
F
 94
        0
  0
TABLESTYLE
  5
A6
102
{ACAD_REACTORS
330
A5
102
}
102
{ACAD_XDICTIONARY
360
3946
102
}
330
A5
100
AcDbTableStyle
  3
Standard
 70
     0
 71
     0
 40
0.06
 41
0.06
280
     0
281
     0
  7
STANDARD
140
0.18
170
     2
 62
     0
 63
   257
283
     0
274
    -2
284
     1
 64
     0
275
    -2
285
     1
 65
     0
276
    -2
286
     1
 66
     0
277
    -2
287
     1
 67
     0
278
    -2
288
     1
 68
     0
279
    -2
289
     1
 69
     0
  7
STANDARD
140
0.25
170
     5
 62
     0
 63
   257
283
     0
274
    -2
284
     1
 64
     0
275
    -2
285
     1
 65
     0
276
    -2
286
     1
 66
     0
277
    -2
287
     1
 67
     0
278
    -2
288
     1
 68
     0
279
    -2
289
     1
 69
     0
  7
STANDARD
140
0.18
170
     5
 62
     0
 63
   257
283
     0
274
    -2
284
     1
 64
     0
275
    -2
285
     1
 65
     0
276
    -2
286
     1
 66
     0
277
    -2
287
     1
 67
     0
278
    -2
288
     1
 68
     0
279
    -2
289
     1
 69
     0
  0
VISUALSTYLE
  5
3367
102
{ACAD_REACTORS
330
3361
102
}
102
{ACAD_XDICTIONARY
360
394A
102
}
330
3361
100
AcDbVisualStyle
  2
2dWireframe
 70
     4
 71
     0
 72
     2
 73
     0
 90
        0
 40
-0.6
 41
-30.0
 62
     5
 63
     7
421
 16777215
 74
     1
 91
        4
 64
     7
 65
   257
 75
     1
175
     1
 42
1.0
 92
        0
 66
   257
 43
1.0
 76
     1
 77
     6
 78
     2
 67
     7
 79
     5
170
     0
171
     0
290
     0
174
     0
 93
        1
 44
0.0
173
     0
291
     0
 45
0.0
1001
ACAD
1000
AcDbSavedByObjectVersion
1070
     0
  0
VISUALSTYLE
  5
3366
102
{ACAD_REACTORS
330
3361
102
}
102
{ACAD_XDICTIONARY
360
394C
102
}
330
3361
100
AcDbVisualStyle
  2
Basic
 70
     7
 71
     1
 72
     0
 73
     1
 90
        0
 40
-0.6
 41
-30.0
 62
     5
 63
     7
421
 16777215
 74
     0
 91
        4
 64
     7
 65
   257
 75
     1
175
     1
 42
1.0
 92
        8
 66
     7
 43
1.0
 76
     1
 77
     6
 78
     2
 67
     7
 79
     5
170
     0
171
     0
290
     0
174
     0
 93
        1
 44
0.0
173
     0
291
     1
 45
0.0
1001
ACAD
1000
AcDbSavedByObjectVersion
1070
     0
  0
VISUALSTYLE
  5
336D
102
{ACAD_REACTORS
330
3361
102
}
102
{ACAD_XDICTIONARY
360
394E
102
}
330
3361
100
AcDbVisualStyle
  2
Brighten
 70
    12
 71
     2
 72
     2
 73
     0
 90
        0
 40
-0.6
 41
-30.0
 62
     5
 63
     7
421
 16777215
 74
     1
 91
        4
 64
     7
 65
   257
 75
     1
175
     1
 42
1.0
 92
        8
 66
     7
 43
1.0
 76
     1
 77
     6
 78
     2
 67
     7
 79
     5
170
     0
171
     0
290
     0
174
     0
 93
        1
 44
50.0
173
     0
291
     1
 45
0.0
1001
ACAD
1000
AcDbSavedByObjectVersion
1070
     0
  0
VISUALSTYLE
  5
3371
102
{ACAD_REACTORS
330
3361
102
}
102
{ACAD_XDICTIONARY
360
3950
102
}
330
3361
100
AcDbVisualStyle
  2
ColorChange
 70
    16
 71
     2
 72
     2
 73
     3
 90
        0
 40
-0.6
 41
-30.0
 62
     5
 63
     8
421
  8421504
 74
     1
 91
        4
 64
     7
 65
   257
 75
     1
175
     1
 42
1.0
 92
        8
 66
     8
424
  8421504
 43
1.0
 76
     1
 77
     6
 78
     2
 67
     7
 79
     5
170
     0
171
     0
290
     0
174
     0
 93
        1
 44
0.0
173
     0
291
     1
 45
0.0
1001
ACAD
1000
AcDbSavedByObjectVersion
1070
     0
  0
VISUALSTYLE
  5
336A
102
{ACAD_REACTORS
330
3361
102
}
102
{ACAD_XDICTIONARY
360
3952
102
}
330
3361
100
AcDbVisualStyle
  2
Conceptual
 70
     9
 71
     3
 72
     2
 73
     0
 90
        0
 40
-0.6
 41
-30.0
 62
     5
 63
     7
421
 16777215
 74
     2
 91
        2
 64
     7
 65
   257
 75
     1
175
     1
 42
179.0
 92
        8
 66
     7
 43
1.0
 76
     1
 77
     6
 78
     2
 67
     7
 79
     3
170
     0
171
     0
290
     0
174
     0
 93
        1
 44
0.0
173
     0
291
     0
 45
0.0
1001
ACAD
1000
AcDbSavedByObjectVersion
1070
     0
  0
VISUALSTYLE
  5
336C
102
{ACAD_REACTORS
330
3361
102
}
102
{ACAD_XDICTIONARY
360
3954
102
}
330
3361
100
AcDbVisualStyle
  2
Dim
 70
    11
 71
     2
 72
     2
 73
     0
 90
        0
 40
-0.6
 41
-30.0
 62
     5
 63
     7
421
 16777215
 74
     1
 91
        4
 64
     7
 65
   257
 75
     1
175
     1
 42
1.0
 92
        8
 66
     7
 43
1.0
 76
     1
 77
     6
 78
     2
 67
     7
 79
     5
170
     0
171
     0
290
     0
174
     0
 93
        1
 44
-50.0
173
     0
291
     1
 45
0.0
1001
ACAD
1000
AcDbSavedByObjectVersion
1070
     0
  0
VISUALSTYLE
  5
3379
102
{ACAD_REACTORS
330
3361
102
}
102
{ACAD_XDICTIONARY
360
3956
102
}
330
3361
100
AcDbVisualStyle
  2
EdgeColorOff
 70
    22
 71
     2
 72
     2
 73
     0
 90
        0
 40
-0.6
 41
-30.0
 62
     5
 63
     7
421
 16777215
 74
     1
 91
        4
 64
     7
 65
   257
 75
     1
175
     1
 42
1.0
 92
        8
 66
     7
 43
1.0
 76
     1
 77
     6
 78
     2
 67
     7
 79
     5
170
     0
171
     0
290
     0
174
     0
 93
        1
 44
0.0
173
     0
291
     1
 45
0.0
1001
ACAD
1000
AcDbSavedByObjectVersion
1070
     0
  0
VISUALSTYLE
  5
3370
102
{ACAD_REACTORS
330
3361
102
}
102
{ACAD_XDICTIONARY
360
3958
102
}
330
3361
100
AcDbVisualStyle
  2
Facepattern
 70
    15
 71
     2
 72
     2
 73
     0
 90
        0
 40
-0.6
 41
-30.0
 62
     5
 63
     7
421
 16777215
 74
     1
 91
        4
 64
     7
 65
   257
 75
     1
175
     1
 42
1.0
 92
        8
 66
     7
 43
1.0
 76
     1
 77
     6
 78
     2
 67
     7
 79
     5
170
     0
171
     0
290
     0
174
     0
 93
        1
 44
0.0
173
     0
291
     1
 45
0.0
1001
ACAD
1000
AcDbSavedByObjectVersion
1070
     0
  0
VISUALSTYLE
  5
3362
102
{ACAD_REACTORS
330
3361
102
}
102
{ACAD_XDICTIONARY
360
395A
102
}
330
3361
100
AcDbVisualStyle
  2
Flat
 70
     0
 71
     2
 72
     1
 73
     1
 90
        2
 40
-0.6
 41
30.0
 62
     5
 63
     7
421
 16777215
 74
     0
 91
        0
 64
     7
 65
   257
 75
     1
175
     1
 42
1.0
 92
        8
 66
     7
 43
1.0
 76
     1
 77
     6
 78
     2
 67
     7
 79
     5
170
     0
171
     0
290
     0
174
     0
 93
       13
 44
0.0
173
     0
291
     1
 45
0.0
1001
ACAD
1000
AcDbSavedByObjectVersion
1070
     0
  0
VISUALSTYLE
  5
3363
102
{ACAD_REACTORS
330
3361
102
}
102
{ACAD_XDICTIONARY
360
395C
102
}
330
3361
100
AcDbVisualStyle
  2
FlatWithEdges
 70
     1
 71
     2
 72
     1
 73
     1
 90
        2
 40
-0.6
 41
30.0
 62
     5
 63
     7
421
 16777215
 74
     1
 91
        0
 64
     7
 65
   257
 75
     1
175
     1
 42
1.0
 92
        0
 66
   257
 43
1.0
 76
     1
 77
     6
 78
     2
 67
     7
 79
     5
170
     0
171
     0
290
     0
174
     0
 93
       13
 44
0.0
173
     0
291
     1
 45
0.0
1001
ACAD
1000
AcDbSavedByObjectVersion
1070
     0
  0
VISUALSTYLE
  5
3364
102
{ACAD_REACTORS
330
3361
102
}
102
{ACAD_XDICTIONARY
360
395E
102
}
330
3361
100
AcDbVisualStyle
  2
Gouraud
 70
     2
 71
     2
 72
     2
 73
     1
 90
        2
 40
-0.6
 41
30.0
 62
     5
 63
     7
421
 16777215
 74
     0
 91
        0
 64
     7
 65
   257
 75
     1
175
     1
 42
1.0
 92
        0
 66
     7
 43
1.0
 76
     1
 77
     6
 78
     2
 67
     7
 79
     5
170
     0
171
     0
290
     0
174
     0
 93
       13
 44
0.0
173
     0
291
     1
 45
0.0
1001
ACAD
1000
AcDbSavedByObjectVersion
1070
     0
  0
VISUALSTYLE
  5
3365
102
{ACAD_REACTORS
330
3361
102
}
102
{ACAD_XDICTIONARY
360
3960
102
}
330
3361
100
AcDbVisualStyle
  2
GouraudWithEdges
 70
     3
 71
     2
 72
     2
 73
     1
 90
        2
 40
-0.6
 41
30.0
 62
     5
 63
     7
421
 16777215
 74
     1
 91
        0
 64
     7
 65
   257
 75
     1
175
     1
 42
1.0
 92
        0
 66
   257
 43
1.0
 76
     1
 77
     6
 78
     2
 67
     7
 79
     5
170
     0
171
     0
290
     0
174
     0
 93
       13
 44
0.0
173
     0
291
     1
 45
0.0
1001
ACAD
1000
AcDbSavedByObjectVersion
1070
     0
  0
VISUALSTYLE
  5
3369
102
{ACAD_REACTORS
330
3361
102
}
102
{ACAD_XDICTIONARY
360
3962
102
}
330
3361
100
AcDbVisualStyle
  2
Hidden
 70
     6
 71
     1
 72
     2
 73
     2
 90
        0
 40
-0.6
 41
-30.0
 62
     5
 63
     7
421
 16777215
 74
     2
 91
        2
 64
     7
 65
   257
 75
     2
175
     1
 42
40.0
 92
        0
 66
   257
 43
1.0
 76
     1
 77
     6
 78
     2
 67
     7
 79
     3
170
     0
171
     0
290
     0
174
     0
 93
        1
 44
0.0
173
     0
291
     0
 45
0.0
1001
ACAD
1000
AcDbSavedByObjectVersion
1070
     0
  0
VISUALSTYLE
  5
3377
102
{ACAD_REACTORS
330
3361
102
}
102
{ACAD_XDICTIONARY
360
3964
102
}
330
3361
100
AcDbVisualStyle
  2
JitterOff
 70
    20
 71
     2
 72
     2
 73
     0
 90
        0
 40
-0.6
 41
-30.0
 62
     5
 63
     7
421
 16777215
 74
     1
 91
        4
 64
     7
 65
   257
 75
     1
175
     1
 42
1.0
 92
       10
 66
     7
 43
1.0
 76
     1
 77
     6
 78
     2
 67
     7
 79
     5
170
     0
171
     0
290
     0
174
     0
 93
        1
 44
0.0
173
     0
291
     1
 45
0.0
1001
ACAD
1000
AcDbSavedByObjectVersion
1070
     0
  0
VISUALSTYLE
  5
336F
102
{ACAD_REACTORS
330
3361
102
}
102
{ACAD_XDICTIONARY
360
3966
102
}
330
3361
100
AcDbVisualStyle
  2
Linepattern
 70
    14
 71
     2
 72
     2
 73
     0
 90
        0
 40
-0.6
 41
-30.0
 62
     5
 63
     7
421
 16777215
 74
     1
 91
        4
 64
     7
 65
   257
 75
     7
175
     7
 42
1.0
 92
        8
 66
     7
 43
1.0
 76
     1
 77
     6
 78
     2
 67
     7
 79
     5
170
     0
171
     0
290
     0
174
     0
 93
        1
 44
0.0
173
     0
291
     1
 45
0.0
1001
ACAD
1000
AcDbSavedByObjectVersion
1070
     0
  0
VISUALSTYLE
  5
3378
102
{ACAD_REACTORS
330
3361
102
}
102
{ACAD_XDICTIONARY
360
3968
102
}
330
3361
100
AcDbVisualStyle
  2
OverhangOff
 70
    21
 71
     2
 72
     2
 73
     0
 90
        0
 40
-0.6
 41
-30.0
 62
     5
 63
     7
421
 16777215
 74
     1
 91
        4
 64
     7
 65
   257
 75
     1
175
     1
 42
1.0
 92
        9
 66
     7
 43
1.0
 76
     1
 77
     6
 78
     2
 67
     7
 79
     5
170
     0
171
     0
290
     0
174
     0
 93
        1
 44
0.0
173
     0
291
     1
 45
0.0
1001
ACAD
1000
AcDbSavedByObjectVersion
1070
     0
  0
VISUALSTYLE
  5
336B
102
{ACAD_REACTORS
330
3361
102
}
102
{ACAD_XDICTIONARY
360
396A
102
}
330
3361
100
AcDbVisualStyle
  2
Realistic
 70
     8
 71
     2
 72
     2
 73
     0
 90
        2
 40
-0.6
 41
30.0
 62
     5
 63
     7
421
 16777215
 74
     0
 91
        0
 64
     7
 65
   257
 75
     1
175
     1
 42
1.0
 92
        8
 66
   257
 43
1.0
 76
     1
 77
     6
 78
     2
 67
     7
 79
     3
170
     0
171
     0
290
     0
174
     0
 93
       13
 44
0.0
173
     0
291
     0
 45
0.0
1001
ACAD
1000
AcDbSavedByObjectVersion
1070
     0
  0
VISUALSTYLE
  5
3376
102
{ACAD_REACTORS
330
3361
102
}
102
{ACAD_XDICTIONARY
360
396C
102
}
330
3361
100
AcDbVisualStyle
  2
Shaded
 70
    27
 71
     2
 72
     2
 73
     1
 90
        2
 40
-0.6
 41
30.0
 62
     5
 63
     7
421
 16777215
 74
     0
 91
        4
 64
     7
 65
   257
 75
     1
175
     1
 42
1.0
 92
        8
 66
   257
 43
1.0
 76
     1
 77
     6
 78
     2
 67
     8
425
  7895160
 79
     3
170
     0
171
     0
290
     0
174
     0
 93
        5
 44
0.0
173
     0
291
     0
 45
0.0
1001
ACAD
1000
AcDbSavedByObjectVersion
1070
     0
  0
VISUALSTYLE
  5
3375
102
{ACAD_REACTORS
330
3361
102
}
102
{ACAD_XDICTIONARY
360
396E
102
}
330
3361
100
AcDbVisualStyle
  2
Shaded with edges
 70
    26
 71
     2
 72
     2
 73
     1
 90
        2
 40
-0.6
 41
30.0
 62
     5
 63
     7
421
 16777215
 74
     1
 91
       10
 64
     7
 65
   257
 75
     2
175
     1
 42
1.0
 92
        8
 66
   257
 43
1.0
 76
     1
 77
     6
 78
     2
 67
     7
 79
     3
170
     0
171
     0
290
     0
174
     0
 93
        5
 44
0.0
173
     0
291
     0
 45
0.0
1001
ACAD
1000
AcDbSavedByObjectVersion
1070
     0
  0
VISUALSTYLE
  5
3372
102
{ACAD_REACTORS
330
3361
102
}
102
{ACAD_XDICTIONARY
360
3970
102
}
330
3361
100
AcDbVisualStyle
  2
Shades of Gray
 70
    23
 71
     2
 72
     2
 73
     3
 90
        0
 40
-0.6
 41
-30.0
 62
     5
 63
     7
421
 16777215
 74
     2
 91
        2
 64
     7
 65
     7
 75
     1
175
     1
 42
40.0
 92
        8
 66
     7
 43
1.0
 76
     1
 77
     6
 78
     2
 67
     7
 79
     3
170
     0
171
     0
290
     0
174
     0
 93
        1
 44
0.0
173
     0
291
     0
 45
0.0
1001
ACAD
1000
AcDbSavedByObjectVersion
1070
     0
  0
VISUALSTYLE
  5
3373
102
{ACAD_REACTORS
330
3361
102
}
102
{ACAD_XDICTIONARY
360
3972
102
}
330
3361
100
AcDbVisualStyle
  2
Sketchy
 70
    24
 71
     1
 72
     2
 73
     2
 90
        0
 40
-0.6
 41
-30.0
 62
     5
 63
     7
421
 16777215
 74
     2
 91
        2
 64
     7
 65
     7
 75
     1
175
     1
 42
40.0
 92
       11
 66
     7
 43
1.0
 76
     1
 77
     6
 78
     2
 67
     7
 79
     6
170
     0
171
     0
290
     0
174
     0
 93
        1
 44
0.0
173
     0
291
     0
 45
0.0
1001
ACAD
1000
AcDbSavedByObjectVersion
1070
     0
  0
VISUALSTYLE
  5
336E
102
{ACAD_REACTORS
330
3361
102
}
102
{ACAD_XDICTIONARY
360
3974
102
}
330
3361
100
AcDbVisualStyle
  2
Thicken
 70
    13
 71
     2
 72
     2
 73
     0
 90
        0
 40
-0.6
 41
-30.0
 62
     5
 63
     7
421
 16777215
 74
     1
 91
        4
 64
     7
 65
   257
 75
     1
175
     1
 42
1.0
 92
       12
 66
     7
 43
1.0
 76
     1
 77
     6
 78
     2
 67
     7
 79
     5
170
     0
171
     0
290
     0
174
     0
 93
        1
 44
0.0
173
     0
291
     1
 45
0.0
1001
ACAD
1000
AcDbSavedByObjectVersion
1070
     0
  0
VISUALSTYLE
  5
3368
102
{ACAD_REACTORS
330
3361
102
}
102
{ACAD_XDICTIONARY
360
3976
102
}
330
3361
100
AcDbVisualStyle
  2
Wireframe
 70
     5
 71
     0
 72
     2
 73
     0
 90
        0
 40
-0.6
 41
-30.0
 62
     5
 63
     7
421
 16777215
 74
     1
 91
        4
 64
     7
 65
   257
 75
     1
175
     1
 42
1.0
 92
        0
 66
   257
 43
1.0
 76
     1
 77
     6
 78
     2
 67
     7
 79
     3
170
     0
171
     0
290
     0
174
     0
 93
        1
 44
0.0
173
     0
291
     0
 45
0.0
1001
ACAD
1000
AcDbSavedByObjectVersion
1070
     0
  0
VISUALSTYLE
  5
3374
102
{ACAD_REACTORS
330
3361
102
}
102
{ACAD_XDICTIONARY
360
3978
102
}
330
3361
100
AcDbVisualStyle
  2
X-Ray
 70
    25
 71
     2
 72
     2
 73
     1
 90
        1
 40
0.5
 41
-30.0
 62
     5
 63
     7
421
 16777215
 74
     1
 91
        0
 64
     7
 65
   257
 75
     1
175
     1
 42
1.0
 92
        8
 66
     7
 43
1.0
 76
     1
 77
     6
 78
     2
 67
     7
 79
     3
170
     0
171
     0
290
     0
174
     0
 93
       13
 44
0.0
173
     0
291
     0
 45
0.0
1001
ACAD
1000
AcDbSavedByObjectVersion
1070
     0
  0
DICTIONARYVAR
  5
3874
102
{ACAD_REACTORS
330
A0
102
}
330
A0
100
DictionaryVariables
280
     0
  1
1:1
  0
DICTIONARYVAR
  5
3870
102
{ACAD_REACTORS
330
A0
102
}
330
A0
100
DictionaryVariables
280
     0
  1
Standard
  0
DICTIONARYVAR
  5
B0
102
{ACAD_REACTORS
330
A0
102
}
330
A0
100
DictionaryVariables
280
     0
  1
Standard
  0
DICTIONARYVAR
  5
3871
102
{ACAD_REACTORS
330
A0
102
}
330
A0
100
DictionaryVariables
280
     0
  1
Imperial24
  0
DICTIONARYVAR
  5
3872
102
{ACAD_REACTORS
330
A0
102
}
330
A0
100
DictionaryVariables
280
     0
  1
Imperial24
  0
DICTIONARYVAR
  5
A1
102
{ACAD_REACTORS
330
A0
102
}
330
A0
100
DictionaryVariables
280
     0
  1
1
  0
DICTIONARYVAR
  5
3876
102
{ACAD_REACTORS
330
A0
102
}
330
A0
100
DictionaryVariables
280
     0
  1
1
  0
DICTIONARYVAR
  5
3877
102
{ACAD_REACTORS
330
A0
102
}
330
A0
100
DictionaryVariables
280
     0
  1
15
  0
DICTIONARYVAR
  5
3875
102
{ACAD_REACTORS
330
A0
102
}
330
A0
100
DictionaryVariables
280
     0
  1
0
  0
DICTIONARYVAR
  5
3873
102
{ACAD_REACTORS
330
A0
102
}
330
A0
100
DictionaryVariables
280
     0
  1
0
  0
DICTIONARYVAR
  5
B1
102
{ACAD_REACTORS
330
A0
102
}
330
A0
100
DictionaryVariables
280
     0
  1

  0
DICTIONARYVAR
  5
393D
102
{ACAD_REACTORS
330
A0
102
}
330
A0
100
DictionaryVariables
280
     0
  1
2
  0
DICTIONARY
  5
393B
330
3391
100
AcDbDictionary
280
     1
281
     1
  3
ACAD_XREC_ROUNDTRIP
360
393C
  0
DICTIONARY
  5
3940
330
3351
100
AcDbDictionary
280
     1
281
     1
  3
ACAD_XREC_ROUNDTRIP
360
3941
  0
DICTIONARY
  5
3942
330
3349
100
AcDbDictionary
280
     1
281
     1
  3
ACAD_XREC_ROUNDTRIP
360
3943
  0
DICTIONARY
  5
3944
330
3359
100
AcDbDictionary
280
     1
281
     1
  3
ACAD_XREC_ROUNDTRIP
360
3945
  0
DICTIONARY
  5
3939
330
338F
100
AcDbDictionary
280
     1
281
     1
  3
ACAD_XREC_ROUNDTRIP
360
393A
  0
DICTIONARY
  5
3946
330
A6
100
AcDbDictionary
280
     1
281
     1
  3
ACAD_ROUNDTRIP_2008_TABLESTYLE_CELLSTYLEMAP
360
3948
  3
ACAD_XREC_ROUNDTRIP
360
3947
  0
DICTIONARY
  5
394A
330
3367
100
AcDbDictionary
280
     1
281
     1
  3
ACAD_XREC_ROUNDTRIP
360
394B
  0
DICTIONARY
  5
394C
330
3366
100
AcDbDictionary
280
     1
281
     1
  3
ACAD_XREC_ROUNDTRIP
360
394D
  0
DICTIONARY
  5
394E
330
336D
100
AcDbDictionary
280
     1
281
     1
  3
ACAD_XREC_ROUNDTRIP
360
394F
  0
DICTIONARY
  5
3950
330
3371
100
AcDbDictionary
280
     1
281
     1
  3
ACAD_XREC_ROUNDTRIP
360
3951
  0
DICTIONARY
  5
3952
330
336A
100
AcDbDictionary
280
     1
281
     1
  3
ACAD_XREC_ROUNDTRIP
360
3953
  0
DICTIONARY
  5
3954
330
336C
100
AcDbDictionary
280
     1
281
     1
  3
ACAD_XREC_ROUNDTRIP
360
3955
  0
DICTIONARY
  5
3956
330
3379
100
AcDbDictionary
280
     1
281
     1
  3
ACAD_XREC_ROUNDTRIP
360
3957
  0
DICTIONARY
  5
3958
330
3370
100
AcDbDictionary
280
     1
281
     1
  3
ACAD_XREC_ROUNDTRIP
360
3959
  0
DICTIONARY
  5
395A
330
3362
100
AcDbDictionary
280
     1
281
     1
  3
ACAD_XREC_ROUNDTRIP
360
395B
  0
DICTIONARY
  5
395C
330
3363
100
AcDbDictionary
280
     1
281
     1
  3
ACAD_XREC_ROUNDTRIP
360
395D
  0
DICTIONARY
  5
395E
330
3364
100
AcDbDictionary
280
     1
281
     1
  3
ACAD_XREC_ROUNDTRIP
360
395F
  0
DICTIONARY
  5
3960
330
3365
100
AcDbDictionary
280
     1
281
     1
  3
ACAD_XREC_ROUNDTRIP
360
3961
  0
DICTIONARY
  5
3962
330
3369
100
AcDbDictionary
280
     1
281
     1
  3
ACAD_XREC_ROUNDTRIP
360
3963
  0
DICTIONARY
  5
3964
330
3377
100
AcDbDictionary
280
     1
281
     1
  3
ACAD_XREC_ROUNDTRIP
360
3965
  0
DICTIONARY
  5
3966
330
336F
100
AcDbDictionary
280
     1
281
     1
  3
ACAD_XREC_ROUNDTRIP
360
3967
  0
DICTIONARY
  5
3968
330
3378
100
AcDbDictionary
280
     1
281
     1
  3
ACAD_XREC_ROUNDTRIP
360
3969
  0
DICTIONARY
  5
396A
330
336B
100
AcDbDictionary
280
     1
281
     1
  3
ACAD_XREC_ROUNDTRIP
360
396B
  0
DICTIONARY
  5
396C
330
3376
100
AcDbDictionary
280
     1
281
     1
  3
ACAD_XREC_ROUNDTRIP
360
396D
  0
DICTIONARY
  5
396E
330
3375
100
AcDbDictionary
280
     1
281
     1
  3
ACAD_XREC_ROUNDTRIP
360
396F
  0
DICTIONARY
  5
3970
330
3372
100
AcDbDictionary
280
     1
281
     1
  3
ACAD_XREC_ROUNDTRIP
360
3971
  0
DICTIONARY
  5
3972
330
3373
100
AcDbDictionary
280
     1
281
     1
  3
ACAD_XREC_ROUNDTRIP
360
3973
  0
DICTIONARY
  5
3974
330
336E
100
AcDbDictionary
280
     1
281
     1
  3
ACAD_XREC_ROUNDTRIP
360
3975
  0
DICTIONARY
  5
3976
330
3368
100
AcDbDictionary
280
     1
281
     1
  3
ACAD_XREC_ROUNDTRIP
360
3977
  0
DICTIONARY
  5
3978
330
3374
100
AcDbDictionary
280
     1
281
     1
  3
ACAD_XREC_ROUNDTRIP
360
3979
  0
XRECORD
  5
393C
102
{ACAD_REACTORS
330
393B
102
}
330
393B
100
AcDbXrecord
280
     1
102
DISPLAYNAME
  1
Imperial24
102
FLAGS
 90
        0
  0
XRECORD
  5
3941
102
{ACAD_REACTORS
330
3940
102
}
330
3940
100
AcDbXrecord
280
     1
102
MATERIAL
148
0.0
149
0.0
149
0.0
 93
        0
 94
      127
282
     0
 72
     0
 77
     0
171
     0
175
     0
179
     0
273
     0
  0
XRECORD
  5
3943
102
{ACAD_REACTORS
330
3942
102
}
330
3942
100
AcDbXrecord
280
     1
102
MATERIAL
148
0.0
149
0.0
149
0.0
 93
        0
 94
      127
282
     0
 72
     0
 77
     0
171
     0
175
     0
179
     0
273
     0
  0
XRECORD
  5
3945
102
{ACAD_REACTORS
330
3944
102
}
330
3944
100
AcDbXrecord
280
     1
102
MATERIAL
148
0.0
149
0.0
149
0.0
 93
        0
 94
      127
282
     0
 72
     0
 77
     0
171
     0
175
     0
179
     0
273
     0
  0
XRECORD
  5
393A
102
{ACAD_REACTORS
330
3939
102
}
330
3939
100
AcDbXrecord
280
     1
102
DISPLAYNAME
  1
Imperial24
102
FLAGS
 90
        0
  0
CELLSTYLEMAP
  5
3948
102
{ACAD_REACTORS
330
3946
102
}
330
3946
100
AcDbCellStyleMap
 90
        3
300
CELLSTYLE
  1
TABLEFORMAT_BEGIN
 90
        5
170
     1
 91
        0
 92
    32768
 62
   257
 93
        1
300
CONTENTFORMAT
  1
CONTENTFORMAT_BEGIN
 90
        0
 91
        0
 92
        4
 93
        0
300

 40
0.0
140
1.0
 94
        5
 62
     0
340
F
144
0.25
309
CONTENTFORMAT_END
171
     0
 94
        6
 95
        1
302
GRIDFORMAT
  1
GRIDFORMAT_BEGIN
 90
        0
 91
        1
 62
     0
 92
       -2
340
0
 93
        0
 40
0.045
309
GRIDFORMAT_END
 95
        2
302
GRIDFORMAT
  1
GRIDFORMAT_BEGIN
 90
        0
 91
        1
 62
     0
 92
       -2
340
0
 93
        0
 40
0.045
309
GRIDFORMAT_END
 95
        4
302
GRIDFORMAT
  1
GRIDFORMAT_BEGIN
 90
        0
 91
        1
 62
     0
 92
       -2
340
0
 93
        0
 40
0.045
309
GRIDFORMAT_END
 95
        8
302
GRIDFORMAT
  1
GRIDFORMAT_BEGIN
 90
        0
 91
        1
 62
     0
 92
       -2
340
0
 93
        0
 40
0.045
309
GRIDFORMAT_END
 95
       16
302
GRIDFORMAT
  1
GRIDFORMAT_BEGIN
 90
        0
 91
        1
 62
     0
 92
       -2
340
0
 93
        0
 40
0.045
309
GRIDFORMAT_END
 95
       32
302
GRIDFORMAT
  1
GRIDFORMAT_BEGIN
 90
        0
 91
        1
 62
     0
 92
       -2
340
0
 93
        0
 40
0.045
309
GRIDFORMAT_END
309
TABLEFORMAT_END
  1
CELLSTYLE_BEGIN
 90
        1
 91
        1
300
_TITLE
309
CELLSTYLE_END
300
CELLSTYLE
  1
TABLEFORMAT_BEGIN
 90
        5
170
     1
 91
        0
 92
        0
 62
   257
 93
        1
300
CONTENTFORMAT
  1
CONTENTFORMAT_BEGIN
 90
        0
 91
        0
 92
        4
 93
        0
300

 40
0.0
140
1.0
 94
        5
 62
     0
340
F
144
0.18
309
CONTENTFORMAT_END
171
     0
 94
        6
 95
        1
302
GRIDFORMAT
  1
GRIDFORMAT_BEGIN
 90
        0
 91
        1
 62
     0
 92
       -2
340
0
 93
        0
 40
0.045
309
GRIDFORMAT_END
 95
        2
302
GRIDFORMAT
  1
GRIDFORMAT_BEGIN
 90
        0
 91
        1
 62
     0
 92
       -2
340
0
 93
        0
 40
0.045
309
GRIDFORMAT_END
 95
        4
302
GRIDFORMAT
  1
GRIDFORMAT_BEGIN
 90
        0
 91
        1
 62
     0
 92
       -2
340
0
 93
        0
 40
0.045
309
GRIDFORMAT_END
 95
        8
302
GRIDFORMAT
  1
GRIDFORMAT_BEGIN
 90
        0
 91
        1
 62
     0
 92
       -2
340
0
 93
        0
 40
0.045
309
GRIDFORMAT_END
 95
       16
302
GRIDFORMAT
  1
GRIDFORMAT_BEGIN
 90
        0
 91
        1
 62
     0
 92
       -2
340
0
 93
        0
 40
0.045
309
GRIDFORMAT_END
 95
       32
302
GRIDFORMAT
  1
GRIDFORMAT_BEGIN
 90
        0
 91
        1
 62
     0
 92
       -2
340
0
 93
        0
 40
0.045
309
GRIDFORMAT_END
309
TABLEFORMAT_END
  1
CELLSTYLE_BEGIN
 90
        2
 91
        1
300
_HEADER
309
CELLSTYLE_END
300
CELLSTYLE
  1
TABLEFORMAT_BEGIN
 90
        5
170
     1
 91
        0
 92
        0
 62
   257
 93
        1
300
CONTENTFORMAT
  1
CONTENTFORMAT_BEGIN
 90
        0
 91
        0
 92
        4
 93
        0
300

 40
0.0
140
1.0
 94
        2
 62
     0
340
F
144
0.18
309
CONTENTFORMAT_END
171
     0
 94
        6
 95
        1
302
GRIDFORMAT
  1
GRIDFORMAT_BEGIN
 90
        0
 91
        1
 62
     0
 92
       -2
340
0
 93
        0
 40
0.045
309
GRIDFORMAT_END
 95
        2
302
GRIDFORMAT
  1
GRIDFORMAT_BEGIN
 90
        0
 91
        1
 62
     0
 92
       -2
340
0
 93
        0
 40
0.045
309
GRIDFORMAT_END
 95
        4
302
GRIDFORMAT
  1
GRIDFORMAT_BEGIN
 90
        0
 91
        1
 62
     0
 92
       -2
340
0
 93
        0
 40
0.045
309
GRIDFORMAT_END
 95
        8
302
GRIDFORMAT
  1
GRIDFORMAT_BEGIN
 90
        0
 91
        1
 62
     0
 92
       -2
340
0
 93
        0
 40
0.045
309
GRIDFORMAT_END
 95
       16
302
GRIDFORMAT
  1
GRIDFORMAT_BEGIN
 90
        0
 91
        1
 62
     0
 92
       -2
340
0
 93
        0
 40
0.045
309
GRIDFORMAT_END
 95
       32
302
GRIDFORMAT
  1
GRIDFORMAT_BEGIN
 90
        0
 91
        1
 62
     0
 92
       -2
340
0
 93
        0
 40
0.045
309
GRIDFORMAT_END
309
TABLEFORMAT_END
  1
CELLSTYLE_BEGIN
 90
        3
 91
        2
300
_DATA
309
CELLSTYLE_END
  0
XRECORD
  5
3947
102
{ACAD_REACTORS
330
3946
102
}
330
3946
100
AcDbXrecord
280
     1
102
ACAD_ROUNDTRIP_PRE2007_TABLESTYLE
 90
        4
 91
        0
  1

 92
        4
 93
        0
  2

 94
        4
 95
        0
  3

  0
XRECORD
  5
394B
102
{ACAD_REACTORS
330
394A
102
}
330
394A
100
AcDbXrecord
280
     1
102
RTVSPropertyOp0
 70
     1
102
RTVSPropertyOp1
 70
     1
102
RTVSPropertyOp2
 70
     1
102
RTVSPropertyOp3
 70
     1
102
RTVSPropertyOp4
 70
     1
102
RTVSPropertyOp5
 70
     1
102
RTVSPropertyOp6
 70
     1
102
RTVSPropertyOp7
 70
     1
102
RTVSPropertyOp8
 70
     1
102
RTVSPropertyOp9
 70
     1
102
RTVSPropertyOp10
 70
     1
102
RTVSPropertyOp11
 70
     1
102
RTVSPropertyOp12
 70
     1
102
RTVSPropertyOp13
 70
     1
102
RTVSPropertyOp14
 70
     1
102
RTVSPropertyOp15
 70
     1
102
RTVSPropertyOp16
 70
     1
102
RTVSPropertyOp17
 70
     1
102
RTVSPropertyOp18
 70
     1
102
RTVSPropertyOp19
 70
     1
102
RTVSPropertyOp20
 70
     1
102
RTVSPropertyOp21
 70
     1
102
RTVSPropertyOp22
 70
     1
102
RTVSPropertyOp23
 70
     1
102
RTVSPropertyOp24
 70
     1
102
RTVSPropertyOp25
 70
     1
102
RTVSPropertyOp26
 70
     1
102
RTVSPropertyOp27
 70
     1
  0
XRECORD
  5
394D
102
{ACAD_REACTORS
330
394C
102
}
330
394C
100
AcDbXrecord
280
     1
102
RTVSPropertyOp0
 70
     1
102
RTVSPropertyOp1
 70
     1
102
RTVSPropertyOp2
 70
     1
102
RTVSPropertyOp3
 70
     1
102
RTVSPropertyOp4
 70
     1
102
RTVSPropertyOp5
 70
     1
102
RTVSPropertyOp6
 70
     1
102
RTVSPropertyOp7
 70
     1
102
RTVSPropertyOp8
 70
     1
102
RTVSPropertyOp9
 70
     1
102
RTVSPropertyOp10
 70
     1
102
RTVSPropertyOp11
 70
     1
102
RTVSPropertyOp12
 70
     1
102
RTVSPropertyOp13
 70
     1
102
RTVSPropertyOp14
 70
     1
102
RTVSPropertyOp15
 70
     1
102
RTVSPropertyOp16
 70
     1
102
RTVSPropertyOp17
 70
     1
102
RTVSPropertyOp18
 70
     1
102
RTVSPropertyOp19
 70
     1
102
RTVSPropertyOp20
 70
     1
102
RTVSPropertyOp21
 70
     1
102
RTVSPropertyOp22
 70
     1
102
RTVSPropertyOp23
 70
     1
102
RTVSPropertyOp24
 70
     1
102
RTVSPropertyOp25
 70
     1
102
RTVSPropertyOp26
 70
     1
102
RTVSPropertyOp27
 70
     1
  0
XRECORD
  5
394F
102
{ACAD_REACTORS
330
394E
102
}
330
394E
100
AcDbXrecord
280
     1
102
RTVSPropertyOp0
 70
     1
102
RTVSPropertyOp1
 70
     1
102
RTVSPropertyOp2
 70
     1
102
RTVSPropertyOp3
 70
     1
102
RTVSPropertyOp4
 70
     1
102
RTVSPropertyOp5
 70
     1
102
RTVSPropertyOp6
 70
     1
102
RTVSPropertyOp7
 70
     1
102
RTVSPropertyOp8
 70
     1
102
RTVSPropertyOp9
 70
     1
102
RTVSPropertyOp10
 70
     1
102
RTVSPropertyOp11
 70
     1
102
RTVSPropertyOp12
 70
     1
102
RTVSPropertyOp13
 70
     1
102
RTVSPropertyOp14
 70
     1
102
RTVSPropertyOp15
 70
     1
102
RTVSPropertyOp16
 70
     1
102
RTVSPropertyOp17
 70
     1
102
RTVSPropertyOp18
 70
     1
102
RTVSPropertyOp19
 70
     1
102
RTVSPropertyOp20
 70
     1
102
RTVSPropertyOp21
 70
     1
102
RTVSPropertyOp22
 70
     1
102
RTVSPropertyOp23
 70
     1
102
RTVSPropertyOp24
 70
     1
102
RTVSPropertyOp25
 70
     1
102
RTVSPropertyOp26
 70
     1
102
RTVSPropertyOp27
 70
     1
  0
XRECORD
  5
3951
102
{ACAD_REACTORS
330
3950
102
}
330
3950
100
AcDbXrecord
280
     1
102
RTVSPropertyOp0
 70
     1
102
RTVSPropertyOp1
 70
     1
102
RTVSPropertyOp2
 70
     1
102
RTVSPropertyOp3
 70
     1
102
RTVSPropertyOp4
 70
     1
102
RTVSPropertyOp5
 70
     1
102
RTVSPropertyOp6
 70
     1
102
RTVSPropertyOp7
 70
     1
102
RTVSPropertyOp8
 70
     1
102
RTVSPropertyOp9
 70
     1
102
RTVSPropertyOp10
 70
     1
102
RTVSPropertyOp11
 70
     1
102
RTVSPropertyOp12
 70
     1
102
RTVSPropertyOp13
 70
     1
102
RTVSPropertyOp14
 70
     1
102
RTVSPropertyOp15
 70
     1
102
RTVSPropertyOp16
 70
     1
102
RTVSPropertyOp17
 70
     1
102
RTVSPropertyOp18
 70
     1
102
RTVSPropertyOp19
 70
     1
102
RTVSPropertyOp20
 70
     1
102
RTVSPropertyOp21
 70
     1
102
RTVSPropertyOp22
 70
     1
102
RTVSPropertyOp23
 70
     1
102
RTVSPropertyOp24
 70
     1
102
RTVSPropertyOp25
 70
     1
102
RTVSPropertyOp26
 70
     1
102
RTVSPropertyOp27
 70
     1
  0
XRECORD
  5
3953
102
{ACAD_REACTORS
330
3952
102
}
330
3952
100
AcDbXrecord
280
     1
102
RTVSPropertyOp0
 70
     1
102
RTVSPropertyOp1
 70
     1
102
RTVSPropertyOp2
 70
     1
102
RTVSPropertyOp3
 70
     1
102
RTVSPropertyOp4
 70
     1
102
RTVSPropertyOp5
 70
     1
102
RTVSPropertyOp6
 70
     1
102
RTVSPropertyOp7
 70
     1
102
RTVSPropertyOp8
 70
     1
102
RTVSPropertyOp9
 70
     1
102
RTVSPropertyOp10
 70
     1
102
RTVSPropertyOp11
 70
     1
102
RTVSPropertyOp12
 70
     1
102
RTVSPropertyOp13
 70
     1
102
RTVSPropertyOp14
 70
     1
102
RTVSPropertyOp15
 70
     1
102
RTVSPropertyOp16
 70
     1
102
RTVSPropertyOp17
 70
     1
102
RTVSPropertyOp18
 70
     1
102
RTVSPropertyOp19
 70
     1
102
RTVSPropertyOp20
 70
     1
102
RTVSPropertyOp21
 70
     1
102
RTVSPropertyOp22
 70
     1
102
RTVSPropertyOp23
 70
     1
102
RTVSPropertyOp24
 70
     1
102
RTVSPropertyOp25
 70
     1
102
RTVSPropertyOp26
 70
     1
102
RTVSPropertyOp27
 70
     1
  0
XRECORD
  5
3955
102
{ACAD_REACTORS
330
3954
102
}
330
3954
100
AcDbXrecord
280
     1
102
RTVSPropertyOp0
 70
     1
102
RTVSPropertyOp1
 70
     1
102
RTVSPropertyOp2
 70
     1
102
RTVSPropertyOp3
 70
     1
102
RTVSPropertyOp4
 70
     1
102
RTVSPropertyOp5
 70
     1
102
RTVSPropertyOp6
 70
     1
102
RTVSPropertyOp7
 70
     1
102
RTVSPropertyOp8
 70
     1
102
RTVSPropertyOp9
 70
     1
102
RTVSPropertyOp10
 70
     1
102
RTVSPropertyOp11
 70
     1
102
RTVSPropertyOp12
 70
     1
102
RTVSPropertyOp13
 70
     1
102
RTVSPropertyOp14
 70
     1
102
RTVSPropertyOp15
 70
     1
102
RTVSPropertyOp16
 70
     1
102
RTVSPropertyOp17
 70
     1
102
RTVSPropertyOp18
 70
     1
102
RTVSPropertyOp19
 70
     1
102
RTVSPropertyOp20
 70
     1
102
RTVSPropertyOp21
 70
     1
102
RTVSPropertyOp22
 70
     1
102
RTVSPropertyOp23
 70
     1
102
RTVSPropertyOp24
 70
     1
102
RTVSPropertyOp25
 70
     1
102
RTVSPropertyOp26
 70
     1
102
RTVSPropertyOp27
 70
     1
  0
XRECORD
  5
3957
102
{ACAD_REACTORS
330
3956
102
}
330
3956
100
AcDbXrecord
280
     1
102
RTVSPropertyOp0
 70
     1
102
RTVSPropertyOp1
 70
     1
102
RTVSPropertyOp2
 70
     1
102
RTVSPropertyOp3
 70
     1
102
RTVSPropertyOp4
 70
     1
102
RTVSPropertyOp5
 70
     1
102
RTVSPropertyOp6
 70
     1
102
RTVSPropertyOp7
 70
     1
102
RTVSPropertyOp8
 70
     1
102
RTVSPropertyOp9
 70
     1
102
RTVSPropertyOp10
 70
     1
102
RTVSPropertyOp11
 70
     1
102
RTVSPropertyOp12
 70
     1
102
RTVSPropertyOp13
 70
     1
102
RTVSPropertyOp14
 70
     1
102
RTVSPropertyOp15
 70
     1
102
RTVSPropertyOp16
 70
     1
102
RTVSPropertyOp17
 70
     1
102
RTVSPropertyOp18
 70
     1
102
RTVSPropertyOp19
 70
     1
102
RTVSPropertyOp20
 70
     1
102
RTVSPropertyOp21
 70
     1
102
RTVSPropertyOp22
 70
     1
102
RTVSPropertyOp23
 70
     1
102
RTVSPropertyOp24
 70
     1
102
RTVSPropertyOp25
 70
     1
102
RTVSPropertyOp26
 70
     1
102
RTVSPropertyOp27
 70
     1
  0
XRECORD
  5
3959
102
{ACAD_REACTORS
330
3958
102
}
330
3958
100
AcDbXrecord
280
     1
102
RTVSPropertyOp0
 70
     1
102
RTVSPropertyOp1
 70
     1
102
RTVSPropertyOp2
 70
     1
102
RTVSPropertyOp3
 70
     1
102
RTVSPropertyOp4
 70
     1
102
RTVSPropertyOp5
 70
     1
102
RTVSPropertyOp6
 70
     1
102
RTVSPropertyOp7
 70
     1
102
RTVSPropertyOp8
 70
     1
102
RTVSPropertyOp9
 70
     1
102
RTVSPropertyOp10
 70
     1
102
RTVSPropertyOp11
 70
     1
102
RTVSPropertyOp12
 70
     1
102
RTVSPropertyOp13
 70
     1
102
RTVSPropertyOp14
 70
     1
102
RTVSPropertyOp15
 70
     1
102
RTVSPropertyOp16
 70
     1
102
RTVSPropertyOp17
 70
     1
102
RTVSPropertyOp18
 70
     1
102
RTVSPropertyOp19
 70
     1
102
RTVSPropertyOp20
 70
     1
102
RTVSPropertyOp21
 70
     1
102
RTVSPropertyOp22
 70
     1
102
RTVSPropertyOp23
 70
     1
102
RTVSPropertyOp24
 70
     1
102
RTVSPropertyOp25
 70
     1
102
RTVSPropertyOp26
 70
     1
102
RTVSPropertyOp27
 70
     1
  0
XRECORD
  5
395B
102
{ACAD_REACTORS
330
395A
102
}
330
395A
100
AcDbXrecord
280
     1
102
RTVSPropertyOp0
 70
     1
102
RTVSPropertyOp1
 70
     1
102
RTVSPropertyOp2
 70
     1
102
RTVSPropertyOp3
 70
     1
102
RTVSPropertyOp4
 70
     1
102
RTVSPropertyOp5
 70
     1
102
RTVSPropertyOp6
 70
     1
102
RTVSPropertyOp7
 70
     1
102
RTVSPropertyOp8
 70
     1
102
RTVSPropertyOp9
 70
     1
102
RTVSPropertyOp10
 70
     1
102
RTVSPropertyOp11
 70
     1
102
RTVSPropertyOp12
 70
     1
102
RTVSPropertyOp13
 70
     1
102
RTVSPropertyOp14
 70
     1
102
RTVSPropertyOp15
 70
     1
102
RTVSPropertyOp16
 70
     1
102
RTVSPropertyOp17
 70
     1
102
RTVSPropertyOp18
 70
     1
102
RTVSPropertyOp19
 70
     1
102
RTVSPropertyOp20
 70
     1
102
RTVSPropertyOp21
 70
     1
102
RTVSPropertyOp22
 70
     1
102
RTVSPropertyOp23
 70
     1
102
RTVSPropertyOp24
 70
     1
102
RTVSPropertyOp25
 70
     1
102
RTVSPropertyOp26
 70
     1
102
RTVSPropertyOp27
 70
     1
  0
XRECORD
  5
395D
102
{ACAD_REACTORS
330
395C
102
}
330
395C
100
AcDbXrecord
280
     1
102
RTVSPropertyOp0
 70
     1
102
RTVSPropertyOp1
 70
     1
102
RTVSPropertyOp2
 70
     1
102
RTVSPropertyOp3
 70
     1
102
RTVSPropertyOp4
 70
     1
102
RTVSPropertyOp5
 70
     1
102
RTVSPropertyOp6
 70
     1
102
RTVSPropertyOp7
 70
     1
102
RTVSPropertyOp8
 70
     1
102
RTVSPropertyOp9
 70
     1
102
RTVSPropertyOp10
 70
     1
102
RTVSPropertyOp11
 70
     1
102
RTVSPropertyOp12
 70
     1
102
RTVSPropertyOp13
 70
     1
102
RTVSPropertyOp14
 70
     1
102
RTVSPropertyOp15
 70
     1
102
RTVSPropertyOp16
 70
     1
102
RTVSPropertyOp17
 70
     1
102
RTVSPropertyOp18
 70
     1
102
RTVSPropertyOp19
 70
     1
102
RTVSPropertyOp20
 70
     1
102
RTVSPropertyOp21
 70
     1
102
RTVSPropertyOp22
 70
     1
102
RTVSPropertyOp23
 70
     1
102
RTVSPropertyOp24
 70
     1
102
RTVSPropertyOp25
 70
     1
102
RTVSPropertyOp26
 70
     1
102
RTVSPropertyOp27
 70
     1
  0
XRECORD
  5
395F
102
{ACAD_REACTORS
330
395E
102
}
330
395E
100
AcDbXrecord
280
     1
102
RTVSPropertyOp0
 70
     1
102
RTVSPropertyOp1
 70
     1
102
RTVSPropertyOp2
 70
     1
102
RTVSPropertyOp3
 70
     1
102
RTVSPropertyOp4
 70
     1
102
RTVSPropertyOp5
 70
     1
102
RTVSPropertyOp6
 70
     1
102
RTVSPropertyOp7
 70
     1
102
RTVSPropertyOp8
 70
     1
102
RTVSPropertyOp9
 70
     1
102
RTVSPropertyOp10
 70
     1
102
RTVSPropertyOp11
 70
     1
102
RTVSPropertyOp12
 70
     1
102
RTVSPropertyOp13
 70
     1
102
RTVSPropertyOp14
 70
     1
102
RTVSPropertyOp15
 70
     1
102
RTVSPropertyOp16
 70
     1
102
RTVSPropertyOp17
 70
     1
102
RTVSPropertyOp18
 70
     1
102
RTVSPropertyOp19
 70
     1
102
RTVSPropertyOp20
 70
     1
102
RTVSPropertyOp21
 70
     1
102
RTVSPropertyOp22
 70
     1
102
RTVSPropertyOp23
 70
     1
102
RTVSPropertyOp24
 70
     1
102
RTVSPropertyOp25
 70
     1
102
RTVSPropertyOp26
 70
     1
102
RTVSPropertyOp27
 70
     1
  0
XRECORD
  5
3961
102
{ACAD_REACTORS
330
3960
102
}
330
3960
100
AcDbXrecord
280
     1
102
RTVSPropertyOp0
 70
     1
102
RTVSPropertyOp1
 70
     1
102
RTVSPropertyOp2
 70
     1
102
RTVSPropertyOp3
 70
     1
102
RTVSPropertyOp4
 70
     1
102
RTVSPropertyOp5
 70
     1
102
RTVSPropertyOp6
 70
     1
102
RTVSPropertyOp7
 70
     1
102
RTVSPropertyOp8
 70
     1
102
RTVSPropertyOp9
 70
     1
102
RTVSPropertyOp10
 70
     1
102
RTVSPropertyOp11
 70
     1
102
RTVSPropertyOp12
 70
     1
102
RTVSPropertyOp13
 70
     1
102
RTVSPropertyOp14
 70
     1
102
RTVSPropertyOp15
 70
     1
102
RTVSPropertyOp16
 70
     1
102
RTVSPropertyOp17
 70
     1
102
RTVSPropertyOp18
 70
     1
102
RTVSPropertyOp19
 70
     1
102
RTVSPropertyOp20
 70
     1
102
RTVSPropertyOp21
 70
     1
102
RTVSPropertyOp22
 70
     1
102
RTVSPropertyOp23
 70
     1
102
RTVSPropertyOp24
 70
     1
102
RTVSPropertyOp25
 70
     1
102
RTVSPropertyOp26
 70
     1
102
RTVSPropertyOp27
 70
     1
  0
XRECORD
  5
3963
102
{ACAD_REACTORS
330
3962
102
}
330
3962
100
AcDbXrecord
280
     1
102
RTVSPropertyOp0
 70
     1
102
RTVSPropertyOp1
 70
     1
102
RTVSPropertyOp2
 70
     1
102
RTVSPropertyOp3
 70
     1
102
RTVSPropertyOp4
 70
     1
102
RTVSPropertyOp5
 70
     1
102
RTVSPropertyOp6
 70
     1
102
RTVSPropertyOp7
 70
     1
102
RTVSPropertyOp8
 70
     1
102
RTVSPropertyOp9
 70
     1
102
RTVSPropertyOp10
 70
     1
102
RTVSPropertyOp11
 70
     1
102
RTVSPropertyOp12
 70
     1
102
RTVSPropertyOp13
 70
     1
102
RTVSPropertyOp14
 70
     1
102
RTVSPropertyOp15
 70
     1
102
RTVSPropertyOp16
 70
     1
102
RTVSPropertyOp17
 70
     1
102
RTVSPropertyOp18
 70
     1
102
RTVSPropertyOp19
 70
     1
102
RTVSPropertyOp20
 70
     1
102
RTVSPropertyOp21
 70
     1
102
RTVSPropertyOp22
 70
     1
102
RTVSPropertyOp23
 70
     1
102
RTVSPropertyOp24
 70
     1
102
RTVSPropertyOp25
 70
     1
102
RTVSPropertyOp26
 70
     1
102
RTVSPropertyOp27
 70
     1
  0
XRECORD
  5
3965
102
{ACAD_REACTORS
330
3964
102
}
330
3964
100
AcDbXrecord
280
     1
102
RTVSPropertyOp0
 70
     1
102
RTVSPropertyOp1
 70
     1
102
RTVSPropertyOp2
 70
     1
102
RTVSPropertyOp3
 70
     1
102
RTVSPropertyOp4
 70
     1
102
RTVSPropertyOp5
 70
     1
102
RTVSPropertyOp6
 70
     1
102
RTVSPropertyOp7
 70
     1
102
RTVSPropertyOp8
 70
     1
102
RTVSPropertyOp9
 70
     1
102
RTVSPropertyOp10
 70
     1
102
RTVSPropertyOp11
 70
     1
102
RTVSPropertyOp12
 70
     1
102
RTVSPropertyOp13
 70
     1
102
RTVSPropertyOp14
 70
     1
102
RTVSPropertyOp15
 70
     1
102
RTVSPropertyOp16
 70
     1
102
RTVSPropertyOp17
 70
     1
102
RTVSPropertyOp18
 70
     1
102
RTVSPropertyOp19
 70
     1
102
RTVSPropertyOp20
 70
     1
102
RTVSPropertyOp21
 70
     1
102
RTVSPropertyOp22
 70
     1
102
RTVSPropertyOp23
 70
     1
102
RTVSPropertyOp24
 70
     1
102
RTVSPropertyOp25
 70
     1
102
RTVSPropertyOp26
 70
     1
102
RTVSPropertyOp27
 70
     1
  0
XRECORD
  5
3967
102
{ACAD_REACTORS
330
3966
102
}
330
3966
100
AcDbXrecord
280
     1
102
RTVSPropertyOp0
 70
     1
102
RTVSPropertyOp1
 70
     1
102
RTVSPropertyOp2
 70
     1
102
RTVSPropertyOp3
 70
     1
102
RTVSPropertyOp4
 70
     1
102
RTVSPropertyOp5
 70
     1
102
RTVSPropertyOp6
 70
     1
102
RTVSPropertyOp7
 70
     1
102
RTVSPropertyOp8
 70
     1
102
RTVSPropertyOp9
 70
     1
102
RTVSPropertyOp10
 70
     1
102
RTVSPropertyOp11
 70
     1
102
RTVSPropertyOp12
 70
     1
102
RTVSPropertyOp13
 70
     1
102
RTVSPropertyOp14
 70
     1
102
RTVSPropertyOp15
 70
     1
102
RTVSPropertyOp16
 70
     1
102
RTVSPropertyOp17
 70
     1
102
RTVSPropertyOp18
 70
     1
102
RTVSPropertyOp19
 70
     1
102
RTVSPropertyOp20
 70
     1
102
RTVSPropertyOp21
 70
     1
102
RTVSPropertyOp22
 70
     1
102
RTVSPropertyOp23
 70
     1
102
RTVSPropertyOp24
 70
     1
102
RTVSPropertyOp25
 70
     1
102
RTVSPropertyOp26
 70
     1
102
RTVSPropertyOp27
 70
     1
  0
XRECORD
  5
3969
102
{ACAD_REACTORS
330
3968
102
}
330
3968
100
AcDbXrecord
280
     1
102
RTVSPropertyOp0
 70
     1
102
RTVSPropertyOp1
 70
     1
102
RTVSPropertyOp2
 70
     1
102
RTVSPropertyOp3
 70
     1
102
RTVSPropertyOp4
 70
     1
102
RTVSPropertyOp5
 70
     1
102
RTVSPropertyOp6
 70
     1
102
RTVSPropertyOp7
 70
     1
102
RTVSPropertyOp8
 70
     1
102
RTVSPropertyOp9
 70
     1
102
RTVSPropertyOp10
 70
     1
102
RTVSPropertyOp11
 70
     1
102
RTVSPropertyOp12
 70
     1
102
RTVSPropertyOp13
 70
     1
102
RTVSPropertyOp14
 70
     1
102
RTVSPropertyOp15
 70
     1
102
RTVSPropertyOp16
 70
     1
102
RTVSPropertyOp17
 70
     1
102
RTVSPropertyOp18
 70
     1
102
RTVSPropertyOp19
 70
     1
102
RTVSPropertyOp20
 70
     1
102
RTVSPropertyOp21
 70
     1
102
RTVSPropertyOp22
 70
     1
102
RTVSPropertyOp23
 70
     1
102
RTVSPropertyOp24
 70
     1
102
RTVSPropertyOp25
 70
     1
102
RTVSPropertyOp26
 70
     1
102
RTVSPropertyOp27
 70
     1
  0
XRECORD
  5
396B
102
{ACAD_REACTORS
330
396A
102
}
330
396A
100
AcDbXrecord
280
     1
102
RTVSPropertyOp0
 70
     1
102
RTVSPropertyOp1
 70
     1
102
RTVSPropertyOp2
 70
     1
102
RTVSPropertyOp3
 70
     1
102
RTVSPropertyOp4
 70
     1
102
RTVSPropertyOp5
 70
     1
102
RTVSPropertyOp6
 70
     1
102
RTVSPropertyOp7
 70
     1
102
RTVSPropertyOp8
 70
     1
102
RTVSPropertyOp9
 70
     1
102
RTVSPropertyOp10
 70
     1
102
RTVSPropertyOp11
 70
     1
102
RTVSPropertyOp12
 70
     1
102
RTVSPropertyOp13
 70
     1
102
RTVSPropertyOp14
 70
     1
102
RTVSPropertyOp15
 70
     1
102
RTVSPropertyOp16
 70
     1
102
RTVSPropertyOp17
 70
     1
102
RTVSPropertyOp18
 70
     1
102
RTVSPropertyOp19
 70
     1
102
RTVSPropertyOp20
 70
     1
102
RTVSPropertyOp21
 70
     1
102
RTVSPropertyOp22
 70
     1
102
RTVSPropertyOp23
 70
     1
102
RTVSPropertyOp24
 70
     1
102
RTVSPropertyOp25
 70
     1
102
RTVSPropertyOp26
 70
     1
102
RTVSPropertyOp27
 70
     1
  0
XRECORD
  5
396D
102
{ACAD_REACTORS
330
396C
102
}
330
396C
100
AcDbXrecord
280
     1
102
RTVSPropertyOp0
 70
     1
102
RTVSPropertyOp1
 70
     1
102
RTVSPropertyOp2
 70
     1
102
RTVSPropertyOp3
 70
     1
102
RTVSPropertyOp4
 70
     1
102
RTVSPropertyOp5
 70
     1
102
RTVSPropertyOp6
 70
     1
102
RTVSPropertyOp7
 70
     1
102
RTVSPropertyOp8
 70
     1
102
RTVSPropertyOp9
 70
     1
102
RTVSPropertyOp10
 70
     1
102
RTVSPropertyOp11
 70
     1
102
RTVSPropertyOp12
 70
     1
102
RTVSPropertyOp13
 70
     1
102
RTVSPropertyOp14
 70
     1
102
RTVSPropertyOp15
 70
     1
102
RTVSPropertyOp16
 70
     1
102
RTVSPropertyOp17
 70
     1
102
RTVSPropertyOp18
 70
     1
102
RTVSPropertyOp19
 70
     1
102
RTVSPropertyOp20
 70
     1
102
RTVSPropertyOp21
 70
     1
102
RTVSPropertyOp22
 70
     1
102
RTVSPropertyOp23
 70
     1
102
RTVSPropertyOp24
 70
     1
102
RTVSPropertyOp25
 70
     1
102
RTVSPropertyOp26
 70
     1
102
RTVSPropertyOp27
 70
     1
  0
XRECORD
  5
396F
102
{ACAD_REACTORS
330
396E
102
}
330
396E
100
AcDbXrecord
280
     1
102
RTVSPropertyOp0
 70
     1
102
RTVSPropertyOp1
 70
     1
102
RTVSPropertyOp2
 70
     1
102
RTVSPropertyOp3
 70
     1
102
RTVSPropertyOp4
 70
     1
102
RTVSPropertyOp5
 70
     1
102
RTVSPropertyOp6
 70
     1
102
RTVSPropertyOp7
 70
     1
102
RTVSPropertyOp8
 70
     1
102
RTVSPropertyOp9
 70
     1
102
RTVSPropertyOp10
 70
     1
102
RTVSPropertyOp11
 70
     1
102
RTVSPropertyOp12
 70
     1
102
RTVSPropertyOp13
 70
     1
102
RTVSPropertyOp14
 70
     1
102
RTVSPropertyOp15
 70
     1
102
RTVSPropertyOp16
 70
     1
102
RTVSPropertyOp17
 70
     1
102
RTVSPropertyOp18
 70
     1
102
RTVSPropertyOp19
 70
     1
102
RTVSPropertyOp20
 70
     1
102
RTVSPropertyOp21
 70
     1
102
RTVSPropertyOp22
 70
     1
102
RTVSPropertyOp23
 70
     1
102
RTVSPropertyOp24
 70
     1
102
RTVSPropertyOp25
 70
     1
102
RTVSPropertyOp26
 70
     1
102
RTVSPropertyOp27
 70
     1
  0
XRECORD
  5
3971
102
{ACAD_REACTORS
330
3970
102
}
330
3970
100
AcDbXrecord
280
     1
102
RTVSPropertyOp0
 70
     1
102
RTVSPropertyOp1
 70
     1
102
RTVSPropertyOp2
 70
     1
102
RTVSPropertyOp3
 70
     1
102
RTVSPropertyOp4
 70
     1
102
RTVSPropertyOp5
 70
     1
102
RTVSPropertyOp6
 70
     1
102
RTVSPropertyOp7
 70
     1
102
RTVSPropertyOp8
 70
     1
102
RTVSPropertyOp9
 70
     1
102
RTVSPropertyOp10
 70
     1
102
RTVSPropertyOp11
 70
     1
102
RTVSPropertyOp12
 70
     1
102
RTVSPropertyOp13
 70
     1
102
RTVSPropertyOp14
 70
     1
102
RTVSPropertyOp15
 70
     1
102
RTVSPropertyOp16
 70
     1
102
RTVSPropertyOp17
 70
     1
102
RTVSPropertyOp18
 70
     1
102
RTVSPropertyOp19
 70
     1
102
RTVSPropertyOp20
 70
     1
102
RTVSPropertyOp21
 70
     1
102
RTVSPropertyOp22
 70
     1
102
RTVSPropertyOp23
 70
     1
102
RTVSPropertyOp24
 70
     1
102
RTVSPropertyOp25
 70
     1
102
RTVSPropertyOp26
 70
     1
102
RTVSPropertyOp27
 70
     1
  0
XRECORD
  5
3973
102
{ACAD_REACTORS
330
3972
102
}
330
3972
100
AcDbXrecord
280
     1
102
RTVSPropertyOp0
 70
     1
102
RTVSPropertyOp1
 70
     1
102
RTVSPropertyOp2
 70
     1
102
RTVSPropertyOp3
 70
     1
102
RTVSPropertyOp4
 70
     1
102
RTVSPropertyOp5
 70
     1
102
RTVSPropertyOp6
 70
     1
102
RTVSPropertyOp7
 70
     1
102
RTVSPropertyOp8
 70
     1
102
RTVSPropertyOp9
 70
     1
102
RTVSPropertyOp10
 70
     1
102
RTVSPropertyOp11
 70
     1
102
RTVSPropertyOp12
 70
     1
102
RTVSPropertyOp13
 70
     1
102
RTVSPropertyOp14
 70
     1
102
RTVSPropertyOp15
 70
     1
102
RTVSPropertyOp16
 70
     1
102
RTVSPropertyOp17
 70
     1
102
RTVSPropertyOp18
 70
     1
102
RTVSPropertyOp19
 70
     1
102
RTVSPropertyOp20
 70
     1
102
RTVSPropertyOp21
 70
     1
102
RTVSPropertyOp22
 70
     1
102
RTVSPropertyOp23
 70
     1
102
RTVSPropertyOp24
 70
     1
102
RTVSPropertyOp25
 70
     1
102
RTVSPropertyOp26
 70
     1
102
RTVSPropertyOp27
 70
     1
  0
XRECORD
  5
3975
102
{ACAD_REACTORS
330
3974
102
}
330
3974
100
AcDbXrecord
280
     1
102
RTVSPropertyOp0
 70
     1
102
RTVSPropertyOp1
 70
     1
102
RTVSPropertyOp2
 70
     1
102
RTVSPropertyOp3
 70
     1
102
RTVSPropertyOp4
 70
     1
102
RTVSPropertyOp5
 70
     1
102
RTVSPropertyOp6
 70
     1
102
RTVSPropertyOp7
 70
     1
102
RTVSPropertyOp8
 70
     1
102
RTVSPropertyOp9
 70
     1
102
RTVSPropertyOp10
 70
     1
102
RTVSPropertyOp11
 70
     1
102
RTVSPropertyOp12
 70
     1
102
RTVSPropertyOp13
 70
     1
102
RTVSPropertyOp14
 70
     1
102
RTVSPropertyOp15
 70
     1
102
RTVSPropertyOp16
 70
     1
102
RTVSPropertyOp17
 70
     1
102
RTVSPropertyOp18
 70
     1
102
RTVSPropertyOp19
 70
     1
102
RTVSPropertyOp20
 70
     1
102
RTVSPropertyOp21
 70
     1
102
RTVSPropertyOp22
 70
     1
102
RTVSPropertyOp23
 70
     1
102
RTVSPropertyOp24
 70
     1
102
RTVSPropertyOp25
 70
     1
102
RTVSPropertyOp26
 70
     1
102
RTVSPropertyOp27
 70
     1
  0
XRECORD
  5
3977
102
{ACAD_REACTORS
330
3976
102
}
330
3976
100
AcDbXrecord
280
     1
102
RTVSPropertyOp0
 70
     1
102
RTVSPropertyOp1
 70
     1
102
RTVSPropertyOp2
 70
     1
102
RTVSPropertyOp3
 70
     1
102
RTVSPropertyOp4
 70
     1
102
RTVSPropertyOp5
 70
     1
102
RTVSPropertyOp6
 70
     1
102
RTVSPropertyOp7
 70
     1
102
RTVSPropertyOp8
 70
     1
102
RTVSPropertyOp9
 70
     1
102
RTVSPropertyOp10
 70
     1
102
RTVSPropertyOp11
 70
     1
102
RTVSPropertyOp12
 70
     1
102
RTVSPropertyOp13
 70
     1
102
RTVSPropertyOp14
 70
     1
102
RTVSPropertyOp15
 70
     1
102
RTVSPropertyOp16
 70
     1
102
RTVSPropertyOp17
 70
     1
102
RTVSPropertyOp18
 70
     1
102
RTVSPropertyOp19
 70
     1
102
RTVSPropertyOp20
 70
     1
102
RTVSPropertyOp21
 70
     1
102
RTVSPropertyOp22
 70
     1
102
RTVSPropertyOp23
 70
     1
102
RTVSPropertyOp24
 70
     1
102
RTVSPropertyOp25
 70
     1
102
RTVSPropertyOp26
 70
     1
102
RTVSPropertyOp27
 70
     1
  0
XRECORD
  5
3979
102
{ACAD_REACTORS
330
3978
102
}
330
3978
100
AcDbXrecord
280
     1
102
RTVSPropertyOp0
 70
     1
102
RTVSPropertyOp1
 70
     1
102
RTVSPropertyOp2
 70
     1
102
RTVSPropertyOp3
 70
     1
102
RTVSPropertyOp4
 70
     1
102
RTVSPropertyOp5
 70
     1
102
RTVSPropertyOp6
 70
     1
102
RTVSPropertyOp7
 70
     1
102
RTVSPropertyOp8
 70
     1
102
RTVSPropertyOp9
 70
     1
102
RTVSPropertyOp10
 70
     1
102
RTVSPropertyOp11
 70
     1
102
RTVSPropertyOp12
 70
     1
102
RTVSPropertyOp13
 70
     1
102
RTVSPropertyOp14
 70
     1
102
RTVSPropertyOp15
 70
     1
102
RTVSPropertyOp16
 70
     1
102
RTVSPropertyOp17
 70
     1
102
RTVSPropertyOp18
 70
     1
102
RTVSPropertyOp19
 70
     1
102
RTVSPropertyOp20
 70
     1
102
RTVSPropertyOp21
 70
     1
102
RTVSPropertyOp22
 70
     1
102
RTVSPropertyOp23
 70
     1
102
RTVSPropertyOp24
 70
     1
102
RTVSPropertyOp25
 70
     1
102
RTVSPropertyOp26
 70
     1
102
RTVSPropertyOp27
 70
     1
  0
ENDSEC
  0
EOF
