  0
SECTION
  2
HEADER
  9
$ACADVER
  1
AC1018
  9
$ACADMAINTVER
 70
     0
  9
$DWGCODEPAGE
  3
ANSI_932
  9
$LASTSAVEDBY
  1
shinwa
  9
$INSBASE
 10
0.0
 20
0.0
 30
0.0
  9
$EXTMIN
 10
240.0
 20
0.0
 30
0.0
  9
$EXTMAX
 10
5985.0
 20
4155.0
 30
0.0
  9
$LIMMIN
 10
0.0
 20
0.0
  9
$LIMMAX
 10
6300.0
 20
4455.0
  9
$ORTHOMODE
 70
     1
  9
$REGENMODE
 70
     1
  9
$FILLMODE
 70
     1
  9
$QTEXTMODE
 70
     0
  9
$MIRRTEXT
 70
     1
  9
$LTSCALE
 40
150.0
  9
$ATTMODE
 70
     1
  9
$TEXTSIZE
 40
45.0
  9
$TRACEWID
 40
0.05
  9
$TEXTSTYLE
  7
STANDARD
  9
$CLAYER
  8
SUNPOU
  9
$CELTYPE
  6
BYLAYER
  9
$CECOLOR
 62
   256
  9
$CELTSCALE
 40
1.0
  9
$DISPSILH
 70
     0
  9
$DIMSCALE
 40
15.0
  9
$DIMASZ
 40
2.0
  9
$DIMEXO
 40
2.0
  9
$DIMDLI
 40
7.0
  9
$DIMRND
 40
0.0
  9
$DIMDLE
 40
0.0
  9
$DIMEXE
 40
0.5
  9
$DIMTP
 40
0.0
  9
$DIMTM
 40
0.0
  9
$DIMTXT
 40
3.0
  9
$DIMCEN
 40
0.0
  9
$DIMTSZ
 40
0.0
  9
$DIMTOL
 70
     0
  9
$DIMLIM
 70
     0
  9
$DIMTIH
 70
     0
  9
$DIMTOH
 70
     0
  9
$DIMSE1
 70
     0
  9
$DIMSE2
 70
     0
  9
$DIMTAD
 70
     1
  9
$DIMZIN
 70
     8
  9
$DIMBLK
  1

  9
$DIMASO
 70
     1
  9
$DIMSHO
 70
     1
  9
$DIMPOST
  1

  9
$DIMAPOST
  1

  9
$DIMALT
 70
     0
  9
$DIMALTD
 70
     2
  9
$DIMALTF
 40
25.4
  9
$DIMLFAC
 40
1.0
  9
$DIMTOFL
 70
     0
  9
$DIMTVP
 40
1.0
  9
$DIMTIX
 70
     1
  9
$DIMSOXD
 70
     0
  9
$DIMSAH
 70
     0
  9
$DIMBLK1
  1

  9
$DIMBLK2
  1

  9
$DIMSTYLE
  2
A3-15
  9
$DIMCLRD
 70
     0
  9
$DIMCLRE
 70
     0
  9
$DIMCLRT
 70
     0
  9
$DIMTFAC
 40
1.0
  9
$DIMGAP
 40
0.8
  9
$DIMJUST
 70
     0
  9
$DIMSD1
 70
     0
  9
$DIMSD2
 70
     0
  9
$DIMTOLJ
 70
     1
  9
$DIMTZIN
 70
     8
  9
$DIMALTZ
 70
     8
  9
$DIMALTTZ
 70
     8
  9
$DIMUPT
 70
     0
  9
$DIMDEC
 70
     0
  9
$DIMTDEC
 70
     0
  9
$DIMALTU
 70
     2
  9
$DIMALTTD
 70
     2
  9
$DIMTXSTY
  7
STANDARD
  9
$DIMAUNIT
 70
     0
  9
$DIMADEC
 70
     4
  9
$DIMALTRND
 40
0.0
  9
$DIMAZIN
 70
     0
  9
$DIMDSEP
 70
    46
  9
$DIMATFIT
 70
     3
  9
$DIMFRAC
 70
     0
  9
$DIMLDRBLK
  1

  9
$DIMLUNIT
 70
     2
  9
$DIMLWD
 70
    -2
  9
$DIMLWE
 70
    -2
  9
$DIMTMOVE
 70
     2
  9
$LUNITS
 70
     2
  9
$LUPREC
 70
     4
  9
$SKETCHINC
 40
0.1
  9
$FILLETRAD
 40
40.0
  9
$AUNITS
 70
     0
  9
$AUPREC
 70
     6
  9
$MENU
  1
acad
  9
$ELEVATION
 40
0.0
  9
$PELEVATION
 40
0.0
  9
$THICKNESS
 40
0.0
  9
$LIMCHECK
 70
     0
  9
$CHAMFERA
 40
0.0
  9
$CHAMFERB
 40
0.0
  9
$CHAMFERC
 40
0.0
  9
$CHAMFERD
 40
0.0
  9
$SKPOLY
 70
     0
  9
$TDCREATE
 40
2450014.655173611
  9
$TDUCREATE
 40
2450014.280173611
  9
$TDUPDATE
 40
2458001.635288785
  9
$TDUUPDATE
 40
2458001.260288785
  9
$TDINDWG
 40
0.014063206
  9
$TDUSRTIMER
 40
0.014063206
  9
$USRTIMER
 70
     1
  9
$ANGBASE
 50
0.0
  9
$ANGDIR
 70
     0
  9
$PDMODE
 70
     0
  9
$PDSIZE
 40
0.0
  9
$PLINEWID
 40
0.0
  9
$SPLFRAME
 70
     0
  9
$SPLINETYPE
 70
     6
  9
$SPLINESEGS
 70
     8
  9
$HANDSEED
  5
F2A
  9
$SURFTAB1
 70
     6
  9
$SURFTAB2
 70
     6
  9
$SURFTYPE
 70
     6
  9
$SURFU
 70
     6
  9
$SURFV
 70
     6
  9
$UCSBASE
  2

  9
$UCSNAME
  2

  9
$UCSORG
 10
0.0
 20
0.0
 30
0.0
  9
$UCSXDIR
 10
1.0
 20
0.0
 30
0.0
  9
$UCSYDIR
 10
0.0
 20
1.0
 30
0.0
  9
$UCSORTHOREF
  2

  9
$UCSORTHOVIEW
 70
     0
  9
$UCSORGTOP
 10
0.0
 20
0.0
 30
0.0
  9
$UCSORGBOTTOM
 10
0.0
 20
0.0
 30
0.0
  9
$UCSORGLEFT
 10
0.0
 20
0.0
 30
0.0
  9
$UCSORGRIGHT
 10
0.0
 20
0.0
 30
0.0
  9
$UCSORGFRONT
 10
0.0
 20
0.0
 30
0.0
  9
$UCSORGBACK
 10
0.0
 20
0.0
 30
0.0
  9
$PUCSBASE
  2

  9
$PUCSNAME
  2

  9
$PUCSORG
 10
0.0
 20
0.0
 30
0.0
  9
$PUCSXDIR
 10
1.0
 20
0.0
 30
0.0
  9
$PUCSYDIR
 10
0.0
 20
1.0
 30
0.0
  9
$PUCSORTHOREF
  2

  9
$PUCSORTHOVIEW
 70
     0
  9
$PUCSORGTOP
 10
0.0
 20
0.0
 30
0.0
  9
$PUCSORGBOTTOM
 10
0.0
 20
0.0
 30
0.0
  9
$PUCSORGLEFT
 10
0.0
 20
0.0
 30
0.0
  9
$PUCSORGRIGHT
 10
0.0
 20
0.0
 30
0.0
  9
$PUCSORGFRONT
 10
0.0
 20
0.0
 30
0.0
  9
$PUCSORGBACK
 10
0.0
 20
0.0
 30
0.0
  9
$USERI1
 70
     0
  9
$USERI2
 70
     0
  9
$USERI3
 70
     0
  9
$USERI4
 70
     0
  9
$USERI5
 70
     0
  9
$USERR1
 40
0.0
  9
$USERR2
 40
0.0
  9
$USERR3
 40
0.0
  9
$USERR4
 40
0.0
  9
$USERR5
 40
0.0
  9
$WORLDVIEW
 70
     1
  9
$SHADEDGE
 70
     3
  9
$SHADEDIF
 70
    70
  9
$TILEMODE
 70
     1
  9
$MAXACTVP
 70
    48
  9
$PINSBASE
 10
0.0
 20
0.0
 30
0.0
  9
$PLIMCHECK
 70
     0
  9
$PEXTMIN
 10
1.000000000000000E+20
 20
1.000000000000000E+20
 30
1.000000000000000E+20
  9
$PEXTMAX
 10
-1.000000000000000E+20
 20
-1.000000000000000E+20
 30
-1.000000000000000E+20
  9
$PLIMMIN
 10
0.0
 20
0.0
  9
$PLIMMAX
 10
12.0
 20
9.0
  9
$UNITMODE
 70
     0
  9
$VISRETAIN
 70
     0
  9
$PLINEGEN
 70
     0
  9
$PSLTSCALE
 70
     0
  9
$TREEDEPTH
 70
  3020
  9
$CMLSTYLE
  2
STANDARD
  9
$CMLJUST
 70
     0
  9
$CMLSCALE
 40
1.0
  9
$PROXYGRAPHICS
 70
     1
  9
$MEASUREMENT
 70
     0
  9
$CELWEIGHT
370
    -1
  9
$ENDCAPS
280
     0
  9
$JOINSTYLE
280
     0
  9
$LWDISPLAY
290
     0
  9
$INSUNITS
 70
     0
  9
$HYPERLINKBASE
  1

  9
$STYLESHEET
  1

  9
$XEDIT
290
     1
  9
$CEPSNTYPE
380
     0
  9
$PSTYLEMODE
290
     1
  9
$FINGERPRINTGUID
  2
{5CE31C3E-7111-11D8-A1CD-0050FC45377D}
  9
$VERSIONGUID
  2
{4EE268C2-42D5-4299-903B-56E658F1F3FB}
  9
$EXTNAMES
290
     1
  9
$PSVPSCALE
 40
0.0
  9
$OLESTARTUP
290
     0
  9
$SORTENTS
280
   127
  9
$INDEXCTL
280
     0
  9
$HIDETEXT
280
     0
  9
$XCLIPFRAME
290
     0
  9
$HALOGAP
280
     0
  9
$OBSCOLOR
 70
   257
  9
$OBSLTYPE
280
     0
  9
$INTERSECTIONDISPLAY
280
     0
  9
$INTERSECTIONCOLOR
 70
   257
  9
$DIMASSOC
280
     1
  9
$PROJECTNAME
  1

  0
ENDSEC
  0
SECTION
  2
CLASSES
  0
CLASS
  1
ACDBDICTIONARYWDFLT
  2
AcDbDictionaryWithDefault
  3
ObjectDBX Classes
 90
        0
 91
        4
280
     0
281
     0
  0
CLASS
  1
ACDBPLACEHOLDER
  2
AcDbPlaceHolder
  3
ObjectDBX Classes
 90
        0
 91
        1
280
     0
281
     0
  0
CLASS
  1
LAYOUT
  2
AcDbLayout
  3
ObjectDBX Classes
 90
        0
 91
        1
280
     0
281
     0
  0
CLASS
  1
DICTIONARYVAR
  2
AcDbDictionaryVar
  3
ObjectDBX Classes
 90
        0
 91
        4
280
     0
281
     0
  0
CLASS
  1
DUMMY
  2
AcDbLongTransaction
  3
DUMMY
 90
        0
 91
        1
280
     0
281
     0
  0
CLASS
  1
LWPOLYLINE
  2
AcDbPolyline
  3
AutoCAD 2000
 90
        0
 91
        1
280
     0
281
     1
  0
CLASS
  1
HATCH
  2
AcDbHatch
  3
AutoCAD 2000
 90
        0
 91
        1
280
     0
281
     1
  0
CLASS
  1
XRECORD
  2
AcDbXrecord
  3
AutoCAD 2000
 90
        0
 91
        1
280
     0
281
     0
  0
CLASS
  1
TABLESTYLE
  2
AcDbTableStyle
  3
ObjectDBX Classes
 90
     4095
 91
        4
280
     0
281
     0
  0
CLASS
  1
SORTENTSTABLE
  2
AcDbSortentsTable
  3
ObjectDBX Classes
 90
        0
 91
        4
280
     0
281
     0
  0
CLASS
  1
MATERIAL
  2
AcDbMaterial
  3
ObjectDBX Classes
 90
     1153
 91
        4
280
     0
281
     0
  0
CLASS
  1
VISUALSTYLE
  2
AcDbVisualStyle
  3
ObjectDBX Classes
 90
     4095
 91
        4
280
     0
281
     0
  0
CLASS
  1
SCALE
  2
AcDbScale
  3
ObjectDBX Classes
 90
     1153
 91
        4
280
     0
281
     0
  0
CLASS
  1
MLEADERSTYLE
  2
AcDbMLeaderStyle
  3
ACDB_MLEADERSTYLE_CLASS
 90
     4095
 91
        4
280
     0
281
     0
  0
CLASS
  1
ACDBSECTIONVIEWSTYLE
  2
AcDbSectionViewStyle
  3
ObjectDBX Classes
 90
     1025
 91
        2
280
     1
281
     0
  0
CLASS
  1
ACDBDETAILVIEWSTYLE
  2
AcDbDetailViewStyle
  3
ObjectDBX Classes
 90
     1025
 91
        2
280
     1
281
     0
  0
CLASS
  1
CELLSTYLEMAP
  2
AcDbCellStyleMap
  3
ObjectDBX Classes
 90
     1152
 91
        4
280
     0
281
     0
  0
ENDSEC
  0
SECTION
  2
TABLES
  0
TABLE
  2
VPORT
  5
8
102
{ACAD_XDICTIONARY
360
EEE
102
}
330
0
100
AcDbSymbolTable
 70
     1
  0
VPORT
  5
E44
330
8
100
AcDbSymbolTableRecord
100
AcDbViewportTableRecord
  2
*Active
 70
     0
 10
0.0
 20
0.0
 11
1.0
 21
1.0
 12
2902.247995991343
 22
2898.6633985778
 13
0.0
 23
0.0
 14
15.0
 24
15.0
 15
150.0
 25
150.0
 16
0.0
 26
0.0
 36
1.0
 17
0.0
 27
0.0
 37
0.0
 40
2985.812860223296
 41
1.560747663551402
 42
50.0
 43
0.0
 44
0.0
 50
0.0
 51
0.0
 71
     0
 72
   100
 73
     1
 74
     1
 75
     0
 76
     0
 77
     0
 78
     0
281
     0
 65
     1
110
0.0
120
0.0
130
0.0
111
1.0
121
0.0
131
0.0
112
0.0
122
1.0
132
0.0
 79
     0
146
0.0
1001
ACAD_NAV_VCDISPLAY
1070
     3
  0
ENDTAB
  0
TABLE
  2
LTYPE
  5
5
330
0
100
AcDbSymbolTable
 70
     4
  0
LTYPE
  5
11
330
5
100
AcDbSymbolTableRecord
100
AcDbLinetypeTableRecord
  2
BYBLOCK
 70
     0
  3

 72
    65
 73
     0
 40
0.0
  0
LTYPE
  5
12
330
5
100
AcDbSymbolTableRecord
100
AcDbLinetypeTableRecord
  2
BYLAYER
 70
     0
  3

 72
    65
 73
     0
 40
0.0
  0
LTYPE
  5
13
330
5
100
AcDbSymbolTableRecord
100
AcDbLinetypeTableRecord
  2
CONTINUOUS
 70
     0
  3
Solid line
 72
    65
 73
     0
 40
0.0
  0
LTYPE
  5
1E
330
5
100
AcDbSymbolTableRecord
100
AcDbLinetypeTableRecord
  2
HIDDEN
 70
     0
  3
_ _ _ _ _ _ _ _ _ _ _ _ _ _ _ _ _ _ _ _ _ _ _
 72
    65
 73
     2
 40
0.375
 49
0.25
 74
     0
 49
-0.125
 74
     0
  0
LTYPE
  5
1F
330
5
100
AcDbSymbolTableRecord
100
AcDbLinetypeTableRecord
  2
CENTER
 70
     0
  3
____ _ ____ _ ____ _ ____ _ ____ _ ____ _ ____
 72
    65
 73
     4
 40
2.0
 49
1.25
 74
     0
 49
-0.25
 74
     0
 49
0.25
 74
     0
 49
-0.25
 74
     0
  0
LTYPE
  5
20
330
5
100
AcDbSymbolTableRecord
100
AcDbLinetypeTableRecord
  2
PHANTOM
 70
     0
  3
_____ _ _ _____ _ _ _____ _ _ _____ _ _ ____
 72
    65
 73
     6
 40
2.5
 49
1.25
 74
     0
 49
-0.25
 74
     0
 49
0.25
 74
     0
 49
-0.25
 74
     0
 49
0.25
 74
     0
 49
-0.25
 74
     0
  0
ENDTAB
  0
TABLE
  2
LAYER
  5
2
330
0
100
AcDbSymbolTable
 70
    10
  0
LAYER
  5
E
102
{ACAD_XDICTIONARY
360
E98
102
}
330
2
100
AcDbSymbolTableRecord
100
AcDbLayerTableRecord
  2
0
 70
     0
 62
     7
  6
CONTINUOUS
370
    -3
390
67
  0
LAYER
  5
23
102
{ACAD_XDICTIONARY
360
E9A
102
}
330
2
100
AcDbSymbolTableRecord
100
AcDbLayerTableRecord
  2
SUNPOU
 70
     0
 62
     1
  6
CONTINUOUS
370
    -3
390
67
  0
LAYER
  5
24
102
{ACAD_XDICTIONARY
360
E9C
102
}
330
2
100
AcDbSymbolTableRecord
100
AcDbLayerTableRecord
  2
HAIKIN
 70
     0
 62
     2
  6
CONTINUOUS
370
    -3
390
67
  0
LAYER
  5
25
102
{ACAD_XDICTIONARY
360
E9E
102
}
330
2
100
AcDbSymbolTableRecord
100
AcDbLayerTableRecord
  2
SEIHIN
 70
     0
 62
     3
  6
CONTINUOUS
370
    -3
390
67
  0
LAYER
  5
26
102
{ACAD_XDICTIONARY
360
EA0
102
}
330
2
100
AcDbSymbolTableRecord
100
AcDbLayerTableRecord
  2
HASEN
 70
     0
 62
     4
  6
HIDDEN
370
    -3
390
67
  0
LAYER
  5
27
102
{ACAD_XDICTIONARY
360
EA2
102
}
330
2
100
AcDbSymbolTableRecord
100
AcDbLayerTableRecord
  2
1HASEN
 70
     0
 62
     5
  6
CENTER
370
    -3
390
67
  0
LAYER
  5
28
102
{ACAD_XDICTIONARY
360
EA4
102
}
330
2
100
AcDbSymbolTableRecord
100
AcDbLayerTableRecord
  2
2HASEN
 70
     0
 62
     6
  6
PHANTOM
370
    -3
390
67
  0
LAYER
  5
29
102
{ACAD_XDICTIONARY
360
EA6
102
}
330
2
100
AcDbSymbolTableRecord
100
AcDbLayerTableRecord
  2
HOJO
 70
     0
 62
     7
  6
CONTINUOUS
370
    -3
390
67
  0
LAYER
  5
2A
102
{ACAD_XDICTIONARY
360
EA8
102
}
330
2
100
AcDbSymbolTableRecord
100
AcDbLayerTableRecord
  2
TEN
 70
     0
 62
     7
  6
CONTINUOUS
370
    -3
390
67
  0
LAYER
  5
564
330
2
100
AcDbSymbolTableRecord
100
AcDbLayerTableRecord
  2
DEFPOINTS
 70
     0
 62
     7
  6
CONTINUOUS
290
     0
370
    -3
390
67
  0
ENDTAB
  0
TABLE
  2
STYLE
  5
3
330
0
100
AcDbSymbolTable
 70
     1
  0
STYLE
  5
F
330
3
100
AcDbSymbolTableRecord
100
AcDbTextStyleTableRecord
  2
STANDARD
 70
     0
 40
0.0
 41
0.8
 50
0.0
 71
     0
 42
45.0
  3
TXT.shx
  4
BIGFONT.shx
  0
ENDTAB
  0
TABLE
  2
VIEW
  5
6
330
0
100
AcDbSymbolTable
 70
     0
  0
ENDTAB
  0
TABLE
  2
UCS
  5
7
330
0
100
AcDbSymbolTable
 70
     0
  0
ENDTAB
  0
TABLE
  2
APPID
  5
9
330
0
100
AcDbSymbolTable
 70
    12
  0
APPID
  5
10
330
9
100
AcDbSymbolTableRecord
100
AcDbRegAppTableRecord
  2
ACAD
 70
     0
  0
APPID
  5
A3
330
9
100
AcDbSymbolTableRecord
100
AcDbRegAppTableRecord
  2
ACAD_DSTYLE_DIMTEXT_FILL
 70
     0
  0
APPID
  5
A4
330
9
100
AcDbSymbolTableRecord
100
AcDbRegAppTableRecord
  2
ACAD_DSTYLE_DIMEXT_LENGTH
 70
     0
  0
APPID
  5
A5
330
9
100
AcDbSymbolTableRecord
100
AcDbRegAppTableRecord
  2
ACAD_DSTYLE_DIMEXT_ENABLED
 70
     0
  0
APPID
  5
A6
330
9
100
AcDbSymbolTableRecord
100
AcDbRegAppTableRecord
  2
ACAD_DSTYLE_DIM_LINETYPE
 70
     0
  0
APPID
  5
A7
330
9
100
AcDbSymbolTableRecord
100
AcDbRegAppTableRecord
  2
ACAD_DSTYLE_DIM_EXT1_LINETYPE
 70
     0
  0
APPID
  5
A8
330
9
100
AcDbSymbolTableRecord
100
AcDbRegAppTableRecord
  2
ACAD_DSTYLE_DIM_EXT2_LINETYPE
 70
     0
  0
APPID
  5
164
330
9
100
AcDbSymbolTableRecord
100
AcDbRegAppTableRecord
  2
ACAD_DSTYLE_DIMJOGGED_JOGANGLE_SYMBOL
 70
     0
  0
APPID
  5
348
330
9
100
AcDbSymbolTableRecord
100
AcDbRegAppTableRecord
  2
ACAD_DSTYLE_DIMARC_LENGTH_SYMBOL
 70
     0
  0
APPID
  5
9D3
330
9
100
AcDbSymbolTableRecord
100
AcDbRegAppTableRecord
  2
ACAD_EXEMPT_FROM_CAD_STANDARDS
 70
     0
  0
APPID
  5
EAA
330
9
100
AcDbSymbolTableRecord
100
AcDbRegAppTableRecord
  2
ACAD_NAV_VCDISPLAY
 70
     0
  0
APPID
  5
EDE
330
9
100
AcDbSymbolTableRecord
100
AcDbRegAppTableRecord
  2
ACAD_MLEADERVER
 70
     0
  0
ENDTAB
  0
TABLE
  2
DIMSTYLE
  5
A
330
0
100
AcDbSymbolTable
 70
     2
100
AcDbDimStyleTable
  0
DIMSTYLE
105
61
330
A
100
AcDbSymbolTableRecord
100
AcDbDimStyleTableRecord
  2
STANDARD
 70
     0
178
     0
340
F
  0
DIMSTYLE
105
34D
102
{ACAD_REACTORS
330
9F0
330
9FD
330
A0B
330
A2D
330
A3B
330
A48
330
A55
330
A63
330
A71
330
A88
330
A96
330
AA3
330
AB0
330
ABE
330
ACF
330
C86
330
C87
330
C88
330
C89
330
C8A
330
CF4
330
D01
330
D0F
102
}
330
A
100
AcDbSymbolTableRecord
100
AcDbDimStyleTableRecord
  2
A3-15
 70
     0
 40
15.0
 41
2.0
 42
2.0
 43
7.0
 44
0.5
 73
     0
 74
     0
 77
     1
 78
     8
140
3.0
141
0.0
145
1.0
147
0.8
174
     1
178
     0
179
     4
271
     0
272
     0
279
     2
284
     8
285
     8
286
     8
340
F
1001
ACAD_DSTYLE_DIMJOGGED_JOGANGLE_SYMBOL
1070
   384
1040
0.7853981633974483
  0
ENDTAB
  0
TABLE
  2
BLOCK_RECORD
  5
1
330
0
100
AcDbSymbolTable
 70
    70
  0
BLOCK_RECORD
  5
17
102
{ACAD_XDICTIONARY
360
95
102
}
330
1
100
AcDbSymbolTableRecord
100
AcDbBlockTableRecord
  2
*MODEL_SPACE
340
6A
  0
BLOCK_RECORD
  5
14
330
1
100
AcDbSymbolTableRecord
100
AcDbBlockTableRecord
  2
*PAPER_SPACE
340
6B
  0
BLOCK_RECORD
  5
1C
330
1
100
AcDbSymbolTableRecord
100
AcDbBlockTableRecord
  2
BORDER
340
0
  0
BLOCK_RECORD
  5
1D
330
1
100
AcDbSymbolTableRecord
100
AcDbBlockTableRecord
  2
SA3
340
0
  0
BLOCK_RECORD
  5
9F1
330
1
100
AcDbSymbolTableRecord
100
AcDbBlockTableRecord
  2
*D47
340
0
  0
BLOCK_RECORD
  5
9FE
330
1
100
AcDbSymbolTableRecord
100
AcDbBlockTableRecord
  2
*D48
340
0
  0
BLOCK_RECORD
  5
A0C
330
1
100
AcDbSymbolTableRecord
100
AcDbBlockTableRecord
  2
*D49
340
0
  0
BLOCK_RECORD
  5
A2E
330
1
100
AcDbSymbolTableRecord
100
AcDbBlockTableRecord
  2
*D50
340
0
  0
BLOCK_RECORD
  5
A3C
330
1
100
AcDbSymbolTableRecord
100
AcDbBlockTableRecord
  2
*D51
340
0
  0
BLOCK_RECORD
  5
A49
330
1
100
AcDbSymbolTableRecord
100
AcDbBlockTableRecord
  2
*D52
340
0
  0
BLOCK_RECORD
  5
A56
330
1
100
AcDbSymbolTableRecord
100
AcDbBlockTableRecord
  2
*D53
340
0
  0
BLOCK_RECORD
  5
A64
330
1
100
AcDbSymbolTableRecord
100
AcDbBlockTableRecord
  2
*D54
340
0
  0
BLOCK_RECORD
  5
A72
330
1
100
AcDbSymbolTableRecord
100
AcDbBlockTableRecord
  2
*D55
340
0
  0
BLOCK_RECORD
  5
A89
330
1
100
AcDbSymbolTableRecord
100
AcDbBlockTableRecord
  2
*D56
340
0
  0
BLOCK_RECORD
  5
A97
330
1
100
AcDbSymbolTableRecord
100
AcDbBlockTableRecord
  2
*D57
340
0
  0
BLOCK_RECORD
  5
AA4
330
1
100
AcDbSymbolTableRecord
100
AcDbBlockTableRecord
  2
*D58
340
0
  0
BLOCK_RECORD
  5
AB1
330
1
100
AcDbSymbolTableRecord
100
AcDbBlockTableRecord
  2
*D59
340
0
  0
BLOCK_RECORD
  5
ABF
330
1
100
AcDbSymbolTableRecord
100
AcDbBlockTableRecord
  2
*D60
340
0
  0
BLOCK_RECORD
  5
AD0
330
1
100
AcDbSymbolTableRecord
100
AcDbBlockTableRecord
  2
*D61
340
0
  0
BLOCK_RECORD
  5
C8B
330
1
100
AcDbSymbolTableRecord
100
AcDbBlockTableRecord
  2
*D62
340
0
  0
BLOCK_RECORD
  5
C97
330
1
100
AcDbSymbolTableRecord
100
AcDbBlockTableRecord
  2
*D63
340
0
  0
BLOCK_RECORD
  5
CA3
330
1
100
AcDbSymbolTableRecord
100
AcDbBlockTableRecord
  2
*D64
340
0
  0
BLOCK_RECORD
  5
CAF
330
1
100
AcDbSymbolTableRecord
100
AcDbBlockTableRecord
  2
*D65
340
0
  0
BLOCK_RECORD
  5
CBB
330
1
100
AcDbSymbolTableRecord
100
AcDbBlockTableRecord
  2
*D66
340
0
  0
BLOCK_RECORD
  5
CF5
330
1
100
AcDbSymbolTableRecord
100
AcDbBlockTableRecord
  2
*D67
340
0
  0
BLOCK_RECORD
  5
D02
330
1
100
AcDbSymbolTableRecord
100
AcDbBlockTableRecord
  2
*D68
340
0
  0
BLOCK_RECORD
  5
D10
330
1
100
AcDbSymbolTableRecord
100
AcDbBlockTableRecord
  2
*D69
340
0
  0
ENDTAB
  0
ENDSEC
  0
SECTION
  2
BLOCKS
  0
BLOCK
  5
2D
330
17
100
AcDbEntity
  8
0
100
AcDbBlockBegin
  2
*MODEL_SPACE
 70
     0
 10
0.0
 20
0.0
 30
0.0
  3
*MODEL_SPACE
  1

  0
ENDBLK
  5
2E
330
17
100
AcDbEntity
  8
0
100
AcDbBlockEnd
  0
BLOCK
  5
2B
330
14
100
AcDbEntity
 67
     1
  8
0
100
AcDbBlockBegin
  2
*PAPER_SPACE
 70
     0
 10
0.0
 20
0.0
 30
0.0
  3
*PAPER_SPACE
  1

  0
ENDBLK
  5
2C
330
14
100
AcDbEntity
 67
     1
  8
0
100
AcDbBlockEnd
  0
BLOCK
  5
2F
330
1C
100
AcDbEntity
  8
0
100
AcDbBlockBegin
  2
BORDER
 70
     0
 10
0.0
 20
0.0
 30
0.0
  3
BORDER
  1

  0
LINE
  5
30
330
1C
100
AcDbEntity
  8
0
100
AcDbLine
 10
0.0
 20
0.0
 30
0.0
 11
1.00000000000004
 21
0.0
 31
0.0
  0
LINE
  5
31
330
1C
100
AcDbEntity
  8
0
100
AcDbLine
 10
1.00000000000004
 20
0.0
 30
0.0
 11
1.00000000000004
 21
1.00000000000004
 31
0.0
  0
LINE
  5
32
330
1C
100
AcDbEntity
  8
0
100
AcDbLine
 10
1.00000000000004
 20
1.00000000000004
 30
0.0
 11
0.0
 21
1.00000000000004
 31
0.0
  0
LINE
  5
33
330
1C
100
AcDbEntity
  8
0
100
AcDbLine
 10
0.0
 20
1.00000000000004
 30
0.0
 11
0.0
 21
0.0
 31
0.0
  0
ENDBLK
  5
34
330
1C
100
AcDbEntity
  8
0
100
AcDbBlockEnd
  0
BLOCK
  5
35
330
1D
100
AcDbEntity
  8
HAIKIN
100
AcDbBlockBegin
  2
SA3
 70
     0
 10
0.0
 20
0.0
 30
0.0
  3
SA3
  1

  0
TEXT
  5
36
330
1D
100
AcDbEntity
  8
SUNPOU
100
AcDbText
 10
340.0
 20
0.0
 30
0.0
 40
2.5
  1
新和コンクリート工業株式会社
100
AcDbText
  0
TEXT
  5
39
330
1D
100
AcDbEntity
  8
SUNPOU
100
AcDbText
 10
361.4166666666667
 20
6.25
 30
0.0
 40
2.5
  1
製図
 72
     4
 11
364.0
 21
7.5
 31
0.0
100
AcDbText
  0
TEXT
  5
3A
330
1D
100
AcDbEntity
  8
SUNPOU
100
AcDbText
 10
361.3333333333333
 20
11.25
 30
0.0
 40
2.5
  1
設計
 72
     4
 11
364.0
 21
12.5
 31
0.0
100
AcDbText
  0
TEXT
  5
3B
330
1D
100
AcDbEntity
  8
SUNPOU
100
AcDbText
 10
339.0833333333333
 20
6.250000000000014
 30
0.0
 40
2.5
  1
認
 72
     4
 11
340.25
 21
7.500000000000014
 31
0.0
100
AcDbText
  0
TEXT
  5
3C
330
1D
100
AcDbEntity
  8
SUNPOU
100
AcDbText
 10
339.0833333333333
 20
11.33333333333336
 30
0.0
 40
2.5
  1
承
 72
     4
 11
340.25
 21
12.50000000000003
 31
0.0
100
AcDbText
  0
TEXT
  5
3D
330
1D
100
AcDbEntity
  8
SUNPOU
100
AcDbText
 10
312.75
 20
11.75000000000001
 30
0.0
 40
2.5
  1
図　面　番　号
 72
     4
 11
323.0
 21
13.00000000000001
 31
0.0
100
AcDbText
  0
TEXT
  5
3E
330
1D
100
AcDbEntity
  8
SUNPOU
100
AcDbText
 10
362.0
 20
17.0
 30
0.0
 40
2.5
  1
１／
100
AcDbText
  0
TEXT
  5
3F
330
1D
100
AcDbEntity
  8
SUNPOU
100
AcDbText
 10
347.3333333333333
 20
16.25000000000001
 30
0.0
 40
2.5
  1
縮　　尺
 72
     4
 11
353.0
 21
17.50000000000001
 31
0.0
100
AcDbText
  0
TEXT
  5
40
330
1D
100
AcDbEntity
  8
SUNPOU
100
AcDbText
 10
347.3333333333333
 20
21.25
 30
0.0
 40
2.5
  1
鉄 筋 量
 72
     4
 11
353.0
 21
22.5
 31
0.0
100
AcDbText
  0
TEXT
  5
41
330
1D
100
AcDbEntity
  8
SUNPOU
100
AcDbText
 10
347.3333333333333
 20
26.25
 30
0.0
 40
2.5
  1
製 造 数
 72
     4
 11
353.0
 21
27.5
 31
0.0
100
AcDbText
  0
TEXT
  5
42
330
1D
100
AcDbEntity
  8
SUNPOU
100
AcDbText
 10
377.0
 20
21.0
 30
0.0
 40
2.5
  1
ｋｇ
 72
     2
 11
382.0
 21
21.0
 31
0.0
100
AcDbText
  0
TEXT
  5
43
330
1D
100
AcDbEntity
  8
SUNPOU
100
AcDbText
 10
339.5
 20
21.0
 30
0.0
 40
2.5
  1
ｋｇ
 72
     2
 11
344.5
 21
21.0
 31
0.0
100
AcDbText
  0
TEXT
  5
44
330
1D
100
AcDbEntity
  8
SUNPOU
100
AcDbText
 10
310.0
 20
16.25000000000001
 30
0.0
 40
2.5
  1
年 月 日
 72
     4
 11
315.5
 21
17.50000000000001
 31
0.0
100
AcDbText
  0
TEXT
  5
45
330
1D
100
AcDbEntity
  8
SUNPOU
100
AcDbText
 10
309.8333333333333
 20
21.25
 30
0.0
 40
2.5
  1
製品質量
 72
     4
 11
315.5
 21
22.5
 31
0.0
100
AcDbText
  0
TEXT
  5
46
330
1D
100
AcDbEntity
  8
SUNPOU
100
AcDbText
 10
309.9166666666667
 20
26.25
 30
0.0
 40
2.5
  1
業 者 名
 72
     4
 11
315.5
 21
27.5
 31
0.0
100
AcDbText
  0
TEXT
  5
47
330
1D
100
AcDbEntity
  8
SUNPOU
100
AcDbText
 10
309.8333333333333
 20
32.5
 30
0.0
 40
2.5
  1
名　　称
 72
     4
 11
315.5
 21
33.75
 31
0.0
100
AcDbText
  0
LINE
  5
48
330
1D
100
AcDbEntity
  8
SUNPOU
100
AcDbLine
 10
338.0
 20
11.00000000000001
 30
0.0
 11
308.0
 21
11.00000000000001
 31
0.0
  0
LINE
  5
49
330
1D
100
AcDbEntity
  8
SUNPOU
100
AcDbLine
 10
367.5
 20
4.999999999999986
 30
0.0
 11
367.5
 21
14.99999999999999
 31
0.0
  0
LINE
  5
4A
330
1D
100
AcDbEntity
  8
SUNPOU
100
AcDbLine
 10
360.5
 20
4.999999999999986
 30
0.0
 11
360.5
 21
14.99999999999999
 31
0.0
  0
LINE
  5
4B
330
1D
100
AcDbEntity
  8
SUNPOU
100
AcDbLine
 10
342.5
 20
4.999999999999995
 30
0.0
 11
342.5
 21
15.0
 31
0.0
  0
LINE
  5
4C
330
1D
100
AcDbEntity
  8
SUNPOU
100
AcDbLine
 10
338.0
 20
4.999999999999995
 30
0.0
 11
338.0
 21
15.0
 31
0.0
  0
LINE
  5
4D
330
1D
100
AcDbEntity
  8
SUNPOU
100
AcDbLine
 10
323.0
 20
15.00000000000001
 30
0.0
 11
323.0
 21
37.5
 31
0.0
  0
LINE
  5
4E
330
1D
100
AcDbEntity
  8
SUNPOU
100
AcDbLine
 10
360.5
 20
15.00000000000001
 30
0.0
 11
360.5
 21
30.0
 31
0.0
  0
LINE
  5
4F
330
1D
100
AcDbEntity
  8
SUNPOU
100
AcDbLine
 10
345.5
 20
15.00000000000001
 30
0.0
 11
345.5
 21
30.0
 31
0.0
  0
LINE
  5
50
330
1D
100
AcDbEntity
  8
SUNPOU
100
AcDbLine
 10
383.0
 20
30.0
 30
0.0
 11
308.0
 21
30.0
 31
0.0
  0
LINE
  5
51
330
1D
100
AcDbEntity
  8
SUNPOU
100
AcDbLine
 10
383.0
 20
25.0
 30
0.0
 11
308.0
 21
25.0
 31
0.0
  0
LINE
  5
52
330
1D
100
AcDbEntity
  8
SUNPOU
100
AcDbLine
 10
383.0
 20
20.0
 30
0.0
 11
308.0
 21
20.0
 31
0.0
  0
LINE
  5
53
330
1D
100
AcDbEntity
  8
SUNPOU
100
AcDbLine
 10
383.0
 20
14.99999999999999
 30
0.0
 11
308.0
 21
15.00000000000004
 31
0.0
  0
LINE
  5
54
330
1D
100
AcDbEntity
  8
HAIKIN
100
AcDbLine
 10
308.0
 20
37.5
 30
0.0
 11
383.0
 21
37.5
 31
0.0
  0
LINE
  5
55
330
1D
100
AcDbEntity
  8
HAIKIN
100
AcDbLine
 10
308.0
 20
5.000000000000009
 30
0.0
 11
308.0
 21
37.5
 31
0.0
  0
LINE
  5
56
330
1D
100
AcDbEntity
  8
SUNPOU
100
AcDbLine
 10
0.000000000000016
 20
277.0
 30
0.0
 11
0.000000000000016
 21
272.0
 31
0.0
  0
LINE
  5
57
330
1D
100
AcDbEntity
  8
SUNPOU
100
AcDbLine
 10
25.00000000000001
 20
277.0
 30
0.0
 11
0.000000000000016
 21
277.0
 31
0.0
  0
LINE
  5
58
330
1D
100
AcDbEntity
  8
SUNPOU
100
AcDbLine
 10
25.00000000000001
 20
272.0
 30
0.0
 11
25.00000000000001
 21
277.0
 31
0.0
  0
LINE
  5
59
330
1D
100
AcDbEntity
  8
HAIKIN
100
AcDbLine
 10
0.0000000000000004
 20
5.0
 30
0.0
 11
383.0
 21
5.0
 31
0.0
  0
LINE
  5
5A
330
1D
100
AcDbEntity
  8
HAIKIN
100
AcDbLine
 10
0.0000000000000158
 20
272.0
 30
0.0
 11
383.0
 21
272.0
 31
0.0
  0
LINE
  5
5B
330
1D
100
AcDbEntity
  8
HAIKIN
100
AcDbLine
 10
383.0
 20
272.0
 30
0.0
 11
383.0
 21
5.0
 31
0.0
  0
TEXT
  5
5C
330
1D
100
AcDbEntity
  8
SUNPOU
100
AcDbText
 10
3.700000000000017
 20
273.0
 30
0.0
 40
3.0
  1
Ｈ－２－共
 72
     4
 11
12.50000000000002
 21
274.5
 31
0.0
100
AcDbText
  0
LINE
  5
5D
330
1D
100
AcDbEntity
  8
HAIKIN
100
AcDbLine
 10
0.0000000000000004
 20
5.0
 30
0.0
 11
0.0000000000000158
 21
272.0
 31
0.0
  0
ENDBLK
  5
5E
330
1D
100
AcDbEntity
  8
HAIKIN
100
AcDbBlockEnd
  0
BLOCK
  5
9FB
330
9F1
100
AcDbEntity
  8
0
100
AcDbBlockBegin
  2
*D47
 70
     1
 10
0.0
 20
0.0
 30
0.0
  3
*D47
  1

  0
LINE
  5
D70
330
9F1
100
AcDbEntity
  8
SUNPOU
 62
     0
440
 16777216
370
    -2
100
AcDbLine
 10
1590.488384989647
 20
3049.884512372761
 30
0.0
 11
1590.488384989647
 21
3215.614968802383
 31
0.0
  0
LINE
  5
D71
330
9F1
100
AcDbEntity
  8
SUNPOU
 62
     0
440
 16777216
370
    -2
100
AcDbLine
 10
1890.488384989647
 20
3049.884512372761
 30
0.0
 11
1890.488384989647
 21
3215.614968802383
 31
0.0
  0
LINE
  5
D72
330
9F1
100
AcDbEntity
  8
SUNPOU
 62
     0
440
 16777216
370
    -2
100
AcDbLine
 10
1620.488384989647
 20
3208.114968802383
 30
0.0
 11
1860.488384989647
 21
3208.114968802383
 31
0.0
  0
SOLID
  5
D73
330
9F1
100
AcDbEntity
  8
SUNPOU
 62
     0
440
 16777216
100
AcDbTrace
 10
1620.488384989647
 20
3213.114968802383
 30
0.0
 11
1620.488384989647
 21
3203.114968802383
 31
0.0
 12
1590.488384989647
 22
3208.114968802383
 32
0.0
 13
1590.488384989647
 23
3208.114968802383
 33
0.0
  0
SOLID
  5
D74
330
9F1
100
AcDbEntity
  8
SUNPOU
 62
     0
440
 16777216
100
AcDbTrace
 10
1860.488384989647
 20
3213.114968802383
 30
0.0
 11
1860.488384989647
 21
3203.114968802383
 31
0.0
 12
1890.488384989647
 22
3208.114968802383
 32
0.0
 13
1890.488384989647
 23
3208.114968802383
 33
0.0
  0
MTEXT
  5
D75
330
9F1
100
AcDbEntity
  8
SUNPOU
 62
     0
440
 16777216
100
AcDbMText
 10
1740.488384989647
 20
3242.614968802383
 30
0.0
 40
45.0
 41
0.0
 71
     5
 72
     1
  1
\A1;300
 73
     1
 44
1.0
  0
POINT
  5
D76
330
9F1
100
AcDbEntity
  8
DEFPOINTS
 62
     0
440
 16777216
100
AcDbPoint
 10
1590.488384989647
 20
3019.884512372761
 30
0.0
  0
POINT
  5
D77
330
9F1
100
AcDbEntity
  8
DEFPOINTS
 62
     0
440
 16777216
100
AcDbPoint
 10
1890.488384989647
 20
3019.884512372761
 30
0.0
  0
POINT
  5
D78
330
9F1
100
AcDbEntity
  8
DEFPOINTS
 62
     0
440
 16777216
100
AcDbPoint
 10
1890.488384989647
 20
3208.114968802383
 30
0.0
  0
ENDBLK
  5
9FC
330
9F1
100
AcDbEntity
  8
0
100
AcDbBlockEnd
  0
BLOCK
  5
A09
330
9FE
100
AcDbEntity
  8
0
100
AcDbBlockBegin
  2
*D48
 70
     1
 10
0.0
 20
0.0
 30
0.0
  3
*D48
  1

  0
LINE
  5
D79
330
9FE
100
AcDbEntity
  8
SUNPOU
 62
     0
440
 16777216
370
    -2
100
AcDbLine
 10
1590.488384989647
 20
3049.884512372761
 30
0.0
 11
1590.488384989647
 21
3215.614968802383
 31
0.0
  0
LINE
  5
D7A
330
9FE
100
AcDbEntity
  8
SUNPOU
 62
     0
440
 16777216
370
    -2
100
AcDbLine
 10
1555.488384989646
 20
3049.884512372761
 30
0.0
 11
1555.488384989646
 21
3215.614968802383
 31
0.0
  0
LINE
  5
D7B
330
9FE
100
AcDbEntity
  8
SUNPOU
 62
     0
440
 16777216
370
    -2
100
AcDbLine
 10
1620.488384989647
 20
3208.114968802383
 30
0.0
 11
1650.488384989647
 21
3208.114968802383
 31
0.0
  0
LINE
  5
D7C
330
9FE
100
AcDbEntity
  8
SUNPOU
 62
     0
440
 16777216
370
    -2
100
AcDbLine
 10
1525.488384989646
 20
3208.114968802383
 30
0.0
 11
1495.488384989646
 21
3208.114968802383
 31
0.0
  0
SOLID
  5
D7D
330
9FE
100
AcDbEntity
  8
SUNPOU
 62
     0
440
 16777216
100
AcDbTrace
 10
1620.488384989647
 20
3213.114968802383
 30
0.0
 11
1620.488384989647
 21
3203.114968802383
 31
0.0
 12
1590.488384989647
 22
3208.114968802383
 32
0.0
 13
1590.488384989647
 23
3208.114968802383
 33
0.0
  0
SOLID
  5
D7E
330
9FE
100
AcDbEntity
  8
SUNPOU
 62
     0
440
 16777216
100
AcDbTrace
 10
1525.488384989646
 20
3213.114968802383
 30
0.0
 11
1525.488384989646
 21
3203.114968802383
 31
0.0
 12
1555.488384989646
 22
3208.114968802383
 32
0.0
 13
1555.488384989646
 23
3208.114968802383
 33
0.0
  0
MTEXT
  5
D7F
330
9FE
100
AcDbEntity
  8
SUNPOU
 62
     0
440
 16777216
100
AcDbMText
 10
1572.988384989647
 20
3242.614968802383
 30
0.0
 40
45.0
 41
0.0
 71
     5
 72
     1
  1
\A1;35
 73
     1
 44
1.0
  0
POINT
  5
D80
330
9FE
100
AcDbEntity
  8
DEFPOINTS
 62
     0
440
 16777216
100
AcDbPoint
 10
1590.488384989647
 20
3019.884512372761
 30
0.0
  0
POINT
  5
D81
330
9FE
100
AcDbEntity
  8
DEFPOINTS
 62
     0
440
 16777216
100
AcDbPoint
 10
1555.488384989646
 20
3019.884512372761
 30
0.0
  0
POINT
  5
D82
330
9FE
100
AcDbEntity
  8
DEFPOINTS
 62
     0
440
 16777216
100
AcDbPoint
 10
1555.488384989646
 20
3208.114968802383
 30
0.0
  0
ENDBLK
  5
A0A
330
9FE
100
AcDbEntity
  8
0
100
AcDbBlockEnd
  0
BLOCK
  5
A17
330
A0C
100
AcDbEntity
  8
0
100
AcDbBlockBegin
  2
*D49
 70
     1
 10
0.0
 20
0.0
 30
0.0
  3
*D49
  1

  0
LINE
  5
D83
330
A0C
100
AcDbEntity
  8
SUNPOU
 62
     0
440
 16777216
370
    -2
100
AcDbLine
 10
1555.488384989646
 20
3049.884512372761
 30
0.0
 11
1555.488384989646
 21
3215.614968802383
 31
0.0
  0
LINE
  5
D84
330
A0C
100
AcDbEntity
  8
SUNPOU
 62
     0
440
 16777216
370
    -2
100
AcDbLine
 10
1545.488384989647
 20
3049.884512372761
 30
0.0
 11
1545.488384989647
 21
3215.614968802383
 31
0.0
  0
LINE
  5
D85
330
A0C
100
AcDbEntity
  8
SUNPOU
 62
     0
440
 16777216
370
    -2
100
AcDbLine
 10
1585.488384989646
 20
3208.114968802383
 30
0.0
 11
1615.488384989646
 21
3208.114968802383
 31
0.0
  0
LINE
  5
D86
330
A0C
100
AcDbEntity
  8
SUNPOU
 62
     0
440
 16777216
370
    -2
100
AcDbLine
 10
1515.488384989647
 20
3208.114968802383
 30
0.0
 11
1485.488384989647
 21
3208.114968802383
 31
0.0
  0
MTEXT
  5
D87
330
A0C
100
AcDbEntity
  8
SUNPOU
 62
     0
440
 16777216
100
AcDbMText
 10
1505.871513189009
 20
3242.614968802383
 30
0.0
 40
45.0
 41
0.0
 71
     5
 72
     1
  1
\A1;10
 73
     1
 44
1.0
  0
SOLID
  5
D88
330
A0C
100
AcDbEntity
  8
SUNPOU
 62
     0
440
 16777216
100
AcDbTrace
 10
1585.488384989646
 20
3213.114968802383
 30
0.0
 11
1585.488384989646
 21
3203.114968802383
 31
0.0
 12
1555.488384989646
 22
3208.114968802383
 32
0.0
 13
1555.488384989646
 23
3208.114968802383
 33
0.0
  0
SOLID
  5
D89
330
A0C
100
AcDbEntity
  8
SUNPOU
 62
     0
440
 16777216
100
AcDbTrace
 10
1515.488384989647
 20
3213.114968802383
 30
0.0
 11
1515.488384989647
 21
3203.114968802383
 31
0.0
 12
1545.488384989647
 22
3208.114968802383
 32
0.0
 13
1545.488384989647
 23
3208.114968802383
 33
0.0
  0
POINT
  5
D8A
330
A0C
100
AcDbEntity
  8
DEFPOINTS
 62
     0
440
 16777216
100
AcDbPoint
 10
1555.488384989646
 20
3019.884512372761
 30
0.0
  0
POINT
  5
D8B
330
A0C
100
AcDbEntity
  8
DEFPOINTS
 62
     0
440
 16777216
100
AcDbPoint
 10
1545.488384989647
 20
3019.884512372761
 30
0.0
  0
POINT
  5
D8C
330
A0C
100
AcDbEntity
  8
DEFPOINTS
 62
     0
440
 16777216
100
AcDbPoint
 10
1545.488384989647
 20
3208.114968802383
 30
0.0
  0
ENDBLK
  5
A18
330
A0C
100
AcDbEntity
  8
0
100
AcDbBlockEnd
  0
BLOCK
  5
A39
330
A2E
100
AcDbEntity
  8
0
100
AcDbBlockBegin
  2
*D50
 70
     1
 10
0.0
 20
0.0
 30
0.0
  3
*D50
  1

  0
LINE
  5
D8D
330
A2E
100
AcDbEntity
  8
SUNPOU
 62
     0
440
 16777216
370
    -2
100
AcDbLine
 10
1890.488384989647
 20
3049.884512372761
 30
0.0
 11
1890.488384989647
 21
3215.614968802383
 31
0.0
  0
LINE
  5
D8E
330
A2E
100
AcDbEntity
  8
SUNPOU
 62
     0
440
 16777216
370
    -2
100
AcDbLine
 10
1935.488384989647
 20
3049.884512372761
 30
0.0
 11
1935.488384989647
 21
3215.614968802383
 31
0.0
  0
LINE
  5
D8F
330
A2E
100
AcDbEntity
  8
SUNPOU
 62
     0
440
 16777216
370
    -2
100
AcDbLine
 10
1860.488384989647
 20
3208.114968802383
 30
0.0
 11
1830.488384989647
 21
3208.114968802383
 31
0.0
  0
LINE
  5
D90
330
A2E
100
AcDbEntity
  8
SUNPOU
 62
     0
440
 16777216
370
    -2
100
AcDbLine
 10
1965.488384989647
 20
3208.114968802383
 30
0.0
 11
1995.488384989647
 21
3208.114968802383
 31
0.0
  0
SOLID
  5
D91
330
A2E
100
AcDbEntity
  8
SUNPOU
 62
     0
440
 16777216
100
AcDbTrace
 10
1860.488384989647
 20
3213.114968802383
 30
0.0
 11
1860.488384989647
 21
3203.114968802383
 31
0.0
 12
1890.488384989647
 22
3208.114968802383
 32
0.0
 13
1890.488384989647
 23
3208.114968802383
 33
0.0
  0
SOLID
  5
D92
330
A2E
100
AcDbEntity
  8
SUNPOU
 62
     0
440
 16777216
100
AcDbTrace
 10
1965.488384989647
 20
3213.114968802383
 30
0.0
 11
1965.488384989647
 21
3203.114968802383
 31
0.0
 12
1935.488384989647
 22
3208.114968802383
 32
0.0
 13
1935.488384989647
 23
3208.114968802383
 33
0.0
  0
MTEXT
  5
D93
330
A2E
100
AcDbEntity
  8
SUNPOU
 62
     0
440
 16777216
100
AcDbMText
 10
1912.988384989647
 20
3242.614968802383
 30
0.0
 40
45.0
 41
0.0
 71
     5
 72
     1
  1
\A1;45
 73
     1
 44
1.0
  0
POINT
  5
D94
330
A2E
100
AcDbEntity
  8
DEFPOINTS
 62
     0
440
 16777216
100
AcDbPoint
 10
1890.488384989647
 20
3019.884512372761
 30
0.0
  0
POINT
  5
D95
330
A2E
100
AcDbEntity
  8
DEFPOINTS
 62
     0
440
 16777216
100
AcDbPoint
 10
1935.488384989647
 20
3019.884512372761
 30
0.0
  0
POINT
  5
D96
330
A2E
100
AcDbEntity
  8
DEFPOINTS
 62
     0
440
 16777216
100
AcDbPoint
 10
1935.488384989647
 20
3208.114968802383
 30
0.0
  0
ENDBLK
  5
A3A
330
A2E
100
AcDbEntity
  8
0
100
AcDbBlockEnd
  0
BLOCK
  5
A46
330
A3C
100
AcDbEntity
  8
0
100
AcDbBlockBegin
  2
*D51
 70
     1
 10
0.0
 20
0.0
 30
0.0
  3
*D51
  1

  0
LINE
  5
D97
330
A3C
100
AcDbEntity
  8
SUNPOU
 62
     0
440
 16777216
370
    -2
100
AcDbLine
 10
1545.488384989647
 20
3049.884512372761
 30
0.0
 11
1545.488384989647
 21
3301.787977122154
 31
0.0
  0
LINE
  5
D98
330
A3C
100
AcDbEntity
  8
SUNPOU
 62
     0
440
 16777216
370
    -2
100
AcDbLine
 10
1935.488384989647
 20
3049.884512372761
 30
0.0
 11
1935.488384989647
 21
3301.787977122154
 31
0.0
  0
LINE
  5
D99
330
A3C
100
AcDbEntity
  8
SUNPOU
 62
     0
440
 16777216
370
    -2
100
AcDbLine
 10
1575.488384989647
 20
3294.287977122154
 30
0.0
 11
1905.488384989647
 21
3294.287977122154
 31
0.0
  0
SOLID
  5
D9A
330
A3C
100
AcDbEntity
  8
SUNPOU
 62
     0
440
 16777216
100
AcDbTrace
 10
1575.488384989647
 20
3299.287977122154
 30
0.0
 11
1575.488384989647
 21
3289.287977122154
 31
0.0
 12
1545.488384989647
 22
3294.287977122154
 32
0.0
 13
1545.488384989647
 23
3294.287977122154
 33
0.0
  0
SOLID
  5
D9B
330
A3C
100
AcDbEntity
  8
SUNPOU
 62
     0
440
 16777216
100
AcDbTrace
 10
1905.488384989647
 20
3299.287977122154
 30
0.0
 11
1905.488384989647
 21
3289.287977122154
 31
0.0
 12
1935.488384989647
 22
3294.287977122154
 32
0.0
 13
1935.488384989647
 23
3294.287977122154
 33
0.0
  0
MTEXT
  5
D9C
330
A3C
100
AcDbEntity
  8
SUNPOU
 62
     0
440
 16777216
100
AcDbMText
 10
1740.488384989647
 20
3328.787977122154
 30
0.0
 40
45.0
 41
0.0
 71
     5
 72
     1
  1
\A1;390
 73
     1
 44
1.0
  0
POINT
  5
D9D
330
A3C
100
AcDbEntity
  8
DEFPOINTS
 62
     0
440
 16777216
100
AcDbPoint
 10
1545.488384989647
 20
3019.884512372761
 30
0.0
  0
POINT
  5
D9E
330
A3C
100
AcDbEntity
  8
DEFPOINTS
 62
     0
440
 16777216
100
AcDbPoint
 10
1935.488384989647
 20
3019.884512372761
 30
0.0
  0
POINT
  5
D9F
330
A3C
100
AcDbEntity
  8
DEFPOINTS
 62
     0
440
 16777216
100
AcDbPoint
 10
1935.488384989647
 20
3294.287977122154
 30
0.0
  0
ENDBLK
  5
A47
330
A3C
100
AcDbEntity
  8
0
100
AcDbBlockEnd
  0
BLOCK
  5
A53
330
A49
100
AcDbEntity
  8
0
100
AcDbBlockBegin
  2
*D52
 70
     1
 10
0.0
 20
0.0
 30
0.0
  3
*D52
  1

  0
LINE
  5
DA0
330
A49
100
AcDbEntity
  8
SUNPOU
 62
     0
440
 16777216
370
    -2
100
AcDbLine
 10
1515.488384989647
 20
3019.884512372761
 30
0.0
 11
1319.140215650186
 21
3019.884512372761
 31
0.0
  0
LINE
  5
DA1
330
A49
100
AcDbEntity
  8
SUNPOU
 62
     0
440
 16777216
370
    -2
100
AcDbLine
 10
1535.488384989647
 20
2719.884512372761
 30
0.0
 11
1319.140215650186
 21
2719.884512372761
 31
0.0
  0
LINE
  5
DA2
330
A49
100
AcDbEntity
  8
SUNPOU
 62
     0
440
 16777216
370
    -2
100
AcDbLine
 10
1326.640215650186
 20
2989.884512372761
 30
0.0
 11
1326.640215650186
 21
2749.884512372761
 31
0.0
  0
SOLID
  5
DA3
330
A49
100
AcDbEntity
  8
SUNPOU
 62
     0
440
 16777216
100
AcDbTrace
 10
1321.640215650186
 20
2989.884512372761
 30
0.0
 11
1331.640215650186
 21
2989.884512372761
 31
0.0
 12
1326.640215650186
 22
3019.884512372761
 32
0.0
 13
1326.640215650186
 23
3019.884512372761
 33
0.0
  0
SOLID
  5
DA4
330
A49
100
AcDbEntity
  8
SUNPOU
 62
     0
440
 16777216
100
AcDbTrace
 10
1321.640215650186
 20
2749.884512372761
 30
0.0
 11
1331.640215650186
 21
2749.884512372761
 31
0.0
 12
1326.640215650186
 22
2719.884512372761
 32
0.0
 13
1326.640215650186
 23
2719.884512372761
 33
0.0
  0
MTEXT
  5
DA5
330
A49
100
AcDbEntity
  8
SUNPOU
 62
     0
440
 16777216
100
AcDbMText
 10
1292.140215650186
 20
2869.884512372761
 30
0.0
 40
45.0
 41
0.0
 71
     5
 72
     1
  1
\A1;300
 11
6.123031769111886E-17
 21
1.0
 31
0.0
 73
     1
 44
1.0
  0
POINT
  5
DA6
330
A49
100
AcDbEntity
  8
DEFPOINTS
 62
     0
440
 16777216
100
AcDbPoint
 10
1545.488384989647
 20
3019.884512372761
 30
0.0
  0
POINT
  5
DA7
330
A49
100
AcDbEntity
  8
DEFPOINTS
 62
     0
440
 16777216
100
AcDbPoint
 10
1565.488384989647
 20
2719.884512372761
 30
0.0
  0
POINT
  5
DA8
330
A49
100
AcDbEntity
  8
DEFPOINTS
 62
     0
440
 16777216
100
AcDbPoint
 10
1326.640215650186
 20
2719.884512372761
 30
0.0
  0
ENDBLK
  5
A54
330
A49
100
AcDbEntity
  8
0
100
AcDbBlockEnd
  0
BLOCK
  5
A61
330
A56
100
AcDbEntity
  8
0
100
AcDbBlockBegin
  2
*D53
 70
     1
 10
0.0
 20
0.0
 30
0.0
  3
*D53
  1

  0
LINE
  5
DA9
330
A56
100
AcDbEntity
  8
SUNPOU
 62
     0
440
 16777216
370
    -2
100
AcDbLine
 10
1515.488384989647
 20
3019.884512372761
 30
0.0
 11
1447.690546665603
 21
3019.884512372761
 31
0.0
  0
LINE
  5
DAA
330
A56
100
AcDbEntity
  8
SUNPOU
 62
     0
440
 16777216
370
    -2
100
AcDbLine
 10
1515.488384989647
 20
2969.884512372761
 30
0.0
 11
1447.690546665603
 21
2969.884512372761
 31
0.0
  0
LINE
  5
DAB
330
A56
100
AcDbEntity
  8
SUNPOU
 62
     0
440
 16777216
370
    -2
100
AcDbLine
 10
1455.190546665603
 20
3049.884512372761
 30
0.0
 11
1455.190546665603
 21
3079.884512372761
 31
0.0
  0
LINE
  5
DAC
330
A56
100
AcDbEntity
  8
SUNPOU
 62
     0
440
 16777216
370
    -2
100
AcDbLine
 10
1455.190546665603
 20
2939.884512372761
 30
0.0
 11
1455.190546665603
 21
2909.884512372761
 31
0.0
  0
SOLID
  5
DAD
330
A56
100
AcDbEntity
  8
SUNPOU
 62
     0
440
 16777216
100
AcDbTrace
 10
1450.190546665603
 20
3049.884512372761
 30
0.0
 11
1460.190546665603
 21
3049.884512372761
 31
0.0
 12
1455.190546665603
 22
3019.884512372761
 32
0.0
 13
1455.190546665603
 23
3019.884512372761
 33
0.0
  0
SOLID
  5
DAE
330
A56
100
AcDbEntity
  8
SUNPOU
 62
     0
440
 16777216
100
AcDbTrace
 10
1450.190546665603
 20
2939.884512372761
 30
0.0
 11
1460.190546665603
 21
2939.884512372761
 31
0.0
 12
1455.190546665603
 22
2969.884512372761
 32
0.0
 13
1455.190546665603
 23
2969.884512372761
 33
0.0
  0
MTEXT
  5
DAF
330
A56
100
AcDbEntity
  8
SUNPOU
 62
     0
440
 16777216
100
AcDbMText
 10
1420.690546665602
 20
2994.884512372761
 30
0.0
 40
45.0
 41
0.0
 71
     5
 72
     1
  1
\A1;50
 11
6.123031769111886E-17
 21
1.0
 31
0.0
 73
     1
 44
1.0
  0
POINT
  5
DB0
330
A56
100
AcDbEntity
  8
DEFPOINTS
 62
     0
440
 16777216
100
AcDbPoint
 10
1545.488384989647
 20
3019.884512372761
 30
0.0
  0
POINT
  5
DB1
330
A56
100
AcDbEntity
  8
DEFPOINTS
 62
     0
440
 16777216
100
AcDbPoint
 10
1545.488384989647
 20
2969.884512372761
 30
0.0
  0
POINT
  5
DB2
330
A56
100
AcDbEntity
  8
DEFPOINTS
 62
     0
440
 16777216
100
AcDbPoint
 10
1455.190546665603
 20
2969.884512372761
 30
0.0
  0
ENDBLK
  5
A62
330
A56
100
AcDbEntity
  8
0
100
AcDbBlockEnd
  0
BLOCK
  5
A6F
330
A64
100
AcDbEntity
  8
0
100
AcDbBlockBegin
  2
*D54
 70
     1
 10
0.0
 20
0.0
 30
0.0
  3
*D54
  1

  0
LINE
  5
DB3
330
A64
100
AcDbEntity
  8
SUNPOU
 62
     0
440
 16777216
370
    -2
100
AcDbLine
 10
1535.488384989647
 20
2719.884512372761
 30
0.0
 11
1319.140215650186
 21
2719.884512372761
 31
0.0
  0
LINE
  5
DB4
330
A64
100
AcDbEntity
  8
SUNPOU
 62
     0
440
 16777216
370
    -2
100
AcDbLine
 10
1557.988384989647
 20
2674.884512372761
 30
0.0
 11
1319.140215650186
 21
2674.884512372761
 31
0.0
  0
LINE
  5
DB5
330
A64
100
AcDbEntity
  8
SUNPOU
 62
     0
440
 16777216
370
    -2
100
AcDbLine
 10
1326.640215650186
 20
2749.884512372761
 30
0.0
 11
1326.640215650186
 21
2779.884512372761
 31
0.0
  0
LINE
  5
DB6
330
A64
100
AcDbEntity
  8
SUNPOU
 62
     0
440
 16777216
370
    -2
100
AcDbLine
 10
1326.640215650186
 20
2644.884512372761
 30
0.0
 11
1326.640215650186
 21
2614.884512372761
 31
0.0
  0
SOLID
  5
DB7
330
A64
100
AcDbEntity
  8
SUNPOU
 62
     0
440
 16777216
100
AcDbTrace
 10
1321.640215650186
 20
2749.884512372761
 30
0.0
 11
1331.640215650186
 21
2749.884512372761
 31
0.0
 12
1326.640215650186
 22
2719.884512372761
 32
0.0
 13
1326.640215650186
 23
2719.884512372761
 33
0.0
  0
SOLID
  5
DB8
330
A64
100
AcDbEntity
  8
SUNPOU
 62
     0
440
 16777216
100
AcDbTrace
 10
1321.640215650186
 20
2644.884512372761
 30
0.0
 11
1331.640215650186
 21
2644.884512372761
 31
0.0
 12
1326.640215650186
 22
2674.884512372761
 32
0.0
 13
1326.640215650186
 23
2674.884512372761
 33
0.0
  0
MTEXT
  5
DB9
330
A64
100
AcDbEntity
  8
SUNPOU
 62
     0
440
 16777216
100
AcDbMText
 10
1292.140215650186
 20
2697.384512372761
 30
0.0
 40
45.0
 41
0.0
 71
     5
 72
     1
  1
\A1;45
 11
6.123031769111886E-17
 21
1.0
 31
0.0
 73
     1
 44
1.0
  0
POINT
  5
DBA
330
A64
100
AcDbEntity
  8
DEFPOINTS
 62
     0
440
 16777216
100
AcDbPoint
 10
1565.488384989647
 20
2719.884512372761
 30
0.0
  0
POINT
  5
DBB
330
A64
100
AcDbEntity
  8
DEFPOINTS
 62
     0
440
 16777216
100
AcDbPoint
 10
1587.988384989647
 20
2674.884512372761
 30
0.0
  0
POINT
  5
DBC
330
A64
100
AcDbEntity
  8
DEFPOINTS
 62
     0
440
 16777216
100
AcDbPoint
 10
1326.640215650186
 20
2674.884512372761
 30
0.0
  0
ENDBLK
  5
A70
330
A64
100
AcDbEntity
  8
0
100
AcDbBlockEnd
  0
BLOCK
  5
A7C
330
A72
100
AcDbEntity
  8
0
100
AcDbBlockBegin
  2
*D55
 70
     1
 10
0.0
 20
0.0
 30
0.0
  3
*D55
  1

  0
LINE
  5
DBD
330
A72
100
AcDbEntity
  8
SUNPOU
 62
     0
440
 16777216
370
    -2
100
AcDbLine
 10
1515.488384989647
 20
3019.884512372761
 30
0.0
 11
1232.984149839358
 21
3019.884512372761
 31
0.0
  0
LINE
  5
DBE
330
A72
100
AcDbEntity
  8
SUNPOU
 62
     0
440
 16777216
370
    -2
100
AcDbLine
 10
1557.988384989647
 20
2674.884512372761
 30
0.0
 11
1232.984149839358
 21
2674.884512372761
 31
0.0
  0
LINE
  5
DBF
330
A72
100
AcDbEntity
  8
SUNPOU
 62
     0
440
 16777216
370
    -2
100
AcDbLine
 10
1240.484149839358
 20
2989.884512372761
 30
0.0
 11
1240.484149839358
 21
2704.884512372761
 31
0.0
  0
SOLID
  5
DC0
330
A72
100
AcDbEntity
  8
SUNPOU
 62
     0
440
 16777216
100
AcDbTrace
 10
1235.484149839358
 20
2989.884512372761
 30
0.0
 11
1245.484149839358
 21
2989.884512372761
 31
0.0
 12
1240.484149839358
 22
3019.884512372761
 32
0.0
 13
1240.484149839358
 23
3019.884512372761
 33
0.0
  0
SOLID
  5
DC1
330
A72
100
AcDbEntity
  8
SUNPOU
 62
     0
440
 16777216
100
AcDbTrace
 10
1235.484149839358
 20
2704.884512372761
 30
0.0
 11
1245.484149839358
 21
2704.884512372761
 31
0.0
 12
1240.484149839358
 22
2674.884512372761
 32
0.0
 13
1240.484149839358
 23
2674.884512372761
 33
0.0
  0
MTEXT
  5
DC2
330
A72
100
AcDbEntity
  8
SUNPOU
 62
     0
440
 16777216
100
AcDbMText
 10
1205.984149839358
 20
2847.384512372761
 30
0.0
 40
45.0
 41
0.0
 71
     5
 72
     1
  1
\A1;345
 11
6.123031769111886E-17
 21
1.0
 31
0.0
 73
     1
 44
1.0
  0
POINT
  5
DC3
330
A72
100
AcDbEntity
  8
DEFPOINTS
 62
     0
440
 16777216
100
AcDbPoint
 10
1545.488384989647
 20
3019.884512372761
 30
0.0
  0
POINT
  5
DC4
330
A72
100
AcDbEntity
  8
DEFPOINTS
 62
     0
440
 16777216
100
AcDbPoint
 10
1587.988384989647
 20
2674.884512372761
 30
0.0
  0
POINT
  5
DC5
330
A72
100
AcDbEntity
  8
DEFPOINTS
 62
     0
440
 16777216
100
AcDbPoint
 10
1240.484149839358
 20
2674.884512372761
 30
0.0
  0
ENDBLK
  5
A7D
330
A72
100
AcDbEntity
  8
0
100
AcDbBlockEnd
  0
BLOCK
  5
A94
330
A89
100
AcDbEntity
  8
0
100
AcDbBlockBegin
  2
*D56
 70
     1
 10
0.0
 20
0.0
 30
0.0
  3
*D56
  1

  0
LINE
  5
DC6
330
A89
100
AcDbEntity
  8
SUNPOU
 62
     0
440
 16777216
370
    -2
100
AcDbLine
 10
1565.488384989647
 20
2749.884512372761
 30
0.0
 11
1565.488384989647
 21
2891.27504446177
 31
0.0
  0
LINE
  5
DC7
330
A89
100
AcDbEntity
  8
SUNPOU
 62
     0
440
 16777216
370
    -2
100
AcDbLine
 10
1610.488384989647
 20
2749.884512372761
 30
0.0
 11
1610.488384989647
 21
2891.27504446177
 31
0.0
  0
LINE
  5
DC8
330
A89
100
AcDbEntity
  8
SUNPOU
 62
     0
440
 16777216
370
    -2
100
AcDbLine
 10
1535.488384989647
 20
2883.77504446177
 30
0.0
 11
1505.488384989647
 21
2883.77504446177
 31
0.0
  0
LINE
  5
DC9
330
A89
100
AcDbEntity
  8
SUNPOU
 62
     0
440
 16777216
370
    -2
100
AcDbLine
 10
1640.488384989647
 20
2883.77504446177
 30
0.0
 11
1670.488384989647
 21
2883.77504446177
 31
0.0
  0
SOLID
  5
DCA
330
A89
100
AcDbEntity
  8
SUNPOU
 62
     0
440
 16777216
100
AcDbTrace
 10
1535.488384989647
 20
2888.77504446177
 30
0.0
 11
1535.488384989647
 21
2878.77504446177
 31
0.0
 12
1565.488384989647
 22
2883.77504446177
 32
0.0
 13
1565.488384989647
 23
2883.77504446177
 33
0.0
  0
SOLID
  5
DCB
330
A89
100
AcDbEntity
  8
SUNPOU
 62
     0
440
 16777216
100
AcDbTrace
 10
1640.488384989647
 20
2888.77504446177
 30
0.0
 11
1640.488384989647
 21
2878.77504446177
 31
0.0
 12
1610.488384989647
 22
2883.77504446177
 32
0.0
 13
1610.488384989647
 23
2883.77504446177
 33
0.0
  0
MTEXT
  5
DCC
330
A89
100
AcDbEntity
  8
SUNPOU
 62
     0
440
 16777216
100
AcDbMText
 10
1587.988384989647
 20
2918.27504446177
 30
0.0
 40
45.0
 41
0.0
 71
     5
 72
     1
  1
\A1;45
 73
     1
 44
1.0
  0
POINT
  5
DCD
330
A89
100
AcDbEntity
  8
DEFPOINTS
 62
     0
440
 16777216
100
AcDbPoint
 10
1565.488384989647
 20
2719.884512372761
 30
0.0
  0
POINT
  5
DCE
330
A89
100
AcDbEntity
  8
DEFPOINTS
 62
     0
440
 16777216
100
AcDbPoint
 10
1610.488384989647
 20
2719.884512372761
 30
0.0
  0
POINT
  5
DCF
330
A89
100
AcDbEntity
  8
DEFPOINTS
 62
     0
440
 16777216
100
AcDbPoint
 10
1610.488384989647
 20
2883.77504446177
 30
0.0
  0
ENDBLK
  5
A95
330
A89
100
AcDbEntity
  8
0
100
AcDbBlockEnd
  0
BLOCK
  5
AA1
330
A97
100
AcDbEntity
  8
0
100
AcDbBlockBegin
  2
*D57
 70
     1
 10
0.0
 20
0.0
 30
0.0
  3
*D57
  1

  0
LINE
  5
DD0
330
A97
100
AcDbEntity
  8
SUNPOU
 62
     0
440
 16777216
370
    -2
100
AcDbLine
 10
1535.488384989647
 20
2719.884512372761
 30
0.0
 11
1408.360623639524
 21
2719.884512372761
 31
0.0
  0
LINE
  5
DD1
330
A97
100
AcDbEntity
  8
SUNPOU
 62
     0
440
 16777216
370
    -2
100
AcDbLine
 10
1509.873531038371
 20
2819.884512372761
 30
0.0
 11
1408.360623639524
 21
2819.884512372761
 31
0.0
  0
LINE
  5
DD2
330
A97
100
AcDbEntity
  8
SUNPOU
 62
     0
440
 16777216
370
    -2
100
AcDbLine
 10
1415.860623639524
 20
2749.884512372761
 30
0.0
 11
1415.860623639524
 21
2789.884512372761
 31
0.0
  0
SOLID
  5
DD3
330
A97
100
AcDbEntity
  8
SUNPOU
 62
     0
440
 16777216
100
AcDbTrace
 10
1410.860623639524
 20
2749.884512372761
 30
0.0
 11
1420.860623639524
 21
2749.884512372761
 31
0.0
 12
1415.860623639524
 22
2719.884512372761
 32
0.0
 13
1415.860623639524
 23
2719.884512372761
 33
0.0
  0
SOLID
  5
DD4
330
A97
100
AcDbEntity
  8
SUNPOU
 62
     0
440
 16777216
100
AcDbTrace
 10
1410.860623639524
 20
2789.884512372761
 30
0.0
 11
1420.860623639524
 21
2789.884512372761
 31
0.0
 12
1415.860623639524
 22
2819.884512372761
 32
0.0
 13
1415.860623639524
 23
2819.884512372761
 33
0.0
  0
MTEXT
  5
DD5
330
A97
100
AcDbEntity
  8
SUNPOU
 62
     0
440
 16777216
100
AcDbMText
 10
1381.360623639524
 20
2769.884512372761
 30
0.0
 40
45.0
 41
0.0
 71
     5
 72
     1
  1
\A1;100
 11
6.123031769111886E-17
 21
1.0
 31
0.0
 73
     1
 44
1.0
  0
POINT
  5
DD6
330
A97
100
AcDbEntity
  8
DEFPOINTS
 62
     0
440
 16777216
100
AcDbPoint
 10
1565.488384989647
 20
2719.884512372761
 30
0.0
  0
POINT
  5
DD7
330
A97
100
AcDbEntity
  8
DEFPOINTS
 62
     0
440
 16777216
100
AcDbPoint
 10
1539.873531038371
 20
2819.884512372761
 30
0.0
  0
POINT
  5
DD8
330
A97
100
AcDbEntity
  8
DEFPOINTS
 62
     0
440
 16777216
100
AcDbPoint
 10
1415.860623639524
 20
2819.884512372761
 30
0.0
  0
ENDBLK
  5
AA2
330
A97
100
AcDbEntity
  8
0
100
AcDbBlockEnd
  0
BLOCK
  5
AAE
330
AA4
100
AcDbEntity
  8
0
100
AcDbBlockBegin
  2
*D58
 70
     1
 10
0.0
 20
0.0
 30
0.0
  3
*D58
  1

  0
LINE
  5
DD9
330
AA4
100
AcDbEntity
  8
SUNPOU
 62
     0
440
 16777216
370
    -2
100
AcDbLine
 10
1610.488384989647
 20
2749.884512372761
 30
0.0
 11
1610.488384989647
 21
2891.27504446177
 31
0.0
  0
LINE
  5
DDA
330
AA4
100
AcDbEntity
  8
SUNPOU
 62
     0
440
 16777216
370
    -2
100
AcDbLine
 10
1870.488384989647
 20
2749.884512372761
 30
0.0
 11
1870.488384989647
 21
2891.27504446177
 31
0.0
  0
LINE
  5
DDB
330
AA4
100
AcDbEntity
  8
SUNPOU
 62
     0
440
 16777216
370
    -2
100
AcDbLine
 10
1640.488384989647
 20
2883.77504446177
 30
0.0
 11
1840.488384989647
 21
2883.77504446177
 31
0.0
  0
SOLID
  5
DDC
330
AA4
100
AcDbEntity
  8
SUNPOU
 62
     0
440
 16777216
100
AcDbTrace
 10
1640.488384989647
 20
2888.77504446177
 30
0.0
 11
1640.488384989647
 21
2878.77504446177
 31
0.0
 12
1610.488384989647
 22
2883.77504446177
 32
0.0
 13
1610.488384989647
 23
2883.77504446177
 33
0.0
  0
SOLID
  5
DDD
330
AA4
100
AcDbEntity
  8
SUNPOU
 62
     0
440
 16777216
100
AcDbTrace
 10
1840.488384989647
 20
2888.77504446177
 30
0.0
 11
1840.488384989647
 21
2878.77504446177
 31
0.0
 12
1870.488384989647
 22
2883.77504446177
 32
0.0
 13
1870.488384989647
 23
2883.77504446177
 33
0.0
  0
MTEXT
  5
DDE
330
AA4
100
AcDbEntity
  8
SUNPOU
 62
     0
440
 16777216
100
AcDbMText
 10
1740.488384989647
 20
2918.27504446177
 30
0.0
 40
45.0
 41
0.0
 71
     5
 72
     1
  1
\A1;260
 73
     1
 44
1.0
  0
POINT
  5
DDF
330
AA4
100
AcDbEntity
  8
DEFPOINTS
 62
     0
440
 16777216
100
AcDbPoint
 10
1610.488384989647
 20
2719.884512372761
 30
0.0
  0
POINT
  5
DE0
330
AA4
100
AcDbEntity
  8
DEFPOINTS
 62
     0
440
 16777216
100
AcDbPoint
 10
1870.488384989647
 20
2719.884512372761
 30
0.0
  0
POINT
  5
DE1
330
AA4
100
AcDbEntity
  8
DEFPOINTS
 62
     0
440
 16777216
100
AcDbPoint
 10
1870.488384989647
 20
2883.77504446177
 30
0.0
  0
ENDBLK
  5
AAF
330
AA4
100
AcDbEntity
  8
0
100
AcDbBlockEnd
  0
BLOCK
  5
ABC
330
AB1
100
AcDbEntity
  8
0
100
AcDbBlockBegin
  2
*D59
 70
     1
 10
0.0
 20
0.0
 30
0.0
  3
*D59
  1

  0
LINE
  5
DE2
330
AB1
100
AcDbEntity
  8
SUNPOU
 62
     0
440
 16777216
370
    -2
100
AcDbLine
 10
1870.488384989647
 20
2749.884512372761
 30
0.0
 11
1870.488384989647
 21
2891.27504446177
 31
0.0
  0
LINE
  5
DE3
330
AB1
100
AcDbEntity
  8
SUNPOU
 62
     0
440
 16777216
370
    -2
100
AcDbLine
 10
1915.488384989647
 20
2749.884512372761
 30
0.0
 11
1915.488384989647
 21
2891.27504446177
 31
0.0
  0
LINE
  5
DE4
330
AB1
100
AcDbEntity
  8
SUNPOU
 62
     0
440
 16777216
370
    -2
100
AcDbLine
 10
1840.488384989647
 20
2883.77504446177
 30
0.0
 11
1810.488384989647
 21
2883.77504446177
 31
0.0
  0
LINE
  5
DE5
330
AB1
100
AcDbEntity
  8
SUNPOU
 62
     0
440
 16777216
370
    -2
100
AcDbLine
 10
1945.488384989647
 20
2883.77504446177
 30
0.0
 11
1975.488384989647
 21
2883.77504446177
 31
0.0
  0
SOLID
  5
DE6
330
AB1
100
AcDbEntity
  8
SUNPOU
 62
     0
440
 16777216
100
AcDbTrace
 10
1840.488384989647
 20
2888.77504446177
 30
0.0
 11
1840.488384989647
 21
2878.77504446177
 31
0.0
 12
1870.488384989647
 22
2883.77504446177
 32
0.0
 13
1870.488384989647
 23
2883.77504446177
 33
0.0
  0
SOLID
  5
DE7
330
AB1
100
AcDbEntity
  8
SUNPOU
 62
     0
440
 16777216
100
AcDbTrace
 10
1945.488384989647
 20
2888.77504446177
 30
0.0
 11
1945.488384989647
 21
2878.77504446177
 31
0.0
 12
1915.488384989647
 22
2883.77504446177
 32
0.0
 13
1915.488384989647
 23
2883.77504446177
 33
0.0
  0
MTEXT
  5
DE8
330
AB1
100
AcDbEntity
  8
SUNPOU
 62
     0
440
 16777216
100
AcDbMText
 10
1892.988384989647
 20
2918.27504446177
 30
0.0
 40
45.0
 41
0.0
 71
     5
 72
     1
  1
\A1;45
 73
     1
 44
1.0
  0
POINT
  5
DE9
330
AB1
100
AcDbEntity
  8
DEFPOINTS
 62
     0
440
 16777216
100
AcDbPoint
 10
1870.488384989647
 20
2719.884512372761
 30
0.0
  0
POINT
  5
DEA
330
AB1
100
AcDbEntity
  8
DEFPOINTS
 62
     0
440
 16777216
100
AcDbPoint
 10
1915.488384989647
 20
2719.884512372761
 30
0.0
  0
POINT
  5
DEB
330
AB1
100
AcDbEntity
  8
DEFPOINTS
 62
     0
440
 16777216
100
AcDbPoint
 10
1915.488384989647
 20
2883.77504446177
 30
0.0
  0
ENDBLK
  5
ABD
330
AB1
100
AcDbEntity
  8
0
100
AcDbBlockEnd
  0
BLOCK
  5
AC9
330
ABF
100
AcDbEntity
  8
0
100
AcDbBlockBegin
  2
*D60
 70
     1
 10
0.0
 20
0.0
 30
0.0
  3
*D60
  1

  0
LINE
  5
DEC
330
ABF
100
AcDbEntity
  8
SUNPOU
 62
     0
440
 16777216
370
    -2
100
AcDbLine
 10
1587.988384989647
 20
2644.884512372761
 30
0.0
 11
1587.988384989647
 21
2475.24094286597
 31
0.0
  0
LINE
  5
DED
330
ABF
100
AcDbEntity
  8
SUNPOU
 62
     0
440
 16777216
370
    -2
100
AcDbLine
 10
1892.988384989647
 20
2644.884512372761
 30
0.0
 11
1892.988384989647
 21
2475.24094286597
 31
0.0
  0
LINE
  5
DEE
330
ABF
100
AcDbEntity
  8
SUNPOU
 62
     0
440
 16777216
370
    -2
100
AcDbLine
 10
1617.988384989647
 20
2482.74094286597
 30
0.0
 11
1862.988384989647
 21
2482.74094286597
 31
0.0
  0
SOLID
  5
DEF
330
ABF
100
AcDbEntity
  8
SUNPOU
 62
     0
440
 16777216
100
AcDbTrace
 10
1617.988384989647
 20
2487.74094286597
 30
0.0
 11
1617.988384989647
 21
2477.74094286597
 31
0.0
 12
1587.988384989647
 22
2482.74094286597
 32
0.0
 13
1587.988384989647
 23
2482.74094286597
 33
0.0
  0
SOLID
  5
DF0
330
ABF
100
AcDbEntity
  8
SUNPOU
 62
     0
440
 16777216
100
AcDbTrace
 10
1862.988384989647
 20
2487.74094286597
 30
0.0
 11
1862.988384989647
 21
2477.74094286597
 31
0.0
 12
1892.988384989647
 22
2482.74094286597
 32
0.0
 13
1892.988384989647
 23
2482.74094286597
 33
0.0
  0
MTEXT
  5
DF1
330
ABF
100
AcDbEntity
  8
SUNPOU
 62
     0
440
 16777216
100
AcDbMText
 10
1740.488384989647
 20
2517.24094286597
 30
0.0
 40
45.0
 41
0.0
 71
     5
 72
     1
  1
\A1;305
 73
     1
 44
1.0
  0
POINT
  5
DF2
330
ABF
100
AcDbEntity
  8
DEFPOINTS
 62
     0
440
 16777216
100
AcDbPoint
 10
1587.988384989647
 20
2674.884512372761
 30
0.0
  0
POINT
  5
DF3
330
ABF
100
AcDbEntity
  8
DEFPOINTS
 62
     0
440
 16777216
100
AcDbPoint
 10
1892.988384989647
 20
2674.884512372761
 30
0.0
  0
POINT
  5
DF4
330
ABF
100
AcDbEntity
  8
DEFPOINTS
 62
     0
440
 16777216
100
AcDbPoint
 10
1892.988384989647
 20
2482.74094286597
 30
0.0
  0
ENDBLK
  5
ACA
330
ABF
100
AcDbEntity
  8
0
100
AcDbBlockEnd
  0
BLOCK
  5
AD6
330
AD0
100
AcDbEntity
  8
0
100
AcDbBlockBegin
  2
*D61
 70
     1
 10
0.0
 20
0.0
 30
0.0
  3
*D61
  1

  0
LINE
  5
DF5
330
AD0
100
AcDbEntity
  8
SUNPOU
 62
     0
440
 16777216
370
    -2
100
AcDbLine
 10
1424.106877145392
 20
2548.730037204953
 30
0.0
 11
1596.995107647508
 21
2711.846798655343
 31
0.0
  0
MTEXT
  5
DF6
330
AD0
100
AcDbEntity
  8
SUNPOU
 62
     0
440
 16777216
100
AcDbMText
 10
1441.89083049916
 20
2612.940480305052
 30
0.0
 40
45.0
 41
0.0
 71
     5
 72
     1
  1
\A1;R40
 11
0.7273628716828638
 21
0.6862530531059645
 31
0.0
 73
     1
 44
1.0
  0
SOLID
  5
DF7
330
AD0
100
AcDbEntity
  8
SUNPOU
 62
     0
440
 16777216
100
AcDbTrace
 10
1593.563842381978
 20
2715.483613013757
 30
0.0
 11
1600.426372913038
 21
2708.209984296929
 31
0.0
 12
1618.815993797994
 22
2732.434390248522
 32
0.0
 13
1618.815993797994
 23
2732.434390248522
 33
0.0
  0
POINT
  5
DF8
330
AD0
100
AcDbEntity
  8
DEFPOINTS
 62
     0
440
 16777216
100
AcDbPoint
 10
1618.815993797994
 20
2732.434390248522
 30
0.0
  0
POINT
  5
DF9
330
AD0
100
AcDbEntity
  8
DEFPOINTS
 62
     0
440
 16777216
100
AcDbPoint
 10
1647.910508665308
 20
2759.884512372761
 30
0.0
  0
ENDBLK
  5
AD7
330
AD0
100
AcDbEntity
  8
0
100
AcDbBlockEnd
  0
BLOCK
  5
C95
330
C8B
100
AcDbEntity
  8
0
100
AcDbBlockBegin
  2
*D62
 70
     1
 10
0.0
 20
0.0
 30
0.0
  3
*D62
  1

  0
LINE
  5
DFA
330
C8B
100
AcDbEntity
  8
SUNPOU
 62
     0
440
 16777216
370
    -2
100
AcDbLine
 10
2768.527396424
 20
2644.884512372761
 30
0.0
 11
2768.527396424
 21
2386.94833259833
 31
0.0
  0
LINE
  5
DFB
330
C8B
100
AcDbEntity
  8
SUNPOU
 62
     0
440
 16777216
370
    -2
100
AcDbLine
 10
3018.527396424
 20
2644.88451237276
 30
0.0
 11
3018.527396424
 21
2386.94833259833
 31
0.0
  0
LINE
  5
DFC
330
C8B
100
AcDbEntity
  8
SUNPOU
 62
     0
440
 16777216
370
    -2
100
AcDbLine
 10
2798.527396424
 20
2394.44833259833
 30
0.0
 11
2988.527396424
 21
2394.44833259833
 31
0.0
  0
SOLID
  5
DFD
330
C8B
100
AcDbEntity
  8
SUNPOU
 62
     0
440
 16777216
100
AcDbTrace
 10
2798.527396424
 20
2399.44833259833
 30
0.0
 11
2798.527396424
 21
2389.44833259833
 31
0.0
 12
2768.527396424
 22
2394.44833259833
 32
0.0
 13
2768.527396424
 23
2394.44833259833
 33
0.0
  0
SOLID
  5
DFE
330
C8B
100
AcDbEntity
  8
SUNPOU
 62
     0
440
 16777216
100
AcDbTrace
 10
2988.527396424
 20
2399.44833259833
 30
0.0
 11
2988.527396424
 21
2389.44833259833
 31
0.0
 12
3018.527396424
 22
2394.44833259833
 32
0.0
 13
3018.527396424
 23
2394.44833259833
 33
0.0
  0
MTEXT
  5
DFF
330
C8B
100
AcDbEntity
  8
SUNPOU
 62
     0
440
 16777216
100
AcDbMText
 10
2893.527396424
 20
2428.94833259833
 30
0.0
 40
45.0
 41
0.0
 71
     5
 72
     1
  1
\A1;250
 73
     1
 44
1.0
  0
POINT
  5
E00
330
C8B
100
AcDbEntity
  8
DEFPOINTS
 62
     0
440
 16777216
100
AcDbPoint
 10
2768.527396424
 20
2674.884512372761
 30
0.0
  0
POINT
  5
E01
330
C8B
100
AcDbEntity
  8
DEFPOINTS
 62
     0
440
 16777216
100
AcDbPoint
 10
3018.527396424
 20
2674.88451237276
 30
0.0
  0
POINT
  5
E02
330
C8B
100
AcDbEntity
  8
DEFPOINTS
 62
     0
440
 16777216
100
AcDbPoint
 10
3018.527396424
 20
2394.44833259833
 30
0.0
  0
ENDBLK
  5
C96
330
C8B
100
AcDbEntity
  8
0
100
AcDbBlockEnd
  0
BLOCK
  5
CA1
330
C97
100
AcDbEntity
  8
0
100
AcDbBlockBegin
  2
*D63
 70
     1
 10
0.0
 20
0.0
 30
0.0
  3
*D63
  1

  0
LINE
  5
E03
330
C97
100
AcDbEntity
  8
SUNPOU
 62
     0
440
 16777216
370
    -2
100
AcDbLine
 10
3018.527396424
 20
2644.88451237276
 30
0.0
 11
3018.527396424
 21
2386.94833259833
 31
0.0
  0
LINE
  5
E04
330
C97
100
AcDbEntity
  8
SUNPOU
 62
     0
440
 16777216
370
    -2
100
AcDbLine
 10
3518.527396424
 20
2644.88451237276
 30
0.0
 11
3518.527396424
 21
2386.94833259833
 31
0.0
  0
LINE
  5
E05
330
C97
100
AcDbEntity
  8
SUNPOU
 62
     0
440
 16777216
370
    -2
100
AcDbLine
 10
3048.527396424
 20
2394.44833259833
 30
0.0
 11
3488.527396424
 21
2394.44833259833
 31
0.0
  0
SOLID
  5
E06
330
C97
100
AcDbEntity
  8
SUNPOU
 62
     0
440
 16777216
100
AcDbTrace
 10
3048.527396424
 20
2399.44833259833
 30
0.0
 11
3048.527396424
 21
2389.44833259833
 31
0.0
 12
3018.527396424
 22
2394.44833259833
 32
0.0
 13
3018.527396424
 23
2394.44833259833
 33
0.0
  0
SOLID
  5
E07
330
C97
100
AcDbEntity
  8
SUNPOU
 62
     0
440
 16777216
100
AcDbTrace
 10
3488.527396424
 20
2399.44833259833
 30
0.0
 11
3488.527396424
 21
2389.44833259833
 31
0.0
 12
3518.527396424
 22
2394.44833259833
 32
0.0
 13
3518.527396424
 23
2394.44833259833
 33
0.0
  0
MTEXT
  5
E08
330
C97
100
AcDbEntity
  8
SUNPOU
 62
     0
440
 16777216
100
AcDbMText
 10
3268.527396424
 20
2428.94833259833
 30
0.0
 40
45.0
 41
0.0
 71
     5
 72
     1
  1
\A1;500
 73
     1
 44
1.0
  0
POINT
  5
E09
330
C97
100
AcDbEntity
  8
DEFPOINTS
 62
     0
440
 16777216
100
AcDbPoint
 10
3018.527396424
 20
2674.88451237276
 30
0.0
  0
POINT
  5
E0A
330
C97
100
AcDbEntity
  8
DEFPOINTS
 62
     0
440
 16777216
100
AcDbPoint
 10
3518.527396424
 20
2674.88451237276
 30
0.0
  0
POINT
  5
E0B
330
C97
100
AcDbEntity
  8
DEFPOINTS
 62
     0
440
 16777216
100
AcDbPoint
 10
3518.527396424
 20
2394.44833259833
 30
0.0
  0
ENDBLK
  5
CA2
330
C97
100
AcDbEntity
  8
0
100
AcDbBlockEnd
  0
BLOCK
  5
CAD
330
CA3
100
AcDbEntity
  8
0
100
AcDbBlockBegin
  2
*D64
 70
     1
 10
0.0
 20
0.0
 30
0.0
  3
*D64
  1

  0
LINE
  5
E0C
330
CA3
100
AcDbEntity
  8
SUNPOU
 62
     0
440
 16777216
370
    -2
100
AcDbLine
 10
3518.527396424
 20
2644.88451237276
 30
0.0
 11
3518.527396424
 21
2386.94833259833
 31
0.0
  0
LINE
  5
E0D
330
CA3
100
AcDbEntity
  8
SUNPOU
 62
     0
440
 16777216
370
    -2
100
AcDbLine
 10
4018.527396424
 20
2644.88451237276
 30
0.0
 11
4018.527396424
 21
2386.94833259833
 31
0.0
  0
LINE
  5
E0E
330
CA3
100
AcDbEntity
  8
SUNPOU
 62
     0
440
 16777216
370
    -2
100
AcDbLine
 10
3548.527396424
 20
2394.44833259833
 30
0.0
 11
3988.527396424
 21
2394.44833259833
 31
0.0
  0
SOLID
  5
E0F
330
CA3
100
AcDbEntity
  8
SUNPOU
 62
     0
440
 16777216
100
AcDbTrace
 10
3548.527396424
 20
2399.44833259833
 30
0.0
 11
3548.527396424
 21
2389.44833259833
 31
0.0
 12
3518.527396424
 22
2394.44833259833
 32
0.0
 13
3518.527396424
 23
2394.44833259833
 33
0.0
  0
SOLID
  5
E10
330
CA3
100
AcDbEntity
  8
SUNPOU
 62
     0
440
 16777216
100
AcDbTrace
 10
3988.527396424
 20
2399.44833259833
 30
0.0
 11
3988.527396424
 21
2389.44833259833
 31
0.0
 12
4018.527396424
 22
2394.44833259833
 32
0.0
 13
4018.527396424
 23
2394.44833259833
 33
0.0
  0
MTEXT
  5
E11
330
CA3
100
AcDbEntity
  8
SUNPOU
 62
     0
440
 16777216
100
AcDbMText
 10
3768.527396424
 20
2428.94833259833
 30
0.0
 40
45.0
 41
0.0
 71
     5
 72
     1
  1
\A1;500
 73
     1
 44
1.0
  0
POINT
  5
E12
330
CA3
100
AcDbEntity
  8
DEFPOINTS
 62
     0
440
 16777216
100
AcDbPoint
 10
3518.527396424
 20
2674.88451237276
 30
0.0
  0
POINT
  5
E13
330
CA3
100
AcDbEntity
  8
DEFPOINTS
 62
     0
440
 16777216
100
AcDbPoint
 10
4018.527396424
 20
2674.88451237276
 30
0.0
  0
POINT
  5
E14
330
CA3
100
AcDbEntity
  8
DEFPOINTS
 62
     0
440
 16777216
100
AcDbPoint
 10
4018.527396424
 20
2394.44833259833
 30
0.0
  0
ENDBLK
  5
CAE
330
CA3
100
AcDbEntity
  8
0
100
AcDbBlockEnd
  0
BLOCK
  5
CB9
330
CAF
100
AcDbEntity
  8
0
100
AcDbBlockBegin
  2
*D65
 70
     1
 10
0.0
 20
0.0
 30
0.0
  3
*D65
  1

  0
LINE
  5
E15
330
CAF
100
AcDbEntity
  8
SUNPOU
 62
     0
440
 16777216
370
    -2
100
AcDbLine
 10
4018.527396424
 20
2644.88451237276
 30
0.0
 11
4018.527396424
 21
2386.94833259833
 31
0.0
  0
LINE
  5
E16
330
CAF
100
AcDbEntity
  8
SUNPOU
 62
     0
440
 16777216
370
    -2
100
AcDbLine
 10
4518.527396424
 20
2644.88451237276
 30
0.0
 11
4518.527396424
 21
2386.94833259833
 31
0.0
  0
LINE
  5
E17
330
CAF
100
AcDbEntity
  8
SUNPOU
 62
     0
440
 16777216
370
    -2
100
AcDbLine
 10
4048.527396424
 20
2394.44833259833
 30
0.0
 11
4488.527396424
 21
2394.44833259833
 31
0.0
  0
SOLID
  5
E18
330
CAF
100
AcDbEntity
  8
SUNPOU
 62
     0
440
 16777216
100
AcDbTrace
 10
4048.527396424
 20
2399.44833259833
 30
0.0
 11
4048.527396424
 21
2389.44833259833
 31
0.0
 12
4018.527396424
 22
2394.44833259833
 32
0.0
 13
4018.527396424
 23
2394.44833259833
 33
0.0
  0
SOLID
  5
E19
330
CAF
100
AcDbEntity
  8
SUNPOU
 62
     0
440
 16777216
100
AcDbTrace
 10
4488.527396424
 20
2399.44833259833
 30
0.0
 11
4488.527396424
 21
2389.44833259833
 31
0.0
 12
4518.527396424
 22
2394.44833259833
 32
0.0
 13
4518.527396424
 23
2394.44833259833
 33
0.0
  0
MTEXT
  5
E1A
330
CAF
100
AcDbEntity
  8
SUNPOU
 62
     0
440
 16777216
100
AcDbMText
 10
4268.527396424
 20
2428.94833259833
 30
0.0
 40
45.0
 41
0.0
 71
     5
 72
     1
  1
\A1;500
 73
     1
 44
1.0
  0
POINT
  5
E1B
330
CAF
100
AcDbEntity
  8
DEFPOINTS
 62
     0
440
 16777216
100
AcDbPoint
 10
4018.527396424
 20
2674.88451237276
 30
0.0
  0
POINT
  5
E1C
330
CAF
100
AcDbEntity
  8
DEFPOINTS
 62
     0
440
 16777216
100
AcDbPoint
 10
4518.527396424
 20
2674.88451237276
 30
0.0
  0
POINT
  5
E1D
330
CAF
100
AcDbEntity
  8
DEFPOINTS
 62
     0
440
 16777216
100
AcDbPoint
 10
4518.527396424
 20
2394.44833259833
 30
0.0
  0
ENDBLK
  5
CBA
330
CAF
100
AcDbEntity
  8
0
100
AcDbBlockEnd
  0
BLOCK
  5
CC5
330
CBB
100
AcDbEntity
  8
0
100
AcDbBlockBegin
  2
*D66
 70
     1
 10
0.0
 20
0.0
 30
0.0
  3
*D66
  1

  0
LINE
  5
E1E
330
CBB
100
AcDbEntity
  8
SUNPOU
 62
     0
440
 16777216
370
    -2
100
AcDbLine
 10
4518.527396424
 20
2644.88451237276
 30
0.0
 11
4518.527396424
 21
2386.94833259833
 31
0.0
  0
LINE
  5
E1F
330
CBB
100
AcDbEntity
  8
SUNPOU
 62
     0
440
 16777216
370
    -2
100
AcDbLine
 10
4768.527396424
 20
2644.88451237276
 30
0.0
 11
4768.527396424
 21
2386.94833259833
 31
0.0
  0
LINE
  5
E20
330
CBB
100
AcDbEntity
  8
SUNPOU
 62
     0
440
 16777216
370
    -2
100
AcDbLine
 10
4548.527396424
 20
2394.44833259833
 30
0.0
 11
4738.527396424
 21
2394.44833259833
 31
0.0
  0
SOLID
  5
E21
330
CBB
100
AcDbEntity
  8
SUNPOU
 62
     0
440
 16777216
100
AcDbTrace
 10
4548.527396424
 20
2399.44833259833
 30
0.0
 11
4548.527396424
 21
2389.44833259833
 31
0.0
 12
4518.527396424
 22
2394.44833259833
 32
0.0
 13
4518.527396424
 23
2394.44833259833
 33
0.0
  0
SOLID
  5
E22
330
CBB
100
AcDbEntity
  8
SUNPOU
 62
     0
440
 16777216
100
AcDbTrace
 10
4738.527396424
 20
2399.44833259833
 30
0.0
 11
4738.527396424
 21
2389.44833259833
 31
0.0
 12
4768.527396424
 22
2394.44833259833
 32
0.0
 13
4768.527396424
 23
2394.44833259833
 33
0.0
  0
MTEXT
  5
E23
330
CBB
100
AcDbEntity
  8
SUNPOU
 62
     0
440
 16777216
100
AcDbMText
 10
4643.527396424
 20
2428.94833259833
 30
0.0
 40
45.0
 41
0.0
 71
     5
 72
     1
  1
\A1;250
 73
     1
 44
1.0
  0
POINT
  5
E24
330
CBB
100
AcDbEntity
  8
DEFPOINTS
 62
     0
440
 16777216
100
AcDbPoint
 10
4518.527396424
 20
2674.88451237276
 30
0.0
  0
POINT
  5
E25
330
CBB
100
AcDbEntity
  8
DEFPOINTS
 62
     0
440
 16777216
100
AcDbPoint
 10
4768.527396424
 20
2674.88451237276
 30
0.0
  0
POINT
  5
E26
330
CBB
100
AcDbEntity
  8
DEFPOINTS
 62
     0
440
 16777216
100
AcDbPoint
 10
4768.527396424
 20
2394.44833259833
 30
0.0
  0
ENDBLK
  5
CC6
330
CBB
100
AcDbEntity
  8
0
100
AcDbBlockEnd
  0
BLOCK
  5
CFF
330
CF5
100
AcDbEntity
  8
0
100
AcDbBlockBegin
  2
*D67
 70
     1
 10
0.0
 20
0.0
 30
0.0
  3
*D67
  1

  0
LINE
  5
E27
330
CF5
100
AcDbEntity
  8
SUNPOU
 62
     0
440
 16777216
370
    -2
100
AcDbLine
 10
2768.527396424
 20
3049.884512372761
 30
0.0
 11
2768.527396424
 21
3301.787977122154
 31
0.0
  0
LINE
  5
E28
330
CF5
100
AcDbEntity
  8
SUNPOU
 62
     0
440
 16777216
370
    -2
100
AcDbLine
 10
4768.527396424
 20
3049.884512372761
 30
0.0
 11
4768.527396424
 21
3301.787977122154
 31
0.0
  0
LINE
  5
E29
330
CF5
100
AcDbEntity
  8
SUNPOU
 62
     0
440
 16777216
370
    -2
100
AcDbLine
 10
2798.527396424
 20
3294.287977122154
 30
0.0
 11
4738.527396424
 21
3294.287977122154
 31
0.0
  0
SOLID
  5
E2A
330
CF5
100
AcDbEntity
  8
SUNPOU
 62
     0
440
 16777216
100
AcDbTrace
 10
2798.527396424
 20
3299.287977122154
 30
0.0
 11
2798.527396424
 21
3289.287977122154
 31
0.0
 12
2768.527396424
 22
3294.287977122154
 32
0.0
 13
2768.527396424
 23
3294.287977122154
 33
0.0
  0
SOLID
  5
E2B
330
CF5
100
AcDbEntity
  8
SUNPOU
 62
     0
440
 16777216
100
AcDbTrace
 10
4738.527396424
 20
3299.287977122154
 30
0.0
 11
4738.527396424
 21
3289.287977122154
 31
0.0
 12
4768.527396424
 22
3294.287977122154
 32
0.0
 13
4768.527396424
 23
3294.287977122154
 33
0.0
  0
MTEXT
  5
E2C
330
CF5
100
AcDbEntity
  8
SUNPOU
 62
     0
440
 16777216
100
AcDbMText
 10
3768.527396424
 20
3328.787977122154
 30
0.0
 40
45.0
 41
0.0
 71
     5
 72
     1
  1
\A1;2000
 73
     1
 44
1.0
  0
POINT
  5
E2D
330
CF5
100
AcDbEntity
  8
DEFPOINTS
 62
     0
440
 16777216
100
AcDbPoint
 10
2768.527396424
 20
3019.884512372761
 30
0.0
  0
POINT
  5
E2E
330
CF5
100
AcDbEntity
  8
DEFPOINTS
 62
     0
440
 16777216
100
AcDbPoint
 10
4768.527396424
 20
3019.884512372761
 30
0.0
  0
POINT
  5
E2F
330
CF5
100
AcDbEntity
  8
DEFPOINTS
 62
     0
440
 16777216
100
AcDbPoint
 10
4768.527396424
 20
3294.287977122154
 30
0.0
  0
ENDBLK
  5
D00
330
CF5
100
AcDbEntity
  8
0
100
AcDbBlockEnd
  0
BLOCK
  5
D0D
330
D02
100
AcDbEntity
  8
0
100
AcDbBlockBegin
  2
*D68
 70
     1
 10
0.0
 20
0.0
 30
0.0
  3
*D68
  1

  0
LINE
  5
E30
330
D02
100
AcDbEntity
  8
SUNPOU
 62
     0
440
 16777216
370
    -2
100
AcDbLine
 10
2738.527396424
 20
2674.884512372761
 30
0.0
 11
2595.136378982072
 21
2674.884512372761
 31
0.0
  0
LINE
  5
E31
330
D02
100
AcDbEntity
  8
SUNPOU
 62
     0
440
 16777216
370
    -2
100
AcDbLine
 10
2738.527396424
 20
2719.884512372761
 30
0.0
 11
2595.136378982072
 21
2719.884512372761
 31
0.0
  0
LINE
  5
E32
330
D02
100
AcDbEntity
  8
SUNPOU
 62
     0
440
 16777216
370
    -2
100
AcDbLine
 10
2602.636378982072
 20
2644.884512372761
 30
0.0
 11
2602.636378982072
 21
2614.884512372761
 31
0.0
  0
LINE
  5
E33
330
D02
100
AcDbEntity
  8
SUNPOU
 62
     0
440
 16777216
370
    -2
100
AcDbLine
 10
2602.636378982072
 20
2749.884512372761
 30
0.0
 11
2602.636378982072
 21
2779.884512372761
 31
0.0
  0
MTEXT
  5
E34
330
D02
100
AcDbEntity
  8
SUNPOU
 62
     0
440
 16777216
100
AcDbMText
 10
2568.136378982071
 20
2682.795571786006
 30
0.0
 40
45.0
 41
0.0
 71
     5
 72
     1
  1
\A1;45
 11
6.123031769111886E-17
 21
1.0
 31
0.0
 73
     1
 44
1.0
  0
SOLID
  5
E35
330
D02
100
AcDbEntity
  8
SUNPOU
 62
     0
440
 16777216
100
AcDbTrace
 10
2597.636378982072
 20
2644.884512372761
 30
0.0
 11
2607.636378982072
 21
2644.884512372761
 31
0.0
 12
2602.636378982072
 22
2674.884512372761
 32
0.0
 13
2602.636378982072
 23
2674.884512372761
 33
0.0
  0
SOLID
  5
E36
330
D02
100
AcDbEntity
  8
SUNPOU
 62
     0
440
 16777216
100
AcDbTrace
 10
2597.636378982072
 20
2749.884512372761
 30
0.0
 11
2607.636378982072
 21
2749.884512372761
 31
0.0
 12
2602.636378982072
 22
2719.884512372761
 32
0.0
 13
2602.636378982072
 23
2719.884512372761
 33
0.0
  0
POINT
  5
E37
330
D02
100
AcDbEntity
  8
DEFPOINTS
 62
     0
440
 16777216
100
AcDbPoint
 10
2768.527396424
 20
2674.884512372761
 30
0.0
  0
POINT
  5
E38
330
D02
100
AcDbEntity
  8
DEFPOINTS
 62
     0
440
 16777216
100
AcDbPoint
 10
2768.527396424
 20
2719.884512372761
 30
0.0
  0
POINT
  5
E39
330
D02
100
AcDbEntity
  8
DEFPOINTS
 62
     0
440
 16777216
100
AcDbPoint
 10
2602.636378982072
 20
2719.884512372761
 30
0.0
  0
ENDBLK
  5
D0E
330
D02
100
AcDbEntity
  8
0
100
AcDbBlockEnd
  0
BLOCK
  5
D1A
330
D10
100
AcDbEntity
  8
0
100
AcDbBlockBegin
  2
*D69
 70
     1
 10
0.0
 20
0.0
 30
0.0
  3
*D69
  1

  0
LINE
  5
E3A
330
D10
100
AcDbEntity
  8
SUNPOU
 62
     0
440
 16777216
370
    -2
100
AcDbLine
 10
2738.527396424
 20
2719.884512372761
 30
0.0
 11
2595.136378982072
 21
2719.884512372761
 31
0.0
  0
LINE
  5
E3B
330
D10
100
AcDbEntity
  8
SUNPOU
 62
     0
440
 16777216
370
    -2
100
AcDbLine
 10
2738.527396424
 20
2819.884512372761
 30
0.0
 11
2595.136378982072
 21
2819.884512372761
 31
0.0
  0
LINE
  5
E3C
330
D10
100
AcDbEntity
  8
SUNPOU
 62
     0
440
 16777216
370
    -2
100
AcDbLine
 10
2602.636378982072
 20
2749.884512372761
 30
0.0
 11
2602.636378982072
 21
2789.884512372761
 31
0.0
  0
SOLID
  5
E3D
330
D10
100
AcDbEntity
  8
SUNPOU
 62
     0
440
 16777216
100
AcDbTrace
 10
2597.636378982072
 20
2749.884512372761
 30
0.0
 11
2607.636378982072
 21
2749.884512372761
 31
0.0
 12
2602.636378982072
 22
2719.884512372761
 32
0.0
 13
2602.636378982072
 23
2719.884512372761
 33
0.0
  0
SOLID
  5
E3E
330
D10
100
AcDbEntity
  8
SUNPOU
 62
     0
440
 16777216
100
AcDbTrace
 10
2597.636378982072
 20
2789.884512372761
 30
0.0
 11
2607.636378982072
 21
2789.884512372761
 31
0.0
 12
2602.636378982072
 22
2819.884512372761
 32
0.0
 13
2602.636378982072
 23
2819.884512372761
 33
0.0
  0
MTEXT
  5
E3F
330
D10
100
AcDbEntity
  8
SUNPOU
 62
     0
440
 16777216
100
AcDbMText
 10
2568.136378982071
 20
2769.884512372761
 30
0.0
 40
45.0
 41
0.0
 71
     5
 72
     1
  1
\A1;100
 11
6.123031769111886E-17
 21
1.0
 31
0.0
 73
     1
 44
1.0
  0
POINT
  5
E40
330
D10
100
AcDbEntity
  8
DEFPOINTS
 62
     0
440
 16777216
100
AcDbPoint
 10
2768.527396424
 20
2719.884512372761
 30
0.0
  0
POINT
  5
E41
330
D10
100
AcDbEntity
  8
DEFPOINTS
 62
     0
440
 16777216
100
AcDbPoint
 10
2768.527396424
 20
2819.884512372761
 30
0.0
  0
POINT
  5
E42
330
D10
100
AcDbEntity
  8
DEFPOINTS
 62
     0
440
 16777216
100
AcDbPoint
 10
2602.636378982072
 20
2819.884512372761
 30
0.0
  0
ENDBLK
  5
D1B
330
D10
100
AcDbEntity
  8
0
100
AcDbBlockEnd
  0
ENDSEC
  0
SECTION
  2
ENTITIES
  0
TEXT
  5
608
330
17
100
AcDbEntity
  8
0
100
AcDbText
 10
2246.024978188019
 20
3822.262754907412
 30
0.0
 40
70.0
  1
排水フリューム[新潟県規格]
 41
0.8
100
AcDbText
  0
TEXT
  5
609
330
17
100
AcDbEntity
  8
0
100
AcDbText
 10
3259.784724162209
 20
3822.262754907412
 30
0.0
 40
70.0
  1
300×300×2000
 41
0.8
100
AcDbText
  0
LINE
  5
9CD
330
17
100
AcDbEntity
  8
1HASEN
 48
0.5
100
AcDbLine
 10
1740.488384989647
 20
3056.477644672621
 30
0.0
 11
1740.488384989647
 21
2627.376284546894
 31
0.0
  0
LINE
  5
9CE
330
17
100
AcDbEntity
  8
SEIHIN
100
AcDbLine
 10
1590.488384989647
 20
3019.884512372761
 30
0.0
 11
1545.488384989647
 21
3019.884512372761
 31
0.0
  0
LINE
  5
9CF
330
17
100
AcDbEntity
  8
SEIHIN
100
AcDbLine
 10
1590.488384989647
 20
3019.884512372761
 30
0.0
 11
1607.999102351043
 21
2757.223751951809
 31
0.0
  0
LINE
  5
9D0
330
17
100
AcDbEntity
  8
SEIHIN
100
AcDbLine
 10
1647.910508665308
 20
2719.884512372761
 30
0.0
 11
1740.488384989647
 21
2719.884512372761
 31
0.0
  0
LINE
  5
9DA
330
17
100
AcDbEntity
  8
SEIHIN
100
AcDbLine
 10
1587.988384989647
 20
2674.884512372761
 30
0.0
 11
1740.488384989647
 21
2674.884512372761
 31
0.0
  0
LINE
  5
9DB
330
17
100
AcDbEntity
  8
SEIHIN
100
AcDbLine
 10
1557.557350506888
 20
2957.815546855519
 30
0.0
 11
1566.264247058612
 21
2696.608650303795
 31
0.0
  0
POINT
  5
9DC
330
17
100
AcDbEntity
  8
DEFPOINTS
100
AcDbPoint
 10
1610.488384989647
 20
2719.884512372761
 30
0.0
  0
POINT
  5
9DD
330
17
100
AcDbEntity
  8
DEFPOINTS
100
AcDbPoint
 10
1565.488384989647
 20
2719.884512372761
 30
0.0
  0
LINE
  5
9DE
330
17
100
AcDbEntity
  8
SEIHIN
100
AcDbLine
 10
1545.488384989647
 20
3019.884512372761
 30
0.0
 11
1545.488384989647
 21
2969.884512372761
 31
0.0
  0
LINE
  5
9DF
330
17
100
AcDbEntity
  8
SEIHIN
100
AcDbLine
 10
1545.488384989647
 20
2969.884512372761
 30
0.0
 11
1557.557350506888
 21
2957.815546855519
 31
0.0
  0
POINT
  5
9E0
330
17
100
AcDbEntity
  8
DEFPOINTS
100
AcDbPoint
 10
1555.488384989646
 20
3019.884512372761
 30
0.0
  0
LINE
  5
9E2
330
17
100
AcDbEntity
  8
SEIHIN
100
AcDbLine
 10
1587.988384989647
 20
2674.884512372761
 30
0.0
 11
1566.264247058612
 21
2696.608650303795
 31
0.0
  0
ARC
  5
9E3
330
17
100
AcDbEntity
  8
SEIHIN
100
AcDbCircle
 10
1647.910508665308
 20
2759.884512372761
 30
0.0
 40
40.0
100
AcDbArc
 50
183.8140748342881
 51
270.0
  0
LINE
  5
9E4
330
17
100
AcDbEntity
  8
SEIHIN
100
AcDbLine
 10
1890.488384989647
 20
3019.884512372761
 30
0.0
 11
1935.488384989647
 21
3019.884512372761
 31
0.0
  0
LINE
  5
9E5
330
17
100
AcDbEntity
  8
SEIHIN
100
AcDbLine
 10
1890.488384989647
 20
3019.884512372761
 30
0.0
 11
1872.97766762825
 21
2757.223751951809
 31
0.0
  0
LINE
  5
9E6
330
17
100
AcDbEntity
  8
SEIHIN
100
AcDbLine
 10
1833.066261313986
 20
2719.884512372761
 30
0.0
 11
1740.488384989647
 21
2719.884512372761
 31
0.0
  0
ARC
  5
9E7
330
17
100
AcDbEntity
  8
SEIHIN
100
AcDbCircle
 10
1833.066261313986
 20
2759.884512372761
 30
0.0
 40
40.0
100
AcDbArc
 50
270.0
 51
356.1859251657119
  0
LINE
  5
9E8
330
17
100
AcDbEntity
  8
SEIHIN
100
AcDbLine
 10
1892.988384989647
 20
2674.884512372761
 30
0.0
 11
1740.488384989647
 21
2674.884512372761
 31
0.0
  0
LINE
  5
9E9
330
17
100
AcDbEntity
  8
SEIHIN
100
AcDbLine
 10
1923.419419472405
 20
2957.815546855519
 30
0.0
 11
1914.712522920681
 21
2696.608650303795
 31
0.0
  0
POINT
  5
9EA
330
17
100
AcDbEntity
  8
DEFPOINTS
100
AcDbPoint
 10
1870.488384989647
 20
2719.884512372761
 30
0.0
 50
180.0
  0
POINT
  5
9EB
330
17
100
AcDbEntity
  8
DEFPOINTS
100
AcDbPoint
 10
1915.488384989647
 20
2719.884512372761
 30
0.0
 50
180.0
  0
LINE
  5
9EC
330
17
100
AcDbEntity
  8
SEIHIN
100
AcDbLine
 10
1935.488384989647
 20
3019.884512372761
 30
0.0
 11
1935.488384989647
 21
2969.884512372761
 31
0.0
  0
LINE
  5
9ED
330
17
100
AcDbEntity
  8
SEIHIN
100
AcDbLine
 10
1935.488384989647
 20
2969.884512372761
 30
0.0
 11
1923.419419472406
 21
2957.815546855519
 31
0.0
  0
POINT
  5
9EE
330
17
100
AcDbEntity
  8
DEFPOINTS
100
AcDbPoint
 10
1925.488384989647
 20
3019.884512372761
 30
0.0
 50
180.0
  0
LINE
  5
9EF
330
17
100
AcDbEntity
  8
SEIHIN
100
AcDbLine
 10
1892.988384989647
 20
2674.884512372761
 30
0.0
 11
1914.712522920682
 21
2696.608650303795
 31
0.0
  0
DIMENSION
  5
9F0
330
17
100
AcDbEntity
  8
SUNPOU
100
AcDbDimension
  2
*D47
 10
1890.488384989647
 20
3208.114968802383
 30
0.0
 11
1740.488384989647
 21
3242.614968802383
 31
0.0
 70
    32
 71
     5
 42
300.0
  3
A3-15
100
AcDbAlignedDimension
 13
1590.488384989647
 23
3019.884512372761
 33
0.0
 14
1890.488384989647
 24
3019.884512372761
 34
0.0
100
AcDbRotatedDimension
  0
DIMENSION
  5
9FD
330
17
100
AcDbEntity
  8
SUNPOU
100
AcDbDimension
  2
*D48
 10
1555.488384989646
 20
3208.114968802383
 30
0.0
 11
1572.988384989647
 21
3242.614968802383
 31
0.0
 70
    32
 71
     5
 42
35.00000000000045
  3
A3-15
100
AcDbAlignedDimension
 13
1590.488384989647
 23
3019.884512372761
 33
0.0
 14
1555.488384989646
 24
3019.884512372761
 34
0.0
100
AcDbRotatedDimension
  0
DIMENSION
  5
A0B
330
17
100
AcDbEntity
  8
SUNPOU
100
AcDbDimension
  2
*D49
 10
1545.488384989647
 20
3208.114968802383
 30
0.0
 11
1505.871513189009
 21
3242.614968802383
 31
0.0
 70
   160
 71
     5
 42
9.999999999999545
  3
A3-15
100
AcDbAlignedDimension
 13
1555.488384989646
 23
3019.884512372761
 33
0.0
 14
1545.488384989647
 24
3019.884512372761
 34
0.0
100
AcDbRotatedDimension
  0
DIMENSION
  5
A2D
330
17
100
AcDbEntity
  8
SUNPOU
100
AcDbDimension
  2
*D50
 10
1935.488384989647
 20
3208.114968802383
 30
0.0
 11
1912.988384989647
 21
3242.614968802383
 31
0.0
 70
    32
 71
     5
 42
45.0
  3
A3-15
100
AcDbAlignedDimension
 13
1890.488384989647
 23
3019.884512372761
 33
0.0
 14
1935.488384989647
 24
3019.884512372761
 34
0.0
100
AcDbRotatedDimension
  0
DIMENSION
  5
A3B
330
17
100
AcDbEntity
  8
SUNPOU
100
AcDbDimension
  2
*D51
 10
1935.488384989647
 20
3294.287977122154
 30
0.0
 11
1740.488384989647
 21
3328.787977122154
 31
0.0
 70
    32
 71
     5
 42
390.0
  3
A3-15
100
AcDbAlignedDimension
 13
1545.488384989647
 23
3019.884512372761
 33
0.0
 14
1935.488384989647
 24
3019.884512372761
 34
0.0
100
AcDbRotatedDimension
  0
DIMENSION
  5
A48
330
17
100
AcDbEntity
  8
SUNPOU
100
AcDbDimension
  2
*D52
 10
1326.640215650186
 20
2719.884512372761
 30
0.0
 11
1292.140215650186
 21
2869.884512372761
 31
0.0
 70
    32
 71
     5
 42
300.0
  3
A3-15
100
AcDbAlignedDimension
 13
1545.488384989647
 23
3019.884512372761
 33
0.0
 14
1565.488384989647
 24
2719.884512372761
 34
0.0
 50
90.0
100
AcDbRotatedDimension
  0
DIMENSION
  5
A55
330
17
100
AcDbEntity
  8
SUNPOU
100
AcDbDimension
  2
*D53
 10
1455.190546665603
 20
2969.884512372761
 30
0.0
 11
1420.690546665602
 21
2994.884512372761
 31
0.0
 70
    32
 71
     5
 42
50.0
  3
A3-15
100
AcDbAlignedDimension
 13
1545.488384989647
 23
3019.884512372761
 33
0.0
 14
1545.488384989647
 24
2969.884512372761
 34
0.0
 50
90.0
100
AcDbRotatedDimension
  0
DIMENSION
  5
A63
330
17
100
AcDbEntity
  8
SUNPOU
100
AcDbDimension
  2
*D54
 10
1326.640215650186
 20
2674.884512372761
 30
0.0
 11
1292.140215650186
 21
2697.384512372761
 31
0.0
 70
    32
 71
     5
 42
45.0
  3
A3-15
100
AcDbAlignedDimension
 13
1565.488384989647
 23
2719.884512372761
 33
0.0
 14
1587.988384989647
 24
2674.884512372761
 34
0.0
 50
90.0
100
AcDbRotatedDimension
  0
DIMENSION
  5
A71
330
17
100
AcDbEntity
  8
SUNPOU
100
AcDbDimension
  2
*D55
 10
1240.484149839358
 20
2674.884512372761
 30
0.0
 11
1205.984149839358
 21
2847.384512372761
 31
0.0
 70
    32
 71
     5
 42
345.0
  3
A3-15
100
AcDbAlignedDimension
 13
1545.488384989647
 23
3019.884512372761
 33
0.0
 14
1587.988384989647
 24
2674.884512372761
 34
0.0
 50
90.0
100
AcDbRotatedDimension
  0
LINE
  5
A7E
330
17
100
AcDbEntity
  8
1HASEN
100
AcDbLine
 10
1539.873531038371
 20
2819.884512372761
 30
0.0
 11
1626.958045011925
 21
2819.884512372761
 31
0.0
  0
LINE
  5
A83
330
17
100
AcDbEntity
  8
HASEN
 48
0.5
100
AcDbLine
 10
1561.32171832298
 20
2844.884512372761
 30
0.0
 11
1602.988384989647
 21
2832.384512372761
 31
0.0
  0
LINE
  5
A84
330
17
100
AcDbEntity
  8
HASEN
 48
0.5
100
AcDbLine
 10
1562.988384989647
 20
2794.884512372761
 30
0.0
 11
1604.655051656313
 21
2807.384512372761
 31
0.0
  0
LINE
  5
A85
330
17
100
AcDbEntity
  8
1HASEN
100
AcDbLine
 10
1941.103238940922
 20
2819.884512372761
 30
0.0
 11
1854.018724967369
 21
2819.884512372761
 31
0.0
  0
LINE
  5
A86
330
17
100
AcDbEntity
  8
HASEN
 48
0.5
100
AcDbLine
 10
1919.655051656313
 20
2844.884512372761
 30
0.0
 11
1877.988384989647
 21
2832.384512372761
 31
0.0
  0
LINE
  5
A87
330
17
100
AcDbEntity
  8
HASEN
 48
0.5
100
AcDbLine
 10
1917.988384989647
 20
2794.884512372761
 30
0.0
 11
1876.32171832298
 21
2807.384512372761
 31
0.0
  0
DIMENSION
  5
A88
330
17
100
AcDbEntity
  8
SUNPOU
100
AcDbDimension
  2
*D56
 10
1610.488384989647
 20
2883.77504446177
 30
0.0
 11
1587.988384989647
 21
2918.27504446177
 31
0.0
 70
    32
 71
     5
 42
45.0
  3
A3-15
100
AcDbAlignedDimension
 13
1565.488384989647
 23
2719.884512372761
 33
0.0
 14
1610.488384989647
 24
2719.884512372761
 34
0.0
100
AcDbRotatedDimension
  0
DIMENSION
  5
A96
330
17
100
AcDbEntity
  8
SUNPOU
100
AcDbDimension
  2
*D57
 10
1415.860623639524
 20
2819.884512372761
 30
0.0
 11
1381.360623639524
 21
2769.884512372761
 31
0.0
 70
    32
 71
     5
 42
100.0
  3
A3-15
100
AcDbAlignedDimension
 13
1565.488384989647
 23
2719.884512372761
 33
0.0
 14
1539.873531038371
 24
2819.884512372761
 34
0.0
 50
90.0
100
AcDbRotatedDimension
  0
DIMENSION
  5
AA3
330
17
100
AcDbEntity
  8
SUNPOU
100
AcDbDimension
  2
*D58
 10
1870.488384989647
 20
2883.77504446177
 30
0.0
 11
1740.488384989647
 21
2918.27504446177
 31
0.0
 70
    32
 71
     5
 42
260.0000000000005
  3
A3-15
100
AcDbAlignedDimension
 13
1610.488384989647
 23
2719.884512372761
 33
0.0
 14
1870.488384989647
 24
2719.884512372761
 34
0.0
100
AcDbRotatedDimension
  0
DIMENSION
  5
AB0
330
17
100
AcDbEntity
  8
SUNPOU
100
AcDbDimension
  2
*D59
 10
1915.488384989647
 20
2883.77504446177
 30
0.0
 11
1892.988384989647
 21
2918.27504446177
 31
0.0
 70
    32
 71
     5
 42
45.0
  3
A3-15
100
AcDbAlignedDimension
 13
1870.488384989647
 23
2719.884512372761
 33
0.0
 14
1915.488384989647
 24
2719.884512372761
 34
0.0
100
AcDbRotatedDimension
  0
DIMENSION
  5
ABE
330
17
100
AcDbEntity
  8
SUNPOU
100
AcDbDimension
  2
*D60
 10
1892.988384989647
 20
2482.74094286597
 30
0.0
 11
1740.488384989647
 21
2517.24094286597
 31
0.0
 70
    32
 71
     5
 42
304.9999999999998
  3
A3-15
100
AcDbAlignedDimension
 13
1587.988384989647
 23
2674.884512372761
 33
0.0
 14
1892.988384989647
 24
2674.884512372761
 34
0.0
100
AcDbRotatedDimension
  0
TEXT
  5
ACC
330
17
100
AcDbEntity
  8
SUNPOU
100
AcDbText
 10
2057.92050641789
 20
2694.995514802351
 30
0.0
 40
45.0
  1
排水孔
 41
0.8
100
AcDbText
  0
LINE
  5
ACD
330
17
100
AcDbEntity
  8
SUNPOU
100
AcDbLine
 10
2039.040943685381
 20
2684.519080973695
 30
0.0
 11
2195.746109435087
 21
2684.519080973695
 31
0.0
  0
LEADER
  5
ACE
330
17
100
AcDbEntity
  8
SUNPOU
100
AcDbLeader
  3
A3-15
 76
     2
 10
1918.82171832298
 20
2819.884512372761
 30
0.0
 10
2039.040943685381
 20
2684.519080973695
 30
0.0
  0
DIMENSION
  5
ACF
330
17
100
AcDbEntity
  8
SUNPOU
100
AcDbDimension
  2
*D61
 10
1647.910508665308
 20
2759.884512372761
 30
0.0
 11
1465.566560831316
 21
2587.846461231993
 31
0.0
 70
   164
 71
     5
 42
40.0
  3
A3-15
100
AcDbRadialDimension
 15
1618.815993797994
 25
2732.434390248522
 35
0.0
 40
0.0
1001
ACAD
1000
DSTYLE
1002
{
1070
   279
1070
     1
1002
}
  0
LINE
  5
C42
330
17
100
AcDbEntity
  8
SEIHIN
100
AcDbLine
 10
2768.527396424
 20
3019.884512372761
 30
0.0
 11
4768.527396424
 21
3019.884512372761
 31
0.0
  0
LINE
  5
C43
330
17
100
AcDbEntity
  8
SEIHIN
100
AcDbLine
 10
2768.527396424
 20
2969.884512372761
 30
0.0
 11
4768.527396424
 21
2969.88451237276
 31
0.0
  0
LINE
  5
C44
330
17
100
AcDbEntity
  8
HASEN
100
AcDbLine
 10
2768.527396424
 20
2719.884512372761
 30
0.0
 11
4768.527396424
 21
2719.88451237276
 31
0.0
  0
LINE
  5
C45
330
17
100
AcDbEntity
  8
SEIHIN
100
AcDbLine
 10
2768.527396424
 20
2674.884512372761
 30
0.0
 11
4768.527396424
 21
2674.884512372761
 31
0.0
  0
LINE
  5
C46
330
17
100
AcDbEntity
  8
SEIHIN
100
AcDbLine
 10
2768.527396424
 20
3019.884512372761
 30
0.0
 11
2768.527396424
 21
2674.884512372761
 31
0.0
  0
LINE
  5
C47
330
17
100
AcDbEntity
  8
SEIHIN
100
AcDbLine
 10
4768.527396424
 20
3019.884512372761
 30
0.0
 11
4768.527396424
 21
2674.884512372761
 31
0.0
  0
LINE
  5
C48
330
17
100
AcDbEntity
  8
SEIHIN
100
AcDbLine
 10
2768.527396424
 20
2696.608650303795
 30
0.0
 11
4768.527396424
 21
2696.608650303795
 31
0.0
  0
LINE
  5
C49
330
17
100
AcDbEntity
  8
1HASEN
 48
0.3
100
AcDbLine
 10
2963.527396424
 20
2819.884512372761
 30
0.0
 11
3073.527396424
 21
2819.884512372761
 31
0.0
  0
CIRCLE
  5
C4A
330
17
100
AcDbEntity
  8
SUNPOU
100
AcDbCircle
 10
3018.527396424
 20
2819.884512372761
 30
0.0
 40
25.0
  0
LINE
  5
C4B
330
17
100
AcDbEntity
  8
1HASEN
 48
0.3
100
AcDbLine
 10
3018.527396424
 20
2764.884512372761
 30
0.0
 11
3018.527396424
 21
2874.884512372761
 31
0.0
  0
TEXT
  5
C4C
330
17
100
AcDbEntity
  8
SUNPOU
100
AcDbText
 10
2805.66304794224
 20
2546.461568098527
 30
0.0
 40
45.0
  1
排水孔
 41
0.8
100
AcDbText
  0
LINE
  5
C4D
330
17
100
AcDbEntity
  8
SUNPOU
100
AcDbLine
 10
2786.783485209731
 20
2535.98513426987
 30
0.0
 11
2943.488650959437
 21
2535.98513426987
 31
0.0
  0
LEADER
  5
C4E
330
17
100
AcDbEntity
  8
SUNPOU
100
AcDbLeader
  3
A3-15
 76
     2
 10
3018.527396424
 20
2819.884512372761
 30
0.0
 10
2943.488650959437
 20
2535.98513426987
 30
0.0
  0
LINE
  5
C50
330
17
100
AcDbEntity
  8
1HASEN
 48
0.3
100
AcDbLine
 10
3463.527396424
 20
2819.884512372761
 30
0.0
 11
3573.527396424
 21
2819.884512372761
 31
0.0
  0
CIRCLE
  5
C51
330
17
100
AcDbEntity
  8
SUNPOU
100
AcDbCircle
 10
3518.527396424
 20
2819.884512372761
 30
0.0
 40
25.0
  0
LINE
  5
C52
330
17
100
AcDbEntity
  8
1HASEN
 48
0.3
100
AcDbLine
 10
3518.527396424
 20
2764.884512372761
 30
0.0
 11
3518.527396424
 21
2874.884512372761
 31
0.0
  0
LINE
  5
C53
330
17
100
AcDbEntity
  8
1HASEN
 48
0.3
100
AcDbLine
 10
3963.527396424
 20
2819.884512372761
 30
0.0
 11
4073.527396424
 21
2819.884512372761
 31
0.0
  0
CIRCLE
  5
C54
330
17
100
AcDbEntity
  8
SUNPOU
100
AcDbCircle
 10
4018.527396424
 20
2819.884512372761
 30
0.0
 40
25.0
  0
LINE
  5
C55
330
17
100
AcDbEntity
  8
1HASEN
 48
0.3
100
AcDbLine
 10
4018.527396424
 20
2764.884512372761
 30
0.0
 11
4018.527396424
 21
2874.884512372761
 31
0.0
  0
LINE
  5
C56
330
17
100
AcDbEntity
  8
1HASEN
 48
0.3
100
AcDbLine
 10
4463.527396424
 20
2819.884512372761
 30
0.0
 11
4573.527396424
 21
2819.884512372761
 31
0.0
  0
CIRCLE
  5
C57
330
17
100
AcDbEntity
  8
SUNPOU
100
AcDbCircle
 10
4518.527396424
 20
2819.884512372761
 30
0.0
 40
25.0
  0
LINE
  5
C58
330
17
100
AcDbEntity
  8
1HASEN
 48
0.3
100
AcDbLine
 10
4518.527396424
 20
2764.884512372761
 30
0.0
 11
4518.527396424
 21
2874.884512372761
 31
0.0
  0
DIMENSION
  5
C86
330
17
100
AcDbEntity
  8
SUNPOU
100
AcDbDimension
  2
*D62
 10
3018.527396424
 20
2394.44833259833
 30
0.0
 11
2893.527396424
 21
2428.94833259833
 31
0.0
 70
    32
 71
     5
 42
250.0
  3
A3-15
100
AcDbAlignedDimension
 13
2768.527396424
 23
2674.884512372761
 33
0.0
 14
3018.527396424
 24
2674.88451237276
 34
0.0
100
AcDbRotatedDimension
  0
DIMENSION
  5
C87
330
17
100
AcDbEntity
  8
SUNPOU
100
AcDbDimension
  2
*D63
 10
3518.527396424
 20
2394.44833259833
 30
0.0
 11
3268.527396424
 21
2428.94833259833
 31
0.0
 70
    32
 71
     5
 42
500.0
  3
A3-15
100
AcDbAlignedDimension
 13
3018.527396424
 23
2674.88451237276
 33
0.0
 14
3518.527396424
 24
2674.88451237276
 34
0.0
100
AcDbRotatedDimension
  0
DIMENSION
  5
C88
330
17
100
AcDbEntity
  8
SUNPOU
100
AcDbDimension
  2
*D64
 10
4018.527396424
 20
2394.44833259833
 30
0.0
 11
3768.527396424
 21
2428.94833259833
 31
0.0
 70
    32
 71
     5
 42
500.0
  3
A3-15
100
AcDbAlignedDimension
 13
3518.527396424
 23
2674.88451237276
 33
0.0
 14
4018.527396424
 24
2674.88451237276
 34
0.0
100
AcDbRotatedDimension
  0
DIMENSION
  5
C89
330
17
100
AcDbEntity
  8
SUNPOU
100
AcDbDimension
  2
*D65
 10
4518.527396424
 20
2394.44833259833
 30
0.0
 11
4268.527396424
 21
2428.94833259833
 31
0.0
 70
    32
 71
     5
 42
500.0
  3
A3-15
100
AcDbAlignedDimension
 13
4018.527396424
 23
2674.88451237276
 33
0.0
 14
4518.527396424
 24
2674.88451237276
 34
0.0
100
AcDbRotatedDimension
  0
DIMENSION
  5
C8A
330
17
100
AcDbEntity
  8
SUNPOU
100
AcDbDimension
  2
*D66
 10
4768.527396424
 20
2394.44833259833
 30
0.0
 11
4643.527396424
 21
2428.94833259833
 31
0.0
 70
    32
 71
     5
 42
250.0
  3
A3-15
100
AcDbAlignedDimension
 13
4518.527396424
 23
2674.88451237276
 33
0.0
 14
4768.527396424
 24
2674.88451237276
 34
0.0
100
AcDbRotatedDimension
  0
DIMENSION
  5
CF4
330
17
100
AcDbEntity
  8
SUNPOU
100
AcDbDimension
  2
*D67
 10
4768.527396424
 20
3294.287977122154
 30
0.0
 11
3768.527396424
 21
3328.787977122154
 31
0.0
 70
    32
 71
     5
 42
2000.0
  3
A3-15
100
AcDbAlignedDimension
 13
2768.527396424
 23
3019.884512372761
 33
0.0
 14
4768.527396424
 24
3019.884512372761
 34
0.0
100
AcDbRotatedDimension
  0
DIMENSION
  5
D01
330
17
100
AcDbEntity
  8
SUNPOU
100
AcDbDimension
  2
*D68
 10
2602.636378982072
 20
2719.884512372761
 30
0.0
 11
2568.136378982071
 21
2682.795571786006
 31
0.0
 70
   160
 71
     5
 42
45.0
  3
A3-15
100
AcDbAlignedDimension
 13
2768.527396424
 23
2674.884512372761
 33
0.0
 14
2768.527396424
 24
2719.884512372761
 34
0.0
 50
90.0
100
AcDbRotatedDimension
  0
DIMENSION
  5
D0F
330
17
100
AcDbEntity
  8
SUNPOU
100
AcDbDimension
  2
*D69
 10
2602.636378982072
 20
2819.884512372761
 30
0.0
 11
2568.136378982071
 21
2769.884512372761
 31
0.0
 70
    32
 71
     5
 42
100.0
  3
A3-15
100
AcDbAlignedDimension
 13
2768.527396424
 23
2719.884512372761
 33
0.0
 14
2768.527396424
 24
2819.884512372761
 34
0.0
 50
90.0
100
AcDbRotatedDimension
  0
LINE
  5
E43
330
17
100
AcDbEntity
  8
1HASEN
 48
0.5
100
AcDbLine
 10
3768.527396424
 20
3060.40865080967
 30
0.0
 11
3768.527396424
 21
2631.878010803022
 31
0.0
  0
ENDSEC
  0
SECTION
  2
OBJECTS
  0
DICTIONARY
  5
C
330
0
100
AcDbDictionary
281
     1
  3
ACAD_CIP_PREVIOUS_PRODUCT_INFO
350
E97
  3
ACAD_COLOR
350
9D
  3
ACAD_DETAILVIEWSTYLE
350
E92
  3
ACAD_GROUP
350
D
  3
ACAD_LAYOUT
350
68
  3
ACAD_MATERIAL
350
9C
  3
ACAD_MLEADERSTYLE
350
E8E
  3
ACAD_MLINESTYLE
350
1A
  3
ACAD_PLOTSETTINGS
350
69
  3
ACAD_PLOTSTYLENAME
350
66
  3
ACAD_SCALELIST
350
E7C
  3
ACAD_SECTIONVIEWSTYLE
350
E90
  3
ACAD_TABLESTYLE
350
9E
  3
ACAD_VISUALSTYLE
350
E63
  3
ACDB_RECOMPOSE_DATA
350
EF9
  3
AcDbVariableDictionary
350
99
  0
DICTIONARY
  5
EEE
330
8
100
AcDbDictionary
280
     1
281
     1
  3
ACAD_XREC_ROUNDTRIP
360
EEF
  0
DICTIONARY
  5
E98
330
E
100
AcDbDictionary
280
     1
281
     1
  3
ADSK_XREC_LAYER_RECONCILED
360
E99
  0
DICTIONARY
  5
E9A
330
23
100
AcDbDictionary
280
     1
281
     1
  3
ADSK_XREC_LAYER_RECONCILED
360
E9B
  0
DICTIONARY
  5
E9C
330
24
100
AcDbDictionary
280
     1
281
     1
  3
ADSK_XREC_LAYER_RECONCILED
360
E9D
  0
DICTIONARY
  5
E9E
330
25
100
AcDbDictionary
280
     1
281
     1
  3
ADSK_XREC_LAYER_RECONCILED
360
E9F
  0
DICTIONARY
  5
EA0
330
26
100
AcDbDictionary
280
     1
281
     1
  3
ADSK_XREC_LAYER_RECONCILED
360
EA1
  0
DICTIONARY
  5
EA2
330
27
100
AcDbDictionary
280
     1
281
     1
  3
ADSK_XREC_LAYER_RECONCILED
360
EA3
  0
DICTIONARY
  5
EA4
330
28
100
AcDbDictionary
280
     1
281
     1
  3
ADSK_XREC_LAYER_RECONCILED
360
EA5
  0
DICTIONARY
  5
EA6
330
29
100
AcDbDictionary
280
     1
281
     1
  3
ADSK_XREC_LAYER_RECONCILED
360
EA7
  0
DICTIONARY
  5
EA8
330
2A
100
AcDbDictionary
280
     1
281
     1
  3
ADSK_XREC_LAYER_RECONCILED
360
EA9
  0
DICTIONARY
  5
95
330
17
100
AcDbDictionary
280
     1
281
     1
  3
ACAD_SORTENTS
360
804
  0
XRECORD
  5
E97
102
{ACAD_REACTORS
330
C
102
}
330
C
100
AcDbXrecord
280
     1
300
ACD
300
2014
300
ACD_F_S
  0
DICTIONARY
  5
9D
102
{ACAD_REACTORS
330
C
102
}
330
C
100
AcDbDictionary
281
     1
  0
DICTIONARY
  5
E92
102
{ACAD_REACTORS
330
C
102
}
330
C
100
AcDbDictionary
281
     1
  3
Imperial24
350
E93
  0
DICTIONARY
  5
D
102
{ACAD_REACTORS
330
C
102
}
330
C
100
AcDbDictionary
281
     1
  0
DICTIONARY
  5
68
102
{ACAD_REACTORS
330
C
102
}
330
C
100
AcDbDictionary
281
     1
  3
Model
350
6A
  3
ﾚｲｱｳﾄ1
350
6B
  0
DICTIONARY
  5
9C
102
{ACAD_REACTORS
330
C
102
}
330
C
100
AcDbDictionary
281
     1
  3
ByBlock
350
E53
  3
ByLayer
350
E4B
  3
Global
350
E5B
  0
DICTIONARY
  5
E8E
102
{ACAD_REACTORS
330
C
102
}
330
C
100
AcDbDictionary
281
     1
  3
Standard
350
E8F
  0
DICTIONARY
  5
1A
102
{ACAD_REACTORS
330
C
102
}
330
C
100
AcDbDictionary
281
     1
  3
STANDARD
350
1B
  0
DICTIONARY
  5
69
102
{ACAD_REACTORS
330
C
102
}
330
C
100
AcDbDictionary
281
     1
  0
ACDBDICTIONARYWDFLT
  5
66
102
{ACAD_REACTORS
330
C
102
}
330
C
100
AcDbDictionary
281
     1
  3
Normal
350
67
100
AcDbDictionaryWithDefault
340
67
  0
DICTIONARY
  5
E7C
102
{ACAD_REACTORS
330
C
102
}
330
C
100
AcDbDictionary
281
     1
  3
A0
350
E7D
  3
A1
350
E7E
  3
A2
350
E7F
  3
A3
350
E80
  3
A4
350
E81
  3
A5
350
E82
  3
A6
350
E83
  3
A7
350
E84
  3
A8
350
E85
  3
A9
350
E86
  3
B0
350
E87
  3
B1
350
E88
  3
B2
350
E89
  3
B3
350
E8A
  3
B4
350
E8B
  3
B5
350
E8C
  3
B6
350
E8D
  0
DICTIONARY
  5
E90
102
{ACAD_REACTORS
330
C
102
}
330
C
100
AcDbDictionary
281
     1
  3
Imperial24
350
E91
  0
DICTIONARY
  5
9E
102
{ACAD_REACTORS
330
C
102
}
330
C
100
AcDbDictionary
281
     1
  3
Standard
350
9F
  0
DICTIONARY
  5
E63
102
{ACAD_REACTORS
330
C
102
}
330
C
100
AcDbDictionary
281
     1
  3
2dWireframe
350
E69
  3
Basic
350
E68
  3
Brighten
350
E6F
  3
ColorChange
350
E73
  3
Conceptual
350
E6C
  3
Dim
350
E6E
  3
EdgeColorOff
350
E7B
  3
Facepattern
350
E72
  3
Flat
350
E64
  3
FlatWithEdges
350
E65
  3
Gouraud
350
E66
  3
GouraudWithEdges
350
E67
  3
Hidden
350
E6B
  3
JitterOff
350
E79
  3
Linepattern
350
E71
  3
OverhangOff
350
E7A
  3
Realistic
350
E6D
  3
Shaded
350
E78
  3
Shaded with edges
350
E77
  3
Shades of Gray
350
E74
  3
Sketchy
350
E75
  3
Thicken
350
E70
  3
Wireframe
350
E6A
  3
X-Ray
350
E76
  0
XRECORD
  5
EF9
102
{ACAD_REACTORS
330
C
102
}
330
C
100
AcDbXrecord
280
     1
 90
        1
330
9F
  0
DICTIONARY
  5
99
102
{ACAD_REACTORS
330
C
102
}
330
C
100
AcDbDictionary
281
     1
  3
CANNOSCALE
350
EE9
  3
CMLEADERSTYLE
350
EE5
  3
CTABLESTYLE
350
3B4
  3
CVIEWDETAILSTYLE
350
EE6
  3
CVIEWSECTIONSTYLE
350
EE7
  3
DIMASSOC
350
9A
  3
LAYEREVAL
350
EEB
  3
LAYERNOTIFY
350
EEC
  3
LIGHTINGUNITS
350
EEA
  3
MSLTSCALE
350
EE8
  3
PROJECTNAME
350
3B5
  3
XCLIPFRAME
350
EED
  0
XRECORD
  5
EEF
102
{ACAD_REACTORS
330
EEE
102
}
330
EEE
100
AcDbXrecord
280
     1
102
VTR_0.000_0.000_1.000_1.000_VISUALSTYLE
340
E69
102
VTR_0.000_0.000_1.000_1.000_GRIDDISPLAY
 70
     3
102
VTR_0.000_0.000_1.000_1.000_GRIDMAJOR
 70
     5
102
VTR_0.000_0.000_1.000_1.000_DEFAULTLIGHTING
280
     1
102
VTR_0.000_0.000_1.000_1.000_DEFAULTLIGHTINGTYPE
 70
     1
102
VTR_0.000_0.000_1.000_1.000_BRIGHTNESS
141
0.0
102
VTR_0.000_0.000_1.000_1.000_CONTRAST
142
0.0
  0
XRECORD
  5
E99
102
{ACAD_REACTORS
330
E98
102
}
330
E98
100
AcDbXrecord
280
     1
290
     1
  0
XRECORD
  5
E9B
102
{ACAD_REACTORS
330
E9A
102
}
330
E9A
100
AcDbXrecord
280
     1
290
     1
  0
XRECORD
  5
E9D
102
{ACAD_REACTORS
330
E9C
102
}
330
E9C
100
AcDbXrecord
280
     1
290
     1
  0
XRECORD
  5
E9F
102
{ACAD_REACTORS
330
E9E
102
}
330
E9E
100
AcDbXrecord
280
     1
290
     1
  0
XRECORD
  5
EA1
102
{ACAD_REACTORS
330
EA0
102
}
330
EA0
100
AcDbXrecord
280
     1
290
     1
  0
XRECORD
  5
EA3
102
{ACAD_REACTORS
330
EA2
102
}
330
EA2
100
AcDbXrecord
280
     1
290
     1
  0
XRECORD
  5
EA5
102
{ACAD_REACTORS
330
EA4
102
}
330
EA4
100
AcDbXrecord
280
     1
290
     1
  0
XRECORD
  5
EA7
102
{ACAD_REACTORS
330
EA6
102
}
330
EA6
100
AcDbXrecord
280
     1
290
     1
  0
XRECORD
  5
EA9
102
{ACAD_REACTORS
330
EA8
102
}
330
EA8
100
AcDbXrecord
280
     1
290
     1
  0
SORTENTSTABLE
  5
804
102
{ACAD_REACTORS
330
95
102
}
330
95
100
AcDbSortentsTable
330
17
331
0
  5
5F
331
608
  5
608
331
609
  5
609
331
9CD
  5
9CD
331
9CE
  5
9D1
331
9CF
  5
9D9
331
9D0
  5
9DA
331
9DA
  5
9DC
331
9DB
  5
9DD
331
9DC
  5
9DE
331
9DD
  5
9DF
331
9DE
  5
9E0
331
9DF
  5
9E1
331
9E0
  5
9E2
331
9E2
  5
9E3
331
9E3
  5
9DB
331
9E4
  5
9E4
331
9E5
  5
9E5
331
9E6
  5
9E6
331
9E7
  5
9E7
331
9E8
  5
9E8
331
9E9
  5
9E9
331
9EA
  5
9EA
331
9EB
  5
9EB
331
9EC
  5
9EC
331
9ED
  5
9ED
331
9EE
  5
9EE
331
9EF
  5
9EF
331
9F0
  5
9F0
331
9FD
  5
9FD
331
A0B
  5
A0B
331
A2D
  5
A2D
331
A3B
  5
A3B
331
A48
  5
A48
331
A55
  5
A55
331
A63
  5
A63
331
A71
  5
A71
331
A7E
  5
A7E
  0
ACAD_PROXY_OBJECT
  5
E93
102
{ACAD_REACTORS
330
E92
102
}
102
{ACAD_XDICTIONARY
360
EE3
102
}
330
E92
100
AcDbProxyObject
 90
      499
 91
      515
 95
  3276827
 70
     0
 93
     2314
310
9207000000180005C0F42F5A8DC671F815AF46E07A15AE7E07000000180005C0F42F5A8DC671FA3300000018001000000180005C0F42F5A8DC671FA02000000000000741FA028CC00000060002330000001800000852480368038003280390034803080360019001A004AD12801E002E00208031802B003080390010002B00
310
348032803B802A003C803800328010002E0033001000110012803A003180188011001F001280100012801E002E00208031802B003080390010002B00348032803B80220032803A00308034803600248032001F0012802E00280029802180208026002280100012801E002E00208031802B003080390010002B00348032803B
310
802980318030803600328010002E0033001000110012803980370011001F0012802B0340
340
F
340
0
340
13
340
F
340
13
340
13
 94
        0
  0
LAYOUT
  5
6A
102
{ACAD_REACTORS
330
68
102
}
330
68
100
AcDbPlotSettings
  1

  2
RICOH IPSiO NX850 RPCS
  4

  6

 40
0.0
 41
0.0
 42
0.0
 43
0.0
 44
0.0
 45
0.0
 46
0.0
 47
0.0
 48
0.0
 49
0.0
140
0.0
141
0.0
142
1.0
143
1.0
 70
  1712
 72
     0
 73
     0
 74
     0
  7
acad.ctb
 75
     0
 76
     0
 77
     2
 78
   300
147
1.0
148
0.0
149
0.0
100
AcDbLayout
  1
Model
 70
     1
 71
     0
 10
0.0
 20
0.0
 11
12.0
 21
9.0
 12
0.0
 22
0.0
 32
0.0
 14
0.0
 24
0.0
 34
0.0
 15
0.0
 25
0.0
 35
0.0
146
0.0
 13
0.0
 23
0.0
 33
0.0
 16
1.0
 26
0.0
 36
0.0
 17
0.0
 27
1.0
 37
0.0
 76
     0
330
17
331
E44
  0
LAYOUT
  5
6B
102
{ACAD_REACTORS
330
68
102
}
330
68
100
AcDbPlotSettings
  1

  2
RICOH IPSiO NX850 RPCS
  4

  6

 40
0.0
 41
0.0
 42
0.0
 43
0.0
 44
0.0
 45
0.0
 46
0.0
 47
0.0
 48
0.0
 49
0.0
140
0.0
141
0.0
142
1.0
143
1.0
 70
   688
 72
     0
 73
     0
 74
     5
  7
acad.ctb
 75
    16
 76
     0
 77
     2
 78
   300
147
1.0
148
0.0
149
0.0
100
AcDbLayout
  1
ﾚｲｱｳﾄ1
 70
     0
 71
     1
 10
0.0
 20
0.0
 11
12.0
 21
9.0
 12
0.0
 22
0.0
 32
0.0
 14
1.000000000000000E+20
 24
1.000000000000000E+20
 34
1.000000000000000E+20
 15
-1.000000000000000E+20
 25
-1.000000000000000E+20
 35
-1.000000000000000E+20
146
0.0
 13
0.0
 23
0.0
 33
0.0
 16
1.0
 26
0.0
 36
0.0
 17
0.0
 27
1.0
 37
0.0
 76
     0
330
14
  0
MATERIAL
  5
E53
102
{ACAD_REACTORS
330
9C
102
}
102
{ACAD_XDICTIONARY
360
EF0
102
}
330
9C
100
AcDbMaterial
  1
ByBlock
 72
     0
 73
     2
 43
0.0208333333333333
 43
0.0
 43
0.0
 43
0.0
 43
0.0
 43
0.0208333333333333
 43
0.0
 43
0.0
 43
0.0
 43
0.0
 43
1.0
 43
0.0
 43
0.0
 43
0.0
 43
0.0
 43
1.0
 77
     0
 78
     2
 47
0.0208333333333333
 47
0.0
 47
0.0
 47
0.0
 47
0.0
 47
0.0208333333333333
 47
0.0
 47
0.0
 47
0.0
 47
0.0
 47
1.0
 47
0.0
 47
0.0
 47
0.0
 47
0.0
 47
1.0
171
     0
172
     2
 49
0.0208333333333333
 49
0.0
 49
0.0
 49
0.0
 49
0.0
 49
0.0208333333333333
 49
0.0
 49
0.0
 49
0.0
 49
0.0
 49
1.0
 49
0.0
 49
0.0
 49
0.0
 49
0.0
 49
1.0
175
     0
176
     2
142
0.0208333333333333
142
0.0
142
0.0
142
0.0
142
0.0
142
0.0208333333333333
142
0.0
142
0.0
142
0.0
142
0.0
142
1.0
142
0.0
142
0.0
142
0.0
142
0.0
142
1.0
179
     0
270
     2
144
0.0208333333333333
144
0.0
144
0.0
144
0.0
144
0.0
144
0.0208333333333333
144
0.0
144
0.0
144
0.0
144
0.0
144
1.0
144
0.0
144
0.0
144
0.0
144
0.0
144
1.0
274
     2
147
0.0208333333333333
147
0.0
147
0.0
147
0.0
147
0.0
147
0.0208333333333333
147
0.0
147
0.0
147
0.0
147
0.0
147
1.0
147
0.0
147
0.0
147
0.0
147
0.0
147
1.0
  0
MATERIAL
  5
E4B
102
{ACAD_REACTORS
330
9C
102
}
102
{ACAD_XDICTIONARY
360
EF2
102
}
330
9C
100
AcDbMaterial
  1
ByLayer
 72
     0
 73
     2
 43
0.0208333333333333
 43
0.0
 43
0.0
 43
0.0
 43
0.0
 43
0.0208333333333333
 43
0.0
 43
0.0
 43
0.0
 43
0.0
 43
1.0
 43
0.0
 43
0.0
 43
0.0
 43
0.0
 43
1.0
 77
     0
 78
     2
 47
0.0208333333333333
 47
0.0
 47
0.0
 47
0.0
 47
0.0
 47
0.0208333333333333
 47
0.0
 47
0.0
 47
0.0
 47
0.0
 47
1.0
 47
0.0
 47
0.0
 47
0.0
 47
0.0
 47
1.0
171
     0
172
     2
 49
0.0208333333333333
 49
0.0
 49
0.0
 49
0.0
 49
0.0
 49
0.0208333333333333
 49
0.0
 49
0.0
 49
0.0
 49
0.0
 49
1.0
 49
0.0
 49
0.0
 49
0.0
 49
0.0
 49
1.0
175
     0
176
     2
142
0.0208333333333333
142
0.0
142
0.0
142
0.0
142
0.0
142
0.0208333333333333
142
0.0
142
0.0
142
0.0
142
0.0
142
1.0
142
0.0
142
0.0
142
0.0
142
0.0
142
1.0
179
     0
270
     2
144
0.0208333333333333
144
0.0
144
0.0
144
0.0
144
0.0
144
0.0208333333333333
144
0.0
144
0.0
144
0.0
144
0.0
144
1.0
144
0.0
144
0.0
144
0.0
144
0.0
144
1.0
274
     2
147
0.0208333333333333
147
0.0
147
0.0
147
0.0
147
0.0
147
0.0208333333333333
147
0.0
147
0.0
147
0.0
147
0.0
147
1.0
147
0.0
147
0.0
147
0.0
147
0.0
147
1.0
  0
MATERIAL
  5
E5B
102
{ACAD_REACTORS
330
9C
102
}
102
{ACAD_XDICTIONARY
360
EF4
102
}
330
9C
100
AcDbMaterial
  1
Global
 72
     0
 73
     2
 43
0.0208333333333333
 43
0.0
 43
0.0
 43
0.0
 43
0.0
 43
0.0208333333333333
 43
0.0
 43
0.0
 43
0.0
 43
0.0
 43
1.0
 43
0.0
 43
0.0
 43
0.0
 43
0.0
 43
1.0
 77
     0
 78
     2
 47
0.0208333333333333
 47
0.0
 47
0.0
 47
0.0
 47
0.0
 47
0.0208333333333333
 47
0.0
 47
0.0
 47
0.0
 47
0.0
 47
1.0
 47
0.0
 47
0.0
 47
0.0
 47
0.0
 47
1.0
171
     0
172
     2
 49
0.0208333333333333
 49
0.0
 49
0.0
 49
0.0
 49
0.0
 49
0.0208333333333333
 49
0.0
 49
0.0
 49
0.0
 49
0.0
 49
1.0
 49
0.0
 49
0.0
 49
0.0
 49
0.0
 49
1.0
175
     0
176
     2
142
0.0208333333333333
142
0.0
142
0.0
142
0.0
142
0.0
142
0.0208333333333333
142
0.0
142
0.0
142
0.0
142
0.0
142
1.0
142
0.0
142
0.0
142
0.0
142
0.0
142
1.0
179
     0
270
     2
144
0.0208333333333333
144
0.0
144
0.0
144
0.0
144
0.0
144
0.0208333333333333
144
0.0
144
0.0
144
0.0
144
0.0
144
1.0
144
0.0
144
0.0
144
0.0
144
0.0
144
1.0
274
     2
147
0.0208333333333333
147
0.0
147
0.0
147
0.0
147
0.0
147
0.0208333333333333
147
0.0
147
0.0
147
0.0
147
0.0
147
1.0
147
0.0
147
0.0
147
0.0
147
0.0
147
1.0
  0
MLEADERSTYLE
  5
E8F
102
{ACAD_REACTORS
330
E8E
102
}
330
E8E
100
AcDbMLeaderStyle
170
     2
171
     1
172
     0
 90
        2
 40
0.0
 41
0.0
173
     1
 91
-1056964608
340
11
 92
       -2
290
     1
 42
0.09
291
     1
 43
0.36
  3
Standard
341
0
 44
0.18
300

342
F
174
     1
178
     6
175
     1
176
     0
 93
-1056964608
 45
0.18
292
     0
297
     0
 46
0.18
343
0
 94
-1056964608
 47
1.0
 49
1.0
140
1.0
293
     1
141
0.0
294
     1
177
     0
142
1.0
295
     0
296
     0
143
0.125
1001
ACAD_MLEADERVER
1070
     2
  0
MLINESTYLE
  5
1B
102
{ACAD_REACTORS
330
1A
102
}
330
1A
100
AcDbMlineStyle
  2
STANDARD
 70
     0
  3

 62
   256
 51
90.0
 52
90.0
 71
     2
 49
0.5
 62
   256
  6
BYLAYER
 49
-0.5
 62
   256
  6
BYLAYER
  0
ACDBPLACEHOLDER
  5
67
102
{ACAD_REACTORS
330
66
102
}
330
66
  0
SCALE
  5
E7D
102
{ACAD_REACTORS
330
E7C
102
}
330
E7C
100
AcDbScale
 70
     0
300
1:1
140
1.0
141
1.0
290
     1
  0
SCALE
  5
E7E
102
{ACAD_REACTORS
330
E7C
102
}
330
E7C
100
AcDbScale
 70
     0
300
1/128" = 1'-0"
140
0.0078125
141
12.0
290
     0
  0
SCALE
  5
E7F
102
{ACAD_REACTORS
330
E7C
102
}
330
E7C
100
AcDbScale
 70
     0
300
1/64" = 1'-0"
140
0.015625
141
12.0
290
     0
  0
SCALE
  5
E80
102
{ACAD_REACTORS
330
E7C
102
}
330
E7C
100
AcDbScale
 70
     0
300
1/32" = 1'-0"
140
0.03125
141
12.0
290
     0
  0
SCALE
  5
E81
102
{ACAD_REACTORS
330
E7C
102
}
330
E7C
100
AcDbScale
 70
     0
300
1/16" = 1'-0"
140
0.0625
141
12.0
290
     0
  0
SCALE
  5
E82
102
{ACAD_REACTORS
330
E7C
102
}
330
E7C
100
AcDbScale
 70
     0
300
3/32" = 1'-0"
140
0.09375
141
12.0
290
     0
  0
SCALE
  5
E83
102
{ACAD_REACTORS
330
E7C
102
}
330
E7C
100
AcDbScale
 70
     0
300
1/8" = 1'-0"
140
0.125
141
12.0
290
     0
  0
SCALE
  5
E84
102
{ACAD_REACTORS
330
E7C
102
}
330
E7C
100
AcDbScale
 70
     0
300
3/16" = 1'-0"
140
0.1875
141
12.0
290
     0
  0
SCALE
  5
E85
102
{ACAD_REACTORS
330
E7C
102
}
330
E7C
100
AcDbScale
 70
     0
300
1/4" = 1'-0"
140
0.25
141
12.0
290
     0
  0
SCALE
  5
E86
102
{ACAD_REACTORS
330
E7C
102
}
330
E7C
100
AcDbScale
 70
     0
300
3/8" = 1'-0"
140
0.375
141
12.0
290
     0
  0
SCALE
  5
E87
102
{ACAD_REACTORS
330
E7C
102
}
330
E7C
100
AcDbScale
 70
     0
300
1/2" = 1'-0"
140
0.5
141
12.0
290
     0
  0
SCALE
  5
E88
102
{ACAD_REACTORS
330
E7C
102
}
330
E7C
100
AcDbScale
 70
     0
300
3/4" = 1'-0"
140
0.75
141
12.0
290
     0
  0
SCALE
  5
E89
102
{ACAD_REACTORS
330
E7C
102
}
330
E7C
100
AcDbScale
 70
     0
300
1" = 1'-0"
140
1.0
141
12.0
290
     0
  0
SCALE
  5
E8A
102
{ACAD_REACTORS
330
E7C
102
}
330
E7C
100
AcDbScale
 70
     0
300
1-1/2" = 1'-0"
140
1.5
141
12.0
290
     0
  0
SCALE
  5
E8B
102
{ACAD_REACTORS
330
E7C
102
}
330
E7C
100
AcDbScale
 70
     0
300
3" = 1'-0"
140
3.0
141
12.0
290
     0
  0
SCALE
  5
E8C
102
{ACAD_REACTORS
330
E7C
102
}
330
E7C
100
AcDbScale
 70
     0
300
6" = 1'-0"
140
6.0
141
12.0
290
     0
  0
SCALE
  5
E8D
102
{ACAD_REACTORS
330
E7C
102
}
330
E7C
100
AcDbScale
 70
     0
300
1'-0" = 1'-0"
140
12.0
141
12.0
290
     0
  0
ACAD_PROXY_OBJECT
  5
E91
102
{ACAD_REACTORS
330
E90
102
}
102
{ACAD_XDICTIONARY
360
EE1
102
}
330
E90
100
AcDbProxyObject
 90
      499
 91
      514
 95
  3276827
 70
     0
 93
     3814
310
929D000000180005C0F42F5A8DC671FC00000060001703D0BD6A3719C7E5C0F42F5A8DC6F1FA330000001800099400000060001703D0BD6A3719C7E5C0F42F5A8DC671FC00000060001703D0BD6A3719C7E808000000000001D07E80C0000006000400000064003081815AF46E07A158E7E80C8340C16A22A7D90FC9F8CAE6
310
5A70A583A07E1FE81C635378FA1F8CAE65A70A583A17E7944A7F127A97E9FA149200DA00E000CA00E400D200C200D80064006800882480160010002780160010002880160010002980160010002C00160010002D002F84A007800B8008200C600AC00C200E4004000AC00D200CA00EE00A800F200E000CA004000B800CC004
310
00044004A00E800C600620044007C004A0040004A007800B8008200C600AC00C200E4004000AC00D200CA00EE00A600CA00C600E800D200DE00DC00A600E800C200E400E8009200C8007C004A005A004A007800B8008200C600AC00C200E4004000AC00D200CA00EE00A600CA00C600E800D200DE00DC008A00DC00C800920
310
0C8007C004A00B800A000A6008600820098008A0040004A007800B8008200C600AC00C200E4004000AC00D200CA00EE00A600C600C200D800CA004000B800CC00400044004A00E600DC0044007C004A00832080270029802480198018807404C
340
F
340
0
340
0
340
13
340
13
340
F
 94
        0
  0
TABLESTYLE
  5
9F
102
{ACAD_REACTORS
330
9E
102
}
102
{ACAD_XDICTIONARY
360
EF6
102
}
330
9E
100
AcDbTableStyle
  3
Standard
 70
     0
 71
     0
 40
0.06
 41
0.06
280
     0
281
     0
  7
STANDARD
140
0.18
170
     2
 62
     0
 63
   257
283
     0
274
    -2
284
     1
 64
     0
275
    -2
285
     1
 65
     0
276
    -2
286
     1
 66
     0
277
    -2
287
     1
 67
     0
278
    -2
288
     1
 68
     0
279
    -2
289
     1
 69
     0
  7
STANDARD
140
0.25
170
     5
 62
     0
 63
   257
283
     0
274
    -2
284
     1
 64
     0
275
    -2
285
     1
 65
     0
276
    -2
286
     1
 66
     0
277
    -2
287
     1
 67
     0
278
    -2
288
     1
 68
     0
279
    -2
289
     1
 69
     0
  7
STANDARD
140
0.18
170
     5
 62
     0
 63
   257
283
     0
274
    -2
284
     1
 64
     0
275
    -2
285
     1
 65
     0
276
    -2
286
     1
 66
     0
277
    -2
287
     1
 67
     0
278
    -2
288
     1
 68
     0
279
    -2
289
     1
 69
     0
  0
VISUALSTYLE
  5
E69
102
{ACAD_REACTORS
330
E63
102
}
102
{ACAD_XDICTIONARY
360
EFA
102
}
330
E63
100
AcDbVisualStyle
  2
2dWireframe
 70
     4
 71
     0
 72
     2
 73
     0
 90
        0
 40
-0.6
 41
-30.0
 62
     5
 63
     7
421
 16777215
 74
     1
 91
        4
 64
     7
 65
   257
 75
     1
175
     1
 42
1.0
 92
        0
 66
   257
 43
1.0
 76
     1
 77
     6
 78
     2
 67
     7
 79
     5
170
     0
171
     0
290
     0
174
     0
 93
        1
 44
0.0
173
     0
291
     0
 45
0.0
1001
ACAD
1000
AcDbSavedByObjectVersion
1070
     0
  0
VISUALSTYLE
  5
E68
102
{ACAD_REACTORS
330
E63
102
}
102
{ACAD_XDICTIONARY
360
EFC
102
}
330
E63
100
AcDbVisualStyle
  2
Basic
 70
     7
 71
     1
 72
     0
 73
     1
 90
        0
 40
-0.6
 41
-30.0
 62
     5
 63
     7
421
 16777215
 74
     0
 91
        4
 64
     7
 65
   257
 75
     1
175
     1
 42
1.0
 92
        8
 66
     7
 43
1.0
 76
     1
 77
     6
 78
     2
 67
     7
 79
     5
170
     0
171
     0
290
     0
174
     0
 93
        1
 44
0.0
173
     0
291
     1
 45
0.0
1001
ACAD
1000
AcDbSavedByObjectVersion
1070
     0
  0
VISUALSTYLE
  5
E6F
102
{ACAD_REACTORS
330
E63
102
}
102
{ACAD_XDICTIONARY
360
EFE
102
}
330
E63
100
AcDbVisualStyle
  2
Brighten
 70
    12
 71
     2
 72
     2
 73
     0
 90
        0
 40
-0.6
 41
-30.0
 62
     5
 63
     7
421
 16777215
 74
     1
 91
        4
 64
     7
 65
   257
 75
     1
175
     1
 42
1.0
 92
        8
 66
     7
 43
1.0
 76
     1
 77
     6
 78
     2
 67
     7
 79
     5
170
     0
171
     0
290
     0
174
     0
 93
        1
 44
50.0
173
     0
291
     1
 45
0.0
1001
ACAD
1000
AcDbSavedByObjectVersion
1070
     0
  0
VISUALSTYLE
  5
E73
102
{ACAD_REACTORS
330
E63
102
}
102
{ACAD_XDICTIONARY
360
F00
102
}
330
E63
100
AcDbVisualStyle
  2
ColorChange
 70
    16
 71
     2
 72
     2
 73
     3
 90
        0
 40
-0.6
 41
-30.0
 62
     5
 63
     8
421
  8421504
 74
     1
 91
        4
 64
     7
 65
   257
 75
     1
175
     1
 42
1.0
 92
        8
 66
     8
424
  8421504
 43
1.0
 76
     1
 77
     6
 78
     2
 67
     7
 79
     5
170
     0
171
     0
290
     0
174
     0
 93
        1
 44
0.0
173
     0
291
     1
 45
0.0
1001
ACAD
1000
AcDbSavedByObjectVersion
1070
     0
  0
VISUALSTYLE
  5
E6C
102
{ACAD_REACTORS
330
E63
102
}
102
{ACAD_XDICTIONARY
360
F02
102
}
330
E63
100
AcDbVisualStyle
  2
Conceptual
 70
     9
 71
     3
 72
     2
 73
     0
 90
        0
 40
-0.6
 41
-30.0
 62
     5
 63
     7
421
 16777215
 74
     2
 91
        2
 64
     7
 65
   257
 75
     1
175
     1
 42
179.0
 92
        8
 66
     7
 43
1.0
 76
     1
 77
     6
 78
     2
 67
     7
 79
     3
170
     0
171
     0
290
     0
174
     0
 93
        1
 44
0.0
173
     0
291
     0
 45
0.0
1001
ACAD
1000
AcDbSavedByObjectVersion
1070
     0
  0
VISUALSTYLE
  5
E6E
102
{ACAD_REACTORS
330
E63
102
}
102
{ACAD_XDICTIONARY
360
F04
102
}
330
E63
100
AcDbVisualStyle
  2
Dim
 70
    11
 71
     2
 72
     2
 73
     0
 90
        0
 40
-0.6
 41
-30.0
 62
     5
 63
     7
421
 16777215
 74
     1
 91
        4
 64
     7
 65
   257
 75
     1
175
     1
 42
1.0
 92
        8
 66
     7
 43
1.0
 76
     1
 77
     6
 78
     2
 67
     7
 79
     5
170
     0
171
     0
290
     0
174
     0
 93
        1
 44
-50.0
173
     0
291
     1
 45
0.0
1001
ACAD
1000
AcDbSavedByObjectVersion
1070
     0
  0
VISUALSTYLE
  5
E7B
102
{ACAD_REACTORS
330
E63
102
}
102
{ACAD_XDICTIONARY
360
F06
102
}
330
E63
100
AcDbVisualStyle
  2
EdgeColorOff
 70
    22
 71
     2
 72
     2
 73
     0
 90
        0
 40
-0.6
 41
-30.0
 62
     5
 63
     7
421
 16777215
 74
     1
 91
        4
 64
     7
 65
   257
 75
     1
175
     1
 42
1.0
 92
        8
 66
     7
 43
1.0
 76
     1
 77
     6
 78
     2
 67
     7
 79
     5
170
     0
171
     0
290
     0
174
     0
 93
        1
 44
0.0
173
     0
291
     1
 45
0.0
1001
ACAD
1000
AcDbSavedByObjectVersion
1070
     0
  0
VISUALSTYLE
  5
E72
102
{ACAD_REACTORS
330
E63
102
}
102
{ACAD_XDICTIONARY
360
F08
102
}
330
E63
100
AcDbVisualStyle
  2
Facepattern
 70
    15
 71
     2
 72
     2
 73
     0
 90
        0
 40
-0.6
 41
-30.0
 62
     5
 63
     7
421
 16777215
 74
     1
 91
        4
 64
     7
 65
   257
 75
     1
175
     1
 42
1.0
 92
        8
 66
     7
 43
1.0
 76
     1
 77
     6
 78
     2
 67
     7
 79
     5
170
     0
171
     0
290
     0
174
     0
 93
        1
 44
0.0
173
     0
291
     1
 45
0.0
1001
ACAD
1000
AcDbSavedByObjectVersion
1070
     0
  0
VISUALSTYLE
  5
E64
102
{ACAD_REACTORS
330
E63
102
}
102
{ACAD_XDICTIONARY
360
F0A
102
}
330
E63
100
AcDbVisualStyle
  2
Flat
 70
     0
 71
     2
 72
     1
 73
     1
 90
        2
 40
-0.6
 41
30.0
 62
     5
 63
     7
421
 16777215
 74
     0
 91
        0
 64
     7
 65
   257
 75
     1
175
     1
 42
1.0
 92
        8
 66
     7
 43
1.0
 76
     1
 77
     6
 78
     2
 67
     7
 79
     5
170
     0
171
     0
290
     0
174
     0
 93
       13
 44
0.0
173
     0
291
     1
 45
0.0
1001
ACAD
1000
AcDbSavedByObjectVersion
1070
     0
  0
VISUALSTYLE
  5
E65
102
{ACAD_REACTORS
330
E63
102
}
102
{ACAD_XDICTIONARY
360
F0C
102
}
330
E63
100
AcDbVisualStyle
  2
FlatWithEdges
 70
     1
 71
     2
 72
     1
 73
     1
 90
        2
 40
-0.6
 41
30.0
 62
     5
 63
     7
421
 16777215
 74
     1
 91
        0
 64
     7
 65
   257
 75
     1
175
     1
 42
1.0
 92
        0
 66
   257
 43
1.0
 76
     1
 77
     6
 78
     2
 67
     7
 79
     5
170
     0
171
     0
290
     0
174
     0
 93
       13
 44
0.0
173
     0
291
     1
 45
0.0
1001
ACAD
1000
AcDbSavedByObjectVersion
1070
     0
  0
VISUALSTYLE
  5
E66
102
{ACAD_REACTORS
330
E63
102
}
102
{ACAD_XDICTIONARY
360
F0E
102
}
330
E63
100
AcDbVisualStyle
  2
Gouraud
 70
     2
 71
     2
 72
     2
 73
     1
 90
        2
 40
-0.6
 41
30.0
 62
     5
 63
     7
421
 16777215
 74
     0
 91
        0
 64
     7
 65
   257
 75
     1
175
     1
 42
1.0
 92
        0
 66
     7
 43
1.0
 76
     1
 77
     6
 78
     2
 67
     7
 79
     5
170
     0
171
     0
290
     0
174
     0
 93
       13
 44
0.0
173
     0
291
     1
 45
0.0
1001
ACAD
1000
AcDbSavedByObjectVersion
1070
     0
  0
VISUALSTYLE
  5
E67
102
{ACAD_REACTORS
330
E63
102
}
102
{ACAD_XDICTIONARY
360
F10
102
}
330
E63
100
AcDbVisualStyle
  2
GouraudWithEdges
 70
     3
 71
     2
 72
     2
 73
     1
 90
        2
 40
-0.6
 41
30.0
 62
     5
 63
     7
421
 16777215
 74
     1
 91
        0
 64
     7
 65
   257
 75
     1
175
     1
 42
1.0
 92
        0
 66
   257
 43
1.0
 76
     1
 77
     6
 78
     2
 67
     7
 79
     5
170
     0
171
     0
290
     0
174
     0
 93
       13
 44
0.0
173
     0
291
     1
 45
0.0
1001
ACAD
1000
AcDbSavedByObjectVersion
1070
     0
  0
VISUALSTYLE
  5
E6B
102
{ACAD_REACTORS
330
E63
102
}
102
{ACAD_XDICTIONARY
360
F12
102
}
330
E63
100
AcDbVisualStyle
  2
Hidden
 70
     6
 71
     1
 72
     2
 73
     2
 90
        0
 40
-0.6
 41
-30.0
 62
     5
 63
     7
421
 16777215
 74
     2
 91
        2
 64
     7
 65
   257
 75
     2
175
     1
 42
40.0
 92
        0
 66
   257
 43
1.0
 76
     1
 77
     6
 78
     2
 67
     7
 79
     3
170
     0
171
     0
290
     0
174
     0
 93
        1
 44
0.0
173
     0
291
     0
 45
0.0
1001
ACAD
1000
AcDbSavedByObjectVersion
1070
     0
  0
VISUALSTYLE
  5
E79
102
{ACAD_REACTORS
330
E63
102
}
102
{ACAD_XDICTIONARY
360
F14
102
}
330
E63
100
AcDbVisualStyle
  2
JitterOff
 70
    20
 71
     2
 72
     2
 73
     0
 90
        0
 40
-0.6
 41
-30.0
 62
     5
 63
     7
421
 16777215
 74
     1
 91
        4
 64
     7
 65
   257
 75
     1
175
     1
 42
1.0
 92
       10
 66
     7
 43
1.0
 76
     1
 77
     6
 78
     2
 67
     7
 79
     5
170
     0
171
     0
290
     0
174
     0
 93
        1
 44
0.0
173
     0
291
     1
 45
0.0
1001
ACAD
1000
AcDbSavedByObjectVersion
1070
     0
  0
VISUALSTYLE
  5
E71
102
{ACAD_REACTORS
330
E63
102
}
102
{ACAD_XDICTIONARY
360
F16
102
}
330
E63
100
AcDbVisualStyle
  2
Linepattern
 70
    14
 71
     2
 72
     2
 73
     0
 90
        0
 40
-0.6
 41
-30.0
 62
     5
 63
     7
421
 16777215
 74
     1
 91
        4
 64
     7
 65
   257
 75
     7
175
     7
 42
1.0
 92
        8
 66
     7
 43
1.0
 76
     1
 77
     6
 78
     2
 67
     7
 79
     5
170
     0
171
     0
290
     0
174
     0
 93
        1
 44
0.0
173
     0
291
     1
 45
0.0
1001
ACAD
1000
AcDbSavedByObjectVersion
1070
     0
  0
VISUALSTYLE
  5
E7A
102
{ACAD_REACTORS
330
E63
102
}
102
{ACAD_XDICTIONARY
360
F18
102
}
330
E63
100
AcDbVisualStyle
  2
OverhangOff
 70
    21
 71
     2
 72
     2
 73
     0
 90
        0
 40
-0.6
 41
-30.0
 62
     5
 63
     7
421
 16777215
 74
     1
 91
        4
 64
     7
 65
   257
 75
     1
175
     1
 42
1.0
 92
        9
 66
     7
 43
1.0
 76
     1
 77
     6
 78
     2
 67
     7
 79
     5
170
     0
171
     0
290
     0
174
     0
 93
        1
 44
0.0
173
     0
291
     1
 45
0.0
1001
ACAD
1000
AcDbSavedByObjectVersion
1070
     0
  0
VISUALSTYLE
  5
E6D
102
{ACAD_REACTORS
330
E63
102
}
102
{ACAD_XDICTIONARY
360
F1A
102
}
330
E63
100
AcDbVisualStyle
  2
Realistic
 70
     8
 71
     2
 72
     2
 73
     0
 90
        2
 40
-0.6
 41
30.0
 62
     5
 63
     7
421
 16777215
 74
     0
 91
        0
 64
     7
 65
   257
 75
     1
175
     1
 42
1.0
 92
        8
 66
   257
 43
1.0
 76
     1
 77
     6
 78
     2
 67
     7
 79
     3
170
     0
171
     0
290
     0
174
     0
 93
       13
 44
0.0
173
     0
291
     0
 45
0.0
1001
ACAD
1000
AcDbSavedByObjectVersion
1070
     0
  0
VISUALSTYLE
  5
E78
102
{ACAD_REACTORS
330
E63
102
}
102
{ACAD_XDICTIONARY
360
F1C
102
}
330
E63
100
AcDbVisualStyle
  2
Shaded
 70
    27
 71
     2
 72
     2
 73
     1
 90
        2
 40
-0.6
 41
30.0
 62
     5
 63
     7
421
 16777215
 74
     0
 91
        4
 64
     7
 65
   257
 75
     1
175
     1
 42
1.0
 92
        8
 66
   257
 43
1.0
 76
     1
 77
     6
 78
     2
 67
     8
425
  7895160
 79
     3
170
     0
171
     0
290
     0
174
     0
 93
        5
 44
0.0
173
     0
291
     0
 45
0.0
1001
ACAD
1000
AcDbSavedByObjectVersion
1070
     0
  0
VISUALSTYLE
  5
E77
102
{ACAD_REACTORS
330
E63
102
}
102
{ACAD_XDICTIONARY
360
F1E
102
}
330
E63
100
AcDbVisualStyle
  2
Shaded with edges
 70
    26
 71
     2
 72
     2
 73
     1
 90
        2
 40
-0.6
 41
30.0
 62
     5
 63
     7
421
 16777215
 74
     1
 91
       10
 64
     7
 65
   257
 75
     2
175
     1
 42
1.0
 92
        8
 66
   257
 43
1.0
 76
     1
 77
     6
 78
     2
 67
     7
 79
     3
170
     0
171
     0
290
     0
174
     0
 93
        5
 44
0.0
173
     0
291
     0
 45
0.0
1001
ACAD
1000
AcDbSavedByObjectVersion
1070
     0
  0
VISUALSTYLE
  5
E74
102
{ACAD_REACTORS
330
E63
102
}
102
{ACAD_XDICTIONARY
360
F20
102
}
330
E63
100
AcDbVisualStyle
  2
Shades of Gray
 70
    23
 71
     2
 72
     2
 73
     3
 90
        0
 40
-0.6
 41
-30.0
 62
     5
 63
     7
421
 16777215
 74
     2
 91
        2
 64
     7
 65
     7
 75
     1
175
     1
 42
40.0
 92
        8
 66
     7
 43
1.0
 76
     1
 77
     6
 78
     2
 67
     7
 79
     3
170
     0
171
     0
290
     0
174
     0
 93
        1
 44
0.0
173
     0
291
     0
 45
0.0
1001
ACAD
1000
AcDbSavedByObjectVersion
1070
     0
  0
VISUALSTYLE
  5
E75
102
{ACAD_REACTORS
330
E63
102
}
102
{ACAD_XDICTIONARY
360
F22
102
}
330
E63
100
AcDbVisualStyle
  2
Sketchy
 70
    24
 71
     1
 72
     2
 73
     2
 90
        0
 40
-0.6
 41
-30.0
 62
     5
 63
     7
421
 16777215
 74
     2
 91
        2
 64
     7
 65
     7
 75
     1
175
     1
 42
40.0
 92
       11
 66
     7
 43
1.0
 76
     1
 77
     6
 78
     2
 67
     7
 79
     6
170
     0
171
     0
290
     0
174
     0
 93
        1
 44
0.0
173
     0
291
     0
 45
0.0
1001
ACAD
1000
AcDbSavedByObjectVersion
1070
     0
  0
VISUALSTYLE
  5
E70
102
{ACAD_REACTORS
330
E63
102
}
102
{ACAD_XDICTIONARY
360
F24
102
}
330
E63
100
AcDbVisualStyle
  2
Thicken
 70
    13
 71
     2
 72
     2
 73
     0
 90
        0
 40
-0.6
 41
-30.0
 62
     5
 63
     7
421
 16777215
 74
     1
 91
        4
 64
     7
 65
   257
 75
     1
175
     1
 42
1.0
 92
       12
 66
     7
 43
1.0
 76
     1
 77
     6
 78
     2
 67
     7
 79
     5
170
     0
171
     0
290
     0
174
     0
 93
        1
 44
0.0
173
     0
291
     1
 45
0.0
1001
ACAD
1000
AcDbSavedByObjectVersion
1070
     0
  0
VISUALSTYLE
  5
E6A
102
{ACAD_REACTORS
330
E63
102
}
102
{ACAD_XDICTIONARY
360
F26
102
}
330
E63
100
AcDbVisualStyle
  2
Wireframe
 70
     5
 71
     0
 72
     2
 73
     0
 90
        0
 40
-0.6
 41
-30.0
 62
     5
 63
     7
421
 16777215
 74
     1
 91
        4
 64
     7
 65
   257
 75
     1
175
     1
 42
1.0
 92
        0
 66
   257
 43
1.0
 76
     1
 77
     6
 78
     2
 67
     7
 79
     3
170
     0
171
     0
290
     0
174
     0
 93
        1
 44
0.0
173
     0
291
     0
 45
0.0
1001
ACAD
1000
AcDbSavedByObjectVersion
1070
     0
  0
VISUALSTYLE
  5
E76
102
{ACAD_REACTORS
330
E63
102
}
102
{ACAD_XDICTIONARY
360
F28
102
}
330
E63
100
AcDbVisualStyle
  2
X-Ray
 70
    25
 71
     2
 72
     2
 73
     1
 90
        1
 40
0.5
 41
-30.0
 62
     5
 63
     7
421
 16777215
 74
     1
 91
        0
 64
     7
 65
   257
 75
     1
175
     1
 42
1.0
 92
        8
 66
     7
 43
1.0
 76
     1
 77
     6
 78
     2
 67
     7
 79
     3
170
     0
171
     0
290
     0
174
     0
 93
       13
 44
0.0
173
     0
291
     0
 45
0.0
1001
ACAD
1000
AcDbSavedByObjectVersion
1070
     0
  0
DICTIONARYVAR
  5
EE9
102
{ACAD_REACTORS
330
99
102
}
330
99
100
DictionaryVariables
280
     0
  1
1:1
  0
DICTIONARYVAR
  5
EE5
102
{ACAD_REACTORS
330
99
102
}
330
99
100
DictionaryVariables
280
     0
  1
Standard
  0
DICTIONARYVAR
  5
3B4
102
{ACAD_REACTORS
330
99
102
}
330
99
100
DictionaryVariables
280
     0
  1
Standard
  0
DICTIONARYVAR
  5
EE6
102
{ACAD_REACTORS
330
99
102
}
330
99
100
DictionaryVariables
280
     0
  1
Imperial24
  0
DICTIONARYVAR
  5
EE7
102
{ACAD_REACTORS
330
99
102
}
330
99
100
DictionaryVariables
280
     0
  1
Imperial24
  0
DICTIONARYVAR
  5
9A
102
{ACAD_REACTORS
330
99
102
}
330
99
100
DictionaryVariables
280
     0
  1
1
  0
DICTIONARYVAR
  5
EEB
102
{ACAD_REACTORS
330
99
102
}
330
99
100
DictionaryVariables
280
     0
  1
1
  0
DICTIONARYVAR
  5
EEC
102
{ACAD_REACTORS
330
99
102
}
330
99
100
DictionaryVariables
280
     0
  1
15
  0
DICTIONARYVAR
  5
EEA
102
{ACAD_REACTORS
330
99
102
}
330
99
100
DictionaryVariables
280
     0
  1
0
  0
DICTIONARYVAR
  5
EE8
102
{ACAD_REACTORS
330
99
102
}
330
99
100
DictionaryVariables
280
     0
  1
0
  0
DICTIONARYVAR
  5
3B5
102
{ACAD_REACTORS
330
99
102
}
330
99
100
DictionaryVariables
280
     0
  1

  0
DICTIONARYVAR
  5
EED
102
{ACAD_REACTORS
330
99
102
}
330
99
100
DictionaryVariables
280
     0
  1
2
  0
DICTIONARY
  5
EE3
330
E93
100
AcDbDictionary
280
     1
281
     1
  3
ACAD_XREC_ROUNDTRIP
360
EE4
  0
DICTIONARY
  5
EF0
330
E53
100
AcDbDictionary
280
     1
281
     1
  3
ACAD_XREC_ROUNDTRIP
360
EF1
  0
DICTIONARY
  5
EF2
330
E4B
100
AcDbDictionary
280
     1
281
     1
  3
ACAD_XREC_ROUNDTRIP
360
EF3
  0
DICTIONARY
  5
EF4
330
E5B
100
AcDbDictionary
280
     1
281
     1
  3
ACAD_XREC_ROUNDTRIP
360
EF5
  0
DICTIONARY
  5
EE1
330
E91
100
AcDbDictionary
280
     1
281
     1
  3
ACAD_XREC_ROUNDTRIP
360
EE2
  0
DICTIONARY
  5
EF6
330
9F
100
AcDbDictionary
280
     1
281
     1
  3
ACAD_ROUNDTRIP_2008_TABLESTYLE_CELLSTYLEMAP
360
EF8
  3
ACAD_XREC_ROUNDTRIP
360
EF7
  0
DICTIONARY
  5
EFA
330
E69
100
AcDbDictionary
280
     1
281
     1
  3
ACAD_XREC_ROUNDTRIP
360
EFB
  0
DICTIONARY
  5
EFC
330
E68
100
AcDbDictionary
280
     1
281
     1
  3
ACAD_XREC_ROUNDTRIP
360
EFD
  0
DICTIONARY
  5
EFE
330
E6F
100
AcDbDictionary
280
     1
281
     1
  3
ACAD_XREC_ROUNDTRIP
360
EFF
  0
DICTIONARY
  5
F00
330
E73
100
AcDbDictionary
280
     1
281
     1
  3
ACAD_XREC_ROUNDTRIP
360
F01
  0
DICTIONARY
  5
F02
330
E6C
100
AcDbDictionary
280
     1
281
     1
  3
ACAD_XREC_ROUNDTRIP
360
F03
  0
DICTIONARY
  5
F04
330
E6E
100
AcDbDictionary
280
     1
281
     1
  3
ACAD_XREC_ROUNDTRIP
360
F05
  0
DICTIONARY
  5
F06
330
E7B
100
AcDbDictionary
280
     1
281
     1
  3
ACAD_XREC_ROUNDTRIP
360
F07
  0
DICTIONARY
  5
F08
330
E72
100
AcDbDictionary
280
     1
281
     1
  3
ACAD_XREC_ROUNDTRIP
360
F09
  0
DICTIONARY
  5
F0A
330
E64
100
AcDbDictionary
280
     1
281
     1
  3
ACAD_XREC_ROUNDTRIP
360
F0B
  0
DICTIONARY
  5
F0C
330
E65
100
AcDbDictionary
280
     1
281
     1
  3
ACAD_XREC_ROUNDTRIP
360
F0D
  0
DICTIONARY
  5
F0E
330
E66
100
AcDbDictionary
280
     1
281
     1
  3
ACAD_XREC_ROUNDTRIP
360
F0F
  0
DICTIONARY
  5
F10
330
E67
100
AcDbDictionary
280
     1
281
     1
  3
ACAD_XREC_ROUNDTRIP
360
F11
  0
DICTIONARY
  5
F12
330
E6B
100
AcDbDictionary
280
     1
281
     1
  3
ACAD_XREC_ROUNDTRIP
360
F13
  0
DICTIONARY
  5
F14
330
E79
100
AcDbDictionary
280
     1
281
     1
  3
ACAD_XREC_ROUNDTRIP
360
F15
  0
DICTIONARY
  5
F16
330
E71
100
AcDbDictionary
280
     1
281
     1
  3
ACAD_XREC_ROUNDTRIP
360
F17
  0
DICTIONARY
  5
F18
330
E7A
100
AcDbDictionary
280
     1
281
     1
  3
ACAD_XREC_ROUNDTRIP
360
F19
  0
DICTIONARY
  5
F1A
330
E6D
100
AcDbDictionary
280
     1
281
     1
  3
ACAD_XREC_ROUNDTRIP
360
F1B
  0
DICTIONARY
  5
F1C
330
E78
100
AcDbDictionary
280
     1
281
     1
  3
ACAD_XREC_ROUNDTRIP
360
F1D
  0
DICTIONARY
  5
F1E
330
E77
100
AcDbDictionary
280
     1
281
     1
  3
ACAD_XREC_ROUNDTRIP
360
F1F
  0
DICTIONARY
  5
F20
330
E74
100
AcDbDictionary
280
     1
281
     1
  3
ACAD_XREC_ROUNDTRIP
360
F21
  0
DICTIONARY
  5
F22
330
E75
100
AcDbDictionary
280
     1
281
     1
  3
ACAD_XREC_ROUNDTRIP
360
F23
  0
DICTIONARY
  5
F24
330
E70
100
AcDbDictionary
280
     1
281
     1
  3
ACAD_XREC_ROUNDTRIP
360
F25
  0
DICTIONARY
  5
F26
330
E6A
100
AcDbDictionary
280
     1
281
     1
  3
ACAD_XREC_ROUNDTRIP
360
F27
  0
DICTIONARY
  5
F28
330
E76
100
AcDbDictionary
280
     1
281
     1
  3
ACAD_XREC_ROUNDTRIP
360
F29
  0
XRECORD
  5
EE4
102
{ACAD_REACTORS
330
EE3
102
}
330
EE3
100
AcDbXrecord
280
     1
102
DISPLAYNAME
  1
Imperial24
102
FLAGS
 90
        0
  0
XRECORD
  5
EF1
102
{ACAD_REACTORS
330
EF0
102
}
330
EF0
100
AcDbXrecord
280
     1
102
MATERIAL
148
0.0
149
0.0
149
0.0
 93
        0
 94
      127
282
     0
 72
     0
 77
     0
171
     0
175
     0
179
     0
273
     0
  0
XRECORD
  5
EF3
102
{ACAD_REACTORS
330
EF2
102
}
330
EF2
100
AcDbXrecord
280
     1
102
MATERIAL
148
0.0
149
0.0
149
0.0
 93
        0
 94
      127
282
     0
 72
     0
 77
     0
171
     0
175
     0
179
     0
273
     0
  0
XRECORD
  5
EF5
102
{ACAD_REACTORS
330
EF4
102
}
330
EF4
100
AcDbXrecord
280
     1
102
MATERIAL
148
0.0
149
0.0
149
0.0
 93
        0
 94
      127
282
     0
 72
     0
 77
     0
171
     0
175
     0
179
     0
273
     0
  0
XRECORD
  5
EE2
102
{ACAD_REACTORS
330
EE1
102
}
330
EE1
100
AcDbXrecord
280
     1
102
DISPLAYNAME
  1
Imperial24
102
FLAGS
 90
        0
  0
CELLSTYLEMAP
  5
EF8
102
{ACAD_REACTORS
330
EF6
102
}
330
EF6
100
AcDbCellStyleMap
 90
        3
300
CELLSTYLE
  1
TABLEFORMAT_BEGIN
 90
        5
170
     1
 91
        0
 92
    32768
 62
   257
 93
        1
300
CONTENTFORMAT
  1
CONTENTFORMAT_BEGIN
 90
        0
 91
        0
 92
        4
 93
        0
300

 40
0.0
140
1.0
 94
        5
 62
     0
340
F
144
0.25
309
CONTENTFORMAT_END
171
     0
 94
        6
 95
        1
302
GRIDFORMAT
  1
GRIDFORMAT_BEGIN
 90
        0
 91
        1
 62
     0
 92
       -2
340
0
 93
        0
 40
0.045
309
GRIDFORMAT_END
 95
        2
302
GRIDFORMAT
  1
GRIDFORMAT_BEGIN
 90
        0
 91
        1
 62
     0
 92
       -2
340
0
 93
        0
 40
0.045
309
GRIDFORMAT_END
 95
        4
302
GRIDFORMAT
  1
GRIDFORMAT_BEGIN
 90
        0
 91
        1
 62
     0
 92
       -2
340
0
 93
        0
 40
0.045
309
GRIDFORMAT_END
 95
        8
302
GRIDFORMAT
  1
GRIDFORMAT_BEGIN
 90
        0
 91
        1
 62
     0
 92
       -2
340
0
 93
        0
 40
0.045
309
GRIDFORMAT_END
 95
       16
302
GRIDFORMAT
  1
GRIDFORMAT_BEGIN
 90
        0
 91
        1
 62
     0
 92
       -2
340
0
 93
        0
 40
0.045
309
GRIDFORMAT_END
 95
       32
302
GRIDFORMAT
  1
GRIDFORMAT_BEGIN
 90
        0
 91
        1
 62
     0
 92
       -2
340
0
 93
        0
 40
0.045
309
GRIDFORMAT_END
309
TABLEFORMAT_END
  1
CELLSTYLE_BEGIN
 90
        1
 91
        1
300
_TITLE
309
CELLSTYLE_END
300
CELLSTYLE
  1
TABLEFORMAT_BEGIN
 90
        5
170
     1
 91
        0
 92
        0
 62
   257
 93
        1
300
CONTENTFORMAT
  1
CONTENTFORMAT_BEGIN
 90
        0
 91
        0
 92
        4
 93
        0
300

 40
0.0
140
1.0
 94
        5
 62
     0
340
F
144
0.18
309
CONTENTFORMAT_END
171
     0
 94
        6
 95
        1
302
GRIDFORMAT
  1
GRIDFORMAT_BEGIN
 90
        0
 91
        1
 62
     0
 92
       -2
340
0
 93
        0
 40
0.045
309
GRIDFORMAT_END
 95
        2
302
GRIDFORMAT
  1
GRIDFORMAT_BEGIN
 90
        0
 91
        1
 62
     0
 92
       -2
340
0
 93
        0
 40
0.045
309
GRIDFORMAT_END
 95
        4
302
GRIDFORMAT
  1
GRIDFORMAT_BEGIN
 90
        0
 91
        1
 62
     0
 92
       -2
340
0
 93
        0
 40
0.045
309
GRIDFORMAT_END
 95
        8
302
GRIDFORMAT
  1
GRIDFORMAT_BEGIN
 90
        0
 91
        1
 62
     0
 92
       -2
340
0
 93
        0
 40
0.045
309
GRIDFORMAT_END
 95
       16
302
GRIDFORMAT
  1
GRIDFORMAT_BEGIN
 90
        0
 91
        1
 62
     0
 92
       -2
340
0
 93
        0
 40
0.045
309
GRIDFORMAT_END
 95
       32
302
GRIDFORMAT
  1
GRIDFORMAT_BEGIN
 90
        0
 91
        1
 62
     0
 92
       -2
340
0
 93
        0
 40
0.045
309
GRIDFORMAT_END
309
TABLEFORMAT_END
  1
CELLSTYLE_BEGIN
 90
        2
 91
        1
300
_HEADER
309
CELLSTYLE_END
300
CELLSTYLE
  1
TABLEFORMAT_BEGIN
 90
        5
170
     1
 91
        0
 92
        0
 62
   257
 93
        1
300
CONTENTFORMAT
  1
CONTENTFORMAT_BEGIN
 90
        0
 91
        0
 92
        4
 93
        0
300

 40
0.0
140
1.0
 94
        2
 62
     0
340
F
144
0.18
309
CONTENTFORMAT_END
171
     0
 94
        6
 95
        1
302
GRIDFORMAT
  1
GRIDFORMAT_BEGIN
 90
        0
 91
        1
 62
     0
 92
       -2
340
0
 93
        0
 40
0.045
309
GRIDFORMAT_END
 95
        2
302
GRIDFORMAT
  1
GRIDFORMAT_BEGIN
 90
        0
 91
        1
 62
     0
 92
       -2
340
0
 93
        0
 40
0.045
309
GRIDFORMAT_END
 95
        4
302
GRIDFORMAT
  1
GRIDFORMAT_BEGIN
 90
        0
 91
        1
 62
     0
 92
       -2
340
0
 93
        0
 40
0.045
309
GRIDFORMAT_END
 95
        8
302
GRIDFORMAT
  1
GRIDFORMAT_BEGIN
 90
        0
 91
        1
 62
     0
 92
       -2
340
0
 93
        0
 40
0.045
309
GRIDFORMAT_END
 95
       16
302
GRIDFORMAT
  1
GRIDFORMAT_BEGIN
 90
        0
 91
        1
 62
     0
 92
       -2
340
0
 93
        0
 40
0.045
309
GRIDFORMAT_END
 95
       32
302
GRIDFORMAT
  1
GRIDFORMAT_BEGIN
 90
        0
 91
        1
 62
     0
 92
       -2
340
0
 93
        0
 40
0.045
309
GRIDFORMAT_END
309
TABLEFORMAT_END
  1
CELLSTYLE_BEGIN
 90
        3
 91
        2
300
_DATA
309
CELLSTYLE_END
  0
XRECORD
  5
EF7
102
{ACAD_REACTORS
330
EF6
102
}
330
EF6
100
AcDbXrecord
280
     1
102
ACAD_ROUNDTRIP_PRE2007_TABLESTYLE
 90
        4
 91
        0
  1

 92
        4
 93
        0
  2

 94
        4
 95
        0
  3

  0
XRECORD
  5
EFB
102
{ACAD_REACTORS
330
EFA
102
}
330
EFA
100
AcDbXrecord
280
     1
102
RTVSPropertyOp0
 70
     1
102
RTVSPropertyOp1
 70
     1
102
RTVSPropertyOp2
 70
     1
102
RTVSPropertyOp3
 70
     1
102
RTVSPropertyOp4
 70
     1
102
RTVSPropertyOp5
 70
     1
102
RTVSPropertyOp6
 70
     1
102
RTVSPropertyOp7
 70
     1
102
RTVSPropertyOp8
 70
     1
102
RTVSPropertyOp9
 70
     1
102
RTVSPropertyOp10
 70
     1
102
RTVSPropertyOp11
 70
     1
102
RTVSPropertyOp12
 70
     1
102
RTVSPropertyOp13
 70
     1
102
RTVSPropertyOp14
 70
     1
102
RTVSPropertyOp15
 70
     1
102
RTVSPropertyOp16
 70
     1
102
RTVSPropertyOp17
 70
     1
102
RTVSPropertyOp18
 70
     1
102
RTVSPropertyOp19
 70
     1
102
RTVSPropertyOp20
 70
     1
102
RTVSPropertyOp21
 70
     1
102
RTVSPropertyOp22
 70
     1
102
RTVSPropertyOp23
 70
     1
102
RTVSPropertyOp24
 70
     1
102
RTVSPropertyOp25
 70
     1
102
RTVSPropertyOp26
 70
     1
102
RTVSPropertyOp27
 70
     1
  0
XRECORD
  5
EFD
102
{ACAD_REACTORS
330
EFC
102
}
330
EFC
100
AcDbXrecord
280
     1
102
RTVSPropertyOp0
 70
     1
102
RTVSPropertyOp1
 70
     1
102
RTVSPropertyOp2
 70
     1
102
RTVSPropertyOp3
 70
     1
102
RTVSPropertyOp4
 70
     1
102
RTVSPropertyOp5
 70
     1
102
RTVSPropertyOp6
 70
     1
102
RTVSPropertyOp7
 70
     1
102
RTVSPropertyOp8
 70
     1
102
RTVSPropertyOp9
 70
     1
102
RTVSPropertyOp10
 70
     1
102
RTVSPropertyOp11
 70
     1
102
RTVSPropertyOp12
 70
     1
102
RTVSPropertyOp13
 70
     1
102
RTVSPropertyOp14
 70
     1
102
RTVSPropertyOp15
 70
     1
102
RTVSPropertyOp16
 70
     1
102
RTVSPropertyOp17
 70
     1
102
RTVSPropertyOp18
 70
     1
102
RTVSPropertyOp19
 70
     1
102
RTVSPropertyOp20
 70
     1
102
RTVSPropertyOp21
 70
     1
102
RTVSPropertyOp22
 70
     1
102
RTVSPropertyOp23
 70
     1
102
RTVSPropertyOp24
 70
     1
102
RTVSPropertyOp25
 70
     1
102
RTVSPropertyOp26
 70
     1
102
RTVSPropertyOp27
 70
     1
  0
XRECORD
  5
EFF
102
{ACAD_REACTORS
330
EFE
102
}
330
EFE
100
AcDbXrecord
280
     1
102
RTVSPropertyOp0
 70
     1
102
RTVSPropertyOp1
 70
     1
102
RTVSPropertyOp2
 70
     1
102
RTVSPropertyOp3
 70
     1
102
RTVSPropertyOp4
 70
     1
102
RTVSPropertyOp5
 70
     1
102
RTVSPropertyOp6
 70
     1
102
RTVSPropertyOp7
 70
     1
102
RTVSPropertyOp8
 70
     1
102
RTVSPropertyOp9
 70
     1
102
RTVSPropertyOp10
 70
     1
102
RTVSPropertyOp11
 70
     1
102
RTVSPropertyOp12
 70
     1
102
RTVSPropertyOp13
 70
     1
102
RTVSPropertyOp14
 70
     1
102
RTVSPropertyOp15
 70
     1
102
RTVSPropertyOp16
 70
     1
102
RTVSPropertyOp17
 70
     1
102
RTVSPropertyOp18
 70
     1
102
RTVSPropertyOp19
 70
     1
102
RTVSPropertyOp20
 70
     1
102
RTVSPropertyOp21
 70
     1
102
RTVSPropertyOp22
 70
     1
102
RTVSPropertyOp23
 70
     1
102
RTVSPropertyOp24
 70
     1
102
RTVSPropertyOp25
 70
     1
102
RTVSPropertyOp26
 70
     1
102
RTVSPropertyOp27
 70
     1
  0
XRECORD
  5
F01
102
{ACAD_REACTORS
330
F00
102
}
330
F00
100
AcDbXrecord
280
     1
102
RTVSPropertyOp0
 70
     1
102
RTVSPropertyOp1
 70
     1
102
RTVSPropertyOp2
 70
     1
102
RTVSPropertyOp3
 70
     1
102
RTVSPropertyOp4
 70
     1
102
RTVSPropertyOp5
 70
     1
102
RTVSPropertyOp6
 70
     1
102
RTVSPropertyOp7
 70
     1
102
RTVSPropertyOp8
 70
     1
102
RTVSPropertyOp9
 70
     1
102
RTVSPropertyOp10
 70
     1
102
RTVSPropertyOp11
 70
     1
102
RTVSPropertyOp12
 70
     1
102
RTVSPropertyOp13
 70
     1
102
RTVSPropertyOp14
 70
     1
102
RTVSPropertyOp15
 70
     1
102
RTVSPropertyOp16
 70
     1
102
RTVSPropertyOp17
 70
     1
102
RTVSPropertyOp18
 70
     1
102
RTVSPropertyOp19
 70
     1
102
RTVSPropertyOp20
 70
     1
102
RTVSPropertyOp21
 70
     1
102
RTVSPropertyOp22
 70
     1
102
RTVSPropertyOp23
 70
     1
102
RTVSPropertyOp24
 70
     1
102
RTVSPropertyOp25
 70
     1
102
RTVSPropertyOp26
 70
     1
102
RTVSPropertyOp27
 70
     1
  0
XRECORD
  5
F03
102
{ACAD_REACTORS
330
F02
102
}
330
F02
100
AcDbXrecord
280
     1
102
RTVSPropertyOp0
 70
     1
102
RTVSPropertyOp1
 70
     1
102
RTVSPropertyOp2
 70
     1
102
RTVSPropertyOp3
 70
     1
102
RTVSPropertyOp4
 70
     1
102
RTVSPropertyOp5
 70
     1
102
RTVSPropertyOp6
 70
     1
102
RTVSPropertyOp7
 70
     1
102
RTVSPropertyOp8
 70
     1
102
RTVSPropertyOp9
 70
     1
102
RTVSPropertyOp10
 70
     1
102
RTVSPropertyOp11
 70
     1
102
RTVSPropertyOp12
 70
     1
102
RTVSPropertyOp13
 70
     1
102
RTVSPropertyOp14
 70
     1
102
RTVSPropertyOp15
 70
     1
102
RTVSPropertyOp16
 70
     1
102
RTVSPropertyOp17
 70
     1
102
RTVSPropertyOp18
 70
     1
102
RTVSPropertyOp19
 70
     1
102
RTVSPropertyOp20
 70
     1
102
RTVSPropertyOp21
 70
     1
102
RTVSPropertyOp22
 70
     1
102
RTVSPropertyOp23
 70
     1
102
RTVSPropertyOp24
 70
     1
102
RTVSPropertyOp25
 70
     1
102
RTVSPropertyOp26
 70
     1
102
RTVSPropertyOp27
 70
     1
  0
XRECORD
  5
F05
102
{ACAD_REACTORS
330
F04
102
}
330
F04
100
AcDbXrecord
280
     1
102
RTVSPropertyOp0
 70
     1
102
RTVSPropertyOp1
 70
     1
102
RTVSPropertyOp2
 70
     1
102
RTVSPropertyOp3
 70
     1
102
RTVSPropertyOp4
 70
     1
102
RTVSPropertyOp5
 70
     1
102
RTVSPropertyOp6
 70
     1
102
RTVSPropertyOp7
 70
     1
102
RTVSPropertyOp8
 70
     1
102
RTVSPropertyOp9
 70
     1
102
RTVSPropertyOp10
 70
     1
102
RTVSPropertyOp11
 70
     1
102
RTVSPropertyOp12
 70
     1
102
RTVSPropertyOp13
 70
     1
102
RTVSPropertyOp14
 70
     1
102
RTVSPropertyOp15
 70
     1
102
RTVSPropertyOp16
 70
     1
102
RTVSPropertyOp17
 70
     1
102
RTVSPropertyOp18
 70
     1
102
RTVSPropertyOp19
 70
     1
102
RTVSPropertyOp20
 70
     1
102
RTVSPropertyOp21
 70
     1
102
RTVSPropertyOp22
 70
     1
102
RTVSPropertyOp23
 70
     1
102
RTVSPropertyOp24
 70
     1
102
RTVSPropertyOp25
 70
     1
102
RTVSPropertyOp26
 70
     1
102
RTVSPropertyOp27
 70
     1
  0
XRECORD
  5
F07
102
{ACAD_REACTORS
330
F06
102
}
330
F06
100
AcDbXrecord
280
     1
102
RTVSPropertyOp0
 70
     1
102
RTVSPropertyOp1
 70
     1
102
RTVSPropertyOp2
 70
     1
102
RTVSPropertyOp3
 70
     1
102
RTVSPropertyOp4
 70
     1
102
RTVSPropertyOp5
 70
     1
102
RTVSPropertyOp6
 70
     1
102
RTVSPropertyOp7
 70
     1
102
RTVSPropertyOp8
 70
     1
102
RTVSPropertyOp9
 70
     1
102
RTVSPropertyOp10
 70
     1
102
RTVSPropertyOp11
 70
     1
102
RTVSPropertyOp12
 70
     1
102
RTVSPropertyOp13
 70
     1
102
RTVSPropertyOp14
 70
     1
102
RTVSPropertyOp15
 70
     1
102
RTVSPropertyOp16
 70
     1
102
RTVSPropertyOp17
 70
     1
102
RTVSPropertyOp18
 70
     1
102
RTVSPropertyOp19
 70
     1
102
RTVSPropertyOp20
 70
     1
102
RTVSPropertyOp21
 70
     1
102
RTVSPropertyOp22
 70
     1
102
RTVSPropertyOp23
 70
     1
102
RTVSPropertyOp24
 70
     1
102
RTVSPropertyOp25
 70
     1
102
RTVSPropertyOp26
 70
     1
102
RTVSPropertyOp27
 70
     1
  0
XRECORD
  5
F09
102
{ACAD_REACTORS
330
F08
102
}
330
F08
100
AcDbXrecord
280
     1
102
RTVSPropertyOp0
 70
     1
102
RTVSPropertyOp1
 70
     1
102
RTVSPropertyOp2
 70
     1
102
RTVSPropertyOp3
 70
     1
102
RTVSPropertyOp4
 70
     1
102
RTVSPropertyOp5
 70
     1
102
RTVSPropertyOp6
 70
     1
102
RTVSPropertyOp7
 70
     1
102
RTVSPropertyOp8
 70
     1
102
RTVSPropertyOp9
 70
     1
102
RTVSPropertyOp10
 70
     1
102
RTVSPropertyOp11
 70
     1
102
RTVSPropertyOp12
 70
     1
102
RTVSPropertyOp13
 70
     1
102
RTVSPropertyOp14
 70
     1
102
RTVSPropertyOp15
 70
     1
102
RTVSPropertyOp16
 70
     1
102
RTVSPropertyOp17
 70
     1
102
RTVSPropertyOp18
 70
     1
102
RTVSPropertyOp19
 70
     1
102
RTVSPropertyOp20
 70
     1
102
RTVSPropertyOp21
 70
     1
102
RTVSPropertyOp22
 70
     1
102
RTVSPropertyOp23
 70
     1
102
RTVSPropertyOp24
 70
     1
102
RTVSPropertyOp25
 70
     1
102
RTVSPropertyOp26
 70
     1
102
RTVSPropertyOp27
 70
     1
  0
XRECORD
  5
F0B
102
{ACAD_REACTORS
330
F0A
102
}
330
F0A
100
AcDbXrecord
280
     1
102
RTVSPropertyOp0
 70
     1
102
RTVSPropertyOp1
 70
     1
102
RTVSPropertyOp2
 70
     1
102
RTVSPropertyOp3
 70
     1
102
RTVSPropertyOp4
 70
     1
102
RTVSPropertyOp5
 70
     1
102
RTVSPropertyOp6
 70
     1
102
RTVSPropertyOp7
 70
     1
102
RTVSPropertyOp8
 70
     1
102
RTVSPropertyOp9
 70
     1
102
RTVSPropertyOp10
 70
     1
102
RTVSPropertyOp11
 70
     1
102
RTVSPropertyOp12
 70
     1
102
RTVSPropertyOp13
 70
     1
102
RTVSPropertyOp14
 70
     1
102
RTVSPropertyOp15
 70
     1
102
RTVSPropertyOp16
 70
     1
102
RTVSPropertyOp17
 70
     1
102
RTVSPropertyOp18
 70
     1
102
RTVSPropertyOp19
 70
     1
102
RTVSPropertyOp20
 70
     1
102
RTVSPropertyOp21
 70
     1
102
RTVSPropertyOp22
 70
     1
102
RTVSPropertyOp23
 70
     1
102
RTVSPropertyOp24
 70
     1
102
RTVSPropertyOp25
 70
     1
102
RTVSPropertyOp26
 70
     1
102
RTVSPropertyOp27
 70
     1
  0
XRECORD
  5
F0D
102
{ACAD_REACTORS
330
F0C
102
}
330
F0C
100
AcDbXrecord
280
     1
102
RTVSPropertyOp0
 70
     1
102
RTVSPropertyOp1
 70
     1
102
RTVSPropertyOp2
 70
     1
102
RTVSPropertyOp3
 70
     1
102
RTVSPropertyOp4
 70
     1
102
RTVSPropertyOp5
 70
     1
102
RTVSPropertyOp6
 70
     1
102
RTVSPropertyOp7
 70
     1
102
RTVSPropertyOp8
 70
     1
102
RTVSPropertyOp9
 70
     1
102
RTVSPropertyOp10
 70
     1
102
RTVSPropertyOp11
 70
     1
102
RTVSPropertyOp12
 70
     1
102
RTVSPropertyOp13
 70
     1
102
RTVSPropertyOp14
 70
     1
102
RTVSPropertyOp15
 70
     1
102
RTVSPropertyOp16
 70
     1
102
RTVSPropertyOp17
 70
     1
102
RTVSPropertyOp18
 70
     1
102
RTVSPropertyOp19
 70
     1
102
RTVSPropertyOp20
 70
     1
102
RTVSPropertyOp21
 70
     1
102
RTVSPropertyOp22
 70
     1
102
RTVSPropertyOp23
 70
     1
102
RTVSPropertyOp24
 70
     1
102
RTVSPropertyOp25
 70
     1
102
RTVSPropertyOp26
 70
     1
102
RTVSPropertyOp27
 70
     1
  0
XRECORD
  5
F0F
102
{ACAD_REACTORS
330
F0E
102
}
330
F0E
100
AcDbXrecord
280
     1
102
RTVSPropertyOp0
 70
     1
102
RTVSPropertyOp1
 70
     1
102
RTVSPropertyOp2
 70
     1
102
RTVSPropertyOp3
 70
     1
102
RTVSPropertyOp4
 70
     1
102
RTVSPropertyOp5
 70
     1
102
RTVSPropertyOp6
 70
     1
102
RTVSPropertyOp7
 70
     1
102
RTVSPropertyOp8
 70
     1
102
RTVSPropertyOp9
 70
     1
102
RTVSPropertyOp10
 70
     1
102
RTVSPropertyOp11
 70
     1
102
RTVSPropertyOp12
 70
     1
102
RTVSPropertyOp13
 70
     1
102
RTVSPropertyOp14
 70
     1
102
RTVSPropertyOp15
 70
     1
102
RTVSPropertyOp16
 70
     1
102
RTVSPropertyOp17
 70
     1
102
RTVSPropertyOp18
 70
     1
102
RTVSPropertyOp19
 70
     1
102
RTVSPropertyOp20
 70
     1
102
RTVSPropertyOp21
 70
     1
102
RTVSPropertyOp22
 70
     1
102
RTVSPropertyOp23
 70
     1
102
RTVSPropertyOp24
 70
     1
102
RTVSPropertyOp25
 70
     1
102
RTVSPropertyOp26
 70
     1
102
RTVSPropertyOp27
 70
     1
  0
XRECORD
  5
F11
102
{ACAD_REACTORS
330
F10
102
}
330
F10
100
AcDbXrecord
280
     1
102
RTVSPropertyOp0
 70
     1
102
RTVSPropertyOp1
 70
     1
102
RTVSPropertyOp2
 70
     1
102
RTVSPropertyOp3
 70
     1
102
RTVSPropertyOp4
 70
     1
102
RTVSPropertyOp5
 70
     1
102
RTVSPropertyOp6
 70
     1
102
RTVSPropertyOp7
 70
     1
102
RTVSPropertyOp8
 70
     1
102
RTVSPropertyOp9
 70
     1
102
RTVSPropertyOp10
 70
     1
102
RTVSPropertyOp11
 70
     1
102
RTVSPropertyOp12
 70
     1
102
RTVSPropertyOp13
 70
     1
102
RTVSPropertyOp14
 70
     1
102
RTVSPropertyOp15
 70
     1
102
RTVSPropertyOp16
 70
     1
102
RTVSPropertyOp17
 70
     1
102
RTVSPropertyOp18
 70
     1
102
RTVSPropertyOp19
 70
     1
102
RTVSPropertyOp20
 70
     1
102
RTVSPropertyOp21
 70
     1
102
RTVSPropertyOp22
 70
     1
102
RTVSPropertyOp23
 70
     1
102
RTVSPropertyOp24
 70
     1
102
RTVSPropertyOp25
 70
     1
102
RTVSPropertyOp26
 70
     1
102
RTVSPropertyOp27
 70
     1
  0
XRECORD
  5
F13
102
{ACAD_REACTORS
330
F12
102
}
330
F12
100
AcDbXrecord
280
     1
102
RTVSPropertyOp0
 70
     1
102
RTVSPropertyOp1
 70
     1
102
RTVSPropertyOp2
 70
     1
102
RTVSPropertyOp3
 70
     1
102
RTVSPropertyOp4
 70
     1
102
RTVSPropertyOp5
 70
     1
102
RTVSPropertyOp6
 70
     1
102
RTVSPropertyOp7
 70
     1
102
RTVSPropertyOp8
 70
     1
102
RTVSPropertyOp9
 70
     1
102
RTVSPropertyOp10
 70
     1
102
RTVSPropertyOp11
 70
     1
102
RTVSPropertyOp12
 70
     1
102
RTVSPropertyOp13
 70
     1
102
RTVSPropertyOp14
 70
     1
102
RTVSPropertyOp15
 70
     1
102
RTVSPropertyOp16
 70
     1
102
RTVSPropertyOp17
 70
     1
102
RTVSPropertyOp18
 70
     1
102
RTVSPropertyOp19
 70
     1
102
RTVSPropertyOp20
 70
     1
102
RTVSPropertyOp21
 70
     1
102
RTVSPropertyOp22
 70
     1
102
RTVSPropertyOp23
 70
     1
102
RTVSPropertyOp24
 70
     1
102
RTVSPropertyOp25
 70
     1
102
RTVSPropertyOp26
 70
     1
102
RTVSPropertyOp27
 70
     1
  0
XRECORD
  5
F15
102
{ACAD_REACTORS
330
F14
102
}
330
F14
100
AcDbXrecord
280
     1
102
RTVSPropertyOp0
 70
     1
102
RTVSPropertyOp1
 70
     1
102
RTVSPropertyOp2
 70
     1
102
RTVSPropertyOp3
 70
     1
102
RTVSPropertyOp4
 70
     1
102
RTVSPropertyOp5
 70
     1
102
RTVSPropertyOp6
 70
     1
102
RTVSPropertyOp7
 70
     1
102
RTVSPropertyOp8
 70
     1
102
RTVSPropertyOp9
 70
     1
102
RTVSPropertyOp10
 70
     1
102
RTVSPropertyOp11
 70
     1
102
RTVSPropertyOp12
 70
     1
102
RTVSPropertyOp13
 70
     1
102
RTVSPropertyOp14
 70
     1
102
RTVSPropertyOp15
 70
     1
102
RTVSPropertyOp16
 70
     1
102
RTVSPropertyOp17
 70
     1
102
RTVSPropertyOp18
 70
     1
102
RTVSPropertyOp19
 70
     1
102
RTVSPropertyOp20
 70
     1
102
RTVSPropertyOp21
 70
     1
102
RTVSPropertyOp22
 70
     1
102
RTVSPropertyOp23
 70
     1
102
RTVSPropertyOp24
 70
     1
102
RTVSPropertyOp25
 70
     1
102
RTVSPropertyOp26
 70
     1
102
RTVSPropertyOp27
 70
     1
  0
XRECORD
  5
F17
102
{ACAD_REACTORS
330
F16
102
}
330
F16
100
AcDbXrecord
280
     1
102
RTVSPropertyOp0
 70
     1
102
RTVSPropertyOp1
 70
     1
102
RTVSPropertyOp2
 70
     1
102
RTVSPropertyOp3
 70
     1
102
RTVSPropertyOp4
 70
     1
102
RTVSPropertyOp5
 70
     1
102
RTVSPropertyOp6
 70
     1
102
RTVSPropertyOp7
 70
     1
102
RTVSPropertyOp8
 70
     1
102
RTVSPropertyOp9
 70
     1
102
RTVSPropertyOp10
 70
     1
102
RTVSPropertyOp11
 70
     1
102
RTVSPropertyOp12
 70
     1
102
RTVSPropertyOp13
 70
     1
102
RTVSPropertyOp14
 70
     1
102
RTVSPropertyOp15
 70
     1
102
RTVSPropertyOp16
 70
     1
102
RTVSPropertyOp17
 70
     1
102
RTVSPropertyOp18
 70
     1
102
RTVSPropertyOp19
 70
     1
102
RTVSPropertyOp20
 70
     1
102
RTVSPropertyOp21
 70
     1
102
RTVSPropertyOp22
 70
     1
102
RTVSPropertyOp23
 70
     1
102
RTVSPropertyOp24
 70
     1
102
RTVSPropertyOp25
 70
     1
102
RTVSPropertyOp26
 70
     1
102
RTVSPropertyOp27
 70
     1
  0
XRECORD
  5
F19
102
{ACAD_REACTORS
330
F18
102
}
330
F18
100
AcDbXrecord
280
     1
102
RTVSPropertyOp0
 70
     1
102
RTVSPropertyOp1
 70
     1
102
RTVSPropertyOp2
 70
     1
102
RTVSPropertyOp3
 70
     1
102
RTVSPropertyOp4
 70
     1
102
RTVSPropertyOp5
 70
     1
102
RTVSPropertyOp6
 70
     1
102
RTVSPropertyOp7
 70
     1
102
RTVSPropertyOp8
 70
     1
102
RTVSPropertyOp9
 70
     1
102
RTVSPropertyOp10
 70
     1
102
RTVSPropertyOp11
 70
     1
102
RTVSPropertyOp12
 70
     1
102
RTVSPropertyOp13
 70
     1
102
RTVSPropertyOp14
 70
     1
102
RTVSPropertyOp15
 70
     1
102
RTVSPropertyOp16
 70
     1
102
RTVSPropertyOp17
 70
     1
102
RTVSPropertyOp18
 70
     1
102
RTVSPropertyOp19
 70
     1
102
RTVSPropertyOp20
 70
     1
102
RTVSPropertyOp21
 70
     1
102
RTVSPropertyOp22
 70
     1
102
RTVSPropertyOp23
 70
     1
102
RTVSPropertyOp24
 70
     1
102
RTVSPropertyOp25
 70
     1
102
RTVSPropertyOp26
 70
     1
102
RTVSPropertyOp27
 70
     1
  0
XRECORD
  5
F1B
102
{ACAD_REACTORS
330
F1A
102
}
330
F1A
100
AcDbXrecord
280
     1
102
RTVSPropertyOp0
 70
     1
102
RTVSPropertyOp1
 70
     1
102
RTVSPropertyOp2
 70
     1
102
RTVSPropertyOp3
 70
     1
102
RTVSPropertyOp4
 70
     1
102
RTVSPropertyOp5
 70
     1
102
RTVSPropertyOp6
 70
     1
102
RTVSPropertyOp7
 70
     1
102
RTVSPropertyOp8
 70
     1
102
RTVSPropertyOp9
 70
     1
102
RTVSPropertyOp10
 70
     1
102
RTVSPropertyOp11
 70
     1
102
RTVSPropertyOp12
 70
     1
102
RTVSPropertyOp13
 70
     1
102
RTVSPropertyOp14
 70
     1
102
RTVSPropertyOp15
 70
     1
102
RTVSPropertyOp16
 70
     1
102
RTVSPropertyOp17
 70
     1
102
RTVSPropertyOp18
 70
     1
102
RTVSPropertyOp19
 70
     1
102
RTVSPropertyOp20
 70
     1
102
RTVSPropertyOp21
 70
     1
102
RTVSPropertyOp22
 70
     1
102
RTVSPropertyOp23
 70
     1
102
RTVSPropertyOp24
 70
     1
102
RTVSPropertyOp25
 70
     1
102
RTVSPropertyOp26
 70
     1
102
RTVSPropertyOp27
 70
     1
  0
XRECORD
  5
F1D
102
{ACAD_REACTORS
330
F1C
102
}
330
F1C
100
AcDbXrecord
280
     1
102
RTVSPropertyOp0
 70
     1
102
RTVSPropertyOp1
 70
     1
102
RTVSPropertyOp2
 70
     1
102
RTVSPropertyOp3
 70
     1
102
RTVSPropertyOp4
 70
     1
102
RTVSPropertyOp5
 70
     1
102
RTVSPropertyOp6
 70
     1
102
RTVSPropertyOp7
 70
     1
102
RTVSPropertyOp8
 70
     1
102
RTVSPropertyOp9
 70
     1
102
RTVSPropertyOp10
 70
     1
102
RTVSPropertyOp11
 70
     1
102
RTVSPropertyOp12
 70
     1
102
RTVSPropertyOp13
 70
     1
102
RTVSPropertyOp14
 70
     1
102
RTVSPropertyOp15
 70
     1
102
RTVSPropertyOp16
 70
     1
102
RTVSPropertyOp17
 70
     1
102
RTVSPropertyOp18
 70
     1
102
RTVSPropertyOp19
 70
     1
102
RTVSPropertyOp20
 70
     1
102
RTVSPropertyOp21
 70
     1
102
RTVSPropertyOp22
 70
     1
102
RTVSPropertyOp23
 70
     1
102
RTVSPropertyOp24
 70
     1
102
RTVSPropertyOp25
 70
     1
102
RTVSPropertyOp26
 70
     1
102
RTVSPropertyOp27
 70
     1
  0
XRECORD
  5
F1F
102
{ACAD_REACTORS
330
F1E
102
}
330
F1E
100
AcDbXrecord
280
     1
102
RTVSPropertyOp0
 70
     1
102
RTVSPropertyOp1
 70
     1
102
RTVSPropertyOp2
 70
     1
102
RTVSPropertyOp3
 70
     1
102
RTVSPropertyOp4
 70
     1
102
RTVSPropertyOp5
 70
     1
102
RTVSPropertyOp6
 70
     1
102
RTVSPropertyOp7
 70
     1
102
RTVSPropertyOp8
 70
     1
102
RTVSPropertyOp9
 70
     1
102
RTVSPropertyOp10
 70
     1
102
RTVSPropertyOp11
 70
     1
102
RTVSPropertyOp12
 70
     1
102
RTVSPropertyOp13
 70
     1
102
RTVSPropertyOp14
 70
     1
102
RTVSPropertyOp15
 70
     1
102
RTVSPropertyOp16
 70
     1
102
RTVSPropertyOp17
 70
     1
102
RTVSPropertyOp18
 70
     1
102
RTVSPropertyOp19
 70
     1
102
RTVSPropertyOp20
 70
     1
102
RTVSPropertyOp21
 70
     1
102
RTVSPropertyOp22
 70
     1
102
RTVSPropertyOp23
 70
     1
102
RTVSPropertyOp24
 70
     1
102
RTVSPropertyOp25
 70
     1
102
RTVSPropertyOp26
 70
     1
102
RTVSPropertyOp27
 70
     1
  0
XRECORD
  5
F21
102
{ACAD_REACTORS
330
F20
102
}
330
F20
100
AcDbXrecord
280
     1
102
RTVSPropertyOp0
 70
     1
102
RTVSPropertyOp1
 70
     1
102
RTVSPropertyOp2
 70
     1
102
RTVSPropertyOp3
 70
     1
102
RTVSPropertyOp4
 70
     1
102
RTVSPropertyOp5
 70
     1
102
RTVSPropertyOp6
 70
     1
102
RTVSPropertyOp7
 70
     1
102
RTVSPropertyOp8
 70
     1
102
RTVSPropertyOp9
 70
     1
102
RTVSPropertyOp10
 70
     1
102
RTVSPropertyOp11
 70
     1
102
RTVSPropertyOp12
 70
     1
102
RTVSPropertyOp13
 70
     1
102
RTVSPropertyOp14
 70
     1
102
RTVSPropertyOp15
 70
     1
102
RTVSPropertyOp16
 70
     1
102
RTVSPropertyOp17
 70
     1
102
RTVSPropertyOp18
 70
     1
102
RTVSPropertyOp19
 70
     1
102
RTVSPropertyOp20
 70
     1
102
RTVSPropertyOp21
 70
     1
102
RTVSPropertyOp22
 70
     1
102
RTVSPropertyOp23
 70
     1
102
RTVSPropertyOp24
 70
     1
102
RTVSPropertyOp25
 70
     1
102
RTVSPropertyOp26
 70
     1
102
RTVSPropertyOp27
 70
     1
  0
XRECORD
  5
F23
102
{ACAD_REACTORS
330
F22
102
}
330
F22
100
AcDbXrecord
280
     1
102
RTVSPropertyOp0
 70
     1
102
RTVSPropertyOp1
 70
     1
102
RTVSPropertyOp2
 70
     1
102
RTVSPropertyOp3
 70
     1
102
RTVSPropertyOp4
 70
     1
102
RTVSPropertyOp5
 70
     1
102
RTVSPropertyOp6
 70
     1
102
RTVSPropertyOp7
 70
     1
102
RTVSPropertyOp8
 70
     1
102
RTVSPropertyOp9
 70
     1
102
RTVSPropertyOp10
 70
     1
102
RTVSPropertyOp11
 70
     1
102
RTVSPropertyOp12
 70
     1
102
RTVSPropertyOp13
 70
     1
102
RTVSPropertyOp14
 70
     1
102
RTVSPropertyOp15
 70
     1
102
RTVSPropertyOp16
 70
     1
102
RTVSPropertyOp17
 70
     1
102
RTVSPropertyOp18
 70
     1
102
RTVSPropertyOp19
 70
     1
102
RTVSPropertyOp20
 70
     1
102
RTVSPropertyOp21
 70
     1
102
RTVSPropertyOp22
 70
     1
102
RTVSPropertyOp23
 70
     1
102
RTVSPropertyOp24
 70
     1
102
RTVSPropertyOp25
 70
     1
102
RTVSPropertyOp26
 70
     1
102
RTVSPropertyOp27
 70
     1
  0
XRECORD
  5
F25
102
{ACAD_REACTORS
330
F24
102
}
330
F24
100
AcDbXrecord
280
     1
102
RTVSPropertyOp0
 70
     1
102
RTVSPropertyOp1
 70
     1
102
RTVSPropertyOp2
 70
     1
102
RTVSPropertyOp3
 70
     1
102
RTVSPropertyOp4
 70
     1
102
RTVSPropertyOp5
 70
     1
102
RTVSPropertyOp6
 70
     1
102
RTVSPropertyOp7
 70
     1
102
RTVSPropertyOp8
 70
     1
102
RTVSPropertyOp9
 70
     1
102
RTVSPropertyOp10
 70
     1
102
RTVSPropertyOp11
 70
     1
102
RTVSPropertyOp12
 70
     1
102
RTVSPropertyOp13
 70
     1
102
RTVSPropertyOp14
 70
     1
102
RTVSPropertyOp15
 70
     1
102
RTVSPropertyOp16
 70
     1
102
RTVSPropertyOp17
 70
     1
102
RTVSPropertyOp18
 70
     1
102
RTVSPropertyOp19
 70
     1
102
RTVSPropertyOp20
 70
     1
102
RTVSPropertyOp21
 70
     1
102
RTVSPropertyOp22
 70
     1
102
RTVSPropertyOp23
 70
     1
102
RTVSPropertyOp24
 70
     1
102
RTVSPropertyOp25
 70
     1
102
RTVSPropertyOp26
 70
     1
102
RTVSPropertyOp27
 70
     1
  0
XRECORD
  5
F27
102
{ACAD_REACTORS
330
F26
102
}
330
F26
100
AcDbXrecord
280
     1
102
RTVSPropertyOp0
 70
     1
102
RTVSPropertyOp1
 70
     1
102
RTVSPropertyOp2
 70
     1
102
RTVSPropertyOp3
 70
     1
102
RTVSPropertyOp4
 70
     1
102
RTVSPropertyOp5
 70
     1
102
RTVSPropertyOp6
 70
     1
102
RTVSPropertyOp7
 70
     1
102
RTVSPropertyOp8
 70
     1
102
RTVSPropertyOp9
 70
     1
102
RTVSPropertyOp10
 70
     1
102
RTVSPropertyOp11
 70
     1
102
RTVSPropertyOp12
 70
     1
102
RTVSPropertyOp13
 70
     1
102
RTVSPropertyOp14
 70
     1
102
RTVSPropertyOp15
 70
     1
102
RTVSPropertyOp16
 70
     1
102
RTVSPropertyOp17
 70
     1
102
RTVSPropertyOp18
 70
     1
102
RTVSPropertyOp19
 70
     1
102
RTVSPropertyOp20
 70
     1
102
RTVSPropertyOp21
 70
     1
102
RTVSPropertyOp22
 70
     1
102
RTVSPropertyOp23
 70
     1
102
RTVSPropertyOp24
 70
     1
102
RTVSPropertyOp25
 70
     1
102
RTVSPropertyOp26
 70
     1
102
RTVSPropertyOp27
 70
     1
  0
XRECORD
  5
F29
102
{ACAD_REACTORS
330
F28
102
}
330
F28
100
AcDbXrecord
280
     1
102
RTVSPropertyOp0
 70
     1
102
RTVSPropertyOp1
 70
     1
102
RTVSPropertyOp2
 70
     1
102
RTVSPropertyOp3
 70
     1
102
RTVSPropertyOp4
 70
     1
102
RTVSPropertyOp5
 70
     1
102
RTVSPropertyOp6
 70
     1
102
RTVSPropertyOp7
 70
     1
102
RTVSPropertyOp8
 70
     1
102
RTVSPropertyOp9
 70
     1
102
RTVSPropertyOp10
 70
     1
102
RTVSPropertyOp11
 70
     1
102
RTVSPropertyOp12
 70
     1
102
RTVSPropertyOp13
 70
     1
102
RTVSPropertyOp14
 70
     1
102
RTVSPropertyOp15
 70
     1
102
RTVSPropertyOp16
 70
     1
102
RTVSPropertyOp17
 70
     1
102
RTVSPropertyOp18
 70
     1
102
RTVSPropertyOp19
 70
     1
102
RTVSPropertyOp20
 70
     1
102
RTVSPropertyOp21
 70
     1
102
RTVSPropertyOp22
 70
     1
102
RTVSPropertyOp23
 70
     1
102
RTVSPropertyOp24
 70
     1
102
RTVSPropertyOp25
 70
     1
102
RTVSPropertyOp26
 70
     1
102
RTVSPropertyOp27
 70
     1
  0
ENDSEC
  0
EOF
