  0
SECTION
  2
HEADER
  9
$ACADVER
  1
AC1018
  9
$ACADMAINTVER
 70
     0
  9
$DWGCODEPAGE
  3
ANSI_932
  9
$LASTSAVEDBY
  1
shinwa
  9
$INSBASE
 10
0.0
 20
0.0
 30
0.0
  9
$EXTMIN
 10
-176.8647580510209
 20
0.0
 30
0.0
  9
$EXTMAX
 10
5985.0
 20
5632.793784466096
 30
0.0
  9
$LIMMIN
 10
0.0
 20
0.0
  9
$LIMMAX
 10
6300.0
 20
4455.0
  9
$ORTHOMODE
 70
     1
  9
$REGENMODE
 70
     1
  9
$FILLMODE
 70
     1
  9
$QTEXTMODE
 70
     0
  9
$MIRRTEXT
 70
     1
  9
$LTSCALE
 40
150.0
  9
$ATTMODE
 70
     1
  9
$TEXTSIZE
 40
45.0
  9
$TRACEWID
 40
0.05
  9
$TEXTSTYLE
  7
STANDARD
  9
$CLAYER
  8
SUNPOU
  9
$CELTYPE
  6
BYLAYER
  9
$CECOLOR
 62
   256
  9
$CELTSCALE
 40
1.0
  9
$DISPSILH
 70
     0
  9
$DIMSCALE
 40
15.0
  9
$DIMASZ
 40
2.0
  9
$DIMEXO
 40
2.0
  9
$DIMDLI
 40
7.0
  9
$DIMRND
 40
0.0
  9
$DIMDLE
 40
0.0
  9
$DIMEXE
 40
0.5
  9
$DIMTP
 40
0.0
  9
$DIMTM
 40
0.0
  9
$DIMTXT
 40
3.0
  9
$DIMCEN
 40
0.0
  9
$DIMTSZ
 40
0.0
  9
$DIMTOL
 70
     0
  9
$DIMLIM
 70
     0
  9
$DIMTIH
 70
     0
  9
$DIMTOH
 70
     0
  9
$DIMSE1
 70
     0
  9
$DIMSE2
 70
     0
  9
$DIMTAD
 70
     1
  9
$DIMZIN
 70
     8
  9
$DIMBLK
  1

  9
$DIMASO
 70
     1
  9
$DIMSHO
 70
     1
  9
$DIMPOST
  1

  9
$DIMAPOST
  1

  9
$DIMALT
 70
     0
  9
$DIMALTD
 70
     2
  9
$DIMALTF
 40
25.4
  9
$DIMLFAC
 40
1.0
  9
$DIMTOFL
 70
     0
  9
$DIMTVP
 40
1.0
  9
$DIMTIX
 70
     1
  9
$DIMSOXD
 70
     0
  9
$DIMSAH
 70
     0
  9
$DIMBLK1
  1

  9
$DIMBLK2
  1

  9
$DIMSTYLE
  2
A3-15
  9
$DIMCLRD
 70
     0
  9
$DIMCLRE
 70
     0
  9
$DIMCLRT
 70
     0
  9
$DIMTFAC
 40
1.0
  9
$DIMGAP
 40
0.8
  9
$DIMJUST
 70
     0
  9
$DIMSD1
 70
     0
  9
$DIMSD2
 70
     0
  9
$DIMTOLJ
 70
     1
  9
$DIMTZIN
 70
     8
  9
$DIMALTZ
 70
     8
  9
$DIMALTTZ
 70
     8
  9
$DIMUPT
 70
     0
  9
$DIMDEC
 70
     0
  9
$DIMTDEC
 70
     0
  9
$DIMALTU
 70
     2
  9
$DIMALTTD
 70
     2
  9
$DIMTXSTY
  7
STANDARD
  9
$DIMAUNIT
 70
     0
  9
$DIMADEC
 70
     4
  9
$DIMALTRND
 40
0.0
  9
$DIMAZIN
 70
     0
  9
$DIMDSEP
 70
    46
  9
$DIMATFIT
 70
     3
  9
$DIMFRAC
 70
     0
  9
$DIMLDRBLK
  1

  9
$DIMLUNIT
 70
     2
  9
$DIMLWD
 70
    -2
  9
$DIMLWE
 70
    -2
  9
$DIMTMOVE
 70
     2
  9
$LUNITS
 70
     2
  9
$LUPREC
 70
     4
  9
$SKETCHINC
 40
0.1
  9
$FILLETRAD
 40
50.0
  9
$AUNITS
 70
     0
  9
$AUPREC
 70
     6
  9
$MENU
  1
acad
  9
$ELEVATION
 40
0.0
  9
$PELEVATION
 40
0.0
  9
$THICKNESS
 40
0.0
  9
$LIMCHECK
 70
     0
  9
$CHAMFERA
 40
0.0
  9
$CHAMFERB
 40
0.0
  9
$CHAMFERC
 40
0.0
  9
$CHAMFERD
 40
0.0
  9
$SKPOLY
 70
     0
  9
$TDCREATE
 40
2450014.655173611
  9
$TDUCREATE
 40
2450014.280173611
  9
$TDUPDATE
 40
2458001.63497728
  9
$TDUUPDATE
 40
2458001.25997728
  9
$TDINDWG
 40
0.0266987731
  9
$TDUSRTIMER
 40
0.0266987731
  9
$USRTIMER
 70
     1
  9
$ANGBASE
 50
0.0
  9
$ANGDIR
 70
     0
  9
$PDMODE
 70
     0
  9
$PDSIZE
 40
0.0
  9
$PLINEWID
 40
0.0
  9
$SPLFRAME
 70
     0
  9
$SPLINETYPE
 70
     6
  9
$SPLINESEGS
 70
     8
  9
$HANDSEED
  5
188C
  9
$SURFTAB1
 70
     6
  9
$SURFTAB2
 70
     6
  9
$SURFTYPE
 70
     6
  9
$SURFU
 70
     6
  9
$SURFV
 70
     6
  9
$UCSBASE
  2

  9
$UCSNAME
  2

  9
$UCSORG
 10
0.0
 20
0.0
 30
0.0
  9
$UCSXDIR
 10
1.0
 20
0.0
 30
0.0
  9
$UCSYDIR
 10
0.0
 20
1.0
 30
0.0
  9
$UCSORTHOREF
  2

  9
$UCSORTHOVIEW
 70
     0
  9
$UCSORGTOP
 10
0.0
 20
0.0
 30
0.0
  9
$UCSORGBOTTOM
 10
0.0
 20
0.0
 30
0.0
  9
$UCSORGLEFT
 10
0.0
 20
0.0
 30
0.0
  9
$UCSORGRIGHT
 10
0.0
 20
0.0
 30
0.0
  9
$UCSORGFRONT
 10
0.0
 20
0.0
 30
0.0
  9
$UCSORGBACK
 10
0.0
 20
0.0
 30
0.0
  9
$PUCSBASE
  2

  9
$PUCSNAME
  2

  9
$PUCSORG
 10
0.0
 20
0.0
 30
0.0
  9
$PUCSXDIR
 10
1.0
 20
0.0
 30
0.0
  9
$PUCSYDIR
 10
0.0
 20
1.0
 30
0.0
  9
$PUCSORTHOREF
  2

  9
$PUCSORTHOVIEW
 70
     0
  9
$PUCSORGTOP
 10
0.0
 20
0.0
 30
0.0
  9
$PUCSORGBOTTOM
 10
0.0
 20
0.0
 30
0.0
  9
$PUCSORGLEFT
 10
0.0
 20
0.0
 30
0.0
  9
$PUCSORGRIGHT
 10
0.0
 20
0.0
 30
0.0
  9
$PUCSORGFRONT
 10
0.0
 20
0.0
 30
0.0
  9
$PUCSORGBACK
 10
0.0
 20
0.0
 30
0.0
  9
$USERI1
 70
     0
  9
$USERI2
 70
     0
  9
$USERI3
 70
     0
  9
$USERI4
 70
     0
  9
$USERI5
 70
     0
  9
$USERR1
 40
0.0
  9
$USERR2
 40
0.0
  9
$USERR3
 40
0.0
  9
$USERR4
 40
0.0
  9
$USERR5
 40
0.0
  9
$WORLDVIEW
 70
     1
  9
$SHADEDGE
 70
     3
  9
$SHADEDIF
 70
    70
  9
$TILEMODE
 70
     1
  9
$MAXACTVP
 70
    48
  9
$PINSBASE
 10
0.0
 20
0.0
 30
0.0
  9
$PLIMCHECK
 70
     0
  9
$PEXTMIN
 10
1.000000000000000E+20
 20
1.000000000000000E+20
 30
1.000000000000000E+20
  9
$PEXTMAX
 10
-1.000000000000000E+20
 20
-1.000000000000000E+20
 30
-1.000000000000000E+20
  9
$PLIMMIN
 10
0.0
 20
0.0
  9
$PLIMMAX
 10
12.0
 20
9.0
  9
$UNITMODE
 70
     0
  9
$VISRETAIN
 70
     0
  9
$PLINEGEN
 70
     0
  9
$PSLTSCALE
 70
     0
  9
$TREEDEPTH
 70
  3020
  9
$CMLSTYLE
  2
STANDARD
  9
$CMLJUST
 70
     0
  9
$CMLSCALE
 40
1.0
  9
$PROXYGRAPHICS
 70
     1
  9
$MEASUREMENT
 70
     0
  9
$CELWEIGHT
370
    -1
  9
$ENDCAPS
280
     0
  9
$JOINSTYLE
280
     0
  9
$LWDISPLAY
290
     0
  9
$INSUNITS
 70
     0
  9
$HYPERLINKBASE
  1

  9
$STYLESHEET
  1

  9
$XEDIT
290
     1
  9
$CEPSNTYPE
380
     0
  9
$PSTYLEMODE
290
     1
  9
$FINGERPRINTGUID
  2
{5CE31C3E-7111-11D8-A1CD-0050FC45377D}
  9
$VERSIONGUID
  2
{ABFB8E6B-C63E-42E2-98E6-8FFE3467D3B0}
  9
$EXTNAMES
290
     1
  9
$PSVPSCALE
 40
0.0
  9
$OLESTARTUP
290
     0
  9
$SORTENTS
280
   127
  9
$INDEXCTL
280
     0
  9
$HIDETEXT
280
     0
  9
$XCLIPFRAME
290
     0
  9
$HALOGAP
280
     0
  9
$OBSCOLOR
 70
   257
  9
$OBSLTYPE
280
     0
  9
$INTERSECTIONDISPLAY
280
     0
  9
$INTERSECTIONCOLOR
 70
   257
  9
$DIMASSOC
280
     1
  9
$PROJECTNAME
  1

  0
ENDSEC
  0
SECTION
  2
CLASSES
  0
CLASS
  1
ACDBDICTIONARYWDFLT
  2
AcDbDictionaryWithDefault
  3
ObjectDBX Classes
 90
        0
 91
        4
280
     0
281
     0
  0
CLASS
  1
ACDBPLACEHOLDER
  2
AcDbPlaceHolder
  3
ObjectDBX Classes
 90
        0
 91
        1
280
     0
281
     0
  0
CLASS
  1
LAYOUT
  2
AcDbLayout
  3
ObjectDBX Classes
 90
        0
 91
        1
280
     0
281
     0
  0
CLASS
  1
DICTIONARYVAR
  2
AcDbDictionaryVar
  3
ObjectDBX Classes
 90
        0
 91
        4
280
     0
281
     0
  0
CLASS
  1
DUMMY
  2
AcDbLongTransaction
  3
DUMMY
 90
        0
 91
        1
280
     0
281
     0
  0
CLASS
  1
LWPOLYLINE
  2
AcDbPolyline
  3
AutoCAD 2000
 90
        0
 91
        1
280
     0
281
     1
  0
CLASS
  1
HATCH
  2
AcDbHatch
  3
AutoCAD 2000
 90
        0
 91
        1
280
     0
281
     1
  0
CLASS
  1
XRECORD
  2
AcDbXrecord
  3
AutoCAD 2000
 90
        0
 91
        1
280
     0
281
     0
  0
CLASS
  1
TABLESTYLE
  2
AcDbTableStyle
  3
ObjectDBX Classes
 90
     4095
 91
        4
280
     0
281
     0
  0
CLASS
  1
SORTENTSTABLE
  2
AcDbSortentsTable
  3
ObjectDBX Classes
 90
        0
 91
        4
280
     0
281
     0
  0
CLASS
  1
MATERIAL
  2
AcDbMaterial
  3
ObjectDBX Classes
 90
     1153
 91
        4
280
     0
281
     0
  0
CLASS
  1
VISUALSTYLE
  2
AcDbVisualStyle
  3
ObjectDBX Classes
 90
     4095
 91
        4
280
     0
281
     0
  0
CLASS
  1
SCALE
  2
AcDbScale
  3
ObjectDBX Classes
 90
     1153
 91
        4
280
     0
281
     0
  0
CLASS
  1
MLEADERSTYLE
  2
AcDbMLeaderStyle
  3
ACDB_MLEADERSTYLE_CLASS
 90
     4095
 91
        4
280
     0
281
     0
  0
CLASS
  1
ACDBSECTIONVIEWSTYLE
  2
AcDbSectionViewStyle
  3
ObjectDBX Classes
 90
     1025
 91
        2
280
     1
281
     0
  0
CLASS
  1
ACDBDETAILVIEWSTYLE
  2
AcDbDetailViewStyle
  3
ObjectDBX Classes
 90
     1025
 91
        2
280
     1
281
     0
  0
CLASS
  1
CELLSTYLEMAP
  2
AcDbCellStyleMap
  3
ObjectDBX Classes
 90
     1152
 91
        4
280
     0
281
     0
  0
ENDSEC
  0
SECTION
  2
TABLES
  0
TABLE
  2
VPORT
  5
8
102
{ACAD_XDICTIONARY
360
1850
102
}
330
0
100
AcDbSymbolTable
 70
     1
  0
VPORT
  5
1325
330
8
100
AcDbSymbolTableRecord
100
AcDbViewportTableRecord
  2
*Active
 70
     0
 10
0.0
 20
0.0
 11
1.0
 21
1.0
 12
2103.500060032275
 22
2470.407455023928
 13
0.0
 23
0.0
 14
15.0
 24
15.0
 15
150.0
 25
150.0
 16
0.0
 26
0.0
 36
1.0
 17
0.0
 27
0.0
 37
0.0
 40
5283.91081474548
 41
1.560747663551402
 42
50.0
 43
0.0
 44
0.0
 50
0.0
 51
0.0
 71
     0
 72
   100
 73
     1
 74
     1
 75
     0
 76
     0
 77
     0
 78
     0
281
     0
 65
     1
110
0.0
120
0.0
130
0.0
111
1.0
121
0.0
131
0.0
112
0.0
122
1.0
132
0.0
 79
     0
146
0.0
1001
ACAD_NAV_VCDISPLAY
1070
     3
  0
ENDTAB
  0
TABLE
  2
LTYPE
  5
5
330
0
100
AcDbSymbolTable
 70
     4
  0
LTYPE
  5
11
330
5
100
AcDbSymbolTableRecord
100
AcDbLinetypeTableRecord
  2
BYBLOCK
 70
     0
  3

 72
    65
 73
     0
 40
0.0
  0
LTYPE
  5
12
330
5
100
AcDbSymbolTableRecord
100
AcDbLinetypeTableRecord
  2
BYLAYER
 70
     0
  3

 72
    65
 73
     0
 40
0.0
  0
LTYPE
  5
13
330
5
100
AcDbSymbolTableRecord
100
AcDbLinetypeTableRecord
  2
CONTINUOUS
 70
     0
  3
Solid line
 72
    65
 73
     0
 40
0.0
  0
LTYPE
  5
1E
330
5
100
AcDbSymbolTableRecord
100
AcDbLinetypeTableRecord
  2
HIDDEN
 70
     0
  3
_ _ _ _ _ _ _ _ _ _ _ _ _ _ _ _ _ _ _ _ _ _ _
 72
    65
 73
     2
 40
0.375
 49
0.25
 74
     0
 49
-0.125
 74
     0
  0
LTYPE
  5
1F
330
5
100
AcDbSymbolTableRecord
100
AcDbLinetypeTableRecord
  2
CENTER
 70
     0
  3
____ _ ____ _ ____ _ ____ _ ____ _ ____ _ ____
 72
    65
 73
     4
 40
2.0
 49
1.25
 74
     0
 49
-0.25
 74
     0
 49
0.25
 74
     0
 49
-0.25
 74
     0
  0
LTYPE
  5
20
330
5
100
AcDbSymbolTableRecord
100
AcDbLinetypeTableRecord
  2
PHANTOM
 70
     0
  3
_____ _ _ _____ _ _ _____ _ _ _____ _ _ ____
 72
    65
 73
     6
 40
2.5
 49
1.25
 74
     0
 49
-0.25
 74
     0
 49
0.25
 74
     0
 49
-0.25
 74
     0
 49
0.25
 74
     0
 49
-0.25
 74
     0
  0
ENDTAB
  0
TABLE
  2
LAYER
  5
2
330
0
100
AcDbSymbolTable
 70
    10
  0
LAYER
  5
E
102
{ACAD_XDICTIONARY
360
17FB
102
}
330
2
100
AcDbSymbolTableRecord
100
AcDbLayerTableRecord
  2
0
 70
     0
 62
     7
  6
CONTINUOUS
370
    -3
390
67
  0
LAYER
  5
23
102
{ACAD_XDICTIONARY
360
17FD
102
}
330
2
100
AcDbSymbolTableRecord
100
AcDbLayerTableRecord
  2
SUNPOU
 70
     0
 62
     1
  6
CONTINUOUS
370
    -3
390
67
  0
LAYER
  5
24
102
{ACAD_XDICTIONARY
360
17FF
102
}
330
2
100
AcDbSymbolTableRecord
100
AcDbLayerTableRecord
  2
HAIKIN
 70
     0
 62
     2
  6
CONTINUOUS
370
    -3
390
67
  0
LAYER
  5
25
102
{ACAD_XDICTIONARY
360
1801
102
}
330
2
100
AcDbSymbolTableRecord
100
AcDbLayerTableRecord
  2
SEIHIN
 70
     0
 62
     3
  6
CONTINUOUS
370
    -3
390
67
  0
LAYER
  5
26
102
{ACAD_XDICTIONARY
360
1803
102
}
330
2
100
AcDbSymbolTableRecord
100
AcDbLayerTableRecord
  2
HASEN
 70
     0
 62
     4
  6
HIDDEN
370
    -3
390
67
  0
LAYER
  5
27
102
{ACAD_XDICTIONARY
360
1805
102
}
330
2
100
AcDbSymbolTableRecord
100
AcDbLayerTableRecord
  2
1HASEN
 70
     0
 62
     5
  6
CENTER
370
    -3
390
67
  0
LAYER
  5
28
102
{ACAD_XDICTIONARY
360
1807
102
}
330
2
100
AcDbSymbolTableRecord
100
AcDbLayerTableRecord
  2
2HASEN
 70
     0
 62
     6
  6
PHANTOM
370
    -3
390
67
  0
LAYER
  5
29
102
{ACAD_XDICTIONARY
360
1809
102
}
330
2
100
AcDbSymbolTableRecord
100
AcDbLayerTableRecord
  2
HOJO
 70
     0
 62
     7
  6
CONTINUOUS
370
    -3
390
67
  0
LAYER
  5
2A
102
{ACAD_XDICTIONARY
360
180B
102
}
330
2
100
AcDbSymbolTableRecord
100
AcDbLayerTableRecord
  2
TEN
 70
     0
 62
     7
  6
CONTINUOUS
370
    -3
390
67
  0
LAYER
  5
564
330
2
100
AcDbSymbolTableRecord
100
AcDbLayerTableRecord
  2
DEFPOINTS
 70
     0
 62
     7
  6
CONTINUOUS
290
     0
370
    -3
390
67
  0
ENDTAB
  0
TABLE
  2
STYLE
  5
3
330
0
100
AcDbSymbolTable
 70
     1
  0
STYLE
  5
F
330
3
100
AcDbSymbolTableRecord
100
AcDbTextStyleTableRecord
  2
STANDARD
 70
     0
 40
0.0
 41
0.8
 50
0.0
 71
     0
 42
45.0
  3
TXT.shx
  4
BIGFONT.shx
  0
ENDTAB
  0
TABLE
  2
VIEW
  5
6
330
0
100
AcDbSymbolTable
 70
     0
  0
ENDTAB
  0
TABLE
  2
UCS
  5
7
330
0
100
AcDbSymbolTable
 70
     0
  0
ENDTAB
  0
TABLE
  2
APPID
  5
9
330
0
100
AcDbSymbolTable
 70
    12
  0
APPID
  5
10
330
9
100
AcDbSymbolTableRecord
100
AcDbRegAppTableRecord
  2
ACAD
 70
     0
  0
APPID
  5
A3
330
9
100
AcDbSymbolTableRecord
100
AcDbRegAppTableRecord
  2
ACAD_DSTYLE_DIMTEXT_FILL
 70
     0
  0
APPID
  5
A4
330
9
100
AcDbSymbolTableRecord
100
AcDbRegAppTableRecord
  2
ACAD_DSTYLE_DIMEXT_LENGTH
 70
     0
  0
APPID
  5
A5
330
9
100
AcDbSymbolTableRecord
100
AcDbRegAppTableRecord
  2
ACAD_DSTYLE_DIMEXT_ENABLED
 70
     0
  0
APPID
  5
A6
330
9
100
AcDbSymbolTableRecord
100
AcDbRegAppTableRecord
  2
ACAD_DSTYLE_DIM_LINETYPE
 70
     0
  0
APPID
  5
A7
330
9
100
AcDbSymbolTableRecord
100
AcDbRegAppTableRecord
  2
ACAD_DSTYLE_DIM_EXT1_LINETYPE
 70
     0
  0
APPID
  5
A8
330
9
100
AcDbSymbolTableRecord
100
AcDbRegAppTableRecord
  2
ACAD_DSTYLE_DIM_EXT2_LINETYPE
 70
     0
  0
APPID
  5
164
330
9
100
AcDbSymbolTableRecord
100
AcDbRegAppTableRecord
  2
ACAD_DSTYLE_DIMJOGGED_JOGANGLE_SYMBOL
 70
     0
  0
APPID
  5
348
330
9
100
AcDbSymbolTableRecord
100
AcDbRegAppTableRecord
  2
ACAD_DSTYLE_DIMARC_LENGTH_SYMBOL
 70
     0
  0
APPID
  5
9D3
330
9
100
AcDbSymbolTableRecord
100
AcDbRegAppTableRecord
  2
ACAD_EXEMPT_FROM_CAD_STANDARDS
 70
     0
  0
APPID
  5
1379
330
9
100
AcDbSymbolTableRecord
100
AcDbRegAppTableRecord
  2
ACAD_NAV_VCDISPLAY
 70
     0
  0
APPID
  5
1840
330
9
100
AcDbSymbolTableRecord
100
AcDbRegAppTableRecord
  2
ACAD_MLEADERVER
 70
     0
  0
ENDTAB
  0
TABLE
  2
DIMSTYLE
  5
A
330
0
100
AcDbSymbolTable
 70
     2
100
AcDbDimStyleTable
  0
DIMSTYLE
105
61
330
A
100
AcDbSymbolTableRecord
100
AcDbDimStyleTableRecord
  2
STANDARD
 70
     0
178
     0
340
F
  0
DIMSTYLE
105
34D
102
{ACAD_REACTORS
330
104F
330
105D
330
106A
330
1080
330
1081
330
1082
330
1083
330
1084
330
114C
330
114D
330
114E
330
114F
330
11BA
330
11C8
330
11E3
330
11E4
330
11E5
330
11E6
330
11E7
330
11E8
330
1263
330
1270
330
127E
330
150B
330
150C
330
150D
330
150E
330
150F
330
1510
330
1511
330
1512
330
1513
330
1514
330
1515
330
1516
330
1517
330
1518
330
151C
102
}
330
A
100
AcDbSymbolTableRecord
100
AcDbDimStyleTableRecord
  2
A3-15
 70
     0
 40
15.0
 41
2.0
 42
2.0
 43
7.0
 44
0.5
 73
     0
 74
     0
 77
     1
 78
     8
140
3.0
141
0.0
145
1.0
147
0.8
174
     1
178
     0
179
     4
271
     0
272
     0
279
     2
284
     8
285
     8
286
     8
340
F
1001
ACAD_DSTYLE_DIMJOGGED_JOGANGLE_SYMBOL
1070
   384
1040
0.7853981633974483
  0
ENDTAB
  0
TABLE
  2
BLOCK_RECORD
  5
1
330
0
100
AcDbSymbolTable
 70
    89
  0
BLOCK_RECORD
  5
17
102
{ACAD_XDICTIONARY
360
95
102
}
330
1
100
AcDbSymbolTableRecord
100
AcDbBlockTableRecord
  2
*MODEL_SPACE
340
6A
  0
BLOCK_RECORD
  5
14
330
1
100
AcDbSymbolTableRecord
100
AcDbBlockTableRecord
  2
*PAPER_SPACE
340
6B
  0
BLOCK_RECORD
  5
1C
330
1
100
AcDbSymbolTableRecord
100
AcDbBlockTableRecord
  2
BORDER
340
0
  0
BLOCK_RECORD
  5
1D
330
1
100
AcDbSymbolTableRecord
100
AcDbBlockTableRecord
  2
SA3
340
0
  0
BLOCK_RECORD
  5
1050
330
1
100
AcDbSymbolTableRecord
100
AcDbBlockTableRecord
  2
*D17
340
0
  0
BLOCK_RECORD
  5
105E
330
1
100
AcDbSymbolTableRecord
100
AcDbBlockTableRecord
  2
*D18
340
0
  0
BLOCK_RECORD
  5
106B
330
1
100
AcDbSymbolTableRecord
100
AcDbBlockTableRecord
  2
*D19
340
0
  0
BLOCK_RECORD
  5
1086
330
1
100
AcDbSymbolTableRecord
100
AcDbBlockTableRecord
  2
*D20
340
0
  0
BLOCK_RECORD
  5
1092
330
1
100
AcDbSymbolTableRecord
100
AcDbBlockTableRecord
  2
*D21
340
0
  0
BLOCK_RECORD
  5
109E
330
1
100
AcDbSymbolTableRecord
100
AcDbBlockTableRecord
  2
*D22
340
0
  0
BLOCK_RECORD
  5
10AA
330
1
100
AcDbSymbolTableRecord
100
AcDbBlockTableRecord
  2
*D23
340
0
  0
BLOCK_RECORD
  5
10B6
330
1
100
AcDbSymbolTableRecord
100
AcDbBlockTableRecord
  2
*D24
340
0
  0
BLOCK_RECORD
  5
1150
330
1
100
AcDbSymbolTableRecord
100
AcDbBlockTableRecord
  2
*D27
340
0
  0
BLOCK_RECORD
  5
115D
330
1
100
AcDbSymbolTableRecord
100
AcDbBlockTableRecord
  2
*D28
340
0
  0
BLOCK_RECORD
  5
116A
330
1
100
AcDbSymbolTableRecord
100
AcDbBlockTableRecord
  2
*D29
340
0
  0
BLOCK_RECORD
  5
1176
330
1
100
AcDbSymbolTableRecord
100
AcDbBlockTableRecord
  2
*D30
340
0
  0
BLOCK_RECORD
  5
11BB
330
1
100
AcDbSymbolTableRecord
100
AcDbBlockTableRecord
  2
*D31
340
0
  0
BLOCK_RECORD
  5
11C9
330
1
100
AcDbSymbolTableRecord
100
AcDbBlockTableRecord
  2
*D32
340
0
  0
BLOCK_RECORD
  5
11E9
330
1
100
AcDbSymbolTableRecord
100
AcDbBlockTableRecord
  2
*D33
340
0
  0
BLOCK_RECORD
  5
11F6
330
1
100
AcDbSymbolTableRecord
100
AcDbBlockTableRecord
  2
*D34
340
0
  0
BLOCK_RECORD
  5
1203
330
1
100
AcDbSymbolTableRecord
100
AcDbBlockTableRecord
  2
*D35
340
0
  0
BLOCK_RECORD
  5
120F
330
1
100
AcDbSymbolTableRecord
100
AcDbBlockTableRecord
  2
*D36
340
0
  0
BLOCK_RECORD
  5
121B
330
1
100
AcDbSymbolTableRecord
100
AcDbBlockTableRecord
  2
*D37
340
0
  0
BLOCK_RECORD
  5
1227
330
1
100
AcDbSymbolTableRecord
100
AcDbBlockTableRecord
  2
*D38
340
0
  0
BLOCK_RECORD
  5
1264
330
1
100
AcDbSymbolTableRecord
100
AcDbBlockTableRecord
  2
*D39
340
0
  0
BLOCK_RECORD
  5
1271
330
1
100
AcDbSymbolTableRecord
100
AcDbBlockTableRecord
  2
*D40
340
0
  0
BLOCK_RECORD
  5
127F
330
1
100
AcDbSymbolTableRecord
100
AcDbBlockTableRecord
  2
*D41
340
0
  0
BLOCK_RECORD
  5
153D
330
1
100
AcDbSymbolTableRecord
100
AcDbBlockTableRecord
  2
*D66
340
0
  0
BLOCK_RECORD
  5
154A
330
1
100
AcDbSymbolTableRecord
100
AcDbBlockTableRecord
  2
*D67
340
0
  0
BLOCK_RECORD
  5
1557
330
1
100
AcDbSymbolTableRecord
100
AcDbBlockTableRecord
  2
*D68
340
0
  0
BLOCK_RECORD
  5
1563
330
1
100
AcDbSymbolTableRecord
100
AcDbBlockTableRecord
  2
*D69
340
0
  0
BLOCK_RECORD
  5
1570
330
1
100
AcDbSymbolTableRecord
100
AcDbBlockTableRecord
  2
*D70
340
0
  0
BLOCK_RECORD
  5
157C
330
1
100
AcDbSymbolTableRecord
100
AcDbBlockTableRecord
  2
*D71
340
0
  0
BLOCK_RECORD
  5
1588
330
1
100
AcDbSymbolTableRecord
100
AcDbBlockTableRecord
  2
*D72
340
0
  0
BLOCK_RECORD
  5
1595
330
1
100
AcDbSymbolTableRecord
100
AcDbBlockTableRecord
  2
*D73
340
0
  0
BLOCK_RECORD
  5
15A2
330
1
100
AcDbSymbolTableRecord
100
AcDbBlockTableRecord
  2
*D74
340
0
  0
BLOCK_RECORD
  5
15AF
330
1
100
AcDbSymbolTableRecord
100
AcDbBlockTableRecord
  2
*D75
340
0
  0
BLOCK_RECORD
  5
15BB
330
1
100
AcDbSymbolTableRecord
100
AcDbBlockTableRecord
  2
*D76
340
0
  0
BLOCK_RECORD
  5
15C8
330
1
100
AcDbSymbolTableRecord
100
AcDbBlockTableRecord
  2
*D77
340
0
  0
BLOCK_RECORD
  5
15D4
330
1
100
AcDbSymbolTableRecord
100
AcDbBlockTableRecord
  2
*D78
340
0
  0
BLOCK_RECORD
  5
15E0
330
1
100
AcDbSymbolTableRecord
100
AcDbBlockTableRecord
  2
*D79
340
0
  0
BLOCK_RECORD
  5
15EC
330
1
100
AcDbSymbolTableRecord
100
AcDbBlockTableRecord
  2
*D80
340
0
  0
ENDTAB
  0
ENDSEC
  0
SECTION
  2
BLOCKS
  0
BLOCK
  5
2D
330
17
100
AcDbEntity
  8
0
100
AcDbBlockBegin
  2
*MODEL_SPACE
 70
     0
 10
0.0
 20
0.0
 30
0.0
  3
*MODEL_SPACE
  1

  0
ENDBLK
  5
2E
330
17
100
AcDbEntity
  8
0
100
AcDbBlockEnd
  0
BLOCK
  5
2B
330
14
100
AcDbEntity
 67
     1
  8
0
100
AcDbBlockBegin
  2
*PAPER_SPACE
 70
     0
 10
0.0
 20
0.0
 30
0.0
  3
*PAPER_SPACE
  1

  0
ENDBLK
  5
2C
330
14
100
AcDbEntity
 67
     1
  8
0
100
AcDbBlockEnd
  0
BLOCK
  5
2F
330
1C
100
AcDbEntity
  8
0
100
AcDbBlockBegin
  2
BORDER
 70
     0
 10
0.0
 20
0.0
 30
0.0
  3
BORDER
  1

  0
LINE
  5
30
330
1C
100
AcDbEntity
  8
0
100
AcDbLine
 10
0.0
 20
0.0
 30
0.0
 11
1.00000000000004
 21
0.0
 31
0.0
  0
LINE
  5
31
330
1C
100
AcDbEntity
  8
0
100
AcDbLine
 10
1.00000000000004
 20
0.0
 30
0.0
 11
1.00000000000004
 21
1.00000000000004
 31
0.0
  0
LINE
  5
32
330
1C
100
AcDbEntity
  8
0
100
AcDbLine
 10
1.00000000000004
 20
1.00000000000004
 30
0.0
 11
0.0
 21
1.00000000000004
 31
0.0
  0
LINE
  5
33
330
1C
100
AcDbEntity
  8
0
100
AcDbLine
 10
0.0
 20
1.00000000000004
 30
0.0
 11
0.0
 21
0.0
 31
0.0
  0
ENDBLK
  5
34
330
1C
100
AcDbEntity
  8
0
100
AcDbBlockEnd
  0
BLOCK
  5
35
330
1D
100
AcDbEntity
  8
HAIKIN
100
AcDbBlockBegin
  2
SA3
 70
     0
 10
0.0
 20
0.0
 30
0.0
  3
SA3
  1

  0
TEXT
  5
36
330
1D
100
AcDbEntity
  8
SUNPOU
100
AcDbText
 10
340.0
 20
0.0
 30
0.0
 40
2.5
  1
新和コンクリート工業株式会社
100
AcDbText
  0
TEXT
  5
39
330
1D
100
AcDbEntity
  8
SUNPOU
100
AcDbText
 10
361.4166666666667
 20
6.25
 30
0.0
 40
2.5
  1
製図
 72
     4
 11
364.0
 21
7.5
 31
0.0
100
AcDbText
  0
TEXT
  5
3A
330
1D
100
AcDbEntity
  8
SUNPOU
100
AcDbText
 10
361.3333333333333
 20
11.25
 30
0.0
 40
2.5
  1
設計
 72
     4
 11
364.0
 21
12.5
 31
0.0
100
AcDbText
  0
TEXT
  5
3B
330
1D
100
AcDbEntity
  8
SUNPOU
100
AcDbText
 10
339.0833333333333
 20
6.250000000000014
 30
0.0
 40
2.5
  1
認
 72
     4
 11
340.25
 21
7.500000000000014
 31
0.0
100
AcDbText
  0
TEXT
  5
3C
330
1D
100
AcDbEntity
  8
SUNPOU
100
AcDbText
 10
339.0833333333333
 20
11.33333333333336
 30
0.0
 40
2.5
  1
承
 72
     4
 11
340.25
 21
12.50000000000003
 31
0.0
100
AcDbText
  0
TEXT
  5
3D
330
1D
100
AcDbEntity
  8
SUNPOU
100
AcDbText
 10
312.75
 20
11.75000000000001
 30
0.0
 40
2.5
  1
図　面　番　号
 72
     4
 11
323.0
 21
13.00000000000001
 31
0.0
100
AcDbText
  0
TEXT
  5
3E
330
1D
100
AcDbEntity
  8
SUNPOU
100
AcDbText
 10
362.0
 20
17.0
 30
0.0
 40
2.5
  1
１／
100
AcDbText
  0
TEXT
  5
3F
330
1D
100
AcDbEntity
  8
SUNPOU
100
AcDbText
 10
347.3333333333333
 20
16.25000000000001
 30
0.0
 40
2.5
  1
縮　　尺
 72
     4
 11
353.0
 21
17.50000000000001
 31
0.0
100
AcDbText
  0
TEXT
  5
40
330
1D
100
AcDbEntity
  8
SUNPOU
100
AcDbText
 10
347.3333333333333
 20
21.25
 30
0.0
 40
2.5
  1
鉄 筋 量
 72
     4
 11
353.0
 21
22.5
 31
0.0
100
AcDbText
  0
TEXT
  5
41
330
1D
100
AcDbEntity
  8
SUNPOU
100
AcDbText
 10
347.3333333333333
 20
26.25
 30
0.0
 40
2.5
  1
製 造 数
 72
     4
 11
353.0
 21
27.5
 31
0.0
100
AcDbText
  0
TEXT
  5
42
330
1D
100
AcDbEntity
  8
SUNPOU
100
AcDbText
 10
377.0
 20
21.0
 30
0.0
 40
2.5
  1
ｋｇ
 72
     2
 11
382.0
 21
21.0
 31
0.0
100
AcDbText
  0
TEXT
  5
43
330
1D
100
AcDbEntity
  8
SUNPOU
100
AcDbText
 10
339.5
 20
21.0
 30
0.0
 40
2.5
  1
ｋｇ
 72
     2
 11
344.5
 21
21.0
 31
0.0
100
AcDbText
  0
TEXT
  5
44
330
1D
100
AcDbEntity
  8
SUNPOU
100
AcDbText
 10
310.0
 20
16.25000000000001
 30
0.0
 40
2.5
  1
年 月 日
 72
     4
 11
315.5
 21
17.50000000000001
 31
0.0
100
AcDbText
  0
TEXT
  5
45
330
1D
100
AcDbEntity
  8
SUNPOU
100
AcDbText
 10
309.8333333333333
 20
21.25
 30
0.0
 40
2.5
  1
製品質量
 72
     4
 11
315.5
 21
22.5
 31
0.0
100
AcDbText
  0
TEXT
  5
46
330
1D
100
AcDbEntity
  8
SUNPOU
100
AcDbText
 10
309.9166666666667
 20
26.25
 30
0.0
 40
2.5
  1
業 者 名
 72
     4
 11
315.5
 21
27.5
 31
0.0
100
AcDbText
  0
TEXT
  5
47
330
1D
100
AcDbEntity
  8
SUNPOU
100
AcDbText
 10
309.8333333333333
 20
32.5
 30
0.0
 40
2.5
  1
名　　称
 72
     4
 11
315.5
 21
33.75
 31
0.0
100
AcDbText
  0
LINE
  5
48
330
1D
100
AcDbEntity
  8
SUNPOU
100
AcDbLine
 10
338.0
 20
11.00000000000001
 30
0.0
 11
308.0
 21
11.00000000000001
 31
0.0
  0
LINE
  5
49
330
1D
100
AcDbEntity
  8
SUNPOU
100
AcDbLine
 10
367.5
 20
4.999999999999986
 30
0.0
 11
367.5
 21
14.99999999999999
 31
0.0
  0
LINE
  5
4A
330
1D
100
AcDbEntity
  8
SUNPOU
100
AcDbLine
 10
360.5
 20
4.999999999999986
 30
0.0
 11
360.5
 21
14.99999999999999
 31
0.0
  0
LINE
  5
4B
330
1D
100
AcDbEntity
  8
SUNPOU
100
AcDbLine
 10
342.5
 20
4.999999999999995
 30
0.0
 11
342.5
 21
15.0
 31
0.0
  0
LINE
  5
4C
330
1D
100
AcDbEntity
  8
SUNPOU
100
AcDbLine
 10
338.0
 20
4.999999999999995
 30
0.0
 11
338.0
 21
15.0
 31
0.0
  0
LINE
  5
4D
330
1D
100
AcDbEntity
  8
SUNPOU
100
AcDbLine
 10
323.0
 20
15.00000000000001
 30
0.0
 11
323.0
 21
37.5
 31
0.0
  0
LINE
  5
4E
330
1D
100
AcDbEntity
  8
SUNPOU
100
AcDbLine
 10
360.5
 20
15.00000000000001
 30
0.0
 11
360.5
 21
30.0
 31
0.0
  0
LINE
  5
4F
330
1D
100
AcDbEntity
  8
SUNPOU
100
AcDbLine
 10
345.5
 20
15.00000000000001
 30
0.0
 11
345.5
 21
30.0
 31
0.0
  0
LINE
  5
50
330
1D
100
AcDbEntity
  8
SUNPOU
100
AcDbLine
 10
383.0
 20
30.0
 30
0.0
 11
308.0
 21
30.0
 31
0.0
  0
LINE
  5
51
330
1D
100
AcDbEntity
  8
SUNPOU
100
AcDbLine
 10
383.0
 20
25.0
 30
0.0
 11
308.0
 21
25.0
 31
0.0
  0
LINE
  5
52
330
1D
100
AcDbEntity
  8
SUNPOU
100
AcDbLine
 10
383.0
 20
20.0
 30
0.0
 11
308.0
 21
20.0
 31
0.0
  0
LINE
  5
53
330
1D
100
AcDbEntity
  8
SUNPOU
100
AcDbLine
 10
383.0
 20
14.99999999999999
 30
0.0
 11
308.0
 21
15.00000000000004
 31
0.0
  0
LINE
  5
54
330
1D
100
AcDbEntity
  8
HAIKIN
100
AcDbLine
 10
308.0
 20
37.5
 30
0.0
 11
383.0
 21
37.5
 31
0.0
  0
LINE
  5
55
330
1D
100
AcDbEntity
  8
HAIKIN
100
AcDbLine
 10
308.0
 20
5.000000000000009
 30
0.0
 11
308.0
 21
37.5
 31
0.0
  0
LINE
  5
56
330
1D
100
AcDbEntity
  8
SUNPOU
100
AcDbLine
 10
0.000000000000016
 20
277.0
 30
0.0
 11
0.000000000000016
 21
272.0
 31
0.0
  0
LINE
  5
57
330
1D
100
AcDbEntity
  8
SUNPOU
100
AcDbLine
 10
25.00000000000001
 20
277.0
 30
0.0
 11
0.000000000000016
 21
277.0
 31
0.0
  0
LINE
  5
58
330
1D
100
AcDbEntity
  8
SUNPOU
100
AcDbLine
 10
25.00000000000001
 20
272.0
 30
0.0
 11
25.00000000000001
 21
277.0
 31
0.0
  0
LINE
  5
59
330
1D
100
AcDbEntity
  8
HAIKIN
100
AcDbLine
 10
0.0000000000000004
 20
5.0
 30
0.0
 11
383.0
 21
5.0
 31
0.0
  0
LINE
  5
5A
330
1D
100
AcDbEntity
  8
HAIKIN
100
AcDbLine
 10
0.0000000000000158
 20
272.0
 30
0.0
 11
383.0
 21
272.0
 31
0.0
  0
LINE
  5
5B
330
1D
100
AcDbEntity
  8
HAIKIN
100
AcDbLine
 10
383.0
 20
272.0
 30
0.0
 11
383.0
 21
5.0
 31
0.0
  0
TEXT
  5
5C
330
1D
100
AcDbEntity
  8
SUNPOU
100
AcDbText
 10
3.700000000000017
 20
273.0
 30
0.0
 40
3.0
  1
Ｈ－２－共
 72
     4
 11
12.50000000000002
 21
274.5
 31
0.0
100
AcDbText
  0
LINE
  5
5D
330
1D
100
AcDbEntity
  8
HAIKIN
100
AcDbLine
 10
0.0000000000000004
 20
5.0
 30
0.0
 11
0.0000000000000158
 21
272.0
 31
0.0
  0
ENDBLK
  5
5E
330
1D
100
AcDbEntity
  8
HAIKIN
100
AcDbBlockEnd
  0
BLOCK
  5
105B
330
1050
100
AcDbEntity
  8
0
100
AcDbBlockBegin
  2
*D17
 70
     1
 10
0.0
 20
0.0
 30
0.0
  3
*D17
  1

  0
LINE
  5
17B2
330
1050
100
AcDbEntity
  8
SUNPOU
 62
     0
440
 16777216
370
    -2
100
AcDbLine
 10
2962.752405604006
 20
2542.517413811982
 30
0.0
 11
2823.99366682152
 21
2542.517413811982
 31
0.0
  0
LINE
  5
17B3
330
1050
100
AcDbEntity
  8
SUNPOU
 62
     0
440
 16777216
370
    -2
100
AcDbLine
 10
2962.752405604006
 20
2592.517413811982
 30
0.0
 11
2823.99366682152
 21
2592.517413811982
 31
0.0
  0
LINE
  5
17B4
330
1050
100
AcDbEntity
  8
SUNPOU
 62
     0
440
 16777216
370
    -2
100
AcDbLine
 10
2831.49366682152
 20
2512.517413811982
 30
0.0
 11
2831.49366682152
 21
2482.517413811982
 31
0.0
  0
LINE
  5
17B5
330
1050
100
AcDbEntity
  8
SUNPOU
 62
     0
440
 16777216
370
    -2
100
AcDbLine
 10
2831.49366682152
 20
2622.517413811982
 30
0.0
 11
2831.49366682152
 21
2652.517413811982
 31
0.0
  0
SOLID
  5
17B6
330
1050
100
AcDbEntity
  8
SUNPOU
 62
     0
440
 16777216
100
AcDbTrace
 10
2826.49366682152
 20
2512.517413811982
 30
0.0
 11
2836.49366682152
 21
2512.517413811982
 31
0.0
 12
2831.49366682152
 22
2542.517413811982
 32
0.0
 13
2831.49366682152
 23
2542.517413811982
 33
0.0
  0
SOLID
  5
17B7
330
1050
100
AcDbEntity
  8
SUNPOU
 62
     0
440
 16777216
100
AcDbTrace
 10
2826.49366682152
 20
2622.517413811982
 30
0.0
 11
2836.49366682152
 21
2622.517413811982
 31
0.0
 12
2831.49366682152
 22
2592.517413811982
 32
0.0
 13
2831.49366682152
 23
2592.517413811982
 33
0.0
  0
MTEXT
  5
17B8
330
1050
100
AcDbEntity
  8
SUNPOU
 62
     0
440
 16777216
100
AcDbMText
 10
2796.993666821519
 20
2567.517413811982
 30
0.0
 40
45.0
 41
0.0
 71
     5
 72
     1
  1
\A1;50
 11
6.123031769111886E-17
 21
1.0
 31
0.0
 73
     1
 44
1.0
  0
POINT
  5
17B9
330
1050
100
AcDbEntity
  8
DEFPOINTS
 62
     0
440
 16777216
100
AcDbPoint
 10
2992.752405604006
 20
2542.517413811982
 30
0.0
  0
POINT
  5
17BA
330
1050
100
AcDbEntity
  8
DEFPOINTS
 62
     0
440
 16777216
100
AcDbPoint
 10
2992.752405604006
 20
2592.517413811982
 30
0.0
  0
POINT
  5
17BB
330
1050
100
AcDbEntity
  8
DEFPOINTS
 62
     0
440
 16777216
100
AcDbPoint
 10
2831.49366682152
 20
2592.517413811982
 30
0.0
  0
ENDBLK
  5
105C
330
1050
100
AcDbEntity
  8
0
100
AcDbBlockEnd
  0
BLOCK
  5
1068
330
105E
100
AcDbEntity
  8
0
100
AcDbBlockBegin
  2
*D18
 70
     1
 10
0.0
 20
0.0
 30
0.0
  3
*D18
  1

  0
LINE
  5
17BC
330
105E
100
AcDbEntity
  8
SUNPOU
 62
     0
440
 16777216
370
    -2
100
AcDbLine
 10
2962.752405604006
 20
2592.517413811982
 30
0.0
 11
2823.99366682152
 21
2592.517413811982
 31
0.0
  0
LINE
  5
17BD
330
105E
100
AcDbEntity
  8
SUNPOU
 62
     0
440
 16777216
370
    -2
100
AcDbLine
 10
2962.752405604006
 20
2742.517413811982
 30
0.0
 11
2823.99366682152
 21
2742.517413811982
 31
0.0
  0
LINE
  5
17BE
330
105E
100
AcDbEntity
  8
SUNPOU
 62
     0
440
 16777216
370
    -2
100
AcDbLine
 10
2831.49366682152
 20
2622.517413811982
 30
0.0
 11
2831.49366682152
 21
2712.517413811982
 31
0.0
  0
SOLID
  5
17BF
330
105E
100
AcDbEntity
  8
SUNPOU
 62
     0
440
 16777216
100
AcDbTrace
 10
2826.49366682152
 20
2622.517413811982
 30
0.0
 11
2836.49366682152
 21
2622.517413811982
 31
0.0
 12
2831.49366682152
 22
2592.517413811982
 32
0.0
 13
2831.49366682152
 23
2592.517413811982
 33
0.0
  0
SOLID
  5
17C0
330
105E
100
AcDbEntity
  8
SUNPOU
 62
     0
440
 16777216
100
AcDbTrace
 10
2826.49366682152
 20
2712.517413811982
 30
0.0
 11
2836.49366682152
 21
2712.517413811982
 31
0.0
 12
2831.49366682152
 22
2742.517413811982
 32
0.0
 13
2831.49366682152
 23
2742.517413811982
 33
0.0
  0
MTEXT
  5
17C1
330
105E
100
AcDbEntity
  8
SUNPOU
 62
     0
440
 16777216
100
AcDbMText
 10
2796.993666821519
 20
2667.517413811982
 30
0.0
 40
45.0
 41
0.0
 71
     5
 72
     1
  1
\A1;150
 11
6.123031769111886E-17
 21
1.0
 31
0.0
 73
     1
 44
1.0
  0
POINT
  5
17C2
330
105E
100
AcDbEntity
  8
DEFPOINTS
 62
     0
440
 16777216
100
AcDbPoint
 10
2992.752405604006
 20
2592.517413811982
 30
0.0
  0
POINT
  5
17C3
330
105E
100
AcDbEntity
  8
DEFPOINTS
 62
     0
440
 16777216
100
AcDbPoint
 10
2992.752405604006
 20
2742.517413811982
 30
0.0
  0
POINT
  5
17C4
330
105E
100
AcDbEntity
  8
DEFPOINTS
 62
     0
440
 16777216
100
AcDbPoint
 10
2831.49366682152
 20
2742.517413811982
 30
0.0
  0
ENDBLK
  5
1069
330
105E
100
AcDbEntity
  8
0
100
AcDbBlockEnd
  0
BLOCK
  5
1075
330
106B
100
AcDbEntity
  8
0
100
AcDbBlockBegin
  2
*D19
 70
     1
 10
0.0
 20
0.0
 30
0.0
  3
*D19
  1

  0
LINE
  5
17C5
330
106B
100
AcDbEntity
  8
SUNPOU
 62
     0
440
 16777216
370
    -2
100
AcDbLine
 10
2992.752405604006
 20
3022.517413811982
 30
0.0
 11
2992.752405604006
 21
3274.420878561376
 31
0.0
  0
LINE
  5
17C6
330
106B
100
AcDbEntity
  8
SUNPOU
 62
     0
440
 16777216
370
    -2
100
AcDbLine
 10
4992.752405604006
 20
3022.517413811982
 30
0.0
 11
4992.752405604006
 21
3274.420878561376
 31
0.0
  0
LINE
  5
17C7
330
106B
100
AcDbEntity
  8
SUNPOU
 62
     0
440
 16777216
370
    -2
100
AcDbLine
 10
3022.752405604006
 20
3266.920878561376
 30
0.0
 11
4962.752405604006
 21
3266.920878561376
 31
0.0
  0
SOLID
  5
17C8
330
106B
100
AcDbEntity
  8
SUNPOU
 62
     0
440
 16777216
100
AcDbTrace
 10
3022.752405604006
 20
3271.920878561376
 30
0.0
 11
3022.752405604006
 21
3261.920878561376
 31
0.0
 12
2992.752405604006
 22
3266.920878561376
 32
0.0
 13
2992.752405604006
 23
3266.920878561376
 33
0.0
  0
SOLID
  5
17C9
330
106B
100
AcDbEntity
  8
SUNPOU
 62
     0
440
 16777216
100
AcDbTrace
 10
4962.752405604006
 20
3271.920878561376
 30
0.0
 11
4962.752405604006
 21
3261.920878561376
 31
0.0
 12
4992.752405604006
 22
3266.920878561376
 32
0.0
 13
4992.752405604006
 23
3266.920878561376
 33
0.0
  0
MTEXT
  5
17CA
330
106B
100
AcDbEntity
  8
SUNPOU
 62
     0
440
 16777216
100
AcDbMText
 10
3992.752405604006
 20
3301.420878561376
 30
0.0
 40
45.0
 41
0.0
 71
     5
 72
     1
  1
\A1;2000
 73
     1
 44
1.0
  0
POINT
  5
17CB
330
106B
100
AcDbEntity
  8
DEFPOINTS
 62
     0
440
 16777216
100
AcDbPoint
 10
2992.752405604006
 20
2992.517413811982
 30
0.0
  0
POINT
  5
17CC
330
106B
100
AcDbEntity
  8
DEFPOINTS
 62
     0
440
 16777216
100
AcDbPoint
 10
4992.752405604006
 20
2992.517413811982
 30
0.0
  0
POINT
  5
17CD
330
106B
100
AcDbEntity
  8
DEFPOINTS
 62
     0
440
 16777216
100
AcDbPoint
 10
4992.752405604006
 20
3266.920878561376
 30
0.0
  0
ENDBLK
  5
1076
330
106B
100
AcDbEntity
  8
0
100
AcDbBlockEnd
  0
BLOCK
  5
1090
330
1086
100
AcDbEntity
  8
0
100
AcDbBlockBegin
  2
*D20
 70
     1
 10
0.0
 20
0.0
 30
0.0
  3
*D20
  1

  0
LINE
  5
17CE
330
1086
100
AcDbEntity
  8
SUNPOU
 62
     0
440
 16777216
370
    -2
100
AcDbLine
 10
2992.752405604006
 20
2512.517413811982
 30
0.0
 11
2992.752405604006
 21
2254.581234037551
 31
0.0
  0
LINE
  5
17CF
330
1086
100
AcDbEntity
  8
SUNPOU
 62
     0
440
 16777216
370
    -2
100
AcDbLine
 10
3242.752405604006
 20
2512.517413811981
 30
0.0
 11
3242.752405604006
 21
2254.581234037551
 31
0.0
  0
LINE
  5
17D0
330
1086
100
AcDbEntity
  8
SUNPOU
 62
     0
440
 16777216
370
    -2
100
AcDbLine
 10
3022.752405604006
 20
2262.081234037551
 30
0.0
 11
3212.752405604006
 21
2262.081234037551
 31
0.0
  0
SOLID
  5
17D1
330
1086
100
AcDbEntity
  8
SUNPOU
 62
     0
440
 16777216
100
AcDbTrace
 10
3022.752405604006
 20
2267.081234037551
 30
0.0
 11
3022.752405604006
 21
2257.081234037551
 31
0.0
 12
2992.752405604006
 22
2262.081234037551
 32
0.0
 13
2992.752405604006
 23
2262.081234037551
 33
0.0
  0
SOLID
  5
17D2
330
1086
100
AcDbEntity
  8
SUNPOU
 62
     0
440
 16777216
100
AcDbTrace
 10
3212.752405604006
 20
2267.081234037551
 30
0.0
 11
3212.752405604006
 21
2257.081234037551
 31
0.0
 12
3242.752405604006
 22
2262.081234037551
 32
0.0
 13
3242.752405604006
 23
2262.081234037551
 33
0.0
  0
MTEXT
  5
17D3
330
1086
100
AcDbEntity
  8
SUNPOU
 62
     0
440
 16777216
100
AcDbMText
 10
3117.752405604006
 20
2296.581234037551
 30
0.0
 40
45.0
 41
0.0
 71
     5
 72
     1
  1
\A1;250
 73
     1
 44
1.0
  0
POINT
  5
17D4
330
1086
100
AcDbEntity
  8
DEFPOINTS
 62
     0
440
 16777216
100
AcDbPoint
 10
2992.752405604006
 20
2542.517413811982
 30
0.0
  0
POINT
  5
17D5
330
1086
100
AcDbEntity
  8
DEFPOINTS
 62
     0
440
 16777216
100
AcDbPoint
 10
3242.752405604006
 20
2542.517413811981
 30
0.0
  0
POINT
  5
17D6
330
1086
100
AcDbEntity
  8
DEFPOINTS
 62
     0
440
 16777216
100
AcDbPoint
 10
3242.752405604006
 20
2262.081234037551
 30
0.0
  0
ENDBLK
  5
1091
330
1086
100
AcDbEntity
  8
0
100
AcDbBlockEnd
  0
BLOCK
  5
109C
330
1092
100
AcDbEntity
  8
0
100
AcDbBlockBegin
  2
*D21
 70
     1
 10
0.0
 20
0.0
 30
0.0
  3
*D21
  1

  0
LINE
  5
17D7
330
1092
100
AcDbEntity
  8
SUNPOU
 62
     0
440
 16777216
370
    -2
100
AcDbLine
 10
3242.752405604006
 20
2512.517413811981
 30
0.0
 11
3242.752405604006
 21
2254.581234037551
 31
0.0
  0
LINE
  5
17D8
330
1092
100
AcDbEntity
  8
SUNPOU
 62
     0
440
 16777216
370
    -2
100
AcDbLine
 10
3742.752405604006
 20
2512.517413811981
 30
0.0
 11
3742.752405604006
 21
2254.581234037551
 31
0.0
  0
LINE
  5
17D9
330
1092
100
AcDbEntity
  8
SUNPOU
 62
     0
440
 16777216
370
    -2
100
AcDbLine
 10
3272.752405604006
 20
2262.081234037551
 30
0.0
 11
3712.752405604006
 21
2262.081234037551
 31
0.0
  0
SOLID
  5
17DA
330
1092
100
AcDbEntity
  8
SUNPOU
 62
     0
440
 16777216
100
AcDbTrace
 10
3272.752405604006
 20
2267.081234037551
 30
0.0
 11
3272.752405604006
 21
2257.081234037551
 31
0.0
 12
3242.752405604006
 22
2262.081234037551
 32
0.0
 13
3242.752405604006
 23
2262.081234037551
 33
0.0
  0
SOLID
  5
17DB
330
1092
100
AcDbEntity
  8
SUNPOU
 62
     0
440
 16777216
100
AcDbTrace
 10
3712.752405604006
 20
2267.081234037551
 30
0.0
 11
3712.752405604006
 21
2257.081234037551
 31
0.0
 12
3742.752405604006
 22
2262.081234037551
 32
0.0
 13
3742.752405604006
 23
2262.081234037551
 33
0.0
  0
MTEXT
  5
17DC
330
1092
100
AcDbEntity
  8
SUNPOU
 62
     0
440
 16777216
100
AcDbMText
 10
3492.752405604006
 20
2296.581234037551
 30
0.0
 40
45.0
 41
0.0
 71
     5
 72
     1
  1
\A1;500
 73
     1
 44
1.0
  0
POINT
  5
17DD
330
1092
100
AcDbEntity
  8
DEFPOINTS
 62
     0
440
 16777216
100
AcDbPoint
 10
3242.752405604006
 20
2542.517413811981
 30
0.0
  0
POINT
  5
17DE
330
1092
100
AcDbEntity
  8
DEFPOINTS
 62
     0
440
 16777216
100
AcDbPoint
 10
3742.752405604006
 20
2542.517413811981
 30
0.0
  0
POINT
  5
17DF
330
1092
100
AcDbEntity
  8
DEFPOINTS
 62
     0
440
 16777216
100
AcDbPoint
 10
3742.752405604006
 20
2262.081234037551
 30
0.0
  0
ENDBLK
  5
109D
330
1092
100
AcDbEntity
  8
0
100
AcDbBlockEnd
  0
BLOCK
  5
10A8
330
109E
100
AcDbEntity
  8
0
100
AcDbBlockBegin
  2
*D22
 70
     1
 10
0.0
 20
0.0
 30
0.0
  3
*D22
  1

  0
LINE
  5
17E0
330
109E
100
AcDbEntity
  8
SUNPOU
 62
     0
440
 16777216
370
    -2
100
AcDbLine
 10
3742.752405604006
 20
2512.517413811981
 30
0.0
 11
3742.752405604006
 21
2254.581234037551
 31
0.0
  0
LINE
  5
17E1
330
109E
100
AcDbEntity
  8
SUNPOU
 62
     0
440
 16777216
370
    -2
100
AcDbLine
 10
4242.752405604006
 20
2512.517413811981
 30
0.0
 11
4242.752405604006
 21
2254.581234037551
 31
0.0
  0
LINE
  5
17E2
330
109E
100
AcDbEntity
  8
SUNPOU
 62
     0
440
 16777216
370
    -2
100
AcDbLine
 10
3772.752405604006
 20
2262.081234037551
 30
0.0
 11
4212.752405604006
 21
2262.081234037551
 31
0.0
  0
SOLID
  5
17E3
330
109E
100
AcDbEntity
  8
SUNPOU
 62
     0
440
 16777216
100
AcDbTrace
 10
3772.752405604006
 20
2267.081234037551
 30
0.0
 11
3772.752405604006
 21
2257.081234037551
 31
0.0
 12
3742.752405604006
 22
2262.081234037551
 32
0.0
 13
3742.752405604006
 23
2262.081234037551
 33
0.0
  0
SOLID
  5
17E4
330
109E
100
AcDbEntity
  8
SUNPOU
 62
     0
440
 16777216
100
AcDbTrace
 10
4212.752405604006
 20
2267.081234037551
 30
0.0
 11
4212.752405604006
 21
2257.081234037551
 31
0.0
 12
4242.752405604006
 22
2262.081234037551
 32
0.0
 13
4242.752405604006
 23
2262.081234037551
 33
0.0
  0
MTEXT
  5
17E5
330
109E
100
AcDbEntity
  8
SUNPOU
 62
     0
440
 16777216
100
AcDbMText
 10
3992.752405604006
 20
2296.581234037551
 30
0.0
 40
45.0
 41
0.0
 71
     5
 72
     1
  1
\A1;500
 73
     1
 44
1.0
  0
POINT
  5
17E6
330
109E
100
AcDbEntity
  8
DEFPOINTS
 62
     0
440
 16777216
100
AcDbPoint
 10
3742.752405604006
 20
2542.517413811981
 30
0.0
  0
POINT
  5
17E7
330
109E
100
AcDbEntity
  8
DEFPOINTS
 62
     0
440
 16777216
100
AcDbPoint
 10
4242.752405604006
 20
2542.517413811981
 30
0.0
  0
POINT
  5
17E8
330
109E
100
AcDbEntity
  8
DEFPOINTS
 62
     0
440
 16777216
100
AcDbPoint
 10
4242.752405604006
 20
2262.081234037551
 30
0.0
  0
ENDBLK
  5
10A9
330
109E
100
AcDbEntity
  8
0
100
AcDbBlockEnd
  0
BLOCK
  5
10B4
330
10AA
100
AcDbEntity
  8
0
100
AcDbBlockBegin
  2
*D23
 70
     1
 10
0.0
 20
0.0
 30
0.0
  3
*D23
  1

  0
LINE
  5
17E9
330
10AA
100
AcDbEntity
  8
SUNPOU
 62
     0
440
 16777216
370
    -2
100
AcDbLine
 10
4242.752405604006
 20
2512.517413811981
 30
0.0
 11
4242.752405604006
 21
2254.581234037551
 31
0.0
  0
LINE
  5
17EA
330
10AA
100
AcDbEntity
  8
SUNPOU
 62
     0
440
 16777216
370
    -2
100
AcDbLine
 10
4742.752405604006
 20
2512.517413811981
 30
0.0
 11
4742.752405604006
 21
2254.581234037551
 31
0.0
  0
LINE
  5
17EB
330
10AA
100
AcDbEntity
  8
SUNPOU
 62
     0
440
 16777216
370
    -2
100
AcDbLine
 10
4272.752405604006
 20
2262.081234037551
 30
0.0
 11
4712.752405604006
 21
2262.081234037551
 31
0.0
  0
SOLID
  5
17EC
330
10AA
100
AcDbEntity
  8
SUNPOU
 62
     0
440
 16777216
100
AcDbTrace
 10
4272.752405604006
 20
2267.081234037551
 30
0.0
 11
4272.752405604006
 21
2257.081234037551
 31
0.0
 12
4242.752405604006
 22
2262.081234037551
 32
0.0
 13
4242.752405604006
 23
2262.081234037551
 33
0.0
  0
SOLID
  5
17ED
330
10AA
100
AcDbEntity
  8
SUNPOU
 62
     0
440
 16777216
100
AcDbTrace
 10
4712.752405604006
 20
2267.081234037551
 30
0.0
 11
4712.752405604006
 21
2257.081234037551
 31
0.0
 12
4742.752405604006
 22
2262.081234037551
 32
0.0
 13
4742.752405604006
 23
2262.081234037551
 33
0.0
  0
MTEXT
  5
17EE
330
10AA
100
AcDbEntity
  8
SUNPOU
 62
     0
440
 16777216
100
AcDbMText
 10
4492.752405604006
 20
2296.581234037551
 30
0.0
 40
45.0
 41
0.0
 71
     5
 72
     1
  1
\A1;500
 73
     1
 44
1.0
  0
POINT
  5
17EF
330
10AA
100
AcDbEntity
  8
DEFPOINTS
 62
     0
440
 16777216
100
AcDbPoint
 10
4242.752405604006
 20
2542.517413811981
 30
0.0
  0
POINT
  5
17F0
330
10AA
100
AcDbEntity
  8
DEFPOINTS
 62
     0
440
 16777216
100
AcDbPoint
 10
4742.752405604006
 20
2542.517413811981
 30
0.0
  0
POINT
  5
17F1
330
10AA
100
AcDbEntity
  8
DEFPOINTS
 62
     0
440
 16777216
100
AcDbPoint
 10
4742.752405604006
 20
2262.081234037551
 30
0.0
  0
ENDBLK
  5
10B5
330
10AA
100
AcDbEntity
  8
0
100
AcDbBlockEnd
  0
BLOCK
  5
10C0
330
10B6
100
AcDbEntity
  8
0
100
AcDbBlockBegin
  2
*D24
 70
     1
 10
0.0
 20
0.0
 30
0.0
  3
*D24
  1

  0
LINE
  5
17F2
330
10B6
100
AcDbEntity
  8
SUNPOU
 62
     0
440
 16777216
370
    -2
100
AcDbLine
 10
4742.752405604006
 20
2512.517413811981
 30
0.0
 11
4742.752405604006
 21
2254.581234037551
 31
0.0
  0
LINE
  5
17F3
330
10B6
100
AcDbEntity
  8
SUNPOU
 62
     0
440
 16777216
370
    -2
100
AcDbLine
 10
4992.752405604006
 20
2512.517413811981
 30
0.0
 11
4992.752405604006
 21
2254.581234037551
 31
0.0
  0
LINE
  5
17F4
330
10B6
100
AcDbEntity
  8
SUNPOU
 62
     0
440
 16777216
370
    -2
100
AcDbLine
 10
4772.752405604006
 20
2262.081234037551
 30
0.0
 11
4962.752405604006
 21
2262.081234037551
 31
0.0
  0
SOLID
  5
17F5
330
10B6
100
AcDbEntity
  8
SUNPOU
 62
     0
440
 16777216
100
AcDbTrace
 10
4772.752405604006
 20
2267.081234037551
 30
0.0
 11
4772.752405604006
 21
2257.081234037551
 31
0.0
 12
4742.752405604006
 22
2262.081234037551
 32
0.0
 13
4742.752405604006
 23
2262.081234037551
 33
0.0
  0
SOLID
  5
17F6
330
10B6
100
AcDbEntity
  8
SUNPOU
 62
     0
440
 16777216
100
AcDbTrace
 10
4962.752405604006
 20
2267.081234037551
 30
0.0
 11
4962.752405604006
 21
2257.081234037551
 31
0.0
 12
4992.752405604006
 22
2262.081234037551
 32
0.0
 13
4992.752405604006
 23
2262.081234037551
 33
0.0
  0
MTEXT
  5
17F7
330
10B6
100
AcDbEntity
  8
SUNPOU
 62
     0
440
 16777216
100
AcDbMText
 10
4867.752405604006
 20
2296.581234037551
 30
0.0
 40
45.0
 41
0.0
 71
     5
 72
     1
  1
\A1;250
 73
     1
 44
1.0
  0
POINT
  5
17F8
330
10B6
100
AcDbEntity
  8
DEFPOINTS
 62
     0
440
 16777216
100
AcDbPoint
 10
4742.752405604006
 20
2542.517413811981
 30
0.0
  0
POINT
  5
17F9
330
10B6
100
AcDbEntity
  8
DEFPOINTS
 62
     0
440
 16777216
100
AcDbPoint
 10
4992.752405604006
 20
2542.517413811981
 30
0.0
  0
POINT
  5
17FA
330
10B6
100
AcDbEntity
  8
DEFPOINTS
 62
     0
440
 16777216
100
AcDbPoint
 10
4992.752405604006
 20
2262.081234037551
 30
0.0
  0
ENDBLK
  5
10C1
330
10B6
100
AcDbEntity
  8
0
100
AcDbBlockEnd
  0
BLOCK
  5
115B
330
1150
100
AcDbEntity
  8
0
100
AcDbBlockBegin
  2
*D27
 70
     1
 10
0.0
 20
0.0
 30
0.0
  3
*D27
  1

  0
LINE
  5
1292
330
1150
100
AcDbEntity
  8
SUNPOU
 62
     0
440
 16777216
370
    -2
100
AcDbLine
 10
1574.934439758556
 20
3022.517413811982
 30
0.0
 11
1574.934439758556
 21
3215.06037493431
 31
0.0
  0
LINE
  5
1293
330
1150
100
AcDbEntity
  8
SUNPOU
 62
     0
440
 16777216
370
    -2
100
AcDbLine
 10
1539.934439758556
 20
3022.517413811982
 30
0.0
 11
1539.934439758556
 21
3215.06037493431
 31
0.0
  0
LINE
  5
1294
330
1150
100
AcDbEntity
  8
SUNPOU
 62
     0
440
 16777216
370
    -2
100
AcDbLine
 10
1604.934439758556
 20
3207.56037493431
 30
0.0
 11
1634.934439758556
 21
3207.56037493431
 31
0.0
  0
LINE
  5
1295
330
1150
100
AcDbEntity
  8
SUNPOU
 62
     0
440
 16777216
370
    -2
100
AcDbLine
 10
1509.934439758556
 20
3207.56037493431
 30
0.0
 11
1479.934439758556
 21
3207.56037493431
 31
0.0
  0
SOLID
  5
1296
330
1150
100
AcDbEntity
  8
SUNPOU
 62
     0
440
 16777216
100
AcDbTrace
 10
1604.934439758556
 20
3212.56037493431
 30
0.0
 11
1604.934439758556
 21
3202.56037493431
 31
0.0
 12
1574.934439758556
 22
3207.56037493431
 32
0.0
 13
1574.934439758556
 23
3207.56037493431
 33
0.0
  0
SOLID
  5
1297
330
1150
100
AcDbEntity
  8
SUNPOU
 62
     0
440
 16777216
100
AcDbTrace
 10
1509.934439758556
 20
3212.56037493431
 30
0.0
 11
1509.934439758556
 21
3202.56037493431
 31
0.0
 12
1539.934439758556
 22
3207.56037493431
 32
0.0
 13
1539.934439758556
 23
3207.56037493431
 33
0.0
  0
MTEXT
  5
1298
330
1150
100
AcDbEntity
  8
SUNPOU
 62
     0
440
 16777216
100
AcDbMText
 10
1557.434439758556
 20
3242.06037493431
 30
0.0
 40
45.0
 41
0.0
 71
     5
 72
     1
  1
\A1;35
 73
     1
 44
1.0
  0
POINT
  5
1299
330
1150
100
AcDbEntity
  8
DEFPOINTS
 62
     0
440
 16777216
100
AcDbPoint
 10
1574.934439758556
 20
2992.517413811982
 30
0.0
  0
POINT
  5
129A
330
1150
100
AcDbEntity
  8
DEFPOINTS
 62
     0
440
 16777216
100
AcDbPoint
 10
1539.934439758556
 20
2992.517413811982
 30
0.0
  0
POINT
  5
129B
330
1150
100
AcDbEntity
  8
DEFPOINTS
 62
     0
440
 16777216
100
AcDbPoint
 10
1539.934439758556
 20
3207.56037493431
 30
0.0
  0
ENDBLK
  5
115C
330
1150
100
AcDbEntity
  8
0
100
AcDbBlockEnd
  0
BLOCK
  5
1168
330
115D
100
AcDbEntity
  8
0
100
AcDbBlockBegin
  2
*D28
 70
     1
 10
0.0
 20
0.0
 30
0.0
  3
*D28
  1

  0
LINE
  5
129C
330
115D
100
AcDbEntity
  8
SUNPOU
 62
     0
440
 16777216
370
    -2
100
AcDbLine
 10
1539.934439758556
 20
3022.517413811982
 30
0.0
 11
1539.934439758556
 21
3215.06037493431
 31
0.0
  0
LINE
  5
129D
330
115D
100
AcDbEntity
  8
SUNPOU
 62
     0
440
 16777216
370
    -2
100
AcDbLine
 10
1524.934439758556
 20
3022.517413811982
 30
0.0
 11
1524.934439758556
 21
3215.06037493431
 31
0.0
  0
LINE
  5
129E
330
115D
100
AcDbEntity
  8
SUNPOU
 62
     0
440
 16777216
370
    -2
100
AcDbLine
 10
1569.934439758556
 20
3207.56037493431
 30
0.0
 11
1599.934439758556
 21
3207.56037493431
 31
0.0
  0
LINE
  5
129F
330
115D
100
AcDbEntity
  8
SUNPOU
 62
     0
440
 16777216
370
    -2
100
AcDbLine
 10
1494.934439758556
 20
3207.56037493431
 30
0.0
 11
1464.934439758556
 21
3207.56037493431
 31
0.0
  0
MTEXT
  5
12A0
330
115D
100
AcDbEntity
  8
SUNPOU
 62
     0
440
 16777216
100
AcDbMText
 10
1487.317155673281
 20
3242.06037493431
 30
0.0
 40
45.0
 41
0.0
 71
     5
 72
     1
  1
\A1;15
 73
     1
 44
1.0
  0
SOLID
  5
12A1
330
115D
100
AcDbEntity
  8
SUNPOU
 62
     0
440
 16777216
100
AcDbTrace
 10
1569.934439758556
 20
3212.56037493431
 30
0.0
 11
1569.934439758556
 21
3202.56037493431
 31
0.0
 12
1539.934439758556
 22
3207.56037493431
 32
0.0
 13
1539.934439758556
 23
3207.56037493431
 33
0.0
  0
SOLID
  5
12A2
330
115D
100
AcDbEntity
  8
SUNPOU
 62
     0
440
 16777216
100
AcDbTrace
 10
1494.934439758556
 20
3212.56037493431
 30
0.0
 11
1494.934439758556
 21
3202.56037493431
 31
0.0
 12
1524.934439758556
 22
3207.56037493431
 32
0.0
 13
1524.934439758556
 23
3207.56037493431
 33
0.0
  0
POINT
  5
12A3
330
115D
100
AcDbEntity
  8
DEFPOINTS
 62
     0
440
 16777216
100
AcDbPoint
 10
1539.934439758556
 20
2992.517413811982
 30
0.0
  0
POINT
  5
12A4
330
115D
100
AcDbEntity
  8
DEFPOINTS
 62
     0
440
 16777216
100
AcDbPoint
 10
1524.934439758556
 20
2992.517413811982
 30
0.0
  0
POINT
  5
12A5
330
115D
100
AcDbEntity
  8
DEFPOINTS
 62
     0
440
 16777216
100
AcDbPoint
 10
1524.934439758556
 20
3207.56037493431
 30
0.0
  0
ENDBLK
  5
1169
330
115D
100
AcDbEntity
  8
0
100
AcDbBlockEnd
  0
BLOCK
  5
1174
330
116A
100
AcDbEntity
  8
0
100
AcDbBlockBegin
  2
*D29
 70
     1
 10
0.0
 20
0.0
 30
0.0
  3
*D29
  1

  0
LINE
  5
12A6
330
116A
100
AcDbEntity
  8
SUNPOU
 62
     0
440
 16777216
370
    -2
100
AcDbLine
 10
1574.934439758556
 20
3022.517413811982
 30
0.0
 11
1574.934439758556
 21
3215.06037493431
 31
0.0
  0
LINE
  5
12A7
330
116A
100
AcDbEntity
  8
SUNPOU
 62
     0
440
 16777216
370
    -2
100
AcDbLine
 10
1974.934439758556
 20
3022.517413811982
 30
0.0
 11
1974.934439758556
 21
3215.06037493431
 31
0.0
  0
LINE
  5
12A8
330
116A
100
AcDbEntity
  8
SUNPOU
 62
     0
440
 16777216
370
    -2
100
AcDbLine
 10
1604.934439758556
 20
3207.56037493431
 30
0.0
 11
1944.934439758556
 21
3207.56037493431
 31
0.0
  0
SOLID
  5
12A9
330
116A
100
AcDbEntity
  8
SUNPOU
 62
     0
440
 16777216
100
AcDbTrace
 10
1604.934439758556
 20
3212.56037493431
 30
0.0
 11
1604.934439758556
 21
3202.56037493431
 31
0.0
 12
1574.934439758556
 22
3207.56037493431
 32
0.0
 13
1574.934439758556
 23
3207.56037493431
 33
0.0
  0
SOLID
  5
12AA
330
116A
100
AcDbEntity
  8
SUNPOU
 62
     0
440
 16777216
100
AcDbTrace
 10
1944.934439758556
 20
3212.56037493431
 30
0.0
 11
1944.934439758556
 21
3202.56037493431
 31
0.0
 12
1974.934439758556
 22
3207.56037493431
 32
0.0
 13
1974.934439758556
 23
3207.56037493431
 33
0.0
  0
MTEXT
  5
12AB
330
116A
100
AcDbEntity
  8
SUNPOU
 62
     0
440
 16777216
100
AcDbMText
 10
1774.934439758556
 20
3242.06037493431
 30
0.0
 40
45.0
 41
0.0
 71
     5
 72
     1
  1
\A1;400
 73
     1
 44
1.0
  0
POINT
  5
12AC
330
116A
100
AcDbEntity
  8
DEFPOINTS
 62
     0
440
 16777216
100
AcDbPoint
 10
1574.934439758556
 20
2992.517413811982
 30
0.0
  0
POINT
  5
12AD
330
116A
100
AcDbEntity
  8
DEFPOINTS
 62
     0
440
 16777216
100
AcDbPoint
 10
1974.934439758556
 20
2992.517413811982
 30
0.0
  0
POINT
  5
12AE
330
116A
100
AcDbEntity
  8
DEFPOINTS
 62
     0
440
 16777216
100
AcDbPoint
 10
1974.934439758556
 20
3207.56037493431
 30
0.0
  0
ENDBLK
  5
1175
330
116A
100
AcDbEntity
  8
0
100
AcDbBlockEnd
  0
BLOCK
  5
1180
330
1176
100
AcDbEntity
  8
0
100
AcDbBlockBegin
  2
*D30
 70
     1
 10
0.0
 20
0.0
 30
0.0
  3
*D30
  1

  0
LINE
  5
12AF
330
1176
100
AcDbEntity
  8
SUNPOU
 62
     0
440
 16777216
370
    -2
100
AcDbLine
 10
1524.934439758556
 20
3022.517413811982
 30
0.0
 11
1524.934439758556
 21
3305.413696436399
 31
0.0
  0
LINE
  5
12B0
330
1176
100
AcDbEntity
  8
SUNPOU
 62
     0
440
 16777216
370
    -2
100
AcDbLine
 10
2024.934439758556
 20
3022.517413811982
 30
0.0
 11
2024.934439758556
 21
3305.413696436399
 31
0.0
  0
LINE
  5
12B1
330
1176
100
AcDbEntity
  8
SUNPOU
 62
     0
440
 16777216
370
    -2
100
AcDbLine
 10
1554.934439758556
 20
3297.913696436399
 30
0.0
 11
1994.934439758556
 21
3297.913696436399
 31
0.0
  0
SOLID
  5
12B2
330
1176
100
AcDbEntity
  8
SUNPOU
 62
     0
440
 16777216
100
AcDbTrace
 10
1554.934439758556
 20
3302.913696436399
 30
0.0
 11
1554.934439758556
 21
3292.913696436399
 31
0.0
 12
1524.934439758556
 22
3297.913696436399
 32
0.0
 13
1524.934439758556
 23
3297.913696436399
 33
0.0
  0
SOLID
  5
12B3
330
1176
100
AcDbEntity
  8
SUNPOU
 62
     0
440
 16777216
100
AcDbTrace
 10
1994.934439758556
 20
3302.913696436399
 30
0.0
 11
1994.934439758556
 21
3292.913696436399
 31
0.0
 12
2024.934439758556
 22
3297.913696436399
 32
0.0
 13
2024.934439758556
 23
3297.913696436399
 33
0.0
  0
MTEXT
  5
12B4
330
1176
100
AcDbEntity
  8
SUNPOU
 62
     0
440
 16777216
100
AcDbMText
 10
1774.934439758556
 20
3332.413696436399
 30
0.0
 40
45.0
 41
0.0
 71
     5
 72
     1
  1
\A1;500
 73
     1
 44
1.0
  0
POINT
  5
12B5
330
1176
100
AcDbEntity
  8
DEFPOINTS
 62
     0
440
 16777216
100
AcDbPoint
 10
1524.934439758556
 20
2992.517413811982
 30
0.0
  0
POINT
  5
12B6
330
1176
100
AcDbEntity
  8
DEFPOINTS
 62
     0
440
 16777216
100
AcDbPoint
 10
2024.934439758556
 20
2992.517413811982
 30
0.0
  0
POINT
  5
12B7
330
1176
100
AcDbEntity
  8
DEFPOINTS
 62
     0
440
 16777216
100
AcDbPoint
 10
2024.934439758556
 20
3297.913696436399
 30
0.0
  0
ENDBLK
  5
1181
330
1176
100
AcDbEntity
  8
0
100
AcDbBlockEnd
  0
BLOCK
  5
11C6
330
11BB
100
AcDbEntity
  8
0
100
AcDbBlockBegin
  2
*D31
 70
     1
 10
0.0
 20
0.0
 30
0.0
  3
*D31
  1

  0
LINE
  5
12B8
330
11BB
100
AcDbEntity
  8
SUNPOU
 62
     0
440
 16777216
370
    -2
100
AcDbLine
 10
1974.934439758556
 20
3022.517413811982
 30
0.0
 11
1974.934439758556
 21
3215.06037493431
 31
0.0
  0
LINE
  5
12B9
330
11BB
100
AcDbEntity
  8
SUNPOU
 62
     0
440
 16777216
370
    -2
100
AcDbLine
 10
2024.934439758556
 20
3022.517413811982
 30
0.0
 11
2024.934439758556
 21
3215.06037493431
 31
0.0
  0
LINE
  5
12BA
330
11BB
100
AcDbEntity
  8
SUNPOU
 62
     0
440
 16777216
370
    -2
100
AcDbLine
 10
1944.934439758556
 20
3207.56037493431
 30
0.0
 11
1914.934439758556
 21
3207.56037493431
 31
0.0
  0
LINE
  5
12BB
330
11BB
100
AcDbEntity
  8
SUNPOU
 62
     0
440
 16777216
370
    -2
100
AcDbLine
 10
2054.934439758556
 20
3207.56037493431
 30
0.0
 11
2084.934439758556
 21
3207.56037493431
 31
0.0
  0
SOLID
  5
12BC
330
11BB
100
AcDbEntity
  8
SUNPOU
 62
     0
440
 16777216
100
AcDbTrace
 10
1944.934439758556
 20
3212.56037493431
 30
0.0
 11
1944.934439758556
 21
3202.56037493431
 31
0.0
 12
1974.934439758556
 22
3207.56037493431
 32
0.0
 13
1974.934439758556
 23
3207.56037493431
 33
0.0
  0
SOLID
  5
12BD
330
11BB
100
AcDbEntity
  8
SUNPOU
 62
     0
440
 16777216
100
AcDbTrace
 10
2054.934439758556
 20
3212.56037493431
 30
0.0
 11
2054.934439758556
 21
3202.56037493431
 31
0.0
 12
2024.934439758556
 22
3207.56037493431
 32
0.0
 13
2024.934439758556
 23
3207.56037493431
 33
0.0
  0
MTEXT
  5
12BE
330
11BB
100
AcDbEntity
  8
SUNPOU
 62
     0
440
 16777216
100
AcDbMText
 10
1999.934439758556
 20
3242.06037493431
 30
0.0
 40
45.0
 41
0.0
 71
     5
 72
     1
  1
\A1;50
 73
     1
 44
1.0
  0
POINT
  5
12BF
330
11BB
100
AcDbEntity
  8
DEFPOINTS
 62
     0
440
 16777216
100
AcDbPoint
 10
1974.934439758556
 20
2992.517413811982
 30
0.0
  0
POINT
  5
12C0
330
11BB
100
AcDbEntity
  8
DEFPOINTS
 62
     0
440
 16777216
100
AcDbPoint
 10
2024.934439758556
 20
2992.517413811982
 30
0.0
  0
POINT
  5
12C1
330
11BB
100
AcDbEntity
  8
DEFPOINTS
 62
     0
440
 16777216
100
AcDbPoint
 10
2024.934439758556
 20
3207.56037493431
 30
0.0
  0
ENDBLK
  5
11C7
330
11BB
100
AcDbEntity
  8
0
100
AcDbBlockEnd
  0
BLOCK
  5
11D4
330
11C9
100
AcDbEntity
  8
0
100
AcDbBlockBegin
  2
*D32
 70
     1
 10
0.0
 20
0.0
 30
0.0
  3
*D32
  1

  0
LINE
  5
12C2
330
11C9
100
AcDbEntity
  8
SUNPOU
 62
     0
440
 16777216
370
    -2
100
AcDbLine
 10
1494.934439758556
 20
2992.517413811982
 30
0.0
 11
1422.090597521801
 21
2992.517413811982
 31
0.0
  0
LINE
  5
12C3
330
11C9
100
AcDbEntity
  8
SUNPOU
 62
     0
440
 16777216
370
    -2
100
AcDbLine
 10
1494.934439758556
 20
2942.517413811982
 30
0.0
 11
1422.090597521801
 21
2942.517413811982
 31
0.0
  0
LINE
  5
12C4
330
11C9
100
AcDbEntity
  8
SUNPOU
 62
     0
440
 16777216
370
    -2
100
AcDbLine
 10
1429.590597521801
 20
3022.517413811982
 30
0.0
 11
1429.590597521801
 21
3052.517413811982
 31
0.0
  0
LINE
  5
12C5
330
11C9
100
AcDbEntity
  8
SUNPOU
 62
     0
440
 16777216
370
    -2
100
AcDbLine
 10
1429.590597521801
 20
2912.517413811982
 30
0.0
 11
1429.590597521801
 21
2882.517413811982
 31
0.0
  0
SOLID
  5
12C6
330
11C9
100
AcDbEntity
  8
SUNPOU
 62
     0
440
 16777216
100
AcDbTrace
 10
1424.590597521801
 20
3022.517413811982
 30
0.0
 11
1434.590597521801
 21
3022.517413811982
 31
0.0
 12
1429.590597521801
 22
2992.517413811982
 32
0.0
 13
1429.590597521801
 23
2992.517413811982
 33
0.0
  0
SOLID
  5
12C7
330
11C9
100
AcDbEntity
  8
SUNPOU
 62
     0
440
 16777216
100
AcDbTrace
 10
1424.590597521801
 20
2912.517413811982
 30
0.0
 11
1434.590597521801
 21
2912.517413811982
 31
0.0
 12
1429.590597521801
 22
2942.517413811982
 32
0.0
 13
1429.590597521801
 23
2942.517413811982
 33
0.0
  0
MTEXT
  5
12C8
330
11C9
100
AcDbEntity
  8
SUNPOU
 62
     0
440
 16777216
100
AcDbMText
 10
1395.090597521801
 20
2967.517413811982
 30
0.0
 40
45.0
 41
0.0
 71
     5
 72
     1
  1
\A1;50
 11
6.123031769111886E-17
 21
1.0
 31
0.0
 73
     1
 44
1.0
  0
POINT
  5
12C9
330
11C9
100
AcDbEntity
  8
DEFPOINTS
 62
     0
440
 16777216
100
AcDbPoint
 10
1524.934439758556
 20
2992.517413811982
 30
0.0
  0
POINT
  5
12CA
330
11C9
100
AcDbEntity
  8
DEFPOINTS
 62
     0
440
 16777216
100
AcDbPoint
 10
1524.934439758556
 20
2942.517413811982
 30
0.0
  0
POINT
  5
12CB
330
11C9
100
AcDbEntity
  8
DEFPOINTS
 62
     0
440
 16777216
100
AcDbPoint
 10
1429.590597521801
 20
2942.517413811982
 30
0.0
  0
ENDBLK
  5
11D5
330
11C9
100
AcDbEntity
  8
0
100
AcDbBlockEnd
  0
BLOCK
  5
11F4
330
11E9
100
AcDbEntity
  8
0
100
AcDbBlockBegin
  2
*D33
 70
     1
 10
0.0
 20
0.0
 30
0.0
  3
*D33
  1

  0
LINE
  5
12CC
330
11E9
100
AcDbEntity
  8
SUNPOU
 62
     0
440
 16777216
370
    -2
100
AcDbLine
 10
1594.934439758556
 20
2622.517413811982
 30
0.0
 11
1594.934439758556
 21
2820.996525197836
 31
0.0
  0
LINE
  5
12CD
330
11E9
100
AcDbEntity
  8
SUNPOU
 62
     0
440
 16777216
370
    -2
100
AcDbLine
 10
1544.934439758556
 20
2622.517413811982
 30
0.0
 11
1544.934439758556
 21
2820.996525197836
 31
0.0
  0
LINE
  5
12CE
330
11E9
100
AcDbEntity
  8
SUNPOU
 62
     0
440
 16777216
370
    -2
100
AcDbLine
 10
1624.934439758556
 20
2813.496525197836
 30
0.0
 11
1654.934439758556
 21
2813.496525197836
 31
0.0
  0
LINE
  5
12CF
330
11E9
100
AcDbEntity
  8
SUNPOU
 62
     0
440
 16777216
370
    -2
100
AcDbLine
 10
1514.934439758556
 20
2813.496525197836
 30
0.0
 11
1484.934439758556
 21
2813.496525197836
 31
0.0
  0
SOLID
  5
12D0
330
11E9
100
AcDbEntity
  8
SUNPOU
 62
     0
440
 16777216
100
AcDbTrace
 10
1624.934439758556
 20
2818.496525197836
 30
0.0
 11
1624.934439758556
 21
2808.496525197836
 31
0.0
 12
1594.934439758556
 22
2813.496525197836
 32
0.0
 13
1594.934439758556
 23
2813.496525197836
 33
0.0
  0
SOLID
  5
12D1
330
11E9
100
AcDbEntity
  8
SUNPOU
 62
     0
440
 16777216
100
AcDbTrace
 10
1514.934439758556
 20
2818.496525197836
 30
0.0
 11
1514.934439758556
 21
2808.496525197836
 31
0.0
 12
1544.934439758556
 22
2813.496525197836
 32
0.0
 13
1544.934439758556
 23
2813.496525197836
 33
0.0
  0
MTEXT
  5
12D2
330
11E9
100
AcDbEntity
  8
SUNPOU
 62
     0
440
 16777216
100
AcDbMText
 10
1569.934439758556
 20
2847.996525197836
 30
0.0
 40
45.0
 41
0.0
 71
     5
 72
     1
  1
\A1;50
 73
     1
 44
1.0
  0
POINT
  5
12D3
330
11E9
100
AcDbEntity
  8
DEFPOINTS
 62
     0
440
 16777216
100
AcDbPoint
 10
1594.934439758556
 20
2592.517413811982
 30
0.0
  0
POINT
  5
12D4
330
11E9
100
AcDbEntity
  8
DEFPOINTS
 62
     0
440
 16777216
100
AcDbPoint
 10
1544.934439758556
 20
2592.517413811982
 30
0.0
  0
POINT
  5
12D5
330
11E9
100
AcDbEntity
  8
DEFPOINTS
 62
     0
440
 16777216
100
AcDbPoint
 10
1544.934439758556
 20
2813.496525197836
 30
0.0
  0
ENDBLK
  5
11F5
330
11E9
100
AcDbEntity
  8
0
100
AcDbBlockEnd
  0
BLOCK
  5
1201
330
11F6
100
AcDbEntity
  8
0
100
AcDbBlockBegin
  2
*D34
 70
     1
 10
0.0
 20
0.0
 30
0.0
  3
*D34
  1

  0
LINE
  5
12D6
330
11F6
100
AcDbEntity
  8
SUNPOU
 62
     0
440
 16777216
370
    -2
100
AcDbLine
 10
1539.934439758556
 20
2542.517413811982
 30
0.0
 11
1289.455037441032
 21
2542.517413811982
 31
0.0
  0
LINE
  5
12D7
330
11F6
100
AcDbEntity
  8
SUNPOU
 62
     0
440
 16777216
370
    -2
100
AcDbLine
 10
1514.934439758556
 20
2592.517413811982
 30
0.0
 11
1289.455037441032
 21
2592.517413811982
 31
0.0
  0
LINE
  5
12D8
330
11F6
100
AcDbEntity
  8
SUNPOU
 62
     0
440
 16777216
370
    -2
100
AcDbLine
 10
1296.955037441032
 20
2512.517413811982
 30
0.0
 11
1296.955037441032
 21
2482.517413811982
 31
0.0
  0
LINE
  5
12D9
330
11F6
100
AcDbEntity
  8
SUNPOU
 62
     0
440
 16777216
370
    -2
100
AcDbLine
 10
1296.955037441032
 20
2622.517413811982
 30
0.0
 11
1296.955037441032
 21
2652.517413811982
 31
0.0
  0
SOLID
  5
12DA
330
11F6
100
AcDbEntity
  8
SUNPOU
 62
     0
440
 16777216
100
AcDbTrace
 10
1291.955037441032
 20
2512.517413811982
 30
0.0
 11
1301.955037441032
 21
2512.517413811982
 31
0.0
 12
1296.955037441032
 22
2542.517413811982
 32
0.0
 13
1296.955037441032
 23
2542.517413811982
 33
0.0
  0
SOLID
  5
12DB
330
11F6
100
AcDbEntity
  8
SUNPOU
 62
     0
440
 16777216
100
AcDbTrace
 10
1291.955037441032
 20
2622.517413811982
 30
0.0
 11
1301.955037441032
 21
2622.517413811982
 31
0.0
 12
1296.955037441032
 22
2592.517413811982
 32
0.0
 13
1296.955037441032
 23
2592.517413811982
 33
0.0
  0
MTEXT
  5
12DC
330
11F6
100
AcDbEntity
  8
SUNPOU
 62
     0
440
 16777216
100
AcDbMText
 10
1262.455037441031
 20
2567.517413811982
 30
0.0
 40
45.0
 41
0.0
 71
     5
 72
     1
  1
\A1;50
 11
6.123031769111886E-17
 21
1.0
 31
0.0
 73
     1
 44
1.0
  0
POINT
  5
12DD
330
11F6
100
AcDbEntity
  8
DEFPOINTS
 62
     0
440
 16777216
100
AcDbPoint
 10
1569.934439758556
 20
2542.517413811982
 30
0.0
  0
POINT
  5
12DE
330
11F6
100
AcDbEntity
  8
DEFPOINTS
 62
     0
440
 16777216
100
AcDbPoint
 10
1544.934439758556
 20
2592.517413811982
 30
0.0
  0
POINT
  5
12DF
330
11F6
100
AcDbEntity
  8
DEFPOINTS
 62
     0
440
 16777216
100
AcDbPoint
 10
1296.955037441032
 20
2592.517413811982
 30
0.0
  0
ENDBLK
  5
1202
330
11F6
100
AcDbEntity
  8
0
100
AcDbBlockEnd
  0
BLOCK
  5
120D
330
1203
100
AcDbEntity
  8
0
100
AcDbBlockBegin
  2
*D35
 70
     1
 10
0.0
 20
0.0
 30
0.0
  3
*D35
  1

  0
LINE
  5
12E0
330
1203
100
AcDbEntity
  8
SUNPOU
 62
     0
440
 16777216
370
    -2
100
AcDbLine
 10
1514.934439758556
 20
2592.517413811982
 30
0.0
 11
1397.058716044352
 21
2592.517413811982
 31
0.0
  0
LINE
  5
12E1
330
1203
100
AcDbEntity
  8
SUNPOU
 62
     0
440
 16777216
370
    -2
100
AcDbLine
 10
1494.097866283097
 20
2742.517413811982
 30
0.0
 11
1397.058716044352
 21
2742.517413811982
 31
0.0
  0
LINE
  5
12E2
330
1203
100
AcDbEntity
  8
SUNPOU
 62
     0
440
 16777216
370
    -2
100
AcDbLine
 10
1404.558716044352
 20
2622.517413811982
 30
0.0
 11
1404.558716044352
 21
2712.517413811982
 31
0.0
  0
SOLID
  5
12E3
330
1203
100
AcDbEntity
  8
SUNPOU
 62
     0
440
 16777216
100
AcDbTrace
 10
1399.558716044352
 20
2622.517413811982
 30
0.0
 11
1409.558716044352
 21
2622.517413811982
 31
0.0
 12
1404.558716044352
 22
2592.517413811982
 32
0.0
 13
1404.558716044352
 23
2592.517413811982
 33
0.0
  0
SOLID
  5
12E4
330
1203
100
AcDbEntity
  8
SUNPOU
 62
     0
440
 16777216
100
AcDbTrace
 10
1399.558716044352
 20
2712.517413811982
 30
0.0
 11
1409.558716044352
 21
2712.517413811982
 31
0.0
 12
1404.558716044352
 22
2742.517413811982
 32
0.0
 13
1404.558716044352
 23
2742.517413811982
 33
0.0
  0
MTEXT
  5
12E5
330
1203
100
AcDbEntity
  8
SUNPOU
 62
     0
440
 16777216
100
AcDbMText
 10
1370.058716044352
 20
2667.517413811982
 30
0.0
 40
45.0
 41
0.0
 71
     5
 72
     1
  1
\A1;150
 11
6.123031769111886E-17
 21
1.0
 31
0.0
 73
     1
 44
1.0
  0
POINT
  5
12E6
330
1203
100
AcDbEntity
  8
DEFPOINTS
 62
     0
440
 16777216
100
AcDbPoint
 10
1544.934439758556
 20
2592.517413811982
 30
0.0
  0
POINT
  5
12E7
330
1203
100
AcDbEntity
  8
DEFPOINTS
 62
     0
440
 16777216
100
AcDbPoint
 10
1524.097866283097
 20
2742.517413811982
 30
0.0
  0
POINT
  5
12E8
330
1203
100
AcDbEntity
  8
DEFPOINTS
 62
     0
440
 16777216
100
AcDbPoint
 10
1404.558716044352
 20
2742.517413811982
 30
0.0
  0
ENDBLK
  5
120E
330
1203
100
AcDbEntity
  8
0
100
AcDbBlockEnd
  0
BLOCK
  5
1219
330
120F
100
AcDbEntity
  8
0
100
AcDbBlockBegin
  2
*D36
 70
     1
 10
0.0
 20
0.0
 30
0.0
  3
*D36
  1

  0
LINE
  5
12E9
330
120F
100
AcDbEntity
  8
SUNPOU
 62
     0
440
 16777216
370
    -2
100
AcDbLine
 10
1514.934439758556
 20
2592.517413811982
 30
0.0
 11
1289.455037441032
 21
2592.517413811982
 31
0.0
  0
LINE
  5
12EA
330
120F
100
AcDbEntity
  8
SUNPOU
 62
     0
440
 16777216
370
    -2
100
AcDbLine
 10
1494.934439758556
 20
2992.517413811982
 30
0.0
 11
1289.455037441032
 21
2992.517413811982
 31
0.0
  0
LINE
  5
12EB
330
120F
100
AcDbEntity
  8
SUNPOU
 62
     0
440
 16777216
370
    -2
100
AcDbLine
 10
1296.955037441032
 20
2622.517413811982
 30
0.0
 11
1296.955037441032
 21
2962.517413811982
 31
0.0
  0
SOLID
  5
12EC
330
120F
100
AcDbEntity
  8
SUNPOU
 62
     0
440
 16777216
100
AcDbTrace
 10
1291.955037441032
 20
2622.517413811982
 30
0.0
 11
1301.955037441032
 21
2622.517413811982
 31
0.0
 12
1296.955037441032
 22
2592.517413811982
 32
0.0
 13
1296.955037441032
 23
2592.517413811982
 33
0.0
  0
SOLID
  5
12ED
330
120F
100
AcDbEntity
  8
SUNPOU
 62
     0
440
 16777216
100
AcDbTrace
 10
1291.955037441032
 20
2962.517413811982
 30
0.0
 11
1301.955037441032
 21
2962.517413811982
 31
0.0
 12
1296.955037441032
 22
2992.517413811982
 32
0.0
 13
1296.955037441032
 23
2992.517413811982
 33
0.0
  0
MTEXT
  5
12EE
330
120F
100
AcDbEntity
  8
SUNPOU
 62
     0
440
 16777216
100
AcDbMText
 10
1262.455037441032
 20
2792.517413811982
 30
0.0
 40
45.0
 41
0.0
 71
     5
 72
     1
  1
\A1;400
 11
6.123031769111886E-17
 21
1.0
 31
0.0
 73
     1
 44
1.0
  0
POINT
  5
12EF
330
120F
100
AcDbEntity
  8
DEFPOINTS
 62
     0
440
 16777216
100
AcDbPoint
 10
1544.934439758556
 20
2592.517413811982
 30
0.0
  0
POINT
  5
12F0
330
120F
100
AcDbEntity
  8
DEFPOINTS
 62
     0
440
 16777216
100
AcDbPoint
 10
1524.934439758556
 20
2992.517413811982
 30
0.0
  0
POINT
  5
12F1
330
120F
100
AcDbEntity
  8
DEFPOINTS
 62
     0
440
 16777216
100
AcDbPoint
 10
1296.955037441032
 20
2992.517413811982
 30
0.0
  0
ENDBLK
  5
121A
330
120F
100
AcDbEntity
  8
0
100
AcDbBlockEnd
  0
BLOCK
  5
1225
330
121B
100
AcDbEntity
  8
0
100
AcDbBlockBegin
  2
*D37
 70
     1
 10
0.0
 20
0.0
 30
0.0
  3
*D37
  1

  0
LINE
  5
12F2
330
121B
100
AcDbEntity
  8
SUNPOU
 62
     0
440
 16777216
370
    -2
100
AcDbLine
 10
1494.934439758556
 20
2992.517413811982
 30
0.0
 11
1205.35360017755
 21
2992.517413811982
 31
0.0
  0
LINE
  5
12F3
330
121B
100
AcDbEntity
  8
SUNPOU
 62
     0
440
 16777216
370
    -2
100
AcDbLine
 10
1539.934439758555
 20
2542.517413811982
 30
0.0
 11
1205.35360017755
 21
2542.517413811982
 31
0.0
  0
LINE
  5
12F4
330
121B
100
AcDbEntity
  8
SUNPOU
 62
     0
440
 16777216
370
    -2
100
AcDbLine
 10
1212.85360017755
 20
2962.517413811982
 30
0.0
 11
1212.85360017755
 21
2572.517413811982
 31
0.0
  0
SOLID
  5
12F5
330
121B
100
AcDbEntity
  8
SUNPOU
 62
     0
440
 16777216
100
AcDbTrace
 10
1207.85360017755
 20
2962.517413811982
 30
0.0
 11
1217.85360017755
 21
2962.517413811982
 31
0.0
 12
1212.85360017755
 22
2992.517413811982
 32
0.0
 13
1212.85360017755
 23
2992.517413811982
 33
0.0
  0
SOLID
  5
12F6
330
121B
100
AcDbEntity
  8
SUNPOU
 62
     0
440
 16777216
100
AcDbTrace
 10
1207.85360017755
 20
2572.517413811982
 30
0.0
 11
1217.85360017755
 21
2572.517413811982
 31
0.0
 12
1212.85360017755
 22
2542.517413811982
 32
0.0
 13
1212.85360017755
 23
2542.517413811982
 33
0.0
  0
MTEXT
  5
12F7
330
121B
100
AcDbEntity
  8
SUNPOU
 62
     0
440
 16777216
100
AcDbMText
 10
1178.35360017755
 20
2767.517413811982
 30
0.0
 40
45.0
 41
0.0
 71
     5
 72
     1
  1
\A1;450
 11
6.123031769111886E-17
 21
1.0
 31
0.0
 73
     1
 44
1.0
  0
POINT
  5
12F8
330
121B
100
AcDbEntity
  8
DEFPOINTS
 62
     0
440
 16777216
100
AcDbPoint
 10
1524.934439758556
 20
2992.517413811982
 30
0.0
  0
POINT
  5
12F9
330
121B
100
AcDbEntity
  8
DEFPOINTS
 62
     0
440
 16777216
100
AcDbPoint
 10
1569.934439758555
 20
2542.517413811982
 30
0.0
  0
POINT
  5
12FA
330
121B
100
AcDbEntity
  8
DEFPOINTS
 62
     0
440
 16777216
100
AcDbPoint
 10
1212.85360017755
 20
2542.517413811982
 30
0.0
  0
ENDBLK
  5
1226
330
121B
100
AcDbEntity
  8
0
100
AcDbBlockEnd
  0
BLOCK
  5
122D
330
1227
100
AcDbEntity
  8
0
100
AcDbBlockBegin
  2
*D38
 70
     1
 10
0.0
 20
0.0
 30
0.0
  3
*D38
  1

  0
LINE
  5
12FB
330
1227
100
AcDbEntity
  8
SUNPOU
 62
     0
440
 16777216
370
    -2
100
AcDbLine
 10
1368.243407520687
 20
2412.686591154703
 30
0.0
 11
1581.180861241763
 21
2591.133142875624
 31
0.0
  0
MTEXT
  5
12FC
330
1227
100
AcDbEntity
  8
SUNPOU
 62
     0
440
 16777216
100
AcDbMText
 10
1389.771618825301
 20
2475.740426232547
 30
0.0
 40
45.0
 41
0.0
 71
     5
 72
     1
  1
\A1;R50
 11
0.7664504937880571
 21
0.6423033867044791
 31
0.0
 73
     1
 44
1.0
  0
SOLID
  5
12FD
330
1227
100
AcDbEntity
  8
SUNPOU
 62
     0
440
 16777216
100
AcDbTrace
 10
1577.969344308241
 20
2594.965395344564
 30
0.0
 11
1584.392378175285
 21
2587.300890406683
 31
0.0
 12
1604.174376055405
 22
2610.402244476758
 32
0.0
 13
1604.174376055405
 23
2610.402244476758
 33
0.0
  0
POINT
  5
12FE
330
1227
100
AcDbEntity
  8
DEFPOINTS
 62
     0
440
 16777216
100
AcDbPoint
 10
1604.174376055405
 20
2610.402244476758
 30
0.0
  0
POINT
  5
12FF
330
1227
100
AcDbEntity
  8
DEFPOINTS
 62
     0
440
 16777216
100
AcDbPoint
 10
1642.496900744807
 20
2642.517413811982
 30
0.0
  0
ENDBLK
  5
122E
330
1227
100
AcDbEntity
  8
0
100
AcDbBlockEnd
  0
BLOCK
  5
126E
330
1264
100
AcDbEntity
  8
0
100
AcDbBlockBegin
  2
*D39
 70
     1
 10
0.0
 20
0.0
 30
0.0
  3
*D39
  1

  0
LINE
  5
1300
330
1264
100
AcDbEntity
  8
SUNPOU
 62
     0
440
 16777216
370
    -2
100
AcDbLine
 10
1594.934439758556
 20
2622.517413811982
 30
0.0
 11
1594.934439758556
 21
2820.996525197836
 31
0.0
  0
LINE
  5
1301
330
1264
100
AcDbEntity
  8
SUNPOU
 62
     0
440
 16777216
370
    -2
100
AcDbLine
 10
1954.934439758556
 20
2622.517413811982
 30
0.0
 11
1954.934439758556
 21
2820.996525197836
 31
0.0
  0
LINE
  5
1302
330
1264
100
AcDbEntity
  8
SUNPOU
 62
     0
440
 16777216
370
    -2
100
AcDbLine
 10
1624.934439758556
 20
2813.496525197836
 30
0.0
 11
1924.934439758556
 21
2813.496525197836
 31
0.0
  0
SOLID
  5
1303
330
1264
100
AcDbEntity
  8
SUNPOU
 62
     0
440
 16777216
100
AcDbTrace
 10
1624.934439758556
 20
2818.496525197836
 30
0.0
 11
1624.934439758556
 21
2808.496525197836
 31
0.0
 12
1594.934439758556
 22
2813.496525197836
 32
0.0
 13
1594.934439758556
 23
2813.496525197836
 33
0.0
  0
SOLID
  5
1304
330
1264
100
AcDbEntity
  8
SUNPOU
 62
     0
440
 16777216
100
AcDbTrace
 10
1924.934439758556
 20
2818.496525197836
 30
0.0
 11
1924.934439758556
 21
2808.496525197836
 31
0.0
 12
1954.934439758556
 22
2813.496525197836
 32
0.0
 13
1954.934439758556
 23
2813.496525197836
 33
0.0
  0
MTEXT
  5
1305
330
1264
100
AcDbEntity
  8
SUNPOU
 62
     0
440
 16777216
100
AcDbMText
 10
1774.934439758556
 20
2847.996525197836
 30
0.0
 40
45.0
 41
0.0
 71
     5
 72
     1
  1
\A1;360
 73
     1
 44
1.0
  0
POINT
  5
1306
330
1264
100
AcDbEntity
  8
DEFPOINTS
 62
     0
440
 16777216
100
AcDbPoint
 10
1594.934439758556
 20
2592.517413811982
 30
0.0
  0
POINT
  5
1307
330
1264
100
AcDbEntity
  8
DEFPOINTS
 62
     0
440
 16777216
100
AcDbPoint
 10
1954.934439758556
 20
2592.517413811982
 30
0.0
  0
POINT
  5
1308
330
1264
100
AcDbEntity
  8
DEFPOINTS
 62
     0
440
 16777216
100
AcDbPoint
 10
1954.934439758556
 20
2813.496525197836
 30
0.0
  0
ENDBLK
  5
126F
330
1264
100
AcDbEntity
  8
0
100
AcDbBlockEnd
  0
BLOCK
  5
127C
330
1271
100
AcDbEntity
  8
0
100
AcDbBlockBegin
  2
*D40
 70
     1
 10
0.0
 20
0.0
 30
0.0
  3
*D40
  1

  0
LINE
  5
1309
330
1271
100
AcDbEntity
  8
SUNPOU
 62
     0
440
 16777216
370
    -2
100
AcDbLine
 10
1954.934439758556
 20
2622.517413811982
 30
0.0
 11
1954.934439758556
 21
2820.996525197836
 31
0.0
  0
LINE
  5
130A
330
1271
100
AcDbEntity
  8
SUNPOU
 62
     0
440
 16777216
370
    -2
100
AcDbLine
 10
2004.934439758556
 20
2622.517413811982
 30
0.0
 11
2004.934439758556
 21
2820.996525197836
 31
0.0
  0
LINE
  5
130B
330
1271
100
AcDbEntity
  8
SUNPOU
 62
     0
440
 16777216
370
    -2
100
AcDbLine
 10
1924.934439758556
 20
2813.496525197836
 30
0.0
 11
1894.934439758556
 21
2813.496525197836
 31
0.0
  0
LINE
  5
130C
330
1271
100
AcDbEntity
  8
SUNPOU
 62
     0
440
 16777216
370
    -2
100
AcDbLine
 10
2034.934439758556
 20
2813.496525197836
 30
0.0
 11
2064.934439758556
 21
2813.496525197836
 31
0.0
  0
SOLID
  5
130D
330
1271
100
AcDbEntity
  8
SUNPOU
 62
     0
440
 16777216
100
AcDbTrace
 10
1924.934439758556
 20
2818.496525197836
 30
0.0
 11
1924.934439758556
 21
2808.496525197836
 31
0.0
 12
1954.934439758556
 22
2813.496525197836
 32
0.0
 13
1954.934439758556
 23
2813.496525197836
 33
0.0
  0
SOLID
  5
130E
330
1271
100
AcDbEntity
  8
SUNPOU
 62
     0
440
 16777216
100
AcDbTrace
 10
2034.934439758556
 20
2818.496525197836
 30
0.0
 11
2034.934439758556
 21
2808.496525197836
 31
0.0
 12
2004.934439758556
 22
2813.496525197836
 32
0.0
 13
2004.934439758556
 23
2813.496525197836
 33
0.0
  0
MTEXT
  5
130F
330
1271
100
AcDbEntity
  8
SUNPOU
 62
     0
440
 16777216
100
AcDbMText
 10
1979.934439758556
 20
2847.996525197836
 30
0.0
 40
45.0
 41
0.0
 71
     5
 72
     1
  1
\A1;50
 73
     1
 44
1.0
  0
POINT
  5
1310
330
1271
100
AcDbEntity
  8
DEFPOINTS
 62
     0
440
 16777216
100
AcDbPoint
 10
1954.934439758556
 20
2592.517413811982
 30
0.0
  0
POINT
  5
1311
330
1271
100
AcDbEntity
  8
DEFPOINTS
 62
     0
440
 16777216
100
AcDbPoint
 10
2004.934439758556
 20
2592.517413811982
 30
0.0
  0
POINT
  5
1312
330
1271
100
AcDbEntity
  8
DEFPOINTS
 62
     0
440
 16777216
100
AcDbPoint
 10
2004.934439758556
 20
2813.496525197836
 30
0.0
  0
ENDBLK
  5
127D
330
1271
100
AcDbEntity
  8
0
100
AcDbBlockEnd
  0
BLOCK
  5
1289
330
127F
100
AcDbEntity
  8
0
100
AcDbBlockBegin
  2
*D41
 70
     1
 10
0.0
 20
0.0
 30
0.0
  3
*D41
  1

  0
LINE
  5
1313
330
127F
100
AcDbEntity
  8
SUNPOU
 62
     0
440
 16777216
370
    -2
100
AcDbLine
 10
1569.934439758556
 20
2512.517413811982
 30
0.0
 11
1569.934439758556
 21
2333.752595455495
 31
0.0
  0
LINE
  5
1314
330
127F
100
AcDbEntity
  8
SUNPOU
 62
     0
440
 16777216
370
    -2
100
AcDbLine
 10
1979.934439758556
 20
2512.517413811982
 30
0.0
 11
1979.934439758556
 21
2333.752595455495
 31
0.0
  0
LINE
  5
1315
330
127F
100
AcDbEntity
  8
SUNPOU
 62
     0
440
 16777216
370
    -2
100
AcDbLine
 10
1599.934439758556
 20
2341.252595455495
 30
0.0
 11
1949.934439758556
 21
2341.252595455495
 31
0.0
  0
SOLID
  5
1316
330
127F
100
AcDbEntity
  8
SUNPOU
 62
     0
440
 16777216
100
AcDbTrace
 10
1599.934439758556
 20
2346.252595455495
 30
0.0
 11
1599.934439758556
 21
2336.252595455495
 31
0.0
 12
1569.934439758556
 22
2341.252595455495
 32
0.0
 13
1569.934439758556
 23
2341.252595455495
 33
0.0
  0
SOLID
  5
1317
330
127F
100
AcDbEntity
  8
SUNPOU
 62
     0
440
 16777216
100
AcDbTrace
 10
1949.934439758556
 20
2346.252595455495
 30
0.0
 11
1949.934439758556
 21
2336.252595455495
 31
0.0
 12
1979.934439758556
 22
2341.252595455495
 32
0.0
 13
1979.934439758556
 23
2341.252595455495
 33
0.0
  0
MTEXT
  5
1318
330
127F
100
AcDbEntity
  8
SUNPOU
 62
     0
440
 16777216
100
AcDbMText
 10
1774.934439758556
 20
2375.752595455495
 30
0.0
 40
45.0
 41
0.0
 71
     5
 72
     1
  1
\A1;410
 73
     1
 44
1.0
  0
POINT
  5
1319
330
127F
100
AcDbEntity
  8
DEFPOINTS
 62
     0
440
 16777216
100
AcDbPoint
 10
1569.934439758556
 20
2542.517413811982
 30
0.0
  0
POINT
  5
131A
330
127F
100
AcDbEntity
  8
DEFPOINTS
 62
     0
440
 16777216
100
AcDbPoint
 10
1979.934439758556
 20
2542.517413811982
 30
0.0
  0
POINT
  5
131B
330
127F
100
AcDbEntity
  8
DEFPOINTS
 62
     0
440
 16777216
100
AcDbPoint
 10
1979.934439758556
 20
2341.252595455495
 30
0.0
  0
ENDBLK
  5
128A
330
127F
100
AcDbEntity
  8
0
100
AcDbBlockEnd
  0
BLOCK
  5
153E
330
153D
100
AcDbEntity
  8
0
100
AcDbBlockBegin
  2
*D66
 70
     1
 10
0.0
 20
0.0
 30
0.0
  3
*D66
  1

  0
LINE
  5
1728
330
153D
100
AcDbEntity
  8
SUNPOU
 62
     0
440
 16777216
370
    -2
100
AcDbLine
 10
242.2160815299849
 20
3028.710483018453
 30
0.0
 11
242.2160815299849
 21
3221.253444140781
 31
0.0
  0
LINE
  5
1729
330
153D
100
AcDbEntity
  8
SUNPOU
 62
     0
440
 16777216
370
    -2
100
AcDbLine
 10
207.2160815299849
 20
3028.710483018453
 30
0.0
 11
207.2160815299849
 21
3221.253444140781
 31
0.0
  0
LINE
  5
172A
330
153D
100
AcDbEntity
  8
SUNPOU
 62
     0
440
 16777216
370
    -2
100
AcDbLine
 10
272.2160815299849
 20
3213.753444140781
 30
0.0
 11
302.2160815299849
 21
3213.753444140781
 31
0.0
  0
LINE
  5
172B
330
153D
100
AcDbEntity
  8
SUNPOU
 62
     0
440
 16777216
370
    -2
100
AcDbLine
 10
177.2160815299849
 20
3213.753444140781
 30
0.0
 11
147.2160815299849
 21
3213.753444140781
 31
0.0
  0
SOLID
  5
172C
330
153D
100
AcDbEntity
  8
SUNPOU
 62
     0
440
 16777216
100
AcDbTrace
 10
272.2160815299849
 20
3218.753444140781
 30
0.0
 11
272.2160815299849
 21
3208.753444140781
 31
0.0
 12
242.2160815299849
 22
3213.753444140781
 32
0.0
 13
242.2160815299849
 23
3213.753444140781
 33
0.0
  0
SOLID
  5
172D
330
153D
100
AcDbEntity
  8
SUNPOU
 62
     0
440
 16777216
100
AcDbTrace
 10
177.2160815299849
 20
3218.753444140781
 30
0.0
 11
177.2160815299849
 21
3208.753444140781
 31
0.0
 12
207.2160815299849
 22
3213.753444140781
 32
0.0
 13
207.2160815299849
 23
3213.753444140781
 33
0.0
  0
MTEXT
  5
172E
330
153D
100
AcDbEntity
  8
SUNPOU
 62
     0
440
 16777216
100
AcDbMText
 10
224.7160815299849
 20
3248.253444140781
 30
0.0
 40
45.0
 41
0.0
 71
     5
 72
     1
  1
\A1;35
 73
     1
 44
1.0
  0
POINT
  5
172F
330
153D
100
AcDbEntity
  8
DEFPOINTS
 62
     0
440
 16777216
100
AcDbPoint
 10
242.2160815299849
 20
2998.710483018453
 30
0.0
  0
POINT
  5
1730
330
153D
100
AcDbEntity
  8
DEFPOINTS
 62
     0
440
 16777216
100
AcDbPoint
 10
207.2160815299849
 20
2998.710483018453
 30
0.0
  0
POINT
  5
1731
330
153D
100
AcDbEntity
  8
DEFPOINTS
 62
     0
440
 16777216
100
AcDbPoint
 10
207.2160815299849
 20
3213.753444140781
 30
0.0
  0
ENDBLK
  5
153F
330
153D
100
AcDbEntity
  8
0
100
AcDbBlockEnd
  0
BLOCK
  5
154B
330
154A
100
AcDbEntity
  8
0
100
AcDbBlockBegin
  2
*D67
 70
     1
 10
0.0
 20
0.0
 30
0.0
  3
*D67
  1

  0
LINE
  5
1732
330
154A
100
AcDbEntity
  8
SUNPOU
 62
     0
440
 16777216
370
    -2
100
AcDbLine
 10
207.2160815299849
 20
3028.710483018453
 30
0.0
 11
207.2160815299849
 21
3221.253444140781
 31
0.0
  0
LINE
  5
1733
330
154A
100
AcDbEntity
  8
SUNPOU
 62
     0
440
 16777216
370
    -2
100
AcDbLine
 10
192.2160815299849
 20
3028.710483018453
 30
0.0
 11
192.2160815299849
 21
3221.253444140781
 31
0.0
  0
LINE
  5
1734
330
154A
100
AcDbEntity
  8
SUNPOU
 62
     0
440
 16777216
370
    -2
100
AcDbLine
 10
237.2160815299849
 20
3213.753444140781
 30
0.0
 11
267.2160815299849
 21
3213.753444140781
 31
0.0
  0
LINE
  5
1735
330
154A
100
AcDbEntity
  8
SUNPOU
 62
     0
440
 16777216
370
    -2
100
AcDbLine
 10
162.2160815299849
 20
3213.753444140781
 30
0.0
 11
132.2160815299849
 21
3213.753444140781
 31
0.0
  0
MTEXT
  5
1736
330
154A
100
AcDbEntity
  8
SUNPOU
 62
     0
440
 16777216
100
AcDbMText
 10
154.5987974447107
 20
3248.253444140781
 30
0.0
 40
45.0
 41
0.0
 71
     5
 72
     1
  1
\A1;15
 73
     1
 44
1.0
  0
SOLID
  5
1737
330
154A
100
AcDbEntity
  8
SUNPOU
 62
     0
440
 16777216
100
AcDbTrace
 10
237.2160815299849
 20
3218.753444140781
 30
0.0
 11
237.2160815299849
 21
3208.753444140781
 31
0.0
 12
207.2160815299849
 22
3213.753444140781
 32
0.0
 13
207.2160815299849
 23
3213.753444140781
 33
0.0
  0
SOLID
  5
1738
330
154A
100
AcDbEntity
  8
SUNPOU
 62
     0
440
 16777216
100
AcDbTrace
 10
162.2160815299849
 20
3218.753444140781
 30
0.0
 11
162.2160815299849
 21
3208.753444140781
 31
0.0
 12
192.2160815299849
 22
3213.753444140781
 32
0.0
 13
192.2160815299849
 23
3213.753444140781
 33
0.0
  0
POINT
  5
1739
330
154A
100
AcDbEntity
  8
DEFPOINTS
 62
     0
440
 16777216
100
AcDbPoint
 10
207.2160815299849
 20
2998.710483018453
 30
0.0
  0
POINT
  5
173A
330
154A
100
AcDbEntity
  8
DEFPOINTS
 62
     0
440
 16777216
100
AcDbPoint
 10
192.2160815299849
 20
2998.710483018453
 30
0.0
  0
POINT
  5
173B
330
154A
100
AcDbEntity
  8
DEFPOINTS
 62
     0
440
 16777216
100
AcDbPoint
 10
192.2160815299849
 20
3213.753444140781
 30
0.0
  0
ENDBLK
  5
154C
330
154A
100
AcDbEntity
  8
0
100
AcDbBlockEnd
  0
BLOCK
  5
1558
330
1557
100
AcDbEntity
  8
0
100
AcDbBlockBegin
  2
*D68
 70
     1
 10
0.0
 20
0.0
 30
0.0
  3
*D68
  1

  0
LINE
  5
173C
330
1557
100
AcDbEntity
  8
SUNPOU
 62
     0
440
 16777216
370
    -2
100
AcDbLine
 10
242.2160815299849
 20
3028.710483018453
 30
0.0
 11
242.2160815299849
 21
3221.253444140781
 31
0.0
  0
LINE
  5
173D
330
1557
100
AcDbEntity
  8
SUNPOU
 62
     0
440
 16777216
370
    -2
100
AcDbLine
 10
542.2160815299849
 20
3028.710483018453
 30
0.0
 11
542.2160815299849
 21
3221.253444140781
 31
0.0
  0
LINE
  5
173E
330
1557
100
AcDbEntity
  8
SUNPOU
 62
     0
440
 16777216
370
    -2
100
AcDbLine
 10
272.2160815299849
 20
3213.753444140781
 30
0.0
 11
512.2160815299849
 21
3213.753444140781
 31
0.0
  0
SOLID
  5
173F
330
1557
100
AcDbEntity
  8
SUNPOU
 62
     0
440
 16777216
100
AcDbTrace
 10
272.2160815299849
 20
3218.753444140781
 30
0.0
 11
272.2160815299849
 21
3208.753444140781
 31
0.0
 12
242.2160815299849
 22
3213.753444140781
 32
0.0
 13
242.2160815299849
 23
3213.753444140781
 33
0.0
  0
SOLID
  5
1740
330
1557
100
AcDbEntity
  8
SUNPOU
 62
     0
440
 16777216
100
AcDbTrace
 10
512.2160815299849
 20
3218.753444140781
 30
0.0
 11
512.2160815299849
 21
3208.753444140781
 31
0.0
 12
542.2160815299849
 22
3213.753444140781
 32
0.0
 13
542.2160815299849
 23
3213.753444140781
 33
0.0
  0
MTEXT
  5
1741
330
1557
100
AcDbEntity
  8
SUNPOU
 62
     0
440
 16777216
100
AcDbMText
 10
392.2160815299849
 20
3248.253444140781
 30
0.0
 40
45.0
 41
0.0
 71
     5
 72
     1
  1
\A1;300
 73
     1
 44
1.0
  0
POINT
  5
1742
330
1557
100
AcDbEntity
  8
DEFPOINTS
 62
     0
440
 16777216
100
AcDbPoint
 10
242.2160815299849
 20
2998.710483018453
 30
0.0
  0
POINT
  5
1743
330
1557
100
AcDbEntity
  8
DEFPOINTS
 62
     0
440
 16777216
100
AcDbPoint
 10
542.2160815299849
 20
2998.710483018453
 30
0.0
  0
POINT
  5
1744
330
1557
100
AcDbEntity
  8
DEFPOINTS
 62
     0
440
 16777216
100
AcDbPoint
 10
542.2160815299849
 20
3213.753444140781
 30
0.0
  0
ENDBLK
  5
1559
330
1557
100
AcDbEntity
  8
0
100
AcDbBlockEnd
  0
BLOCK
  5
1564
330
1563
100
AcDbEntity
  8
0
100
AcDbBlockBegin
  2
*D69
 70
     1
 10
0.0
 20
0.0
 30
0.0
  3
*D69
  1

  0
LINE
  5
1745
330
1563
100
AcDbEntity
  8
SUNPOU
 62
     0
440
 16777216
370
    -2
100
AcDbLine
 10
542.2160815299849
 20
3028.710483018453
 30
0.0
 11
542.2160815299849
 21
3221.253444140781
 31
0.0
  0
LINE
  5
1746
330
1563
100
AcDbEntity
  8
SUNPOU
 62
     0
440
 16777216
370
    -2
100
AcDbLine
 10
592.2160815299849
 20
3028.710483018453
 30
0.0
 11
592.2160815299849
 21
3221.253444140781
 31
0.0
  0
LINE
  5
1747
330
1563
100
AcDbEntity
  8
SUNPOU
 62
     0
440
 16777216
370
    -2
100
AcDbLine
 10
512.2160815299849
 20
3213.753444140781
 30
0.0
 11
482.2160815299849
 21
3213.753444140781
 31
0.0
  0
LINE
  5
1748
330
1563
100
AcDbEntity
  8
SUNPOU
 62
     0
440
 16777216
370
    -2
100
AcDbLine
 10
622.2160815299849
 20
3213.753444140781
 30
0.0
 11
652.2160815299849
 21
3213.753444140781
 31
0.0
  0
SOLID
  5
1749
330
1563
100
AcDbEntity
  8
SUNPOU
 62
     0
440
 16777216
100
AcDbTrace
 10
512.2160815299849
 20
3218.753444140781
 30
0.0
 11
512.2160815299849
 21
3208.753444140781
 31
0.0
 12
542.2160815299849
 22
3213.753444140781
 32
0.0
 13
542.2160815299849
 23
3213.753444140781
 33
0.0
  0
SOLID
  5
174A
330
1563
100
AcDbEntity
  8
SUNPOU
 62
     0
440
 16777216
100
AcDbTrace
 10
622.2160815299849
 20
3218.753444140781
 30
0.0
 11
622.2160815299849
 21
3208.753444140781
 31
0.0
 12
592.2160815299849
 22
3213.753444140781
 32
0.0
 13
592.2160815299849
 23
3213.753444140781
 33
0.0
  0
MTEXT
  5
174B
330
1563
100
AcDbEntity
  8
SUNPOU
 62
     0
440
 16777216
100
AcDbMText
 10
567.2160815299849
 20
3248.253444140781
 30
0.0
 40
45.0
 41
0.0
 71
     5
 72
     1
  1
\A1;50
 73
     1
 44
1.0
  0
POINT
  5
174C
330
1563
100
AcDbEntity
  8
DEFPOINTS
 62
     0
440
 16777216
100
AcDbPoint
 10
542.2160815299849
 20
2998.710483018453
 30
0.0
  0
POINT
  5
174D
330
1563
100
AcDbEntity
  8
DEFPOINTS
 62
     0
440
 16777216
100
AcDbPoint
 10
592.2160815299849
 20
2998.710483018453
 30
0.0
  0
POINT
  5
174E
330
1563
100
AcDbEntity
  8
DEFPOINTS
 62
     0
440
 16777216
100
AcDbPoint
 10
592.2160815299849
 20
3213.753444140781
 30
0.0
  0
ENDBLK
  5
1565
330
1563
100
AcDbEntity
  8
0
100
AcDbBlockEnd
  0
BLOCK
  5
1571
330
1570
100
AcDbEntity
  8
0
100
AcDbBlockBegin
  2
*D70
 70
     1
 10
0.0
 20
0.0
 30
0.0
  3
*D70
  1

  0
LINE
  5
174F
330
1570
100
AcDbEntity
  8
SUNPOU
 62
     0
440
 16777216
370
    -2
100
AcDbLine
 10
192.2160815299849
 20
3028.710483018453
 30
0.0
 11
192.2160815299849
 21
3311.60676564287
 31
0.0
  0
LINE
  5
1750
330
1570
100
AcDbEntity
  8
SUNPOU
 62
     0
440
 16777216
370
    -2
100
AcDbLine
 10
592.2160815299849
 20
3028.710483018453
 30
0.0
 11
592.2160815299849
 21
3311.60676564287
 31
0.0
  0
LINE
  5
1751
330
1570
100
AcDbEntity
  8
SUNPOU
 62
     0
440
 16777216
370
    -2
100
AcDbLine
 10
222.2160815299849
 20
3304.10676564287
 30
0.0
 11
562.2160815299849
 21
3304.10676564287
 31
0.0
  0
SOLID
  5
1752
330
1570
100
AcDbEntity
  8
SUNPOU
 62
     0
440
 16777216
100
AcDbTrace
 10
222.2160815299849
 20
3309.10676564287
 30
0.0
 11
222.2160815299849
 21
3299.10676564287
 31
0.0
 12
192.2160815299849
 22
3304.10676564287
 32
0.0
 13
192.2160815299849
 23
3304.10676564287
 33
0.0
  0
SOLID
  5
1753
330
1570
100
AcDbEntity
  8
SUNPOU
 62
     0
440
 16777216
100
AcDbTrace
 10
562.2160815299849
 20
3309.10676564287
 30
0.0
 11
562.2160815299849
 21
3299.10676564287
 31
0.0
 12
592.2160815299849
 22
3304.10676564287
 32
0.0
 13
592.2160815299849
 23
3304.10676564287
 33
0.0
  0
MTEXT
  5
1754
330
1570
100
AcDbEntity
  8
SUNPOU
 62
     0
440
 16777216
100
AcDbMText
 10
392.2160815299849
 20
3338.60676564287
 30
0.0
 40
45.0
 41
0.0
 71
     5
 72
     1
  1
\A1;400
 73
     1
 44
1.0
  0
POINT
  5
1755
330
1570
100
AcDbEntity
  8
DEFPOINTS
 62
     0
440
 16777216
100
AcDbPoint
 10
192.2160815299849
 20
2998.710483018453
 30
0.0
  0
POINT
  5
1756
330
1570
100
AcDbEntity
  8
DEFPOINTS
 62
     0
440
 16777216
100
AcDbPoint
 10
592.2160815299849
 20
2998.710483018453
 30
0.0
  0
POINT
  5
1757
330
1570
100
AcDbEntity
  8
DEFPOINTS
 62
     0
440
 16777216
100
AcDbPoint
 10
592.2160815299849
 20
3304.10676564287
 30
0.0
  0
ENDBLK
  5
1572
330
1570
100
AcDbEntity
  8
0
100
AcDbBlockEnd
  0
BLOCK
  5
157D
330
157C
100
AcDbEntity
  8
0
100
AcDbBlockBegin
  2
*D71
 70
     1
 10
0.0
 20
0.0
 30
0.0
  3
*D71
  1

  0
LINE
  5
1758
330
157C
100
AcDbEntity
  8
SUNPOU
 62
     0
440
 16777216
370
    -2
100
AcDbLine
 10
262.2160815299849
 20
2628.710483018453
 30
0.0
 11
262.2160815299849
 21
2827.189594404306
 31
0.0
  0
LINE
  5
1759
330
157C
100
AcDbEntity
  8
SUNPOU
 62
     0
440
 16777216
370
    -2
100
AcDbLine
 10
522.2160815299849
 20
2628.710483018453
 30
0.0
 11
522.2160815299849
 21
2827.189594404306
 31
0.0
  0
LINE
  5
175A
330
157C
100
AcDbEntity
  8
SUNPOU
 62
     0
440
 16777216
370
    -2
100
AcDbLine
 10
292.2160815299849
 20
2819.689594404306
 30
0.0
 11
492.2160815299849
 21
2819.689594404306
 31
0.0
  0
SOLID
  5
175B
330
157C
100
AcDbEntity
  8
SUNPOU
 62
     0
440
 16777216
100
AcDbTrace
 10
292.2160815299849
 20
2824.689594404306
 30
0.0
 11
292.2160815299849
 21
2814.689594404306
 31
0.0
 12
262.2160815299849
 22
2819.689594404306
 32
0.0
 13
262.2160815299849
 23
2819.689594404306
 33
0.0
  0
SOLID
  5
175C
330
157C
100
AcDbEntity
  8
SUNPOU
 62
     0
440
 16777216
100
AcDbTrace
 10
492.2160815299849
 20
2824.689594404306
 30
0.0
 11
492.2160815299849
 21
2814.689594404306
 31
0.0
 12
522.2160815299849
 22
2819.689594404306
 32
0.0
 13
522.2160815299849
 23
2819.689594404306
 33
0.0
  0
MTEXT
  5
175D
330
157C
100
AcDbEntity
  8
SUNPOU
 62
     0
440
 16777216
100
AcDbMText
 10
392.2160815299849
 20
2854.189594404306
 30
0.0
 40
45.0
 41
0.0
 71
     5
 72
     1
  1
\A1;260
 73
     1
 44
1.0
  0
POINT
  5
175E
330
157C
100
AcDbEntity
  8
DEFPOINTS
 62
     0
440
 16777216
100
AcDbPoint
 10
262.2160815299849
 20
2598.710483018453
 30
0.0
  0
POINT
  5
175F
330
157C
100
AcDbEntity
  8
DEFPOINTS
 62
     0
440
 16777216
100
AcDbPoint
 10
522.2160815299849
 20
2598.710483018453
 30
0.0
  0
POINT
  5
1760
330
157C
100
AcDbEntity
  8
DEFPOINTS
 62
     0
440
 16777216
100
AcDbPoint
 10
522.2160815299849
 20
2819.689594404306
 30
0.0
  0
ENDBLK
  5
157E
330
157C
100
AcDbEntity
  8
0
100
AcDbBlockEnd
  0
BLOCK
  5
1589
330
1588
100
AcDbEntity
  8
0
100
AcDbBlockBegin
  2
*D72
 70
     1
 10
0.0
 20
0.0
 30
0.0
  3
*D72
  1

  0
LINE
  5
1761
330
1588
100
AcDbEntity
  8
SUNPOU
 62
     0
440
 16777216
370
    -2
100
AcDbLine
 10
262.2160815299849
 20
2628.710483018453
 30
0.0
 11
262.2160815299849
 21
2827.189594404306
 31
0.0
  0
LINE
  5
1762
330
1588
100
AcDbEntity
  8
SUNPOU
 62
     0
440
 16777216
370
    -2
100
AcDbLine
 10
212.2160815299849
 20
2628.710483018453
 30
0.0
 11
212.2160815299849
 21
2827.189594404306
 31
0.0
  0
LINE
  5
1763
330
1588
100
AcDbEntity
  8
SUNPOU
 62
     0
440
 16777216
370
    -2
100
AcDbLine
 10
292.2160815299849
 20
2819.689594404306
 30
0.0
 11
322.2160815299849
 21
2819.689594404306
 31
0.0
  0
LINE
  5
1764
330
1588
100
AcDbEntity
  8
SUNPOU
 62
     0
440
 16777216
370
    -2
100
AcDbLine
 10
182.2160815299849
 20
2819.689594404306
 30
0.0
 11
152.2160815299849
 21
2819.689594404306
 31
0.0
  0
SOLID
  5
1765
330
1588
100
AcDbEntity
  8
SUNPOU
 62
     0
440
 16777216
100
AcDbTrace
 10
292.2160815299849
 20
2824.689594404306
 30
0.0
 11
292.2160815299849
 21
2814.689594404306
 31
0.0
 12
262.2160815299849
 22
2819.689594404306
 32
0.0
 13
262.2160815299849
 23
2819.689594404306
 33
0.0
  0
SOLID
  5
1766
330
1588
100
AcDbEntity
  8
SUNPOU
 62
     0
440
 16777216
100
AcDbTrace
 10
182.2160815299849
 20
2824.689594404306
 30
0.0
 11
182.2160815299849
 21
2814.689594404306
 31
0.0
 12
212.2160815299849
 22
2819.689594404306
 32
0.0
 13
212.2160815299849
 23
2819.689594404306
 33
0.0
  0
MTEXT
  5
1767
330
1588
100
AcDbEntity
  8
SUNPOU
 62
     0
440
 16777216
100
AcDbMText
 10
237.2160815299849
 20
2854.189594404306
 30
0.0
 40
45.0
 41
0.0
 71
     5
 72
     1
  1
\A1;50
 73
     1
 44
1.0
  0
POINT
  5
1768
330
1588
100
AcDbEntity
  8
DEFPOINTS
 62
     0
440
 16777216
100
AcDbPoint
 10
262.2160815299849
 20
2598.710483018453
 30
0.0
  0
POINT
  5
1769
330
1588
100
AcDbEntity
  8
DEFPOINTS
 62
     0
440
 16777216
100
AcDbPoint
 10
212.2160815299849
 20
2598.710483018453
 30
0.0
  0
POINT
  5
176A
330
1588
100
AcDbEntity
  8
DEFPOINTS
 62
     0
440
 16777216
100
AcDbPoint
 10
212.2160815299849
 20
2819.689594404306
 30
0.0
  0
ENDBLK
  5
158A
330
1588
100
AcDbEntity
  8
0
100
AcDbBlockEnd
  0
BLOCK
  5
1596
330
1595
100
AcDbEntity
  8
0
100
AcDbBlockBegin
  2
*D73
 70
     1
 10
0.0
 20
0.0
 30
0.0
  3
*D73
  1

  0
LINE
  5
176B
330
1595
100
AcDbEntity
  8
SUNPOU
 62
     0
440
 16777216
370
    -2
100
AcDbLine
 10
522.2160815299849
 20
2628.710483018453
 30
0.0
 11
522.2160815299849
 21
2827.189594404306
 31
0.0
  0
LINE
  5
176C
330
1595
100
AcDbEntity
  8
SUNPOU
 62
     0
440
 16777216
370
    -2
100
AcDbLine
 10
572.2160815299849
 20
2628.710483018453
 30
0.0
 11
572.2160815299849
 21
2827.189594404306
 31
0.0
  0
LINE
  5
176D
330
1595
100
AcDbEntity
  8
SUNPOU
 62
     0
440
 16777216
370
    -2
100
AcDbLine
 10
492.2160815299849
 20
2819.689594404306
 30
0.0
 11
462.2160815299849
 21
2819.689594404306
 31
0.0
  0
LINE
  5
176E
330
1595
100
AcDbEntity
  8
SUNPOU
 62
     0
440
 16777216
370
    -2
100
AcDbLine
 10
602.2160815299849
 20
2819.689594404306
 30
0.0
 11
632.2160815299849
 21
2819.689594404306
 31
0.0
  0
SOLID
  5
176F
330
1595
100
AcDbEntity
  8
SUNPOU
 62
     0
440
 16777216
100
AcDbTrace
 10
492.2160815299849
 20
2824.689594404306
 30
0.0
 11
492.2160815299849
 21
2814.689594404306
 31
0.0
 12
522.2160815299849
 22
2819.689594404306
 32
0.0
 13
522.2160815299849
 23
2819.689594404306
 33
0.0
  0
SOLID
  5
1770
330
1595
100
AcDbEntity
  8
SUNPOU
 62
     0
440
 16777216
100
AcDbTrace
 10
602.2160815299849
 20
2824.689594404306
 30
0.0
 11
602.2160815299849
 21
2814.689594404306
 31
0.0
 12
572.2160815299849
 22
2819.689594404306
 32
0.0
 13
572.2160815299849
 23
2819.689594404306
 33
0.0
  0
MTEXT
  5
1771
330
1595
100
AcDbEntity
  8
SUNPOU
 62
     0
440
 16777216
100
AcDbMText
 10
547.2160815299849
 20
2854.189594404306
 30
0.0
 40
45.0
 41
0.0
 71
     5
 72
     1
  1
\A1;50
 73
     1
 44
1.0
  0
POINT
  5
1772
330
1595
100
AcDbEntity
  8
DEFPOINTS
 62
     0
440
 16777216
100
AcDbPoint
 10
522.2160815299849
 20
2598.710483018453
 30
0.0
  0
POINT
  5
1773
330
1595
100
AcDbEntity
  8
DEFPOINTS
 62
     0
440
 16777216
100
AcDbPoint
 10
572.2160815299849
 20
2598.710483018453
 30
0.0
  0
POINT
  5
1774
330
1595
100
AcDbEntity
  8
DEFPOINTS
 62
     0
440
 16777216
100
AcDbPoint
 10
572.2160815299849
 20
2819.689594404306
 30
0.0
  0
ENDBLK
  5
1597
330
1595
100
AcDbEntity
  8
0
100
AcDbBlockEnd
  0
BLOCK
  5
15A3
330
15A2
100
AcDbEntity
  8
0
100
AcDbBlockBegin
  2
*D74
 70
     1
 10
0.0
 20
0.0
 30
0.0
  3
*D74
  1

  0
LINE
  5
1775
330
15A2
100
AcDbEntity
  8
SUNPOU
 62
     0
440
 16777216
370
    -2
100
AcDbLine
 10
207.2160815299849
 20
2548.710483018453
 30
0.0
 11
-43.26332078753876
 21
2548.710483018453
 31
0.0
  0
LINE
  5
1776
330
15A2
100
AcDbEntity
  8
SUNPOU
 62
     0
440
 16777216
370
    -2
100
AcDbLine
 10
182.2160815299849
 20
2598.710483018453
 30
0.0
 11
-43.26332078753875
 21
2598.710483018453
 31
0.0
  0
LINE
  5
1777
330
15A2
100
AcDbEntity
  8
SUNPOU
 62
     0
440
 16777216
370
    -2
100
AcDbLine
 10
-35.76332078753877
 20
2518.710483018453
 30
0.0
 11
-35.76332078753878
 21
2488.710483018453
 31
0.0
  0
LINE
  5
1778
330
15A2
100
AcDbEntity
  8
SUNPOU
 62
     0
440
 16777216
370
    -2
100
AcDbLine
 10
-35.76332078753875
 20
2628.710483018453
 30
0.0
 11
-35.76332078753875
 21
2658.710483018453
 31
0.0
  0
SOLID
  5
1779
330
15A2
100
AcDbEntity
  8
SUNPOU
 62
     0
440
 16777216
100
AcDbTrace
 10
-40.76332078753877
 20
2518.710483018453
 30
0.0
 11
-30.76332078753878
 21
2518.710483018453
 31
0.0
 12
-35.76332078753877
 22
2548.710483018453
 32
0.0
 13
-35.76332078753877
 23
2548.710483018453
 33
0.0
  0
SOLID
  5
177A
330
15A2
100
AcDbEntity
  8
SUNPOU
 62
     0
440
 16777216
100
AcDbTrace
 10
-40.76332078753875
 20
2628.710483018453
 30
0.0
 11
-30.76332078753875
 21
2628.710483018453
 31
0.0
 12
-35.76332078753876
 22
2598.710483018453
 32
0.0
 13
-35.76332078753876
 23
2598.710483018453
 33
0.0
  0
MTEXT
  5
177B
330
15A2
100
AcDbEntity
  8
SUNPOU
 62
     0
440
 16777216
100
AcDbMText
 10
-70.26332078753917
 20
2573.710483018453
 30
0.0
 40
45.0
 41
0.0
 71
     5
 72
     1
  1
\A1;50
 11
6.123031769111886E-17
 21
1.0
 31
0.0
 73
     1
 44
1.0
  0
POINT
  5
177C
330
15A2
100
AcDbEntity
  8
DEFPOINTS
 62
     0
440
 16777216
100
AcDbPoint
 10
237.2160815299849
 20
2548.710483018453
 30
0.0
  0
POINT
  5
177D
330
15A2
100
AcDbEntity
  8
DEFPOINTS
 62
     0
440
 16777216
100
AcDbPoint
 10
212.2160815299849
 20
2598.710483018453
 30
0.0
  0
POINT
  5
177E
330
15A2
100
AcDbEntity
  8
DEFPOINTS
 62
     0
440
 16777216
100
AcDbPoint
 10
-35.76332078753876
 20
2598.710483018453
 30
0.0
  0
ENDBLK
  5
15A4
330
15A2
100
AcDbEntity
  8
0
100
AcDbBlockEnd
  0
BLOCK
  5
15B0
330
15AF
100
AcDbEntity
  8
0
100
AcDbBlockBegin
  2
*D75
 70
     1
 10
0.0
 20
0.0
 30
0.0
  3
*D75
  1

  0
LINE
  5
177F
330
15AF
100
AcDbEntity
  8
SUNPOU
 62
     0
440
 16777216
370
    -2
100
AcDbLine
 10
182.2160815299849
 20
2598.710483018453
 30
0.0
 11
64.34035781578127
 21
2598.710483018453
 31
0.0
  0
LINE
  5
1780
330
15AF
100
AcDbEntity
  8
SUNPOU
 62
     0
440
 16777216
370
    -2
100
AcDbLine
 10
161.3795080545265
 20
2748.710483018453
 30
0.0
 11
64.34035781578132
 21
2748.710483018453
 31
0.0
  0
LINE
  5
1781
330
15AF
100
AcDbEntity
  8
SUNPOU
 62
     0
440
 16777216
370
    -2
100
AcDbLine
 10
71.84035781578129
 20
2628.710483018453
 30
0.0
 11
71.8403578157813
 21
2718.710483018453
 31
0.0
  0
SOLID
  5
1782
330
15AF
100
AcDbEntity
  8
SUNPOU
 62
     0
440
 16777216
100
AcDbTrace
 10
66.84035781578129
 20
2628.710483018453
 30
0.0
 11
76.84035781578129
 21
2628.710483018453
 31
0.0
 12
71.84035781578129
 22
2598.710483018453
 32
0.0
 13
71.84035781578129
 23
2598.710483018453
 33
0.0
  0
SOLID
  5
1783
330
15AF
100
AcDbEntity
  8
SUNPOU
 62
     0
440
 16777216
100
AcDbTrace
 10
66.8403578157813
 20
2718.710483018453
 30
0.0
 11
76.8403578157813
 21
2718.710483018453
 31
0.0
 12
71.84035781578132
 22
2748.710483018453
 32
0.0
 13
71.84035781578132
 23
2748.710483018453
 33
0.0
  0
MTEXT
  5
1784
330
15AF
100
AcDbEntity
  8
SUNPOU
 62
     0
440
 16777216
100
AcDbMText
 10
37.34035781578087
 20
2673.710483018453
 30
0.0
 40
45.0
 41
0.0
 71
     5
 72
     1
  1
\A1;150
 11
6.123031769111886E-17
 21
1.0
 31
0.0
 73
     1
 44
1.0
  0
POINT
  5
1785
330
15AF
100
AcDbEntity
  8
DEFPOINTS
 62
     0
440
 16777216
100
AcDbPoint
 10
212.2160815299849
 20
2598.710483018453
 30
0.0
  0
POINT
  5
1786
330
15AF
100
AcDbEntity
  8
DEFPOINTS
 62
     0
440
 16777216
100
AcDbPoint
 10
191.3795080545265
 20
2748.710483018453
 30
0.0
  0
POINT
  5
1787
330
15AF
100
AcDbEntity
  8
DEFPOINTS
 62
     0
440
 16777216
100
AcDbPoint
 10
71.84035781578132
 20
2748.710483018453
 30
0.0
  0
ENDBLK
  5
15B1
330
15AF
100
AcDbEntity
  8
0
100
AcDbBlockEnd
  0
BLOCK
  5
15BC
330
15BB
100
AcDbEntity
  8
0
100
AcDbBlockBegin
  2
*D76
 70
     1
 10
0.0
 20
0.0
 30
0.0
  3
*D76
  1

  0
LINE
  5
1788
330
15BB
100
AcDbEntity
  8
SUNPOU
 62
     0
440
 16777216
370
    -2
100
AcDbLine
 10
162.2160815299849
 20
2998.710483018453
 30
0.0
 11
93.40152103287438
 21
2998.710483018453
 31
0.0
  0
LINE
  5
1789
330
15BB
100
AcDbEntity
  8
SUNPOU
 62
     0
440
 16777216
370
    -2
100
AcDbLine
 10
162.2160815299849
 20
2948.710483018453
 30
0.0
 11
93.40152103287437
 21
2948.710483018453
 31
0.0
  0
LINE
  5
178A
330
15BB
100
AcDbEntity
  8
SUNPOU
 62
     0
440
 16777216
370
    -2
100
AcDbLine
 10
100.9015210328744
 20
3028.710483018453
 30
0.0
 11
100.9015210328744
 21
3058.710483018453
 31
0.0
  0
LINE
  5
178B
330
15BB
100
AcDbEntity
  8
SUNPOU
 62
     0
440
 16777216
370
    -2
100
AcDbLine
 10
100.9015210328744
 20
2918.710483018453
 30
0.0
 11
100.9015210328744
 21
2888.710483018453
 31
0.0
  0
SOLID
  5
178C
330
15BB
100
AcDbEntity
  8
SUNPOU
 62
     0
440
 16777216
100
AcDbTrace
 10
95.90152103287438
 20
3028.710483018453
 30
0.0
 11
105.9015210328744
 21
3028.710483018453
 31
0.0
 12
100.9015210328744
 22
2998.710483018453
 32
0.0
 13
100.9015210328744
 23
2998.710483018453
 33
0.0
  0
SOLID
  5
178D
330
15BB
100
AcDbEntity
  8
SUNPOU
 62
     0
440
 16777216
100
AcDbTrace
 10
95.90152103287437
 20
2918.710483018453
 30
0.0
 11
105.9015210328744
 21
2918.710483018453
 31
0.0
 12
100.9015210328744
 22
2948.710483018453
 32
0.0
 13
100.9015210328744
 23
2948.710483018453
 33
0.0
  0
MTEXT
  5
178E
330
15BB
100
AcDbEntity
  8
SUNPOU
 62
     0
440
 16777216
100
AcDbMText
 10
66.4015210328739
 20
2973.710483018453
 30
0.0
 40
45.0
 41
0.0
 71
     5
 72
     1
  1
\A1;50
 11
6.123031769111886E-17
 21
1.0
 31
0.0
 73
     1
 44
1.0
  0
POINT
  5
178F
330
15BB
100
AcDbEntity
  8
DEFPOINTS
 62
     0
440
 16777216
100
AcDbPoint
 10
192.2160815299849
 20
2998.710483018453
 30
0.0
  0
POINT
  5
1790
330
15BB
100
AcDbEntity
  8
DEFPOINTS
 62
     0
440
 16777216
100
AcDbPoint
 10
192.2160815299849
 20
2948.710483018453
 30
0.0
  0
POINT
  5
1791
330
15BB
100
AcDbEntity
  8
DEFPOINTS
 62
     0
440
 16777216
100
AcDbPoint
 10
100.9015210328744
 20
2948.710483018453
 30
0.0
  0
ENDBLK
  5
15BD
330
15BB
100
AcDbEntity
  8
0
100
AcDbBlockEnd
  0
BLOCK
  5
15C9
330
15C8
100
AcDbEntity
  8
0
100
AcDbBlockBegin
  2
*D77
 70
     1
 10
0.0
 20
0.0
 30
0.0
  3
*D77
  1

  0
LINE
  5
1792
330
15C8
100
AcDbEntity
  8
SUNPOU
 62
     0
440
 16777216
370
    -2
100
AcDbLine
 10
182.2160815299849
 20
2598.710483018453
 30
0.0
 11
-43.26332078753864
 21
2598.710483018453
 31
0.0
  0
LINE
  5
1793
330
15C8
100
AcDbEntity
  8
SUNPOU
 62
     0
440
 16777216
370
    -2
100
AcDbLine
 10
162.2160815299849
 20
2998.710483018453
 30
0.0
 11
-43.26332078753852
 21
2998.710483018453
 31
0.0
  0
LINE
  5
1794
330
15C8
100
AcDbEntity
  8
SUNPOU
 62
     0
440
 16777216
370
    -2
100
AcDbLine
 10
-35.76332078753862
 20
2628.710483018453
 30
0.0
 11
-35.76332078753854
 21
2968.710483018453
 31
0.0
  0
SOLID
  5
1795
330
15C8
100
AcDbEntity
  8
SUNPOU
 62
     0
440
 16777216
100
AcDbTrace
 10
-40.76332078753862
 20
2628.710483018453
 30
0.0
 11
-30.76332078753862
 21
2628.710483018453
 31
0.0
 12
-35.76332078753862
 22
2598.710483018453
 32
0.0
 13
-35.76332078753862
 23
2598.710483018453
 33
0.0
  0
SOLID
  5
1796
330
15C8
100
AcDbEntity
  8
SUNPOU
 62
     0
440
 16777216
100
AcDbTrace
 10
-40.76332078753854
 20
2968.710483018453
 30
0.0
 11
-30.76332078753854
 21
2968.710483018453
 31
0.0
 12
-35.76332078753853
 22
2998.710483018453
 32
0.0
 13
-35.76332078753853
 23
2998.710483018453
 33
0.0
  0
MTEXT
  5
1797
330
15C8
100
AcDbEntity
  8
SUNPOU
 62
     0
440
 16777216
100
AcDbMText
 10
-70.26332078753903
 20
2798.710483018453
 30
0.0
 40
45.0
 41
0.0
 71
     5
 72
     1
  1
\A1;400
 11
6.123031769111886E-17
 21
1.0
 31
0.0
 73
     1
 44
1.0
  0
POINT
  5
1798
330
15C8
100
AcDbEntity
  8
DEFPOINTS
 62
     0
440
 16777216
100
AcDbPoint
 10
212.2160815299849
 20
2598.710483018453
 30
0.0
  0
POINT
  5
1799
330
15C8
100
AcDbEntity
  8
DEFPOINTS
 62
     0
440
 16777216
100
AcDbPoint
 10
192.2160815299849
 20
2998.710483018453
 30
0.0
  0
POINT
  5
179A
330
15C8
100
AcDbEntity
  8
DEFPOINTS
 62
     0
440
 16777216
100
AcDbPoint
 10
-35.76332078753853
 20
2998.710483018453
 30
0.0
  0
ENDBLK
  5
15CA
330
15C8
100
AcDbEntity
  8
0
100
AcDbBlockEnd
  0
BLOCK
  5
15D5
330
15D4
100
AcDbEntity
  8
0
100
AcDbBlockBegin
  2
*D78
 70
     1
 10
0.0
 20
0.0
 30
0.0
  3
*D78
  1

  0
LINE
  5
179B
330
15D4
100
AcDbEntity
  8
SUNPOU
 62
     0
440
 16777216
370
    -2
100
AcDbLine
 10
162.2160815299849
 20
2998.710483018453
 30
0.0
 11
-127.3647580510204
 21
2998.710483018453
 31
0.0
  0
LINE
  5
179C
330
15D4
100
AcDbEntity
  8
SUNPOU
 62
     0
440
 16777216
370
    -2
100
AcDbLine
 10
207.2160815299842
 20
2548.710483018453
 30
0.0
 11
-127.3647580510205
 21
2548.710483018453
 31
0.0
  0
LINE
  5
179D
330
15D4
100
AcDbEntity
  8
SUNPOU
 62
     0
440
 16777216
370
    -2
100
AcDbLine
 10
-119.8647580510205
 20
2968.710483018453
 30
0.0
 11
-119.8647580510205
 21
2578.710483018453
 31
0.0
  0
SOLID
  5
179E
330
15D4
100
AcDbEntity
  8
SUNPOU
 62
     0
440
 16777216
100
AcDbTrace
 10
-124.8647580510205
 20
2968.710483018453
 30
0.0
 11
-114.8647580510205
 21
2968.710483018453
 31
0.0
 12
-119.8647580510204
 22
2998.710483018453
 32
0.0
 13
-119.8647580510204
 23
2998.710483018453
 33
0.0
  0
SOLID
  5
179F
330
15D4
100
AcDbEntity
  8
SUNPOU
 62
     0
440
 16777216
100
AcDbTrace
 10
-124.8647580510205
 20
2578.710483018453
 30
0.0
 11
-114.8647580510205
 21
2578.710483018453
 31
0.0
 12
-119.8647580510205
 22
2548.710483018453
 32
0.0
 13
-119.8647580510205
 23
2548.710483018453
 33
0.0
  0
MTEXT
  5
17A0
330
15D4
100
AcDbEntity
  8
SUNPOU
 62
     0
440
 16777216
100
AcDbMText
 10
-154.3647580510209
 20
2773.710483018453
 30
0.0
 40
45.0
 41
0.0
 71
     5
 72
     1
  1
\A1;450
 11
6.123031769111886E-17
 21
1.0
 31
0.0
 73
     1
 44
1.0
  0
POINT
  5
17A1
330
15D4
100
AcDbEntity
  8
DEFPOINTS
 62
     0
440
 16777216
100
AcDbPoint
 10
192.2160815299849
 20
2998.710483018453
 30
0.0
  0
POINT
  5
17A2
330
15D4
100
AcDbEntity
  8
DEFPOINTS
 62
     0
440
 16777216
100
AcDbPoint
 10
237.2160815299842
 20
2548.710483018453
 30
0.0
  0
POINT
  5
17A3
330
15D4
100
AcDbEntity
  8
DEFPOINTS
 62
     0
440
 16777216
100
AcDbPoint
 10
-119.8647580510205
 20
2548.710483018453
 30
0.0
  0
ENDBLK
  5
15D6
330
15D4
100
AcDbEntity
  8
0
100
AcDbBlockEnd
  0
BLOCK
  5
15E1
330
15E0
100
AcDbEntity
  8
0
100
AcDbBlockBegin
  2
*D79
 70
     1
 10
0.0
 20
0.0
 30
0.0
  3
*D79
  1

  0
LINE
  5
17A4
330
15E0
100
AcDbEntity
  8
SUNPOU
 62
     0
440
 16777216
370
    -2
100
AcDbLine
 10
237.2160815299842
 20
2518.710483018453
 30
0.0
 11
237.2160815299842
 21
2337.049819134601
 31
0.0
  0
LINE
  5
17A5
330
15E0
100
AcDbEntity
  8
SUNPOU
 62
     0
440
 16777216
370
    -2
100
AcDbLine
 10
547.2160815299856
 20
2518.710483018453
 30
0.0
 11
547.2160815299856
 21
2337.049819134601
 31
0.0
  0
LINE
  5
17A6
330
15E0
100
AcDbEntity
  8
SUNPOU
 62
     0
440
 16777216
370
    -2
100
AcDbLine
 10
267.2160815299842
 20
2344.549819134601
 30
0.0
 11
517.2160815299856
 21
2344.549819134601
 31
0.0
  0
SOLID
  5
17A7
330
15E0
100
AcDbEntity
  8
SUNPOU
 62
     0
440
 16777216
100
AcDbTrace
 10
267.2160815299842
 20
2349.549819134601
 30
0.0
 11
267.2160815299842
 21
2339.549819134601
 31
0.0
 12
237.2160815299842
 22
2344.549819134601
 32
0.0
 13
237.2160815299842
 23
2344.549819134601
 33
0.0
  0
SOLID
  5
17A8
330
15E0
100
AcDbEntity
  8
SUNPOU
 62
     0
440
 16777216
100
AcDbTrace
 10
517.2160815299856
 20
2349.549819134601
 30
0.0
 11
517.2160815299856
 21
2339.549819134601
 31
0.0
 12
547.2160815299856
 22
2344.549819134601
 32
0.0
 13
547.2160815299856
 23
2344.549819134601
 33
0.0
  0
MTEXT
  5
17A9
330
15E0
100
AcDbEntity
  8
SUNPOU
 62
     0
440
 16777216
100
AcDbMText
 10
392.2160815299849
 20
2379.049819134601
 30
0.0
 40
45.0
 41
0.0
 71
     5
 72
     1
  1
\A1;310
 73
     1
 44
1.0
  0
POINT
  5
17AA
330
15E0
100
AcDbEntity
  8
DEFPOINTS
 62
     0
440
 16777216
100
AcDbPoint
 10
237.2160815299842
 20
2548.710483018453
 30
0.0
  0
POINT
  5
17AB
330
15E0
100
AcDbEntity
  8
DEFPOINTS
 62
     0
440
 16777216
100
AcDbPoint
 10
547.2160815299856
 20
2548.710483018453
 30
0.0
  0
POINT
  5
17AC
330
15E0
100
AcDbEntity
  8
DEFPOINTS
 62
     0
440
 16777216
100
AcDbPoint
 10
547.2160815299856
 20
2344.549819134601
 30
0.0
  0
ENDBLK
  5
15E2
330
15E0
100
AcDbEntity
  8
0
100
AcDbBlockEnd
  0
BLOCK
  5
15ED
330
15EC
100
AcDbEntity
  8
0
100
AcDbBlockBegin
  2
*D80
 70
     1
 10
0.0
 20
0.0
 30
0.0
  3
*D80
  1

  0
LINE
  5
17AD
330
15EC
100
AcDbEntity
  8
SUNPOU
 62
     0
440
 16777216
370
    -2
100
AcDbLine
 10
35.52504929211727
 20
2418.879660361172
 30
0.0
 11
248.4625030131924
 21
2597.326212082094
 31
0.0
  0
MTEXT
  5
17AE
330
15EC
100
AcDbEntity
  8
SUNPOU
 62
     0
440
 16777216
100
AcDbMText
 10
57.05326059673143
 20
2481.933495439015
 30
0.0
 40
45.0
 41
0.0
 71
     5
 72
     1
  1
\A1;R50
 11
0.7664504937880525
 21
0.6423033867044844
 31
0.0
 73
     1
 44
1.0
  0
SOLID
  5
17AF
330
15EC
100
AcDbEntity
  8
SUNPOU
 62
     0
440
 16777216
100
AcDbTrace
 10
245.2509860796699
 20
2601.158464551034
 30
0.0
 11
251.6740199467147
 21
2593.493959613153
 31
0.0
 12
271.4560178268339
 22
2616.595313683229
 32
0.0
 13
271.4560178268339
 23
2616.595313683229
 33
0.0
  0
POINT
  5
17B0
330
15EC
100
AcDbEntity
  8
DEFPOINTS
 62
     0
440
 16777216
100
AcDbPoint
 10
271.4560178268339
 20
2616.595313683229
 30
0.0
  0
POINT
  5
17B1
330
15EC
100
AcDbEntity
  8
DEFPOINTS
 62
     0
440
 16777216
100
AcDbPoint
 10
309.7785425162363
 20
2648.710483018453
 30
0.0
  0
ENDBLK
  5
15EE
330
15EC
100
AcDbEntity
  8
0
100
AcDbBlockEnd
  0
ENDSEC
  0
SECTION
  2
ENTITIES
  0
TEXT
  5
609
330
17
100
AcDbEntity
  8
0
100
AcDbText
 10
1575.147008156253
 20
3463.21818612293
 30
0.0
 40
70.0
  1
400×400
 41
0.8
100
AcDbText
  0
LINE
  5
1041
330
17
100
AcDbEntity
  8
SEIHIN
100
AcDbLine
 10
2992.752405604006
 20
2992.517413811982
 30
0.0
 11
4992.752405604006
 21
2992.517413811982
 31
0.0
  0
LINE
  5
1042
330
17
100
AcDbEntity
  8
SEIHIN
 62
     1
100
AcDbLine
 10
2992.752405604006
 20
2942.517413811982
 30
0.0
 11
4992.752405604007
 21
2942.517413811982
 31
0.0
  0
LINE
  5
1043
330
17
100
AcDbEntity
  8
HASEN
100
AcDbLine
 10
2992.752405604006
 20
2592.517413811982
 30
0.0
 11
4992.752405604007
 21
2592.517413811982
 31
0.0
  0
LINE
  5
1044
330
17
100
AcDbEntity
  8
SEIHIN
100
AcDbLine
 10
2992.752405604006
 20
2542.517413811982
 30
0.0
 11
4992.752405604006
 21
2542.517413811982
 31
0.0
  0
LINE
  5
1045
330
17
100
AcDbEntity
  8
SEIHIN
 62
     1
100
AcDbLine
 10
2992.752405604006
 20
2567.200958115779
 30
0.0
 11
4992.752405604006
 21
2567.200958115779
 31
0.0
  0
LINE
  5
1046
330
17
100
AcDbEntity
  8
SEIHIN
 62
     1
100
AcDbLine
 10
2992.752405604006
 20
2926.694629001857
 30
0.0
 11
4992.752405604005
 21
2926.694629001856
 31
0.0
  0
LINE
  5
1047
330
17
100
AcDbEntity
  8
SEIHIN
100
AcDbLine
 10
2992.752405604006
 20
2992.517413811982
 30
0.0
 11
2992.752405604006
 21
2542.517413811982
 31
0.0
  0
LINE
  5
1048
330
17
100
AcDbEntity
  8
SEIHIN
100
AcDbLine
 10
4992.752405604006
 20
2992.517413811982
 30
0.0
 11
4992.752405604006
 21
2542.517413811982
 31
0.0
  0
LINE
  5
1049
330
17
100
AcDbEntity
  8
1HASEN
 48
0.3
100
AcDbLine
 10
3187.752405604006
 20
2742.517413811982
 30
0.0
 11
3297.752405604006
 21
2742.517413811982
 31
0.0
  0
CIRCLE
  5
104A
330
17
100
AcDbEntity
  8
SUNPOU
100
AcDbCircle
 10
3242.752405604006
 20
2742.517413811982
 30
0.0
 40
25.0
  0
LINE
  5
104B
330
17
100
AcDbEntity
  8
1HASEN
 48
0.3
100
AcDbLine
 10
3242.752405604006
 20
2687.517413811982
 30
0.0
 11
3242.752405604006
 21
2797.517413811982
 31
0.0
  0
TEXT
  5
104C
330
17
100
AcDbEntity
  8
SUNPOU
100
AcDbText
 10
3029.888057122246
 20
2469.094469537748
 30
0.0
 40
45.0
  1
排水孔
 41
0.8
100
AcDbText
  0
LINE
  5
104D
330
17
100
AcDbEntity
  8
SUNPOU
100
AcDbLine
 10
3011.008494389737
 20
2458.618035709092
 30
0.0
 11
3167.713660139443
 21
2458.618035709092
 31
0.0
  0
LEADER
  5
104E
330
17
100
AcDbEntity
  8
SUNPOU
100
AcDbLeader
  3
A3-15
 76
     2
 10
3242.752405604006
 20
2742.517413811982
 30
0.0
 10
3167.713660139443
 20
2458.618035709092
 30
0.0
  0
DIMENSION
  5
104F
330
17
100
AcDbEntity
  8
SUNPOU
100
AcDbDimension
  2
*D17
 10
2831.49366682152
 20
2592.517413811982
 30
0.0
 11
2796.993666821519
 21
2567.517413811982
 31
0.0
 70
    32
 71
     5
 42
50.0
  3
A3-15
100
AcDbAlignedDimension
 13
2992.752405604006
 23
2542.517413811982
 33
0.0
 14
2992.752405604006
 24
2592.517413811982
 34
0.0
 50
90.0
100
AcDbRotatedDimension
  0
DIMENSION
  5
105D
330
17
100
AcDbEntity
  8
SUNPOU
100
AcDbDimension
  2
*D18
 10
2831.49366682152
 20
2742.517413811982
 30
0.0
 11
2796.993666821519
 21
2667.517413811982
 31
0.0
 70
    32
 71
     5
 42
150.0
  3
A3-15
100
AcDbAlignedDimension
 13
2992.752405604006
 23
2592.517413811982
 33
0.0
 14
2992.752405604006
 24
2742.517413811982
 34
0.0
 50
90.0
100
AcDbRotatedDimension
  0
DIMENSION
  5
106A
330
17
100
AcDbEntity
  8
SUNPOU
100
AcDbDimension
  2
*D19
 10
4992.752405604006
 20
3266.920878561376
 30
0.0
 11
3992.752405604006
 21
3301.420878561376
 31
0.0
 70
    32
 71
     5
 42
2000.0
  3
A3-15
100
AcDbAlignedDimension
 13
2992.752405604006
 23
2992.517413811982
 33
0.0
 14
4992.752405604006
 24
2992.517413811982
 34
0.0
100
AcDbRotatedDimension
  0
DIMENSION
  5
1080
330
17
100
AcDbEntity
  8
SUNPOU
100
AcDbDimension
  2
*D20
 10
3242.752405604006
 20
2262.081234037551
 30
0.0
 11
3117.752405604006
 21
2296.581234037551
 31
0.0
 70
    32
 71
     5
 42
250.0
  3
A3-15
100
AcDbAlignedDimension
 13
2992.752405604006
 23
2542.517413811982
 33
0.0
 14
3242.752405604006
 24
2542.517413811981
 34
0.0
100
AcDbRotatedDimension
  0
DIMENSION
  5
1081
330
17
100
AcDbEntity
  8
SUNPOU
100
AcDbDimension
  2
*D21
 10
3742.752405604006
 20
2262.081234037551
 30
0.0
 11
3492.752405604006
 21
2296.581234037551
 31
0.0
 70
    32
 71
     5
 42
500.0
  3
A3-15
100
AcDbAlignedDimension
 13
3242.752405604006
 23
2542.517413811981
 33
0.0
 14
3742.752405604006
 24
2542.517413811981
 34
0.0
100
AcDbRotatedDimension
  0
DIMENSION
  5
1082
330
17
100
AcDbEntity
  8
SUNPOU
100
AcDbDimension
  2
*D22
 10
4242.752405604006
 20
2262.081234037551
 30
0.0
 11
3992.752405604006
 21
2296.581234037551
 31
0.0
 70
    32
 71
     5
 42
499.9999999999995
  3
A3-15
100
AcDbAlignedDimension
 13
3742.752405604006
 23
2542.517413811981
 33
0.0
 14
4242.752405604006
 24
2542.517413811981
 34
0.0
100
AcDbRotatedDimension
  0
DIMENSION
  5
1083
330
17
100
AcDbEntity
  8
SUNPOU
100
AcDbDimension
  2
*D23
 10
4742.752405604006
 20
2262.081234037551
 30
0.0
 11
4492.752405604006
 21
2296.581234037551
 31
0.0
 70
    32
 71
     5
 42
500.0
  3
A3-15
100
AcDbAlignedDimension
 13
4242.752405604006
 23
2542.517413811981
 33
0.0
 14
4742.752405604006
 24
2542.517413811981
 34
0.0
100
AcDbRotatedDimension
  0
DIMENSION
  5
1084
330
17
100
AcDbEntity
  8
SUNPOU
100
AcDbDimension
  2
*D24
 10
4992.752405604006
 20
2262.081234037551
 30
0.0
 11
4867.752405604006
 21
2296.581234037551
 31
0.0
 70
    32
 71
     5
 42
250.0
  3
A3-15
100
AcDbAlignedDimension
 13
4742.752405604006
 23
2542.517413811981
 33
0.0
 14
4992.752405604006
 24
2542.517413811981
 34
0.0
100
AcDbRotatedDimension
  0
LINE
  5
1085
330
17
100
AcDbEntity
  8
1HASEN
 48
0.5
100
AcDbLine
 10
3992.752405604006
 20
3048.351449884021
 30
0.0
 11
3992.752405604006
 21
2499.510912242244
 31
0.0
  0
LINE
  5
111C
330
17
100
AcDbEntity
  8
SEIHIN
100
AcDbLine
 10
1642.496900744807
 20
2592.517413811982
 30
0.0
 11
1907.371978772304
 21
2592.517413811982
 31
0.0
  0
LINE
  5
111D
330
17
100
AcDbEntity
  8
SEIHIN
100
AcDbLine
 10
1569.934439758556
 20
2542.517413811982
 30
0.0
 11
1979.934439758556
 21
2542.517413811982
 31
0.0
  0
LINE
  5
111E
330
17
100
AcDbEntity
  8
SEIHIN
100
AcDbLine
 10
1574.934439758556
 20
2992.517413811982
 30
0.0
 11
1592.559283800915
 21
2640.020532964785
 31
0.0
  0
LINE
  5
111F
330
17
100
AcDbEntity
  8
SEIHIN
100
AcDbLine
 10
1545.313227637344
 20
2567.13862593319
 30
0.0
 11
1539.934439758556
 21
2927.517413811982
 31
0.0
  0
LINE
  5
1120
330
17
100
AcDbEntity
  8
SEIHIN
100
AcDbLine
 10
1569.934439758556
 20
2542.517413811982
 30
0.0
 11
1545.313227637344
 21
2567.13862593319
 31
0.0
  0
ARC
  5
1121
330
17
100
AcDbEntity
  8
SEIHIN
100
AcDbCircle
 10
1642.496900744808
 20
2642.517413811982
 30
0.0
 40
50.0
100
AcDbArc
 50
182.8624052261518
 51
270.0
  0
LINE
  5
1122
330
17
100
AcDbEntity
  8
SEIHIN
100
AcDbLine
 10
1574.934439758556
 20
2992.517413811982
 30
0.0
 11
1524.934439758556
 21
2992.517413811982
 31
0.0
  0
LINE
  5
1123
330
17
100
AcDbEntity
  8
SEIHIN
100
AcDbLine
 10
1539.934439758556
 20
2927.517413811982
 30
0.0
 11
1524.934439758556
 21
2942.517413811982
 31
0.0
  0
LINE
  5
1124
330
17
100
AcDbEntity
  8
SEIHIN
100
AcDbLine
 10
1524.934439758556
 20
2992.517413811982
 30
0.0
 11
1524.934439758556
 21
2942.517413811982
 31
0.0
  0
LINE
  5
1125
330
17
100
AcDbEntity
  8
SEIHIN
100
AcDbLine
 10
2004.555651879768
 20
2567.13862593319
 30
0.0
 11
2009.934439758556
 21
2927.517413811982
 31
0.0
  0
LINE
  5
1126
330
17
100
AcDbEntity
  8
SEIHIN
100
AcDbLine
 10
1957.309595716196
 20
2640.020532964785
 30
0.0
 11
1974.934439758556
 21
2992.517413811982
 31
0.0
  0
ARC
  5
1127
330
17
100
AcDbEntity
  8
SEIHIN
100
AcDbCircle
 10
1907.371978772304
 20
2642.517413811982
 30
0.0
 40
50.0
100
AcDbArc
 50
270.0
 51
357.1375947738482
  0
LINE
  5
1128
330
17
100
AcDbEntity
  8
SEIHIN
100
AcDbLine
 10
1979.934439758556
 20
2542.517413811982
 30
0.0
 11
2004.555651879768
 21
2567.13862593319
 31
0.0
  0
LINE
  5
1129
330
17
100
AcDbEntity
  8
SEIHIN
100
AcDbLine
 10
1974.934439758556
 20
2992.517413811982
 30
0.0
 11
2024.934439758556
 21
2992.517413811982
 31
0.0
  0
LINE
  5
112A
330
17
100
AcDbEntity
  8
SEIHIN
100
AcDbLine
 10
2024.934439758556
 20
2942.517413811982
 30
0.0
 11
2009.934439758556
 21
2927.517413811982
 31
0.0
  0
LINE
  5
112B
330
17
100
AcDbEntity
  8
SEIHIN
100
AcDbLine
 10
2024.934439758556
 20
2992.517413811982
 30
0.0
 11
2024.934439758556
 21
2942.517413811982
 31
0.0
  0
POINT
  5
112C
330
17
100
AcDbEntity
  8
DEFPOINTS
100
AcDbPoint
 10
1594.934439758556
 20
2592.517413811982
 30
0.0
  0
POINT
  5
112D
330
17
100
AcDbEntity
  8
DEFPOINTS
100
AcDbPoint
 10
1954.934439758556
 20
2592.517413811982
 30
0.0
  0
LINE
  5
1142
330
17
100
AcDbEntity
  8
1HASEN
 48
0.5
100
AcDbLine
 10
1774.934439758556
 20
2500.862744195061
 30
0.0
 11
1774.934439758556
 21
3026.838828041477
 31
0.0
  0
POINT
  5
114A
330
17
100
AcDbEntity
  8
DEFPOINTS
100
AcDbPoint
 10
1544.934439758556
 20
2592.517413811982
 30
0.0
  0
POINT
  5
114B
330
17
100
AcDbEntity
  8
DEFPOINTS
100
AcDbPoint
 10
2004.934439758556
 20
2592.517413811982
 30
0.0
  0
DIMENSION
  5
114C
330
17
100
AcDbEntity
  8
SUNPOU
100
AcDbDimension
  2
*D27
 10
1539.934439758556
 20
3207.56037493431
 30
0.0
 11
1557.434439758556
 21
3242.06037493431
 31
0.0
 70
    32
 71
     5
 42
35.0
  3
A3-15
100
AcDbAlignedDimension
 13
1574.934439758556
 23
2992.517413811982
 33
0.0
 14
1539.934439758556
 24
2992.517413811982
 34
0.0
100
AcDbRotatedDimension
  0
DIMENSION
  5
114D
330
17
100
AcDbEntity
  8
SUNPOU
100
AcDbDimension
  2
*D28
 10
1524.934439758556
 20
3207.56037493431
 30
0.0
 11
1487.317155673281
 21
3242.06037493431
 31
0.0
 70
   160
 71
     5
 42
15.0
  3
A3-15
100
AcDbAlignedDimension
 13
1539.934439758556
 23
2992.517413811982
 33
0.0
 14
1524.934439758556
 24
2992.517413811982
 34
0.0
100
AcDbRotatedDimension
  0
DIMENSION
  5
114E
330
17
100
AcDbEntity
  8
SUNPOU
100
AcDbDimension
  2
*D29
 10
1974.934439758556
 20
3207.56037493431
 30
0.0
 11
1774.934439758556
 21
3242.06037493431
 31
0.0
 70
    32
 71
     5
 42
400.0
  3
A3-15
100
AcDbAlignedDimension
 13
1574.934439758556
 23
2992.517413811982
 33
0.0
 14
1974.934439758556
 24
2992.517413811982
 34
0.0
100
AcDbRotatedDimension
  0
DIMENSION
  5
114F
330
17
100
AcDbEntity
  8
SUNPOU
100
AcDbDimension
  2
*D30
 10
2024.934439758556
 20
3297.913696436399
 30
0.0
 11
1774.934439758556
 21
3332.413696436399
 31
0.0
 70
    32
 71
     5
 42
500.0
  3
A3-15
100
AcDbAlignedDimension
 13
1524.934439758556
 23
2992.517413811982
 33
0.0
 14
2024.934439758556
 24
2992.517413811982
 34
0.0
100
AcDbRotatedDimension
  0
DIMENSION
  5
11BA
330
17
100
AcDbEntity
  8
SUNPOU
100
AcDbDimension
  2
*D31
 10
2024.934439758556
 20
3207.56037493431
 30
0.0
 11
1999.934439758556
 21
3242.06037493431
 31
0.0
 70
    32
 71
     5
 42
50.0
  3
A3-15
100
AcDbAlignedDimension
 13
1974.934439758556
 23
2992.517413811982
 33
0.0
 14
2024.934439758556
 24
2992.517413811982
 34
0.0
100
AcDbRotatedDimension
  0
DIMENSION
  5
11C8
330
17
100
AcDbEntity
  8
SUNPOU
100
AcDbDimension
  2
*D32
 10
1429.590597521801
 20
2942.517413811982
 30
0.0
 11
1395.090597521801
 21
2967.517413811982
 31
0.0
 70
    32
 71
     5
 42
50.0
  3
A3-15
100
AcDbAlignedDimension
 13
1524.934439758556
 23
2992.517413811982
 33
0.0
 14
1524.934439758556
 24
2942.517413811982
 34
0.0
 50
90.0
100
AcDbRotatedDimension
  0
LINE
  5
11E0
330
17
100
AcDbEntity
  8
1HASEN
 48
0.5
100
AcDbLine
 10
1606.535405296845
 20
2742.517413811982
 30
0.0
 11
1524.097866283097
 21
2742.517413811982
 31
0.0
  0
LINE
  5
11E1
330
17
100
AcDbEntity
  8
HASEN
 48
0.5
100
AcDbLine
 10
1543.371939758556
 20
2717.517413811982
 30
0.0
 11
1588.059439758556
 21
2730.017413811982
 31
0.0
  0
LINE
  5
11E2
330
17
100
AcDbEntity
  8
HASEN
 48
0.5
100
AcDbLine
 10
1542.746939758556
 20
2767.517413811982
 30
0.0
 11
1586.809439758556
 21
2755.017413811982
 31
0.0
  0
DIMENSION
  5
11E3
330
17
100
AcDbEntity
  8
SUNPOU
100
AcDbDimension
  2
*D33
 10
1544.934439758556
 20
2813.496525197836
 30
0.0
 11
1569.934439758556
 21
2847.996525197836
 31
0.0
 70
    32
 71
     5
 42
50.0
  3
A3-15
100
AcDbAlignedDimension
 13
1594.934439758556
 23
2592.517413811982
 33
0.0
 14
1544.934439758556
 24
2592.517413811982
 34
0.0
100
AcDbRotatedDimension
  0
DIMENSION
  5
11E4
330
17
100
AcDbEntity
  8
SUNPOU
100
AcDbDimension
  2
*D34
 10
1296.955037441032
 20
2592.517413811982
 30
0.0
 11
1262.455037441031
 21
2567.517413811982
 31
0.0
 70
    32
 71
     5
 42
50.0
  3
A3-15
100
AcDbAlignedDimension
 13
1569.934439758556
 23
2542.517413811982
 33
0.0
 14
1544.934439758556
 24
2592.517413811982
 34
0.0
 50
90.0
100
AcDbRotatedDimension
  0
DIMENSION
  5
11E5
330
17
100
AcDbEntity
  8
SUNPOU
100
AcDbDimension
  2
*D35
 10
1404.558716044352
 20
2742.517413811982
 30
0.0
 11
1370.058716044352
 21
2667.517413811982
 31
0.0
 70
    32
 71
     5
 42
150.0
  3
A3-15
100
AcDbAlignedDimension
 13
1544.934439758556
 23
2592.517413811982
 33
0.0
 14
1524.097866283097
 24
2742.517413811982
 34
0.0
 50
90.0
100
AcDbRotatedDimension
  0
DIMENSION
  5
11E6
330
17
100
AcDbEntity
  8
SUNPOU
100
AcDbDimension
  2
*D36
 10
1296.955037441032
 20
2992.517413811982
 30
0.0
 11
1262.455037441032
 21
2792.517413811982
 31
0.0
 70
    32
 71
     5
 42
400.0
  3
A3-15
100
AcDbAlignedDimension
 13
1544.934439758556
 23
2592.517413811982
 33
0.0
 14
1524.934439758556
 24
2992.517413811982
 34
0.0
 50
90.0
100
AcDbRotatedDimension
  0
DIMENSION
  5
11E7
330
17
100
AcDbEntity
  8
SUNPOU
100
AcDbDimension
  2
*D37
 10
1212.85360017755
 20
2542.517413811982
 30
0.0
 11
1178.35360017755
 21
2767.517413811982
 31
0.0
 70
    32
 71
     5
 42
450.0
  3
A3-15
100
AcDbAlignedDimension
 13
1524.934439758556
 23
2992.517413811982
 33
0.0
 14
1569.934439758555
 24
2542.517413811982
 34
0.0
 50
90.0
100
AcDbRotatedDimension
  0
DIMENSION
  5
11E8
330
17
100
AcDbEntity
  8
SUNPOU
100
AcDbDimension
  2
*D38
 10
1642.496900744807
 20
2642.517413811982
 30
0.0
 11
1411.931085666606
 21
2449.297884196859
 31
0.0
 70
   164
 71
     5
 42
50.0
  3
A3-15
100
AcDbRadialDimension
 15
1604.174376055405
 25
2610.402244476758
 35
0.0
 40
0.0
1001
ACAD
1000
DSTYLE
1002
{
1070
   279
1070
     1
1002
}
  0
DIMENSION
  5
1263
330
17
100
AcDbEntity
  8
SUNPOU
100
AcDbDimension
  2
*D39
 10
1954.934439758556
 20
2813.496525197836
 30
0.0
 11
1774.934439758556
 21
2847.996525197836
 31
0.0
 70
    32
 71
     5
 42
360.0
  3
A3-15
100
AcDbAlignedDimension
 13
1594.934439758556
 23
2592.517413811982
 33
0.0
 14
1954.934439758556
 24
2592.517413811982
 34
0.0
100
AcDbRotatedDimension
  0
DIMENSION
  5
1270
330
17
100
AcDbEntity
  8
SUNPOU
100
AcDbDimension
  2
*D40
 10
2004.934439758556
 20
2813.496525197836
 30
0.0
 11
1979.934439758556
 21
2847.996525197836
 31
0.0
 70
    32
 71
     5
 42
50.0
  3
A3-15
100
AcDbAlignedDimension
 13
1954.934439758556
 23
2592.517413811982
 33
0.0
 14
2004.934439758556
 24
2592.517413811982
 34
0.0
100
AcDbRotatedDimension
  0
DIMENSION
  5
127E
330
17
100
AcDbEntity
  8
SUNPOU
100
AcDbDimension
  2
*D41
 10
1979.934439758556
 20
2341.252595455495
 30
0.0
 11
1774.934439758556
 21
2375.752595455495
 31
0.0
 70
    32
 71
     5
 42
410.0
  3
A3-15
100
AcDbAlignedDimension
 13
1569.934439758556
 23
2542.517413811982
 33
0.0
 14
1979.934439758556
 24
2542.517413811982
 34
0.0
100
AcDbRotatedDimension
  0
LINE
  5
128C
330
17
100
AcDbEntity
  8
1HASEN
 48
0.5
100
AcDbLine
 10
1943.333474220266
 20
2742.517413811982
 30
0.0
 11
2025.771013234014
 21
2742.517413811982
 31
0.0
  0
LINE
  5
128D
330
17
100
AcDbEntity
  8
HASEN
 48
0.5
100
AcDbLine
 10
2006.496939758556
 20
2717.517413811982
 30
0.0
 11
1961.809439758556
 21
2730.017413811982
 31
0.0
  0
LINE
  5
128E
330
17
100
AcDbEntity
  8
HASEN
 48
0.5
100
AcDbLine
 10
2007.121939758556
 20
2767.517413811982
 30
0.0
 11
1963.059439758556
 21
2755.017413811982
 31
0.0
  0
TEXT
  5
128F
330
17
100
AcDbEntity
  8
SUNPOU
100
AcDbText
 10
2146.272033823614
 20
2617.628416241573
 30
0.0
 40
45.0
  1
排水孔
 41
0.8
100
AcDbText
  0
LINE
  5
1290
330
17
100
AcDbEntity
  8
SUNPOU
100
AcDbLine
 10
2127.392471091106
 20
2607.151982412916
 30
0.0
 11
2284.097636840811
 21
2607.151982412916
 31
0.0
  0
LEADER
  5
1291
330
17
100
AcDbEntity
  8
SUNPOU
100
AcDbLeader
  3
A3-15
 76
     2
 10
2007.173245728705
 20
2742.517413811982
 30
0.0
 10
2127.392471091106
 20
2607.151982412916
 30
0.0
  0
LINE
  5
131C
330
17
100
AcDbEntity
  8
1HASEN
 48
0.3
100
AcDbLine
 10
3687.752405604006
 20
2742.517413811982
 30
0.0
 11
3797.752405604006
 21
2742.517413811982
 31
0.0
  0
CIRCLE
  5
131D
330
17
100
AcDbEntity
  8
SUNPOU
100
AcDbCircle
 10
3742.752405604006
 20
2742.517413811982
 30
0.0
 40
25.0
  0
LINE
  5
131E
330
17
100
AcDbEntity
  8
1HASEN
 48
0.3
100
AcDbLine
 10
3742.752405604006
 20
2687.517413811982
 30
0.0
 11
3742.752405604006
 21
2797.517413811982
 31
0.0
  0
LINE
  5
131F
330
17
100
AcDbEntity
  8
1HASEN
 48
0.3
100
AcDbLine
 10
4187.752405604006
 20
2742.517413811982
 30
0.0
 11
4297.752405604006
 21
2742.517413811982
 31
0.0
  0
CIRCLE
  5
1320
330
17
100
AcDbEntity
  8
SUNPOU
100
AcDbCircle
 10
4242.752405604006
 20
2742.517413811982
 30
0.0
 40
25.0
  0
LINE
  5
1321
330
17
100
AcDbEntity
  8
1HASEN
 48
0.3
100
AcDbLine
 10
4242.752405604006
 20
2687.517413811982
 30
0.0
 11
4242.752405604006
 21
2797.517413811982
 31
0.0
  0
LINE
  5
1322
330
17
100
AcDbEntity
  8
1HASEN
 48
0.3
100
AcDbLine
 10
4687.752405604006
 20
2742.517413811982
 30
0.0
 11
4797.752405604006
 21
2742.517413811982
 31
0.0
  0
CIRCLE
  5
1323
330
17
100
AcDbEntity
  8
SUNPOU
100
AcDbCircle
 10
4742.752405604006
 20
2742.517413811982
 30
0.0
 40
25.0
  0
LINE
  5
1324
330
17
100
AcDbEntity
  8
1HASEN
 48
0.3
100
AcDbLine
 10
4742.752405604006
 20
2687.517413811982
 30
0.0
 11
4742.752405604006
 21
2797.517413811982
 31
0.0
  0
TEXT
  5
14EB
330
17
100
AcDbEntity
  8
0
100
AcDbText
 10
232.5531910195732
 20
3480.431335309996
 30
0.0
 40
70.0
  1
400×300
 41
0.8
100
AcDbText
  0
LINE
  5
14EC
330
17
100
AcDbEntity
  8
1HASEN
 48
0.5
100
AcDbLine
 10
392.2160815299849
 20
3033.886524987154
 30
0.0
 11
392.2160815299849
 21
2509.56267545544
 31
0.0
  0
LINE
  5
14ED
330
17
100
AcDbEntity
  8
SEIHIN
100
AcDbLine
 10
392.2160815299849
 20
2598.710483018453
 30
0.0
 11
309.7785425162369
 21
2598.710483018453
 31
0.0
  0
ARC
  5
14EE
330
17
100
AcDbEntity
  8
SEIHIN
100
AcDbCircle
 10
309.7785425162369
 20
2648.710483018453
 30
0.0
 40
50.0
100
AcDbArc
 50
182.8624052260994
 51
270.0
  0
POINT
  5
14EF
330
17
100
AcDbEntity
  8
DEFPOINTS
100
AcDbPoint
 10
262.2160815299849
 20
2598.710483018453
 30
0.0
  0
POINT
  5
14F0
330
17
100
AcDbEntity
  8
DEFPOINTS
100
AcDbPoint
 10
212.2160815299849
 20
2598.710483018453
 30
0.0
  0
LINE
  5
14F1
330
17
100
AcDbEntity
  8
SEIHIN
100
AcDbLine
 10
392.2160815299849
 20
2548.710483018453
 30
0.0
 11
237.2160815299842
 21
2548.710483018453
 31
0.0
  0
LINE
  5
14F2
330
17
100
AcDbEntity
  8
SEIHIN
100
AcDbLine
 10
242.2160815299849
 20
2998.710483018453
 30
0.0
 11
259.8409255723448
 21
2646.213602171258
 31
0.0
  0
LINE
  5
14F3
330
17
100
AcDbEntity
  8
SEIHIN
100
AcDbLine
 10
242.2160815299849
 20
2998.710483018453
 30
0.0
 11
192.2160815299849
 21
2998.710483018453
 31
0.0
  0
POINT
  5
14F4
330
17
100
AcDbEntity
  8
DEFPOINTS
100
AcDbPoint
 10
207.2160815299849
 20
2998.710483018453
 30
0.0
  0
LINE
  5
14F5
330
17
100
AcDbEntity
  8
SEIHIN
100
AcDbLine
 10
208.0388663401116
 20
2932.887698208327
 30
0.0
 11
212.5325372261875
 21
2573.39402732225
 31
0.0
  0
LINE
  5
14F6
330
17
100
AcDbEntity
  8
SEIHIN
100
AcDbLine
 10
192.2160815299849
 20
2998.710483018453
 30
0.0
 11
192.2160815299849
 21
2948.710483018453
 31
0.0
  0
LINE
  5
14F7
330
17
100
AcDbEntity
  8
SEIHIN
100
AcDbLine
 10
192.2160815299849
 20
2948.710483018453
 30
0.0
 11
208.0388663401118
 21
2932.887698208327
 31
0.0
  0
LINE
  5
14F8
330
17
100
AcDbEntity
  8
SEIHIN
100
AcDbLine
 10
237.2160815299849
 20
2548.710483018453
 30
0.0
 11
212.5325372261873
 21
2573.39402732225
 31
0.0
  0
LINE
  5
14F9
330
17
100
AcDbEntity
  8
SEIHIN
100
AcDbLine
 10
392.2160815299849
 20
2598.710483018453
 30
0.0
 11
474.6536205437328
 21
2598.710483018453
 31
0.0
  0
ARC
  5
14FA
330
17
100
AcDbEntity
  8
SEIHIN
100
AcDbCircle
 10
474.6536205437328
 20
2648.710483018453
 30
0.0
 40
49.99999999999999
100
AcDbArc
 50
270.0
 51
357.1375947739006
  0
POINT
  5
14FB
330
17
100
AcDbEntity
  8
DEFPOINTS
100
AcDbPoint
 10
522.2160815299849
 20
2598.710483018453
 30
0.0
 50
180.0
  0
POINT
  5
14FC
330
17
100
AcDbEntity
  8
DEFPOINTS
100
AcDbPoint
 10
572.2160815299849
 20
2598.710483018453
 30
0.0
 50
180.0
  0
LINE
  5
14FD
330
17
100
AcDbEntity
  8
SEIHIN
100
AcDbLine
 10
392.2160815299849
 20
2548.710483018453
 30
0.0
 11
547.2160815299856
 21
2548.710483018453
 31
0.0
  0
LINE
  5
14FE
330
17
100
AcDbEntity
  8
SEIHIN
100
AcDbLine
 10
542.2160815299849
 20
2998.710483018453
 30
0.0
 11
524.591237487625
 21
2646.213602171258
 31
0.0
  0
LINE
  5
14FF
330
17
100
AcDbEntity
  8
SEIHIN
100
AcDbLine
 10
542.2160815299849
 20
2998.710483018453
 30
0.0
 11
592.2160815299849
 21
2998.710483018453
 31
0.0
  0
POINT
  5
1500
330
17
100
AcDbEntity
  8
DEFPOINTS
100
AcDbPoint
 10
577.2160815299849
 20
2998.710483018453
 30
0.0
 50
180.0
  0
LINE
  5
1501
330
17
100
AcDbEntity
  8
SEIHIN
100
AcDbLine
 10
576.3932967198582
 20
2932.887698208327
 30
0.0
 11
571.8996258337822
 21
2573.39402732225
 31
0.0
  0
LINE
  5
1502
330
17
100
AcDbEntity
  8
SEIHIN
100
AcDbLine
 10
592.2160815299849
 20
2998.710483018453
 30
0.0
 11
592.2160815299849
 21
2948.710483018453
 31
0.0
  0
LINE
  5
1503
330
17
100
AcDbEntity
  8
SEIHIN
100
AcDbLine
 10
592.2160815299849
 20
2948.710483018453
 30
0.0
 11
576.393296719858
 21
2932.887698208327
 31
0.0
  0
LINE
  5
1504
330
17
100
AcDbEntity
  8
SEIHIN
100
AcDbLine
 10
547.2160815299849
 20
2548.710483018453
 30
0.0
 11
571.8996258337825
 21
2573.39402732225
 31
0.0
  0
LINE
  5
1505
330
17
100
AcDbEntity
  8
1HASEN
 48
0.5
100
AcDbLine
 10
273.8170470682744
 20
2748.710483018453
 30
0.0
 11
191.3795080545265
 21
2748.710483018453
 31
0.0
  0
LINE
  5
1506
330
17
100
AcDbEntity
  8
HASEN
 48
0.5
100
AcDbLine
 10
210.6535815299849
 20
2723.710483018453
 30
0.0
 11
255.3410815299849
 21
2736.210483018453
 31
0.0
  0
LINE
  5
1507
330
17
100
AcDbEntity
  8
HASEN
 48
0.5
100
AcDbLine
 10
210.0285815299849
 20
2773.710483018453
 30
0.0
 11
254.0910815299849
 21
2761.210483018453
 31
0.0
  0
LINE
  5
1508
330
17
100
AcDbEntity
  8
1HASEN
 48
0.5
100
AcDbLine
 10
510.6151159916953
 20
2748.710483018453
 30
0.0
 11
593.0526550054433
 21
2748.710483018453
 31
0.0
  0
LINE
  5
1509
330
17
100
AcDbEntity
  8
HASEN
 48
0.5
100
AcDbLine
 10
573.7785815299849
 20
2723.710483018453
 30
0.0
 11
529.0910815299849
 21
2736.210483018453
 31
0.0
  0
LINE
  5
150A
330
17
100
AcDbEntity
  8
HASEN
 48
0.5
100
AcDbLine
 10
574.4035815299849
 20
2773.710483018453
 30
0.0
 11
530.3410815299849
 21
2761.210483018453
 31
0.0
  0
DIMENSION
  5
150B
330
17
100
AcDbEntity
  8
SUNPOU
100
AcDbDimension
  2
*D66
 10
207.2160815299849
 20
3213.753444140781
 30
0.0
 11
224.7160815299849
 21
3248.253444140781
 31
0.0
 70
    32
 71
     5
 42
35.0
  3
A3-15
100
AcDbAlignedDimension
 13
242.2160815299849
 23
2998.710483018453
 33
0.0
 14
207.2160815299849
 24
2998.710483018453
 34
0.0
100
AcDbRotatedDimension
  0
DIMENSION
  5
150C
330
17
100
AcDbEntity
  8
SUNPOU
100
AcDbDimension
  2
*D67
 10
192.2160815299849
 20
3213.753444140781
 30
0.0
 11
154.5987974447107
 21
3248.253444140781
 31
0.0
 70
   160
 71
     5
 42
15.0
  3
A3-15
100
AcDbAlignedDimension
 13
207.2160815299849
 23
2998.710483018453
 33
0.0
 14
192.2160815299849
 24
2998.710483018453
 34
0.0
100
AcDbRotatedDimension
  0
DIMENSION
  5
150D
330
17
100
AcDbEntity
  8
SUNPOU
100
AcDbDimension
  2
*D68
 10
542.2160815299849
 20
3213.753444140781
 30
0.0
 11
392.2160815299849
 21
3248.253444140781
 31
0.0
 70
    32
 71
     5
 42
300.0
  3
A3-15
100
AcDbAlignedDimension
 13
242.2160815299849
 23
2998.710483018453
 33
0.0
 14
542.2160815299849
 24
2998.710483018453
 34
0.0
100
AcDbRotatedDimension
  0
DIMENSION
  5
150E
330
17
100
AcDbEntity
  8
SUNPOU
100
AcDbDimension
  2
*D69
 10
592.2160815299849
 20
3213.753444140781
 30
0.0
 11
567.2160815299849
 21
3248.253444140781
 31
0.0
 70
    32
 71
     5
 42
50.0
  3
A3-15
100
AcDbAlignedDimension
 13
542.2160815299849
 23
2998.710483018453
 33
0.0
 14
592.2160815299849
 24
2998.710483018453
 34
0.0
100
AcDbRotatedDimension
  0
DIMENSION
  5
150F
330
17
100
AcDbEntity
  8
SUNPOU
100
AcDbDimension
  2
*D70
 10
592.2160815299849
 20
3304.10676564287
 30
0.0
 11
392.2160815299849
 21
3338.60676564287
 31
0.0
 70
    32
 71
     5
 42
400.0
  3
A3-15
100
AcDbAlignedDimension
 13
192.2160815299849
 23
2998.710483018453
 33
0.0
 14
592.2160815299849
 24
2998.710483018453
 34
0.0
100
AcDbRotatedDimension
  0
DIMENSION
  5
1510
330
17
100
AcDbEntity
  8
SUNPOU
100
AcDbDimension
  2
*D71
 10
522.2160815299849
 20
2819.689594404306
 30
0.0
 11
392.2160815299849
 21
2854.189594404306
 31
0.0
 70
    32
 71
     5
 42
260.0
  3
A3-15
100
AcDbAlignedDimension
 13
262.2160815299849
 23
2598.710483018453
 33
0.0
 14
522.2160815299849
 24
2598.710483018453
 34
0.0
100
AcDbRotatedDimension
  0
DIMENSION
  5
1511
330
17
100
AcDbEntity
  8
SUNPOU
100
AcDbDimension
  2
*D72
 10
212.2160815299849
 20
2819.689594404306
 30
0.0
 11
237.2160815299849
 21
2854.189594404306
 31
0.0
 70
    32
 71
     5
 42
50.0
  3
A3-15
100
AcDbAlignedDimension
 13
262.2160815299849
 23
2598.710483018453
 33
0.0
 14
212.2160815299849
 24
2598.710483018453
 34
0.0
100
AcDbRotatedDimension
  0
DIMENSION
  5
1512
330
17
100
AcDbEntity
  8
SUNPOU
100
AcDbDimension
  2
*D73
 10
572.2160815299849
 20
2819.689594404306
 30
0.0
 11
547.2160815299849
 21
2854.189594404306
 31
0.0
 70
    32
 71
     5
 42
50.0
  3
A3-15
100
AcDbAlignedDimension
 13
522.2160815299849
 23
2598.710483018453
 33
0.0
 14
572.2160815299849
 24
2598.710483018453
 34
0.0
 50
180.0
100
AcDbRotatedDimension
  0
DIMENSION
  5
1513
330
17
100
AcDbEntity
  8
SUNPOU
100
AcDbDimension
  2
*D74
 10
-35.76332078753876
 20
2598.710483018453
 30
0.0
 11
-70.26332078753917
 21
2573.710483018453
 31
0.0
 70
    32
 71
     5
 42
50.0
  3
A3-15
100
AcDbAlignedDimension
 13
237.2160815299849
 23
2548.710483018453
 33
0.0
 14
212.2160815299849
 24
2598.710483018453
 34
0.0
 50
90.0
100
AcDbRotatedDimension
  0
DIMENSION
  5
1514
330
17
100
AcDbEntity
  8
SUNPOU
100
AcDbDimension
  2
*D75
 10
71.84035781578132
 20
2748.710483018453
 30
0.0
 11
37.34035781578087
 21
2673.710483018453
 31
0.0
 70
    32
 71
     5
 42
150.0
  3
A3-15
100
AcDbAlignedDimension
 13
212.2160815299849
 23
2598.710483018453
 33
0.0
 14
191.3795080545265
 24
2748.710483018453
 34
0.0
 50
90.0
100
AcDbRotatedDimension
  0
DIMENSION
  5
1515
330
17
100
AcDbEntity
  8
SUNPOU
100
AcDbDimension
  2
*D76
 10
100.9015210328744
 20
2948.710483018453
 30
0.0
 11
66.4015210328739
 21
2973.710483018453
 31
0.0
 70
    32
 71
     5
 42
50.0
  3
A3-15
100
AcDbAlignedDimension
 13
192.2160815299849
 23
2998.710483018453
 33
0.0
 14
192.2160815299849
 24
2948.710483018453
 34
0.0
 50
90.0
100
AcDbRotatedDimension
  0
DIMENSION
  5
1516
330
17
100
AcDbEntity
  8
SUNPOU
100
AcDbDimension
  2
*D77
 10
-35.76332078753853
 20
2998.710483018453
 30
0.0
 11
-70.26332078753903
 21
2798.710483018453
 31
0.0
 70
    32
 71
     5
 42
400.0
  3
A3-15
100
AcDbAlignedDimension
 13
212.2160815299849
 23
2598.710483018453
 33
0.0
 14
192.2160815299849
 24
2998.710483018453
 34
0.0
 50
90.0
100
AcDbRotatedDimension
  0
DIMENSION
  5
1517
330
17
100
AcDbEntity
  8
SUNPOU
100
AcDbDimension
  2
*D78
 10
-119.8647580510205
 20
2548.710483018453
 30
0.0
 11
-154.3647580510209
 21
2773.710483018453
 31
0.0
 70
    32
 71
     5
 42
450.0
  3
A3-15
100
AcDbAlignedDimension
 13
192.2160815299849
 23
2998.710483018453
 33
0.0
 14
237.2160815299842
 24
2548.710483018453
 34
0.0
 50
90.0
100
AcDbRotatedDimension
  0
DIMENSION
  5
1518
330
17
100
AcDbEntity
  8
SUNPOU
100
AcDbDimension
  2
*D79
 10
547.2160815299856
 20
2344.549819134601
 30
0.0
 11
392.2160815299849
 21
2379.049819134601
 31
0.0
 70
    32
 71
     5
 42
310.0000000000014
  3
A3-15
100
AcDbAlignedDimension
 13
237.2160815299842
 23
2548.710483018453
 33
0.0
 14
547.2160815299856
 24
2548.710483018453
 34
0.0
100
AcDbRotatedDimension
  0
TEXT
  5
1519
330
17
100
AcDbEntity
  8
SUNPOU
100
AcDbText
 10
713.1898696248945
 20
2623.821485448044
 30
0.0
 40
45.0
  1
排水孔
 41
0.8
100
AcDbText
  0
LINE
  5
151A
330
17
100
AcDbEntity
  8
SUNPOU
100
AcDbLine
 10
694.3103068923856
 20
2613.345051619387
 30
0.0
 11
851.0154726420915
 21
2613.345051619387
 31
0.0
  0
LEADER
  5
151B
330
17
100
AcDbEntity
  8
SUNPOU
100
AcDbLeader
  3
A3-15
 76
     2
 10
574.0910815299849
 20
2748.710483018453
 30
0.0
 10
694.3103068923856
 20
2613.345051619387
 30
0.0
  0
DIMENSION
  5
151C
330
17
100
AcDbEntity
  8
SUNPOU
100
AcDbDimension
  2
*D80
 10
309.7785425162363
 20
2648.710483018453
 30
0.0
 11
79.21272743803615
 21
2455.490953403327
 31
0.0
 70
   164
 71
     5
 42
49.99999999999977
  3
A3-15
100
AcDbRadialDimension
 15
271.4560178268339
 25
2616.595313683229
 35
0.0
 40
0.0
1001
ACAD
1000
DSTYLE
1002
{
1070
   279
1070
     1
1002
}
  0
ENDSEC
  0
SECTION
  2
OBJECTS
  0
DICTIONARY
  5
C
330
0
100
AcDbDictionary
281
     1
  3
ACAD_CIP_PREVIOUS_PRODUCT_INFO
350
1378
  3
ACAD_COLOR
350
9D
  3
ACAD_DETAILVIEWSTYLE
350
1373
  3
ACAD_GROUP
350
D
  3
ACAD_LAYOUT
350
68
  3
ACAD_MATERIAL
350
9C
  3
ACAD_MLEADERSTYLE
350
136F
  3
ACAD_MLINESTYLE
350
1A
  3
ACAD_PLOTSETTINGS
350
69
  3
ACAD_PLOTSTYLENAME
350
66
  3
ACAD_SCALELIST
350
135D
  3
ACAD_SECTIONVIEWSTYLE
350
1371
  3
ACAD_TABLESTYLE
350
9E
  3
ACAD_VISUALSTYLE
350
1344
  3
ACDB_RECOMPOSE_DATA
350
185B
  3
AcDbVariableDictionary
350
99
  0
DICTIONARY
  5
1850
330
8
100
AcDbDictionary
280
     1
281
     1
  3
ACAD_XREC_ROUNDTRIP
360
1851
  0
DICTIONARY
  5
17FB
330
E
100
AcDbDictionary
280
     1
281
     1
  3
ADSK_XREC_LAYER_RECONCILED
360
17FC
  0
DICTIONARY
  5
17FD
330
23
100
AcDbDictionary
280
     1
281
     1
  3
ADSK_XREC_LAYER_RECONCILED
360
17FE
  0
DICTIONARY
  5
17FF
330
24
100
AcDbDictionary
280
     1
281
     1
  3
ADSK_XREC_LAYER_RECONCILED
360
1800
  0
DICTIONARY
  5
1801
330
25
100
AcDbDictionary
280
     1
281
     1
  3
ADSK_XREC_LAYER_RECONCILED
360
1802
  0
DICTIONARY
  5
1803
330
26
100
AcDbDictionary
280
     1
281
     1
  3
ADSK_XREC_LAYER_RECONCILED
360
1804
  0
DICTIONARY
  5
1805
330
27
100
AcDbDictionary
280
     1
281
     1
  3
ADSK_XREC_LAYER_RECONCILED
360
1806
  0
DICTIONARY
  5
1807
330
28
100
AcDbDictionary
280
     1
281
     1
  3
ADSK_XREC_LAYER_RECONCILED
360
1808
  0
DICTIONARY
  5
1809
330
29
100
AcDbDictionary
280
     1
281
     1
  3
ADSK_XREC_LAYER_RECONCILED
360
180A
  0
DICTIONARY
  5
180B
330
2A
100
AcDbDictionary
280
     1
281
     1
  3
ADSK_XREC_LAYER_RECONCILED
360
180C
  0
DICTIONARY
  5
95
330
17
100
AcDbDictionary
280
     1
281
     1
  3
ACAD_SORTENTS
360
804
  0
XRECORD
  5
1378
102
{ACAD_REACTORS
330
C
102
}
330
C
100
AcDbXrecord
280
     1
300
ACD
300
2014
300
ACD_F_S
  0
DICTIONARY
  5
9D
102
{ACAD_REACTORS
330
C
102
}
330
C
100
AcDbDictionary
281
     1
  0
DICTIONARY
  5
1373
102
{ACAD_REACTORS
330
C
102
}
330
C
100
AcDbDictionary
281
     1
  3
Imperial24
350
1374
  0
DICTIONARY
  5
D
102
{ACAD_REACTORS
330
C
102
}
330
C
100
AcDbDictionary
281
     1
  0
DICTIONARY
  5
68
102
{ACAD_REACTORS
330
C
102
}
330
C
100
AcDbDictionary
281
     1
  3
Model
350
6A
  3
ﾚｲｱｳﾄ1
350
6B
  0
DICTIONARY
  5
9C
102
{ACAD_REACTORS
330
C
102
}
330
C
100
AcDbDictionary
281
     1
  3
ByBlock
350
1334
  3
ByLayer
350
132C
  3
Global
350
133C
  0
DICTIONARY
  5
136F
102
{ACAD_REACTORS
330
C
102
}
330
C
100
AcDbDictionary
281
     1
  3
Standard
350
1370
  0
DICTIONARY
  5
1A
102
{ACAD_REACTORS
330
C
102
}
330
C
100
AcDbDictionary
281
     1
  3
STANDARD
350
1B
  0
DICTIONARY
  5
69
102
{ACAD_REACTORS
330
C
102
}
330
C
100
AcDbDictionary
281
     1
  0
ACDBDICTIONARYWDFLT
  5
66
102
{ACAD_REACTORS
330
C
102
}
330
C
100
AcDbDictionary
281
     1
  3
Normal
350
67
100
AcDbDictionaryWithDefault
340
67
  0
DICTIONARY
  5
135D
102
{ACAD_REACTORS
330
C
102
}
330
C
100
AcDbDictionary
281
     1
  3
A0
350
135E
  3
A1
350
135F
  3
A2
350
1360
  3
A3
350
1361
  3
A4
350
1362
  3
A5
350
1363
  3
A6
350
1364
  3
A7
350
1365
  3
A8
350
1366
  3
A9
350
1367
  3
B0
350
1368
  3
B1
350
1369
  3
B2
350
136A
  3
B3
350
136B
  3
B4
350
136C
  3
B5
350
136D
  3
B6
350
136E
  0
DICTIONARY
  5
1371
102
{ACAD_REACTORS
330
C
102
}
330
C
100
AcDbDictionary
281
     1
  3
Imperial24
350
1372
  0
DICTIONARY
  5
9E
102
{ACAD_REACTORS
330
C
102
}
330
C
100
AcDbDictionary
281
     1
  3
Standard
350
9F
  0
DICTIONARY
  5
1344
102
{ACAD_REACTORS
330
C
102
}
330
C
100
AcDbDictionary
281
     1
  3
2dWireframe
350
134A
  3
Basic
350
1349
  3
Brighten
350
1350
  3
ColorChange
350
1354
  3
Conceptual
350
134D
  3
Dim
350
134F
  3
EdgeColorOff
350
135C
  3
Facepattern
350
1353
  3
Flat
350
1345
  3
FlatWithEdges
350
1346
  3
Gouraud
350
1347
  3
GouraudWithEdges
350
1348
  3
Hidden
350
134C
  3
JitterOff
350
135A
  3
Linepattern
350
1352
  3
OverhangOff
350
135B
  3
Realistic
350
134E
  3
Shaded
350
1359
  3
Shaded with edges
350
1358
  3
Shades of Gray
350
1355
  3
Sketchy
350
1356
  3
Thicken
350
1351
  3
Wireframe
350
134B
  3
X-Ray
350
1357
  0
XRECORD
  5
185B
102
{ACAD_REACTORS
330
C
102
}
330
C
100
AcDbXrecord
280
     1
 90
        1
330
9F
  0
DICTIONARY
  5
99
102
{ACAD_REACTORS
330
C
102
}
330
C
100
AcDbDictionary
281
     1
  3
CANNOSCALE
350
184B
  3
CMLEADERSTYLE
350
1847
  3
CTABLESTYLE
350
3B4
  3
CVIEWDETAILSTYLE
350
1848
  3
CVIEWSECTIONSTYLE
350
1849
  3
DIMASSOC
350
9A
  3
LAYEREVAL
350
184D
  3
LAYERNOTIFY
350
184E
  3
LIGHTINGUNITS
350
184C
  3
MSLTSCALE
350
184A
  3
PROJECTNAME
350
3B5
  3
XCLIPFRAME
350
184F
  0
XRECORD
  5
1851
102
{ACAD_REACTORS
330
1850
102
}
330
1850
100
AcDbXrecord
280
     1
102
VTR_0.000_0.000_1.000_1.000_VISUALSTYLE
340
134A
102
VTR_0.000_0.000_1.000_1.000_GRIDDISPLAY
 70
     3
102
VTR_0.000_0.000_1.000_1.000_GRIDMAJOR
 70
     5
102
VTR_0.000_0.000_1.000_1.000_DEFAULTLIGHTING
280
     1
102
VTR_0.000_0.000_1.000_1.000_DEFAULTLIGHTINGTYPE
 70
     1
102
VTR_0.000_0.000_1.000_1.000_BRIGHTNESS
141
0.0
102
VTR_0.000_0.000_1.000_1.000_CONTRAST
142
0.0
  0
XRECORD
  5
17FC
102
{ACAD_REACTORS
330
17FB
102
}
330
17FB
100
AcDbXrecord
280
     1
290
     1
  0
XRECORD
  5
17FE
102
{ACAD_REACTORS
330
17FD
102
}
330
17FD
100
AcDbXrecord
280
     1
290
     1
  0
XRECORD
  5
1800
102
{ACAD_REACTORS
330
17FF
102
}
330
17FF
100
AcDbXrecord
280
     1
290
     1
  0
XRECORD
  5
1802
102
{ACAD_REACTORS
330
1801
102
}
330
1801
100
AcDbXrecord
280
     1
290
     1
  0
XRECORD
  5
1804
102
{ACAD_REACTORS
330
1803
102
}
330
1803
100
AcDbXrecord
280
     1
290
     1
  0
XRECORD
  5
1806
102
{ACAD_REACTORS
330
1805
102
}
330
1805
100
AcDbXrecord
280
     1
290
     1
  0
XRECORD
  5
1808
102
{ACAD_REACTORS
330
1807
102
}
330
1807
100
AcDbXrecord
280
     1
290
     1
  0
XRECORD
  5
180A
102
{ACAD_REACTORS
330
1809
102
}
330
1809
100
AcDbXrecord
280
     1
290
     1
  0
XRECORD
  5
180C
102
{ACAD_REACTORS
330
180B
102
}
330
180B
100
AcDbXrecord
280
     1
290
     1
  0
SORTENTSTABLE
  5
804
102
{ACAD_REACTORS
330
95
102
}
330
95
100
AcDbSortentsTable
330
17
331
0
  5
60
331
609
  5
609
  0
ACAD_PROXY_OBJECT
  5
1374
102
{ACAD_REACTORS
330
1373
102
}
102
{ACAD_XDICTIONARY
360
1845
102
}
330
1373
100
AcDbProxyObject
 90
      499
 91
      515
 95
  3276827
 70
     0
 93
     2314
310
9207000000180005C0F42F5A8DC671F815AF46E07A15AE7E07000000180005C0F42F5A8DC671FA3300000018001000000180005C0F42F5A8DC671FA02000000000000741FA028CC00000060002330000001800000852480368038003280390034803080360019001A004AD12801E002E00208031802B003080390010002B00
310
348032803B802A003C803800328010002E0033001000110012803A003180188011001F001280100012801E002E00208031802B003080390010002B00348032803B80220032803A00308034803600248032001F0012802E00280029802180208026002280100012801E002E00208031802B003080390010002B00348032803B
310
802980318030803600328010002E0033001000110012803980370011001F0012802B0340
340
F
340
0
340
13
340
F
340
13
340
13
 94
        0
  0
LAYOUT
  5
6A
102
{ACAD_REACTORS
330
68
102
}
330
68
100
AcDbPlotSettings
  1

  2
RICOH IPSiO NX850 RPCS
  4

  6

 40
0.0
 41
0.0
 42
0.0
 43
0.0
 44
0.0
 45
0.0
 46
0.0
 47
0.0
 48
0.0
 49
0.0
140
0.0
141
0.0
142
1.0
143
1.0
 70
  1712
 72
     0
 73
     0
 74
     0
  7
acad.ctb
 75
     0
 76
     0
 77
     2
 78
   300
147
1.0
148
0.0
149
0.0
100
AcDbLayout
  1
Model
 70
     1
 71
     0
 10
0.0
 20
0.0
 11
12.0
 21
9.0
 12
0.0
 22
0.0
 32
0.0
 14
0.0
 24
0.0
 34
0.0
 15
0.0
 25
0.0
 35
0.0
146
0.0
 13
0.0
 23
0.0
 33
0.0
 16
1.0
 26
0.0
 36
0.0
 17
0.0
 27
1.0
 37
0.0
 76
     0
330
17
331
1325
  0
LAYOUT
  5
6B
102
{ACAD_REACTORS
330
68
102
}
330
68
100
AcDbPlotSettings
  1

  2
RICOH IPSiO NX850 RPCS
  4

  6

 40
0.0
 41
0.0
 42
0.0
 43
0.0
 44
0.0
 45
0.0
 46
0.0
 47
0.0
 48
0.0
 49
0.0
140
0.0
141
0.0
142
1.0
143
1.0
 70
   688
 72
     0
 73
     0
 74
     5
  7
acad.ctb
 75
    16
 76
     0
 77
     2
 78
   300
147
1.0
148
0.0
149
0.0
100
AcDbLayout
  1
ﾚｲｱｳﾄ1
 70
     0
 71
     1
 10
0.0
 20
0.0
 11
12.0
 21
9.0
 12
0.0
 22
0.0
 32
0.0
 14
1.000000000000000E+20
 24
1.000000000000000E+20
 34
1.000000000000000E+20
 15
-1.000000000000000E+20
 25
-1.000000000000000E+20
 35
-1.000000000000000E+20
146
0.0
 13
0.0
 23
0.0
 33
0.0
 16
1.0
 26
0.0
 36
0.0
 17
0.0
 27
1.0
 37
0.0
 76
     0
330
14
  0
MATERIAL
  5
1334
102
{ACAD_REACTORS
330
9C
102
}
102
{ACAD_XDICTIONARY
360
1852
102
}
330
9C
100
AcDbMaterial
  1
ByBlock
 72
     0
 73
     2
 43
0.0208333333333333
 43
0.0
 43
0.0
 43
0.0
 43
0.0
 43
0.0208333333333333
 43
0.0
 43
0.0
 43
0.0
 43
0.0
 43
1.0
 43
0.0
 43
0.0
 43
0.0
 43
0.0
 43
1.0
 77
     0
 78
     2
 47
0.0208333333333333
 47
0.0
 47
0.0
 47
0.0
 47
0.0
 47
0.0208333333333333
 47
0.0
 47
0.0
 47
0.0
 47
0.0
 47
1.0
 47
0.0
 47
0.0
 47
0.0
 47
0.0
 47
1.0
171
     0
172
     2
 49
0.0208333333333333
 49
0.0
 49
0.0
 49
0.0
 49
0.0
 49
0.0208333333333333
 49
0.0
 49
0.0
 49
0.0
 49
0.0
 49
1.0
 49
0.0
 49
0.0
 49
0.0
 49
0.0
 49
1.0
175
     0
176
     2
142
0.0208333333333333
142
0.0
142
0.0
142
0.0
142
0.0
142
0.0208333333333333
142
0.0
142
0.0
142
0.0
142
0.0
142
1.0
142
0.0
142
0.0
142
0.0
142
0.0
142
1.0
179
     0
270
     2
144
0.0208333333333333
144
0.0
144
0.0
144
0.0
144
0.0
144
0.0208333333333333
144
0.0
144
0.0
144
0.0
144
0.0
144
1.0
144
0.0
144
0.0
144
0.0
144
0.0
144
1.0
274
     2
147
0.0208333333333333
147
0.0
147
0.0
147
0.0
147
0.0
147
0.0208333333333333
147
0.0
147
0.0
147
0.0
147
0.0
147
1.0
147
0.0
147
0.0
147
0.0
147
0.0
147
1.0
  0
MATERIAL
  5
132C
102
{ACAD_REACTORS
330
9C
102
}
102
{ACAD_XDICTIONARY
360
1854
102
}
330
9C
100
AcDbMaterial
  1
ByLayer
 72
     0
 73
     2
 43
0.0208333333333333
 43
0.0
 43
0.0
 43
0.0
 43
0.0
 43
0.0208333333333333
 43
0.0
 43
0.0
 43
0.0
 43
0.0
 43
1.0
 43
0.0
 43
0.0
 43
0.0
 43
0.0
 43
1.0
 77
     0
 78
     2
 47
0.0208333333333333
 47
0.0
 47
0.0
 47
0.0
 47
0.0
 47
0.0208333333333333
 47
0.0
 47
0.0
 47
0.0
 47
0.0
 47
1.0
 47
0.0
 47
0.0
 47
0.0
 47
0.0
 47
1.0
171
     0
172
     2
 49
0.0208333333333333
 49
0.0
 49
0.0
 49
0.0
 49
0.0
 49
0.0208333333333333
 49
0.0
 49
0.0
 49
0.0
 49
0.0
 49
1.0
 49
0.0
 49
0.0
 49
0.0
 49
0.0
 49
1.0
175
     0
176
     2
142
0.0208333333333333
142
0.0
142
0.0
142
0.0
142
0.0
142
0.0208333333333333
142
0.0
142
0.0
142
0.0
142
0.0
142
1.0
142
0.0
142
0.0
142
0.0
142
0.0
142
1.0
179
     0
270
     2
144
0.0208333333333333
144
0.0
144
0.0
144
0.0
144
0.0
144
0.0208333333333333
144
0.0
144
0.0
144
0.0
144
0.0
144
1.0
144
0.0
144
0.0
144
0.0
144
0.0
144
1.0
274
     2
147
0.0208333333333333
147
0.0
147
0.0
147
0.0
147
0.0
147
0.0208333333333333
147
0.0
147
0.0
147
0.0
147
0.0
147
1.0
147
0.0
147
0.0
147
0.0
147
0.0
147
1.0
  0
MATERIAL
  5
133C
102
{ACAD_REACTORS
330
9C
102
}
102
{ACAD_XDICTIONARY
360
1856
102
}
330
9C
100
AcDbMaterial
  1
Global
 72
     0
 73
     2
 43
0.0208333333333333
 43
0.0
 43
0.0
 43
0.0
 43
0.0
 43
0.0208333333333333
 43
0.0
 43
0.0
 43
0.0
 43
0.0
 43
1.0
 43
0.0
 43
0.0
 43
0.0
 43
0.0
 43
1.0
 77
     0
 78
     2
 47
0.0208333333333333
 47
0.0
 47
0.0
 47
0.0
 47
0.0
 47
0.0208333333333333
 47
0.0
 47
0.0
 47
0.0
 47
0.0
 47
1.0
 47
0.0
 47
0.0
 47
0.0
 47
0.0
 47
1.0
171
     0
172
     2
 49
0.0208333333333333
 49
0.0
 49
0.0
 49
0.0
 49
0.0
 49
0.0208333333333333
 49
0.0
 49
0.0
 49
0.0
 49
0.0
 49
1.0
 49
0.0
 49
0.0
 49
0.0
 49
0.0
 49
1.0
175
     0
176
     2
142
0.0208333333333333
142
0.0
142
0.0
142
0.0
142
0.0
142
0.0208333333333333
142
0.0
142
0.0
142
0.0
142
0.0
142
1.0
142
0.0
142
0.0
142
0.0
142
0.0
142
1.0
179
     0
270
     2
144
0.0208333333333333
144
0.0
144
0.0
144
0.0
144
0.0
144
0.0208333333333333
144
0.0
144
0.0
144
0.0
144
0.0
144
1.0
144
0.0
144
0.0
144
0.0
144
0.0
144
1.0
274
     2
147
0.0208333333333333
147
0.0
147
0.0
147
0.0
147
0.0
147
0.0208333333333333
147
0.0
147
0.0
147
0.0
147
0.0
147
1.0
147
0.0
147
0.0
147
0.0
147
0.0
147
1.0
  0
MLEADERSTYLE
  5
1370
102
{ACAD_REACTORS
330
136F
102
}
330
136F
100
AcDbMLeaderStyle
170
     2
171
     1
172
     0
 90
        2
 40
0.0
 41
0.0
173
     1
 91
-1056964608
340
11
 92
       -2
290
     1
 42
0.09
291
     1
 43
0.36
  3
Standard
341
0
 44
0.18
300

342
F
174
     1
178
     6
175
     1
176
     0
 93
-1056964608
 45
0.18
292
     0
297
     0
 46
0.18
343
0
 94
-1056964608
 47
1.0
 49
1.0
140
1.0
293
     1
141
0.0
294
     1
177
     0
142
1.0
295
     0
296
     0
143
0.125
1001
ACAD_MLEADERVER
1070
     2
  0
MLINESTYLE
  5
1B
102
{ACAD_REACTORS
330
1A
102
}
330
1A
100
AcDbMlineStyle
  2
STANDARD
 70
     0
  3

 62
   256
 51
90.0
 52
90.0
 71
     2
 49
0.5
 62
   256
  6
BYLAYER
 49
-0.5
 62
   256
  6
BYLAYER
  0
ACDBPLACEHOLDER
  5
67
102
{ACAD_REACTORS
330
66
102
}
330
66
  0
SCALE
  5
135E
102
{ACAD_REACTORS
330
135D
102
}
330
135D
100
AcDbScale
 70
     0
300
1:1
140
1.0
141
1.0
290
     1
  0
SCALE
  5
135F
102
{ACAD_REACTORS
330
135D
102
}
330
135D
100
AcDbScale
 70
     0
300
1/128" = 1'-0"
140
0.0078125
141
12.0
290
     0
  0
SCALE
  5
1360
102
{ACAD_REACTORS
330
135D
102
}
330
135D
100
AcDbScale
 70
     0
300
1/64" = 1'-0"
140
0.015625
141
12.0
290
     0
  0
SCALE
  5
1361
102
{ACAD_REACTORS
330
135D
102
}
330
135D
100
AcDbScale
 70
     0
300
1/32" = 1'-0"
140
0.03125
141
12.0
290
     0
  0
SCALE
  5
1362
102
{ACAD_REACTORS
330
135D
102
}
330
135D
100
AcDbScale
 70
     0
300
1/16" = 1'-0"
140
0.0625
141
12.0
290
     0
  0
SCALE
  5
1363
102
{ACAD_REACTORS
330
135D
102
}
330
135D
100
AcDbScale
 70
     0
300
3/32" = 1'-0"
140
0.09375
141
12.0
290
     0
  0
SCALE
  5
1364
102
{ACAD_REACTORS
330
135D
102
}
330
135D
100
AcDbScale
 70
     0
300
1/8" = 1'-0"
140
0.125
141
12.0
290
     0
  0
SCALE
  5
1365
102
{ACAD_REACTORS
330
135D
102
}
330
135D
100
AcDbScale
 70
     0
300
3/16" = 1'-0"
140
0.1875
141
12.0
290
     0
  0
SCALE
  5
1366
102
{ACAD_REACTORS
330
135D
102
}
330
135D
100
AcDbScale
 70
     0
300
1/4" = 1'-0"
140
0.25
141
12.0
290
     0
  0
SCALE
  5
1367
102
{ACAD_REACTORS
330
135D
102
}
330
135D
100
AcDbScale
 70
     0
300
3/8" = 1'-0"
140
0.375
141
12.0
290
     0
  0
SCALE
  5
1368
102
{ACAD_REACTORS
330
135D
102
}
330
135D
100
AcDbScale
 70
     0
300
1/2" = 1'-0"
140
0.5
141
12.0
290
     0
  0
SCALE
  5
1369
102
{ACAD_REACTORS
330
135D
102
}
330
135D
100
AcDbScale
 70
     0
300
3/4" = 1'-0"
140
0.75
141
12.0
290
     0
  0
SCALE
  5
136A
102
{ACAD_REACTORS
330
135D
102
}
330
135D
100
AcDbScale
 70
     0
300
1" = 1'-0"
140
1.0
141
12.0
290
     0
  0
SCALE
  5
136B
102
{ACAD_REACTORS
330
135D
102
}
330
135D
100
AcDbScale
 70
     0
300
1-1/2" = 1'-0"
140
1.5
141
12.0
290
     0
  0
SCALE
  5
136C
102
{ACAD_REACTORS
330
135D
102
}
330
135D
100
AcDbScale
 70
     0
300
3" = 1'-0"
140
3.0
141
12.0
290
     0
  0
SCALE
  5
136D
102
{ACAD_REACTORS
330
135D
102
}
330
135D
100
AcDbScale
 70
     0
300
6" = 1'-0"
140
6.0
141
12.0
290
     0
  0
SCALE
  5
136E
102
{ACAD_REACTORS
330
135D
102
}
330
135D
100
AcDbScale
 70
     0
300
1'-0" = 1'-0"
140
12.0
141
12.0
290
     0
  0
ACAD_PROXY_OBJECT
  5
1372
102
{ACAD_REACTORS
330
1371
102
}
102
{ACAD_XDICTIONARY
360
1843
102
}
330
1371
100
AcDbProxyObject
 90
      499
 91
      514
 95
  3276827
 70
     0
 93
     3814
310
929D000000180005C0F42F5A8DC671FC00000060001703D0BD6A3719C7E5C0F42F5A8DC6F1FA330000001800099400000060001703D0BD6A3719C7E5C0F42F5A8DC671FC00000060001703D0BD6A3719C7E808000000000001D07E80C0000006000400000064003081815AF46E07A158E7E80C8340C16A22A7D90FC9F8CAE6
310
5A70A583A07E1FE81C635378FA1F8CAE65A70A583A17E7944A7F127A97E9FA149200DA00E000CA00E400D200C200D80064006800882480160010002780160010002880160010002980160010002C00160010002D002F84A007800B8008200C600AC00C200E4004000AC00D200CA00EE00A800F200E000CA004000B800CC004
310
00044004A00E800C600620044007C004A0040004A007800B8008200C600AC00C200E4004000AC00D200CA00EE00A600CA00C600E800D200DE00DC00A600E800C200E400E8009200C8007C004A005A004A007800B8008200C600AC00C200E4004000AC00D200CA00EE00A600CA00C600E800D200DE00DC008A00DC00C800920
310
0C8007C004A00B800A000A6008600820098008A0040004A007800B8008200C600AC00C200E4004000AC00D200CA00EE00A600C600C200D800CA004000B800CC00400044004A00E600DC0044007C004A00832080270029802480198018807404C
340
F
340
0
340
0
340
13
340
13
340
F
 94
        0
  0
TABLESTYLE
  5
9F
102
{ACAD_REACTORS
330
9E
102
}
102
{ACAD_XDICTIONARY
360
1858
102
}
330
9E
100
AcDbTableStyle
  3
Standard
 70
     0
 71
     0
 40
0.06
 41
0.06
280
     0
281
     0
  7
STANDARD
140
0.18
170
     2
 62
     0
 63
   257
283
     0
274
    -2
284
     1
 64
     0
275
    -2
285
     1
 65
     0
276
    -2
286
     1
 66
     0
277
    -2
287
     1
 67
     0
278
    -2
288
     1
 68
     0
279
    -2
289
     1
 69
     0
  7
STANDARD
140
0.25
170
     5
 62
     0
 63
   257
283
     0
274
    -2
284
     1
 64
     0
275
    -2
285
     1
 65
     0
276
    -2
286
     1
 66
     0
277
    -2
287
     1
 67
     0
278
    -2
288
     1
 68
     0
279
    -2
289
     1
 69
     0
  7
STANDARD
140
0.18
170
     5
 62
     0
 63
   257
283
     0
274
    -2
284
     1
 64
     0
275
    -2
285
     1
 65
     0
276
    -2
286
     1
 66
     0
277
    -2
287
     1
 67
     0
278
    -2
288
     1
 68
     0
279
    -2
289
     1
 69
     0
  0
VISUALSTYLE
  5
134A
102
{ACAD_REACTORS
330
1344
102
}
102
{ACAD_XDICTIONARY
360
185C
102
}
330
1344
100
AcDbVisualStyle
  2
2dWireframe
 70
     4
 71
     0
 72
     2
 73
     0
 90
        0
 40
-0.6
 41
-30.0
 62
     5
 63
     7
421
 16777215
 74
     1
 91
        4
 64
     7
 65
   257
 75
     1
175
     1
 42
1.0
 92
        0
 66
   257
 43
1.0
 76
     1
 77
     6
 78
     2
 67
     7
 79
     5
170
     0
171
     0
290
     0
174
     0
 93
        1
 44
0.0
173
     0
291
     0
 45
0.0
1001
ACAD
1000
AcDbSavedByObjectVersion
1070
     0
  0
VISUALSTYLE
  5
1349
102
{ACAD_REACTORS
330
1344
102
}
102
{ACAD_XDICTIONARY
360
185E
102
}
330
1344
100
AcDbVisualStyle
  2
Basic
 70
     7
 71
     1
 72
     0
 73
     1
 90
        0
 40
-0.6
 41
-30.0
 62
     5
 63
     7
421
 16777215
 74
     0
 91
        4
 64
     7
 65
   257
 75
     1
175
     1
 42
1.0
 92
        8
 66
     7
 43
1.0
 76
     1
 77
     6
 78
     2
 67
     7
 79
     5
170
     0
171
     0
290
     0
174
     0
 93
        1
 44
0.0
173
     0
291
     1
 45
0.0
1001
ACAD
1000
AcDbSavedByObjectVersion
1070
     0
  0
VISUALSTYLE
  5
1350
102
{ACAD_REACTORS
330
1344
102
}
102
{ACAD_XDICTIONARY
360
1860
102
}
330
1344
100
AcDbVisualStyle
  2
Brighten
 70
    12
 71
     2
 72
     2
 73
     0
 90
        0
 40
-0.6
 41
-30.0
 62
     5
 63
     7
421
 16777215
 74
     1
 91
        4
 64
     7
 65
   257
 75
     1
175
     1
 42
1.0
 92
        8
 66
     7
 43
1.0
 76
     1
 77
     6
 78
     2
 67
     7
 79
     5
170
     0
171
     0
290
     0
174
     0
 93
        1
 44
50.0
173
     0
291
     1
 45
0.0
1001
ACAD
1000
AcDbSavedByObjectVersion
1070
     0
  0
VISUALSTYLE
  5
1354
102
{ACAD_REACTORS
330
1344
102
}
102
{ACAD_XDICTIONARY
360
1862
102
}
330
1344
100
AcDbVisualStyle
  2
ColorChange
 70
    16
 71
     2
 72
     2
 73
     3
 90
        0
 40
-0.6
 41
-30.0
 62
     5
 63
     8
421
  8421504
 74
     1
 91
        4
 64
     7
 65
   257
 75
     1
175
     1
 42
1.0
 92
        8
 66
     8
424
  8421504
 43
1.0
 76
     1
 77
     6
 78
     2
 67
     7
 79
     5
170
     0
171
     0
290
     0
174
     0
 93
        1
 44
0.0
173
     0
291
     1
 45
0.0
1001
ACAD
1000
AcDbSavedByObjectVersion
1070
     0
  0
VISUALSTYLE
  5
134D
102
{ACAD_REACTORS
330
1344
102
}
102
{ACAD_XDICTIONARY
360
1864
102
}
330
1344
100
AcDbVisualStyle
  2
Conceptual
 70
     9
 71
     3
 72
     2
 73
     0
 90
        0
 40
-0.6
 41
-30.0
 62
     5
 63
     7
421
 16777215
 74
     2
 91
        2
 64
     7
 65
   257
 75
     1
175
     1
 42
179.0
 92
        8
 66
     7
 43
1.0
 76
     1
 77
     6
 78
     2
 67
     7
 79
     3
170
     0
171
     0
290
     0
174
     0
 93
        1
 44
0.0
173
     0
291
     0
 45
0.0
1001
ACAD
1000
AcDbSavedByObjectVersion
1070
     0
  0
VISUALSTYLE
  5
134F
102
{ACAD_REACTORS
330
1344
102
}
102
{ACAD_XDICTIONARY
360
1866
102
}
330
1344
100
AcDbVisualStyle
  2
Dim
 70
    11
 71
     2
 72
     2
 73
     0
 90
        0
 40
-0.6
 41
-30.0
 62
     5
 63
     7
421
 16777215
 74
     1
 91
        4
 64
     7
 65
   257
 75
     1
175
     1
 42
1.0
 92
        8
 66
     7
 43
1.0
 76
     1
 77
     6
 78
     2
 67
     7
 79
     5
170
     0
171
     0
290
     0
174
     0
 93
        1
 44
-50.0
173
     0
291
     1
 45
0.0
1001
ACAD
1000
AcDbSavedByObjectVersion
1070
     0
  0
VISUALSTYLE
  5
135C
102
{ACAD_REACTORS
330
1344
102
}
102
{ACAD_XDICTIONARY
360
1868
102
}
330
1344
100
AcDbVisualStyle
  2
EdgeColorOff
 70
    22
 71
     2
 72
     2
 73
     0
 90
        0
 40
-0.6
 41
-30.0
 62
     5
 63
     7
421
 16777215
 74
     1
 91
        4
 64
     7
 65
   257
 75
     1
175
     1
 42
1.0
 92
        8
 66
     7
 43
1.0
 76
     1
 77
     6
 78
     2
 67
     7
 79
     5
170
     0
171
     0
290
     0
174
     0
 93
        1
 44
0.0
173
     0
291
     1
 45
0.0
1001
ACAD
1000
AcDbSavedByObjectVersion
1070
     0
  0
VISUALSTYLE
  5
1353
102
{ACAD_REACTORS
330
1344
102
}
102
{ACAD_XDICTIONARY
360
186A
102
}
330
1344
100
AcDbVisualStyle
  2
Facepattern
 70
    15
 71
     2
 72
     2
 73
     0
 90
        0
 40
-0.6
 41
-30.0
 62
     5
 63
     7
421
 16777215
 74
     1
 91
        4
 64
     7
 65
   257
 75
     1
175
     1
 42
1.0
 92
        8
 66
     7
 43
1.0
 76
     1
 77
     6
 78
     2
 67
     7
 79
     5
170
     0
171
     0
290
     0
174
     0
 93
        1
 44
0.0
173
     0
291
     1
 45
0.0
1001
ACAD
1000
AcDbSavedByObjectVersion
1070
     0
  0
VISUALSTYLE
  5
1345
102
{ACAD_REACTORS
330
1344
102
}
102
{ACAD_XDICTIONARY
360
186C
102
}
330
1344
100
AcDbVisualStyle
  2
Flat
 70
     0
 71
     2
 72
     1
 73
     1
 90
        2
 40
-0.6
 41
30.0
 62
     5
 63
     7
421
 16777215
 74
     0
 91
        0
 64
     7
 65
   257
 75
     1
175
     1
 42
1.0
 92
        8
 66
     7
 43
1.0
 76
     1
 77
     6
 78
     2
 67
     7
 79
     5
170
     0
171
     0
290
     0
174
     0
 93
       13
 44
0.0
173
     0
291
     1
 45
0.0
1001
ACAD
1000
AcDbSavedByObjectVersion
1070
     0
  0
VISUALSTYLE
  5
1346
102
{ACAD_REACTORS
330
1344
102
}
102
{ACAD_XDICTIONARY
360
186E
102
}
330
1344
100
AcDbVisualStyle
  2
FlatWithEdges
 70
     1
 71
     2
 72
     1
 73
     1
 90
        2
 40
-0.6
 41
30.0
 62
     5
 63
     7
421
 16777215
 74
     1
 91
        0
 64
     7
 65
   257
 75
     1
175
     1
 42
1.0
 92
        0
 66
   257
 43
1.0
 76
     1
 77
     6
 78
     2
 67
     7
 79
     5
170
     0
171
     0
290
     0
174
     0
 93
       13
 44
0.0
173
     0
291
     1
 45
0.0
1001
ACAD
1000
AcDbSavedByObjectVersion
1070
     0
  0
VISUALSTYLE
  5
1347
102
{ACAD_REACTORS
330
1344
102
}
102
{ACAD_XDICTIONARY
360
1870
102
}
330
1344
100
AcDbVisualStyle
  2
Gouraud
 70
     2
 71
     2
 72
     2
 73
     1
 90
        2
 40
-0.6
 41
30.0
 62
     5
 63
     7
421
 16777215
 74
     0
 91
        0
 64
     7
 65
   257
 75
     1
175
     1
 42
1.0
 92
        0
 66
     7
 43
1.0
 76
     1
 77
     6
 78
     2
 67
     7
 79
     5
170
     0
171
     0
290
     0
174
     0
 93
       13
 44
0.0
173
     0
291
     1
 45
0.0
1001
ACAD
1000
AcDbSavedByObjectVersion
1070
     0
  0
VISUALSTYLE
  5
1348
102
{ACAD_REACTORS
330
1344
102
}
102
{ACAD_XDICTIONARY
360
1872
102
}
330
1344
100
AcDbVisualStyle
  2
GouraudWithEdges
 70
     3
 71
     2
 72
     2
 73
     1
 90
        2
 40
-0.6
 41
30.0
 62
     5
 63
     7
421
 16777215
 74
     1
 91
        0
 64
     7
 65
   257
 75
     1
175
     1
 42
1.0
 92
        0
 66
   257
 43
1.0
 76
     1
 77
     6
 78
     2
 67
     7
 79
     5
170
     0
171
     0
290
     0
174
     0
 93
       13
 44
0.0
173
     0
291
     1
 45
0.0
1001
ACAD
1000
AcDbSavedByObjectVersion
1070
     0
  0
VISUALSTYLE
  5
134C
102
{ACAD_REACTORS
330
1344
102
}
102
{ACAD_XDICTIONARY
360
1874
102
}
330
1344
100
AcDbVisualStyle
  2
Hidden
 70
     6
 71
     1
 72
     2
 73
     2
 90
        0
 40
-0.6
 41
-30.0
 62
     5
 63
     7
421
 16777215
 74
     2
 91
        2
 64
     7
 65
   257
 75
     2
175
     1
 42
40.0
 92
        0
 66
   257
 43
1.0
 76
     1
 77
     6
 78
     2
 67
     7
 79
     3
170
     0
171
     0
290
     0
174
     0
 93
        1
 44
0.0
173
     0
291
     0
 45
0.0
1001
ACAD
1000
AcDbSavedByObjectVersion
1070
     0
  0
VISUALSTYLE
  5
135A
102
{ACAD_REACTORS
330
1344
102
}
102
{ACAD_XDICTIONARY
360
1876
102
}
330
1344
100
AcDbVisualStyle
  2
JitterOff
 70
    20
 71
     2
 72
     2
 73
     0
 90
        0
 40
-0.6
 41
-30.0
 62
     5
 63
     7
421
 16777215
 74
     1
 91
        4
 64
     7
 65
   257
 75
     1
175
     1
 42
1.0
 92
       10
 66
     7
 43
1.0
 76
     1
 77
     6
 78
     2
 67
     7
 79
     5
170
     0
171
     0
290
     0
174
     0
 93
        1
 44
0.0
173
     0
291
     1
 45
0.0
1001
ACAD
1000
AcDbSavedByObjectVersion
1070
     0
  0
VISUALSTYLE
  5
1352
102
{ACAD_REACTORS
330
1344
102
}
102
{ACAD_XDICTIONARY
360
1878
102
}
330
1344
100
AcDbVisualStyle
  2
Linepattern
 70
    14
 71
     2
 72
     2
 73
     0
 90
        0
 40
-0.6
 41
-30.0
 62
     5
 63
     7
421
 16777215
 74
     1
 91
        4
 64
     7
 65
   257
 75
     7
175
     7
 42
1.0
 92
        8
 66
     7
 43
1.0
 76
     1
 77
     6
 78
     2
 67
     7
 79
     5
170
     0
171
     0
290
     0
174
     0
 93
        1
 44
0.0
173
     0
291
     1
 45
0.0
1001
ACAD
1000
AcDbSavedByObjectVersion
1070
     0
  0
VISUALSTYLE
  5
135B
102
{ACAD_REACTORS
330
1344
102
}
102
{ACAD_XDICTIONARY
360
187A
102
}
330
1344
100
AcDbVisualStyle
  2
OverhangOff
 70
    21
 71
     2
 72
     2
 73
     0
 90
        0
 40
-0.6
 41
-30.0
 62
     5
 63
     7
421
 16777215
 74
     1
 91
        4
 64
     7
 65
   257
 75
     1
175
     1
 42
1.0
 92
        9
 66
     7
 43
1.0
 76
     1
 77
     6
 78
     2
 67
     7
 79
     5
170
     0
171
     0
290
     0
174
     0
 93
        1
 44
0.0
173
     0
291
     1
 45
0.0
1001
ACAD
1000
AcDbSavedByObjectVersion
1070
     0
  0
VISUALSTYLE
  5
134E
102
{ACAD_REACTORS
330
1344
102
}
102
{ACAD_XDICTIONARY
360
187C
102
}
330
1344
100
AcDbVisualStyle
  2
Realistic
 70
     8
 71
     2
 72
     2
 73
     0
 90
        2
 40
-0.6
 41
30.0
 62
     5
 63
     7
421
 16777215
 74
     0
 91
        0
 64
     7
 65
   257
 75
     1
175
     1
 42
1.0
 92
        8
 66
   257
 43
1.0
 76
     1
 77
     6
 78
     2
 67
     7
 79
     3
170
     0
171
     0
290
     0
174
     0
 93
       13
 44
0.0
173
     0
291
     0
 45
0.0
1001
ACAD
1000
AcDbSavedByObjectVersion
1070
     0
  0
VISUALSTYLE
  5
1359
102
{ACAD_REACTORS
330
1344
102
}
102
{ACAD_XDICTIONARY
360
187E
102
}
330
1344
100
AcDbVisualStyle
  2
Shaded
 70
    27
 71
     2
 72
     2
 73
     1
 90
        2
 40
-0.6
 41
30.0
 62
     5
 63
     7
421
 16777215
 74
     0
 91
        4
 64
     7
 65
   257
 75
     1
175
     1
 42
1.0
 92
        8
 66
   257
 43
1.0
 76
     1
 77
     6
 78
     2
 67
     8
425
  7895160
 79
     3
170
     0
171
     0
290
     0
174
     0
 93
        5
 44
0.0
173
     0
291
     0
 45
0.0
1001
ACAD
1000
AcDbSavedByObjectVersion
1070
     0
  0
VISUALSTYLE
  5
1358
102
{ACAD_REACTORS
330
1344
102
}
102
{ACAD_XDICTIONARY
360
1880
102
}
330
1344
100
AcDbVisualStyle
  2
Shaded with edges
 70
    26
 71
     2
 72
     2
 73
     1
 90
        2
 40
-0.6
 41
30.0
 62
     5
 63
     7
421
 16777215
 74
     1
 91
       10
 64
     7
 65
   257
 75
     2
175
     1
 42
1.0
 92
        8
 66
   257
 43
1.0
 76
     1
 77
     6
 78
     2
 67
     7
 79
     3
170
     0
171
     0
290
     0
174
     0
 93
        5
 44
0.0
173
     0
291
     0
 45
0.0
1001
ACAD
1000
AcDbSavedByObjectVersion
1070
     0
  0
VISUALSTYLE
  5
1355
102
{ACAD_REACTORS
330
1344
102
}
102
{ACAD_XDICTIONARY
360
1882
102
}
330
1344
100
AcDbVisualStyle
  2
Shades of Gray
 70
    23
 71
     2
 72
     2
 73
     3
 90
        0
 40
-0.6
 41
-30.0
 62
     5
 63
     7
421
 16777215
 74
     2
 91
        2
 64
     7
 65
     7
 75
     1
175
     1
 42
40.0
 92
        8
 66
     7
 43
1.0
 76
     1
 77
     6
 78
     2
 67
     7
 79
     3
170
     0
171
     0
290
     0
174
     0
 93
        1
 44
0.0
173
     0
291
     0
 45
0.0
1001
ACAD
1000
AcDbSavedByObjectVersion
1070
     0
  0
VISUALSTYLE
  5
1356
102
{ACAD_REACTORS
330
1344
102
}
102
{ACAD_XDICTIONARY
360
1884
102
}
330
1344
100
AcDbVisualStyle
  2
Sketchy
 70
    24
 71
     1
 72
     2
 73
     2
 90
        0
 40
-0.6
 41
-30.0
 62
     5
 63
     7
421
 16777215
 74
     2
 91
        2
 64
     7
 65
     7
 75
     1
175
     1
 42
40.0
 92
       11
 66
     7
 43
1.0
 76
     1
 77
     6
 78
     2
 67
     7
 79
     6
170
     0
171
     0
290
     0
174
     0
 93
        1
 44
0.0
173
     0
291
     0
 45
0.0
1001
ACAD
1000
AcDbSavedByObjectVersion
1070
     0
  0
VISUALSTYLE
  5
1351
102
{ACAD_REACTORS
330
1344
102
}
102
{ACAD_XDICTIONARY
360
1886
102
}
330
1344
100
AcDbVisualStyle
  2
Thicken
 70
    13
 71
     2
 72
     2
 73
     0
 90
        0
 40
-0.6
 41
-30.0
 62
     5
 63
     7
421
 16777215
 74
     1
 91
        4
 64
     7
 65
   257
 75
     1
175
     1
 42
1.0
 92
       12
 66
     7
 43
1.0
 76
     1
 77
     6
 78
     2
 67
     7
 79
     5
170
     0
171
     0
290
     0
174
     0
 93
        1
 44
0.0
173
     0
291
     1
 45
0.0
1001
ACAD
1000
AcDbSavedByObjectVersion
1070
     0
  0
VISUALSTYLE
  5
134B
102
{ACAD_REACTORS
330
1344
102
}
102
{ACAD_XDICTIONARY
360
1888
102
}
330
1344
100
AcDbVisualStyle
  2
Wireframe
 70
     5
 71
     0
 72
     2
 73
     0
 90
        0
 40
-0.6
 41
-30.0
 62
     5
 63
     7
421
 16777215
 74
     1
 91
        4
 64
     7
 65
   257
 75
     1
175
     1
 42
1.0
 92
        0
 66
   257
 43
1.0
 76
     1
 77
     6
 78
     2
 67
     7
 79
     3
170
     0
171
     0
290
     0
174
     0
 93
        1
 44
0.0
173
     0
291
     0
 45
0.0
1001
ACAD
1000
AcDbSavedByObjectVersion
1070
     0
  0
VISUALSTYLE
  5
1357
102
{ACAD_REACTORS
330
1344
102
}
102
{ACAD_XDICTIONARY
360
188A
102
}
330
1344
100
AcDbVisualStyle
  2
X-Ray
 70
    25
 71
     2
 72
     2
 73
     1
 90
        1
 40
0.5
 41
-30.0
 62
     5
 63
     7
421
 16777215
 74
     1
 91
        0
 64
     7
 65
   257
 75
     1
175
     1
 42
1.0
 92
        8
 66
     7
 43
1.0
 76
     1
 77
     6
 78
     2
 67
     7
 79
     3
170
     0
171
     0
290
     0
174
     0
 93
       13
 44
0.0
173
     0
291
     0
 45
0.0
1001
ACAD
1000
AcDbSavedByObjectVersion
1070
     0
  0
DICTIONARYVAR
  5
184B
102
{ACAD_REACTORS
330
99
102
}
330
99
100
DictionaryVariables
280
     0
  1
1:1
  0
DICTIONARYVAR
  5
1847
102
{ACAD_REACTORS
330
99
102
}
330
99
100
DictionaryVariables
280
     0
  1
Standard
  0
DICTIONARYVAR
  5
3B4
102
{ACAD_REACTORS
330
99
102
}
330
99
100
DictionaryVariables
280
     0
  1
Standard
  0
DICTIONARYVAR
  5
1848
102
{ACAD_REACTORS
330
99
102
}
330
99
100
DictionaryVariables
280
     0
  1
Imperial24
  0
DICTIONARYVAR
  5
1849
102
{ACAD_REACTORS
330
99
102
}
330
99
100
DictionaryVariables
280
     0
  1
Imperial24
  0
DICTIONARYVAR
  5
9A
102
{ACAD_REACTORS
330
99
102
}
330
99
100
DictionaryVariables
280
     0
  1
1
  0
DICTIONARYVAR
  5
184D
102
{ACAD_REACTORS
330
99
102
}
330
99
100
DictionaryVariables
280
     0
  1
1
  0
DICTIONARYVAR
  5
184E
102
{ACAD_REACTORS
330
99
102
}
330
99
100
DictionaryVariables
280
     0
  1
15
  0
DICTIONARYVAR
  5
184C
102
{ACAD_REACTORS
330
99
102
}
330
99
100
DictionaryVariables
280
     0
  1
0
  0
DICTIONARYVAR
  5
184A
102
{ACAD_REACTORS
330
99
102
}
330
99
100
DictionaryVariables
280
     0
  1
0
  0
DICTIONARYVAR
  5
3B5
102
{ACAD_REACTORS
330
99
102
}
330
99
100
DictionaryVariables
280
     0
  1

  0
DICTIONARYVAR
  5
184F
102
{ACAD_REACTORS
330
99
102
}
330
99
100
DictionaryVariables
280
     0
  1
2
  0
DICTIONARY
  5
1845
330
1374
100
AcDbDictionary
280
     1
281
     1
  3
ACAD_XREC_ROUNDTRIP
360
1846
  0
DICTIONARY
  5
1852
330
1334
100
AcDbDictionary
280
     1
281
     1
  3
ACAD_XREC_ROUNDTRIP
360
1853
  0
DICTIONARY
  5
1854
330
132C
100
AcDbDictionary
280
     1
281
     1
  3
ACAD_XREC_ROUNDTRIP
360
1855
  0
DICTIONARY
  5
1856
330
133C
100
AcDbDictionary
280
     1
281
     1
  3
ACAD_XREC_ROUNDTRIP
360
1857
  0
DICTIONARY
  5
1843
330
1372
100
AcDbDictionary
280
     1
281
     1
  3
ACAD_XREC_ROUNDTRIP
360
1844
  0
DICTIONARY
  5
1858
330
9F
100
AcDbDictionary
280
     1
281
     1
  3
ACAD_ROUNDTRIP_2008_TABLESTYLE_CELLSTYLEMAP
360
185A
  3
ACAD_XREC_ROUNDTRIP
360
1859
  0
DICTIONARY
  5
185C
330
134A
100
AcDbDictionary
280
     1
281
     1
  3
ACAD_XREC_ROUNDTRIP
360
185D
  0
DICTIONARY
  5
185E
330
1349
100
AcDbDictionary
280
     1
281
     1
  3
ACAD_XREC_ROUNDTRIP
360
185F
  0
DICTIONARY
  5
1860
330
1350
100
AcDbDictionary
280
     1
281
     1
  3
ACAD_XREC_ROUNDTRIP
360
1861
  0
DICTIONARY
  5
1862
330
1354
100
AcDbDictionary
280
     1
281
     1
  3
ACAD_XREC_ROUNDTRIP
360
1863
  0
DICTIONARY
  5
1864
330
134D
100
AcDbDictionary
280
     1
281
     1
  3
ACAD_XREC_ROUNDTRIP
360
1865
  0
DICTIONARY
  5
1866
330
134F
100
AcDbDictionary
280
     1
281
     1
  3
ACAD_XREC_ROUNDTRIP
360
1867
  0
DICTIONARY
  5
1868
330
135C
100
AcDbDictionary
280
     1
281
     1
  3
ACAD_XREC_ROUNDTRIP
360
1869
  0
DICTIONARY
  5
186A
330
1353
100
AcDbDictionary
280
     1
281
     1
  3
ACAD_XREC_ROUNDTRIP
360
186B
  0
DICTIONARY
  5
186C
330
1345
100
AcDbDictionary
280
     1
281
     1
  3
ACAD_XREC_ROUNDTRIP
360
186D
  0
DICTIONARY
  5
186E
330
1346
100
AcDbDictionary
280
     1
281
     1
  3
ACAD_XREC_ROUNDTRIP
360
186F
  0
DICTIONARY
  5
1870
330
1347
100
AcDbDictionary
280
     1
281
     1
  3
ACAD_XREC_ROUNDTRIP
360
1871
  0
DICTIONARY
  5
1872
330
1348
100
AcDbDictionary
280
     1
281
     1
  3
ACAD_XREC_ROUNDTRIP
360
1873
  0
DICTIONARY
  5
1874
330
134C
100
AcDbDictionary
280
     1
281
     1
  3
ACAD_XREC_ROUNDTRIP
360
1875
  0
DICTIONARY
  5
1876
330
135A
100
AcDbDictionary
280
     1
281
     1
  3
ACAD_XREC_ROUNDTRIP
360
1877
  0
DICTIONARY
  5
1878
330
1352
100
AcDbDictionary
280
     1
281
     1
  3
ACAD_XREC_ROUNDTRIP
360
1879
  0
DICTIONARY
  5
187A
330
135B
100
AcDbDictionary
280
     1
281
     1
  3
ACAD_XREC_ROUNDTRIP
360
187B
  0
DICTIONARY
  5
187C
330
134E
100
AcDbDictionary
280
     1
281
     1
  3
ACAD_XREC_ROUNDTRIP
360
187D
  0
DICTIONARY
  5
187E
330
1359
100
AcDbDictionary
280
     1
281
     1
  3
ACAD_XREC_ROUNDTRIP
360
187F
  0
DICTIONARY
  5
1880
330
1358
100
AcDbDictionary
280
     1
281
     1
  3
ACAD_XREC_ROUNDTRIP
360
1881
  0
DICTIONARY
  5
1882
330
1355
100
AcDbDictionary
280
     1
281
     1
  3
ACAD_XREC_ROUNDTRIP
360
1883
  0
DICTIONARY
  5
1884
330
1356
100
AcDbDictionary
280
     1
281
     1
  3
ACAD_XREC_ROUNDTRIP
360
1885
  0
DICTIONARY
  5
1886
330
1351
100
AcDbDictionary
280
     1
281
     1
  3
ACAD_XREC_ROUNDTRIP
360
1887
  0
DICTIONARY
  5
1888
330
134B
100
AcDbDictionary
280
     1
281
     1
  3
ACAD_XREC_ROUNDTRIP
360
1889
  0
DICTIONARY
  5
188A
330
1357
100
AcDbDictionary
280
     1
281
     1
  3
ACAD_XREC_ROUNDTRIP
360
188B
  0
XRECORD
  5
1846
102
{ACAD_REACTORS
330
1845
102
}
330
1845
100
AcDbXrecord
280
     1
102
DISPLAYNAME
  1
Imperial24
102
FLAGS
 90
        0
  0
XRECORD
  5
1853
102
{ACAD_REACTORS
330
1852
102
}
330
1852
100
AcDbXrecord
280
     1
102
MATERIAL
148
0.0
149
0.0
149
0.0
 93
        0
 94
      127
282
     0
 72
     0
 77
     0
171
     0
175
     0
179
     0
273
     0
  0
XRECORD
  5
1855
102
{ACAD_REACTORS
330
1854
102
}
330
1854
100
AcDbXrecord
280
     1
102
MATERIAL
148
0.0
149
0.0
149
0.0
 93
        0
 94
      127
282
     0
 72
     0
 77
     0
171
     0
175
     0
179
     0
273
     0
  0
XRECORD
  5
1857
102
{ACAD_REACTORS
330
1856
102
}
330
1856
100
AcDbXrecord
280
     1
102
MATERIAL
148
0.0
149
0.0
149
0.0
 93
        0
 94
      127
282
     0
 72
     0
 77
     0
171
     0
175
     0
179
     0
273
     0
  0
XRECORD
  5
1844
102
{ACAD_REACTORS
330
1843
102
}
330
1843
100
AcDbXrecord
280
     1
102
DISPLAYNAME
  1
Imperial24
102
FLAGS
 90
        0
  0
CELLSTYLEMAP
  5
185A
102
{ACAD_REACTORS
330
1858
102
}
330
1858
100
AcDbCellStyleMap
 90
        3
300
CELLSTYLE
  1
TABLEFORMAT_BEGIN
 90
        5
170
     1
 91
        0
 92
    32768
 62
   257
 93
        1
300
CONTENTFORMAT
  1
CONTENTFORMAT_BEGIN
 90
        0
 91
        0
 92
        4
 93
        0
300

 40
0.0
140
1.0
 94
        5
 62
     0
340
F
144
0.25
309
CONTENTFORMAT_END
171
     0
 94
        6
 95
        1
302
GRIDFORMAT
  1
GRIDFORMAT_BEGIN
 90
        0
 91
        1
 62
     0
 92
       -2
340
0
 93
        0
 40
0.045
309
GRIDFORMAT_END
 95
        2
302
GRIDFORMAT
  1
GRIDFORMAT_BEGIN
 90
        0
 91
        1
 62
     0
 92
       -2
340
0
 93
        0
 40
0.045
309
GRIDFORMAT_END
 95
        4
302
GRIDFORMAT
  1
GRIDFORMAT_BEGIN
 90
        0
 91
        1
 62
     0
 92
       -2
340
0
 93
        0
 40
0.045
309
GRIDFORMAT_END
 95
        8
302
GRIDFORMAT
  1
GRIDFORMAT_BEGIN
 90
        0
 91
        1
 62
     0
 92
       -2
340
0
 93
        0
 40
0.045
309
GRIDFORMAT_END
 95
       16
302
GRIDFORMAT
  1
GRIDFORMAT_BEGIN
 90
        0
 91
        1
 62
     0
 92
       -2
340
0
 93
        0
 40
0.045
309
GRIDFORMAT_END
 95
       32
302
GRIDFORMAT
  1
GRIDFORMAT_BEGIN
 90
        0
 91
        1
 62
     0
 92
       -2
340
0
 93
        0
 40
0.045
309
GRIDFORMAT_END
309
TABLEFORMAT_END
  1
CELLSTYLE_BEGIN
 90
        1
 91
        1
300
_TITLE
309
CELLSTYLE_END
300
CELLSTYLE
  1
TABLEFORMAT_BEGIN
 90
        5
170
     1
 91
        0
 92
        0
 62
   257
 93
        1
300
CONTENTFORMAT
  1
CONTENTFORMAT_BEGIN
 90
        0
 91
        0
 92
        4
 93
        0
300

 40
0.0
140
1.0
 94
        5
 62
     0
340
F
144
0.18
309
CONTENTFORMAT_END
171
     0
 94
        6
 95
        1
302
GRIDFORMAT
  1
GRIDFORMAT_BEGIN
 90
        0
 91
        1
 62
     0
 92
       -2
340
0
 93
        0
 40
0.045
309
GRIDFORMAT_END
 95
        2
302
GRIDFORMAT
  1
GRIDFORMAT_BEGIN
 90
        0
 91
        1
 62
     0
 92
       -2
340
0
 93
        0
 40
0.045
309
GRIDFORMAT_END
 95
        4
302
GRIDFORMAT
  1
GRIDFORMAT_BEGIN
 90
        0
 91
        1
 62
     0
 92
       -2
340
0
 93
        0
 40
0.045
309
GRIDFORMAT_END
 95
        8
302
GRIDFORMAT
  1
GRIDFORMAT_BEGIN
 90
        0
 91
        1
 62
     0
 92
       -2
340
0
 93
        0
 40
0.045
309
GRIDFORMAT_END
 95
       16
302
GRIDFORMAT
  1
GRIDFORMAT_BEGIN
 90
        0
 91
        1
 62
     0
 92
       -2
340
0
 93
        0
 40
0.045
309
GRIDFORMAT_END
 95
       32
302
GRIDFORMAT
  1
GRIDFORMAT_BEGIN
 90
        0
 91
        1
 62
     0
 92
       -2
340
0
 93
        0
 40
0.045
309
GRIDFORMAT_END
309
TABLEFORMAT_END
  1
CELLSTYLE_BEGIN
 90
        2
 91
        1
300
_HEADER
309
CELLSTYLE_END
300
CELLSTYLE
  1
TABLEFORMAT_BEGIN
 90
        5
170
     1
 91
        0
 92
        0
 62
   257
 93
        1
300
CONTENTFORMAT
  1
CONTENTFORMAT_BEGIN
 90
        0
 91
        0
 92
        4
 93
        0
300

 40
0.0
140
1.0
 94
        2
 62
     0
340
F
144
0.18
309
CONTENTFORMAT_END
171
     0
 94
        6
 95
        1
302
GRIDFORMAT
  1
GRIDFORMAT_BEGIN
 90
        0
 91
        1
 62
     0
 92
       -2
340
0
 93
        0
 40
0.045
309
GRIDFORMAT_END
 95
        2
302
GRIDFORMAT
  1
GRIDFORMAT_BEGIN
 90
        0
 91
        1
 62
     0
 92
       -2
340
0
 93
        0
 40
0.045
309
GRIDFORMAT_END
 95
        4
302
GRIDFORMAT
  1
GRIDFORMAT_BEGIN
 90
        0
 91
        1
 62
     0
 92
       -2
340
0
 93
        0
 40
0.045
309
GRIDFORMAT_END
 95
        8
302
GRIDFORMAT
  1
GRIDFORMAT_BEGIN
 90
        0
 91
        1
 62
     0
 92
       -2
340
0
 93
        0
 40
0.045
309
GRIDFORMAT_END
 95
       16
302
GRIDFORMAT
  1
GRIDFORMAT_BEGIN
 90
        0
 91
        1
 62
     0
 92
       -2
340
0
 93
        0
 40
0.045
309
GRIDFORMAT_END
 95
       32
302
GRIDFORMAT
  1
GRIDFORMAT_BEGIN
 90
        0
 91
        1
 62
     0
 92
       -2
340
0
 93
        0
 40
0.045
309
GRIDFORMAT_END
309
TABLEFORMAT_END
  1
CELLSTYLE_BEGIN
 90
        3
 91
        2
300
_DATA
309
CELLSTYLE_END
  0
XRECORD
  5
1859
102
{ACAD_REACTORS
330
1858
102
}
330
1858
100
AcDbXrecord
280
     1
102
ACAD_ROUNDTRIP_PRE2007_TABLESTYLE
 90
        4
 91
        0
  1

 92
        4
 93
        0
  2

 94
        4
 95
        0
  3

  0
XRECORD
  5
185D
102
{ACAD_REACTORS
330
185C
102
}
330
185C
100
AcDbXrecord
280
     1
102
RTVSPropertyOp0
 70
     1
102
RTVSPropertyOp1
 70
     1
102
RTVSPropertyOp2
 70
     1
102
RTVSPropertyOp3
 70
     1
102
RTVSPropertyOp4
 70
     1
102
RTVSPropertyOp5
 70
     1
102
RTVSPropertyOp6
 70
     1
102
RTVSPropertyOp7
 70
     1
102
RTVSPropertyOp8
 70
     1
102
RTVSPropertyOp9
 70
     1
102
RTVSPropertyOp10
 70
     1
102
RTVSPropertyOp11
 70
     1
102
RTVSPropertyOp12
 70
     1
102
RTVSPropertyOp13
 70
     1
102
RTVSPropertyOp14
 70
     1
102
RTVSPropertyOp15
 70
     1
102
RTVSPropertyOp16
 70
     1
102
RTVSPropertyOp17
 70
     1
102
RTVSPropertyOp18
 70
     1
102
RTVSPropertyOp19
 70
     1
102
RTVSPropertyOp20
 70
     1
102
RTVSPropertyOp21
 70
     1
102
RTVSPropertyOp22
 70
     1
102
RTVSPropertyOp23
 70
     1
102
RTVSPropertyOp24
 70
     1
102
RTVSPropertyOp25
 70
     1
102
RTVSPropertyOp26
 70
     1
102
RTVSPropertyOp27
 70
     1
  0
XRECORD
  5
185F
102
{ACAD_REACTORS
330
185E
102
}
330
185E
100
AcDbXrecord
280
     1
102
RTVSPropertyOp0
 70
     1
102
RTVSPropertyOp1
 70
     1
102
RTVSPropertyOp2
 70
     1
102
RTVSPropertyOp3
 70
     1
102
RTVSPropertyOp4
 70
     1
102
RTVSPropertyOp5
 70
     1
102
RTVSPropertyOp6
 70
     1
102
RTVSPropertyOp7
 70
     1
102
RTVSPropertyOp8
 70
     1
102
RTVSPropertyOp9
 70
     1
102
RTVSPropertyOp10
 70
     1
102
RTVSPropertyOp11
 70
     1
102
RTVSPropertyOp12
 70
     1
102
RTVSPropertyOp13
 70
     1
102
RTVSPropertyOp14
 70
     1
102
RTVSPropertyOp15
 70
     1
102
RTVSPropertyOp16
 70
     1
102
RTVSPropertyOp17
 70
     1
102
RTVSPropertyOp18
 70
     1
102
RTVSPropertyOp19
 70
     1
102
RTVSPropertyOp20
 70
     1
102
RTVSPropertyOp21
 70
     1
102
RTVSPropertyOp22
 70
     1
102
RTVSPropertyOp23
 70
     1
102
RTVSPropertyOp24
 70
     1
102
RTVSPropertyOp25
 70
     1
102
RTVSPropertyOp26
 70
     1
102
RTVSPropertyOp27
 70
     1
  0
XRECORD
  5
1861
102
{ACAD_REACTORS
330
1860
102
}
330
1860
100
AcDbXrecord
280
     1
102
RTVSPropertyOp0
 70
     1
102
RTVSPropertyOp1
 70
     1
102
RTVSPropertyOp2
 70
     1
102
RTVSPropertyOp3
 70
     1
102
RTVSPropertyOp4
 70
     1
102
RTVSPropertyOp5
 70
     1
102
RTVSPropertyOp6
 70
     1
102
RTVSPropertyOp7
 70
     1
102
RTVSPropertyOp8
 70
     1
102
RTVSPropertyOp9
 70
     1
102
RTVSPropertyOp10
 70
     1
102
RTVSPropertyOp11
 70
     1
102
RTVSPropertyOp12
 70
     1
102
RTVSPropertyOp13
 70
     1
102
RTVSPropertyOp14
 70
     1
102
RTVSPropertyOp15
 70
     1
102
RTVSPropertyOp16
 70
     1
102
RTVSPropertyOp17
 70
     1
102
RTVSPropertyOp18
 70
     1
102
RTVSPropertyOp19
 70
     1
102
RTVSPropertyOp20
 70
     1
102
RTVSPropertyOp21
 70
     1
102
RTVSPropertyOp22
 70
     1
102
RTVSPropertyOp23
 70
     1
102
RTVSPropertyOp24
 70
     1
102
RTVSPropertyOp25
 70
     1
102
RTVSPropertyOp26
 70
     1
102
RTVSPropertyOp27
 70
     1
  0
XRECORD
  5
1863
102
{ACAD_REACTORS
330
1862
102
}
330
1862
100
AcDbXrecord
280
     1
102
RTVSPropertyOp0
 70
     1
102
RTVSPropertyOp1
 70
     1
102
RTVSPropertyOp2
 70
     1
102
RTVSPropertyOp3
 70
     1
102
RTVSPropertyOp4
 70
     1
102
RTVSPropertyOp5
 70
     1
102
RTVSPropertyOp6
 70
     1
102
RTVSPropertyOp7
 70
     1
102
RTVSPropertyOp8
 70
     1
102
RTVSPropertyOp9
 70
     1
102
RTVSPropertyOp10
 70
     1
102
RTVSPropertyOp11
 70
     1
102
RTVSPropertyOp12
 70
     1
102
RTVSPropertyOp13
 70
     1
102
RTVSPropertyOp14
 70
     1
102
RTVSPropertyOp15
 70
     1
102
RTVSPropertyOp16
 70
     1
102
RTVSPropertyOp17
 70
     1
102
RTVSPropertyOp18
 70
     1
102
RTVSPropertyOp19
 70
     1
102
RTVSPropertyOp20
 70
     1
102
RTVSPropertyOp21
 70
     1
102
RTVSPropertyOp22
 70
     1
102
RTVSPropertyOp23
 70
     1
102
RTVSPropertyOp24
 70
     1
102
RTVSPropertyOp25
 70
     1
102
RTVSPropertyOp26
 70
     1
102
RTVSPropertyOp27
 70
     1
  0
XRECORD
  5
1865
102
{ACAD_REACTORS
330
1864
102
}
330
1864
100
AcDbXrecord
280
     1
102
RTVSPropertyOp0
 70
     1
102
RTVSPropertyOp1
 70
     1
102
RTVSPropertyOp2
 70
     1
102
RTVSPropertyOp3
 70
     1
102
RTVSPropertyOp4
 70
     1
102
RTVSPropertyOp5
 70
     1
102
RTVSPropertyOp6
 70
     1
102
RTVSPropertyOp7
 70
     1
102
RTVSPropertyOp8
 70
     1
102
RTVSPropertyOp9
 70
     1
102
RTVSPropertyOp10
 70
     1
102
RTVSPropertyOp11
 70
     1
102
RTVSPropertyOp12
 70
     1
102
RTVSPropertyOp13
 70
     1
102
RTVSPropertyOp14
 70
     1
102
RTVSPropertyOp15
 70
     1
102
RTVSPropertyOp16
 70
     1
102
RTVSPropertyOp17
 70
     1
102
RTVSPropertyOp18
 70
     1
102
RTVSPropertyOp19
 70
     1
102
RTVSPropertyOp20
 70
     1
102
RTVSPropertyOp21
 70
     1
102
RTVSPropertyOp22
 70
     1
102
RTVSPropertyOp23
 70
     1
102
RTVSPropertyOp24
 70
     1
102
RTVSPropertyOp25
 70
     1
102
RTVSPropertyOp26
 70
     1
102
RTVSPropertyOp27
 70
     1
  0
XRECORD
  5
1867
102
{ACAD_REACTORS
330
1866
102
}
330
1866
100
AcDbXrecord
280
     1
102
RTVSPropertyOp0
 70
     1
102
RTVSPropertyOp1
 70
     1
102
RTVSPropertyOp2
 70
     1
102
RTVSPropertyOp3
 70
     1
102
RTVSPropertyOp4
 70
     1
102
RTVSPropertyOp5
 70
     1
102
RTVSPropertyOp6
 70
     1
102
RTVSPropertyOp7
 70
     1
102
RTVSPropertyOp8
 70
     1
102
RTVSPropertyOp9
 70
     1
102
RTVSPropertyOp10
 70
     1
102
RTVSPropertyOp11
 70
     1
102
RTVSPropertyOp12
 70
     1
102
RTVSPropertyOp13
 70
     1
102
RTVSPropertyOp14
 70
     1
102
RTVSPropertyOp15
 70
     1
102
RTVSPropertyOp16
 70
     1
102
RTVSPropertyOp17
 70
     1
102
RTVSPropertyOp18
 70
     1
102
RTVSPropertyOp19
 70
     1
102
RTVSPropertyOp20
 70
     1
102
RTVSPropertyOp21
 70
     1
102
RTVSPropertyOp22
 70
     1
102
RTVSPropertyOp23
 70
     1
102
RTVSPropertyOp24
 70
     1
102
RTVSPropertyOp25
 70
     1
102
RTVSPropertyOp26
 70
     1
102
RTVSPropertyOp27
 70
     1
  0
XRECORD
  5
1869
102
{ACAD_REACTORS
330
1868
102
}
330
1868
100
AcDbXrecord
280
     1
102
RTVSPropertyOp0
 70
     1
102
RTVSPropertyOp1
 70
     1
102
RTVSPropertyOp2
 70
     1
102
RTVSPropertyOp3
 70
     1
102
RTVSPropertyOp4
 70
     1
102
RTVSPropertyOp5
 70
     1
102
RTVSPropertyOp6
 70
     1
102
RTVSPropertyOp7
 70
     1
102
RTVSPropertyOp8
 70
     1
102
RTVSPropertyOp9
 70
     1
102
RTVSPropertyOp10
 70
     1
102
RTVSPropertyOp11
 70
     1
102
RTVSPropertyOp12
 70
     1
102
RTVSPropertyOp13
 70
     1
102
RTVSPropertyOp14
 70
     1
102
RTVSPropertyOp15
 70
     1
102
RTVSPropertyOp16
 70
     1
102
RTVSPropertyOp17
 70
     1
102
RTVSPropertyOp18
 70
     1
102
RTVSPropertyOp19
 70
     1
102
RTVSPropertyOp20
 70
     1
102
RTVSPropertyOp21
 70
     1
102
RTVSPropertyOp22
 70
     1
102
RTVSPropertyOp23
 70
     1
102
RTVSPropertyOp24
 70
     1
102
RTVSPropertyOp25
 70
     1
102
RTVSPropertyOp26
 70
     1
102
RTVSPropertyOp27
 70
     1
  0
XRECORD
  5
186B
102
{ACAD_REACTORS
330
186A
102
}
330
186A
100
AcDbXrecord
280
     1
102
RTVSPropertyOp0
 70
     1
102
RTVSPropertyOp1
 70
     1
102
RTVSPropertyOp2
 70
     1
102
RTVSPropertyOp3
 70
     1
102
RTVSPropertyOp4
 70
     1
102
RTVSPropertyOp5
 70
     1
102
RTVSPropertyOp6
 70
     1
102
RTVSPropertyOp7
 70
     1
102
RTVSPropertyOp8
 70
     1
102
RTVSPropertyOp9
 70
     1
102
RTVSPropertyOp10
 70
     1
102
RTVSPropertyOp11
 70
     1
102
RTVSPropertyOp12
 70
     1
102
RTVSPropertyOp13
 70
     1
102
RTVSPropertyOp14
 70
     1
102
RTVSPropertyOp15
 70
     1
102
RTVSPropertyOp16
 70
     1
102
RTVSPropertyOp17
 70
     1
102
RTVSPropertyOp18
 70
     1
102
RTVSPropertyOp19
 70
     1
102
RTVSPropertyOp20
 70
     1
102
RTVSPropertyOp21
 70
     1
102
RTVSPropertyOp22
 70
     1
102
RTVSPropertyOp23
 70
     1
102
RTVSPropertyOp24
 70
     1
102
RTVSPropertyOp25
 70
     1
102
RTVSPropertyOp26
 70
     1
102
RTVSPropertyOp27
 70
     1
  0
XRECORD
  5
186D
102
{ACAD_REACTORS
330
186C
102
}
330
186C
100
AcDbXrecord
280
     1
102
RTVSPropertyOp0
 70
     1
102
RTVSPropertyOp1
 70
     1
102
RTVSPropertyOp2
 70
     1
102
RTVSPropertyOp3
 70
     1
102
RTVSPropertyOp4
 70
     1
102
RTVSPropertyOp5
 70
     1
102
RTVSPropertyOp6
 70
     1
102
RTVSPropertyOp7
 70
     1
102
RTVSPropertyOp8
 70
     1
102
RTVSPropertyOp9
 70
     1
102
RTVSPropertyOp10
 70
     1
102
RTVSPropertyOp11
 70
     1
102
RTVSPropertyOp12
 70
     1
102
RTVSPropertyOp13
 70
     1
102
RTVSPropertyOp14
 70
     1
102
RTVSPropertyOp15
 70
     1
102
RTVSPropertyOp16
 70
     1
102
RTVSPropertyOp17
 70
     1
102
RTVSPropertyOp18
 70
     1
102
RTVSPropertyOp19
 70
     1
102
RTVSPropertyOp20
 70
     1
102
RTVSPropertyOp21
 70
     1
102
RTVSPropertyOp22
 70
     1
102
RTVSPropertyOp23
 70
     1
102
RTVSPropertyOp24
 70
     1
102
RTVSPropertyOp25
 70
     1
102
RTVSPropertyOp26
 70
     1
102
RTVSPropertyOp27
 70
     1
  0
XRECORD
  5
186F
102
{ACAD_REACTORS
330
186E
102
}
330
186E
100
AcDbXrecord
280
     1
102
RTVSPropertyOp0
 70
     1
102
RTVSPropertyOp1
 70
     1
102
RTVSPropertyOp2
 70
     1
102
RTVSPropertyOp3
 70
     1
102
RTVSPropertyOp4
 70
     1
102
RTVSPropertyOp5
 70
     1
102
RTVSPropertyOp6
 70
     1
102
RTVSPropertyOp7
 70
     1
102
RTVSPropertyOp8
 70
     1
102
RTVSPropertyOp9
 70
     1
102
RTVSPropertyOp10
 70
     1
102
RTVSPropertyOp11
 70
     1
102
RTVSPropertyOp12
 70
     1
102
RTVSPropertyOp13
 70
     1
102
RTVSPropertyOp14
 70
     1
102
RTVSPropertyOp15
 70
     1
102
RTVSPropertyOp16
 70
     1
102
RTVSPropertyOp17
 70
     1
102
RTVSPropertyOp18
 70
     1
102
RTVSPropertyOp19
 70
     1
102
RTVSPropertyOp20
 70
     1
102
RTVSPropertyOp21
 70
     1
102
RTVSPropertyOp22
 70
     1
102
RTVSPropertyOp23
 70
     1
102
RTVSPropertyOp24
 70
     1
102
RTVSPropertyOp25
 70
     1
102
RTVSPropertyOp26
 70
     1
102
RTVSPropertyOp27
 70
     1
  0
XRECORD
  5
1871
102
{ACAD_REACTORS
330
1870
102
}
330
1870
100
AcDbXrecord
280
     1
102
RTVSPropertyOp0
 70
     1
102
RTVSPropertyOp1
 70
     1
102
RTVSPropertyOp2
 70
     1
102
RTVSPropertyOp3
 70
     1
102
RTVSPropertyOp4
 70
     1
102
RTVSPropertyOp5
 70
     1
102
RTVSPropertyOp6
 70
     1
102
RTVSPropertyOp7
 70
     1
102
RTVSPropertyOp8
 70
     1
102
RTVSPropertyOp9
 70
     1
102
RTVSPropertyOp10
 70
     1
102
RTVSPropertyOp11
 70
     1
102
RTVSPropertyOp12
 70
     1
102
RTVSPropertyOp13
 70
     1
102
RTVSPropertyOp14
 70
     1
102
RTVSPropertyOp15
 70
     1
102
RTVSPropertyOp16
 70
     1
102
RTVSPropertyOp17
 70
     1
102
RTVSPropertyOp18
 70
     1
102
RTVSPropertyOp19
 70
     1
102
RTVSPropertyOp20
 70
     1
102
RTVSPropertyOp21
 70
     1
102
RTVSPropertyOp22
 70
     1
102
RTVSPropertyOp23
 70
     1
102
RTVSPropertyOp24
 70
     1
102
RTVSPropertyOp25
 70
     1
102
RTVSPropertyOp26
 70
     1
102
RTVSPropertyOp27
 70
     1
  0
XRECORD
  5
1873
102
{ACAD_REACTORS
330
1872
102
}
330
1872
100
AcDbXrecord
280
     1
102
RTVSPropertyOp0
 70
     1
102
RTVSPropertyOp1
 70
     1
102
RTVSPropertyOp2
 70
     1
102
RTVSPropertyOp3
 70
     1
102
RTVSPropertyOp4
 70
     1
102
RTVSPropertyOp5
 70
     1
102
RTVSPropertyOp6
 70
     1
102
RTVSPropertyOp7
 70
     1
102
RTVSPropertyOp8
 70
     1
102
RTVSPropertyOp9
 70
     1
102
RTVSPropertyOp10
 70
     1
102
RTVSPropertyOp11
 70
     1
102
RTVSPropertyOp12
 70
     1
102
RTVSPropertyOp13
 70
     1
102
RTVSPropertyOp14
 70
     1
102
RTVSPropertyOp15
 70
     1
102
RTVSPropertyOp16
 70
     1
102
RTVSPropertyOp17
 70
     1
102
RTVSPropertyOp18
 70
     1
102
RTVSPropertyOp19
 70
     1
102
RTVSPropertyOp20
 70
     1
102
RTVSPropertyOp21
 70
     1
102
RTVSPropertyOp22
 70
     1
102
RTVSPropertyOp23
 70
     1
102
RTVSPropertyOp24
 70
     1
102
RTVSPropertyOp25
 70
     1
102
RTVSPropertyOp26
 70
     1
102
RTVSPropertyOp27
 70
     1
  0
XRECORD
  5
1875
102
{ACAD_REACTORS
330
1874
102
}
330
1874
100
AcDbXrecord
280
     1
102
RTVSPropertyOp0
 70
     1
102
RTVSPropertyOp1
 70
     1
102
RTVSPropertyOp2
 70
     1
102
RTVSPropertyOp3
 70
     1
102
RTVSPropertyOp4
 70
     1
102
RTVSPropertyOp5
 70
     1
102
RTVSPropertyOp6
 70
     1
102
RTVSPropertyOp7
 70
     1
102
RTVSPropertyOp8
 70
     1
102
RTVSPropertyOp9
 70
     1
102
RTVSPropertyOp10
 70
     1
102
RTVSPropertyOp11
 70
     1
102
RTVSPropertyOp12
 70
     1
102
RTVSPropertyOp13
 70
     1
102
RTVSPropertyOp14
 70
     1
102
RTVSPropertyOp15
 70
     1
102
RTVSPropertyOp16
 70
     1
102
RTVSPropertyOp17
 70
     1
102
RTVSPropertyOp18
 70
     1
102
RTVSPropertyOp19
 70
     1
102
RTVSPropertyOp20
 70
     1
102
RTVSPropertyOp21
 70
     1
102
RTVSPropertyOp22
 70
     1
102
RTVSPropertyOp23
 70
     1
102
RTVSPropertyOp24
 70
     1
102
RTVSPropertyOp25
 70
     1
102
RTVSPropertyOp26
 70
     1
102
RTVSPropertyOp27
 70
     1
  0
XRECORD
  5
1877
102
{ACAD_REACTORS
330
1876
102
}
330
1876
100
AcDbXrecord
280
     1
102
RTVSPropertyOp0
 70
     1
102
RTVSPropertyOp1
 70
     1
102
RTVSPropertyOp2
 70
     1
102
RTVSPropertyOp3
 70
     1
102
RTVSPropertyOp4
 70
     1
102
RTVSPropertyOp5
 70
     1
102
RTVSPropertyOp6
 70
     1
102
RTVSPropertyOp7
 70
     1
102
RTVSPropertyOp8
 70
     1
102
RTVSPropertyOp9
 70
     1
102
RTVSPropertyOp10
 70
     1
102
RTVSPropertyOp11
 70
     1
102
RTVSPropertyOp12
 70
     1
102
RTVSPropertyOp13
 70
     1
102
RTVSPropertyOp14
 70
     1
102
RTVSPropertyOp15
 70
     1
102
RTVSPropertyOp16
 70
     1
102
RTVSPropertyOp17
 70
     1
102
RTVSPropertyOp18
 70
     1
102
RTVSPropertyOp19
 70
     1
102
RTVSPropertyOp20
 70
     1
102
RTVSPropertyOp21
 70
     1
102
RTVSPropertyOp22
 70
     1
102
RTVSPropertyOp23
 70
     1
102
RTVSPropertyOp24
 70
     1
102
RTVSPropertyOp25
 70
     1
102
RTVSPropertyOp26
 70
     1
102
RTVSPropertyOp27
 70
     1
  0
XRECORD
  5
1879
102
{ACAD_REACTORS
330
1878
102
}
330
1878
100
AcDbXrecord
280
     1
102
RTVSPropertyOp0
 70
     1
102
RTVSPropertyOp1
 70
     1
102
RTVSPropertyOp2
 70
     1
102
RTVSPropertyOp3
 70
     1
102
RTVSPropertyOp4
 70
     1
102
RTVSPropertyOp5
 70
     1
102
RTVSPropertyOp6
 70
     1
102
RTVSPropertyOp7
 70
     1
102
RTVSPropertyOp8
 70
     1
102
RTVSPropertyOp9
 70
     1
102
RTVSPropertyOp10
 70
     1
102
RTVSPropertyOp11
 70
     1
102
RTVSPropertyOp12
 70
     1
102
RTVSPropertyOp13
 70
     1
102
RTVSPropertyOp14
 70
     1
102
RTVSPropertyOp15
 70
     1
102
RTVSPropertyOp16
 70
     1
102
RTVSPropertyOp17
 70
     1
102
RTVSPropertyOp18
 70
     1
102
RTVSPropertyOp19
 70
     1
102
RTVSPropertyOp20
 70
     1
102
RTVSPropertyOp21
 70
     1
102
RTVSPropertyOp22
 70
     1
102
RTVSPropertyOp23
 70
     1
102
RTVSPropertyOp24
 70
     1
102
RTVSPropertyOp25
 70
     1
102
RTVSPropertyOp26
 70
     1
102
RTVSPropertyOp27
 70
     1
  0
XRECORD
  5
187B
102
{ACAD_REACTORS
330
187A
102
}
330
187A
100
AcDbXrecord
280
     1
102
RTVSPropertyOp0
 70
     1
102
RTVSPropertyOp1
 70
     1
102
RTVSPropertyOp2
 70
     1
102
RTVSPropertyOp3
 70
     1
102
RTVSPropertyOp4
 70
     1
102
RTVSPropertyOp5
 70
     1
102
RTVSPropertyOp6
 70
     1
102
RTVSPropertyOp7
 70
     1
102
RTVSPropertyOp8
 70
     1
102
RTVSPropertyOp9
 70
     1
102
RTVSPropertyOp10
 70
     1
102
RTVSPropertyOp11
 70
     1
102
RTVSPropertyOp12
 70
     1
102
RTVSPropertyOp13
 70
     1
102
RTVSPropertyOp14
 70
     1
102
RTVSPropertyOp15
 70
     1
102
RTVSPropertyOp16
 70
     1
102
RTVSPropertyOp17
 70
     1
102
RTVSPropertyOp18
 70
     1
102
RTVSPropertyOp19
 70
     1
102
RTVSPropertyOp20
 70
     1
102
RTVSPropertyOp21
 70
     1
102
RTVSPropertyOp22
 70
     1
102
RTVSPropertyOp23
 70
     1
102
RTVSPropertyOp24
 70
     1
102
RTVSPropertyOp25
 70
     1
102
RTVSPropertyOp26
 70
     1
102
RTVSPropertyOp27
 70
     1
  0
XRECORD
  5
187D
102
{ACAD_REACTORS
330
187C
102
}
330
187C
100
AcDbXrecord
280
     1
102
RTVSPropertyOp0
 70
     1
102
RTVSPropertyOp1
 70
     1
102
RTVSPropertyOp2
 70
     1
102
RTVSPropertyOp3
 70
     1
102
RTVSPropertyOp4
 70
     1
102
RTVSPropertyOp5
 70
     1
102
RTVSPropertyOp6
 70
     1
102
RTVSPropertyOp7
 70
     1
102
RTVSPropertyOp8
 70
     1
102
RTVSPropertyOp9
 70
     1
102
RTVSPropertyOp10
 70
     1
102
RTVSPropertyOp11
 70
     1
102
RTVSPropertyOp12
 70
     1
102
RTVSPropertyOp13
 70
     1
102
RTVSPropertyOp14
 70
     1
102
RTVSPropertyOp15
 70
     1
102
RTVSPropertyOp16
 70
     1
102
RTVSPropertyOp17
 70
     1
102
RTVSPropertyOp18
 70
     1
102
RTVSPropertyOp19
 70
     1
102
RTVSPropertyOp20
 70
     1
102
RTVSPropertyOp21
 70
     1
102
RTVSPropertyOp22
 70
     1
102
RTVSPropertyOp23
 70
     1
102
RTVSPropertyOp24
 70
     1
102
RTVSPropertyOp25
 70
     1
102
RTVSPropertyOp26
 70
     1
102
RTVSPropertyOp27
 70
     1
  0
XRECORD
  5
187F
102
{ACAD_REACTORS
330
187E
102
}
330
187E
100
AcDbXrecord
280
     1
102
RTVSPropertyOp0
 70
     1
102
RTVSPropertyOp1
 70
     1
102
RTVSPropertyOp2
 70
     1
102
RTVSPropertyOp3
 70
     1
102
RTVSPropertyOp4
 70
     1
102
RTVSPropertyOp5
 70
     1
102
RTVSPropertyOp6
 70
     1
102
RTVSPropertyOp7
 70
     1
102
RTVSPropertyOp8
 70
     1
102
RTVSPropertyOp9
 70
     1
102
RTVSPropertyOp10
 70
     1
102
RTVSPropertyOp11
 70
     1
102
RTVSPropertyOp12
 70
     1
102
RTVSPropertyOp13
 70
     1
102
RTVSPropertyOp14
 70
     1
102
RTVSPropertyOp15
 70
     1
102
RTVSPropertyOp16
 70
     1
102
RTVSPropertyOp17
 70
     1
102
RTVSPropertyOp18
 70
     1
102
RTVSPropertyOp19
 70
     1
102
RTVSPropertyOp20
 70
     1
102
RTVSPropertyOp21
 70
     1
102
RTVSPropertyOp22
 70
     1
102
RTVSPropertyOp23
 70
     1
102
RTVSPropertyOp24
 70
     1
102
RTVSPropertyOp25
 70
     1
102
RTVSPropertyOp26
 70
     1
102
RTVSPropertyOp27
 70
     1
  0
XRECORD
  5
1881
102
{ACAD_REACTORS
330
1880
102
}
330
1880
100
AcDbXrecord
280
     1
102
RTVSPropertyOp0
 70
     1
102
RTVSPropertyOp1
 70
     1
102
RTVSPropertyOp2
 70
     1
102
RTVSPropertyOp3
 70
     1
102
RTVSPropertyOp4
 70
     1
102
RTVSPropertyOp5
 70
     1
102
RTVSPropertyOp6
 70
     1
102
RTVSPropertyOp7
 70
     1
102
RTVSPropertyOp8
 70
     1
102
RTVSPropertyOp9
 70
     1
102
RTVSPropertyOp10
 70
     1
102
RTVSPropertyOp11
 70
     1
102
RTVSPropertyOp12
 70
     1
102
RTVSPropertyOp13
 70
     1
102
RTVSPropertyOp14
 70
     1
102
RTVSPropertyOp15
 70
     1
102
RTVSPropertyOp16
 70
     1
102
RTVSPropertyOp17
 70
     1
102
RTVSPropertyOp18
 70
     1
102
RTVSPropertyOp19
 70
     1
102
RTVSPropertyOp20
 70
     1
102
RTVSPropertyOp21
 70
     1
102
RTVSPropertyOp22
 70
     1
102
RTVSPropertyOp23
 70
     1
102
RTVSPropertyOp24
 70
     1
102
RTVSPropertyOp25
 70
     1
102
RTVSPropertyOp26
 70
     1
102
RTVSPropertyOp27
 70
     1
  0
XRECORD
  5
1883
102
{ACAD_REACTORS
330
1882
102
}
330
1882
100
AcDbXrecord
280
     1
102
RTVSPropertyOp0
 70
     1
102
RTVSPropertyOp1
 70
     1
102
RTVSPropertyOp2
 70
     1
102
RTVSPropertyOp3
 70
     1
102
RTVSPropertyOp4
 70
     1
102
RTVSPropertyOp5
 70
     1
102
RTVSPropertyOp6
 70
     1
102
RTVSPropertyOp7
 70
     1
102
RTVSPropertyOp8
 70
     1
102
RTVSPropertyOp9
 70
     1
102
RTVSPropertyOp10
 70
     1
102
RTVSPropertyOp11
 70
     1
102
RTVSPropertyOp12
 70
     1
102
RTVSPropertyOp13
 70
     1
102
RTVSPropertyOp14
 70
     1
102
RTVSPropertyOp15
 70
     1
102
RTVSPropertyOp16
 70
     1
102
RTVSPropertyOp17
 70
     1
102
RTVSPropertyOp18
 70
     1
102
RTVSPropertyOp19
 70
     1
102
RTVSPropertyOp20
 70
     1
102
RTVSPropertyOp21
 70
     1
102
RTVSPropertyOp22
 70
     1
102
RTVSPropertyOp23
 70
     1
102
RTVSPropertyOp24
 70
     1
102
RTVSPropertyOp25
 70
     1
102
RTVSPropertyOp26
 70
     1
102
RTVSPropertyOp27
 70
     1
  0
XRECORD
  5
1885
102
{ACAD_REACTORS
330
1884
102
}
330
1884
100
AcDbXrecord
280
     1
102
RTVSPropertyOp0
 70
     1
102
RTVSPropertyOp1
 70
     1
102
RTVSPropertyOp2
 70
     1
102
RTVSPropertyOp3
 70
     1
102
RTVSPropertyOp4
 70
     1
102
RTVSPropertyOp5
 70
     1
102
RTVSPropertyOp6
 70
     1
102
RTVSPropertyOp7
 70
     1
102
RTVSPropertyOp8
 70
     1
102
RTVSPropertyOp9
 70
     1
102
RTVSPropertyOp10
 70
     1
102
RTVSPropertyOp11
 70
     1
102
RTVSPropertyOp12
 70
     1
102
RTVSPropertyOp13
 70
     1
102
RTVSPropertyOp14
 70
     1
102
RTVSPropertyOp15
 70
     1
102
RTVSPropertyOp16
 70
     1
102
RTVSPropertyOp17
 70
     1
102
RTVSPropertyOp18
 70
     1
102
RTVSPropertyOp19
 70
     1
102
RTVSPropertyOp20
 70
     1
102
RTVSPropertyOp21
 70
     1
102
RTVSPropertyOp22
 70
     1
102
RTVSPropertyOp23
 70
     1
102
RTVSPropertyOp24
 70
     1
102
RTVSPropertyOp25
 70
     1
102
RTVSPropertyOp26
 70
     1
102
RTVSPropertyOp27
 70
     1
  0
XRECORD
  5
1887
102
{ACAD_REACTORS
330
1886
102
}
330
1886
100
AcDbXrecord
280
     1
102
RTVSPropertyOp0
 70
     1
102
RTVSPropertyOp1
 70
     1
102
RTVSPropertyOp2
 70
     1
102
RTVSPropertyOp3
 70
     1
102
RTVSPropertyOp4
 70
     1
102
RTVSPropertyOp5
 70
     1
102
RTVSPropertyOp6
 70
     1
102
RTVSPropertyOp7
 70
     1
102
RTVSPropertyOp8
 70
     1
102
RTVSPropertyOp9
 70
     1
102
RTVSPropertyOp10
 70
     1
102
RTVSPropertyOp11
 70
     1
102
RTVSPropertyOp12
 70
     1
102
RTVSPropertyOp13
 70
     1
102
RTVSPropertyOp14
 70
     1
102
RTVSPropertyOp15
 70
     1
102
RTVSPropertyOp16
 70
     1
102
RTVSPropertyOp17
 70
     1
102
RTVSPropertyOp18
 70
     1
102
RTVSPropertyOp19
 70
     1
102
RTVSPropertyOp20
 70
     1
102
RTVSPropertyOp21
 70
     1
102
RTVSPropertyOp22
 70
     1
102
RTVSPropertyOp23
 70
     1
102
RTVSPropertyOp24
 70
     1
102
RTVSPropertyOp25
 70
     1
102
RTVSPropertyOp26
 70
     1
102
RTVSPropertyOp27
 70
     1
  0
XRECORD
  5
1889
102
{ACAD_REACTORS
330
1888
102
}
330
1888
100
AcDbXrecord
280
     1
102
RTVSPropertyOp0
 70
     1
102
RTVSPropertyOp1
 70
     1
102
RTVSPropertyOp2
 70
     1
102
RTVSPropertyOp3
 70
     1
102
RTVSPropertyOp4
 70
     1
102
RTVSPropertyOp5
 70
     1
102
RTVSPropertyOp6
 70
     1
102
RTVSPropertyOp7
 70
     1
102
RTVSPropertyOp8
 70
     1
102
RTVSPropertyOp9
 70
     1
102
RTVSPropertyOp10
 70
     1
102
RTVSPropertyOp11
 70
     1
102
RTVSPropertyOp12
 70
     1
102
RTVSPropertyOp13
 70
     1
102
RTVSPropertyOp14
 70
     1
102
RTVSPropertyOp15
 70
     1
102
RTVSPropertyOp16
 70
     1
102
RTVSPropertyOp17
 70
     1
102
RTVSPropertyOp18
 70
     1
102
RTVSPropertyOp19
 70
     1
102
RTVSPropertyOp20
 70
     1
102
RTVSPropertyOp21
 70
     1
102
RTVSPropertyOp22
 70
     1
102
RTVSPropertyOp23
 70
     1
102
RTVSPropertyOp24
 70
     1
102
RTVSPropertyOp25
 70
     1
102
RTVSPropertyOp26
 70
     1
102
RTVSPropertyOp27
 70
     1
  0
XRECORD
  5
188B
102
{ACAD_REACTORS
330
188A
102
}
330
188A
100
AcDbXrecord
280
     1
102
RTVSPropertyOp0
 70
     1
102
RTVSPropertyOp1
 70
     1
102
RTVSPropertyOp2
 70
     1
102
RTVSPropertyOp3
 70
     1
102
RTVSPropertyOp4
 70
     1
102
RTVSPropertyOp5
 70
     1
102
RTVSPropertyOp6
 70
     1
102
RTVSPropertyOp7
 70
     1
102
RTVSPropertyOp8
 70
     1
102
RTVSPropertyOp9
 70
     1
102
RTVSPropertyOp10
 70
     1
102
RTVSPropertyOp11
 70
     1
102
RTVSPropertyOp12
 70
     1
102
RTVSPropertyOp13
 70
     1
102
RTVSPropertyOp14
 70
     1
102
RTVSPropertyOp15
 70
     1
102
RTVSPropertyOp16
 70
     1
102
RTVSPropertyOp17
 70
     1
102
RTVSPropertyOp18
 70
     1
102
RTVSPropertyOp19
 70
     1
102
RTVSPropertyOp20
 70
     1
102
RTVSPropertyOp21
 70
     1
102
RTVSPropertyOp22
 70
     1
102
RTVSPropertyOp23
 70
     1
102
RTVSPropertyOp24
 70
     1
102
RTVSPropertyOp25
 70
     1
102
RTVSPropertyOp26
 70
     1
102
RTVSPropertyOp27
 70
     1
  0
ENDSEC
  0
EOF
