  0
SECTION
  2
HEADER
  9
$ACADVER
  1
AC1018
  9
$ACADMAINTVER
 70
     0
  9
$DWGCODEPAGE
  3
ANSI_932
  9
$LASTSAVEDBY
  1
shinwa
  9
$INSBASE
 10
0.0
 20
0.0
 30
0.0
  9
$EXTMIN
 10
-2193.731105764331
 20
-0.0000000000000142
 30
0.0
  9
$EXTMAX
 10
7980.0
 20
7622.01325251404
 30
0.0
  9
$LIMMIN
 10
0.0
 20
0.0
  9
$LIMMAX
 10
8400.0
 20
5940.0
  9
$ORTHOMODE
 70
     1
  9
$REGENMODE
 70
     1
  9
$FILLMODE
 70
     1
  9
$QTEXTMODE
 70
     0
  9
$MIRRTEXT
 70
     1
  9
$LTSCALE
 40
200.0
  9
$ATTMODE
 70
     1
  9
$TEXTSIZE
 40
60.0
  9
$TRACEWID
 40
0.05
  9
$TEXTSTYLE
  7
STANDARD
  9
$CLAYER
  8
SUNPOU
  9
$CELTYPE
  6
BYLAYER
  9
$CECOLOR
 62
   256
  9
$CELTSCALE
 40
1.0
  9
$DISPSILH
 70
     0
  9
$DIMSCALE
 40
20.0
  9
$DIMASZ
 40
2.0
  9
$DIMEXO
 40
2.0
  9
$DIMDLI
 40
7.0
  9
$DIMRND
 40
0.0
  9
$DIMDLE
 40
0.0
  9
$DIMEXE
 40
0.5
  9
$DIMTP
 40
0.0
  9
$DIMTM
 40
0.0
  9
$DIMTXT
 40
3.0
  9
$DIMCEN
 40
0.0
  9
$DIMTSZ
 40
0.0
  9
$DIMTOL
 70
     0
  9
$DIMLIM
 70
     0
  9
$DIMTIH
 70
     0
  9
$DIMTOH
 70
     0
  9
$DIMSE1
 70
     0
  9
$DIMSE2
 70
     0
  9
$DIMTAD
 70
     1
  9
$DIMZIN
 70
     8
  9
$DIMBLK
  1

  9
$DIMASO
 70
     1
  9
$DIMSHO
 70
     1
  9
$DIMPOST
  1

  9
$DIMAPOST
  1

  9
$DIMALT
 70
     0
  9
$DIMALTD
 70
     2
  9
$DIMALTF
 40
25.4
  9
$DIMLFAC
 40
1.0
  9
$DIMTOFL
 70
     0
  9
$DIMTVP
 40
1.0
  9
$DIMTIX
 70
     1
  9
$DIMSOXD
 70
     0
  9
$DIMSAH
 70
     0
  9
$DIMBLK1
  1

  9
$DIMBLK2
  1

  9
$DIMSTYLE
  2
A3-20
  9
$DIMCLRD
 70
     0
  9
$DIMCLRE
 70
     0
  9
$DIMCLRT
 70
     0
  9
$DIMTFAC
 40
1.0
  9
$DIMGAP
 40
0.8
  9
$DIMJUST
 70
     0
  9
$DIMSD1
 70
     0
  9
$DIMSD2
 70
     0
  9
$DIMTOLJ
 70
     1
  9
$DIMTZIN
 70
     8
  9
$DIMALTZ
 70
     8
  9
$DIMALTTZ
 70
     8
  9
$DIMUPT
 70
     0
  9
$DIMDEC
 70
     0
  9
$DIMTDEC
 70
     0
  9
$DIMALTU
 70
     2
  9
$DIMALTTD
 70
     2
  9
$DIMTXSTY
  7
STANDARD
  9
$DIMAUNIT
 70
     0
  9
$DIMADEC
 70
     4
  9
$DIMALTRND
 40
0.0
  9
$DIMAZIN
 70
     0
  9
$DIMDSEP
 70
    46
  9
$DIMATFIT
 70
     3
  9
$DIMFRAC
 70
     0
  9
$DIMLDRBLK
  1

  9
$DIMLUNIT
 70
     2
  9
$DIMLWD
 70
    -2
  9
$DIMLWE
 70
    -2
  9
$DIMTMOVE
 70
     2
  9
$LUNITS
 70
     2
  9
$LUPREC
 70
     4
  9
$SKETCHINC
 40
0.1
  9
$FILLETRAD
 40
0.0
  9
$AUNITS
 70
     0
  9
$AUPREC
 70
     6
  9
$MENU
  1
acad
  9
$ELEVATION
 40
0.0
  9
$PELEVATION
 40
0.0
  9
$THICKNESS
 40
0.0
  9
$LIMCHECK
 70
     0
  9
$CHAMFERA
 40
0.0
  9
$CHAMFERB
 40
0.0
  9
$CHAMFERC
 40
0.0
  9
$CHAMFERD
 40
0.0
  9
$SKPOLY
 70
     0
  9
$TDCREATE
 40
2450014.656655093
  9
$TDUCREATE
 40
2450014.281655093
  9
$TDUPDATE
 40
2458001.633475417
  9
$TDUUPDATE
 40
2458001.258475417
  9
$TDINDWG
 40
0.0169167245
  9
$TDUSRTIMER
 40
0.0169167245
  9
$USRTIMER
 70
     1
  9
$ANGBASE
 50
0.0
  9
$ANGDIR
 70
     0
  9
$PDMODE
 70
     0
  9
$PDSIZE
 40
0.0
  9
$PLINEWID
 40
0.0
  9
$SPLFRAME
 70
     0
  9
$SPLINETYPE
 70
     6
  9
$SPLINESEGS
 70
     8
  9
$HANDSEED
  5
1986
  9
$SURFTAB1
 70
     6
  9
$SURFTAB2
 70
     6
  9
$SURFTYPE
 70
     6
  9
$SURFU
 70
     6
  9
$SURFV
 70
     6
  9
$UCSBASE
  2

  9
$UCSNAME
  2

  9
$UCSORG
 10
0.0
 20
0.0
 30
0.0
  9
$UCSXDIR
 10
1.0
 20
0.0
 30
0.0
  9
$UCSYDIR
 10
0.0
 20
1.0
 30
0.0
  9
$UCSORTHOREF
  2

  9
$UCSORTHOVIEW
 70
     0
  9
$UCSORGTOP
 10
0.0
 20
0.0
 30
0.0
  9
$UCSORGBOTTOM
 10
0.0
 20
0.0
 30
0.0
  9
$UCSORGLEFT
 10
0.0
 20
0.0
 30
0.0
  9
$UCSORGRIGHT
 10
0.0
 20
0.0
 30
0.0
  9
$UCSORGFRONT
 10
0.0
 20
0.0
 30
0.0
  9
$UCSORGBACK
 10
0.0
 20
0.0
 30
0.0
  9
$PUCSBASE
  2

  9
$PUCSNAME
  2

  9
$PUCSORG
 10
0.0
 20
0.0
 30
0.0
  9
$PUCSXDIR
 10
1.0
 20
0.0
 30
0.0
  9
$PUCSYDIR
 10
0.0
 20
1.0
 30
0.0
  9
$PUCSORTHOREF
  2

  9
$PUCSORTHOVIEW
 70
     0
  9
$PUCSORGTOP
 10
0.0
 20
0.0
 30
0.0
  9
$PUCSORGBOTTOM
 10
0.0
 20
0.0
 30
0.0
  9
$PUCSORGLEFT
 10
0.0
 20
0.0
 30
0.0
  9
$PUCSORGRIGHT
 10
0.0
 20
0.0
 30
0.0
  9
$PUCSORGFRONT
 10
0.0
 20
0.0
 30
0.0
  9
$PUCSORGBACK
 10
0.0
 20
0.0
 30
0.0
  9
$USERI1
 70
     0
  9
$USERI2
 70
     0
  9
$USERI3
 70
     0
  9
$USERI4
 70
     0
  9
$USERI5
 70
     0
  9
$USERR1
 40
0.0
  9
$USERR2
 40
0.0
  9
$USERR3
 40
0.0
  9
$USERR4
 40
0.0
  9
$USERR5
 40
0.0
  9
$WORLDVIEW
 70
     1
  9
$SHADEDGE
 70
     3
  9
$SHADEDIF
 70
    70
  9
$TILEMODE
 70
     1
  9
$MAXACTVP
 70
    48
  9
$PINSBASE
 10
0.0
 20
0.0
 30
0.0
  9
$PLIMCHECK
 70
     0
  9
$PEXTMIN
 10
1.000000000000000E+20
 20
1.000000000000000E+20
 30
1.000000000000000E+20
  9
$PEXTMAX
 10
-1.000000000000000E+20
 20
-1.000000000000000E+20
 30
-1.000000000000000E+20
  9
$PLIMMIN
 10
0.0
 20
0.0
  9
$PLIMMAX
 10
12.0
 20
9.0
  9
$UNITMODE
 70
     0
  9
$VISRETAIN
 70
     0
  9
$PLINEGEN
 70
     0
  9
$PSLTSCALE
 70
     0
  9
$TREEDEPTH
 70
  3020
  9
$CMLSTYLE
  2
STANDARD
  9
$CMLJUST
 70
     0
  9
$CMLSCALE
 40
1.0
  9
$PROXYGRAPHICS
 70
     1
  9
$MEASUREMENT
 70
     0
  9
$CELWEIGHT
370
    -1
  9
$ENDCAPS
280
     0
  9
$JOINSTYLE
280
     0
  9
$LWDISPLAY
290
     0
  9
$INSUNITS
 70
     0
  9
$HYPERLINKBASE
  1

  9
$STYLESHEET
  1

  9
$XEDIT
290
     1
  9
$CEPSNTYPE
380
     0
  9
$PSTYLEMODE
290
     1
  9
$FINGERPRINTGUID
  2
{F67648C0-8D40-11D8-A1CD-0050FC45377D}
  9
$VERSIONGUID
  2
{B6D325AF-E69B-4355-96FA-D9F1BFC36F27}
  9
$EXTNAMES
290
     1
  9
$PSVPSCALE
 40
0.0
  9
$OLESTARTUP
290
     0
  9
$SORTENTS
280
   127
  9
$INDEXCTL
280
     0
  9
$HIDETEXT
280
     0
  9
$XCLIPFRAME
290
     0
  9
$HALOGAP
280
     0
  9
$OBSCOLOR
 70
   257
  9
$OBSLTYPE
280
     0
  9
$INTERSECTIONDISPLAY
280
     0
  9
$INTERSECTIONCOLOR
 70
   257
  9
$DIMASSOC
280
     1
  9
$PROJECTNAME
  1

  0
ENDSEC
  0
SECTION
  2
CLASSES
  0
CLASS
  1
ACDBDICTIONARYWDFLT
  2
AcDbDictionaryWithDefault
  3
ObjectDBX Classes
 90
        0
 91
        4
280
     0
281
     0
  0
CLASS
  1
ACDBPLACEHOLDER
  2
AcDbPlaceHolder
  3
ObjectDBX Classes
 90
        0
 91
        1
280
     0
281
     0
  0
CLASS
  1
LAYOUT
  2
AcDbLayout
  3
ObjectDBX Classes
 90
        0
 91
        1
280
     0
281
     0
  0
CLASS
  1
DICTIONARYVAR
  2
AcDbDictionaryVar
  3
ObjectDBX Classes
 90
        0
 91
        4
280
     0
281
     0
  0
CLASS
  1
DUMMY
  2
AcDbLongTransaction
  3
DUMMY
 90
        0
 91
        1
280
     0
281
     0
  0
CLASS
  1
LWPOLYLINE
  2
AcDbPolyline
  3
AutoCAD 2000
 90
        0
 91
        1
280
     0
281
     1
  0
CLASS
  1
HATCH
  2
AcDbHatch
  3
AutoCAD 2000
 90
        0
 91
        1
280
     0
281
     1
  0
CLASS
  1
XRECORD
  2
AcDbXrecord
  3
AutoCAD 2000
 90
        0
 91
        1
280
     0
281
     0
  0
CLASS
  1
TABLESTYLE
  2
AcDbTableStyle
  3
ObjectDBX Classes
 90
     4095
 91
        4
280
     0
281
     0
  0
CLASS
  1
SORTENTSTABLE
  2
AcDbSortentsTable
  3
ObjectDBX Classes
 90
        0
 91
        4
280
     0
281
     0
  0
CLASS
  1
MATERIAL
  2
AcDbMaterial
  3
ObjectDBX Classes
 90
     1153
 91
        4
280
     0
281
     0
  0
CLASS
  1
VISUALSTYLE
  2
AcDbVisualStyle
  3
ObjectDBX Classes
 90
     4095
 91
        4
280
     0
281
     0
  0
CLASS
  1
SCALE
  2
AcDbScale
  3
ObjectDBX Classes
 90
     1153
 91
        4
280
     0
281
     0
  0
CLASS
  1
MLEADERSTYLE
  2
AcDbMLeaderStyle
  3
ACDB_MLEADERSTYLE_CLASS
 90
     4095
 91
        4
280
     0
281
     0
  0
CLASS
  1
ACDBSECTIONVIEWSTYLE
  2
AcDbSectionViewStyle
  3
ObjectDBX Classes
 90
     1025
 91
        2
280
     1
281
     0
  0
CLASS
  1
ACDBDETAILVIEWSTYLE
  2
AcDbDetailViewStyle
  3
ObjectDBX Classes
 90
     1025
 91
        2
280
     1
281
     0
  0
CLASS
  1
CELLSTYLEMAP
  2
AcDbCellStyleMap
  3
ObjectDBX Classes
 90
     1152
 91
        4
280
     0
281
     0
  0
ENDSEC
  0
SECTION
  2
TABLES
  0
TABLE
  2
VPORT
  5
8
102
{ACAD_XDICTIONARY
360
194A
102
}
330
0
100
AcDbSymbolTable
 70
     1
  0
VPORT
  5
F67
330
8
100
AcDbSymbolTableRecord
100
AcDbViewportTableRecord
  2
*Active
 70
     0
 10
0.0
 20
0.0
 11
1.0
 21
1.0
 12
1723.190712634357
 22
4195.584633466669
 13
0.0
 23
0.0
 14
20.0
 24
20.0
 15
200.0
 25
200.0
 16
0.0
 26
0.0
 36
1.0
 17
0.0
 27
0.0
 37
0.0
 40
6664.865696188914
 41
1.560747663551402
 42
50.0
 43
0.0
 44
0.0
 50
0.0
 51
0.0
 71
     0
 72
   100
 73
     1
 74
     1
 75
     0
 76
     0
 77
     0
 78
     0
281
     0
 65
     1
110
0.0
120
0.0
130
0.0
111
1.0
121
0.0
131
0.0
112
0.0
122
1.0
132
0.0
 79
     0
146
0.0
1001
ACAD_NAV_VCDISPLAY
1070
     3
  0
ENDTAB
  0
TABLE
  2
LTYPE
  5
5
330
0
100
AcDbSymbolTable
 70
     4
  0
LTYPE
  5
11
330
5
100
AcDbSymbolTableRecord
100
AcDbLinetypeTableRecord
  2
BYBLOCK
 70
     0
  3

 72
    65
 73
     0
 40
0.0
  0
LTYPE
  5
12
330
5
100
AcDbSymbolTableRecord
100
AcDbLinetypeTableRecord
  2
BYLAYER
 70
     0
  3

 72
    65
 73
     0
 40
0.0
  0
LTYPE
  5
13
330
5
100
AcDbSymbolTableRecord
100
AcDbLinetypeTableRecord
  2
CONTINUOUS
 70
     0
  3
Solid line
 72
    65
 73
     0
 40
0.0
  0
LTYPE
  5
1E
330
5
100
AcDbSymbolTableRecord
100
AcDbLinetypeTableRecord
  2
HIDDEN
 70
     0
  3
_ _ _ _ _ _ _ _ _ _ _ _ _ _ _ _ _ _ _ _ _ _ _
 72
    65
 73
     2
 40
0.375
 49
0.25
 74
     0
 49
-0.125
 74
     0
  0
LTYPE
  5
1F
330
5
100
AcDbSymbolTableRecord
100
AcDbLinetypeTableRecord
  2
CENTER
 70
     0
  3
____ _ ____ _ ____ _ ____ _ ____ _ ____ _ ____
 72
    65
 73
     4
 40
2.0
 49
1.25
 74
     0
 49
-0.25
 74
     0
 49
0.25
 74
     0
 49
-0.25
 74
     0
  0
LTYPE
  5
20
330
5
100
AcDbSymbolTableRecord
100
AcDbLinetypeTableRecord
  2
PHANTOM
 70
     0
  3
_____ _ _ _____ _ _ _____ _ _ _____ _ _ ____
 72
    65
 73
     6
 40
2.5
 49
1.25
 74
     0
 49
-0.25
 74
     0
 49
0.25
 74
     0
 49
-0.25
 74
     0
 49
0.25
 74
     0
 49
-0.25
 74
     0
  0
ENDTAB
  0
TABLE
  2
LAYER
  5
2
330
0
100
AcDbSymbolTable
 70
    10
  0
LAYER
  5
E
102
{ACAD_XDICTIONARY
360
18F5
102
}
330
2
100
AcDbSymbolTableRecord
100
AcDbLayerTableRecord
  2
0
 70
     0
 62
     7
  6
CONTINUOUS
370
    -3
390
6E
  0
LAYER
  5
23
102
{ACAD_XDICTIONARY
360
18F7
102
}
330
2
100
AcDbSymbolTableRecord
100
AcDbLayerTableRecord
  2
SUNPOU
 70
     0
 62
     1
  6
CONTINUOUS
370
    -3
390
6E
  0
LAYER
  5
24
102
{ACAD_XDICTIONARY
360
18F9
102
}
330
2
100
AcDbSymbolTableRecord
100
AcDbLayerTableRecord
  2
HAIKIN
 70
     0
 62
     2
  6
CONTINUOUS
370
    -3
390
6E
  0
LAYER
  5
25
102
{ACAD_XDICTIONARY
360
18FB
102
}
330
2
100
AcDbSymbolTableRecord
100
AcDbLayerTableRecord
  2
SEIHIN
 70
     0
 62
     3
  6
CONTINUOUS
370
    -3
390
6E
  0
LAYER
  5
26
102
{ACAD_XDICTIONARY
360
18FD
102
}
330
2
100
AcDbSymbolTableRecord
100
AcDbLayerTableRecord
  2
HASEN
 70
     0
 62
     4
  6
HIDDEN
370
    -3
390
6E
  0
LAYER
  5
27
102
{ACAD_XDICTIONARY
360
18FF
102
}
330
2
100
AcDbSymbolTableRecord
100
AcDbLayerTableRecord
  2
1HASEN
 70
     0
 62
     5
  6
CENTER
370
    -3
390
6E
  0
LAYER
  5
28
102
{ACAD_XDICTIONARY
360
1901
102
}
330
2
100
AcDbSymbolTableRecord
100
AcDbLayerTableRecord
  2
2HASEN
 70
     0
 62
     6
  6
PHANTOM
370
    -3
390
6E
  0
LAYER
  5
29
102
{ACAD_XDICTIONARY
360
1903
102
}
330
2
100
AcDbSymbolTableRecord
100
AcDbLayerTableRecord
  2
HOJO
 70
     0
 62
     7
  6
CONTINUOUS
370
    -3
390
6E
  0
LAYER
  5
2A
102
{ACAD_XDICTIONARY
360
1905
102
}
330
2
100
AcDbSymbolTableRecord
100
AcDbLayerTableRecord
  2
TEN
 70
     0
 62
     7
  6
CONTINUOUS
370
    -3
390
6E
  0
LAYER
  5
6E5
330
2
100
AcDbSymbolTableRecord
100
AcDbLayerTableRecord
  2
DEFPOINTS
 70
     0
 62
     7
  6
CONTINUOUS
290
     0
370
    -3
390
6E
  0
ENDTAB
  0
TABLE
  2
STYLE
  5
3
330
0
100
AcDbSymbolTable
 70
     1
  0
STYLE
  5
F
330
3
100
AcDbSymbolTableRecord
100
AcDbTextStyleTableRecord
  2
STANDARD
 70
     0
 40
0.0
 41
0.8
 50
0.0
 71
     0
 42
60.0
  3
TXT.shx
  4
BIGFONT.shx
  0
ENDTAB
  0
TABLE
  2
VIEW
  5
6
330
0
100
AcDbSymbolTable
 70
     0
  0
ENDTAB
  0
TABLE
  2
UCS
  5
7
330
0
100
AcDbSymbolTable
 70
     0
  0
ENDTAB
  0
TABLE
  2
APPID
  5
9
330
0
100
AcDbSymbolTable
 70
    12
  0
APPID
  5
10
330
9
100
AcDbSymbolTableRecord
100
AcDbRegAppTableRecord
  2
ACAD
 70
     0
  0
APPID
  5
B6
330
9
100
AcDbSymbolTableRecord
100
AcDbRegAppTableRecord
  2
ACAD_DSTYLE_DIMTEXT_FILL
 70
     0
  0
APPID
  5
B7
330
9
100
AcDbSymbolTableRecord
100
AcDbRegAppTableRecord
  2
ACAD_DSTYLE_DIMEXT_LENGTH
 70
     0
  0
APPID
  5
B8
330
9
100
AcDbSymbolTableRecord
100
AcDbRegAppTableRecord
  2
ACAD_DSTYLE_DIMEXT_ENABLED
 70
     0
  0
APPID
  5
B9
330
9
100
AcDbSymbolTableRecord
100
AcDbRegAppTableRecord
  2
ACAD_DSTYLE_DIM_LINETYPE
 70
     0
  0
APPID
  5
BA
330
9
100
AcDbSymbolTableRecord
100
AcDbRegAppTableRecord
  2
ACAD_DSTYLE_DIM_EXT1_LINETYPE
 70
     0
  0
APPID
  5
BB
330
9
100
AcDbSymbolTableRecord
100
AcDbRegAppTableRecord
  2
ACAD_DSTYLE_DIM_EXT2_LINETYPE
 70
     0
  0
APPID
  5
177
330
9
100
AcDbSymbolTableRecord
100
AcDbRegAppTableRecord
  2
ACAD_DSTYLE_DIMJOGGED_JOGANGLE_SYMBOL
 70
     0
  0
APPID
  5
35B
330
9
100
AcDbSymbolTableRecord
100
AcDbRegAppTableRecord
  2
ACAD_DSTYLE_DIMARC_LENGTH_SYMBOL
 70
     0
  0
APPID
  5
E10
330
9
100
AcDbSymbolTableRecord
100
AcDbRegAppTableRecord
  2
ACAD_EXEMPT_FROM_CAD_STANDARDS
 70
     0
  0
APPID
  5
FBB
330
9
100
AcDbSymbolTableRecord
100
AcDbRegAppTableRecord
  2
ACAD_NAV_VCDISPLAY
 70
     0
  0
APPID
  5
193A
330
9
100
AcDbSymbolTableRecord
100
AcDbRegAppTableRecord
  2
ACAD_MLEADERVER
 70
     0
  0
ENDTAB
  0
TABLE
  2
DIMSTYLE
  5
A
330
0
100
AcDbSymbolTable
 70
     2
100
AcDbDimStyleTable
  0
DIMSTYLE
105
61
330
A
100
AcDbSymbolTableRecord
100
AcDbDimStyleTableRecord
  2
STANDARD
 70
     0
178
     0
340
F
  0
DIMSTYLE
105
360
102
{ACAD_REACTORS
330
7F7
330
7F6
330
7F5
330
7F4
330
7F3
330
7EA
330
7C9
330
7C8
330
7C7
330
7C6
330
7C5
330
7C2
330
7C1
330
7C0
330
7BF
330
7B8
330
7AE
330
7A2
330
791
330
DC0
330
E02
330
E1F
330
1155
330
115F
330
1160
330
1161
330
1129
330
1149
330
114A
330
114B
330
114C
330
114D
330
114E
330
114F
330
1150
330
1151
330
153F
330
155F
330
1560
330
1561
330
1562
330
1563
330
1564
330
1565
330
1566
330
1567
330
156B
330
1575
330
1576
330
1577
102
}
330
A
100
AcDbSymbolTableRecord
100
AcDbDimStyleTableRecord
  2
A3-20
 70
     0
 40
20.0
 41
2.0
 42
2.0
 43
7.0
 44
0.5
 73
     0
 74
     0
 77
     1
 78
     8
140
3.0
141
0.0
145
1.0
147
0.8
174
     1
178
     0
179
     4
271
     0
272
     0
279
     2
284
     8
285
     8
286
     8
340
F
1001
ACAD_DSTYLE_DIMJOGGED_JOGANGLE_SYMBOL
1070
   384
1040
0.7853981633974483
  0
ENDTAB
  0
TABLE
  2
BLOCK_RECORD
  5
1
330
0
100
AcDbSymbolTable
 70
   194
  0
BLOCK_RECORD
  5
17
102
{ACAD_XDICTIONARY
360
9C
102
}
330
1
100
AcDbSymbolTableRecord
100
AcDbBlockTableRecord
  2
*MODEL_SPACE
340
71
  0
BLOCK_RECORD
  5
14
330
1
100
AcDbSymbolTableRecord
100
AcDbBlockTableRecord
  2
*PAPER_SPACE
340
72
  0
BLOCK_RECORD
  5
1C
330
1
100
AcDbSymbolTableRecord
100
AcDbBlockTableRecord
  2
BORDER
340
0
  0
BLOCK_RECORD
  5
1D
330
1
100
AcDbSymbolTableRecord
100
AcDbBlockTableRecord
  2
SA3
340
0
  0
BLOCK_RECORD
  5
826
330
1
100
AcDbSymbolTableRecord
100
AcDbBlockTableRecord
  2
*D51
340
0
  0
BLOCK_RECORD
  5
84C
330
1
100
AcDbSymbolTableRecord
100
AcDbBlockTableRecord
  2
*D54
340
0
  0
BLOCK_RECORD
  5
880
330
1
100
AcDbSymbolTableRecord
100
AcDbBlockTableRecord
  2
*D58
340
0
  0
BLOCK_RECORD
  5
8A4
330
1
100
AcDbSymbolTableRecord
100
AcDbBlockTableRecord
  2
*D61
340
0
  0
BLOCK_RECORD
  5
8B1
330
1
100
AcDbSymbolTableRecord
100
AcDbBlockTableRecord
  2
*D62
340
0
  0
BLOCK_RECORD
  5
8BD
330
1
100
AcDbSymbolTableRecord
100
AcDbBlockTableRecord
  2
*D63
340
0
  0
BLOCK_RECORD
  5
8CA
330
1
100
AcDbSymbolTableRecord
100
AcDbBlockTableRecord
  2
*D64
340
0
  0
BLOCK_RECORD
  5
8D6
330
1
100
AcDbSymbolTableRecord
100
AcDbBlockTableRecord
  2
*D65
340
0
  0
BLOCK_RECORD
  5
8FC
330
1
100
AcDbSymbolTableRecord
100
AcDbBlockTableRecord
  2
*D68
340
0
  0
BLOCK_RECORD
  5
909
330
1
100
AcDbSymbolTableRecord
100
AcDbBlockTableRecord
  2
*D69
340
0
  0
BLOCK_RECORD
  5
916
330
1
100
AcDbSymbolTableRecord
100
AcDbBlockTableRecord
  2
*D70
340
0
  0
BLOCK_RECORD
  5
922
330
1
100
AcDbSymbolTableRecord
100
AcDbBlockTableRecord
  2
*D71
340
0
  0
BLOCK_RECORD
  5
92F
330
1
100
AcDbSymbolTableRecord
100
AcDbBlockTableRecord
  2
*D72
340
0
  0
BLOCK_RECORD
  5
A10
330
1
100
AcDbSymbolTableRecord
100
AcDbBlockTableRecord
  2
*D90
340
0
  0
BLOCK_RECORD
  5
A29
330
1
100
AcDbSymbolTableRecord
100
AcDbBlockTableRecord
  2
*D92
340
0
  0
BLOCK_RECORD
  5
A35
330
1
100
AcDbSymbolTableRecord
100
AcDbBlockTableRecord
  2
*D93
340
0
  0
BLOCK_RECORD
  5
A41
330
1
100
AcDbSymbolTableRecord
100
AcDbBlockTableRecord
  2
*D94
340
0
  0
BLOCK_RECORD
  5
A4D
330
1
100
AcDbSymbolTableRecord
100
AcDbBlockTableRecord
  2
*D95
340
0
  0
BLOCK_RECORD
  5
A59
330
1
100
AcDbSymbolTableRecord
100
AcDbBlockTableRecord
  2
*D96
340
0
  0
BLOCK_RECORD
  5
DCE
330
1
100
AcDbSymbolTableRecord
100
AcDbBlockTableRecord
  2
*D101
340
0
  0
BLOCK_RECORD
  5
E03
330
1
100
AcDbSymbolTableRecord
100
AcDbBlockTableRecord
  2
*D102
340
0
  0
BLOCK_RECORD
  5
E20
330
1
100
AcDbSymbolTableRecord
100
AcDbBlockTableRecord
  2
*D103
340
0
  0
BLOCK_RECORD
  5
1170
330
1
100
AcDbSymbolTableRecord
100
AcDbBlockTableRecord
  2
*D127
340
0
  0
BLOCK_RECORD
  5
11B9
330
1
100
AcDbSymbolTableRecord
100
AcDbBlockTableRecord
  2
*D133
340
0
  0
BLOCK_RECORD
  5
11C6
330
1
100
AcDbSymbolTableRecord
100
AcDbBlockTableRecord
  2
*D134
340
0
  0
BLOCK_RECORD
  5
11D2
330
1
100
AcDbSymbolTableRecord
100
AcDbBlockTableRecord
  2
*D135
340
0
  0
BLOCK_RECORD
  5
11DF
330
1
100
AcDbSymbolTableRecord
100
AcDbBlockTableRecord
  2
*D136
340
0
  0
BLOCK_RECORD
  5
1210
330
1
100
AcDbSymbolTableRecord
100
AcDbBlockTableRecord
  2
*D140
340
0
  0
BLOCK_RECORD
  5
121C
330
1
100
AcDbSymbolTableRecord
100
AcDbBlockTableRecord
  2
*D141
340
0
  0
BLOCK_RECORD
  5
1229
330
1
100
AcDbSymbolTableRecord
100
AcDbBlockTableRecord
  2
*D142
340
0
  0
BLOCK_RECORD
  5
1235
330
1
100
AcDbSymbolTableRecord
100
AcDbBlockTableRecord
  2
*D143
340
0
  0
BLOCK_RECORD
  5
1241
330
1
100
AcDbSymbolTableRecord
100
AcDbBlockTableRecord
  2
*D144
340
0
  0
BLOCK_RECORD
  5
124E
330
1
100
AcDbSymbolTableRecord
100
AcDbBlockTableRecord
  2
*D145
340
0
  0
BLOCK_RECORD
  5
125B
330
1
100
AcDbSymbolTableRecord
100
AcDbBlockTableRecord
  2
*D146
340
0
  0
BLOCK_RECORD
  5
1267
330
1
100
AcDbSymbolTableRecord
100
AcDbBlockTableRecord
  2
*D147
340
0
  0
BLOCK_RECORD
  5
1274
330
1
100
AcDbSymbolTableRecord
100
AcDbBlockTableRecord
  2
*D148
340
0
  0
BLOCK_RECORD
  5
1585
330
1
100
AcDbSymbolTableRecord
100
AcDbBlockTableRecord
  2
*D172
340
0
  0
BLOCK_RECORD
  5
15B6
330
1
100
AcDbSymbolTableRecord
100
AcDbBlockTableRecord
  2
*D176
340
0
  0
BLOCK_RECORD
  5
15C2
330
1
100
AcDbSymbolTableRecord
100
AcDbBlockTableRecord
  2
*D177
340
0
  0
BLOCK_RECORD
  5
15CF
330
1
100
AcDbSymbolTableRecord
100
AcDbBlockTableRecord
  2
*D178
340
0
  0
BLOCK_RECORD
  5
15DB
330
1
100
AcDbSymbolTableRecord
100
AcDbBlockTableRecord
  2
*D179
340
0
  0
BLOCK_RECORD
  5
15E7
330
1
100
AcDbSymbolTableRecord
100
AcDbBlockTableRecord
  2
*D180
340
0
  0
BLOCK_RECORD
  5
15F4
330
1
100
AcDbSymbolTableRecord
100
AcDbBlockTableRecord
  2
*D181
340
0
  0
BLOCK_RECORD
  5
1601
330
1
100
AcDbSymbolTableRecord
100
AcDbBlockTableRecord
  2
*D182
340
0
  0
BLOCK_RECORD
  5
160D
330
1
100
AcDbSymbolTableRecord
100
AcDbBlockTableRecord
  2
*D183
340
0
  0
BLOCK_RECORD
  5
161A
330
1
100
AcDbSymbolTableRecord
100
AcDbBlockTableRecord
  2
*D184
340
0
  0
BLOCK_RECORD
  5
1626
330
1
100
AcDbSymbolTableRecord
100
AcDbBlockTableRecord
  2
*D185
340
0
  0
BLOCK_RECORD
  5
166F
330
1
100
AcDbSymbolTableRecord
100
AcDbBlockTableRecord
  2
*D191
340
0
  0
BLOCK_RECORD
  5
167C
330
1
100
AcDbSymbolTableRecord
100
AcDbBlockTableRecord
  2
*D192
340
0
  0
BLOCK_RECORD
  5
1688
330
1
100
AcDbSymbolTableRecord
100
AcDbBlockTableRecord
  2
*D193
340
0
  0
ENDTAB
  0
ENDSEC
  0
SECTION
  2
BLOCKS
  0
BLOCK
  5
2D
330
17
100
AcDbEntity
  8
0
100
AcDbBlockBegin
  2
*MODEL_SPACE
 70
     0
 10
0.0
 20
0.0
 30
0.0
  3
*MODEL_SPACE
  1

  0
ENDBLK
  5
2E
330
17
100
AcDbEntity
  8
0
100
AcDbBlockEnd
  0
BLOCK
  5
2B
330
14
100
AcDbEntity
 67
     1
  8
0
100
AcDbBlockBegin
  2
*PAPER_SPACE
 70
     0
 10
0.0
 20
0.0
 30
0.0
  3
*PAPER_SPACE
  1

  0
ENDBLK
  5
2C
330
14
100
AcDbEntity
 67
     1
  8
0
100
AcDbBlockEnd
  0
BLOCK
  5
2F
330
1C
100
AcDbEntity
  8
0
100
AcDbBlockBegin
  2
BORDER
 70
     0
 10
0.0
 20
0.0
 30
0.0
  3
BORDER
  1

  0
LINE
  5
30
330
1C
100
AcDbEntity
  8
0
100
AcDbLine
 10
0.0
 20
0.0
 30
0.0
 11
1.00000000000004
 21
0.0
 31
0.0
  0
LINE
  5
31
330
1C
100
AcDbEntity
  8
0
100
AcDbLine
 10
1.00000000000004
 20
0.0
 30
0.0
 11
1.00000000000004
 21
1.00000000000004
 31
0.0
  0
LINE
  5
32
330
1C
100
AcDbEntity
  8
0
100
AcDbLine
 10
1.00000000000004
 20
1.00000000000004
 30
0.0
 11
0.0
 21
1.00000000000004
 31
0.0
  0
LINE
  5
33
330
1C
100
AcDbEntity
  8
0
100
AcDbLine
 10
0.0
 20
1.00000000000004
 30
0.0
 11
0.0
 21
0.0
 31
0.0
  0
ENDBLK
  5
34
330
1C
100
AcDbEntity
  8
0
100
AcDbBlockEnd
  0
BLOCK
  5
35
330
1D
100
AcDbEntity
  8
HAIKIN
100
AcDbBlockBegin
  2
SA3
 70
     0
 10
0.0
 20
0.0
 30
0.0
  3
SA3
  1

  0
TEXT
  5
36
330
1D
100
AcDbEntity
  8
SUNPOU
100
AcDbText
 10
340.0
 20
0.0
 30
0.0
 40
2.5
  1
新和コンクリート工業株式会社
100
AcDbText
  0
TEXT
  5
39
330
1D
100
AcDbEntity
  8
SUNPOU
100
AcDbText
 10
361.4166666666667
 20
6.25
 30
0.0
 40
2.5
  1
製図
 72
     4
 11
364.0
 21
7.5
 31
0.0
100
AcDbText
  0
TEXT
  5
3A
330
1D
100
AcDbEntity
  8
SUNPOU
100
AcDbText
 10
361.3333333333333
 20
11.25
 30
0.0
 40
2.5
  1
設計
 72
     4
 11
364.0
 21
12.5
 31
0.0
100
AcDbText
  0
TEXT
  5
3B
330
1D
100
AcDbEntity
  8
SUNPOU
100
AcDbText
 10
339.0833333333333
 20
6.250000000000014
 30
0.0
 40
2.5
  1
認
 72
     4
 11
340.25
 21
7.500000000000014
 31
0.0
100
AcDbText
  0
TEXT
  5
3C
330
1D
100
AcDbEntity
  8
SUNPOU
100
AcDbText
 10
339.0833333333333
 20
11.33333333333336
 30
0.0
 40
2.5
  1
承
 72
     4
 11
340.25
 21
12.50000000000003
 31
0.0
100
AcDbText
  0
TEXT
  5
3D
330
1D
100
AcDbEntity
  8
SUNPOU
100
AcDbText
 10
312.75
 20
11.75000000000001
 30
0.0
 40
2.5
  1
図　面　番　号
 72
     4
 11
323.0
 21
13.00000000000001
 31
0.0
100
AcDbText
  0
TEXT
  5
3E
330
1D
100
AcDbEntity
  8
SUNPOU
100
AcDbText
 10
362.0
 20
17.0
 30
0.0
 40
2.5
  1
１／
100
AcDbText
  0
TEXT
  5
3F
330
1D
100
AcDbEntity
  8
SUNPOU
100
AcDbText
 10
347.3333333333333
 20
16.25000000000001
 30
0.0
 40
2.5
  1
縮　　尺
 72
     4
 11
353.0
 21
17.50000000000001
 31
0.0
100
AcDbText
  0
TEXT
  5
40
330
1D
100
AcDbEntity
  8
SUNPOU
100
AcDbText
 10
347.3333333333333
 20
21.25
 30
0.0
 40
2.5
  1
鉄 筋 量
 72
     4
 11
353.0
 21
22.5
 31
0.0
100
AcDbText
  0
TEXT
  5
41
330
1D
100
AcDbEntity
  8
SUNPOU
100
AcDbText
 10
347.3333333333333
 20
26.25
 30
0.0
 40
2.5
  1
製 造 数
 72
     4
 11
353.0
 21
27.5
 31
0.0
100
AcDbText
  0
TEXT
  5
42
330
1D
100
AcDbEntity
  8
SUNPOU
100
AcDbText
 10
377.0
 20
21.0
 30
0.0
 40
2.5
  1
ｋｇ
 72
     2
 11
382.0
 21
21.0
 31
0.0
100
AcDbText
  0
TEXT
  5
43
330
1D
100
AcDbEntity
  8
SUNPOU
100
AcDbText
 10
339.5
 20
21.0
 30
0.0
 40
2.5
  1
ｋｇ
 72
     2
 11
344.5
 21
21.0
 31
0.0
100
AcDbText
  0
TEXT
  5
44
330
1D
100
AcDbEntity
  8
SUNPOU
100
AcDbText
 10
310.0
 20
16.25000000000001
 30
0.0
 40
2.5
  1
年 月 日
 72
     4
 11
315.5
 21
17.50000000000001
 31
0.0
100
AcDbText
  0
TEXT
  5
45
330
1D
100
AcDbEntity
  8
SUNPOU
100
AcDbText
 10
309.8333333333333
 20
21.25
 30
0.0
 40
2.5
  1
製品質量
 72
     4
 11
315.5
 21
22.5
 31
0.0
100
AcDbText
  0
TEXT
  5
46
330
1D
100
AcDbEntity
  8
SUNPOU
100
AcDbText
 10
309.9166666666667
 20
26.25
 30
0.0
 40
2.5
  1
業 者 名
 72
     4
 11
315.5
 21
27.5
 31
0.0
100
AcDbText
  0
TEXT
  5
47
330
1D
100
AcDbEntity
  8
SUNPOU
100
AcDbText
 10
309.8333333333333
 20
32.5
 30
0.0
 40
2.5
  1
名　　称
 72
     4
 11
315.5
 21
33.75
 31
0.0
100
AcDbText
  0
LINE
  5
48
330
1D
100
AcDbEntity
  8
SUNPOU
100
AcDbLine
 10
338.0
 20
11.00000000000001
 30
0.0
 11
308.0
 21
11.00000000000001
 31
0.0
  0
LINE
  5
49
330
1D
100
AcDbEntity
  8
SUNPOU
100
AcDbLine
 10
367.5
 20
4.999999999999986
 30
0.0
 11
367.5
 21
14.99999999999999
 31
0.0
  0
LINE
  5
4A
330
1D
100
AcDbEntity
  8
SUNPOU
100
AcDbLine
 10
360.5
 20
4.999999999999986
 30
0.0
 11
360.5
 21
14.99999999999999
 31
0.0
  0
LINE
  5
4B
330
1D
100
AcDbEntity
  8
SUNPOU
100
AcDbLine
 10
342.5
 20
4.999999999999995
 30
0.0
 11
342.5
 21
15.0
 31
0.0
  0
LINE
  5
4C
330
1D
100
AcDbEntity
  8
SUNPOU
100
AcDbLine
 10
338.0
 20
4.999999999999995
 30
0.0
 11
338.0
 21
15.0
 31
0.0
  0
LINE
  5
4D
330
1D
100
AcDbEntity
  8
SUNPOU
100
AcDbLine
 10
323.0
 20
15.00000000000001
 30
0.0
 11
323.0
 21
37.5
 31
0.0
  0
LINE
  5
4E
330
1D
100
AcDbEntity
  8
SUNPOU
100
AcDbLine
 10
360.5
 20
15.00000000000001
 30
0.0
 11
360.5
 21
30.0
 31
0.0
  0
LINE
  5
4F
330
1D
100
AcDbEntity
  8
SUNPOU
100
AcDbLine
 10
345.5
 20
15.00000000000001
 30
0.0
 11
345.5
 21
30.0
 31
0.0
  0
LINE
  5
50
330
1D
100
AcDbEntity
  8
SUNPOU
100
AcDbLine
 10
383.0
 20
30.0
 30
0.0
 11
308.0
 21
30.0
 31
0.0
  0
LINE
  5
51
330
1D
100
AcDbEntity
  8
SUNPOU
100
AcDbLine
 10
383.0
 20
25.0
 30
0.0
 11
308.0
 21
25.0
 31
0.0
  0
LINE
  5
52
330
1D
100
AcDbEntity
  8
SUNPOU
100
AcDbLine
 10
383.0
 20
20.0
 30
0.0
 11
308.0
 21
20.0
 31
0.0
  0
LINE
  5
53
330
1D
100
AcDbEntity
  8
SUNPOU
100
AcDbLine
 10
383.0
 20
14.99999999999999
 30
0.0
 11
308.0
 21
15.00000000000004
 31
0.0
  0
LINE
  5
54
330
1D
100
AcDbEntity
  8
HAIKIN
100
AcDbLine
 10
308.0
 20
37.5
 30
0.0
 11
383.0
 21
37.5
 31
0.0
  0
LINE
  5
55
330
1D
100
AcDbEntity
  8
HAIKIN
100
AcDbLine
 10
308.0
 20
5.000000000000009
 30
0.0
 11
308.0
 21
37.5
 31
0.0
  0
LINE
  5
56
330
1D
100
AcDbEntity
  8
SUNPOU
100
AcDbLine
 10
0.000000000000016
 20
277.0
 30
0.0
 11
0.000000000000016
 21
272.0
 31
0.0
  0
LINE
  5
57
330
1D
100
AcDbEntity
  8
SUNPOU
100
AcDbLine
 10
25.00000000000001
 20
277.0
 30
0.0
 11
0.000000000000016
 21
277.0
 31
0.0
  0
LINE
  5
58
330
1D
100
AcDbEntity
  8
SUNPOU
100
AcDbLine
 10
25.00000000000001
 20
272.0
 30
0.0
 11
25.00000000000001
 21
277.0
 31
0.0
  0
LINE
  5
59
330
1D
100
AcDbEntity
  8
HAIKIN
100
AcDbLine
 10
0.0000000000000004
 20
5.0
 30
0.0
 11
383.0
 21
5.0
 31
0.0
  0
LINE
  5
5A
330
1D
100
AcDbEntity
  8
HAIKIN
100
AcDbLine
 10
0.0000000000000158
 20
272.0
 30
0.0
 11
383.0
 21
272.0
 31
0.0
  0
LINE
  5
5B
330
1D
100
AcDbEntity
  8
HAIKIN
100
AcDbLine
 10
383.0
 20
272.0
 30
0.0
 11
383.0
 21
5.0
 31
0.0
  0
TEXT
  5
5C
330
1D
100
AcDbEntity
  8
SUNPOU
100
AcDbText
 10
3.700000000000017
 20
273.0
 30
0.0
 40
3.0
  1
Ｈ－２－共
 72
     4
 11
12.50000000000002
 21
274.5
 31
0.0
100
AcDbText
  0
LINE
  5
5D
330
1D
100
AcDbEntity
  8
HAIKIN
100
AcDbLine
 10
0.0000000000000004
 20
5.0
 30
0.0
 11
0.0000000000000158
 21
272.0
 31
0.0
  0
ENDBLK
  5
5E
330
1D
100
AcDbEntity
  8
HAIKIN
100
AcDbBlockEnd
  0
BLOCK
  5
830
330
826
100
AcDbEntity
  8
0
100
AcDbBlockBegin
  2
*D51
 70
     1
 10
0.0
 20
0.0
 30
0.0
  3
*D51
  1

  0
LINE
  5
E7F
330
826
100
AcDbEntity
  8
SUNPOU
 62
     0
440
 16777216
370
    -2
100
AcDbLine
 10
1945.145634731904
 20
3340.703096521186
 30
0.0
 11
1742.922096862729
 21
3340.703096521186
 31
0.0
  0
LINE
  5
E80
330
826
100
AcDbEntity
  8
SUNPOU
 62
     0
440
 16777216
370
    -2
100
AcDbLine
 10
1914.833134731904
 20
3540.703096521186
 30
0.0
 11
1742.922096862729
 21
3540.703096521186
 31
0.0
  0
LINE
  5
E81
330
826
100
AcDbEntity
  8
SUNPOU
 62
     0
440
 16777216
370
    -2
100
AcDbLine
 10
1752.922096862729
 20
3380.703096521186
 30
0.0
 11
1752.922096862729
 21
3500.703096521186
 31
0.0
  0
SOLID
  5
E82
330
826
100
AcDbEntity
  8
SUNPOU
 62
     0
440
 16777216
100
AcDbTrace
 10
1746.255430196062
 20
3380.703096521186
 30
0.0
 11
1759.588763529396
 21
3380.703096521186
 31
0.0
 12
1752.922096862729
 22
3340.703096521186
 32
0.0
 13
1752.922096862729
 23
3340.703096521186
 33
0.0
  0
SOLID
  5
E83
330
826
100
AcDbEntity
  8
SUNPOU
 62
     0
440
 16777216
100
AcDbTrace
 10
1746.255430196062
 20
3500.703096521186
 30
0.0
 11
1759.588763529396
 21
3500.703096521186
 31
0.0
 12
1752.922096862729
 22
3540.703096521186
 32
0.0
 13
1752.922096862729
 23
3540.703096521186
 33
0.0
  0
MTEXT
  5
E84
330
826
100
AcDbEntity
  8
SUNPOU
 62
     0
440
 16777216
100
AcDbMText
 10
1706.922096862729
 20
3440.703096521187
 30
0.0
 40
60.0
 41
0.0
 71
     5
 72
     1
  1
\A1;200
 11
6.123031769111886E-17
 21
1.0
 31
0.0
 73
     1
 44
1.0
  0
POINT
  5
E85
330
826
100
AcDbEntity
  8
DEFPOINTS
 62
     0
440
 16777216
100
AcDbPoint
 10
1985.145634731904
 20
3340.703096521186
 30
0.0
  0
POINT
  5
E86
330
826
100
AcDbEntity
  8
DEFPOINTS
 62
     0
440
 16777216
100
AcDbPoint
 10
1954.833134731904
 20
3540.703096521186
 30
0.0
  0
POINT
  5
E87
330
826
100
AcDbEntity
  8
DEFPOINTS
 62
     0
440
 16777216
100
AcDbPoint
 10
1752.922096862729
 20
3540.703096521186
 30
0.0
  0
ENDBLK
  5
831
330
826
100
AcDbEntity
  8
0
100
AcDbBlockEnd
  0
BLOCK
  5
857
330
84C
100
AcDbEntity
  8
0
100
AcDbBlockBegin
  2
*D54
 70
     1
 10
0.0
 20
0.0
 30
0.0
  3
*D54
  1

  0
LINE
  5
E88
330
84C
100
AcDbEntity
  8
SUNPOU
 62
     0
440
 16777216
370
    -2
100
AcDbLine
 10
4029.751386313662
 20
3980.703096521186
 30
0.0
 11
4029.751386313662
 21
4318.6307238933
 31
0.0
  0
LINE
  5
E89
330
84C
100
AcDbEntity
  8
SUNPOU
 62
     0
440
 16777216
370
    -2
100
AcDbLine
 10
6029.751386313662
 20
3980.703096521186
 30
0.0
 11
6029.751386313662
 21
4318.6307238933
 31
0.0
  0
LINE
  5
E8A
330
84C
100
AcDbEntity
  8
SUNPOU
 62
     0
440
 16777216
370
    -2
100
AcDbLine
 10
4069.751386313662
 20
4308.6307238933
 30
0.0
 11
5989.751386313662
 21
4308.6307238933
 31
0.0
  0
SOLID
  5
E8B
330
84C
100
AcDbEntity
  8
SUNPOU
 62
     0
440
 16777216
100
AcDbTrace
 10
4069.751386313662
 20
4315.297390559967
 30
0.0
 11
4069.751386313662
 21
4301.964057226633
 31
0.0
 12
4029.751386313662
 22
4308.6307238933
 32
0.0
 13
4029.751386313662
 23
4308.6307238933
 33
0.0
  0
SOLID
  5
E8C
330
84C
100
AcDbEntity
  8
SUNPOU
 62
     0
440
 16777216
100
AcDbTrace
 10
5989.751386313662
 20
4315.297390559967
 30
0.0
 11
5989.751386313662
 21
4301.964057226633
 31
0.0
 12
6029.751386313662
 22
4308.6307238933
 32
0.0
 13
6029.751386313662
 23
4308.6307238933
 33
0.0
  0
MTEXT
  5
E8D
330
84C
100
AcDbEntity
  8
SUNPOU
 62
     0
440
 16777216
100
AcDbMText
 10
5029.751386313662
 20
4354.6307238933
 30
0.0
 40
60.0
 41
0.0
 71
     5
 72
     1
  1
\A1;2000
 73
     1
 44
1.0
  0
POINT
  5
E8E
330
84C
100
AcDbEntity
  8
DEFPOINTS
 62
     0
440
 16777216
100
AcDbPoint
 10
4029.751386313662
 20
3940.703096521186
 30
0.0
  0
POINT
  5
E8F
330
84C
100
AcDbEntity
  8
DEFPOINTS
 62
     0
440
 16777216
100
AcDbPoint
 10
6029.751386313662
 20
3940.703096521186
 30
0.0
  0
POINT
  5
E90
330
84C
100
AcDbEntity
  8
DEFPOINTS
 62
     0
440
 16777216
100
AcDbPoint
 10
6029.751386313662
 20
4308.6307238933
 30
0.0
  0
ENDBLK
  5
858
330
84C
100
AcDbEntity
  8
0
100
AcDbBlockEnd
  0
BLOCK
  5
88A
330
880
100
AcDbEntity
  8
0
100
AcDbBlockBegin
  2
*D58
 70
     1
 10
0.0
 20
0.0
 30
0.0
  3
*D58
  1

  0
LINE
  5
E91
330
880
100
AcDbEntity
  8
SUNPOU
 62
     0
440
 16777216
370
    -2
100
AcDbLine
 10
3989.751386313662
 20
3340.703096521186
 30
0.0
 11
3853.209368441245
 21
3340.703096521186
 31
0.0
  0
LINE
  5
E92
330
880
100
AcDbEntity
  8
SUNPOU
 62
     0
440
 16777216
370
    -2
100
AcDbLine
 10
3989.751386313662
 20
3540.703096521186
 30
0.0
 11
3853.209368441245
 21
3540.703096521186
 31
0.0
  0
LINE
  5
E93
330
880
100
AcDbEntity
  8
SUNPOU
 62
     0
440
 16777216
370
    -2
100
AcDbLine
 10
3863.209368441245
 20
3380.703096521186
 30
0.0
 11
3863.209368441245
 21
3500.703096521186
 31
0.0
  0
SOLID
  5
E94
330
880
100
AcDbEntity
  8
SUNPOU
 62
     0
440
 16777216
100
AcDbTrace
 10
3856.542701774579
 20
3380.703096521186
 30
0.0
 11
3869.876035107912
 21
3380.703096521186
 31
0.0
 12
3863.209368441245
 22
3340.703096521186
 32
0.0
 13
3863.209368441245
 23
3340.703096521186
 33
0.0
  0
SOLID
  5
E95
330
880
100
AcDbEntity
  8
SUNPOU
 62
     0
440
 16777216
100
AcDbTrace
 10
3856.542701774579
 20
3500.703096521186
 30
0.0
 11
3869.876035107912
 21
3500.703096521186
 31
0.0
 12
3863.209368441245
 22
3540.703096521186
 32
0.0
 13
3863.209368441245
 23
3540.703096521186
 33
0.0
  0
MTEXT
  5
E96
330
880
100
AcDbEntity
  8
SUNPOU
 62
     0
440
 16777216
100
AcDbMText
 10
3817.209368441244
 20
3440.703096521187
 30
0.0
 40
60.0
 41
0.0
 71
     5
 72
     1
  1
\A1;200
 11
6.123031769111886E-17
 21
1.0
 31
0.0
 73
     1
 44
1.0
  0
POINT
  5
E97
330
880
100
AcDbEntity
  8
DEFPOINTS
 62
     0
440
 16777216
100
AcDbPoint
 10
4029.751386313662
 20
3340.703096521186
 30
0.0
  0
POINT
  5
E98
330
880
100
AcDbEntity
  8
DEFPOINTS
 62
     0
440
 16777216
100
AcDbPoint
 10
4029.751386313662
 20
3540.703096521186
 30
0.0
  0
POINT
  5
E99
330
880
100
AcDbEntity
  8
DEFPOINTS
 62
     0
440
 16777216
100
AcDbPoint
 10
3863.209368441245
 20
3540.703096521186
 30
0.0
  0
ENDBLK
  5
88B
330
880
100
AcDbEntity
  8
0
100
AcDbBlockEnd
  0
BLOCK
  5
8AF
330
8A4
100
AcDbEntity
  8
0
100
AcDbBlockBegin
  2
*D61
 70
     1
 10
0.0
 20
0.0
 30
0.0
  3
*D61
  1

  0
LINE
  5
E9A
330
8A4
100
AcDbEntity
  8
SUNPOU
 62
     0
440
 16777216
370
    -2
100
AcDbLine
 10
3989.751386313662
 20
3340.703096521187
 30
0.0
 11
3853.209368441245
 21
3340.703096521187
 31
0.0
  0
LINE
  5
E9B
330
8A4
100
AcDbEntity
  8
SUNPOU
 62
     0
440
 16777216
370
    -2
100
AcDbLine
 10
3989.751386313662
 20
3280.703096521186
 30
0.0
 11
3853.209368441245
 21
3280.703096521186
 31
0.0
  0
LINE
  5
E9C
330
8A4
100
AcDbEntity
  8
SUNPOU
 62
     0
440
 16777216
370
    -2
100
AcDbLine
 10
3863.209368441245
 20
3380.703096521187
 30
0.0
 11
3863.209368441245
 21
3420.703096521187
 31
0.0
  0
LINE
  5
E9D
330
8A4
100
AcDbEntity
  8
SUNPOU
 62
     0
440
 16777216
370
    -2
100
AcDbLine
 10
3863.209368441245
 20
3240.703096521186
 30
0.0
 11
3863.209368441245
 21
3200.703096521186
 31
0.0
  0
MTEXT
  5
E9E
330
8A4
100
AcDbEntity
  8
SUNPOU
 62
     0
440
 16777216
100
AcDbMText
 10
3823.209368441245
 20
3317.775816561877
 30
0.0
 40
60.0
 41
0.0
 71
     5
 72
     1
  1
\A1;60
 11
6.123031769111886E-17
 21
1.0
 31
0.0
 73
     1
 44
1.0
  0
SOLID
  5
E9F
330
8A4
100
AcDbEntity
  8
SUNPOU
 62
     0
440
 16777216
100
AcDbTrace
 10
3856.542701774578
 20
3380.703096521187
 30
0.0
 11
3869.876035107911
 21
3380.703096521187
 31
0.0
 12
3863.209368441245
 22
3340.703096521187
 32
0.0
 13
3863.209368441245
 23
3340.703096521187
 33
0.0
  0
SOLID
  5
EA0
330
8A4
100
AcDbEntity
  8
SUNPOU
 62
     0
440
 16777216
100
AcDbTrace
 10
3856.542701774578
 20
3240.703096521186
 30
0.0
 11
3869.876035107911
 21
3240.703096521186
 31
0.0
 12
3863.209368441245
 22
3280.703096521186
 32
0.0
 13
3863.209368441245
 23
3280.703096521186
 33
0.0
  0
POINT
  5
EA1
330
8A4
100
AcDbEntity
  8
DEFPOINTS
 62
     0
440
 16777216
100
AcDbPoint
 10
4029.751386313662
 20
3340.703096521187
 30
0.0
  0
POINT
  5
EA2
330
8A4
100
AcDbEntity
  8
DEFPOINTS
 62
     0
440
 16777216
100
AcDbPoint
 10
4029.751386313662
 20
3280.703096521186
 30
0.0
  0
POINT
  5
EA3
330
8A4
100
AcDbEntity
  8
DEFPOINTS
 62
     0
440
 16777216
100
AcDbPoint
 10
3863.209368441245
 20
3280.703096521186
 30
0.0
  0
ENDBLK
  5
8B0
330
8A4
100
AcDbEntity
  8
0
100
AcDbBlockEnd
  0
BLOCK
  5
8BB
330
8B1
100
AcDbEntity
  8
0
100
AcDbBlockBegin
  2
*D62
 70
     1
 10
0.0
 20
0.0
 30
0.0
  3
*D62
  1

  0
LINE
  5
EA4
330
8B1
100
AcDbEntity
  8
SUNPOU
 62
     0
440
 16777216
370
    -2
100
AcDbLine
 10
2045.145634731904
 20
3380.703096521186
 30
0.0
 11
2045.145634731904
 21
3660.706373655623
 31
0.0
  0
LINE
  5
EA5
330
8B1
100
AcDbEntity
  8
SUNPOU
 62
     0
440
 16777216
370
    -2
100
AcDbLine
 10
2595.145634731904
 20
3380.703096521186
 30
0.0
 11
2595.145634731904
 21
3660.706373655623
 31
0.0
  0
LINE
  5
EA6
330
8B1
100
AcDbEntity
  8
SUNPOU
 62
     0
440
 16777216
370
    -2
100
AcDbLine
 10
2085.145634731904
 20
3650.706373655623
 30
0.0
 11
2555.145634731904
 21
3650.706373655623
 31
0.0
  0
SOLID
  5
EA7
330
8B1
100
AcDbEntity
  8
SUNPOU
 62
     0
440
 16777216
100
AcDbTrace
 10
2085.145634731904
 20
3657.373040322289
 30
0.0
 11
2085.145634731904
 21
3644.039706988956
 31
0.0
 12
2045.145634731904
 22
3650.706373655623
 32
0.0
 13
2045.145634731904
 23
3650.706373655623
 33
0.0
  0
SOLID
  5
EA8
330
8B1
100
AcDbEntity
  8
SUNPOU
 62
     0
440
 16777216
100
AcDbTrace
 10
2555.145634731904
 20
3657.373040322289
 30
0.0
 11
2555.145634731904
 21
3644.039706988956
 31
0.0
 12
2595.145634731904
 22
3650.706373655623
 32
0.0
 13
2595.145634731904
 23
3650.706373655623
 33
0.0
  0
MTEXT
  5
EA9
330
8B1
100
AcDbEntity
  8
SUNPOU
 62
     0
440
 16777216
100
AcDbMText
 10
2320.145634731904
 20
3696.706373655623
 30
0.0
 40
60.0
 41
0.0
 71
     5
 72
     1
  1
\A1;550
 73
     1
 44
1.0
  0
POINT
  5
EAA
330
8B1
100
AcDbEntity
  8
DEFPOINTS
 62
     0
440
 16777216
100
AcDbPoint
 10
2045.145634731904
 20
3340.703096521186
 30
0.0
  0
POINT
  5
EAB
330
8B1
100
AcDbEntity
  8
DEFPOINTS
 62
     0
440
 16777216
100
AcDbPoint
 10
2595.145634731904
 20
3340.703096521186
 30
0.0
  0
POINT
  5
EAC
330
8B1
100
AcDbEntity
  8
DEFPOINTS
 62
     0
440
 16777216
100
AcDbPoint
 10
2595.145634731904
 20
3650.706373655623
 30
0.0
  0
ENDBLK
  5
8BC
330
8B1
100
AcDbEntity
  8
0
100
AcDbBlockEnd
  0
BLOCK
  5
8C8
330
8BD
100
AcDbEntity
  8
0
100
AcDbBlockBegin
  2
*D63
 70
     1
 10
0.0
 20
0.0
 30
0.0
  3
*D63
  1

  0
LINE
  5
EAD
330
8BD
100
AcDbEntity
  8
SUNPOU
 62
     0
440
 16777216
370
    -2
100
AcDbLine
 10
1985.145634731904
 20
3380.703096521186
 30
0.0
 11
1985.145634731904
 21
3660.706373655623
 31
0.0
  0
LINE
  5
EAE
330
8BD
100
AcDbEntity
  8
SUNPOU
 62
     0
440
 16777216
370
    -2
100
AcDbLine
 10
2045.145634731904
 20
3380.703096521186
 30
0.0
 11
2045.145634731904
 21
3660.706373655623
 31
0.0
  0
LINE
  5
EAF
330
8BD
100
AcDbEntity
  8
SUNPOU
 62
     0
440
 16777216
370
    -2
100
AcDbLine
 10
1945.145634731904
 20
3650.706373655623
 30
0.0
 11
1905.145634731904
 21
3650.706373655623
 31
0.0
  0
LINE
  5
EB0
330
8BD
100
AcDbEntity
  8
SUNPOU
 62
     0
440
 16777216
370
    -2
100
AcDbLine
 10
2085.145634731904
 20
3650.706373655623
 30
0.0
 11
2125.145634731904
 21
3650.706373655623
 31
0.0
  0
SOLID
  5
EB1
330
8BD
100
AcDbEntity
  8
SUNPOU
 62
     0
440
 16777216
100
AcDbTrace
 10
1945.145634731904
 20
3657.373040322289
 30
0.0
 11
1945.145634731904
 21
3644.039706988956
 31
0.0
 12
1985.145634731904
 22
3650.706373655623
 32
0.0
 13
1985.145634731904
 23
3650.706373655623
 33
0.0
  0
SOLID
  5
EB2
330
8BD
100
AcDbEntity
  8
SUNPOU
 62
     0
440
 16777216
100
AcDbTrace
 10
2085.145634731904
 20
3657.373040322289
 30
0.0
 11
2085.145634731904
 21
3644.039706988956
 31
0.0
 12
2045.145634731904
 22
3650.706373655623
 32
0.0
 13
2045.145634731904
 23
3650.706373655623
 33
0.0
  0
MTEXT
  5
EB3
330
8BD
100
AcDbEntity
  8
SUNPOU
 62
     0
440
 16777216
100
AcDbMText
 10
2015.145634731904
 20
3696.706373655623
 30
0.0
 40
60.0
 41
0.0
 71
     5
 72
     1
  1
\A1;60
 73
     1
 44
1.0
  0
POINT
  5
EB4
330
8BD
100
AcDbEntity
  8
DEFPOINTS
 62
     0
440
 16777216
100
AcDbPoint
 10
1985.145634731904
 20
3340.703096521186
 30
0.0
  0
POINT
  5
EB5
330
8BD
100
AcDbEntity
  8
DEFPOINTS
 62
     0
440
 16777216
100
AcDbPoint
 10
2045.145634731904
 20
3340.703096521186
 30
0.0
  0
POINT
  5
EB6
330
8BD
100
AcDbEntity
  8
DEFPOINTS
 62
     0
440
 16777216
100
AcDbPoint
 10
2045.145634731904
 20
3650.706373655623
 30
0.0
  0
ENDBLK
  5
8C9
330
8BD
100
AcDbEntity
  8
0
100
AcDbBlockEnd
  0
BLOCK
  5
8D4
330
8CA
100
AcDbEntity
  8
0
100
AcDbBlockBegin
  2
*D64
 70
     1
 10
0.0
 20
0.0
 30
0.0
  3
*D64
  1

  0
LINE
  5
EB7
330
8CA
100
AcDbEntity
  8
SUNPOU
 62
     0
440
 16777216
370
    -2
100
AcDbLine
 10
2020.145634731904
 20
3980.703096521186
 30
0.0
 11
2020.145634731904
 21
4231.060453364474
 31
0.0
  0
LINE
  5
EB8
330
8CA
100
AcDbEntity
  8
SUNPOU
 62
     0
440
 16777216
370
    -2
100
AcDbLine
 10
2620.145634731904
 20
3980.703096521186
 30
0.0
 11
2620.145634731904
 21
4231.060453364474
 31
0.0
  0
LINE
  5
EB9
330
8CA
100
AcDbEntity
  8
SUNPOU
 62
     0
440
 16777216
370
    -2
100
AcDbLine
 10
2060.145634731904
 20
4221.060453364474
 30
0.0
 11
2580.145634731904
 21
4221.060453364474
 31
0.0
  0
SOLID
  5
EBA
330
8CA
100
AcDbEntity
  8
SUNPOU
 62
     0
440
 16777216
100
AcDbTrace
 10
2060.145634731904
 20
4227.727120031141
 30
0.0
 11
2060.145634731904
 21
4214.393786697807
 31
0.0
 12
2020.145634731904
 22
4221.060453364474
 32
0.0
 13
2020.145634731904
 23
4221.060453364474
 33
0.0
  0
SOLID
  5
EBB
330
8CA
100
AcDbEntity
  8
SUNPOU
 62
     0
440
 16777216
100
AcDbTrace
 10
2580.145634731904
 20
4227.727120031141
 30
0.0
 11
2580.145634731904
 21
4214.393786697807
 31
0.0
 12
2620.145634731904
 22
4221.060453364474
 32
0.0
 13
2620.145634731904
 23
4221.060453364474
 33
0.0
  0
MTEXT
  5
EBC
330
8CA
100
AcDbEntity
  8
SUNPOU
 62
     0
440
 16777216
100
AcDbMText
 10
2320.145634731904
 20
4267.060453364474
 30
0.0
 40
60.0
 41
0.0
 71
     5
 72
     1
  1
\A1;600
 73
     1
 44
1.0
  0
POINT
  5
EBD
330
8CA
100
AcDbEntity
  8
DEFPOINTS
 62
     0
440
 16777216
100
AcDbPoint
 10
2020.145634731904
 20
3940.703096521186
 30
0.0
  0
POINT
  5
EBE
330
8CA
100
AcDbEntity
  8
DEFPOINTS
 62
     0
440
 16777216
100
AcDbPoint
 10
2620.145634731904
 20
3940.703096521186
 30
0.0
  0
POINT
  5
EBF
330
8CA
100
AcDbEntity
  8
DEFPOINTS
 62
     0
440
 16777216
100
AcDbPoint
 10
2620.145634731904
 20
4221.060453364474
 30
0.0
  0
ENDBLK
  5
8D5
330
8CA
100
AcDbEntity
  8
0
100
AcDbBlockEnd
  0
BLOCK
  5
8E0
330
8D6
100
AcDbEntity
  8
0
100
AcDbBlockBegin
  2
*D65
 70
     1
 10
0.0
 20
0.0
 30
0.0
  3
*D65
  1

  0
LINE
  5
EC0
330
8D6
100
AcDbEntity
  8
SUNPOU
 62
     0
440
 16777216
370
    -2
100
AcDbLine
 10
1960.145634731904
 20
3980.703096521186
 30
0.0
 11
1960.145634731904
 21
4358.69171066633
 31
0.0
  0
LINE
  5
EC1
330
8D6
100
AcDbEntity
  8
SUNPOU
 62
     0
440
 16777216
370
    -2
100
AcDbLine
 10
2680.145634731904
 20
3980.703096521186
 30
0.0
 11
2680.145634731904
 21
4358.69171066633
 31
0.0
  0
LINE
  5
EC2
330
8D6
100
AcDbEntity
  8
SUNPOU
 62
     0
440
 16777216
370
    -2
100
AcDbLine
 10
2000.145634731904
 20
4348.69171066633
 30
0.0
 11
2640.145634731904
 21
4348.69171066633
 31
0.0
  0
SOLID
  5
EC3
330
8D6
100
AcDbEntity
  8
SUNPOU
 62
     0
440
 16777216
100
AcDbTrace
 10
2000.145634731904
 20
4355.358377332996
 30
0.0
 11
2000.145634731904
 21
4342.025043999663
 31
0.0
 12
1960.145634731904
 22
4348.69171066633
 32
0.0
 13
1960.145634731904
 23
4348.69171066633
 33
0.0
  0
SOLID
  5
EC4
330
8D6
100
AcDbEntity
  8
SUNPOU
 62
     0
440
 16777216
100
AcDbTrace
 10
2640.145634731904
 20
4355.358377332996
 30
0.0
 11
2640.145634731904
 21
4342.025043999663
 31
0.0
 12
2680.145634731904
 22
4348.69171066633
 32
0.0
 13
2680.145634731904
 23
4348.69171066633
 33
0.0
  0
MTEXT
  5
EC5
330
8D6
100
AcDbEntity
  8
SUNPOU
 62
     0
440
 16777216
100
AcDbMText
 10
2320.145634731904
 20
4394.69171066633
 30
0.0
 40
60.0
 41
0.0
 71
     5
 72
     1
  1
\A1;720
 73
     1
 44
1.0
  0
POINT
  5
EC6
330
8D6
100
AcDbEntity
  8
DEFPOINTS
 62
     0
440
 16777216
100
AcDbPoint
 10
1960.145634731904
 20
3940.703096521186
 30
0.0
  0
POINT
  5
EC7
330
8D6
100
AcDbEntity
  8
DEFPOINTS
 62
     0
440
 16777216
100
AcDbPoint
 10
2680.145634731904
 20
3940.703096521186
 30
0.0
  0
POINT
  5
EC8
330
8D6
100
AcDbEntity
  8
DEFPOINTS
 62
     0
440
 16777216
100
AcDbPoint
 10
2680.145634731904
 20
4348.69171066633
 30
0.0
  0
ENDBLK
  5
8E1
330
8D6
100
AcDbEntity
  8
0
100
AcDbBlockEnd
  0
BLOCK
  5
907
330
8FC
100
AcDbEntity
  8
0
100
AcDbBlockBegin
  2
*D68
 70
     1
 10
0.0
 20
0.0
 30
0.0
  3
*D68
  1

  0
LINE
  5
EC9
330
8FC
100
AcDbEntity
  8
SUNPOU
 62
     0
440
 16777216
370
    -2
100
AcDbLine
 10
1975.145634731904
 20
3980.703096521186
 30
0.0
 11
1975.145634731904
 21
4231.060453364474
 31
0.0
  0
LINE
  5
ECA
330
8FC
100
AcDbEntity
  8
SUNPOU
 62
     0
440
 16777216
370
    -2
100
AcDbLine
 10
1960.145634731904
 20
3980.703096521186
 30
0.0
 11
1960.145634731904
 21
4231.060453364474
 31
0.0
  0
LINE
  5
ECB
330
8FC
100
AcDbEntity
  8
SUNPOU
 62
     0
440
 16777216
370
    -2
100
AcDbLine
 10
2015.145634731904
 20
4221.060453364474
 30
0.0
 11
2055.145634731904
 21
4221.060453364474
 31
0.0
  0
LINE
  5
ECC
330
8FC
100
AcDbEntity
  8
SUNPOU
 62
     0
440
 16777216
370
    -2
100
AcDbLine
 10
1920.145634731904
 20
4221.060453364474
 30
0.0
 11
1880.145634731904
 21
4221.060453364474
 31
0.0
  0
MTEXT
  5
ECD
330
8FC
100
AcDbEntity
  8
SUNPOU
 62
     0
440
 16777216
100
AcDbMText
 10
1903.834803838032
 20
4267.929797172788
 30
0.0
 40
60.0
 41
0.0
 71
     5
 72
     1
  1
\A1;15
 73
     1
 44
1.0
  0
SOLID
  5
ECE
330
8FC
100
AcDbEntity
  8
SUNPOU
 62
     0
440
 16777216
100
AcDbTrace
 10
2015.145634731904
 20
4227.727120031141
 30
0.0
 11
2015.145634731904
 21
4214.393786697807
 31
0.0
 12
1975.145634731904
 22
4221.060453364474
 32
0.0
 13
1975.145634731904
 23
4221.060453364474
 33
0.0
  0
SOLID
  5
ECF
330
8FC
100
AcDbEntity
  8
SUNPOU
 62
     0
440
 16777216
100
AcDbTrace
 10
1920.145634731904
 20
4227.727120031141
 30
0.0
 11
1920.145634731904
 21
4214.393786697807
 31
0.0
 12
1960.145634731904
 22
4221.060453364474
 32
0.0
 13
1960.145634731904
 23
4221.060453364474
 33
0.0
  0
POINT
  5
ED0
330
8FC
100
AcDbEntity
  8
DEFPOINTS
 62
     0
440
 16777216
100
AcDbPoint
 10
1975.145634731904
 20
3940.703096521186
 30
0.0
  0
POINT
  5
ED1
330
8FC
100
AcDbEntity
  8
DEFPOINTS
 62
     0
440
 16777216
100
AcDbPoint
 10
1960.145634731904
 20
3940.703096521186
 30
0.0
  0
POINT
  5
ED2
330
8FC
100
AcDbEntity
  8
DEFPOINTS
 62
     0
440
 16777216
100
AcDbPoint
 10
1960.145634731904
 20
4221.060453364474
 30
0.0
  0
ENDBLK
  5
908
330
8FC
100
AcDbEntity
  8
0
100
AcDbBlockEnd
  0
BLOCK
  5
914
330
909
100
AcDbEntity
  8
0
100
AcDbBlockBegin
  2
*D69
 70
     1
 10
0.0
 20
0.0
 30
0.0
  3
*D69
  1

  0
LINE
  5
ED3
330
909
100
AcDbEntity
  8
SUNPOU
 62
     0
440
 16777216
370
    -2
100
AcDbLine
 10
2020.145634731904
 20
3980.703096521186
 30
0.0
 11
2020.145634731904
 21
4231.060453364474
 31
0.0
  0
LINE
  5
ED4
330
909
100
AcDbEntity
  8
SUNPOU
 62
     0
440
 16777216
370
    -2
100
AcDbLine
 10
1975.145634731904
 20
3980.703096521186
 30
0.0
 11
1975.145634731904
 21
4231.060453364474
 31
0.0
  0
LINE
  5
ED5
330
909
100
AcDbEntity
  8
SUNPOU
 62
     0
440
 16777216
370
    -2
100
AcDbLine
 10
2060.145634731904
 20
4221.060453364474
 30
0.0
 11
2100.145634731904
 21
4221.060453364474
 31
0.0
  0
LINE
  5
ED6
330
909
100
AcDbEntity
  8
SUNPOU
 62
     0
440
 16777216
370
    -2
100
AcDbLine
 10
1935.145634731904
 20
4221.060453364474
 30
0.0
 11
1895.145634731904
 21
4221.060453364474
 31
0.0
  0
SOLID
  5
ED7
330
909
100
AcDbEntity
  8
SUNPOU
 62
     0
440
 16777216
100
AcDbTrace
 10
2060.145634731904
 20
4227.727120031141
 30
0.0
 11
2060.145634731904
 21
4214.393786697807
 31
0.0
 12
2020.145634731904
 22
4221.060453364474
 32
0.0
 13
2020.145634731904
 23
4221.060453364474
 33
0.0
  0
SOLID
  5
ED8
330
909
100
AcDbEntity
  8
SUNPOU
 62
     0
440
 16777216
100
AcDbTrace
 10
1935.145634731904
 20
4227.727120031141
 30
0.0
 11
1935.145634731904
 21
4214.393786697807
 31
0.0
 12
1975.145634731904
 22
4221.060453364474
 32
0.0
 13
1975.145634731904
 23
4221.060453364474
 33
0.0
  0
MTEXT
  5
ED9
330
909
100
AcDbEntity
  8
SUNPOU
 62
     0
440
 16777216
100
AcDbMText
 10
1997.645634731904
 20
4267.060453364474
 30
0.0
 40
60.0
 41
0.0
 71
     5
 72
     1
  1
\A1;45
 73
     1
 44
1.0
  0
POINT
  5
EDA
330
909
100
AcDbEntity
  8
DEFPOINTS
 62
     0
440
 16777216
100
AcDbPoint
 10
2020.145634731904
 20
3940.703096521186
 30
0.0
  0
POINT
  5
EDB
330
909
100
AcDbEntity
  8
DEFPOINTS
 62
     0
440
 16777216
100
AcDbPoint
 10
1975.145634731904
 20
3940.703096521186
 30
0.0
  0
POINT
  5
EDC
330
909
100
AcDbEntity
  8
DEFPOINTS
 62
     0
440
 16777216
100
AcDbPoint
 10
1975.145634731904
 20
4221.060453364474
 30
0.0
  0
ENDBLK
  5
915
330
909
100
AcDbEntity
  8
0
100
AcDbBlockEnd
  0
BLOCK
  5
920
330
916
100
AcDbEntity
  8
0
100
AcDbBlockBegin
  2
*D70
 70
     1
 10
0.0
 20
0.0
 30
0.0
  3
*D70
  1

  0
LINE
  5
EDD
330
916
100
AcDbEntity
  8
SUNPOU
 62
     0
440
 16777216
370
    -2
100
AcDbLine
 10
1920.145634731904
 20
3940.703096521186
 30
0.0
 11
1565.904193883413
 21
3940.703096521186
 31
0.0
  0
LINE
  5
EDE
330
916
100
AcDbEntity
  8
SUNPOU
 62
     0
440
 16777216
370
    -2
100
AcDbLine
 10
1945.145634731904
 20
3340.703096521186
 30
0.0
 11
1565.904193883413
 21
3340.703096521186
 31
0.0
  0
LINE
  5
EDF
330
916
100
AcDbEntity
  8
SUNPOU
 62
     0
440
 16777216
370
    -2
100
AcDbLine
 10
1575.904193883413
 20
3900.703096521186
 30
0.0
 11
1575.904193883413
 21
3380.703096521186
 31
0.0
  0
SOLID
  5
EE0
330
916
100
AcDbEntity
  8
SUNPOU
 62
     0
440
 16777216
100
AcDbTrace
 10
1569.237527216746
 20
3900.703096521186
 30
0.0
 11
1582.570860550079
 21
3900.703096521186
 31
0.0
 12
1575.904193883413
 22
3940.703096521186
 32
0.0
 13
1575.904193883413
 23
3940.703096521186
 33
0.0
  0
SOLID
  5
EE1
330
916
100
AcDbEntity
  8
SUNPOU
 62
     0
440
 16777216
100
AcDbTrace
 10
1569.237527216746
 20
3380.703096521186
 30
0.0
 11
1582.570860550079
 21
3380.703096521186
 31
0.0
 12
1575.904193883413
 22
3340.703096521186
 32
0.0
 13
1575.904193883413
 23
3340.703096521186
 33
0.0
  0
MTEXT
  5
EE2
330
916
100
AcDbEntity
  8
SUNPOU
 62
     0
440
 16777216
100
AcDbMText
 10
1529.904193883412
 20
3640.703096521187
 30
0.0
 40
60.0
 41
0.0
 71
     5
 72
     1
  1
\A1;600
 11
6.123031769111886E-17
 21
1.0
 31
0.0
 73
     1
 44
1.0
  0
POINT
  5
EE3
330
916
100
AcDbEntity
  8
DEFPOINTS
 62
     0
440
 16777216
100
AcDbPoint
 10
1960.145634731904
 20
3940.703096521186
 30
0.0
  0
POINT
  5
EE4
330
916
100
AcDbEntity
  8
DEFPOINTS
 62
     0
440
 16777216
100
AcDbPoint
 10
1985.145634731904
 20
3340.703096521186
 30
0.0
  0
POINT
  5
EE5
330
916
100
AcDbEntity
  8
DEFPOINTS
 62
     0
440
 16777216
100
AcDbPoint
 10
1575.904193883413
 20
3340.703096521186
 30
0.0
  0
ENDBLK
  5
921
330
916
100
AcDbEntity
  8
0
100
AcDbBlockEnd
  0
BLOCK
  5
92D
330
922
100
AcDbEntity
  8
0
100
AcDbBlockBegin
  2
*D71
 70
     1
 10
0.0
 20
0.0
 30
0.0
  3
*D71
  1

  0
LINE
  5
EE6
330
922
100
AcDbEntity
  8
SUNPOU
 62
     0
440
 16777216
370
    -2
100
AcDbLine
 10
1945.145634731904
 20
3340.703096521186
 30
0.0
 11
1565.904193883413
 21
3340.703096521186
 31
0.0
  0
LINE
  5
EE7
330
922
100
AcDbEntity
  8
SUNPOU
 62
     0
440
 16777216
370
    -2
100
AcDbLine
 10
1975.145634731904
 20
3280.703096521186
 30
0.0
 11
1565.904193883413
 21
3280.703096521186
 31
0.0
  0
LINE
  5
EE8
330
922
100
AcDbEntity
  8
SUNPOU
 62
     0
440
 16777216
370
    -2
100
AcDbLine
 10
1575.904193883413
 20
3380.703096521186
 30
0.0
 11
1575.904193883413
 21
3420.703096521186
 31
0.0
  0
LINE
  5
EE9
330
922
100
AcDbEntity
  8
SUNPOU
 62
     0
440
 16777216
370
    -2
100
AcDbLine
 10
1575.904193883413
 20
3240.703096521186
 30
0.0
 11
1575.904193883413
 21
3200.703096521186
 31
0.0
  0
SOLID
  5
EEA
330
922
100
AcDbEntity
  8
SUNPOU
 62
     0
440
 16777216
100
AcDbTrace
 10
1569.237527216746
 20
3380.703096521186
 30
0.0
 11
1582.570860550079
 21
3380.703096521186
 31
0.0
 12
1575.904193883413
 22
3340.703096521186
 32
0.0
 13
1575.904193883413
 23
3340.703096521186
 33
0.0
  0
SOLID
  5
EEB
330
922
100
AcDbEntity
  8
SUNPOU
 62
     0
440
 16777216
100
AcDbTrace
 10
1569.237527216746
 20
3240.703096521186
 30
0.0
 11
1582.570860550079
 21
3240.703096521186
 31
0.0
 12
1575.904193883413
 22
3280.703096521186
 32
0.0
 13
1575.904193883413
 23
3280.703096521186
 33
0.0
  0
MTEXT
  5
EEC
330
922
100
AcDbEntity
  8
SUNPOU
 62
     0
440
 16777216
100
AcDbMText
 10
1529.904193883412
 20
3310.703096521187
 30
0.0
 40
60.0
 41
0.0
 71
     5
 72
     1
  1
\A1;60
 11
6.123031769111886E-17
 21
1.0
 31
0.0
 73
     1
 44
1.0
  0
POINT
  5
EED
330
922
100
AcDbEntity
  8
DEFPOINTS
 62
     0
440
 16777216
100
AcDbPoint
 10
1985.145634731904
 20
3340.703096521186
 30
0.0
  0
POINT
  5
EEE
330
922
100
AcDbEntity
  8
DEFPOINTS
 62
     0
440
 16777216
100
AcDbPoint
 10
2015.145634731904
 20
3280.703096521186
 30
0.0
  0
POINT
  5
EEF
330
922
100
AcDbEntity
  8
DEFPOINTS
 62
     0
440
 16777216
100
AcDbPoint
 10
1575.904193883413
 20
3280.703096521186
 30
0.0
  0
ENDBLK
  5
92E
330
922
100
AcDbEntity
  8
0
100
AcDbBlockEnd
  0
BLOCK
  5
939
330
92F
100
AcDbEntity
  8
0
100
AcDbBlockBegin
  2
*D72
 70
     1
 10
0.0
 20
0.0
 30
0.0
  3
*D72
  1

  0
LINE
  5
EF0
330
92F
100
AcDbEntity
  8
SUNPOU
 62
     0
440
 16777216
370
    -2
100
AcDbLine
 10
2015.145634731904
 20
3240.703096521186
 30
0.0
 11
2015.145634731904
 21
2987.808159655824
 31
0.0
  0
LINE
  5
EF1
330
92F
100
AcDbEntity
  8
SUNPOU
 62
     0
440
 16777216
370
    -2
100
AcDbLine
 10
2625.145634731904
 20
3240.703096521186
 30
0.0
 11
2625.145634731904
 21
2987.808159655824
 31
0.0
  0
LINE
  5
EF2
330
92F
100
AcDbEntity
  8
SUNPOU
 62
     0
440
 16777216
370
    -2
100
AcDbLine
 10
2055.145634731904
 20
2997.808159655824
 30
0.0
 11
2585.145634731904
 21
2997.808159655824
 31
0.0
  0
SOLID
  5
EF3
330
92F
100
AcDbEntity
  8
SUNPOU
 62
     0
440
 16777216
100
AcDbTrace
 10
2055.145634731904
 20
3004.474826322491
 30
0.0
 11
2055.145634731904
 21
2991.141492989158
 31
0.0
 12
2015.145634731904
 22
2997.808159655824
 32
0.0
 13
2015.145634731904
 23
2997.808159655824
 33
0.0
  0
SOLID
  5
EF4
330
92F
100
AcDbEntity
  8
SUNPOU
 62
     0
440
 16777216
100
AcDbTrace
 10
2585.145634731904
 20
3004.474826322491
 30
0.0
 11
2585.145634731904
 21
2991.141492989158
 31
0.0
 12
2625.145634731904
 22
2997.808159655824
 32
0.0
 13
2625.145634731904
 23
2997.808159655824
 33
0.0
  0
MTEXT
  5
EF5
330
92F
100
AcDbEntity
  8
SUNPOU
 62
     0
440
 16777216
100
AcDbMText
 10
2320.145634731904
 20
3043.808159655824
 30
0.0
 40
60.0
 41
0.0
 71
     5
 72
     1
  1
\A1;610
 73
     1
 44
1.0
  0
POINT
  5
EF6
330
92F
100
AcDbEntity
  8
DEFPOINTS
 62
     0
440
 16777216
100
AcDbPoint
 10
2015.145634731904
 20
3280.703096521186
 30
0.0
  0
POINT
  5
EF7
330
92F
100
AcDbEntity
  8
DEFPOINTS
 62
     0
440
 16777216
100
AcDbPoint
 10
2625.145634731904
 20
3280.703096521186
 30
0.0
  0
POINT
  5
EF8
330
92F
100
AcDbEntity
  8
DEFPOINTS
 62
     0
440
 16777216
100
AcDbPoint
 10
2625.145634731904
 20
2997.808159655824
 30
0.0
  0
ENDBLK
  5
93A
330
92F
100
AcDbEntity
  8
0
100
AcDbBlockEnd
  0
BLOCK
  5
A1B
330
A10
100
AcDbEntity
  8
0
100
AcDbBlockBegin
  2
*D90
 70
     1
 10
0.0
 20
0.0
 30
0.0
  3
*D90
  1

  0
LINE
  5
EF9
330
A10
100
AcDbEntity
  8
SUNPOU
 62
     0
440
 16777216
370
    -2
100
AcDbLine
 10
1920.145634731904
 20
3885.703096521186
 30
0.0
 11
1811.211792323917
 21
3885.703096521186
 31
0.0
  0
LINE
  5
EFA
330
A10
100
AcDbEntity
  8
SUNPOU
 62
     0
440
 16777216
370
    -2
100
AcDbLine
 10
1920.145634731904
 20
3940.703096521186
 30
0.0
 11
1811.211792323917
 21
3940.703096521186
 31
0.0
  0
LINE
  5
EFB
330
A10
100
AcDbEntity
  8
SUNPOU
 62
     0
440
 16777216
370
    -2
100
AcDbLine
 10
1821.211792323917
 20
3845.703096521186
 30
0.0
 11
1821.211792323917
 21
3805.703096521186
 31
0.0
  0
LINE
  5
EFC
330
A10
100
AcDbEntity
  8
SUNPOU
 62
     0
440
 16777216
370
    -2
100
AcDbLine
 10
1821.211792323917
 20
3980.703096521186
 30
0.0
 11
1821.211792323917
 21
4020.703096521186
 31
0.0
  0
SOLID
  5
EFD
330
A10
100
AcDbEntity
  8
SUNPOU
 62
     0
440
 16777216
100
AcDbTrace
 10
1814.54512565725
 20
3845.703096521186
 30
0.0
 11
1827.878458990583
 21
3845.703096521186
 31
0.0
 12
1821.211792323917
 22
3885.703096521186
 32
0.0
 13
1821.211792323917
 23
3885.703096521186
 33
0.0
  0
SOLID
  5
EFE
330
A10
100
AcDbEntity
  8
SUNPOU
 62
     0
440
 16777216
100
AcDbTrace
 10
1814.54512565725
 20
3980.703096521186
 30
0.0
 11
1827.878458990583
 21
3980.703096521186
 31
0.0
 12
1821.211792323917
 22
3940.703096521186
 32
0.0
 13
1821.211792323917
 23
3940.703096521186
 33
0.0
  0
MTEXT
  5
EFF
330
A10
100
AcDbEntity
  8
SUNPOU
 62
     0
440
 16777216
100
AcDbMText
 10
1775.211792323916
 20
3913.203096521187
 30
0.0
 40
60.0
 41
0.0
 71
     5
 72
     1
  1
\A1;55
 11
6.123031769111886E-17
 21
1.0
 31
0.0
 73
     1
 44
1.0
  0
POINT
  5
F00
330
A10
100
AcDbEntity
  8
DEFPOINTS
 62
     0
440
 16777216
100
AcDbPoint
 10
1960.145634731904
 20
3885.703096521186
 30
0.0
  0
POINT
  5
F01
330
A10
100
AcDbEntity
  8
DEFPOINTS
 62
     0
440
 16777216
100
AcDbPoint
 10
1960.145634731904
 20
3940.703096521186
 30
0.0
  0
POINT
  5
F02
330
A10
100
AcDbEntity
  8
DEFPOINTS
 62
     0
440
 16777216
100
AcDbPoint
 10
1821.211792323917
 20
3940.703096521186
 30
0.0
  0
ENDBLK
  5
A1C
330
A10
100
AcDbEntity
  8
0
100
AcDbBlockEnd
  0
BLOCK
  5
A33
330
A29
100
AcDbEntity
  8
0
100
AcDbBlockBegin
  2
*D92
 70
     1
 10
0.0
 20
0.0
 30
0.0
  3
*D92
  1

  0
LINE
  5
F03
330
A29
100
AcDbEntity
  8
SUNPOU
 62
     0
440
 16777216
370
    -2
100
AcDbLine
 10
4029.751386313662
 20
3240.703096521186
 30
0.0
 11
4029.751386313662
 21
2990.266916746756
 31
0.0
  0
LINE
  5
F04
330
A29
100
AcDbEntity
  8
SUNPOU
 62
     0
440
 16777216
370
    -2
100
AcDbLine
 10
4279.751386313662
 20
3240.703096521185
 30
0.0
 11
4279.751386313662
 21
2990.266916746756
 31
0.0
  0
LINE
  5
F05
330
A29
100
AcDbEntity
  8
SUNPOU
 62
     0
440
 16777216
370
    -2
100
AcDbLine
 10
4069.751386313662
 20
3000.266916746756
 30
0.0
 11
4239.751386313662
 21
3000.266916746756
 31
0.0
  0
SOLID
  5
F06
330
A29
100
AcDbEntity
  8
SUNPOU
 62
     0
440
 16777216
100
AcDbTrace
 10
4069.751386313662
 20
3006.933583413422
 30
0.0
 11
4069.751386313662
 21
2993.600250080089
 31
0.0
 12
4029.751386313662
 22
3000.266916746756
 32
0.0
 13
4029.751386313662
 23
3000.266916746756
 33
0.0
  0
SOLID
  5
F07
330
A29
100
AcDbEntity
  8
SUNPOU
 62
     0
440
 16777216
100
AcDbTrace
 10
4239.751386313662
 20
3006.933583413422
 30
0.0
 11
4239.751386313662
 21
2993.600250080089
 31
0.0
 12
4279.751386313662
 22
3000.266916746756
 32
0.0
 13
4279.751386313662
 23
3000.266916746756
 33
0.0
  0
MTEXT
  5
F08
330
A29
100
AcDbEntity
  8
SUNPOU
 62
     0
440
 16777216
100
AcDbMText
 10
4154.751386313662
 20
3046.266916746756
 30
0.0
 40
60.0
 41
0.0
 71
     5
 72
     1
  1
\A1;250
 73
     1
 44
1.0
  0
POINT
  5
F09
330
A29
100
AcDbEntity
  8
DEFPOINTS
 62
     0
440
 16777216
100
AcDbPoint
 10
4029.751386313662
 20
3280.703096521186
 30
0.0
  0
POINT
  5
F0A
330
A29
100
AcDbEntity
  8
DEFPOINTS
 62
     0
440
 16777216
100
AcDbPoint
 10
4279.751386313662
 20
3280.703096521185
 30
0.0
  0
POINT
  5
F0B
330
A29
100
AcDbEntity
  8
DEFPOINTS
 62
     0
440
 16777216
100
AcDbPoint
 10
4279.751386313662
 20
3000.266916746756
 30
0.0
  0
ENDBLK
  5
A34
330
A29
100
AcDbEntity
  8
0
100
AcDbBlockEnd
  0
BLOCK
  5
A3F
330
A35
100
AcDbEntity
  8
0
100
AcDbBlockBegin
  2
*D93
 70
     1
 10
0.0
 20
0.0
 30
0.0
  3
*D93
  1

  0
LINE
  5
F0C
330
A35
100
AcDbEntity
  8
SUNPOU
 62
     0
440
 16777216
370
    -2
100
AcDbLine
 10
4279.751386313662
 20
3240.703096521185
 30
0.0
 11
4279.751386313662
 21
2990.266916746756
 31
0.0
  0
LINE
  5
F0D
330
A35
100
AcDbEntity
  8
SUNPOU
 62
     0
440
 16777216
370
    -2
100
AcDbLine
 10
4779.751386313662
 20
3240.703096521185
 30
0.0
 11
4779.751386313662
 21
2990.266916746756
 31
0.0
  0
LINE
  5
F0E
330
A35
100
AcDbEntity
  8
SUNPOU
 62
     0
440
 16777216
370
    -2
100
AcDbLine
 10
4319.751386313662
 20
3000.266916746756
 30
0.0
 11
4739.751386313662
 21
3000.266916746756
 31
0.0
  0
SOLID
  5
F0F
330
A35
100
AcDbEntity
  8
SUNPOU
 62
     0
440
 16777216
100
AcDbTrace
 10
4319.751386313662
 20
3006.933583413422
 30
0.0
 11
4319.751386313662
 21
2993.600250080089
 31
0.0
 12
4279.751386313662
 22
3000.266916746756
 32
0.0
 13
4279.751386313662
 23
3000.266916746756
 33
0.0
  0
SOLID
  5
F10
330
A35
100
AcDbEntity
  8
SUNPOU
 62
     0
440
 16777216
100
AcDbTrace
 10
4739.751386313662
 20
3006.933583413422
 30
0.0
 11
4739.751386313662
 21
2993.600250080089
 31
0.0
 12
4779.751386313662
 22
3000.266916746756
 32
0.0
 13
4779.751386313662
 23
3000.266916746756
 33
0.0
  0
MTEXT
  5
F11
330
A35
100
AcDbEntity
  8
SUNPOU
 62
     0
440
 16777216
100
AcDbMText
 10
4529.751386313662
 20
3046.266916746756
 30
0.0
 40
60.0
 41
0.0
 71
     5
 72
     1
  1
\A1;500
 73
     1
 44
1.0
  0
POINT
  5
F12
330
A35
100
AcDbEntity
  8
DEFPOINTS
 62
     0
440
 16777216
100
AcDbPoint
 10
4279.751386313662
 20
3280.703096521185
 30
0.0
  0
POINT
  5
F13
330
A35
100
AcDbEntity
  8
DEFPOINTS
 62
     0
440
 16777216
100
AcDbPoint
 10
4779.751386313662
 20
3280.703096521185
 30
0.0
  0
POINT
  5
F14
330
A35
100
AcDbEntity
  8
DEFPOINTS
 62
     0
440
 16777216
100
AcDbPoint
 10
4779.751386313662
 20
3000.266916746756
 30
0.0
  0
ENDBLK
  5
A40
330
A35
100
AcDbEntity
  8
0
100
AcDbBlockEnd
  0
BLOCK
  5
A4B
330
A41
100
AcDbEntity
  8
0
100
AcDbBlockBegin
  2
*D94
 70
     1
 10
0.0
 20
0.0
 30
0.0
  3
*D94
  1

  0
LINE
  5
F15
330
A41
100
AcDbEntity
  8
SUNPOU
 62
     0
440
 16777216
370
    -2
100
AcDbLine
 10
4779.751386313662
 20
3240.703096521185
 30
0.0
 11
4779.751386313662
 21
2990.266916746756
 31
0.0
  0
LINE
  5
F16
330
A41
100
AcDbEntity
  8
SUNPOU
 62
     0
440
 16777216
370
    -2
100
AcDbLine
 10
5279.751386313662
 20
3240.703096521185
 30
0.0
 11
5279.751386313662
 21
2990.266916746756
 31
0.0
  0
LINE
  5
F17
330
A41
100
AcDbEntity
  8
SUNPOU
 62
     0
440
 16777216
370
    -2
100
AcDbLine
 10
4819.751386313662
 20
3000.266916746756
 30
0.0
 11
5239.751386313662
 21
3000.266916746756
 31
0.0
  0
SOLID
  5
F18
330
A41
100
AcDbEntity
  8
SUNPOU
 62
     0
440
 16777216
100
AcDbTrace
 10
4819.751386313662
 20
3006.933583413422
 30
0.0
 11
4819.751386313662
 21
2993.600250080089
 31
0.0
 12
4779.751386313662
 22
3000.266916746756
 32
0.0
 13
4779.751386313662
 23
3000.266916746756
 33
0.0
  0
SOLID
  5
F19
330
A41
100
AcDbEntity
  8
SUNPOU
 62
     0
440
 16777216
100
AcDbTrace
 10
5239.751386313662
 20
3006.933583413422
 30
0.0
 11
5239.751386313662
 21
2993.600250080089
 31
0.0
 12
5279.751386313662
 22
3000.266916746756
 32
0.0
 13
5279.751386313662
 23
3000.266916746756
 33
0.0
  0
MTEXT
  5
F1A
330
A41
100
AcDbEntity
  8
SUNPOU
 62
     0
440
 16777216
100
AcDbMText
 10
5029.751386313662
 20
3046.266916746756
 30
0.0
 40
60.0
 41
0.0
 71
     5
 72
     1
  1
\A1;500
 73
     1
 44
1.0
  0
POINT
  5
F1B
330
A41
100
AcDbEntity
  8
DEFPOINTS
 62
     0
440
 16777216
100
AcDbPoint
 10
4779.751386313662
 20
3280.703096521185
 30
0.0
  0
POINT
  5
F1C
330
A41
100
AcDbEntity
  8
DEFPOINTS
 62
     0
440
 16777216
100
AcDbPoint
 10
5279.751386313662
 20
3280.703096521185
 30
0.0
  0
POINT
  5
F1D
330
A41
100
AcDbEntity
  8
DEFPOINTS
 62
     0
440
 16777216
100
AcDbPoint
 10
5279.751386313662
 20
3000.266916746756
 30
0.0
  0
ENDBLK
  5
A4C
330
A41
100
AcDbEntity
  8
0
100
AcDbBlockEnd
  0
BLOCK
  5
A57
330
A4D
100
AcDbEntity
  8
0
100
AcDbBlockBegin
  2
*D95
 70
     1
 10
0.0
 20
0.0
 30
0.0
  3
*D95
  1

  0
LINE
  5
F1E
330
A4D
100
AcDbEntity
  8
SUNPOU
 62
     0
440
 16777216
370
    -2
100
AcDbLine
 10
5279.751386313662
 20
3240.703096521185
 30
0.0
 11
5279.751386313662
 21
2990.266916746756
 31
0.0
  0
LINE
  5
F1F
330
A4D
100
AcDbEntity
  8
SUNPOU
 62
     0
440
 16777216
370
    -2
100
AcDbLine
 10
5779.751386313662
 20
3240.703096521185
 30
0.0
 11
5779.751386313662
 21
2990.266916746756
 31
0.0
  0
LINE
  5
F20
330
A4D
100
AcDbEntity
  8
SUNPOU
 62
     0
440
 16777216
370
    -2
100
AcDbLine
 10
5319.751386313662
 20
3000.266916746756
 30
0.0
 11
5739.751386313662
 21
3000.266916746756
 31
0.0
  0
SOLID
  5
F21
330
A4D
100
AcDbEntity
  8
SUNPOU
 62
     0
440
 16777216
100
AcDbTrace
 10
5319.751386313662
 20
3006.933583413422
 30
0.0
 11
5319.751386313662
 21
2993.600250080089
 31
0.0
 12
5279.751386313662
 22
3000.266916746756
 32
0.0
 13
5279.751386313662
 23
3000.266916746756
 33
0.0
  0
SOLID
  5
F22
330
A4D
100
AcDbEntity
  8
SUNPOU
 62
     0
440
 16777216
100
AcDbTrace
 10
5739.751386313662
 20
3006.933583413422
 30
0.0
 11
5739.751386313662
 21
2993.600250080089
 31
0.0
 12
5779.751386313662
 22
3000.266916746756
 32
0.0
 13
5779.751386313662
 23
3000.266916746756
 33
0.0
  0
MTEXT
  5
F23
330
A4D
100
AcDbEntity
  8
SUNPOU
 62
     0
440
 16777216
100
AcDbMText
 10
5529.751386313662
 20
3046.266916746756
 30
0.0
 40
60.0
 41
0.0
 71
     5
 72
     1
  1
\A1;500
 73
     1
 44
1.0
  0
POINT
  5
F24
330
A4D
100
AcDbEntity
  8
DEFPOINTS
 62
     0
440
 16777216
100
AcDbPoint
 10
5279.751386313662
 20
3280.703096521185
 30
0.0
  0
POINT
  5
F25
330
A4D
100
AcDbEntity
  8
DEFPOINTS
 62
     0
440
 16777216
100
AcDbPoint
 10
5779.751386313662
 20
3280.703096521185
 30
0.0
  0
POINT
  5
F26
330
A4D
100
AcDbEntity
  8
DEFPOINTS
 62
     0
440
 16777216
100
AcDbPoint
 10
5779.751386313662
 20
3000.266916746756
 30
0.0
  0
ENDBLK
  5
A58
330
A4D
100
AcDbEntity
  8
0
100
AcDbBlockEnd
  0
BLOCK
  5
A63
330
A59
100
AcDbEntity
  8
0
100
AcDbBlockBegin
  2
*D96
 70
     1
 10
0.0
 20
0.0
 30
0.0
  3
*D96
  1

  0
LINE
  5
F27
330
A59
100
AcDbEntity
  8
SUNPOU
 62
     0
440
 16777216
370
    -2
100
AcDbLine
 10
5779.751386313662
 20
3240.703096521185
 30
0.0
 11
5779.751386313662
 21
2990.266916746756
 31
0.0
  0
LINE
  5
F28
330
A59
100
AcDbEntity
  8
SUNPOU
 62
     0
440
 16777216
370
    -2
100
AcDbLine
 10
6029.751386313662
 20
3240.703096521185
 30
0.0
 11
6029.751386313662
 21
2990.266916746756
 31
0.0
  0
LINE
  5
F29
330
A59
100
AcDbEntity
  8
SUNPOU
 62
     0
440
 16777216
370
    -2
100
AcDbLine
 10
5819.751386313662
 20
3000.266916746756
 30
0.0
 11
5989.751386313662
 21
3000.266916746756
 31
0.0
  0
SOLID
  5
F2A
330
A59
100
AcDbEntity
  8
SUNPOU
 62
     0
440
 16777216
100
AcDbTrace
 10
5819.751386313662
 20
3006.933583413422
 30
0.0
 11
5819.751386313662
 21
2993.600250080089
 31
0.0
 12
5779.751386313662
 22
3000.266916746756
 32
0.0
 13
5779.751386313662
 23
3000.266916746756
 33
0.0
  0
SOLID
  5
F2B
330
A59
100
AcDbEntity
  8
SUNPOU
 62
     0
440
 16777216
100
AcDbTrace
 10
5989.751386313662
 20
3006.933583413422
 30
0.0
 11
5989.751386313662
 21
2993.600250080089
 31
0.0
 12
6029.751386313662
 22
3000.266916746756
 32
0.0
 13
6029.751386313662
 23
3000.266916746756
 33
0.0
  0
MTEXT
  5
F2C
330
A59
100
AcDbEntity
  8
SUNPOU
 62
     0
440
 16777216
100
AcDbMText
 10
5904.751386313662
 20
3046.266916746756
 30
0.0
 40
60.0
 41
0.0
 71
     5
 72
     1
  1
\A1;250
 73
     1
 44
1.0
  0
POINT
  5
F2D
330
A59
100
AcDbEntity
  8
DEFPOINTS
 62
     0
440
 16777216
100
AcDbPoint
 10
5779.751386313662
 20
3280.703096521185
 30
0.0
  0
POINT
  5
F2E
330
A59
100
AcDbEntity
  8
DEFPOINTS
 62
     0
440
 16777216
100
AcDbPoint
 10
6029.751386313662
 20
3280.703096521185
 30
0.0
  0
POINT
  5
F2F
330
A59
100
AcDbEntity
  8
DEFPOINTS
 62
     0
440
 16777216
100
AcDbPoint
 10
6029.751386313662
 20
3000.266916746756
 30
0.0
  0
ENDBLK
  5
A64
330
A59
100
AcDbEntity
  8
0
100
AcDbBlockEnd
  0
BLOCK
  5
DD9
330
DCE
100
AcDbEntity
  8
0
100
AcDbBlockBegin
  2
*D101
 70
     1
 10
0.0
 20
0.0
 30
0.0
  3
*D101
  1

  0
LINE
  5
F5D
330
DCE
100
AcDbEntity
  8
SUNPOU
 62
     0
440
 16777216
370
    -2
100
AcDbLine
 10
2620.145634731903
 20
3980.703096521186
 30
0.0
 11
2620.145634731903
 21
4231.060453364474
 31
0.0
  0
LINE
  5
F5E
330
DCE
100
AcDbEntity
  8
SUNPOU
 62
     0
440
 16777216
370
    -2
100
AcDbLine
 10
2680.145634731904
 20
3980.703096521186
 30
0.0
 11
2680.145634731904
 21
4231.060453364474
 31
0.0
  0
LINE
  5
F5F
330
DCE
100
AcDbEntity
  8
SUNPOU
 62
     0
440
 16777216
370
    -2
100
AcDbLine
 10
2580.145634731903
 20
4221.060453364474
 30
0.0
 11
2540.145634731903
 21
4221.060453364474
 31
0.0
  0
LINE
  5
F60
330
DCE
100
AcDbEntity
  8
SUNPOU
 62
     0
440
 16777216
370
    -2
100
AcDbLine
 10
2720.145634731904
 20
4221.060453364474
 30
0.0
 11
2760.145634731904
 21
4221.060453364474
 31
0.0
  0
SOLID
  5
F61
330
DCE
100
AcDbEntity
  8
SUNPOU
 62
     0
440
 16777216
100
AcDbTrace
 10
2580.145634731903
 20
4227.727120031141
 30
0.0
 11
2580.145634731903
 21
4214.393786697807
 31
0.0
 12
2620.145634731903
 22
4221.060453364474
 32
0.0
 13
2620.145634731903
 23
4221.060453364474
 33
0.0
  0
SOLID
  5
F62
330
DCE
100
AcDbEntity
  8
SUNPOU
 62
     0
440
 16777216
100
AcDbTrace
 10
2720.145634731904
 20
4227.727120031141
 30
0.0
 11
2720.145634731904
 21
4214.393786697807
 31
0.0
 12
2680.145634731904
 22
4221.060453364474
 32
0.0
 13
2680.145634731904
 23
4221.060453364474
 33
0.0
  0
MTEXT
  5
F63
330
DCE
100
AcDbEntity
  8
SUNPOU
 62
     0
440
 16777216
100
AcDbMText
 10
2650.145634731904
 20
4267.060453364474
 30
0.0
 40
60.0
 41
0.0
 71
     5
 72
     1
  1
\A1;60
 73
     1
 44
1.0
  0
POINT
  5
F64
330
DCE
100
AcDbEntity
  8
DEFPOINTS
 62
     0
440
 16777216
100
AcDbPoint
 10
2620.145634731903
 20
3940.703096521186
 30
0.0
  0
POINT
  5
F65
330
DCE
100
AcDbEntity
  8
DEFPOINTS
 62
     0
440
 16777216
100
AcDbPoint
 10
2680.145634731904
 20
3940.703096521186
 30
0.0
  0
POINT
  5
F66
330
DCE
100
AcDbEntity
  8
DEFPOINTS
 62
     0
440
 16777216
100
AcDbPoint
 10
2680.145634731904
 20
4221.060453364474
 30
0.0
  0
ENDBLK
  5
DDA
330
DCE
100
AcDbEntity
  8
0
100
AcDbBlockEnd
  0
BLOCK
  5
E0D
330
E03
100
AcDbEntity
  8
0
100
AcDbBlockBegin
  2
*D102
 70
     1
 10
0.0
 20
0.0
 30
0.0
  3
*D102
  1

  0
LINE
  5
F44
330
E03
100
AcDbEntity
  8
SUNPOU
 62
     0
440
 16777216
370
    -2
100
AcDbLine
 10
1975.145634731904
 20
3280.703096521186
 30
0.0
 11
1455.203961291991
 21
3280.703096521186
 31
0.0
  0
LINE
  5
F45
330
E03
100
AcDbEntity
  8
SUNPOU
 62
     0
440
 16777216
370
    -2
100
AcDbLine
 10
1920.145634731904
 20
3940.703096521186
 30
0.0
 11
1455.203961291991
 21
3940.703096521186
 31
0.0
  0
LINE
  5
F46
330
E03
100
AcDbEntity
  8
SUNPOU
 62
     0
440
 16777216
370
    -2
100
AcDbLine
 10
1465.203961291991
 20
3320.703096521186
 30
0.0
 11
1465.203961291991
 21
3900.703096521186
 31
0.0
  0
SOLID
  5
F47
330
E03
100
AcDbEntity
  8
SUNPOU
 62
     0
440
 16777216
100
AcDbTrace
 10
1458.537294625324
 20
3320.703096521186
 30
0.0
 11
1471.870627958657
 21
3320.703096521186
 31
0.0
 12
1465.203961291991
 22
3280.703096521186
 32
0.0
 13
1465.203961291991
 23
3280.703096521186
 33
0.0
  0
SOLID
  5
F48
330
E03
100
AcDbEntity
  8
SUNPOU
 62
     0
440
 16777216
100
AcDbTrace
 10
1458.537294625324
 20
3900.703096521186
 30
0.0
 11
1471.870627958658
 21
3900.703096521186
 31
0.0
 12
1465.203961291991
 22
3940.703096521186
 32
0.0
 13
1465.203961291991
 23
3940.703096521186
 33
0.0
  0
MTEXT
  5
F49
330
E03
100
AcDbEntity
  8
SUNPOU
 62
     0
440
 16777216
100
AcDbMText
 10
1419.20396129199
 20
3610.703096521187
 30
0.0
 40
60.0
 41
0.0
 71
     5
 72
     1
  1
\A1;660
 11
6.123031769111886E-17
 21
1.0
 31
0.0
 73
     1
 44
1.0
  0
POINT
  5
F4A
330
E03
100
AcDbEntity
  8
DEFPOINTS
 62
     0
440
 16777216
100
AcDbPoint
 10
2015.145634731904
 20
3280.703096521186
 30
0.0
  0
POINT
  5
F4B
330
E03
100
AcDbEntity
  8
DEFPOINTS
 62
     0
440
 16777216
100
AcDbPoint
 10
1960.145634731904
 20
3940.703096521186
 30
0.0
  0
POINT
  5
F4C
330
E03
100
AcDbEntity
  8
DEFPOINTS
 62
     0
440
 16777216
100
AcDbPoint
 10
1465.203961291991
 20
3940.703096521186
 30
0.0
  0
ENDBLK
  5
E0E
330
E03
100
AcDbEntity
  8
0
100
AcDbBlockEnd
  0
BLOCK
  5
E2B
330
E20
100
AcDbEntity
  8
0
100
AcDbBlockBegin
  2
*D103
 70
     1
 10
0.0
 20
0.0
 30
0.0
  3
*D103
  1

  0
LINE
  5
F4D
330
E20
100
AcDbEntity
  8
SUNPOU
 62
     0
440
 16777216
370
    -2
100
AcDbLine
 10
2655.145634731903
 20
3380.703096521186
 30
0.0
 11
2655.145634731903
 21
3660.706373655623
 31
0.0
  0
LINE
  5
F4E
330
E20
100
AcDbEntity
  8
SUNPOU
 62
     0
440
 16777216
370
    -2
100
AcDbLine
 10
2595.145634731903
 20
3380.703096521186
 30
0.0
 11
2595.145634731903
 21
3660.706373655623
 31
0.0
  0
LINE
  5
F4F
330
E20
100
AcDbEntity
  8
SUNPOU
 62
     0
440
 16777216
370
    -2
100
AcDbLine
 10
2695.145634731903
 20
3650.706373655623
 30
0.0
 11
2735.145634731903
 21
3650.706373655623
 31
0.0
  0
LINE
  5
F50
330
E20
100
AcDbEntity
  8
SUNPOU
 62
     0
440
 16777216
370
    -2
100
AcDbLine
 10
2555.145634731903
 20
3650.706373655623
 30
0.0
 11
2515.145634731903
 21
3650.706373655623
 31
0.0
  0
SOLID
  5
F51
330
E20
100
AcDbEntity
  8
SUNPOU
 62
     0
440
 16777216
100
AcDbTrace
 10
2695.145634731903
 20
3657.373040322289
 30
0.0
 11
2695.145634731903
 21
3644.039706988956
 31
0.0
 12
2655.145634731903
 22
3650.706373655623
 32
0.0
 13
2655.145634731903
 23
3650.706373655623
 33
0.0
  0
SOLID
  5
F52
330
E20
100
AcDbEntity
  8
SUNPOU
 62
     0
440
 16777216
100
AcDbTrace
 10
2555.145634731903
 20
3657.373040322289
 30
0.0
 11
2555.145634731903
 21
3644.039706988956
 31
0.0
 12
2595.145634731903
 22
3650.706373655623
 32
0.0
 13
2595.145634731903
 23
3650.706373655623
 33
0.0
  0
MTEXT
  5
F53
330
E20
100
AcDbEntity
  8
SUNPOU
 62
     0
440
 16777216
100
AcDbMText
 10
2625.145634731903
 20
3696.706373655623
 30
0.0
 40
60.0
 41
0.0
 71
     5
 72
     1
  1
\A1;60
 73
     1
 44
1.0
  0
POINT
  5
F54
330
E20
100
AcDbEntity
  8
DEFPOINTS
 62
     0
440
 16777216
100
AcDbPoint
 10
2655.145634731903
 20
3340.703096521186
 30
0.0
  0
POINT
  5
F55
330
E20
100
AcDbEntity
  8
DEFPOINTS
 62
     0
440
 16777216
100
AcDbPoint
 10
2595.145634731903
 20
3340.703096521186
 30
0.0
  0
POINT
  5
F56
330
E20
100
AcDbEntity
  8
DEFPOINTS
 62
     0
440
 16777216
100
AcDbPoint
 10
2595.145634731903
 20
3650.706373655623
 30
0.0
  0
ENDBLK
  5
E2C
330
E20
100
AcDbEntity
  8
0
100
AcDbBlockEnd
  0
BLOCK
  5
1171
330
1170
100
AcDbEntity
  8
0
100
AcDbBlockBegin
  2
*D127
 70
     1
 10
0.0
 20
0.0
 30
0.0
  3
*D127
  1

  0
LINE
  5
1847
330
1170
100
AcDbEntity
  8
SUNPOU
 62
     0
440
 16777216
370
    -2
100
AcDbLine
 10
174.7630855724824
 20
3885.703096521186
 30
0.0
 11
65.82924316449497
 21
3885.703096521186
 31
0.0
  0
LINE
  5
1848
330
1170
100
AcDbEntity
  8
SUNPOU
 62
     0
440
 16777216
370
    -2
100
AcDbLine
 10
174.7630855724824
 20
3940.703096521186
 30
0.0
 11
65.82924316449498
 21
3940.703096521186
 31
0.0
  0
LINE
  5
1849
330
1170
100
AcDbEntity
  8
SUNPOU
 62
     0
440
 16777216
370
    -2
100
AcDbLine
 10
75.82924316449495
 20
3845.703096521186
 30
0.0
 11
75.82924316449494
 21
3805.703096521186
 31
0.0
  0
LINE
  5
184A
330
1170
100
AcDbEntity
  8
SUNPOU
 62
     0
440
 16777216
370
    -2
100
AcDbLine
 10
75.82924316449498
 20
3980.703096521186
 30
0.0
 11
75.829243164495
 21
4020.703096521186
 31
0.0
  0
SOLID
  5
184B
330
1170
100
AcDbEntity
  8
SUNPOU
 62
     0
440
 16777216
100
AcDbTrace
 10
69.16257649782828
 20
3845.703096521186
 30
0.0
 11
82.49590983116163
 21
3845.703096521186
 31
0.0
 12
75.82924316449497
 22
3885.703096521186
 32
0.0
 13
75.82924316449497
 23
3885.703096521186
 33
0.0
  0
SOLID
  5
184C
330
1170
100
AcDbEntity
  8
SUNPOU
 62
     0
440
 16777216
100
AcDbTrace
 10
69.16257649782831
 20
3980.703096521186
 30
0.0
 11
82.49590983116165
 21
3980.703096521186
 31
0.0
 12
75.82924316449498
 22
3940.703096521186
 32
0.0
 13
75.82924316449498
 23
3940.703096521186
 33
0.0
  0
MTEXT
  5
184D
330
1170
100
AcDbEntity
  8
SUNPOU
 62
     0
440
 16777216
100
AcDbMText
 10
29.82924316449434
 20
3913.203096521186
 30
0.0
 40
60.0
 41
0.0
 71
     5
 72
     1
  1
\A1;55
 11
6.123031769111886E-17
 21
1.0
 31
0.0
 73
     1
 44
1.0
  0
POINT
  5
184E
330
1170
100
AcDbEntity
  8
DEFPOINTS
 62
     0
440
 16777216
100
AcDbPoint
 10
214.7630855724824
 20
3885.703096521186
 30
0.0
  0
POINT
  5
184F
330
1170
100
AcDbEntity
  8
DEFPOINTS
 62
     0
440
 16777216
100
AcDbPoint
 10
214.7630855724824
 20
3940.703096521186
 30
0.0
  0
POINT
  5
1850
330
1170
100
AcDbEntity
  8
DEFPOINTS
 62
     0
440
 16777216
100
AcDbPoint
 10
75.82924316449498
 20
3940.703096521186
 30
0.0
  0
ENDBLK
  5
1172
330
1170
100
AcDbEntity
  8
0
100
AcDbBlockEnd
  0
BLOCK
  5
11BA
330
11B9
100
AcDbEntity
  8
0
100
AcDbBlockBegin
  2
*D133
 70
     1
 10
0.0
 20
0.0
 30
0.0
  3
*D133
  1

  0
LINE
  5
1851
330
11B9
100
AcDbEntity
  8
SUNPOU
 62
     0
440
 16777216
370
    -2
100
AcDbLine
 10
774.7630855724815
 20
3980.703096521186
 30
0.0
 11
774.7630855724815
 21
4231.060453364474
 31
0.0
  0
LINE
  5
1852
330
11B9
100
AcDbEntity
  8
SUNPOU
 62
     0
440
 16777216
370
    -2
100
AcDbLine
 10
834.7630855724819
 20
3980.703096521186
 30
0.0
 11
834.7630855724819
 21
4231.060453364474
 31
0.0
  0
LINE
  5
1853
330
11B9
100
AcDbEntity
  8
SUNPOU
 62
     0
440
 16777216
370
    -2
100
AcDbLine
 10
734.7630855724815
 20
4221.060453364474
 30
0.0
 11
694.7630855724815
 21
4221.060453364474
 31
0.0
  0
LINE
  5
1854
330
11B9
100
AcDbEntity
  8
SUNPOU
 62
     0
440
 16777216
370
    -2
100
AcDbLine
 10
874.7630855724819
 20
4221.060453364474
 30
0.0
 11
914.7630855724819
 21
4221.060453364474
 31
0.0
  0
SOLID
  5
1855
330
11B9
100
AcDbEntity
  8
SUNPOU
 62
     0
440
 16777216
100
AcDbTrace
 10
734.7630855724815
 20
4227.727120031141
 30
0.0
 11
734.7630855724815
 21
4214.393786697807
 31
0.0
 12
774.7630855724815
 22
4221.060453364474
 32
0.0
 13
774.7630855724815
 23
4221.060453364474
 33
0.0
  0
SOLID
  5
1856
330
11B9
100
AcDbEntity
  8
SUNPOU
 62
     0
440
 16777216
100
AcDbTrace
 10
874.7630855724819
 20
4227.727120031141
 30
0.0
 11
874.7630855724819
 21
4214.393786697807
 31
0.0
 12
834.7630855724819
 22
4221.060453364474
 32
0.0
 13
834.7630855724819
 23
4221.060453364474
 33
0.0
  0
MTEXT
  5
1857
330
11B9
100
AcDbEntity
  8
SUNPOU
 62
     0
440
 16777216
100
AcDbMText
 10
804.7630855724817
 20
4267.060453364474
 30
0.0
 40
60.0
 41
0.0
 71
     5
 72
     1
  1
\A1;60
 73
     1
 44
1.0
  0
POINT
  5
1858
330
11B9
100
AcDbEntity
  8
DEFPOINTS
 62
     0
440
 16777216
100
AcDbPoint
 10
774.7630855724815
 20
3940.703096521186
 30
0.0
  0
POINT
  5
1859
330
11B9
100
AcDbEntity
  8
DEFPOINTS
 62
     0
440
 16777216
100
AcDbPoint
 10
834.7630855724819
 20
3940.703096521186
 30
0.0
  0
POINT
  5
185A
330
11B9
100
AcDbEntity
  8
DEFPOINTS
 62
     0
440
 16777216
100
AcDbPoint
 10
834.7630855724819
 20
4221.060453364474
 30
0.0
  0
ENDBLK
  5
11BB
330
11B9
100
AcDbEntity
  8
0
100
AcDbBlockEnd
  0
BLOCK
  5
11C7
330
11C6
100
AcDbEntity
  8
0
100
AcDbBlockBegin
  2
*D134
 70
     1
 10
0.0
 20
0.0
 30
0.0
  3
*D134
  1

  0
LINE
  5
185B
330
11C6
100
AcDbEntity
  8
SUNPOU
 62
     0
440
 16777216
370
    -2
100
AcDbLine
 10
229.7630855724824
 20
3280.703096521186
 30
0.0
 11
-290.1785878674308
 21
3280.703096521186
 31
0.0
  0
LINE
  5
185C
330
11C6
100
AcDbEntity
  8
SUNPOU
 62
     0
440
 16777216
370
    -2
100
AcDbLine
 10
174.7630855724824
 20
3940.703096521186
 30
0.0
 11
-290.1785878674307
 21
3940.703096521186
 31
0.0
  0
LINE
  5
185D
330
11C6
100
AcDbEntity
  8
SUNPOU
 62
     0
440
 16777216
370
    -2
100
AcDbLine
 10
-280.1785878674308
 20
3320.703096521186
 30
0.0
 11
-280.1785878674307
 21
3900.703096521186
 31
0.0
  0
SOLID
  5
185E
330
11C6
100
AcDbEntity
  8
SUNPOU
 62
     0
440
 16777216
100
AcDbTrace
 10
-286.8452545340975
 20
3320.703096521186
 30
0.0
 11
-273.5119212007641
 21
3320.703096521186
 31
0.0
 12
-280.1785878674308
 22
3280.703096521186
 32
0.0
 13
-280.1785878674308
 23
3280.703096521186
 33
0.0
  0
SOLID
  5
185F
330
11C6
100
AcDbEntity
  8
SUNPOU
 62
     0
440
 16777216
100
AcDbTrace
 10
-286.8452545340974
 20
3900.703096521186
 30
0.0
 11
-273.511921200764
 21
3900.703096521186
 31
0.0
 12
-280.1785878674307
 22
3940.703096521186
 32
0.0
 13
-280.1785878674307
 23
3940.703096521186
 33
0.0
  0
MTEXT
  5
1860
330
11C6
100
AcDbEntity
  8
SUNPOU
 62
     0
440
 16777216
100
AcDbMText
 10
-326.1785878674313
 20
3610.703096521186
 30
0.0
 40
60.0
 41
0.0
 71
     5
 72
     1
  1
\A1;660
 11
6.123031769111886E-17
 21
1.0
 31
0.0
 73
     1
 44
1.0
  0
POINT
  5
1861
330
11C6
100
AcDbEntity
  8
DEFPOINTS
 62
     0
440
 16777216
100
AcDbPoint
 10
269.7630855724824
 20
3280.703096521186
 30
0.0
  0
POINT
  5
1862
330
11C6
100
AcDbEntity
  8
DEFPOINTS
 62
     0
440
 16777216
100
AcDbPoint
 10
214.7630855724824
 20
3940.703096521186
 30
0.0
  0
POINT
  5
1863
330
11C6
100
AcDbEntity
  8
DEFPOINTS
 62
     0
440
 16777216
100
AcDbPoint
 10
-280.1785878674307
 20
3940.703096521186
 30
0.0
  0
ENDBLK
  5
11C8
330
11C6
100
AcDbEntity
  8
0
100
AcDbBlockEnd
  0
BLOCK
  5
11D3
330
11D2
100
AcDbEntity
  8
0
100
AcDbBlockBegin
  2
*D135
 70
     1
 10
0.0
 20
0.0
 30
0.0
  3
*D135
  1

  0
LINE
  5
1864
330
11D2
100
AcDbEntity
  8
SUNPOU
 62
     0
440
 16777216
370
    -2
100
AcDbLine
 10
809.7630855724815
 20
3380.703096521186
 30
0.0
 11
809.7630855724815
 21
3660.706373655623
 31
0.0
  0
LINE
  5
1865
330
11D2
100
AcDbEntity
  8
SUNPOU
 62
     0
440
 16777216
370
    -2
100
AcDbLine
 10
749.7630855724815
 20
3380.703096521186
 30
0.0
 11
749.7630855724815
 21
3660.706373655623
 31
0.0
  0
LINE
  5
1866
330
11D2
100
AcDbEntity
  8
SUNPOU
 62
     0
440
 16777216
370
    -2
100
AcDbLine
 10
849.7630855724815
 20
3650.706373655623
 30
0.0
 11
889.7630855724815
 21
3650.706373655623
 31
0.0
  0
LINE
  5
1867
330
11D2
100
AcDbEntity
  8
SUNPOU
 62
     0
440
 16777216
370
    -2
100
AcDbLine
 10
709.7630855724815
 20
3650.706373655623
 30
0.0
 11
669.7630855724815
 21
3650.706373655623
 31
0.0
  0
SOLID
  5
1868
330
11D2
100
AcDbEntity
  8
SUNPOU
 62
     0
440
 16777216
100
AcDbTrace
 10
849.7630855724815
 20
3657.373040322289
 30
0.0
 11
849.7630855724815
 21
3644.039706988956
 31
0.0
 12
809.7630855724815
 22
3650.706373655623
 32
0.0
 13
809.7630855724815
 23
3650.706373655623
 33
0.0
  0
SOLID
  5
1869
330
11D2
100
AcDbEntity
  8
SUNPOU
 62
     0
440
 16777216
100
AcDbTrace
 10
709.7630855724815
 20
3657.373040322289
 30
0.0
 11
709.7630855724815
 21
3644.039706988956
 31
0.0
 12
749.7630855724815
 22
3650.706373655623
 32
0.0
 13
749.7630855724815
 23
3650.706373655623
 33
0.0
  0
MTEXT
  5
186A
330
11D2
100
AcDbEntity
  8
SUNPOU
 62
     0
440
 16777216
100
AcDbMText
 10
779.7630855724815
 20
3696.706373655623
 30
0.0
 40
60.0
 41
0.0
 71
     5
 72
     1
  1
\A1;60
 73
     1
 44
1.0
  0
POINT
  5
186B
330
11D2
100
AcDbEntity
  8
DEFPOINTS
 62
     0
440
 16777216
100
AcDbPoint
 10
809.7630855724815
 20
3340.703096521186
 30
0.0
  0
POINT
  5
186C
330
11D2
100
AcDbEntity
  8
DEFPOINTS
 62
     0
440
 16777216
100
AcDbPoint
 10
749.7630855724815
 20
3340.703096521186
 30
0.0
  0
POINT
  5
186D
330
11D2
100
AcDbEntity
  8
DEFPOINTS
 62
     0
440
 16777216
100
AcDbPoint
 10
749.7630855724815
 20
3650.706373655623
 30
0.0
  0
ENDBLK
  5
11D4
330
11D2
100
AcDbEntity
  8
0
100
AcDbBlockEnd
  0
BLOCK
  5
11E0
330
11DF
100
AcDbEntity
  8
0
100
AcDbBlockBegin
  2
*D136
 70
     1
 10
0.0
 20
0.0
 30
0.0
  3
*D136
  1

  0
LINE
  5
17E9
330
11DF
100
AcDbEntity
  8
SUNPOU
 62
     0
440
 16777216
370
    -2
100
AcDbLine
 10
199.7630855724824
 20
3340.703096521186
 30
0.0
 11
-2.460452296692492
 21
3340.703096521186
 31
0.0
  0
LINE
  5
17EA
330
11DF
100
AcDbEntity
  8
SUNPOU
 62
     0
440
 16777216
370
    -2
100
AcDbLine
 10
169.4505855724819
 20
3540.703096521186
 30
0.0
 11
-2.460452296692448
 21
3540.703096521186
 31
0.0
  0
LINE
  5
17EB
330
11DF
100
AcDbEntity
  8
SUNPOU
 62
     0
440
 16777216
370
    -2
100
AcDbLine
 10
7.539547703307527
 20
3380.703096521186
 30
0.0
 11
7.539547703307553
 21
3500.703096521186
 31
0.0
  0
SOLID
  5
17EC
330
11DF
100
AcDbEntity
  8
SUNPOU
 62
     0
440
 16777216
100
AcDbTrace
 10
0.8728810366408598
 20
3380.703096521186
 30
0.0
 11
14.20621436997419
 21
3380.703096521186
 31
0.0
 12
7.539547703307518
 22
3340.703096521186
 32
0.0
 13
7.539547703307518
 23
3340.703096521186
 33
0.0
  0
SOLID
  5
17ED
330
11DF
100
AcDbEntity
  8
SUNPOU
 62
     0
440
 16777216
100
AcDbTrace
 10
0.8728810366408865
 20
3500.703096521186
 30
0.0
 11
14.20621436997422
 21
3500.703096521186
 31
0.0
 12
7.539547703307562
 22
3540.703096521186
 32
0.0
 13
7.539547703307562
 23
3540.703096521186
 33
0.0
  0
MTEXT
  5
17EE
330
11DF
100
AcDbEntity
  8
SUNPOU
 62
     0
440
 16777216
100
AcDbMText
 10
-38.46045229669301
 20
3440.703096521186
 30
0.0
 40
60.0
 41
0.0
 71
     5
 72
     1
  1
\A1;200
 11
6.123031769111886E-17
 21
1.0
 31
0.0
 73
     1
 44
1.0
  0
POINT
  5
17EF
330
11DF
100
AcDbEntity
  8
DEFPOINTS
 62
     0
440
 16777216
100
AcDbPoint
 10
239.7630855724824
 20
3340.703096521186
 30
0.0
  0
POINT
  5
17F0
330
11DF
100
AcDbEntity
  8
DEFPOINTS
 62
     0
440
 16777216
100
AcDbPoint
 10
209.4505855724819
 20
3540.703096521186
 30
0.0
  0
POINT
  5
17F1
330
11DF
100
AcDbEntity
  8
DEFPOINTS
 62
     0
440
 16777216
100
AcDbPoint
 10
7.539547703307562
 20
3540.703096521186
 30
0.0
  0
ENDBLK
  5
11E1
330
11DF
100
AcDbEntity
  8
0
100
AcDbBlockEnd
  0
BLOCK
  5
1211
330
1210
100
AcDbEntity
  8
0
100
AcDbBlockBegin
  2
*D140
 70
     1
 10
0.0
 20
0.0
 30
0.0
  3
*D140
  1

  0
LINE
  5
17F2
330
1210
100
AcDbEntity
  8
SUNPOU
 62
     0
440
 16777216
370
    -2
100
AcDbLine
 10
299.7630855724824
 20
3380.703096521186
 30
0.0
 11
299.7630855724824
 21
3660.706373655623
 31
0.0
  0
LINE
  5
17F3
330
1210
100
AcDbEntity
  8
SUNPOU
 62
     0
440
 16777216
370
    -2
100
AcDbLine
 10
749.7630855724815
 20
3380.703096521186
 30
0.0
 11
749.7630855724815
 21
3660.706373655623
 31
0.0
  0
LINE
  5
17F4
330
1210
100
AcDbEntity
  8
SUNPOU
 62
     0
440
 16777216
370
    -2
100
AcDbLine
 10
339.7630855724824
 20
3650.706373655623
 30
0.0
 11
709.7630855724815
 21
3650.706373655623
 31
0.0
  0
SOLID
  5
17F5
330
1210
100
AcDbEntity
  8
SUNPOU
 62
     0
440
 16777216
100
AcDbTrace
 10
339.7630855724824
 20
3657.373040322289
 30
0.0
 11
339.7630855724824
 21
3644.039706988956
 31
0.0
 12
299.7630855724824
 22
3650.706373655623
 32
0.0
 13
299.7630855724824
 23
3650.706373655623
 33
0.0
  0
SOLID
  5
17F6
330
1210
100
AcDbEntity
  8
SUNPOU
 62
     0
440
 16777216
100
AcDbTrace
 10
709.7630855724815
 20
3657.373040322289
 30
0.0
 11
709.7630855724815
 21
3644.039706988956
 31
0.0
 12
749.7630855724815
 22
3650.706373655623
 32
0.0
 13
749.7630855724815
 23
3650.706373655623
 33
0.0
  0
MTEXT
  5
17F7
330
1210
100
AcDbEntity
  8
SUNPOU
 62
     0
440
 16777216
100
AcDbMText
 10
524.7630855724819
 20
3696.706373655623
 30
0.0
 40
60.0
 41
0.0
 71
     5
 72
     1
  1
\A1;450
 73
     1
 44
1.0
  0
POINT
  5
17F8
330
1210
100
AcDbEntity
  8
DEFPOINTS
 62
     0
440
 16777216
100
AcDbPoint
 10
299.7630855724824
 20
3340.703096521186
 30
0.0
  0
POINT
  5
17F9
330
1210
100
AcDbEntity
  8
DEFPOINTS
 62
     0
440
 16777216
100
AcDbPoint
 10
749.7630855724815
 20
3340.703096521186
 30
0.0
  0
POINT
  5
17FA
330
1210
100
AcDbEntity
  8
DEFPOINTS
 62
     0
440
 16777216
100
AcDbPoint
 10
749.7630855724815
 20
3650.706373655623
 30
0.0
  0
ENDBLK
  5
1212
330
1210
100
AcDbEntity
  8
0
100
AcDbBlockEnd
  0
BLOCK
  5
121D
330
121C
100
AcDbEntity
  8
0
100
AcDbBlockBegin
  2
*D141
 70
     1
 10
0.0
 20
0.0
 30
0.0
  3
*D141
  1

  0
LINE
  5
17FB
330
121C
100
AcDbEntity
  8
SUNPOU
 62
     0
440
 16777216
370
    -2
100
AcDbLine
 10
239.7630855724824
 20
3380.703096521186
 30
0.0
 11
239.7630855724824
 21
3660.706373655623
 31
0.0
  0
LINE
  5
17FC
330
121C
100
AcDbEntity
  8
SUNPOU
 62
     0
440
 16777216
370
    -2
100
AcDbLine
 10
299.7630855724824
 20
3380.703096521186
 30
0.0
 11
299.7630855724824
 21
3660.706373655623
 31
0.0
  0
LINE
  5
17FD
330
121C
100
AcDbEntity
  8
SUNPOU
 62
     0
440
 16777216
370
    -2
100
AcDbLine
 10
199.7630855724824
 20
3650.706373655623
 30
0.0
 11
159.7630855724824
 21
3650.706373655623
 31
0.0
  0
LINE
  5
17FE
330
121C
100
AcDbEntity
  8
SUNPOU
 62
     0
440
 16777216
370
    -2
100
AcDbLine
 10
339.7630855724824
 20
3650.706373655623
 30
0.0
 11
379.7630855724824
 21
3650.706373655623
 31
0.0
  0
SOLID
  5
17FF
330
121C
100
AcDbEntity
  8
SUNPOU
 62
     0
440
 16777216
100
AcDbTrace
 10
199.7630855724824
 20
3657.373040322289
 30
0.0
 11
199.7630855724824
 21
3644.039706988956
 31
0.0
 12
239.7630855724824
 22
3650.706373655623
 32
0.0
 13
239.7630855724824
 23
3650.706373655623
 33
0.0
  0
SOLID
  5
1800
330
121C
100
AcDbEntity
  8
SUNPOU
 62
     0
440
 16777216
100
AcDbTrace
 10
339.7630855724824
 20
3657.373040322289
 30
0.0
 11
339.7630855724824
 21
3644.039706988956
 31
0.0
 12
299.7630855724824
 22
3650.706373655623
 32
0.0
 13
299.7630855724824
 23
3650.706373655623
 33
0.0
  0
MTEXT
  5
1801
330
121C
100
AcDbEntity
  8
SUNPOU
 62
     0
440
 16777216
100
AcDbMText
 10
269.7630855724824
 20
3696.706373655623
 30
0.0
 40
60.0
 41
0.0
 71
     5
 72
     1
  1
\A1;60
 73
     1
 44
1.0
  0
POINT
  5
1802
330
121C
100
AcDbEntity
  8
DEFPOINTS
 62
     0
440
 16777216
100
AcDbPoint
 10
239.7630855724824
 20
3340.703096521186
 30
0.0
  0
POINT
  5
1803
330
121C
100
AcDbEntity
  8
DEFPOINTS
 62
     0
440
 16777216
100
AcDbPoint
 10
299.7630855724824
 20
3340.703096521186
 30
0.0
  0
POINT
  5
1804
330
121C
100
AcDbEntity
  8
DEFPOINTS
 62
     0
440
 16777216
100
AcDbPoint
 10
299.7630855724824
 20
3650.706373655623
 30
0.0
  0
ENDBLK
  5
121E
330
121C
100
AcDbEntity
  8
0
100
AcDbBlockEnd
  0
BLOCK
  5
122A
330
1229
100
AcDbEntity
  8
0
100
AcDbBlockBegin
  2
*D142
 70
     1
 10
0.0
 20
0.0
 30
0.0
  3
*D142
  1

  0
LINE
  5
1805
330
1229
100
AcDbEntity
  8
SUNPOU
 62
     0
440
 16777216
370
    -2
100
AcDbLine
 10
274.7630855724819
 20
3980.703096521186
 30
0.0
 11
274.7630855724819
 21
4231.060453364474
 31
0.0
  0
LINE
  5
1806
330
1229
100
AcDbEntity
  8
SUNPOU
 62
     0
440
 16777216
370
    -2
100
AcDbLine
 10
774.7630855724819
 20
3980.703096521186
 30
0.0
 11
774.7630855724819
 21
4231.060453364474
 31
0.0
  0
LINE
  5
1807
330
1229
100
AcDbEntity
  8
SUNPOU
 62
     0
440
 16777216
370
    -2
100
AcDbLine
 10
314.7630855724819
 20
4221.060453364474
 30
0.0
 11
734.7630855724819
 21
4221.060453364474
 31
0.0
  0
SOLID
  5
1808
330
1229
100
AcDbEntity
  8
SUNPOU
 62
     0
440
 16777216
100
AcDbTrace
 10
314.7630855724819
 20
4227.727120031141
 30
0.0
 11
314.7630855724819
 21
4214.393786697807
 31
0.0
 12
274.7630855724819
 22
4221.060453364474
 32
0.0
 13
274.7630855724819
 23
4221.060453364474
 33
0.0
  0
SOLID
  5
1809
330
1229
100
AcDbEntity
  8
SUNPOU
 62
     0
440
 16777216
100
AcDbTrace
 10
734.7630855724819
 20
4227.727120031141
 30
0.0
 11
734.7630855724819
 21
4214.393786697807
 31
0.0
 12
774.7630855724819
 22
4221.060453364474
 32
0.0
 13
774.7630855724819
 23
4221.060453364474
 33
0.0
  0
MTEXT
  5
180A
330
1229
100
AcDbEntity
  8
SUNPOU
 62
     0
440
 16777216
100
AcDbMText
 10
524.7630855724819
 20
4267.060453364474
 30
0.0
 40
60.0
 41
0.0
 71
     5
 72
     1
  1
\A1;500
 73
     1
 44
1.0
  0
POINT
  5
180B
330
1229
100
AcDbEntity
  8
DEFPOINTS
 62
     0
440
 16777216
100
AcDbPoint
 10
274.7630855724819
 20
3940.703096521186
 30
0.0
  0
POINT
  5
180C
330
1229
100
AcDbEntity
  8
DEFPOINTS
 62
     0
440
 16777216
100
AcDbPoint
 10
774.7630855724819
 20
3940.703096521186
 30
0.0
  0
POINT
  5
180D
330
1229
100
AcDbEntity
  8
DEFPOINTS
 62
     0
440
 16777216
100
AcDbPoint
 10
774.7630855724819
 20
4221.060453364474
 30
0.0
  0
ENDBLK
  5
122B
330
1229
100
AcDbEntity
  8
0
100
AcDbBlockEnd
  0
BLOCK
  5
1236
330
1235
100
AcDbEntity
  8
0
100
AcDbBlockBegin
  2
*D143
 70
     1
 10
0.0
 20
0.0
 30
0.0
  3
*D143
  1

  0
LINE
  5
180E
330
1235
100
AcDbEntity
  8
SUNPOU
 62
     0
440
 16777216
370
    -2
100
AcDbLine
 10
214.7630855724824
 20
3980.703096521186
 30
0.0
 11
214.7630855724824
 21
4358.69171066633
 31
0.0
  0
LINE
  5
180F
330
1235
100
AcDbEntity
  8
SUNPOU
 62
     0
440
 16777216
370
    -2
100
AcDbLine
 10
834.7630855724819
 20
3980.703096521186
 30
0.0
 11
834.7630855724819
 21
4358.69171066633
 31
0.0
  0
LINE
  5
1810
330
1235
100
AcDbEntity
  8
SUNPOU
 62
     0
440
 16777216
370
    -2
100
AcDbLine
 10
254.7630855724824
 20
4348.69171066633
 30
0.0
 11
794.7630855724819
 21
4348.69171066633
 31
0.0
  0
SOLID
  5
1811
330
1235
100
AcDbEntity
  8
SUNPOU
 62
     0
440
 16777216
100
AcDbTrace
 10
254.7630855724824
 20
4355.358377332996
 30
0.0
 11
254.7630855724824
 21
4342.025043999663
 31
0.0
 12
214.7630855724824
 22
4348.69171066633
 32
0.0
 13
214.7630855724824
 23
4348.69171066633
 33
0.0
  0
SOLID
  5
1812
330
1235
100
AcDbEntity
  8
SUNPOU
 62
     0
440
 16777216
100
AcDbTrace
 10
794.7630855724819
 20
4355.358377332996
 30
0.0
 11
794.7630855724819
 21
4342.025043999663
 31
0.0
 12
834.7630855724819
 22
4348.69171066633
 32
0.0
 13
834.7630855724819
 23
4348.69171066633
 33
0.0
  0
MTEXT
  5
1813
330
1235
100
AcDbEntity
  8
SUNPOU
 62
     0
440
 16777216
100
AcDbMText
 10
524.7630855724822
 20
4394.69171066633
 30
0.0
 40
60.0
 41
0.0
 71
     5
 72
     1
  1
\A1;620
 73
     1
 44
1.0
  0
POINT
  5
1814
330
1235
100
AcDbEntity
  8
DEFPOINTS
 62
     0
440
 16777216
100
AcDbPoint
 10
214.7630855724824
 20
3940.703096521186
 30
0.0
  0
POINT
  5
1815
330
1235
100
AcDbEntity
  8
DEFPOINTS
 62
     0
440
 16777216
100
AcDbPoint
 10
834.7630855724819
 20
3940.703096521186
 30
0.0
  0
POINT
  5
1816
330
1235
100
AcDbEntity
  8
DEFPOINTS
 62
     0
440
 16777216
100
AcDbPoint
 10
834.7630855724819
 20
4348.69171066633
 30
0.0
  0
ENDBLK
  5
1237
330
1235
100
AcDbEntity
  8
0
100
AcDbBlockEnd
  0
BLOCK
  5
1242
330
1241
100
AcDbEntity
  8
0
100
AcDbBlockBegin
  2
*D144
 70
     1
 10
0.0
 20
0.0
 30
0.0
  3
*D144
  1

  0
LINE
  5
1817
330
1241
100
AcDbEntity
  8
SUNPOU
 62
     0
440
 16777216
370
    -2
100
AcDbLine
 10
229.7630855724824
 20
3980.703096521186
 30
0.0
 11
229.7630855724824
 21
4231.060453364474
 31
0.0
  0
LINE
  5
1818
330
1241
100
AcDbEntity
  8
SUNPOU
 62
     0
440
 16777216
370
    -2
100
AcDbLine
 10
214.7630855724824
 20
3980.703096521186
 30
0.0
 11
214.7630855724824
 21
4231.060453364474
 31
0.0
  0
LINE
  5
1819
330
1241
100
AcDbEntity
  8
SUNPOU
 62
     0
440
 16777216
370
    -2
100
AcDbLine
 10
269.7630855724824
 20
4221.060453364474
 30
0.0
 11
309.7630855724824
 21
4221.060453364474
 31
0.0
  0
LINE
  5
181A
330
1241
100
AcDbEntity
  8
SUNPOU
 62
     0
440
 16777216
370
    -2
100
AcDbLine
 10
174.7630855724824
 20
4221.060453364474
 30
0.0
 11
134.7630855724824
 21
4221.060453364474
 31
0.0
  0
MTEXT
  5
181B
330
1241
100
AcDbEntity
  8
SUNPOU
 62
     0
440
 16777216
100
AcDbMText
 10
158.4522546786102
 20
4267.929797172788
 30
0.0
 40
60.0
 41
0.0
 71
     5
 72
     1
  1
\A1;15
 73
     1
 44
1.0
  0
SOLID
  5
181C
330
1241
100
AcDbEntity
  8
SUNPOU
 62
     0
440
 16777216
100
AcDbTrace
 10
269.7630855724824
 20
4227.727120031141
 30
0.0
 11
269.7630855724824
 21
4214.393786697807
 31
0.0
 12
229.7630855724824
 22
4221.060453364474
 32
0.0
 13
229.7630855724824
 23
4221.060453364474
 33
0.0
  0
SOLID
  5
181D
330
1241
100
AcDbEntity
  8
SUNPOU
 62
     0
440
 16777216
100
AcDbTrace
 10
174.7630855724824
 20
4227.727120031141
 30
0.0
 11
174.7630855724824
 21
4214.393786697807
 31
0.0
 12
214.7630855724824
 22
4221.060453364474
 32
0.0
 13
214.7630855724824
 23
4221.060453364474
 33
0.0
  0
POINT
  5
181E
330
1241
100
AcDbEntity
  8
DEFPOINTS
 62
     0
440
 16777216
100
AcDbPoint
 10
229.7630855724824
 20
3940.703096521186
 30
0.0
  0
POINT
  5
181F
330
1241
100
AcDbEntity
  8
DEFPOINTS
 62
     0
440
 16777216
100
AcDbPoint
 10
214.7630855724824
 20
3940.703096521186
 30
0.0
  0
POINT
  5
1820
330
1241
100
AcDbEntity
  8
DEFPOINTS
 62
     0
440
 16777216
100
AcDbPoint
 10
214.7630855724824
 20
4221.060453364474
 30
0.0
  0
ENDBLK
  5
1243
330
1241
100
AcDbEntity
  8
0
100
AcDbBlockEnd
  0
BLOCK
  5
124F
330
124E
100
AcDbEntity
  8
0
100
AcDbBlockBegin
  2
*D145
 70
     1
 10
0.0
 20
0.0
 30
0.0
  3
*D145
  1

  0
LINE
  5
1821
330
124E
100
AcDbEntity
  8
SUNPOU
 62
     0
440
 16777216
370
    -2
100
AcDbLine
 10
274.7630855724824
 20
3980.703096521186
 30
0.0
 11
274.7630855724824
 21
4231.060453364474
 31
0.0
  0
LINE
  5
1822
330
124E
100
AcDbEntity
  8
SUNPOU
 62
     0
440
 16777216
370
    -2
100
AcDbLine
 10
229.7630855724824
 20
3980.703096521186
 30
0.0
 11
229.7630855724824
 21
4231.060453364474
 31
0.0
  0
LINE
  5
1823
330
124E
100
AcDbEntity
  8
SUNPOU
 62
     0
440
 16777216
370
    -2
100
AcDbLine
 10
314.7630855724824
 20
4221.060453364474
 30
0.0
 11
354.7630855724824
 21
4221.060453364474
 31
0.0
  0
LINE
  5
1824
330
124E
100
AcDbEntity
  8
SUNPOU
 62
     0
440
 16777216
370
    -2
100
AcDbLine
 10
189.7630855724824
 20
4221.060453364474
 30
0.0
 11
149.7630855724824
 21
4221.060453364474
 31
0.0
  0
SOLID
  5
1825
330
124E
100
AcDbEntity
  8
SUNPOU
 62
     0
440
 16777216
100
AcDbTrace
 10
314.7630855724824
 20
4227.727120031141
 30
0.0
 11
314.7630855724824
 21
4214.393786697807
 31
0.0
 12
274.7630855724824
 22
4221.060453364474
 32
0.0
 13
274.7630855724824
 23
4221.060453364474
 33
0.0
  0
SOLID
  5
1826
330
124E
100
AcDbEntity
  8
SUNPOU
 62
     0
440
 16777216
100
AcDbTrace
 10
189.7630855724824
 20
4227.727120031141
 30
0.0
 11
189.7630855724824
 21
4214.393786697807
 31
0.0
 12
229.7630855724824
 22
4221.060453364474
 32
0.0
 13
229.7630855724824
 23
4221.060453364474
 33
0.0
  0
MTEXT
  5
1827
330
124E
100
AcDbEntity
  8
SUNPOU
 62
     0
440
 16777216
100
AcDbMText
 10
252.2630855724824
 20
4267.060453364474
 30
0.0
 40
60.0
 41
0.0
 71
     5
 72
     1
  1
\A1;45
 73
     1
 44
1.0
  0
POINT
  5
1828
330
124E
100
AcDbEntity
  8
DEFPOINTS
 62
     0
440
 16777216
100
AcDbPoint
 10
274.7630855724824
 20
3940.703096521186
 30
0.0
  0
POINT
  5
1829
330
124E
100
AcDbEntity
  8
DEFPOINTS
 62
     0
440
 16777216
100
AcDbPoint
 10
229.7630855724824
 20
3940.703096521186
 30
0.0
  0
POINT
  5
182A
330
124E
100
AcDbEntity
  8
DEFPOINTS
 62
     0
440
 16777216
100
AcDbPoint
 10
229.7630855724824
 20
4221.060453364474
 30
0.0
  0
ENDBLK
  5
1250
330
124E
100
AcDbEntity
  8
0
100
AcDbBlockEnd
  0
BLOCK
  5
125C
330
125B
100
AcDbEntity
  8
0
100
AcDbBlockBegin
  2
*D146
 70
     1
 10
0.0
 20
0.0
 30
0.0
  3
*D146
  1

  0
LINE
  5
182B
330
125B
100
AcDbEntity
  8
SUNPOU
 62
     0
440
 16777216
370
    -2
100
AcDbLine
 10
174.7630855724824
 20
3940.703096521186
 30
0.0
 11
-179.478355276009
 21
3940.703096521186
 31
0.0
  0
LINE
  5
182C
330
125B
100
AcDbEntity
  8
SUNPOU
 62
     0
440
 16777216
370
    -2
100
AcDbLine
 10
199.7630855724824
 20
3340.703096521186
 30
0.0
 11
-179.4783552760091
 21
3340.703096521186
 31
0.0
  0
LINE
  5
182D
330
125B
100
AcDbEntity
  8
SUNPOU
 62
     0
440
 16777216
370
    -2
100
AcDbLine
 10
-169.478355276009
 20
3900.703096521186
 30
0.0
 11
-169.4783552760091
 21
3380.703096521186
 31
0.0
  0
SOLID
  5
182E
330
125B
100
AcDbEntity
  8
SUNPOU
 62
     0
440
 16777216
100
AcDbTrace
 10
-176.1450219426756
 20
3900.703096521186
 30
0.0
 11
-162.8116886093423
 21
3900.703096521186
 31
0.0
 12
-169.478355276009
 22
3940.703096521186
 32
0.0
 13
-169.478355276009
 23
3940.703096521186
 33
0.0
  0
SOLID
  5
182F
330
125B
100
AcDbEntity
  8
SUNPOU
 62
     0
440
 16777216
100
AcDbTrace
 10
-176.1450219426758
 20
3380.703096521186
 30
0.0
 11
-162.8116886093424
 21
3380.703096521186
 31
0.0
 12
-169.4783552760091
 22
3340.703096521186
 32
0.0
 13
-169.4783552760091
 23
3340.703096521186
 33
0.0
  0
MTEXT
  5
1830
330
125B
100
AcDbEntity
  8
SUNPOU
 62
     0
440
 16777216
100
AcDbMText
 10
-215.4783552760096
 20
3640.703096521186
 30
0.0
 40
60.0
 41
0.0
 71
     5
 72
     1
  1
\A1;600
 11
6.123031769111886E-17
 21
1.0
 31
0.0
 73
     1
 44
1.0
  0
POINT
  5
1831
330
125B
100
AcDbEntity
  8
DEFPOINTS
 62
     0
440
 16777216
100
AcDbPoint
 10
214.7630855724824
 20
3940.703096521186
 30
0.0
  0
POINT
  5
1832
330
125B
100
AcDbEntity
  8
DEFPOINTS
 62
     0
440
 16777216
100
AcDbPoint
 10
239.7630855724824
 20
3340.703096521186
 30
0.0
  0
POINT
  5
1833
330
125B
100
AcDbEntity
  8
DEFPOINTS
 62
     0
440
 16777216
100
AcDbPoint
 10
-169.4783552760091
 20
3340.703096521186
 30
0.0
  0
ENDBLK
  5
125D
330
125B
100
AcDbEntity
  8
0
100
AcDbBlockEnd
  0
BLOCK
  5
1268
330
1267
100
AcDbEntity
  8
0
100
AcDbBlockBegin
  2
*D147
 70
     1
 10
0.0
 20
0.0
 30
0.0
  3
*D147
  1

  0
LINE
  5
1834
330
1267
100
AcDbEntity
  8
SUNPOU
 62
     0
440
 16777216
370
    -2
100
AcDbLine
 10
199.7630855724824
 20
3340.703096521186
 30
0.0
 11
-179.4783552760091
 21
3340.703096521186
 31
0.0
  0
LINE
  5
1835
330
1267
100
AcDbEntity
  8
SUNPOU
 62
     0
440
 16777216
370
    -2
100
AcDbLine
 10
229.7630855724824
 20
3280.703096521186
 30
0.0
 11
-179.4783552760091
 21
3280.703096521186
 31
0.0
  0
LINE
  5
1836
330
1267
100
AcDbEntity
  8
SUNPOU
 62
     0
440
 16777216
370
    -2
100
AcDbLine
 10
-169.4783552760091
 20
3380.703096521186
 30
0.0
 11
-169.4783552760091
 21
3420.703096521186
 31
0.0
  0
LINE
  5
1837
330
1267
100
AcDbEntity
  8
SUNPOU
 62
     0
440
 16777216
370
    -2
100
AcDbLine
 10
-169.4783552760091
 20
3240.703096521186
 30
0.0
 11
-169.4783552760091
 21
3200.703096521186
 31
0.0
  0
SOLID
  5
1838
330
1267
100
AcDbEntity
  8
SUNPOU
 62
     0
440
 16777216
100
AcDbTrace
 10
-176.1450219426758
 20
3380.703096521186
 30
0.0
 11
-162.8116886093424
 21
3380.703096521186
 31
0.0
 12
-169.4783552760091
 22
3340.703096521186
 32
0.0
 13
-169.4783552760091
 23
3340.703096521186
 33
0.0
  0
SOLID
  5
1839
330
1267
100
AcDbEntity
  8
SUNPOU
 62
     0
440
 16777216
100
AcDbTrace
 10
-176.1450219426758
 20
3240.703096521186
 30
0.0
 11
-162.8116886093425
 21
3240.703096521186
 31
0.0
 12
-169.4783552760091
 22
3280.703096521186
 32
0.0
 13
-169.4783552760091
 23
3280.703096521186
 33
0.0
  0
MTEXT
  5
183A
330
1267
100
AcDbEntity
  8
SUNPOU
 62
     0
440
 16777216
100
AcDbMText
 10
-215.4783552760096
 20
3310.703096521186
 30
0.0
 40
60.0
 41
0.0
 71
     5
 72
     1
  1
\A1;60
 11
6.123031769111886E-17
 21
1.0
 31
0.0
 73
     1
 44
1.0
  0
POINT
  5
183B
330
1267
100
AcDbEntity
  8
DEFPOINTS
 62
     0
440
 16777216
100
AcDbPoint
 10
239.7630855724824
 20
3340.703096521186
 30
0.0
  0
POINT
  5
183C
330
1267
100
AcDbEntity
  8
DEFPOINTS
 62
     0
440
 16777216
100
AcDbPoint
 10
269.7630855724824
 20
3280.703096521186
 30
0.0
  0
POINT
  5
183D
330
1267
100
AcDbEntity
  8
DEFPOINTS
 62
     0
440
 16777216
100
AcDbPoint
 10
-169.4783552760091
 20
3280.703096521186
 30
0.0
  0
ENDBLK
  5
1269
330
1267
100
AcDbEntity
  8
0
100
AcDbBlockEnd
  0
BLOCK
  5
1275
330
1274
100
AcDbEntity
  8
0
100
AcDbBlockBegin
  2
*D148
 70
     1
 10
0.0
 20
0.0
 30
0.0
  3
*D148
  1

  0
LINE
  5
183E
330
1274
100
AcDbEntity
  8
SUNPOU
 62
     0
440
 16777216
370
    -2
100
AcDbLine
 10
269.7630855724824
 20
3240.703096521186
 30
0.0
 11
269.7630855724824
 21
2987.808159655824
 31
0.0
  0
LINE
  5
183F
330
1274
100
AcDbEntity
  8
SUNPOU
 62
     0
440
 16777216
370
    -2
100
AcDbLine
 10
779.7630855724819
 20
3240.703096521186
 30
0.0
 11
779.7630855724819
 21
2987.808159655824
 31
0.0
  0
LINE
  5
1840
330
1274
100
AcDbEntity
  8
SUNPOU
 62
     0
440
 16777216
370
    -2
100
AcDbLine
 10
309.7630855724824
 20
2997.808159655824
 30
0.0
 11
739.7630855724819
 21
2997.808159655824
 31
0.0
  0
SOLID
  5
1841
330
1274
100
AcDbEntity
  8
SUNPOU
 62
     0
440
 16777216
100
AcDbTrace
 10
309.7630855724824
 20
3004.474826322491
 30
0.0
 11
309.7630855724824
 21
2991.141492989158
 31
0.0
 12
269.7630855724824
 22
2997.808159655824
 32
0.0
 13
269.7630855724824
 23
2997.808159655824
 33
0.0
  0
SOLID
  5
1842
330
1274
100
AcDbEntity
  8
SUNPOU
 62
     0
440
 16777216
100
AcDbTrace
 10
739.7630855724819
 20
3004.474826322491
 30
0.0
 11
739.7630855724819
 21
2991.141492989158
 31
0.0
 12
779.7630855724819
 22
2997.808159655824
 32
0.0
 13
779.7630855724819
 23
2997.808159655824
 33
0.0
  0
MTEXT
  5
1843
330
1274
100
AcDbEntity
  8
SUNPOU
 62
     0
440
 16777216
100
AcDbMText
 10
524.7630855724822
 20
3043.808159655824
 30
0.0
 40
60.0
 41
0.0
 71
     5
 72
     1
  1
\A1;510
 73
     1
 44
1.0
  0
POINT
  5
1844
330
1274
100
AcDbEntity
  8
DEFPOINTS
 62
     0
440
 16777216
100
AcDbPoint
 10
269.7630855724824
 20
3280.703096521186
 30
0.0
  0
POINT
  5
1845
330
1274
100
AcDbEntity
  8
DEFPOINTS
 62
     0
440
 16777216
100
AcDbPoint
 10
779.7630855724819
 20
3280.703096521186
 30
0.0
  0
POINT
  5
1846
330
1274
100
AcDbEntity
  8
DEFPOINTS
 62
     0
440
 16777216
100
AcDbPoint
 10
779.7630855724819
 20
2997.808159655824
 30
0.0
  0
ENDBLK
  5
1276
330
1274
100
AcDbEntity
  8
0
100
AcDbBlockEnd
  0
BLOCK
  5
1586
330
1585
100
AcDbEntity
  8
0
100
AcDbBlockBegin
  2
*D172
 70
     1
 10
0.0
 20
0.0
 30
0.0
  3
*D172
  1

  0
LINE
  5
186F
330
1585
100
AcDbEntity
  8
SUNPOU
 62
     0
440
 16777216
370
    -2
100
AcDbLine
 10
-1408.555442185141
 20
3340.703096521186
 30
0.0
 11
-1610.778980054316
 21
3340.703096521186
 31
0.0
  0
LINE
  5
1870
330
1585
100
AcDbEntity
  8
SUNPOU
 62
     0
440
 16777216
370
    -2
100
AcDbLine
 10
-1438.867942185141
 20
3540.703096521186
 30
0.0
 11
-1610.778980054316
 21
3540.703096521186
 31
0.0
  0
LINE
  5
1871
330
1585
100
AcDbEntity
  8
SUNPOU
 62
     0
440
 16777216
370
    -2
100
AcDbLine
 10
-1600.778980054316
 20
3380.703096521186
 30
0.0
 11
-1600.778980054316
 21
3500.703096521186
 31
0.0
  0
SOLID
  5
1872
330
1585
100
AcDbEntity
  8
SUNPOU
 62
     0
440
 16777216
100
AcDbTrace
 10
-1607.445646720982
 20
3380.703096521186
 30
0.0
 11
-1594.112313387649
 21
3380.703096521186
 31
0.0
 12
-1600.778980054316
 22
3340.703096521186
 32
0.0
 13
-1600.778980054316
 23
3340.703096521186
 33
0.0
  0
SOLID
  5
1873
330
1585
100
AcDbEntity
  8
SUNPOU
 62
     0
440
 16777216
100
AcDbTrace
 10
-1607.445646720982
 20
3500.703096521186
 30
0.0
 11
-1594.112313387649
 21
3500.703096521186
 31
0.0
 12
-1600.778980054316
 22
3540.703096521186
 32
0.0
 13
-1600.778980054316
 23
3540.703096521186
 33
0.0
  0
MTEXT
  5
1874
330
1585
100
AcDbEntity
  8
SUNPOU
 62
     0
440
 16777216
100
AcDbMText
 10
-1646.778980054316
 20
3440.703096521186
 30
0.0
 40
60.0
 41
0.0
 71
     5
 72
     1
  1
\A1;200
 11
6.123031769111886E-17
 21
1.0
 31
0.0
 73
     1
 44
1.0
  0
POINT
  5
1875
330
1585
100
AcDbEntity
  8
DEFPOINTS
 62
     0
440
 16777216
100
AcDbPoint
 10
-1368.555442185141
 20
3340.703096521186
 30
0.0
  0
POINT
  5
1876
330
1585
100
AcDbEntity
  8
DEFPOINTS
 62
     0
440
 16777216
100
AcDbPoint
 10
-1398.867942185141
 20
3540.703096521186
 30
0.0
  0
POINT
  5
1877
330
1585
100
AcDbEntity
  8
DEFPOINTS
 62
     0
440
 16777216
100
AcDbPoint
 10
-1600.778980054316
 20
3540.703096521186
 30
0.0
  0
ENDBLK
  5
1587
330
1585
100
AcDbEntity
  8
0
100
AcDbBlockEnd
  0
BLOCK
  5
15B7
330
15B6
100
AcDbEntity
  8
0
100
AcDbBlockBegin
  2
*D176
 70
     1
 10
0.0
 20
0.0
 30
0.0
  3
*D176
  1

  0
LINE
  5
1878
330
15B6
100
AcDbEntity
  8
SUNPOU
 62
     0
440
 16777216
370
    -2
100
AcDbLine
 10
-1308.555442185141
 20
3380.703096521186
 30
0.0
 11
-1308.555442185141
 21
3660.706373655623
 31
0.0
  0
LINE
  5
1879
330
15B6
100
AcDbEntity
  8
SUNPOU
 62
     0
440
 16777216
370
    -2
100
AcDbLine
 10
-958.5554421851416
 20
3380.703096521186
 30
0.0
 11
-958.5554421851416
 21
3660.706373655623
 31
0.0
  0
LINE
  5
187A
330
15B6
100
AcDbEntity
  8
SUNPOU
 62
     0
440
 16777216
370
    -2
100
AcDbLine
 10
-1268.555442185141
 20
3650.706373655623
 30
0.0
 11
-998.5554421851416
 21
3650.706373655623
 31
0.0
  0
SOLID
  5
187B
330
15B6
100
AcDbEntity
  8
SUNPOU
 62
     0
440
 16777216
100
AcDbTrace
 10
-1268.555442185141
 20
3657.373040322289
 30
0.0
 11
-1268.555442185141
 21
3644.039706988956
 31
0.0
 12
-1308.555442185141
 22
3650.706373655623
 32
0.0
 13
-1308.555442185141
 23
3650.706373655623
 33
0.0
  0
SOLID
  5
187C
330
15B6
100
AcDbEntity
  8
SUNPOU
 62
     0
440
 16777216
100
AcDbTrace
 10
-998.5554421851416
 20
3657.373040322289
 30
0.0
 11
-998.5554421851416
 21
3644.039706988956
 31
0.0
 12
-958.5554421851416
 22
3650.706373655623
 32
0.0
 13
-958.5554421851416
 23
3650.706373655623
 33
0.0
  0
MTEXT
  5
187D
330
15B6
100
AcDbEntity
  8
SUNPOU
 62
     0
440
 16777216
100
AcDbMText
 10
-1133.555442185141
 20
3696.706373655623
 30
0.0
 40
60.0
 41
0.0
 71
     5
 72
     1
  1
\A1;350
 73
     1
 44
1.0
  0
POINT
  5
187E
330
15B6
100
AcDbEntity
  8
DEFPOINTS
 62
     0
440
 16777216
100
AcDbPoint
 10
-1308.555442185141
 20
3340.703096521186
 30
0.0
  0
POINT
  5
187F
330
15B6
100
AcDbEntity
  8
DEFPOINTS
 62
     0
440
 16777216
100
AcDbPoint
 10
-958.5554421851416
 20
3340.703096521186
 30
0.0
  0
POINT
  5
1880
330
15B6
100
AcDbEntity
  8
DEFPOINTS
 62
     0
440
 16777216
100
AcDbPoint
 10
-958.5554421851416
 20
3650.706373655623
 30
0.0
  0
ENDBLK
  5
15B8
330
15B6
100
AcDbEntity
  8
0
100
AcDbBlockEnd
  0
BLOCK
  5
15C3
330
15C2
100
AcDbEntity
  8
0
100
AcDbBlockBegin
  2
*D177
 70
     1
 10
0.0
 20
0.0
 30
0.0
  3
*D177
  1

  0
LINE
  5
1881
330
15C2
100
AcDbEntity
  8
SUNPOU
 62
     0
440
 16777216
370
    -2
100
AcDbLine
 10
-1368.555442185141
 20
3380.703096521186
 30
0.0
 11
-1368.555442185141
 21
3660.706373655623
 31
0.0
  0
LINE
  5
1882
330
15C2
100
AcDbEntity
  8
SUNPOU
 62
     0
440
 16777216
370
    -2
100
AcDbLine
 10
-1308.555442185141
 20
3380.703096521186
 30
0.0
 11
-1308.555442185141
 21
3660.706373655623
 31
0.0
  0
LINE
  5
1883
330
15C2
100
AcDbEntity
  8
SUNPOU
 62
     0
440
 16777216
370
    -2
100
AcDbLine
 10
-1408.555442185141
 20
3650.706373655623
 30
0.0
 11
-1448.555442185141
 21
3650.706373655623
 31
0.0
  0
LINE
  5
1884
330
15C2
100
AcDbEntity
  8
SUNPOU
 62
     0
440
 16777216
370
    -2
100
AcDbLine
 10
-1268.555442185141
 20
3650.706373655623
 30
0.0
 11
-1228.555442185141
 21
3650.706373655623
 31
0.0
  0
SOLID
  5
1885
330
15C2
100
AcDbEntity
  8
SUNPOU
 62
     0
440
 16777216
100
AcDbTrace
 10
-1408.555442185141
 20
3657.373040322289
 30
0.0
 11
-1408.555442185141
 21
3644.039706988956
 31
0.0
 12
-1368.555442185141
 22
3650.706373655623
 32
0.0
 13
-1368.555442185141
 23
3650.706373655623
 33
0.0
  0
SOLID
  5
1886
330
15C2
100
AcDbEntity
  8
SUNPOU
 62
     0
440
 16777216
100
AcDbTrace
 10
-1268.555442185141
 20
3657.373040322289
 30
0.0
 11
-1268.555442185141
 21
3644.039706988956
 31
0.0
 12
-1308.555442185141
 22
3650.706373655623
 32
0.0
 13
-1308.555442185141
 23
3650.706373655623
 33
0.0
  0
MTEXT
  5
1887
330
15C2
100
AcDbEntity
  8
SUNPOU
 62
     0
440
 16777216
100
AcDbMText
 10
-1338.555442185141
 20
3696.706373655623
 30
0.0
 40
60.0
 41
0.0
 71
     5
 72
     1
  1
\A1;60
 73
     1
 44
1.0
  0
POINT
  5
1888
330
15C2
100
AcDbEntity
  8
DEFPOINTS
 62
     0
440
 16777216
100
AcDbPoint
 10
-1368.555442185141
 20
3340.703096521186
 30
0.0
  0
POINT
  5
1889
330
15C2
100
AcDbEntity
  8
DEFPOINTS
 62
     0
440
 16777216
100
AcDbPoint
 10
-1308.555442185141
 20
3340.703096521186
 30
0.0
  0
POINT
  5
188A
330
15C2
100
AcDbEntity
  8
DEFPOINTS
 62
     0
440
 16777216
100
AcDbPoint
 10
-1308.555442185141
 20
3650.706373655623
 30
0.0
  0
ENDBLK
  5
15C4
330
15C2
100
AcDbEntity
  8
0
100
AcDbBlockEnd
  0
BLOCK
  5
15D0
330
15CF
100
AcDbEntity
  8
0
100
AcDbBlockBegin
  2
*D178
 70
     1
 10
0.0
 20
0.0
 30
0.0
  3
*D178
  1

  0
LINE
  5
188B
330
15CF
100
AcDbEntity
  8
SUNPOU
 62
     0
440
 16777216
370
    -2
100
AcDbLine
 10
-1333.555442185141
 20
3980.703096521186
 30
0.0
 11
-1333.555442185141
 21
4231.060453364474
 31
0.0
  0
LINE
  5
188C
330
15CF
100
AcDbEntity
  8
SUNPOU
 62
     0
440
 16777216
370
    -2
100
AcDbLine
 10
-933.5554421851411
 20
3980.703096521186
 30
0.0
 11
-933.5554421851411
 21
4231.060453364474
 31
0.0
  0
LINE
  5
188D
330
15CF
100
AcDbEntity
  8
SUNPOU
 62
     0
440
 16777216
370
    -2
100
AcDbLine
 10
-1293.555442185141
 20
4221.060453364474
 30
0.0
 11
-973.5554421851411
 21
4221.060453364474
 31
0.0
  0
SOLID
  5
188E
330
15CF
100
AcDbEntity
  8
SUNPOU
 62
     0
440
 16777216
100
AcDbTrace
 10
-1293.555442185141
 20
4227.727120031141
 30
0.0
 11
-1293.555442185141
 21
4214.393786697807
 31
0.0
 12
-1333.555442185141
 22
4221.060453364474
 32
0.0
 13
-1333.555442185141
 23
4221.060453364474
 33
0.0
  0
SOLID
  5
188F
330
15CF
100
AcDbEntity
  8
SUNPOU
 62
     0
440
 16777216
100
AcDbTrace
 10
-973.5554421851411
 20
4227.727120031141
 30
0.0
 11
-973.5554421851411
 21
4214.393786697807
 31
0.0
 12
-933.5554421851411
 22
4221.060453364474
 32
0.0
 13
-933.5554421851411
 23
4221.060453364474
 33
0.0
  0
MTEXT
  5
1890
330
15CF
100
AcDbEntity
  8
SUNPOU
 62
     0
440
 16777216
100
AcDbMText
 10
-1133.555442185141
 20
4267.060453364474
 30
0.0
 40
60.0
 41
0.0
 71
     5
 72
     1
  1
\A1;400
 73
     1
 44
1.0
  0
POINT
  5
1891
330
15CF
100
AcDbEntity
  8
DEFPOINTS
 62
     0
440
 16777216
100
AcDbPoint
 10
-1333.555442185141
 20
3940.703096521186
 30
0.0
  0
POINT
  5
1892
330
15CF
100
AcDbEntity
  8
DEFPOINTS
 62
     0
440
 16777216
100
AcDbPoint
 10
-933.5554421851411
 20
3940.703096521186
 30
0.0
  0
POINT
  5
1893
330
15CF
100
AcDbEntity
  8
DEFPOINTS
 62
     0
440
 16777216
100
AcDbPoint
 10
-933.5554421851411
 20
4221.060453364474
 30
0.0
  0
ENDBLK
  5
15D1
330
15CF
100
AcDbEntity
  8
0
100
AcDbBlockEnd
  0
BLOCK
  5
15DC
330
15DB
100
AcDbEntity
  8
0
100
AcDbBlockBegin
  2
*D179
 70
     1
 10
0.0
 20
0.0
 30
0.0
  3
*D179
  1

  0
LINE
  5
1894
330
15DB
100
AcDbEntity
  8
SUNPOU
 62
     0
440
 16777216
370
    -2
100
AcDbLine
 10
-1393.555442185141
 20
3980.703096521186
 30
0.0
 11
-1393.555442185141
 21
4358.69171066633
 31
0.0
  0
LINE
  5
1895
330
15DB
100
AcDbEntity
  8
SUNPOU
 62
     0
440
 16777216
370
    -2
100
AcDbLine
 10
-873.5554421851411
 20
3980.703096521186
 30
0.0
 11
-873.5554421851411
 21
4358.69171066633
 31
0.0
  0
LINE
  5
1896
330
15DB
100
AcDbEntity
  8
SUNPOU
 62
     0
440
 16777216
370
    -2
100
AcDbLine
 10
-1353.555442185141
 20
4348.69171066633
 30
0.0
 11
-913.5554421851411
 21
4348.69171066633
 31
0.0
  0
SOLID
  5
1897
330
15DB
100
AcDbEntity
  8
SUNPOU
 62
     0
440
 16777216
100
AcDbTrace
 10
-1353.555442185141
 20
4355.358377332996
 30
0.0
 11
-1353.555442185141
 21
4342.025043999663
 31
0.0
 12
-1393.555442185141
 22
4348.69171066633
 32
0.0
 13
-1393.555442185141
 23
4348.69171066633
 33
0.0
  0
SOLID
  5
1898
330
15DB
100
AcDbEntity
  8
SUNPOU
 62
     0
440
 16777216
100
AcDbTrace
 10
-913.5554421851411
 20
4355.358377332996
 30
0.0
 11
-913.5554421851411
 21
4342.025043999663
 31
0.0
 12
-873.5554421851411
 22
4348.69171066633
 32
0.0
 13
-873.5554421851411
 23
4348.69171066633
 33
0.0
  0
MTEXT
  5
1899
330
15DB
100
AcDbEntity
  8
SUNPOU
 62
     0
440
 16777216
100
AcDbMText
 10
-1133.555442185141
 20
4394.69171066633
 30
0.0
 40
60.0
 41
0.0
 71
     5
 72
     1
  1
\A1;520
 73
     1
 44
1.0
  0
POINT
  5
189A
330
15DB
100
AcDbEntity
  8
DEFPOINTS
 62
     0
440
 16777216
100
AcDbPoint
 10
-1393.555442185141
 20
3940.703096521186
 30
0.0
  0
POINT
  5
189B
330
15DB
100
AcDbEntity
  8
DEFPOINTS
 62
     0
440
 16777216
100
AcDbPoint
 10
-873.5554421851411
 20
3940.703096521186
 30
0.0
  0
POINT
  5
189C
330
15DB
100
AcDbEntity
  8
DEFPOINTS
 62
     0
440
 16777216
100
AcDbPoint
 10
-873.5554421851411
 20
4348.69171066633
 30
0.0
  0
ENDBLK
  5
15DD
330
15DB
100
AcDbEntity
  8
0
100
AcDbBlockEnd
  0
BLOCK
  5
15E8
330
15E7
100
AcDbEntity
  8
0
100
AcDbBlockBegin
  2
*D180
 70
     1
 10
0.0
 20
0.0
 30
0.0
  3
*D180
  1

  0
LINE
  5
189D
330
15E7
100
AcDbEntity
  8
SUNPOU
 62
     0
440
 16777216
370
    -2
100
AcDbLine
 10
-1378.555442185141
 20
3980.703096521186
 30
0.0
 11
-1378.555442185141
 21
4231.060453364474
 31
0.0
  0
LINE
  5
189E
330
15E7
100
AcDbEntity
  8
SUNPOU
 62
     0
440
 16777216
370
    -2
100
AcDbLine
 10
-1393.555442185141
 20
3980.703096521186
 30
0.0
 11
-1393.555442185141
 21
4231.060453364474
 31
0.0
  0
LINE
  5
189F
330
15E7
100
AcDbEntity
  8
SUNPOU
 62
     0
440
 16777216
370
    -2
100
AcDbLine
 10
-1338.555442185141
 20
4221.060453364474
 30
0.0
 11
-1298.555442185141
 21
4221.060453364474
 31
0.0
  0
LINE
  5
18A0
330
15E7
100
AcDbEntity
  8
SUNPOU
 62
     0
440
 16777216
370
    -2
100
AcDbLine
 10
-1433.555442185141
 20
4221.060453364474
 30
0.0
 11
-1473.555442185141
 21
4221.060453364474
 31
0.0
  0
MTEXT
  5
18A1
330
15E7
100
AcDbEntity
  8
SUNPOU
 62
     0
440
 16777216
100
AcDbMText
 10
-1449.866273079013
 20
4267.929797172788
 30
0.0
 40
60.0
 41
0.0
 71
     5
 72
     1
  1
\A1;15
 73
     1
 44
1.0
  0
SOLID
  5
18A2
330
15E7
100
AcDbEntity
  8
SUNPOU
 62
     0
440
 16777216
100
AcDbTrace
 10
-1338.555442185141
 20
4227.727120031141
 30
0.0
 11
-1338.555442185141
 21
4214.393786697807
 31
0.0
 12
-1378.555442185141
 22
4221.060453364474
 32
0.0
 13
-1378.555442185141
 23
4221.060453364474
 33
0.0
  0
SOLID
  5
18A3
330
15E7
100
AcDbEntity
  8
SUNPOU
 62
     0
440
 16777216
100
AcDbTrace
 10
-1433.555442185141
 20
4227.727120031141
 30
0.0
 11
-1433.555442185141
 21
4214.393786697807
 31
0.0
 12
-1393.555442185141
 22
4221.060453364474
 32
0.0
 13
-1393.555442185141
 23
4221.060453364474
 33
0.0
  0
POINT
  5
18A4
330
15E7
100
AcDbEntity
  8
DEFPOINTS
 62
     0
440
 16777216
100
AcDbPoint
 10
-1378.555442185141
 20
3940.703096521186
 30
0.0
  0
POINT
  5
18A5
330
15E7
100
AcDbEntity
  8
DEFPOINTS
 62
     0
440
 16777216
100
AcDbPoint
 10
-1393.555442185141
 20
3940.703096521186
 30
0.0
  0
POINT
  5
18A6
330
15E7
100
AcDbEntity
  8
DEFPOINTS
 62
     0
440
 16777216
100
AcDbPoint
 10
-1393.555442185141
 20
4221.060453364474
 30
0.0
  0
ENDBLK
  5
15E9
330
15E7
100
AcDbEntity
  8
0
100
AcDbBlockEnd
  0
BLOCK
  5
15F5
330
15F4
100
AcDbEntity
  8
0
100
AcDbBlockBegin
  2
*D181
 70
     1
 10
0.0
 20
0.0
 30
0.0
  3
*D181
  1

  0
LINE
  5
18A7
330
15F4
100
AcDbEntity
  8
SUNPOU
 62
     0
440
 16777216
370
    -2
100
AcDbLine
 10
-1333.555442185141
 20
3980.703096521186
 30
0.0
 11
-1333.555442185141
 21
4231.060453364474
 31
0.0
  0
LINE
  5
18A8
330
15F4
100
AcDbEntity
  8
SUNPOU
 62
     0
440
 16777216
370
    -2
100
AcDbLine
 10
-1378.555442185141
 20
3980.703096521186
 30
0.0
 11
-1378.555442185141
 21
4231.060453364474
 31
0.0
  0
LINE
  5
18A9
330
15F4
100
AcDbEntity
  8
SUNPOU
 62
     0
440
 16777216
370
    -2
100
AcDbLine
 10
-1293.555442185141
 20
4221.060453364474
 30
0.0
 11
-1253.555442185141
 21
4221.060453364474
 31
0.0
  0
LINE
  5
18AA
330
15F4
100
AcDbEntity
  8
SUNPOU
 62
     0
440
 16777216
370
    -2
100
AcDbLine
 10
-1418.555442185141
 20
4221.060453364474
 30
0.0
 11
-1458.555442185141
 21
4221.060453364474
 31
0.0
  0
SOLID
  5
18AB
330
15F4
100
AcDbEntity
  8
SUNPOU
 62
     0
440
 16777216
100
AcDbTrace
 10
-1293.555442185141
 20
4227.727120031141
 30
0.0
 11
-1293.555442185141
 21
4214.393786697807
 31
0.0
 12
-1333.555442185141
 22
4221.060453364474
 32
0.0
 13
-1333.555442185141
 23
4221.060453364474
 33
0.0
  0
SOLID
  5
18AC
330
15F4
100
AcDbEntity
  8
SUNPOU
 62
     0
440
 16777216
100
AcDbTrace
 10
-1418.555442185141
 20
4227.727120031141
 30
0.0
 11
-1418.555442185141
 21
4214.393786697807
 31
0.0
 12
-1378.555442185141
 22
4221.060453364474
 32
0.0
 13
-1378.555442185141
 23
4221.060453364474
 33
0.0
  0
MTEXT
  5
18AD
330
15F4
100
AcDbEntity
  8
SUNPOU
 62
     0
440
 16777216
100
AcDbMText
 10
-1356.055442185141
 20
4267.060453364474
 30
0.0
 40
60.0
 41
0.0
 71
     5
 72
     1
  1
\A1;45
 73
     1
 44
1.0
  0
POINT
  5
18AE
330
15F4
100
AcDbEntity
  8
DEFPOINTS
 62
     0
440
 16777216
100
AcDbPoint
 10
-1333.555442185141
 20
3940.703096521186
 30
0.0
  0
POINT
  5
18AF
330
15F4
100
AcDbEntity
  8
DEFPOINTS
 62
     0
440
 16777216
100
AcDbPoint
 10
-1378.555442185141
 20
3940.703096521186
 30
0.0
  0
POINT
  5
18B0
330
15F4
100
AcDbEntity
  8
DEFPOINTS
 62
     0
440
 16777216
100
AcDbPoint
 10
-1378.555442185141
 20
4221.060453364474
 30
0.0
  0
ENDBLK
  5
15F6
330
15F4
100
AcDbEntity
  8
0
100
AcDbBlockEnd
  0
BLOCK
  5
1602
330
1601
100
AcDbEntity
  8
0
100
AcDbBlockBegin
  2
*D182
 70
     1
 10
0.0
 20
0.0
 30
0.0
  3
*D182
  1

  0
LINE
  5
18B1
330
1601
100
AcDbEntity
  8
SUNPOU
 62
     0
440
 16777216
370
    -2
100
AcDbLine
 10
-1433.555442185141
 20
3940.703096521186
 30
0.0
 11
-1787.796883033632
 21
3940.703096521186
 31
0.0
  0
LINE
  5
18B2
330
1601
100
AcDbEntity
  8
SUNPOU
 62
     0
440
 16777216
370
    -2
100
AcDbLine
 10
-1408.555442185141
 20
3340.703096521186
 30
0.0
 11
-1787.796883033632
 21
3340.703096521186
 31
0.0
  0
LINE
  5
18B3
330
1601
100
AcDbEntity
  8
SUNPOU
 62
     0
440
 16777216
370
    -2
100
AcDbLine
 10
-1777.796883033632
 20
3900.703096521186
 30
0.0
 11
-1777.796883033632
 21
3380.703096521186
 31
0.0
  0
SOLID
  5
18B4
330
1601
100
AcDbEntity
  8
SUNPOU
 62
     0
440
 16777216
100
AcDbTrace
 10
-1784.463549700299
 20
3900.703096521186
 30
0.0
 11
-1771.130216366965
 21
3900.703096521186
 31
0.0
 12
-1777.796883033632
 22
3940.703096521186
 32
0.0
 13
-1777.796883033632
 23
3940.703096521186
 33
0.0
  0
SOLID
  5
18B5
330
1601
100
AcDbEntity
  8
SUNPOU
 62
     0
440
 16777216
100
AcDbTrace
 10
-1784.463549700299
 20
3380.703096521186
 30
0.0
 11
-1771.130216366965
 21
3380.703096521186
 31
0.0
 12
-1777.796883033632
 22
3340.703096521186
 32
0.0
 13
-1777.796883033632
 23
3340.703096521186
 33
0.0
  0
MTEXT
  5
18B6
330
1601
100
AcDbEntity
  8
SUNPOU
 62
     0
440
 16777216
100
AcDbMText
 10
-1823.796883033633
 20
3640.703096521186
 30
0.0
 40
60.0
 41
0.0
 71
     5
 72
     1
  1
\A1;600
 11
6.123031769111886E-17
 21
1.0
 31
0.0
 73
     1
 44
1.0
  0
POINT
  5
18B7
330
1601
100
AcDbEntity
  8
DEFPOINTS
 62
     0
440
 16777216
100
AcDbPoint
 10
-1393.555442185141
 20
3940.703096521186
 30
0.0
  0
POINT
  5
18B8
330
1601
100
AcDbEntity
  8
DEFPOINTS
 62
     0
440
 16777216
100
AcDbPoint
 10
-1368.555442185141
 20
3340.703096521186
 30
0.0
  0
POINT
  5
18B9
330
1601
100
AcDbEntity
  8
DEFPOINTS
 62
     0
440
 16777216
100
AcDbPoint
 10
-1777.796883033632
 20
3340.703096521186
 30
0.0
  0
ENDBLK
  5
1603
330
1601
100
AcDbEntity
  8
0
100
AcDbBlockEnd
  0
BLOCK
  5
160E
330
160D
100
AcDbEntity
  8
0
100
AcDbBlockBegin
  2
*D183
 70
     1
 10
0.0
 20
0.0
 30
0.0
  3
*D183
  1

  0
LINE
  5
18BA
330
160D
100
AcDbEntity
  8
SUNPOU
 62
     0
440
 16777216
370
    -2
100
AcDbLine
 10
-1408.555442185141
 20
3340.703096521186
 30
0.0
 11
-1787.796883033632
 21
3340.703096521186
 31
0.0
  0
LINE
  5
18BB
330
160D
100
AcDbEntity
  8
SUNPOU
 62
     0
440
 16777216
370
    -2
100
AcDbLine
 10
-1378.555442185141
 20
3280.703096521186
 30
0.0
 11
-1787.796883033632
 21
3280.703096521186
 31
0.0
  0
LINE
  5
18BC
330
160D
100
AcDbEntity
  8
SUNPOU
 62
     0
440
 16777216
370
    -2
100
AcDbLine
 10
-1777.796883033632
 20
3380.703096521186
 30
0.0
 11
-1777.796883033632
 21
3420.703096521186
 31
0.0
  0
LINE
  5
18BD
330
160D
100
AcDbEntity
  8
SUNPOU
 62
     0
440
 16777216
370
    -2
100
AcDbLine
 10
-1777.796883033632
 20
3240.703096521186
 30
0.0
 11
-1777.796883033632
 21
3200.703096521186
 31
0.0
  0
SOLID
  5
18BE
330
160D
100
AcDbEntity
  8
SUNPOU
 62
     0
440
 16777216
100
AcDbTrace
 10
-1784.463549700299
 20
3380.703096521186
 30
0.0
 11
-1771.130216366965
 21
3380.703096521186
 31
0.0
 12
-1777.796883033632
 22
3340.703096521186
 32
0.0
 13
-1777.796883033632
 23
3340.703096521186
 33
0.0
  0
SOLID
  5
18BF
330
160D
100
AcDbEntity
  8
SUNPOU
 62
     0
440
 16777216
100
AcDbTrace
 10
-1784.463549700299
 20
3240.703096521186
 30
0.0
 11
-1771.130216366965
 21
3240.703096521186
 31
0.0
 12
-1777.796883033632
 22
3280.703096521186
 32
0.0
 13
-1777.796883033632
 23
3280.703096521186
 33
0.0
  0
MTEXT
  5
18C0
330
160D
100
AcDbEntity
  8
SUNPOU
 62
     0
440
 16777216
100
AcDbMText
 10
-1823.796883033633
 20
3310.703096521186
 30
0.0
 40
60.0
 41
0.0
 71
     5
 72
     1
  1
\A1;60
 11
6.123031769111886E-17
 21
1.0
 31
0.0
 73
     1
 44
1.0
  0
POINT
  5
18C1
330
160D
100
AcDbEntity
  8
DEFPOINTS
 62
     0
440
 16777216
100
AcDbPoint
 10
-1368.555442185141
 20
3340.703096521186
 30
0.0
  0
POINT
  5
18C2
330
160D
100
AcDbEntity
  8
DEFPOINTS
 62
     0
440
 16777216
100
AcDbPoint
 10
-1338.555442185141
 20
3280.703096521186
 30
0.0
  0
POINT
  5
18C3
330
160D
100
AcDbEntity
  8
DEFPOINTS
 62
     0
440
 16777216
100
AcDbPoint
 10
-1777.796883033632
 20
3280.703096521186
 30
0.0
  0
ENDBLK
  5
160F
330
160D
100
AcDbEntity
  8
0
100
AcDbBlockEnd
  0
BLOCK
  5
161B
330
161A
100
AcDbEntity
  8
0
100
AcDbBlockBegin
  2
*D184
 70
     1
 10
0.0
 20
0.0
 30
0.0
  3
*D184
  1

  0
LINE
  5
18C4
330
161A
100
AcDbEntity
  8
SUNPOU
 62
     0
440
 16777216
370
    -2
100
AcDbLine
 10
-1338.555442185141
 20
3240.703096521186
 30
0.0
 11
-1338.555442185141
 21
2987.808159655824
 31
0.0
  0
LINE
  5
18C5
330
161A
100
AcDbEntity
  8
SUNPOU
 62
     0
440
 16777216
370
    -2
100
AcDbLine
 10
-928.5554421851411
 20
3240.703096521186
 30
0.0
 11
-928.5554421851411
 21
2987.808159655824
 31
0.0
  0
LINE
  5
18C6
330
161A
100
AcDbEntity
  8
SUNPOU
 62
     0
440
 16777216
370
    -2
100
AcDbLine
 10
-1298.555442185141
 20
2997.808159655824
 30
0.0
 11
-968.5554421851411
 21
2997.808159655824
 31
0.0
  0
SOLID
  5
18C7
330
161A
100
AcDbEntity
  8
SUNPOU
 62
     0
440
 16777216
100
AcDbTrace
 10
-1298.555442185141
 20
3004.474826322491
 30
0.0
 11
-1298.555442185141
 21
2991.141492989158
 31
0.0
 12
-1338.555442185141
 22
2997.808159655824
 32
0.0
 13
-1338.555442185141
 23
2997.808159655824
 33
0.0
  0
SOLID
  5
18C8
330
161A
100
AcDbEntity
  8
SUNPOU
 62
     0
440
 16777216
100
AcDbTrace
 10
-968.5554421851411
 20
3004.474826322491
 30
0.0
 11
-968.5554421851411
 21
2991.141492989158
 31
0.0
 12
-928.5554421851411
 22
2997.808159655824
 32
0.0
 13
-928.5554421851411
 23
2997.808159655824
 33
0.0
  0
MTEXT
  5
18C9
330
161A
100
AcDbEntity
  8
SUNPOU
 62
     0
440
 16777216
100
AcDbMText
 10
-1133.555442185141
 20
3043.808159655824
 30
0.0
 40
60.0
 41
0.0
 71
     5
 72
     1
  1
\A1;410
 73
     1
 44
1.0
  0
POINT
  5
18CA
330
161A
100
AcDbEntity
  8
DEFPOINTS
 62
     0
440
 16777216
100
AcDbPoint
 10
-1338.555442185141
 20
3280.703096521186
 30
0.0
  0
POINT
  5
18CB
330
161A
100
AcDbEntity
  8
DEFPOINTS
 62
     0
440
 16777216
100
AcDbPoint
 10
-928.5554421851411
 20
3280.703096521186
 30
0.0
  0
POINT
  5
18CC
330
161A
100
AcDbEntity
  8
DEFPOINTS
 62
     0
440
 16777216
100
AcDbPoint
 10
-928.5554421851411
 20
2997.808159655824
 30
0.0
  0
ENDBLK
  5
161C
330
161A
100
AcDbEntity
  8
0
100
AcDbBlockEnd
  0
BLOCK
  5
1627
330
1626
100
AcDbEntity
  8
0
100
AcDbBlockBegin
  2
*D185
 70
     1
 10
0.0
 20
0.0
 30
0.0
  3
*D185
  1

  0
LINE
  5
18CD
330
1626
100
AcDbEntity
  8
SUNPOU
 62
     0
440
 16777216
370
    -2
100
AcDbLine
 10
-1433.555442185141
 20
3885.703096521186
 30
0.0
 11
-1542.489284593128
 21
3885.703096521186
 31
0.0
  0
LINE
  5
18CE
330
1626
100
AcDbEntity
  8
SUNPOU
 62
     0
440
 16777216
370
    -2
100
AcDbLine
 10
-1433.555442185141
 20
3940.703096521186
 30
0.0
 11
-1542.489284593128
 21
3940.703096521186
 31
0.0
  0
LINE
  5
18CF
330
1626
100
AcDbEntity
  8
SUNPOU
 62
     0
440
 16777216
370
    -2
100
AcDbLine
 10
-1532.489284593128
 20
3845.703096521186
 30
0.0
 11
-1532.489284593128
 21
3805.703096521186
 31
0.0
  0
LINE
  5
18D0
330
1626
100
AcDbEntity
  8
SUNPOU
 62
     0
440
 16777216
370
    -2
100
AcDbLine
 10
-1532.489284593128
 20
3980.703096521186
 30
0.0
 11
-1532.489284593128
 21
4020.703096521186
 31
0.0
  0
SOLID
  5
18D1
330
1626
100
AcDbEntity
  8
SUNPOU
 62
     0
440
 16777216
100
AcDbTrace
 10
-1539.155951259795
 20
3845.703096521186
 30
0.0
 11
-1525.822617926461
 21
3845.703096521186
 31
0.0
 12
-1532.489284593128
 22
3885.703096521186
 32
0.0
 13
-1532.489284593128
 23
3885.703096521186
 33
0.0
  0
SOLID
  5
18D2
330
1626
100
AcDbEntity
  8
SUNPOU
 62
     0
440
 16777216
100
AcDbTrace
 10
-1539.155951259795
 20
3980.703096521186
 30
0.0
 11
-1525.822617926461
 21
3980.703096521186
 31
0.0
 12
-1532.489284593128
 22
3940.703096521186
 32
0.0
 13
-1532.489284593128
 23
3940.703096521186
 33
0.0
  0
MTEXT
  5
18D3
330
1626
100
AcDbEntity
  8
SUNPOU
 62
     0
440
 16777216
100
AcDbMText
 10
-1578.489284593129
 20
3913.203096521186
 30
0.0
 40
60.0
 41
0.0
 71
     5
 72
     1
  1
\A1;55
 11
6.123031769111886E-17
 21
1.0
 31
0.0
 73
     1
 44
1.0
  0
POINT
  5
18D4
330
1626
100
AcDbEntity
  8
DEFPOINTS
 62
     0
440
 16777216
100
AcDbPoint
 10
-1393.555442185141
 20
3885.703096521186
 30
0.0
  0
POINT
  5
18D5
330
1626
100
AcDbEntity
  8
DEFPOINTS
 62
     0
440
 16777216
100
AcDbPoint
 10
-1393.555442185141
 20
3940.703096521186
 30
0.0
  0
POINT
  5
18D6
330
1626
100
AcDbEntity
  8
DEFPOINTS
 62
     0
440
 16777216
100
AcDbPoint
 10
-1532.489284593128
 20
3940.703096521186
 30
0.0
  0
ENDBLK
  5
1628
330
1626
100
AcDbEntity
  8
0
100
AcDbBlockEnd
  0
BLOCK
  5
1670
330
166F
100
AcDbEntity
  8
0
100
AcDbBlockBegin
  2
*D191
 70
     1
 10
0.0
 20
0.0
 30
0.0
  3
*D191
  1

  0
LINE
  5
18D7
330
166F
100
AcDbEntity
  8
SUNPOU
 62
     0
440
 16777216
370
    -2
100
AcDbLine
 10
-933.5554421851416
 20
3980.703096521186
 30
0.0
 11
-933.5554421851416
 21
4231.060453364474
 31
0.0
  0
LINE
  5
18D8
330
166F
100
AcDbEntity
  8
SUNPOU
 62
     0
440
 16777216
370
    -2
100
AcDbLine
 10
-873.5554421851411
 20
3980.703096521186
 30
0.0
 11
-873.5554421851411
 21
4231.060453364474
 31
0.0
  0
LINE
  5
18D9
330
166F
100
AcDbEntity
  8
SUNPOU
 62
     0
440
 16777216
370
    -2
100
AcDbLine
 10
-973.5554421851416
 20
4221.060453364474
 30
0.0
 11
-1013.555442185142
 21
4221.060453364474
 31
0.0
  0
LINE
  5
18DA
330
166F
100
AcDbEntity
  8
SUNPOU
 62
     0
440
 16777216
370
    -2
100
AcDbLine
 10
-833.5554421851411
 20
4221.060453364474
 30
0.0
 11
-793.5554421851411
 21
4221.060453364474
 31
0.0
  0
SOLID
  5
18DB
330
166F
100
AcDbEntity
  8
SUNPOU
 62
     0
440
 16777216
100
AcDbTrace
 10
-973.5554421851416
 20
4227.727120031141
 30
0.0
 11
-973.5554421851416
 21
4214.393786697807
 31
0.0
 12
-933.5554421851416
 22
4221.060453364474
 32
0.0
 13
-933.5554421851416
 23
4221.060453364474
 33
0.0
  0
SOLID
  5
18DC
330
166F
100
AcDbEntity
  8
SUNPOU
 62
     0
440
 16777216
100
AcDbTrace
 10
-833.5554421851411
 20
4227.727120031141
 30
0.0
 11
-833.5554421851411
 21
4214.393786697807
 31
0.0
 12
-873.5554421851411
 22
4221.060453364474
 32
0.0
 13
-873.5554421851411
 23
4221.060453364474
 33
0.0
  0
MTEXT
  5
18DD
330
166F
100
AcDbEntity
  8
SUNPOU
 62
     0
440
 16777216
100
AcDbMText
 10
-903.5554421851414
 20
4267.060453364474
 30
0.0
 40
60.0
 41
0.0
 71
     5
 72
     1
  1
\A1;60
 73
     1
 44
1.0
  0
POINT
  5
18DE
330
166F
100
AcDbEntity
  8
DEFPOINTS
 62
     0
440
 16777216
100
AcDbPoint
 10
-933.5554421851416
 20
3940.703096521186
 30
0.0
  0
POINT
  5
18DF
330
166F
100
AcDbEntity
  8
DEFPOINTS
 62
     0
440
 16777216
100
AcDbPoint
 10
-873.5554421851411
 20
3940.703096521186
 30
0.0
  0
POINT
  5
18E0
330
166F
100
AcDbEntity
  8
DEFPOINTS
 62
     0
440
 16777216
100
AcDbPoint
 10
-873.5554421851411
 20
4221.060453364474
 30
0.0
  0
ENDBLK
  5
1671
330
166F
100
AcDbEntity
  8
0
100
AcDbBlockEnd
  0
BLOCK
  5
167D
330
167C
100
AcDbEntity
  8
0
100
AcDbBlockBegin
  2
*D192
 70
     1
 10
0.0
 20
0.0
 30
0.0
  3
*D192
  1

  0
LINE
  5
18E1
330
167C
100
AcDbEntity
  8
SUNPOU
 62
     0
440
 16777216
370
    -2
100
AcDbLine
 10
-1378.555442185141
 20
3280.703096521186
 30
0.0
 11
-1898.497115625054
 21
3280.703096521186
 31
0.0
  0
LINE
  5
18E2
330
167C
100
AcDbEntity
  8
SUNPOU
 62
     0
440
 16777216
370
    -2
100
AcDbLine
 10
-1433.555442185141
 20
3940.703096521186
 30
0.0
 11
-1898.497115625054
 21
3940.703096521186
 31
0.0
  0
LINE
  5
18E3
330
167C
100
AcDbEntity
  8
SUNPOU
 62
     0
440
 16777216
370
    -2
100
AcDbLine
 10
-1888.497115625054
 20
3320.703096521186
 30
0.0
 11
-1888.497115625054
 21
3900.703096521186
 31
0.0
  0
SOLID
  5
18E4
330
167C
100
AcDbEntity
  8
SUNPOU
 62
     0
440
 16777216
100
AcDbTrace
 10
-1895.163782291721
 20
3320.703096521186
 30
0.0
 11
-1881.830448958387
 21
3320.703096521186
 31
0.0
 12
-1888.497115625054
 22
3280.703096521186
 32
0.0
 13
-1888.497115625054
 23
3280.703096521186
 33
0.0
  0
SOLID
  5
18E5
330
167C
100
AcDbEntity
  8
SUNPOU
 62
     0
440
 16777216
100
AcDbTrace
 10
-1895.163782291721
 20
3900.703096521186
 30
0.0
 11
-1881.830448958387
 21
3900.703096521186
 31
0.0
 12
-1888.497115625054
 22
3940.703096521186
 32
0.0
 13
-1888.497115625054
 23
3940.703096521186
 33
0.0
  0
MTEXT
  5
18E6
330
167C
100
AcDbEntity
  8
SUNPOU
 62
     0
440
 16777216
100
AcDbMText
 10
-1934.497115625055
 20
3610.703096521186
 30
0.0
 40
60.0
 41
0.0
 71
     5
 72
     1
  1
\A1;660
 11
6.123031769111886E-17
 21
1.0
 31
0.0
 73
     1
 44
1.0
  0
POINT
  5
18E7
330
167C
100
AcDbEntity
  8
DEFPOINTS
 62
     0
440
 16777216
100
AcDbPoint
 10
-1338.555442185141
 20
3280.703096521186
 30
0.0
  0
POINT
  5
18E8
330
167C
100
AcDbEntity
  8
DEFPOINTS
 62
     0
440
 16777216
100
AcDbPoint
 10
-1393.555442185141
 20
3940.703096521186
 30
0.0
  0
POINT
  5
18E9
330
167C
100
AcDbEntity
  8
DEFPOINTS
 62
     0
440
 16777216
100
AcDbPoint
 10
-1888.497115625054
 20
3940.703096521186
 30
0.0
  0
ENDBLK
  5
167E
330
167C
100
AcDbEntity
  8
0
100
AcDbBlockEnd
  0
BLOCK
  5
1689
330
1688
100
AcDbEntity
  8
0
100
AcDbBlockBegin
  2
*D193
 70
     1
 10
0.0
 20
0.0
 30
0.0
  3
*D193
  1

  0
LINE
  5
18EA
330
1688
100
AcDbEntity
  8
SUNPOU
 62
     0
440
 16777216
370
    -2
100
AcDbLine
 10
-898.5554421851416
 20
3380.703096521186
 30
0.0
 11
-898.5554421851416
 21
3660.706373655623
 31
0.0
  0
LINE
  5
18EB
330
1688
100
AcDbEntity
  8
SUNPOU
 62
     0
440
 16777216
370
    -2
100
AcDbLine
 10
-958.5554421851416
 20
3380.703096521186
 30
0.0
 11
-958.5554421851416
 21
3660.706373655623
 31
0.0
  0
LINE
  5
18EC
330
1688
100
AcDbEntity
  8
SUNPOU
 62
     0
440
 16777216
370
    -2
100
AcDbLine
 10
-858.5554421851416
 20
3650.706373655623
 30
0.0
 11
-818.5554421851416
 21
3650.706373655623
 31
0.0
  0
LINE
  5
18ED
330
1688
100
AcDbEntity
  8
SUNPOU
 62
     0
440
 16777216
370
    -2
100
AcDbLine
 10
-998.5554421851416
 20
3650.706373655623
 30
0.0
 11
-1038.555442185142
 21
3650.706373655623
 31
0.0
  0
SOLID
  5
18EE
330
1688
100
AcDbEntity
  8
SUNPOU
 62
     0
440
 16777216
100
AcDbTrace
 10
-858.5554421851416
 20
3657.373040322289
 30
0.0
 11
-858.5554421851416
 21
3644.039706988956
 31
0.0
 12
-898.5554421851416
 22
3650.706373655623
 32
0.0
 13
-898.5554421851416
 23
3650.706373655623
 33
0.0
  0
SOLID
  5
18EF
330
1688
100
AcDbEntity
  8
SUNPOU
 62
     0
440
 16777216
100
AcDbTrace
 10
-998.5554421851416
 20
3657.373040322289
 30
0.0
 11
-998.5554421851416
 21
3644.039706988956
 31
0.0
 12
-958.5554421851416
 22
3650.706373655623
 32
0.0
 13
-958.5554421851416
 23
3650.706373655623
 33
0.0
  0
MTEXT
  5
18F0
330
1688
100
AcDbEntity
  8
SUNPOU
 62
     0
440
 16777216
100
AcDbMText
 10
-928.5554421851416
 20
3696.706373655623
 30
0.0
 40
60.0
 41
0.0
 71
     5
 72
     1
  1
\A1;60
 73
     1
 44
1.0
  0
POINT
  5
18F1
330
1688
100
AcDbEntity
  8
DEFPOINTS
 62
     0
440
 16777216
100
AcDbPoint
 10
-898.5554421851416
 20
3340.703096521186
 30
0.0
  0
POINT
  5
18F2
330
1688
100
AcDbEntity
  8
DEFPOINTS
 62
     0
440
 16777216
100
AcDbPoint
 10
-958.5554421851416
 20
3340.703096521186
 30
0.0
  0
POINT
  5
18F3
330
1688
100
AcDbEntity
  8
DEFPOINTS
 62
     0
440
 16777216
100
AcDbPoint
 10
-958.5554421851416
 20
3650.706373655623
 30
0.0
  0
ENDBLK
  5
168A
330
1688
100
AcDbEntity
  8
0
100
AcDbBlockEnd
  0
ENDSEC
  0
SECTION
  2
ENTITIES
  0
LINE
  5
788
330
17
100
AcDbEntity
  8
SEIHIN
100
AcDbLine
 10
4029.751386313661
 20
3940.703096521186
 30
0.0
 11
6029.751386313661
 21
3940.703096521186
 31
0.0
  0
LINE
  5
789
330
17
100
AcDbEntity
  8
1HASEN
 48
0.5
100
AcDbLine
 10
2320.145634731904
 20
4011.106342061466
 30
0.0
 11
2320.145634731904
 21
3178.008229408568
 31
0.0
  0
LINE
  5
78A
330
17
100
AcDbEntity
  8
HASEN
100
AcDbLine
 10
4029.751386313661
 20
3340.703096521186
 30
0.0
 11
6029.751386313661
 21
3340.703096521186
 31
0.0
  0
LINE
  5
78B
330
17
100
AcDbEntity
  8
SUNPOU
100
AcDbLine
 10
4029.751386313662
 20
3280.703096521186
 30
0.0
 11
6029.751386313662
 21
3280.703096521186
 31
0.0
  0
SOLID
  5
78C
330
17
100
AcDbEntity
  8
SUNPOU
100
AcDbTrace
 10
2089.40527499643
 20
3383.959694618649
 30
0.0
 11
2077.018435606718
 21
3388.893657296991
 31
0.0
 12
2068.409967266551
 22
3349.266157788685
 32
0.0
 13
2068.409967266551
 23
3349.266157788685
 33
0.0
  0
LINE
  5
78D
330
17
100
AcDbEntity
  8
SUNPOU
100
AcDbLine
 10
2083.211855301574
 20
3386.42667595782
 30
0.0
 11
2099.715875861632
 21
3427.86044132847
 31
0.0
  0
LINE
  5
78E
330
17
100
AcDbEntity
  8
SUNPOU
100
AcDbLine
 10
2099.715875861632
 20
3427.86044132847
 30
0.0
 11
2338.694814408595
 21
3427.86044132847
 31
0.0
  0
LINE
  5
790
330
17
100
AcDbEntity
  8
1HASEN
100
AcDbLine
 10
1957.749801398571
 20
3540.703096521187
 30
0.0
 11
2067.74980139857
 21
3540.703096521186
 31
0.0
  0
DIMENSION
  5
791
330
17
100
AcDbEntity
  8
SUNPOU
100
AcDbDimension
  2
*D51
 10
1752.922096862729
 20
3540.703096521186
 30
0.0
 11
1706.922096862729
 21
3440.703096521187
 31
0.0
 70
    32
 71
     5
 42
200.0
  3
A3-20
100
AcDbAlignedDimension
 13
1985.145634731904
 23
3340.703096521186
 33
0.0
 14
1954.833134731904
 24
3540.703096521186
 34
0.0
 50
90.0
100
AcDbRotatedDimension
  0
LWPOLYLINE
  5
792
330
17
100
AcDbEntity
  8
HASEN
 48
0.5
100
AcDbPolyline
 90
        4
 70
     1
 43
0.0
 10
1981.395634731904
 20
3565.703096521187
 10
2036.265426398571
 20
3553.203096521186
 10
2037.359176398571
 20
3528.203096521186
 10
1982.228968065243
 20
3515.703096521187
  0
LINE
  5
79B
330
17
100
AcDbEntity
  8
SEIHIN
100
AcDbLine
 10
4029.751386313662
 20
3280.703096521186
 30
0.0
 11
4029.751386313662
 21
3940.703096521186
 31
0.0
  0
LINE
  5
79C
330
17
100
AcDbEntity
  8
1HASEN
 48
0.5
100
AcDbLine
 10
5029.751386313662
 20
3221.942455488565
 30
0.0
 11
5029.751386313662
 21
3989.970748501784
 31
0.0
  0
LINE
  5
79D
330
17
100
AcDbEntity
  8
SEIHIN
100
AcDbLine
 10
6029.751386313662
 20
3280.703096521185
 30
0.0
 11
6029.751386313662
 21
3940.703096521186
 31
0.0
  0
LINE
  5
79E
330
17
100
AcDbEntity
  8
SEIHIN
100
AcDbLine
 10
4029.751386313661
 20
3885.703096521186
 30
0.0
 11
6029.751386313663
 21
3885.703096521186
 31
0.0
  0
LINE
  5
79F
330
17
100
AcDbEntity
  8
SEIHIN
100
AcDbLine
 10
4029.751386313661
 20
3868.908224726315
 30
0.0
 11
6029.751386313663
 21
3868.908224726315
 31
0.0
  0
LINE
  5
7A0
330
17
100
AcDbEntity
  8
SEIHIN
100
AcDbLine
 10
4029.751386313662
 20
3314.80566062375
 30
0.0
 11
6029.751386313661
 21
3314.805660623749
 31
0.0
  0
LINE
  5
7A1
330
17
100
AcDbEntity
  8
1HASEN
 48
0.3
100
AcDbLine
 10
4224.751386313662
 20
3540.703096521186
 30
0.0
 11
4334.751386313662
 21
3540.703096521186
 31
0.0
  0
DIMENSION
  5
7A2
330
17
100
AcDbEntity
  8
SUNPOU
100
AcDbDimension
  2
*D54
 10
6029.751386313662
 20
4308.6307238933
 30
0.0
 11
5029.751386313662
 21
4354.6307238933
 31
0.0
 70
    32
 71
     5
 42
2000.0
  3
A3-20
100
AcDbAlignedDimension
 13
4029.751386313662
 23
3940.703096521186
 33
0.0
 14
6029.751386313662
 24
3940.703096521186
 34
0.0
100
AcDbRotatedDimension
  0
CIRCLE
  5
7A6
330
17
100
AcDbEntity
  8
SUNPOU
100
AcDbCircle
 10
5779.751386313662
 20
3540.703096521186
 30
0.0
 40
25.0
  0
CIRCLE
  5
7A7
330
17
100
AcDbEntity
  8
SUNPOU
100
AcDbCircle
 10
5279.751386313662
 20
3540.703096521186
 30
0.0
 40
25.0
  0
DIMENSION
  5
7AE
330
17
100
AcDbEntity
  8
SUNPOU
100
AcDbDimension
  2
*D58
 10
3863.209368441245
 20
3540.703096521186
 30
0.0
 11
3817.209368441244
 21
3440.703096521187
 31
0.0
 70
    32
 71
     5
 42
200.0
  3
A3-20
100
AcDbAlignedDimension
 13
4029.751386313662
 23
3340.703096521186
 33
0.0
 14
4029.751386313662
 24
3540.703096521186
 34
0.0
 50
90.0
100
AcDbRotatedDimension
  0
DIMENSION
  5
7B8
330
17
100
AcDbEntity
  8
SUNPOU
100
AcDbDimension
  2
*D61
 10
3863.209368441245
 20
3280.703096521186
 30
0.0
 11
3823.209368441245
 21
3317.775816561877
 31
0.0
 70
   160
 71
     5
 42
60.00000000000045
  3
A3-20
100
AcDbAlignedDimension
 13
4029.751386313662
 23
3340.703096521187
 33
0.0
 14
4029.751386313662
 24
3280.703096521186
 34
0.0
 50
90.0
100
AcDbRotatedDimension
  0
LINE
  5
7BB
330
17
100
AcDbEntity
  8
SEIHIN
100
AcDbLine
 10
2663.959194053938
 20
3869.51665584322
 30
0.0
 11
2654.637160155633
 21
3310.194621944915
 31
0.0
  0
LINE
  5
7BD
330
17
100
AcDbEntity
  8
SEIHIN
100
AcDbLine
 10
1976.33207540987
 20
3869.51665584322
 30
0.0
 11
1985.654109308175
 21
3310.194621944915
 31
0.0
  0
DIMENSION
  5
7BF
330
17
100
AcDbEntity
  8
SUNPOU
100
AcDbDimension
  2
*D62
 10
2595.145634731904
 20
3650.706373655623
 30
0.0
 11
2320.145634731904
 21
3696.706373655623
 31
0.0
 70
    32
 71
     5
 42
549.9999999999995
  3
A3-20
100
AcDbAlignedDimension
 13
2045.145634731904
 23
3340.703096521186
 33
0.0
 14
2595.145634731904
 24
3340.703096521186
 34
0.0
100
AcDbRotatedDimension
  0
DIMENSION
  5
7C0
330
17
100
AcDbEntity
  8
SUNPOU
100
AcDbDimension
  2
*D63
 10
2045.145634731904
 20
3650.706373655623
 30
0.0
 11
2015.145634731904
 21
3696.706373655623
 31
0.0
 70
    32
 71
     5
 42
60.0
  3
A3-20
100
AcDbAlignedDimension
 13
1985.145634731904
 23
3340.703096521186
 33
0.0
 14
2045.145634731904
 24
3340.703096521186
 34
0.0
100
AcDbRotatedDimension
  0
DIMENSION
  5
7C1
330
17
100
AcDbEntity
  8
SUNPOU
100
AcDbDimension
  2
*D64
 10
2620.145634731904
 20
4221.060453364474
 30
0.0
 11
2320.145634731904
 21
4267.060453364474
 31
0.0
 70
    32
 71
     5
 42
599.9999999999998
  3
A3-20
100
AcDbAlignedDimension
 13
2020.145634731904
 23
3940.703096521186
 33
0.0
 14
2620.145634731904
 24
3940.703096521186
 34
0.0
100
AcDbRotatedDimension
  0
DIMENSION
  5
7C2
330
17
100
AcDbEntity
  8
SUNPOU
100
AcDbDimension
  2
*D65
 10
2680.145634731904
 20
4348.69171066633
 30
0.0
 11
2320.145634731904
 21
4394.69171066633
 31
0.0
 70
    32
 71
     5
 42
719.9999999999995
  3
A3-20
100
AcDbAlignedDimension
 13
1960.145634731904
 23
3940.703096521186
 33
0.0
 14
2680.145634731904
 24
3940.703096521186
 34
0.0
100
AcDbRotatedDimension
  0
DIMENSION
  5
7C5
330
17
100
AcDbEntity
  8
SUNPOU
100
AcDbDimension
  2
*D68
 10
1960.145634731904
 20
4221.060453364474
 30
0.0
 11
1903.834803838032
 21
4267.929797172788
 31
0.0
 70
   160
 71
     5
 42
15.0
  3
A3-20
100
AcDbAlignedDimension
 13
1975.145634731904
 23
3940.703096521186
 33
0.0
 14
1960.145634731904
 24
3940.703096521186
 34
0.0
100
AcDbRotatedDimension
  0
DIMENSION
  5
7C6
330
17
100
AcDbEntity
  8
SUNPOU
100
AcDbDimension
  2
*D69
 10
1975.145634731904
 20
4221.060453364474
 30
0.0
 11
1997.645634731904
 21
4267.060453364474
 31
0.0
 70
    32
 71
     5
 42
45.0
  3
A3-20
100
AcDbAlignedDimension
 13
2020.145634731904
 23
3940.703096521186
 33
0.0
 14
1975.145634731904
 24
3940.703096521186
 34
0.0
100
AcDbRotatedDimension
  0
DIMENSION
  5
7C7
330
17
100
AcDbEntity
  8
SUNPOU
100
AcDbDimension
  2
*D70
 10
1575.904193883413
 20
3340.703096521186
 30
0.0
 11
1529.904193883412
 21
3640.703096521187
 31
0.0
 70
    32
 71
     5
 42
600.0
  3
A3-20
100
AcDbAlignedDimension
 13
1960.145634731904
 23
3940.703096521186
 33
0.0
 14
1985.145634731904
 24
3340.703096521186
 34
0.0
 50
90.0
100
AcDbRotatedDimension
  0
DIMENSION
  5
7C8
330
17
100
AcDbEntity
  8
SUNPOU
100
AcDbDimension
  2
*D71
 10
1575.904193883413
 20
3280.703096521186
 30
0.0
 11
1529.904193883412
 21
3310.703096521187
 31
0.0
 70
    32
 71
     5
 42
60.0
  3
A3-20
100
AcDbAlignedDimension
 13
1985.145634731904
 23
3340.703096521186
 33
0.0
 14
2015.145634731904
 24
3280.703096521186
 34
0.0
 50
90.0
100
AcDbRotatedDimension
  0
DIMENSION
  5
7C9
330
17
100
AcDbEntity
  8
SUNPOU
100
AcDbDimension
  2
*D72
 10
2625.145634731904
 20
2997.808159655824
 30
0.0
 11
2320.145634731904
 21
3043.808159655824
 31
0.0
 70
    32
 71
     5
 42
609.9999999999995
  3
A3-20
100
AcDbAlignedDimension
 13
2015.145634731904
 23
3280.703096521186
 33
0.0
 14
2625.145634731904
 24
3280.703096521186
 34
0.0
100
AcDbRotatedDimension
  0
TEXT
  5
7CA
330
17
100
AcDbEntity
  8
SUNPOU
100
AcDbText
 10
2184.371225059505
 20
3437.457623198326
 30
0.0
 40
40.0
  1
60R
100
AcDbText
  0
LWPOLYLINE
  5
7D5
330
17
100
AcDbEntity
  8
HASEN
 48
0.5
100
AcDbPolyline
 90
        4
 70
     1
 43
0.0
 10
2658.895634731904
 20
3565.703096521187
 10
2604.025843065237
 20
3553.203096521186
 10
2602.932093065237
 20
3528.203096521186
 10
2658.062301398565
 20
3515.703096521187
  0
LINE
  5
7D6
330
17
100
AcDbEntity
  8
1HASEN
100
AcDbLine
 10
2682.541468065237
 20
3540.703096521187
 30
0.0
 11
2572.541468065238
 21
3540.703096521186
 31
0.0
  0
DIMENSION
  5
7EA
330
17
100
AcDbEntity
  8
SUNPOU
100
AcDbDimension
  2
*D90
 10
1821.211792323917
 20
3940.703096521186
 30
0.0
 11
1775.211792323916
 21
3913.203096521187
 31
0.0
 70
    32
 71
     5
 42
55.0
  3
A3-20
100
AcDbAlignedDimension
 13
1960.145634731904
 23
3885.703096521186
 33
0.0
 14
1960.145634731904
 24
3940.703096521186
 34
0.0
 50
90.0
100
AcDbRotatedDimension
  0
LINE
  5
7EE
330
17
100
AcDbEntity
  8
SEIHIN
100
AcDbLine
 10
4029.751386313661
 20
3280.703096521186
 30
0.0
 11
6029.751386313661
 21
3280.703096521186
 31
0.0
  0
CIRCLE
  5
7EF
330
17
100
AcDbEntity
  8
SUNPOU
100
AcDbCircle
 10
4279.751386313662
 20
3540.703096521186
 30
0.0
 40
25.0
  0
CIRCLE
  5
7F0
330
17
100
AcDbEntity
  8
SUNPOU
100
AcDbCircle
 10
4779.751386313662
 20
3540.703096521186
 30
0.0
 40
25.0
  0
LINE
  5
7F2
330
17
100
AcDbEntity
  8
1HASEN
 48
0.3
100
AcDbLine
 10
4279.751386313662
 20
3485.703096521186
 30
0.0
 11
4279.751386313662
 21
3595.703096521186
 31
0.0
  0
DIMENSION
  5
7F3
330
17
100
AcDbEntity
  8
SUNPOU
100
AcDbDimension
  2
*D92
 10
4279.751386313662
 20
3000.266916746756
 30
0.0
 11
4154.751386313662
 21
3046.266916746756
 31
0.0
 70
    32
 71
     5
 42
250.0
  3
A3-20
100
AcDbAlignedDimension
 13
4029.751386313662
 23
3280.703096521186
 33
0.0
 14
4279.751386313662
 24
3280.703096521185
 34
0.0
100
AcDbRotatedDimension
  0
DIMENSION
  5
7F4
330
17
100
AcDbEntity
  8
SUNPOU
100
AcDbDimension
  2
*D93
 10
4779.751386313662
 20
3000.266916746756
 30
0.0
 11
4529.751386313662
 21
3046.266916746756
 31
0.0
 70
    32
 71
     5
 42
500.0
  3
A3-20
100
AcDbAlignedDimension
 13
4279.751386313662
 23
3280.703096521185
 33
0.0
 14
4779.751386313662
 24
3280.703096521185
 34
0.0
100
AcDbRotatedDimension
  0
DIMENSION
  5
7F5
330
17
100
AcDbEntity
  8
SUNPOU
100
AcDbDimension
  2
*D94
 10
5279.751386313662
 20
3000.266916746756
 30
0.0
 11
5029.751386313662
 21
3046.266916746756
 31
0.0
 70
    32
 71
     5
 42
500.0
  3
A3-20
100
AcDbAlignedDimension
 13
4779.751386313662
 23
3280.703096521185
 33
0.0
 14
5279.751386313662
 24
3280.703096521185
 34
0.0
100
AcDbRotatedDimension
  0
DIMENSION
  5
7F6
330
17
100
AcDbEntity
  8
SUNPOU
100
AcDbDimension
  2
*D95
 10
5779.751386313662
 20
3000.266916746756
 30
0.0
 11
5529.751386313662
 21
3046.266916746756
 31
0.0
 70
    32
 71
     5
 42
500.0
  3
A3-20
100
AcDbAlignedDimension
 13
5279.751386313662
 23
3280.703096521185
 33
0.0
 14
5779.751386313662
 24
3280.703096521185
 34
0.0
100
AcDbRotatedDimension
  0
DIMENSION
  5
7F7
330
17
100
AcDbEntity
  8
SUNPOU
100
AcDbDimension
  2
*D96
 10
6029.751386313662
 20
3000.266916746756
 30
0.0
 11
5904.751386313662
 21
3046.266916746756
 31
0.0
 70
    32
 71
     5
 42
250.0
  3
A3-20
100
AcDbAlignedDimension
 13
5779.751386313662
 23
3280.703096521185
 33
0.0
 14
6029.751386313662
 24
3280.703096521185
 34
0.0
100
AcDbRotatedDimension
  0
LINE
  5
D91
330
17
100
AcDbEntity
  8
SEIHIN
100
AcDbLine
 10
2320.145634731904
 20
3340.703096521186
 30
0.0
 11
2537.593573984582
 21
3340.703096521187
 31
0.0
  0
ARC
  5
D92
330
17
100
AcDbEntity
  8
SEIHIN
100
AcDbCircle
 10
2537.593573984581
 20
3400.703096521187
 30
0.0
 40
60.0
100
AcDbArc
 50
270.0000000000004
 51
357.6140559696114
  0
LINE
  5
D93
330
17
100
AcDbEntity
  8
SEIHIN
100
AcDbLine
 10
2597.541558370123
 20
3398.205263838456
 30
0.0
 11
2620.145634731904
 21
3940.703096521186
 31
0.0
  0
LINE
  5
D94
330
17
100
AcDbEntity
  8
SEIHIN
100
AcDbLine
 10
2620.145634731904
 20
3940.703096521186
 30
0.0
 11
2680.145634731904
 21
3940.703096521186
 31
0.0
  0
LINE
  5
D95
330
17
100
AcDbEntity
  8
SEIHIN
100
AcDbLine
 10
2680.145634731904
 20
3940.703096521186
 30
0.0
 11
2680.145634731904
 21
3885.703096521186
 31
0.0
  0
LINE
  5
D96
330
17
100
AcDbEntity
  8
SEIHIN
100
AcDbLine
 10
2680.145634731904
 20
3885.703096521186
 30
0.0
 11
2663.959194053938
 21
3869.51665584322
 31
0.0
  0
LINE
  5
D98
330
17
100
AcDbEntity
  8
SEIHIN
100
AcDbLine
 10
2320.145634731904
 20
3280.703096521186
 30
0.0
 11
2625.145634731904
 21
3280.703096521186
 31
0.0
  0
LINE
  5
D99
330
17
100
AcDbEntity
  8
SEIHIN
100
AcDbLine
 10
2625.145634731904
 20
3280.703096521186
 30
0.0
 11
2654.637160155633
 21
3310.194621944915
 31
0.0
  0
LINE
  5
D9A
330
17
100
AcDbEntity
  8
SEIHIN
100
AcDbLine
 10
2320.145634731904
 20
3280.703096521186
 30
0.0
 11
2015.145634731904
 21
3280.703096521186
 31
0.0
  0
LINE
  5
D9B
330
17
100
AcDbEntity
  8
SEIHIN
100
AcDbLine
 10
2015.145634731904
 20
3280.703096521186
 30
0.0
 11
1985.654109308175
 21
3310.194621944915
 31
0.0
  0
LINE
  5
D9C
330
17
100
AcDbEntity
  8
SEIHIN
100
AcDbLine
 10
2320.145634731904
 20
3340.703096521186
 30
0.0
 11
2102.697695479225
 21
3340.703096521187
 31
0.0
  0
ARC
  5
D9D
330
17
100
AcDbEntity
  8
SEIHIN
100
AcDbCircle
 10
2102.697695479226
 20
3400.703096521186
 30
0.0
 40
59.99999999999955
100
AcDbArc
 50
182.3859440303886
 51
269.9999999999995
  0
LINE
  5
D9E
330
17
100
AcDbEntity
  8
SEIHIN
100
AcDbLine
 10
2042.749711093684
 20
3398.205263838456
 30
0.0
 11
2020.145634731904
 21
3940.703096521186
 31
0.0
  0
LINE
  5
D9F
330
17
100
AcDbEntity
  8
SEIHIN
100
AcDbLine
 10
2020.145634731904
 20
3940.703096521186
 30
0.0
 11
1960.145634731904
 21
3940.703096521186
 31
0.0
  0
LINE
  5
DA0
330
17
100
AcDbEntity
  8
SEIHIN
100
AcDbLine
 10
1960.145634731904
 20
3940.703096521186
 30
0.0
 11
1960.145634731904
 21
3885.703096521186
 31
0.0
  0
LINE
  5
DA1
330
17
100
AcDbEntity
  8
SEIHIN
100
AcDbLine
 10
1960.145634731904
 20
3885.703096521186
 30
0.0
 11
1976.33207540987
 21
3869.51665584322
 31
0.0
  0
DIMENSION
  5
DC0
330
17
100
AcDbEntity
  8
SUNPOU
100
AcDbDimension
  2
*D101
 10
2680.145634731904
 20
4221.060453364474
 30
0.0
 11
2650.145634731904
 21
4267.060453364474
 31
0.0
 70
    32
 71
     5
 42
60.00000000000045
  3
A3-20
100
AcDbAlignedDimension
 13
2620.145634731903
 23
3940.703096521186
 33
0.0
 14
2680.145634731904
 24
3940.703096521186
 34
0.0
 50
180.0
100
AcDbRotatedDimension
  0
DIMENSION
  5
E02
330
17
100
AcDbEntity
  8
SUNPOU
100
AcDbDimension
  2
*D102
 10
1465.203961291991
 20
3940.703096521186
 30
0.0
 11
1419.20396129199
 21
3610.703096521187
 31
0.0
 70
    32
 71
     5
 42
660.0
  3
A3-20
100
AcDbAlignedDimension
 13
2015.145634731904
 23
3280.703096521186
 33
0.0
 14
1960.145634731904
 24
3940.703096521186
 34
0.0
 50
90.0
100
AcDbRotatedDimension
  0
DIMENSION
  5
E1F
330
17
100
AcDbEntity
  8
SUNPOU
100
AcDbDimension
  2
*D103
 10
2595.145634731903
 20
3650.706373655623
 30
0.0
 11
2625.145634731903
 21
3696.706373655623
 31
0.0
 70
    32
 71
     5
 42
60.0
  3
A3-20
100
AcDbAlignedDimension
 13
2655.145634731903
 23
3340.703096521186
 33
0.0
 14
2595.145634731903
 24
3340.703096521186
 34
0.0
 50
180.0
100
AcDbRotatedDimension
  0
LINE
  5
E64
330
17
100
AcDbEntity
  8
1HASEN
 48
0.3
100
AcDbLine
 10
4724.751386313662
 20
3540.703096521186
 30
0.0
 11
4834.751386313662
 21
3540.703096521186
 31
0.0
  0
LINE
  5
E65
330
17
100
AcDbEntity
  8
1HASEN
 48
0.3
100
AcDbLine
 10
4779.751386313662
 20
3485.703096521186
 30
0.0
 11
4779.751386313662
 21
3595.703096521186
 31
0.0
  0
LINE
  5
E66
330
17
100
AcDbEntity
  8
1HASEN
 48
0.3
100
AcDbLine
 10
5224.751386313662
 20
3540.703096521186
 30
0.0
 11
5334.751386313662
 21
3540.703096521186
 31
0.0
  0
LINE
  5
E67
330
17
100
AcDbEntity
  8
1HASEN
 48
0.3
100
AcDbLine
 10
5279.751386313662
 20
3485.703096521186
 30
0.0
 11
5279.751386313662
 21
3595.703096521186
 31
0.0
  0
LINE
  5
E68
330
17
100
AcDbEntity
  8
1HASEN
 48
0.3
100
AcDbLine
 10
5724.751386313662
 20
3540.703096521186
 30
0.0
 11
5834.751386313662
 21
3540.703096521186
 31
0.0
  0
LINE
  5
E69
330
17
100
AcDbEntity
  8
1HASEN
 48
0.3
100
AcDbLine
 10
5779.751386313662
 20
3485.703096521186
 30
0.0
 11
5779.751386313662
 21
3595.703096521186
 31
0.0
  0
TEXT
  5
E6A
330
17
100
AcDbEntity
  8
SUNPOU
100
AcDbText
 10
2803.870943737649
 20
3419.30624356033
 30
0.0
 40
60.0
  1
排水孔
 41
0.8
100
AcDbText
  0
LINE
  5
E71
330
17
100
AcDbEntity
  8
SUNPOU
100
AcDbLine
 10
2778.698193427637
 20
3405.337665122121
 30
0.0
 11
2987.638414427245
 21
3405.337665122121
 31
0.0
  0
LEADER
  5
E73
330
17
100
AcDbEntity
  8
SUNPOU
100
AcDbLeader
  3
A3-20
 76
     2
 10
2658.478968065237
 20
3540.703096521187
 30
0.0
 10
2778.698193427637
 20
3405.337665122121
 30
0.0
1001
ACAD
1000
DSTYLE
1002
{
1070
   147
1040
0.8
1070
    77
1070
     0
1002
}
  0
TEXT
  5
E74
330
17
100
AcDbEntity
  8
SUNPOU
100
AcDbText
 10
3805.084389338601
 20
3686.710898062016
 30
0.0
 40
60.0
  1
排水孔
 41
0.8
100
AcDbText
  0
LINE
  5
E75
330
17
100
AcDbEntity
  8
SUNPOU
100
AcDbLine
 10
3779.911639028589
 20
3672.742319623807
 30
0.0
 11
3988.851860028197
 21
3672.742319623807
 31
0.0
  0
LEADER
  5
E76
330
17
100
AcDbEntity
  8
SUNPOU
100
AcDbLeader
  3
A3-20
 76
     2
 10
4279.751386313662
 20
3540.703096521186
 30
0.0
 10
3988.851860028197
 20
3672.742319623807
 30
0.0
1001
ACAD
1000
DSTYLE
1002
{
1070
   147
1040
0.8
1070
    77
1070
     0
1002
}
  0
TEXT
  5
E79
330
17
100
AcDbEntity
  8
0
100
AcDbText
 10
2079.377593150686
 20
4637.126069479793
 30
0.0
 40
90.0
  1
600×600
 41
0.8
100
AcDbText
  0
LINE
  5
1122
330
17
100
AcDbEntity
  8
1HASEN
 48
0.5
100
AcDbLine
 10
524.7630855724819
 20
4011.106342061466
 30
0.0
 11
524.7630855724819
 21
3178.008229408568
 31
0.0
  0
SOLID
  5
1125
330
17
100
AcDbEntity
  8
SUNPOU
100
AcDbTrace
 10
344.0227258370082
 20
3383.959694618649
 30
0.0
 11
331.6358864472968
 21
3388.893657296991
 31
0.0
 12
323.0274181071291
 22
3349.266157788685
 32
0.0
 13
323.0274181071291
 23
3349.266157788685
 33
0.0
  0
LINE
  5
1126
330
17
100
AcDbEntity
  8
SUNPOU
100
AcDbLine
 10
337.8293061421523
 20
3386.42667595782
 30
0.0
 11
354.3333267022099
 21
3427.86044132847
 31
0.0
  0
LINE
  5
1127
330
17
100
AcDbEntity
  8
SUNPOU
100
AcDbLine
 10
354.3333267022099
 20
3427.86044132847
 30
0.0
 11
593.3122652491729
 21
3427.86044132847
 31
0.0
  0
LINE
  5
1128
330
17
100
AcDbEntity
  8
1HASEN
100
AcDbLine
 10
212.3672522391494
 20
3540.703096521187
 30
0.0
 11
322.367252239148
 21
3540.703096521186
 31
0.0
  0
DIMENSION
  5
1129
330
17
100
AcDbEntity
  8
SUNPOU
100
AcDbDimension
  2
*D136
 10
7.539547703307562
 20
3540.703096521186
 30
0.0
 11
-38.46045229669301
 21
3440.703096521186
 31
0.0
 70
    32
 71
     5
 42
200.0
  3
A3-20
100
AcDbAlignedDimension
 13
239.7630855724824
 23
3340.703096521186
 33
0.0
 14
209.4505855724819
 24
3540.703096521186
 34
0.0
 50
90.0
100
AcDbRotatedDimension
  0
LWPOLYLINE
  5
112A
330
17
100
AcDbEntity
  8
HASEN
 48
0.5
100
AcDbPolyline
 90
        4
 70
     1
 43
0.0
 10
236.0130855724822
 20
3565.703096521187
 10
290.8828772391489
 20
3553.203096521186
 10
291.9766272391489
 20
3528.203096521186
 10
236.8464189058211
 20
3515.703096521187
  0
LINE
  5
1137
330
17
100
AcDbEntity
  8
SEIHIN
100
AcDbLine
 10
574.7630855724819
 20
3340.703096521186
 30
0.0
 11
692.2110248251597
 21
3340.703096521187
 31
0.0
  0
ARC
  5
1138
330
17
100
AcDbEntity
  8
SEIHIN
100
AcDbCircle
 10
692.2110248251597
 20
3400.703096521187
 30
0.0
 40
60.0
100
AcDbArc
 50
270.0
 51
357.6140559695947
  0
LINE
  5
1139
330
17
100
AcDbEntity
  8
SEIHIN
100
AcDbLine
 10
752.1590092107012
 20
3398.205263838456
 30
0.0
 11
774.7630855724819
 21
3940.703096521186
 31
0.0
  0
LINE
  5
113A
330
17
100
AcDbEntity
  8
SEIHIN
100
AcDbLine
 10
774.7630855724819
 20
3940.703096521186
 30
0.0
 11
834.7630855724819
 21
3940.703096521186
 31
0.0
  0
LINE
  5
113B
330
17
100
AcDbEntity
  8
SEIHIN
100
AcDbLine
 10
834.7630855724819
 20
3940.703096521186
 30
0.0
 11
834.7630855724819
 21
3885.703096521186
 31
0.0
  0
LINE
  5
113C
330
17
100
AcDbEntity
  8
SEIHIN
100
AcDbLine
 10
834.7630855724819
 20
3885.703096521186
 30
0.0
 11
818.576644894516
 21
3869.51665584322
 31
0.0
  0
LINE
  5
113D
330
17
100
AcDbEntity
  8
SEIHIN
100
AcDbLine
 10
574.7630855724819
 20
3280.703096521186
 30
0.0
 11
779.7630855724819
 21
3280.703096521186
 31
0.0
  0
LINE
  5
113E
330
17
100
AcDbEntity
  8
SEIHIN
100
AcDbLine
 10
779.7630855724819
 20
3280.703096521186
 30
0.0
 11
809.2546109962109
 21
3310.194621944915
 31
0.0
  0
LINE
  5
113F
330
17
100
AcDbEntity
  8
SEIHIN
100
AcDbLine
 10
818.576644894516
 20
3869.51665584322
 30
0.0
 11
809.2546109962109
 21
3310.194621944915
 31
0.0
  0
LINE
  5
1140
330
17
100
AcDbEntity
  8
SEIHIN
100
AcDbLine
 10
574.7630855724819
 20
3340.703096521186
 30
0.0
 11
357.3151463198037
 21
3340.703096521187
 31
0.0
  0
ARC
  5
1141
330
17
100
AcDbEntity
  8
SEIHIN
100
AcDbCircle
 10
357.3151463198042
 20
3400.703096521186
 30
0.0
 40
59.99999999999955
100
AcDbArc
 50
182.3859440304049
 51
270.0
  0
LINE
  5
1142
330
17
100
AcDbEntity
  8
SEIHIN
100
AcDbLine
 10
297.3671619342631
 20
3398.205263838456
 30
0.0
 11
274.7630855724824
 21
3940.703096521186
 31
0.0
  0
LINE
  5
1143
330
17
100
AcDbEntity
  8
SEIHIN
100
AcDbLine
 10
274.7630855724824
 20
3940.703096521186
 30
0.0
 11
214.7630855724824
 21
3940.703096521186
 31
0.0
  0
LINE
  5
1144
330
17
100
AcDbEntity
  8
SEIHIN
100
AcDbLine
 10
214.7630855724824
 20
3940.703096521186
 30
0.0
 11
214.7630855724824
 21
3885.703096521186
 31
0.0
  0
LINE
  5
1145
330
17
100
AcDbEntity
  8
SEIHIN
100
AcDbLine
 10
214.7630855724824
 20
3885.703096521186
 30
0.0
 11
230.9495262504483
 21
3869.51665584322
 31
0.0
  0
LINE
  5
1146
330
17
100
AcDbEntity
  8
SEIHIN
100
AcDbLine
 10
230.9495262504483
 20
3869.51665584322
 30
0.0
 11
240.2715601487535
 21
3310.194621944915
 31
0.0
  0
LINE
  5
1147
330
17
100
AcDbEntity
  8
SEIHIN
100
AcDbLine
 10
574.7630855724819
 20
3280.703096521186
 30
0.0
 11
269.7630855724824
 21
3280.703096521186
 31
0.0
  0
LINE
  5
1148
330
17
100
AcDbEntity
  8
SEIHIN
100
AcDbLine
 10
269.7630855724824
 20
3280.703096521186
 30
0.0
 11
240.2715601487535
 21
3310.194621944915
 31
0.0
  0
DIMENSION
  5
1149
330
17
100
AcDbEntity
  8
SUNPOU
100
AcDbDimension
  2
*D140
 10
749.7630855724815
 20
3650.706373655623
 30
0.0
 11
524.7630855724819
 21
3696.706373655623
 31
0.0
 70
    32
 71
     5
 42
449.9999999999991
  3
A3-20
100
AcDbAlignedDimension
 13
299.7630855724824
 23
3340.703096521186
 33
0.0
 14
749.7630855724815
 24
3340.703096521186
 34
0.0
100
AcDbRotatedDimension
  0
DIMENSION
  5
114A
330
17
100
AcDbEntity
  8
SUNPOU
100
AcDbDimension
  2
*D141
 10
299.7630855724824
 20
3650.706373655623
 30
0.0
 11
269.7630855724824
 21
3696.706373655623
 31
0.0
 70
    32
 71
     5
 42
60.0
  3
A3-20
100
AcDbAlignedDimension
 13
239.7630855724824
 23
3340.703096521186
 33
0.0
 14
299.7630855724824
 24
3340.703096521186
 34
0.0
100
AcDbRotatedDimension
  0
DIMENSION
  5
114B
330
17
100
AcDbEntity
  8
SUNPOU
100
AcDbDimension
  2
*D142
 10
774.7630855724819
 20
4221.060453364474
 30
0.0
 11
524.7630855724819
 21
4267.060453364474
 31
0.0
 70
    32
 71
     5
 42
500.0
  3
A3-20
100
AcDbAlignedDimension
 13
274.7630855724819
 23
3940.703096521186
 33
0.0
 14
774.7630855724819
 24
3940.703096521186
 34
0.0
100
AcDbRotatedDimension
  0
DIMENSION
  5
114C
330
17
100
AcDbEntity
  8
SUNPOU
100
AcDbDimension
  2
*D143
 10
834.7630855724819
 20
4348.69171066633
 30
0.0
 11
524.7630855724822
 21
4394.69171066633
 31
0.0
 70
    32
 71
     5
 42
619.9999999999995
  3
A3-20
100
AcDbAlignedDimension
 13
214.7630855724824
 23
3940.703096521186
 33
0.0
 14
834.7630855724819
 24
3940.703096521186
 34
0.0
100
AcDbRotatedDimension
  0
DIMENSION
  5
114D
330
17
100
AcDbEntity
  8
SUNPOU
100
AcDbDimension
  2
*D144
 10
214.7630855724824
 20
4221.060453364474
 30
0.0
 11
158.4522546786102
 21
4267.929797172788
 31
0.0
 70
   160
 71
     5
 42
15.0
  3
A3-20
100
AcDbAlignedDimension
 13
229.7630855724824
 23
3940.703096521186
 33
0.0
 14
214.7630855724824
 24
3940.703096521186
 34
0.0
100
AcDbRotatedDimension
  0
DIMENSION
  5
114E
330
17
100
AcDbEntity
  8
SUNPOU
100
AcDbDimension
  2
*D145
 10
229.7630855724824
 20
4221.060453364474
 30
0.0
 11
252.2630855724824
 21
4267.060453364474
 31
0.0
 70
    32
 71
     5
 42
45.0
  3
A3-20
100
AcDbAlignedDimension
 13
274.7630855724824
 23
3940.703096521186
 33
0.0
 14
229.7630855724824
 24
3940.703096521186
 34
0.0
100
AcDbRotatedDimension
  0
DIMENSION
  5
114F
330
17
100
AcDbEntity
  8
SUNPOU
100
AcDbDimension
  2
*D146
 10
-169.4783552760091
 20
3340.703096521186
 30
0.0
 11
-215.4783552760096
 21
3640.703096521186
 31
0.0
 70
    32
 71
     5
 42
600.0
  3
A3-20
100
AcDbAlignedDimension
 13
214.7630855724824
 23
3940.703096521186
 33
0.0
 14
239.7630855724824
 24
3340.703096521186
 34
0.0
 50
90.0
100
AcDbRotatedDimension
  0
DIMENSION
  5
1150
330
17
100
AcDbEntity
  8
SUNPOU
100
AcDbDimension
  2
*D147
 10
-169.4783552760091
 20
3280.703096521186
 30
0.0
 11
-215.4783552760096
 21
3310.703096521186
 31
0.0
 70
    32
 71
     5
 42
60.0
  3
A3-20
100
AcDbAlignedDimension
 13
239.7630855724824
 23
3340.703096521186
 33
0.0
 14
269.7630855724824
 24
3280.703096521186
 34
0.0
 50
90.0
100
AcDbRotatedDimension
  0
DIMENSION
  5
1151
330
17
100
AcDbEntity
  8
SUNPOU
100
AcDbDimension
  2
*D148
 10
779.7630855724819
 20
2997.808159655824
 30
0.0
 11
524.7630855724822
 21
3043.808159655824
 31
0.0
 70
    32
 71
     5
 42
509.9999999999995
  3
A3-20
100
AcDbAlignedDimension
 13
269.7630855724824
 23
3280.703096521186
 33
0.0
 14
779.7630855724819
 24
3280.703096521186
 34
0.0
100
AcDbRotatedDimension
  0
TEXT
  5
1152
330
17
100
AcDbEntity
  8
SUNPOU
100
AcDbText
 10
438.9886759000838
 20
3437.457623198326
 30
0.0
 40
40.0
  1
60R
100
AcDbText
  0
LWPOLYLINE
  5
1153
330
17
100
AcDbEntity
  8
HASEN
 48
0.5
100
AcDbPolyline
 90
        4
 70
     1
 43
0.0
 10
813.5130855724819
 20
3565.703096521187
 10
758.643293905815
 20
3553.203096521186
 10
757.549543905815
 20
3528.203096521186
 10
812.6797522391435
 20
3515.703096521187
  0
LINE
  5
1154
330
17
100
AcDbEntity
  8
1HASEN
100
AcDbLine
 10
837.158918905815
 20
3540.703096521187
 30
0.0
 11
727.1589189058163
 21
3540.703096521186
 31
0.0
  0
DIMENSION
  5
1155
330
17
100
AcDbEntity
  8
SUNPOU
100
AcDbDimension
  2
*D127
 10
75.82924316449498
 20
3940.703096521186
 30
0.0
 11
29.82924316449434
 21
3913.203096521186
 31
0.0
 70
    32
 71
     5
 42
55.0
  3
A3-20
100
AcDbAlignedDimension
 13
214.7630855724824
 23
3885.703096521186
 33
0.0
 14
214.7630855724824
 24
3940.703096521186
 34
0.0
 50
90.0
100
AcDbRotatedDimension
  0
DIMENSION
  5
115F
330
17
100
AcDbEntity
  8
SUNPOU
100
AcDbDimension
  2
*D133
 10
834.7630855724819
 20
4221.060453364474
 30
0.0
 11
804.7630855724817
 21
4267.060453364474
 31
0.0
 70
    32
 71
     5
 42
60.00000000000045
  3
A3-20
100
AcDbAlignedDimension
 13
774.7630855724815
 23
3940.703096521186
 33
0.0
 14
834.7630855724819
 24
3940.703096521186
 34
0.0
 50
180.0
100
AcDbRotatedDimension
  0
DIMENSION
  5
1160
330
17
100
AcDbEntity
  8
SUNPOU
100
AcDbDimension
  2
*D134
 10
-280.1785878674307
 20
3940.703096521186
 30
0.0
 11
-326.1785878674313
 21
3610.703096521186
 31
0.0
 70
    32
 71
     5
 42
660.0
  3
A3-20
100
AcDbAlignedDimension
 13
269.7630855724824
 23
3280.703096521186
 33
0.0
 14
214.7630855724824
 24
3940.703096521186
 34
0.0
 50
90.0
100
AcDbRotatedDimension
  0
DIMENSION
  5
1161
330
17
100
AcDbEntity
  8
SUNPOU
100
AcDbDimension
  2
*D135
 10
749.7630855724815
 20
3650.706373655623
 30
0.0
 11
779.7630855724815
 21
3696.706373655623
 31
0.0
 70
    32
 71
     5
 42
60.0
  3
A3-20
100
AcDbAlignedDimension
 13
809.7630855724815
 23
3340.703096521186
 33
0.0
 14
749.7630855724815
 24
3340.703096521186
 34
0.0
 50
180.0
100
AcDbRotatedDimension
  0
TEXT
  5
1168
330
17
100
AcDbEntity
  8
SUNPOU
100
AcDbText
 10
958.4883945782276
 20
3419.30624356033
 30
0.0
 40
60.0
  1
排水孔
 41
0.8
100
AcDbText
  0
LINE
  5
1169
330
17
100
AcDbEntity
  8
SUNPOU
100
AcDbLine
 10
933.3156442682157
 20
3405.337665122121
 30
0.0
 11
1142.255865267824
 21
3405.337665122121
 31
0.0
  0
LEADER
  5
116A
330
17
100
AcDbEntity
  8
SUNPOU
100
AcDbLeader
  3
A3-20
 76
     2
 10
813.0964189058154
 20
3540.703096521187
 30
0.0
 10
933.3156442682157
 20
3405.337665122121
 30
0.0
1001
ACAD
1000
DSTYLE
1002
{
1070
   147
1040
0.8
1070
    77
1070
     0
1002
}
  0
TEXT
  5
116F
330
17
100
AcDbEntity
  8
0
100
AcDbText
 10
327.0441314415802
 20
4626.431078681671
 30
0.0
 40
90.0
  1
600×500
 41
0.8
100
AcDbText
  0
LINE
  5
1538
330
17
100
AcDbEntity
  8
1HASEN
 48
0.5
100
AcDbLine
 10
-1133.555442185141
 20
4011.106342061466
 30
0.0
 11
-1133.555442185141
 21
3178.008229408568
 31
0.0
  0
SOLID
  5
153B
330
17
100
AcDbEntity
  8
SUNPOU
100
AcDbTrace
 10
-1264.295801920615
 20
3383.959694618649
 30
0.0
 11
-1276.682641310326
 21
3388.893657296991
 31
0.0
 12
-1285.291109650494
 22
3349.266157788685
 32
0.0
 13
-1285.291109650494
 23
3349.266157788685
 33
0.0
  0
LINE
  5
153C
330
17
100
AcDbEntity
  8
SUNPOU
100
AcDbLine
 10
-1270.489221615471
 20
3386.42667595782
 30
0.0
 11
-1253.985201055413
 21
3427.86044132847
 31
0.0
  0
LINE
  5
153D
330
17
100
AcDbEntity
  8
SUNPOU
100
AcDbLine
 10
-1253.985201055413
 20
3427.86044132847
 30
0.0
 11
-1015.00626250845
 21
3427.86044132847
 31
0.0
  0
LINE
  5
153E
330
17
100
AcDbEntity
  8
1HASEN
100
AcDbLine
 10
-1395.951275518474
 20
3540.703096521187
 30
0.0
 11
-1285.951275518475
 21
3540.703096521186
 31
0.0
  0
DIMENSION
  5
153F
330
17
100
AcDbEntity
  8
SUNPOU
100
AcDbDimension
  2
*D172
 10
-1600.778980054316
 20
3540.703096521186
 30
0.0
 11
-1646.778980054316
 21
3440.703096521186
 31
0.0
 70
    32
 71
     5
 42
200.0
  3
A3-20
100
AcDbAlignedDimension
 13
-1368.555442185141
 23
3340.703096521186
 33
0.0
 14
-1398.867942185141
 24
3540.703096521186
 34
0.0
 50
90.0
100
AcDbRotatedDimension
  0
LWPOLYLINE
  5
1540
330
17
100
AcDbEntity
  8
HASEN
 48
0.5
100
AcDbPolyline
 90
        4
 70
     1
 43
0.0
 10
-1372.305442185141
 20
3565.703096521187
 10
-1317.435650518474
 20
3553.203096521186
 10
-1316.341900518474
 20
3528.203096521186
 10
-1371.472108851802
 20
3515.703096521187
  0
LINE
  5
154D
330
17
100
AcDbEntity
  8
SEIHIN
100
AcDbLine
 10
-1133.555442185141
 20
3340.703096521186
 30
0.0
 11
-1016.107502932463
 21
3340.703096521186
 31
0.0
  0
ARC
  5
154E
330
17
100
AcDbEntity
  8
SEIHIN
100
AcDbCircle
 10
-1016.107502932463
 20
3400.703096521187
 30
0.0
 40
60.0
100
AcDbArc
 50
270.0
 51
357.6140559695951
  0
LINE
  5
154F
330
17
100
AcDbEntity
  8
SEIHIN
100
AcDbLine
 10
-956.1595185469218
 20
3398.205263838456
 30
0.0
 11
-933.5554421851411
 21
3940.703096521186
 31
0.0
  0
LINE
  5
1550
330
17
100
AcDbEntity
  8
SEIHIN
100
AcDbLine
 10
-933.5554421851411
 20
3940.703096521186
 30
0.0
 11
-873.5554421851411
 21
3940.703096521186
 31
0.0
  0
LINE
  5
1551
330
17
100
AcDbEntity
  8
SEIHIN
100
AcDbLine
 10
-873.5554421851411
 20
3940.703096521186
 30
0.0
 11
-873.5554421851411
 21
3885.703096521186
 31
0.0
  0
LINE
  5
1552
330
17
100
AcDbEntity
  8
SEIHIN
100
AcDbLine
 10
-873.5554421851411
 20
3885.703096521186
 30
0.0
 11
-889.7418828631071
 21
3869.51665584322
 31
0.0
  0
LINE
  5
1553
330
17
100
AcDbEntity
  8
SEIHIN
100
AcDbLine
 10
-1133.555442185141
 20
3280.703096521187
 30
0.0
 11
-928.5554421851411
 21
3280.703096521186
 31
0.0
  0
LINE
  5
1554
330
17
100
AcDbEntity
  8
SEIHIN
100
AcDbLine
 10
-928.5554421851411
 20
3280.703096521186
 30
0.0
 11
-899.0639167614122
 21
3310.194621944915
 31
0.0
  0
LINE
  5
1555
330
17
100
AcDbEntity
  8
SEIHIN
100
AcDbLine
 10
-889.7418828631071
 20
3869.51665584322
 30
0.0
 11
-899.0639167614122
 21
3310.194621944915
 31
0.0
  0
LINE
  5
1556
330
17
100
AcDbEntity
  8
SEIHIN
100
AcDbLine
 10
-1133.555442185141
 20
3340.703096521186
 30
0.0
 11
-1251.003381437819
 21
3340.703096521187
 31
0.0
  0
ARC
  5
1557
330
17
100
AcDbEntity
  8
SEIHIN
100
AcDbCircle
 10
-1251.003381437819
 20
3400.703096521186
 30
0.0
 40
59.99999999999955
100
AcDbArc
 50
182.3859440304049
 51
270.0
  0
LINE
  5
1558
330
17
100
AcDbEntity
  8
SEIHIN
100
AcDbLine
 10
-1310.95136582336
 20
3398.205263838456
 30
0.0
 11
-1333.555442185141
 21
3940.703096521186
 31
0.0
  0
LINE
  5
1559
330
17
100
AcDbEntity
  8
SEIHIN
100
AcDbLine
 10
-1333.555442185141
 20
3940.703096521186
 30
0.0
 11
-1393.555442185141
 21
3940.703096521186
 31
0.0
  0
LINE
  5
155A
330
17
100
AcDbEntity
  8
SEIHIN
100
AcDbLine
 10
-1393.555442185141
 20
3940.703096521186
 30
0.0
 11
-1393.555442185141
 21
3885.703096521186
 31
0.0
  0
LINE
  5
155B
330
17
100
AcDbEntity
  8
SEIHIN
100
AcDbLine
 10
-1393.555442185141
 20
3885.703096521186
 30
0.0
 11
-1377.369001507175
 21
3869.51665584322
 31
0.0
  0
LINE
  5
155C
330
17
100
AcDbEntity
  8
SEIHIN
100
AcDbLine
 10
-1377.369001507175
 20
3869.51665584322
 30
0.0
 11
-1368.04696760887
 21
3310.194621944915
 31
0.0
  0
LINE
  5
155D
330
17
100
AcDbEntity
  8
SEIHIN
100
AcDbLine
 10
-1133.555442185142
 20
3280.703096521185
 30
0.0
 11
-1338.555442185141
 21
3280.703096521186
 31
0.0
  0
LINE
  5
155E
330
17
100
AcDbEntity
  8
SEIHIN
100
AcDbLine
 10
-1338.555442185141
 20
3280.703096521186
 30
0.0
 11
-1368.04696760887
 21
3310.194621944915
 31
0.0
  0
DIMENSION
  5
155F
330
17
100
AcDbEntity
  8
SUNPOU
100
AcDbDimension
  2
*D176
 10
-958.5554421851416
 20
3650.706373655623
 30
0.0
 11
-1133.555442185141
 21
3696.706373655623
 31
0.0
 70
    32
 71
     5
 42
349.9999999999991
  3
A3-20
100
AcDbAlignedDimension
 13
-1308.555442185141
 23
3340.703096521186
 33
0.0
 14
-958.5554421851416
 24
3340.703096521186
 34
0.0
100
AcDbRotatedDimension
  0
DIMENSION
  5
1560
330
17
100
AcDbEntity
  8
SUNPOU
100
AcDbDimension
  2
*D177
 10
-1308.555442185141
 20
3650.706373655623
 30
0.0
 11
-1338.555442185141
 21
3696.706373655623
 31
0.0
 70
    32
 71
     5
 42
60.0
  3
A3-20
100
AcDbAlignedDimension
 13
-1368.555442185141
 23
3340.703096521186
 33
0.0
 14
-1308.555442185141
 24
3340.703096521186
 34
0.0
100
AcDbRotatedDimension
  0
DIMENSION
  5
1561
330
17
100
AcDbEntity
  8
SUNPOU
100
AcDbDimension
  2
*D178
 10
-933.5554421851411
 20
4221.060453364474
 30
0.0
 11
-1133.555442185141
 21
4267.060453364474
 31
0.0
 70
    32
 71
     5
 42
399.9999999999998
  3
A3-20
100
AcDbAlignedDimension
 13
-1333.555442185141
 23
3940.703096521186
 33
0.0
 14
-933.5554421851411
 24
3940.703096521186
 34
0.0
100
AcDbRotatedDimension
  0
DIMENSION
  5
1562
330
17
100
AcDbEntity
  8
SUNPOU
100
AcDbDimension
  2
*D179
 10
-873.5554421851411
 20
4348.69171066633
 30
0.0
 11
-1133.555442185141
 21
4394.69171066633
 31
0.0
 70
    32
 71
     5
 42
519.9999999999995
  3
A3-20
100
AcDbAlignedDimension
 13
-1393.555442185141
 23
3940.703096521186
 33
0.0
 14
-873.5554421851411
 24
3940.703096521186
 34
0.0
100
AcDbRotatedDimension
  0
DIMENSION
  5
1563
330
17
100
AcDbEntity
  8
SUNPOU
100
AcDbDimension
  2
*D180
 10
-1393.555442185141
 20
4221.060453364474
 30
0.0
 11
-1449.866273079013
 21
4267.929797172788
 31
0.0
 70
   160
 71
     5
 42
15.0
  3
A3-20
100
AcDbAlignedDimension
 13
-1378.555442185141
 23
3940.703096521186
 33
0.0
 14
-1393.555442185141
 24
3940.703096521186
 34
0.0
100
AcDbRotatedDimension
  0
DIMENSION
  5
1564
330
17
100
AcDbEntity
  8
SUNPOU
100
AcDbDimension
  2
*D181
 10
-1378.555442185141
 20
4221.060453364474
 30
0.0
 11
-1356.055442185141
 21
4267.060453364474
 31
0.0
 70
    32
 71
     5
 42
45.0
  3
A3-20
100
AcDbAlignedDimension
 13
-1333.555442185141
 23
3940.703096521186
 33
0.0
 14
-1378.555442185141
 24
3940.703096521186
 34
0.0
100
AcDbRotatedDimension
  0
DIMENSION
  5
1565
330
17
100
AcDbEntity
  8
SUNPOU
100
AcDbDimension
  2
*D182
 10
-1777.796883033632
 20
3340.703096521186
 30
0.0
 11
-1823.796883033633
 21
3640.703096521186
 31
0.0
 70
    32
 71
     5
 42
600.0
  3
A3-20
100
AcDbAlignedDimension
 13
-1393.555442185141
 23
3940.703096521186
 33
0.0
 14
-1368.555442185141
 24
3340.703096521186
 34
0.0
 50
90.0
100
AcDbRotatedDimension
  0
DIMENSION
  5
1566
330
17
100
AcDbEntity
  8
SUNPOU
100
AcDbDimension
  2
*D183
 10
-1777.796883033632
 20
3280.703096521186
 30
0.0
 11
-1823.796883033633
 21
3310.703096521186
 31
0.0
 70
    32
 71
     5
 42
60.0
  3
A3-20
100
AcDbAlignedDimension
 13
-1368.555442185141
 23
3340.703096521186
 33
0.0
 14
-1338.555442185141
 24
3280.703096521186
 34
0.0
 50
90.0
100
AcDbRotatedDimension
  0
DIMENSION
  5
1567
330
17
100
AcDbEntity
  8
SUNPOU
100
AcDbDimension
  2
*D184
 10
-928.5554421851411
 20
2997.808159655824
 30
0.0
 11
-1133.555442185141
 21
3043.808159655824
 31
0.0
 70
    32
 71
     5
 42
409.9999999999995
  3
A3-20
100
AcDbAlignedDimension
 13
-1338.555442185141
 23
3280.703096521186
 33
0.0
 14
-928.5554421851411
 24
3280.703096521186
 34
0.0
100
AcDbRotatedDimension
  0
TEXT
  5
1568
330
17
100
AcDbEntity
  8
SUNPOU
100
AcDbText
 10
-1169.329851857539
 20
3437.457623198326
 30
0.0
 40
40.0
  1
60R
100
AcDbText
  0
LWPOLYLINE
  5
1569
330
17
100
AcDbEntity
  8
HASEN
 48
0.5
100
AcDbPolyline
 90
        4
 70
     1
 43
0.0
 10
-894.8054421851411
 20
3565.703096521187
 10
-949.6752338518081
 20
3553.203096521186
 10
-950.7689838518081
 20
3528.203096521186
 10
-895.6387755184796
 20
3515.703096521187
  0
LINE
  5
156A
330
17
100
AcDbEntity
  8
1HASEN
100
AcDbLine
 10
-871.1596088518081
 20
3540.703096521187
 30
0.0
 11
-981.1596088518068
 21
3540.703096521186
 31
0.0
  0
DIMENSION
  5
156B
330
17
100
AcDbEntity
  8
SUNPOU
100
AcDbDimension
  2
*D185
 10
-1532.489284593128
 20
3940.703096521186
 30
0.0
 11
-1578.489284593129
 21
3913.203096521186
 31
0.0
 70
    32
 71
     5
 42
55.0
  3
A3-20
100
AcDbAlignedDimension
 13
-1393.555442185141
 23
3885.703096521186
 33
0.0
 14
-1393.555442185141
 24
3940.703096521186
 34
0.0
 50
90.0
100
AcDbRotatedDimension
  0
DIMENSION
  5
1575
330
17
100
AcDbEntity
  8
SUNPOU
100
AcDbDimension
  2
*D191
 10
-873.5554421851411
 20
4221.060453364474
 30
0.0
 11
-903.5554421851414
 21
4267.060453364474
 31
0.0
 70
    32
 71
     5
 42
60.00000000000045
  3
A3-20
100
AcDbAlignedDimension
 13
-933.5554421851416
 23
3940.703096521186
 33
0.0
 14
-873.5554421851411
 24
3940.703096521186
 34
0.0
 50
180.0
100
AcDbRotatedDimension
  0
DIMENSION
  5
1576
330
17
100
AcDbEntity
  8
SUNPOU
100
AcDbDimension
  2
*D192
 10
-1888.497115625054
 20
3940.703096521186
 30
0.0
 11
-1934.497115625055
 21
3610.703096521186
 31
0.0
 70
    32
 71
     5
 42
660.0
  3
A3-20
100
AcDbAlignedDimension
 13
-1338.555442185141
 23
3280.703096521186
 33
0.0
 14
-1393.555442185141
 24
3940.703096521186
 34
0.0
 50
90.0
100
AcDbRotatedDimension
  0
DIMENSION
  5
1577
330
17
100
AcDbEntity
  8
SUNPOU
100
AcDbDimension
  2
*D193
 10
-958.5554421851416
 20
3650.706373655623
 30
0.0
 11
-928.5554421851416
 21
3696.706373655623
 31
0.0
 70
    32
 71
     5
 42
60.0
  3
A3-20
100
AcDbAlignedDimension
 13
-898.5554421851416
 23
3340.703096521186
 33
0.0
 14
-958.5554421851416
 24
3340.703096521186
 34
0.0
 50
180.0
100
AcDbRotatedDimension
  0
TEXT
  5
157E
330
17
100
AcDbEntity
  8
SUNPOU
100
AcDbText
 10
-749.8301331793955
 20
3419.30624356033
 30
0.0
 40
60.0
  1
排水孔
 41
0.8
100
AcDbText
  0
LINE
  5
157F
330
17
100
AcDbEntity
  8
SUNPOU
100
AcDbLine
 10
-775.0028834894074
 20
3405.337665122121
 30
0.0
 11
-566.0626624897995
 21
3405.337665122121
 31
0.0
  0
LEADER
  5
1580
330
17
100
AcDbEntity
  8
SUNPOU
100
AcDbLeader
  3
A3-20
 76
     2
 10
-895.2221088518077
 20
3540.703096521187
 30
0.0
 10
-775.0028834894074
 20
3405.337665122121
 30
0.0
1001
ACAD
1000
DSTYLE
1002
{
1070
   147
1040
0.8
1070
    77
1070
     0
1002
}
  0
TEXT
  5
1584
330
17
100
AcDbEntity
  8
0
100
AcDbText
 10
-1358.493638092379
 20
4628.958284798948
 30
0.0
 40
90.0
  1
600×400
 41
0.8
100
AcDbText
  0
ENDSEC
  0
SECTION
  2
OBJECTS
  0
DICTIONARY
  5
C
330
0
100
AcDbDictionary
281
     1
  3
ACAD_CIP_PREVIOUS_PRODUCT_INFO
350
FBA
  3
ACAD_COLOR
350
A4
  3
ACAD_DETAILVIEWSTYLE
350
FB5
  3
ACAD_GROUP
350
D
  3
ACAD_LAYOUT
350
6F
  3
ACAD_MATERIAL
350
A3
  3
ACAD_MLEADERSTYLE
350
FB1
  3
ACAD_MLINESTYLE
350
1A
  3
ACAD_PLOTSETTINGS
350
70
  3
ACAD_PLOTSTYLENAME
350
6D
  3
ACAD_SCALELIST
350
F9F
  3
ACAD_SECTIONVIEWSTYLE
350
FB3
  3
ACAD_TABLESTYLE
350
A5
  3
ACAD_VISUALSTYLE
350
F86
  3
ACDB_RECOMPOSE_DATA
350
1955
  3
AcDbVariableDictionary
350
A0
  0
DICTIONARY
  5
194A
330
8
100
AcDbDictionary
280
     1
281
     1
  3
ACAD_XREC_ROUNDTRIP
360
194B
  0
DICTIONARY
  5
18F5
330
E
100
AcDbDictionary
280
     1
281
     1
  3
ADSK_XREC_LAYER_RECONCILED
360
18F6
  0
DICTIONARY
  5
18F7
330
23
100
AcDbDictionary
280
     1
281
     1
  3
ADSK_XREC_LAYER_RECONCILED
360
18F8
  0
DICTIONARY
  5
18F9
330
24
100
AcDbDictionary
280
     1
281
     1
  3
ADSK_XREC_LAYER_RECONCILED
360
18FA
  0
DICTIONARY
  5
18FB
330
25
100
AcDbDictionary
280
     1
281
     1
  3
ADSK_XREC_LAYER_RECONCILED
360
18FC
  0
DICTIONARY
  5
18FD
330
26
100
AcDbDictionary
280
     1
281
     1
  3
ADSK_XREC_LAYER_RECONCILED
360
18FE
  0
DICTIONARY
  5
18FF
330
27
100
AcDbDictionary
280
     1
281
     1
  3
ADSK_XREC_LAYER_RECONCILED
360
1900
  0
DICTIONARY
  5
1901
330
28
100
AcDbDictionary
280
     1
281
     1
  3
ADSK_XREC_LAYER_RECONCILED
360
1902
  0
DICTIONARY
  5
1903
330
29
100
AcDbDictionary
280
     1
281
     1
  3
ADSK_XREC_LAYER_RECONCILED
360
1904
  0
DICTIONARY
  5
1905
330
2A
100
AcDbDictionary
280
     1
281
     1
  3
ADSK_XREC_LAYER_RECONCILED
360
1906
  0
DICTIONARY
  5
9C
330
17
100
AcDbDictionary
280
     1
281
     1
  3
ACAD_SORTENTS
360
D97
  0
XRECORD
  5
FBA
102
{ACAD_REACTORS
330
C
102
}
330
C
100
AcDbXrecord
280
     1
300
ACD
300
2014
300
ACD_F_S
  0
DICTIONARY
  5
A4
102
{ACAD_REACTORS
330
C
102
}
330
C
100
AcDbDictionary
281
     1
  0
DICTIONARY
  5
FB5
102
{ACAD_REACTORS
330
C
102
}
330
C
100
AcDbDictionary
281
     1
  3
Imperial24
350
FB6
  0
DICTIONARY
  5
D
102
{ACAD_REACTORS
330
C
102
}
330
C
100
AcDbDictionary
281
     1
  0
DICTIONARY
  5
6F
102
{ACAD_REACTORS
330
C
102
}
330
C
100
AcDbDictionary
281
     1
  3
Model
350
71
  3
ﾚｲｱｳﾄ1
350
72
  0
DICTIONARY
  5
A3
102
{ACAD_REACTORS
330
C
102
}
330
C
100
AcDbDictionary
281
     1
  3
ByBlock
350
F76
  3
ByLayer
350
F6E
  3
Global
350
F7E
  0
DICTIONARY
  5
FB1
102
{ACAD_REACTORS
330
C
102
}
330
C
100
AcDbDictionary
281
     1
  3
Standard
350
FB2
  0
DICTIONARY
  5
1A
102
{ACAD_REACTORS
330
C
102
}
330
C
100
AcDbDictionary
281
     1
  3
STANDARD
350
1B
  0
DICTIONARY
  5
70
102
{ACAD_REACTORS
330
C
102
}
330
C
100
AcDbDictionary
281
     1
  0
ACDBDICTIONARYWDFLT
  5
6D
102
{ACAD_REACTORS
330
C
102
}
330
C
100
AcDbDictionary
281
     1
  3
Normal
350
6E
100
AcDbDictionaryWithDefault
340
6E
  0
DICTIONARY
  5
F9F
102
{ACAD_REACTORS
330
C
102
}
330
C
100
AcDbDictionary
281
     1
  3
A0
350
FA0
  3
A1
350
FA1
  3
A2
350
FA2
  3
A3
350
FA3
  3
A4
350
FA4
  3
A5
350
FA5
  3
A6
350
FA6
  3
A7
350
FA7
  3
A8
350
FA8
  3
A9
350
FA9
  3
B0
350
FAA
  3
B1
350
FAB
  3
B2
350
FAC
  3
B3
350
FAD
  3
B4
350
FAE
  3
B5
350
FAF
  3
B6
350
FB0
  0
DICTIONARY
  5
FB3
102
{ACAD_REACTORS
330
C
102
}
330
C
100
AcDbDictionary
281
     1
  3
Imperial24
350
FB4
  0
DICTIONARY
  5
A5
102
{ACAD_REACTORS
330
C
102
}
330
C
100
AcDbDictionary
281
     1
  3
Standard
350
A6
  0
DICTIONARY
  5
F86
102
{ACAD_REACTORS
330
C
102
}
330
C
100
AcDbDictionary
281
     1
  3
2dWireframe
350
F8C
  3
Basic
350
F8B
  3
Brighten
350
F92
  3
ColorChange
350
F96
  3
Conceptual
350
F8F
  3
Dim
350
F91
  3
EdgeColorOff
350
F9E
  3
Facepattern
350
F95
  3
Flat
350
F87
  3
FlatWithEdges
350
F88
  3
Gouraud
350
F89
  3
GouraudWithEdges
350
F8A
  3
Hidden
350
F8E
  3
JitterOff
350
F9C
  3
Linepattern
350
F94
  3
OverhangOff
350
F9D
  3
Realistic
350
F90
  3
Shaded
350
F9B
  3
Shaded with edges
350
F9A
  3
Shades of Gray
350
F97
  3
Sketchy
350
F98
  3
Thicken
350
F93
  3
Wireframe
350
F8D
  3
X-Ray
350
F99
  0
XRECORD
  5
1955
102
{ACAD_REACTORS
330
C
102
}
330
C
100
AcDbXrecord
280
     1
 90
        1
330
A6
  0
DICTIONARY
  5
A0
102
{ACAD_REACTORS
330
C
102
}
330
C
100
AcDbDictionary
281
     1
  3
CANNOSCALE
350
1945
  3
CMLEADERSTYLE
350
1941
  3
CTABLESTYLE
350
B0
  3
CVIEWDETAILSTYLE
350
1942
  3
CVIEWSECTIONSTYLE
350
1943
  3
DIMASSOC
350
A1
  3
LAYEREVAL
350
1947
  3
LAYERNOTIFY
350
1948
  3
LIGHTINGUNITS
350
1946
  3
MSLTSCALE
350
1944
  3
PROJECTNAME
350
B1
  3
XCLIPFRAME
350
1949
  0
XRECORD
  5
194B
102
{ACAD_REACTORS
330
194A
102
}
330
194A
100
AcDbXrecord
280
     1
102
VTR_0.000_0.000_1.000_1.000_VISUALSTYLE
340
F8C
102
VTR_0.000_0.000_1.000_1.000_GRIDDISPLAY
 70
     3
102
VTR_0.000_0.000_1.000_1.000_GRIDMAJOR
 70
     5
102
VTR_0.000_0.000_1.000_1.000_DEFAULTLIGHTING
280
     1
102
VTR_0.000_0.000_1.000_1.000_DEFAULTLIGHTINGTYPE
 70
     1
102
VTR_0.000_0.000_1.000_1.000_BRIGHTNESS
141
0.0
102
VTR_0.000_0.000_1.000_1.000_CONTRAST
142
0.0
  0
XRECORD
  5
18F6
102
{ACAD_REACTORS
330
18F5
102
}
330
18F5
100
AcDbXrecord
280
     1
290
     1
  0
XRECORD
  5
18F8
102
{ACAD_REACTORS
330
18F7
102
}
330
18F7
100
AcDbXrecord
280
     1
290
     1
  0
XRECORD
  5
18FA
102
{ACAD_REACTORS
330
18F9
102
}
330
18F9
100
AcDbXrecord
280
     1
290
     1
  0
XRECORD
  5
18FC
102
{ACAD_REACTORS
330
18FB
102
}
330
18FB
100
AcDbXrecord
280
     1
290
     1
  0
XRECORD
  5
18FE
102
{ACAD_REACTORS
330
18FD
102
}
330
18FD
100
AcDbXrecord
280
     1
290
     1
  0
XRECORD
  5
1900
102
{ACAD_REACTORS
330
18FF
102
}
330
18FF
100
AcDbXrecord
280
     1
290
     1
  0
XRECORD
  5
1902
102
{ACAD_REACTORS
330
1901
102
}
330
1901
100
AcDbXrecord
280
     1
290
     1
  0
XRECORD
  5
1904
102
{ACAD_REACTORS
330
1903
102
}
330
1903
100
AcDbXrecord
280
     1
290
     1
  0
XRECORD
  5
1906
102
{ACAD_REACTORS
330
1905
102
}
330
1905
100
AcDbXrecord
280
     1
290
     1
  0
SORTENTSTABLE
  5
D97
102
{ACAD_REACTORS
330
9C
102
}
330
9C
100
AcDbSortentsTable
330
17
331
0
  5
D9F
331
788
  5
788
331
789
  5
789
331
78A
  5
78A
331
78B
  5
78B
331
78C
  5
78C
331
78D
  5
78D
331
78E
  5
78E
331
790
  5
790
331
791
  5
791
331
792
  5
792
331
79B
  5
79B
331
79C
  5
79C
331
79D
  5
79D
331
79E
  5
79E
331
79F
  5
79F
331
7A0
  5
7A0
331
7A1
  5
7A1
331
7A2
  5
7A2
331
7A6
  5
7A6
331
7A7
  5
7A7
331
7AE
  5
7AE
331
7B8
  5
7B8
331
7BB
  5
7C3
331
7BD
  5
7D6
331
7BF
  5
7EE
331
7C0
  5
7EF
331
7C1
  5
7F0
331
7C2
  5
7F1
331
7C5
  5
7F4
331
7C6
  5
7F5
331
7C7
  5
7F6
331
7C8
  5
7F7
331
7C9
  5
7F8
331
7CA
  5
7F9
331
7D5
  5
7FA
331
7D6
  5
7FB
331
7EA
  5
7FD
331
7EE
  5
7FE
331
7EF
  5
7FF
331
7F0
  5
800
331
7F2
  5
802
331
7F3
  5
803
331
7F4
  5
804
331
7F5
  5
805
331
7F6
  5
806
331
7F7
  5
807
331
D91
  5
7BA
331
D92
  5
7BB
331
D93
  5
7BC
331
D94
  5
7BD
331
D95
  5
7BE
331
D96
  5
7BF
331
D98
  5
7C1
331
D99
  5
7C2
331
D9A
  5
7E6
331
D9B
  5
7EA
331
D9C
  5
7C5
331
D9D
  5
7C7
331
D9E
  5
7C8
331
D9F
  5
7C9
331
DA0
  5
7CA
331
DA1
  5
7D5
  0
ACAD_PROXY_OBJECT
  5
FB6
102
{ACAD_REACTORS
330
FB5
102
}
102
{ACAD_XDICTIONARY
360
193F
102
}
330
FB5
100
AcDbProxyObject
 90
      499
 91
      515
 95
  3276827
 70
     0
 93
     2314
310
9207000000180005C0F42F5A8DC671F815AF46E07A15AE7E07000000180005C0F42F5A8DC671FA3300000018001000000180005C0F42F5A8DC671FA02000000000000741FA028CC00000060002330000001800000852480368038003280390034803080360019001A004AD12801E002E00208031802B003080390010002B00
310
348032803B802A003C803800328010002E0033001000110012803A003180188011001F001280100012801E002E00208031802B003080390010002B00348032803B80220032803A00308034803600248032001F0012802E00280029802180208026002280100012801E002E00208031802B003080390010002B00348032803B
310
802980318030803600328010002E0033001000110012803980370011001F0012802B0340
340
F
340
0
340
13
340
F
340
13
340
13
 94
        0
  0
LAYOUT
  5
71
102
{ACAD_REACTORS
330
6F
102
}
330
6F
100
AcDbPlotSettings
  1

  2
RICOH IPSiO NX850 RPCS
  4

  6

 40
0.0
 41
0.0
 42
0.0
 43
0.0
 44
0.0
 45
0.0
 46
0.0
 47
0.0
 48
0.0
 49
0.0
140
0.0
141
0.0
142
1.0
143
1.0
 70
  1712
 72
     0
 73
     0
 74
     0
  7
acad.ctb
 75
     0
 76
     0
 77
     2
 78
   300
147
1.0
148
0.0
149
0.0
100
AcDbLayout
  1
Model
 70
     1
 71
     0
 10
0.0
 20
0.0
 11
12.0
 21
9.0
 12
0.0
 22
0.0
 32
0.0
 14
0.0
 24
0.0
 34
0.0
 15
0.0
 25
0.0
 35
0.0
146
0.0
 13
0.0
 23
0.0
 33
0.0
 16
1.0
 26
0.0
 36
0.0
 17
0.0
 27
1.0
 37
0.0
 76
     0
330
17
331
F67
  0
LAYOUT
  5
72
102
{ACAD_REACTORS
330
6F
102
}
330
6F
100
AcDbPlotSettings
  1

  2
RICOH IPSiO NX850 RPCS
  4

  6

 40
0.0
 41
0.0
 42
0.0
 43
0.0
 44
0.0
 45
0.0
 46
0.0
 47
0.0
 48
0.0
 49
0.0
140
0.0
141
0.0
142
1.0
143
1.0
 70
   688
 72
     0
 73
     0
 74
     5
  7
acad.ctb
 75
    16
 76
     0
 77
     2
 78
   300
147
1.0
148
0.0
149
0.0
100
AcDbLayout
  1
ﾚｲｱｳﾄ1
 70
     0
 71
     1
 10
0.0
 20
0.0
 11
12.0
 21
9.0
 12
0.0
 22
0.0
 32
0.0
 14
1.000000000000000E+20
 24
1.000000000000000E+20
 34
1.000000000000000E+20
 15
-1.000000000000000E+20
 25
-1.000000000000000E+20
 35
-1.000000000000000E+20
146
0.0
 13
0.0
 23
0.0
 33
0.0
 16
1.0
 26
0.0
 36
0.0
 17
0.0
 27
1.0
 37
0.0
 76
     0
330
14
  0
MATERIAL
  5
F76
102
{ACAD_REACTORS
330
A3
102
}
102
{ACAD_XDICTIONARY
360
194C
102
}
330
A3
100
AcDbMaterial
  1
ByBlock
 72
     0
 73
     2
 43
0.0208333333333333
 43
0.0
 43
0.0
 43
0.0
 43
0.0
 43
0.0208333333333333
 43
0.0
 43
0.0
 43
0.0
 43
0.0
 43
1.0
 43
0.0
 43
0.0
 43
0.0
 43
0.0
 43
1.0
 77
     0
 78
     2
 47
0.0208333333333333
 47
0.0
 47
0.0
 47
0.0
 47
0.0
 47
0.0208333333333333
 47
0.0
 47
0.0
 47
0.0
 47
0.0
 47
1.0
 47
0.0
 47
0.0
 47
0.0
 47
0.0
 47
1.0
171
     0
172
     2
 49
0.0208333333333333
 49
0.0
 49
0.0
 49
0.0
 49
0.0
 49
0.0208333333333333
 49
0.0
 49
0.0
 49
0.0
 49
0.0
 49
1.0
 49
0.0
 49
0.0
 49
0.0
 49
0.0
 49
1.0
175
     0
176
     2
142
0.0208333333333333
142
0.0
142
0.0
142
0.0
142
0.0
142
0.0208333333333333
142
0.0
142
0.0
142
0.0
142
0.0
142
1.0
142
0.0
142
0.0
142
0.0
142
0.0
142
1.0
179
     0
270
     2
144
0.0208333333333333
144
0.0
144
0.0
144
0.0
144
0.0
144
0.0208333333333333
144
0.0
144
0.0
144
0.0
144
0.0
144
1.0
144
0.0
144
0.0
144
0.0
144
0.0
144
1.0
274
     2
147
0.0208333333333333
147
0.0
147
0.0
147
0.0
147
0.0
147
0.0208333333333333
147
0.0
147
0.0
147
0.0
147
0.0
147
1.0
147
0.0
147
0.0
147
0.0
147
0.0
147
1.0
  0
MATERIAL
  5
F6E
102
{ACAD_REACTORS
330
A3
102
}
102
{ACAD_XDICTIONARY
360
194E
102
}
330
A3
100
AcDbMaterial
  1
ByLayer
 72
     0
 73
     2
 43
0.0208333333333333
 43
0.0
 43
0.0
 43
0.0
 43
0.0
 43
0.0208333333333333
 43
0.0
 43
0.0
 43
0.0
 43
0.0
 43
1.0
 43
0.0
 43
0.0
 43
0.0
 43
0.0
 43
1.0
 77
     0
 78
     2
 47
0.0208333333333333
 47
0.0
 47
0.0
 47
0.0
 47
0.0
 47
0.0208333333333333
 47
0.0
 47
0.0
 47
0.0
 47
0.0
 47
1.0
 47
0.0
 47
0.0
 47
0.0
 47
0.0
 47
1.0
171
     0
172
     2
 49
0.0208333333333333
 49
0.0
 49
0.0
 49
0.0
 49
0.0
 49
0.0208333333333333
 49
0.0
 49
0.0
 49
0.0
 49
0.0
 49
1.0
 49
0.0
 49
0.0
 49
0.0
 49
0.0
 49
1.0
175
     0
176
     2
142
0.0208333333333333
142
0.0
142
0.0
142
0.0
142
0.0
142
0.0208333333333333
142
0.0
142
0.0
142
0.0
142
0.0
142
1.0
142
0.0
142
0.0
142
0.0
142
0.0
142
1.0
179
     0
270
     2
144
0.0208333333333333
144
0.0
144
0.0
144
0.0
144
0.0
144
0.0208333333333333
144
0.0
144
0.0
144
0.0
144
0.0
144
1.0
144
0.0
144
0.0
144
0.0
144
0.0
144
1.0
274
     2
147
0.0208333333333333
147
0.0
147
0.0
147
0.0
147
0.0
147
0.0208333333333333
147
0.0
147
0.0
147
0.0
147
0.0
147
1.0
147
0.0
147
0.0
147
0.0
147
0.0
147
1.0
  0
MATERIAL
  5
F7E
102
{ACAD_REACTORS
330
A3
102
}
102
{ACAD_XDICTIONARY
360
1950
102
}
330
A3
100
AcDbMaterial
  1
Global
 72
     0
 73
     2
 43
0.0208333333333333
 43
0.0
 43
0.0
 43
0.0
 43
0.0
 43
0.0208333333333333
 43
0.0
 43
0.0
 43
0.0
 43
0.0
 43
1.0
 43
0.0
 43
0.0
 43
0.0
 43
0.0
 43
1.0
 77
     0
 78
     2
 47
0.0208333333333333
 47
0.0
 47
0.0
 47
0.0
 47
0.0
 47
0.0208333333333333
 47
0.0
 47
0.0
 47
0.0
 47
0.0
 47
1.0
 47
0.0
 47
0.0
 47
0.0
 47
0.0
 47
1.0
171
     0
172
     2
 49
0.0208333333333333
 49
0.0
 49
0.0
 49
0.0
 49
0.0
 49
0.0208333333333333
 49
0.0
 49
0.0
 49
0.0
 49
0.0
 49
1.0
 49
0.0
 49
0.0
 49
0.0
 49
0.0
 49
1.0
175
     0
176
     2
142
0.0208333333333333
142
0.0
142
0.0
142
0.0
142
0.0
142
0.0208333333333333
142
0.0
142
0.0
142
0.0
142
0.0
142
1.0
142
0.0
142
0.0
142
0.0
142
0.0
142
1.0
179
     0
270
     2
144
0.0208333333333333
144
0.0
144
0.0
144
0.0
144
0.0
144
0.0208333333333333
144
0.0
144
0.0
144
0.0
144
0.0
144
1.0
144
0.0
144
0.0
144
0.0
144
0.0
144
1.0
274
     2
147
0.0208333333333333
147
0.0
147
0.0
147
0.0
147
0.0
147
0.0208333333333333
147
0.0
147
0.0
147
0.0
147
0.0
147
1.0
147
0.0
147
0.0
147
0.0
147
0.0
147
1.0
  0
MLEADERSTYLE
  5
FB2
102
{ACAD_REACTORS
330
FB1
102
}
330
FB1
100
AcDbMLeaderStyle
170
     2
171
     1
172
     0
 90
        2
 40
0.0
 41
0.0
173
     1
 91
-1056964608
340
11
 92
       -2
290
     1
 42
0.09
291
     1
 43
0.36
  3
Standard
341
0
 44
0.18
300

342
F
174
     1
178
     6
175
     1
176
     0
 93
-1056964608
 45
0.18
292
     0
297
     0
 46
0.18
343
0
 94
-1056964608
 47
1.0
 49
1.0
140
1.0
293
     1
141
0.0
294
     1
177
     0
142
1.0
295
     0
296
     0
143
0.125
1001
ACAD_MLEADERVER
1070
     2
  0
MLINESTYLE
  5
1B
102
{ACAD_REACTORS
330
1A
102
}
330
1A
100
AcDbMlineStyle
  2
STANDARD
 70
     0
  3

 62
   256
 51
90.0
 52
90.0
 71
     2
 49
0.5
 62
   256
  6
BYLAYER
 49
-0.5
 62
   256
  6
BYLAYER
  0
ACDBPLACEHOLDER
  5
6E
102
{ACAD_REACTORS
330
6D
102
}
330
6D
  0
SCALE
  5
FA0
102
{ACAD_REACTORS
330
F9F
102
}
330
F9F
100
AcDbScale
 70
     0
300
1:1
140
1.0
141
1.0
290
     1
  0
SCALE
  5
FA1
102
{ACAD_REACTORS
330
F9F
102
}
330
F9F
100
AcDbScale
 70
     0
300
1/128" = 1'-0"
140
0.0078125
141
12.0
290
     0
  0
SCALE
  5
FA2
102
{ACAD_REACTORS
330
F9F
102
}
330
F9F
100
AcDbScale
 70
     0
300
1/64" = 1'-0"
140
0.015625
141
12.0
290
     0
  0
SCALE
  5
FA3
102
{ACAD_REACTORS
330
F9F
102
}
330
F9F
100
AcDbScale
 70
     0
300
1/32" = 1'-0"
140
0.03125
141
12.0
290
     0
  0
SCALE
  5
FA4
102
{ACAD_REACTORS
330
F9F
102
}
330
F9F
100
AcDbScale
 70
     0
300
1/16" = 1'-0"
140
0.0625
141
12.0
290
     0
  0
SCALE
  5
FA5
102
{ACAD_REACTORS
330
F9F
102
}
330
F9F
100
AcDbScale
 70
     0
300
3/32" = 1'-0"
140
0.09375
141
12.0
290
     0
  0
SCALE
  5
FA6
102
{ACAD_REACTORS
330
F9F
102
}
330
F9F
100
AcDbScale
 70
     0
300
1/8" = 1'-0"
140
0.125
141
12.0
290
     0
  0
SCALE
  5
FA7
102
{ACAD_REACTORS
330
F9F
102
}
330
F9F
100
AcDbScale
 70
     0
300
3/16" = 1'-0"
140
0.1875
141
12.0
290
     0
  0
SCALE
  5
FA8
102
{ACAD_REACTORS
330
F9F
102
}
330
F9F
100
AcDbScale
 70
     0
300
1/4" = 1'-0"
140
0.25
141
12.0
290
     0
  0
SCALE
  5
FA9
102
{ACAD_REACTORS
330
F9F
102
}
330
F9F
100
AcDbScale
 70
     0
300
3/8" = 1'-0"
140
0.375
141
12.0
290
     0
  0
SCALE
  5
FAA
102
{ACAD_REACTORS
330
F9F
102
}
330
F9F
100
AcDbScale
 70
     0
300
1/2" = 1'-0"
140
0.5
141
12.0
290
     0
  0
SCALE
  5
FAB
102
{ACAD_REACTORS
330
F9F
102
}
330
F9F
100
AcDbScale
 70
     0
300
3/4" = 1'-0"
140
0.75
141
12.0
290
     0
  0
SCALE
  5
FAC
102
{ACAD_REACTORS
330
F9F
102
}
330
F9F
100
AcDbScale
 70
     0
300
1" = 1'-0"
140
1.0
141
12.0
290
     0
  0
SCALE
  5
FAD
102
{ACAD_REACTORS
330
F9F
102
}
330
F9F
100
AcDbScale
 70
     0
300
1-1/2" = 1'-0"
140
1.5
141
12.0
290
     0
  0
SCALE
  5
FAE
102
{ACAD_REACTORS
330
F9F
102
}
330
F9F
100
AcDbScale
 70
     0
300
3" = 1'-0"
140
3.0
141
12.0
290
     0
  0
SCALE
  5
FAF
102
{ACAD_REACTORS
330
F9F
102
}
330
F9F
100
AcDbScale
 70
     0
300
6" = 1'-0"
140
6.0
141
12.0
290
     0
  0
SCALE
  5
FB0
102
{ACAD_REACTORS
330
F9F
102
}
330
F9F
100
AcDbScale
 70
     0
300
1'-0" = 1'-0"
140
12.0
141
12.0
290
     0
  0
ACAD_PROXY_OBJECT
  5
FB4
102
{ACAD_REACTORS
330
FB3
102
}
102
{ACAD_XDICTIONARY
360
193D
102
}
330
FB3
100
AcDbProxyObject
 90
      499
 91
      514
 95
  3276827
 70
     0
 93
     3814
310
929D000000180005C0F42F5A8DC671FC00000060001703D0BD6A3719C7E5C0F42F5A8DC6F1FA330000001800099400000060001703D0BD6A3719C7E5C0F42F5A8DC671FC00000060001703D0BD6A3719C7E808000000000001D07E80C0000006000400000064003081815AF46E07A158E7E80C8340C16A22A7D90FC9F8CAE6
310
5A70A583A07E1FE81C635378FA1F8CAE65A70A583A17E7944A7F127A97E9FA149200DA00E000CA00E400D200C200D80064006800882480160010002780160010002880160010002980160010002C00160010002D002F84A007800B8008200C600AC00C200E4004000AC00D200CA00EE00A800F200E000CA004000B800CC004
310
00044004A00E800C600620044007C004A0040004A007800B8008200C600AC00C200E4004000AC00D200CA00EE00A600CA00C600E800D200DE00DC00A600E800C200E400E8009200C8007C004A005A004A007800B8008200C600AC00C200E4004000AC00D200CA00EE00A600CA00C600E800D200DE00DC008A00DC00C800920
310
0C8007C004A00B800A000A6008600820098008A0040004A007800B8008200C600AC00C200E4004000AC00D200CA00EE00A600C600C200D800CA004000B800CC00400044004A00E600DC0044007C004A00832080270029802480198018807404C
340
F
340
0
340
0
340
13
340
13
340
F
 94
        0
  0
TABLESTYLE
  5
A6
102
{ACAD_REACTORS
330
A5
102
}
102
{ACAD_XDICTIONARY
360
1952
102
}
330
A5
100
AcDbTableStyle
  3
Standard
 70
     0
 71
     0
 40
0.06
 41
0.06
280
     0
281
     0
  7
STANDARD
140
0.18
170
     2
 62
     0
 63
   257
283
     0
274
    -2
284
     1
 64
     0
275
    -2
285
     1
 65
     0
276
    -2
286
     1
 66
     0
277
    -2
287
     1
 67
     0
278
    -2
288
     1
 68
     0
279
    -2
289
     1
 69
     0
  7
STANDARD
140
0.25
170
     5
 62
     0
 63
   257
283
     0
274
    -2
284
     1
 64
     0
275
    -2
285
     1
 65
     0
276
    -2
286
     1
 66
     0
277
    -2
287
     1
 67
     0
278
    -2
288
     1
 68
     0
279
    -2
289
     1
 69
     0
  7
STANDARD
140
0.18
170
     5
 62
     0
 63
   257
283
     0
274
    -2
284
     1
 64
     0
275
    -2
285
     1
 65
     0
276
    -2
286
     1
 66
     0
277
    -2
287
     1
 67
     0
278
    -2
288
     1
 68
     0
279
    -2
289
     1
 69
     0
  0
VISUALSTYLE
  5
F8C
102
{ACAD_REACTORS
330
F86
102
}
102
{ACAD_XDICTIONARY
360
1956
102
}
330
F86
100
AcDbVisualStyle
  2
2dWireframe
 70
     4
 71
     0
 72
     2
 73
     0
 90
        0
 40
-0.6
 41
-30.0
 62
     5
 63
     7
421
 16777215
 74
     1
 91
        4
 64
     7
 65
   257
 75
     1
175
     1
 42
1.0
 92
        0
 66
   257
 43
1.0
 76
     1
 77
     6
 78
     2
 67
     7
 79
     5
170
     0
171
     0
290
     0
174
     0
 93
        1
 44
0.0
173
     0
291
     0
 45
0.0
1001
ACAD
1000
AcDbSavedByObjectVersion
1070
     0
  0
VISUALSTYLE
  5
F8B
102
{ACAD_REACTORS
330
F86
102
}
102
{ACAD_XDICTIONARY
360
1958
102
}
330
F86
100
AcDbVisualStyle
  2
Basic
 70
     7
 71
     1
 72
     0
 73
     1
 90
        0
 40
-0.6
 41
-30.0
 62
     5
 63
     7
421
 16777215
 74
     0
 91
        4
 64
     7
 65
   257
 75
     1
175
     1
 42
1.0
 92
        8
 66
     7
 43
1.0
 76
     1
 77
     6
 78
     2
 67
     7
 79
     5
170
     0
171
     0
290
     0
174
     0
 93
        1
 44
0.0
173
     0
291
     1
 45
0.0
1001
ACAD
1000
AcDbSavedByObjectVersion
1070
     0
  0
VISUALSTYLE
  5
F92
102
{ACAD_REACTORS
330
F86
102
}
102
{ACAD_XDICTIONARY
360
195A
102
}
330
F86
100
AcDbVisualStyle
  2
Brighten
 70
    12
 71
     2
 72
     2
 73
     0
 90
        0
 40
-0.6
 41
-30.0
 62
     5
 63
     7
421
 16777215
 74
     1
 91
        4
 64
     7
 65
   257
 75
     1
175
     1
 42
1.0
 92
        8
 66
     7
 43
1.0
 76
     1
 77
     6
 78
     2
 67
     7
 79
     5
170
     0
171
     0
290
     0
174
     0
 93
        1
 44
50.0
173
     0
291
     1
 45
0.0
1001
ACAD
1000
AcDbSavedByObjectVersion
1070
     0
  0
VISUALSTYLE
  5
F96
102
{ACAD_REACTORS
330
F86
102
}
102
{ACAD_XDICTIONARY
360
195C
102
}
330
F86
100
AcDbVisualStyle
  2
ColorChange
 70
    16
 71
     2
 72
     2
 73
     3
 90
        0
 40
-0.6
 41
-30.0
 62
     5
 63
     8
421
  8421504
 74
     1
 91
        4
 64
     7
 65
   257
 75
     1
175
     1
 42
1.0
 92
        8
 66
     8
424
  8421504
 43
1.0
 76
     1
 77
     6
 78
     2
 67
     7
 79
     5
170
     0
171
     0
290
     0
174
     0
 93
        1
 44
0.0
173
     0
291
     1
 45
0.0
1001
ACAD
1000
AcDbSavedByObjectVersion
1070
     0
  0
VISUALSTYLE
  5
F8F
102
{ACAD_REACTORS
330
F86
102
}
102
{ACAD_XDICTIONARY
360
195E
102
}
330
F86
100
AcDbVisualStyle
  2
Conceptual
 70
     9
 71
     3
 72
     2
 73
     0
 90
        0
 40
-0.6
 41
-30.0
 62
     5
 63
     7
421
 16777215
 74
     2
 91
        2
 64
     7
 65
   257
 75
     1
175
     1
 42
179.0
 92
        8
 66
     7
 43
1.0
 76
     1
 77
     6
 78
     2
 67
     7
 79
     3
170
     0
171
     0
290
     0
174
     0
 93
        1
 44
0.0
173
     0
291
     0
 45
0.0
1001
ACAD
1000
AcDbSavedByObjectVersion
1070
     0
  0
VISUALSTYLE
  5
F91
102
{ACAD_REACTORS
330
F86
102
}
102
{ACAD_XDICTIONARY
360
1960
102
}
330
F86
100
AcDbVisualStyle
  2
Dim
 70
    11
 71
     2
 72
     2
 73
     0
 90
        0
 40
-0.6
 41
-30.0
 62
     5
 63
     7
421
 16777215
 74
     1
 91
        4
 64
     7
 65
   257
 75
     1
175
     1
 42
1.0
 92
        8
 66
     7
 43
1.0
 76
     1
 77
     6
 78
     2
 67
     7
 79
     5
170
     0
171
     0
290
     0
174
     0
 93
        1
 44
-50.0
173
     0
291
     1
 45
0.0
1001
ACAD
1000
AcDbSavedByObjectVersion
1070
     0
  0
VISUALSTYLE
  5
F9E
102
{ACAD_REACTORS
330
F86
102
}
102
{ACAD_XDICTIONARY
360
1962
102
}
330
F86
100
AcDbVisualStyle
  2
EdgeColorOff
 70
    22
 71
     2
 72
     2
 73
     0
 90
        0
 40
-0.6
 41
-30.0
 62
     5
 63
     7
421
 16777215
 74
     1
 91
        4
 64
     7
 65
   257
 75
     1
175
     1
 42
1.0
 92
        8
 66
     7
 43
1.0
 76
     1
 77
     6
 78
     2
 67
     7
 79
     5
170
     0
171
     0
290
     0
174
     0
 93
        1
 44
0.0
173
     0
291
     1
 45
0.0
1001
ACAD
1000
AcDbSavedByObjectVersion
1070
     0
  0
VISUALSTYLE
  5
F95
102
{ACAD_REACTORS
330
F86
102
}
102
{ACAD_XDICTIONARY
360
1964
102
}
330
F86
100
AcDbVisualStyle
  2
Facepattern
 70
    15
 71
     2
 72
     2
 73
     0
 90
        0
 40
-0.6
 41
-30.0
 62
     5
 63
     7
421
 16777215
 74
     1
 91
        4
 64
     7
 65
   257
 75
     1
175
     1
 42
1.0
 92
        8
 66
     7
 43
1.0
 76
     1
 77
     6
 78
     2
 67
     7
 79
     5
170
     0
171
     0
290
     0
174
     0
 93
        1
 44
0.0
173
     0
291
     1
 45
0.0
1001
ACAD
1000
AcDbSavedByObjectVersion
1070
     0
  0
VISUALSTYLE
  5
F87
102
{ACAD_REACTORS
330
F86
102
}
102
{ACAD_XDICTIONARY
360
1966
102
}
330
F86
100
AcDbVisualStyle
  2
Flat
 70
     0
 71
     2
 72
     1
 73
     1
 90
        2
 40
-0.6
 41
30.0
 62
     5
 63
     7
421
 16777215
 74
     0
 91
        0
 64
     7
 65
   257
 75
     1
175
     1
 42
1.0
 92
        8
 66
     7
 43
1.0
 76
     1
 77
     6
 78
     2
 67
     7
 79
     5
170
     0
171
     0
290
     0
174
     0
 93
       13
 44
0.0
173
     0
291
     1
 45
0.0
1001
ACAD
1000
AcDbSavedByObjectVersion
1070
     0
  0
VISUALSTYLE
  5
F88
102
{ACAD_REACTORS
330
F86
102
}
102
{ACAD_XDICTIONARY
360
1968
102
}
330
F86
100
AcDbVisualStyle
  2
FlatWithEdges
 70
     1
 71
     2
 72
     1
 73
     1
 90
        2
 40
-0.6
 41
30.0
 62
     5
 63
     7
421
 16777215
 74
     1
 91
        0
 64
     7
 65
   257
 75
     1
175
     1
 42
1.0
 92
        0
 66
   257
 43
1.0
 76
     1
 77
     6
 78
     2
 67
     7
 79
     5
170
     0
171
     0
290
     0
174
     0
 93
       13
 44
0.0
173
     0
291
     1
 45
0.0
1001
ACAD
1000
AcDbSavedByObjectVersion
1070
     0
  0
VISUALSTYLE
  5
F89
102
{ACAD_REACTORS
330
F86
102
}
102
{ACAD_XDICTIONARY
360
196A
102
}
330
F86
100
AcDbVisualStyle
  2
Gouraud
 70
     2
 71
     2
 72
     2
 73
     1
 90
        2
 40
-0.6
 41
30.0
 62
     5
 63
     7
421
 16777215
 74
     0
 91
        0
 64
     7
 65
   257
 75
     1
175
     1
 42
1.0
 92
        0
 66
     7
 43
1.0
 76
     1
 77
     6
 78
     2
 67
     7
 79
     5
170
     0
171
     0
290
     0
174
     0
 93
       13
 44
0.0
173
     0
291
     1
 45
0.0
1001
ACAD
1000
AcDbSavedByObjectVersion
1070
     0
  0
VISUALSTYLE
  5
F8A
102
{ACAD_REACTORS
330
F86
102
}
102
{ACAD_XDICTIONARY
360
196C
102
}
330
F86
100
AcDbVisualStyle
  2
GouraudWithEdges
 70
     3
 71
     2
 72
     2
 73
     1
 90
        2
 40
-0.6
 41
30.0
 62
     5
 63
     7
421
 16777215
 74
     1
 91
        0
 64
     7
 65
   257
 75
     1
175
     1
 42
1.0
 92
        0
 66
   257
 43
1.0
 76
     1
 77
     6
 78
     2
 67
     7
 79
     5
170
     0
171
     0
290
     0
174
     0
 93
       13
 44
0.0
173
     0
291
     1
 45
0.0
1001
ACAD
1000
AcDbSavedByObjectVersion
1070
     0
  0
VISUALSTYLE
  5
F8E
102
{ACAD_REACTORS
330
F86
102
}
102
{ACAD_XDICTIONARY
360
196E
102
}
330
F86
100
AcDbVisualStyle
  2
Hidden
 70
     6
 71
     1
 72
     2
 73
     2
 90
        0
 40
-0.6
 41
-30.0
 62
     5
 63
     7
421
 16777215
 74
     2
 91
        2
 64
     7
 65
   257
 75
     2
175
     1
 42
40.0
 92
        0
 66
   257
 43
1.0
 76
     1
 77
     6
 78
     2
 67
     7
 79
     3
170
     0
171
     0
290
     0
174
     0
 93
        1
 44
0.0
173
     0
291
     0
 45
0.0
1001
ACAD
1000
AcDbSavedByObjectVersion
1070
     0
  0
VISUALSTYLE
  5
F9C
102
{ACAD_REACTORS
330
F86
102
}
102
{ACAD_XDICTIONARY
360
1970
102
}
330
F86
100
AcDbVisualStyle
  2
JitterOff
 70
    20
 71
     2
 72
     2
 73
     0
 90
        0
 40
-0.6
 41
-30.0
 62
     5
 63
     7
421
 16777215
 74
     1
 91
        4
 64
     7
 65
   257
 75
     1
175
     1
 42
1.0
 92
       10
 66
     7
 43
1.0
 76
     1
 77
     6
 78
     2
 67
     7
 79
     5
170
     0
171
     0
290
     0
174
     0
 93
        1
 44
0.0
173
     0
291
     1
 45
0.0
1001
ACAD
1000
AcDbSavedByObjectVersion
1070
     0
  0
VISUALSTYLE
  5
F94
102
{ACAD_REACTORS
330
F86
102
}
102
{ACAD_XDICTIONARY
360
1972
102
}
330
F86
100
AcDbVisualStyle
  2
Linepattern
 70
    14
 71
     2
 72
     2
 73
     0
 90
        0
 40
-0.6
 41
-30.0
 62
     5
 63
     7
421
 16777215
 74
     1
 91
        4
 64
     7
 65
   257
 75
     7
175
     7
 42
1.0
 92
        8
 66
     7
 43
1.0
 76
     1
 77
     6
 78
     2
 67
     7
 79
     5
170
     0
171
     0
290
     0
174
     0
 93
        1
 44
0.0
173
     0
291
     1
 45
0.0
1001
ACAD
1000
AcDbSavedByObjectVersion
1070
     0
  0
VISUALSTYLE
  5
F9D
102
{ACAD_REACTORS
330
F86
102
}
102
{ACAD_XDICTIONARY
360
1974
102
}
330
F86
100
AcDbVisualStyle
  2
OverhangOff
 70
    21
 71
     2
 72
     2
 73
     0
 90
        0
 40
-0.6
 41
-30.0
 62
     5
 63
     7
421
 16777215
 74
     1
 91
        4
 64
     7
 65
   257
 75
     1
175
     1
 42
1.0
 92
        9
 66
     7
 43
1.0
 76
     1
 77
     6
 78
     2
 67
     7
 79
     5
170
     0
171
     0
290
     0
174
     0
 93
        1
 44
0.0
173
     0
291
     1
 45
0.0
1001
ACAD
1000
AcDbSavedByObjectVersion
1070
     0
  0
VISUALSTYLE
  5
F90
102
{ACAD_REACTORS
330
F86
102
}
102
{ACAD_XDICTIONARY
360
1976
102
}
330
F86
100
AcDbVisualStyle
  2
Realistic
 70
     8
 71
     2
 72
     2
 73
     0
 90
        2
 40
-0.6
 41
30.0
 62
     5
 63
     7
421
 16777215
 74
     0
 91
        0
 64
     7
 65
   257
 75
     1
175
     1
 42
1.0
 92
        8
 66
   257
 43
1.0
 76
     1
 77
     6
 78
     2
 67
     7
 79
     3
170
     0
171
     0
290
     0
174
     0
 93
       13
 44
0.0
173
     0
291
     0
 45
0.0
1001
ACAD
1000
AcDbSavedByObjectVersion
1070
     0
  0
VISUALSTYLE
  5
F9B
102
{ACAD_REACTORS
330
F86
102
}
102
{ACAD_XDICTIONARY
360
1978
102
}
330
F86
100
AcDbVisualStyle
  2
Shaded
 70
    27
 71
     2
 72
     2
 73
     1
 90
        2
 40
-0.6
 41
30.0
 62
     5
 63
     7
421
 16777215
 74
     0
 91
        4
 64
     7
 65
   257
 75
     1
175
     1
 42
1.0
 92
        8
 66
   257
 43
1.0
 76
     1
 77
     6
 78
     2
 67
     8
425
  7895160
 79
     3
170
     0
171
     0
290
     0
174
     0
 93
        5
 44
0.0
173
     0
291
     0
 45
0.0
1001
ACAD
1000
AcDbSavedByObjectVersion
1070
     0
  0
VISUALSTYLE
  5
F9A
102
{ACAD_REACTORS
330
F86
102
}
102
{ACAD_XDICTIONARY
360
197A
102
}
330
F86
100
AcDbVisualStyle
  2
Shaded with edges
 70
    26
 71
     2
 72
     2
 73
     1
 90
        2
 40
-0.6
 41
30.0
 62
     5
 63
     7
421
 16777215
 74
     1
 91
       10
 64
     7
 65
   257
 75
     2
175
     1
 42
1.0
 92
        8
 66
   257
 43
1.0
 76
     1
 77
     6
 78
     2
 67
     7
 79
     3
170
     0
171
     0
290
     0
174
     0
 93
        5
 44
0.0
173
     0
291
     0
 45
0.0
1001
ACAD
1000
AcDbSavedByObjectVersion
1070
     0
  0
VISUALSTYLE
  5
F97
102
{ACAD_REACTORS
330
F86
102
}
102
{ACAD_XDICTIONARY
360
197C
102
}
330
F86
100
AcDbVisualStyle
  2
Shades of Gray
 70
    23
 71
     2
 72
     2
 73
     3
 90
        0
 40
-0.6
 41
-30.0
 62
     5
 63
     7
421
 16777215
 74
     2
 91
        2
 64
     7
 65
     7
 75
     1
175
     1
 42
40.0
 92
        8
 66
     7
 43
1.0
 76
     1
 77
     6
 78
     2
 67
     7
 79
     3
170
     0
171
     0
290
     0
174
     0
 93
        1
 44
0.0
173
     0
291
     0
 45
0.0
1001
ACAD
1000
AcDbSavedByObjectVersion
1070
     0
  0
VISUALSTYLE
  5
F98
102
{ACAD_REACTORS
330
F86
102
}
102
{ACAD_XDICTIONARY
360
197E
102
}
330
F86
100
AcDbVisualStyle
  2
Sketchy
 70
    24
 71
     1
 72
     2
 73
     2
 90
        0
 40
-0.6
 41
-30.0
 62
     5
 63
     7
421
 16777215
 74
     2
 91
        2
 64
     7
 65
     7
 75
     1
175
     1
 42
40.0
 92
       11
 66
     7
 43
1.0
 76
     1
 77
     6
 78
     2
 67
     7
 79
     6
170
     0
171
     0
290
     0
174
     0
 93
        1
 44
0.0
173
     0
291
     0
 45
0.0
1001
ACAD
1000
AcDbSavedByObjectVersion
1070
     0
  0
VISUALSTYLE
  5
F93
102
{ACAD_REACTORS
330
F86
102
}
102
{ACAD_XDICTIONARY
360
1980
102
}
330
F86
100
AcDbVisualStyle
  2
Thicken
 70
    13
 71
     2
 72
     2
 73
     0
 90
        0
 40
-0.6
 41
-30.0
 62
     5
 63
     7
421
 16777215
 74
     1
 91
        4
 64
     7
 65
   257
 75
     1
175
     1
 42
1.0
 92
       12
 66
     7
 43
1.0
 76
     1
 77
     6
 78
     2
 67
     7
 79
     5
170
     0
171
     0
290
     0
174
     0
 93
        1
 44
0.0
173
     0
291
     1
 45
0.0
1001
ACAD
1000
AcDbSavedByObjectVersion
1070
     0
  0
VISUALSTYLE
  5
F8D
102
{ACAD_REACTORS
330
F86
102
}
102
{ACAD_XDICTIONARY
360
1982
102
}
330
F86
100
AcDbVisualStyle
  2
Wireframe
 70
     5
 71
     0
 72
     2
 73
     0
 90
        0
 40
-0.6
 41
-30.0
 62
     5
 63
     7
421
 16777215
 74
     1
 91
        4
 64
     7
 65
   257
 75
     1
175
     1
 42
1.0
 92
        0
 66
   257
 43
1.0
 76
     1
 77
     6
 78
     2
 67
     7
 79
     3
170
     0
171
     0
290
     0
174
     0
 93
        1
 44
0.0
173
     0
291
     0
 45
0.0
1001
ACAD
1000
AcDbSavedByObjectVersion
1070
     0
  0
VISUALSTYLE
  5
F99
102
{ACAD_REACTORS
330
F86
102
}
102
{ACAD_XDICTIONARY
360
1984
102
}
330
F86
100
AcDbVisualStyle
  2
X-Ray
 70
    25
 71
     2
 72
     2
 73
     1
 90
        1
 40
0.5
 41
-30.0
 62
     5
 63
     7
421
 16777215
 74
     1
 91
        0
 64
     7
 65
   257
 75
     1
175
     1
 42
1.0
 92
        8
 66
     7
 43
1.0
 76
     1
 77
     6
 78
     2
 67
     7
 79
     3
170
     0
171
     0
290
     0
174
     0
 93
       13
 44
0.0
173
     0
291
     0
 45
0.0
1001
ACAD
1000
AcDbSavedByObjectVersion
1070
     0
  0
DICTIONARYVAR
  5
1945
102
{ACAD_REACTORS
330
A0
102
}
330
A0
100
DictionaryVariables
280
     0
  1
1:1
  0
DICTIONARYVAR
  5
1941
102
{ACAD_REACTORS
330
A0
102
}
330
A0
100
DictionaryVariables
280
     0
  1
Standard
  0
DICTIONARYVAR
  5
B0
102
{ACAD_REACTORS
330
A0
102
}
330
A0
100
DictionaryVariables
280
     0
  1
Standard
  0
DICTIONARYVAR
  5
1942
102
{ACAD_REACTORS
330
A0
102
}
330
A0
100
DictionaryVariables
280
     0
  1
Imperial24
  0
DICTIONARYVAR
  5
1943
102
{ACAD_REACTORS
330
A0
102
}
330
A0
100
DictionaryVariables
280
     0
  1
Imperial24
  0
DICTIONARYVAR
  5
A1
102
{ACAD_REACTORS
330
A0
102
}
330
A0
100
DictionaryVariables
280
     0
  1
1
  0
DICTIONARYVAR
  5
1947
102
{ACAD_REACTORS
330
A0
102
}
330
A0
100
DictionaryVariables
280
     0
  1
1
  0
DICTIONARYVAR
  5
1948
102
{ACAD_REACTORS
330
A0
102
}
330
A0
100
DictionaryVariables
280
     0
  1
15
  0
DICTIONARYVAR
  5
1946
102
{ACAD_REACTORS
330
A0
102
}
330
A0
100
DictionaryVariables
280
     0
  1
0
  0
DICTIONARYVAR
  5
1944
102
{ACAD_REACTORS
330
A0
102
}
330
A0
100
DictionaryVariables
280
     0
  1
0
  0
DICTIONARYVAR
  5
B1
102
{ACAD_REACTORS
330
A0
102
}
330
A0
100
DictionaryVariables
280
     0
  1

  0
DICTIONARYVAR
  5
1949
102
{ACAD_REACTORS
330
A0
102
}
330
A0
100
DictionaryVariables
280
     0
  1
2
  0
DICTIONARY
  5
193F
330
FB6
100
AcDbDictionary
280
     1
281
     1
  3
ACAD_XREC_ROUNDTRIP
360
1940
  0
DICTIONARY
  5
194C
330
F76
100
AcDbDictionary
280
     1
281
     1
  3
ACAD_XREC_ROUNDTRIP
360
194D
  0
DICTIONARY
  5
194E
330
F6E
100
AcDbDictionary
280
     1
281
     1
  3
ACAD_XREC_ROUNDTRIP
360
194F
  0
DICTIONARY
  5
1950
330
F7E
100
AcDbDictionary
280
     1
281
     1
  3
ACAD_XREC_ROUNDTRIP
360
1951
  0
DICTIONARY
  5
193D
330
FB4
100
AcDbDictionary
280
     1
281
     1
  3
ACAD_XREC_ROUNDTRIP
360
193E
  0
DICTIONARY
  5
1952
330
A6
100
AcDbDictionary
280
     1
281
     1
  3
ACAD_ROUNDTRIP_2008_TABLESTYLE_CELLSTYLEMAP
360
1954
  3
ACAD_XREC_ROUNDTRIP
360
1953
  0
DICTIONARY
  5
1956
330
F8C
100
AcDbDictionary
280
     1
281
     1
  3
ACAD_XREC_ROUNDTRIP
360
1957
  0
DICTIONARY
  5
1958
330
F8B
100
AcDbDictionary
280
     1
281
     1
  3
ACAD_XREC_ROUNDTRIP
360
1959
  0
DICTIONARY
  5
195A
330
F92
100
AcDbDictionary
280
     1
281
     1
  3
ACAD_XREC_ROUNDTRIP
360
195B
  0
DICTIONARY
  5
195C
330
F96
100
AcDbDictionary
280
     1
281
     1
  3
ACAD_XREC_ROUNDTRIP
360
195D
  0
DICTIONARY
  5
195E
330
F8F
100
AcDbDictionary
280
     1
281
     1
  3
ACAD_XREC_ROUNDTRIP
360
195F
  0
DICTIONARY
  5
1960
330
F91
100
AcDbDictionary
280
     1
281
     1
  3
ACAD_XREC_ROUNDTRIP
360
1961
  0
DICTIONARY
  5
1962
330
F9E
100
AcDbDictionary
280
     1
281
     1
  3
ACAD_XREC_ROUNDTRIP
360
1963
  0
DICTIONARY
  5
1964
330
F95
100
AcDbDictionary
280
     1
281
     1
  3
ACAD_XREC_ROUNDTRIP
360
1965
  0
DICTIONARY
  5
1966
330
F87
100
AcDbDictionary
280
     1
281
     1
  3
ACAD_XREC_ROUNDTRIP
360
1967
  0
DICTIONARY
  5
1968
330
F88
100
AcDbDictionary
280
     1
281
     1
  3
ACAD_XREC_ROUNDTRIP
360
1969
  0
DICTIONARY
  5
196A
330
F89
100
AcDbDictionary
280
     1
281
     1
  3
ACAD_XREC_ROUNDTRIP
360
196B
  0
DICTIONARY
  5
196C
330
F8A
100
AcDbDictionary
280
     1
281
     1
  3
ACAD_XREC_ROUNDTRIP
360
196D
  0
DICTIONARY
  5
196E
330
F8E
100
AcDbDictionary
280
     1
281
     1
  3
ACAD_XREC_ROUNDTRIP
360
196F
  0
DICTIONARY
  5
1970
330
F9C
100
AcDbDictionary
280
     1
281
     1
  3
ACAD_XREC_ROUNDTRIP
360
1971
  0
DICTIONARY
  5
1972
330
F94
100
AcDbDictionary
280
     1
281
     1
  3
ACAD_XREC_ROUNDTRIP
360
1973
  0
DICTIONARY
  5
1974
330
F9D
100
AcDbDictionary
280
     1
281
     1
  3
ACAD_XREC_ROUNDTRIP
360
1975
  0
DICTIONARY
  5
1976
330
F90
100
AcDbDictionary
280
     1
281
     1
  3
ACAD_XREC_ROUNDTRIP
360
1977
  0
DICTIONARY
  5
1978
330
F9B
100
AcDbDictionary
280
     1
281
     1
  3
ACAD_XREC_ROUNDTRIP
360
1979
  0
DICTIONARY
  5
197A
330
F9A
100
AcDbDictionary
280
     1
281
     1
  3
ACAD_XREC_ROUNDTRIP
360
197B
  0
DICTIONARY
  5
197C
330
F97
100
AcDbDictionary
280
     1
281
     1
  3
ACAD_XREC_ROUNDTRIP
360
197D
  0
DICTIONARY
  5
197E
330
F98
100
AcDbDictionary
280
     1
281
     1
  3
ACAD_XREC_ROUNDTRIP
360
197F
  0
DICTIONARY
  5
1980
330
F93
100
AcDbDictionary
280
     1
281
     1
  3
ACAD_XREC_ROUNDTRIP
360
1981
  0
DICTIONARY
  5
1982
330
F8D
100
AcDbDictionary
280
     1
281
     1
  3
ACAD_XREC_ROUNDTRIP
360
1983
  0
DICTIONARY
  5
1984
330
F99
100
AcDbDictionary
280
     1
281
     1
  3
ACAD_XREC_ROUNDTRIP
360
1985
  0
XRECORD
  5
1940
102
{ACAD_REACTORS
330
193F
102
}
330
193F
100
AcDbXrecord
280
     1
102
DISPLAYNAME
  1
Imperial24
102
FLAGS
 90
        0
  0
XRECORD
  5
194D
102
{ACAD_REACTORS
330
194C
102
}
330
194C
100
AcDbXrecord
280
     1
102
MATERIAL
148
0.0
149
0.0
149
0.0
 93
        0
 94
      127
282
     0
 72
     0
 77
     0
171
     0
175
     0
179
     0
273
     0
  0
XRECORD
  5
194F
102
{ACAD_REACTORS
330
194E
102
}
330
194E
100
AcDbXrecord
280
     1
102
MATERIAL
148
0.0
149
0.0
149
0.0
 93
        0
 94
      127
282
     0
 72
     0
 77
     0
171
     0
175
     0
179
     0
273
     0
  0
XRECORD
  5
1951
102
{ACAD_REACTORS
330
1950
102
}
330
1950
100
AcDbXrecord
280
     1
102
MATERIAL
148
0.0
149
0.0
149
0.0
 93
        0
 94
      127
282
     0
 72
     0
 77
     0
171
     0
175
     0
179
     0
273
     0
  0
XRECORD
  5
193E
102
{ACAD_REACTORS
330
193D
102
}
330
193D
100
AcDbXrecord
280
     1
102
DISPLAYNAME
  1
Imperial24
102
FLAGS
 90
        0
  0
CELLSTYLEMAP
  5
1954
102
{ACAD_REACTORS
330
1952
102
}
330
1952
100
AcDbCellStyleMap
 90
        3
300
CELLSTYLE
  1
TABLEFORMAT_BEGIN
 90
        5
170
     1
 91
        0
 92
    32768
 62
   257
 93
        1
300
CONTENTFORMAT
  1
CONTENTFORMAT_BEGIN
 90
        0
 91
        0
 92
        4
 93
        0
300

 40
0.0
140
1.0
 94
        5
 62
     0
340
F
144
0.25
309
CONTENTFORMAT_END
171
     0
 94
        6
 95
        1
302
GRIDFORMAT
  1
GRIDFORMAT_BEGIN
 90
        0
 91
        1
 62
     0
 92
       -2
340
0
 93
        0
 40
0.045
309
GRIDFORMAT_END
 95
        2
302
GRIDFORMAT
  1
GRIDFORMAT_BEGIN
 90
        0
 91
        1
 62
     0
 92
       -2
340
0
 93
        0
 40
0.045
309
GRIDFORMAT_END
 95
        4
302
GRIDFORMAT
  1
GRIDFORMAT_BEGIN
 90
        0
 91
        1
 62
     0
 92
       -2
340
0
 93
        0
 40
0.045
309
GRIDFORMAT_END
 95
        8
302
GRIDFORMAT
  1
GRIDFORMAT_BEGIN
 90
        0
 91
        1
 62
     0
 92
       -2
340
0
 93
        0
 40
0.045
309
GRIDFORMAT_END
 95
       16
302
GRIDFORMAT
  1
GRIDFORMAT_BEGIN
 90
        0
 91
        1
 62
     0
 92
       -2
340
0
 93
        0
 40
0.045
309
GRIDFORMAT_END
 95
       32
302
GRIDFORMAT
  1
GRIDFORMAT_BEGIN
 90
        0
 91
        1
 62
     0
 92
       -2
340
0
 93
        0
 40
0.045
309
GRIDFORMAT_END
309
TABLEFORMAT_END
  1
CELLSTYLE_BEGIN
 90
        1
 91
        1
300
_TITLE
309
CELLSTYLE_END
300
CELLSTYLE
  1
TABLEFORMAT_BEGIN
 90
        5
170
     1
 91
        0
 92
        0
 62
   257
 93
        1
300
CONTENTFORMAT
  1
CONTENTFORMAT_BEGIN
 90
        0
 91
        0
 92
        4
 93
        0
300

 40
0.0
140
1.0
 94
        5
 62
     0
340
F
144
0.18
309
CONTENTFORMAT_END
171
     0
 94
        6
 95
        1
302
GRIDFORMAT
  1
GRIDFORMAT_BEGIN
 90
        0
 91
        1
 62
     0
 92
       -2
340
0
 93
        0
 40
0.045
309
GRIDFORMAT_END
 95
        2
302
GRIDFORMAT
  1
GRIDFORMAT_BEGIN
 90
        0
 91
        1
 62
     0
 92
       -2
340
0
 93
        0
 40
0.045
309
GRIDFORMAT_END
 95
        4
302
GRIDFORMAT
  1
GRIDFORMAT_BEGIN
 90
        0
 91
        1
 62
     0
 92
       -2
340
0
 93
        0
 40
0.045
309
GRIDFORMAT_END
 95
        8
302
GRIDFORMAT
  1
GRIDFORMAT_BEGIN
 90
        0
 91
        1
 62
     0
 92
       -2
340
0
 93
        0
 40
0.045
309
GRIDFORMAT_END
 95
       16
302
GRIDFORMAT
  1
GRIDFORMAT_BEGIN
 90
        0
 91
        1
 62
     0
 92
       -2
340
0
 93
        0
 40
0.045
309
GRIDFORMAT_END
 95
       32
302
GRIDFORMAT
  1
GRIDFORMAT_BEGIN
 90
        0
 91
        1
 62
     0
 92
       -2
340
0
 93
        0
 40
0.045
309
GRIDFORMAT_END
309
TABLEFORMAT_END
  1
CELLSTYLE_BEGIN
 90
        2
 91
        1
300
_HEADER
309
CELLSTYLE_END
300
CELLSTYLE
  1
TABLEFORMAT_BEGIN
 90
        5
170
     1
 91
        0
 92
        0
 62
   257
 93
        1
300
CONTENTFORMAT
  1
CONTENTFORMAT_BEGIN
 90
        0
 91
        0
 92
        4
 93
        0
300

 40
0.0
140
1.0
 94
        2
 62
     0
340
F
144
0.18
309
CONTENTFORMAT_END
171
     0
 94
        6
 95
        1
302
GRIDFORMAT
  1
GRIDFORMAT_BEGIN
 90
        0
 91
        1
 62
     0
 92
       -2
340
0
 93
        0
 40
0.045
309
GRIDFORMAT_END
 95
        2
302
GRIDFORMAT
  1
GRIDFORMAT_BEGIN
 90
        0
 91
        1
 62
     0
 92
       -2
340
0
 93
        0
 40
0.045
309
GRIDFORMAT_END
 95
        4
302
GRIDFORMAT
  1
GRIDFORMAT_BEGIN
 90
        0
 91
        1
 62
     0
 92
       -2
340
0
 93
        0
 40
0.045
309
GRIDFORMAT_END
 95
        8
302
GRIDFORMAT
  1
GRIDFORMAT_BEGIN
 90
        0
 91
        1
 62
     0
 92
       -2
340
0
 93
        0
 40
0.045
309
GRIDFORMAT_END
 95
       16
302
GRIDFORMAT
  1
GRIDFORMAT_BEGIN
 90
        0
 91
        1
 62
     0
 92
       -2
340
0
 93
        0
 40
0.045
309
GRIDFORMAT_END
 95
       32
302
GRIDFORMAT
  1
GRIDFORMAT_BEGIN
 90
        0
 91
        1
 62
     0
 92
       -2
340
0
 93
        0
 40
0.045
309
GRIDFORMAT_END
309
TABLEFORMAT_END
  1
CELLSTYLE_BEGIN
 90
        3
 91
        2
300
_DATA
309
CELLSTYLE_END
  0
XRECORD
  5
1953
102
{ACAD_REACTORS
330
1952
102
}
330
1952
100
AcDbXrecord
280
     1
102
ACAD_ROUNDTRIP_PRE2007_TABLESTYLE
 90
        4
 91
        0
  1

 92
        4
 93
        0
  2

 94
        4
 95
        0
  3

  0
XRECORD
  5
1957
102
{ACAD_REACTORS
330
1956
102
}
330
1956
100
AcDbXrecord
280
     1
102
RTVSPropertyOp0
 70
     1
102
RTVSPropertyOp1
 70
     1
102
RTVSPropertyOp2
 70
     1
102
RTVSPropertyOp3
 70
     1
102
RTVSPropertyOp4
 70
     1
102
RTVSPropertyOp5
 70
     1
102
RTVSPropertyOp6
 70
     1
102
RTVSPropertyOp7
 70
     1
102
RTVSPropertyOp8
 70
     1
102
RTVSPropertyOp9
 70
     1
102
RTVSPropertyOp10
 70
     1
102
RTVSPropertyOp11
 70
     1
102
RTVSPropertyOp12
 70
     1
102
RTVSPropertyOp13
 70
     1
102
RTVSPropertyOp14
 70
     1
102
RTVSPropertyOp15
 70
     1
102
RTVSPropertyOp16
 70
     1
102
RTVSPropertyOp17
 70
     1
102
RTVSPropertyOp18
 70
     1
102
RTVSPropertyOp19
 70
     1
102
RTVSPropertyOp20
 70
     1
102
RTVSPropertyOp21
 70
     1
102
RTVSPropertyOp22
 70
     1
102
RTVSPropertyOp23
 70
     1
102
RTVSPropertyOp24
 70
     1
102
RTVSPropertyOp25
 70
     1
102
RTVSPropertyOp26
 70
     1
102
RTVSPropertyOp27
 70
     1
  0
XRECORD
  5
1959
102
{ACAD_REACTORS
330
1958
102
}
330
1958
100
AcDbXrecord
280
     1
102
RTVSPropertyOp0
 70
     1
102
RTVSPropertyOp1
 70
     1
102
RTVSPropertyOp2
 70
     1
102
RTVSPropertyOp3
 70
     1
102
RTVSPropertyOp4
 70
     1
102
RTVSPropertyOp5
 70
     1
102
RTVSPropertyOp6
 70
     1
102
RTVSPropertyOp7
 70
     1
102
RTVSPropertyOp8
 70
     1
102
RTVSPropertyOp9
 70
     1
102
RTVSPropertyOp10
 70
     1
102
RTVSPropertyOp11
 70
     1
102
RTVSPropertyOp12
 70
     1
102
RTVSPropertyOp13
 70
     1
102
RTVSPropertyOp14
 70
     1
102
RTVSPropertyOp15
 70
     1
102
RTVSPropertyOp16
 70
     1
102
RTVSPropertyOp17
 70
     1
102
RTVSPropertyOp18
 70
     1
102
RTVSPropertyOp19
 70
     1
102
RTVSPropertyOp20
 70
     1
102
RTVSPropertyOp21
 70
     1
102
RTVSPropertyOp22
 70
     1
102
RTVSPropertyOp23
 70
     1
102
RTVSPropertyOp24
 70
     1
102
RTVSPropertyOp25
 70
     1
102
RTVSPropertyOp26
 70
     1
102
RTVSPropertyOp27
 70
     1
  0
XRECORD
  5
195B
102
{ACAD_REACTORS
330
195A
102
}
330
195A
100
AcDbXrecord
280
     1
102
RTVSPropertyOp0
 70
     1
102
RTVSPropertyOp1
 70
     1
102
RTVSPropertyOp2
 70
     1
102
RTVSPropertyOp3
 70
     1
102
RTVSPropertyOp4
 70
     1
102
RTVSPropertyOp5
 70
     1
102
RTVSPropertyOp6
 70
     1
102
RTVSPropertyOp7
 70
     1
102
RTVSPropertyOp8
 70
     1
102
RTVSPropertyOp9
 70
     1
102
RTVSPropertyOp10
 70
     1
102
RTVSPropertyOp11
 70
     1
102
RTVSPropertyOp12
 70
     1
102
RTVSPropertyOp13
 70
     1
102
RTVSPropertyOp14
 70
     1
102
RTVSPropertyOp15
 70
     1
102
RTVSPropertyOp16
 70
     1
102
RTVSPropertyOp17
 70
     1
102
RTVSPropertyOp18
 70
     1
102
RTVSPropertyOp19
 70
     1
102
RTVSPropertyOp20
 70
     1
102
RTVSPropertyOp21
 70
     1
102
RTVSPropertyOp22
 70
     1
102
RTVSPropertyOp23
 70
     1
102
RTVSPropertyOp24
 70
     1
102
RTVSPropertyOp25
 70
     1
102
RTVSPropertyOp26
 70
     1
102
RTVSPropertyOp27
 70
     1
  0
XRECORD
  5
195D
102
{ACAD_REACTORS
330
195C
102
}
330
195C
100
AcDbXrecord
280
     1
102
RTVSPropertyOp0
 70
     1
102
RTVSPropertyOp1
 70
     1
102
RTVSPropertyOp2
 70
     1
102
RTVSPropertyOp3
 70
     1
102
RTVSPropertyOp4
 70
     1
102
RTVSPropertyOp5
 70
     1
102
RTVSPropertyOp6
 70
     1
102
RTVSPropertyOp7
 70
     1
102
RTVSPropertyOp8
 70
     1
102
RTVSPropertyOp9
 70
     1
102
RTVSPropertyOp10
 70
     1
102
RTVSPropertyOp11
 70
     1
102
RTVSPropertyOp12
 70
     1
102
RTVSPropertyOp13
 70
     1
102
RTVSPropertyOp14
 70
     1
102
RTVSPropertyOp15
 70
     1
102
RTVSPropertyOp16
 70
     1
102
RTVSPropertyOp17
 70
     1
102
RTVSPropertyOp18
 70
     1
102
RTVSPropertyOp19
 70
     1
102
RTVSPropertyOp20
 70
     1
102
RTVSPropertyOp21
 70
     1
102
RTVSPropertyOp22
 70
     1
102
RTVSPropertyOp23
 70
     1
102
RTVSPropertyOp24
 70
     1
102
RTVSPropertyOp25
 70
     1
102
RTVSPropertyOp26
 70
     1
102
RTVSPropertyOp27
 70
     1
  0
XRECORD
  5
195F
102
{ACAD_REACTORS
330
195E
102
}
330
195E
100
AcDbXrecord
280
     1
102
RTVSPropertyOp0
 70
     1
102
RTVSPropertyOp1
 70
     1
102
RTVSPropertyOp2
 70
     1
102
RTVSPropertyOp3
 70
     1
102
RTVSPropertyOp4
 70
     1
102
RTVSPropertyOp5
 70
     1
102
RTVSPropertyOp6
 70
     1
102
RTVSPropertyOp7
 70
     1
102
RTVSPropertyOp8
 70
     1
102
RTVSPropertyOp9
 70
     1
102
RTVSPropertyOp10
 70
     1
102
RTVSPropertyOp11
 70
     1
102
RTVSPropertyOp12
 70
     1
102
RTVSPropertyOp13
 70
     1
102
RTVSPropertyOp14
 70
     1
102
RTVSPropertyOp15
 70
     1
102
RTVSPropertyOp16
 70
     1
102
RTVSPropertyOp17
 70
     1
102
RTVSPropertyOp18
 70
     1
102
RTVSPropertyOp19
 70
     1
102
RTVSPropertyOp20
 70
     1
102
RTVSPropertyOp21
 70
     1
102
RTVSPropertyOp22
 70
     1
102
RTVSPropertyOp23
 70
     1
102
RTVSPropertyOp24
 70
     1
102
RTVSPropertyOp25
 70
     1
102
RTVSPropertyOp26
 70
     1
102
RTVSPropertyOp27
 70
     1
  0
XRECORD
  5
1961
102
{ACAD_REACTORS
330
1960
102
}
330
1960
100
AcDbXrecord
280
     1
102
RTVSPropertyOp0
 70
     1
102
RTVSPropertyOp1
 70
     1
102
RTVSPropertyOp2
 70
     1
102
RTVSPropertyOp3
 70
     1
102
RTVSPropertyOp4
 70
     1
102
RTVSPropertyOp5
 70
     1
102
RTVSPropertyOp6
 70
     1
102
RTVSPropertyOp7
 70
     1
102
RTVSPropertyOp8
 70
     1
102
RTVSPropertyOp9
 70
     1
102
RTVSPropertyOp10
 70
     1
102
RTVSPropertyOp11
 70
     1
102
RTVSPropertyOp12
 70
     1
102
RTVSPropertyOp13
 70
     1
102
RTVSPropertyOp14
 70
     1
102
RTVSPropertyOp15
 70
     1
102
RTVSPropertyOp16
 70
     1
102
RTVSPropertyOp17
 70
     1
102
RTVSPropertyOp18
 70
     1
102
RTVSPropertyOp19
 70
     1
102
RTVSPropertyOp20
 70
     1
102
RTVSPropertyOp21
 70
     1
102
RTVSPropertyOp22
 70
     1
102
RTVSPropertyOp23
 70
     1
102
RTVSPropertyOp24
 70
     1
102
RTVSPropertyOp25
 70
     1
102
RTVSPropertyOp26
 70
     1
102
RTVSPropertyOp27
 70
     1
  0
XRECORD
  5
1963
102
{ACAD_REACTORS
330
1962
102
}
330
1962
100
AcDbXrecord
280
     1
102
RTVSPropertyOp0
 70
     1
102
RTVSPropertyOp1
 70
     1
102
RTVSPropertyOp2
 70
     1
102
RTVSPropertyOp3
 70
     1
102
RTVSPropertyOp4
 70
     1
102
RTVSPropertyOp5
 70
     1
102
RTVSPropertyOp6
 70
     1
102
RTVSPropertyOp7
 70
     1
102
RTVSPropertyOp8
 70
     1
102
RTVSPropertyOp9
 70
     1
102
RTVSPropertyOp10
 70
     1
102
RTVSPropertyOp11
 70
     1
102
RTVSPropertyOp12
 70
     1
102
RTVSPropertyOp13
 70
     1
102
RTVSPropertyOp14
 70
     1
102
RTVSPropertyOp15
 70
     1
102
RTVSPropertyOp16
 70
     1
102
RTVSPropertyOp17
 70
     1
102
RTVSPropertyOp18
 70
     1
102
RTVSPropertyOp19
 70
     1
102
RTVSPropertyOp20
 70
     1
102
RTVSPropertyOp21
 70
     1
102
RTVSPropertyOp22
 70
     1
102
RTVSPropertyOp23
 70
     1
102
RTVSPropertyOp24
 70
     1
102
RTVSPropertyOp25
 70
     1
102
RTVSPropertyOp26
 70
     1
102
RTVSPropertyOp27
 70
     1
  0
XRECORD
  5
1965
102
{ACAD_REACTORS
330
1964
102
}
330
1964
100
AcDbXrecord
280
     1
102
RTVSPropertyOp0
 70
     1
102
RTVSPropertyOp1
 70
     1
102
RTVSPropertyOp2
 70
     1
102
RTVSPropertyOp3
 70
     1
102
RTVSPropertyOp4
 70
     1
102
RTVSPropertyOp5
 70
     1
102
RTVSPropertyOp6
 70
     1
102
RTVSPropertyOp7
 70
     1
102
RTVSPropertyOp8
 70
     1
102
RTVSPropertyOp9
 70
     1
102
RTVSPropertyOp10
 70
     1
102
RTVSPropertyOp11
 70
     1
102
RTVSPropertyOp12
 70
     1
102
RTVSPropertyOp13
 70
     1
102
RTVSPropertyOp14
 70
     1
102
RTVSPropertyOp15
 70
     1
102
RTVSPropertyOp16
 70
     1
102
RTVSPropertyOp17
 70
     1
102
RTVSPropertyOp18
 70
     1
102
RTVSPropertyOp19
 70
     1
102
RTVSPropertyOp20
 70
     1
102
RTVSPropertyOp21
 70
     1
102
RTVSPropertyOp22
 70
     1
102
RTVSPropertyOp23
 70
     1
102
RTVSPropertyOp24
 70
     1
102
RTVSPropertyOp25
 70
     1
102
RTVSPropertyOp26
 70
     1
102
RTVSPropertyOp27
 70
     1
  0
XRECORD
  5
1967
102
{ACAD_REACTORS
330
1966
102
}
330
1966
100
AcDbXrecord
280
     1
102
RTVSPropertyOp0
 70
     1
102
RTVSPropertyOp1
 70
     1
102
RTVSPropertyOp2
 70
     1
102
RTVSPropertyOp3
 70
     1
102
RTVSPropertyOp4
 70
     1
102
RTVSPropertyOp5
 70
     1
102
RTVSPropertyOp6
 70
     1
102
RTVSPropertyOp7
 70
     1
102
RTVSPropertyOp8
 70
     1
102
RTVSPropertyOp9
 70
     1
102
RTVSPropertyOp10
 70
     1
102
RTVSPropertyOp11
 70
     1
102
RTVSPropertyOp12
 70
     1
102
RTVSPropertyOp13
 70
     1
102
RTVSPropertyOp14
 70
     1
102
RTVSPropertyOp15
 70
     1
102
RTVSPropertyOp16
 70
     1
102
RTVSPropertyOp17
 70
     1
102
RTVSPropertyOp18
 70
     1
102
RTVSPropertyOp19
 70
     1
102
RTVSPropertyOp20
 70
     1
102
RTVSPropertyOp21
 70
     1
102
RTVSPropertyOp22
 70
     1
102
RTVSPropertyOp23
 70
     1
102
RTVSPropertyOp24
 70
     1
102
RTVSPropertyOp25
 70
     1
102
RTVSPropertyOp26
 70
     1
102
RTVSPropertyOp27
 70
     1
  0
XRECORD
  5
1969
102
{ACAD_REACTORS
330
1968
102
}
330
1968
100
AcDbXrecord
280
     1
102
RTVSPropertyOp0
 70
     1
102
RTVSPropertyOp1
 70
     1
102
RTVSPropertyOp2
 70
     1
102
RTVSPropertyOp3
 70
     1
102
RTVSPropertyOp4
 70
     1
102
RTVSPropertyOp5
 70
     1
102
RTVSPropertyOp6
 70
     1
102
RTVSPropertyOp7
 70
     1
102
RTVSPropertyOp8
 70
     1
102
RTVSPropertyOp9
 70
     1
102
RTVSPropertyOp10
 70
     1
102
RTVSPropertyOp11
 70
     1
102
RTVSPropertyOp12
 70
     1
102
RTVSPropertyOp13
 70
     1
102
RTVSPropertyOp14
 70
     1
102
RTVSPropertyOp15
 70
     1
102
RTVSPropertyOp16
 70
     1
102
RTVSPropertyOp17
 70
     1
102
RTVSPropertyOp18
 70
     1
102
RTVSPropertyOp19
 70
     1
102
RTVSPropertyOp20
 70
     1
102
RTVSPropertyOp21
 70
     1
102
RTVSPropertyOp22
 70
     1
102
RTVSPropertyOp23
 70
     1
102
RTVSPropertyOp24
 70
     1
102
RTVSPropertyOp25
 70
     1
102
RTVSPropertyOp26
 70
     1
102
RTVSPropertyOp27
 70
     1
  0
XRECORD
  5
196B
102
{ACAD_REACTORS
330
196A
102
}
330
196A
100
AcDbXrecord
280
     1
102
RTVSPropertyOp0
 70
     1
102
RTVSPropertyOp1
 70
     1
102
RTVSPropertyOp2
 70
     1
102
RTVSPropertyOp3
 70
     1
102
RTVSPropertyOp4
 70
     1
102
RTVSPropertyOp5
 70
     1
102
RTVSPropertyOp6
 70
     1
102
RTVSPropertyOp7
 70
     1
102
RTVSPropertyOp8
 70
     1
102
RTVSPropertyOp9
 70
     1
102
RTVSPropertyOp10
 70
     1
102
RTVSPropertyOp11
 70
     1
102
RTVSPropertyOp12
 70
     1
102
RTVSPropertyOp13
 70
     1
102
RTVSPropertyOp14
 70
     1
102
RTVSPropertyOp15
 70
     1
102
RTVSPropertyOp16
 70
     1
102
RTVSPropertyOp17
 70
     1
102
RTVSPropertyOp18
 70
     1
102
RTVSPropertyOp19
 70
     1
102
RTVSPropertyOp20
 70
     1
102
RTVSPropertyOp21
 70
     1
102
RTVSPropertyOp22
 70
     1
102
RTVSPropertyOp23
 70
     1
102
RTVSPropertyOp24
 70
     1
102
RTVSPropertyOp25
 70
     1
102
RTVSPropertyOp26
 70
     1
102
RTVSPropertyOp27
 70
     1
  0
XRECORD
  5
196D
102
{ACAD_REACTORS
330
196C
102
}
330
196C
100
AcDbXrecord
280
     1
102
RTVSPropertyOp0
 70
     1
102
RTVSPropertyOp1
 70
     1
102
RTVSPropertyOp2
 70
     1
102
RTVSPropertyOp3
 70
     1
102
RTVSPropertyOp4
 70
     1
102
RTVSPropertyOp5
 70
     1
102
RTVSPropertyOp6
 70
     1
102
RTVSPropertyOp7
 70
     1
102
RTVSPropertyOp8
 70
     1
102
RTVSPropertyOp9
 70
     1
102
RTVSPropertyOp10
 70
     1
102
RTVSPropertyOp11
 70
     1
102
RTVSPropertyOp12
 70
     1
102
RTVSPropertyOp13
 70
     1
102
RTVSPropertyOp14
 70
     1
102
RTVSPropertyOp15
 70
     1
102
RTVSPropertyOp16
 70
     1
102
RTVSPropertyOp17
 70
     1
102
RTVSPropertyOp18
 70
     1
102
RTVSPropertyOp19
 70
     1
102
RTVSPropertyOp20
 70
     1
102
RTVSPropertyOp21
 70
     1
102
RTVSPropertyOp22
 70
     1
102
RTVSPropertyOp23
 70
     1
102
RTVSPropertyOp24
 70
     1
102
RTVSPropertyOp25
 70
     1
102
RTVSPropertyOp26
 70
     1
102
RTVSPropertyOp27
 70
     1
  0
XRECORD
  5
196F
102
{ACAD_REACTORS
330
196E
102
}
330
196E
100
AcDbXrecord
280
     1
102
RTVSPropertyOp0
 70
     1
102
RTVSPropertyOp1
 70
     1
102
RTVSPropertyOp2
 70
     1
102
RTVSPropertyOp3
 70
     1
102
RTVSPropertyOp4
 70
     1
102
RTVSPropertyOp5
 70
     1
102
RTVSPropertyOp6
 70
     1
102
RTVSPropertyOp7
 70
     1
102
RTVSPropertyOp8
 70
     1
102
RTVSPropertyOp9
 70
     1
102
RTVSPropertyOp10
 70
     1
102
RTVSPropertyOp11
 70
     1
102
RTVSPropertyOp12
 70
     1
102
RTVSPropertyOp13
 70
     1
102
RTVSPropertyOp14
 70
     1
102
RTVSPropertyOp15
 70
     1
102
RTVSPropertyOp16
 70
     1
102
RTVSPropertyOp17
 70
     1
102
RTVSPropertyOp18
 70
     1
102
RTVSPropertyOp19
 70
     1
102
RTVSPropertyOp20
 70
     1
102
RTVSPropertyOp21
 70
     1
102
RTVSPropertyOp22
 70
     1
102
RTVSPropertyOp23
 70
     1
102
RTVSPropertyOp24
 70
     1
102
RTVSPropertyOp25
 70
     1
102
RTVSPropertyOp26
 70
     1
102
RTVSPropertyOp27
 70
     1
  0
XRECORD
  5
1971
102
{ACAD_REACTORS
330
1970
102
}
330
1970
100
AcDbXrecord
280
     1
102
RTVSPropertyOp0
 70
     1
102
RTVSPropertyOp1
 70
     1
102
RTVSPropertyOp2
 70
     1
102
RTVSPropertyOp3
 70
     1
102
RTVSPropertyOp4
 70
     1
102
RTVSPropertyOp5
 70
     1
102
RTVSPropertyOp6
 70
     1
102
RTVSPropertyOp7
 70
     1
102
RTVSPropertyOp8
 70
     1
102
RTVSPropertyOp9
 70
     1
102
RTVSPropertyOp10
 70
     1
102
RTVSPropertyOp11
 70
     1
102
RTVSPropertyOp12
 70
     1
102
RTVSPropertyOp13
 70
     1
102
RTVSPropertyOp14
 70
     1
102
RTVSPropertyOp15
 70
     1
102
RTVSPropertyOp16
 70
     1
102
RTVSPropertyOp17
 70
     1
102
RTVSPropertyOp18
 70
     1
102
RTVSPropertyOp19
 70
     1
102
RTVSPropertyOp20
 70
     1
102
RTVSPropertyOp21
 70
     1
102
RTVSPropertyOp22
 70
     1
102
RTVSPropertyOp23
 70
     1
102
RTVSPropertyOp24
 70
     1
102
RTVSPropertyOp25
 70
     1
102
RTVSPropertyOp26
 70
     1
102
RTVSPropertyOp27
 70
     1
  0
XRECORD
  5
1973
102
{ACAD_REACTORS
330
1972
102
}
330
1972
100
AcDbXrecord
280
     1
102
RTVSPropertyOp0
 70
     1
102
RTVSPropertyOp1
 70
     1
102
RTVSPropertyOp2
 70
     1
102
RTVSPropertyOp3
 70
     1
102
RTVSPropertyOp4
 70
     1
102
RTVSPropertyOp5
 70
     1
102
RTVSPropertyOp6
 70
     1
102
RTVSPropertyOp7
 70
     1
102
RTVSPropertyOp8
 70
     1
102
RTVSPropertyOp9
 70
     1
102
RTVSPropertyOp10
 70
     1
102
RTVSPropertyOp11
 70
     1
102
RTVSPropertyOp12
 70
     1
102
RTVSPropertyOp13
 70
     1
102
RTVSPropertyOp14
 70
     1
102
RTVSPropertyOp15
 70
     1
102
RTVSPropertyOp16
 70
     1
102
RTVSPropertyOp17
 70
     1
102
RTVSPropertyOp18
 70
     1
102
RTVSPropertyOp19
 70
     1
102
RTVSPropertyOp20
 70
     1
102
RTVSPropertyOp21
 70
     1
102
RTVSPropertyOp22
 70
     1
102
RTVSPropertyOp23
 70
     1
102
RTVSPropertyOp24
 70
     1
102
RTVSPropertyOp25
 70
     1
102
RTVSPropertyOp26
 70
     1
102
RTVSPropertyOp27
 70
     1
  0
XRECORD
  5
1975
102
{ACAD_REACTORS
330
1974
102
}
330
1974
100
AcDbXrecord
280
     1
102
RTVSPropertyOp0
 70
     1
102
RTVSPropertyOp1
 70
     1
102
RTVSPropertyOp2
 70
     1
102
RTVSPropertyOp3
 70
     1
102
RTVSPropertyOp4
 70
     1
102
RTVSPropertyOp5
 70
     1
102
RTVSPropertyOp6
 70
     1
102
RTVSPropertyOp7
 70
     1
102
RTVSPropertyOp8
 70
     1
102
RTVSPropertyOp9
 70
     1
102
RTVSPropertyOp10
 70
     1
102
RTVSPropertyOp11
 70
     1
102
RTVSPropertyOp12
 70
     1
102
RTVSPropertyOp13
 70
     1
102
RTVSPropertyOp14
 70
     1
102
RTVSPropertyOp15
 70
     1
102
RTVSPropertyOp16
 70
     1
102
RTVSPropertyOp17
 70
     1
102
RTVSPropertyOp18
 70
     1
102
RTVSPropertyOp19
 70
     1
102
RTVSPropertyOp20
 70
     1
102
RTVSPropertyOp21
 70
     1
102
RTVSPropertyOp22
 70
     1
102
RTVSPropertyOp23
 70
     1
102
RTVSPropertyOp24
 70
     1
102
RTVSPropertyOp25
 70
     1
102
RTVSPropertyOp26
 70
     1
102
RTVSPropertyOp27
 70
     1
  0
XRECORD
  5
1977
102
{ACAD_REACTORS
330
1976
102
}
330
1976
100
AcDbXrecord
280
     1
102
RTVSPropertyOp0
 70
     1
102
RTVSPropertyOp1
 70
     1
102
RTVSPropertyOp2
 70
     1
102
RTVSPropertyOp3
 70
     1
102
RTVSPropertyOp4
 70
     1
102
RTVSPropertyOp5
 70
     1
102
RTVSPropertyOp6
 70
     1
102
RTVSPropertyOp7
 70
     1
102
RTVSPropertyOp8
 70
     1
102
RTVSPropertyOp9
 70
     1
102
RTVSPropertyOp10
 70
     1
102
RTVSPropertyOp11
 70
     1
102
RTVSPropertyOp12
 70
     1
102
RTVSPropertyOp13
 70
     1
102
RTVSPropertyOp14
 70
     1
102
RTVSPropertyOp15
 70
     1
102
RTVSPropertyOp16
 70
     1
102
RTVSPropertyOp17
 70
     1
102
RTVSPropertyOp18
 70
     1
102
RTVSPropertyOp19
 70
     1
102
RTVSPropertyOp20
 70
     1
102
RTVSPropertyOp21
 70
     1
102
RTVSPropertyOp22
 70
     1
102
RTVSPropertyOp23
 70
     1
102
RTVSPropertyOp24
 70
     1
102
RTVSPropertyOp25
 70
     1
102
RTVSPropertyOp26
 70
     1
102
RTVSPropertyOp27
 70
     1
  0
XRECORD
  5
1979
102
{ACAD_REACTORS
330
1978
102
}
330
1978
100
AcDbXrecord
280
     1
102
RTVSPropertyOp0
 70
     1
102
RTVSPropertyOp1
 70
     1
102
RTVSPropertyOp2
 70
     1
102
RTVSPropertyOp3
 70
     1
102
RTVSPropertyOp4
 70
     1
102
RTVSPropertyOp5
 70
     1
102
RTVSPropertyOp6
 70
     1
102
RTVSPropertyOp7
 70
     1
102
RTVSPropertyOp8
 70
     1
102
RTVSPropertyOp9
 70
     1
102
RTVSPropertyOp10
 70
     1
102
RTVSPropertyOp11
 70
     1
102
RTVSPropertyOp12
 70
     1
102
RTVSPropertyOp13
 70
     1
102
RTVSPropertyOp14
 70
     1
102
RTVSPropertyOp15
 70
     1
102
RTVSPropertyOp16
 70
     1
102
RTVSPropertyOp17
 70
     1
102
RTVSPropertyOp18
 70
     1
102
RTVSPropertyOp19
 70
     1
102
RTVSPropertyOp20
 70
     1
102
RTVSPropertyOp21
 70
     1
102
RTVSPropertyOp22
 70
     1
102
RTVSPropertyOp23
 70
     1
102
RTVSPropertyOp24
 70
     1
102
RTVSPropertyOp25
 70
     1
102
RTVSPropertyOp26
 70
     1
102
RTVSPropertyOp27
 70
     1
  0
XRECORD
  5
197B
102
{ACAD_REACTORS
330
197A
102
}
330
197A
100
AcDbXrecord
280
     1
102
RTVSPropertyOp0
 70
     1
102
RTVSPropertyOp1
 70
     1
102
RTVSPropertyOp2
 70
     1
102
RTVSPropertyOp3
 70
     1
102
RTVSPropertyOp4
 70
     1
102
RTVSPropertyOp5
 70
     1
102
RTVSPropertyOp6
 70
     1
102
RTVSPropertyOp7
 70
     1
102
RTVSPropertyOp8
 70
     1
102
RTVSPropertyOp9
 70
     1
102
RTVSPropertyOp10
 70
     1
102
RTVSPropertyOp11
 70
     1
102
RTVSPropertyOp12
 70
     1
102
RTVSPropertyOp13
 70
     1
102
RTVSPropertyOp14
 70
     1
102
RTVSPropertyOp15
 70
     1
102
RTVSPropertyOp16
 70
     1
102
RTVSPropertyOp17
 70
     1
102
RTVSPropertyOp18
 70
     1
102
RTVSPropertyOp19
 70
     1
102
RTVSPropertyOp20
 70
     1
102
RTVSPropertyOp21
 70
     1
102
RTVSPropertyOp22
 70
     1
102
RTVSPropertyOp23
 70
     1
102
RTVSPropertyOp24
 70
     1
102
RTVSPropertyOp25
 70
     1
102
RTVSPropertyOp26
 70
     1
102
RTVSPropertyOp27
 70
     1
  0
XRECORD
  5
197D
102
{ACAD_REACTORS
330
197C
102
}
330
197C
100
AcDbXrecord
280
     1
102
RTVSPropertyOp0
 70
     1
102
RTVSPropertyOp1
 70
     1
102
RTVSPropertyOp2
 70
     1
102
RTVSPropertyOp3
 70
     1
102
RTVSPropertyOp4
 70
     1
102
RTVSPropertyOp5
 70
     1
102
RTVSPropertyOp6
 70
     1
102
RTVSPropertyOp7
 70
     1
102
RTVSPropertyOp8
 70
     1
102
RTVSPropertyOp9
 70
     1
102
RTVSPropertyOp10
 70
     1
102
RTVSPropertyOp11
 70
     1
102
RTVSPropertyOp12
 70
     1
102
RTVSPropertyOp13
 70
     1
102
RTVSPropertyOp14
 70
     1
102
RTVSPropertyOp15
 70
     1
102
RTVSPropertyOp16
 70
     1
102
RTVSPropertyOp17
 70
     1
102
RTVSPropertyOp18
 70
     1
102
RTVSPropertyOp19
 70
     1
102
RTVSPropertyOp20
 70
     1
102
RTVSPropertyOp21
 70
     1
102
RTVSPropertyOp22
 70
     1
102
RTVSPropertyOp23
 70
     1
102
RTVSPropertyOp24
 70
     1
102
RTVSPropertyOp25
 70
     1
102
RTVSPropertyOp26
 70
     1
102
RTVSPropertyOp27
 70
     1
  0
XRECORD
  5
197F
102
{ACAD_REACTORS
330
197E
102
}
330
197E
100
AcDbXrecord
280
     1
102
RTVSPropertyOp0
 70
     1
102
RTVSPropertyOp1
 70
     1
102
RTVSPropertyOp2
 70
     1
102
RTVSPropertyOp3
 70
     1
102
RTVSPropertyOp4
 70
     1
102
RTVSPropertyOp5
 70
     1
102
RTVSPropertyOp6
 70
     1
102
RTVSPropertyOp7
 70
     1
102
RTVSPropertyOp8
 70
     1
102
RTVSPropertyOp9
 70
     1
102
RTVSPropertyOp10
 70
     1
102
RTVSPropertyOp11
 70
     1
102
RTVSPropertyOp12
 70
     1
102
RTVSPropertyOp13
 70
     1
102
RTVSPropertyOp14
 70
     1
102
RTVSPropertyOp15
 70
     1
102
RTVSPropertyOp16
 70
     1
102
RTVSPropertyOp17
 70
     1
102
RTVSPropertyOp18
 70
     1
102
RTVSPropertyOp19
 70
     1
102
RTVSPropertyOp20
 70
     1
102
RTVSPropertyOp21
 70
     1
102
RTVSPropertyOp22
 70
     1
102
RTVSPropertyOp23
 70
     1
102
RTVSPropertyOp24
 70
     1
102
RTVSPropertyOp25
 70
     1
102
RTVSPropertyOp26
 70
     1
102
RTVSPropertyOp27
 70
     1
  0
XRECORD
  5
1981
102
{ACAD_REACTORS
330
1980
102
}
330
1980
100
AcDbXrecord
280
     1
102
RTVSPropertyOp0
 70
     1
102
RTVSPropertyOp1
 70
     1
102
RTVSPropertyOp2
 70
     1
102
RTVSPropertyOp3
 70
     1
102
RTVSPropertyOp4
 70
     1
102
RTVSPropertyOp5
 70
     1
102
RTVSPropertyOp6
 70
     1
102
RTVSPropertyOp7
 70
     1
102
RTVSPropertyOp8
 70
     1
102
RTVSPropertyOp9
 70
     1
102
RTVSPropertyOp10
 70
     1
102
RTVSPropertyOp11
 70
     1
102
RTVSPropertyOp12
 70
     1
102
RTVSPropertyOp13
 70
     1
102
RTVSPropertyOp14
 70
     1
102
RTVSPropertyOp15
 70
     1
102
RTVSPropertyOp16
 70
     1
102
RTVSPropertyOp17
 70
     1
102
RTVSPropertyOp18
 70
     1
102
RTVSPropertyOp19
 70
     1
102
RTVSPropertyOp20
 70
     1
102
RTVSPropertyOp21
 70
     1
102
RTVSPropertyOp22
 70
     1
102
RTVSPropertyOp23
 70
     1
102
RTVSPropertyOp24
 70
     1
102
RTVSPropertyOp25
 70
     1
102
RTVSPropertyOp26
 70
     1
102
RTVSPropertyOp27
 70
     1
  0
XRECORD
  5
1983
102
{ACAD_REACTORS
330
1982
102
}
330
1982
100
AcDbXrecord
280
     1
102
RTVSPropertyOp0
 70
     1
102
RTVSPropertyOp1
 70
     1
102
RTVSPropertyOp2
 70
     1
102
RTVSPropertyOp3
 70
     1
102
RTVSPropertyOp4
 70
     1
102
RTVSPropertyOp5
 70
     1
102
RTVSPropertyOp6
 70
     1
102
RTVSPropertyOp7
 70
     1
102
RTVSPropertyOp8
 70
     1
102
RTVSPropertyOp9
 70
     1
102
RTVSPropertyOp10
 70
     1
102
RTVSPropertyOp11
 70
     1
102
RTVSPropertyOp12
 70
     1
102
RTVSPropertyOp13
 70
     1
102
RTVSPropertyOp14
 70
     1
102
RTVSPropertyOp15
 70
     1
102
RTVSPropertyOp16
 70
     1
102
RTVSPropertyOp17
 70
     1
102
RTVSPropertyOp18
 70
     1
102
RTVSPropertyOp19
 70
     1
102
RTVSPropertyOp20
 70
     1
102
RTVSPropertyOp21
 70
     1
102
RTVSPropertyOp22
 70
     1
102
RTVSPropertyOp23
 70
     1
102
RTVSPropertyOp24
 70
     1
102
RTVSPropertyOp25
 70
     1
102
RTVSPropertyOp26
 70
     1
102
RTVSPropertyOp27
 70
     1
  0
XRECORD
  5
1985
102
{ACAD_REACTORS
330
1984
102
}
330
1984
100
AcDbXrecord
280
     1
102
RTVSPropertyOp0
 70
     1
102
RTVSPropertyOp1
 70
     1
102
RTVSPropertyOp2
 70
     1
102
RTVSPropertyOp3
 70
     1
102
RTVSPropertyOp4
 70
     1
102
RTVSPropertyOp5
 70
     1
102
RTVSPropertyOp6
 70
     1
102
RTVSPropertyOp7
 70
     1
102
RTVSPropertyOp8
 70
     1
102
RTVSPropertyOp9
 70
     1
102
RTVSPropertyOp10
 70
     1
102
RTVSPropertyOp11
 70
     1
102
RTVSPropertyOp12
 70
     1
102
RTVSPropertyOp13
 70
     1
102
RTVSPropertyOp14
 70
     1
102
RTVSPropertyOp15
 70
     1
102
RTVSPropertyOp16
 70
     1
102
RTVSPropertyOp17
 70
     1
102
RTVSPropertyOp18
 70
     1
102
RTVSPropertyOp19
 70
     1
102
RTVSPropertyOp20
 70
     1
102
RTVSPropertyOp21
 70
     1
102
RTVSPropertyOp22
 70
     1
102
RTVSPropertyOp23
 70
     1
102
RTVSPropertyOp24
 70
     1
102
RTVSPropertyOp25
 70
     1
102
RTVSPropertyOp26
 70
     1
102
RTVSPropertyOp27
 70
     1
  0
ENDSEC
  0
EOF
