  0
SECTION
  2
HEADER
  9
$ACADVER
  1
AC1018
  9
$ACADMAINTVER
 70
     0
  9
$DWGCODEPAGE
  3
ANSI_932
  9
$LASTSAVEDBY
  1
shinwa
  9
$INSBASE
 10
0.0
 20
0.0
 30
0.0
  9
$EXTMIN
 10
-960.2737818425062
 20
-0.0000000000000142
 30
0.0
  9
$EXTMAX
 10
7980.0
 20
8008.24945802316
 30
0.0
  9
$LIMMIN
 10
0.0
 20
0.0
  9
$LIMMAX
 10
8400.0
 20
5940.0
  9
$ORTHOMODE
 70
     1
  9
$REGENMODE
 70
     1
  9
$FILLMODE
 70
     1
  9
$QTEXTMODE
 70
     0
  9
$MIRRTEXT
 70
     1
  9
$LTSCALE
 40
200.0
  9
$ATTMODE
 70
     1
  9
$TEXTSIZE
 40
60.0
  9
$TRACEWID
 40
0.05
  9
$TEXTSTYLE
  7
STANDARD
  9
$CLAYER
  8
SUNPOU
  9
$CELTYPE
  6
BYLAYER
  9
$CECOLOR
 62
   256
  9
$CELTSCALE
 40
1.0
  9
$DISPSILH
 70
     0
  9
$DIMSCALE
 40
20.0
  9
$DIMASZ
 40
2.0
  9
$DIMEXO
 40
2.0
  9
$DIMDLI
 40
7.0
  9
$DIMRND
 40
0.0
  9
$DIMDLE
 40
0.0
  9
$DIMEXE
 40
0.5
  9
$DIMTP
 40
0.0
  9
$DIMTM
 40
0.0
  9
$DIMTXT
 40
3.0
  9
$DIMCEN
 40
0.0
  9
$DIMTSZ
 40
0.0
  9
$DIMTOL
 70
     0
  9
$DIMLIM
 70
     0
  9
$DIMTIH
 70
     0
  9
$DIMTOH
 70
     0
  9
$DIMSE1
 70
     0
  9
$DIMSE2
 70
     0
  9
$DIMTAD
 70
     1
  9
$DIMZIN
 70
     8
  9
$DIMBLK
  1

  9
$DIMASO
 70
     1
  9
$DIMSHO
 70
     1
  9
$DIMPOST
  1

  9
$DIMAPOST
  1

  9
$DIMALT
 70
     0
  9
$DIMALTD
 70
     2
  9
$DIMALTF
 40
25.4
  9
$DIMLFAC
 40
1.0
  9
$DIMTOFL
 70
     0
  9
$DIMTVP
 40
1.0
  9
$DIMTIX
 70
     1
  9
$DIMSOXD
 70
     0
  9
$DIMSAH
 70
     0
  9
$DIMBLK1
  1

  9
$DIMBLK2
  1

  9
$DIMSTYLE
  2
A3-20
  9
$DIMCLRD
 70
     0
  9
$DIMCLRE
 70
     0
  9
$DIMCLRT
 70
     0
  9
$DIMTFAC
 40
1.0
  9
$DIMGAP
 40
0.8
  9
$DIMJUST
 70
     0
  9
$DIMSD1
 70
     0
  9
$DIMSD2
 70
     0
  9
$DIMTOLJ
 70
     1
  9
$DIMTZIN
 70
     8
  9
$DIMALTZ
 70
     8
  9
$DIMALTTZ
 70
     8
  9
$DIMUPT
 70
     0
  9
$DIMDEC
 70
     0
  9
$DIMTDEC
 70
     0
  9
$DIMALTU
 70
     2
  9
$DIMALTTD
 70
     2
  9
$DIMTXSTY
  7
STANDARD
  9
$DIMAUNIT
 70
     0
  9
$DIMADEC
 70
     4
  9
$DIMALTRND
 40
0.0
  9
$DIMAZIN
 70
     0
  9
$DIMDSEP
 70
    46
  9
$DIMATFIT
 70
     3
  9
$DIMFRAC
 70
     0
  9
$DIMLDRBLK
  1

  9
$DIMLUNIT
 70
     2
  9
$DIMLWD
 70
    -2
  9
$DIMLWE
 70
    -2
  9
$DIMTMOVE
 70
     2
  9
$LUNITS
 70
     2
  9
$LUPREC
 70
     4
  9
$SKETCHINC
 40
0.1
  9
$FILLETRAD
 40
70.0
  9
$AUNITS
 70
     0
  9
$AUPREC
 70
     6
  9
$MENU
  1
acad
  9
$ELEVATION
 40
0.0
  9
$PELEVATION
 40
0.0
  9
$THICKNESS
 40
0.0
  9
$LIMCHECK
 70
     0
  9
$CHAMFERA
 40
0.0
  9
$CHAMFERB
 40
0.0
  9
$CHAMFERC
 40
0.0
  9
$CHAMFERD
 40
0.0
  9
$SKPOLY
 70
     0
  9
$TDCREATE
 40
2450014.656655093
  9
$TDUCREATE
 40
2450014.281655093
  9
$TDUPDATE
 40
2458001.631729271
  9
$TDUUPDATE
 40
2458001.256729271
  9
$TDINDWG
 40
0.0334224769
  9
$TDUSRTIMER
 40
0.0334224769
  9
$USRTIMER
 70
     1
  9
$ANGBASE
 50
0.0
  9
$ANGDIR
 70
     0
  9
$PDMODE
 70
     0
  9
$PDSIZE
 40
0.0
  9
$PLINEWID
 40
0.0
  9
$SPLFRAME
 70
     0
  9
$SPLINETYPE
 70
     6
  9
$SPLINESEGS
 70
     8
  9
$HANDSEED
  5
190A
  9
$SURFTAB1
 70
     6
  9
$SURFTAB2
 70
     6
  9
$SURFTYPE
 70
     6
  9
$SURFU
 70
     6
  9
$SURFV
 70
     6
  9
$UCSBASE
  2

  9
$UCSNAME
  2

  9
$UCSORG
 10
0.0
 20
0.0
 30
0.0
  9
$UCSXDIR
 10
1.0
 20
0.0
 30
0.0
  9
$UCSYDIR
 10
0.0
 20
1.0
 30
0.0
  9
$UCSORTHOREF
  2

  9
$UCSORTHOVIEW
 70
     0
  9
$UCSORGTOP
 10
0.0
 20
0.0
 30
0.0
  9
$UCSORGBOTTOM
 10
0.0
 20
0.0
 30
0.0
  9
$UCSORGLEFT
 10
0.0
 20
0.0
 30
0.0
  9
$UCSORGRIGHT
 10
0.0
 20
0.0
 30
0.0
  9
$UCSORGFRONT
 10
0.0
 20
0.0
 30
0.0
  9
$UCSORGBACK
 10
0.0
 20
0.0
 30
0.0
  9
$PUCSBASE
  2

  9
$PUCSNAME
  2

  9
$PUCSORG
 10
0.0
 20
0.0
 30
0.0
  9
$PUCSXDIR
 10
1.0
 20
0.0
 30
0.0
  9
$PUCSYDIR
 10
0.0
 20
1.0
 30
0.0
  9
$PUCSORTHOREF
  2

  9
$PUCSORTHOVIEW
 70
     0
  9
$PUCSORGTOP
 10
0.0
 20
0.0
 30
0.0
  9
$PUCSORGBOTTOM
 10
0.0
 20
0.0
 30
0.0
  9
$PUCSORGLEFT
 10
0.0
 20
0.0
 30
0.0
  9
$PUCSORGRIGHT
 10
0.0
 20
0.0
 30
0.0
  9
$PUCSORGFRONT
 10
0.0
 20
0.0
 30
0.0
  9
$PUCSORGBACK
 10
0.0
 20
0.0
 30
0.0
  9
$USERI1
 70
     0
  9
$USERI2
 70
     0
  9
$USERI3
 70
     0
  9
$USERI4
 70
     0
  9
$USERI5
 70
     0
  9
$USERR1
 40
0.0
  9
$USERR2
 40
0.0
  9
$USERR3
 40
0.0
  9
$USERR4
 40
0.0
  9
$USERR5
 40
0.0
  9
$WORLDVIEW
 70
     1
  9
$SHADEDGE
 70
     3
  9
$SHADEDIF
 70
    70
  9
$TILEMODE
 70
     1
  9
$MAXACTVP
 70
    48
  9
$PINSBASE
 10
0.0
 20
0.0
 30
0.0
  9
$PLIMCHECK
 70
     0
  9
$PEXTMIN
 10
1.000000000000000E+20
 20
1.000000000000000E+20
 30
1.000000000000000E+20
  9
$PEXTMAX
 10
-1.000000000000000E+20
 20
-1.000000000000000E+20
 30
-1.000000000000000E+20
  9
$PLIMMIN
 10
0.0
 20
0.0
  9
$PLIMMAX
 10
12.0
 20
9.0
  9
$UNITMODE
 70
     0
  9
$VISRETAIN
 70
     0
  9
$PLINEGEN
 70
     0
  9
$PSLTSCALE
 70
     0
  9
$TREEDEPTH
 70
  3020
  9
$CMLSTYLE
  2
STANDARD
  9
$CMLJUST
 70
     0
  9
$CMLSCALE
 40
1.0
  9
$PROXYGRAPHICS
 70
     1
  9
$MEASUREMENT
 70
     0
  9
$CELWEIGHT
370
    -1
  9
$ENDCAPS
280
     0
  9
$JOINSTYLE
280
     0
  9
$LWDISPLAY
290
     0
  9
$INSUNITS
 70
     0
  9
$HYPERLINKBASE
  1

  9
$STYLESHEET
  1

  9
$XEDIT
290
     1
  9
$CEPSNTYPE
380
     0
  9
$PSTYLEMODE
290
     1
  9
$FINGERPRINTGUID
  2
{F67648C0-8D40-11D8-A1CD-0050FC45377D}
  9
$VERSIONGUID
  2
{FB06F711-7458-4BA9-8172-6602306B5DD3}
  9
$EXTNAMES
290
     1
  9
$PSVPSCALE
 40
0.0
  9
$OLESTARTUP
290
     0
  9
$SORTENTS
280
   127
  9
$INDEXCTL
280
     0
  9
$HIDETEXT
280
     0
  9
$XCLIPFRAME
290
     0
  9
$HALOGAP
280
     0
  9
$OBSCOLOR
 70
   257
  9
$OBSLTYPE
280
     0
  9
$INTERSECTIONDISPLAY
280
     0
  9
$INTERSECTIONCOLOR
 70
   257
  9
$DIMASSOC
280
     1
  9
$PROJECTNAME
  1

  0
ENDSEC
  0
SECTION
  2
CLASSES
  0
CLASS
  1
ACDBDICTIONARYWDFLT
  2
AcDbDictionaryWithDefault
  3
ObjectDBX Classes
 90
        0
 91
        4
280
     0
281
     0
  0
CLASS
  1
ACDBPLACEHOLDER
  2
AcDbPlaceHolder
  3
ObjectDBX Classes
 90
        0
 91
        1
280
     0
281
     0
  0
CLASS
  1
LAYOUT
  2
AcDbLayout
  3
ObjectDBX Classes
 90
        0
 91
        1
280
     0
281
     0
  0
CLASS
  1
DICTIONARYVAR
  2
AcDbDictionaryVar
  3
ObjectDBX Classes
 90
        0
 91
        4
280
     0
281
     0
  0
CLASS
  1
DUMMY
  2
AcDbLongTransaction
  3
DUMMY
 90
        0
 91
        1
280
     0
281
     0
  0
CLASS
  1
LWPOLYLINE
  2
AcDbPolyline
  3
AutoCAD 2000
 90
        0
 91
        1
280
     0
281
     1
  0
CLASS
  1
HATCH
  2
AcDbHatch
  3
AutoCAD 2000
 90
        0
 91
        1
280
     0
281
     1
  0
CLASS
  1
XRECORD
  2
AcDbXrecord
  3
AutoCAD 2000
 90
        0
 91
        1
280
     0
281
     0
  0
CLASS
  1
TABLESTYLE
  2
AcDbTableStyle
  3
ObjectDBX Classes
 90
     4095
 91
        4
280
     0
281
     0
  0
CLASS
  1
SORTENTSTABLE
  2
AcDbSortentsTable
  3
ObjectDBX Classes
 90
        0
 91
        4
280
     0
281
     0
  0
CLASS
  1
MATERIAL
  2
AcDbMaterial
  3
ObjectDBX Classes
 90
     1153
 91
        4
280
     0
281
     0
  0
CLASS
  1
VISUALSTYLE
  2
AcDbVisualStyle
  3
ObjectDBX Classes
 90
     4095
 91
        4
280
     0
281
     0
  0
CLASS
  1
SCALE
  2
AcDbScale
  3
ObjectDBX Classes
 90
     1153
 91
        4
280
     0
281
     0
  0
CLASS
  1
MLEADERSTYLE
  2
AcDbMLeaderStyle
  3
ACDB_MLEADERSTYLE_CLASS
 90
     4095
 91
        4
280
     0
281
     0
  0
CLASS
  1
ACDBSECTIONVIEWSTYLE
  2
AcDbSectionViewStyle
  3
ObjectDBX Classes
 90
     1025
 91
        2
280
     1
281
     0
  0
CLASS
  1
ACDBDETAILVIEWSTYLE
  2
AcDbDetailViewStyle
  3
ObjectDBX Classes
 90
     1025
 91
        2
280
     1
281
     0
  0
CLASS
  1
CELLSTYLEMAP
  2
AcDbCellStyleMap
  3
ObjectDBX Classes
 90
     1152
 91
        4
280
     0
281
     0
  0
ENDSEC
  0
SECTION
  2
TABLES
  0
TABLE
  2
VPORT
  5
8
102
{ACAD_XDICTIONARY
360
18CE
102
}
330
0
100
AcDbSymbolTable
 70
     1
  0
VPORT
  5
1306
330
8
100
AcDbSymbolTableRecord
100
AcDbViewportTableRecord
  2
*Active
 70
     0
 10
0.0
 20
0.0
 11
1.0
 21
1.0
 12
2569.875695645105
 22
6414.3744392804
 13
0.0
 23
0.0
 14
20.0
 24
20.0
 15
200.0
 25
200.0
 16
0.0
 26
0.0
 36
1.0
 17
0.0
 27
0.0
 37
0.0
 40
4562.67008310098
 41
1.560747663551402
 42
50.0
 43
0.0
 44
0.0
 50
0.0
 51
0.0
 71
     0
 72
   100
 73
     1
 74
     1
 75
     0
 76
     0
 77
     0
 78
     0
281
     0
 65
     1
110
0.0
120
0.0
130
0.0
111
1.0
121
0.0
131
0.0
112
0.0
122
1.0
132
0.0
 79
     0
146
0.0
1001
ACAD_NAV_VCDISPLAY
1070
     3
  0
ENDTAB
  0
TABLE
  2
LTYPE
  5
5
330
0
100
AcDbSymbolTable
 70
     4
  0
LTYPE
  5
11
330
5
100
AcDbSymbolTableRecord
100
AcDbLinetypeTableRecord
  2
BYBLOCK
 70
     0
  3

 72
    65
 73
     0
 40
0.0
  0
LTYPE
  5
12
330
5
100
AcDbSymbolTableRecord
100
AcDbLinetypeTableRecord
  2
BYLAYER
 70
     0
  3

 72
    65
 73
     0
 40
0.0
  0
LTYPE
  5
13
330
5
100
AcDbSymbolTableRecord
100
AcDbLinetypeTableRecord
  2
CONTINUOUS
 70
     0
  3
Solid line
 72
    65
 73
     0
 40
0.0
  0
LTYPE
  5
1E
330
5
100
AcDbSymbolTableRecord
100
AcDbLinetypeTableRecord
  2
HIDDEN
 70
     0
  3
_ _ _ _ _ _ _ _ _ _ _ _ _ _ _ _ _ _ _ _ _ _ _
 72
    65
 73
     2
 40
0.375
 49
0.25
 74
     0
 49
-0.125
 74
     0
  0
LTYPE
  5
1F
330
5
100
AcDbSymbolTableRecord
100
AcDbLinetypeTableRecord
  2
CENTER
 70
     0
  3
____ _ ____ _ ____ _ ____ _ ____ _ ____ _ ____
 72
    65
 73
     4
 40
2.0
 49
1.25
 74
     0
 49
-0.25
 74
     0
 49
0.25
 74
     0
 49
-0.25
 74
     0
  0
LTYPE
  5
20
330
5
100
AcDbSymbolTableRecord
100
AcDbLinetypeTableRecord
  2
PHANTOM
 70
     0
  3
_____ _ _ _____ _ _ _____ _ _ _____ _ _ ____
 72
    65
 73
     6
 40
2.5
 49
1.25
 74
     0
 49
-0.25
 74
     0
 49
0.25
 74
     0
 49
-0.25
 74
     0
 49
0.25
 74
     0
 49
-0.25
 74
     0
  0
ENDTAB
  0
TABLE
  2
LAYER
  5
2
330
0
100
AcDbSymbolTable
 70
    10
  0
LAYER
  5
E
102
{ACAD_XDICTIONARY
360
1879
102
}
330
2
100
AcDbSymbolTableRecord
100
AcDbLayerTableRecord
  2
0
 70
     0
 62
     7
  6
CONTINUOUS
370
    -3
390
6E
  0
LAYER
  5
23
102
{ACAD_XDICTIONARY
360
187B
102
}
330
2
100
AcDbSymbolTableRecord
100
AcDbLayerTableRecord
  2
SUNPOU
 70
     0
 62
     1
  6
CONTINUOUS
370
    -3
390
6E
  0
LAYER
  5
24
102
{ACAD_XDICTIONARY
360
187D
102
}
330
2
100
AcDbSymbolTableRecord
100
AcDbLayerTableRecord
  2
HAIKIN
 70
     0
 62
     2
  6
CONTINUOUS
370
    -3
390
6E
  0
LAYER
  5
25
102
{ACAD_XDICTIONARY
360
187F
102
}
330
2
100
AcDbSymbolTableRecord
100
AcDbLayerTableRecord
  2
SEIHIN
 70
     0
 62
     3
  6
CONTINUOUS
370
    -3
390
6E
  0
LAYER
  5
26
102
{ACAD_XDICTIONARY
360
1881
102
}
330
2
100
AcDbSymbolTableRecord
100
AcDbLayerTableRecord
  2
HASEN
 70
     0
 62
     4
  6
HIDDEN
370
    -3
390
6E
  0
LAYER
  5
27
102
{ACAD_XDICTIONARY
360
1883
102
}
330
2
100
AcDbSymbolTableRecord
100
AcDbLayerTableRecord
  2
1HASEN
 70
     0
 62
     5
  6
CENTER
370
    -3
390
6E
  0
LAYER
  5
28
102
{ACAD_XDICTIONARY
360
1885
102
}
330
2
100
AcDbSymbolTableRecord
100
AcDbLayerTableRecord
  2
2HASEN
 70
     0
 62
     6
  6
PHANTOM
370
    -3
390
6E
  0
LAYER
  5
29
102
{ACAD_XDICTIONARY
360
1887
102
}
330
2
100
AcDbSymbolTableRecord
100
AcDbLayerTableRecord
  2
HOJO
 70
     0
 62
     7
  6
CONTINUOUS
370
    -3
390
6E
  0
LAYER
  5
2A
102
{ACAD_XDICTIONARY
360
1889
102
}
330
2
100
AcDbSymbolTableRecord
100
AcDbLayerTableRecord
  2
TEN
 70
     0
 62
     7
  6
CONTINUOUS
370
    -3
390
6E
  0
LAYER
  5
6E5
330
2
100
AcDbSymbolTableRecord
100
AcDbLayerTableRecord
  2
DEFPOINTS
 70
     0
 62
     7
  6
CONTINUOUS
290
     0
370
    -3
390
6E
  0
ENDTAB
  0
TABLE
  2
STYLE
  5
3
330
0
100
AcDbSymbolTable
 70
     1
  0
STYLE
  5
F
330
3
100
AcDbSymbolTableRecord
100
AcDbTextStyleTableRecord
  2
STANDARD
 70
     0
 40
0.0
 41
0.8
 50
0.0
 71
     0
 42
60.0
  3
TXT.shx
  4
BIGFONT.shx
  0
ENDTAB
  0
TABLE
  2
VIEW
  5
6
330
0
100
AcDbSymbolTable
 70
     0
  0
ENDTAB
  0
TABLE
  2
UCS
  5
7
330
0
100
AcDbSymbolTable
 70
     0
  0
ENDTAB
  0
TABLE
  2
APPID
  5
9
330
0
100
AcDbSymbolTable
 70
    12
  0
APPID
  5
10
330
9
100
AcDbSymbolTableRecord
100
AcDbRegAppTableRecord
  2
ACAD
 70
     0
  0
APPID
  5
B6
330
9
100
AcDbSymbolTableRecord
100
AcDbRegAppTableRecord
  2
ACAD_DSTYLE_DIMTEXT_FILL
 70
     0
  0
APPID
  5
B7
330
9
100
AcDbSymbolTableRecord
100
AcDbRegAppTableRecord
  2
ACAD_DSTYLE_DIMEXT_LENGTH
 70
     0
  0
APPID
  5
B8
330
9
100
AcDbSymbolTableRecord
100
AcDbRegAppTableRecord
  2
ACAD_DSTYLE_DIMEXT_ENABLED
 70
     0
  0
APPID
  5
B9
330
9
100
AcDbSymbolTableRecord
100
AcDbRegAppTableRecord
  2
ACAD_DSTYLE_DIM_LINETYPE
 70
     0
  0
APPID
  5
BA
330
9
100
AcDbSymbolTableRecord
100
AcDbRegAppTableRecord
  2
ACAD_DSTYLE_DIM_EXT1_LINETYPE
 70
     0
  0
APPID
  5
BB
330
9
100
AcDbSymbolTableRecord
100
AcDbRegAppTableRecord
  2
ACAD_DSTYLE_DIM_EXT2_LINETYPE
 70
     0
  0
APPID
  5
177
330
9
100
AcDbSymbolTableRecord
100
AcDbRegAppTableRecord
  2
ACAD_DSTYLE_DIMJOGGED_JOGANGLE_SYMBOL
 70
     0
  0
APPID
  5
35B
330
9
100
AcDbSymbolTableRecord
100
AcDbRegAppTableRecord
  2
ACAD_DSTYLE_DIMARC_LENGTH_SYMBOL
 70
     0
  0
APPID
  5
E10
330
9
100
AcDbSymbolTableRecord
100
AcDbRegAppTableRecord
  2
ACAD_EXEMPT_FROM_CAD_STANDARDS
 70
     0
  0
APPID
  5
135A
330
9
100
AcDbSymbolTableRecord
100
AcDbRegAppTableRecord
  2
ACAD_NAV_VCDISPLAY
 70
     0
  0
APPID
  5
18BE
330
9
100
AcDbSymbolTableRecord
100
AcDbRegAppTableRecord
  2
ACAD_MLEADERVER
 70
     0
  0
ENDTAB
  0
TABLE
  2
DIMSTYLE
  5
A
330
0
100
AcDbSymbolTable
 70
     2
100
AcDbDimStyleTable
  0
DIMSTYLE
105
61
330
A
100
AcDbSymbolTableRecord
100
AcDbDimStyleTableRecord
  2
STANDARD
 70
     0
178
     0
340
F
  0
DIMSTYLE
105
360
102
{ACAD_REACTORS
330
F96
330
F97
330
F98
330
F99
330
1017
330
1025
330
1026
330
1027
330
1072
330
1080
330
108D
330
10A4
330
10C7
330
10D4
330
10E7
330
14C5
330
14C6
330
14E7
330
14E8
330
14E9
330
14EA
330
14EB
330
14EC
330
14ED
330
14EE
330
14EF
330
14F0
330
14F1
330
14F2
330
14F8
330
14F9
330
14FA
330
1503
330
1513
330
1514
330
1516
102
}
330
A
100
AcDbSymbolTableRecord
100
AcDbDimStyleTableRecord
  2
A3-20
 70
     0
 40
20.0
 41
2.0
 42
2.0
 43
7.0
 44
0.5
 73
     0
 74
     0
 77
     1
 78
     8
140
3.0
141
0.0
145
1.0
147
0.8
174
     1
178
     0
179
     4
271
     0
272
     0
279
     2
284
     8
285
     8
286
     8
340
F
1001
ACAD_DSTYLE_DIMJOGGED_JOGANGLE_SYMBOL
1070
   384
1040
0.7853981633974483
  0
ENDTAB
  0
TABLE
  2
BLOCK_RECORD
  5
1
330
0
100
AcDbSymbolTable
 70
    66
  0
BLOCK_RECORD
  5
17
102
{ACAD_XDICTIONARY
360
9C
102
}
330
1
100
AcDbSymbolTableRecord
100
AcDbBlockTableRecord
  2
*MODEL_SPACE
340
71
  0
BLOCK_RECORD
  5
14
330
1
100
AcDbSymbolTableRecord
100
AcDbBlockTableRecord
  2
*PAPER_SPACE
340
72
  0
BLOCK_RECORD
  5
1C
330
1
100
AcDbSymbolTableRecord
100
AcDbBlockTableRecord
  2
BORDER
340
0
  0
BLOCK_RECORD
  5
1D
330
1
100
AcDbSymbolTableRecord
100
AcDbBlockTableRecord
  2
SA3
340
0
  0
BLOCK_RECORD
  5
F9A
330
1
100
AcDbSymbolTableRecord
100
AcDbBlockTableRecord
  2
*D4
340
0
  0
BLOCK_RECORD
  5
FA6
330
1
100
AcDbSymbolTableRecord
100
AcDbBlockTableRecord
  2
*D5
340
0
  0
BLOCK_RECORD
  5
FB2
330
1
100
AcDbSymbolTableRecord
100
AcDbBlockTableRecord
  2
*D6
340
0
  0
BLOCK_RECORD
  5
FBF
330
1
100
AcDbSymbolTableRecord
100
AcDbBlockTableRecord
  2
*D7
340
0
  0
BLOCK_RECORD
  5
1018
330
1
100
AcDbSymbolTableRecord
100
AcDbBlockTableRecord
  2
*D8
340
0
  0
BLOCK_RECORD
  5
1028
330
1
100
AcDbSymbolTableRecord
100
AcDbBlockTableRecord
  2
*D9
340
0
  0
BLOCK_RECORD
  5
1034
330
1
100
AcDbSymbolTableRecord
100
AcDbBlockTableRecord
  2
*D10
340
0
  0
BLOCK_RECORD
  5
1041
330
1
100
AcDbSymbolTableRecord
100
AcDbBlockTableRecord
  2
*D11
340
0
  0
BLOCK_RECORD
  5
1073
330
1
100
AcDbSymbolTableRecord
100
AcDbBlockTableRecord
  2
*D12
340
0
  0
BLOCK_RECORD
  5
1081
330
1
100
AcDbSymbolTableRecord
100
AcDbBlockTableRecord
  2
*D13
340
0
  0
BLOCK_RECORD
  5
108E
330
1
100
AcDbSymbolTableRecord
100
AcDbBlockTableRecord
  2
*D14
340
0
  0
BLOCK_RECORD
  5
10A5
330
1
100
AcDbSymbolTableRecord
100
AcDbBlockTableRecord
  2
*D15
340
0
  0
BLOCK_RECORD
  5
10C8
330
1
100
AcDbSymbolTableRecord
100
AcDbBlockTableRecord
  2
*D16
340
0
  0
BLOCK_RECORD
  5
10D5
330
1
100
AcDbSymbolTableRecord
100
AcDbBlockTableRecord
  2
*D17
340
0
  0
BLOCK_RECORD
  5
10E8
330
1
100
AcDbSymbolTableRecord
100
AcDbBlockTableRecord
  2
*D18
340
0
  0
BLOCK_RECORD
  5
1517
330
1
100
AcDbSymbolTableRecord
100
AcDbBlockTableRecord
  2
*D45
340
0
  0
BLOCK_RECORD
  5
1523
330
1
100
AcDbSymbolTableRecord
100
AcDbBlockTableRecord
  2
*D46
340
0
  0
BLOCK_RECORD
  5
1530
330
1
100
AcDbSymbolTableRecord
100
AcDbBlockTableRecord
  2
*D47
340
0
  0
BLOCK_RECORD
  5
153C
330
1
100
AcDbSymbolTableRecord
100
AcDbBlockTableRecord
  2
*D48
340
0
  0
BLOCK_RECORD
  5
1548
330
1
100
AcDbSymbolTableRecord
100
AcDbBlockTableRecord
  2
*D49
340
0
  0
BLOCK_RECORD
  5
1555
330
1
100
AcDbSymbolTableRecord
100
AcDbBlockTableRecord
  2
*D50
340
0
  0
BLOCK_RECORD
  5
1562
330
1
100
AcDbSymbolTableRecord
100
AcDbBlockTableRecord
  2
*D51
340
0
  0
BLOCK_RECORD
  5
156F
330
1
100
AcDbSymbolTableRecord
100
AcDbBlockTableRecord
  2
*D52
340
0
  0
BLOCK_RECORD
  5
157B
330
1
100
AcDbSymbolTableRecord
100
AcDbBlockTableRecord
  2
*D53
340
0
  0
BLOCK_RECORD
  5
1588
330
1
100
AcDbSymbolTableRecord
100
AcDbBlockTableRecord
  2
*D54
340
0
  0
BLOCK_RECORD
  5
1594
330
1
100
AcDbSymbolTableRecord
100
AcDbBlockTableRecord
  2
*D55
340
0
  0
BLOCK_RECORD
  5
15A1
330
1
100
AcDbSymbolTableRecord
100
AcDbBlockTableRecord
  2
*D56
340
0
  0
BLOCK_RECORD
  5
15AD
330
1
100
AcDbSymbolTableRecord
100
AcDbBlockTableRecord
  2
*D57
340
0
  0
BLOCK_RECORD
  5
15BA
330
1
100
AcDbSymbolTableRecord
100
AcDbBlockTableRecord
  2
*D58
340
0
  0
BLOCK_RECORD
  5
15C7
330
1
100
AcDbSymbolTableRecord
100
AcDbBlockTableRecord
  2
*D59
340
0
  0
BLOCK_RECORD
  5
15D3
330
1
100
AcDbSymbolTableRecord
100
AcDbBlockTableRecord
  2
*D60
340
0
  0
BLOCK_RECORD
  5
15DB
330
1
100
AcDbSymbolTableRecord
100
AcDbBlockTableRecord
  2
*D61
340
0
  0
BLOCK_RECORD
  5
15E7
330
1
100
AcDbSymbolTableRecord
100
AcDbBlockTableRecord
  2
*D62
340
0
  0
BLOCK_RECORD
  5
15F3
330
1
100
AcDbSymbolTableRecord
100
AcDbBlockTableRecord
  2
*D63
340
0
  0
BLOCK_RECORD
  5
15FF
330
1
100
AcDbSymbolTableRecord
100
AcDbBlockTableRecord
  2
*D64
340
0
  0
BLOCK_RECORD
  5
160B
330
1
100
AcDbSymbolTableRecord
100
AcDbBlockTableRecord
  2
*D65
340
0
  0
ENDTAB
  0
ENDSEC
  0
SECTION
  2
BLOCKS
  0
BLOCK
  5
2D
330
17
100
AcDbEntity
  8
0
100
AcDbBlockBegin
  2
*MODEL_SPACE
 70
     0
 10
0.0
 20
0.0
 30
0.0
  3
*MODEL_SPACE
  1

  0
ENDBLK
  5
2E
330
17
100
AcDbEntity
  8
0
100
AcDbBlockEnd
  0
BLOCK
  5
2B
330
14
100
AcDbEntity
 67
     1
  8
0
100
AcDbBlockBegin
  2
*PAPER_SPACE
 70
     0
 10
0.0
 20
0.0
 30
0.0
  3
*PAPER_SPACE
  1

  0
ENDBLK
  5
2C
330
14
100
AcDbEntity
 67
     1
  8
0
100
AcDbBlockEnd
  0
BLOCK
  5
2F
330
1C
100
AcDbEntity
  8
0
100
AcDbBlockBegin
  2
BORDER
 70
     0
 10
0.0
 20
0.0
 30
0.0
  3
BORDER
  1

  0
LINE
  5
30
330
1C
100
AcDbEntity
  8
0
100
AcDbLine
 10
0.0
 20
0.0
 30
0.0
 11
1.00000000000004
 21
0.0
 31
0.0
  0
LINE
  5
31
330
1C
100
AcDbEntity
  8
0
100
AcDbLine
 10
1.00000000000004
 20
0.0
 30
0.0
 11
1.00000000000004
 21
1.00000000000004
 31
0.0
  0
LINE
  5
32
330
1C
100
AcDbEntity
  8
0
100
AcDbLine
 10
1.00000000000004
 20
1.00000000000004
 30
0.0
 11
0.0
 21
1.00000000000004
 31
0.0
  0
LINE
  5
33
330
1C
100
AcDbEntity
  8
0
100
AcDbLine
 10
0.0
 20
1.00000000000004
 30
0.0
 11
0.0
 21
0.0
 31
0.0
  0
ENDBLK
  5
34
330
1C
100
AcDbEntity
  8
0
100
AcDbBlockEnd
  0
BLOCK
  5
35
330
1D
100
AcDbEntity
  8
HAIKIN
100
AcDbBlockBegin
  2
SA3
 70
     0
 10
0.0
 20
0.0
 30
0.0
  3
SA3
  1

  0
TEXT
  5
36
330
1D
100
AcDbEntity
  8
SUNPOU
100
AcDbText
 10
340.0
 20
0.0
 30
0.0
 40
2.5
  1
新和コンクリート工業株式会社
100
AcDbText
  0
TEXT
  5
39
330
1D
100
AcDbEntity
  8
SUNPOU
100
AcDbText
 10
361.4166666666667
 20
6.25
 30
0.0
 40
2.5
  1
製図
 72
     4
 11
364.0
 21
7.5
 31
0.0
100
AcDbText
  0
TEXT
  5
3A
330
1D
100
AcDbEntity
  8
SUNPOU
100
AcDbText
 10
361.3333333333333
 20
11.25
 30
0.0
 40
2.5
  1
設計
 72
     4
 11
364.0
 21
12.5
 31
0.0
100
AcDbText
  0
TEXT
  5
3B
330
1D
100
AcDbEntity
  8
SUNPOU
100
AcDbText
 10
339.0833333333333
 20
6.250000000000014
 30
0.0
 40
2.5
  1
認
 72
     4
 11
340.25
 21
7.500000000000014
 31
0.0
100
AcDbText
  0
TEXT
  5
3C
330
1D
100
AcDbEntity
  8
SUNPOU
100
AcDbText
 10
339.0833333333333
 20
11.33333333333336
 30
0.0
 40
2.5
  1
承
 72
     4
 11
340.25
 21
12.50000000000003
 31
0.0
100
AcDbText
  0
TEXT
  5
3D
330
1D
100
AcDbEntity
  8
SUNPOU
100
AcDbText
 10
312.75
 20
11.75000000000001
 30
0.0
 40
2.5
  1
図　面　番　号
 72
     4
 11
323.0
 21
13.00000000000001
 31
0.0
100
AcDbText
  0
TEXT
  5
3E
330
1D
100
AcDbEntity
  8
SUNPOU
100
AcDbText
 10
362.0
 20
17.0
 30
0.0
 40
2.5
  1
１／
100
AcDbText
  0
TEXT
  5
3F
330
1D
100
AcDbEntity
  8
SUNPOU
100
AcDbText
 10
347.3333333333333
 20
16.25000000000001
 30
0.0
 40
2.5
  1
縮　　尺
 72
     4
 11
353.0
 21
17.50000000000001
 31
0.0
100
AcDbText
  0
TEXT
  5
40
330
1D
100
AcDbEntity
  8
SUNPOU
100
AcDbText
 10
347.3333333333333
 20
21.25
 30
0.0
 40
2.5
  1
鉄 筋 量
 72
     4
 11
353.0
 21
22.5
 31
0.0
100
AcDbText
  0
TEXT
  5
41
330
1D
100
AcDbEntity
  8
SUNPOU
100
AcDbText
 10
347.3333333333333
 20
26.25
 30
0.0
 40
2.5
  1
製 造 数
 72
     4
 11
353.0
 21
27.5
 31
0.0
100
AcDbText
  0
TEXT
  5
42
330
1D
100
AcDbEntity
  8
SUNPOU
100
AcDbText
 10
377.0
 20
21.0
 30
0.0
 40
2.5
  1
ｋｇ
 72
     2
 11
382.0
 21
21.0
 31
0.0
100
AcDbText
  0
TEXT
  5
43
330
1D
100
AcDbEntity
  8
SUNPOU
100
AcDbText
 10
339.5
 20
21.0
 30
0.0
 40
2.5
  1
ｋｇ
 72
     2
 11
344.5
 21
21.0
 31
0.0
100
AcDbText
  0
TEXT
  5
44
330
1D
100
AcDbEntity
  8
SUNPOU
100
AcDbText
 10
310.0
 20
16.25000000000001
 30
0.0
 40
2.5
  1
年 月 日
 72
     4
 11
315.5
 21
17.50000000000001
 31
0.0
100
AcDbText
  0
TEXT
  5
45
330
1D
100
AcDbEntity
  8
SUNPOU
100
AcDbText
 10
309.8333333333333
 20
21.25
 30
0.0
 40
2.5
  1
製品質量
 72
     4
 11
315.5
 21
22.5
 31
0.0
100
AcDbText
  0
TEXT
  5
46
330
1D
100
AcDbEntity
  8
SUNPOU
100
AcDbText
 10
309.9166666666667
 20
26.25
 30
0.0
 40
2.5
  1
業 者 名
 72
     4
 11
315.5
 21
27.5
 31
0.0
100
AcDbText
  0
TEXT
  5
47
330
1D
100
AcDbEntity
  8
SUNPOU
100
AcDbText
 10
309.8333333333333
 20
32.5
 30
0.0
 40
2.5
  1
名　　称
 72
     4
 11
315.5
 21
33.75
 31
0.0
100
AcDbText
  0
LINE
  5
48
330
1D
100
AcDbEntity
  8
SUNPOU
100
AcDbLine
 10
338.0
 20
11.00000000000001
 30
0.0
 11
308.0
 21
11.00000000000001
 31
0.0
  0
LINE
  5
49
330
1D
100
AcDbEntity
  8
SUNPOU
100
AcDbLine
 10
367.5
 20
4.999999999999986
 30
0.0
 11
367.5
 21
14.99999999999999
 31
0.0
  0
LINE
  5
4A
330
1D
100
AcDbEntity
  8
SUNPOU
100
AcDbLine
 10
360.5
 20
4.999999999999986
 30
0.0
 11
360.5
 21
14.99999999999999
 31
0.0
  0
LINE
  5
4B
330
1D
100
AcDbEntity
  8
SUNPOU
100
AcDbLine
 10
342.5
 20
4.999999999999995
 30
0.0
 11
342.5
 21
15.0
 31
0.0
  0
LINE
  5
4C
330
1D
100
AcDbEntity
  8
SUNPOU
100
AcDbLine
 10
338.0
 20
4.999999999999995
 30
0.0
 11
338.0
 21
15.0
 31
0.0
  0
LINE
  5
4D
330
1D
100
AcDbEntity
  8
SUNPOU
100
AcDbLine
 10
323.0
 20
15.00000000000001
 30
0.0
 11
323.0
 21
37.5
 31
0.0
  0
LINE
  5
4E
330
1D
100
AcDbEntity
  8
SUNPOU
100
AcDbLine
 10
360.5
 20
15.00000000000001
 30
0.0
 11
360.5
 21
30.0
 31
0.0
  0
LINE
  5
4F
330
1D
100
AcDbEntity
  8
SUNPOU
100
AcDbLine
 10
345.5
 20
15.00000000000001
 30
0.0
 11
345.5
 21
30.0
 31
0.0
  0
LINE
  5
50
330
1D
100
AcDbEntity
  8
SUNPOU
100
AcDbLine
 10
383.0
 20
30.0
 30
0.0
 11
308.0
 21
30.0
 31
0.0
  0
LINE
  5
51
330
1D
100
AcDbEntity
  8
SUNPOU
100
AcDbLine
 10
383.0
 20
25.0
 30
0.0
 11
308.0
 21
25.0
 31
0.0
  0
LINE
  5
52
330
1D
100
AcDbEntity
  8
SUNPOU
100
AcDbLine
 10
383.0
 20
20.0
 30
0.0
 11
308.0
 21
20.0
 31
0.0
  0
LINE
  5
53
330
1D
100
AcDbEntity
  8
SUNPOU
100
AcDbLine
 10
383.0
 20
14.99999999999999
 30
0.0
 11
308.0
 21
15.00000000000004
 31
0.0
  0
LINE
  5
54
330
1D
100
AcDbEntity
  8
HAIKIN
100
AcDbLine
 10
308.0
 20
37.5
 30
0.0
 11
383.0
 21
37.5
 31
0.0
  0
LINE
  5
55
330
1D
100
AcDbEntity
  8
HAIKIN
100
AcDbLine
 10
308.0
 20
5.000000000000009
 30
0.0
 11
308.0
 21
37.5
 31
0.0
  0
LINE
  5
56
330
1D
100
AcDbEntity
  8
SUNPOU
100
AcDbLine
 10
0.000000000000016
 20
277.0
 30
0.0
 11
0.000000000000016
 21
272.0
 31
0.0
  0
LINE
  5
57
330
1D
100
AcDbEntity
  8
SUNPOU
100
AcDbLine
 10
25.00000000000001
 20
277.0
 30
0.0
 11
0.000000000000016
 21
277.0
 31
0.0
  0
LINE
  5
58
330
1D
100
AcDbEntity
  8
SUNPOU
100
AcDbLine
 10
25.00000000000001
 20
272.0
 30
0.0
 11
25.00000000000001
 21
277.0
 31
0.0
  0
LINE
  5
59
330
1D
100
AcDbEntity
  8
HAIKIN
100
AcDbLine
 10
0.0000000000000004
 20
5.0
 30
0.0
 11
383.0
 21
5.0
 31
0.0
  0
LINE
  5
5A
330
1D
100
AcDbEntity
  8
HAIKIN
100
AcDbLine
 10
0.0000000000000158
 20
272.0
 30
0.0
 11
383.0
 21
272.0
 31
0.0
  0
LINE
  5
5B
330
1D
100
AcDbEntity
  8
HAIKIN
100
AcDbLine
 10
383.0
 20
272.0
 30
0.0
 11
383.0
 21
5.0
 31
0.0
  0
TEXT
  5
5C
330
1D
100
AcDbEntity
  8
SUNPOU
100
AcDbText
 10
3.700000000000017
 20
273.0
 30
0.0
 40
3.0
  1
Ｈ－２－共
 72
     4
 11
12.50000000000002
 21
274.5
 31
0.0
100
AcDbText
  0
LINE
  5
5D
330
1D
100
AcDbEntity
  8
HAIKIN
100
AcDbLine
 10
0.0000000000000004
 20
5.0
 30
0.0
 11
0.0000000000000158
 21
272.0
 31
0.0
  0
ENDBLK
  5
5E
330
1D
100
AcDbEntity
  8
HAIKIN
100
AcDbBlockEnd
  0
BLOCK
  5
FA4
330
F9A
100
AcDbEntity
  8
0
100
AcDbBlockBegin
  2
*D4
 70
     1
 10
0.0
 20
0.0
 30
0.0
  3
*D4
  1

  0
LINE
  5
1764
330
F9A
100
AcDbEntity
  8
SUNPOU
 62
     0
440
 16777216
370
    -2
100
AcDbLine
 10
1955.257447992859
 20
6697.793358888684
 30
0.0
 11
1955.257447992859
 21
6948.150715731972
 31
0.0
  0
LINE
  5
1765
330
F9A
100
AcDbEntity
  8
SUNPOU
 62
     0
440
 16777216
370
    -2
100
AcDbLine
 10
2755.257447992859
 20
6697.793358888684
 30
0.0
 11
2755.257447992859
 21
6948.150715731972
 31
0.0
  0
LINE
  5
1766
330
F9A
100
AcDbEntity
  8
SUNPOU
 62
     0
440
 16777216
370
    -2
100
AcDbLine
 10
1995.257447992859
 20
6938.150715731972
 30
0.0
 11
2715.257447992859
 21
6938.150715731972
 31
0.0
  0
SOLID
  5
1767
330
F9A
100
AcDbEntity
  8
SUNPOU
 62
     0
440
 16777216
100
AcDbTrace
 10
1995.257447992859
 20
6944.817382398639
 30
0.0
 11
1995.257447992859
 21
6931.484049065305
 31
0.0
 12
1955.257447992859
 22
6938.150715731972
 32
0.0
 13
1955.257447992859
 23
6938.150715731972
 33
0.0
  0
SOLID
  5
1768
330
F9A
100
AcDbEntity
  8
SUNPOU
 62
     0
440
 16777216
100
AcDbTrace
 10
2715.257447992859
 20
6944.817382398639
 30
0.0
 11
2715.257447992859
 21
6931.484049065305
 31
0.0
 12
2755.257447992859
 22
6938.150715731972
 32
0.0
 13
2755.257447992859
 23
6938.150715731972
 33
0.0
  0
MTEXT
  5
1769
330
F9A
100
AcDbEntity
  8
SUNPOU
 62
     0
440
 16777216
100
AcDbMText
 10
2355.257447992859
 20
6984.150715731972
 30
0.0
 40
60.0
 41
0.0
 71
     5
 72
     1
  1
\A1;800
 73
     1
 44
1.0
  0
POINT
  5
176A
330
F9A
100
AcDbEntity
  8
DEFPOINTS
 62
     0
440
 16777216
100
AcDbPoint
 10
1955.257447992859
 20
6657.793358888684
 30
0.0
  0
POINT
  5
176B
330
F9A
100
AcDbEntity
  8
DEFPOINTS
 62
     0
440
 16777216
100
AcDbPoint
 10
2755.257447992859
 20
6657.793358888684
 30
0.0
  0
POINT
  5
176C
330
F9A
100
AcDbEntity
  8
DEFPOINTS
 62
     0
440
 16777216
100
AcDbPoint
 10
2755.257447992859
 20
6938.150715731972
 30
0.0
  0
ENDBLK
  5
FA5
330
F9A
100
AcDbEntity
  8
0
100
AcDbBlockEnd
  0
BLOCK
  5
FB0
330
FA6
100
AcDbEntity
  8
0
100
AcDbBlockBegin
  2
*D5
 70
     1
 10
0.0
 20
0.0
 30
0.0
  3
*D5
  1

  0
LINE
  5
176D
330
FA6
100
AcDbEntity
  8
SUNPOU
 62
     0
440
 16777216
370
    -2
100
AcDbLine
 10
1885.257447992859
 20
6697.793358888684
 30
0.0
 11
1885.257447992859
 21
7075.781973033828
 31
0.0
  0
LINE
  5
176E
330
FA6
100
AcDbEntity
  8
SUNPOU
 62
     0
440
 16777216
370
    -2
100
AcDbLine
 10
2825.257447992859
 20
6697.793358888684
 30
0.0
 11
2825.257447992859
 21
7075.781973033828
 31
0.0
  0
LINE
  5
176F
330
FA6
100
AcDbEntity
  8
SUNPOU
 62
     0
440
 16777216
370
    -2
100
AcDbLine
 10
1925.257447992859
 20
7065.781973033828
 30
0.0
 11
2785.257447992859
 21
7065.781973033828
 31
0.0
  0
SOLID
  5
1770
330
FA6
100
AcDbEntity
  8
SUNPOU
 62
     0
440
 16777216
100
AcDbTrace
 10
1925.257447992859
 20
7072.448639700495
 30
0.0
 11
1925.257447992859
 21
7059.115306367161
 31
0.0
 12
1885.257447992859
 22
7065.781973033828
 32
0.0
 13
1885.257447992859
 23
7065.781973033828
 33
0.0
  0
SOLID
  5
1771
330
FA6
100
AcDbEntity
  8
SUNPOU
 62
     0
440
 16777216
100
AcDbTrace
 10
2785.257447992859
 20
7072.448639700495
 30
0.0
 11
2785.257447992859
 21
7059.115306367161
 31
0.0
 12
2825.257447992859
 22
7065.781973033828
 32
0.0
 13
2825.257447992859
 23
7065.781973033828
 33
0.0
  0
MTEXT
  5
1772
330
FA6
100
AcDbEntity
  8
SUNPOU
 62
     0
440
 16777216
100
AcDbMText
 10
2355.257447992859
 20
7111.781973033828
 30
0.0
 40
60.0
 41
0.0
 71
     5
 72
     1
  1
\A1;940
 73
     1
 44
1.0
  0
POINT
  5
1773
330
FA6
100
AcDbEntity
  8
DEFPOINTS
 62
     0
440
 16777216
100
AcDbPoint
 10
1885.257447992859
 20
6657.793358888684
 30
0.0
  0
POINT
  5
1774
330
FA6
100
AcDbEntity
  8
DEFPOINTS
 62
     0
440
 16777216
100
AcDbPoint
 10
2825.257447992859
 20
6657.793358888684
 30
0.0
  0
POINT
  5
1775
330
FA6
100
AcDbEntity
  8
DEFPOINTS
 62
     0
440
 16777216
100
AcDbPoint
 10
2825.257447992859
 20
7065.781973033828
 30
0.0
  0
ENDBLK
  5
FB1
330
FA6
100
AcDbEntity
  8
0
100
AcDbBlockEnd
  0
BLOCK
  5
FBD
330
FB2
100
AcDbEntity
  8
0
100
AcDbBlockBegin
  2
*D6
 70
     1
 10
0.0
 20
0.0
 30
0.0
  3
*D6
  1

  0
LINE
  5
1776
330
FB2
100
AcDbEntity
  8
SUNPOU
 62
     0
440
 16777216
370
    -2
100
AcDbLine
 10
1900.257447992859
 20
6697.793358888684
 30
0.0
 11
1900.257447992859
 21
6948.150715731972
 31
0.0
  0
LINE
  5
1777
330
FB2
100
AcDbEntity
  8
SUNPOU
 62
     0
440
 16777216
370
    -2
100
AcDbLine
 10
1885.257447992859
 20
6697.793358888684
 30
0.0
 11
1885.257447992859
 21
6948.150715731972
 31
0.0
  0
LINE
  5
1778
330
FB2
100
AcDbEntity
  8
SUNPOU
 62
     0
440
 16777216
370
    -2
100
AcDbLine
 10
1940.257447992859
 20
6938.150715731972
 30
0.0
 11
1980.257447992859
 21
6938.150715731972
 31
0.0
  0
LINE
  5
1779
330
FB2
100
AcDbEntity
  8
SUNPOU
 62
     0
440
 16777216
370
    -2
100
AcDbLine
 10
1845.257447992859
 20
6938.150715731972
 30
0.0
 11
1805.257447992859
 21
6938.150715731972
 31
0.0
  0
MTEXT
  5
177A
330
FB2
100
AcDbEntity
  8
SUNPOU
 62
     0
440
 16777216
100
AcDbMText
 10
1828.946617098987
 20
6985.020059540287
 30
0.0
 40
60.0
 41
0.0
 71
     5
 72
     1
  1
\A1;15
 73
     1
 44
1.0
  0
SOLID
  5
177B
330
FB2
100
AcDbEntity
  8
SUNPOU
 62
     0
440
 16777216
100
AcDbTrace
 10
1940.257447992859
 20
6944.817382398639
 30
0.0
 11
1940.257447992859
 21
6931.484049065305
 31
0.0
 12
1900.257447992859
 22
6938.150715731972
 32
0.0
 13
1900.257447992859
 23
6938.150715731972
 33
0.0
  0
SOLID
  5
177C
330
FB2
100
AcDbEntity
  8
SUNPOU
 62
     0
440
 16777216
100
AcDbTrace
 10
1845.257447992859
 20
6944.817382398639
 30
0.0
 11
1845.257447992859
 21
6931.484049065305
 31
0.0
 12
1885.257447992859
 22
6938.150715731972
 32
0.0
 13
1885.257447992859
 23
6938.150715731972
 33
0.0
  0
POINT
  5
177D
330
FB2
100
AcDbEntity
  8
DEFPOINTS
 62
     0
440
 16777216
100
AcDbPoint
 10
1900.257447992859
 20
6657.793358888684
 30
0.0
  0
POINT
  5
177E
330
FB2
100
AcDbEntity
  8
DEFPOINTS
 62
     0
440
 16777216
100
AcDbPoint
 10
1885.257447992859
 20
6657.793358888684
 30
0.0
  0
POINT
  5
177F
330
FB2
100
AcDbEntity
  8
DEFPOINTS
 62
     0
440
 16777216
100
AcDbPoint
 10
1885.257447992859
 20
6938.150715731972
 30
0.0
  0
ENDBLK
  5
FBE
330
FB2
100
AcDbEntity
  8
0
100
AcDbBlockEnd
  0
BLOCK
  5
FCA
330
FBF
100
AcDbEntity
  8
0
100
AcDbBlockBegin
  2
*D7
 70
     1
 10
0.0
 20
0.0
 30
0.0
  3
*D7
  1

  0
LINE
  5
1780
330
FBF
100
AcDbEntity
  8
SUNPOU
 62
     0
440
 16777216
370
    -2
100
AcDbLine
 10
1955.257447992859
 20
6697.793358888684
 30
0.0
 11
1955.257447992859
 21
6948.150715731972
 31
0.0
  0
LINE
  5
1781
330
FBF
100
AcDbEntity
  8
SUNPOU
 62
     0
440
 16777216
370
    -2
100
AcDbLine
 10
1900.257447992859
 20
6697.793358888684
 30
0.0
 11
1900.257447992859
 21
6948.150715731972
 31
0.0
  0
LINE
  5
1782
330
FBF
100
AcDbEntity
  8
SUNPOU
 62
     0
440
 16777216
370
    -2
100
AcDbLine
 10
1995.257447992859
 20
6938.150715731972
 30
0.0
 11
2035.257447992859
 21
6938.150715731972
 31
0.0
  0
LINE
  5
1783
330
FBF
100
AcDbEntity
  8
SUNPOU
 62
     0
440
 16777216
370
    -2
100
AcDbLine
 10
1860.257447992859
 20
6938.150715731972
 30
0.0
 11
1820.257447992859
 21
6938.150715731972
 31
0.0
  0
SOLID
  5
1784
330
FBF
100
AcDbEntity
  8
SUNPOU
 62
     0
440
 16777216
100
AcDbTrace
 10
1995.257447992859
 20
6944.817382398639
 30
0.0
 11
1995.257447992859
 21
6931.484049065305
 31
0.0
 12
1955.257447992859
 22
6938.150715731972
 32
0.0
 13
1955.257447992859
 23
6938.150715731972
 33
0.0
  0
SOLID
  5
1785
330
FBF
100
AcDbEntity
  8
SUNPOU
 62
     0
440
 16777216
100
AcDbTrace
 10
1860.257447992859
 20
6944.817382398639
 30
0.0
 11
1860.257447992859
 21
6931.484049065305
 31
0.0
 12
1900.257447992859
 22
6938.150715731972
 32
0.0
 13
1900.257447992859
 23
6938.150715731972
 33
0.0
  0
MTEXT
  5
1786
330
FBF
100
AcDbEntity
  8
SUNPOU
 62
     0
440
 16777216
100
AcDbMText
 10
1927.757447992859
 20
6984.150715731972
 30
0.0
 40
60.0
 41
0.0
 71
     5
 72
     1
  1
\A1;55
 73
     1
 44
1.0
  0
POINT
  5
1787
330
FBF
100
AcDbEntity
  8
DEFPOINTS
 62
     0
440
 16777216
100
AcDbPoint
 10
1955.257447992859
 20
6657.793358888684
 30
0.0
  0
POINT
  5
1788
330
FBF
100
AcDbEntity
  8
DEFPOINTS
 62
     0
440
 16777216
100
AcDbPoint
 10
1900.257447992859
 20
6657.793358888684
 30
0.0
  0
POINT
  5
1789
330
FBF
100
AcDbEntity
  8
DEFPOINTS
 62
     0
440
 16777216
100
AcDbPoint
 10
1900.257447992859
 20
6938.150715731972
 30
0.0
  0
ENDBLK
  5
FCB
330
FBF
100
AcDbEntity
  8
0
100
AcDbBlockEnd
  0
BLOCK
  5
1023
330
1018
100
AcDbEntity
  8
0
100
AcDbBlockBegin
  2
*D8
 70
     1
 10
0.0
 20
0.0
 30
0.0
  3
*D8
  1

  0
LINE
  5
178A
330
1018
100
AcDbEntity
  8
SUNPOU
 62
     0
440
 16777216
370
    -2
100
AcDbLine
 10
2755.257447992859
 20
6697.793358888684
 30
0.0
 11
2755.257447992859
 21
6948.150715731972
 31
0.0
  0
LINE
  5
178B
330
1018
100
AcDbEntity
  8
SUNPOU
 62
     0
440
 16777216
370
    -2
100
AcDbLine
 10
2825.257447992859
 20
6697.793358888684
 30
0.0
 11
2825.257447992859
 21
6948.150715731972
 31
0.0
  0
LINE
  5
178C
330
1018
100
AcDbEntity
  8
SUNPOU
 62
     0
440
 16777216
370
    -2
100
AcDbLine
 10
2715.257447992859
 20
6938.150715731972
 30
0.0
 11
2675.257447992859
 21
6938.150715731972
 31
0.0
  0
LINE
  5
178D
330
1018
100
AcDbEntity
  8
SUNPOU
 62
     0
440
 16777216
370
    -2
100
AcDbLine
 10
2865.257447992859
 20
6938.150715731972
 30
0.0
 11
2905.257447992859
 21
6938.150715731972
 31
0.0
  0
SOLID
  5
178E
330
1018
100
AcDbEntity
  8
SUNPOU
 62
     0
440
 16777216
100
AcDbTrace
 10
2715.257447992859
 20
6944.817382398639
 30
0.0
 11
2715.257447992859
 21
6931.484049065305
 31
0.0
 12
2755.257447992859
 22
6938.150715731972
 32
0.0
 13
2755.257447992859
 23
6938.150715731972
 33
0.0
  0
SOLID
  5
178F
330
1018
100
AcDbEntity
  8
SUNPOU
 62
     0
440
 16777216
100
AcDbTrace
 10
2865.257447992859
 20
6944.817382398639
 30
0.0
 11
2865.257447992859
 21
6931.484049065305
 31
0.0
 12
2825.257447992859
 22
6938.150715731972
 32
0.0
 13
2825.257447992859
 23
6938.150715731972
 33
0.0
  0
MTEXT
  5
1790
330
1018
100
AcDbEntity
  8
SUNPOU
 62
     0
440
 16777216
100
AcDbMText
 10
2790.257447992859
 20
6984.150715731972
 30
0.0
 40
60.0
 41
0.0
 71
     5
 72
     1
  1
\A1;70
 73
     1
 44
1.0
  0
POINT
  5
1791
330
1018
100
AcDbEntity
  8
DEFPOINTS
 62
     0
440
 16777216
100
AcDbPoint
 10
2755.257447992859
 20
6657.793358888684
 30
0.0
  0
POINT
  5
1792
330
1018
100
AcDbEntity
  8
DEFPOINTS
 62
     0
440
 16777216
100
AcDbPoint
 10
2825.257447992859
 20
6657.793358888684
 30
0.0
  0
POINT
  5
1793
330
1018
100
AcDbEntity
  8
DEFPOINTS
 62
     0
440
 16777216
100
AcDbPoint
 10
2825.257447992859
 20
6938.150715731972
 30
0.0
  0
ENDBLK
  5
1024
330
1018
100
AcDbEntity
  8
0
100
AcDbBlockEnd
  0
BLOCK
  5
1032
330
1028
100
AcDbEntity
  8
0
100
AcDbBlockBegin
  2
*D9
 70
     1
 10
0.0
 20
0.0
 30
0.0
  3
*D9
  1

  0
LINE
  5
1794
330
1028
100
AcDbEntity
  8
SUNPOU
 62
     0
440
 16777216
370
    -2
100
AcDbLine
 10
1845.257447992859
 20
6657.793358888684
 30
0.0
 11
1491.016007144367
 21
6657.793358888684
 31
0.0
  0
LINE
  5
1795
330
1028
100
AcDbEntity
  8
SUNPOU
 62
     0
440
 16777216
370
    -2
100
AcDbLine
 10
1880.257447992859
 20
5857.793358888684
 30
0.0
 11
1491.016007144367
 21
5857.793358888684
 31
0.0
  0
LINE
  5
1796
330
1028
100
AcDbEntity
  8
SUNPOU
 62
     0
440
 16777216
370
    -2
100
AcDbLine
 10
1501.016007144367
 20
6617.793358888684
 30
0.0
 11
1501.016007144367
 21
5897.793358888684
 31
0.0
  0
SOLID
  5
1797
330
1028
100
AcDbEntity
  8
SUNPOU
 62
     0
440
 16777216
100
AcDbTrace
 10
1494.3493404777
 20
6617.793358888684
 30
0.0
 11
1507.682673811034
 21
6617.793358888684
 31
0.0
 12
1501.016007144367
 22
6657.793358888684
 32
0.0
 13
1501.016007144367
 23
6657.793358888684
 33
0.0
  0
SOLID
  5
1798
330
1028
100
AcDbEntity
  8
SUNPOU
 62
     0
440
 16777216
100
AcDbTrace
 10
1494.3493404777
 20
5897.793358888684
 30
0.0
 11
1507.682673811034
 21
5897.793358888684
 31
0.0
 12
1501.016007144367
 22
5857.793358888684
 32
0.0
 13
1501.016007144367
 23
5857.793358888684
 33
0.0
  0
MTEXT
  5
1799
330
1028
100
AcDbEntity
  8
SUNPOU
 62
     0
440
 16777216
100
AcDbMText
 10
1455.016007144366
 20
6257.793358888684
 30
0.0
 40
60.0
 41
0.0
 71
     5
 72
     1
  1
\A1;800
 11
6.123031769111886E-17
 21
1.0
 31
0.0
 73
     1
 44
1.0
  0
POINT
  5
179A
330
1028
100
AcDbEntity
  8
DEFPOINTS
 62
     0
440
 16777216
100
AcDbPoint
 10
1885.257447992859
 20
6657.793358888684
 30
0.0
  0
POINT
  5
179B
330
1028
100
AcDbEntity
  8
DEFPOINTS
 62
     0
440
 16777216
100
AcDbPoint
 10
1920.257447992859
 20
5857.793358888684
 30
0.0
  0
POINT
  5
179C
330
1028
100
AcDbEntity
  8
DEFPOINTS
 62
     0
440
 16777216
100
AcDbPoint
 10
1501.016007144367
 20
5857.793358888684
 30
0.0
  0
ENDBLK
  5
1033
330
1028
100
AcDbEntity
  8
0
100
AcDbBlockEnd
  0
BLOCK
  5
103F
330
1034
100
AcDbEntity
  8
0
100
AcDbBlockBegin
  2
*D10
 70
     1
 10
0.0
 20
0.0
 30
0.0
  3
*D10
  1

  0
LINE
  5
179D
330
1034
100
AcDbEntity
  8
SUNPOU
 62
     0
440
 16777216
370
    -2
100
AcDbLine
 10
1845.257447992859
 20
6602.793358888684
 30
0.0
 11
1736.323605584871
 21
6602.793358888684
 31
0.0
  0
LINE
  5
179E
330
1034
100
AcDbEntity
  8
SUNPOU
 62
     0
440
 16777216
370
    -2
100
AcDbLine
 10
1845.257447992859
 20
6657.793358888684
 30
0.0
 11
1736.323605584872
 21
6657.793358888684
 31
0.0
  0
LINE
  5
179F
330
1034
100
AcDbEntity
  8
SUNPOU
 62
     0
440
 16777216
370
    -2
100
AcDbLine
 10
1746.323605584871
 20
6562.793358888684
 30
0.0
 11
1746.323605584871
 21
6522.793358888684
 31
0.0
  0
LINE
  5
17A0
330
1034
100
AcDbEntity
  8
SUNPOU
 62
     0
440
 16777216
370
    -2
100
AcDbLine
 10
1746.323605584872
 20
6697.793358888684
 30
0.0
 11
1746.323605584872
 21
6737.793358888684
 31
0.0
  0
SOLID
  5
17A1
330
1034
100
AcDbEntity
  8
SUNPOU
 62
     0
440
 16777216
100
AcDbTrace
 10
1739.656938918205
 20
6562.793358888684
 30
0.0
 11
1752.990272251538
 21
6562.793358888684
 31
0.0
 12
1746.323605584871
 22
6602.793358888684
 32
0.0
 13
1746.323605584871
 23
6602.793358888684
 33
0.0
  0
SOLID
  5
17A2
330
1034
100
AcDbEntity
  8
SUNPOU
 62
     0
440
 16777216
100
AcDbTrace
 10
1739.656938918205
 20
6697.793358888684
 30
0.0
 11
1752.990272251538
 21
6697.793358888684
 31
0.0
 12
1746.323605584872
 22
6657.793358888684
 32
0.0
 13
1746.323605584872
 23
6657.793358888684
 33
0.0
  0
MTEXT
  5
17A3
330
1034
100
AcDbEntity
  8
SUNPOU
 62
     0
440
 16777216
100
AcDbMText
 10
1700.32360558487
 20
6630.293358888684
 30
0.0
 40
60.0
 41
0.0
 71
     5
 72
     1
  1
\A1;55
 11
6.123031769111886E-17
 21
1.0
 31
0.0
 73
     1
 44
1.0
  0
POINT
  5
17A4
330
1034
100
AcDbEntity
  8
DEFPOINTS
 62
     0
440
 16777216
100
AcDbPoint
 10
1885.257447992859
 20
6602.793358888684
 30
0.0
  0
POINT
  5
17A5
330
1034
100
AcDbEntity
  8
DEFPOINTS
 62
     0
440
 16777216
100
AcDbPoint
 10
1885.257447992859
 20
6657.793358888684
 30
0.0
  0
POINT
  5
17A6
330
1034
100
AcDbEntity
  8
DEFPOINTS
 62
     0
440
 16777216
100
AcDbPoint
 10
1746.323605584872
 20
6657.793358888684
 30
0.0
  0
ENDBLK
  5
1040
330
1034
100
AcDbEntity
  8
0
100
AcDbBlockEnd
  0
BLOCK
  5
104B
330
1041
100
AcDbEntity
  8
0
100
AcDbBlockBegin
  2
*D11
 70
     1
 10
0.0
 20
0.0
 30
0.0
  3
*D11
  1

  0
LINE
  5
17A7
330
1041
100
AcDbEntity
  8
SUNPOU
 62
     0
440
 16777216
370
    -2
100
AcDbLine
 10
1915.257447992859
 20
5787.793358888685
 30
0.0
 11
1380.315774552946
 21
5787.793358888685
 31
0.0
  0
LINE
  5
17A8
330
1041
100
AcDbEntity
  8
SUNPOU
 62
     0
440
 16777216
370
    -2
100
AcDbLine
 10
1845.257447992859
 20
6657.793358888684
 30
0.0
 11
1380.315774552946
 21
6657.793358888684
 31
0.0
  0
LINE
  5
17A9
330
1041
100
AcDbEntity
  8
SUNPOU
 62
     0
440
 16777216
370
    -2
100
AcDbLine
 10
1390.315774552946
 20
5827.793358888685
 30
0.0
 11
1390.315774552946
 21
6617.793358888684
 31
0.0
  0
SOLID
  5
17AA
330
1041
100
AcDbEntity
  8
SUNPOU
 62
     0
440
 16777216
100
AcDbTrace
 10
1383.649107886279
 20
5827.793358888685
 30
0.0
 11
1396.982441219612
 21
5827.793358888685
 31
0.0
 12
1390.315774552946
 22
5787.793358888685
 32
0.0
 13
1390.315774552946
 23
5787.793358888685
 33
0.0
  0
SOLID
  5
17AB
330
1041
100
AcDbEntity
  8
SUNPOU
 62
     0
440
 16777216
100
AcDbTrace
 10
1383.649107886279
 20
6617.793358888684
 30
0.0
 11
1396.982441219612
 21
6617.793358888684
 31
0.0
 12
1390.315774552946
 22
6657.793358888684
 32
0.0
 13
1390.315774552946
 23
6657.793358888684
 33
0.0
  0
MTEXT
  5
17AC
330
1041
100
AcDbEntity
  8
SUNPOU
 62
     0
440
 16777216
100
AcDbMText
 10
1344.315774552945
 20
6222.793358888684
 30
0.0
 40
60.0
 41
0.0
 71
     5
 72
     1
  1
\A1;870
 11
6.123031769111886E-17
 21
1.0
 31
0.0
 73
     1
 44
1.0
  0
POINT
  5
17AD
330
1041
100
AcDbEntity
  8
DEFPOINTS
 62
     0
440
 16777216
100
AcDbPoint
 10
1955.257447992859
 20
5787.793358888685
 30
0.0
  0
POINT
  5
17AE
330
1041
100
AcDbEntity
  8
DEFPOINTS
 62
     0
440
 16777216
100
AcDbPoint
 10
1885.257447992859
 20
6657.793358888684
 30
0.0
  0
POINT
  5
17AF
330
1041
100
AcDbEntity
  8
DEFPOINTS
 62
     0
440
 16777216
100
AcDbPoint
 10
1390.315774552946
 20
6657.793358888684
 30
0.0
  0
ENDBLK
  5
104C
330
1041
100
AcDbEntity
  8
0
100
AcDbBlockEnd
  0
BLOCK
  5
107E
330
1073
100
AcDbEntity
  8
0
100
AcDbBlockBegin
  2
*D12
 70
     1
 10
0.0
 20
0.0
 30
0.0
  3
*D12
  1

  0
LINE
  5
17B0
330
1073
100
AcDbEntity
  8
SUNPOU
 62
     0
440
 16777216
370
    -2
100
AcDbLine
 10
1990.257447992859
 20
5897.793358888684
 30
0.0
 11
1990.257447992859
 21
6236.133626444725
 31
0.0
  0
LINE
  5
17B1
330
1073
100
AcDbEntity
  8
SUNPOU
 62
     0
440
 16777216
370
    -2
100
AcDbLine
 10
1920.257447992859
 20
5897.793358888684
 30
0.0
 11
1920.257447992859
 21
6236.133626444725
 31
0.0
  0
LINE
  5
17B2
330
1073
100
AcDbEntity
  8
SUNPOU
 62
     0
440
 16777216
370
    -2
100
AcDbLine
 10
2030.257447992859
 20
6226.133626444725
 30
0.0
 11
2070.257447992859
 21
6226.133626444725
 31
0.0
  0
LINE
  5
17B3
330
1073
100
AcDbEntity
  8
SUNPOU
 62
     0
440
 16777216
370
    -2
100
AcDbLine
 10
1880.257447992859
 20
6226.133626444725
 30
0.0
 11
1840.257447992859
 21
6226.133626444725
 31
0.0
  0
SOLID
  5
17B4
330
1073
100
AcDbEntity
  8
SUNPOU
 62
     0
440
 16777216
100
AcDbTrace
 10
2030.257447992859
 20
6232.800293111392
 30
0.0
 11
2030.257447992859
 21
6219.466959778058
 31
0.0
 12
1990.257447992859
 22
6226.133626444725
 32
0.0
 13
1990.257447992859
 23
6226.133626444725
 33
0.0
  0
SOLID
  5
17B5
330
1073
100
AcDbEntity
  8
SUNPOU
 62
     0
440
 16777216
100
AcDbTrace
 10
1880.257447992859
 20
6232.800293111392
 30
0.0
 11
1880.257447992859
 21
6219.466959778058
 31
0.0
 12
1920.257447992859
 22
6226.133626444725
 32
0.0
 13
1920.257447992859
 23
6226.133626444725
 33
0.0
  0
MTEXT
  5
17B6
330
1073
100
AcDbEntity
  8
SUNPOU
 62
     0
440
 16777216
100
AcDbMText
 10
1955.257447992859
 20
6272.133626444725
 30
0.0
 40
60.0
 41
0.0
 71
     5
 72
     1
  1
\A1;70
 73
     1
 44
1.0
  0
POINT
  5
17B7
330
1073
100
AcDbEntity
  8
DEFPOINTS
 62
     0
440
 16777216
100
AcDbPoint
 10
1990.257447992859
 20
5857.793358888684
 30
0.0
  0
POINT
  5
17B8
330
1073
100
AcDbEntity
  8
DEFPOINTS
 62
     0
440
 16777216
100
AcDbPoint
 10
1920.257447992859
 20
5857.793358888684
 30
0.0
  0
POINT
  5
17B9
330
1073
100
AcDbEntity
  8
DEFPOINTS
 62
     0
440
 16777216
100
AcDbPoint
 10
1920.257447992859
 20
6226.133626444725
 30
0.0
  0
ENDBLK
  5
107F
330
1073
100
AcDbEntity
  8
0
100
AcDbBlockEnd
  0
BLOCK
  5
108B
330
1081
100
AcDbEntity
  8
0
100
AcDbBlockBegin
  2
*D13
 70
     1
 10
0.0
 20
0.0
 30
0.0
  3
*D13
  1

  0
LINE
  5
17BA
330
1081
100
AcDbEntity
  8
SUNPOU
 62
     0
440
 16777216
370
    -2
100
AcDbLine
 10
1990.257447992859
 20
5897.793358888684
 30
0.0
 11
1990.257447992859
 21
6236.133626444725
 31
0.0
  0
LINE
  5
17BB
330
1081
100
AcDbEntity
  8
SUNPOU
 62
     0
440
 16777216
370
    -2
100
AcDbLine
 10
2720.257447992858
 20
5897.793358888684
 30
0.0
 11
2720.257447992858
 21
6236.133626444725
 31
0.0
  0
LINE
  5
17BC
330
1081
100
AcDbEntity
  8
SUNPOU
 62
     0
440
 16777216
370
    -2
100
AcDbLine
 10
2030.257447992859
 20
6226.133626444725
 30
0.0
 11
2680.257447992858
 21
6226.133626444725
 31
0.0
  0
SOLID
  5
17BD
330
1081
100
AcDbEntity
  8
SUNPOU
 62
     0
440
 16777216
100
AcDbTrace
 10
2030.257447992859
 20
6232.800293111392
 30
0.0
 11
2030.257447992859
 21
6219.466959778058
 31
0.0
 12
1990.257447992859
 22
6226.133626444725
 32
0.0
 13
1990.257447992859
 23
6226.133626444725
 33
0.0
  0
SOLID
  5
17BE
330
1081
100
AcDbEntity
  8
SUNPOU
 62
     0
440
 16777216
100
AcDbTrace
 10
2680.257447992858
 20
6232.800293111392
 30
0.0
 11
2680.257447992858
 21
6219.466959778058
 31
0.0
 12
2720.257447992858
 22
6226.133626444725
 32
0.0
 13
2720.257447992858
 23
6226.133626444725
 33
0.0
  0
MTEXT
  5
17BF
330
1081
100
AcDbEntity
  8
SUNPOU
 62
     0
440
 16777216
100
AcDbMText
 10
2355.257447992859
 20
6272.133626444725
 30
0.0
 40
60.0
 41
0.0
 71
     5
 72
     1
  1
\A1;730
 73
     1
 44
1.0
  0
POINT
  5
17C0
330
1081
100
AcDbEntity
  8
DEFPOINTS
 62
     0
440
 16777216
100
AcDbPoint
 10
1990.257447992859
 20
5857.793358888684
 30
0.0
  0
POINT
  5
17C1
330
1081
100
AcDbEntity
  8
DEFPOINTS
 62
     0
440
 16777216
100
AcDbPoint
 10
2720.257447992858
 20
5857.793358888684
 30
0.0
  0
POINT
  5
17C2
330
1081
100
AcDbEntity
  8
DEFPOINTS
 62
     0
440
 16777216
100
AcDbPoint
 10
2720.257447992858
 20
6226.133626444725
 30
0.0
  0
ENDBLK
  5
108C
330
1081
100
AcDbEntity
  8
0
100
AcDbBlockEnd
  0
BLOCK
  5
1099
330
108E
100
AcDbEntity
  8
0
100
AcDbBlockBegin
  2
*D14
 70
     1
 10
0.0
 20
0.0
 30
0.0
  3
*D14
  1

  0
LINE
  5
17C3
330
108E
100
AcDbEntity
  8
SUNPOU
 62
     0
440
 16777216
370
    -2
100
AcDbLine
 10
1880.257447992859
 20
5857.793358888684
 30
0.0
 11
1491.016007144367
 21
5857.793358888684
 31
0.0
  0
LINE
  5
17C4
330
108E
100
AcDbEntity
  8
SUNPOU
 62
     0
440
 16777216
370
    -2
100
AcDbLine
 10
1915.257447992859
 20
5787.793358888685
 30
0.0
 11
1491.016007144367
 21
5787.793358888685
 31
0.0
  0
LINE
  5
17C5
330
108E
100
AcDbEntity
  8
SUNPOU
 62
     0
440
 16777216
370
    -2
100
AcDbLine
 10
1501.016007144367
 20
5897.793358888684
 30
0.0
 11
1501.016007144367
 21
5937.793358888684
 31
0.0
  0
LINE
  5
17C6
330
108E
100
AcDbEntity
  8
SUNPOU
 62
     0
440
 16777216
370
    -2
100
AcDbLine
 10
1501.016007144367
 20
5747.793358888685
 30
0.0
 11
1501.016007144367
 21
5707.793358888685
 31
0.0
  0
SOLID
  5
17C7
330
108E
100
AcDbEntity
  8
SUNPOU
 62
     0
440
 16777216
100
AcDbTrace
 10
1494.3493404777
 20
5897.793358888684
 30
0.0
 11
1507.682673811034
 21
5897.793358888684
 31
0.0
 12
1501.016007144367
 22
5857.793358888684
 32
0.0
 13
1501.016007144367
 23
5857.793358888684
 33
0.0
  0
SOLID
  5
17C8
330
108E
100
AcDbEntity
  8
SUNPOU
 62
     0
440
 16777216
100
AcDbTrace
 10
1494.3493404777
 20
5747.793358888685
 30
0.0
 11
1507.682673811034
 21
5747.793358888685
 31
0.0
 12
1501.016007144367
 22
5787.793358888685
 32
0.0
 13
1501.016007144367
 23
5787.793358888685
 33
0.0
  0
MTEXT
  5
17C9
330
108E
100
AcDbEntity
  8
SUNPOU
 62
     0
440
 16777216
100
AcDbMText
 10
1455.016007144366
 20
5822.793358888684
 30
0.0
 40
60.0
 41
0.0
 71
     5
 72
     1
  1
\A1;70
 11
6.123031769111886E-17
 21
1.0
 31
0.0
 73
     1
 44
1.0
  0
POINT
  5
17CA
330
108E
100
AcDbEntity
  8
DEFPOINTS
 62
     0
440
 16777216
100
AcDbPoint
 10
1920.257447992859
 20
5857.793358888684
 30
0.0
  0
POINT
  5
17CB
330
108E
100
AcDbEntity
  8
DEFPOINTS
 62
     0
440
 16777216
100
AcDbPoint
 10
1955.257447992859
 20
5787.793358888685
 30
0.0
  0
POINT
  5
17CC
330
108E
100
AcDbEntity
  8
DEFPOINTS
 62
     0
440
 16777216
100
AcDbPoint
 10
1501.016007144367
 20
5787.793358888685
 30
0.0
  0
ENDBLK
  5
109A
330
108E
100
AcDbEntity
  8
0
100
AcDbBlockEnd
  0
BLOCK
  5
10B0
330
10A5
100
AcDbEntity
  8
0
100
AcDbBlockBegin
  2
*D15
 70
     1
 10
0.0
 20
0.0
 30
0.0
  3
*D15
  1

  0
LINE
  5
17CD
330
10A5
100
AcDbEntity
  8
SUNPOU
 62
     0
440
 16777216
370
    -2
100
AcDbLine
 10
2720.257447992858
 20
5897.793358888684
 30
0.0
 11
2720.257447992858
 21
6236.133626444725
 31
0.0
  0
LINE
  5
17CE
330
10A5
100
AcDbEntity
  8
SUNPOU
 62
     0
440
 16777216
370
    -2
100
AcDbLine
 10
2790.257447992858
 20
5897.793358888684
 30
0.0
 11
2790.257447992858
 21
6236.133626444725
 31
0.0
  0
LINE
  5
17CF
330
10A5
100
AcDbEntity
  8
SUNPOU
 62
     0
440
 16777216
370
    -2
100
AcDbLine
 10
2680.257447992858
 20
6226.133626444725
 30
0.0
 11
2640.257447992858
 21
6226.133626444725
 31
0.0
  0
LINE
  5
17D0
330
10A5
100
AcDbEntity
  8
SUNPOU
 62
     0
440
 16777216
370
    -2
100
AcDbLine
 10
2830.257447992858
 20
6226.133626444725
 30
0.0
 11
2870.257447992858
 21
6226.133626444725
 31
0.0
  0
SOLID
  5
17D1
330
10A5
100
AcDbEntity
  8
SUNPOU
 62
     0
440
 16777216
100
AcDbTrace
 10
2680.257447992858
 20
6232.800293111392
 30
0.0
 11
2680.257447992858
 21
6219.466959778058
 31
0.0
 12
2720.257447992858
 22
6226.133626444725
 32
0.0
 13
2720.257447992858
 23
6226.133626444725
 33
0.0
  0
SOLID
  5
17D2
330
10A5
100
AcDbEntity
  8
SUNPOU
 62
     0
440
 16777216
100
AcDbTrace
 10
2830.257447992858
 20
6232.800293111392
 30
0.0
 11
2830.257447992858
 21
6219.466959778058
 31
0.0
 12
2790.257447992858
 22
6226.133626444725
 32
0.0
 13
2790.257447992858
 23
6226.133626444725
 33
0.0
  0
MTEXT
  5
17D3
330
10A5
100
AcDbEntity
  8
SUNPOU
 62
     0
440
 16777216
100
AcDbMText
 10
2755.257447992858
 20
6272.133626444725
 30
0.0
 40
60.0
 41
0.0
 71
     5
 72
     1
  1
\A1;70
 73
     1
 44
1.0
  0
POINT
  5
17D4
330
10A5
100
AcDbEntity
  8
DEFPOINTS
 62
     0
440
 16777216
100
AcDbPoint
 10
2720.257447992858
 20
5857.793358888684
 30
0.0
  0
POINT
  5
17D5
330
10A5
100
AcDbEntity
  8
DEFPOINTS
 62
     0
440
 16777216
100
AcDbPoint
 10
2790.257447992858
 20
5857.793358888684
 30
0.0
  0
POINT
  5
17D6
330
10A5
100
AcDbEntity
  8
DEFPOINTS
 62
     0
440
 16777216
100
AcDbPoint
 10
2790.257447992858
 20
6226.133626444725
 30
0.0
  0
ENDBLK
  5
10B1
330
10A5
100
AcDbEntity
  8
0
100
AcDbBlockEnd
  0
BLOCK
  5
10D2
330
10C8
100
AcDbEntity
  8
0
100
AcDbBlockBegin
  2
*D16
 70
     1
 10
0.0
 20
0.0
 30
0.0
  3
*D16
  1

  0
LINE
  5
17D7
330
10C8
100
AcDbEntity
  8
SUNPOU
 62
     0
440
 16777216
370
    -2
100
AcDbLine
 10
1880.257447992859
 20
5857.793358888684
 30
0.0
 11
1689.491070727785
 21
5857.793358888684
 31
0.0
  0
LINE
  5
17D8
330
10C8
100
AcDbEntity
  8
SUNPOU
 62
     0
440
 16777216
370
    -2
100
AcDbLine
 10
1844.837561283319
 20
6107.793358888684
 30
0.0
 11
1689.491070727785
 21
6107.793358888684
 31
0.0
  0
LINE
  5
17D9
330
10C8
100
AcDbEntity
  8
SUNPOU
 62
     0
440
 16777216
370
    -2
100
AcDbLine
 10
1699.491070727785
 20
5897.793358888684
 30
0.0
 11
1699.491070727785
 21
6067.793358888684
 31
0.0
  0
SOLID
  5
17DA
330
10C8
100
AcDbEntity
  8
SUNPOU
 62
     0
440
 16777216
100
AcDbTrace
 10
1692.824404061118
 20
5897.793358888684
 30
0.0
 11
1706.157737394452
 21
5897.793358888684
 31
0.0
 12
1699.491070727785
 22
5857.793358888684
 32
0.0
 13
1699.491070727785
 23
5857.793358888684
 33
0.0
  0
SOLID
  5
17DB
330
10C8
100
AcDbEntity
  8
SUNPOU
 62
     0
440
 16777216
100
AcDbTrace
 10
1692.824404061118
 20
6067.793358888684
 30
0.0
 11
1706.157737394452
 21
6067.793358888684
 31
0.0
 12
1699.491070727785
 22
6107.793358888684
 32
0.0
 13
1699.491070727785
 23
6107.793358888684
 33
0.0
  0
MTEXT
  5
17DC
330
10C8
100
AcDbEntity
  8
SUNPOU
 62
     0
440
 16777216
100
AcDbMText
 10
1653.491070727784
 20
5982.793358888684
 30
0.0
 40
60.0
 41
0.0
 71
     5
 72
     1
  1
\A1;250
 11
6.123031769111886E-17
 21
1.0
 31
0.0
 73
     1
 44
1.0
  0
POINT
  5
17DD
330
10C8
100
AcDbEntity
  8
DEFPOINTS
 62
     0
440
 16777216
100
AcDbPoint
 10
1920.257447992859
 20
5857.793358888684
 30
0.0
  0
POINT
  5
17DE
330
10C8
100
AcDbEntity
  8
DEFPOINTS
 62
     0
440
 16777216
100
AcDbPoint
 10
1884.837561283319
 20
6107.793358888684
 30
0.0
  0
POINT
  5
17DF
330
10C8
100
AcDbEntity
  8
DEFPOINTS
 62
     0
440
 16777216
100
AcDbPoint
 10
1699.491070727785
 20
6107.793358888684
 30
0.0
  0
ENDBLK
  5
10D3
330
10C8
100
AcDbEntity
  8
0
100
AcDbBlockEnd
  0
BLOCK
  5
10DB
330
10D5
100
AcDbEntity
  8
0
100
AcDbBlockBegin
  2
*D17
 70
     1
 10
0.0
 20
0.0
 30
0.0
  3
*D17
  1

  0
LINE
  5
17E0
330
10D5
100
AcDbEntity
  8
SUNPOU
 62
     0
440
 16777216
370
    -2
100
AcDbLine
 10
1971.183626420234
 20
5859.305919064078
 30
0.0
 11
1939.882433062431
 21
5834.401395491493
 31
0.0
  0
MTEXT
  5
17E1
330
10D5
100
AcDbEntity
  8
SUNPOU
 62
     0
440
 16777216
100
AcDbMText
 10
2090.435001092108
 20
5963.005725664492
 30
0.0
 40
60.0
 41
0.0
 71
     5
 72
     1
  1
\A1;R70
 11
0.7825298339450814
 21
0.6226130893146107
 31
0.0
 73
     1
 44
1.0
  0
SOLID
  5
17E2
330
10D5
100
AcDbEntity
  8
SUNPOU
 62
     0
440
 16777216
100
AcDbTrace
 10
1967.03287249147
 20
5864.522784623711
 30
0.0
 11
1975.334380348997
 21
5854.089053504444
 31
0.0
 12
2002.484819778037
 22
5884.210442636662
 32
0.0
 13
2002.484819778037
 23
5884.210442636662
 33
0.0
  0
POINT
  5
17E3
330
10D5
100
AcDbEntity
  8
DEFPOINTS
 62
     0
440
 16777216
100
AcDbPoint
 10
2002.484819778037
 20
5884.210442636662
 30
0.0
  0
POINT
  5
17E4
330
10D5
100
AcDbEntity
  8
DEFPOINTS
 62
     0
440
 16777216
100
AcDbPoint
 10
2057.261908154193
 20
5927.793358888684
 30
0.0
  0
ENDBLK
  5
10DC
330
10D5
100
AcDbEntity
  8
0
100
AcDbBlockEnd
  0
BLOCK
  5
10F2
330
10E8
100
AcDbEntity
  8
0
100
AcDbBlockBegin
  2
*D18
 70
     1
 10
0.0
 20
0.0
 30
0.0
  3
*D18
  1

  0
LINE
  5
17E5
330
10E8
100
AcDbEntity
  8
SUNPOU
 62
     0
440
 16777216
370
    -2
100
AcDbLine
 10
1955.257447992859
 20
5747.793358888685
 30
0.0
 11
1955.257447992859
 21
5460.508307673703
 31
0.0
  0
LINE
  5
17E6
330
10E8
100
AcDbEntity
  8
SUNPOU
 62
     0
440
 16777216
370
    -2
100
AcDbLine
 10
2755.257447992859
 20
5747.793358888686
 30
0.0
 11
2755.257447992859
 21
5460.508307673703
 31
0.0
  0
LINE
  5
17E7
330
10E8
100
AcDbEntity
  8
SUNPOU
 62
     0
440
 16777216
370
    -2
100
AcDbLine
 10
1995.257447992859
 20
5470.508307673703
 30
0.0
 11
2715.257447992859
 21
5470.508307673703
 31
0.0
  0
SOLID
  5
17E8
330
10E8
100
AcDbEntity
  8
SUNPOU
 62
     0
440
 16777216
100
AcDbTrace
 10
1995.257447992859
 20
5477.17497434037
 30
0.0
 11
1995.257447992859
 21
5463.841641007036
 31
0.0
 12
1955.257447992859
 22
5470.508307673703
 32
0.0
 13
1955.257447992859
 23
5470.508307673703
 33
0.0
  0
SOLID
  5
17E9
330
10E8
100
AcDbEntity
  8
SUNPOU
 62
     0
440
 16777216
100
AcDbTrace
 10
2715.257447992859
 20
5477.17497434037
 30
0.0
 11
2715.257447992859
 21
5463.841641007036
 31
0.0
 12
2755.257447992859
 22
5470.508307673703
 32
0.0
 13
2755.257447992859
 23
5470.508307673703
 33
0.0
  0
MTEXT
  5
17EA
330
10E8
100
AcDbEntity
  8
SUNPOU
 62
     0
440
 16777216
100
AcDbMText
 10
2355.257447992859
 20
5516.508307673703
 30
0.0
 40
60.0
 41
0.0
 71
     5
 72
     1
  1
\A1;800
 73
     1
 44
1.0
  0
POINT
  5
17EB
330
10E8
100
AcDbEntity
  8
DEFPOINTS
 62
     0
440
 16777216
100
AcDbPoint
 10
1955.257447992859
 20
5787.793358888685
 30
0.0
  0
POINT
  5
17EC
330
10E8
100
AcDbEntity
  8
DEFPOINTS
 62
     0
440
 16777216
100
AcDbPoint
 10
2755.257447992859
 20
5787.793358888686
 30
0.0
  0
POINT
  5
17ED
330
10E8
100
AcDbEntity
  8
DEFPOINTS
 62
     0
440
 16777216
100
AcDbPoint
 10
2755.257447992859
 20
5470.508307673703
 30
0.0
  0
ENDBLK
  5
10F3
330
10E8
100
AcDbEntity
  8
0
100
AcDbBlockEnd
  0
BLOCK
  5
1518
330
1517
100
AcDbEntity
  8
0
100
AcDbBlockBegin
  2
*D45
 70
     1
 10
0.0
 20
0.0
 30
0.0
  3
*D45
  1

  0
LINE
  5
1617
330
1517
100
AcDbEntity
  8
SUNPOU
 62
     0
440
 16777216
370
    -2
100
AcDbLine
 10
4014.773348996653
 20
6697.793358888684
 30
0.0
 11
4014.773348996653
 21
7035.720986260798
 31
0.0
  0
LINE
  5
1618
330
1517
100
AcDbEntity
  8
SUNPOU
 62
     0
440
 16777216
370
    -2
100
AcDbLine
 10
6014.773348996652
 20
6697.793358888684
 30
0.0
 11
6014.773348996652
 21
7035.720986260798
 31
0.0
  0
LINE
  5
1619
330
1517
100
AcDbEntity
  8
SUNPOU
 62
     0
440
 16777216
370
    -2
100
AcDbLine
 10
4054.773348996653
 20
7025.720986260798
 30
0.0
 11
5974.773348996652
 21
7025.720986260798
 31
0.0
  0
SOLID
  5
161A
330
1517
100
AcDbEntity
  8
SUNPOU
 62
     0
440
 16777216
100
AcDbTrace
 10
4054.773348996653
 20
7032.387652927465
 30
0.0
 11
4054.773348996653
 21
7019.054319594131
 31
0.0
 12
4014.773348996653
 22
7025.720986260798
 32
0.0
 13
4014.773348996653
 23
7025.720986260798
 33
0.0
  0
SOLID
  5
161B
330
1517
100
AcDbEntity
  8
SUNPOU
 62
     0
440
 16777216
100
AcDbTrace
 10
5974.773348996652
 20
7032.387652927465
 30
0.0
 11
5974.773348996652
 21
7019.054319594131
 31
0.0
 12
6014.773348996652
 22
7025.720986260798
 32
0.0
 13
6014.773348996652
 23
7025.720986260798
 33
0.0
  0
MTEXT
  5
161C
330
1517
100
AcDbEntity
  8
SUNPOU
 62
     0
440
 16777216
100
AcDbMText
 10
5014.773348996652
 20
7071.720986260798
 30
0.0
 40
60.0
 41
0.0
 71
     5
 72
     1
  1
\A1;2000
 73
     1
 44
1.0
  0
POINT
  5
161D
330
1517
100
AcDbEntity
  8
DEFPOINTS
 62
     0
440
 16777216
100
AcDbPoint
 10
4014.773348996653
 20
6657.793358888684
 30
0.0
  0
POINT
  5
161E
330
1517
100
AcDbEntity
  8
DEFPOINTS
 62
     0
440
 16777216
100
AcDbPoint
 10
6014.773348996652
 20
6657.793358888684
 30
0.0
  0
POINT
  5
161F
330
1517
100
AcDbEntity
  8
DEFPOINTS
 62
     0
440
 16777216
100
AcDbPoint
 10
6014.773348996652
 20
7025.720986260798
 30
0.0
  0
ENDBLK
  5
1519
330
1517
100
AcDbEntity
  8
0
100
AcDbBlockEnd
  0
BLOCK
  5
1524
330
1523
100
AcDbEntity
  8
0
100
AcDbBlockBegin
  2
*D46
 70
     1
 10
0.0
 20
0.0
 30
0.0
  3
*D46
  1

  0
LINE
  5
1620
330
1523
100
AcDbEntity
  8
SUNPOU
 62
     0
440
 16777216
370
    -2
100
AcDbLine
 10
3974.773348996653
 20
5857.793358888684
 30
0.0
 11
3838.231331124236
 21
5857.793358888684
 31
0.0
  0
LINE
  5
1621
330
1523
100
AcDbEntity
  8
SUNPOU
 62
     0
440
 16777216
370
    -2
100
AcDbLine
 10
3974.773348996653
 20
5787.793358888684
 30
0.0
 11
3838.231331124236
 21
5787.793358888684
 31
0.0
  0
LINE
  5
1622
330
1523
100
AcDbEntity
  8
SUNPOU
 62
     0
440
 16777216
370
    -2
100
AcDbLine
 10
3848.231331124236
 20
5897.793358888684
 30
0.0
 11
3848.231331124236
 21
5937.793358888684
 31
0.0
  0
LINE
  5
1623
330
1523
100
AcDbEntity
  8
SUNPOU
 62
     0
440
 16777216
370
    -2
100
AcDbLine
 10
3848.231331124236
 20
5747.793358888684
 30
0.0
 11
3848.231331124236
 21
5707.793358888684
 31
0.0
  0
MTEXT
  5
1624
330
1523
100
AcDbEntity
  8
SUNPOU
 62
     0
440
 16777216
100
AcDbMText
 10
3808.231331124236
 20
5834.866078929375
 30
0.0
 40
60.0
 41
0.0
 71
     5
 72
     1
  1
\A1;70
 11
6.123031769111886E-17
 21
1.0
 31
0.0
 73
     1
 44
1.0
  0
SOLID
  5
1625
330
1523
100
AcDbEntity
  8
SUNPOU
 62
     0
440
 16777216
100
AcDbTrace
 10
3841.564664457569
 20
5897.793358888684
 30
0.0
 11
3854.897997790902
 21
5897.793358888684
 31
0.0
 12
3848.231331124236
 22
5857.793358888684
 32
0.0
 13
3848.231331124236
 23
5857.793358888684
 33
0.0
  0
SOLID
  5
1626
330
1523
100
AcDbEntity
  8
SUNPOU
 62
     0
440
 16777216
100
AcDbTrace
 10
3841.564664457569
 20
5747.793358888684
 30
0.0
 11
3854.897997790902
 21
5747.793358888684
 31
0.0
 12
3848.231331124236
 22
5787.793358888684
 32
0.0
 13
3848.231331124236
 23
5787.793358888684
 33
0.0
  0
POINT
  5
1627
330
1523
100
AcDbEntity
  8
DEFPOINTS
 62
     0
440
 16777216
100
AcDbPoint
 10
4014.773348996653
 20
5857.793358888684
 30
0.0
  0
POINT
  5
1628
330
1523
100
AcDbEntity
  8
DEFPOINTS
 62
     0
440
 16777216
100
AcDbPoint
 10
4014.773348996653
 20
5787.793358888684
 30
0.0
  0
POINT
  5
1629
330
1523
100
AcDbEntity
  8
DEFPOINTS
 62
     0
440
 16777216
100
AcDbPoint
 10
3848.231331124236
 20
5787.793358888684
 30
0.0
  0
ENDBLK
  5
1525
330
1523
100
AcDbEntity
  8
0
100
AcDbBlockEnd
  0
BLOCK
  5
1531
330
1530
100
AcDbEntity
  8
0
100
AcDbBlockBegin
  2
*D47
 70
     1
 10
0.0
 20
0.0
 30
0.0
  3
*D47
  1

  0
LINE
  5
17EF
330
1530
100
AcDbEntity
  8
SUNPOU
 62
     0
440
 16777216
370
    -2
100
AcDbLine
 10
56.9942903845149
 20
6697.793358888684
 30
0.0
 11
56.99429038451492
 21
6948.150715731972
 31
0.0
  0
LINE
  5
17F0
330
1530
100
AcDbEntity
  8
SUNPOU
 62
     0
440
 16777216
370
    -2
100
AcDbLine
 10
656.9942903845149
 20
6697.793358888684
 30
0.0
 11
656.9942903845149
 21
6948.150715731972
 31
0.0
  0
LINE
  5
17F1
330
1530
100
AcDbEntity
  8
SUNPOU
 62
     0
440
 16777216
370
    -2
100
AcDbLine
 10
96.99429038451491
 20
6938.150715731972
 30
0.0
 11
616.9942903845149
 21
6938.150715731972
 31
0.0
  0
SOLID
  5
17F2
330
1530
100
AcDbEntity
  8
SUNPOU
 62
     0
440
 16777216
100
AcDbTrace
 10
96.99429038451491
 20
6944.817382398639
 30
0.0
 11
96.99429038451491
 21
6931.484049065305
 31
0.0
 12
56.99429038451491
 22
6938.150715731972
 32
0.0
 13
56.99429038451491
 23
6938.150715731972
 33
0.0
  0
SOLID
  5
17F3
330
1530
100
AcDbEntity
  8
SUNPOU
 62
     0
440
 16777216
100
AcDbTrace
 10
616.9942903845149
 20
6944.817382398639
 30
0.0
 11
616.9942903845149
 21
6931.484049065305
 31
0.0
 12
656.9942903845149
 22
6938.150715731972
 32
0.0
 13
656.9942903845149
 23
6938.150715731972
 33
0.0
  0
MTEXT
  5
17F4
330
1530
100
AcDbEntity
  8
SUNPOU
 62
     0
440
 16777216
100
AcDbMText
 10
356.9942903845149
 20
6984.150715731972
 30
0.0
 40
60.0
 41
0.0
 71
     5
 72
     1
  1
\A1;600
 73
     1
 44
1.0
  0
POINT
  5
17F5
330
1530
100
AcDbEntity
  8
DEFPOINTS
 62
     0
440
 16777216
100
AcDbPoint
 10
56.9942903845149
 20
6657.793358888684
 30
0.0
  0
POINT
  5
17F6
330
1530
100
AcDbEntity
  8
DEFPOINTS
 62
     0
440
 16777216
100
AcDbPoint
 10
656.9942903845149
 20
6657.793358888684
 30
0.0
  0
POINT
  5
17F7
330
1530
100
AcDbEntity
  8
DEFPOINTS
 62
     0
440
 16777216
100
AcDbPoint
 10
656.9942903845149
 20
6938.150715731972
 30
0.0
  0
ENDBLK
  5
1532
330
1530
100
AcDbEntity
  8
0
100
AcDbBlockEnd
  0
BLOCK
  5
153D
330
153C
100
AcDbEntity
  8
0
100
AcDbBlockBegin
  2
*D48
 70
     1
 10
0.0
 20
0.0
 30
0.0
  3
*D48
  1

  0
LINE
  5
17F8
330
153C
100
AcDbEntity
  8
SUNPOU
 62
     0
440
 16777216
370
    -2
100
AcDbLine
 10
-13.0057096154851
 20
6697.793358888684
 30
0.0
 11
-13.00570961548508
 21
7075.781973033828
 31
0.0
  0
LINE
  5
17F9
330
153C
100
AcDbEntity
  8
SUNPOU
 62
     0
440
 16777216
370
    -2
100
AcDbLine
 10
726.9942903845149
 20
6697.793358888684
 30
0.0
 11
726.9942903845149
 21
7075.781973033828
 31
0.0
  0
LINE
  5
17FA
330
153C
100
AcDbEntity
  8
SUNPOU
 62
     0
440
 16777216
370
    -2
100
AcDbLine
 10
26.99429038451492
 20
7065.781973033828
 30
0.0
 11
686.9942903845149
 21
7065.781973033828
 31
0.0
  0
SOLID
  5
17FB
330
153C
100
AcDbEntity
  8
SUNPOU
 62
     0
440
 16777216
100
AcDbTrace
 10
26.99429038451492
 20
7072.448639700495
 30
0.0
 11
26.99429038451492
 21
7059.115306367161
 31
0.0
 12
-13.00570961548508
 22
7065.781973033828
 32
0.0
 13
-13.00570961548508
 23
7065.781973033828
 33
0.0
  0
SOLID
  5
17FC
330
153C
100
AcDbEntity
  8
SUNPOU
 62
     0
440
 16777216
100
AcDbTrace
 10
686.9942903845149
 20
7072.448639700495
 30
0.0
 11
686.9942903845149
 21
7059.115306367161
 31
0.0
 12
726.9942903845149
 22
7065.781973033828
 32
0.0
 13
726.9942903845149
 23
7065.781973033828
 33
0.0
  0
MTEXT
  5
17FD
330
153C
100
AcDbEntity
  8
SUNPOU
 62
     0
440
 16777216
100
AcDbMText
 10
356.9942903845149
 20
7111.781973033828
 30
0.0
 40
60.0
 41
0.0
 71
     5
 72
     1
  1
\A1;740
 73
     1
 44
1.0
  0
POINT
  5
17FE
330
153C
100
AcDbEntity
  8
DEFPOINTS
 62
     0
440
 16777216
100
AcDbPoint
 10
-13.0057096154851
 20
6657.793358888684
 30
0.0
  0
POINT
  5
17FF
330
153C
100
AcDbEntity
  8
DEFPOINTS
 62
     0
440
 16777216
100
AcDbPoint
 10
726.9942903845149
 20
6657.793358888684
 30
0.0
  0
POINT
  5
1800
330
153C
100
AcDbEntity
  8
DEFPOINTS
 62
     0
440
 16777216
100
AcDbPoint
 10
726.9942903845149
 20
7065.781973033828
 30
0.0
  0
ENDBLK
  5
153E
330
153C
100
AcDbEntity
  8
0
100
AcDbBlockEnd
  0
BLOCK
  5
1549
330
1548
100
AcDbEntity
  8
0
100
AcDbBlockBegin
  2
*D49
 70
     1
 10
0.0
 20
0.0
 30
0.0
  3
*D49
  1

  0
LINE
  5
1801
330
1548
100
AcDbEntity
  8
SUNPOU
 62
     0
440
 16777216
370
    -2
100
AcDbLine
 10
1.9942903845149
 20
6697.793358888684
 30
0.0
 11
1.994290384514915
 21
6948.150715731972
 31
0.0
  0
LINE
  5
1802
330
1548
100
AcDbEntity
  8
SUNPOU
 62
     0
440
 16777216
370
    -2
100
AcDbLine
 10
-13.0057096154851
 20
6697.793358888684
 30
0.0
 11
-13.00570961548508
 21
6948.150715731972
 31
0.0
  0
LINE
  5
1803
330
1548
100
AcDbEntity
  8
SUNPOU
 62
     0
440
 16777216
370
    -2
100
AcDbLine
 10
41.99429038451491
 20
6938.150715731972
 30
0.0
 11
81.99429038451491
 21
6938.150715731972
 31
0.0
  0
LINE
  5
1804
330
1548
100
AcDbEntity
  8
SUNPOU
 62
     0
440
 16777216
370
    -2
100
AcDbLine
 10
-53.00570961548509
 20
6938.150715731972
 30
0.0
 11
-93.00570961548509
 21
6938.150715731972
 31
0.0
  0
MTEXT
  5
1805
330
1548
100
AcDbEntity
  8
SUNPOU
 62
     0
440
 16777216
100
AcDbMText
 10
-69.31654050935731
 20
6985.020059540287
 30
0.0
 40
60.0
 41
0.0
 71
     5
 72
     1
  1
\A1;15
 73
     1
 44
1.0
  0
SOLID
  5
1806
330
1548
100
AcDbEntity
  8
SUNPOU
 62
     0
440
 16777216
100
AcDbTrace
 10
41.99429038451491
 20
6944.817382398639
 30
0.0
 11
41.99429038451491
 21
6931.484049065305
 31
0.0
 12
1.994290384514915
 22
6938.150715731972
 32
0.0
 13
1.994290384514915
 23
6938.150715731972
 33
0.0
  0
SOLID
  5
1807
330
1548
100
AcDbEntity
  8
SUNPOU
 62
     0
440
 16777216
100
AcDbTrace
 10
-53.00570961548509
 20
6944.817382398639
 30
0.0
 11
-53.00570961548509
 21
6931.484049065305
 31
0.0
 12
-13.00570961548508
 22
6938.150715731972
 32
0.0
 13
-13.00570961548508
 23
6938.150715731972
 33
0.0
  0
POINT
  5
1808
330
1548
100
AcDbEntity
  8
DEFPOINTS
 62
     0
440
 16777216
100
AcDbPoint
 10
1.994290384514898
 20
6657.793358888684
 30
0.0
  0
POINT
  5
1809
330
1548
100
AcDbEntity
  8
DEFPOINTS
 62
     0
440
 16777216
100
AcDbPoint
 10
-13.0057096154851
 20
6657.793358888684
 30
0.0
  0
POINT
  5
180A
330
1548
100
AcDbEntity
  8
DEFPOINTS
 62
     0
440
 16777216
100
AcDbPoint
 10
-13.00570961548508
 20
6938.150715731972
 30
0.0
  0
ENDBLK
  5
154A
330
1548
100
AcDbEntity
  8
0
100
AcDbBlockEnd
  0
BLOCK
  5
1556
330
1555
100
AcDbEntity
  8
0
100
AcDbBlockBegin
  2
*D50
 70
     1
 10
0.0
 20
0.0
 30
0.0
  3
*D50
  1

  0
LINE
  5
180B
330
1555
100
AcDbEntity
  8
SUNPOU
 62
     0
440
 16777216
370
    -2
100
AcDbLine
 10
56.9942903845149
 20
6697.793358888684
 30
0.0
 11
56.99429038451492
 21
6948.150715731972
 31
0.0
  0
LINE
  5
180C
330
1555
100
AcDbEntity
  8
SUNPOU
 62
     0
440
 16777216
370
    -2
100
AcDbLine
 10
1.9942903845149
 20
6697.793358888684
 30
0.0
 11
1.994290384514915
 21
6948.150715731972
 31
0.0
  0
LINE
  5
180D
330
1555
100
AcDbEntity
  8
SUNPOU
 62
     0
440
 16777216
370
    -2
100
AcDbLine
 10
96.99429038451491
 20
6938.150715731972
 30
0.0
 11
136.9942903845149
 21
6938.150715731972
 31
0.0
  0
LINE
  5
180E
330
1555
100
AcDbEntity
  8
SUNPOU
 62
     0
440
 16777216
370
    -2
100
AcDbLine
 10
-38.00570961548509
 20
6938.150715731972
 30
0.0
 11
-78.00570961548509
 21
6938.150715731972
 31
0.0
  0
SOLID
  5
180F
330
1555
100
AcDbEntity
  8
SUNPOU
 62
     0
440
 16777216
100
AcDbTrace
 10
96.99429038451491
 20
6944.817382398639
 30
0.0
 11
96.99429038451491
 21
6931.484049065305
 31
0.0
 12
56.99429038451491
 22
6938.150715731972
 32
0.0
 13
56.99429038451491
 23
6938.150715731972
 33
0.0
  0
SOLID
  5
1810
330
1555
100
AcDbEntity
  8
SUNPOU
 62
     0
440
 16777216
100
AcDbTrace
 10
-38.00570961548509
 20
6944.817382398639
 30
0.0
 11
-38.00570961548509
 21
6931.484049065305
 31
0.0
 12
1.994290384514915
 22
6938.150715731972
 32
0.0
 13
1.994290384514915
 23
6938.150715731972
 33
0.0
  0
MTEXT
  5
1811
330
1555
100
AcDbEntity
  8
SUNPOU
 62
     0
440
 16777216
100
AcDbMText
 10
29.49429038451492
 20
6984.150715731972
 30
0.0
 40
60.0
 41
0.0
 71
     5
 72
     1
  1
\A1;55
 73
     1
 44
1.0
  0
POINT
  5
1812
330
1555
100
AcDbEntity
  8
DEFPOINTS
 62
     0
440
 16777216
100
AcDbPoint
 10
56.9942903845149
 20
6657.793358888684
 30
0.0
  0
POINT
  5
1813
330
1555
100
AcDbEntity
  8
DEFPOINTS
 62
     0
440
 16777216
100
AcDbPoint
 10
1.994290384514898
 20
6657.793358888684
 30
0.0
  0
POINT
  5
1814
330
1555
100
AcDbEntity
  8
DEFPOINTS
 62
     0
440
 16777216
100
AcDbPoint
 10
1.994290384514915
 20
6938.150715731972
 30
0.0
  0
ENDBLK
  5
1557
330
1555
100
AcDbEntity
  8
0
100
AcDbBlockEnd
  0
BLOCK
  5
1563
330
1562
100
AcDbEntity
  8
0
100
AcDbBlockBegin
  2
*D51
 70
     1
 10
0.0
 20
0.0
 30
0.0
  3
*D51
  1

  0
LINE
  5
1815
330
1562
100
AcDbEntity
  8
SUNPOU
 62
     0
440
 16777216
370
    -2
100
AcDbLine
 10
656.9942903845149
 20
6697.793358888684
 30
0.0
 11
656.9942903845149
 21
6948.150715731972
 31
0.0
  0
LINE
  5
1816
330
1562
100
AcDbEntity
  8
SUNPOU
 62
     0
440
 16777216
370
    -2
100
AcDbLine
 10
726.9942903845149
 20
6697.793358888684
 30
0.0
 11
726.9942903845149
 21
6948.150715731972
 31
0.0
  0
LINE
  5
1817
330
1562
100
AcDbEntity
  8
SUNPOU
 62
     0
440
 16777216
370
    -2
100
AcDbLine
 10
616.9942903845149
 20
6938.150715731972
 30
0.0
 11
576.9942903845149
 21
6938.150715731972
 31
0.0
  0
LINE
  5
1818
330
1562
100
AcDbEntity
  8
SUNPOU
 62
     0
440
 16777216
370
    -2
100
AcDbLine
 10
766.9942903845149
 20
6938.150715731972
 30
0.0
 11
806.9942903845149
 21
6938.150715731972
 31
0.0
  0
SOLID
  5
1819
330
1562
100
AcDbEntity
  8
SUNPOU
 62
     0
440
 16777216
100
AcDbTrace
 10
616.9942903845149
 20
6944.817382398639
 30
0.0
 11
616.9942903845149
 21
6931.484049065305
 31
0.0
 12
656.9942903845149
 22
6938.150715731972
 32
0.0
 13
656.9942903845149
 23
6938.150715731972
 33
0.0
  0
SOLID
  5
181A
330
1562
100
AcDbEntity
  8
SUNPOU
 62
     0
440
 16777216
100
AcDbTrace
 10
766.9942903845149
 20
6944.817382398639
 30
0.0
 11
766.9942903845149
 21
6931.484049065305
 31
0.0
 12
726.9942903845149
 22
6938.150715731972
 32
0.0
 13
726.9942903845149
 23
6938.150715731972
 33
0.0
  0
MTEXT
  5
181B
330
1562
100
AcDbEntity
  8
SUNPOU
 62
     0
440
 16777216
100
AcDbMText
 10
691.9942903845149
 20
6984.150715731972
 30
0.0
 40
60.0
 41
0.0
 71
     5
 72
     1
  1
\A1;70
 73
     1
 44
1.0
  0
POINT
  5
181C
330
1562
100
AcDbEntity
  8
DEFPOINTS
 62
     0
440
 16777216
100
AcDbPoint
 10
656.9942903845149
 20
6657.793358888684
 30
0.0
  0
POINT
  5
181D
330
1562
100
AcDbEntity
  8
DEFPOINTS
 62
     0
440
 16777216
100
AcDbPoint
 10
726.9942903845149
 20
6657.793358888684
 30
0.0
  0
POINT
  5
181E
330
1562
100
AcDbEntity
  8
DEFPOINTS
 62
     0
440
 16777216
100
AcDbPoint
 10
726.9942903845149
 20
6938.150715731972
 30
0.0
  0
ENDBLK
  5
1564
330
1562
100
AcDbEntity
  8
0
100
AcDbBlockEnd
  0
BLOCK
  5
1570
330
156F
100
AcDbEntity
  8
0
100
AcDbBlockBegin
  2
*D52
 70
     1
 10
0.0
 20
0.0
 30
0.0
  3
*D52
  1

  0
LINE
  5
181F
330
156F
100
AcDbEntity
  8
SUNPOU
 62
     0
440
 16777216
370
    -2
100
AcDbLine
 10
-53.0057096154851
 20
6657.793358888684
 30
0.0
 11
-407.2471504639767
 21
6657.793358888684
 31
0.0
  0
LINE
  5
1820
330
156F
100
AcDbEntity
  8
SUNPOU
 62
     0
440
 16777216
370
    -2
100
AcDbLine
 10
-18.00570961548465
 20
5857.793358888684
 30
0.0
 11
-407.2471504639768
 21
5857.793358888684
 31
0.0
  0
LINE
  5
1821
330
156F
100
AcDbEntity
  8
SUNPOU
 62
     0
440
 16777216
370
    -2
100
AcDbLine
 10
-397.2471504639767
 20
6617.793358888684
 30
0.0
 11
-397.2471504639768
 21
5897.793358888684
 31
0.0
  0
SOLID
  5
1822
330
156F
100
AcDbEntity
  8
SUNPOU
 62
     0
440
 16777216
100
AcDbTrace
 10
-403.9138171306433
 20
6617.793358888684
 30
0.0
 11
-390.58048379731
 21
6617.793358888684
 31
0.0
 12
-397.2471504639767
 22
6657.793358888684
 32
0.0
 13
-397.2471504639767
 23
6657.793358888684
 33
0.0
  0
SOLID
  5
1823
330
156F
100
AcDbEntity
  8
SUNPOU
 62
     0
440
 16777216
100
AcDbTrace
 10
-403.9138171306435
 20
5897.793358888684
 30
0.0
 11
-390.5804837973101
 21
5897.793358888684
 31
0.0
 12
-397.2471504639768
 22
5857.793358888684
 32
0.0
 13
-397.2471504639768
 23
5857.793358888684
 33
0.0
  0
MTEXT
  5
1824
330
156F
100
AcDbEntity
  8
SUNPOU
 62
     0
440
 16777216
100
AcDbMText
 10
-443.2471504639777
 20
6257.793358888684
 30
0.0
 40
60.0
 41
0.0
 71
     5
 72
     1
  1
\A1;800
 11
6.123031769111886E-17
 21
1.0
 31
0.0
 73
     1
 44
1.0
  0
POINT
  5
1825
330
156F
100
AcDbEntity
  8
DEFPOINTS
 62
     0
440
 16777216
100
AcDbPoint
 10
-13.0057096154851
 20
6657.793358888684
 30
0.0
  0
POINT
  5
1826
330
156F
100
AcDbEntity
  8
DEFPOINTS
 62
     0
440
 16777216
100
AcDbPoint
 10
21.99429038451535
 20
5857.793358888684
 30
0.0
  0
POINT
  5
1827
330
156F
100
AcDbEntity
  8
DEFPOINTS
 62
     0
440
 16777216
100
AcDbPoint
 10
-397.2471504639768
 20
5857.793358888684
 30
0.0
  0
ENDBLK
  5
1571
330
156F
100
AcDbEntity
  8
0
100
AcDbBlockEnd
  0
BLOCK
  5
157C
330
157B
100
AcDbEntity
  8
0
100
AcDbBlockBegin
  2
*D53
 70
     1
 10
0.0
 20
0.0
 30
0.0
  3
*D53
  1

  0
LINE
  5
1828
330
157B
100
AcDbEntity
  8
SUNPOU
 62
     0
440
 16777216
370
    -2
100
AcDbLine
 10
-53.0057096154851
 20
6602.793358888684
 30
0.0
 11
-161.9395520234725
 21
6602.793358888684
 31
0.0
  0
LINE
  5
1829
330
157B
100
AcDbEntity
  8
SUNPOU
 62
     0
440
 16777216
370
    -2
100
AcDbLine
 10
-53.0057096154851
 20
6657.793358888684
 30
0.0
 11
-161.9395520234725
 21
6657.793358888684
 31
0.0
  0
LINE
  5
182A
330
157B
100
AcDbEntity
  8
SUNPOU
 62
     0
440
 16777216
370
    -2
100
AcDbLine
 10
-151.9395520234725
 20
6562.793358888684
 30
0.0
 11
-151.9395520234725
 21
6522.793358888684
 31
0.0
  0
LINE
  5
182B
330
157B
100
AcDbEntity
  8
SUNPOU
 62
     0
440
 16777216
370
    -2
100
AcDbLine
 10
-151.9395520234725
 20
6697.793358888684
 30
0.0
 11
-151.9395520234725
 21
6737.793358888684
 31
0.0
  0
SOLID
  5
182C
330
157B
100
AcDbEntity
  8
SUNPOU
 62
     0
440
 16777216
100
AcDbTrace
 10
-158.6062186901392
 20
6562.793358888684
 30
0.0
 11
-145.2728853568059
 21
6562.793358888684
 31
0.0
 12
-151.9395520234725
 22
6602.793358888684
 32
0.0
 13
-151.9395520234725
 23
6602.793358888684
 33
0.0
  0
SOLID
  5
182D
330
157B
100
AcDbEntity
  8
SUNPOU
 62
     0
440
 16777216
100
AcDbTrace
 10
-158.6062186901392
 20
6697.793358888684
 30
0.0
 11
-145.2728853568059
 21
6697.793358888684
 31
0.0
 12
-151.9395520234725
 22
6657.793358888684
 32
0.0
 13
-151.9395520234725
 23
6657.793358888684
 33
0.0
  0
MTEXT
  5
182E
330
157B
100
AcDbEntity
  8
SUNPOU
 62
     0
440
 16777216
100
AcDbMText
 10
-197.9395520234736
 20
6630.293358888684
 30
0.0
 40
60.0
 41
0.0
 71
     5
 72
     1
  1
\A1;55
 11
6.123031769111886E-17
 21
1.0
 31
0.0
 73
     1
 44
1.0
  0
POINT
  5
182F
330
157B
100
AcDbEntity
  8
DEFPOINTS
 62
     0
440
 16777216
100
AcDbPoint
 10
-13.0057096154851
 20
6602.793358888684
 30
0.0
  0
POINT
  5
1830
330
157B
100
AcDbEntity
  8
DEFPOINTS
 62
     0
440
 16777216
100
AcDbPoint
 10
-13.0057096154851
 20
6657.793358888684
 30
0.0
  0
POINT
  5
1831
330
157B
100
AcDbEntity
  8
DEFPOINTS
 62
     0
440
 16777216
100
AcDbPoint
 10
-151.9395520234725
 20
6657.793358888684
 30
0.0
  0
ENDBLK
  5
157D
330
157B
100
AcDbEntity
  8
0
100
AcDbBlockEnd
  0
BLOCK
  5
1589
330
1588
100
AcDbEntity
  8
0
100
AcDbBlockBegin
  2
*D54
 70
     1
 10
0.0
 20
0.0
 30
0.0
  3
*D54
  1

  0
LINE
  5
1832
330
1588
100
AcDbEntity
  8
SUNPOU
 62
     0
440
 16777216
370
    -2
100
AcDbLine
 10
16.99429038451512
 20
5787.793358888685
 30
0.0
 11
-517.9473830553984
 21
5787.793358888685
 31
0.0
  0
LINE
  5
1833
330
1588
100
AcDbEntity
  8
SUNPOU
 62
     0
440
 16777216
370
    -2
100
AcDbLine
 10
-53.0057096154851
 20
6657.793358888684
 30
0.0
 11
-517.9473830553982
 21
6657.793358888684
 31
0.0
  0
LINE
  5
1834
330
1588
100
AcDbEntity
  8
SUNPOU
 62
     0
440
 16777216
370
    -2
100
AcDbLine
 10
-507.9473830553983
 20
5827.793358888685
 30
0.0
 11
-507.9473830553982
 21
6617.793358888684
 31
0.0
  0
SOLID
  5
1835
330
1588
100
AcDbEntity
  8
SUNPOU
 62
     0
440
 16777216
100
AcDbTrace
 10
-514.614049722065
 20
5827.793358888685
 30
0.0
 11
-501.2807163887317
 21
5827.793358888685
 31
0.0
 12
-507.9473830553983
 22
5787.793358888685
 32
0.0
 13
-507.9473830553983
 23
5787.793358888685
 33
0.0
  0
SOLID
  5
1836
330
1588
100
AcDbEntity
  8
SUNPOU
 62
     0
440
 16777216
100
AcDbTrace
 10
-514.6140497220648
 20
6617.793358888684
 30
0.0
 11
-501.2807163887315
 21
6617.793358888684
 31
0.0
 12
-507.9473830553982
 22
6657.793358888684
 32
0.0
 13
-507.9473830553982
 23
6657.793358888684
 33
0.0
  0
MTEXT
  5
1837
330
1588
100
AcDbEntity
  8
SUNPOU
 62
     0
440
 16777216
100
AcDbMText
 10
-553.9473830553993
 20
6222.793358888684
 30
0.0
 40
60.0
 41
0.0
 71
     5
 72
     1
  1
\A1;870
 11
6.123031769111886E-17
 21
1.0
 31
0.0
 73
     1
 44
1.0
  0
POINT
  5
1838
330
1588
100
AcDbEntity
  8
DEFPOINTS
 62
     0
440
 16777216
100
AcDbPoint
 10
56.99429038451512
 20
5787.793358888685
 30
0.0
  0
POINT
  5
1839
330
1588
100
AcDbEntity
  8
DEFPOINTS
 62
     0
440
 16777216
100
AcDbPoint
 10
-13.0057096154851
 20
6657.793358888684
 30
0.0
  0
POINT
  5
183A
330
1588
100
AcDbEntity
  8
DEFPOINTS
 62
     0
440
 16777216
100
AcDbPoint
 10
-507.9473830553982
 20
6657.793358888684
 30
0.0
  0
ENDBLK
  5
158A
330
1588
100
AcDbEntity
  8
0
100
AcDbBlockEnd
  0
BLOCK
  5
1595
330
1594
100
AcDbEntity
  8
0
100
AcDbBlockBegin
  2
*D55
 70
     1
 10
0.0
 20
0.0
 30
0.0
  3
*D55
  1

  0
LINE
  5
183B
330
1594
100
AcDbEntity
  8
SUNPOU
 62
     0
440
 16777216
370
    -2
100
AcDbLine
 10
91.99429038451535
 20
5897.793358888684
 30
0.0
 11
91.99429038451538
 21
6236.133626444725
 31
0.0
  0
LINE
  5
183C
330
1594
100
AcDbEntity
  8
SUNPOU
 62
     0
440
 16777216
370
    -2
100
AcDbLine
 10
21.99429038451536
 20
5897.793358888684
 30
0.0
 11
21.99429038451538
 21
6236.133626444725
 31
0.0
  0
LINE
  5
183D
330
1594
100
AcDbEntity
  8
SUNPOU
 62
     0
440
 16777216
370
    -2
100
AcDbLine
 10
131.9942903845154
 20
6226.133626444725
 30
0.0
 11
171.9942903845154
 21
6226.133626444725
 31
0.0
  0
LINE
  5
183E
330
1594
100
AcDbEntity
  8
SUNPOU
 62
     0
440
 16777216
370
    -2
100
AcDbLine
 10
-18.00570961548463
 20
6226.133626444725
 30
0.0
 11
-58.00570961548463
 21
6226.133626444725
 31
0.0
  0
SOLID
  5
183F
330
1594
100
AcDbEntity
  8
SUNPOU
 62
     0
440
 16777216
100
AcDbTrace
 10
131.9942903845154
 20
6232.800293111392
 30
0.0
 11
131.9942903845154
 21
6219.466959778058
 31
0.0
 12
91.99429038451538
 22
6226.133626444725
 32
0.0
 13
91.99429038451538
 23
6226.133626444725
 33
0.0
  0
SOLID
  5
1840
330
1594
100
AcDbEntity
  8
SUNPOU
 62
     0
440
 16777216
100
AcDbTrace
 10
-18.00570961548463
 20
6232.800293111392
 30
0.0
 11
-18.00570961548463
 21
6219.466959778058
 31
0.0
 12
21.99429038451537
 22
6226.133626444725
 32
0.0
 13
21.99429038451537
 23
6226.133626444725
 33
0.0
  0
MTEXT
  5
1841
330
1594
100
AcDbEntity
  8
SUNPOU
 62
     0
440
 16777216
100
AcDbMText
 10
56.99429038451538
 20
6272.133626444725
 30
0.0
 40
60.0
 41
0.0
 71
     5
 72
     1
  1
\A1;70
 73
     1
 44
1.0
  0
POINT
  5
1842
330
1594
100
AcDbEntity
  8
DEFPOINTS
 62
     0
440
 16777216
100
AcDbPoint
 10
91.99429038451535
 20
5857.793358888684
 30
0.0
  0
POINT
  5
1843
330
1594
100
AcDbEntity
  8
DEFPOINTS
 62
     0
440
 16777216
100
AcDbPoint
 10
21.99429038451535
 20
5857.793358888684
 30
0.0
  0
POINT
  5
1844
330
1594
100
AcDbEntity
  8
DEFPOINTS
 62
     0
440
 16777216
100
AcDbPoint
 10
21.99429038451537
 20
6226.133626444725
 30
0.0
  0
ENDBLK
  5
1596
330
1594
100
AcDbEntity
  8
0
100
AcDbBlockEnd
  0
BLOCK
  5
15A2
330
15A1
100
AcDbEntity
  8
0
100
AcDbBlockBegin
  2
*D56
 70
     1
 10
0.0
 20
0.0
 30
0.0
  3
*D56
  1

  0
LINE
  5
1845
330
15A1
100
AcDbEntity
  8
SUNPOU
 62
     0
440
 16777216
370
    -2
100
AcDbLine
 10
91.99429038451535
 20
5897.793358888684
 30
0.0
 11
91.99429038451538
 21
6236.133626444725
 31
0.0
  0
LINE
  5
1846
330
15A1
100
AcDbEntity
  8
SUNPOU
 62
     0
440
 16777216
370
    -2
100
AcDbLine
 10
621.9942903845144
 20
5897.793358888684
 30
0.0
 11
621.9942903845144
 21
6236.133626444725
 31
0.0
  0
LINE
  5
1847
330
15A1
100
AcDbEntity
  8
SUNPOU
 62
     0
440
 16777216
370
    -2
100
AcDbLine
 10
131.9942903845154
 20
6226.133626444725
 30
0.0
 11
581.9942903845144
 21
6226.133626444725
 31
0.0
  0
SOLID
  5
1848
330
15A1
100
AcDbEntity
  8
SUNPOU
 62
     0
440
 16777216
100
AcDbTrace
 10
131.9942903845154
 20
6232.800293111392
 30
0.0
 11
131.9942903845154
 21
6219.466959778058
 31
0.0
 12
91.99429038451538
 22
6226.133626444725
 32
0.0
 13
91.99429038451538
 23
6226.133626444725
 33
0.0
  0
SOLID
  5
1849
330
15A1
100
AcDbEntity
  8
SUNPOU
 62
     0
440
 16777216
100
AcDbTrace
 10
581.9942903845144
 20
6232.800293111392
 30
0.0
 11
581.9942903845144
 21
6219.466959778058
 31
0.0
 12
621.9942903845144
 22
6226.133626444725
 32
0.0
 13
621.9942903845144
 23
6226.133626444725
 33
0.0
  0
MTEXT
  5
184A
330
15A1
100
AcDbEntity
  8
SUNPOU
 62
     0
440
 16777216
100
AcDbMText
 10
356.9942903845149
 20
6272.133626444725
 30
0.0
 40
60.0
 41
0.0
 71
     5
 72
     1
  1
\A1;530
 73
     1
 44
1.0
  0
POINT
  5
184B
330
15A1
100
AcDbEntity
  8
DEFPOINTS
 62
     0
440
 16777216
100
AcDbPoint
 10
91.99429038451535
 20
5857.793358888684
 30
0.0
  0
POINT
  5
184C
330
15A1
100
AcDbEntity
  8
DEFPOINTS
 62
     0
440
 16777216
100
AcDbPoint
 10
621.9942903845144
 20
5857.793358888684
 30
0.0
  0
POINT
  5
184D
330
15A1
100
AcDbEntity
  8
DEFPOINTS
 62
     0
440
 16777216
100
AcDbPoint
 10
621.9942903845144
 20
6226.133626444725
 30
0.0
  0
ENDBLK
  5
15A3
330
15A1
100
AcDbEntity
  8
0
100
AcDbBlockEnd
  0
BLOCK
  5
15AE
330
15AD
100
AcDbEntity
  8
0
100
AcDbBlockBegin
  2
*D57
 70
     1
 10
0.0
 20
0.0
 30
0.0
  3
*D57
  1

  0
LINE
  5
184E
330
15AD
100
AcDbEntity
  8
SUNPOU
 62
     0
440
 16777216
370
    -2
100
AcDbLine
 10
-18.00570961548465
 20
5857.793358888684
 30
0.0
 11
-407.2471504639768
 21
5857.793358888684
 31
0.0
  0
LINE
  5
184F
330
15AD
100
AcDbEntity
  8
SUNPOU
 62
     0
440
 16777216
370
    -2
100
AcDbLine
 10
16.99429038451512
 20
5787.793358888685
 30
0.0
 11
-407.2471504639768
 21
5787.793358888685
 31
0.0
  0
LINE
  5
1850
330
15AD
100
AcDbEntity
  8
SUNPOU
 62
     0
440
 16777216
370
    -2
100
AcDbLine
 10
-397.2471504639768
 20
5897.793358888684
 30
0.0
 11
-397.2471504639768
 21
5937.793358888684
 31
0.0
  0
LINE
  5
1851
330
15AD
100
AcDbEntity
  8
SUNPOU
 62
     0
440
 16777216
370
    -2
100
AcDbLine
 10
-397.2471504639769
 20
5747.793358888685
 30
0.0
 11
-397.2471504639769
 21
5707.793358888685
 31
0.0
  0
SOLID
  5
1852
330
15AD
100
AcDbEntity
  8
SUNPOU
 62
     0
440
 16777216
100
AcDbTrace
 10
-403.9138171306435
 20
5897.793358888684
 30
0.0
 11
-390.5804837973101
 21
5897.793358888684
 31
0.0
 12
-397.2471504639768
 22
5857.793358888684
 32
0.0
 13
-397.2471504639768
 23
5857.793358888684
 33
0.0
  0
SOLID
  5
1853
330
15AD
100
AcDbEntity
  8
SUNPOU
 62
     0
440
 16777216
100
AcDbTrace
 10
-403.9138171306436
 20
5747.793358888685
 30
0.0
 11
-390.5804837973102
 21
5747.793358888685
 31
0.0
 12
-397.2471504639768
 22
5787.793358888685
 32
0.0
 13
-397.2471504639768
 23
5787.793358888685
 33
0.0
  0
MTEXT
  5
1854
330
15AD
100
AcDbEntity
  8
SUNPOU
 62
     0
440
 16777216
100
AcDbMText
 10
-443.2471504639778
 20
5822.793358888684
 30
0.0
 40
60.0
 41
0.0
 71
     5
 72
     1
  1
\A1;70
 11
6.123031769111886E-17
 21
1.0
 31
0.0
 73
     1
 44
1.0
  0
POINT
  5
1855
330
15AD
100
AcDbEntity
  8
DEFPOINTS
 62
     0
440
 16777216
100
AcDbPoint
 10
21.99429038451535
 20
5857.793358888684
 30
0.0
  0
POINT
  5
1856
330
15AD
100
AcDbEntity
  8
DEFPOINTS
 62
     0
440
 16777216
100
AcDbPoint
 10
56.99429038451512
 20
5787.793358888685
 30
0.0
  0
POINT
  5
1857
330
15AD
100
AcDbEntity
  8
DEFPOINTS
 62
     0
440
 16777216
100
AcDbPoint
 10
-397.2471504639768
 20
5787.793358888685
 30
0.0
  0
ENDBLK
  5
15AF
330
15AD
100
AcDbEntity
  8
0
100
AcDbBlockEnd
  0
BLOCK
  5
15BB
330
15BA
100
AcDbEntity
  8
0
100
AcDbBlockBegin
  2
*D58
 70
     1
 10
0.0
 20
0.0
 30
0.0
  3
*D58
  1

  0
LINE
  5
1858
330
15BA
100
AcDbEntity
  8
SUNPOU
 62
     0
440
 16777216
370
    -2
100
AcDbLine
 10
621.9942903845144
 20
5897.793358888684
 30
0.0
 11
621.9942903845144
 21
6236.133626444725
 31
0.0
  0
LINE
  5
1859
330
15BA
100
AcDbEntity
  8
SUNPOU
 62
     0
440
 16777216
370
    -2
100
AcDbLine
 10
691.9942903845144
 20
5897.793358888684
 30
0.0
 11
691.9942903845144
 21
6236.133626444725
 31
0.0
  0
LINE
  5
185A
330
15BA
100
AcDbEntity
  8
SUNPOU
 62
     0
440
 16777216
370
    -2
100
AcDbLine
 10
581.9942903845144
 20
6226.133626444725
 30
0.0
 11
541.9942903845144
 21
6226.133626444725
 31
0.0
  0
LINE
  5
185B
330
15BA
100
AcDbEntity
  8
SUNPOU
 62
     0
440
 16777216
370
    -2
100
AcDbLine
 10
731.9942903845144
 20
6226.133626444725
 30
0.0
 11
771.9942903845144
 21
6226.133626444725
 31
0.0
  0
SOLID
  5
185C
330
15BA
100
AcDbEntity
  8
SUNPOU
 62
     0
440
 16777216
100
AcDbTrace
 10
581.9942903845144
 20
6232.800293111392
 30
0.0
 11
581.9942903845144
 21
6219.466959778058
 31
0.0
 12
621.9942903845144
 22
6226.133626444725
 32
0.0
 13
621.9942903845144
 23
6226.133626444725
 33
0.0
  0
SOLID
  5
185D
330
15BA
100
AcDbEntity
  8
SUNPOU
 62
     0
440
 16777216
100
AcDbTrace
 10
731.9942903845144
 20
6232.800293111392
 30
0.0
 11
731.9942903845144
 21
6219.466959778058
 31
0.0
 12
691.9942903845144
 22
6226.133626444725
 32
0.0
 13
691.9942903845144
 23
6226.133626444725
 33
0.0
  0
MTEXT
  5
185E
330
15BA
100
AcDbEntity
  8
SUNPOU
 62
     0
440
 16777216
100
AcDbMText
 10
656.9942903845144
 20
6272.133626444725
 30
0.0
 40
60.0
 41
0.0
 71
     5
 72
     1
  1
\A1;70
 73
     1
 44
1.0
  0
POINT
  5
185F
330
15BA
100
AcDbEntity
  8
DEFPOINTS
 62
     0
440
 16777216
100
AcDbPoint
 10
621.9942903845144
 20
5857.793358888684
 30
0.0
  0
POINT
  5
1860
330
15BA
100
AcDbEntity
  8
DEFPOINTS
 62
     0
440
 16777216
100
AcDbPoint
 10
691.9942903845144
 20
5857.793358888684
 30
0.0
  0
POINT
  5
1861
330
15BA
100
AcDbEntity
  8
DEFPOINTS
 62
     0
440
 16777216
100
AcDbPoint
 10
691.9942903845144
 20
6226.133626444725
 30
0.0
  0
ENDBLK
  5
15BC
330
15BA
100
AcDbEntity
  8
0
100
AcDbBlockEnd
  0
BLOCK
  5
15C8
330
15C7
100
AcDbEntity
  8
0
100
AcDbBlockBegin
  2
*D59
 70
     1
 10
0.0
 20
0.0
 30
0.0
  3
*D59
  1

  0
LINE
  5
1862
330
15C7
100
AcDbEntity
  8
SUNPOU
 62
     0
440
 16777216
370
    -2
100
AcDbLine
 10
-18.00570961548465
 20
5857.793358888684
 30
0.0
 11
-208.7720868805591
 21
5857.793358888684
 31
0.0
  0
LINE
  5
1863
330
15C7
100
AcDbEntity
  8
SUNPOU
 62
     0
440
 16777216
370
    -2
100
AcDbLine
 10
-53.42559632502525
 20
6107.793358888684
 30
0.0
 11
-208.7720868805591
 21
6107.793358888684
 31
0.0
  0
LINE
  5
1864
330
15C7
100
AcDbEntity
  8
SUNPOU
 62
     0
440
 16777216
370
    -2
100
AcDbLine
 10
-198.7720868805591
 20
5897.793358888684
 30
0.0
 11
-198.7720868805591
 21
6067.793358888684
 31
0.0
  0
SOLID
  5
1865
330
15C7
100
AcDbEntity
  8
SUNPOU
 62
     0
440
 16777216
100
AcDbTrace
 10
-205.4387535472258
 20
5897.793358888684
 30
0.0
 11
-192.1054202138925
 21
5897.793358888684
 31
0.0
 12
-198.7720868805591
 22
5857.793358888684
 32
0.0
 13
-198.7720868805591
 23
5857.793358888684
 33
0.0
  0
SOLID
  5
1866
330
15C7
100
AcDbEntity
  8
SUNPOU
 62
     0
440
 16777216
100
AcDbTrace
 10
-205.4387535472258
 20
6067.793358888684
 30
0.0
 11
-192.1054202138924
 21
6067.793358888684
 31
0.0
 12
-198.7720868805591
 22
6107.793358888684
 32
0.0
 13
-198.7720868805591
 23
6107.793358888684
 33
0.0
  0
MTEXT
  5
1867
330
15C7
100
AcDbEntity
  8
SUNPOU
 62
     0
440
 16777216
100
AcDbMText
 10
-244.7720868805601
 20
5982.793358888684
 30
0.0
 40
60.0
 41
0.0
 71
     5
 72
     1
  1
\A1;250
 11
6.123031769111886E-17
 21
1.0
 31
0.0
 73
     1
 44
1.0
  0
POINT
  5
1868
330
15C7
100
AcDbEntity
  8
DEFPOINTS
 62
     0
440
 16777216
100
AcDbPoint
 10
21.99429038451535
 20
5857.793358888684
 30
0.0
  0
POINT
  5
1869
330
15C7
100
AcDbEntity
  8
DEFPOINTS
 62
     0
440
 16777216
100
AcDbPoint
 10
-13.42559632502525
 20
6107.793358888684
 30
0.0
  0
POINT
  5
186A
330
15C7
100
AcDbEntity
  8
DEFPOINTS
 62
     0
440
 16777216
100
AcDbPoint
 10
-198.7720868805591
 20
6107.793358888684
 30
0.0
  0
ENDBLK
  5
15C9
330
15C7
100
AcDbEntity
  8
0
100
AcDbBlockEnd
  0
BLOCK
  5
15D4
330
15D3
100
AcDbEntity
  8
0
100
AcDbBlockBegin
  2
*D60
 70
     1
 10
0.0
 20
0.0
 30
0.0
  3
*D60
  1

  0
LINE
  5
186B
330
15D3
100
AcDbEntity
  8
SUNPOU
 62
     0
440
 16777216
370
    -2
100
AcDbLine
 10
72.92046881189026
 20
5859.305919064074
 30
0.0
 11
41.61927545408707
 21
5834.40139549149
 31
0.0
  0
MTEXT
  5
186C
330
15D3
100
AcDbEntity
  8
SUNPOU
 62
     0
440
 16777216
100
AcDbMText
 10
192.171843483763
 20
5963.005725664492
 30
0.0
 40
60.0
 41
0.0
 71
     5
 72
     1
  1
\A1;R70
 11
0.7825298339450735
 21
0.6226130893146206
 31
0.0
 73
     1
 44
1.0
  0
SOLID
  5
186D
330
15D3
100
AcDbEntity
  8
SUNPOU
 62
     0
440
 16777216
100
AcDbTrace
 10
68.76971488312574
 20
5864.522784623709
 30
0.0
 11
77.07122274065432
 21
5854.089053504441
 31
0.0
 12
104.221662169693
 22
5884.21044263666
 32
0.0
 13
104.221662169693
 23
5884.21044263666
 33
0.0
  0
POINT
  5
186E
330
15D3
100
AcDbEntity
  8
DEFPOINTS
 62
     0
440
 16777216
100
AcDbPoint
 10
104.221662169693
 20
5884.21044263666
 30
0.0
  0
POINT
  5
186F
330
15D3
100
AcDbEntity
  8
DEFPOINTS
 62
     0
440
 16777216
100
AcDbPoint
 10
158.9987505458494
 20
5927.793358888684
 30
0.0
  0
ENDBLK
  5
15D5
330
15D3
100
AcDbEntity
  8
0
100
AcDbBlockEnd
  0
BLOCK
  5
15DC
330
15DB
100
AcDbEntity
  8
0
100
AcDbBlockBegin
  2
*D61
 70
     1
 10
0.0
 20
0.0
 30
0.0
  3
*D61
  1

  0
LINE
  5
1870
330
15DB
100
AcDbEntity
  8
SUNPOU
 62
     0
440
 16777216
370
    -2
100
AcDbLine
 10
56.99429038451512
 20
5747.793358888685
 30
0.0
 11
56.9942903845151
 21
5460.508307673703
 31
0.0
  0
LINE
  5
1871
330
15DB
100
AcDbEntity
  8
SUNPOU
 62
     0
440
 16777216
370
    -2
100
AcDbLine
 10
656.9942903845149
 20
5747.793358888685
 30
0.0
 11
656.9942903845149
 21
5460.508307673703
 31
0.0
  0
LINE
  5
1872
330
15DB
100
AcDbEntity
  8
SUNPOU
 62
     0
440
 16777216
370
    -2
100
AcDbLine
 10
96.9942903845151
 20
5470.508307673703
 30
0.0
 11
616.9942903845149
 21
5470.508307673703
 31
0.0
  0
SOLID
  5
1873
330
15DB
100
AcDbEntity
  8
SUNPOU
 62
     0
440
 16777216
100
AcDbTrace
 10
96.9942903845151
 20
5477.17497434037
 30
0.0
 11
96.9942903845151
 21
5463.841641007036
 31
0.0
 12
56.9942903845151
 22
5470.508307673703
 32
0.0
 13
56.9942903845151
 23
5470.508307673703
 33
0.0
  0
SOLID
  5
1874
330
15DB
100
AcDbEntity
  8
SUNPOU
 62
     0
440
 16777216
100
AcDbTrace
 10
616.9942903845149
 20
5477.17497434037
 30
0.0
 11
616.9942903845149
 21
5463.841641007036
 31
0.0
 12
656.9942903845149
 22
5470.508307673703
 32
0.0
 13
656.9942903845149
 23
5470.508307673703
 33
0.0
  0
MTEXT
  5
1875
330
15DB
100
AcDbEntity
  8
SUNPOU
 62
     0
440
 16777216
100
AcDbMText
 10
356.994290384515
 20
5516.508307673703
 30
0.0
 40
60.0
 41
0.0
 71
     5
 72
     1
  1
\A1;600
 73
     1
 44
1.0
  0
POINT
  5
1876
330
15DB
100
AcDbEntity
  8
DEFPOINTS
 62
     0
440
 16777216
100
AcDbPoint
 10
56.99429038451512
 20
5787.793358888685
 30
0.0
  0
POINT
  5
1877
330
15DB
100
AcDbEntity
  8
DEFPOINTS
 62
     0
440
 16777216
100
AcDbPoint
 10
656.9942903845149
 20
5787.793358888685
 30
0.0
  0
POINT
  5
1878
330
15DB
100
AcDbEntity
  8
DEFPOINTS
 62
     0
440
 16777216
100
AcDbPoint
 10
656.9942903845149
 20
5470.508307673703
 30
0.0
  0
ENDBLK
  5
15DD
330
15DB
100
AcDbEntity
  8
0
100
AcDbBlockEnd
  0
BLOCK
  5
15E8
330
15E7
100
AcDbEntity
  8
0
100
AcDbBlockBegin
  2
*D62
 70
     1
 10
0.0
 20
0.0
 30
0.0
  3
*D62
  1

  0
LINE
  5
16B4
330
15E7
100
AcDbEntity
  8
SUNPOU
 62
     0
440
 16777216
370
    -2
100
AcDbLine
 10
3974.773348996653
 20
5857.793358888684
 30
0.0
 11
3838.231331124236
 21
5857.793358888684
 31
0.0
  0
LINE
  5
16B5
330
15E7
100
AcDbEntity
  8
SUNPOU
 62
     0
440
 16777216
370
    -2
100
AcDbLine
 10
3974.773348996653
 20
6107.793358888684
 30
0.0
 11
3838.231331124236
 21
6107.793358888684
 31
0.0
  0
LINE
  5
16B6
330
15E7
100
AcDbEntity
  8
SUNPOU
 62
     0
440
 16777216
370
    -2
100
AcDbLine
 10
3848.231331124236
 20
5897.793358888684
 30
0.0
 11
3848.231331124236
 21
6067.793358888684
 31
0.0
  0
SOLID
  5
16B7
330
15E7
100
AcDbEntity
  8
SUNPOU
 62
     0
440
 16777216
100
AcDbTrace
 10
3841.56466445757
 20
5897.793358888684
 30
0.0
 11
3854.897997790903
 21
5897.793358888684
 31
0.0
 12
3848.231331124236
 22
5857.793358888684
 32
0.0
 13
3848.231331124236
 23
5857.793358888684
 33
0.0
  0
SOLID
  5
16B8
330
15E7
100
AcDbEntity
  8
SUNPOU
 62
     0
440
 16777216
100
AcDbTrace
 10
3841.56466445757
 20
6067.793358888684
 30
0.0
 11
3854.897997790903
 21
6067.793358888684
 31
0.0
 12
3848.231331124236
 22
6107.793358888684
 32
0.0
 13
3848.231331124236
 23
6107.793358888684
 33
0.0
  0
MTEXT
  5
16B9
330
15E7
100
AcDbEntity
  8
SUNPOU
 62
     0
440
 16777216
100
AcDbMText
 10
3802.231331124235
 20
5982.793358888685
 30
0.0
 40
60.0
 41
0.0
 71
     5
 72
     1
  1
\A1;250
 11
6.123031769111886E-17
 21
1.0
 31
0.0
 73
     1
 44
1.0
  0
POINT
  5
16BA
330
15E7
100
AcDbEntity
  8
DEFPOINTS
 62
     0
440
 16777216
100
AcDbPoint
 10
4014.773348996653
 20
5857.793358888684
 30
0.0
  0
POINT
  5
16BB
330
15E7
100
AcDbEntity
  8
DEFPOINTS
 62
     0
440
 16777216
100
AcDbPoint
 10
4014.773348996653
 20
6107.793358888684
 30
0.0
  0
POINT
  5
16BC
330
15E7
100
AcDbEntity
  8
DEFPOINTS
 62
     0
440
 16777216
100
AcDbPoint
 10
3848.231331124236
 20
6107.793358888684
 30
0.0
  0
ENDBLK
  5
15E9
330
15E7
100
AcDbEntity
  8
0
100
AcDbBlockEnd
  0
BLOCK
  5
15F4
330
15F3
100
AcDbEntity
  8
0
100
AcDbBlockBegin
  2
*D63
 70
     1
 10
0.0
 20
0.0
 30
0.0
  3
*D63
  1

  0
LINE
  5
16BD
330
15F3
100
AcDbEntity
  8
SUNPOU
 62
     0
440
 16777216
370
    -2
100
AcDbLine
 10
4014.773348996653
 20
5747.793358888684
 30
0.0
 11
4014.773348996653
 21
5497.357179114254
 31
0.0
  0
LINE
  5
16BE
330
15F3
100
AcDbEntity
  8
SUNPOU
 62
     0
440
 16777216
370
    -2
100
AcDbLine
 10
4189.773348996652
 20
5747.793358888684
 30
0.0
 11
4189.773348996652
 21
5497.357179114254
 31
0.0
  0
LINE
  5
16BF
330
15F3
100
AcDbEntity
  8
SUNPOU
 62
     0
440
 16777216
370
    -2
100
AcDbLine
 10
4054.773348996653
 20
5507.357179114254
 30
0.0
 11
4149.773348996652
 21
5507.357179114254
 31
0.0
  0
SOLID
  5
16C0
330
15F3
100
AcDbEntity
  8
SUNPOU
 62
     0
440
 16777216
100
AcDbTrace
 10
4054.773348996653
 20
5514.023845780921
 30
0.0
 11
4054.773348996653
 21
5500.690512447587
 31
0.0
 12
4014.773348996653
 22
5507.357179114254
 32
0.0
 13
4014.773348996653
 23
5507.357179114254
 33
0.0
  0
SOLID
  5
16C1
330
15F3
100
AcDbEntity
  8
SUNPOU
 62
     0
440
 16777216
100
AcDbTrace
 10
4149.773348996652
 20
5514.023845780921
 30
0.0
 11
4149.773348996652
 21
5500.690512447587
 31
0.0
 12
4189.773348996652
 22
5507.357179114254
 32
0.0
 13
4189.773348996652
 23
5507.357179114254
 33
0.0
  0
MTEXT
  5
16C2
330
15F3
100
AcDbEntity
  8
SUNPOU
 62
     0
440
 16777216
100
AcDbMText
 10
4102.273348996652
 20
5553.357179114254
 30
0.0
 40
60.0
 41
0.0
 71
     5
 72
     1
  1
\A1;175
 73
     1
 44
1.0
  0
POINT
  5
16C3
330
15F3
100
AcDbEntity
  8
DEFPOINTS
 62
     0
440
 16777216
100
AcDbPoint
 10
4014.773348996653
 20
5787.793358888684
 30
0.0
  0
POINT
  5
16C4
330
15F3
100
AcDbEntity
  8
DEFPOINTS
 62
     0
440
 16777216
100
AcDbPoint
 10
4189.773348996652
 20
5787.793358888684
 30
0.0
  0
POINT
  5
16C5
330
15F3
100
AcDbEntity
  8
DEFPOINTS
 62
     0
440
 16777216
100
AcDbPoint
 10
4189.773348996652
 20
5507.357179114254
 30
0.0
  0
ENDBLK
  5
15F5
330
15F3
100
AcDbEntity
  8
0
100
AcDbBlockEnd
  0
BLOCK
  5
1600
330
15FF
100
AcDbEntity
  8
0
100
AcDbBlockBegin
  2
*D64
 70
     1
 10
0.0
 20
0.0
 30
0.0
  3
*D64
  1

  0
LINE
  5
16C6
330
15FF
100
AcDbEntity
  8
SUNPOU
 62
     0
440
 16777216
370
    -2
100
AcDbLine
 10
6014.773348996652
 20
5747.793358888684
 30
0.0
 11
6014.773348996652
 21
5497.357179114254
 31
0.0
  0
LINE
  5
16C7
330
15FF
100
AcDbEntity
  8
SUNPOU
 62
     0
440
 16777216
370
    -2
100
AcDbLine
 10
5839.773348996652
 20
5747.793358888684
 30
0.0
 11
5839.773348996652
 21
5497.357179114254
 31
0.0
  0
LINE
  5
16C8
330
15FF
100
AcDbEntity
  8
SUNPOU
 62
     0
440
 16777216
370
    -2
100
AcDbLine
 10
5974.773348996652
 20
5507.357179114254
 30
0.0
 11
5879.773348996652
 21
5507.357179114254
 31
0.0
  0
SOLID
  5
16C9
330
15FF
100
AcDbEntity
  8
SUNPOU
 62
     0
440
 16777216
100
AcDbTrace
 10
5974.773348996652
 20
5514.023845780921
 30
0.0
 11
5974.773348996652
 21
5500.690512447587
 31
0.0
 12
6014.773348996652
 22
5507.357179114254
 32
0.0
 13
6014.773348996652
 23
5507.357179114254
 33
0.0
  0
SOLID
  5
16CA
330
15FF
100
AcDbEntity
  8
SUNPOU
 62
     0
440
 16777216
100
AcDbTrace
 10
5879.773348996652
 20
5514.023845780921
 30
0.0
 11
5879.773348996652
 21
5500.690512447587
 31
0.0
 12
5839.773348996652
 22
5507.357179114254
 32
0.0
 13
5839.773348996652
 23
5507.357179114254
 33
0.0
  0
MTEXT
  5
16CB
330
15FF
100
AcDbEntity
  8
SUNPOU
 62
     0
440
 16777216
100
AcDbMText
 10
5927.273348996652
 20
5553.357179114254
 30
0.0
 40
60.0
 41
0.0
 71
     5
 72
     1
  1
\A1;175
 73
     1
 44
1.0
  0
POINT
  5
16CC
330
15FF
100
AcDbEntity
  8
DEFPOINTS
 62
     0
440
 16777216
100
AcDbPoint
 10
6014.773348996652
 20
5787.793358888684
 30
0.0
  0
POINT
  5
16CD
330
15FF
100
AcDbEntity
  8
DEFPOINTS
 62
     0
440
 16777216
100
AcDbPoint
 10
5839.773348996652
 20
5787.793358888684
 30
0.0
  0
POINT
  5
16CE
330
15FF
100
AcDbEntity
  8
DEFPOINTS
 62
     0
440
 16777216
100
AcDbPoint
 10
5839.773348996652
 20
5507.357179114254
 30
0.0
  0
ENDBLK
  5
1601
330
15FF
100
AcDbEntity
  8
0
100
AcDbBlockEnd
  0
BLOCK
  5
160C
330
160B
100
AcDbEntity
  8
0
100
AcDbBlockBegin
  2
*D65
 70
     1
 10
0.0
 20
0.0
 30
0.0
  3
*D65
  1

  0
LINE
  5
16CF
330
160B
100
AcDbEntity
  8
SUNPOU
 62
     0
440
 16777216
370
    -2
100
AcDbLine
 10
4189.773348996652
 20
5747.793358888684
 30
0.0
 11
4189.773348996652
 21
5497.357179114254
 31
0.0
  0
LINE
  5
16D0
330
160B
100
AcDbEntity
  8
SUNPOU
 62
     0
440
 16777216
370
    -2
100
AcDbLine
 10
5839.773348996652
 20
5747.793358888684
 30
0.0
 11
5839.773348996652
 21
5497.357179114254
 31
0.0
  0
LINE
  5
16D1
330
160B
100
AcDbEntity
  8
SUNPOU
 62
     0
440
 16777216
370
    -2
100
AcDbLine
 10
4229.773348996652
 20
5507.357179114254
 30
0.0
 11
5799.773348996652
 21
5507.357179114254
 31
0.0
  0
SOLID
  5
16D2
330
160B
100
AcDbEntity
  8
SUNPOU
 62
     0
440
 16777216
100
AcDbTrace
 10
4229.773348996652
 20
5514.023845780921
 30
0.0
 11
4229.773348996652
 21
5500.690512447587
 31
0.0
 12
4189.773348996652
 22
5507.357179114254
 32
0.0
 13
4189.773348996652
 23
5507.357179114254
 33
0.0
  0
SOLID
  5
16D3
330
160B
100
AcDbEntity
  8
SUNPOU
 62
     0
440
 16777216
100
AcDbTrace
 10
5799.773348996652
 20
5514.023845780921
 30
0.0
 11
5799.773348996652
 21
5500.690512447587
 31
0.0
 12
5839.773348996652
 22
5507.357179114254
 32
0.0
 13
5839.773348996652
 23
5507.357179114254
 33
0.0
  0
MTEXT
  5
16D4
330
160B
100
AcDbEntity
  8
SUNPOU
 62
     0
440
 16777216
100
AcDbMText
 10
5014.773348996652
 20
5553.357179114254
 30
0.0
 40
60.0
 41
0.0
 71
     5
 72
     1
  1
\A1;5@330=1650
 73
     1
 44
1.0
  0
POINT
  5
16D5
330
160B
100
AcDbEntity
  8
DEFPOINTS
 62
     0
440
 16777216
100
AcDbPoint
 10
4189.773348996652
 20
5787.793358888684
 30
0.0
  0
POINT
  5
16D6
330
160B
100
AcDbEntity
  8
DEFPOINTS
 62
     0
440
 16777216
100
AcDbPoint
 10
5839.773348996652
 20
5787.793358888684
 30
0.0
  0
POINT
  5
16D7
330
160B
100
AcDbEntity
  8
DEFPOINTS
 62
     0
440
 16777216
100
AcDbPoint
 10
5839.773348996652
 20
5507.357179114254
 30
0.0
  0
ENDBLK
  5
160D
330
160B
100
AcDbEntity
  8
0
100
AcDbBlockEnd
  0
ENDSEC
  0
SECTION
  2
ENTITIES
  0
TEXT
  5
E79
330
17
100
AcDbEntity
  8
0
100
AcDbText
 10
2151.191309881367
 20
7317.482828494491
 30
0.0
 40
90.0
  1
800×800
 41
0.8
100
AcDbText
  0
LINE
  5
F71
330
17
100
AcDbEntity
  8
1HASEN
 48
0.5
100
AcDbLine
 10
2355.257447992859
 20
6728.072409863629
 30
0.0
 11
2355.257447992859
 21
5730.11175120949
 31
0.0
  0
LINE
  5
F73
330
17
100
AcDbEntity
  8
SEIHIN
100
AcDbLine
 10
1955.257447992859
 20
6657.793358888684
 30
0.0
 11
1900.257447992859
 21
6657.793358888684
 31
0.0
  0
LINE
  5
F74
330
17
100
AcDbEntity
  8
SEIHIN
100
AcDbLine
 10
1900.257447992859
 20
6657.793358888684
 30
0.0
 11
1885.257447992859
 21
6657.793358888684
 31
0.0
  0
LINE
  5
F75
330
17
100
AcDbEntity
  8
SEIHIN
100
AcDbLine
 10
1885.257447992859
 20
6657.793358888684
 30
0.0
 11
1885.257447992859
 21
6607.793358888684
 31
0.0
  0
LINE
  5
F78
330
17
100
AcDbEntity
  8
SEIHIN
100
AcDbLine
 10
2057.261908154193
 20
5857.793358888684
 30
0.0
 11
2355.257447992859
 21
5857.793358888684
 31
0.0
  0
POINT
  5
F79
330
17
100
AcDbEntity
  8
DEFPOINTS
100
AcDbPoint
 10
1990.257447992859
 20
5857.793358888684
 30
0.0
  0
LINE
  5
F7A
330
17
100
AcDbEntity
  8
SEIHIN
100
AcDbLine
 10
1955.257447992859
 20
6657.793358888684
 30
0.0
 11
1987.328804324408
 21
5924.733785596131
 31
0.0
  0
ARC
  5
F7B
330
17
100
AcDbEntity
  8
SEIHIN
100
AcDbCircle
 10
2057.261908154193
 20
5927.793358888684
 30
0.0
 40
70.0
100
AcDbArc
 50
182.5050928672376
 51
270.0
  0
POINT
  5
F7C
330
17
100
AcDbEntity
  8
DEFPOINTS
100
AcDbPoint
 10
1920.257447992859
 20
5857.793358888684
 30
0.0
  0
LINE
  5
F7D
330
17
100
AcDbEntity
  8
SEIHIN
100
AcDbLine
 10
1955.257447992859
 20
5787.793358888685
 30
0.0
 11
2355.257447992859
 21
5787.793358888684
 31
0.0
  0
LINE
  5
F7E
330
17
100
AcDbEntity
  8
SEIHIN
100
AcDbLine
 10
1921.154883890295
 20
5821.895922991249
 30
0.0
 11
1901.924114659526
 21
6591.126692222018
 31
0.0
  0
LINE
  5
F7F
330
17
100
AcDbEntity
  8
SEIHIN
100
AcDbLine
 10
1885.257447992859
 20
6607.793358888684
 30
0.0
 11
1901.924114659526
 21
6591.126692222017
 31
0.0
  0
LINE
  5
F88
330
17
100
AcDbEntity
  8
SEIHIN
100
AcDbLine
 10
1955.257447992859
 20
5787.793358888685
 30
0.0
 11
1921.154883890295
 21
5821.895922991249
 31
0.0
  0
LINE
  5
F89
330
17
100
AcDbEntity
  8
SEIHIN
100
AcDbLine
 10
2755.257447992859
 20
6657.793358888684
 30
0.0
 11
2810.257447992859
 21
6657.793358888684
 31
0.0
  0
LINE
  5
F8A
330
17
100
AcDbEntity
  8
SEIHIN
100
AcDbLine
 10
2810.257447992859
 20
6657.793358888684
 30
0.0
 11
2825.257447992859
 21
6657.793358888684
 31
0.0
  0
LINE
  5
F8B
330
17
100
AcDbEntity
  8
SEIHIN
100
AcDbLine
 10
2825.257447992859
 20
6657.793358888684
 30
0.0
 11
2825.257447992859
 21
6607.793358888684
 31
0.0
  0
LINE
  5
F8C
330
17
100
AcDbEntity
  8
SEIHIN
100
AcDbLine
 10
2653.252987831524
 20
5857.793358888684
 30
0.0
 11
2355.257447992859
 21
5857.793358888684
 31
0.0
  0
ARC
  5
F8D
330
17
100
AcDbEntity
  8
SEIHIN
100
AcDbCircle
 10
2653.252987831524
 20
5927.793358888684
 30
0.0
 40
70.0
100
AcDbArc
 50
270.0
 51
357.4949071327624
  0
POINT
  5
F8E
330
17
100
AcDbEntity
  8
DEFPOINTS
100
AcDbPoint
 10
2720.257447992858
 20
5857.793358888684
 30
0.0
 50
180.0
  0
LINE
  5
F8F
330
17
100
AcDbEntity
  8
SEIHIN
100
AcDbLine
 10
2755.257447992859
 20
6657.793358888684
 30
0.0
 11
2723.18609166131
 21
5924.733785596131
 31
0.0
  0
POINT
  5
F90
330
17
100
AcDbEntity
  8
DEFPOINTS
100
AcDbPoint
 10
2790.257447992858
 20
5857.793358888684
 30
0.0
 50
180.0
  0
LINE
  5
F91
330
17
100
AcDbEntity
  8
SEIHIN
100
AcDbLine
 10
2755.257447992859
 20
5787.793358888686
 30
0.0
 11
2355.257447992859
 21
5787.793358888685
 31
0.0
  0
LINE
  5
F92
330
17
100
AcDbEntity
  8
SEIHIN
100
AcDbLine
 10
2789.360012095422
 20
5821.895922991249
 30
0.0
 11
2808.590781326192
 21
6591.126692222018
 31
0.0
  0
LINE
  5
F93
330
17
100
AcDbEntity
  8
SEIHIN
100
AcDbLine
 10
2825.257447992859
 20
6607.793358888684
 30
0.0
 11
2808.590781326192
 21
6591.126692222017
 31
0.0
  0
LINE
  5
F94
330
17
100
AcDbEntity
  8
SEIHIN
100
AcDbLine
 10
2755.257447992859
 20
5787.793358888685
 30
0.0
 11
2789.360012095422
 21
5821.895922991249
 31
0.0
  0
DIMENSION
  5
F96
330
17
100
AcDbEntity
  8
SUNPOU
100
AcDbDimension
  2
*D4
 10
2755.257447992859
 20
6938.150715731972
 30
0.0
 11
2355.257447992859
 21
6984.150715731972
 31
0.0
 70
    32
 71
     5
 42
800.0
  3
A3-20
100
AcDbAlignedDimension
 13
1955.257447992859
 23
6657.793358888684
 33
0.0
 14
2755.257447992859
 24
6657.793358888684
 34
0.0
100
AcDbRotatedDimension
  0
DIMENSION
  5
F97
330
17
100
AcDbEntity
  8
SUNPOU
100
AcDbDimension
  2
*D5
 10
2825.257447992859
 20
7065.781973033828
 30
0.0
 11
2355.257447992859
 21
7111.781973033828
 31
0.0
 70
    32
 71
     5
 42
940.0
  3
A3-20
100
AcDbAlignedDimension
 13
1885.257447992859
 23
6657.793358888684
 33
0.0
 14
2825.257447992859
 24
6657.793358888684
 34
0.0
100
AcDbRotatedDimension
  0
DIMENSION
  5
F98
330
17
100
AcDbEntity
  8
SUNPOU
100
AcDbDimension
  2
*D6
 10
1885.257447992859
 20
6938.150715731972
 30
0.0
 11
1828.946617098987
 21
6985.020059540287
 31
0.0
 70
   160
 71
     5
 42
15.0
  3
A3-20
100
AcDbAlignedDimension
 13
1900.257447992859
 23
6657.793358888684
 33
0.0
 14
1885.257447992859
 24
6657.793358888684
 34
0.0
100
AcDbRotatedDimension
  0
DIMENSION
  5
F99
330
17
100
AcDbEntity
  8
SUNPOU
100
AcDbDimension
  2
*D7
 10
1900.257447992859
 20
6938.150715731972
 30
0.0
 11
1927.757447992859
 21
6984.150715731972
 31
0.0
 70
    32
 71
     5
 42
55.0
  3
A3-20
100
AcDbAlignedDimension
 13
1955.257447992859
 23
6657.793358888684
 33
0.0
 14
1900.257447992859
 24
6657.793358888684
 34
0.0
100
AcDbRotatedDimension
  0
DIMENSION
  5
1017
330
17
100
AcDbEntity
  8
SUNPOU
100
AcDbDimension
  2
*D8
 10
2825.257447992859
 20
6938.150715731972
 30
0.0
 11
2790.257447992859
 21
6984.150715731972
 31
0.0
 70
    32
 71
     5
 42
70.0
  3
A3-20
100
AcDbAlignedDimension
 13
2755.257447992859
 23
6657.793358888684
 33
0.0
 14
2825.257447992859
 24
6657.793358888684
 34
0.0
100
AcDbRotatedDimension
  0
DIMENSION
  5
1025
330
17
100
AcDbEntity
  8
SUNPOU
100
AcDbDimension
  2
*D9
 10
1501.016007144367
 20
5857.793358888684
 30
0.0
 11
1455.016007144366
 21
6257.793358888684
 31
0.0
 70
    32
 71
     5
 42
800.0
  3
A3-20
100
AcDbAlignedDimension
 13
1885.257447992859
 23
6657.793358888684
 33
0.0
 14
1920.257447992859
 24
5857.793358888684
 34
0.0
 50
90.0
100
AcDbRotatedDimension
  0
DIMENSION
  5
1026
330
17
100
AcDbEntity
  8
SUNPOU
100
AcDbDimension
  2
*D10
 10
1746.323605584872
 20
6657.793358888684
 30
0.0
 11
1700.32360558487
 21
6630.293358888684
 31
0.0
 70
    32
 71
     5
 42
55.0
  3
A3-20
100
AcDbAlignedDimension
 13
1885.257447992859
 23
6602.793358888684
 33
0.0
 14
1885.257447992859
 24
6657.793358888684
 34
0.0
 50
90.0
100
AcDbRotatedDimension
  0
DIMENSION
  5
1027
330
17
100
AcDbEntity
  8
SUNPOU
100
AcDbDimension
  2
*D11
 10
1390.315774552946
 20
6657.793358888684
 30
0.0
 11
1344.315774552945
 21
6222.793358888684
 31
0.0
 70
    32
 71
     5
 42
869.9999999999991
  3
A3-20
100
AcDbAlignedDimension
 13
1955.257447992859
 23
5787.793358888685
 33
0.0
 14
1885.257447992859
 24
6657.793358888684
 34
0.0
 50
90.0
100
AcDbRotatedDimension
  0
DIMENSION
  5
1072
330
17
100
AcDbEntity
  8
SUNPOU
100
AcDbDimension
  2
*D12
 10
1920.257447992859
 20
6226.133626444725
 30
0.0
 11
1955.257447992859
 21
6272.133626444725
 31
0.0
 70
    32
 71
     5
 42
70.0
  3
A3-20
100
AcDbAlignedDimension
 13
1990.257447992859
 23
5857.793358888684
 33
0.0
 14
1920.257447992859
 24
5857.793358888684
 34
0.0
100
AcDbRotatedDimension
  0
DIMENSION
  5
1080
330
17
100
AcDbEntity
  8
SUNPOU
100
AcDbDimension
  2
*D13
 10
2720.257447992858
 20
6226.133626444725
 30
0.0
 11
2355.257447992859
 21
6272.133626444725
 31
0.0
 70
    32
 71
     5
 42
729.9999999999991
  3
A3-20
100
AcDbAlignedDimension
 13
1990.257447992859
 23
5857.793358888684
 33
0.0
 14
2720.257447992858
 24
5857.793358888684
 34
0.0
100
AcDbRotatedDimension
  0
DIMENSION
  5
108D
330
17
100
AcDbEntity
  8
SUNPOU
100
AcDbDimension
  2
*D14
 10
1501.016007144367
 20
5787.793358888685
 30
0.0
 11
1455.016007144366
 21
5822.793358888684
 31
0.0
 70
    32
 71
     5
 42
69.99999999999909
  3
A3-20
100
AcDbAlignedDimension
 13
1920.257447992859
 23
5857.793358888684
 33
0.0
 14
1955.257447992859
 24
5787.793358888685
 34
0.0
 50
90.0
100
AcDbRotatedDimension
  0
DIMENSION
  5
10A4
330
17
100
AcDbEntity
  8
SUNPOU
100
AcDbDimension
  2
*D15
 10
2790.257447992858
 20
6226.133626444725
 30
0.0
 11
2755.257447992858
 21
6272.133626444725
 31
0.0
 70
    32
 71
     5
 42
70.0
  3
A3-20
100
AcDbAlignedDimension
 13
2720.257447992858
 23
5857.793358888684
 33
0.0
 14
2790.257447992858
 24
5857.793358888684
 34
0.0
 50
180.0
100
AcDbRotatedDimension
  0
LINE
  5
10BC
330
17
100
AcDbEntity
  8
1HASEN
100
AcDbLine
 10
1884.837561283319
 20
6107.793358888684
 30
0.0
 11
2012.861614659525
 21
6107.793358888684
 31
0.0
  0
LINE
  5
10BF
330
17
100
AcDbEntity
  8
HASEN
 48
0.5
100
AcDbLine
 10
1913.382447992859
 20
6132.793358888686
 30
0.0
 11
1978.778048008129
 21
6120.179644253936
 31
0.0
  0
LINE
  5
10C0
330
17
100
AcDbEntity
  8
HASEN
 48
0.5
100
AcDbLine
 10
1978.778048008129
 20
6120.179644253936
 30
0.0
 11
1979.866822992859
 21
6095.293358888684
 31
0.0
  0
LINE
  5
10C1
330
17
100
AcDbEntity
  8
HASEN
 48
0.5
100
AcDbLine
 10
1979.866822992859
 20
6095.293358888684
 30
0.0
 11
1914.632447992859
 21
6082.793358888686
 31
0.0
  0
LINE
  5
10C2
330
17
100
AcDbEntity
  8
HASEN
 48
0.5
100
AcDbLine
 10
1914.632447992859
 20
6082.793358888686
 30
0.0
 11
1913.382447992859
 21
6132.793358888686
 31
0.0
  0
DIMENSION
  5
10C7
330
17
100
AcDbEntity
  8
SUNPOU
100
AcDbDimension
  2
*D16
 10
1699.491070727785
 20
6107.793358888684
 30
0.0
 11
1653.491070727784
 21
5982.793358888684
 31
0.0
 70
    32
 71
     5
 42
250.0
  3
A3-20
100
AcDbAlignedDimension
 13
1920.257447992859
 23
5857.793358888684
 33
0.0
 14
1884.837561283319
 24
6107.793358888684
 34
0.0
 50
90.0
100
AcDbRotatedDimension
  0
DIMENSION
  5
10D4
330
17
100
AcDbEntity
  8
SUNPOU
100
AcDbDimension
  2
*D17
 10
2057.261908154193
 20
5927.793358888684
 30
0.0
 11
2090.435001092108
 21
5963.005725664492
 31
0.0
 70
   164
 71
     5
 42
70.0
  3
A3-20
100
AcDbRadialDimension
 15
2002.484819778037
 25
5884.210442636662
 35
0.0
 40
0.0
  0
DIMENSION
  5
10E7
330
17
100
AcDbEntity
  8
SUNPOU
100
AcDbDimension
  2
*D18
 10
2755.257447992859
 20
5470.508307673703
 30
0.0
 11
2355.257447992859
 21
5516.508307673703
 31
0.0
 70
    32
 71
     5
 42
799.9999999999998
  3
A3-20
100
AcDbAlignedDimension
 13
1955.257447992859
 23
5787.793358888685
 33
0.0
 14
2755.257447992859
 24
5787.793358888686
 34
0.0
100
AcDbRotatedDimension
  0
LINE
  5
1106
330
17
100
AcDbEntity
  8
1HASEN
100
AcDbLine
 10
2825.677334702399
 20
6107.793358888684
 30
0.0
 11
2697.653281326193
 21
6107.793358888684
 31
0.0
  0
LINE
  5
1107
330
17
100
AcDbEntity
  8
HASEN
 48
0.5
100
AcDbLine
 10
2797.132447992859
 20
6132.793358888686
 30
0.0
 11
2731.736847977589
 21
6120.179644253936
 31
0.0
  0
LINE
  5
1108
330
17
100
AcDbEntity
  8
HASEN
 48
0.5
100
AcDbLine
 10
2731.736847977589
 20
6120.179644253936
 30
0.0
 11
2730.648072992859
 21
6095.293358888684
 31
0.0
  0
LINE
  5
1109
330
17
100
AcDbEntity
  8
HASEN
 48
0.5
100
AcDbLine
 10
2730.648072992859
 20
6095.293358888684
 30
0.0
 11
2795.882447992859
 21
6082.793358888686
 31
0.0
  0
LINE
  5
110A
330
17
100
AcDbEntity
  8
HASEN
 48
0.5
100
AcDbLine
 10
2795.882447992859
 20
6082.793358888686
 30
0.0
 11
2797.132447992859
 21
6132.793358888686
 31
0.0
  0
TEXT
  5
110B
330
17
100
AcDbEntity
  8
SUNPOU
100
AcDbText
 10
2941.899423665271
 20
5986.396505927828
 30
0.0
 40
60.0
  1
排水孔
 41
0.8
100
AcDbText
  0
LINE
  5
110C
330
17
100
AcDbEntity
  8
SUNPOU
100
AcDbLine
 10
2916.726673355259
 20
5972.427927489619
 30
0.0
 11
3125.666894354867
 21
5972.427927489619
 31
0.0
  0
LEADER
  5
110D
330
17
100
AcDbEntity
  8
SUNPOU
100
AcDbLeader
  3
A3-20
 76
     2
 10
2796.507447992858
 20
6107.793358888684
 30
0.0
 10
2916.726673355259
 20
5972.427927489619
 30
0.0
1001
ACAD
1000
DSTYLE
1002
{
1070
   147
1040
0.8
1070
    77
1070
     0
1002
}
  0
LINE
  5
14BC
330
17
100
AcDbEntity
  8
SEIHIN
100
AcDbLine
 10
4014.773348996652
 20
6657.793358888684
 30
0.0
 11
6014.773348996652
 21
6657.793358888684
 31
0.0
  0
LINE
  5
14BD
330
17
100
AcDbEntity
  8
HASEN
100
AcDbLine
 10
4014.773348996652
 20
5857.793358888684
 30
0.0
 11
6014.773348996652
 21
5857.793358888684
 31
0.0
  0
LINE
  5
14BE
330
17
100
AcDbEntity
  8
SEIHIN
100
AcDbLine
 10
4014.773348996653
 20
5787.793358888684
 30
0.0
 11
6014.773348996652
 21
5787.793358888684
 31
0.0
  0
LINE
  5
14BF
330
17
100
AcDbEntity
  8
SEIHIN
100
AcDbLine
 10
4014.773348996654
 20
5787.793358888684
 30
0.0
 11
4014.773348996653
 21
6657.793358888684
 31
0.0
  0
LINE
  5
14C0
330
17
100
AcDbEntity
  8
1HASEN
 48
0.5
100
AcDbLine
 10
5014.773348996652
 20
5739.763211021673
 30
0.0
 11
5014.773348996652
 21
6707.061010869283
 31
0.0
  0
LINE
  5
14C1
330
17
100
AcDbEntity
  8
SEIHIN
100
AcDbLine
 10
6014.773348996652
 20
5787.793358888684
 30
0.0
 11
6014.773348996652
 21
6657.793358888684
 31
0.0
  0
LINE
  5
14C2
330
17
100
AcDbEntity
  8
SEIHIN
100
AcDbLine
 10
4014.773348996652
 20
6602.793358888684
 30
0.0
 11
6014.773348996654
 21
6602.793358888684
 31
0.0
  0
LINE
  5
14C3
330
17
100
AcDbEntity
  8
SEIHIN
100
AcDbLine
 10
4014.773348996652
 20
6585.998487093813
 30
0.0
 11
6014.773348996654
 21
6585.998487093813
 31
0.0
  0
LINE
  5
14C4
330
17
100
AcDbEntity
  8
1HASEN
 48
0.3
100
AcDbLine
 10
4134.773348996652
 20
6107.793358888684
 30
0.0
 11
4244.773348996652
 21
6107.793358888684
 31
0.0
  0
DIMENSION
  5
14C5
330
17
100
AcDbEntity
  8
SUNPOU
100
AcDbDimension
  2
*D45
 10
6014.773348996652
 20
7025.720986260798
 30
0.0
 11
5014.773348996652
 21
7071.720986260798
 31
0.0
 70
    32
 71
     5
 42
2000.0
  3
A3-20
100
AcDbAlignedDimension
 13
4014.773348996653
 23
6657.793358888684
 33
0.0
 14
6014.773348996652
 24
6657.793358888684
 34
0.0
100
AcDbRotatedDimension
  0
DIMENSION
  5
14C6
330
17
100
AcDbEntity
  8
SUNPOU
100
AcDbDimension
  2
*D46
 10
3848.231331124236
 20
5787.793358888684
 30
0.0
 11
3808.231331124236
 21
5834.866078929375
 31
0.0
 70
   160
 71
     5
 42
70.0
  3
A3-20
100
AcDbAlignedDimension
 13
4014.773348996653
 23
5857.793358888684
 33
0.0
 14
4014.773348996653
 24
5787.793358888684
 34
0.0
 50
90.0
100
AcDbRotatedDimension
  0
CIRCLE
  5
14C7
330
17
100
AcDbEntity
  8
SUNPOU
100
AcDbCircle
 10
4189.773348996652
 20
6107.793358888684
 30
0.0
 40
25.0
  0
LINE
  5
14C8
330
17
100
AcDbEntity
  8
1HASEN
 48
0.3
100
AcDbLine
 10
4189.773348996652
 20
6052.793358888684
 30
0.0
 11
4189.773348996652
 21
6162.793358888684
 31
0.0
  0
TEXT
  5
14C9
330
17
100
AcDbEntity
  8
SUNPOU
100
AcDbText
 10
3715.106352021592
 20
6253.801160429514
 30
0.0
 40
60.0
  1
排水孔
 41
0.8
100
AcDbText
  0
LINE
  5
14CA
330
17
100
AcDbEntity
  8
SUNPOU
100
AcDbLine
 10
3689.93360171158
 20
6239.832581991305
 30
0.0
 11
3898.873822711188
 21
6239.832581991305
 31
0.0
  0
LEADER
  5
14CB
330
17
100
AcDbEntity
  8
SUNPOU
100
AcDbLeader
  3
A3-20
 76
     2
 10
4189.773348996652
 20
6107.793358888684
 30
0.0
 10
3898.873822711188
 20
6239.832581991305
 30
0.0
1001
ACAD
1000
DSTYLE
1002
{
1070
   147
1040
0.8
1070
    77
1070
     0
1002
}
  0
TEXT
  5
14CD
330
17
100
AcDbEntity
  8
0
100
AcDbText
 10
130.3068186896089
 20
7299.593834288507
 30
0.0
 40
90.0
  1
800×600
 41
0.8
100
AcDbText
  0
LINE
  5
14CE
330
17
100
AcDbEntity
  8
1HASEN
 48
0.5
100
AcDbLine
 10
356.9942903845149
 20
6728.072409863629
 30
0.0
 11
356.9942903845149
 21
5730.11175120949
 31
0.0
  0
LINE
  5
14CF
330
17
100
AcDbEntity
  8
SEIHIN
100
AcDbLine
 10
56.9942903845149
 20
6657.793358888684
 30
0.0
 11
1.994290384514898
 21
6657.793358888684
 31
0.0
  0
LINE
  5
14D0
330
17
100
AcDbEntity
  8
SEIHIN
100
AcDbLine
 10
1.994290384514898
 20
6657.793358888684
 30
0.0
 11
-13.0057096154851
 21
6657.793358888684
 31
0.0
  0
LINE
  5
14D1
330
17
100
AcDbEntity
  8
SEIHIN
100
AcDbLine
 10
-13.0057096154851
 20
6657.793358888684
 30
0.0
 11
-13.0057096154851
 21
6607.793358888684
 31
0.0
  0
LINE
  5
14D2
330
17
100
AcDbEntity
  8
SEIHIN
100
AcDbLine
 10
158.9987505458494
 20
5857.793358888684
 30
0.0
 11
356.9942903845144
 21
5857.793358888684
 31
0.0
  0
ARC
  5
14D3
330
17
100
AcDbEntity
  8
SEIHIN
100
AcDbCircle
 10
158.9987505458494
 20
5927.793358888684
 30
0.0
 40
70.0
100
AcDbArc
 50
182.5050928672378
 51
270.0
  0
POINT
  5
14D4
330
17
100
AcDbEntity
  8
DEFPOINTS
100
AcDbPoint
 10
91.99429038451535
 20
5857.793358888684
 30
0.0
  0
LINE
  5
14D5
330
17
100
AcDbEntity
  8
SEIHIN
100
AcDbLine
 10
56.9942903845149
 20
6657.793358888684
 30
0.0
 11
89.0656467160643
 21
5924.733785596131
 31
0.0
  0
POINT
  5
14D6
330
17
100
AcDbEntity
  8
DEFPOINTS
100
AcDbPoint
 10
21.99429038451535
 20
5857.793358888684
 30
0.0
  0
LINE
  5
14D7
330
17
100
AcDbEntity
  8
SEIHIN
100
AcDbLine
 10
56.99429038451512
 20
5787.793358888685
 30
0.0
 11
356.9942903845144
 21
5787.793358888684
 31
0.0
  0
LINE
  5
14D8
330
17
100
AcDbEntity
  8
SEIHIN
100
AcDbLine
 10
22.89172628195115
 20
5821.895922991249
 30
0.0
 11
3.660957051181867
 21
6591.126692222018
 31
0.0
  0
LINE
  5
14D9
330
17
100
AcDbEntity
  8
SEIHIN
100
AcDbLine
 10
-13.0057096154851
 20
6607.793358888684
 30
0.0
 11
3.660957051181867
 21
6591.126692222017
 31
0.0
  0
LINE
  5
14DA
330
17
100
AcDbEntity
  8
SEIHIN
100
AcDbLine
 10
56.99429038451512
 20
5787.793358888685
 30
0.0
 11
22.89172628195138
 21
5821.895922991249
 31
0.0
  0
LINE
  5
14DB
330
17
100
AcDbEntity
  8
SEIHIN
100
AcDbLine
 10
656.9942903845149
 20
6657.793358888684
 30
0.0
 11
711.9942903845149
 21
6657.793358888684
 31
0.0
  0
LINE
  5
14DC
330
17
100
AcDbEntity
  8
SEIHIN
100
AcDbLine
 10
711.9942903845149
 20
6657.793358888684
 30
0.0
 11
726.9942903845149
 21
6657.793358888684
 31
0.0
  0
LINE
  5
14DD
330
17
100
AcDbEntity
  8
SEIHIN
100
AcDbLine
 10
726.9942903845149
 20
6657.793358888684
 30
0.0
 11
726.9942903845149
 21
6607.793358888684
 31
0.0
  0
LINE
  5
14DE
330
17
100
AcDbEntity
  8
SEIHIN
100
AcDbLine
 10
554.9898302231804
 20
5857.793358888684
 30
0.0
 11
356.9942903845154
 21
5857.793358888684
 31
0.0
  0
ARC
  5
14DF
330
17
100
AcDbEntity
  8
SEIHIN
100
AcDbCircle
 10
554.9898302231804
 20
5927.793358888684
 30
0.0
 40
70.0
100
AcDbArc
 50
270.0
 51
357.4949071327622
  0
POINT
  5
14E0
330
17
100
AcDbEntity
  8
DEFPOINTS
100
AcDbPoint
 10
621.9942903845144
 20
5857.793358888684
 30
0.0
 50
180.0
  0
LINE
  5
14E1
330
17
100
AcDbEntity
  8
SEIHIN
100
AcDbLine
 10
656.9942903845149
 20
6657.793358888684
 30
0.0
 11
624.9229340529655
 21
5924.733785596131
 31
0.0
  0
POINT
  5
14E2
330
17
100
AcDbEntity
  8
DEFPOINTS
100
AcDbPoint
 10
691.9942903845144
 20
5857.793358888684
 30
0.0
 50
180.0
  0
LINE
  5
14E3
330
17
100
AcDbEntity
  8
SEIHIN
100
AcDbLine
 10
656.9942903845149
 20
5787.793358888685
 30
0.0
 11
356.9942903845154
 21
5787.793358888684
 31
0.0
  0
LINE
  5
14E4
330
17
100
AcDbEntity
  8
SEIHIN
100
AcDbLine
 10
691.0968544870784
 20
5821.895922991249
 30
0.0
 11
710.3276237178479
 21
6591.126692222018
 31
0.0
  0
LINE
  5
14E5
330
17
100
AcDbEntity
  8
SEIHIN
100
AcDbLine
 10
726.9942903845149
 20
6607.793358888684
 30
0.0
 11
710.3276237178479
 21
6591.126692222017
 31
0.0
  0
LINE
  5
14E6
330
17
100
AcDbEntity
  8
SEIHIN
100
AcDbLine
 10
656.9942903845149
 20
5787.793358888685
 30
0.0
 11
691.0968544870784
 21
5821.895922991249
 31
0.0
  0
DIMENSION
  5
14E7
330
17
100
AcDbEntity
  8
SUNPOU
100
AcDbDimension
  2
*D47
 10
656.9942903845149
 20
6938.150715731972
 30
0.0
 11
356.9942903845149
 21
6984.150715731972
 31
0.0
 70
    32
 71
     5
 42
600.0
  3
A3-20
100
AcDbAlignedDimension
 13
56.9942903845149
 23
6657.793358888684
 33
0.0
 14
656.9942903845149
 24
6657.793358888684
 34
0.0
100
AcDbRotatedDimension
  0
DIMENSION
  5
14E8
330
17
100
AcDbEntity
  8
SUNPOU
100
AcDbDimension
  2
*D48
 10
726.9942903845149
 20
7065.781973033828
 30
0.0
 11
356.9942903845149
 21
7111.781973033828
 31
0.0
 70
    32
 71
     5
 42
740.0
  3
A3-20
100
AcDbAlignedDimension
 13
-13.0057096154851
 23
6657.793358888684
 33
0.0
 14
726.9942903845149
 24
6657.793358888684
 34
0.0
100
AcDbRotatedDimension
  0
DIMENSION
  5
14E9
330
17
100
AcDbEntity
  8
SUNPOU
100
AcDbDimension
  2
*D49
 10
-13.00570961548508
 20
6938.150715731972
 30
0.0
 11
-69.31654050935731
 21
6985.020059540287
 31
0.0
 70
   160
 71
     5
 42
15.0
  3
A3-20
100
AcDbAlignedDimension
 13
1.994290384514898
 23
6657.793358888684
 33
0.0
 14
-13.0057096154851
 24
6657.793358888684
 34
0.0
100
AcDbRotatedDimension
  0
DIMENSION
  5
14EA
330
17
100
AcDbEntity
  8
SUNPOU
100
AcDbDimension
  2
*D50
 10
1.994290384514915
 20
6938.150715731972
 30
0.0
 11
29.49429038451492
 21
6984.150715731972
 31
0.0
 70
    32
 71
     5
 42
55.0
  3
A3-20
100
AcDbAlignedDimension
 13
56.9942903845149
 23
6657.793358888684
 33
0.0
 14
1.994290384514898
 24
6657.793358888684
 34
0.0
100
AcDbRotatedDimension
  0
DIMENSION
  5
14EB
330
17
100
AcDbEntity
  8
SUNPOU
100
AcDbDimension
  2
*D51
 10
726.9942903845149
 20
6938.150715731972
 30
0.0
 11
691.9942903845149
 21
6984.150715731972
 31
0.0
 70
    32
 71
     5
 42
70.0
  3
A3-20
100
AcDbAlignedDimension
 13
656.9942903845149
 23
6657.793358888684
 33
0.0
 14
726.9942903845149
 24
6657.793358888684
 34
0.0
100
AcDbRotatedDimension
  0
DIMENSION
  5
14EC
330
17
100
AcDbEntity
  8
SUNPOU
100
AcDbDimension
  2
*D52
 10
-397.2471504639768
 20
5857.793358888684
 30
0.0
 11
-443.2471504639777
 21
6257.793358888684
 31
0.0
 70
    32
 71
     5
 42
800.0
  3
A3-20
100
AcDbAlignedDimension
 13
-13.0057096154851
 23
6657.793358888684
 33
0.0
 14
21.99429038451535
 24
5857.793358888684
 34
0.0
 50
90.0
100
AcDbRotatedDimension
  0
DIMENSION
  5
14ED
330
17
100
AcDbEntity
  8
SUNPOU
100
AcDbDimension
  2
*D53
 10
-151.9395520234725
 20
6657.793358888684
 30
0.0
 11
-197.9395520234736
 21
6630.293358888684
 31
0.0
 70
    32
 71
     5
 42
55.0
  3
A3-20
100
AcDbAlignedDimension
 13
-13.0057096154851
 23
6602.793358888684
 33
0.0
 14
-13.0057096154851
 24
6657.793358888684
 34
0.0
 50
90.0
100
AcDbRotatedDimension
  0
DIMENSION
  5
14EE
330
17
100
AcDbEntity
  8
SUNPOU
100
AcDbDimension
  2
*D54
 10
-507.9473830553982
 20
6657.793358888684
 30
0.0
 11
-553.9473830553993
 21
6222.793358888684
 31
0.0
 70
    32
 71
     5
 42
869.9999999999991
  3
A3-20
100
AcDbAlignedDimension
 13
56.99429038451512
 23
5787.793358888685
 33
0.0
 14
-13.0057096154851
 24
6657.793358888684
 34
0.0
 50
90.0
100
AcDbRotatedDimension
  0
DIMENSION
  5
14EF
330
17
100
AcDbEntity
  8
SUNPOU
100
AcDbDimension
  2
*D55
 10
21.99429038451537
 20
6226.133626444725
 30
0.0
 11
56.99429038451538
 21
6272.133626444725
 31
0.0
 70
    32
 71
     5
 42
70.0
  3
A3-20
100
AcDbAlignedDimension
 13
91.99429038451535
 23
5857.793358888684
 33
0.0
 14
21.99429038451535
 24
5857.793358888684
 34
0.0
100
AcDbRotatedDimension
  0
DIMENSION
  5
14F0
330
17
100
AcDbEntity
  8
SUNPOU
100
AcDbDimension
  2
*D56
 10
621.9942903845144
 20
6226.133626444725
 30
0.0
 11
356.9942903845149
 21
6272.133626444725
 31
0.0
 70
    32
 71
     5
 42
529.9999999999991
  3
A3-20
100
AcDbAlignedDimension
 13
91.99429038451535
 23
5857.793358888684
 33
0.0
 14
621.9942903845144
 24
5857.793358888684
 34
0.0
100
AcDbRotatedDimension
  0
DIMENSION
  5
14F1
330
17
100
AcDbEntity
  8
SUNPOU
100
AcDbDimension
  2
*D57
 10
-397.2471504639768
 20
5787.793358888685
 30
0.0
 11
-443.2471504639778
 21
5822.793358888684
 31
0.0
 70
    32
 71
     5
 42
69.99999999999909
  3
A3-20
100
AcDbAlignedDimension
 13
21.99429038451535
 23
5857.793358888684
 33
0.0
 14
56.99429038451512
 24
5787.793358888685
 34
0.0
 50
90.0
100
AcDbRotatedDimension
  0
DIMENSION
  5
14F2
330
17
100
AcDbEntity
  8
SUNPOU
100
AcDbDimension
  2
*D58
 10
691.9942903845144
 20
6226.133626444725
 30
0.0
 11
656.9942903845144
 21
6272.133626444725
 31
0.0
 70
    32
 71
     5
 42
70.0
  3
A3-20
100
AcDbAlignedDimension
 13
621.9942903845144
 23
5857.793358888684
 33
0.0
 14
691.9942903845144
 24
5857.793358888684
 34
0.0
 50
180.0
100
AcDbRotatedDimension
  0
LINE
  5
14F3
330
17
100
AcDbEntity
  8
1HASEN
100
AcDbLine
 10
-13.42559632502525
 20
6107.793358888684
 30
0.0
 11
114.598457051181
 21
6107.793358888684
 31
0.0
  0
LINE
  5
14F4
330
17
100
AcDbEntity
  8
HASEN
 48
0.5
100
AcDbLine
 10
15.11929038451512
 20
6132.793358888686
 30
0.0
 11
80.51489039978537
 21
6120.179644253936
 31
0.0
  0
LINE
  5
14F5
330
17
100
AcDbEntity
  8
HASEN
 48
0.5
100
AcDbLine
 10
80.51489039978537
 20
6120.179644253936
 30
0.0
 11
81.60366538451512
 21
6095.293358888684
 31
0.0
  0
LINE
  5
14F6
330
17
100
AcDbEntity
  8
HASEN
 48
0.5
100
AcDbLine
 10
81.60366538451512
 20
6095.293358888684
 30
0.0
 11
16.36929038451512
 21
6082.793358888686
 31
0.0
  0
LINE
  5
14F7
330
17
100
AcDbEntity
  8
HASEN
 48
0.5
100
AcDbLine
 10
16.36929038451512
 20
6082.793358888686
 30
0.0
 11
15.11929038451512
 21
6132.793358888686
 31
0.0
  0
DIMENSION
  5
14F8
330
17
100
AcDbEntity
  8
SUNPOU
100
AcDbDimension
  2
*D59
 10
-198.7720868805591
 20
6107.793358888684
 30
0.0
 11
-244.7720868805601
 21
5982.793358888684
 31
0.0
 70
    32
 71
     5
 42
250.0
  3
A3-20
100
AcDbAlignedDimension
 13
21.99429038451535
 23
5857.793358888684
 33
0.0
 14
-13.42559632502525
 24
6107.793358888684
 34
0.0
 50
90.0
100
AcDbRotatedDimension
  0
DIMENSION
  5
14F9
330
17
100
AcDbEntity
  8
SUNPOU
100
AcDbDimension
  2
*D60
 10
158.9987505458494
 20
5927.793358888684
 30
0.0
 11
192.171843483763
 21
5963.005725664492
 31
0.0
 70
   164
 71
     5
 42
70.00000000000136
  3
A3-20
100
AcDbRadialDimension
 15
104.221662169693
 25
5884.21044263666
 35
0.0
 40
0.0
  0
DIMENSION
  5
14FA
330
17
100
AcDbEntity
  8
SUNPOU
100
AcDbDimension
  2
*D61
 10
656.9942903845149
 20
5470.508307673703
 30
0.0
 11
356.994290384515
 21
5516.508307673703
 31
0.0
 70
    32
 71
     5
 42
599.9999999999998
  3
A3-20
100
AcDbAlignedDimension
 13
56.99429038451512
 23
5787.793358888685
 33
0.0
 14
656.9942903845149
 24
5787.793358888685
 34
0.0
100
AcDbRotatedDimension
  0
LINE
  5
14FB
330
17
100
AcDbEntity
  8
1HASEN
100
AcDbLine
 10
727.414177094055
 20
6107.793358888684
 30
0.0
 11
599.3901237178488
 21
6107.793358888684
 31
0.0
  0
LINE
  5
14FC
330
17
100
AcDbEntity
  8
HASEN
 48
0.5
100
AcDbLine
 10
698.8692903845149
 20
6132.793358888686
 30
0.0
 11
633.4736903692447
 21
6120.179644253936
 31
0.0
  0
LINE
  5
14FD
330
17
100
AcDbEntity
  8
HASEN
 48
0.5
100
AcDbLine
 10
633.4736903692447
 20
6120.179644253936
 30
0.0
 11
632.3849153845149
 21
6095.293358888684
 31
0.0
  0
LINE
  5
14FE
330
17
100
AcDbEntity
  8
HASEN
 48
0.5
100
AcDbLine
 10
632.3849153845149
 20
6095.293358888684
 30
0.0
 11
697.6192903845149
 21
6082.793358888686
 31
0.0
  0
LINE
  5
14FF
330
17
100
AcDbEntity
  8
HASEN
 48
0.5
100
AcDbLine
 10
697.6192903845149
 20
6082.793358888686
 30
0.0
 11
698.8692903845149
 21
6132.793358888686
 31
0.0
  0
TEXT
  5
1500
330
17
100
AcDbEntity
  8
SUNPOU
100
AcDbText
 10
843.6362660569266
 20
5986.396505927828
 30
0.0
 40
60.0
  1
排水孔
 41
0.8
100
AcDbText
  0
LINE
  5
1501
330
17
100
AcDbEntity
  8
SUNPOU
100
AcDbLine
 10
818.4635157469147
 20
5972.427927489619
 30
0.0
 11
1027.403736746523
 21
5972.427927489619
 31
0.0
  0
LEADER
  5
1502
330
17
100
AcDbEntity
  8
SUNPOU
100
AcDbLeader
  3
A3-20
 76
     2
 10
698.2442903845144
 20
6107.793358888684
 30
0.0
 10
818.4635157469147
 20
5972.427927489619
 30
0.0
1001
ACAD
1000
DSTYLE
1002
{
1070
   147
1040
0.8
1070
    77
1070
     0
1002
}
  0
DIMENSION
  5
1503
330
17
100
AcDbEntity
  8
SUNPOU
100
AcDbDimension
  2
*D62
 10
3848.231331124236
 20
6107.793358888684
 30
0.0
 11
3802.231331124235
 21
5982.793358888685
 31
0.0
 70
    32
 71
     5
 42
250.0
  3
A3-20
100
AcDbAlignedDimension
 13
4014.773348996653
 23
5857.793358888684
 33
0.0
 14
4014.773348996653
 24
6107.793358888684
 34
0.0
 50
90.0
100
AcDbRotatedDimension
  0
LINE
  5
1504
330
17
100
AcDbEntity
  8
1HASEN
 48
0.3
100
AcDbLine
 10
4464.773348996652
 20
6107.793358888684
 30
0.0
 11
4574.773348996652
 21
6107.793358888684
 31
0.0
  0
CIRCLE
  5
1505
330
17
100
AcDbEntity
  8
SUNPOU
100
AcDbCircle
 10
4519.773348996652
 20
6107.793358888684
 30
0.0
 40
25.0
  0
LINE
  5
1506
330
17
100
AcDbEntity
  8
1HASEN
 48
0.3
100
AcDbLine
 10
4519.773348996652
 20
6052.793358888684
 30
0.0
 11
4519.773348996652
 21
6162.793358888684
 31
0.0
  0
LINE
  5
1507
330
17
100
AcDbEntity
  8
1HASEN
 48
0.3
100
AcDbLine
 10
4794.773348996652
 20
6107.793358888684
 30
0.0
 11
4904.773348996652
 21
6107.793358888684
 31
0.0
  0
CIRCLE
  5
1508
330
17
100
AcDbEntity
  8
SUNPOU
100
AcDbCircle
 10
4849.773348996652
 20
6107.793358888684
 30
0.0
 40
25.0
  0
LINE
  5
1509
330
17
100
AcDbEntity
  8
1HASEN
 48
0.3
100
AcDbLine
 10
4849.773348996652
 20
6052.793358888684
 30
0.0
 11
4849.773348996652
 21
6162.793358888684
 31
0.0
  0
LINE
  5
150A
330
17
100
AcDbEntity
  8
1HASEN
 48
0.3
100
AcDbLine
 10
5124.773348996652
 20
6107.793358888684
 30
0.0
 11
5234.773348996652
 21
6107.793358888684
 31
0.0
  0
CIRCLE
  5
150B
330
17
100
AcDbEntity
  8
SUNPOU
100
AcDbCircle
 10
5179.773348996652
 20
6107.793358888684
 30
0.0
 40
25.0
  0
LINE
  5
150C
330
17
100
AcDbEntity
  8
1HASEN
 48
0.3
100
AcDbLine
 10
5179.773348996652
 20
6052.793358888684
 30
0.0
 11
5179.773348996652
 21
6162.793358888684
 31
0.0
  0
LINE
  5
150D
330
17
100
AcDbEntity
  8
1HASEN
 48
0.3
100
AcDbLine
 10
5454.773348996652
 20
6107.793358888684
 30
0.0
 11
5564.773348996652
 21
6107.793358888684
 31
0.0
  0
CIRCLE
  5
150E
330
17
100
AcDbEntity
  8
SUNPOU
100
AcDbCircle
 10
5509.773348996652
 20
6107.793358888684
 30
0.0
 40
25.0
  0
LINE
  5
150F
330
17
100
AcDbEntity
  8
1HASEN
 48
0.3
100
AcDbLine
 10
5509.773348996652
 20
6052.793358888684
 30
0.0
 11
5509.773348996652
 21
6162.793358888684
 31
0.0
  0
LINE
  5
1510
330
17
100
AcDbEntity
  8
1HASEN
 48
0.3
100
AcDbLine
 10
5784.773348996652
 20
6107.793358888684
 30
0.0
 11
5894.773348996652
 21
6107.793358888684
 31
0.0
  0
CIRCLE
  5
1511
330
17
100
AcDbEntity
  8
SUNPOU
100
AcDbCircle
 10
5839.773348996652
 20
6107.793358888684
 30
0.0
 40
25.0
  0
LINE
  5
1512
330
17
100
AcDbEntity
  8
1HASEN
 48
0.3
100
AcDbLine
 10
5839.773348996652
 20
6052.793358888684
 30
0.0
 11
5839.773348996652
 21
6162.793358888684
 31
0.0
  0
DIMENSION
  5
1513
330
17
100
AcDbEntity
  8
SUNPOU
100
AcDbDimension
  2
*D63
 10
4189.773348996652
 20
5507.357179114254
 30
0.0
 11
4102.273348996652
 21
5553.357179114254
 31
0.0
 70
    32
 71
     5
 42
174.9999999999995
  3
A3-20
100
AcDbAlignedDimension
 13
4014.773348996653
 23
5787.793358888684
 33
0.0
 14
4189.773348996652
 24
5787.793358888684
 34
0.0
100
AcDbRotatedDimension
  0
DIMENSION
  5
1514
330
17
100
AcDbEntity
  8
SUNPOU
100
AcDbDimension
  2
*D64
 10
5839.773348996652
 20
5507.357179114254
 30
0.0
 11
5927.273348996652
 21
5553.357179114254
 31
0.0
 70
    32
 71
     5
 42
175.0
  3
A3-20
100
AcDbAlignedDimension
 13
6014.773348996652
 23
5787.793358888684
 33
0.0
 14
5839.773348996652
 24
5787.793358888684
 34
0.0
 50
180.0
100
AcDbRotatedDimension
  0
LINE
  5
1515
330
17
100
AcDbEntity
  8
SEIHIN
100
AcDbLine
 10
4014.773348996653
 20
5821.895922991249
 30
0.0
 11
6014.773348996653
 21
5821.895922991249
 31
0.0
  0
DIMENSION
  5
1516
330
17
100
AcDbEntity
  8
SUNPOU
100
AcDbDimension
  2
*D65
 10
5839.773348996652
 20
5507.357179114254
 30
0.0
 11
5014.773348996652
 21
5553.357179114254
 31
0.0
 70
    32
  1
5@330=<>
 71
     5
 42
1650.0
  3
A3-20
100
AcDbAlignedDimension
 13
4189.773348996652
 23
5787.793358888684
 33
0.0
 14
5839.773348996652
 24
5787.793358888684
 34
0.0
100
AcDbRotatedDimension
  0
ENDSEC
  0
SECTION
  2
OBJECTS
  0
DICTIONARY
  5
C
330
0
100
AcDbDictionary
281
     1
  3
ACAD_CIP_PREVIOUS_PRODUCT_INFO
350
1359
  3
ACAD_COLOR
350
A4
  3
ACAD_DETAILVIEWSTYLE
350
1354
  3
ACAD_GROUP
350
D
  3
ACAD_LAYOUT
350
6F
  3
ACAD_MATERIAL
350
A3
  3
ACAD_MLEADERSTYLE
350
1350
  3
ACAD_MLINESTYLE
350
1A
  3
ACAD_PLOTSETTINGS
350
70
  3
ACAD_PLOTSTYLENAME
350
6D
  3
ACAD_SCALELIST
350
133E
  3
ACAD_SECTIONVIEWSTYLE
350
1352
  3
ACAD_TABLESTYLE
350
A5
  3
ACAD_VISUALSTYLE
350
1325
  3
ACDB_RECOMPOSE_DATA
350
18D9
  3
AcDbVariableDictionary
350
A0
  0
DICTIONARY
  5
18CE
330
8
100
AcDbDictionary
280
     1
281
     1
  3
ACAD_XREC_ROUNDTRIP
360
18CF
  0
DICTIONARY
  5
1879
330
E
100
AcDbDictionary
280
     1
281
     1
  3
ADSK_XREC_LAYER_RECONCILED
360
187A
  0
DICTIONARY
  5
187B
330
23
100
AcDbDictionary
280
     1
281
     1
  3
ADSK_XREC_LAYER_RECONCILED
360
187C
  0
DICTIONARY
  5
187D
330
24
100
AcDbDictionary
280
     1
281
     1
  3
ADSK_XREC_LAYER_RECONCILED
360
187E
  0
DICTIONARY
  5
187F
330
25
100
AcDbDictionary
280
     1
281
     1
  3
ADSK_XREC_LAYER_RECONCILED
360
1880
  0
DICTIONARY
  5
1881
330
26
100
AcDbDictionary
280
     1
281
     1
  3
ADSK_XREC_LAYER_RECONCILED
360
1882
  0
DICTIONARY
  5
1883
330
27
100
AcDbDictionary
280
     1
281
     1
  3
ADSK_XREC_LAYER_RECONCILED
360
1884
  0
DICTIONARY
  5
1885
330
28
100
AcDbDictionary
280
     1
281
     1
  3
ADSK_XREC_LAYER_RECONCILED
360
1886
  0
DICTIONARY
  5
1887
330
29
100
AcDbDictionary
280
     1
281
     1
  3
ADSK_XREC_LAYER_RECONCILED
360
1888
  0
DICTIONARY
  5
1889
330
2A
100
AcDbDictionary
280
     1
281
     1
  3
ADSK_XREC_LAYER_RECONCILED
360
188A
  0
DICTIONARY
  5
9C
330
17
100
AcDbDictionary
280
     1
281
     1
  3
ACAD_SORTENTS
360
D97
  0
XRECORD
  5
1359
102
{ACAD_REACTORS
330
C
102
}
330
C
100
AcDbXrecord
280
     1
300
ACD
300
2014
300
ACD_F_S
  0
DICTIONARY
  5
A4
102
{ACAD_REACTORS
330
C
102
}
330
C
100
AcDbDictionary
281
     1
  0
DICTIONARY
  5
1354
102
{ACAD_REACTORS
330
C
102
}
330
C
100
AcDbDictionary
281
     1
  3
Imperial24
350
1355
  0
DICTIONARY
  5
D
102
{ACAD_REACTORS
330
C
102
}
330
C
100
AcDbDictionary
281
     1
  0
DICTIONARY
  5
6F
102
{ACAD_REACTORS
330
C
102
}
330
C
100
AcDbDictionary
281
     1
  3
Model
350
71
  3
ﾚｲｱｳﾄ1
350
72
  0
DICTIONARY
  5
A3
102
{ACAD_REACTORS
330
C
102
}
330
C
100
AcDbDictionary
281
     1
  3
ByBlock
350
1315
  3
ByLayer
350
130D
  3
Global
350
131D
  0
DICTIONARY
  5
1350
102
{ACAD_REACTORS
330
C
102
}
330
C
100
AcDbDictionary
281
     1
  3
Standard
350
1351
  0
DICTIONARY
  5
1A
102
{ACAD_REACTORS
330
C
102
}
330
C
100
AcDbDictionary
281
     1
  3
STANDARD
350
1B
  0
DICTIONARY
  5
70
102
{ACAD_REACTORS
330
C
102
}
330
C
100
AcDbDictionary
281
     1
  0
ACDBDICTIONARYWDFLT
  5
6D
102
{ACAD_REACTORS
330
C
102
}
330
C
100
AcDbDictionary
281
     1
  3
Normal
350
6E
100
AcDbDictionaryWithDefault
340
6E
  0
DICTIONARY
  5
133E
102
{ACAD_REACTORS
330
C
102
}
330
C
100
AcDbDictionary
281
     1
  3
A0
350
133F
  3
A1
350
1340
  3
A2
350
1341
  3
A3
350
1342
  3
A4
350
1343
  3
A5
350
1344
  3
A6
350
1345
  3
A7
350
1346
  3
A8
350
1347
  3
A9
350
1348
  3
B0
350
1349
  3
B1
350
134A
  3
B2
350
134B
  3
B3
350
134C
  3
B4
350
134D
  3
B5
350
134E
  3
B6
350
134F
  0
DICTIONARY
  5
1352
102
{ACAD_REACTORS
330
C
102
}
330
C
100
AcDbDictionary
281
     1
  3
Imperial24
350
1353
  0
DICTIONARY
  5
A5
102
{ACAD_REACTORS
330
C
102
}
330
C
100
AcDbDictionary
281
     1
  3
Standard
350
A6
  0
DICTIONARY
  5
1325
102
{ACAD_REACTORS
330
C
102
}
330
C
100
AcDbDictionary
281
     1
  3
2dWireframe
350
132B
  3
Basic
350
132A
  3
Brighten
350
1331
  3
ColorChange
350
1335
  3
Conceptual
350
132E
  3
Dim
350
1330
  3
EdgeColorOff
350
133D
  3
Facepattern
350
1334
  3
Flat
350
1326
  3
FlatWithEdges
350
1327
  3
Gouraud
350
1328
  3
GouraudWithEdges
350
1329
  3
Hidden
350
132D
  3
JitterOff
350
133B
  3
Linepattern
350
1333
  3
OverhangOff
350
133C
  3
Realistic
350
132F
  3
Shaded
350
133A
  3
Shaded with edges
350
1339
  3
Shades of Gray
350
1336
  3
Sketchy
350
1337
  3
Thicken
350
1332
  3
Wireframe
350
132C
  3
X-Ray
350
1338
  0
XRECORD
  5
18D9
102
{ACAD_REACTORS
330
C
102
}
330
C
100
AcDbXrecord
280
     1
 90
        1
330
A6
  0
DICTIONARY
  5
A0
102
{ACAD_REACTORS
330
C
102
}
330
C
100
AcDbDictionary
281
     1
  3
CANNOSCALE
350
18C9
  3
CMLEADERSTYLE
350
18C5
  3
CTABLESTYLE
350
B0
  3
CVIEWDETAILSTYLE
350
18C6
  3
CVIEWSECTIONSTYLE
350
18C7
  3
DIMASSOC
350
A1
  3
LAYEREVAL
350
18CB
  3
LAYERNOTIFY
350
18CC
  3
LIGHTINGUNITS
350
18CA
  3
MSLTSCALE
350
18C8
  3
PROJECTNAME
350
B1
  3
XCLIPFRAME
350
18CD
  0
XRECORD
  5
18CF
102
{ACAD_REACTORS
330
18CE
102
}
330
18CE
100
AcDbXrecord
280
     1
102
VTR_0.000_0.000_1.000_1.000_VISUALSTYLE
340
132B
102
VTR_0.000_0.000_1.000_1.000_GRIDDISPLAY
 70
     3
102
VTR_0.000_0.000_1.000_1.000_GRIDMAJOR
 70
     5
102
VTR_0.000_0.000_1.000_1.000_DEFAULTLIGHTING
280
     1
102
VTR_0.000_0.000_1.000_1.000_DEFAULTLIGHTINGTYPE
 70
     1
102
VTR_0.000_0.000_1.000_1.000_BRIGHTNESS
141
0.0
102
VTR_0.000_0.000_1.000_1.000_CONTRAST
142
0.0
  0
XRECORD
  5
187A
102
{ACAD_REACTORS
330
1879
102
}
330
1879
100
AcDbXrecord
280
     1
290
     1
  0
XRECORD
  5
187C
102
{ACAD_REACTORS
330
187B
102
}
330
187B
100
AcDbXrecord
280
     1
290
     1
  0
XRECORD
  5
187E
102
{ACAD_REACTORS
330
187D
102
}
330
187D
100
AcDbXrecord
280
     1
290
     1
  0
XRECORD
  5
1880
102
{ACAD_REACTORS
330
187F
102
}
330
187F
100
AcDbXrecord
280
     1
290
     1
  0
XRECORD
  5
1882
102
{ACAD_REACTORS
330
1881
102
}
330
1881
100
AcDbXrecord
280
     1
290
     1
  0
XRECORD
  5
1884
102
{ACAD_REACTORS
330
1883
102
}
330
1883
100
AcDbXrecord
280
     1
290
     1
  0
XRECORD
  5
1886
102
{ACAD_REACTORS
330
1885
102
}
330
1885
100
AcDbXrecord
280
     1
290
     1
  0
XRECORD
  5
1888
102
{ACAD_REACTORS
330
1887
102
}
330
1887
100
AcDbXrecord
280
     1
290
     1
  0
XRECORD
  5
188A
102
{ACAD_REACTORS
330
1889
102
}
330
1889
100
AcDbXrecord
280
     1
290
     1
  0
SORTENTSTABLE
  5
D97
102
{ACAD_REACTORS
330
9C
102
}
330
9C
100
AcDbSortentsTable
330
17
331
0
  5
7A2
331
E79
  5
E79
331
F71
  5
F71
331
F73
  5
F73
331
F74
  5
F74
331
F75
  5
F75
331
F78
  5
F78
331
F79
  5
F7A
331
F7A
  5
F7B
331
F7B
  5
F79
331
F7C
  5
F7C
331
F7D
  5
F7D
331
F7E
  5
F7E
331
F7F
  5
F7F
331
F88
  5
F88
331
F89
  5
F89
331
F8A
  5
F8A
331
F8B
  5
F8B
331
F8C
  5
F8C
331
F8D
  5
F8D
331
F8E
  5
F8E
331
F8F
  5
F8F
331
F90
  5
F90
331
F91
  5
F91
331
F92
  5
F92
331
F93
  5
F93
331
F94
  5
F94
331
F96
  5
F96
331
F97
  5
F97
331
F98
  5
F98
331
F99
  5
F99
331
1017
  5
1017
331
1025
  5
1025
331
1026
  5
1026
331
1027
  5
1027
331
1072
  5
1072
331
1080
  5
1080
331
108D
  5
108D
331
10A4
  5
10A4
331
10BC
  5
10BC
331
10BF
  5
10BF
331
10C0
  5
10C0
331
10C1
  5
10C1
331
10C2
  5
10C2
  0
ACAD_PROXY_OBJECT
  5
1355
102
{ACAD_REACTORS
330
1354
102
}
102
{ACAD_XDICTIONARY
360
18C3
102
}
330
1354
100
AcDbProxyObject
 90
      499
 91
      515
 95
  3276827
 70
     0
 93
     2314
310
9207000000180005C0F42F5A8DC671F815AF46E07A15AE7E07000000180005C0F42F5A8DC671FA3300000018001000000180005C0F42F5A8DC671FA02000000000000741FA028CC00000060002330000001800000852480368038003280390034803080360019001A004AD12801E002E00208031802B003080390010002B00
310
348032803B802A003C803800328010002E0033001000110012803A003180188011001F001280100012801E002E00208031802B003080390010002B00348032803B80220032803A00308034803600248032001F0012802E00280029802180208026002280100012801E002E00208031802B003080390010002B00348032803B
310
802980318030803600328010002E0033001000110012803980370011001F0012802B0340
340
F
340
0
340
13
340
F
340
13
340
13
 94
        0
  0
LAYOUT
  5
71
102
{ACAD_REACTORS
330
6F
102
}
330
6F
100
AcDbPlotSettings
  1

  2
RICOH IPSiO NX850 RPCS
  4

  6

 40
0.0
 41
0.0
 42
0.0
 43
0.0
 44
0.0
 45
0.0
 46
0.0
 47
0.0
 48
0.0
 49
0.0
140
0.0
141
0.0
142
1.0
143
1.0
 70
  1712
 72
     0
 73
     0
 74
     0
  7
acad.ctb
 75
     0
 76
     0
 77
     2
 78
   300
147
1.0
148
0.0
149
0.0
100
AcDbLayout
  1
Model
 70
     1
 71
     0
 10
0.0
 20
0.0
 11
12.0
 21
9.0
 12
0.0
 22
0.0
 32
0.0
 14
0.0
 24
0.0
 34
0.0
 15
0.0
 25
0.0
 35
0.0
146
0.0
 13
0.0
 23
0.0
 33
0.0
 16
1.0
 26
0.0
 36
0.0
 17
0.0
 27
1.0
 37
0.0
 76
     0
330
17
331
1306
  0
LAYOUT
  5
72
102
{ACAD_REACTORS
330
6F
102
}
330
6F
100
AcDbPlotSettings
  1

  2
RICOH IPSiO NX850 RPCS
  4

  6

 40
0.0
 41
0.0
 42
0.0
 43
0.0
 44
0.0
 45
0.0
 46
0.0
 47
0.0
 48
0.0
 49
0.0
140
0.0
141
0.0
142
1.0
143
1.0
 70
   688
 72
     0
 73
     0
 74
     5
  7
acad.ctb
 75
    16
 76
     0
 77
     2
 78
   300
147
1.0
148
0.0
149
0.0
100
AcDbLayout
  1
ﾚｲｱｳﾄ1
 70
     0
 71
     1
 10
0.0
 20
0.0
 11
12.0
 21
9.0
 12
0.0
 22
0.0
 32
0.0
 14
1.000000000000000E+20
 24
1.000000000000000E+20
 34
1.000000000000000E+20
 15
-1.000000000000000E+20
 25
-1.000000000000000E+20
 35
-1.000000000000000E+20
146
0.0
 13
0.0
 23
0.0
 33
0.0
 16
1.0
 26
0.0
 36
0.0
 17
0.0
 27
1.0
 37
0.0
 76
     0
330
14
  0
MATERIAL
  5
1315
102
{ACAD_REACTORS
330
A3
102
}
102
{ACAD_XDICTIONARY
360
18D0
102
}
330
A3
100
AcDbMaterial
  1
ByBlock
 72
     0
 73
     2
 43
0.0208333333333333
 43
0.0
 43
0.0
 43
0.0
 43
0.0
 43
0.0208333333333333
 43
0.0
 43
0.0
 43
0.0
 43
0.0
 43
1.0
 43
0.0
 43
0.0
 43
0.0
 43
0.0
 43
1.0
 77
     0
 78
     2
 47
0.0208333333333333
 47
0.0
 47
0.0
 47
0.0
 47
0.0
 47
0.0208333333333333
 47
0.0
 47
0.0
 47
0.0
 47
0.0
 47
1.0
 47
0.0
 47
0.0
 47
0.0
 47
0.0
 47
1.0
171
     0
172
     2
 49
0.0208333333333333
 49
0.0
 49
0.0
 49
0.0
 49
0.0
 49
0.0208333333333333
 49
0.0
 49
0.0
 49
0.0
 49
0.0
 49
1.0
 49
0.0
 49
0.0
 49
0.0
 49
0.0
 49
1.0
175
     0
176
     2
142
0.0208333333333333
142
0.0
142
0.0
142
0.0
142
0.0
142
0.0208333333333333
142
0.0
142
0.0
142
0.0
142
0.0
142
1.0
142
0.0
142
0.0
142
0.0
142
0.0
142
1.0
179
     0
270
     2
144
0.0208333333333333
144
0.0
144
0.0
144
0.0
144
0.0
144
0.0208333333333333
144
0.0
144
0.0
144
0.0
144
0.0
144
1.0
144
0.0
144
0.0
144
0.0
144
0.0
144
1.0
274
     2
147
0.0208333333333333
147
0.0
147
0.0
147
0.0
147
0.0
147
0.0208333333333333
147
0.0
147
0.0
147
0.0
147
0.0
147
1.0
147
0.0
147
0.0
147
0.0
147
0.0
147
1.0
  0
MATERIAL
  5
130D
102
{ACAD_REACTORS
330
A3
102
}
102
{ACAD_XDICTIONARY
360
18D2
102
}
330
A3
100
AcDbMaterial
  1
ByLayer
 72
     0
 73
     2
 43
0.0208333333333333
 43
0.0
 43
0.0
 43
0.0
 43
0.0
 43
0.0208333333333333
 43
0.0
 43
0.0
 43
0.0
 43
0.0
 43
1.0
 43
0.0
 43
0.0
 43
0.0
 43
0.0
 43
1.0
 77
     0
 78
     2
 47
0.0208333333333333
 47
0.0
 47
0.0
 47
0.0
 47
0.0
 47
0.0208333333333333
 47
0.0
 47
0.0
 47
0.0
 47
0.0
 47
1.0
 47
0.0
 47
0.0
 47
0.0
 47
0.0
 47
1.0
171
     0
172
     2
 49
0.0208333333333333
 49
0.0
 49
0.0
 49
0.0
 49
0.0
 49
0.0208333333333333
 49
0.0
 49
0.0
 49
0.0
 49
0.0
 49
1.0
 49
0.0
 49
0.0
 49
0.0
 49
0.0
 49
1.0
175
     0
176
     2
142
0.0208333333333333
142
0.0
142
0.0
142
0.0
142
0.0
142
0.0208333333333333
142
0.0
142
0.0
142
0.0
142
0.0
142
1.0
142
0.0
142
0.0
142
0.0
142
0.0
142
1.0
179
     0
270
     2
144
0.0208333333333333
144
0.0
144
0.0
144
0.0
144
0.0
144
0.0208333333333333
144
0.0
144
0.0
144
0.0
144
0.0
144
1.0
144
0.0
144
0.0
144
0.0
144
0.0
144
1.0
274
     2
147
0.0208333333333333
147
0.0
147
0.0
147
0.0
147
0.0
147
0.0208333333333333
147
0.0
147
0.0
147
0.0
147
0.0
147
1.0
147
0.0
147
0.0
147
0.0
147
0.0
147
1.0
  0
MATERIAL
  5
131D
102
{ACAD_REACTORS
330
A3
102
}
102
{ACAD_XDICTIONARY
360
18D4
102
}
330
A3
100
AcDbMaterial
  1
Global
 72
     0
 73
     2
 43
0.0208333333333333
 43
0.0
 43
0.0
 43
0.0
 43
0.0
 43
0.0208333333333333
 43
0.0
 43
0.0
 43
0.0
 43
0.0
 43
1.0
 43
0.0
 43
0.0
 43
0.0
 43
0.0
 43
1.0
 77
     0
 78
     2
 47
0.0208333333333333
 47
0.0
 47
0.0
 47
0.0
 47
0.0
 47
0.0208333333333333
 47
0.0
 47
0.0
 47
0.0
 47
0.0
 47
1.0
 47
0.0
 47
0.0
 47
0.0
 47
0.0
 47
1.0
171
     0
172
     2
 49
0.0208333333333333
 49
0.0
 49
0.0
 49
0.0
 49
0.0
 49
0.0208333333333333
 49
0.0
 49
0.0
 49
0.0
 49
0.0
 49
1.0
 49
0.0
 49
0.0
 49
0.0
 49
0.0
 49
1.0
175
     0
176
     2
142
0.0208333333333333
142
0.0
142
0.0
142
0.0
142
0.0
142
0.0208333333333333
142
0.0
142
0.0
142
0.0
142
0.0
142
1.0
142
0.0
142
0.0
142
0.0
142
0.0
142
1.0
179
     0
270
     2
144
0.0208333333333333
144
0.0
144
0.0
144
0.0
144
0.0
144
0.0208333333333333
144
0.0
144
0.0
144
0.0
144
0.0
144
1.0
144
0.0
144
0.0
144
0.0
144
0.0
144
1.0
274
     2
147
0.0208333333333333
147
0.0
147
0.0
147
0.0
147
0.0
147
0.0208333333333333
147
0.0
147
0.0
147
0.0
147
0.0
147
1.0
147
0.0
147
0.0
147
0.0
147
0.0
147
1.0
  0
MLEADERSTYLE
  5
1351
102
{ACAD_REACTORS
330
1350
102
}
330
1350
100
AcDbMLeaderStyle
170
     2
171
     1
172
     0
 90
        2
 40
0.0
 41
0.0
173
     1
 91
-1056964608
340
11
 92
       -2
290
     1
 42
0.09
291
     1
 43
0.36
  3
Standard
341
0
 44
0.18
300

342
F
174
     1
178
     6
175
     1
176
     0
 93
-1056964608
 45
0.18
292
     0
297
     0
 46
0.18
343
0
 94
-1056964608
 47
1.0
 49
1.0
140
1.0
293
     1
141
0.0
294
     1
177
     0
142
1.0
295
     0
296
     0
143
0.125
1001
ACAD_MLEADERVER
1070
     2
  0
MLINESTYLE
  5
1B
102
{ACAD_REACTORS
330
1A
102
}
330
1A
100
AcDbMlineStyle
  2
STANDARD
 70
     0
  3

 62
   256
 51
90.0
 52
90.0
 71
     2
 49
0.5
 62
   256
  6
BYLAYER
 49
-0.5
 62
   256
  6
BYLAYER
  0
ACDBPLACEHOLDER
  5
6E
102
{ACAD_REACTORS
330
6D
102
}
330
6D
  0
SCALE
  5
133F
102
{ACAD_REACTORS
330
133E
102
}
330
133E
100
AcDbScale
 70
     0
300
1:1
140
1.0
141
1.0
290
     1
  0
SCALE
  5
1340
102
{ACAD_REACTORS
330
133E
102
}
330
133E
100
AcDbScale
 70
     0
300
1/128" = 1'-0"
140
0.0078125
141
12.0
290
     0
  0
SCALE
  5
1341
102
{ACAD_REACTORS
330
133E
102
}
330
133E
100
AcDbScale
 70
     0
300
1/64" = 1'-0"
140
0.015625
141
12.0
290
     0
  0
SCALE
  5
1342
102
{ACAD_REACTORS
330
133E
102
}
330
133E
100
AcDbScale
 70
     0
300
1/32" = 1'-0"
140
0.03125
141
12.0
290
     0
  0
SCALE
  5
1343
102
{ACAD_REACTORS
330
133E
102
}
330
133E
100
AcDbScale
 70
     0
300
1/16" = 1'-0"
140
0.0625
141
12.0
290
     0
  0
SCALE
  5
1344
102
{ACAD_REACTORS
330
133E
102
}
330
133E
100
AcDbScale
 70
     0
300
3/32" = 1'-0"
140
0.09375
141
12.0
290
     0
  0
SCALE
  5
1345
102
{ACAD_REACTORS
330
133E
102
}
330
133E
100
AcDbScale
 70
     0
300
1/8" = 1'-0"
140
0.125
141
12.0
290
     0
  0
SCALE
  5
1346
102
{ACAD_REACTORS
330
133E
102
}
330
133E
100
AcDbScale
 70
     0
300
3/16" = 1'-0"
140
0.1875
141
12.0
290
     0
  0
SCALE
  5
1347
102
{ACAD_REACTORS
330
133E
102
}
330
133E
100
AcDbScale
 70
     0
300
1/4" = 1'-0"
140
0.25
141
12.0
290
     0
  0
SCALE
  5
1348
102
{ACAD_REACTORS
330
133E
102
}
330
133E
100
AcDbScale
 70
     0
300
3/8" = 1'-0"
140
0.375
141
12.0
290
     0
  0
SCALE
  5
1349
102
{ACAD_REACTORS
330
133E
102
}
330
133E
100
AcDbScale
 70
     0
300
1/2" = 1'-0"
140
0.5
141
12.0
290
     0
  0
SCALE
  5
134A
102
{ACAD_REACTORS
330
133E
102
}
330
133E
100
AcDbScale
 70
     0
300
3/4" = 1'-0"
140
0.75
141
12.0
290
     0
  0
SCALE
  5
134B
102
{ACAD_REACTORS
330
133E
102
}
330
133E
100
AcDbScale
 70
     0
300
1" = 1'-0"
140
1.0
141
12.0
290
     0
  0
SCALE
  5
134C
102
{ACAD_REACTORS
330
133E
102
}
330
133E
100
AcDbScale
 70
     0
300
1-1/2" = 1'-0"
140
1.5
141
12.0
290
     0
  0
SCALE
  5
134D
102
{ACAD_REACTORS
330
133E
102
}
330
133E
100
AcDbScale
 70
     0
300
3" = 1'-0"
140
3.0
141
12.0
290
     0
  0
SCALE
  5
134E
102
{ACAD_REACTORS
330
133E
102
}
330
133E
100
AcDbScale
 70
     0
300
6" = 1'-0"
140
6.0
141
12.0
290
     0
  0
SCALE
  5
134F
102
{ACAD_REACTORS
330
133E
102
}
330
133E
100
AcDbScale
 70
     0
300
1'-0" = 1'-0"
140
12.0
141
12.0
290
     0
  0
ACAD_PROXY_OBJECT
  5
1353
102
{ACAD_REACTORS
330
1352
102
}
102
{ACAD_XDICTIONARY
360
18C1
102
}
330
1352
100
AcDbProxyObject
 90
      499
 91
      514
 95
  3276827
 70
     0
 93
     3814
310
929D000000180005C0F42F5A8DC671FC00000060001703D0BD6A3719C7E5C0F42F5A8DC6F1FA330000001800099400000060001703D0BD6A3719C7E5C0F42F5A8DC671FC00000060001703D0BD6A3719C7E808000000000001D07E80C0000006000400000064003081815AF46E07A158E7E80C8340C16A22A7D90FC9F8CAE6
310
5A70A583A07E1FE81C635378FA1F8CAE65A70A583A17E7944A7F127A97E9FA149200DA00E000CA00E400D200C200D80064006800882480160010002780160010002880160010002980160010002C00160010002D002F84A007800B8008200C600AC00C200E4004000AC00D200CA00EE00A800F200E000CA004000B800CC004
310
00044004A00E800C600620044007C004A0040004A007800B8008200C600AC00C200E4004000AC00D200CA00EE00A600CA00C600E800D200DE00DC00A600E800C200E400E8009200C8007C004A005A004A007800B8008200C600AC00C200E4004000AC00D200CA00EE00A600CA00C600E800D200DE00DC008A00DC00C800920
310
0C8007C004A00B800A000A6008600820098008A0040004A007800B8008200C600AC00C200E4004000AC00D200CA00EE00A600C600C200D800CA004000B800CC00400044004A00E600DC0044007C004A00832080270029802480198018807404C
340
F
340
0
340
0
340
13
340
13
340
F
 94
        0
  0
TABLESTYLE
  5
A6
102
{ACAD_REACTORS
330
A5
102
}
102
{ACAD_XDICTIONARY
360
18D6
102
}
330
A5
100
AcDbTableStyle
  3
Standard
 70
     0
 71
     0
 40
0.06
 41
0.06
280
     0
281
     0
  7
STANDARD
140
0.18
170
     2
 62
     0
 63
   257
283
     0
274
    -2
284
     1
 64
     0
275
    -2
285
     1
 65
     0
276
    -2
286
     1
 66
     0
277
    -2
287
     1
 67
     0
278
    -2
288
     1
 68
     0
279
    -2
289
     1
 69
     0
  7
STANDARD
140
0.25
170
     5
 62
     0
 63
   257
283
     0
274
    -2
284
     1
 64
     0
275
    -2
285
     1
 65
     0
276
    -2
286
     1
 66
     0
277
    -2
287
     1
 67
     0
278
    -2
288
     1
 68
     0
279
    -2
289
     1
 69
     0
  7
STANDARD
140
0.18
170
     5
 62
     0
 63
   257
283
     0
274
    -2
284
     1
 64
     0
275
    -2
285
     1
 65
     0
276
    -2
286
     1
 66
     0
277
    -2
287
     1
 67
     0
278
    -2
288
     1
 68
     0
279
    -2
289
     1
 69
     0
  0
VISUALSTYLE
  5
132B
102
{ACAD_REACTORS
330
1325
102
}
102
{ACAD_XDICTIONARY
360
18DA
102
}
330
1325
100
AcDbVisualStyle
  2
2dWireframe
 70
     4
 71
     0
 72
     2
 73
     0
 90
        0
 40
-0.6
 41
-30.0
 62
     5
 63
     7
421
 16777215
 74
     1
 91
        4
 64
     7
 65
   257
 75
     1
175
     1
 42
1.0
 92
        0
 66
   257
 43
1.0
 76
     1
 77
     6
 78
     2
 67
     7
 79
     5
170
     0
171
     0
290
     0
174
     0
 93
        1
 44
0.0
173
     0
291
     0
 45
0.0
1001
ACAD
1000
AcDbSavedByObjectVersion
1070
     0
  0
VISUALSTYLE
  5
132A
102
{ACAD_REACTORS
330
1325
102
}
102
{ACAD_XDICTIONARY
360
18DC
102
}
330
1325
100
AcDbVisualStyle
  2
Basic
 70
     7
 71
     1
 72
     0
 73
     1
 90
        0
 40
-0.6
 41
-30.0
 62
     5
 63
     7
421
 16777215
 74
     0
 91
        4
 64
     7
 65
   257
 75
     1
175
     1
 42
1.0
 92
        8
 66
     7
 43
1.0
 76
     1
 77
     6
 78
     2
 67
     7
 79
     5
170
     0
171
     0
290
     0
174
     0
 93
        1
 44
0.0
173
     0
291
     1
 45
0.0
1001
ACAD
1000
AcDbSavedByObjectVersion
1070
     0
  0
VISUALSTYLE
  5
1331
102
{ACAD_REACTORS
330
1325
102
}
102
{ACAD_XDICTIONARY
360
18DE
102
}
330
1325
100
AcDbVisualStyle
  2
Brighten
 70
    12
 71
     2
 72
     2
 73
     0
 90
        0
 40
-0.6
 41
-30.0
 62
     5
 63
     7
421
 16777215
 74
     1
 91
        4
 64
     7
 65
   257
 75
     1
175
     1
 42
1.0
 92
        8
 66
     7
 43
1.0
 76
     1
 77
     6
 78
     2
 67
     7
 79
     5
170
     0
171
     0
290
     0
174
     0
 93
        1
 44
50.0
173
     0
291
     1
 45
0.0
1001
ACAD
1000
AcDbSavedByObjectVersion
1070
     0
  0
VISUALSTYLE
  5
1335
102
{ACAD_REACTORS
330
1325
102
}
102
{ACAD_XDICTIONARY
360
18E0
102
}
330
1325
100
AcDbVisualStyle
  2
ColorChange
 70
    16
 71
     2
 72
     2
 73
     3
 90
        0
 40
-0.6
 41
-30.0
 62
     5
 63
     8
421
  8421504
 74
     1
 91
        4
 64
     7
 65
   257
 75
     1
175
     1
 42
1.0
 92
        8
 66
     8
424
  8421504
 43
1.0
 76
     1
 77
     6
 78
     2
 67
     7
 79
     5
170
     0
171
     0
290
     0
174
     0
 93
        1
 44
0.0
173
     0
291
     1
 45
0.0
1001
ACAD
1000
AcDbSavedByObjectVersion
1070
     0
  0
VISUALSTYLE
  5
132E
102
{ACAD_REACTORS
330
1325
102
}
102
{ACAD_XDICTIONARY
360
18E2
102
}
330
1325
100
AcDbVisualStyle
  2
Conceptual
 70
     9
 71
     3
 72
     2
 73
     0
 90
        0
 40
-0.6
 41
-30.0
 62
     5
 63
     7
421
 16777215
 74
     2
 91
        2
 64
     7
 65
   257
 75
     1
175
     1
 42
179.0
 92
        8
 66
     7
 43
1.0
 76
     1
 77
     6
 78
     2
 67
     7
 79
     3
170
     0
171
     0
290
     0
174
     0
 93
        1
 44
0.0
173
     0
291
     0
 45
0.0
1001
ACAD
1000
AcDbSavedByObjectVersion
1070
     0
  0
VISUALSTYLE
  5
1330
102
{ACAD_REACTORS
330
1325
102
}
102
{ACAD_XDICTIONARY
360
18E4
102
}
330
1325
100
AcDbVisualStyle
  2
Dim
 70
    11
 71
     2
 72
     2
 73
     0
 90
        0
 40
-0.6
 41
-30.0
 62
     5
 63
     7
421
 16777215
 74
     1
 91
        4
 64
     7
 65
   257
 75
     1
175
     1
 42
1.0
 92
        8
 66
     7
 43
1.0
 76
     1
 77
     6
 78
     2
 67
     7
 79
     5
170
     0
171
     0
290
     0
174
     0
 93
        1
 44
-50.0
173
     0
291
     1
 45
0.0
1001
ACAD
1000
AcDbSavedByObjectVersion
1070
     0
  0
VISUALSTYLE
  5
133D
102
{ACAD_REACTORS
330
1325
102
}
102
{ACAD_XDICTIONARY
360
18E6
102
}
330
1325
100
AcDbVisualStyle
  2
EdgeColorOff
 70
    22
 71
     2
 72
     2
 73
     0
 90
        0
 40
-0.6
 41
-30.0
 62
     5
 63
     7
421
 16777215
 74
     1
 91
        4
 64
     7
 65
   257
 75
     1
175
     1
 42
1.0
 92
        8
 66
     7
 43
1.0
 76
     1
 77
     6
 78
     2
 67
     7
 79
     5
170
     0
171
     0
290
     0
174
     0
 93
        1
 44
0.0
173
     0
291
     1
 45
0.0
1001
ACAD
1000
AcDbSavedByObjectVersion
1070
     0
  0
VISUALSTYLE
  5
1334
102
{ACAD_REACTORS
330
1325
102
}
102
{ACAD_XDICTIONARY
360
18E8
102
}
330
1325
100
AcDbVisualStyle
  2
Facepattern
 70
    15
 71
     2
 72
     2
 73
     0
 90
        0
 40
-0.6
 41
-30.0
 62
     5
 63
     7
421
 16777215
 74
     1
 91
        4
 64
     7
 65
   257
 75
     1
175
     1
 42
1.0
 92
        8
 66
     7
 43
1.0
 76
     1
 77
     6
 78
     2
 67
     7
 79
     5
170
     0
171
     0
290
     0
174
     0
 93
        1
 44
0.0
173
     0
291
     1
 45
0.0
1001
ACAD
1000
AcDbSavedByObjectVersion
1070
     0
  0
VISUALSTYLE
  5
1326
102
{ACAD_REACTORS
330
1325
102
}
102
{ACAD_XDICTIONARY
360
18EA
102
}
330
1325
100
AcDbVisualStyle
  2
Flat
 70
     0
 71
     2
 72
     1
 73
     1
 90
        2
 40
-0.6
 41
30.0
 62
     5
 63
     7
421
 16777215
 74
     0
 91
        0
 64
     7
 65
   257
 75
     1
175
     1
 42
1.0
 92
        8
 66
     7
 43
1.0
 76
     1
 77
     6
 78
     2
 67
     7
 79
     5
170
     0
171
     0
290
     0
174
     0
 93
       13
 44
0.0
173
     0
291
     1
 45
0.0
1001
ACAD
1000
AcDbSavedByObjectVersion
1070
     0
  0
VISUALSTYLE
  5
1327
102
{ACAD_REACTORS
330
1325
102
}
102
{ACAD_XDICTIONARY
360
18EC
102
}
330
1325
100
AcDbVisualStyle
  2
FlatWithEdges
 70
     1
 71
     2
 72
     1
 73
     1
 90
        2
 40
-0.6
 41
30.0
 62
     5
 63
     7
421
 16777215
 74
     1
 91
        0
 64
     7
 65
   257
 75
     1
175
     1
 42
1.0
 92
        0
 66
   257
 43
1.0
 76
     1
 77
     6
 78
     2
 67
     7
 79
     5
170
     0
171
     0
290
     0
174
     0
 93
       13
 44
0.0
173
     0
291
     1
 45
0.0
1001
ACAD
1000
AcDbSavedByObjectVersion
1070
     0
  0
VISUALSTYLE
  5
1328
102
{ACAD_REACTORS
330
1325
102
}
102
{ACAD_XDICTIONARY
360
18EE
102
}
330
1325
100
AcDbVisualStyle
  2
Gouraud
 70
     2
 71
     2
 72
     2
 73
     1
 90
        2
 40
-0.6
 41
30.0
 62
     5
 63
     7
421
 16777215
 74
     0
 91
        0
 64
     7
 65
   257
 75
     1
175
     1
 42
1.0
 92
        0
 66
     7
 43
1.0
 76
     1
 77
     6
 78
     2
 67
     7
 79
     5
170
     0
171
     0
290
     0
174
     0
 93
       13
 44
0.0
173
     0
291
     1
 45
0.0
1001
ACAD
1000
AcDbSavedByObjectVersion
1070
     0
  0
VISUALSTYLE
  5
1329
102
{ACAD_REACTORS
330
1325
102
}
102
{ACAD_XDICTIONARY
360
18F0
102
}
330
1325
100
AcDbVisualStyle
  2
GouraudWithEdges
 70
     3
 71
     2
 72
     2
 73
     1
 90
        2
 40
-0.6
 41
30.0
 62
     5
 63
     7
421
 16777215
 74
     1
 91
        0
 64
     7
 65
   257
 75
     1
175
     1
 42
1.0
 92
        0
 66
   257
 43
1.0
 76
     1
 77
     6
 78
     2
 67
     7
 79
     5
170
     0
171
     0
290
     0
174
     0
 93
       13
 44
0.0
173
     0
291
     1
 45
0.0
1001
ACAD
1000
AcDbSavedByObjectVersion
1070
     0
  0
VISUALSTYLE
  5
132D
102
{ACAD_REACTORS
330
1325
102
}
102
{ACAD_XDICTIONARY
360
18F2
102
}
330
1325
100
AcDbVisualStyle
  2
Hidden
 70
     6
 71
     1
 72
     2
 73
     2
 90
        0
 40
-0.6
 41
-30.0
 62
     5
 63
     7
421
 16777215
 74
     2
 91
        2
 64
     7
 65
   257
 75
     2
175
     1
 42
40.0
 92
        0
 66
   257
 43
1.0
 76
     1
 77
     6
 78
     2
 67
     7
 79
     3
170
     0
171
     0
290
     0
174
     0
 93
        1
 44
0.0
173
     0
291
     0
 45
0.0
1001
ACAD
1000
AcDbSavedByObjectVersion
1070
     0
  0
VISUALSTYLE
  5
133B
102
{ACAD_REACTORS
330
1325
102
}
102
{ACAD_XDICTIONARY
360
18F4
102
}
330
1325
100
AcDbVisualStyle
  2
JitterOff
 70
    20
 71
     2
 72
     2
 73
     0
 90
        0
 40
-0.6
 41
-30.0
 62
     5
 63
     7
421
 16777215
 74
     1
 91
        4
 64
     7
 65
   257
 75
     1
175
     1
 42
1.0
 92
       10
 66
     7
 43
1.0
 76
     1
 77
     6
 78
     2
 67
     7
 79
     5
170
     0
171
     0
290
     0
174
     0
 93
        1
 44
0.0
173
     0
291
     1
 45
0.0
1001
ACAD
1000
AcDbSavedByObjectVersion
1070
     0
  0
VISUALSTYLE
  5
1333
102
{ACAD_REACTORS
330
1325
102
}
102
{ACAD_XDICTIONARY
360
18F6
102
}
330
1325
100
AcDbVisualStyle
  2
Linepattern
 70
    14
 71
     2
 72
     2
 73
     0
 90
        0
 40
-0.6
 41
-30.0
 62
     5
 63
     7
421
 16777215
 74
     1
 91
        4
 64
     7
 65
   257
 75
     7
175
     7
 42
1.0
 92
        8
 66
     7
 43
1.0
 76
     1
 77
     6
 78
     2
 67
     7
 79
     5
170
     0
171
     0
290
     0
174
     0
 93
        1
 44
0.0
173
     0
291
     1
 45
0.0
1001
ACAD
1000
AcDbSavedByObjectVersion
1070
     0
  0
VISUALSTYLE
  5
133C
102
{ACAD_REACTORS
330
1325
102
}
102
{ACAD_XDICTIONARY
360
18F8
102
}
330
1325
100
AcDbVisualStyle
  2
OverhangOff
 70
    21
 71
     2
 72
     2
 73
     0
 90
        0
 40
-0.6
 41
-30.0
 62
     5
 63
     7
421
 16777215
 74
     1
 91
        4
 64
     7
 65
   257
 75
     1
175
     1
 42
1.0
 92
        9
 66
     7
 43
1.0
 76
     1
 77
     6
 78
     2
 67
     7
 79
     5
170
     0
171
     0
290
     0
174
     0
 93
        1
 44
0.0
173
     0
291
     1
 45
0.0
1001
ACAD
1000
AcDbSavedByObjectVersion
1070
     0
  0
VISUALSTYLE
  5
132F
102
{ACAD_REACTORS
330
1325
102
}
102
{ACAD_XDICTIONARY
360
18FA
102
}
330
1325
100
AcDbVisualStyle
  2
Realistic
 70
     8
 71
     2
 72
     2
 73
     0
 90
        2
 40
-0.6
 41
30.0
 62
     5
 63
     7
421
 16777215
 74
     0
 91
        0
 64
     7
 65
   257
 75
     1
175
     1
 42
1.0
 92
        8
 66
   257
 43
1.0
 76
     1
 77
     6
 78
     2
 67
     7
 79
     3
170
     0
171
     0
290
     0
174
     0
 93
       13
 44
0.0
173
     0
291
     0
 45
0.0
1001
ACAD
1000
AcDbSavedByObjectVersion
1070
     0
  0
VISUALSTYLE
  5
133A
102
{ACAD_REACTORS
330
1325
102
}
102
{ACAD_XDICTIONARY
360
18FC
102
}
330
1325
100
AcDbVisualStyle
  2
Shaded
 70
    27
 71
     2
 72
     2
 73
     1
 90
        2
 40
-0.6
 41
30.0
 62
     5
 63
     7
421
 16777215
 74
     0
 91
        4
 64
     7
 65
   257
 75
     1
175
     1
 42
1.0
 92
        8
 66
   257
 43
1.0
 76
     1
 77
     6
 78
     2
 67
     8
425
  7895160
 79
     3
170
     0
171
     0
290
     0
174
     0
 93
        5
 44
0.0
173
     0
291
     0
 45
0.0
1001
ACAD
1000
AcDbSavedByObjectVersion
1070
     0
  0
VISUALSTYLE
  5
1339
102
{ACAD_REACTORS
330
1325
102
}
102
{ACAD_XDICTIONARY
360
18FE
102
}
330
1325
100
AcDbVisualStyle
  2
Shaded with edges
 70
    26
 71
     2
 72
     2
 73
     1
 90
        2
 40
-0.6
 41
30.0
 62
     5
 63
     7
421
 16777215
 74
     1
 91
       10
 64
     7
 65
   257
 75
     2
175
     1
 42
1.0
 92
        8
 66
   257
 43
1.0
 76
     1
 77
     6
 78
     2
 67
     7
 79
     3
170
     0
171
     0
290
     0
174
     0
 93
        5
 44
0.0
173
     0
291
     0
 45
0.0
1001
ACAD
1000
AcDbSavedByObjectVersion
1070
     0
  0
VISUALSTYLE
  5
1336
102
{ACAD_REACTORS
330
1325
102
}
102
{ACAD_XDICTIONARY
360
1900
102
}
330
1325
100
AcDbVisualStyle
  2
Shades of Gray
 70
    23
 71
     2
 72
     2
 73
     3
 90
        0
 40
-0.6
 41
-30.0
 62
     5
 63
     7
421
 16777215
 74
     2
 91
        2
 64
     7
 65
     7
 75
     1
175
     1
 42
40.0
 92
        8
 66
     7
 43
1.0
 76
     1
 77
     6
 78
     2
 67
     7
 79
     3
170
     0
171
     0
290
     0
174
     0
 93
        1
 44
0.0
173
     0
291
     0
 45
0.0
1001
ACAD
1000
AcDbSavedByObjectVersion
1070
     0
  0
VISUALSTYLE
  5
1337
102
{ACAD_REACTORS
330
1325
102
}
102
{ACAD_XDICTIONARY
360
1902
102
}
330
1325
100
AcDbVisualStyle
  2
Sketchy
 70
    24
 71
     1
 72
     2
 73
     2
 90
        0
 40
-0.6
 41
-30.0
 62
     5
 63
     7
421
 16777215
 74
     2
 91
        2
 64
     7
 65
     7
 75
     1
175
     1
 42
40.0
 92
       11
 66
     7
 43
1.0
 76
     1
 77
     6
 78
     2
 67
     7
 79
     6
170
     0
171
     0
290
     0
174
     0
 93
        1
 44
0.0
173
     0
291
     0
 45
0.0
1001
ACAD
1000
AcDbSavedByObjectVersion
1070
     0
  0
VISUALSTYLE
  5
1332
102
{ACAD_REACTORS
330
1325
102
}
102
{ACAD_XDICTIONARY
360
1904
102
}
330
1325
100
AcDbVisualStyle
  2
Thicken
 70
    13
 71
     2
 72
     2
 73
     0
 90
        0
 40
-0.6
 41
-30.0
 62
     5
 63
     7
421
 16777215
 74
     1
 91
        4
 64
     7
 65
   257
 75
     1
175
     1
 42
1.0
 92
       12
 66
     7
 43
1.0
 76
     1
 77
     6
 78
     2
 67
     7
 79
     5
170
     0
171
     0
290
     0
174
     0
 93
        1
 44
0.0
173
     0
291
     1
 45
0.0
1001
ACAD
1000
AcDbSavedByObjectVersion
1070
     0
  0
VISUALSTYLE
  5
132C
102
{ACAD_REACTORS
330
1325
102
}
102
{ACAD_XDICTIONARY
360
1906
102
}
330
1325
100
AcDbVisualStyle
  2
Wireframe
 70
     5
 71
     0
 72
     2
 73
     0
 90
        0
 40
-0.6
 41
-30.0
 62
     5
 63
     7
421
 16777215
 74
     1
 91
        4
 64
     7
 65
   257
 75
     1
175
     1
 42
1.0
 92
        0
 66
   257
 43
1.0
 76
     1
 77
     6
 78
     2
 67
     7
 79
     3
170
     0
171
     0
290
     0
174
     0
 93
        1
 44
0.0
173
     0
291
     0
 45
0.0
1001
ACAD
1000
AcDbSavedByObjectVersion
1070
     0
  0
VISUALSTYLE
  5
1338
102
{ACAD_REACTORS
330
1325
102
}
102
{ACAD_XDICTIONARY
360
1908
102
}
330
1325
100
AcDbVisualStyle
  2
X-Ray
 70
    25
 71
     2
 72
     2
 73
     1
 90
        1
 40
0.5
 41
-30.0
 62
     5
 63
     7
421
 16777215
 74
     1
 91
        0
 64
     7
 65
   257
 75
     1
175
     1
 42
1.0
 92
        8
 66
     7
 43
1.0
 76
     1
 77
     6
 78
     2
 67
     7
 79
     3
170
     0
171
     0
290
     0
174
     0
 93
       13
 44
0.0
173
     0
291
     0
 45
0.0
1001
ACAD
1000
AcDbSavedByObjectVersion
1070
     0
  0
DICTIONARYVAR
  5
18C9
102
{ACAD_REACTORS
330
A0
102
}
330
A0
100
DictionaryVariables
280
     0
  1
1:1
  0
DICTIONARYVAR
  5
18C5
102
{ACAD_REACTORS
330
A0
102
}
330
A0
100
DictionaryVariables
280
     0
  1
Standard
  0
DICTIONARYVAR
  5
B0
102
{ACAD_REACTORS
330
A0
102
}
330
A0
100
DictionaryVariables
280
     0
  1
Standard
  0
DICTIONARYVAR
  5
18C6
102
{ACAD_REACTORS
330
A0
102
}
330
A0
100
DictionaryVariables
280
     0
  1
Imperial24
  0
DICTIONARYVAR
  5
18C7
102
{ACAD_REACTORS
330
A0
102
}
330
A0
100
DictionaryVariables
280
     0
  1
Imperial24
  0
DICTIONARYVAR
  5
A1
102
{ACAD_REACTORS
330
A0
102
}
330
A0
100
DictionaryVariables
280
     0
  1
1
  0
DICTIONARYVAR
  5
18CB
102
{ACAD_REACTORS
330
A0
102
}
330
A0
100
DictionaryVariables
280
     0
  1
1
  0
DICTIONARYVAR
  5
18CC
102
{ACAD_REACTORS
330
A0
102
}
330
A0
100
DictionaryVariables
280
     0
  1
15
  0
DICTIONARYVAR
  5
18CA
102
{ACAD_REACTORS
330
A0
102
}
330
A0
100
DictionaryVariables
280
     0
  1
0
  0
DICTIONARYVAR
  5
18C8
102
{ACAD_REACTORS
330
A0
102
}
330
A0
100
DictionaryVariables
280
     0
  1
0
  0
DICTIONARYVAR
  5
B1
102
{ACAD_REACTORS
330
A0
102
}
330
A0
100
DictionaryVariables
280
     0
  1

  0
DICTIONARYVAR
  5
18CD
102
{ACAD_REACTORS
330
A0
102
}
330
A0
100
DictionaryVariables
280
     0
  1
2
  0
DICTIONARY
  5
18C3
330
1355
100
AcDbDictionary
280
     1
281
     1
  3
ACAD_XREC_ROUNDTRIP
360
18C4
  0
DICTIONARY
  5
18D0
330
1315
100
AcDbDictionary
280
     1
281
     1
  3
ACAD_XREC_ROUNDTRIP
360
18D1
  0
DICTIONARY
  5
18D2
330
130D
100
AcDbDictionary
280
     1
281
     1
  3
ACAD_XREC_ROUNDTRIP
360
18D3
  0
DICTIONARY
  5
18D4
330
131D
100
AcDbDictionary
280
     1
281
     1
  3
ACAD_XREC_ROUNDTRIP
360
18D5
  0
DICTIONARY
  5
18C1
330
1353
100
AcDbDictionary
280
     1
281
     1
  3
ACAD_XREC_ROUNDTRIP
360
18C2
  0
DICTIONARY
  5
18D6
330
A6
100
AcDbDictionary
280
     1
281
     1
  3
ACAD_ROUNDTRIP_2008_TABLESTYLE_CELLSTYLEMAP
360
18D8
  3
ACAD_XREC_ROUNDTRIP
360
18D7
  0
DICTIONARY
  5
18DA
330
132B
100
AcDbDictionary
280
     1
281
     1
  3
ACAD_XREC_ROUNDTRIP
360
18DB
  0
DICTIONARY
  5
18DC
330
132A
100
AcDbDictionary
280
     1
281
     1
  3
ACAD_XREC_ROUNDTRIP
360
18DD
  0
DICTIONARY
  5
18DE
330
1331
100
AcDbDictionary
280
     1
281
     1
  3
ACAD_XREC_ROUNDTRIP
360
18DF
  0
DICTIONARY
  5
18E0
330
1335
100
AcDbDictionary
280
     1
281
     1
  3
ACAD_XREC_ROUNDTRIP
360
18E1
  0
DICTIONARY
  5
18E2
330
132E
100
AcDbDictionary
280
     1
281
     1
  3
ACAD_XREC_ROUNDTRIP
360
18E3
  0
DICTIONARY
  5
18E4
330
1330
100
AcDbDictionary
280
     1
281
     1
  3
ACAD_XREC_ROUNDTRIP
360
18E5
  0
DICTIONARY
  5
18E6
330
133D
100
AcDbDictionary
280
     1
281
     1
  3
ACAD_XREC_ROUNDTRIP
360
18E7
  0
DICTIONARY
  5
18E8
330
1334
100
AcDbDictionary
280
     1
281
     1
  3
ACAD_XREC_ROUNDTRIP
360
18E9
  0
DICTIONARY
  5
18EA
330
1326
100
AcDbDictionary
280
     1
281
     1
  3
ACAD_XREC_ROUNDTRIP
360
18EB
  0
DICTIONARY
  5
18EC
330
1327
100
AcDbDictionary
280
     1
281
     1
  3
ACAD_XREC_ROUNDTRIP
360
18ED
  0
DICTIONARY
  5
18EE
330
1328
100
AcDbDictionary
280
     1
281
     1
  3
ACAD_XREC_ROUNDTRIP
360
18EF
  0
DICTIONARY
  5
18F0
330
1329
100
AcDbDictionary
280
     1
281
     1
  3
ACAD_XREC_ROUNDTRIP
360
18F1
  0
DICTIONARY
  5
18F2
330
132D
100
AcDbDictionary
280
     1
281
     1
  3
ACAD_XREC_ROUNDTRIP
360
18F3
  0
DICTIONARY
  5
18F4
330
133B
100
AcDbDictionary
280
     1
281
     1
  3
ACAD_XREC_ROUNDTRIP
360
18F5
  0
DICTIONARY
  5
18F6
330
1333
100
AcDbDictionary
280
     1
281
     1
  3
ACAD_XREC_ROUNDTRIP
360
18F7
  0
DICTIONARY
  5
18F8
330
133C
100
AcDbDictionary
280
     1
281
     1
  3
ACAD_XREC_ROUNDTRIP
360
18F9
  0
DICTIONARY
  5
18FA
330
132F
100
AcDbDictionary
280
     1
281
     1
  3
ACAD_XREC_ROUNDTRIP
360
18FB
  0
DICTIONARY
  5
18FC
330
133A
100
AcDbDictionary
280
     1
281
     1
  3
ACAD_XREC_ROUNDTRIP
360
18FD
  0
DICTIONARY
  5
18FE
330
1339
100
AcDbDictionary
280
     1
281
     1
  3
ACAD_XREC_ROUNDTRIP
360
18FF
  0
DICTIONARY
  5
1900
330
1336
100
AcDbDictionary
280
     1
281
     1
  3
ACAD_XREC_ROUNDTRIP
360
1901
  0
DICTIONARY
  5
1902
330
1337
100
AcDbDictionary
280
     1
281
     1
  3
ACAD_XREC_ROUNDTRIP
360
1903
  0
DICTIONARY
  5
1904
330
1332
100
AcDbDictionary
280
     1
281
     1
  3
ACAD_XREC_ROUNDTRIP
360
1905
  0
DICTIONARY
  5
1906
330
132C
100
AcDbDictionary
280
     1
281
     1
  3
ACAD_XREC_ROUNDTRIP
360
1907
  0
DICTIONARY
  5
1908
330
1338
100
AcDbDictionary
280
     1
281
     1
  3
ACAD_XREC_ROUNDTRIP
360
1909
  0
XRECORD
  5
18C4
102
{ACAD_REACTORS
330
18C3
102
}
330
18C3
100
AcDbXrecord
280
     1
102
DISPLAYNAME
  1
Imperial24
102
FLAGS
 90
        0
  0
XRECORD
  5
18D1
102
{ACAD_REACTORS
330
18D0
102
}
330
18D0
100
AcDbXrecord
280
     1
102
MATERIAL
148
0.0
149
0.0
149
0.0
 93
        0
 94
      127
282
     0
 72
     0
 77
     0
171
     0
175
     0
179
     0
273
     0
  0
XRECORD
  5
18D3
102
{ACAD_REACTORS
330
18D2
102
}
330
18D2
100
AcDbXrecord
280
     1
102
MATERIAL
148
0.0
149
0.0
149
0.0
 93
        0
 94
      127
282
     0
 72
     0
 77
     0
171
     0
175
     0
179
     0
273
     0
  0
XRECORD
  5
18D5
102
{ACAD_REACTORS
330
18D4
102
}
330
18D4
100
AcDbXrecord
280
     1
102
MATERIAL
148
0.0
149
0.0
149
0.0
 93
        0
 94
      127
282
     0
 72
     0
 77
     0
171
     0
175
     0
179
     0
273
     0
  0
XRECORD
  5
18C2
102
{ACAD_REACTORS
330
18C1
102
}
330
18C1
100
AcDbXrecord
280
     1
102
DISPLAYNAME
  1
Imperial24
102
FLAGS
 90
        0
  0
CELLSTYLEMAP
  5
18D8
102
{ACAD_REACTORS
330
18D6
102
}
330
18D6
100
AcDbCellStyleMap
 90
        3
300
CELLSTYLE
  1
TABLEFORMAT_BEGIN
 90
        5
170
     1
 91
        0
 92
    32768
 62
   257
 93
        1
300
CONTENTFORMAT
  1
CONTENTFORMAT_BEGIN
 90
        0
 91
        0
 92
        4
 93
        0
300

 40
0.0
140
1.0
 94
        5
 62
     0
340
F
144
0.25
309
CONTENTFORMAT_END
171
     0
 94
        6
 95
        1
302
GRIDFORMAT
  1
GRIDFORMAT_BEGIN
 90
        0
 91
        1
 62
     0
 92
       -2
340
0
 93
        0
 40
0.045
309
GRIDFORMAT_END
 95
        2
302
GRIDFORMAT
  1
GRIDFORMAT_BEGIN
 90
        0
 91
        1
 62
     0
 92
       -2
340
0
 93
        0
 40
0.045
309
GRIDFORMAT_END
 95
        4
302
GRIDFORMAT
  1
GRIDFORMAT_BEGIN
 90
        0
 91
        1
 62
     0
 92
       -2
340
0
 93
        0
 40
0.045
309
GRIDFORMAT_END
 95
        8
302
GRIDFORMAT
  1
GRIDFORMAT_BEGIN
 90
        0
 91
        1
 62
     0
 92
       -2
340
0
 93
        0
 40
0.045
309
GRIDFORMAT_END
 95
       16
302
GRIDFORMAT
  1
GRIDFORMAT_BEGIN
 90
        0
 91
        1
 62
     0
 92
       -2
340
0
 93
        0
 40
0.045
309
GRIDFORMAT_END
 95
       32
302
GRIDFORMAT
  1
GRIDFORMAT_BEGIN
 90
        0
 91
        1
 62
     0
 92
       -2
340
0
 93
        0
 40
0.045
309
GRIDFORMAT_END
309
TABLEFORMAT_END
  1
CELLSTYLE_BEGIN
 90
        1
 91
        1
300
_TITLE
309
CELLSTYLE_END
300
CELLSTYLE
  1
TABLEFORMAT_BEGIN
 90
        5
170
     1
 91
        0
 92
        0
 62
   257
 93
        1
300
CONTENTFORMAT
  1
CONTENTFORMAT_BEGIN
 90
        0
 91
        0
 92
        4
 93
        0
300

 40
0.0
140
1.0
 94
        5
 62
     0
340
F
144
0.18
309
CONTENTFORMAT_END
171
     0
 94
        6
 95
        1
302
GRIDFORMAT
  1
GRIDFORMAT_BEGIN
 90
        0
 91
        1
 62
     0
 92
       -2
340
0
 93
        0
 40
0.045
309
GRIDFORMAT_END
 95
        2
302
GRIDFORMAT
  1
GRIDFORMAT_BEGIN
 90
        0
 91
        1
 62
     0
 92
       -2
340
0
 93
        0
 40
0.045
309
GRIDFORMAT_END
 95
        4
302
GRIDFORMAT
  1
GRIDFORMAT_BEGIN
 90
        0
 91
        1
 62
     0
 92
       -2
340
0
 93
        0
 40
0.045
309
GRIDFORMAT_END
 95
        8
302
GRIDFORMAT
  1
GRIDFORMAT_BEGIN
 90
        0
 91
        1
 62
     0
 92
       -2
340
0
 93
        0
 40
0.045
309
GRIDFORMAT_END
 95
       16
302
GRIDFORMAT
  1
GRIDFORMAT_BEGIN
 90
        0
 91
        1
 62
     0
 92
       -2
340
0
 93
        0
 40
0.045
309
GRIDFORMAT_END
 95
       32
302
GRIDFORMAT
  1
GRIDFORMAT_BEGIN
 90
        0
 91
        1
 62
     0
 92
       -2
340
0
 93
        0
 40
0.045
309
GRIDFORMAT_END
309
TABLEFORMAT_END
  1
CELLSTYLE_BEGIN
 90
        2
 91
        1
300
_HEADER
309
CELLSTYLE_END
300
CELLSTYLE
  1
TABLEFORMAT_BEGIN
 90
        5
170
     1
 91
        0
 92
        0
 62
   257
 93
        1
300
CONTENTFORMAT
  1
CONTENTFORMAT_BEGIN
 90
        0
 91
        0
 92
        4
 93
        0
300

 40
0.0
140
1.0
 94
        2
 62
     0
340
F
144
0.18
309
CONTENTFORMAT_END
171
     0
 94
        6
 95
        1
302
GRIDFORMAT
  1
GRIDFORMAT_BEGIN
 90
        0
 91
        1
 62
     0
 92
       -2
340
0
 93
        0
 40
0.045
309
GRIDFORMAT_END
 95
        2
302
GRIDFORMAT
  1
GRIDFORMAT_BEGIN
 90
        0
 91
        1
 62
     0
 92
       -2
340
0
 93
        0
 40
0.045
309
GRIDFORMAT_END
 95
        4
302
GRIDFORMAT
  1
GRIDFORMAT_BEGIN
 90
        0
 91
        1
 62
     0
 92
       -2
340
0
 93
        0
 40
0.045
309
GRIDFORMAT_END
 95
        8
302
GRIDFORMAT
  1
GRIDFORMAT_BEGIN
 90
        0
 91
        1
 62
     0
 92
       -2
340
0
 93
        0
 40
0.045
309
GRIDFORMAT_END
 95
       16
302
GRIDFORMAT
  1
GRIDFORMAT_BEGIN
 90
        0
 91
        1
 62
     0
 92
       -2
340
0
 93
        0
 40
0.045
309
GRIDFORMAT_END
 95
       32
302
GRIDFORMAT
  1
GRIDFORMAT_BEGIN
 90
        0
 91
        1
 62
     0
 92
       -2
340
0
 93
        0
 40
0.045
309
GRIDFORMAT_END
309
TABLEFORMAT_END
  1
CELLSTYLE_BEGIN
 90
        3
 91
        2
300
_DATA
309
CELLSTYLE_END
  0
XRECORD
  5
18D7
102
{ACAD_REACTORS
330
18D6
102
}
330
18D6
100
AcDbXrecord
280
     1
102
ACAD_ROUNDTRIP_PRE2007_TABLESTYLE
 90
        4
 91
        0
  1

 92
        4
 93
        0
  2

 94
        4
 95
        0
  3

  0
XRECORD
  5
18DB
102
{ACAD_REACTORS
330
18DA
102
}
330
18DA
100
AcDbXrecord
280
     1
102
RTVSPropertyOp0
 70
     1
102
RTVSPropertyOp1
 70
     1
102
RTVSPropertyOp2
 70
     1
102
RTVSPropertyOp3
 70
     1
102
RTVSPropertyOp4
 70
     1
102
RTVSPropertyOp5
 70
     1
102
RTVSPropertyOp6
 70
     1
102
RTVSPropertyOp7
 70
     1
102
RTVSPropertyOp8
 70
     1
102
RTVSPropertyOp9
 70
     1
102
RTVSPropertyOp10
 70
     1
102
RTVSPropertyOp11
 70
     1
102
RTVSPropertyOp12
 70
     1
102
RTVSPropertyOp13
 70
     1
102
RTVSPropertyOp14
 70
     1
102
RTVSPropertyOp15
 70
     1
102
RTVSPropertyOp16
 70
     1
102
RTVSPropertyOp17
 70
     1
102
RTVSPropertyOp18
 70
     1
102
RTVSPropertyOp19
 70
     1
102
RTVSPropertyOp20
 70
     1
102
RTVSPropertyOp21
 70
     1
102
RTVSPropertyOp22
 70
     1
102
RTVSPropertyOp23
 70
     1
102
RTVSPropertyOp24
 70
     1
102
RTVSPropertyOp25
 70
     1
102
RTVSPropertyOp26
 70
     1
102
RTVSPropertyOp27
 70
     1
  0
XRECORD
  5
18DD
102
{ACAD_REACTORS
330
18DC
102
}
330
18DC
100
AcDbXrecord
280
     1
102
RTVSPropertyOp0
 70
     1
102
RTVSPropertyOp1
 70
     1
102
RTVSPropertyOp2
 70
     1
102
RTVSPropertyOp3
 70
     1
102
RTVSPropertyOp4
 70
     1
102
RTVSPropertyOp5
 70
     1
102
RTVSPropertyOp6
 70
     1
102
RTVSPropertyOp7
 70
     1
102
RTVSPropertyOp8
 70
     1
102
RTVSPropertyOp9
 70
     1
102
RTVSPropertyOp10
 70
     1
102
RTVSPropertyOp11
 70
     1
102
RTVSPropertyOp12
 70
     1
102
RTVSPropertyOp13
 70
     1
102
RTVSPropertyOp14
 70
     1
102
RTVSPropertyOp15
 70
     1
102
RTVSPropertyOp16
 70
     1
102
RTVSPropertyOp17
 70
     1
102
RTVSPropertyOp18
 70
     1
102
RTVSPropertyOp19
 70
     1
102
RTVSPropertyOp20
 70
     1
102
RTVSPropertyOp21
 70
     1
102
RTVSPropertyOp22
 70
     1
102
RTVSPropertyOp23
 70
     1
102
RTVSPropertyOp24
 70
     1
102
RTVSPropertyOp25
 70
     1
102
RTVSPropertyOp26
 70
     1
102
RTVSPropertyOp27
 70
     1
  0
XRECORD
  5
18DF
102
{ACAD_REACTORS
330
18DE
102
}
330
18DE
100
AcDbXrecord
280
     1
102
RTVSPropertyOp0
 70
     1
102
RTVSPropertyOp1
 70
     1
102
RTVSPropertyOp2
 70
     1
102
RTVSPropertyOp3
 70
     1
102
RTVSPropertyOp4
 70
     1
102
RTVSPropertyOp5
 70
     1
102
RTVSPropertyOp6
 70
     1
102
RTVSPropertyOp7
 70
     1
102
RTVSPropertyOp8
 70
     1
102
RTVSPropertyOp9
 70
     1
102
RTVSPropertyOp10
 70
     1
102
RTVSPropertyOp11
 70
     1
102
RTVSPropertyOp12
 70
     1
102
RTVSPropertyOp13
 70
     1
102
RTVSPropertyOp14
 70
     1
102
RTVSPropertyOp15
 70
     1
102
RTVSPropertyOp16
 70
     1
102
RTVSPropertyOp17
 70
     1
102
RTVSPropertyOp18
 70
     1
102
RTVSPropertyOp19
 70
     1
102
RTVSPropertyOp20
 70
     1
102
RTVSPropertyOp21
 70
     1
102
RTVSPropertyOp22
 70
     1
102
RTVSPropertyOp23
 70
     1
102
RTVSPropertyOp24
 70
     1
102
RTVSPropertyOp25
 70
     1
102
RTVSPropertyOp26
 70
     1
102
RTVSPropertyOp27
 70
     1
  0
XRECORD
  5
18E1
102
{ACAD_REACTORS
330
18E0
102
}
330
18E0
100
AcDbXrecord
280
     1
102
RTVSPropertyOp0
 70
     1
102
RTVSPropertyOp1
 70
     1
102
RTVSPropertyOp2
 70
     1
102
RTVSPropertyOp3
 70
     1
102
RTVSPropertyOp4
 70
     1
102
RTVSPropertyOp5
 70
     1
102
RTVSPropertyOp6
 70
     1
102
RTVSPropertyOp7
 70
     1
102
RTVSPropertyOp8
 70
     1
102
RTVSPropertyOp9
 70
     1
102
RTVSPropertyOp10
 70
     1
102
RTVSPropertyOp11
 70
     1
102
RTVSPropertyOp12
 70
     1
102
RTVSPropertyOp13
 70
     1
102
RTVSPropertyOp14
 70
     1
102
RTVSPropertyOp15
 70
     1
102
RTVSPropertyOp16
 70
     1
102
RTVSPropertyOp17
 70
     1
102
RTVSPropertyOp18
 70
     1
102
RTVSPropertyOp19
 70
     1
102
RTVSPropertyOp20
 70
     1
102
RTVSPropertyOp21
 70
     1
102
RTVSPropertyOp22
 70
     1
102
RTVSPropertyOp23
 70
     1
102
RTVSPropertyOp24
 70
     1
102
RTVSPropertyOp25
 70
     1
102
RTVSPropertyOp26
 70
     1
102
RTVSPropertyOp27
 70
     1
  0
XRECORD
  5
18E3
102
{ACAD_REACTORS
330
18E2
102
}
330
18E2
100
AcDbXrecord
280
     1
102
RTVSPropertyOp0
 70
     1
102
RTVSPropertyOp1
 70
     1
102
RTVSPropertyOp2
 70
     1
102
RTVSPropertyOp3
 70
     1
102
RTVSPropertyOp4
 70
     1
102
RTVSPropertyOp5
 70
     1
102
RTVSPropertyOp6
 70
     1
102
RTVSPropertyOp7
 70
     1
102
RTVSPropertyOp8
 70
     1
102
RTVSPropertyOp9
 70
     1
102
RTVSPropertyOp10
 70
     1
102
RTVSPropertyOp11
 70
     1
102
RTVSPropertyOp12
 70
     1
102
RTVSPropertyOp13
 70
     1
102
RTVSPropertyOp14
 70
     1
102
RTVSPropertyOp15
 70
     1
102
RTVSPropertyOp16
 70
     1
102
RTVSPropertyOp17
 70
     1
102
RTVSPropertyOp18
 70
     1
102
RTVSPropertyOp19
 70
     1
102
RTVSPropertyOp20
 70
     1
102
RTVSPropertyOp21
 70
     1
102
RTVSPropertyOp22
 70
     1
102
RTVSPropertyOp23
 70
     1
102
RTVSPropertyOp24
 70
     1
102
RTVSPropertyOp25
 70
     1
102
RTVSPropertyOp26
 70
     1
102
RTVSPropertyOp27
 70
     1
  0
XRECORD
  5
18E5
102
{ACAD_REACTORS
330
18E4
102
}
330
18E4
100
AcDbXrecord
280
     1
102
RTVSPropertyOp0
 70
     1
102
RTVSPropertyOp1
 70
     1
102
RTVSPropertyOp2
 70
     1
102
RTVSPropertyOp3
 70
     1
102
RTVSPropertyOp4
 70
     1
102
RTVSPropertyOp5
 70
     1
102
RTVSPropertyOp6
 70
     1
102
RTVSPropertyOp7
 70
     1
102
RTVSPropertyOp8
 70
     1
102
RTVSPropertyOp9
 70
     1
102
RTVSPropertyOp10
 70
     1
102
RTVSPropertyOp11
 70
     1
102
RTVSPropertyOp12
 70
     1
102
RTVSPropertyOp13
 70
     1
102
RTVSPropertyOp14
 70
     1
102
RTVSPropertyOp15
 70
     1
102
RTVSPropertyOp16
 70
     1
102
RTVSPropertyOp17
 70
     1
102
RTVSPropertyOp18
 70
     1
102
RTVSPropertyOp19
 70
     1
102
RTVSPropertyOp20
 70
     1
102
RTVSPropertyOp21
 70
     1
102
RTVSPropertyOp22
 70
     1
102
RTVSPropertyOp23
 70
     1
102
RTVSPropertyOp24
 70
     1
102
RTVSPropertyOp25
 70
     1
102
RTVSPropertyOp26
 70
     1
102
RTVSPropertyOp27
 70
     1
  0
XRECORD
  5
18E7
102
{ACAD_REACTORS
330
18E6
102
}
330
18E6
100
AcDbXrecord
280
     1
102
RTVSPropertyOp0
 70
     1
102
RTVSPropertyOp1
 70
     1
102
RTVSPropertyOp2
 70
     1
102
RTVSPropertyOp3
 70
     1
102
RTVSPropertyOp4
 70
     1
102
RTVSPropertyOp5
 70
     1
102
RTVSPropertyOp6
 70
     1
102
RTVSPropertyOp7
 70
     1
102
RTVSPropertyOp8
 70
     1
102
RTVSPropertyOp9
 70
     1
102
RTVSPropertyOp10
 70
     1
102
RTVSPropertyOp11
 70
     1
102
RTVSPropertyOp12
 70
     1
102
RTVSPropertyOp13
 70
     1
102
RTVSPropertyOp14
 70
     1
102
RTVSPropertyOp15
 70
     1
102
RTVSPropertyOp16
 70
     1
102
RTVSPropertyOp17
 70
     1
102
RTVSPropertyOp18
 70
     1
102
RTVSPropertyOp19
 70
     1
102
RTVSPropertyOp20
 70
     1
102
RTVSPropertyOp21
 70
     1
102
RTVSPropertyOp22
 70
     1
102
RTVSPropertyOp23
 70
     1
102
RTVSPropertyOp24
 70
     1
102
RTVSPropertyOp25
 70
     1
102
RTVSPropertyOp26
 70
     1
102
RTVSPropertyOp27
 70
     1
  0
XRECORD
  5
18E9
102
{ACAD_REACTORS
330
18E8
102
}
330
18E8
100
AcDbXrecord
280
     1
102
RTVSPropertyOp0
 70
     1
102
RTVSPropertyOp1
 70
     1
102
RTVSPropertyOp2
 70
     1
102
RTVSPropertyOp3
 70
     1
102
RTVSPropertyOp4
 70
     1
102
RTVSPropertyOp5
 70
     1
102
RTVSPropertyOp6
 70
     1
102
RTVSPropertyOp7
 70
     1
102
RTVSPropertyOp8
 70
     1
102
RTVSPropertyOp9
 70
     1
102
RTVSPropertyOp10
 70
     1
102
RTVSPropertyOp11
 70
     1
102
RTVSPropertyOp12
 70
     1
102
RTVSPropertyOp13
 70
     1
102
RTVSPropertyOp14
 70
     1
102
RTVSPropertyOp15
 70
     1
102
RTVSPropertyOp16
 70
     1
102
RTVSPropertyOp17
 70
     1
102
RTVSPropertyOp18
 70
     1
102
RTVSPropertyOp19
 70
     1
102
RTVSPropertyOp20
 70
     1
102
RTVSPropertyOp21
 70
     1
102
RTVSPropertyOp22
 70
     1
102
RTVSPropertyOp23
 70
     1
102
RTVSPropertyOp24
 70
     1
102
RTVSPropertyOp25
 70
     1
102
RTVSPropertyOp26
 70
     1
102
RTVSPropertyOp27
 70
     1
  0
XRECORD
  5
18EB
102
{ACAD_REACTORS
330
18EA
102
}
330
18EA
100
AcDbXrecord
280
     1
102
RTVSPropertyOp0
 70
     1
102
RTVSPropertyOp1
 70
     1
102
RTVSPropertyOp2
 70
     1
102
RTVSPropertyOp3
 70
     1
102
RTVSPropertyOp4
 70
     1
102
RTVSPropertyOp5
 70
     1
102
RTVSPropertyOp6
 70
     1
102
RTVSPropertyOp7
 70
     1
102
RTVSPropertyOp8
 70
     1
102
RTVSPropertyOp9
 70
     1
102
RTVSPropertyOp10
 70
     1
102
RTVSPropertyOp11
 70
     1
102
RTVSPropertyOp12
 70
     1
102
RTVSPropertyOp13
 70
     1
102
RTVSPropertyOp14
 70
     1
102
RTVSPropertyOp15
 70
     1
102
RTVSPropertyOp16
 70
     1
102
RTVSPropertyOp17
 70
     1
102
RTVSPropertyOp18
 70
     1
102
RTVSPropertyOp19
 70
     1
102
RTVSPropertyOp20
 70
     1
102
RTVSPropertyOp21
 70
     1
102
RTVSPropertyOp22
 70
     1
102
RTVSPropertyOp23
 70
     1
102
RTVSPropertyOp24
 70
     1
102
RTVSPropertyOp25
 70
     1
102
RTVSPropertyOp26
 70
     1
102
RTVSPropertyOp27
 70
     1
  0
XRECORD
  5
18ED
102
{ACAD_REACTORS
330
18EC
102
}
330
18EC
100
AcDbXrecord
280
     1
102
RTVSPropertyOp0
 70
     1
102
RTVSPropertyOp1
 70
     1
102
RTVSPropertyOp2
 70
     1
102
RTVSPropertyOp3
 70
     1
102
RTVSPropertyOp4
 70
     1
102
RTVSPropertyOp5
 70
     1
102
RTVSPropertyOp6
 70
     1
102
RTVSPropertyOp7
 70
     1
102
RTVSPropertyOp8
 70
     1
102
RTVSPropertyOp9
 70
     1
102
RTVSPropertyOp10
 70
     1
102
RTVSPropertyOp11
 70
     1
102
RTVSPropertyOp12
 70
     1
102
RTVSPropertyOp13
 70
     1
102
RTVSPropertyOp14
 70
     1
102
RTVSPropertyOp15
 70
     1
102
RTVSPropertyOp16
 70
     1
102
RTVSPropertyOp17
 70
     1
102
RTVSPropertyOp18
 70
     1
102
RTVSPropertyOp19
 70
     1
102
RTVSPropertyOp20
 70
     1
102
RTVSPropertyOp21
 70
     1
102
RTVSPropertyOp22
 70
     1
102
RTVSPropertyOp23
 70
     1
102
RTVSPropertyOp24
 70
     1
102
RTVSPropertyOp25
 70
     1
102
RTVSPropertyOp26
 70
     1
102
RTVSPropertyOp27
 70
     1
  0
XRECORD
  5
18EF
102
{ACAD_REACTORS
330
18EE
102
}
330
18EE
100
AcDbXrecord
280
     1
102
RTVSPropertyOp0
 70
     1
102
RTVSPropertyOp1
 70
     1
102
RTVSPropertyOp2
 70
     1
102
RTVSPropertyOp3
 70
     1
102
RTVSPropertyOp4
 70
     1
102
RTVSPropertyOp5
 70
     1
102
RTVSPropertyOp6
 70
     1
102
RTVSPropertyOp7
 70
     1
102
RTVSPropertyOp8
 70
     1
102
RTVSPropertyOp9
 70
     1
102
RTVSPropertyOp10
 70
     1
102
RTVSPropertyOp11
 70
     1
102
RTVSPropertyOp12
 70
     1
102
RTVSPropertyOp13
 70
     1
102
RTVSPropertyOp14
 70
     1
102
RTVSPropertyOp15
 70
     1
102
RTVSPropertyOp16
 70
     1
102
RTVSPropertyOp17
 70
     1
102
RTVSPropertyOp18
 70
     1
102
RTVSPropertyOp19
 70
     1
102
RTVSPropertyOp20
 70
     1
102
RTVSPropertyOp21
 70
     1
102
RTVSPropertyOp22
 70
     1
102
RTVSPropertyOp23
 70
     1
102
RTVSPropertyOp24
 70
     1
102
RTVSPropertyOp25
 70
     1
102
RTVSPropertyOp26
 70
     1
102
RTVSPropertyOp27
 70
     1
  0
XRECORD
  5
18F1
102
{ACAD_REACTORS
330
18F0
102
}
330
18F0
100
AcDbXrecord
280
     1
102
RTVSPropertyOp0
 70
     1
102
RTVSPropertyOp1
 70
     1
102
RTVSPropertyOp2
 70
     1
102
RTVSPropertyOp3
 70
     1
102
RTVSPropertyOp4
 70
     1
102
RTVSPropertyOp5
 70
     1
102
RTVSPropertyOp6
 70
     1
102
RTVSPropertyOp7
 70
     1
102
RTVSPropertyOp8
 70
     1
102
RTVSPropertyOp9
 70
     1
102
RTVSPropertyOp10
 70
     1
102
RTVSPropertyOp11
 70
     1
102
RTVSPropertyOp12
 70
     1
102
RTVSPropertyOp13
 70
     1
102
RTVSPropertyOp14
 70
     1
102
RTVSPropertyOp15
 70
     1
102
RTVSPropertyOp16
 70
     1
102
RTVSPropertyOp17
 70
     1
102
RTVSPropertyOp18
 70
     1
102
RTVSPropertyOp19
 70
     1
102
RTVSPropertyOp20
 70
     1
102
RTVSPropertyOp21
 70
     1
102
RTVSPropertyOp22
 70
     1
102
RTVSPropertyOp23
 70
     1
102
RTVSPropertyOp24
 70
     1
102
RTVSPropertyOp25
 70
     1
102
RTVSPropertyOp26
 70
     1
102
RTVSPropertyOp27
 70
     1
  0
XRECORD
  5
18F3
102
{ACAD_REACTORS
330
18F2
102
}
330
18F2
100
AcDbXrecord
280
     1
102
RTVSPropertyOp0
 70
     1
102
RTVSPropertyOp1
 70
     1
102
RTVSPropertyOp2
 70
     1
102
RTVSPropertyOp3
 70
     1
102
RTVSPropertyOp4
 70
     1
102
RTVSPropertyOp5
 70
     1
102
RTVSPropertyOp6
 70
     1
102
RTVSPropertyOp7
 70
     1
102
RTVSPropertyOp8
 70
     1
102
RTVSPropertyOp9
 70
     1
102
RTVSPropertyOp10
 70
     1
102
RTVSPropertyOp11
 70
     1
102
RTVSPropertyOp12
 70
     1
102
RTVSPropertyOp13
 70
     1
102
RTVSPropertyOp14
 70
     1
102
RTVSPropertyOp15
 70
     1
102
RTVSPropertyOp16
 70
     1
102
RTVSPropertyOp17
 70
     1
102
RTVSPropertyOp18
 70
     1
102
RTVSPropertyOp19
 70
     1
102
RTVSPropertyOp20
 70
     1
102
RTVSPropertyOp21
 70
     1
102
RTVSPropertyOp22
 70
     1
102
RTVSPropertyOp23
 70
     1
102
RTVSPropertyOp24
 70
     1
102
RTVSPropertyOp25
 70
     1
102
RTVSPropertyOp26
 70
     1
102
RTVSPropertyOp27
 70
     1
  0
XRECORD
  5
18F5
102
{ACAD_REACTORS
330
18F4
102
}
330
18F4
100
AcDbXrecord
280
     1
102
RTVSPropertyOp0
 70
     1
102
RTVSPropertyOp1
 70
     1
102
RTVSPropertyOp2
 70
     1
102
RTVSPropertyOp3
 70
     1
102
RTVSPropertyOp4
 70
     1
102
RTVSPropertyOp5
 70
     1
102
RTVSPropertyOp6
 70
     1
102
RTVSPropertyOp7
 70
     1
102
RTVSPropertyOp8
 70
     1
102
RTVSPropertyOp9
 70
     1
102
RTVSPropertyOp10
 70
     1
102
RTVSPropertyOp11
 70
     1
102
RTVSPropertyOp12
 70
     1
102
RTVSPropertyOp13
 70
     1
102
RTVSPropertyOp14
 70
     1
102
RTVSPropertyOp15
 70
     1
102
RTVSPropertyOp16
 70
     1
102
RTVSPropertyOp17
 70
     1
102
RTVSPropertyOp18
 70
     1
102
RTVSPropertyOp19
 70
     1
102
RTVSPropertyOp20
 70
     1
102
RTVSPropertyOp21
 70
     1
102
RTVSPropertyOp22
 70
     1
102
RTVSPropertyOp23
 70
     1
102
RTVSPropertyOp24
 70
     1
102
RTVSPropertyOp25
 70
     1
102
RTVSPropertyOp26
 70
     1
102
RTVSPropertyOp27
 70
     1
  0
XRECORD
  5
18F7
102
{ACAD_REACTORS
330
18F6
102
}
330
18F6
100
AcDbXrecord
280
     1
102
RTVSPropertyOp0
 70
     1
102
RTVSPropertyOp1
 70
     1
102
RTVSPropertyOp2
 70
     1
102
RTVSPropertyOp3
 70
     1
102
RTVSPropertyOp4
 70
     1
102
RTVSPropertyOp5
 70
     1
102
RTVSPropertyOp6
 70
     1
102
RTVSPropertyOp7
 70
     1
102
RTVSPropertyOp8
 70
     1
102
RTVSPropertyOp9
 70
     1
102
RTVSPropertyOp10
 70
     1
102
RTVSPropertyOp11
 70
     1
102
RTVSPropertyOp12
 70
     1
102
RTVSPropertyOp13
 70
     1
102
RTVSPropertyOp14
 70
     1
102
RTVSPropertyOp15
 70
     1
102
RTVSPropertyOp16
 70
     1
102
RTVSPropertyOp17
 70
     1
102
RTVSPropertyOp18
 70
     1
102
RTVSPropertyOp19
 70
     1
102
RTVSPropertyOp20
 70
     1
102
RTVSPropertyOp21
 70
     1
102
RTVSPropertyOp22
 70
     1
102
RTVSPropertyOp23
 70
     1
102
RTVSPropertyOp24
 70
     1
102
RTVSPropertyOp25
 70
     1
102
RTVSPropertyOp26
 70
     1
102
RTVSPropertyOp27
 70
     1
  0
XRECORD
  5
18F9
102
{ACAD_REACTORS
330
18F8
102
}
330
18F8
100
AcDbXrecord
280
     1
102
RTVSPropertyOp0
 70
     1
102
RTVSPropertyOp1
 70
     1
102
RTVSPropertyOp2
 70
     1
102
RTVSPropertyOp3
 70
     1
102
RTVSPropertyOp4
 70
     1
102
RTVSPropertyOp5
 70
     1
102
RTVSPropertyOp6
 70
     1
102
RTVSPropertyOp7
 70
     1
102
RTVSPropertyOp8
 70
     1
102
RTVSPropertyOp9
 70
     1
102
RTVSPropertyOp10
 70
     1
102
RTVSPropertyOp11
 70
     1
102
RTVSPropertyOp12
 70
     1
102
RTVSPropertyOp13
 70
     1
102
RTVSPropertyOp14
 70
     1
102
RTVSPropertyOp15
 70
     1
102
RTVSPropertyOp16
 70
     1
102
RTVSPropertyOp17
 70
     1
102
RTVSPropertyOp18
 70
     1
102
RTVSPropertyOp19
 70
     1
102
RTVSPropertyOp20
 70
     1
102
RTVSPropertyOp21
 70
     1
102
RTVSPropertyOp22
 70
     1
102
RTVSPropertyOp23
 70
     1
102
RTVSPropertyOp24
 70
     1
102
RTVSPropertyOp25
 70
     1
102
RTVSPropertyOp26
 70
     1
102
RTVSPropertyOp27
 70
     1
  0
XRECORD
  5
18FB
102
{ACAD_REACTORS
330
18FA
102
}
330
18FA
100
AcDbXrecord
280
     1
102
RTVSPropertyOp0
 70
     1
102
RTVSPropertyOp1
 70
     1
102
RTVSPropertyOp2
 70
     1
102
RTVSPropertyOp3
 70
     1
102
RTVSPropertyOp4
 70
     1
102
RTVSPropertyOp5
 70
     1
102
RTVSPropertyOp6
 70
     1
102
RTVSPropertyOp7
 70
     1
102
RTVSPropertyOp8
 70
     1
102
RTVSPropertyOp9
 70
     1
102
RTVSPropertyOp10
 70
     1
102
RTVSPropertyOp11
 70
     1
102
RTVSPropertyOp12
 70
     1
102
RTVSPropertyOp13
 70
     1
102
RTVSPropertyOp14
 70
     1
102
RTVSPropertyOp15
 70
     1
102
RTVSPropertyOp16
 70
     1
102
RTVSPropertyOp17
 70
     1
102
RTVSPropertyOp18
 70
     1
102
RTVSPropertyOp19
 70
     1
102
RTVSPropertyOp20
 70
     1
102
RTVSPropertyOp21
 70
     1
102
RTVSPropertyOp22
 70
     1
102
RTVSPropertyOp23
 70
     1
102
RTVSPropertyOp24
 70
     1
102
RTVSPropertyOp25
 70
     1
102
RTVSPropertyOp26
 70
     1
102
RTVSPropertyOp27
 70
     1
  0
XRECORD
  5
18FD
102
{ACAD_REACTORS
330
18FC
102
}
330
18FC
100
AcDbXrecord
280
     1
102
RTVSPropertyOp0
 70
     1
102
RTVSPropertyOp1
 70
     1
102
RTVSPropertyOp2
 70
     1
102
RTVSPropertyOp3
 70
     1
102
RTVSPropertyOp4
 70
     1
102
RTVSPropertyOp5
 70
     1
102
RTVSPropertyOp6
 70
     1
102
RTVSPropertyOp7
 70
     1
102
RTVSPropertyOp8
 70
     1
102
RTVSPropertyOp9
 70
     1
102
RTVSPropertyOp10
 70
     1
102
RTVSPropertyOp11
 70
     1
102
RTVSPropertyOp12
 70
     1
102
RTVSPropertyOp13
 70
     1
102
RTVSPropertyOp14
 70
     1
102
RTVSPropertyOp15
 70
     1
102
RTVSPropertyOp16
 70
     1
102
RTVSPropertyOp17
 70
     1
102
RTVSPropertyOp18
 70
     1
102
RTVSPropertyOp19
 70
     1
102
RTVSPropertyOp20
 70
     1
102
RTVSPropertyOp21
 70
     1
102
RTVSPropertyOp22
 70
     1
102
RTVSPropertyOp23
 70
     1
102
RTVSPropertyOp24
 70
     1
102
RTVSPropertyOp25
 70
     1
102
RTVSPropertyOp26
 70
     1
102
RTVSPropertyOp27
 70
     1
  0
XRECORD
  5
18FF
102
{ACAD_REACTORS
330
18FE
102
}
330
18FE
100
AcDbXrecord
280
     1
102
RTVSPropertyOp0
 70
     1
102
RTVSPropertyOp1
 70
     1
102
RTVSPropertyOp2
 70
     1
102
RTVSPropertyOp3
 70
     1
102
RTVSPropertyOp4
 70
     1
102
RTVSPropertyOp5
 70
     1
102
RTVSPropertyOp6
 70
     1
102
RTVSPropertyOp7
 70
     1
102
RTVSPropertyOp8
 70
     1
102
RTVSPropertyOp9
 70
     1
102
RTVSPropertyOp10
 70
     1
102
RTVSPropertyOp11
 70
     1
102
RTVSPropertyOp12
 70
     1
102
RTVSPropertyOp13
 70
     1
102
RTVSPropertyOp14
 70
     1
102
RTVSPropertyOp15
 70
     1
102
RTVSPropertyOp16
 70
     1
102
RTVSPropertyOp17
 70
     1
102
RTVSPropertyOp18
 70
     1
102
RTVSPropertyOp19
 70
     1
102
RTVSPropertyOp20
 70
     1
102
RTVSPropertyOp21
 70
     1
102
RTVSPropertyOp22
 70
     1
102
RTVSPropertyOp23
 70
     1
102
RTVSPropertyOp24
 70
     1
102
RTVSPropertyOp25
 70
     1
102
RTVSPropertyOp26
 70
     1
102
RTVSPropertyOp27
 70
     1
  0
XRECORD
  5
1901
102
{ACAD_REACTORS
330
1900
102
}
330
1900
100
AcDbXrecord
280
     1
102
RTVSPropertyOp0
 70
     1
102
RTVSPropertyOp1
 70
     1
102
RTVSPropertyOp2
 70
     1
102
RTVSPropertyOp3
 70
     1
102
RTVSPropertyOp4
 70
     1
102
RTVSPropertyOp5
 70
     1
102
RTVSPropertyOp6
 70
     1
102
RTVSPropertyOp7
 70
     1
102
RTVSPropertyOp8
 70
     1
102
RTVSPropertyOp9
 70
     1
102
RTVSPropertyOp10
 70
     1
102
RTVSPropertyOp11
 70
     1
102
RTVSPropertyOp12
 70
     1
102
RTVSPropertyOp13
 70
     1
102
RTVSPropertyOp14
 70
     1
102
RTVSPropertyOp15
 70
     1
102
RTVSPropertyOp16
 70
     1
102
RTVSPropertyOp17
 70
     1
102
RTVSPropertyOp18
 70
     1
102
RTVSPropertyOp19
 70
     1
102
RTVSPropertyOp20
 70
     1
102
RTVSPropertyOp21
 70
     1
102
RTVSPropertyOp22
 70
     1
102
RTVSPropertyOp23
 70
     1
102
RTVSPropertyOp24
 70
     1
102
RTVSPropertyOp25
 70
     1
102
RTVSPropertyOp26
 70
     1
102
RTVSPropertyOp27
 70
     1
  0
XRECORD
  5
1903
102
{ACAD_REACTORS
330
1902
102
}
330
1902
100
AcDbXrecord
280
     1
102
RTVSPropertyOp0
 70
     1
102
RTVSPropertyOp1
 70
     1
102
RTVSPropertyOp2
 70
     1
102
RTVSPropertyOp3
 70
     1
102
RTVSPropertyOp4
 70
     1
102
RTVSPropertyOp5
 70
     1
102
RTVSPropertyOp6
 70
     1
102
RTVSPropertyOp7
 70
     1
102
RTVSPropertyOp8
 70
     1
102
RTVSPropertyOp9
 70
     1
102
RTVSPropertyOp10
 70
     1
102
RTVSPropertyOp11
 70
     1
102
RTVSPropertyOp12
 70
     1
102
RTVSPropertyOp13
 70
     1
102
RTVSPropertyOp14
 70
     1
102
RTVSPropertyOp15
 70
     1
102
RTVSPropertyOp16
 70
     1
102
RTVSPropertyOp17
 70
     1
102
RTVSPropertyOp18
 70
     1
102
RTVSPropertyOp19
 70
     1
102
RTVSPropertyOp20
 70
     1
102
RTVSPropertyOp21
 70
     1
102
RTVSPropertyOp22
 70
     1
102
RTVSPropertyOp23
 70
     1
102
RTVSPropertyOp24
 70
     1
102
RTVSPropertyOp25
 70
     1
102
RTVSPropertyOp26
 70
     1
102
RTVSPropertyOp27
 70
     1
  0
XRECORD
  5
1905
102
{ACAD_REACTORS
330
1904
102
}
330
1904
100
AcDbXrecord
280
     1
102
RTVSPropertyOp0
 70
     1
102
RTVSPropertyOp1
 70
     1
102
RTVSPropertyOp2
 70
     1
102
RTVSPropertyOp3
 70
     1
102
RTVSPropertyOp4
 70
     1
102
RTVSPropertyOp5
 70
     1
102
RTVSPropertyOp6
 70
     1
102
RTVSPropertyOp7
 70
     1
102
RTVSPropertyOp8
 70
     1
102
RTVSPropertyOp9
 70
     1
102
RTVSPropertyOp10
 70
     1
102
RTVSPropertyOp11
 70
     1
102
RTVSPropertyOp12
 70
     1
102
RTVSPropertyOp13
 70
     1
102
RTVSPropertyOp14
 70
     1
102
RTVSPropertyOp15
 70
     1
102
RTVSPropertyOp16
 70
     1
102
RTVSPropertyOp17
 70
     1
102
RTVSPropertyOp18
 70
     1
102
RTVSPropertyOp19
 70
     1
102
RTVSPropertyOp20
 70
     1
102
RTVSPropertyOp21
 70
     1
102
RTVSPropertyOp22
 70
     1
102
RTVSPropertyOp23
 70
     1
102
RTVSPropertyOp24
 70
     1
102
RTVSPropertyOp25
 70
     1
102
RTVSPropertyOp26
 70
     1
102
RTVSPropertyOp27
 70
     1
  0
XRECORD
  5
1907
102
{ACAD_REACTORS
330
1906
102
}
330
1906
100
AcDbXrecord
280
     1
102
RTVSPropertyOp0
 70
     1
102
RTVSPropertyOp1
 70
     1
102
RTVSPropertyOp2
 70
     1
102
RTVSPropertyOp3
 70
     1
102
RTVSPropertyOp4
 70
     1
102
RTVSPropertyOp5
 70
     1
102
RTVSPropertyOp6
 70
     1
102
RTVSPropertyOp7
 70
     1
102
RTVSPropertyOp8
 70
     1
102
RTVSPropertyOp9
 70
     1
102
RTVSPropertyOp10
 70
     1
102
RTVSPropertyOp11
 70
     1
102
RTVSPropertyOp12
 70
     1
102
RTVSPropertyOp13
 70
     1
102
RTVSPropertyOp14
 70
     1
102
RTVSPropertyOp15
 70
     1
102
RTVSPropertyOp16
 70
     1
102
RTVSPropertyOp17
 70
     1
102
RTVSPropertyOp18
 70
     1
102
RTVSPropertyOp19
 70
     1
102
RTVSPropertyOp20
 70
     1
102
RTVSPropertyOp21
 70
     1
102
RTVSPropertyOp22
 70
     1
102
RTVSPropertyOp23
 70
     1
102
RTVSPropertyOp24
 70
     1
102
RTVSPropertyOp25
 70
     1
102
RTVSPropertyOp26
 70
     1
102
RTVSPropertyOp27
 70
     1
  0
XRECORD
  5
1909
102
{ACAD_REACTORS
330
1908
102
}
330
1908
100
AcDbXrecord
280
     1
102
RTVSPropertyOp0
 70
     1
102
RTVSPropertyOp1
 70
     1
102
RTVSPropertyOp2
 70
     1
102
RTVSPropertyOp3
 70
     1
102
RTVSPropertyOp4
 70
     1
102
RTVSPropertyOp5
 70
     1
102
RTVSPropertyOp6
 70
     1
102
RTVSPropertyOp7
 70
     1
102
RTVSPropertyOp8
 70
     1
102
RTVSPropertyOp9
 70
     1
102
RTVSPropertyOp10
 70
     1
102
RTVSPropertyOp11
 70
     1
102
RTVSPropertyOp12
 70
     1
102
RTVSPropertyOp13
 70
     1
102
RTVSPropertyOp14
 70
     1
102
RTVSPropertyOp15
 70
     1
102
RTVSPropertyOp16
 70
     1
102
RTVSPropertyOp17
 70
     1
102
RTVSPropertyOp18
 70
     1
102
RTVSPropertyOp19
 70
     1
102
RTVSPropertyOp20
 70
     1
102
RTVSPropertyOp21
 70
     1
102
RTVSPropertyOp22
 70
     1
102
RTVSPropertyOp23
 70
     1
102
RTVSPropertyOp24
 70
     1
102
RTVSPropertyOp25
 70
     1
102
RTVSPropertyOp26
 70
     1
102
RTVSPropertyOp27
 70
     1
  0
ENDSEC
  0
EOF
