  0
SECTION
  2
HEADER
  9
$ACADVER
  1
AC1018
  9
$ACADMAINTVER
 70
     0
  9
$DWGCODEPAGE
  3
ANSI_932
  9
$LASTSAVEDBY
  1
shinwa
  9
$INSBASE
 10
0.0
 20
0.0
 30
0.0
  9
$EXTMIN
 10
-7969.322730637396
 20
-0.0904947544331662
 30
-0.0000000000000077
  9
$EXTMAX
 10
-307.6764297580012
 20
5540.446827004072
 30
0.0000000000000076
  9
$LIMMIN
 10
0.0
 20
0.0
  9
$LIMMAX
 10
8400.0
 20
5940.0
  9
$ORTHOMODE
 70
     1
  9
$REGENMODE
 70
     1
  9
$FILLMODE
 70
     1
  9
$QTEXTMODE
 70
     0
  9
$MIRRTEXT
 70
     1
  9
$LTSCALE
 40
200.0
  9
$ATTMODE
 70
     1
  9
$TEXTSIZE
 40
60.0
  9
$TRACEWID
 40
0.05
  9
$TEXTSTYLE
  7
STANDARD
  9
$CLAYER
  8
SUNPOU
  9
$CELTYPE
  6
BYLAYER
  9
$CECOLOR
 62
   256
  9
$CELTSCALE
 40
1.0
  9
$DISPSILH
 70
     0
  9
$DIMSCALE
 40
20.0
  9
$DIMASZ
 40
2.0
  9
$DIMEXO
 40
2.0
  9
$DIMDLI
 40
7.0
  9
$DIMRND
 40
0.0
  9
$DIMDLE
 40
0.0
  9
$DIMEXE
 40
0.5
  9
$DIMTP
 40
0.0
  9
$DIMTM
 40
0.0
  9
$DIMTXT
 40
2.5
  9
$DIMCEN
 40
0.0
  9
$DIMTSZ
 40
0.0
  9
$DIMTOL
 70
     0
  9
$DIMLIM
 70
     0
  9
$DIMTIH
 70
     0
  9
$DIMTOH
 70
     0
  9
$DIMSE1
 70
     0
  9
$DIMSE2
 70
     0
  9
$DIMTAD
 70
     1
  9
$DIMZIN
 70
     8
  9
$DIMBLK
  1

  9
$DIMASO
 70
     1
  9
$DIMSHO
 70
     1
  9
$DIMPOST
  1

  9
$DIMAPOST
  1

  9
$DIMALT
 70
     0
  9
$DIMALTD
 70
     2
  9
$DIMALTF
 40
25.4
  9
$DIMLFAC
 40
1.0
  9
$DIMTOFL
 70
     0
  9
$DIMTVP
 40
1.0
  9
$DIMTIX
 70
     1
  9
$DIMSOXD
 70
     0
  9
$DIMSAH
 70
     0
  9
$DIMBLK1
  1

  9
$DIMBLK2
  1

  9
$DIMSTYLE
  2
A3-20
  9
$DIMCLRD
 70
     0
  9
$DIMCLRE
 70
     0
  9
$DIMCLRT
 70
     0
  9
$DIMTFAC
 40
1.0
  9
$DIMGAP
 40
0.7
  9
$DIMJUST
 70
     0
  9
$DIMSD1
 70
     0
  9
$DIMSD2
 70
     0
  9
$DIMTOLJ
 70
     1
  9
$DIMTZIN
 70
     8
  9
$DIMALTZ
 70
     8
  9
$DIMALTTZ
 70
     8
  9
$DIMUPT
 70
     0
  9
$DIMDEC
 70
     0
  9
$DIMTDEC
 70
     0
  9
$DIMALTU
 70
     2
  9
$DIMALTTD
 70
     2
  9
$DIMTXSTY
  7
STANDARD
  9
$DIMAUNIT
 70
     0
  9
$DIMADEC
 70
     4
  9
$DIMALTRND
 40
0.0
  9
$DIMAZIN
 70
     0
  9
$DIMDSEP
 70
    46
  9
$DIMATFIT
 70
     3
  9
$DIMFRAC
 70
     0
  9
$DIMLDRBLK
  1

  9
$DIMLUNIT
 70
     2
  9
$DIMLWD
 70
    -2
  9
$DIMLWE
 70
    -2
  9
$DIMTMOVE
 70
     2
  9
$LUNITS
 70
     2
  9
$LUPREC
 70
     4
  9
$SKETCHINC
 40
0.1
  9
$FILLETRAD
 40
0.0
  9
$AUNITS
 70
     1
  9
$AUPREC
 70
     4
  9
$MENU
  1
acad
  9
$ELEVATION
 40
0.0
  9
$PELEVATION
 40
0.0
  9
$THICKNESS
 40
0.0
  9
$LIMCHECK
 70
     0
  9
$CHAMFERA
 40
19.0
  9
$CHAMFERB
 40
19.0
  9
$CHAMFERC
 40
0.0
  9
$CHAMFERD
 40
0.0
  9
$SKPOLY
 70
     0
  9
$TDCREATE
 40
2450014.656655093
  9
$TDUCREATE
 40
2450014.281655093
  9
$TDUPDATE
 40
2457540.461722292
  9
$TDUUPDATE
 40
2457540.086722292
  9
$TDINDWG
 40
0.4206792361
  9
$TDUSRTIMER
 40
0.4206792361
  9
$USRTIMER
 70
     1
  9
$ANGBASE
 50
0.0
  9
$ANGDIR
 70
     0
  9
$PDMODE
 70
     0
  9
$PDSIZE
 40
0.0
  9
$PLINEWID
 40
0.0
  9
$SPLFRAME
 70
     0
  9
$SPLINETYPE
 70
     6
  9
$SPLINESEGS
 70
     8
  9
$HANDSEED
  5
1CFC
  9
$SURFTAB1
 70
     6
  9
$SURFTAB2
 70
     6
  9
$SURFTYPE
 70
     6
  9
$SURFU
 70
     6
  9
$SURFV
 70
     6
  9
$UCSBASE
  2

  9
$UCSNAME
  2

  9
$UCSORG
 10
0.0
 20
0.0
 30
0.0
  9
$UCSXDIR
 10
1.0
 20
0.0
 30
0.0
  9
$UCSYDIR
 10
0.0
 20
1.0
 30
0.0
  9
$UCSORTHOREF
  2

  9
$UCSORTHOVIEW
 70
     0
  9
$UCSORGTOP
 10
0.0
 20
0.0
 30
0.0
  9
$UCSORGBOTTOM
 10
0.0
 20
0.0
 30
0.0
  9
$UCSORGLEFT
 10
0.0
 20
0.0
 30
0.0
  9
$UCSORGRIGHT
 10
0.0
 20
0.0
 30
0.0
  9
$UCSORGFRONT
 10
0.0
 20
0.0
 30
0.0
  9
$UCSORGBACK
 10
0.0
 20
0.0
 30
0.0
  9
$PUCSBASE
  2

  9
$PUCSNAME
  2

  9
$PUCSORG
 10
0.0
 20
0.0
 30
0.0
  9
$PUCSXDIR
 10
1.0
 20
0.0
 30
0.0
  9
$PUCSYDIR
 10
0.0
 20
1.0
 30
0.0
  9
$PUCSORTHOREF
  2

  9
$PUCSORTHOVIEW
 70
     0
  9
$PUCSORGTOP
 10
0.0
 20
0.0
 30
0.0
  9
$PUCSORGBOTTOM
 10
0.0
 20
0.0
 30
0.0
  9
$PUCSORGLEFT
 10
0.0
 20
0.0
 30
0.0
  9
$PUCSORGRIGHT
 10
0.0
 20
0.0
 30
0.0
  9
$PUCSORGFRONT
 10
0.0
 20
0.0
 30
0.0
  9
$PUCSORGBACK
 10
0.0
 20
0.0
 30
0.0
  9
$USERI1
 70
     0
  9
$USERI2
 70
     0
  9
$USERI3
 70
     0
  9
$USERI4
 70
     0
  9
$USERI5
 70
     0
  9
$USERR1
 40
0.0
  9
$USERR2
 40
0.0
  9
$USERR3
 40
0.0
  9
$USERR4
 40
0.0
  9
$USERR5
 40
0.0
  9
$WORLDVIEW
 70
     1
  9
$SHADEDGE
 70
     3
  9
$SHADEDIF
 70
    70
  9
$TILEMODE
 70
     1
  9
$MAXACTVP
 70
    48
  9
$PINSBASE
 10
0.0
 20
0.0
 30
0.0
  9
$PLIMCHECK
 70
     0
  9
$PEXTMIN
 10
1.000000000000000E+20
 20
1.000000000000000E+20
 30
1.000000000000000E+20
  9
$PEXTMAX
 10
-1.000000000000000E+20
 20
-1.000000000000000E+20
 30
-1.000000000000000E+20
  9
$PLIMMIN
 10
0.0
 20
0.0
  9
$PLIMMAX
 10
12.0
 20
9.0
  9
$UNITMODE
 70
     0
  9
$VISRETAIN
 70
     0
  9
$PLINEGEN
 70
     0
  9
$PSLTSCALE
 70
     0
  9
$TREEDEPTH
 70
  3020
  9
$CMLSTYLE
  2
STANDARD
  9
$CMLJUST
 70
     0
  9
$CMLSCALE
 40
1.0
  9
$PROXYGRAPHICS
 70
     1
  9
$MEASUREMENT
 70
     0
  9
$CELWEIGHT
370
    -1
  9
$ENDCAPS
280
     0
  9
$JOINSTYLE
280
     0
  9
$LWDISPLAY
290
     0
  9
$INSUNITS
 70
     0
  9
$HYPERLINKBASE
  1

  9
$STYLESHEET
  1
monochrome.ctb
  9
$XEDIT
290
     1
  9
$CEPSNTYPE
380
     0
  9
$PSTYLEMODE
290
     1
  9
$FINGERPRINTGUID
  2
{76B27A3D-1C36-4B5E-8985-C48AD7488524}
  9
$VERSIONGUID
  2
{17212286-A25F-4C4E-8A60-66B12828D495}
  9
$EXTNAMES
290
     1
  9
$PSVPSCALE
 40
0.0
  9
$OLESTARTUP
290
     0
  9
$SORTENTS
280
   127
  9
$INDEXCTL
280
     0
  9
$HIDETEXT
280
     0
  9
$XCLIPFRAME
290
     0
  9
$HALOGAP
280
     0
  9
$OBSCOLOR
 70
   257
  9
$OBSLTYPE
280
     0
  9
$INTERSECTIONDISPLAY
280
     0
  9
$INTERSECTIONCOLOR
 70
   257
  9
$DIMASSOC
280
     1
  9
$PROJECTNAME
  1

  0
ENDSEC
  0
SECTION
  2
CLASSES
  0
CLASS
  1
LWPOLYLINE
  2
AcDbPolyline
  3
AutoCAD 2000
 90
        0
 91
        1
280
     0
281
     1
  0
CLASS
  1
ACDBDICTIONARYWDFLT
  2
AcDbDictionaryWithDefault
  3
ObjectDBX Classes
 90
        0
 91
        4
280
     0
281
     0
  0
CLASS
  1
ACDBPLACEHOLDER
  2
AcDbPlaceHolder
  3
ObjectDBX Classes
 90
        0
 91
        1
280
     0
281
     0
  0
CLASS
  1
LAYOUT
  2
AcDbLayout
  3
ObjectDBX Classes
 90
        0
 91
        1
280
     0
281
     0
  0
CLASS
  1
DICTIONARYVAR
  2
AcDbDictionaryVar
  3
ObjectDBX Classes
 90
        0
 91
        4
280
     0
281
     0
  0
CLASS
  1
DUMMY
  2
AcDbLongTransaction
  3
DUMMY
 90
        0
 91
        1
280
     0
281
     0
  0
CLASS
  1
LWPOLYLINE
  2
AcDbPolyline
  3
AutoCAD 2000
 90
        0
 91
        1
280
     0
281
     1
  0
CLASS
  1
HATCH
  2
AcDbHatch
  3
AutoCAD 2000
 90
        0
 91
        1
280
     0
281
     1
  0
CLASS
  1
XRECORD
  2
AcDbXrecord
  3
AutoCAD 2000
 90
        0
 91
        1
280
     0
281
     0
  0
CLASS
  1
DUMMY
  2
AcDbLongTransaction
  3
DUMMY
 90
        0
 91
        1
280
     0
281
     0
  0
CLASS
  1
LWPOLYLINE
  2
AcDbPolyline
  3
AutoCAD 2000
 90
        0
 91
        1
280
     0
281
     1
  0
CLASS
  1
HATCH
  2
AcDbHatch
  3
AutoCAD 2000
 90
        0
 91
        1
280
     0
281
     1
  0
CLASS
  1
XRECORD
  2
AcDbXrecord
  3
AutoCAD 2000
 90
        0
 91
        1
280
     0
281
     0
  0
CLASS
  1
DUMMY
  2
AcDbLongTransaction
  3
DUMMY
 90
        0
 91
        1
280
     0
281
     0
  0
CLASS
  1
LWPOLYLINE
  2
AcDbPolyline
  3
AutoCAD 2000
 90
        0
 91
        1
280
     0
281
     1
  0
CLASS
  1
HATCH
  2
AcDbHatch
  3
AutoCAD 2000
 90
        0
 91
        1
280
     0
281
     1
  0
CLASS
  1
XRECORD
  2
AcDbXrecord
  3
AutoCAD 2000
 90
        0
 91
        1
280
     0
281
     0
  0
CLASS
  1
MATERIAL
  2
AcDbMaterial
  3
ObjectDBX Classes
 90
     1153
 91
        4
280
     0
281
     0
  0
CLASS
  1
VISUALSTYLE
  2
AcDbVisualStyle
  3
ObjectDBX Classes
 90
     4095
 91
        4
280
     0
281
     0
  0
CLASS
  1
TABLESTYLE
  2
AcDbTableStyle
  3
ObjectDBX Classes
 90
     4095
 91
        4
280
     0
281
     0
  0
CLASS
  1
SCALE
  2
AcDbScale
  3
ObjectDBX Classes
 90
     1153
 91
        4
280
     0
281
     0
  0
CLASS
  1
MLEADERSTYLE
  2
AcDbMLeaderStyle
  3
ACDB_MLEADERSTYLE_CLASS
 90
     4095
 91
        4
280
     0
281
     0
  0
CLASS
  1
ACDBSECTIONVIEWSTYLE
  2
AcDbSectionViewStyle
  3
ObjectDBX Classes
 90
     1025
 91
        2
280
     1
281
     0
  0
CLASS
  1
ACDBDETAILVIEWSTYLE
  2
AcDbDetailViewStyle
  3
ObjectDBX Classes
 90
     1025
 91
        2
280
     1
281
     0
  0
CLASS
  1
CELLSTYLEMAP
  2
AcDbCellStyleMap
  3
ObjectDBX Classes
 90
     1152
 91
        4
280
     0
281
     0
  0
ENDSEC
  0
SECTION
  2
TABLES
  0
TABLE
  2
VPORT
  5
8
102
{ACAD_XDICTIONARY
360
1CC0
102
}
330
0
100
AcDbSymbolTable
 70
     1
  0
VPORT
  5
173B
330
8
100
AcDbSymbolTableRecord
100
AcDbViewportTableRecord
  2
*Active
 70
     0
 10
0.0
 20
0.0
 11
1.0
 21
1.0
 12
-4177.963985448675
 22
2677.858985058141
 13
0.0
 23
0.0
 14
20.0
 24
20.0
 15
200.0
 25
200.0
 16
0.0
 26
0.0
 36
1.0
 17
0.0
 27
0.0
 37
0.0
 40
6608.383785597609
 41
1.560747663551402
 42
50.0
 43
0.0
 44
0.0
 50
0.0
 51
0.0
 71
     0
 72
   100
 73
     1
 74
     1
 75
     0
 76
     0
 77
     0
 78
     0
281
     0
 65
     1
110
0.0
120
0.0
130
0.0
111
1.0
121
0.0
131
0.0
112
0.0
122
1.0
132
0.0
 79
     0
146
0.0
1001
ACAD_NAV_VCDISPLAY
1070
     3
  0
ENDTAB
  0
TABLE
  2
LTYPE
  5
5
330
0
100
AcDbSymbolTable
 70
     4
  0
LTYPE
  5
11
330
5
100
AcDbSymbolTableRecord
100
AcDbLinetypeTableRecord
  2
BYBLOCK
 70
     0
  3

 72
    65
 73
     0
 40
0.0
  0
LTYPE
  5
12
330
5
100
AcDbSymbolTableRecord
100
AcDbLinetypeTableRecord
  2
BYLAYER
 70
     0
  3

 72
    65
 73
     0
 40
0.0
  0
LTYPE
  5
13
330
5
100
AcDbSymbolTableRecord
100
AcDbLinetypeTableRecord
  2
CONTINUOUS
 70
     0
  3
Solid line
 72
    65
 73
     0
 40
0.0
  0
LTYPE
  5
1E
330
5
100
AcDbSymbolTableRecord
100
AcDbLinetypeTableRecord
  2
HIDDEN
 70
     0
  3
_ _ _ _ _ _ _ _ _ _ _ _ _ _ _ _ _ _ _ _ _ _ _
 72
    65
 73
     2
 40
0.375
 49
0.25
 74
     0
 49
-0.125
 74
     0
  0
LTYPE
  5
1F
330
5
100
AcDbSymbolTableRecord
100
AcDbLinetypeTableRecord
  2
CENTER
 70
     0
  3
____ _ ____ _ ____ _ ____ _ ____ _ ____ _ ____
 72
    65
 73
     4
 40
2.0
 49
1.25
 74
     0
 49
-0.25
 74
     0
 49
0.25
 74
     0
 49
-0.25
 74
     0
  0
LTYPE
  5
20
330
5
100
AcDbSymbolTableRecord
100
AcDbLinetypeTableRecord
  2
PHANTOM
 70
     0
  3
_____ _ _ _____ _ _ _____ _ _ _____ _ _ ____
 72
    65
 73
     6
 40
2.5
 49
1.25
 74
     0
 49
-0.25
 74
     0
 49
0.25
 74
     0
 49
-0.25
 74
     0
 49
0.25
 74
     0
 49
-0.25
 74
     0
  0
ENDTAB
  0
TABLE
  2
LAYER
  5
2
102
{ACAD_XDICTIONARY
360
1C6C
102
}
330
0
100
AcDbSymbolTable
 70
    10
  0
LAYER
  5
E
102
{ACAD_XDICTIONARY
360
1C57
102
}
330
2
100
AcDbSymbolTableRecord
100
AcDbLayerTableRecord
  2
0
 70
     0
 62
     7
  6
CONTINUOUS
370
    -3
390
BDF
  0
LAYER
  5
23
102
{ACAD_XDICTIONARY
360
1C59
102
}
330
2
100
AcDbSymbolTableRecord
100
AcDbLayerTableRecord
  2
SUNPOU
 70
     0
 62
     1
  6
CONTINUOUS
370
    -3
390
BDF
  0
LAYER
  5
24
102
{ACAD_XDICTIONARY
360
1C5B
102
}
330
2
100
AcDbSymbolTableRecord
100
AcDbLayerTableRecord
  2
HAIKIN
 70
     0
 62
     2
  6
CONTINUOUS
370
    -3
390
BDF
  0
LAYER
  5
25
102
{ACAD_XDICTIONARY
360
1C5D
102
}
330
2
100
AcDbSymbolTableRecord
100
AcDbLayerTableRecord
  2
SEIHIN
 70
     0
 62
     3
  6
CONTINUOUS
370
    -3
390
BDF
  0
LAYER
  5
26
102
{ACAD_XDICTIONARY
360
1C5F
102
}
330
2
100
AcDbSymbolTableRecord
100
AcDbLayerTableRecord
  2
HASEN
 70
     0
 62
     4
  6
HIDDEN
370
    -3
390
BDF
  0
LAYER
  5
27
102
{ACAD_XDICTIONARY
360
1C61
102
}
330
2
100
AcDbSymbolTableRecord
100
AcDbLayerTableRecord
  2
1HASEN
 70
     0
 62
     5
  6
CENTER
370
    -3
390
BDF
  0
LAYER
  5
28
102
{ACAD_XDICTIONARY
360
1C63
102
}
330
2
100
AcDbSymbolTableRecord
100
AcDbLayerTableRecord
  2
2HASEN
 70
     0
 62
     6
  6
PHANTOM
370
    -3
390
BDF
  0
LAYER
  5
29
102
{ACAD_XDICTIONARY
360
1C65
102
}
330
2
100
AcDbSymbolTableRecord
100
AcDbLayerTableRecord
  2
HOJO
 70
     0
 62
     7
  6
CONTINUOUS
370
    -3
390
BDF
  0
LAYER
  5
2A
102
{ACAD_XDICTIONARY
360
1C67
102
}
330
2
100
AcDbSymbolTableRecord
100
AcDbLayerTableRecord
  2
TEN
 70
     0
 62
     7
  6
CONTINUOUS
370
    -3
390
BDF
  0
LAYER
  5
B8
330
2
100
AcDbSymbolTableRecord
100
AcDbLayerTableRecord
  2
DEFPOINTS
 70
     0
 62
     7
  6
CONTINUOUS
290
     0
370
    -3
390
BDF
  0
ENDTAB
  0
TABLE
  2
STYLE
  5
3
330
0
100
AcDbSymbolTable
 70
     1
  0
STYLE
  5
F
330
3
100
AcDbSymbolTableRecord
100
AcDbTextStyleTableRecord
  2
STANDARD
 70
     0
 40
0.0
 41
0.8
 50
0.0
 71
     0
 42
60.0
  3
TXT.shx
  4
BIGFONT.shx
  0
ENDTAB
  0
TABLE
  2
VIEW
  5
6
330
0
100
AcDbSymbolTable
 70
     0
  0
ENDTAB
  0
TABLE
  2
UCS
  5
7
330
0
100
AcDbSymbolTable
 70
     0
  0
ENDTAB
  0
TABLE
  2
APPID
  5
9
330
0
100
AcDbSymbolTable
 70
     7
  0
APPID
  5
10
330
9
100
AcDbSymbolTableRecord
100
AcDbRegAppTableRecord
  2
ACAD
 70
     0
  0
APPID
  5
1ADE
330
9
100
AcDbSymbolTableRecord
100
AcDbRegAppTableRecord
  2
ACAD_DSTYLE_DIMJOGGED_JOGANGLE_SYMBOL
 70
     0
  0
APPID
  5
1ADF
330
9
100
AcDbSymbolTableRecord
100
AcDbRegAppTableRecord
  2
ACAD_NAV_VCDISPLAY
 70
     0
  0
APPID
  5
1AFC
330
9
100
AcDbSymbolTableRecord
100
AcDbRegAppTableRecord
  2
AcadAnnoPO
 70
     0
  0
APPID
  5
1AFD
330
9
100
AcDbSymbolTableRecord
100
AcDbRegAppTableRecord
  2
ACAD_DSTYLE_DIMJAG
 70
     0
  0
APPID
  5
1AFE
330
9
100
AcDbSymbolTableRecord
100
AcDbRegAppTableRecord
  2
ACAD_DSTYLE_DIMTALN
 70
     0
  0
APPID
  5
1CAF
330
9
100
AcDbSymbolTableRecord
100
AcDbRegAppTableRecord
  2
ACAD_MLEADERVER
 70
     0
  0
ENDTAB
  0
TABLE
  2
DIMSTYLE
  5
A
330
0
100
AcDbSymbolTable
 70
     2
100
AcDbDimStyleTable
  0
DIMSTYLE
105
61
102
{ACAD_REACTORS
330
D3
330
D4
330
D6
330
D8
330
D9
102
}
330
A
100
AcDbSymbolTableRecord
100
AcDbDimStyleTableRecord
  2
STANDARD
 70
     0
178
     0
340
F
  0
DIMSTYLE
105
1ADD
102
{ACAD_REACTORS
330
1034
330
1003
330
FFD
330
FD3
330
FCA
330
FC9
330
FBA
330
FA4
330
FA3
330
FA2
330
F9C
330
F9B
330
F86
330
F82
330
F81
330
F80
330
F7F
330
F7C
102
}
330
A
100
AcDbSymbolTableRecord
100
AcDbDimStyleTableRecord
  2
A3-20
 70
     0
 40
20.0
 41
2.0
 42
2.0
 43
7.0
 44
0.5
 73
     0
 74
     0
 77
     1
 78
     8
140
2.5
141
0.0
145
1.0
147
0.7
174
     1
178
     0
179
     4
271
     0
272
     0
279
     2
284
     8
285
     8
286
     8
340
F
1001
ACAD_DSTYLE_DIMJOGGED_JOGANGLE_SYMBOL
1070
   384
1040
0.7853981633974483
1001
ACAD_DSTYLE_DIMJAG
1070
   388
1040
1.5
1001
ACAD_DSTYLE_DIMTALN
1070
   392
1070
     0
  0
ENDTAB
  0
TABLE
  2
BLOCK_RECORD
  5
1
330
0
100
AcDbSymbolTable
 70
   100
  0
BLOCK_RECORD
  5
17
330
1
100
AcDbSymbolTableRecord
100
AcDbBlockTableRecord
  2
*MODEL_SPACE
340
BE2
  0
BLOCK_RECORD
  5
14
330
1
100
AcDbSymbolTableRecord
100
AcDbBlockTableRecord
  2
*PAPER_SPACE
340
BE3
  0
BLOCK_RECORD
  5
1C
330
1
100
AcDbSymbolTableRecord
100
AcDbBlockTableRecord
  2
BORDER
340
0
  0
BLOCK_RECORD
  5
1D
330
1
100
AcDbSymbolTableRecord
100
AcDbBlockTableRecord
  2
SA3
340
0
  0
BLOCK_RECORD
  5
80
330
1
100
AcDbSymbolTableRecord
100
AcDbBlockTableRecord
  2
*D2
340
0
  0
BLOCK_RECORD
  5
8C
330
1
100
AcDbSymbolTableRecord
100
AcDbBlockTableRecord
  2
*D3
340
0
  0
BLOCK_RECORD
  5
98
330
1
100
AcDbSymbolTableRecord
100
AcDbBlockTableRecord
  2
*D4
340
0
  0
BLOCK_RECORD
  5
A4
330
1
100
AcDbSymbolTableRecord
100
AcDbBlockTableRecord
  2
*D5
340
0
  0
BLOCK_RECORD
  5
B0
330
1
100
AcDbSymbolTableRecord
100
AcDbBlockTableRecord
  2
*D6
340
0
  0
BLOCK_RECORD
  5
B9
330
1
100
AcDbSymbolTableRecord
100
AcDbBlockTableRecord
  2
A$C630D7A2A
340
0
  0
BLOCK_RECORD
  5
ACD
330
1
100
AcDbSymbolTableRecord
100
AcDbBlockTableRecord
  2
A$C2B0B7F09
340
0
  0
BLOCK_RECORD
  5
1061
330
1
100
AcDbSymbolTableRecord
100
AcDbBlockTableRecord
  2
*D55
340
0
  0
BLOCK_RECORD
  5
106D
330
1
100
AcDbSymbolTableRecord
100
AcDbBlockTableRecord
  2
*D56
340
0
  0
BLOCK_RECORD
  5
1079
330
1
100
AcDbSymbolTableRecord
100
AcDbBlockTableRecord
  2
*D57
340
0
  0
BLOCK_RECORD
  5
10CF
330
1
100
AcDbSymbolTableRecord
100
AcDbBlockTableRecord
  2
*D64
340
0
  0
BLOCK_RECORD
  5
1126
330
1
100
AcDbSymbolTableRecord
100
AcDbBlockTableRecord
  2
*D71
340
0
  0
BLOCK_RECORD
  5
1132
330
1
100
AcDbSymbolTableRecord
100
AcDbBlockTableRecord
  2
*D72
340
0
  0
BLOCK_RECORD
  5
116F
330
1
100
AcDbSymbolTableRecord
100
AcDbBlockTableRecord
  2
*D77
340
0
  0
BLOCK_RECORD
  5
117B
330
1
100
AcDbSymbolTableRecord
100
AcDbBlockTableRecord
  2
*D78
340
0
  0
BLOCK_RECORD
  5
1187
330
1
100
AcDbSymbolTableRecord
100
AcDbBlockTableRecord
  2
*D79
340
0
  0
BLOCK_RECORD
  5
11A0
330
1
100
AcDbSymbolTableRecord
100
AcDbBlockTableRecord
  2
*D81
340
0
  0
BLOCK_RECORD
  5
11AC
330
1
100
AcDbSymbolTableRecord
100
AcDbBlockTableRecord
  2
*D82
340
0
  0
BLOCK_RECORD
  5
11B8
330
1
100
AcDbSymbolTableRecord
100
AcDbBlockTableRecord
  2
*D83
340
0
  0
BLOCK_RECORD
  5
11C4
330
1
100
AcDbSymbolTableRecord
100
AcDbBlockTableRecord
  2
*D84
340
0
  0
BLOCK_RECORD
  5
1241
330
1
100
AcDbSymbolTableRecord
100
AcDbBlockTableRecord
  2
*D94
340
0
  0
BLOCK_RECORD
  5
1249
330
1
100
AcDbSymbolTableRecord
100
AcDbBlockTableRecord
  2
*D95
340
0
  0
ENDTAB
  0
ENDSEC
  0
SECTION
  2
BLOCKS
  0
BLOCK
  5
2D
330
17
100
AcDbEntity
  8
0
100
AcDbBlockBegin
  2
*MODEL_SPACE
 70
     0
 10
0.0
 20
0.0
 30
0.0
  3
*MODEL_SPACE
  1

  0
ENDBLK
  5
2E
330
17
100
AcDbEntity
  8
0
100
AcDbBlockEnd
  0
BLOCK
  5
2B
330
14
100
AcDbEntity
 67
     1
  8
0
100
AcDbBlockBegin
  2
*PAPER_SPACE
 70
     0
 10
0.0
 20
0.0
 30
0.0
  3
*PAPER_SPACE
  1

  0
ENDBLK
  5
2C
330
14
100
AcDbEntity
 67
     1
  8
0
100
AcDbBlockEnd
  0
BLOCK
  5
2F
330
1C
100
AcDbEntity
  8
0
100
AcDbBlockBegin
  2
BORDER
 70
     0
 10
0.0
 20
0.0
 30
0.0
  3
BORDER
  1

  0
LINE
  5
30
330
1C
100
AcDbEntity
  8
0
100
AcDbLine
 10
0.0
 20
0.0
 30
0.0
 11
1.00000000000004
 21
0.0
 31
0.0
  0
LINE
  5
31
330
1C
100
AcDbEntity
  8
0
100
AcDbLine
 10
1.00000000000004
 20
0.0
 30
0.0
 11
1.00000000000004
 21
1.00000000000004
 31
0.0
  0
LINE
  5
32
330
1C
100
AcDbEntity
  8
0
100
AcDbLine
 10
1.00000000000004
 20
1.00000000000004
 30
0.0
 11
0.0
 21
1.00000000000004
 31
0.0
  0
LINE
  5
33
330
1C
100
AcDbEntity
  8
0
100
AcDbLine
 10
0.0
 20
1.00000000000004
 30
0.0
 11
0.0
 21
0.0
 31
0.0
  0
ENDBLK
  5
34
330
1C
100
AcDbEntity
  8
0
100
AcDbBlockEnd
  0
BLOCK
  5
35
330
1D
100
AcDbEntity
  8
HAIKIN
100
AcDbBlockBegin
  2
SA3
 70
     0
 10
0.0
 20
0.0
 30
0.0
  3
SA3
  1

  0
TEXT
  5
36
330
1D
100
AcDbEntity
  8
SUNPOU
100
AcDbText
 10
340.0
 20
0.0
 30
0.0
 40
2.5
  1
新和コンクリート工業株式会社
100
AcDbText
  0
TEXT
  5
39
330
1D
100
AcDbEntity
  8
SUNPOU
100
AcDbText
 10
361.4166666666667
 20
6.25
 30
0.0
 40
2.5
  1
製図
 72
     4
 11
364.0
 21
7.5
 31
0.0
100
AcDbText
  0
TEXT
  5
3A
330
1D
100
AcDbEntity
  8
SUNPOU
100
AcDbText
 10
361.3333333333333
 20
11.25
 30
0.0
 40
2.5
  1
設計
 72
     4
 11
364.0
 21
12.5
 31
0.0
100
AcDbText
  0
TEXT
  5
3B
330
1D
100
AcDbEntity
  8
SUNPOU
100
AcDbText
 10
339.0833333333333
 20
6.250000000000014
 30
0.0
 40
2.5
  1
認
 72
     4
 11
340.25
 21
7.500000000000014
 31
0.0
100
AcDbText
  0
TEXT
  5
3C
330
1D
100
AcDbEntity
  8
SUNPOU
100
AcDbText
 10
339.0833333333333
 20
11.33333333333336
 30
0.0
 40
2.5
  1
承
 72
     4
 11
340.25
 21
12.50000000000003
 31
0.0
100
AcDbText
  0
TEXT
  5
3D
330
1D
100
AcDbEntity
  8
SUNPOU
100
AcDbText
 10
312.75
 20
11.75000000000001
 30
0.0
 40
2.5
  1
図　面　番　号
 72
     4
 11
323.0
 21
13.00000000000001
 31
0.0
100
AcDbText
  0
TEXT
  5
3E
330
1D
100
AcDbEntity
  8
SUNPOU
100
AcDbText
 10
362.0
 20
17.0
 30
0.0
 40
2.5
  1
１／
100
AcDbText
  0
TEXT
  5
3F
330
1D
100
AcDbEntity
  8
SUNPOU
100
AcDbText
 10
347.3333333333333
 20
16.25000000000001
 30
0.0
 40
2.5
  1
縮　　尺
 72
     4
 11
353.0
 21
17.50000000000001
 31
0.0
100
AcDbText
  0
TEXT
  5
40
330
1D
100
AcDbEntity
  8
SUNPOU
100
AcDbText
 10
347.3333333333333
 20
21.25
 30
0.0
 40
2.5
  1
鉄 筋 量
 72
     4
 11
353.0
 21
22.5
 31
0.0
100
AcDbText
  0
TEXT
  5
41
330
1D
100
AcDbEntity
  8
SUNPOU
100
AcDbText
 10
347.3333333333333
 20
26.25
 30
0.0
 40
2.5
  1
製 造 数
 72
     4
 11
353.0
 21
27.5
 31
0.0
100
AcDbText
  0
TEXT
  5
42
330
1D
100
AcDbEntity
  8
SUNPOU
100
AcDbText
 10
377.0
 20
21.0
 30
0.0
 40
2.5
  1
ｋｇ
 72
     2
 11
382.0
 21
21.0
 31
0.0
100
AcDbText
  0
TEXT
  5
43
330
1D
100
AcDbEntity
  8
SUNPOU
100
AcDbText
 10
339.5
 20
21.0
 30
0.0
 40
2.5
  1
ｋｇ
 72
     2
 11
344.5
 21
21.0
 31
0.0
100
AcDbText
  0
TEXT
  5
44
330
1D
100
AcDbEntity
  8
SUNPOU
100
AcDbText
 10
310.0
 20
16.25000000000001
 30
0.0
 40
2.5
  1
年 月 日
 72
     4
 11
315.5
 21
17.50000000000001
 31
0.0
100
AcDbText
  0
TEXT
  5
45
330
1D
100
AcDbEntity
  8
SUNPOU
100
AcDbText
 10
309.8333333333333
 20
21.25
 30
0.0
 40
2.5
  1
製品質量
 72
     4
 11
315.5
 21
22.5
 31
0.0
100
AcDbText
  0
TEXT
  5
46
330
1D
100
AcDbEntity
  8
SUNPOU
100
AcDbText
 10
309.9166666666667
 20
26.25
 30
0.0
 40
2.5
  1
業 者 名
 72
     4
 11
315.5
 21
27.5
 31
0.0
100
AcDbText
  0
TEXT
  5
47
330
1D
100
AcDbEntity
  8
SUNPOU
100
AcDbText
 10
309.8333333333333
 20
32.5
 30
0.0
 40
2.5
  1
名　　称
 72
     4
 11
315.5
 21
33.75
 31
0.0
100
AcDbText
  0
LINE
  5
48
330
1D
100
AcDbEntity
  8
SUNPOU
100
AcDbLine
 10
338.0
 20
11.00000000000001
 30
0.0
 11
308.0
 21
11.00000000000001
 31
0.0
  0
LINE
  5
49
330
1D
100
AcDbEntity
  8
SUNPOU
100
AcDbLine
 10
367.5
 20
4.999999999999986
 30
0.0
 11
367.5
 21
14.99999999999999
 31
0.0
  0
LINE
  5
4A
330
1D
100
AcDbEntity
  8
SUNPOU
100
AcDbLine
 10
360.5
 20
4.999999999999986
 30
0.0
 11
360.5
 21
14.99999999999999
 31
0.0
  0
LINE
  5
4B
330
1D
100
AcDbEntity
  8
SUNPOU
100
AcDbLine
 10
342.5
 20
4.999999999999995
 30
0.0
 11
342.5
 21
15.0
 31
0.0
  0
LINE
  5
4C
330
1D
100
AcDbEntity
  8
SUNPOU
100
AcDbLine
 10
338.0
 20
4.999999999999995
 30
0.0
 11
338.0
 21
15.0
 31
0.0
  0
LINE
  5
4D
330
1D
100
AcDbEntity
  8
SUNPOU
100
AcDbLine
 10
323.0
 20
15.00000000000001
 30
0.0
 11
323.0
 21
37.5
 31
0.0
  0
LINE
  5
4E
330
1D
100
AcDbEntity
  8
SUNPOU
100
AcDbLine
 10
360.5
 20
15.00000000000001
 30
0.0
 11
360.5
 21
30.0
 31
0.0
  0
LINE
  5
4F
330
1D
100
AcDbEntity
  8
SUNPOU
100
AcDbLine
 10
345.5
 20
15.00000000000001
 30
0.0
 11
345.5
 21
30.0
 31
0.0
  0
LINE
  5
50
330
1D
100
AcDbEntity
  8
SUNPOU
100
AcDbLine
 10
383.0
 20
30.0
 30
0.0
 11
308.0
 21
30.0
 31
0.0
  0
LINE
  5
51
330
1D
100
AcDbEntity
  8
SUNPOU
100
AcDbLine
 10
383.0
 20
25.0
 30
0.0
 11
308.0
 21
25.0
 31
0.0
  0
LINE
  5
52
330
1D
100
AcDbEntity
  8
SUNPOU
100
AcDbLine
 10
383.0
 20
20.0
 30
0.0
 11
308.0
 21
20.0
 31
0.0
  0
LINE
  5
53
330
1D
100
AcDbEntity
  8
SUNPOU
100
AcDbLine
 10
383.0
 20
14.99999999999999
 30
0.0
 11
308.0
 21
15.00000000000004
 31
0.0
  0
LINE
  5
54
330
1D
100
AcDbEntity
  8
HAIKIN
100
AcDbLine
 10
308.0
 20
37.5
 30
0.0
 11
383.0
 21
37.5
 31
0.0
  0
LINE
  5
55
330
1D
100
AcDbEntity
  8
HAIKIN
100
AcDbLine
 10
308.0
 20
5.000000000000009
 30
0.0
 11
308.0
 21
37.5
 31
0.0
  0
LINE
  5
56
330
1D
100
AcDbEntity
  8
SUNPOU
100
AcDbLine
 10
0.000000000000016
 20
277.0
 30
0.0
 11
0.000000000000016
 21
272.0
 31
0.0
  0
LINE
  5
57
330
1D
100
AcDbEntity
  8
SUNPOU
100
AcDbLine
 10
25.00000000000001
 20
277.0
 30
0.0
 11
0.000000000000016
 21
277.0
 31
0.0
  0
LINE
  5
58
330
1D
100
AcDbEntity
  8
SUNPOU
100
AcDbLine
 10
25.00000000000001
 20
272.0
 30
0.0
 11
25.00000000000001
 21
277.0
 31
0.0
  0
LINE
  5
59
330
1D
100
AcDbEntity
  8
HAIKIN
100
AcDbLine
 10
0.0000000000000004
 20
5.0
 30
0.0
 11
383.0
 21
5.0
 31
0.0
  0
LINE
  5
5A
330
1D
100
AcDbEntity
  8
HAIKIN
100
AcDbLine
 10
0.0000000000000158
 20
272.0
 30
0.0
 11
383.0
 21
272.0
 31
0.0
  0
LINE
  5
5B
330
1D
100
AcDbEntity
  8
HAIKIN
100
AcDbLine
 10
383.0
 20
272.0
 30
0.0
 11
383.0
 21
5.0
 31
0.0
  0
TEXT
  5
5C
330
1D
100
AcDbEntity
  8
SUNPOU
100
AcDbText
 10
3.700000000000017
 20
273.0
 30
0.0
 40
3.0
  1
Ｈ－２－共
 72
     4
 11
12.50000000000002
 21
274.5
 31
0.0
100
AcDbText
  0
LINE
  5
5D
330
1D
100
AcDbEntity
  8
HAIKIN
100
AcDbLine
 10
0.0000000000000004
 20
5.0
 30
0.0
 11
0.0000000000000158
 21
272.0
 31
0.0
  0
ENDBLK
  5
5E
330
1D
100
AcDbEntity
  8
HAIKIN
100
AcDbBlockEnd
  0
BLOCK
  5
8A
330
80
100
AcDbEntity
  8
0
100
AcDbBlockBegin
  2
*D2
 70
     1
 10
0.0
 20
0.0
 30
0.0
  3
*D2
  1

  0
LINE
  5
81
330
80
100
AcDbEntity
  8
0
  6
ByBlock
 62
     0
440
 16777216
100
AcDbLine
 10
1328.918641876931
 20
1063.120542006091
 30
0.0
 11
1734.384164675743
 21
1063.120542006091
 31
0.0
  0
LINE
  5
82
330
80
100
AcDbEntity
  8
0
  6
ByBlock
 62
     0
440
 16777216
100
AcDbLine
 10
1408.918641876931
 20
943.1205420060905
 30
0.0
 11
1734.384164675743
 21
943.1205420060905
 31
0.0
  0
LINE
  5
83
330
80
100
AcDbEntity
  8
0
  6
ByBlock
 62
     0
440
 16777216
100
AcDbLine
 10
1724.384164675743
 20
1043.120542006091
 30
0.0
 11
1724.384164675743
 21
963.1205420060905
 31
0.0
  0
SOLID
  5
84
330
80
100
AcDbEntity
  8
0
  6
ByBlock
 62
     0
440
 16777216
100
AcDbTrace
 10
1721.05083134241
 20
1043.120542006091
 30
0.0
 11
1727.717498009076
 21
1043.120542006091
 31
0.0
 12
1724.384164675743
 22
1063.120542006091
 32
0.0
 13
1724.384164675743
 23
1063.120542006091
 33
0.0
  0
SOLID
  5
85
330
80
100
AcDbEntity
  8
0
  6
ByBlock
 62
     0
440
 16777216
100
AcDbTrace
 10
1721.05083134241
 20
963.1205420060905
 30
0.0
 11
1727.717498009076
 21
963.1205420060905
 31
0.0
 12
1724.384164675743
 22
943.1205420060905
 32
0.0
 13
1724.384164675743
 23
943.1205420060905
 33
0.0
  0
MTEXT
  5
86
330
80
100
AcDbEntity
  8
0
  6
ByBlock
 62
     0
440
 16777216
100
AcDbMText
 10
1699.384164675743
 20
1003.12054200609
 30
0.0
 40
25.0
 41
0.0
 71
     5
 72
     1
  1
\A1;120
 11
6.123031769111886E-17
 21
1.0
 31
0.0
 73
     1
 44
1.0
  0
POINT
  5
87
330
80
100
AcDbEntity
  8
DEFPOINTS
  6
ByBlock
 62
     0
440
 16777216
100
AcDbPoint
 10
1308.918641876931
 20
1063.120542006091
 30
0.0
  0
POINT
  5
88
330
80
100
AcDbEntity
  8
DEFPOINTS
  6
ByBlock
 62
     0
440
 16777216
100
AcDbPoint
 10
1388.918641876931
 20
943.1205420060905
 30
0.0
  0
POINT
  5
89
330
80
100
AcDbEntity
  8
DEFPOINTS
  6
ByBlock
 62
     0
440
 16777216
100
AcDbPoint
 10
1724.384164675743
 20
943.1205420060905
 30
0.0
  0
ENDBLK
  5
8B
330
80
100
AcDbEntity
  8
0
100
AcDbBlockEnd
  0
BLOCK
  5
96
330
8C
100
AcDbEntity
  8
0
100
AcDbBlockBegin
  2
*D3
 70
     1
 10
0.0
 20
0.0
 30
0.0
  3
*D3
  1

  0
LINE
  5
8D
330
8C
100
AcDbEntity
  8
0
  6
ByBlock
 62
     0
440
 16777216
100
AcDbLine
 10
1328.918641876931
 20
910.6599650098688
 30
0.0
 11
1674.384164675743
 21
910.6599650098688
 31
0.0
  0
LINE
  5
8E
330
8C
100
AcDbEntity
  8
0
  6
ByBlock
 62
     0
440
 16777216
100
AcDbLine
 10
1408.918641876931
 20
850.6599650098688
 30
0.0
 11
1674.384164675743
 21
850.6599650098688
 31
0.0
  0
LINE
  5
8F
330
8C
100
AcDbEntity
  8
0
  6
ByBlock
 62
     0
440
 16777216
100
AcDbLine
 10
1664.384164675743
 20
890.6599650098688
 30
0.0
 11
1664.384164675743
 21
870.6599650098688
 31
0.0
  0
SOLID
  5
90
330
8C
100
AcDbEntity
  8
0
  6
ByBlock
 62
     0
440
 16777216
100
AcDbTrace
 10
1661.05083134241
 20
890.6599650098688
 30
0.0
 11
1667.717498009076
 21
890.6599650098688
 31
0.0
 12
1664.384164675743
 22
910.6599650098688
 32
0.0
 13
1664.384164675743
 23
910.6599650098688
 33
0.0
  0
SOLID
  5
91
330
8C
100
AcDbEntity
  8
0
  6
ByBlock
 62
     0
440
 16777216
100
AcDbTrace
 10
1661.05083134241
 20
870.6599650098688
 30
0.0
 11
1667.717498009076
 21
870.6599650098688
 31
0.0
 12
1664.384164675743
 22
850.6599650098688
 32
0.0
 13
1664.384164675743
 23
850.6599650098688
 33
0.0
  0
MTEXT
  5
92
330
8C
100
AcDbEntity
  8
0
  6
ByBlock
 62
     0
440
 16777216
100
AcDbMText
 10
1639.384164675743
 20
880.6599650098688
 30
0.0
 40
25.0
 41
0.0
 71
     5
 72
     1
  1
\A1;60
 11
6.123031769111886E-17
 21
1.0
 31
0.0
 73
     1
 44
1.0
  0
POINT
  5
93
330
8C
100
AcDbEntity
  8
DEFPOINTS
  6
ByBlock
 62
     0
440
 16777216
100
AcDbPoint
 10
1308.918641876931
 20
910.6599650098688
 30
0.0
  0
POINT
  5
94
330
8C
100
AcDbEntity
  8
DEFPOINTS
  6
ByBlock
 62
     0
440
 16777216
100
AcDbPoint
 10
1388.918641876931
 20
850.6599650098688
 30
0.0
  0
POINT
  5
95
330
8C
100
AcDbEntity
  8
DEFPOINTS
  6
ByBlock
 62
     0
440
 16777216
100
AcDbPoint
 10
1664.384164675743
 20
850.6599650098688
 30
0.0
  0
ENDBLK
  5
97
330
8C
100
AcDbEntity
  8
0
100
AcDbBlockEnd
  0
BLOCK
  5
A2
330
98
100
AcDbEntity
  8
0
100
AcDbBlockBegin
  2
*D4
 70
     1
 10
0.0
 20
0.0
 30
0.0
  3
*D4
  1

  0
LINE
  5
99
330
98
100
AcDbEntity
  8
0
  6
ByBlock
 62
     0
440
 16777216
100
AcDbLine
 10
1408.918641876931
 20
850.6599650098689
 30
0.0
 11
1674.384164675743
 21
850.6599650098689
 31
0.0
  0
LINE
  5
9A
330
98
100
AcDbEntity
  8
0
  6
ByBlock
 62
     0
440
 16777216
100
AcDbLine
 10
1408.918641876931
 20
790.6599650098689
 30
0.0
 11
1674.384164675743
 21
790.6599650098689
 31
0.0
  0
LINE
  5
9B
330
98
100
AcDbEntity
  8
0
  6
ByBlock
 62
     0
440
 16777216
100
AcDbLine
 10
1664.384164675743
 20
830.6599650098689
 30
0.0
 11
1664.384164675743
 21
810.6599650098689
 31
0.0
  0
SOLID
  5
9C
330
98
100
AcDbEntity
  8
0
  6
ByBlock
 62
     0
440
 16777216
100
AcDbTrace
 10
1661.05083134241
 20
830.6599650098689
 30
0.0
 11
1667.717498009076
 21
830.6599650098689
 31
0.0
 12
1664.384164675743
 22
850.6599650098689
 32
0.0
 13
1664.384164675743
 23
850.6599650098689
 33
0.0
  0
SOLID
  5
9D
330
98
100
AcDbEntity
  8
0
  6
ByBlock
 62
     0
440
 16777216
100
AcDbTrace
 10
1661.05083134241
 20
810.6599650098689
 30
0.0
 11
1667.717498009076
 21
810.6599650098689
 31
0.0
 12
1664.384164675743
 22
790.6599650098689
 32
0.0
 13
1664.384164675743
 23
790.6599650098689
 33
0.0
  0
MTEXT
  5
9E
330
98
100
AcDbEntity
  8
0
  6
ByBlock
 62
     0
440
 16777216
100
AcDbMText
 10
1639.384164675743
 20
820.6599650098689
 30
0.0
 40
25.0
 41
0.0
 71
     5
 72
     1
  1
\A1;60
 11
6.123031769111886E-17
 21
1.0
 31
0.0
 73
     1
 44
1.0
  0
POINT
  5
9F
330
98
100
AcDbEntity
  8
DEFPOINTS
  6
ByBlock
 62
     0
440
 16777216
100
AcDbPoint
 10
1388.918641876931
 20
850.6599650098689
 30
0.0
  0
POINT
  5
A0
330
98
100
AcDbEntity
  8
DEFPOINTS
  6
ByBlock
 62
     0
440
 16777216
100
AcDbPoint
 10
1388.918641876931
 20
790.6599650098689
 30
0.0
  0
POINT
  5
A1
330
98
100
AcDbEntity
  8
DEFPOINTS
  6
ByBlock
 62
     0
440
 16777216
100
AcDbPoint
 10
1664.384164675743
 20
790.6599650098689
 30
0.0
  0
ENDBLK
  5
A3
330
98
100
AcDbEntity
  8
0
100
AcDbBlockEnd
  0
BLOCK
  5
AE
330
A4
100
AcDbEntity
  8
0
100
AcDbBlockBegin
  2
*D5
 70
     1
 10
0.0
 20
0.0
 30
0.0
  3
*D5
  1

  0
LINE
  5
A5
330
A4
100
AcDbEntity
  8
0
  6
ByBlock
 62
     0
440
 16777216
100
AcDbLine
 10
1308.918641876931
 20
930.6599650098688
 30
0.0
 11
1308.918641876931
 21
1103.301880364135
 31
0.0
  0
LINE
  5
A6
330
A4
100
AcDbEntity
  8
0
  6
ByBlock
 62
     0
440
 16777216
100
AcDbLine
 10
1388.918641876931
 20
870.6599650098689
 30
0.0
 11
1388.918641876931
 21
1103.301880364135
 31
0.0
  0
LINE
  5
A7
330
A4
100
AcDbEntity
  8
0
  6
ByBlock
 62
     0
440
 16777216
100
AcDbLine
 10
1328.918641876931
 20
1093.301880364135
 30
0.0
 11
1368.918641876931
 21
1093.301880364135
 31
0.0
  0
SOLID
  5
A8
330
A4
100
AcDbEntity
  8
0
  6
ByBlock
 62
     0
440
 16777216
100
AcDbTrace
 10
1328.918641876931
 20
1096.635213697469
 30
0.0
 11
1328.918641876931
 21
1089.968547030802
 31
0.0
 12
1308.918641876931
 22
1093.301880364135
 32
0.0
 13
1308.918641876931
 23
1093.301880364135
 33
0.0
  0
SOLID
  5
A9
330
A4
100
AcDbEntity
  8
0
  6
ByBlock
 62
     0
440
 16777216
100
AcDbTrace
 10
1368.918641876931
 20
1096.635213697469
 30
0.0
 11
1368.918641876931
 21
1089.968547030802
 31
0.0
 12
1388.918641876931
 22
1093.301880364135
 32
0.0
 13
1388.918641876931
 23
1093.301880364135
 33
0.0
  0
MTEXT
  5
AA
330
A4
100
AcDbEntity
  8
0
  6
ByBlock
 62
     0
440
 16777216
100
AcDbMText
 10
1348.918641876931
 20
1118.301880364135
 30
0.0
 40
25.0
 41
0.0
 71
     5
 72
     1
  1
\A1;80
 73
     1
 44
1.0
  0
POINT
  5
AB
330
A4
100
AcDbEntity
  8
DEFPOINTS
  6
ByBlock
 62
     0
440
 16777216
100
AcDbPoint
 10
1308.918641876931
 20
910.6599650098688
 30
0.0
  0
POINT
  5
AC
330
A4
100
AcDbEntity
  8
DEFPOINTS
  6
ByBlock
 62
     0
440
 16777216
100
AcDbPoint
 10
1388.918641876931
 20
850.6599650098689
 30
0.0
  0
POINT
  5
AD
330
A4
100
AcDbEntity
  8
DEFPOINTS
  6
ByBlock
 62
     0
440
 16777216
100
AcDbPoint
 10
1388.918641876931
 20
1093.301880364135
 30
0.0
  0
ENDBLK
  5
AF
330
A4
100
AcDbEntity
  8
0
100
AcDbBlockEnd
  0
BLOCK
  5
B6
330
B0
100
AcDbEntity
  8
0
100
AcDbBlockBegin
  2
*D6
 70
     1
 10
0.0
 20
0.0
 30
0.0
  3
*D6
  1

  0
LINE
  5
B1
330
B0
100
AcDbEntity
  8
0
  6
ByBlock
 62
     0
440
 16777216
100
AcDbLine
 10
968.9186418769314
 20
990.659965009869
 30
0.0
 11
928.1098170263085
 21
946.6754243812437
 31
0.0
  0
MTEXT
  5
B2
330
B0
100
AcDbEntity
  8
0
  6
ByBlock
 62
     0
440
 16777216
100
AcDbMText
 10
1000.539969260484
 20
1027.488583691892
 30
0.0
 40
25.0
 41
0.0
 71
     5
 72
     1
  1
\A1;R80
 11
0.6801470808437141
 21
0.7330756771437545
 31
0.0
 73
     1
 44
1.0
  0
SOLID
  5
B3
330
B0
100
AcDbEntity
  8
0
  6
ByBlock
 62
     0
440
 16777216
100
AcDbTrace
 10
925.6662314358293
 20
948.9425813173892
 30
0.0
 11
930.5534026167877
 21
944.4082674450979
 31
0.0
 12
914.5068754094342
 22
932.0139108383685
 32
0.0
 13
914.5068754094342
 23
932.0139108383685
 33
0.0
  0
POINT
  5
B4
330
B0
100
AcDbEntity
  8
DEFPOINTS
  6
ByBlock
 62
     0
440
 16777216
100
AcDbPoint
 10
914.5068754094342
 20
932.0139108383685
 30
0.0
  0
POINT
  5
B5
330
B0
100
AcDbEntity
  8
DEFPOINTS
  6
ByBlock
 62
     0
440
 16777216
100
AcDbPoint
 10
968.9186418769314
 20
990.659965009869
 30
0.0
  0
ENDBLK
  5
B7
330
B0
100
AcDbEntity
  8
0
100
AcDbBlockEnd
  0
BLOCK
  5
147
330
B9
100
AcDbEntity
  8
0
100
AcDbBlockBegin
  2
A$C630D7A2A
 70
     0
 10
0.0
 20
0.0
 30
0.0
  3
A$C630D7A2A
  1

  0
LINE
  5
BA
330
B9
100
AcDbEntity
  8
SUNPOU
100
AcDbLine
 10
959.736976452632
 20
1106.506644244947
 30
0.0
 11
2281.976822896288
 21
1106.506644244946
 31
0.0
  0
LINE
  5
BB
330
B9
100
AcDbEntity
  8
HASEN
100
AcDbLine
 10
1281.976822896288
 20
282.9999977848383
 30
0.0
 11
2281.976822896289
 21
282.9999977848383
 31
0.0
  0
LEADER
  5
BC
330
B9
100
AcDbEntity
  8
SUNPOU
100
AcDbLeader
  3
STANDARD
 76
     2
 10
1503.976822896288
 20
309.0026842404862
 30
0.0
 10
1695.976822896288
 20
309.0026842404862
 30
0.0
1001
ACAD
1000
DSTYLE
1002
{
1070
     5
1000

1070
    40
1040
10.0
1070
    41
1040
2.0
1070
    42
1040
2.0
1070
    43
1040
7.0
1070
    44
1040
1.0
1070
    73
1070
     0
1070
    74
1070
     0
1070
    78
1070
     8
1070
   140
1040
2.5
1070
   141
1040
0.0
1070
   145
1040
1.0
1070
   275
1070
     1
1070
   284
1070
     8
1070
   285
1070
     8
1070
   286
1070
     8
1070
   287
1070
     5
1070
   342
1005
0
1002
}
  0
LEADER
  5
BD
330
B9
100
AcDbEntity
  8
SUNPOU
100
AcDbLeader
  3
STANDARD
 76
     2
 10
1513.976822896288
 20
1106.506644244947
 30
0.0
 10
1321.976822896288
 20
1106.506644244947
 30
0.0
1001
ACAD
1000
DSTYLE
1002
{
1070
     5
1000

1070
    40
1040
10.0
1070
    41
1040
2.0
1070
    42
1040
2.0
1070
    43
1040
7.0
1070
    44
1040
1.0
1070
    73
1070
     0
1070
    74
1070
     0
1070
    78
1070
     8
1070
   140
1040
2.5
1070
   141
1040
0.0
1070
   145
1040
1.0
1070
   275
1070
     1
1070
   284
1070
     8
1070
   285
1070
     8
1070
   286
1070
     8
1070
   287
1070
     5
1070
   342
1005
0
1002
}
  0
LWPOLYLINE
  5
BE
330
B9
100
AcDbEntity
  8
SUNPOU
100
AcDbPolyline
 90
        2
 70
     1
 43
4.95
 10
1511.451822896287
 20
192.9999977848383
 42
1.0
 10
1516.501822896288
 20
192.9999977848383
 42
1.0
  0
LWPOLYLINE
  5
BF
330
B9
100
AcDbEntity
  8
SUNPOU
100
AcDbPolyline
 90
        2
 70
     1
 43
4.95
 10
1511.451822896287
 20
252.999997784838
 42
1.0
 10
1516.501822896288
 20
252.999997784838
 42
1.0
  0
LINE
  5
C0
330
B9
100
AcDbEntity
  8
HAIKIN
100
AcDbLine
 10
1301.976822896288
 20
244.9999977848381
 30
0.0
 11
2281.976822896288
 21
244.9999977848381
 31
0.0
  0
LINE
  5
C1
330
B9
100
AcDbEntity
  8
HAIKIN
100
AcDbLine
 10
1301.976822896288
 20
507.9999977848386
 30
0.0
 11
2281.976822896288
 21
507.9999977848386
 31
0.0
  0
LINE
  5
C2
330
B9
100
AcDbEntity
  8
HAIKIN
100
AcDbLine
 10
1301.976822896288
 20
752.9999977848386
 30
0.0
 11
2281.976822896288
 21
752.9999977848386
 31
0.0
  0
LINE
  5
C3
330
B9
100
AcDbEntity
  8
HAIKIN
100
AcDbLine
 10
1301.976822896288
 20
997.9999977848386
 30
0.0
 11
2281.976822896288
 21
997.9999977848386
 31
0.0
  0
LINE
  5
C4
330
B9
100
AcDbEntity
  8
HAIKIN
100
AcDbLine
 10
1301.976822896288
 20
200.9999977848383
 30
0.0
 11
2281.976822896288
 21
200.9999977848381
 31
0.0
  0
LINE
  5
C5
330
B9
100
AcDbEntity
  8
HAIKIN
100
AcDbLine
 10
1301.976822896288
 20
1242.999997784839
 30
0.0
 11
2281.976822896288
 21
1242.999997784839
 31
0.0
  0
LINE
  5
C6
330
B9
100
AcDbEntity
  8
SUNPOU
100
AcDbLine
 10
1281.976822896288
 20
162.9999977848383
 30
0.0
 11
2281.976822896287
 21
162.9999977848383
 31
0.0
  0
LINE
  5
C7
330
B9
100
AcDbEntity
  8
SUNPOU
100
AcDbLine
 10
1281.976822896288
 20
1282.999997784838
 30
0.0
 11
2281.976822896288
 21
1282.999997784838
 31
0.0
  0
LEADER
  5
C8
330
B9
100
AcDbEntity
  8
SUNPOU
100
AcDbLeader
  3
STANDARD
 76
     3
 10
229.3200875962164
 20
758.9999977848388
 30
0.0
 10
315.0778082627312
 20
873.0535803463317
 30
0.0
 10
565.4380575288906
 20
873.0535803463317
 30
0.0
1001
ACAD
1000
DSTYLE
1002
{
1070
     5
1000

1070
    40
1040
10.0
1070
    41
1040
2.0
1070
    42
1040
2.0
1070
    43
1040
7.0
1070
    44
1040
1.0
1070
    73
1070
     0
1070
    74
1070
     0
1070
    78
1070
     8
1070
   140
1040
2.5
1070
   141
1040
0.0
1070
   145
1040
1.0
1070
   275
1070
     1
1070
   284
1070
     8
1070
   285
1070
     8
1070
   286
1070
     8
1070
   287
1070
     5
1070
   342
1005
0
1002
}
  0
LEADER
  5
C9
330
B9
100
AcDbEntity
  8
SUNPOU
100
AcDbLeader
  3
STANDARD
 76
     3
 10
267.9218676798143
 20
758.9999977848388
 30
0.0
 10
353.6795883463292
 20
873.0535803463317
 30
0.0
 10
604.0398376124886
 20
873.0535803463317
 30
0.0
1001
ACAD
1000
DSTYLE
1002
{
1070
     5
1000

1070
    40
1040
10.0
1070
    41
1040
2.0
1070
    42
1040
2.0
1070
    43
1040
7.0
1070
    44
1040
1.0
1070
    73
1070
     0
1070
    74
1070
     0
1070
    78
1070
     8
1070
   140
1040
2.5
1070
   141
1040
0.0
1070
   145
1040
1.0
1070
   275
1070
     1
1070
   284
1070
     8
1070
   285
1070
     8
1070
   286
1070
     8
1070
   287
1070
     5
1070
   342
1005
0
1002
}
  0
LEADER
  5
CA
330
B9
100
AcDbEntity
  8
SUNPOU
100
AcDbLeader
  3
STANDARD
 76
     2
 10
1440.067580811962
 20
997.9999977848388
 30
0.0
 10
1440.067580811962
 20
752.9999977848388
 30
0.0
1001
ACAD
1000
DSTYLE
1002
{
1070
     5
1000

1070
    40
1040
10.0
1070
    41
1040
2.0
1070
    42
1040
2.0
1070
    43
1040
7.0
1070
    44
1040
1.0
1070
    73
1070
     0
1070
    74
1070
     0
1070
    78
1070
     8
1070
   140
1040
2.5
1070
   141
1040
0.0
1070
   145
1040
1.0
1070
   275
1070
     1
1070
   284
1070
     8
1070
   285
1070
     8
1070
   286
1070
     8
1070
   287
1070
     5
1070
   342
1005
0
1002
}
  0
LINE
  5
CB
330
B9
100
AcDbEntity
  8
HAIKIN
100
AcDbLine
 10
1321.976822896288
 20
1262.999997784839
 30
0.0
 11
1321.976822896288
 21
192.9999977848383
 31
0.0
  0
LINE
  5
CC
330
B9
100
AcDbEntity
  8
HAIKIN
100
AcDbLine
 10
228.4920027314397
 20
1262.999997784838
 30
0.0
 11
207.8747180798659
 21
213.39277915926
 31
0.0
  0
LINE
  5
CD
330
B9
100
AcDbEntity
  8
HAIKIN
100
AcDbLine
 10
268.8790728049153
 20
1262.999997784838
 30
0.0
 11
268.8790728049153
 21
192.9999977848383
 31
0.0
  0
LINE
  5
CE
330
B9
100
AcDbEntity
  8
SUNPOU
100
AcDbLine
 10
1281.976822896288
 20
1282.999997784838
 30
0.0
 11
1281.976822896288
 21
162.9999977848383
 31
0.0
  0
LINE
  5
CF
330
B9
100
AcDbEntity
  8
SUNPOU
100
AcDbLine
 10
198.8790728049153
 20
1282.999997784838
 30
0.0
 11
176.8790728049153
 21
162.9999977848383
 31
0.0
  0
LINE
  5
D0
330
B9
100
AcDbEntity
  8
SUNPOU
100
AcDbLine
 10
298.8790728049153
 20
1282.999997784838
 30
0.0
 11
298.8790728049153
 21
362.9999977848383
 31
0.0
  0
LEADER
  5
D1
330
B9
100
AcDbEntity
  8
SUNPOU
100
AcDbLeader
  3
STANDARD
 76
     3
 10
419.3209926586517
 20
252.9999977848381
 30
0.0
 10
419.3209926586517
 20
58.0315611644146
 30
0.0
 10
0.000002087728717
 20
58.0315611644146
 30
0.0
1001
ACAD
1000
DSTYLE
1002
{
1070
     5
1000

1070
    40
1040
10.0
1070
    41
1040
2.0
1070
    42
1040
2.0
1070
    43
1040
7.0
1070
    44
1040
1.0
1070
    73
1070
     0
1070
    74
1070
     0
1070
    78
1070
     8
1070
   140
1040
2.5
1070
   141
1040
0.0
1070
   145
1040
1.0
1070
   275
1070
     1
1070
   284
1070
     8
1070
   285
1070
     8
1070
   286
1070
     8
1070
   287
1070
     5
1070
   342
1005
0
1002
}
  0
LINE
  5
D2
330
B9
100
AcDbEntity
  8
SUNPOU
100
AcDbLine
 10
176.8790728049153
 20
162.9999977848383
 30
0.0
 11
798.8790728049153
 21
162.9999977848385
 31
0.0
  0
DIMENSION
  5
D3
330
B9
100
AcDbEntity
  8
SUNPOU
100
AcDbDimension
  2
*D4
 10
1074.344595603727
 20
162.9999977848385
 30
0.0
 11
1049.344595603727
 21
192.9999977848385
 31
0.0
 12
-590.0395690720161
 22
-627.6599672250304
 32
0.0
 71
     5
 42
-1.0
  3
STANDARD
100
AcDbAlignedDimension
 13
798.8790728049153
 23
222.9999977848385
 33
0.0
 14
798.8790728049153
 24
162.9999977848385
 34
0.0
 50
90.0
100
AcDbRotatedDimension
1001
ACAD
1000
DSTYLE
1002
{
1070
   287
1070
     5
1070
   287
1070
     5
1070
   287
1070
     5
1070
    40
1040
10.0
1070
    41
1040
2.0
1070
    42
1040
2.0
1070
    43
1040
7.0
1070
    44
1040
1.0
1070
    73
1070
     0
1070
    74
1070
     0
1070
    78
1070
     8
1070
   140
1040
2.5
1070
   141
1040
0.0
1070
   145
1040
1.0
1070
   275
1070
     1
1070
   279
1070
     2
1070
   284
1070
     8
1070
   285
1070
     8
1070
   286
1070
     8
1002
}
  0
DIMENSION
  5
D4
330
B9
100
AcDbEntity
  8
SUNPOU
100
AcDbDimension
  2
*D3
 10
1074.344595603727
 20
222.9999977848383
 30
0.0
 11
1049.344595603727
 21
252.9999977848383
 31
0.0
 12
-590.0395690720161
 22
-627.6599672250304
 32
0.0
 71
     5
 42
-1.0
  3
STANDARD
100
AcDbAlignedDimension
 13
718.8790728049153
 23
282.9999977848383
 33
0.0
 14
798.8790728049153
 24
222.9999977848383
 34
0.0
 50
90.0
100
AcDbRotatedDimension
1001
ACAD
1000
DSTYLE
1002
{
1070
   287
1070
     5
1070
   287
1070
     5
1070
   287
1070
     5
1070
    40
1040
10.0
1070
    41
1040
2.0
1070
    42
1040
2.0
1070
    43
1040
7.0
1070
    44
1040
1.0
1070
    73
1070
     0
1070
    74
1070
     0
1070
    78
1070
     8
1070
   140
1040
2.5
1070
   141
1040
0.0
1070
   145
1040
1.0
1070
   275
1070
     1
1070
   279
1070
     2
1070
   284
1070
     8
1070
   285
1070
     8
1070
   286
1070
     8
1002
}
  0
LEADER
  5
D5
330
B9
100
AcDbEntity
  8
SUNPOU
100
AcDbLeader
  3
STANDARD
 76
     3
 10
770.4987332130349
 20
248.9999977848381
 30
0.0
 10
770.4987332130349
 20
350.551300446703
 30
0.0
 10
1155.289369866668
 20
350.551300446703
 30
0.0
1001
ACAD
1000
DSTYLE
1002
{
1070
     5
1000

1070
    40
1040
10.0
1070
    41
1040
2.0
1070
    42
1040
2.0
1070
    43
1040
7.0
1070
    44
1040
1.0
1070
    73
1070
     0
1070
    74
1070
     0
1070
    78
1070
     8
1070
   140
1040
2.5
1070
   141
1040
0.0
1070
   145
1040
1.0
1070
   275
1070
     1
1070
   284
1070
     8
1070
   285
1070
     8
1070
   286
1070
     8
1070
   287
1070
     5
1070
   342
1005
0
1002
}
  0
DIMENSION
  5
D6
330
B9
100
AcDbEntity
  8
SUNPOU
100
AcDbDimension
  2
*D2
 10
1134.344595603727
 20
162.9999977848383
 30
0.0
 11
1109.344595603727
 21
222.9999977848382
 31
0.0
 12
-590.0395690720161
 22
-780.1205442212522
 32
0.0
 71
     5
 42
-1.0
  3
STANDARD
100
AcDbAlignedDimension
 13
718.8790728049153
 23
282.9999977848383
 33
0.0
 14
798.8790728049153
 24
162.9999977848383
 34
0.0
 50
90.0
100
AcDbRotatedDimension
1001
ACAD
1000
DSTYLE
1002
{
1070
   287
1070
     5
1070
   287
1070
     5
1070
   287
1070
     5
1070
    40
1040
10.0
1070
    41
1040
2.0
1070
    42
1040
2.0
1070
    43
1040
7.0
1070
    44
1040
1.0
1070
    73
1070
     0
1070
    74
1070
     0
1070
    78
1070
     8
1070
   140
1040
2.5
1070
   141
1040
0.0
1070
   145
1040
1.0
1070
   275
1070
     1
1070
   279
1070
     2
1070
   284
1070
     8
1070
   285
1070
     8
1070
   286
1070
     8
1002
}
  0
LINE
  5
D7
330
B9
100
AcDbEntity
  8
HAIKIN
100
AcDbLine
 10
538.8790728049153
 20
196.9999977848386
 30
0.0
 11
918.8790728049153
 21
196.9999977848382
 31
0.0
  0
DIMENSION
  5
D8
330
B9
100
AcDbEntity
  8
SUNPOU
100
AcDbDimension
  2
*D6
 10
378.8790728049153
 20
362.9999977848386
 30
0.0
 11
410.5004001884682
 21
399.8286164668616
 31
0.0
 12
-590.0395690720161
 22
-627.6599672250304
 32
0.0
 70
   132
 71
     5
 42
-1.0
  3
STANDARD
100
AcDbRadialDimension
 15
324.4673063374181
 25
304.3539436133381
 35
0.0
 40
0.0
1001
ACAD
1000
DSTYLE
1002
{
1070
   287
1070
     5
1070
   287
1070
     5
1070
   287
1070
     5
1070
    40
1040
10.0
1070
    41
1040
2.0
1070
    42
1040
2.0
1070
    43
1040
7.0
1070
    44
1040
1.0
1070
    73
1070
     0
1070
    74
1070
     0
1070
    78
1070
     8
1070
   140
1040
2.5
1070
   141
1040
0.0
1070
   145
1040
1.0
1070
   275
1070
     1
1070
   279
1070
     2
1070
   284
1070
     8
1070
   285
1070
     8
1070
   286
1070
     8
1070
   288
1070
     1
1002
}
  0
DIMENSION
  5
D9
330
B9
100
AcDbEntity
  8
SUNPOU
100
AcDbDimension
  2
*D5
 10
798.8790728049153
 20
465.6419131391049
 30
0.0
 11
758.8790728049153
 21
490.6419131391049
 31
0.0
 12
-590.0395690720161
 22
-627.6599672250304
 32
0.0
 71
     5
 42
-1.0
  3
STANDARD
100
AcDbAlignedDimension
 13
718.8790728049153
 23
282.9999977848383
 33
0.0
 14
798.8790728049153
 24
222.9999977848385
 34
0.0
100
AcDbRotatedDimension
1001
ACAD
1000
DSTYLE
1002
{
1070
   287
1070
     5
1070
   287
1070
     5
1070
   287
1070
     5
1070
    40
1040
10.0
1070
    41
1040
2.0
1070
    42
1040
2.0
1070
    43
1040
7.0
1070
    44
1040
1.0
1070
    73
1070
     0
1070
    74
1070
     0
1070
    78
1070
     8
1070
   140
1040
2.5
1070
   141
1040
0.0
1070
   145
1040
1.0
1070
   275
1070
     1
1070
   279
1070
     2
1070
   284
1070
     8
1070
   285
1070
     8
1070
   286
1070
     8
1002
}
  0
LEADER
  5
DA
330
B9
100
AcDbEntity
  8
SUNPOU
100
AcDbLeader
  3
STANDARD
 76
     3
 10
298.8790728049153
 20
282.9999977848383
 30
0.0
 10
424.4601063496466
 20
635.4571459657018
 30
0.0
 10
689.9144454045472
 20
635.4571459657018
 30
0.0
1001
ACAD
1000
DSTYLE
1002
{
1070
     5
1000

1070
    40
1040
10.0
1070
    41
1040
2.0
1070
    42
1040
2.0
1070
    43
1040
7.0
1070
    44
1040
1.0
1070
    73
1070
     0
1070
    74
1070
     0
1070
    78
1070
     8
1070
   140
1040
2.5
1070
   141
1040
0.0
1070
   145
1040
1.0
1070
   275
1070
     1
1070
   284
1070
     8
1070
   285
1070
     8
1070
   286
1070
     8
1070
   287
1070
     5
1070
   342
1005
0
1002
}
  0
LINE
  5
DB
330
B9
100
AcDbEntity
  8
HAIKIN
100
AcDbLine
 10
458.8790728049153
 20
248.9999977848381
 30
0.0
 11
838.8790728049153
 21
248.9999977848381
 31
0.0
  0
LINE
  5
DC
330
B9
100
AcDbEntity
  8
HAIKIN
100
AcDbLine
 10
227.8708607776939
 20
192.9999977848385
 30
0.0
 11
768.8790728049153
 21
192.9999977848385
 31
0.0
  0
LINE
  5
DD
330
B9
100
AcDbEntity
  8
HAIKIN
100
AcDbLine
 10
208.6527170171539
 20
252.9999977848381
 30
0.0
 11
698.8790728049153
 21
252.9999977848381
 31
0.0
  0
LINE
  5
DE
330
B9
100
AcDbEntity
  8
SUNPOU
100
AcDbLine
 10
378.8790728049153
 20
282.9999977848383
 30
0.0
 11
718.8790728049153
 21
282.9999977848383
 31
0.0
  0
LINE
  5
DF
330
B9
100
AcDbEntity
  8
HAIKIN
100
AcDbLine
 10
397.8740221710319
 20
184.0050484187216
 30
0.0
 11
199.8841234387987
 21
381.9949471509551
 31
0.0
  0
ARC
  5
E0
330
B9
100
AcDbEntity
  8
SUNPOU
100
AcDbCircle
 10
378.8790728049153
 20
362.9999977848383
 30
0.0
 40
80.0
100
AcDbArc
 50
180.0
 51
270.0
  0
ARC
  5
E1
330
B9
100
AcDbEntity
  8
HAIKIN
100
AcDbCircle
 10
227.8708607776939
 20
212.9999977848385
 30
0.0
 40
20.0
100
AcDbArc
 50
178.8746919035617
 51
270.0
  0
LWPOLYLINE
  5
E2
330
B9
100
AcDbEntity
  8
SUNPOU
100
AcDbPolyline
 90
        2
 70
     1
 43
2.95
 10
259.3540728049153
 20
200.9999977848386
 42
1.0
 10
262.4040728049152
 20
200.9999977848386
 42
1.0
  0
LWPOLYLINE
  5
E3
330
B9
100
AcDbEntity
  8
SUNPOU
100
AcDbPolyline
 90
        2
 70
     1
 43
2.95
 10
214.972117378513
 20
244.9999977848381
 42
1.0
 10
218.0221173785129
 20
244.9999977848381
 42
1.0
  0
LWPOLYLINE
  5
E4
330
B9
100
AcDbEntity
  8
SUNPOU
100
AcDbPolyline
 90
        2
 70
     1
 43
2.95
 10
259.3540728049153
 20
244.9999977848381
 42
1.0
 10
262.4040728049152
 20
244.9999977848381
 42
1.0
  0
POINT
  5
E5
330
B9
100
AcDbEntity
  8
TEN
100
AcDbPoint
 10
298.8790728049153
 20
282.9999977848383
 30
0.0
  0
LINE
  5
E6
330
B9
100
AcDbEntity
  8
HAIKIN
100
AcDbLine
 10
474.8790728049153
 20
262.9999977848383
 30
0.0
 11
474.8790728049153
 21
182.9999977848385
 31
0.0
  0
LWPOLYLINE
  5
E7
330
B9
100
AcDbEntity
  8
SUNPOU
100
AcDbPolyline
 90
        2
 70
     1
 43
2.95
 10
467.3540728049152
 20
200.9999977848385
 42
1.0
 10
470.4040728049154
 20
200.9999977848385
 42
1.0
  0
LWPOLYLINE
  5
E8
330
B9
100
AcDbEntity
  8
SUNPOU
100
AcDbPolyline
 90
        2
 70
     1
 43
2.95
 10
467.3540728049152
 20
244.9999977848383
 42
1.0
 10
470.4040728049154
 20
244.9999977848383
 42
1.0
  0
LWPOLYLINE
  5
E9
330
B9
100
AcDbEntity
  8
SUNPOU
100
AcDbPolyline
 90
        2
 70
     1
 43
2.95
 10
677.3540728049152
 20
200.9999977848385
 42
1.0
 10
680.4040728049154
 20
200.9999977848385
 42
1.0
  0
LWPOLYLINE
  5
EA
330
B9
100
AcDbEntity
  8
SUNPOU
100
AcDbPolyline
 90
        2
 70
     1
 43
2.95
 10
677.3540728049152
 20
244.9999977848383
 42
1.0
 10
680.4040728049154
 20
244.9999977848383
 42
1.0
  0
LINE
  5
EB
330
B9
100
AcDbEntity
  8
SUNPOU
100
AcDbLine
 10
718.8790728049153
 20
282.9999977848383
 30
0.0
 11
718.8790728049153
 21
222.9999977848385
 31
0.0
  0
LINE
  5
EC
330
B9
100
AcDbEntity
  8
SUNPOU
100
AcDbLine
 10
718.8790728049153
 20
222.9999977848385
 30
0.0
 11
798.8790728049153
 21
222.9999977848383
 31
0.0
  0
LINE
  5
ED
330
B9
100
AcDbEntity
  8
SUNPOU
100
AcDbLine
 10
798.8790728049153
 20
222.9999977848385
 30
0.0
 11
798.8790728049153
 21
162.9999977848383
 31
0.0
  0
CIRCLE
  5
EE
330
B9
100
AcDbEntity
  8
SUNPOU
100
AcDbCircle
 10
541.6878912985649
 20
655.1923364430108
 30
0.0
 40
19.81848743256705
  0
LWPOLYLINE
  5
EF
330
B9
100
AcDbEntity
  8
SUNPOU
100
AcDbPolyline
 90
        2
 70
     1
 43
2.95
 10
259.3540728049153
 20
507.9999977848383
 42
1.0
 10
262.4040728049152
 20
507.9999977848383
 42
1.0
  0
LWPOLYLINE
  5
F0
330
B9
100
AcDbEntity
  8
SUNPOU
100
AcDbPolyline
 90
        2
 70
     1
 43
2.95
 10
220.1381888070844
 20
507.9999977848383
 42
1.0
 10
223.1881888070843
 20
507.9999977848383
 42
1.0
  0
LINE
  5
F1
330
B9
100
AcDbEntity
  8
HAIKIN
100
AcDbLine
 10
208.5900737083125
 20
758.9999977848386
 30
0.0
 11
278.8790728049153
 21
758.9999977848386
 31
0.0
  0
CIRCLE
  5
F2
330
B9
100
AcDbEntity
  8
SUNPOU
100
AcDbCircle
 10
226.4756888070843
 20
752.9999977848386
 30
0.0
 40
9.252078666435409
  0
LWPOLYLINE
  5
F3
330
B9
100
AcDbEntity
  8
SUNPOU
100
AcDbPolyline
 90
        2
 70
     1
 43
2.95
 10
224.9506888070844
 20
752.9999977848383
 42
1.0
 10
228.0006888070843
 20
752.9999977848383
 42
1.0
  0
CIRCLE
  5
F4
330
B9
100
AcDbEntity
  8
SUNPOU
100
AcDbCircle
 10
260.8790728049153
 20
752.9999977848383
 30
0.0
 40
9.252078666435409
  0
LWPOLYLINE
  5
F5
330
B9
100
AcDbEntity
  8
SUNPOU
100
AcDbPolyline
 90
        2
 70
     1
 43
2.95
 10
259.3540728049153
 20
752.9999977848383
 42
1.0
 10
262.4040728049152
 20
752.9999977848383
 42
1.0
  0
TEXT
  5
F6
330
B9
100
AcDbEntity
  8
SUNPOU
100
AcDbText
 10
575.0837381635447
 20
642.4840412934614
 30
0.0
 40
25.0
  1
D10-11
100
AcDbText
  0
TEXT
  5
F7
330
B9
100
AcDbEntity
  8
SUNPOU
100
AcDbText
 10
532.8730096223753
 20
642.4840412934614
 30
0.0
 40
25.0
  1
5
100
AcDbText
  0
LEADER
  5
F8
330
B9
100
AcDbEntity
  8
SUNPOU
100
AcDbLeader
  3
STANDARD
 76
     2
 10
1440.067580811962
 20
507.9999977848388
 30
0.0
 10
1440.067580811962
 20
262.9999977848388
 30
0.0
1001
ACAD
1000
DSTYLE
1002
{
1070
     5
1000

1070
    40
1040
10.0
1070
    41
1040
2.0
1070
    42
1040
2.0
1070
    43
1040
7.0
1070
    44
1040
1.0
1070
    73
1070
     0
1070
    74
1070
     0
1070
    78
1070
     8
1070
   140
1040
2.5
1070
   141
1040
0.0
1070
   145
1040
1.0
1070
   275
1070
     1
1070
   284
1070
     8
1070
   285
1070
     8
1070
   286
1070
     8
1070
   287
1070
     5
1070
   342
1005
0
1002
}
  0
LEADER
  5
F9
330
B9
100
AcDbEntity
  8
SUNPOU
100
AcDbLeader
  3
STANDARD
 76
     3
 10
873.1205882131999
 20
196.9999977848383
 30
0.0
 10
873.1205882131999
 20
63.57780034866664
 30
0.0
 10
1153.335644594526
 20
63.57780034866664
 30
0.0
1001
ACAD
1000
DSTYLE
1002
{
1070
     5
1000

1070
    40
1040
10.0
1070
    41
1040
2.0
1070
    42
1040
2.0
1070
    43
1040
7.0
1070
    44
1040
1.0
1070
    73
1070
     0
1070
    74
1070
     0
1070
    78
1070
     8
1070
   140
1040
2.5
1070
   141
1040
0.0
1070
   145
1040
1.0
1070
   275
1070
     1
1070
   284
1070
     8
1070
   285
1070
     8
1070
   286
1070
     8
1070
   287
1070
     5
1070
   342
1005
0
1002
}
  0
CIRCLE
  5
FA
330
B9
100
AcDbEntity
  8
SUNPOU
100
AcDbCircle
 10
1005.109090488544
 20
83.3129908259757
 30
0.0
 40
19.81848743256705
  0
TEXT
  5
FB
330
B9
100
AcDbEntity
  8
SUNPOU
100
AcDbText
 10
996.2942088123546
 20
70.60469567642622
 30
0.0
 40
25.0
  1
9
100
AcDbText
  0
TEXT
  5
FC
330
B9
100
AcDbEntity
  8
SUNPOU
100
AcDbText
 10
1038.504937353524
 20
70.60469567642622
 30
0.0
 40
25.0
  1
D10-11
100
AcDbText
  0
CIRCLE
  5
FD
330
B9
100
AcDbEntity
  8
SUNPOU
100
AcDbCircle
 10
1007.062815760686
 20
370.286490924012
 30
0.0
 40
19.81848743256705
  0
TEXT
  5
FE
330
B9
100
AcDbEntity
  8
SUNPOU
100
AcDbText
 10
998.2479340844966
 20
357.5781957744625
 30
0.0
 40
25.0
  1
8
100
AcDbText
  0
TEXT
  5
FF
330
B9
100
AcDbEntity
  8
SUNPOU
100
AcDbText
 10
1040.458662625666
 20
357.5781957744625
 30
0.0
 40
25.0
  1
D10-11
100
AcDbText
  0
LEADER
  5
100
330
B9
100
AcDbEntity
  8
SUNPOU
100
AcDbLeader
  3
STANDARD
 76
     2
 10
1440.067580811962
 20
244.9999977848383
 30
0.0
 10
1440.067580811962
 20
-0.0000022151616577
 30
0.0
1001
ACAD
1000
DSTYLE
1002
{
1070
     5
1000

1070
    40
1040
10.0
1070
    41
1040
2.0
1070
    42
1040
2.0
1070
    43
1040
7.0
1070
    44
1040
1.0
1070
    73
1070
     0
1070
    74
1070
     0
1070
    78
1070
     8
1070
   140
1040
2.5
1070
   141
1040
0.0
1070
   145
1040
1.0
1070
   275
1070
     1
1070
   284
1070
     8
1070
   285
1070
     8
1070
   286
1070
     8
1070
   287
1070
     5
1070
   342
1005
0
1002
}
  0
LINE
  5
101
330
B9
100
AcDbEntity
  8
HAIKIN
100
AcDbLine
 10
1311.976822896288
 20
381.994947150955
 30
0.0
 11
1311.976822896288
 21
184.0050484187216
 31
0.0
  0
LWPOLYLINE
  5
102
330
B9
100
AcDbEntity
  8
SUNPOU
100
AcDbPolyline
 90
        2
 70
     1
 43
4.95
 10
1319.451822896287
 20
192.9999977848383
 42
1.0
 10
1324.501822896288
 20
192.9999977848383
 42
1.0
  0
LWPOLYLINE
  5
103
330
B9
100
AcDbEntity
  8
SUNPOU
100
AcDbPolyline
 90
        2
 70
     1
 43
4.95
 10
1319.451822896287
 20
252.999997784838
 42
1.0
 10
1324.501822896288
 20
252.999997784838
 42
1.0
  0
LINE
  5
104
330
B9
100
AcDbEntity
  8
HAIKIN
100
AcDbLine
 10
1503.976822896288
 20
381.994947150955
 30
0.0
 11
1503.976822896288
 21
184.0050484187216
 31
0.0
  0
LEADER
  5
105
330
B9
100
AcDbEntity
  8
SUNPOU
100
AcDbLeader
  3
STANDARD
 76
     2
 10
1440.067580811962
 20
752.9999977848388
 30
0.0
 10
1440.067580811962
 20
507.9999977848388
 30
0.0
1001
ACAD
1000
DSTYLE
1002
{
1070
     5
1000

1070
    40
1040
10.0
1070
    41
1040
2.0
1070
    42
1040
2.0
1070
    43
1040
7.0
1070
    44
1040
1.0
1070
    73
1070
     0
1070
    74
1070
     0
1070
    78
1070
     8
1070
   140
1040
2.5
1070
   141
1040
0.0
1070
   145
1040
1.0
1070
   275
1070
     1
1070
   284
1070
     8
1070
   285
1070
     8
1070
   286
1070
     8
1070
   287
1070
     5
1070
   342
1005
0
1002
}
  0
LEADER
  5
106
330
B9
100
AcDbEntity
  8
SUNPOU
100
AcDbLeader
  3
STANDARD
 76
     2
 10
268.8790728049153
 20
960.094388772236
 30
0.0
 10
603.3833909917175
 20
960.094388772236
 30
0.0
1001
ACAD
1000
DSTYLE
1002
{
1070
     5
1000

1070
    40
1040
10.0
1070
    41
1040
2.0
1070
    42
1040
2.0
1070
    43
1040
7.0
1070
    44
1040
1.0
1070
    73
1070
     0
1070
    74
1070
     0
1070
    78
1070
     8
1070
   140
1040
2.5
1070
   141
1040
0.0
1070
   145
1040
1.0
1070
   275
1070
     1
1070
   284
1070
     8
1070
   285
1070
     8
1070
   286
1070
     8
1070
   287
1070
     5
1070
   342
1005
0
1002
}
  0
LEADER
  5
107
330
B9
100
AcDbEntity
  8
SUNPOU
100
AcDbLeader
  3
STANDARD
 76
     2
 10
225.418026144049
 20
1106.506644244947
 30
0.0
 10
603.3833909917175
 20
1106.506644244947
 30
0.0
1001
ACAD
1000
DSTYLE
1002
{
1070
     5
1000

1070
    40
1040
10.0
1070
    41
1040
2.0
1070
    42
1040
2.0
1070
    43
1040
7.0
1070
    44
1040
1.0
1070
    73
1070
     0
1070
    74
1070
     0
1070
    78
1070
     8
1070
   140
1040
2.5
1070
   141
1040
0.0
1070
   145
1040
1.0
1070
   275
1070
     1
1070
   284
1070
     8
1070
   285
1070
     8
1070
   286
1070
     8
1070
   287
1070
     5
1070
   342
1005
0
1002
}
  0
TEXT
  5
108
330
B9
100
AcDbEntity
  8
SUNPOU
100
AcDbText
 10
490.3386072552476
 20
880.0804756740913
 30
0.0
 40
25.0
  1
D6-15
100
AcDbText
  0
TEXT
  5
109
330
B9
100
AcDbEntity
  8
SUNPOU
100
AcDbText
 10
488.552683750715
 20
967.1212840999956
 30
0.0
 40
25.0
  1
D10-11
100
AcDbText
  0
TEXT
  5
10A
330
B9
100
AcDbEntity
  8
SUNPOU
100
AcDbText
 10
488.552683750715
 20
1113.533539572707
 30
0.0
 40
25.0
  1
D10-11
100
AcDbText
  0
LWPOLYLINE
  5
10B
330
B9
100
AcDbEntity
  8
SUNPOU
100
AcDbPolyline
 90
        2
 70
     1
 43
2.95
 10
229.7631888070844
 20
997.9999977848383
 42
1.0
 10
232.8131888070843
 20
997.9999977848383
 42
1.0
  0
LWPOLYLINE
  5
10C
330
B9
100
AcDbEntity
  8
SUNPOU
100
AcDbPolyline
 90
        2
 70
     1
 43
2.95
 10
259.3540728049152
 20
997.9999977848383
 42
1.0
 10
262.4040728049151
 20
997.9999977848383
 42
1.0
  0
CIRCLE
  5
10D
330
B9
100
AcDbEntity
  8
SUNPOU
100
AcDbCircle
 10
455.1568368857352
 20
979.8295792495451
 30
0.0
 40
19.81848743256705
  0
TEXT
  5
10E
330
B9
100
AcDbEntity
  8
SUNPOU
100
AcDbText
 10
446.3419552095456
 20
967.1212840999956
 30
0.0
 40
25.0
  1
3
100
AcDbText
  0
CIRCLE
  5
10F
330
B9
100
AcDbEntity
  8
SUNPOU
100
AcDbCircle
 10
456.9427603902677
 20
892.7887708236408
 30
0.0
 40
19.81848743256705
  0
TEXT
  5
110
330
B9
100
AcDbEntity
  8
SUNPOU
100
AcDbText
 10
448.1278787140782
 20
880.0804756740913
 30
0.0
 40
25.0
  1
6
100
AcDbText
  0
LINE
  5
111
330
B9
100
AcDbEntity
  8
SUNPOU
100
AcDbLine
 10
198.8790728049153
 20
1282.999997784838
 30
0.0
 11
298.8790728049153
 21
1282.999997784838
 31
0.0
  0
LINE
  5
112
330
B9
100
AcDbEntity
  8
HAIKIN
100
AcDbLine
 10
218.2150737083125
 20
1248.999997784838
 30
0.0
 11
278.8790728049153
 21
1248.999997784838
 31
0.0
  0
LWPOLYLINE
  5
113
330
B9
100
AcDbEntity
  8
SUNPOU
100
AcDbPolyline
 90
        2
 70
     1
 43
2.95
 10
234.5756888070845
 20
1242.999997784838
 42
1.0
 10
237.6256888070844
 20
1242.999997784838
 42
1.0
  0
LWPOLYLINE
  5
114
330
B9
100
AcDbEntity
  8
SUNPOU
100
AcDbPolyline
 90
        2
 70
     1
 43
2.95
 10
259.3540728049152
 20
1242.999997784838
 42
1.0
 10
262.4040728049151
 20
1242.999997784838
 42
1.0
  0
CIRCLE
  5
115
330
B9
100
AcDbEntity
  8
SUNPOU
100
AcDbCircle
 10
455.1568368857352
 20
1126.241834722256
 30
0.0
 40
19.81848743256705
  0
TEXT
  5
116
330
B9
100
AcDbEntity
  8
SUNPOU
100
AcDbText
 10
450.7365677188227
 20
1113.533539572707
 30
0.0
 40
25.0
  1
1
100
AcDbText
  0
LEADER
  5
117
330
B9
100
AcDbEntity
  8
SUNPOU
100
AcDbLeader
  3
STANDARD
 76
     2
 10
1321.976822896288
 20
1106.506644244947
 30
0.0
 10
1129.976822896288
 20
1106.506644244947
 30
0.0
1001
ACAD
1000
DSTYLE
1002
{
1070
     5
1000

1070
    40
1040
10.0
1070
    41
1040
2.0
1070
    42
1040
2.0
1070
    43
1040
7.0
1070
    44
1040
1.0
1070
    73
1070
     0
1070
    74
1070
     0
1070
    78
1070
     8
1070
   140
1040
2.5
1070
   141
1040
0.0
1070
   145
1040
1.0
1070
   275
1070
     1
1070
   284
1070
     8
1070
   285
1070
     8
1070
   286
1070
     8
1070
   287
1070
     5
1070
   342
1005
0
1002
}
  0
TEXT
  5
118
330
B9
100
AcDbEntity
  8
SUNPOU
100
AcDbText
 10
1082.483818494316
 20
1113.533539572706
 30
0.0
 40
25.0
  1
D10-11
100
AcDbText
  0
CIRCLE
  5
119
330
B9
100
AcDbEntity
  8
SUNPOU
100
AcDbCircle
 10
1031.923757540886
 20
1126.241834722256
 30
0.0
 40
19.81848743256705
  0
CIRCLE
  5
11A
330
B9
100
AcDbEntity
  8
SUNPOU
100
AcDbCircle
 10
977.5826870844558
 20
1126.241834722256
 30
0.0
 40
19.81848743256705
  0
TEXT
  5
11B
330
B9
100
AcDbEntity
  8
SUNPOU
100
AcDbText
 10
973.1624179175433
 20
1113.533539572706
 30
0.0
 40
25.0
  1
1
100
AcDbText
  0
TEXT
  5
11C
330
B9
100
AcDbEntity
  8
SUNPOU
100
AcDbText
 10
1024.946269986913
 20
1113.533539572706
 30
0.0
 40
25.0
  1
3
100
AcDbText
  0
LINE
  5
11D
330
B9
100
AcDbEntity
  8
HAIKIN
100
AcDbLine
 10
2281.976822896288
 20
1262.999997784838
 30
0.0
 11
2281.976822896289
 21
192.9999977848383
 31
0.0
  0
LINE
  5
11E
330
B9
100
AcDbEntity
  8
HAIKIN
100
AcDbLine
 10
2089.976822896288
 20
1262.999997784839
 30
0.0
 11
2089.976822896288
 21
192.9999977848383
 31
0.0
  0
LINE
  5
11F
330
B9
100
AcDbEntity
  8
HAIKIN
100
AcDbLine
 10
1897.976822896288
 20
1262.999997784839
 30
0.0
 11
1897.976822896288
 21
192.9999977848383
 31
0.0
  0
LINE
  5
120
330
B9
100
AcDbEntity
  8
HAIKIN
100
AcDbLine
 10
1705.976822896288
 20
1262.999997784839
 30
0.0
 11
1705.976822896288
 21
192.9999977848383
 31
0.0
  0
LINE
  5
121
330
B9
100
AcDbEntity
  8
HAIKIN
100
AcDbLine
 10
1513.976822896288
 20
1262.999997784839
 30
0.0
 11
1513.976822896288
 21
192.9999977848383
 31
0.0
  0
LINE
  5
122
330
B9
100
AcDbEntity
  8
SEIHIN
100
AcDbLine
 10
3281.976822896288
 20
1282.999997784838
 30
0.0
 11
3281.976822896288
 21
162.9999977848383
 31
0.0
  0
LEADER
  5
123
330
B9
100
AcDbEntity
  8
SUNPOU
100
AcDbLeader
  3
STANDARD
 76
     2
 10
1887.976822896288
 20
309.0026842404862
 30
0.0
 10
2079.976822896288
 20
309.0026842404862
 30
0.0
1001
ACAD
1000
DSTYLE
1002
{
1070
     5
1000

1070
    40
1040
10.0
1070
    41
1040
2.0
1070
    42
1040
2.0
1070
    43
1040
7.0
1070
    44
1040
1.0
1070
    73
1070
     0
1070
    74
1070
     0
1070
    78
1070
     8
1070
   140
1040
2.5
1070
   141
1040
0.0
1070
   145
1040
1.0
1070
   275
1070
     1
1070
   284
1070
     8
1070
   285
1070
     8
1070
   286
1070
     8
1070
   287
1070
     5
1070
   342
1005
0
1002
}
  0
LEADER
  5
124
330
B9
100
AcDbEntity
  8
SUNPOU
100
AcDbLeader
  3
STANDARD
 76
     2
 10
1695.976822896288
 20
309.0026842404862
 30
0.0
 10
1887.976822896288
 20
309.0026842404862
 30
0.0
1001
ACAD
1000
DSTYLE
1002
{
1070
     5
1000

1070
    40
1040
10.0
1070
    41
1040
2.0
1070
    42
1040
2.0
1070
    43
1040
7.0
1070
    44
1040
1.0
1070
    73
1070
     0
1070
    74
1070
     0
1070
    78
1070
     8
1070
   140
1040
2.5
1070
   141
1040
0.0
1070
   145
1040
1.0
1070
   275
1070
     1
1070
   284
1070
     8
1070
   285
1070
     8
1070
   286
1070
     8
1070
   287
1070
     5
1070
   342
1005
0
1002
}
  0
LINE
  5
125
330
B9
100
AcDbEntity
  8
SEIHIN
100
AcDbLine
 10
2281.976822896287
 20
282.9999977848383
 30
0.0
 11
3281.976822896288
 21
282.9999977848383
 31
0.0
  0
LINE
  5
126
330
B9
100
AcDbEntity
  8
SEIHIN
100
AcDbLine
 10
2281.976822896287
 20
222.9999977848383
 30
0.0
 11
3281.976822896288
 21
222.9999977848383
 31
0.0
  0
LINE
  5
127
330
B9
100
AcDbEntity
  8
SEIHIN
100
AcDbLine
 10
2281.976822896287
 20
162.9999977848383
 30
0.0
 11
3281.976822896288
 21
162.9999977848383
 31
0.0
  0
LEADER
  5
128
330
B9
100
AcDbEntity
  8
SUNPOU
100
AcDbLeader
  3
STANDARD
 76
     2
 10
2271.976822896289
 20
309.0026842404856
 30
0.0
 10
2079.976822896289
 20
309.0026842404856
 30
0.0
1001
ACAD
1000
DSTYLE
1002
{
1070
     5
1000

1070
    40
1040
10.0
1070
    41
1040
2.0
1070
    42
1040
2.0
1070
    43
1040
7.0
1070
    44
1040
1.0
1070
    73
1070
     0
1070
    74
1070
     0
1070
    78
1070
     8
1070
   140
1040
2.5
1070
   141
1040
0.0
1070
   145
1040
1.0
1070
   275
1070
     1
1070
   284
1070
     8
1070
   285
1070
     8
1070
   286
1070
     8
1070
   287
1070
     5
1070
   342
1005
0
1002
}
  0
LINE
  5
129
330
B9
100
AcDbEntity
  8
HAIKIN
100
AcDbLine
 10
1695.976822896288
 20
381.994947150955
 30
0.0
 11
1695.976822896288
 21
184.0050484187216
 31
0.0
  0
LWPOLYLINE
  5
12A
330
B9
100
AcDbEntity
  8
SUNPOU
100
AcDbPolyline
 90
        2
 70
     1
 43
4.95
 10
1703.451822896287
 20
192.9999977848383
 42
1.0
 10
1708.501822896288
 20
192.9999977848383
 42
1.0
  0
LWPOLYLINE
  5
12B
330
B9
100
AcDbEntity
  8
SUNPOU
100
AcDbPolyline
 90
        2
 70
     1
 43
4.95
 10
1703.451822896287
 20
252.999997784838
 42
1.0
 10
1708.501822896288
 20
252.999997784838
 42
1.0
  0
LEADER
  5
12C
330
B9
100
AcDbEntity
  8
SUNPOU
100
AcDbLeader
  3
STANDARD
 76
     2
 10
2079.976822896288
 20
309.0026842404858
 30
0.0
 10
1887.976822896288
 20
309.0026842404858
 30
0.0
1001
ACAD
1000
DSTYLE
1002
{
1070
     5
1000

1070
    40
1040
10.0
1070
    41
1040
2.0
1070
    42
1040
2.0
1070
    43
1040
7.0
1070
    44
1040
1.0
1070
    73
1070
     0
1070
    74
1070
     0
1070
    78
1070
     8
1070
   140
1040
2.5
1070
   141
1040
0.0
1070
   145
1040
1.0
1070
   275
1070
     1
1070
   284
1070
     8
1070
   285
1070
     8
1070
   286
1070
     8
1070
   287
1070
     5
1070
   342
1005
0
1002
}
  0
LINE
  5
12D
330
B9
100
AcDbEntity
  8
HAIKIN
100
AcDbLine
 10
1887.976822896288
 20
381.994947150955
 30
0.0
 11
1887.976822896288
 21
184.0050484187216
 31
0.0
  0
LWPOLYLINE
  5
12E
330
B9
100
AcDbEntity
  8
SUNPOU
100
AcDbPolyline
 90
        2
 70
     1
 43
4.95
 10
1895.451822896287
 20
192.9999977848383
 42
1.0
 10
1900.501822896288
 20
192.9999977848383
 42
1.0
  0
LWPOLYLINE
  5
12F
330
B9
100
AcDbEntity
  8
SUNPOU
100
AcDbPolyline
 90
        2
 70
     1
 43
4.95
 10
1895.451822896287
 20
252.999997784838
 42
1.0
 10
1900.501822896288
 20
252.999997784838
 42
1.0
  0
LINE
  5
130
330
B9
100
AcDbEntity
  8
HAIKIN
100
AcDbLine
 10
2079.976822896288
 20
381.994947150955
 30
0.0
 11
2079.976822896288
 21
184.0050484187216
 31
0.0
  0
LWPOLYLINE
  5
131
330
B9
100
AcDbEntity
  8
SUNPOU
100
AcDbPolyline
 90
        2
 70
     1
 43
4.95
 10
2087.451822896287
 20
192.9999977848383
 42
1.0
 10
2092.501822896288
 20
192.9999977848383
 42
1.0
  0
LWPOLYLINE
  5
132
330
B9
100
AcDbEntity
  8
SUNPOU
100
AcDbPolyline
 90
        2
 70
     1
 43
4.95
 10
2087.451822896287
 20
252.999997784838
 42
1.0
 10
2092.501822896288
 20
252.999997784838
 42
1.0
  0
LINE
  5
133
330
B9
100
AcDbEntity
  8
1HASEN
100
AcDbLine
 10
2281.976822896288
 20
162.9999977848383
 30
0.0
 11
2281.976822896288
 21
62.99999778483834
 31
0.0
  0
LINE
  5
134
330
B9
100
AcDbEntity
  8
HAIKIN
100
AcDbLine
 10
2271.976822896288
 20
381.994947150955
 30
0.0
 11
2271.976822896288
 21
184.0050484187216
 31
0.0
  0
LWPOLYLINE
  5
135
330
B9
100
AcDbEntity
  8
SUNPOU
100
AcDbPolyline
 90
        2
 70
     1
 43
4.95
 10
2279.451822896287
 20
192.9999977848383
 42
1.0
 10
2284.501822896288
 20
192.9999977848383
 42
1.0
  0
LWPOLYLINE
  5
136
330
B9
100
AcDbEntity
  8
SUNPOU
100
AcDbPolyline
 90
        2
 70
     1
 43
4.95
 10
2279.451822896287
 20
252.999997784838
 42
1.0
 10
2284.501822896288
 20
252.999997784838
 42
1.0
  0
LWPOLYLINE
  5
137
330
B9
100
AcDbEntity
  8
SUNPOU
100
AcDbPolyline
 90
        2
 70
     1
 43
4.95
 10
2476.501822896288
 20
192.9999977848399
 42
-1.0
 10
2471.451822896288
 20
192.9999977848399
 42
-1.0
  0
LWPOLYLINE
  5
138
330
B9
100
AcDbEntity
  8
SUNPOU
100
AcDbPolyline
 90
        2
 70
     1
 43
4.95
 10
2476.501822896288
 20
252.9999977848396
 42
-1.0
 10
2471.451822896287
 20
252.9999977848396
 42
-1.0
  0
LWPOLYLINE
  5
139
330
B9
100
AcDbEntity
  8
SUNPOU
100
AcDbPolyline
 90
        2
 70
     1
 43
4.95
 10
2668.501822896288
 20
192.9999977848415
 42
-1.0
 10
2663.451822896288
 20
192.9999977848415
 42
-1.0
  0
LWPOLYLINE
  5
13A
330
B9
100
AcDbEntity
  8
SUNPOU
100
AcDbPolyline
 90
        2
 70
     1
 43
4.95
 10
2668.501822896288
 20
252.9999977848412
 42
-1.0
 10
2663.451822896287
 20
252.9999977848412
 42
-1.0
  0
LWPOLYLINE
  5
13B
330
B9
100
AcDbEntity
  8
SUNPOU
100
AcDbPolyline
 90
        2
 70
     1
 43
4.95
 10
2860.501822896288
 20
192.9999977848431
 42
-1.0
 10
2855.451822896288
 20
192.9999977848431
 42
-1.0
  0
LWPOLYLINE
  5
13C
330
B9
100
AcDbEntity
  8
SUNPOU
100
AcDbPolyline
 90
        2
 70
     1
 43
4.95
 10
2860.501822896288
 20
252.9999977848428
 42
-1.0
 10
2855.451822896287
 20
252.9999977848428
 42
-1.0
  0
LWPOLYLINE
  5
13D
330
B9
100
AcDbEntity
  8
SUNPOU
100
AcDbPolyline
 90
        2
 70
     1
 43
4.95
 10
3052.501822896288
 20
192.9999977848447
 42
-1.0
 10
3047.451822896288
 20
192.9999977848447
 42
-1.0
  0
LWPOLYLINE
  5
13E
330
B9
100
AcDbEntity
  8
SUNPOU
100
AcDbPolyline
 90
        2
 70
     1
 43
4.95
 10
3052.501822896288
 20
252.9999977848444
 42
-1.0
 10
3047.451822896287
 20
252.9999977848444
 42
-1.0
  0
LWPOLYLINE
  5
13F
330
B9
100
AcDbEntity
  8
SUNPOU
100
AcDbPolyline
 90
        2
 70
     1
 43
4.95
 10
3244.501822896288
 20
192.9999977848463
 42
-1.0
 10
3239.451822896288
 20
192.9999977848463
 42
-1.0
  0
LWPOLYLINE
  5
140
330
B9
100
AcDbEntity
  8
SUNPOU
100
AcDbPolyline
 90
        2
 70
     1
 43
4.95
 10
3244.501822896288
 20
252.999997784846
 42
-1.0
 10
3239.451822896287
 20
252.999997784846
 42
-1.0
  0
LINE
  5
141
330
B9
100
AcDbEntity
  8
SEIHIN
100
AcDbLine
 10
2281.976822896288
 20
1282.999997784838
 30
0.0
 11
3281.976822896288
 21
1282.999997784838
 31
0.0
  0
LEADER
  5
142
330
B9
100
AcDbEntity
  8
SUNPOU
100
AcDbLeader
  3
STANDARD
 76
     2
 10
2281.976822896288
 20
1106.506644244946
 30
0.0
 10
2089.976822896288
 20
1106.506644244946
 30
0.0
1001
ACAD
1000
DSTYLE
1002
{
1070
     5
1000

1070
    40
1040
10.0
1070
    41
1040
2.0
1070
    42
1040
2.0
1070
    43
1040
7.0
1070
    44
1040
1.0
1070
    73
1070
     0
1070
    74
1070
     0
1070
    78
1070
     8
1070
   140
1040
2.5
1070
   141
1040
0.0
1070
   145
1040
1.0
1070
   275
1070
     1
1070
   284
1070
     8
1070
   285
1070
     8
1070
   286
1070
     8
1070
   287
1070
     5
1070
   342
1005
0
1002
}
  0
LEADER
  5
143
330
B9
100
AcDbEntity
  8
SUNPOU
100
AcDbLeader
  3
STANDARD
 76
     2
 10
1897.976822896288
 20
1106.506644244947
 30
0.0
 10
1705.976822896288
 20
1106.506644244947
 30
0.0
1001
ACAD
1000
DSTYLE
1002
{
1070
     5
1000

1070
    40
1040
10.0
1070
    41
1040
2.0
1070
    42
1040
2.0
1070
    43
1040
7.0
1070
    44
1040
1.0
1070
    73
1070
     0
1070
    74
1070
     0
1070
    78
1070
     8
1070
   140
1040
2.5
1070
   141
1040
0.0
1070
   145
1040
1.0
1070
   275
1070
     1
1070
   284
1070
     8
1070
   285
1070
     8
1070
   286
1070
     8
1070
   287
1070
     5
1070
   342
1005
0
1002
}
  0
LEADER
  5
144
330
B9
100
AcDbEntity
  8
SUNPOU
100
AcDbLeader
  3
STANDARD
 76
     2
 10
1705.976822896288
 20
1106.506644244947
 30
0.0
 10
1513.976822896288
 20
1106.506644244947
 30
0.0
1001
ACAD
1000
DSTYLE
1002
{
1070
     5
1000

1070
    40
1040
10.0
1070
    41
1040
2.0
1070
    42
1040
2.0
1070
    43
1040
7.0
1070
    44
1040
1.0
1070
    73
1070
     0
1070
    74
1070
     0
1070
    78
1070
     8
1070
   140
1040
2.5
1070
   141
1040
0.0
1070
   145
1040
1.0
1070
   275
1070
     1
1070
   284
1070
     8
1070
   285
1070
     8
1070
   286
1070
     8
1070
   287
1070
     5
1070
   342
1005
0
1002
}
  0
LEADER
  5
145
330
B9
100
AcDbEntity
  8
SUNPOU
100
AcDbLeader
  3
STANDARD
 76
     2
 10
2089.976822896288
 20
1106.506644244947
 30
0.0
 10
1897.976822896288
 20
1106.506644244947
 30
0.0
1001
ACAD
1000
DSTYLE
1002
{
1070
     5
1000

1070
    40
1040
10.0
1070
    41
1040
2.0
1070
    42
1040
2.0
1070
    43
1040
7.0
1070
    44
1040
1.0
1070
    73
1070
     0
1070
    74
1070
     0
1070
    78
1070
     8
1070
   140
1040
2.5
1070
   141
1040
0.0
1070
   145
1040
1.0
1070
   275
1070
     1
1070
   284
1070
     8
1070
   285
1070
     8
1070
   286
1070
     8
1070
   287
1070
     5
1070
   342
1005
0
1002
}
  0
LINE
  5
146
330
B9
100
AcDbEntity
  8
1HASEN
100
AcDbLine
 10
2281.976822896288
 20
1382.999997784839
 30
0.0
 11
2281.976822896288
 21
1282.999997784838
 31
0.0
  0
ENDBLK
  5
148
330
B9
100
AcDbEntity
  8
0
100
AcDbBlockEnd
  0
BLOCK
  5
AD0
330
ACD
100
AcDbEntity
  8
0
100
AcDbBlockBegin
  2
A$C2B0B7F09
 70
     0
 10
0.0
 20
0.0
 30
0.0
  3
A$C2B0B7F09
  1

  0
LEADER
  5
ACE
330
ACD
100
AcDbEntity
  8
SUNPOU
100
AcDbLeader
  3
STANDARD
 76
     3
 10
0.0000180606434697
 20
286.3877796268375
 30
0.0
 10
163.7906615204192
 20
0.0
 30
0.0
 10
569.7612229711885
 20
0.0
 30
0.0
1001
ACAD
1000
DSTYLE
1002
{
1070
     5
1000

1070
    40
1040
20.0
1070
    41
1040
2.0
1070
    42
1040
2.0
1070
    43
1040
7.0
1070
    44
1040
1.0
1070
    73
1070
     0
1070
    74
1070
     0
1070
    78
1070
     8
1070
   140
1040
2.5
1070
   141
1040
0.0
1070
   145
1040
1.0
1070
   275
1070
     1
1070
   284
1070
     8
1070
   285
1070
     8
1070
   286
1070
     8
1070
   287
1070
     5
1070
   342
1005
0
1002
}
  0
TEXT
  5
ACF
330
ACD
100
AcDbEntity
  8
SUNPOU
100
AcDbText
 10
251.0997200112702
 20
9.279639636868069
 30
0.0
 40
49.99999999999999
  1
つなぎ鉄筋
100
AcDbText
  0
ENDBLK
  5
AD1
330
ACD
100
AcDbEntity
  8
0
100
AcDbBlockEnd
  0
BLOCK
  5
106B
330
1061
100
AcDbEntity
  8
0
100
AcDbBlockBegin
  2
*D55
 70
     1
 10
0.0
 20
0.0
 30
0.0
  3
*D55
  1

  0
LINE
  5
1B9F
330
1061
100
AcDbEntity
  8
SUNPOU
 62
     0
440
 16777216
370
    -2
100
AcDbLine
 10
-6001.319306824853
 20
3829.079370884769
 30
0.0
 11
-6430.695712464498
 21
3829.079370884769
 31
0.0
  0
LINE
  5
1BA0
330
1061
100
AcDbEntity
  8
SUNPOU
 62
     0
440
 16777216
370
    -2
100
AcDbLine
 10
-5901.319306824853
 20
2829.079370884769
 30
0.0
 11
-6430.695712464498
 21
2829.079370884769
 31
0.0
  0
LINE
  5
1BA1
330
1061
100
AcDbEntity
  8
SUNPOU
 62
     0
440
 16777216
370
    -2
100
AcDbLine
 10
-6420.695712464498
 20
3789.079370884769
 30
0.0
 11
-6420.695712464498
 21
2869.079370884769
 31
0.0
  0
SOLID
  5
1BA2
330
1061
100
AcDbEntity
  8
SUNPOU
 62
     0
440
 16777216
100
AcDbTrace
 10
-6427.362379131165
 20
3789.079370884769
 30
0.0
 11
-6414.029045797831
 21
3789.079370884769
 31
0.0
 12
-6420.695712464498
 22
3829.079370884769
 32
0.0
 13
-6420.695712464498
 23
3829.079370884769
 33
0.0
  0
SOLID
  5
1BA3
330
1061
100
AcDbEntity
  8
SUNPOU
 62
     0
440
 16777216
100
AcDbTrace
 10
-6427.362379131165
 20
2869.079370884769
 30
0.0
 11
-6414.029045797831
 21
2869.079370884769
 31
0.0
 12
-6420.695712464498
 22
2829.079370884769
 32
0.0
 13
-6420.695712464498
 23
2829.079370884769
 33
0.0
  0
MTEXT
  5
1BA4
330
1061
100
AcDbEntity
  8
SUNPOU
 62
     0
440
 16777216
100
AcDbMText
 10
-6459.695712464499
 20
3329.079370884768
 30
0.0
 40
50.0
 41
0.0
 71
     5
 72
     1
  1
\A1;1000
 11
6.123031769111886E-17
 21
1.0
 31
0.0
 73
     1
 44
1.0
  0
POINT
  5
1BA5
330
1061
100
AcDbEntity
  8
DEFPOINTS
 62
     0
440
 16777216
100
AcDbPoint
 10
-5961.319306824853
 20
3829.079370884769
 30
0.0
  0
POINT
  5
1BA6
330
1061
100
AcDbEntity
  8
DEFPOINTS
 62
     0
440
 16777216
100
AcDbPoint
 10
-5861.319306824853
 20
2829.079370884769
 30
0.0
  0
POINT
  5
1BA7
330
1061
100
AcDbEntity
  8
DEFPOINTS
 62
     0
440
 16777216
100
AcDbPoint
 10
-6420.695712464498
 20
2829.079370884769
 30
0.0
  0
ENDBLK
  5
106C
330
1061
100
AcDbEntity
  8
0
100
AcDbBlockEnd
  0
BLOCK
  5
1077
330
106D
100
AcDbEntity
  8
0
100
AcDbBlockBegin
  2
*D56
 70
     1
 10
0.0
 20
0.0
 30
0.0
  3
*D56
  1

  0
LINE
  5
1BA8
330
106D
100
AcDbEntity
  8
SUNPOU
 62
     0
440
 16777216
370
    -2
100
AcDbLine
 10
-5901.319306824853
 20
2829.079370884769
 30
0.0
 11
-6430.695712464498
 21
2829.079370884769
 31
0.0
  0
LINE
  5
1BA9
330
106D
100
AcDbEntity
  8
SUNPOU
 62
     0
440
 16777216
370
    -2
100
AcDbLine
 10
-6023.319306824853
 20
2709.079370884769
 30
0.0
 11
-6430.695712464498
 21
2709.079370884769
 31
0.0
  0
LINE
  5
1BAA
330
106D
100
AcDbEntity
  8
SUNPOU
 62
     0
440
 16777216
370
    -2
100
AcDbLine
 10
-6420.695712464498
 20
2789.079370884769
 30
0.0
 11
-6420.695712464498
 21
2749.079370884769
 31
0.0
  0
SOLID
  5
1BAB
330
106D
100
AcDbEntity
  8
SUNPOU
 62
     0
440
 16777216
100
AcDbTrace
 10
-6427.362379131165
 20
2789.079370884769
 30
0.0
 11
-6414.029045797831
 21
2789.079370884769
 31
0.0
 12
-6420.695712464498
 22
2829.079370884769
 32
0.0
 13
-6420.695712464498
 23
2829.079370884769
 33
0.0
  0
SOLID
  5
1BAC
330
106D
100
AcDbEntity
  8
SUNPOU
 62
     0
440
 16777216
100
AcDbTrace
 10
-6427.362379131165
 20
2749.079370884769
 30
0.0
 11
-6414.029045797831
 21
2749.079370884769
 31
0.0
 12
-6420.695712464498
 22
2709.079370884769
 32
0.0
 13
-6420.695712464498
 23
2709.079370884769
 33
0.0
  0
MTEXT
  5
1BAD
330
106D
100
AcDbEntity
  8
SUNPOU
 62
     0
440
 16777216
100
AcDbMText
 10
-6459.695712464499
 20
2769.079370884768
 30
0.0
 40
50.0
 41
0.0
 71
     5
 72
     1
  1
\A1;120
 11
6.123031769111886E-17
 21
1.0
 31
0.0
 73
     1
 44
1.0
  0
POINT
  5
1BAE
330
106D
100
AcDbEntity
  8
DEFPOINTS
 62
     0
440
 16777216
100
AcDbPoint
 10
-5861.319306824853
 20
2829.079370884769
 30
0.0
  0
POINT
  5
1BAF
330
106D
100
AcDbEntity
  8
DEFPOINTS
 62
     0
440
 16777216
100
AcDbPoint
 10
-5983.319306824853
 20
2709.079370884769
 30
0.0
  0
POINT
  5
1BB0
330
106D
100
AcDbEntity
  8
DEFPOINTS
 62
     0
440
 16777216
100
AcDbPoint
 10
-6420.695712464498
 20
2709.079370884769
 30
0.0
  0
ENDBLK
  5
1078
330
106D
100
AcDbEntity
  8
0
100
AcDbBlockEnd
  0
BLOCK
  5
1083
330
1079
100
AcDbEntity
  8
0
100
AcDbBlockBegin
  2
*D57
 70
     1
 10
0.0
 20
0.0
 30
0.0
  3
*D57
  1

  0
LINE
  5
1BB1
330
1079
100
AcDbEntity
  8
SUNPOU
 62
     0
440
 16777216
370
    -2
100
AcDbLine
 10
-6001.319306824853
 20
3829.079370884769
 30
0.0
 11
-6550.499638684851
 21
3829.079370884769
 31
0.0
  0
LINE
  5
1BB2
330
1079
100
AcDbEntity
  8
SUNPOU
 62
     0
440
 16777216
370
    -2
100
AcDbLine
 10
-6023.319306824853
 20
2709.079370884769
 30
0.0
 11
-6550.499638684851
 21
2709.079370884769
 31
0.0
  0
LINE
  5
1BB3
330
1079
100
AcDbEntity
  8
SUNPOU
 62
     0
440
 16777216
370
    -2
100
AcDbLine
 10
-6540.499638684851
 20
3789.079370884769
 30
0.0
 11
-6540.499638684851
 21
2749.079370884769
 31
0.0
  0
SOLID
  5
1BB4
330
1079
100
AcDbEntity
  8
SUNPOU
 62
     0
440
 16777216
100
AcDbTrace
 10
-6547.166305351518
 20
3789.079370884769
 30
0.0
 11
-6533.832972018184
 21
3789.079370884769
 31
0.0
 12
-6540.499638684851
 22
3829.079370884769
 32
0.0
 13
-6540.499638684851
 23
3829.079370884769
 33
0.0
  0
SOLID
  5
1BB5
330
1079
100
AcDbEntity
  8
SUNPOU
 62
     0
440
 16777216
100
AcDbTrace
 10
-6547.166305351518
 20
2749.079370884769
 30
0.0
 11
-6533.832972018184
 21
2749.079370884769
 31
0.0
 12
-6540.499638684851
 22
2709.079370884769
 32
0.0
 13
-6540.499638684851
 23
2709.079370884769
 33
0.0
  0
MTEXT
  5
1BB6
330
1079
100
AcDbEntity
  8
SUNPOU
 62
     0
440
 16777216
100
AcDbMText
 10
-6579.499638684852
 20
3269.079370884768
 30
0.0
 40
50.0
 41
0.0
 71
     5
 72
     1
  1
\A1;1120
 11
6.123031769111886E-17
 21
1.0
 31
0.0
 73
     1
 44
1.0
  0
POINT
  5
1BB7
330
1079
100
AcDbEntity
  8
DEFPOINTS
 62
     0
440
 16777216
100
AcDbPoint
 10
-5961.319306824853
 20
3829.079370884769
 30
0.0
  0
POINT
  5
1BB8
330
1079
100
AcDbEntity
  8
DEFPOINTS
 62
     0
440
 16777216
100
AcDbPoint
 10
-5983.319306824853
 20
2709.079370884769
 30
0.0
  0
POINT
  5
1BB9
330
1079
100
AcDbEntity
  8
DEFPOINTS
 62
     0
440
 16777216
100
AcDbPoint
 10
-6540.499638684851
 20
2709.079370884769
 30
0.0
  0
ENDBLK
  5
1084
330
1079
100
AcDbEntity
  8
0
100
AcDbBlockEnd
  0
BLOCK
  5
10DA
330
10CF
100
AcDbEntity
  8
0
100
AcDbBlockBegin
  2
*D64
 70
     1
 10
0.0
 20
0.0
 30
0.0
  3
*D64
  1

  0
LINE
  5
1BFB
330
10CF
100
AcDbEntity
  8
SUNPOU
 62
     0
440
 16777216
370
    -2
100
AcDbLine
 10
-5983.319306824853
 20
2669.079370884769
 30
0.0
 11
-5983.319306824853
 21
2302.464382280366
 31
0.0
  0
LINE
  5
1BFC
330
10CF
100
AcDbEntity
  8
SUNPOU
 62
     0
440
 16777216
370
    -2
100
AcDbLine
 10
-5981.319306824853
 20
2669.079370884769
 30
0.0
 11
-5981.319306824853
 21
2302.464382280366
 31
0.0
  0
LINE
  5
1BFD
330
10CF
100
AcDbEntity
  8
SUNPOU
 62
     0
440
 16777216
370
    -2
100
AcDbLine
 10
-6023.319306824853
 20
2312.464382280366
 30
0.0
 11
-6063.319306824853
 21
2312.464382280366
 31
0.0
  0
LINE
  5
1BFE
330
10CF
100
AcDbEntity
  8
SUNPOU
 62
     0
440
 16777216
370
    -2
100
AcDbLine
 10
-5941.319306824853
 20
2312.464382280366
 30
0.0
 11
-5901.319306824853
 21
2312.464382280366
 31
0.0
  0
MTEXT
  5
1BFF
330
10CF
100
AcDbEntity
  8
SUNPOU
 62
     0
440
 16777216
100
AcDbMText
 10
-5956.469597065421
 20
2351.464382280366
 30
0.0
 40
50.0
 41
0.0
 71
     5
 72
     1
  1
\A1;2
 73
     1
 44
1.0
  0
SOLID
  5
1C00
330
10CF
100
AcDbEntity
  8
SUNPOU
 62
     0
440
 16777216
100
AcDbTrace
 10
-6023.319306824853
 20
2319.131048947033
 30
0.0
 11
-6023.319306824853
 21
2305.7977156137
 31
0.0
 12
-5983.319306824853
 22
2312.464382280366
 32
0.0
 13
-5983.319306824853
 23
2312.464382280366
 33
0.0
  0
SOLID
  5
1C01
330
10CF
100
AcDbEntity
  8
SUNPOU
 62
     0
440
 16777216
100
AcDbTrace
 10
-5941.319306824853
 20
2319.131048947033
 30
0.0
 11
-5941.319306824853
 21
2305.7977156137
 31
0.0
 12
-5981.319306824853
 22
2312.464382280366
 32
0.0
 13
-5981.319306824853
 23
2312.464382280366
 33
0.0
  0
POINT
  5
1C02
330
10CF
100
AcDbEntity
  8
DEFPOINTS
 62
     0
440
 16777216
100
AcDbPoint
 10
-5983.319306824853
 20
2709.079370884769
 30
0.0
  0
POINT
  5
1C03
330
10CF
100
AcDbEntity
  8
DEFPOINTS
 62
     0
440
 16777216
100
AcDbPoint
 10
-5981.319306824853
 20
2709.079370884769
 30
0.0
  0
POINT
  5
1C04
330
10CF
100
AcDbEntity
  8
DEFPOINTS
 62
     0
440
 16777216
100
AcDbPoint
 10
-5981.319306824853
 20
2312.464382280366
 30
0.0
  0
ENDBLK
  5
10DB
330
10CF
100
AcDbEntity
  8
0
100
AcDbBlockEnd
  0
BLOCK
  5
1130
330
1126
100
AcDbEntity
  8
0
100
AcDbBlockBegin
  2
*D71
 70
     1
 10
0.0
 20
0.0
 30
0.0
  3
*D71
  1

  0
LINE
  5
1C21
330
1126
100
AcDbEntity
  8
SUNPOU
 62
     0
440
 16777216
370
    -2
100
AcDbLine
 10
-5961.319306824853
 20
3869.079370884769
 30
0.0
 11
-5961.319306824853
 21
4346.873961375266
 31
0.0
  0
LINE
  5
1C22
330
1126
100
AcDbEntity
  8
SUNPOU
 62
     0
440
 16777216
370
    -2
100
AcDbLine
 10
-5441.319306824853
 20
2869.079370884769
 30
0.0
 11
-5441.319306824853
 21
4346.873961375266
 31
0.0
  0
LINE
  5
1C23
330
1126
100
AcDbEntity
  8
SUNPOU
 62
     0
440
 16777216
370
    -2
100
AcDbLine
 10
-5921.319306824853
 20
4336.873961375266
 30
0.0
 11
-5481.319306824853
 21
4336.873961375266
 31
0.0
  0
SOLID
  5
1C24
330
1126
100
AcDbEntity
  8
SUNPOU
 62
     0
440
 16777216
100
AcDbTrace
 10
-5921.319306824853
 20
4343.540628041933
 30
0.0
 11
-5921.319306824853
 21
4330.207294708599
 31
0.0
 12
-5961.319306824853
 22
4336.873961375266
 32
0.0
 13
-5961.319306824853
 23
4336.873961375266
 33
0.0
  0
SOLID
  5
1C25
330
1126
100
AcDbEntity
  8
SUNPOU
 62
     0
440
 16777216
100
AcDbTrace
 10
-5481.319306824853
 20
4343.540628041933
 30
0.0
 11
-5481.319306824853
 21
4330.207294708599
 31
0.0
 12
-5441.319306824853
 22
4336.873961375266
 32
0.0
 13
-5441.319306824853
 23
4336.873961375266
 33
0.0
  0
MTEXT
  5
1C26
330
1126
100
AcDbEntity
  8
SUNPOU
 62
     0
440
 16777216
100
AcDbMText
 10
-5701.319306824853
 20
4375.873961375266
 30
0.0
 40
50.0
 41
0.0
 71
     5
 72
     1
  1
\A1;520
 73
     1
 44
1.0
  0
POINT
  5
1C27
330
1126
100
AcDbEntity
  8
DEFPOINTS
 62
     0
440
 16777216
100
AcDbPoint
 10
-5961.319306824853
 20
3829.079370884769
 30
0.0
  0
POINT
  5
1C28
330
1126
100
AcDbEntity
  8
DEFPOINTS
 62
     0
440
 16777216
100
AcDbPoint
 10
-5441.319306824853
 20
2829.079370884769
 30
0.0
  0
POINT
  5
1C29
330
1126
100
AcDbEntity
  8
DEFPOINTS
 62
     0
440
 16777216
100
AcDbPoint
 10
-5441.319306824853
 20
4336.873961375266
 30
0.0
  0
ENDBLK
  5
1131
330
1126
100
AcDbEntity
  8
0
100
AcDbBlockEnd
  0
BLOCK
  5
113C
330
1132
100
AcDbEntity
  8
0
100
AcDbBlockBegin
  2
*D72
 70
     1
 10
0.0
 20
0.0
 30
0.0
  3
*D72
  1

  0
LINE
  5
1C2A
330
1132
100
AcDbEntity
  8
SUNPOU
 62
     0
440
 16777216
370
    -2
100
AcDbLine
 10
-3770.513014999264
 20
3869.079370884769
 30
0.0
 11
-3770.513014999264
 21
4346.873961375266
 31
0.0
  0
LINE
  5
1C2B
330
1132
100
AcDbEntity
  8
SUNPOU
 62
     0
440
 16777216
370
    -2
100
AcDbLine
 10
-1770.513014999264
 20
3869.079370884769
 30
0.0
 11
-1770.513014999264
 21
4346.873961375266
 31
0.0
  0
LINE
  5
1C2C
330
1132
100
AcDbEntity
  8
SUNPOU
 62
     0
440
 16777216
370
    -2
100
AcDbLine
 10
-3730.513014999264
 20
4336.873961375266
 30
0.0
 11
-1810.513014999264
 21
4336.873961375266
 31
0.0
  0
SOLID
  5
1C2D
330
1132
100
AcDbEntity
  8
SUNPOU
 62
     0
440
 16777216
100
AcDbTrace
 10
-3730.513014999264
 20
4343.540628041933
 30
0.0
 11
-3730.513014999264
 21
4330.207294708599
 31
0.0
 12
-3770.513014999264
 22
4336.873961375266
 32
0.0
 13
-3770.513014999264
 23
4336.873961375266
 33
0.0
  0
SOLID
  5
1C2E
330
1132
100
AcDbEntity
  8
SUNPOU
 62
     0
440
 16777216
100
AcDbTrace
 10
-1810.513014999264
 20
4343.540628041933
 30
0.0
 11
-1810.513014999264
 21
4330.207294708599
 31
0.0
 12
-1770.513014999264
 22
4336.873961375266
 32
0.0
 13
-1770.513014999264
 23
4336.873961375266
 33
0.0
  0
MTEXT
  5
1C2F
330
1132
100
AcDbEntity
  8
SUNPOU
 62
     0
440
 16777216
100
AcDbMText
 10
-2770.513014999264
 20
4375.873961375266
 30
0.0
 40
50.0
 41
0.0
 71
     5
 72
     1
  1
\A1;2000
 73
     1
 44
1.0
  0
POINT
  5
1C30
330
1132
100
AcDbEntity
  8
DEFPOINTS
 62
     0
440
 16777216
100
AcDbPoint
 10
-3770.513014999264
 20
3829.079370884769
 30
0.0
  0
POINT
  5
1C31
330
1132
100
AcDbEntity
  8
DEFPOINTS
 62
     0
440
 16777216
100
AcDbPoint
 10
-1770.513014999264
 20
3829.079370884769
 30
0.0
  0
POINT
  5
1C32
330
1132
100
AcDbEntity
  8
DEFPOINTS
 62
     0
440
 16777216
100
AcDbPoint
 10
-1770.513014999264
 20
4336.873961375266
 30
0.0
  0
ENDBLK
  5
113D
330
1132
100
AcDbEntity
  8
0
100
AcDbBlockEnd
  0
BLOCK
  5
1179
330
116F
100
AcDbEntity
  8
0
100
AcDbBlockBegin
  2
*D77
 70
     1
 10
0.0
 20
0.0
 30
0.0
  3
*D77
  1

  0
LINE
  5
1C45
330
116F
100
AcDbEntity
  8
SUNPOU
 62
     0
440
 16777216
370
    -2
100
AcDbLine
 10
-1730.513014999264
 20
2709.079370884769
 30
0.0
 11
-1335.449101253129
 21
2709.079370884769
 31
0.0
  0
LINE
  5
1C46
330
116F
100
AcDbEntity
  8
SUNPOU
 62
     0
440
 16777216
370
    -2
100
AcDbLine
 10
-1738.013014999264
 20
2829.079370884768
 30
0.0
 11
-1335.449101253129
 21
2829.079370884768
 31
0.0
  0
LINE
  5
1C47
330
116F
100
AcDbEntity
  8
SUNPOU
 62
     0
440
 16777216
370
    -2
100
AcDbLine
 10
-1345.449101253129
 20
2749.079370884769
 30
0.0
 11
-1345.449101253129
 21
2789.079370884768
 31
0.0
  0
SOLID
  5
1C48
330
116F
100
AcDbEntity
  8
SUNPOU
 62
     0
440
 16777216
100
AcDbTrace
 10
-1352.115767919796
 20
2749.079370884769
 30
0.0
 11
-1338.782434586462
 21
2749.079370884769
 31
0.0
 12
-1345.449101253129
 22
2709.079370884769
 32
0.0
 13
-1345.449101253129
 23
2709.079370884769
 33
0.0
  0
SOLID
  5
1C49
330
116F
100
AcDbEntity
  8
SUNPOU
 62
     0
440
 16777216
100
AcDbTrace
 10
-1352.115767919796
 20
2789.079370884768
 30
0.0
 11
-1338.782434586462
 21
2789.079370884768
 31
0.0
 12
-1345.449101253129
 22
2829.079370884768
 32
0.0
 13
-1345.449101253129
 23
2829.079370884768
 33
0.0
  0
MTEXT
  5
1C4A
330
116F
100
AcDbEntity
  8
SUNPOU
 62
     0
440
 16777216
100
AcDbMText
 10
-1384.449101253129
 20
2769.079370884768
 30
0.0
 40
50.0
 41
0.0
 71
     5
 72
     1
  1
\A1;120
 11
6.123031769111886E-17
 21
1.0
 31
0.0
 73
     1
 44
1.0
  0
POINT
  5
1C4B
330
116F
100
AcDbEntity
  8
DEFPOINTS
 62
     0
440
 16777216
100
AcDbPoint
 10
-1770.513014999264
 20
2709.079370884769
 30
0.0
  0
POINT
  5
1C4C
330
116F
100
AcDbEntity
  8
DEFPOINTS
 62
     0
440
 16777216
100
AcDbPoint
 10
-1778.013014999264
 20
2829.079370884768
 30
0.0
  0
POINT
  5
1C4D
330
116F
100
AcDbEntity
  8
DEFPOINTS
 62
     0
440
 16777216
100
AcDbPoint
 10
-1345.449101253129
 20
2829.079370884768
 30
0.0
  0
ENDBLK
  5
117A
330
116F
100
AcDbEntity
  8
0
100
AcDbBlockEnd
  0
BLOCK
  5
1185
330
117B
100
AcDbEntity
  8
0
100
AcDbBlockBegin
  2
*D78
 70
     1
 10
0.0
 20
0.0
 30
0.0
  3
*D78
  1

  0
LINE
  5
1C3C
330
117B
100
AcDbEntity
  8
SUNPOU
 62
     0
440
 16777216
370
    -2
100
AcDbLine
 10
-1730.513014999264
 20
3829.079370884769
 30
0.0
 11
-1335.449101253129
 21
3829.079370884769
 31
0.0
  0
LINE
  5
1C3D
330
117B
100
AcDbEntity
  8
SUNPOU
 62
     0
440
 16777216
370
    -2
100
AcDbLine
 10
-1738.013014999264
 20
2829.079370884768
 30
0.0
 11
-1335.449101253129
 21
2829.079370884768
 31
0.0
  0
LINE
  5
1C3E
330
117B
100
AcDbEntity
  8
SUNPOU
 62
     0
440
 16777216
370
    -2
100
AcDbLine
 10
-1345.449101253129
 20
3789.079370884769
 30
0.0
 11
-1345.449101253129
 21
2869.079370884768
 31
0.0
  0
SOLID
  5
1C3F
330
117B
100
AcDbEntity
  8
SUNPOU
 62
     0
440
 16777216
100
AcDbTrace
 10
-1352.115767919795
 20
3789.079370884769
 30
0.0
 11
-1338.782434586462
 21
3789.079370884769
 31
0.0
 12
-1345.449101253129
 22
3829.079370884769
 32
0.0
 13
-1345.449101253129
 23
3829.079370884769
 33
0.0
  0
SOLID
  5
1C40
330
117B
100
AcDbEntity
  8
SUNPOU
 62
     0
440
 16777216
100
AcDbTrace
 10
-1352.115767919796
 20
2869.079370884768
 30
0.0
 11
-1338.782434586462
 21
2869.079370884768
 31
0.0
 12
-1345.449101253129
 22
2829.079370884768
 32
0.0
 13
-1345.449101253129
 23
2829.079370884768
 33
0.0
  0
MTEXT
  5
1C41
330
117B
100
AcDbEntity
  8
SUNPOU
 62
     0
440
 16777216
100
AcDbMText
 10
-1384.449101253129
 20
3329.079370884768
 30
0.0
 40
50.0
 41
0.0
 71
     5
 72
     1
  1
\A1;1000
 11
6.123031769111886E-17
 21
1.0
 31
0.0
 73
     1
 44
1.0
  0
POINT
  5
1C42
330
117B
100
AcDbEntity
  8
DEFPOINTS
 62
     0
440
 16777216
100
AcDbPoint
 10
-1770.513014999264
 20
3829.079370884769
 30
0.0
  0
POINT
  5
1C43
330
117B
100
AcDbEntity
  8
DEFPOINTS
 62
     0
440
 16777216
100
AcDbPoint
 10
-1778.013014999264
 20
2829.079370884768
 30
0.0
  0
POINT
  5
1C44
330
117B
100
AcDbEntity
  8
DEFPOINTS
 62
     0
440
 16777216
100
AcDbPoint
 10
-1345.449101253129
 20
2829.079370884768
 30
0.0
  0
ENDBLK
  5
1186
330
117B
100
AcDbEntity
  8
0
100
AcDbBlockEnd
  0
BLOCK
  5
1191
330
1187
100
AcDbEntity
  8
0
100
AcDbBlockBegin
  2
*D79
 70
     1
 10
0.0
 20
0.0
 30
0.0
  3
*D79
  1

  0
LINE
  5
1C4E
330
1187
100
AcDbEntity
  8
SUNPOU
 62
     0
440
 16777216
370
    -2
100
AcDbLine
 10
-1730.513014999264
 20
3829.079370884769
 30
0.0
 11
-1219.347245546996
 21
3829.079370884769
 31
0.0
  0
LINE
  5
1C4F
330
1187
100
AcDbEntity
  8
SUNPOU
 62
     0
440
 16777216
370
    -2
100
AcDbLine
 10
-1730.513014999264
 20
2709.079370884769
 30
0.0
 11
-1219.347245546996
 21
2709.079370884769
 31
0.0
  0
LINE
  5
1C50
330
1187
100
AcDbEntity
  8
SUNPOU
 62
     0
440
 16777216
370
    -2
100
AcDbLine
 10
-1229.347245546996
 20
3789.079370884769
 30
0.0
 11
-1229.347245546996
 21
2749.079370884769
 31
0.0
  0
SOLID
  5
1C51
330
1187
100
AcDbEntity
  8
SUNPOU
 62
     0
440
 16777216
100
AcDbTrace
 10
-1236.013912213663
 20
3789.079370884769
 30
0.0
 11
-1222.680578880329
 21
3789.079370884769
 31
0.0
 12
-1229.347245546996
 22
3829.079370884769
 32
0.0
 13
-1229.347245546996
 23
3829.079370884769
 33
0.0
  0
SOLID
  5
1C52
330
1187
100
AcDbEntity
  8
SUNPOU
 62
     0
440
 16777216
100
AcDbTrace
 10
-1236.013912213663
 20
2749.079370884769
 30
0.0
 11
-1222.68057888033
 21
2749.079370884769
 31
0.0
 12
-1229.347245546996
 22
2709.079370884769
 32
0.0
 13
-1229.347245546996
 23
2709.079370884769
 33
0.0
  0
MTEXT
  5
1C53
330
1187
100
AcDbEntity
  8
SUNPOU
 62
     0
440
 16777216
100
AcDbMText
 10
-1268.347245546997
 20
3269.079370884768
 30
0.0
 40
50.0
 41
0.0
 71
     5
 72
     1
  1
\A1;1120
 11
6.123031769111886E-17
 21
1.0
 31
0.0
 73
     1
 44
1.0
  0
POINT
  5
1C54
330
1187
100
AcDbEntity
  8
DEFPOINTS
 62
     0
440
 16777216
100
AcDbPoint
 10
-1770.513014999264
 20
3829.079370884769
 30
0.0
  0
POINT
  5
1C55
330
1187
100
AcDbEntity
  8
DEFPOINTS
 62
     0
440
 16777216
100
AcDbPoint
 10
-1770.513014999264
 20
2709.079370884769
 30
0.0
  0
POINT
  5
1C56
330
1187
100
AcDbEntity
  8
DEFPOINTS
 62
     0
440
 16777216
100
AcDbPoint
 10
-1229.347245546996
 20
2709.079370884769
 30
0.0
  0
ENDBLK
  5
1192
330
1187
100
AcDbEntity
  8
0
100
AcDbBlockEnd
  0
BLOCK
  5
11AA
330
11A0
100
AcDbEntity
  8
0
100
AcDbBlockBegin
  2
*D81
 70
     1
 10
0.0
 20
0.0
 30
0.0
  3
*D81
  1

  0
LINE
  5
1C0E
330
11A0
100
AcDbEntity
  8
SUNPOU
 62
     0
440
 16777216
370
    -2
100
AcDbLine
 10
-5861.319306824853
 20
3869.079370884769
 30
0.0
 11
-5861.319306824853
 21
4219.079370884769
 31
0.0
  0
LINE
  5
1C0F
330
11A0
100
AcDbEntity
  8
SUNPOU
 62
     0
440
 16777216
370
    -2
100
AcDbLine
 10
-5441.319306824853
 20
2869.079370884769
 30
0.0
 11
-5441.319306824853
 21
4219.079370884769
 31
0.0
  0
LINE
  5
1C10
330
11A0
100
AcDbEntity
  8
SUNPOU
 62
     0
440
 16777216
370
    -2
100
AcDbLine
 10
-5821.319306824853
 20
4209.079370884769
 30
0.0
 11
-5481.319306824853
 21
4209.079370884769
 31
0.0
  0
SOLID
  5
1C11
330
11A0
100
AcDbEntity
  8
SUNPOU
 62
     0
440
 16777216
100
AcDbTrace
 10
-5821.319306824853
 20
4215.746037551436
 30
0.0
 11
-5821.319306824853
 21
4202.412704218102
 31
0.0
 12
-5861.319306824853
 22
4209.079370884769
 32
0.0
 13
-5861.319306824853
 23
4209.079370884769
 33
0.0
  0
SOLID
  5
1C12
330
11A0
100
AcDbEntity
  8
SUNPOU
 62
     0
440
 16777216
100
AcDbTrace
 10
-5481.319306824853
 20
4215.746037551436
 30
0.0
 11
-5481.319306824853
 21
4202.412704218102
 31
0.0
 12
-5441.319306824853
 22
4209.079370884769
 32
0.0
 13
-5441.319306824853
 23
4209.079370884769
 33
0.0
  0
MTEXT
  5
1C13
330
11A0
100
AcDbEntity
  8
SUNPOU
 62
     0
440
 16777216
100
AcDbMText
 10
-5651.319306824853
 20
4248.079370884769
 30
0.0
 40
50.0
 41
0.0
 71
     5
 72
     1
  1
\A1;420
 73
     1
 44
1.0
  0
POINT
  5
1C14
330
11A0
100
AcDbEntity
  8
DEFPOINTS
 62
     0
440
 16777216
100
AcDbPoint
 10
-5861.319306824853
 20
3829.079370884769
 30
0.0
  0
POINT
  5
1C15
330
11A0
100
AcDbEntity
  8
DEFPOINTS
 62
     0
440
 16777216
100
AcDbPoint
 10
-5441.319306824853
 20
2829.079370884769
 30
0.0
  0
POINT
  5
1C16
330
11A0
100
AcDbEntity
  8
DEFPOINTS
 62
     0
440
 16777216
100
AcDbPoint
 10
-5441.319306824853
 20
4209.079370884769
 30
0.0
  0
ENDBLK
  5
11AB
330
11A0
100
AcDbEntity
  8
0
100
AcDbBlockEnd
  0
BLOCK
  5
11B6
330
11AC
100
AcDbEntity
  8
0
100
AcDbBlockBegin
  2
*D82
 70
     1
 10
0.0
 20
0.0
 30
0.0
  3
*D82
  1

  0
LINE
  5
1BDE
330
11AC
100
AcDbEntity
  8
SUNPOU
 62
     0
440
 16777216
370
    -2
100
AcDbLine
 10
-5441.319306824853
 20
2669.079370884769
 30
0.0
 11
-5441.319306824853
 21
2302.464382280366
 31
0.0
  0
LINE
  5
1BDF
330
11AC
100
AcDbEntity
  8
SUNPOU
 62
     0
440
 16777216
370
    -2
100
AcDbLine
 10
-5981.319306824853
 20
2669.079370884769
 30
0.0
 11
-5981.319306824853
 21
2302.464382280366
 31
0.0
  0
LINE
  5
1BE0
330
11AC
100
AcDbEntity
  8
SUNPOU
 62
     0
440
 16777216
370
    -2
100
AcDbLine
 10
-5481.319306824853
 20
2312.464382280366
 30
0.0
 11
-5941.319306824853
 21
2312.464382280366
 31
0.0
  0
SOLID
  5
1BE1
330
11AC
100
AcDbEntity
  8
SUNPOU
 62
     0
440
 16777216
100
AcDbTrace
 10
-5481.319306824853
 20
2319.131048947033
 30
0.0
 11
-5481.319306824853
 21
2305.7977156137
 31
0.0
 12
-5441.319306824853
 22
2312.464382280366
 32
0.0
 13
-5441.319306824853
 23
2312.464382280366
 33
0.0
  0
SOLID
  5
1BE2
330
11AC
100
AcDbEntity
  8
SUNPOU
 62
     0
440
 16777216
100
AcDbTrace
 10
-5941.319306824853
 20
2319.131048947033
 30
0.0
 11
-5941.319306824853
 21
2305.7977156137
 31
0.0
 12
-5981.319306824853
 22
2312.464382280366
 32
0.0
 13
-5981.319306824853
 23
2312.464382280366
 33
0.0
  0
MTEXT
  5
1BE3
330
11AC
100
AcDbEntity
  8
SUNPOU
 62
     0
440
 16777216
100
AcDbMText
 10
-5711.319306824853
 20
2351.464382280366
 30
0.0
 40
50.0
 41
0.0
 71
     5
 72
     1
  1
\A1;540
 73
     1
 44
1.0
  0
POINT
  5
1BE4
330
11AC
100
AcDbEntity
  8
DEFPOINTS
 62
     0
440
 16777216
100
AcDbPoint
 10
-5441.319306824853
 20
2709.079370884769
 30
0.0
  0
POINT
  5
1BE5
330
11AC
100
AcDbEntity
  8
DEFPOINTS
 62
     0
440
 16777216
100
AcDbPoint
 10
-5981.319306824853
 20
2709.079370884769
 30
0.0
  0
POINT
  5
1BE6
330
11AC
100
AcDbEntity
  8
DEFPOINTS
 62
     0
440
 16777216
100
AcDbPoint
 10
-5981.319306824853
 20
2312.464382280366
 30
0.0
  0
ENDBLK
  5
11B7
330
11AC
100
AcDbEntity
  8
0
100
AcDbBlockEnd
  0
BLOCK
  5
11C2
330
11B8
100
AcDbEntity
  8
0
100
AcDbBlockBegin
  2
*D83
 70
     1
 10
0.0
 20
0.0
 30
0.0
  3
*D83
  1

  0
LINE
  5
1C05
330
11B8
100
AcDbEntity
  8
SUNPOU
 62
     0
440
 16777216
370
    -2
100
AcDbLine
 10
-5983.319306824853
 20
2669.079370884769
 30
0.0
 11
-5983.319306824853
 21
2189.651272844949
 31
0.0
  0
LINE
  5
1C06
330
11B8
100
AcDbEntity
  8
SUNPOU
 62
     0
440
 16777216
370
    -2
100
AcDbLine
 10
-5441.319306824853
 20
2669.079370884769
 30
0.0
 11
-5441.319306824853
 21
2189.651272844949
 31
0.0
  0
LINE
  5
1C07
330
11B8
100
AcDbEntity
  8
SUNPOU
 62
     0
440
 16777216
370
    -2
100
AcDbLine
 10
-5943.319306824853
 20
2199.651272844949
 30
0.0
 11
-5481.319306824853
 21
2199.651272844949
 31
0.0
  0
SOLID
  5
1C08
330
11B8
100
AcDbEntity
  8
SUNPOU
 62
     0
440
 16777216
100
AcDbTrace
 10
-5943.319306824853
 20
2206.317939511615
 30
0.0
 11
-5943.319306824853
 21
2192.984606178282
 31
0.0
 12
-5983.319306824853
 22
2199.651272844949
 32
0.0
 13
-5983.319306824853
 23
2199.651272844949
 33
0.0
  0
SOLID
  5
1C09
330
11B8
100
AcDbEntity
  8
SUNPOU
 62
     0
440
 16777216
100
AcDbTrace
 10
-5481.319306824853
 20
2206.317939511615
 30
0.0
 11
-5481.319306824853
 21
2192.984606178282
 31
0.0
 12
-5441.319306824853
 22
2199.651272844949
 32
0.0
 13
-5441.319306824853
 23
2199.651272844949
 33
0.0
  0
MTEXT
  5
1C0A
330
11B8
100
AcDbEntity
  8
SUNPOU
 62
     0
440
 16777216
100
AcDbMText
 10
-5712.319306824853
 20
2238.651272844949
 30
0.0
 40
50.0
 41
0.0
 71
     5
 72
     1
  1
\A1;542
 73
     1
 44
1.0
  0
POINT
  5
1C0B
330
11B8
100
AcDbEntity
  8
DEFPOINTS
 62
     0
440
 16777216
100
AcDbPoint
 10
-5983.319306824853
 20
2709.079370884769
 30
0.0
  0
POINT
  5
1C0C
330
11B8
100
AcDbEntity
  8
DEFPOINTS
 62
     0
440
 16777216
100
AcDbPoint
 10
-5441.319306824853
 20
2709.079370884769
 30
0.0
  0
POINT
  5
1C0D
330
11B8
100
AcDbEntity
  8
DEFPOINTS
 62
     0
440
 16777216
100
AcDbPoint
 10
-5441.319306824853
 20
2199.651272844949
 30
0.0
  0
ENDBLK
  5
11C3
330
11B8
100
AcDbEntity
  8
0
100
AcDbBlockEnd
  0
BLOCK
  5
11CE
330
11C4
100
AcDbEntity
  8
0
100
AcDbBlockBegin
  2
*D84
 70
     1
 10
0.0
 20
0.0
 30
0.0
  3
*D84
  1

  0
LINE
  5
1BD5
330
11C4
100
AcDbEntity
  8
SUNPOU
 62
     0
440
 16777216
370
    -2
100
AcDbLine
 10
-5981.319306824853
 20
2669.079370884769
 30
0.0
 11
-5981.319306824853
 21
2415.837925138192
 31
0.0
  0
LINE
  5
1BD6
330
11C4
100
AcDbEntity
  8
SUNPOU
 62
     0
440
 16777216
370
    -2
100
AcDbLine
 10
-5861.319306824853
 20
2789.079370884769
 30
0.0
 11
-5861.319306824853
 21
2415.837925138192
 31
0.0
  0
LINE
  5
1BD7
330
11C4
100
AcDbEntity
  8
SUNPOU
 62
     0
440
 16777216
370
    -2
100
AcDbLine
 10
-5941.319306824853
 20
2425.837925138192
 30
0.0
 11
-5901.319306824853
 21
2425.837925138192
 31
0.0
  0
SOLID
  5
1BD8
330
11C4
100
AcDbEntity
  8
SUNPOU
 62
     0
440
 16777216
100
AcDbTrace
 10
-5941.319306824853
 20
2432.504591804859
 30
0.0
 11
-5941.319306824853
 21
2419.171258471526
 31
0.0
 12
-5981.319306824853
 22
2425.837925138192
 32
0.0
 13
-5981.319306824853
 23
2425.837925138192
 33
0.0
  0
SOLID
  5
1BD9
330
11C4
100
AcDbEntity
  8
SUNPOU
 62
     0
440
 16777216
100
AcDbTrace
 10
-5901.319306824853
 20
2432.504591804859
 30
0.0
 11
-5901.319306824853
 21
2419.171258471526
 31
0.0
 12
-5861.319306824853
 22
2425.837925138192
 32
0.0
 13
-5861.319306824853
 23
2425.837925138192
 33
0.0
  0
MTEXT
  5
1BDA
330
11C4
100
AcDbEntity
  8
SUNPOU
 62
     0
440
 16777216
100
AcDbMText
 10
-5921.319306824853
 20
2464.837925138192
 30
0.0
 40
50.0
 41
0.0
 71
     5
 72
     1
  1
\A1;120
 73
     1
 44
1.0
  0
POINT
  5
1BDB
330
11C4
100
AcDbEntity
  8
DEFPOINTS
 62
     0
440
 16777216
100
AcDbPoint
 10
-5981.319306824853
 20
2709.079370884769
 30
0.0
  0
POINT
  5
1BDC
330
11C4
100
AcDbEntity
  8
DEFPOINTS
 62
     0
440
 16777216
100
AcDbPoint
 10
-5861.319306824853
 20
2829.079370884769
 30
0.0
  0
POINT
  5
1BDD
330
11C4
100
AcDbEntity
  8
DEFPOINTS
 62
     0
440
 16777216
100
AcDbPoint
 10
-5861.319306824853
 20
2425.837925138192
 30
0.0
  0
ENDBLK
  5
11CF
330
11C4
100
AcDbEntity
  8
0
100
AcDbBlockEnd
  0
BLOCK
  5
1247
330
1241
100
AcDbEntity
  8
0
100
AcDbBlockBegin
  2
*D94
 70
     1
 10
0.0
 20
0.0
 30
0.0
  3
*D94
  1

  0
LINE
  5
1B76
330
1241
100
AcDbEntity
  8
SUNPOU
 62
     0
440
 16777216
370
    -2
100
AcDbLine
 10
-5781.319306824853
 20
2909.079370884767
 30
0.0
 11
-5812.803847866688
 21
2884.407044780711
 31
0.0
  0
MTEXT
  5
1B77
330
1241
100
AcDbEntity
  8
SUNPOU
 62
     0
440
 16777216
100
AcDbMText
 10
-5704.685458817421
 20
2984.388655838344
 30
0.0
 40
50.0
 41
0.0
 71
     5
 72
     1
  1
\A1;R80
 11
0.7871135260458965
 21
0.6168081526014356
 31
0.0
 73
     1
 44
1.0
  0
SOLID
  5
1B78
330
1241
100
AcDbEntity
  8
SUNPOU
 62
     0
440
 16777216
100
AcDbTrace
 10
-5816.915902217364
 20
2889.654468287683
 30
0.0
 11
-5808.691793516011
 21
2879.159621273738
 31
0.0
 12
-5844.288388908523
 22
2859.734718676652
 32
0.0
 13
-5844.288388908523
 23
2859.734718676652
 33
0.0
  0
POINT
  5
1B79
330
1241
100
AcDbEntity
  8
DEFPOINTS
 62
     0
440
 16777216
100
AcDbPoint
 10
-5844.288388908523
 20
2859.734718676652
 30
0.0
  0
POINT
  5
1B7A
330
1241
100
AcDbEntity
  8
DEFPOINTS
 62
     0
440
 16777216
100
AcDbPoint
 10
-5781.319306824853
 20
2909.079370884767
 30
0.0
  0
ENDBLK
  5
1248
330
1241
100
AcDbEntity
  8
0
100
AcDbBlockEnd
  0
BLOCK
  5
1253
330
1249
100
AcDbEntity
  8
0
100
AcDbBlockBegin
  2
*D95
 70
     1
 10
0.0
 20
0.0
 30
0.0
  3
*D95
  1

  0
LINE
  5
1C17
330
1249
100
AcDbEntity
  8
SUNPOU
 62
     0
440
 16777216
370
    -2
100
AcDbLine
 10
-5961.319306824853
 20
3869.079370884769
 30
0.0
 11
-5961.319306824853
 21
4219.079370884769
 31
0.0
  0
LINE
  5
1C18
330
1249
100
AcDbEntity
  8
SUNPOU
 62
     0
440
 16777216
370
    -2
100
AcDbLine
 10
-5861.319306824853
 20
3869.079370884769
 30
0.0
 11
-5861.319306824853
 21
4219.079370884769
 31
0.0
  0
LINE
  5
1C19
330
1249
100
AcDbEntity
  8
SUNPOU
 62
     0
440
 16777216
370
    -2
100
AcDbLine
 10
-6001.319306824853
 20
4209.079370884769
 30
0.0
 11
-6041.319306824853
 21
4209.079370884769
 31
0.0
  0
LINE
  5
1C1A
330
1249
100
AcDbEntity
  8
SUNPOU
 62
     0
440
 16777216
370
    -2
100
AcDbLine
 10
-5821.319306824853
 20
4209.079370884769
 30
0.0
 11
-5781.319306824853
 21
4209.079370884769
 31
0.0
  0
SOLID
  5
1C1B
330
1249
100
AcDbEntity
  8
SUNPOU
 62
     0
440
 16777216
100
AcDbTrace
 10
-6001.319306824853
 20
4215.746037551436
 30
0.0
 11
-6001.319306824853
 21
4202.412704218102
 31
0.0
 12
-5961.319306824853
 22
4209.079370884769
 32
0.0
 13
-5961.319306824853
 23
4209.079370884769
 33
0.0
  0
SOLID
  5
1C1C
330
1249
100
AcDbEntity
  8
SUNPOU
 62
     0
440
 16777216
100
AcDbTrace
 10
-5821.319306824853
 20
4215.746037551436
 30
0.0
 11
-5821.319306824853
 21
4202.412704218102
 31
0.0
 12
-5861.319306824853
 22
4209.079370884769
 32
0.0
 13
-5861.319306824853
 23
4209.079370884769
 33
0.0
  0
MTEXT
  5
1C1D
330
1249
100
AcDbEntity
  8
SUNPOU
 62
     0
440
 16777216
100
AcDbMText
 10
-5911.319306824853
 20
4248.079370884769
 30
0.0
 40
50.0
 41
0.0
 71
     5
 72
     1
  1
\A1;100
 73
     1
 44
1.0
  0
POINT
  5
1C1E
330
1249
100
AcDbEntity
  8
DEFPOINTS
 62
     0
440
 16777216
100
AcDbPoint
 10
-5961.319306824853
 20
3829.079370884769
 30
0.0
  0
POINT
  5
1C1F
330
1249
100
AcDbEntity
  8
DEFPOINTS
 62
     0
440
 16777216
100
AcDbPoint
 10
-5861.319306824853
 20
3829.079370884769
 30
0.0
  0
POINT
  5
1C20
330
1249
100
AcDbEntity
  8
DEFPOINTS
 62
     0
440
 16777216
100
AcDbPoint
 10
-5861.319306824853
 20
4209.079370884769
 30
0.0
  0
ENDBLK
  5
1254
330
1249
100
AcDbEntity
  8
0
100
AcDbBlockEnd
  0
ENDSEC
  0
SECTION
  2
ENTITIES
  0
LINE
  5
F7A
330
17
100
AcDbEntity
  8
HAIKIN
100
AcDbLine
 10
-7968.639144954406
 20
5440.0
 30
0.0
 11
-308.6391449544062
 21
5440.0
 31
0.0
  0
LINE
  5
F7B
330
17
100
AcDbEntity
  8
HAIKIN
100
AcDbLine
 10
-7968.639144954406
 20
100.0
 30
0.0
 11
-308.6391449544062
 21
100.0
 31
0.0
  0
LEADER
  5
F7C
330
17
100
AcDbEntity
  8
SUNPOU
100
AcDbLeader
  3
A3-20
 76
     3
 10
-5392.588475395543
 20
2773.368302192413
 30
0.0
 10
-5228.797831935768
 20
3059.756081819251
 30
0.0
 10
-4822.827270484999
 20
3059.756081819251
 30
0.0
  0
DIMENSION
  5
F7F
330
17
100
AcDbEntity
  8
SUNPOU
100
AcDbDimension
  2
*D57
 10
-6540.499638684851
 20
2709.079370884769
 30
0.0
 11
-6579.499638684852
 21
3269.079370884768
 31
0.0
 70
    32
 71
     5
 42
1120.0
  3
A3-20
100
AcDbAlignedDimension
 13
-5961.319306824853
 23
3829.079370884769
 33
0.0
 14
-5983.319306824853
 24
2709.079370884769
 34
0.0
 50
90.0
100
AcDbRotatedDimension
  0
DIMENSION
  5
F80
330
17
100
AcDbEntity
  8
SUNPOU
100
AcDbDimension
  2
*D55
 10
-6420.695712464498
 20
2829.079370884769
 30
0.0
 11
-6459.695712464499
 21
3329.079370884768
 31
0.0
 70
    32
 71
     5
 42
1000.0
  3
A3-20
100
AcDbAlignedDimension
 13
-5961.319306824853
 23
3829.079370884769
 33
0.0
 14
-5861.319306824853
 24
2829.079370884769
 34
0.0
 50
90.0
100
AcDbRotatedDimension
  0
DIMENSION
  5
F81
330
17
100
AcDbEntity
  8
SUNPOU
100
AcDbDimension
  2
*D81
 10
-5441.319306824853
 20
4209.079370884769
 30
0.0
 11
-5651.319306824853
 21
4248.079370884769
 31
0.0
 70
    32
 71
     5
 42
420.0
  3
A3-20
100
AcDbAlignedDimension
 13
-5861.319306824853
 23
3829.079370884769
 33
0.0
 14
-5441.319306824853
 24
2829.079370884769
 34
0.0
100
AcDbRotatedDimension
  0
DIMENSION
  5
F82
330
17
100
AcDbEntity
  8
SUNPOU
100
AcDbDimension
  2
*D71
 10
-5441.319306824853
 20
4336.873961375266
 30
0.0
 11
-5701.319306824853
 21
4375.873961375266
 31
0.0
 70
    32
 71
     5
 42
520.0
  3
A3-20
100
AcDbAlignedDimension
 13
-5961.319306824853
 23
3829.079370884769
 33
0.0
 14
-5441.319306824853
 24
2829.079370884769
 34
0.0
100
AcDbRotatedDimension
  0
LINE
  5
F84
330
17
100
AcDbEntity
  8
SEIHIN
100
AcDbLine
 10
-5886.319306824853
 20
3829.079370884769
 30
0.0
 11
-5886.319306824853
 21
2909.079370884769
 31
0.0
  0
LINE
  5
F85
330
17
100
AcDbEntity
  8
HAIKIN
100
AcDbLine
 10
-7968.639144954406
 20
100.0
 30
0.0
 11
-7968.639144954406
 21
5440.0
 31
0.0
  0
DIMENSION
  5
F86
330
17
100
AcDbEntity
  8
SUNPOU
100
AcDbDimension
  2
*D94
 10
-5781.319306824853
 20
2909.079370884767
 30
0.0
 11
-5704.685458817421
 21
2984.388655838344
 31
0.0
 70
   164
 71
     5
 42
79.99999999999864
  3
A3-20
100
AcDbRadialDimension
 15
-5844.288388908523
 25
2859.734718676652
 35
0.0
 40
0.0
  0
LINE
  5
F87
330
17
100
AcDbEntity
  8
SEIHIN
100
AcDbLine
 10
-5861.319306824853
 20
3829.079370884769
 30
0.0
 11
-5861.319306824853
 21
2909.079370884769
 31
0.0
  0
LINE
  5
F88
330
17
100
AcDbEntity
  8
SEIHIN
100
AcDbLine
 10
-5961.319306824853
 20
3829.079370884769
 30
0.0
 11
-5983.319306824853
 21
2709.079370884769
 31
0.0
  0
DIMENSION
  5
F9B
330
17
100
AcDbEntity
  8
SUNPOU
100
AcDbDimension
  2
*D83
 10
-5441.319306824853
 20
2199.651272844949
 30
0.0
 11
-5712.319306824853
 21
2238.651272844949
 31
0.0
 70
    32
 71
     5
 42
542.0
  3
A3-20
100
AcDbAlignedDimension
 13
-5983.319306824853
 23
2709.079370884769
 33
0.0
 14
-5441.319306824853
 24
2709.079370884769
 34
0.0
100
AcDbRotatedDimension
  0
DIMENSION
  5
F9C
330
17
100
AcDbEntity
  8
SUNPOU
100
AcDbDimension
  2
*D82
 10
-5981.319306824853
 20
2312.464382280366
 30
0.0
 11
-5711.319306824853
 21
2351.464382280366
 31
0.0
 70
    32
 71
     5
 42
540.0
  3
A3-20
100
AcDbAlignedDimension
 13
-5441.319306824853
 23
2709.079370884769
 33
0.0
 14
-5981.319306824853
 24
2709.079370884769
 34
0.0
100
AcDbRotatedDimension
  0
LINE
  5
F9D
330
17
100
AcDbEntity
  8
SEIHIN
100
AcDbLine
 10
-5781.319306824853
 20
2804.079370884769
 30
0.0
 11
-5441.319306824853
 21
2804.079370884769
 31
0.0
  0
LINE
  5
F9E
330
17
100
AcDbEntity
  8
HAIKIN
  6
HIDDEN
100
AcDbLine
 10
-5841.319306824853
 20
2769.079370884769
 30
0.0
 11
-5441.319306824853
 21
2769.079370884769
 31
0.0
  0
LINE
  5
F9F
330
17
100
AcDbEntity
  8
SEIHIN
100
AcDbLine
 10
-5781.319306824853
 20
2829.079370884769
 30
0.0
 11
-5441.319306824853
 21
2829.079370884769
 31
0.0
  0
LINE
  5
FA0
330
17
100
AcDbEntity
  8
SEIHIN
100
AcDbLine
 10
-5983.319306824853
 20
2709.079370884769
 30
0.0
 11
-5441.319306824853
 21
2709.079370884769
 31
0.0
  0
DIMENSION
  5
FA2
330
17
100
AcDbEntity
  8
SUNPOU
100
AcDbDimension
  2
*D56
 10
-6420.695712464498
 20
2709.079370884769
 30
0.0
 11
-6459.695712464499
 21
2769.079370884768
 31
0.0
 70
    32
 71
     5
 42
120.0
  3
A3-20
100
AcDbAlignedDimension
 13
-5861.319306824853
 23
2829.079370884769
 33
0.0
 14
-5983.319306824853
 24
2709.079370884769
 34
0.0
 50
90.0
100
AcDbRotatedDimension
  0
DIMENSION
  5
FA3
330
17
100
AcDbEntity
  8
SUNPOU
100
AcDbDimension
  2
*D64
 10
-5981.319306824853
 20
2312.464382280366
 30
0.0
 11
-5956.469597065421
 21
2351.464382280366
 31
0.0
 70
   160
 71
     5
 42
2.0
  3
A3-20
100
AcDbAlignedDimension
 13
-5983.319306824853
 23
2709.079370884769
 33
0.0
 14
-5981.319306824853
 24
2709.079370884769
 34
0.0
100
AcDbRotatedDimension
  0
DIMENSION
  5
FA4
330
17
100
AcDbEntity
  8
SUNPOU
100
AcDbDimension
  2
*D84
 10
-5861.319306824853
 20
2425.837925138192
 30
0.0
 11
-5921.319306824853
 21
2464.837925138192
 31
0.0
 70
    32
 71
     5
 42
120.0
  3
A3-20
100
AcDbAlignedDimension
 13
-5981.319306824853
 23
2709.079370884769
 33
0.0
 14
-5861.319306824853
 24
2829.079370884769
 34
0.0
100
AcDbRotatedDimension
  0
ARC
  5
FA5
330
17
100
AcDbEntity
  8
SEIHIN
100
AcDbCircle
 10
-5781.319306824853
 20
2909.079370884769
 30
0.0
 40
105.0
100
AcDbArc
 50
180.0
 51
270.0
  0
ARC
  5
FAA
330
17
100
AcDbEntity
  8
SEIHIN
100
AcDbCircle
 10
-5781.319306824853
 20
2909.079370884769
 30
0.0
 40
80.0
100
AcDbArc
 50
180.0
 51
270.0
  0
POINT
  5
FAB
330
17
100
AcDbEntity
  8
TEN
100
AcDbPoint
 10
-5861.319306824853
 20
2829.079370884769
 30
0.0
  0
LINE
  5
FB2
330
17
100
AcDbEntity
  8
SEIHIN
100
AcDbLine
 10
-5441.319306824853
 20
2829.079370884769
 30
0.0
 11
-5441.319306824853
 21
2709.079370884769
 31
0.0
  0
LINE
  5
FB3
330
17
100
AcDbEntity
  8
HAIKIN
100
AcDbLine
 10
-5441.319306824853
 20
2769.079370884769
 30
0.0
 11
-5331.319306824853
 21
2769.079370884769
 31
0.0
  0
LINE
  5
FB4
330
17
100
AcDbEntity
  8
SUNPOU
100
AcDbLine
 10
-7468.639144954406
 20
5540.0
 30
0.0
 11
-7968.639144954406
 21
5540.0
 31
0.0
  0
TEXT
  5
FB5
330
17
100
AcDbEntity
  8
SUNPOU
100
AcDbText
 10
-7894.639144954406
 20
5460.0
 30
0.0
 40
60.0
  1
Ｈ－２－共
 72
     4
 11
-7718.639144954406
 21
5490.0
 31
0.0
100
AcDbText
  0
LINE
  5
FB6
330
17
100
AcDbEntity
  8
SUNPOU
100
AcDbLine
 10
-7968.639144954406
 20
5540.0
 30
0.0
 11
-7968.639144954406
 21
5440.0
 31
0.0
  0
LINE
  5
FB7
330
17
100
AcDbEntity
  8
SUNPOU
100
AcDbLine
 10
-7468.639144954406
 20
5440.0
 30
0.0
 11
-7468.639144954406
 21
5540.0
 31
0.0
  0
DIMENSION
  5
FBA
330
17
100
AcDbEntity
  8
SUNPOU
100
AcDbDimension
  2
*D95
 10
-5861.319306824853
 20
4209.079370884769
 30
0.0
 11
-5911.319306824853
 21
4248.079370884769
 31
0.0
 70
    32
 71
     5
 42
100.0
  3
A3-20
100
AcDbAlignedDimension
 13
-5961.319306824853
 23
3829.079370884769
 33
0.0
 14
-5861.319306824853
 24
3829.079370884769
 34
0.0
100
AcDbRotatedDimension
  0
LINE
  5
FC2
330
17
100
AcDbEntity
  8
SEIHIN
100
AcDbLine
 10
-5961.319306824853
 20
3829.079370884769
 30
0.0
 11
-5861.319306824853
 21
3829.079370884769
 31
0.0
  0
TEXT
  5
FC3
330
17
100
AcDbEntity
  8
SUNPOU
100
AcDbText
 10
-5141.488773444917
 20
3069.035721456119
 30
0.0
 40
49.99999999999999
  1
つなぎ鉄筋
 41
0.8
100
AcDbText
  0
TEXT
  5
FC6
330
17
100
AcDbEntity
  8
SUNPOU
100
AcDbText
 10
-5141.488773444917
 20
2989.907275818934
 30
0.0
 40
49.99999999999999
  1
D13x10
 41
0.8
100
AcDbText
  0
DIMENSION
  5
FC9
330
17
100
AcDbEntity
  8
SUNPOU
100
AcDbDimension
  2
*D79
 10
-1229.347245546996
 20
2709.079370884769
 30
0.0
 11
-1268.347245546997
 21
3269.079370884768
 31
0.0
 70
    32
 71
     5
 42
1120.0
  3
A3-20
100
AcDbAlignedDimension
 13
-1770.513014999264
 23
3829.079370884769
 33
0.0
 14
-1770.513014999264
 24
2709.079370884769
 34
0.0
 50
90.0
100
AcDbRotatedDimension
  0
DIMENSION
  5
FCA
330
17
100
AcDbEntity
  8
SUNPOU
100
AcDbDimension
  2
*D78
 10
-1345.449101253129
 20
2829.079370884768
 30
0.0
 11
-1384.449101253129
 21
3329.079370884768
 31
0.0
 70
    32
 71
     5
 42
1000.0
  3
A3-20
100
AcDbAlignedDimension
 13
-1770.513014999264
 23
3829.079370884769
 33
0.0
 14
-1778.013014999264
 24
2829.079370884768
 34
0.0
 50
90.0
100
AcDbRotatedDimension
  0
LINE
  5
FCB
330
17
100
AcDbEntity
  8
SEIHIN
100
AcDbLine
 10
-1770.513014999264
 20
3829.079370884769
 30
0.0
 11
-1770.513014999264
 21
2709.079370884769
 31
0.0
  0
LINE
  5
FCC
330
17
100
AcDbEntity
  8
SEIHIN
100
AcDbLine
 10
-1778.013014999264
 20
3829.079370884769
 30
0.0
 11
-1778.013014999264
 21
2804.079370884769
 31
0.0
  0
LINE
  5
FCD
330
17
100
AcDbEntity
  8
SEIHIN
100
AcDbLine
 10
-3763.013014999264
 20
3829.079370884769
 30
0.0
 11
-3763.013014999264
 21
2804.079370884769
 31
0.0
  0
LINE
  5
FCE
330
17
100
AcDbEntity
  8
HAIKIN
100
AcDbLine
 10
-308.6391449544062
 20
5440.0
 30
0.0
 11
-308.6391449544062
 21
100.0
 31
0.0
  0
LINE
  5
FCF
330
17
100
AcDbEntity
  8
SEIHIN
100
AcDbLine
 10
-3770.513014999264
 20
3829.079370884769
 30
0.0
 11
-3770.513014999264
 21
2709.079370884769
 31
0.0
  0
LINE
  5
FD0
330
17
100
AcDbEntity
  8
1HASEN
100
AcDbLine
 10
-2770.513014999264
 20
3929.079370884769
 30
0.0
 11
-2770.513014999264
 21
2609.079370884768
 31
0.0
  0
TEXT
  5
FD1
330
17
100
AcDbEntity
  8
SUNPOU
100
AcDbText
 10
-1771.217200333994
 20
791.2088067156765
 30
0.0
 40
50.0
  1
水路幅1.30～2.60m
 72
     4
 11
-1484.550533667327
 21
816.2088067156765
 31
0.0
100
AcDbText
  0
DIMENSION
  5
FD3
330
17
100
AcDbEntity
  8
SUNPOU
100
AcDbDimension
  2
*D77
 10
-1345.449101253129
 20
2829.079370884768
 30
0.0
 11
-1384.449101253129
 21
2769.079370884768
 31
0.0
 70
    32
 71
     5
 42
119.9999999999995
  3
A3-20
100
AcDbAlignedDimension
 13
-1770.513014999264
 23
2709.079370884769
 33
0.0
 14
-1778.013014999264
 24
2829.079370884768
 34
0.0
 50
90.0
100
AcDbRotatedDimension
  0
LINE
  5
FD6
330
17
100
AcDbEntity
  8
HAIKIN
100
AcDbLine
 10
-1808.639144954406
 20
750.0
 30
0.0
 11
-308.6391449544062
 21
750.0
 31
0.0
  0
LINE
  5
FD7
330
17
100
AcDbEntity
  8
SUNPOU
100
AcDbLine
 10
-308.6391449544062
 20
300.0
 30
0.0
 11
-1808.639144954406
 21
300.0000000000007
 31
0.0
  0
LINE
  5
FD8
330
17
100
AcDbEntity
  8
SUNPOU
100
AcDbLine
 10
-308.6391449544062
 20
400.0
 30
0.0
 11
-1808.639144954406
 21
400.0
 31
0.0
  0
LINE
  5
FD9
330
17
100
AcDbEntity
  8
SUNPOU
100
AcDbLine
 10
-308.6391449544062
 20
500.0
 30
0.0
 11
-1808.639144954406
 21
500.0
 31
0.0
  0
LINE
  5
FDA
330
17
100
AcDbEntity
  8
SUNPOU
100
AcDbLine
 10
-308.6391449544062
 20
600.0
 30
0.0
 11
-1808.639144954406
 21
600.0
 31
0.0
  0
LINE
  5
FDB
330
17
100
AcDbEntity
  8
SUNPOU
100
AcDbLine
 10
-1208.639144954406
 20
220.0000000000002
 30
0.0
 11
-1808.639144954406
 21
220.0000000000002
 31
0.0
  0
TEXT
  5
FDC
330
17
100
AcDbEntity
  8
SUNPOU
100
AcDbText
 10
-1771.972478287739
 20
650.0
 30
0.0
 40
50.0
  1
名　　称
 72
     4
 11
-1658.639144954406
 21
675.0
 31
0.0
100
AcDbText
  0
TEXT
  5
FDD
330
17
100
AcDbEntity
  8
SUNPOU
100
AcDbText
 10
-1770.305811621073
 20
525.0
 30
0.0
 40
50.0
  1
業 者 名
 72
     4
 11
-1658.639144954406
 21
550.0
 31
0.0
100
AcDbText
  0
TEXT
  5
FDE
330
17
100
AcDbEntity
  8
SUNPOU
100
AcDbText
 10
-1771.972478287739
 20
425.0
 30
0.0
 40
50.0
  1
製品質量
 72
     4
 11
-1658.639144954406
 21
450.0
 31
0.0
100
AcDbText
  0
TEXT
  5
FDF
330
17
100
AcDbEntity
  8
SUNPOU
100
AcDbText
 10
-1768.639144954406
 20
325.0000000000002
 30
0.0
 40
50.0
  1
年 月 日
 72
     4
 11
-1658.639144954406
 21
350.0000000000002
 31
0.0
100
AcDbText
  0
TEXT
  5
FE0
330
17
100
AcDbEntity
  8
SUNPOU
100
AcDbText
 10
-1713.639144954406
 20
235.0000000000003
 30
0.0
 40
50.0
  1
図　面　番　号
 72
     4
 11
-1508.639144954406
 21
260.0000000000002
 31
0.0
100
AcDbText
  0
LINE
  5
FEC
330
17
100
AcDbEntity
  8
HAIKIN
100
AcDbLine
 10
-1808.639144954406
 20
100.0000000000002
 30
0.0
 11
-1808.639144954406
 21
750.0
 31
0.0
  0
LINE
  5
FEE
330
17
100
AcDbEntity
  8
SEIHIN
100
AcDbLine
 10
-2770.513014999264
 20
2829.079370884769
 30
0.0
 11
-3763.013014999264
 21
2829.079370884769
 31
0.0
  0
LINE
  5
FEF
330
17
100
AcDbEntity
  8
SEIHIN
100
AcDbLine
 10
-2770.513014999264
 20
2709.079370884769
 30
0.0
 11
-3770.513014999264
 21
2709.079370884769
 31
0.0
  0
LINE
  5
FF2
330
17
100
AcDbEntity
  8
SEIHIN
100
AcDbLine
 10
-3763.013014999264
 20
2804.079370884769
 30
0.0
 11
-3770.513014999264
 21
2804.079370884769
 31
0.0
  0
LWPOLYLINE
  5
FF3
330
17
100
AcDbEntity
  8
SUNPOU
100
AcDbPolyline
 90
        2
 70
     1
 43
6.45
 10
-3723.788014999263
 20
2769.079370884769
 42
1.0
 10
-3717.238014999264
 20
2769.079370884769
 42
1.0
  0
LWPOLYLINE
  5
FF7
330
17
100
AcDbEntity
  8
SUNPOU
100
AcDbPolyline
 90
        2
 70
     1
 43
6.45
 10
-3512.676903888152
 20
2769.079370884769
 42
1.0
 10
-3506.126903888153
 20
2769.079370884769
 42
1.0
  0
LWPOLYLINE
  5
FF8
330
17
100
AcDbEntity
  8
SUNPOU
100
AcDbPolyline
 90
        2
 70
     1
 43
6.45
 10
-3301.565792777041
 20
2769.079370884769
 42
1.0
 10
-3295.015792777041
 20
2769.079370884769
 42
1.0
  0
LWPOLYLINE
  5
FFA
330
17
100
AcDbEntity
  8
SUNPOU
100
AcDbPolyline
 90
        2
 70
     1
 43
6.45
 10
-3090.454681665929
 20
2769.079370884769
 42
1.0
 10
-3083.90468166593
 20
2769.079370884769
 42
1.0
  0
TEXT
  5
FFB
330
17
100
AcDbEntity
  8
SUNPOU
100
AcDbText
 10
-2364.54182671675
 20
2408.55385394997
 30
0.0
 40
49.99999999999999
  1
D13x10
 41
0.8
100
AcDbText
  0
TEXT
  5
FFC
330
17
100
AcDbEntity
  8
SUNPOU
100
AcDbText
 10
-2403.035293223706
 20
2487.682299587155
 30
0.0
 40
49.99999999999999
  1
つなぎ鉄筋
 41
0.8
100
AcDbText
  0
LEADER
  5
FFD
330
17
100
AcDbEntity
  8
SUNPOU
100
AcDbLeader
  3
A3-20
 76
     3
 10
-2664.968562914277
 20
2764.790439577124
 30
0.0
 10
-2501.177919454502
 20
2478.402659950287
 30
0.0
 10
-2095.207358003732
 20
2478.402659950287
 30
0.0
  0
LINE
  5
FFE
330
17
100
AcDbEntity
  8
SEIHIN
100
AcDbLine
 10
-2770.513014999264
 20
2829.079370884769
 30
0.0
 11
-1778.013014999264
 21
2829.079370884769
 31
0.0
  0
LINE
  5
1002
330
17
100
AcDbEntity
  8
SEIHIN
100
AcDbLine
 10
-2770.513014999264
 20
2709.079370884769
 30
0.0
 11
-1770.513014999264
 21
2709.079370884769
 31
0.0
  0
LEADER
  5
1003
330
17
100
AcDbEntity
  8
SUNPOU
100
AcDbLeader
  3
A3-20
 76
     3
 10
-2877.509820636453
 20
2764.790439577124
 30
0.0
 10
-2713.719177176677
 20
2478.402659950287
 30
0.0
 10
-2307.748615725908
 20
2478.402659950287
 30
0.0
  0
LWPOLYLINE
  5
1004
330
17
100
AcDbEntity
  8
SUNPOU
100
AcDbPolyline
 90
        2
 70
     1
 43
6.45
 10
-2879.343570554818
 20
2769.079370884769
 42
1.0
 10
-2872.793570554819
 20
2769.079370884769
 42
1.0
  0
LWPOLYLINE
  5
1005
330
17
100
AcDbEntity
  8
SUNPOU
100
AcDbPolyline
 90
        2
 70
     1
 43
6.45
 10
-2661.682459443709
 20
2769.079370884769
 42
-1.0
 10
-2668.232459443709
 20
2769.079370884769
 42
-1.0
  0
LWPOLYLINE
  5
1007
330
17
100
AcDbEntity
  8
SUNPOU
100
AcDbPolyline
 90
        2
 70
     1
 43
6.45
 10
-2450.571348332598
 20
2769.079370884769
 42
-1.0
 10
-2457.121348332597
 20
2769.079370884769
 42
-1.0
  0
LWPOLYLINE
  5
1009
330
17
100
AcDbEntity
  8
SUNPOU
100
AcDbPolyline
 90
        2
 70
     1
 43
6.45
 10
-2239.460237221487
 20
2769.079370884769
 42
-1.0
 10
-2246.010237221486
 20
2769.079370884769
 42
-1.0
  0
LWPOLYLINE
  5
100A
330
17
100
AcDbEntity
  8
SUNPOU
100
AcDbPolyline
 90
        2
 70
     1
 43
6.45
 10
-2028.349126110375
 20
2769.079370884769
 42
-1.0
 10
-2034.899126110375
 20
2769.079370884769
 42
-1.0
  0
LINE
  5
100B
330
17
100
AcDbEntity
  8
SEIHIN
100
AcDbLine
 10
-1778.013014999264
 20
2804.079370884769
 30
0.0
 11
-1770.513014999264
 21
2804.079370884769
 31
0.0
  0
LWPOLYLINE
  5
100C
330
17
100
AcDbEntity
  8
SUNPOU
100
AcDbPolyline
 90
        2
 70
     1
 43
6.45
 10
-1823.788014999263
 20
2769.079370884769
 42
1.0
 10
-1817.238014999264
 20
2769.079370884769
 42
1.0
  0
LINE
  5
100D
330
17
100
AcDbEntity
  8
SUNPOU
100
AcDbLine
 10
-1208.639144954406
 20
100.0
 30
0.0
 11
-1208.639144954406
 21
300.0
 31
0.0
  0
LINE
  5
100E
330
17
100
AcDbEntity
  8
SUNPOU
100
AcDbLine
 10
-1118.639144954406
 20
100.0
 30
0.0
 11
-1118.639144954406
 21
300.0
 31
0.0
  0
LINE
  5
100F
330
17
100
AcDbEntity
  8
SUNPOU
100
AcDbLine
 10
-758.6391449544062
 20
99.99999999999977
 30
0.0
 11
-758.6391449544062
 21
300.0
 31
0.0
  0
LINE
  5
1010
330
17
100
AcDbEntity
  8
SUNPOU
100
AcDbLine
 10
-618.6391449544062
 20
99.99999999999977
 30
0.0
 11
-618.6391449544062
 21
300.0
 31
0.0
  0
TEXT
  5
1012
330
17
100
AcDbEntity
  8
SUNPOU
100
AcDbText
 10
-1168.639144954406
 20
0.0
 30
0.0
 40
50.0
  1
新和コンクリート工業株式会社
100
AcDbText
  0
TEXT
  5
1013
330
17
100
AcDbEntity
  8
SUNPOU
100
AcDbText
 10
-1186.972478287739
 20
125.0000000000002
 30
0.0
 40
50.0
  1
認
 72
     4
 11
-1163.639144954406
 21
150.0000000000002
 31
0.0
100
AcDbText
  0
TEXT
  5
1014
330
17
100
AcDbEntity
  8
SUNPOU
100
AcDbText
 10
-740.3058116210728
 20
125.0
 30
0.0
 40
50.0
  1
製図
 72
     4
 11
-688.6391449544062
 21
150.0
 31
0.0
100
AcDbText
  0
TEXT
  5
1017
330
17
100
AcDbEntity
  8
SUNPOU
100
AcDbText
 10
-1046.196228939981
 20
782.2041775471989
 30
0.0
 40
50.0
  1
種～　種同一形状　構造図
 72
     4
 11
-694.5295622733138
 21
807.2041775471989
 31
0.0
100
AcDbText
  0
TEXT
  5
1018
330
17
100
AcDbEntity
  8
SUNPOU
100
AcDbText
 10
-1346.512102256931
 20
650.0
 30
0.0
 40
50.0
  1
水路用Ｌ形ブロック　H1000
 72
     4
 11
-950.6787689235971
 21
675.0
 31
0.0
100
AcDbText
  0
TEXT
  5
1019
330
17
100
AcDbEntity
  8
SUNPOU
100
AcDbText
 10
-1021.97247828774
 20
525.0
 30
0.0
 40
50.0
  1
製 造 数
 72
     4
 11
-908.6391449544062
 21
550.0
 31
0.0
100
AcDbText
  0
TEXT
  5
101A
330
17
100
AcDbEntity
  8
SUNPOU
100
AcDbText
 10
-1021.97247828774
 20
425.0
 30
0.0
 40
50.0
  1
鉄 筋 量
 72
     4
 11
-908.6391449544062
 21
450.0
 31
0.0
100
AcDbText
  0
TEXT
  5
101B
330
17
100
AcDbEntity
  8
SUNPOU
100
AcDbText
 10
-1021.972478287739
 20
325.0000000000002
 30
0.0
 40
50.0
  1
縮　　尺
 72
     4
 11
-908.6391449544062
 21
350.0000000000002
 31
0.0
100
AcDbText
  0
LINE
  5
101C
330
17
100
AcDbEntity
  8
SUNPOU
100
AcDbLine
 10
-1508.639144954406
 20
300.0000000000002
 30
0.0
 11
-1508.639144954406
 21
750.0
 31
0.0
  0
TEXT
  5
101D
330
17
100
AcDbEntity
  8
SUNPOU
100
AcDbText
 10
-1402.309367670999
 20
420.0
 30
0.0
 40
50.0
  1
845
 72
     2
 11
-1268.976034337666
 21
420.0
 31
0.0
100
AcDbText
  0
LINE
  5
101E
330
17
100
AcDbEntity
  8
SUNPOU
100
AcDbLine
 10
-1058.639144954406
 20
300.0000000000002
 30
0.0
 11
-1058.639144954406
 21
600.0
 31
0.0
  0
TEXT
  5
101F
330
17
100
AcDbEntity
  8
SUNPOU
100
AcDbText
 10
-1186.972478287739
 20
226.6666666666674
 30
0.0
 40
50.0
  1
承
 72
     4
 11
-1163.639144954406
 21
250.0000000000007
 31
0.0
100
AcDbText
  0
TEXT
  5
1020
330
17
100
AcDbEntity
  8
SUNPOU
100
AcDbText
 10
-1178.639144954406
 20
420.0
 30
0.0
 40
50.0
  1
ｋｇ
 72
     2
 11
-1078.639144954406
 21
420.0
 31
0.0
100
AcDbText
  0
LINE
  5
1021
330
17
100
AcDbEntity
  8
SUNPOU
100
AcDbLine
 10
-1078.146722857187
 20
832.2388009880342
 30
0.0
 11
-1078.146722857187
 21
781.5131807400576
 31
0.0
  0
LINE
  5
1022
330
17
100
AcDbEntity
  8
SUNPOU
100
AcDbLine
 10
-1091.908373101331
 20
781.5131807400576
 30
0.0
 11
-1064.385072613044
 21
781.5131807400576
 31
0.0
  0
LINE
  5
1023
330
17
100
AcDbEntity
  8
SUNPOU
100
AcDbLine
 10
-1091.908373101331
 20
832.2388009880342
 30
0.0
 11
-1064.385072613044
 21
832.2388009880342
 31
0.0
  0
TEXT
  5
1024
330
17
100
AcDbEntity
  8
SUNPOU
100
AcDbText
 10
-728.6391449544062
 20
340.0
 30
0.0
 40
50.0
  1
１／
100
AcDbText
  0
LINE
  5
1025
330
17
100
AcDbEntity
  8
SUNPOU
100
AcDbLine
 10
-758.6391449544062
 20
300.0000000000002
 30
0.0
 11
-758.6391449544062
 21
600.0
 31
0.0
  0
TEXT
  5
1026
330
17
100
AcDbEntity
  8
SUNPOU
100
AcDbText
 10
-741.9724782877396
 20
225.0
 30
0.0
 40
50.0
  1
設計
 72
     4
 11
-688.6391449544062
 21
250.0
 31
0.0
100
AcDbText
  0
TEXT
  5
1028
330
17
100
AcDbEntity
  8
SUNPOU
100
AcDbText
 10
-608.6391449544099
 20
320.0
 30
0.0
 40
60.0
  1
20
100
AcDbText
  0
TEXT
  5
1029
330
17
100
AcDbEntity
  8
SUNPOU
100
AcDbText
 10
-428.6391449544062
 20
420.0
 30
0.0
 40
50.0
  1
ｋｇ
 72
     2
 11
-328.6391449544062
 21
420.0
 31
0.0
100
AcDbText
  0
LINE
  5
102A
330
17
100
AcDbEntity
  8
SUNPOU
100
AcDbLine
 10
-905.3615838200167
 20
781.5131807400576
 30
0.0
 11
-877.83828333173
 21
781.5131807400576
 31
0.0
  0
LINE
  5
102B
330
17
100
AcDbEntity
  8
SUNPOU
100
AcDbLine
 10
-905.3615838200167
 20
832.2388009880342
 30
0.0
 11
-877.83828333173
 21
832.2388009880342
 31
0.0
  0
LINE
  5
102C
330
17
100
AcDbEntity
  8
SUNPOU
100
AcDbLine
 10
-891.5999335758734
 20
832.2388009880342
 30
0.0
 11
-891.5999335758734
 21
781.5131807400576
 31
0.0
  0
LINE
  5
102D
330
17
100
AcDbEntity
  8
SUNPOU
100
AcDbLine
 10
-905.3615838200167
 20
832.2388009880342
 30
0.0
 11
-905.3615838200167
 21
781.5131807400576
 31
0.0
  0
LINE
  5
102E
330
17
100
AcDbEntity
  8
SUNPOU
100
AcDbLine
 10
-919.12323406416
 20
832.2388009880342
 30
0.0
 11
-891.5999335758734
 21
832.2388009880342
 31
0.0
  0
LINE
  5
102F
330
17
100
AcDbEntity
  8
SUNPOU
100
AcDbLine
 10
-919.12323406416
 20
781.5131807400576
 30
0.0
 11
-891.5999335758734
 21
781.5131807400576
 31
0.0
  0
LINE
  5
1030
330
17
100
AcDbEntity
  8
SUNPOU
100
AcDbLine
 10
-919.12323406416
 20
832.2388009880342
 30
0.0
 11
-919.12323406416
 21
781.5131807400576
 31
0.0
  0
LINE
  5
1031
330
17
100
AcDbEntity
  8
SUNPOU
100
AcDbLine
 10
-932.8848843083033
 20
781.5131807400576
 30
0.0
 11
-905.3615838200167
 21
781.5131807400576
 31
0.0
  0
LINE
  5
1032
330
17
100
AcDbEntity
  8
SUNPOU
100
AcDbLine
 10
-932.8848843083033
 20
832.2388009880342
 30
0.0
 11
-905.3615838200167
 21
832.2388009880342
 31
0.0
  0
DIMENSION
  5
1034
330
17
100
AcDbEntity
  8
SUNPOU
100
AcDbDimension
  2
*D72
 10
-1770.513014999264
 20
4336.873961375266
 30
0.0
 11
-2770.513014999264
 21
4375.873961375266
 31
0.0
 70
    32
 71
     5
 42
2000.0
  3
A3-20
100
AcDbAlignedDimension
 13
-3770.513014999264
 23
3829.079370884769
 33
0.0
 14
-1770.513014999264
 24
3829.079370884769
 34
0.0
100
AcDbRotatedDimension
  0
LINE
  5
1035
330
17
100
AcDbEntity
  8
SEIHIN
100
AcDbLine
 10
-2770.513014999264
 20
3829.079370884769
 30
0.0
 11
-3770.513014999264
 21
3829.079370884769
 31
0.0
  0
LINE
  5
1046
330
17
100
AcDbEntity
  8
SEIHIN
100
AcDbLine
 10
-2770.513014999264
 20
3829.079370884769
 30
0.0
 11
-1770.513014999264
 21
3829.079370884769
 31
0.0
  0
ENDSEC
  0
SECTION
  2
OBJECTS
  0
DICTIONARY
  5
C
330
0
100
AcDbDictionary
281
     1
  3
ACAD_CIP_PREVIOUS_PRODUCT_INFO
350
1AD0
  3
ACAD_COLOR
350
1AB2
  3
ACAD_DETAILVIEWSTYLE
350
1ACB
  3
ACAD_GROUP
350
D
  3
ACAD_LAYOUT
350
BE0
  3
ACAD_MATERIAL
350
1A80
  3
ACAD_MLEADERSTYLE
350
1AC7
  3
ACAD_MLINESTYLE
350
1A
  3
ACAD_PLOTSETTINGS
350
BE1
  3
ACAD_PLOTSTYLENAME
350
BDE
  3
ACAD_SCALELIST
350
1AB5
  3
ACAD_SECTIONVIEWSTYLE
350
1AC9
  3
ACAD_TABLESTYLE
350
1AB3
  3
ACAD_VISUALSTYLE
350
1A99
  3
ACDB_RECOMPOSE_DATA
350
1CCB
  3
AcDbVariableDictionary
350
DA8
  3
AcDsDecomposeData
350
1C7A
  0
DICTIONARY
  5
1CC0
330
8
100
AcDbDictionary
280
     1
281
     1
  3
ACAD_XREC_ROUNDTRIP
360
1CC1
  0
DICTIONARY
  5
1C6C
330
2
100
AcDbDictionary
280
     1
281
     1
  3
ACAD_LAYERSTATES
360
1C6D
  0
DICTIONARY
  5
1C57
330
E
100
AcDbDictionary
280
     1
281
     1
  3
ADSK_XREC_LAYER_RECONCILED
360
1C58
  0
DICTIONARY
  5
1C59
330
23
100
AcDbDictionary
280
     1
281
     1
  3
ADSK_XREC_LAYER_RECONCILED
360
1C5A
  0
DICTIONARY
  5
1C5B
330
24
100
AcDbDictionary
280
     1
281
     1
  3
ADSK_XREC_LAYER_RECONCILED
360
1C5C
  0
DICTIONARY
  5
1C5D
330
25
100
AcDbDictionary
280
     1
281
     1
  3
ADSK_XREC_LAYER_RECONCILED
360
1C5E
  0
DICTIONARY
  5
1C5F
330
26
100
AcDbDictionary
280
     1
281
     1
  3
ADSK_XREC_LAYER_RECONCILED
360
1C60
  0
DICTIONARY
  5
1C61
330
27
100
AcDbDictionary
280
     1
281
     1
  3
ADSK_XREC_LAYER_RECONCILED
360
1C62
  0
DICTIONARY
  5
1C63
330
28
100
AcDbDictionary
280
     1
281
     1
  3
ADSK_XREC_LAYER_RECONCILED
360
1C64
  0
DICTIONARY
  5
1C65
330
29
100
AcDbDictionary
280
     1
281
     1
  3
ADSK_XREC_LAYER_RECONCILED
360
1C66
  0
DICTIONARY
  5
1C67
330
2A
100
AcDbDictionary
280
     1
281
     1
  3
ADSK_XREC_LAYER_RECONCILED
360
1C68
  0
XRECORD
  5
1AD0
102
{ACAD_REACTORS
330
C
102
}
330
C
100
AcDbXrecord
280
     1
300
ACD
300
2014
300
ACD_F_S
  0
DICTIONARY
  5
1AB2
102
{ACAD_REACTORS
330
C
102
}
330
C
100
AcDbDictionary
281
     1
  0
DICTIONARY
  5
1ACB
102
{ACAD_REACTORS
330
C
102
}
330
C
100
AcDbDictionary
281
     1
  3
Imperial24
350
1ACC
  0
DICTIONARY
  5
D
102
{ACAD_REACTORS
330
C
102
}
330
C
100
AcDbDictionary
281
     1
  0
DICTIONARY
  5
BE0
102
{ACAD_REACTORS
330
C
102
}
330
C
100
AcDbDictionary
281
     1
  3
Model
350
BE2
  3
ﾚｲｱｳﾄ1
350
BE3
  0
DICTIONARY
  5
1A80
102
{ACAD_REACTORS
330
C
102
}
330
C
100
AcDbDictionary
281
     1
  3
ByBlock
350
1A89
  3
ByLayer
350
1A81
  3
Global
350
1A91
  0
DICTIONARY
  5
1AC7
102
{ACAD_REACTORS
330
C
102
}
330
C
100
AcDbDictionary
281
     1
  3
Standard
350
1AC8
  0
DICTIONARY
  5
1A
102
{ACAD_REACTORS
330
C
102
}
330
C
100
AcDbDictionary
281
     1
  3
STANDARD
350
1B
  0
DICTIONARY
  5
BE1
102
{ACAD_REACTORS
330
C
102
}
330
C
100
AcDbDictionary
281
     1
  0
ACDBDICTIONARYWDFLT
  5
BDE
102
{ACAD_REACTORS
330
C
102
}
330
C
100
AcDbDictionary
281
     1
  3
Normal
350
BDF
100
AcDbDictionaryWithDefault
340
BDF
  0
DICTIONARY
  5
1AB5
102
{ACAD_REACTORS
330
C
102
}
330
C
100
AcDbDictionary
281
     1
  3
A0
350
1AB6
  3
A1
350
1AB7
  3
A2
350
1AB8
  3
A3
350
1AB9
  3
A4
350
1ABA
  3
A5
350
1ABB
  3
A6
350
1ABC
  3
A7
350
1ABD
  3
A8
350
1ABE
  3
A9
350
1ABF
  3
B0
350
1AC0
  3
B1
350
1AC1
  3
B2
350
1AC2
  3
B3
350
1AC3
  3
B4
350
1AC4
  3
B5
350
1AC5
  3
B6
350
1AC6
  0
DICTIONARY
  5
1AC9
102
{ACAD_REACTORS
330
C
102
}
330
C
100
AcDbDictionary
281
     1
  3
Imperial24
350
1ACA
  0
DICTIONARY
  5
1AB3
102
{ACAD_REACTORS
330
C
102
}
330
C
100
AcDbDictionary
281
     1
  3
Standard
350
1AB4
  0
DICTIONARY
  5
1A99
102
{ACAD_REACTORS
330
C
102
}
330
C
100
AcDbDictionary
281
     1
  3
2dWireframe
350
1A9F
  3
Basic
350
1A9E
  3
Brighten
350
1AA5
  3
ColorChange
350
1AA9
  3
Conceptual
350
1AA2
  3
Dim
350
1AA4
  3
EdgeColorOff
350
1AB1
  3
Facepattern
350
1AA8
  3
Flat
350
1A9A
  3
FlatWithEdges
350
1A9B
  3
Gouraud
350
1A9C
  3
GouraudWithEdges
350
1A9D
  3
Hidden
350
1AA1
  3
JitterOff
350
1AAF
  3
Linepattern
350
1AA7
  3
OverhangOff
350
1AB0
  3
Realistic
350
1AA3
  3
Shaded
350
1AAE
  3
Shaded with edges
350
1AAD
  3
Shades of Gray
350
1AAA
  3
Sketchy
350
1AAB
  3
Thicken
350
1AA6
  3
Wireframe
350
1AA0
  3
X-Ray
350
1AAC
  0
XRECORD
  5
1CCB
102
{ACAD_REACTORS
330
C
102
}
330
C
100
AcDbXrecord
280
     1
 90
        1
330
1AB4
  0
DICTIONARY
  5
DA8
102
{ACAD_REACTORS
330
C
102
}
330
C
100
AcDbDictionary
281
     1
  3
CANNOSCALE
350
1CBB
  3
CMLEADERSTYLE
350
1CB7
  3
CTABLESTYLE
350
1CB6
  3
CVIEWDETAILSTYLE
350
1CB8
  3
CVIEWSECTIONSTYLE
350
1CB9
  3
DIMASSOC
350
DA9
  3
LAYEREVAL
350
1CBD
  3
LAYERNOTIFY
350
1CBE
  3
LIGHTINGUNITS
350
1CBC
  3
MSLTSCALE
350
1CBA
  3
XCLIPFRAME
350
1CBF
  0
DICTIONARY
  5
1C7A
102
{ACAD_REACTORS
330
C
102
}
330
C
100
AcDbDictionary
281
     1
  3
AcDsRecords
350
1C7C
  3
AcDsSchemas
350
1C7B
1001
ACAD
1070
     2
  0
XRECORD
  5
1CC1
102
{ACAD_REACTORS
330
1CC0
102
}
330
1CC0
100
AcDbXrecord
280
     1
102
VTR_0.000_0.000_1.000_1.000_VISUALSTYLE
340
1A9F
102
VTR_0.000_0.000_1.000_1.000_GRIDDISPLAY
 70
     3
102
VTR_0.000_0.000_1.000_1.000_GRIDMAJOR
 70
     5
102
VTR_0.000_0.000_1.000_1.000_DEFAULTLIGHTING
280
     1
102
VTR_0.000_0.000_1.000_1.000_DEFAULTLIGHTINGTYPE
 70
     1
102
VTR_0.000_0.000_1.000_1.000_BRIGHTNESS
141
0.0
102
VTR_0.000_0.000_1.000_1.000_CONTRAST
142
0.0
  0
DICTIONARY
  5
1C6D
102
{ACAD_REACTORS
330
1C6C
102
}
330
1C6C
100
AcDbDictionary
281
     1
  0
XRECORD
  5
1C58
102
{ACAD_REACTORS
330
1C57
102
}
330
1C57
100
AcDbXrecord
280
     1
290
     1
  0
XRECORD
  5
1C5A
102
{ACAD_REACTORS
330
1C59
102
}
330
1C59
100
AcDbXrecord
280
     1
290
     1
  0
XRECORD
  5
1C5C
102
{ACAD_REACTORS
330
1C5B
102
}
330
1C5B
100
AcDbXrecord
280
     1
290
     1
  0
XRECORD
  5
1C5E
102
{ACAD_REACTORS
330
1C5D
102
}
330
1C5D
100
AcDbXrecord
280
     1
290
     1
  0
XRECORD
  5
1C60
102
{ACAD_REACTORS
330
1C5F
102
}
330
1C5F
100
AcDbXrecord
280
     1
290
     1
  0
XRECORD
  5
1C62
102
{ACAD_REACTORS
330
1C61
102
}
330
1C61
100
AcDbXrecord
280
     1
290
     1
  0
XRECORD
  5
1C64
102
{ACAD_REACTORS
330
1C63
102
}
330
1C63
100
AcDbXrecord
280
     1
290
     1
  0
XRECORD
  5
1C66
102
{ACAD_REACTORS
330
1C65
102
}
330
1C65
100
AcDbXrecord
280
     1
290
     1
  0
XRECORD
  5
1C68
102
{ACAD_REACTORS
330
1C67
102
}
330
1C67
100
AcDbXrecord
280
     1
290
     1
  0
ACAD_PROXY_OBJECT
  5
1ACC
102
{ACAD_REACTORS
330
1ACB
102
}
102
{ACAD_XDICTIONARY
360
1CB4
102
}
330
1ACB
100
AcDbProxyObject
 90
      499
 91
      523
 95
  3276827
 70
     0
 93
     2314
310
9207000000180005C0F42F5A8DC671F815AF46E07A15AE7E07000000180005C0F42F5A8DC671FA3300000018001000000180005C0F42F5A8DC671FA02000000000000741FA028CC00000060002330000001800000852480368038003280390034803080360019001A004AD12801E002E00208031802B003080390010002B00
310
348032803B802A003C803800328010002E0033001000110012803A003180188011001F001280100012801E002E00208031802B003080390010002B00348032803B80220032803A00308034803600248032001F0012802E00280029802180208026002280100012801E002E00208031802B003080390010002B00348032803B
310
802980318030803600328010002E0033001000110012803980370011001F0012802B036D
340
F
340
0
340
13
340
F
340
13
340
13
 94
        0
  0
LAYOUT
  5
BE2
102
{ACAD_REACTORS
330
BE0
102
}
102
{ACAD_XDICTIONARY
360
1C7D
102
}
330
BE0
100
AcDbPlotSettings
  1

  2
RICOH IPSiO NX850 RPCS
  4
A4
  6

 40
5.873749732971191
 41
5.873747825622559
 42
5.873748779296875
 43
5.873748779296875
 44
209.9733276367188
 45
296.9259948730469
 46
0.0
 47
0.0
 48
276.6120946673
 49
-52.30051083510079
140
8326.998744956843
141
5539.474262213633
142
1.0
143
28.22929042399437
 70
 11952
 72
     1
 73
     1
 74
     4
  7
monochrome.ctb
 75
     0
 76
     0
 77
     2
 78
   300
147
0.0354241989430248
148
-276.6120946673
149
52.30051083510079
100
AcDbLayout
  1
Model
 70
     1
 71
     0
 10
0.0
 20
0.0
 11
12.0
 21
9.0
 12
0.0
 22
0.0
 32
0.0
 14
0.0
 24
0.0
 34
0.0
 15
0.0
 25
0.0
 35
0.0
146
0.0
 13
0.0
 23
0.0
 33
0.0
 16
1.0
 26
0.0
 36
0.0
 17
0.0
 27
1.0
 37
0.0
 76
     0
330
17
331
173B
  0
LAYOUT
  5
BE3
102
{ACAD_REACTORS
330
BE0
102
}
330
BE0
100
AcDbPlotSettings
  1

  2
RICOH IPSiO NX850 RPCS
  4

  6

 40
0.0
 41
0.0
 42
0.0
 43
0.0
 44
0.0
 45
0.0
 46
0.0
 47
0.0
 48
0.0
 49
0.0
140
0.0
141
0.0
142
1.0
143
1.0
 70
   688
 72
     0
 73
     0
 74
     5
  7
monochrome.ctb
 75
    16
 76
     0
 77
     2
 78
   300
147
1.0
148
0.0
149
0.0
100
AcDbLayout
  1
ﾚｲｱｳﾄ1
 70
     0
 71
     1
 10
0.0
 20
0.0
 11
12.0
 21
9.0
 12
0.0
 22
0.0
 32
0.0
 14
1.000000000000000E+20
 24
1.000000000000000E+20
 34
1.000000000000000E+20
 15
-1.000000000000000E+20
 25
-1.000000000000000E+20
 35
-1.000000000000000E+20
146
0.0
 13
0.0
 23
0.0
 33
0.0
 16
1.0
 26
0.0
 36
0.0
 17
0.0
 27
1.0
 37
0.0
 76
     0
330
14
  0
MATERIAL
  5
1A89
102
{ACAD_REACTORS
330
1A80
102
}
102
{ACAD_XDICTIONARY
360
1CC2
102
}
330
1A80
100
AcDbMaterial
  1
ByBlock
 72
     0
 73
     2
 43
0.0208333333333333
 43
0.0
 43
0.0
 43
0.0
 43
0.0
 43
0.0208333333333333
 43
0.0
 43
0.0
 43
0.0
 43
0.0
 43
1.0
 43
0.0
 43
0.0
 43
0.0
 43
0.0
 43
1.0
 77
     0
 78
     2
 47
0.0208333333333333
 47
0.0
 47
0.0
 47
0.0
 47
0.0
 47
0.0208333333333333
 47
0.0
 47
0.0
 47
0.0
 47
0.0
 47
1.0
 47
0.0
 47
0.0
 47
0.0
 47
0.0
 47
1.0
171
     0
172
     2
 49
0.0208333333333333
 49
0.0
 49
0.0
 49
0.0
 49
0.0
 49
0.0208333333333333
 49
0.0
 49
0.0
 49
0.0
 49
0.0
 49
1.0
 49
0.0
 49
0.0
 49
0.0
 49
0.0
 49
1.0
175
     0
176
     2
142
0.0208333333333333
142
0.0
142
0.0
142
0.0
142
0.0
142
0.0208333333333333
142
0.0
142
0.0
142
0.0
142
0.0
142
1.0
142
0.0
142
0.0
142
0.0
142
0.0
142
1.0
179
     0
270
     2
144
0.0208333333333333
144
0.0
144
0.0
144
0.0
144
0.0
144
0.0208333333333333
144
0.0
144
0.0
144
0.0
144
0.0
144
1.0
144
0.0
144
0.0
144
0.0
144
0.0
144
1.0
274
     2
147
0.0208333333333333
147
0.0
147
0.0
147
0.0
147
0.0
147
0.0208333333333333
147
0.0
147
0.0
147
0.0
147
0.0
147
1.0
147
0.0
147
0.0
147
0.0
147
0.0
147
1.0
  0
MATERIAL
  5
1A81
102
{ACAD_REACTORS
330
1A80
102
}
102
{ACAD_XDICTIONARY
360
1CC4
102
}
330
1A80
100
AcDbMaterial
  1
ByLayer
 72
     0
 73
     2
 43
0.0208333333333333
 43
0.0
 43
0.0
 43
0.0
 43
0.0
 43
0.0208333333333333
 43
0.0
 43
0.0
 43
0.0
 43
0.0
 43
1.0
 43
0.0
 43
0.0
 43
0.0
 43
0.0
 43
1.0
 77
     0
 78
     2
 47
0.0208333333333333
 47
0.0
 47
0.0
 47
0.0
 47
0.0
 47
0.0208333333333333
 47
0.0
 47
0.0
 47
0.0
 47
0.0
 47
1.0
 47
0.0
 47
0.0
 47
0.0
 47
0.0
 47
1.0
171
     0
172
     2
 49
0.0208333333333333
 49
0.0
 49
0.0
 49
0.0
 49
0.0
 49
0.0208333333333333
 49
0.0
 49
0.0
 49
0.0
 49
0.0
 49
1.0
 49
0.0
 49
0.0
 49
0.0
 49
0.0
 49
1.0
175
     0
176
     2
142
0.0208333333333333
142
0.0
142
0.0
142
0.0
142
0.0
142
0.0208333333333333
142
0.0
142
0.0
142
0.0
142
0.0
142
1.0
142
0.0
142
0.0
142
0.0
142
0.0
142
1.0
179
     0
270
     2
144
0.0208333333333333
144
0.0
144
0.0
144
0.0
144
0.0
144
0.0208333333333333
144
0.0
144
0.0
144
0.0
144
0.0
144
1.0
144
0.0
144
0.0
144
0.0
144
0.0
144
1.0
274
     2
147
0.0208333333333333
147
0.0
147
0.0
147
0.0
147
0.0
147
0.0208333333333333
147
0.0
147
0.0
147
0.0
147
0.0
147
1.0
147
0.0
147
0.0
147
0.0
147
0.0
147
1.0
  0
MATERIAL
  5
1A91
102
{ACAD_REACTORS
330
1A80
102
}
102
{ACAD_XDICTIONARY
360
1CC6
102
}
330
1A80
100
AcDbMaterial
  1
Global
 72
     0
 73
     2
 43
0.0208333333333333
 43
0.0
 43
0.0
 43
0.0
 43
0.0
 43
0.0208333333333333
 43
0.0
 43
0.0
 43
0.0
 43
0.0
 43
1.0
 43
0.0
 43
0.0
 43
0.0
 43
0.0
 43
1.0
 77
     0
 78
     2
 47
0.0208333333333333
 47
0.0
 47
0.0
 47
0.0
 47
0.0
 47
0.0208333333333333
 47
0.0
 47
0.0
 47
0.0
 47
0.0
 47
1.0
 47
0.0
 47
0.0
 47
0.0
 47
0.0
 47
1.0
171
     0
172
     2
 49
0.0208333333333333
 49
0.0
 49
0.0
 49
0.0
 49
0.0
 49
0.0208333333333333
 49
0.0
 49
0.0
 49
0.0
 49
0.0
 49
1.0
 49
0.0
 49
0.0
 49
0.0
 49
0.0
 49
1.0
175
     0
176
     2
142
0.0208333333333333
142
0.0
142
0.0
142
0.0
142
0.0
142
0.0208333333333333
142
0.0
142
0.0
142
0.0
142
0.0
142
1.0
142
0.0
142
0.0
142
0.0
142
0.0
142
1.0
179
     0
270
     2
144
0.0208333333333333
144
0.0
144
0.0
144
0.0
144
0.0
144
0.0208333333333333
144
0.0
144
0.0
144
0.0
144
0.0
144
1.0
144
0.0
144
0.0
144
0.0
144
0.0
144
1.0
274
     2
147
0.0208333333333333
147
0.0
147
0.0
147
0.0
147
0.0
147
0.0208333333333333
147
0.0
147
0.0
147
0.0
147
0.0
147
1.0
147
0.0
147
0.0
147
0.0
147
0.0
147
1.0
  0
MLEADERSTYLE
  5
1AC8
102
{ACAD_REACTORS
330
1AC7
102
}
330
1AC7
100
AcDbMLeaderStyle
170
     2
171
     1
172
     0
 90
        2
 40
0.0
 41
0.0
173
     1
 91
-1056964608
340
11
 92
       -2
290
     1
 42
0.09
291
     1
 43
0.36
  3
Standard
341
0
 44
0.18
300

342
F
174
     1
178
     6
175
     1
176
     0
 93
-1056964608
 45
0.18
292
     0
297
     0
 46
0.18
343
0
 94
-1056964608
 47
1.0
 49
1.0
140
1.0
293
     1
141
0.0
294
     1
177
     0
142
1.0
295
     0
296
     0
143
0.125
1001
ACAD_MLEADERVER
1070
     2
  0
MLINESTYLE
  5
1B
102
{ACAD_REACTORS
330
1A
102
}
330
1A
100
AcDbMlineStyle
  2
STANDARD
 70
     0
  3

 62
   256
 51
90.0
 52
90.0
 71
     2
 49
0.5
 62
   256
  6
BYLAYER
 49
-0.5
 62
   256
  6
BYLAYER
  0
ACDBPLACEHOLDER
  5
BDF
102
{ACAD_REACTORS
330
BDE
102
}
330
BDE
  0
SCALE
  5
1AB6
102
{ACAD_REACTORS
330
1AB5
102
}
330
1AB5
100
AcDbScale
 70
     0
300
1:1
140
1.0
141
1.0
290
     1
  0
SCALE
  5
1AB7
102
{ACAD_REACTORS
330
1AB5
102
}
330
1AB5
100
AcDbScale
 70
     0
300
1/128" = 1'-0"
140
0.0078125
141
12.0
290
     0
  0
SCALE
  5
1AB8
102
{ACAD_REACTORS
330
1AB5
102
}
330
1AB5
100
AcDbScale
 70
     0
300
1/64" = 1'-0"
140
0.015625
141
12.0
290
     0
  0
SCALE
  5
1AB9
102
{ACAD_REACTORS
330
1AB5
102
}
330
1AB5
100
AcDbScale
 70
     0
300
1/32" = 1'-0"
140
0.03125
141
12.0
290
     0
  0
SCALE
  5
1ABA
102
{ACAD_REACTORS
330
1AB5
102
}
330
1AB5
100
AcDbScale
 70
     0
300
1/16" = 1'-0"
140
0.0625
141
12.0
290
     0
  0
SCALE
  5
1ABB
102
{ACAD_REACTORS
330
1AB5
102
}
330
1AB5
100
AcDbScale
 70
     0
300
3/32" = 1'-0"
140
0.09375
141
12.0
290
     0
  0
SCALE
  5
1ABC
102
{ACAD_REACTORS
330
1AB5
102
}
330
1AB5
100
AcDbScale
 70
     0
300
1/8" = 1'-0"
140
0.125
141
12.0
290
     0
  0
SCALE
  5
1ABD
102
{ACAD_REACTORS
330
1AB5
102
}
330
1AB5
100
AcDbScale
 70
     0
300
3/16" = 1'-0"
140
0.1875
141
12.0
290
     0
  0
SCALE
  5
1ABE
102
{ACAD_REACTORS
330
1AB5
102
}
330
1AB5
100
AcDbScale
 70
     0
300
1/4" = 1'-0"
140
0.25
141
12.0
290
     0
  0
SCALE
  5
1ABF
102
{ACAD_REACTORS
330
1AB5
102
}
330
1AB5
100
AcDbScale
 70
     0
300
3/8" = 1'-0"
140
0.375
141
12.0
290
     0
  0
SCALE
  5
1AC0
102
{ACAD_REACTORS
330
1AB5
102
}
330
1AB5
100
AcDbScale
 70
     0
300
1/2" = 1'-0"
140
0.5
141
12.0
290
     0
  0
SCALE
  5
1AC1
102
{ACAD_REACTORS
330
1AB5
102
}
330
1AB5
100
AcDbScale
 70
     0
300
3/4" = 1'-0"
140
0.75
141
12.0
290
     0
  0
SCALE
  5
1AC2
102
{ACAD_REACTORS
330
1AB5
102
}
330
1AB5
100
AcDbScale
 70
     0
300
1" = 1'-0"
140
1.0
141
12.0
290
     0
  0
SCALE
  5
1AC3
102
{ACAD_REACTORS
330
1AB5
102
}
330
1AB5
100
AcDbScale
 70
     0
300
1-1/2" = 1'-0"
140
1.5
141
12.0
290
     0
  0
SCALE
  5
1AC4
102
{ACAD_REACTORS
330
1AB5
102
}
330
1AB5
100
AcDbScale
 70
     0
300
3" = 1'-0"
140
3.0
141
12.0
290
     0
  0
SCALE
  5
1AC5
102
{ACAD_REACTORS
330
1AB5
102
}
330
1AB5
100
AcDbScale
 70
     0
300
6" = 1'-0"
140
6.0
141
12.0
290
     0
  0
SCALE
  5
1AC6
102
{ACAD_REACTORS
330
1AB5
102
}
330
1AB5
100
AcDbScale
 70
     0
300
1'-0" = 1'-0"
140
12.0
141
12.0
290
     0
  0
ACAD_PROXY_OBJECT
  5
1ACA
102
{ACAD_REACTORS
330
1AC9
102
}
102
{ACAD_XDICTIONARY
360
1CB2
102
}
330
1AC9
100
AcDbProxyObject
 90
      499
 91
      522
 95
  3276827
 70
     0
 93
     3814
310
929D000000180005C0F42F5A8DC671FC00000060001703D0BD6A3719C7E5C0F42F5A8DC6F1FA330000001800099400000060001703D0BD6A3719C7E5C0F42F5A8DC671FC00000060001703D0BD6A3719C7E808000000000001D07E80C0000006000400000064003081815AF46E07A158E7E80C8340C16A22A7D90FC9F8CAE6
310
5A70A583A07E1FE81C635378FA1F8CAE65A70A583A17E7944A7F127A97E9FA149200DA00E000CA00E400D200C200D80064006800882480160010002780160010002880160010002980160010002C00160010002D002F84A007800B8008200C600AC00C200E4004000AC00D200CA00EE00A800F200E000CA004000B800CC004
310
00044004A00E800C600620044007C004A0040004A007800B8008200C600AC00C200E4004000AC00D200CA00EE00A600CA00C600E800D200DE00DC00A600E800C200E400E8009200C8007C004A005A004A007800B8008200C600AC00C200E4004000AC00D200CA00EE00A600CA00C600E800D200DE00DC008A00DC00C800920
310
0C8007C004A00B800A000A6008600820098008A0040004A007800B8008200C600AC00C200E4004000AC00D200CA00EE00A600C600C200D800CA004000B800CC00400044004A00E600DC0044007C004A00832080270029802480198018807404C
340
F
340
0
340
0
340
13
340
13
340
F
 94
        0
  0
TABLESTYLE
  5
1AB4
102
{ACAD_REACTORS
330
1AB3
102
}
102
{ACAD_XDICTIONARY
360
1CC8
102
}
330
1AB3
100
AcDbTableStyle
  3
Standard
 70
     0
 71
     0
 40
0.06
 41
0.06
280
     0
281
     0
  7
STANDARD
140
0.18
170
     2
 62
     0
 63
   257
283
     0
274
    -2
284
     1
 64
     0
275
    -2
285
     1
 65
     0
276
    -2
286
     1
 66
     0
277
    -2
287
     1
 67
     0
278
    -2
288
     1
 68
     0
279
    -2
289
     1
 69
     0
  7
STANDARD
140
0.25
170
     5
 62
     0
 63
   257
283
     0
274
    -2
284
     1
 64
     0
275
    -2
285
     1
 65
     0
276
    -2
286
     1
 66
     0
277
    -2
287
     1
 67
     0
278
    -2
288
     1
 68
     0
279
    -2
289
     1
 69
     0
  7
STANDARD
140
0.18
170
     5
 62
     0
 63
   257
283
     0
274
    -2
284
     1
 64
     0
275
    -2
285
     1
 65
     0
276
    -2
286
     1
 66
     0
277
    -2
287
     1
 67
     0
278
    -2
288
     1
 68
     0
279
    -2
289
     1
 69
     0
  0
VISUALSTYLE
  5
1A9F
102
{ACAD_REACTORS
330
1A99
102
}
102
{ACAD_XDICTIONARY
360
1CCC
102
}
330
1A99
100
AcDbVisualStyle
  2
2dWireframe
 70
     4
 71
     0
 72
     2
 73
     0
 90
        0
 40
-0.6
 41
-30.0
 62
     5
 63
     7
421
 16777215
 74
     1
 91
        4
 64
     7
 65
   257
 75
     1
175
     1
 42
1.0
 92
        0
 66
   257
 43
1.0
 76
     1
 77
     6
 78
     2
 67
     7
 79
     5
170
     0
171
     0
290
     0
174
     0
 93
        1
 44
0.0
173
     0
291
     0
 45
0.0
1001
ACAD
1000
AcDbSavedByObjectVersion
1070
     0
  0
VISUALSTYLE
  5
1A9E
102
{ACAD_REACTORS
330
1A99
102
}
102
{ACAD_XDICTIONARY
360
1CCE
102
}
330
1A99
100
AcDbVisualStyle
  2
Basic
 70
     7
 71
     1
 72
     0
 73
     1
 90
        0
 40
-0.6
 41
-30.0
 62
     5
 63
     7
421
 16777215
 74
     0
 91
        4
 64
     7
 65
   257
 75
     1
175
     1
 42
1.0
 92
        8
 66
     7
 43
1.0
 76
     1
 77
     6
 78
     2
 67
     7
 79
     5
170
     0
171
     0
290
     0
174
     0
 93
        1
 44
0.0
173
     0
291
     1
 45
0.0
1001
ACAD
1000
AcDbSavedByObjectVersion
1070
     0
  0
VISUALSTYLE
  5
1AA5
102
{ACAD_REACTORS
330
1A99
102
}
102
{ACAD_XDICTIONARY
360
1CD0
102
}
330
1A99
100
AcDbVisualStyle
  2
Brighten
 70
    12
 71
     2
 72
     2
 73
     0
 90
        0
 40
-0.6
 41
-30.0
 62
     5
 63
     7
421
 16777215
 74
     1
 91
        4
 64
     7
 65
   257
 75
     1
175
     1
 42
1.0
 92
        8
 66
     7
 43
1.0
 76
     1
 77
     6
 78
     2
 67
     7
 79
     5
170
     0
171
     0
290
     0
174
     0
 93
        1
 44
50.0
173
     0
291
     1
 45
0.0
1001
ACAD
1000
AcDbSavedByObjectVersion
1070
     0
  0
VISUALSTYLE
  5
1AA9
102
{ACAD_REACTORS
330
1A99
102
}
102
{ACAD_XDICTIONARY
360
1CD2
102
}
330
1A99
100
AcDbVisualStyle
  2
ColorChange
 70
    16
 71
     2
 72
     2
 73
     3
 90
        0
 40
-0.6
 41
-30.0
 62
     5
 63
     8
421
  8421504
 74
     1
 91
        4
 64
     7
 65
   257
 75
     1
175
     1
 42
1.0
 92
        8
 66
     8
424
  8421504
 43
1.0
 76
     1
 77
     6
 78
     2
 67
     7
 79
     5
170
     0
171
     0
290
     0
174
     0
 93
        1
 44
0.0
173
     0
291
     1
 45
0.0
1001
ACAD
1000
AcDbSavedByObjectVersion
1070
     0
  0
VISUALSTYLE
  5
1AA2
102
{ACAD_REACTORS
330
1A99
102
}
102
{ACAD_XDICTIONARY
360
1CD4
102
}
330
1A99
100
AcDbVisualStyle
  2
Conceptual
 70
     9
 71
     3
 72
     2
 73
     0
 90
        0
 40
-0.6
 41
-30.0
 62
     5
 63
     7
421
 16777215
 74
     2
 91
        2
 64
     7
 65
   257
 75
     1
175
     1
 42
179.0
 92
        8
 66
     7
 43
1.0
 76
     1
 77
     6
 78
     2
 67
     7
 79
     3
170
     0
171
     0
290
     0
174
     0
 93
        1
 44
0.0
173
     0
291
     0
 45
0.0
1001
ACAD
1000
AcDbSavedByObjectVersion
1070
     0
  0
VISUALSTYLE
  5
1AA4
102
{ACAD_REACTORS
330
1A99
102
}
102
{ACAD_XDICTIONARY
360
1CD6
102
}
330
1A99
100
AcDbVisualStyle
  2
Dim
 70
    11
 71
     2
 72
     2
 73
     0
 90
        0
 40
-0.6
 41
-30.0
 62
     5
 63
     7
421
 16777215
 74
     1
 91
        4
 64
     7
 65
   257
 75
     1
175
     1
 42
1.0
 92
        8
 66
     7
 43
1.0
 76
     1
 77
     6
 78
     2
 67
     7
 79
     5
170
     0
171
     0
290
     0
174
     0
 93
        1
 44
-50.0
173
     0
291
     1
 45
0.0
1001
ACAD
1000
AcDbSavedByObjectVersion
1070
     0
  0
VISUALSTYLE
  5
1AB1
102
{ACAD_REACTORS
330
1A99
102
}
102
{ACAD_XDICTIONARY
360
1CD8
102
}
330
1A99
100
AcDbVisualStyle
  2
EdgeColorOff
 70
    22
 71
     2
 72
     2
 73
     0
 90
        0
 40
-0.6
 41
-30.0
 62
     5
 63
     7
421
 16777215
 74
     1
 91
        4
 64
     7
 65
   257
 75
     1
175
     1
 42
1.0
 92
        8
 66
     7
 43
1.0
 76
     1
 77
     6
 78
     2
 67
     7
 79
     5
170
     0
171
     0
290
     0
174
     0
 93
        1
 44
0.0
173
     0
291
     1
 45
0.0
1001
ACAD
1000
AcDbSavedByObjectVersion
1070
     0
  0
VISUALSTYLE
  5
1AA8
102
{ACAD_REACTORS
330
1A99
102
}
102
{ACAD_XDICTIONARY
360
1CDA
102
}
330
1A99
100
AcDbVisualStyle
  2
Facepattern
 70
    15
 71
     2
 72
     2
 73
     0
 90
        0
 40
-0.6
 41
-30.0
 62
     5
 63
     7
421
 16777215
 74
     1
 91
        4
 64
     7
 65
   257
 75
     1
175
     1
 42
1.0
 92
        8
 66
     7
 43
1.0
 76
     1
 77
     6
 78
     2
 67
     7
 79
     5
170
     0
171
     0
290
     0
174
     0
 93
        1
 44
0.0
173
     0
291
     1
 45
0.0
1001
ACAD
1000
AcDbSavedByObjectVersion
1070
     0
  0
VISUALSTYLE
  5
1A9A
102
{ACAD_REACTORS
330
1A99
102
}
102
{ACAD_XDICTIONARY
360
1CDC
102
}
330
1A99
100
AcDbVisualStyle
  2
Flat
 70
     0
 71
     2
 72
     1
 73
     1
 90
        2
 40
-0.6
 41
30.0
 62
     5
 63
     7
421
 16777215
 74
     0
 91
        0
 64
     7
 65
   257
 75
     1
175
     1
 42
1.0
 92
        8
 66
     7
 43
1.0
 76
     1
 77
     6
 78
     2
 67
     7
 79
     5
170
     0
171
     0
290
     0
174
     0
 93
       13
 44
0.0
173
     0
291
     1
 45
0.0
1001
ACAD
1000
AcDbSavedByObjectVersion
1070
     0
  0
VISUALSTYLE
  5
1A9B
102
{ACAD_REACTORS
330
1A99
102
}
102
{ACAD_XDICTIONARY
360
1CDE
102
}
330
1A99
100
AcDbVisualStyle
  2
FlatWithEdges
 70
     1
 71
     2
 72
     1
 73
     1
 90
        2
 40
-0.6
 41
30.0
 62
     5
 63
     7
421
 16777215
 74
     1
 91
        0
 64
     7
 65
   257
 75
     1
175
     1
 42
1.0
 92
        0
 66
   257
 43
1.0
 76
     1
 77
     6
 78
     2
 67
     7
 79
     5
170
     0
171
     0
290
     0
174
     0
 93
       13
 44
0.0
173
     0
291
     1
 45
0.0
1001
ACAD
1000
AcDbSavedByObjectVersion
1070
     0
  0
VISUALSTYLE
  5
1A9C
102
{ACAD_REACTORS
330
1A99
102
}
102
{ACAD_XDICTIONARY
360
1CE0
102
}
330
1A99
100
AcDbVisualStyle
  2
Gouraud
 70
     2
 71
     2
 72
     2
 73
     1
 90
        2
 40
-0.6
 41
30.0
 62
     5
 63
     7
421
 16777215
 74
     0
 91
        0
 64
     7
 65
   257
 75
     1
175
     1
 42
1.0
 92
        0
 66
     7
 43
1.0
 76
     1
 77
     6
 78
     2
 67
     7
 79
     5
170
     0
171
     0
290
     0
174
     0
 93
       13
 44
0.0
173
     0
291
     1
 45
0.0
1001
ACAD
1000
AcDbSavedByObjectVersion
1070
     0
  0
VISUALSTYLE
  5
1A9D
102
{ACAD_REACTORS
330
1A99
102
}
102
{ACAD_XDICTIONARY
360
1CE2
102
}
330
1A99
100
AcDbVisualStyle
  2
GouraudWithEdges
 70
     3
 71
     2
 72
     2
 73
     1
 90
        2
 40
-0.6
 41
30.0
 62
     5
 63
     7
421
 16777215
 74
     1
 91
        0
 64
     7
 65
   257
 75
     1
175
     1
 42
1.0
 92
        0
 66
   257
 43
1.0
 76
     1
 77
     6
 78
     2
 67
     7
 79
     5
170
     0
171
     0
290
     0
174
     0
 93
       13
 44
0.0
173
     0
291
     1
 45
0.0
1001
ACAD
1000
AcDbSavedByObjectVersion
1070
     0
  0
VISUALSTYLE
  5
1AA1
102
{ACAD_REACTORS
330
1A99
102
}
102
{ACAD_XDICTIONARY
360
1CE4
102
}
330
1A99
100
AcDbVisualStyle
  2
Hidden
 70
     6
 71
     1
 72
     2
 73
     2
 90
        0
 40
-0.6
 41
-30.0
 62
     5
 63
     7
421
 16777215
 74
     2
 91
        2
 64
     7
 65
   257
 75
     2
175
     1
 42
40.0
 92
        0
 66
   257
 43
1.0
 76
     1
 77
     6
 78
     2
 67
     7
 79
     3
170
     0
171
     0
290
     0
174
     0
 93
        1
 44
0.0
173
     0
291
     0
 45
0.0
1001
ACAD
1000
AcDbSavedByObjectVersion
1070
     0
  0
VISUALSTYLE
  5
1AAF
102
{ACAD_REACTORS
330
1A99
102
}
102
{ACAD_XDICTIONARY
360
1CE6
102
}
330
1A99
100
AcDbVisualStyle
  2
JitterOff
 70
    20
 71
     2
 72
     2
 73
     0
 90
        0
 40
-0.6
 41
-30.0
 62
     5
 63
     7
421
 16777215
 74
     1
 91
        4
 64
     7
 65
   257
 75
     1
175
     1
 42
1.0
 92
       10
 66
     7
 43
1.0
 76
     1
 77
     6
 78
     2
 67
     7
 79
     5
170
     0
171
     0
290
     0
174
     0
 93
        1
 44
0.0
173
     0
291
     1
 45
0.0
1001
ACAD
1000
AcDbSavedByObjectVersion
1070
     0
  0
VISUALSTYLE
  5
1AA7
102
{ACAD_REACTORS
330
1A99
102
}
102
{ACAD_XDICTIONARY
360
1CE8
102
}
330
1A99
100
AcDbVisualStyle
  2
Linepattern
 70
    14
 71
     2
 72
     2
 73
     0
 90
        0
 40
-0.6
 41
-30.0
 62
     5
 63
     7
421
 16777215
 74
     1
 91
        4
 64
     7
 65
   257
 75
     7
175
     7
 42
1.0
 92
        8
 66
     7
 43
1.0
 76
     1
 77
     6
 78
     2
 67
     7
 79
     5
170
     0
171
     0
290
     0
174
     0
 93
        1
 44
0.0
173
     0
291
     1
 45
0.0
1001
ACAD
1000
AcDbSavedByObjectVersion
1070
     0
  0
VISUALSTYLE
  5
1AB0
102
{ACAD_REACTORS
330
1A99
102
}
102
{ACAD_XDICTIONARY
360
1CEA
102
}
330
1A99
100
AcDbVisualStyle
  2
OverhangOff
 70
    21
 71
     2
 72
     2
 73
     0
 90
        0
 40
-0.6
 41
-30.0
 62
     5
 63
     7
421
 16777215
 74
     1
 91
        4
 64
     7
 65
   257
 75
     1
175
     1
 42
1.0
 92
        9
 66
     7
 43
1.0
 76
     1
 77
     6
 78
     2
 67
     7
 79
     5
170
     0
171
     0
290
     0
174
     0
 93
        1
 44
0.0
173
     0
291
     1
 45
0.0
1001
ACAD
1000
AcDbSavedByObjectVersion
1070
     0
  0
VISUALSTYLE
  5
1AA3
102
{ACAD_REACTORS
330
1A99
102
}
102
{ACAD_XDICTIONARY
360
1CEC
102
}
330
1A99
100
AcDbVisualStyle
  2
Realistic
 70
     8
 71
     2
 72
     2
 73
     0
 90
        2
 40
-0.6
 41
30.0
 62
     5
 63
     7
421
 16777215
 74
     0
 91
        0
 64
     7
 65
   257
 75
     1
175
     1
 42
1.0
 92
        8
 66
   257
 43
1.0
 76
     1
 77
     6
 78
     2
 67
     7
 79
     3
170
     0
171
     0
290
     0
174
     0
 93
       13
 44
0.0
173
     0
291
     0
 45
0.0
1001
ACAD
1000
AcDbSavedByObjectVersion
1070
     0
  0
VISUALSTYLE
  5
1AAE
102
{ACAD_REACTORS
330
1A99
102
}
102
{ACAD_XDICTIONARY
360
1CEE
102
}
330
1A99
100
AcDbVisualStyle
  2
Shaded
 70
    27
 71
     2
 72
     2
 73
     1
 90
        2
 40
-0.6
 41
30.0
 62
     5
 63
     7
421
 16777215
 74
     0
 91
        4
 64
     7
 65
   257
 75
     1
175
     1
 42
1.0
 92
        8
 66
   257
 43
1.0
 76
     1
 77
     6
 78
     2
 67
     8
425
  7895160
 79
     3
170
     0
171
     0
290
     0
174
     0
 93
        5
 44
0.0
173
     0
291
     0
 45
0.0
1001
ACAD
1000
AcDbSavedByObjectVersion
1070
     0
  0
VISUALSTYLE
  5
1AAD
102
{ACAD_REACTORS
330
1A99
102
}
102
{ACAD_XDICTIONARY
360
1CF0
102
}
330
1A99
100
AcDbVisualStyle
  2
Shaded with edges
 70
    26
 71
     2
 72
     2
 73
     1
 90
        2
 40
-0.6
 41
30.0
 62
     5
 63
     7
421
 16777215
 74
     1
 91
       10
 64
     7
 65
   257
 75
     2
175
     1
 42
1.0
 92
        8
 66
   257
 43
1.0
 76
     1
 77
     6
 78
     2
 67
     7
 79
     3
170
     0
171
     0
290
     0
174
     0
 93
        5
 44
0.0
173
     0
291
     0
 45
0.0
1001
ACAD
1000
AcDbSavedByObjectVersion
1070
     0
  0
VISUALSTYLE
  5
1AAA
102
{ACAD_REACTORS
330
1A99
102
}
102
{ACAD_XDICTIONARY
360
1CF2
102
}
330
1A99
100
AcDbVisualStyle
  2
Shades of Gray
 70
    23
 71
     2
 72
     2
 73
     3
 90
        0
 40
-0.6
 41
-30.0
 62
     5
 63
     7
421
 16777215
 74
     2
 91
        2
 64
     7
 65
     7
 75
     1
175
     1
 42
40.0
 92
        8
 66
     7
 43
1.0
 76
     1
 77
     6
 78
     2
 67
     7
 79
     3
170
     0
171
     0
290
     0
174
     0
 93
        1
 44
0.0
173
     0
291
     0
 45
0.0
1001
ACAD
1000
AcDbSavedByObjectVersion
1070
     0
  0
VISUALSTYLE
  5
1AAB
102
{ACAD_REACTORS
330
1A99
102
}
102
{ACAD_XDICTIONARY
360
1CF4
102
}
330
1A99
100
AcDbVisualStyle
  2
Sketchy
 70
    24
 71
     1
 72
     2
 73
     2
 90
        0
 40
-0.6
 41
-30.0
 62
     5
 63
     7
421
 16777215
 74
     2
 91
        2
 64
     7
 65
     7
 75
     1
175
     1
 42
40.0
 92
       11
 66
     7
 43
1.0
 76
     1
 77
     6
 78
     2
 67
     7
 79
     6
170
     0
171
     0
290
     0
174
     0
 93
        1
 44
0.0
173
     0
291
     0
 45
0.0
1001
ACAD
1000
AcDbSavedByObjectVersion
1070
     0
  0
VISUALSTYLE
  5
1AA6
102
{ACAD_REACTORS
330
1A99
102
}
102
{ACAD_XDICTIONARY
360
1CF6
102
}
330
1A99
100
AcDbVisualStyle
  2
Thicken
 70
    13
 71
     2
 72
     2
 73
     0
 90
        0
 40
-0.6
 41
-30.0
 62
     5
 63
     7
421
 16777215
 74
     1
 91
        4
 64
     7
 65
   257
 75
     1
175
     1
 42
1.0
 92
       12
 66
     7
 43
1.0
 76
     1
 77
     6
 78
     2
 67
     7
 79
     5
170
     0
171
     0
290
     0
174
     0
 93
        1
 44
0.0
173
     0
291
     1
 45
0.0
1001
ACAD
1000
AcDbSavedByObjectVersion
1070
     0
  0
VISUALSTYLE
  5
1AA0
102
{ACAD_REACTORS
330
1A99
102
}
102
{ACAD_XDICTIONARY
360
1CF8
102
}
330
1A99
100
AcDbVisualStyle
  2
Wireframe
 70
     5
 71
     0
 72
     2
 73
     0
 90
        0
 40
-0.6
 41
-30.0
 62
     5
 63
     7
421
 16777215
 74
     1
 91
        4
 64
     7
 65
   257
 75
     1
175
     1
 42
1.0
 92
        0
 66
   257
 43
1.0
 76
     1
 77
     6
 78
     2
 67
     7
 79
     3
170
     0
171
     0
290
     0
174
     0
 93
        1
 44
0.0
173
     0
291
     0
 45
0.0
1001
ACAD
1000
AcDbSavedByObjectVersion
1070
     0
  0
VISUALSTYLE
  5
1AAC
102
{ACAD_REACTORS
330
1A99
102
}
102
{ACAD_XDICTIONARY
360
1CFA
102
}
330
1A99
100
AcDbVisualStyle
  2
X-Ray
 70
    25
 71
     2
 72
     2
 73
     1
 90
        1
 40
0.5
 41
-30.0
 62
     5
 63
     7
421
 16777215
 74
     1
 91
        0
 64
     7
 65
   257
 75
     1
175
     1
 42
1.0
 92
        8
 66
     7
 43
1.0
 76
     1
 77
     6
 78
     2
 67
     7
 79
     3
170
     0
171
     0
290
     0
174
     0
 93
       13
 44
0.0
173
     0
291
     0
 45
0.0
1001
ACAD
1000
AcDbSavedByObjectVersion
1070
     0
  0
DICTIONARYVAR
  5
1CBB
102
{ACAD_REACTORS
330
DA8
102
}
330
DA8
100
DictionaryVariables
280
     0
  1
1:1
  0
DICTIONARYVAR
  5
1CB7
102
{ACAD_REACTORS
330
DA8
102
}
330
DA8
100
DictionaryVariables
280
     0
  1
Standard
  0
DICTIONARYVAR
  5
1CB6
102
{ACAD_REACTORS
330
DA8
102
}
330
DA8
100
DictionaryVariables
280
     0
  1
Standard
  0
DICTIONARYVAR
  5
1CB8
102
{ACAD_REACTORS
330
DA8
102
}
330
DA8
100
DictionaryVariables
280
     0
  1
Imperial24
  0
DICTIONARYVAR
  5
1CB9
102
{ACAD_REACTORS
330
DA8
102
}
330
DA8
100
DictionaryVariables
280
     0
  1
Imperial24
  0
DICTIONARYVAR
  5
DA9
102
{ACAD_REACTORS
330
DA8
102
}
330
DA8
100
DictionaryVariables
280
     0
  1
1
  0
DICTIONARYVAR
  5
1CBD
102
{ACAD_REACTORS
330
DA8
102
}
330
DA8
100
DictionaryVariables
280
     0
  1
1
  0
DICTIONARYVAR
  5
1CBE
102
{ACAD_REACTORS
330
DA8
102
}
330
DA8
100
DictionaryVariables
280
     0
  1
15
  0
DICTIONARYVAR
  5
1CBC
102
{ACAD_REACTORS
330
DA8
102
}
330
DA8
100
DictionaryVariables
280
     0
  1
0
  0
DICTIONARYVAR
  5
1CBA
102
{ACAD_REACTORS
330
DA8
102
}
330
DA8
100
DictionaryVariables
280
     0
  1
0
  0
DICTIONARYVAR
  5
1CBF
102
{ACAD_REACTORS
330
DA8
102
}
330
DA8
100
DictionaryVariables
280
     0
  1
2
  0
DICTIONARY
  5
1C7C
102
{ACAD_REACTORS
330
1C7A
102
}
330
1C7A
100
AcDbDictionary
281
     1
  0
DICTIONARY
  5
1C7B
102
{ACAD_REACTORS
330
1C7A
102
}
330
1C7A
100
AcDbDictionary
281
     1
  3
2129859624
350
1C75
  3
2129859632
350
1C76
  3
2129859640
350
1C77
  3
2129859648
350
1C78
  3
2129859656
350
1C79
  0
DICTIONARY
  5
1CB4
330
1ACC
100
AcDbDictionary
280
     1
281
     1
  3
ACAD_XREC_ROUNDTRIP
360
1CB5
  0
DICTIONARY
  5
1C7D
330
BE2
100
AcDbDictionary
280
     1
281
     1
  3
ADSK_XREC_LAYOUTTHUMBNAIL
360
1C7E
  0
DICTIONARY
  5
1CC2
330
1A89
100
AcDbDictionary
280
     1
281
     1
  3
ACAD_XREC_ROUNDTRIP
360
1CC3
  0
DICTIONARY
  5
1CC4
330
1A81
100
AcDbDictionary
280
     1
281
     1
  3
ACAD_XREC_ROUNDTRIP
360
1CC5
  0
DICTIONARY
  5
1CC6
330
1A91
100
AcDbDictionary
280
     1
281
     1
  3
ACAD_XREC_ROUNDTRIP
360
1CC7
  0
DICTIONARY
  5
1CB2
330
1ACA
100
AcDbDictionary
280
     1
281
     1
  3
ACAD_XREC_ROUNDTRIP
360
1CB3
  0
DICTIONARY
  5
1CC8
330
1AB4
100
AcDbDictionary
280
     1
281
     1
  3
ACAD_ROUNDTRIP_2008_TABLESTYLE_CELLSTYLEMAP
360
1CCA
  3
ACAD_XREC_ROUNDTRIP
360
1CC9
  0
DICTIONARY
  5
1CCC
330
1A9F
100
AcDbDictionary
280
     1
281
     1
  3
ACAD_XREC_ROUNDTRIP
360
1CCD
  0
DICTIONARY
  5
1CCE
330
1A9E
100
AcDbDictionary
280
     1
281
     1
  3
ACAD_XREC_ROUNDTRIP
360
1CCF
  0
DICTIONARY
  5
1CD0
330
1AA5
100
AcDbDictionary
280
     1
281
     1
  3
ACAD_XREC_ROUNDTRIP
360
1CD1
  0
DICTIONARY
  5
1CD2
330
1AA9
100
AcDbDictionary
280
     1
281
     1
  3
ACAD_XREC_ROUNDTRIP
360
1CD3
  0
DICTIONARY
  5
1CD4
330
1AA2
100
AcDbDictionary
280
     1
281
     1
  3
ACAD_XREC_ROUNDTRIP
360
1CD5
  0
DICTIONARY
  5
1CD6
330
1AA4
100
AcDbDictionary
280
     1
281
     1
  3
ACAD_XREC_ROUNDTRIP
360
1CD7
  0
DICTIONARY
  5
1CD8
330
1AB1
100
AcDbDictionary
280
     1
281
     1
  3
ACAD_XREC_ROUNDTRIP
360
1CD9
  0
DICTIONARY
  5
1CDA
330
1AA8
100
AcDbDictionary
280
     1
281
     1
  3
ACAD_XREC_ROUNDTRIP
360
1CDB
  0
DICTIONARY
  5
1CDC
330
1A9A
100
AcDbDictionary
280
     1
281
     1
  3
ACAD_XREC_ROUNDTRIP
360
1CDD
  0
DICTIONARY
  5
1CDE
330
1A9B
100
AcDbDictionary
280
     1
281
     1
  3
ACAD_XREC_ROUNDTRIP
360
1CDF
  0
DICTIONARY
  5
1CE0
330
1A9C
100
AcDbDictionary
280
     1
281
     1
  3
ACAD_XREC_ROUNDTRIP
360
1CE1
  0
DICTIONARY
  5
1CE2
330
1A9D
100
AcDbDictionary
280
     1
281
     1
  3
ACAD_XREC_ROUNDTRIP
360
1CE3
  0
DICTIONARY
  5
1CE4
330
1AA1
100
AcDbDictionary
280
     1
281
     1
  3
ACAD_XREC_ROUNDTRIP
360
1CE5
  0
DICTIONARY
  5
1CE6
330
1AAF
100
AcDbDictionary
280
     1
281
     1
  3
ACAD_XREC_ROUNDTRIP
360
1CE7
  0
DICTIONARY
  5
1CE8
330
1AA7
100
AcDbDictionary
280
     1
281
     1
  3
ACAD_XREC_ROUNDTRIP
360
1CE9
  0
DICTIONARY
  5
1CEA
330
1AB0
100
AcDbDictionary
280
     1
281
     1
  3
ACAD_XREC_ROUNDTRIP
360
1CEB
  0
DICTIONARY
  5
1CEC
330
1AA3
100
AcDbDictionary
280
     1
281
     1
  3
ACAD_XREC_ROUNDTRIP
360
1CED
  0
DICTIONARY
  5
1CEE
330
1AAE
100
AcDbDictionary
280
     1
281
     1
  3
ACAD_XREC_ROUNDTRIP
360
1CEF
  0
DICTIONARY
  5
1CF0
330
1AAD
100
AcDbDictionary
280
     1
281
     1
  3
ACAD_XREC_ROUNDTRIP
360
1CF1
  0
DICTIONARY
  5
1CF2
330
1AAA
100
AcDbDictionary
280
     1
281
     1
  3
ACAD_XREC_ROUNDTRIP
360
1CF3
  0
DICTIONARY
  5
1CF4
330
1AAB
100
AcDbDictionary
280
     1
281
     1
  3
ACAD_XREC_ROUNDTRIP
360
1CF5
  0
DICTIONARY
  5
1CF6
330
1AA6
100
AcDbDictionary
280
     1
281
     1
  3
ACAD_XREC_ROUNDTRIP
360
1CF7
  0
DICTIONARY
  5
1CF8
330
1AA0
100
AcDbDictionary
280
     1
281
     1
  3
ACAD_XREC_ROUNDTRIP
360
1CF9
  0
DICTIONARY
  5
1CFA
330
1AAC
100
AcDbDictionary
280
     1
281
     1
  3
ACAD_XREC_ROUNDTRIP
360
1CFB
  0
XRECORD
  5
1C75
102
{ACAD_REACTORS
330
1C7B
102
}
330
1C7B
100
AcDbXrecord
280
     1
  1
AcDb_Thumbnail_Schema
102
{ATTRRECORD
341
1C76
  2
AcDbDs::TreatedAsObjectData
280
     1
291
     1
102
ATTRRECORD}
102
{ATTRRECORD
341
1C77
  2
AcDbDs::Legacy
280
     1
291
     1
102
ATTRRECORD}
  2
AcDbDs::ID
280
    10
 91
        8
102
{ATTRRECORD
341
1C78
  2
AcDs:Indexable
280
     1
291
     1
102
ATTRRECORD}
102
{ATTRRECORD
341
1C79
  2
AcDbDs::HandleAttribute
280
     7
282
     1
102
ATTRRECORD}
  2
Thumbnail_Data
280
    15
 91
        0
  0
XRECORD
  5
1C76
102
{ACAD_REACTORS
330
1C7B
102
}
330
1C7B
100
AcDbXrecord
280
     1
  1
AcDbDs::TreatedAsObjectDataSchema
  2
AcDbDs::TreatedAsObjectData
280
     1
 91
        0
  0
XRECORD
  5
1C77
102
{ACAD_REACTORS
330
1C7B
102
}
330
1C7B
100
AcDbXrecord
280
     1
  1
AcDbDs::LegacySchema
  2
AcDbDs::Legacy
280
     1
 91
        0
  0
XRECORD
  5
1C78
102
{ACAD_REACTORS
330
1C7B
102
}
330
1C7B
100
AcDbXrecord
280
     1
  1
AcDbDs::IndexedPropertySchema
  2
AcDs:Indexable
280
     1
 91
        0
  0
XRECORD
  5
1C79
102
{ACAD_REACTORS
330
1C7B
102
}
330
1C7B
100
AcDbXrecord
280
     1
  1
AcDbDs::HandleAttributeSchema
  2
AcDbDs::HandleAttribute
280
     7
 91
        1
284
     1
  0
XRECORD
  5
1CB5
102
{ACAD_REACTORS
330
1CB4
102
}
330
1CB4
100
AcDbXrecord
280
     1
102
DISPLAYNAME
  1
Imperial24
102
FLAGS
 90
        0
  0
XRECORD
  5
1C7E
102
{ACAD_REACTORS
330
1C7D
102
}
330
1C7D
100
AcDbXrecord
280
     1
310
2800000000010000A4000000010008000000000000A4000001000000010000000001000000000000302821FF000000FFC8C8C8FF000000FF000000FF000000FF000000FF000000FF000000FF000000FF000000FF330000FF660000FF990000FFCC0000FFFF0000FF003300FF333300FF663300FF993300FFCC3300FFFF3300
310
FF006600FF336600FF666600FF996600FFCC6600FFFF6600FF009900FF339900FF669900FF999900FFCC9900FFFF9900FF00CC00FF33CC00FF66CC00FF99CC00FFCCCC00FFFFCC00FF00FF00FF33FF00FF66FF00FF99FF00FFCCFF00FFFFFF00FF000033FF330033FF660033FF990033FFCC0033FFFF0033FF003333FF3333
310
33FF663333FF993333FFCC3333FFFF3333FF006633FF336633FF666633FF996633FFCC6633FFFF6633FF009933FF339933FF669933FF999933FFCC9933FFFF9933FF00CC33FF33CC33FF66CC33FF99CC33FFCCCC33FFFFCC33FF00FF33FF33FF33FF66FF33FF99FF33FFCCFF33FFFFFF33FF000066FF330066FF660066FF99
310
0066FFCC0066FFFF0066FF003366FF333366FF663366FF993366FFCC3366FFFF3366FF006666FF336666FF666666FF996666FFCC6666FFFF6666FF009966FF339966FF669966FF999966FFCC9966FFFF9966FF00CC66FF33CC66FF66CC66FF99CC66FFCCCC66FFFFCC66FF00FF66FF33FF66FF66FF66FF99FF66FFCCFF66FF
310
FFFF66FF000099FF330099FF660099FF990099FFCC0099FFFF0099FF003399FF333399FF663399FF993399FFCC3399FFFF3399FF006699FF336699FF666699FF996699FFCC6699FFFF6699FF009999FF339999FF669999FF999999FFCC9999FFFF9999FF00CC99FF33CC99FF66CC99FF99CC99FFCCCC99FFFFCC99FF00FF99
310
FF33FF99FF66FF99FF99FF99FFCCFF99FFFFFF99FF0000CCFF3300CCFF6600CCFF9900CCFFCC00CCFFFF00CCFF0033CCFF3333CCFF6633CCFF9933CCFFCC33CCFFFF33CCFF0066CCFF3366CCFF6666CCFF9966CCFFCC66CCFFFF66CCFF0099CCFF3399CCFF6699CCFF9999CCFFCC99CCFFFF99CCFF00CCCCFF33CCCCFF66CC
310
CCFF99CCCCFFCCCCCCFFFFCCCCFF00FFCCFF33FFCCFF66FFCCFF99FFCCFFCCFFCCFFFFFFCCFF0000FFFF3300FFFF6600FFFF9900FFFFCC00FFFFFF00FFFF0033FFFF3333FFFF6633FFFF9933FFFFCC33FFFFFF33FFFF0066FFFF3366FFFF6666FFFF9966FFFFCC66FFFFFF66FFFF0099FFFF3399FFFF6699FFFF9999FFFFCC
310
99FFFFFF99FFFF00CCFFFF33CCFFFF66CCFFFF99CCFFFFCCCCFFFFFFCCFFFF00FFFFFF33FFFFFF66FFFFFF99FFFFFFCCFFFFFFFFFFFFFF000000FF0D0D0DFF1A1A1AFF282828FF353535FF434343FF505050FF5D5D5DFF6B6B6BFF787878FF868686FF939393FFA1A1A1FFAEAEAEFFBBBBBBFFC9C9C9FFD6D6D6FFE4E4E4FF
310
F1F1F1FFFFFFFFFF000000FF000000FF000000FF000000FF000000FF000000FF000000FF000000FF000000FF0000000000000000000000000000000000000000000000000000000000000000000000000000000000000000000000000000000000000000000000000000000000000000000000000000000000000000000000
310
00000000000000000000000000000000000000000000000000000000000000000000000000000000000000000000000000000000000000000000000000000000000000000000000000000000000000000000000000000000000000000000000000000000000000000000000000000000000000000000000000000000000000
310
00000000000000000000000000000000000000000000000000000000000000000000000000000000000000000000000000000000000000000000000000000000000000000000000000000000000000000000000000000000000000000000000000000000000000000000000000000000000000000000000000000000000000
310
00000000000000000000000000000000000000000000000000000000000000000000000000000000000000000000000000000000000000000000000000000000000000000000000000000000000000000000000000000000000000000000000000000000000000000000000000000000000000000000000000000000000000
310
00000000000000000000000000000000000000000000000000000000000000000000000000000000000000000000000000000000000000000000000000000000000000000000000000000000000000000000000000000000000000000000000000000000000000000000000000000000000000000000000000000000000000
310
00000000000000000000000000000000000000000000000000000000000000000000000000000000000000000000000000000000000000000000000000000000000000000000000000000000000000000000000000000000000000000000000000000000000000000000000000000000000000000000000000000000000000
310
00000000000000000000000000000000000000000000000000000000000000000000000000000000000000000000000000000000000000000000000000000000000000000000000000000000000000000000000000000000000000000000000000000000000000000000000000000000000000000000000000000000000000
310
00000000000000000000000000000000000000000000000000000000000000000000000000000000000000000000000000000000000000000000000000000000000000000000000000000000000000000000000000000000000000000000000000000000000000000000000000000000000000000000000000000000000000
310
00000000000000000000000000000000000000000000000000000000000000000000000000000000000000000000000000000000000000000000000000000000000000000000000000000000000000000000000000000000000000000000000000000000000000000000000000000000000000000000000000000000000000
310
00000000000000000000000000000000000000000000000000000000000000000000000000000000000000000000000000000000000000000000000000000000000000000000000000000000000000000000000000000000000000000000000000000000000000000000000000000000000000000000000000000000000000
310
00000000000000000000000000000000000000000000000000000000000000000000000000000000000000000000000000000000000000000000000000000000000000000000000000000000000000000000000000000000000000000000000000000000000000000000000000000000000000000000000000000000000000
310
00000000000000000000000000000000000000000000000000000000000000000000000000000000000000000000000000000000000000000000000000000000000000000000000000000000000000000000000000000000000000000000000000000000000000000000000000000000000000000000000000000000000000
310
00000000000000000000000000000000000000000000000000000000000000000000000000000000000000000000000000000000000000000000000000000000000000000000000000000000000000000000000000000000000000000000000000000000000000000000000000000000000000000000000000000000000000
310
00000000000000000000000000000000000000000000000000000000000000000000000000000000000000000000000000000000000000000000000000000000000000000000000000000000000000000000000000000000000000000000000000000000000000000000000000000000000000000000000000000000000000
310
00000000000000000000000000000000000000000000000000000000000000000000000000000000000000000000000000000000000000000000000000000000000000000000000000000000000000000000000000000000000000000000000000000000000000000000000000000000000000000000000000000000000000
310
00000000000000000000000000000000000000000000000000000000000000000000000000000000000000000000000000000000000000000000000000000000000000000000000000000000000000000000000000000000000000000000000000000000000000000000000000000000000000000000000000000000000000
310
00000000000000000000000000000000000000000000000000000000000000000000000000000000000000000000000000000000000000000000000000000000000000000000000000000000000000000000000000000000000000000000000000000000000000000000000000000000000000000000000000000000000000
310
00000000000000000000000000000000000000000000000000000000000000000000000000000000000000000000000000000000000000000000000000000000000000000000000000000000000000000000000000000000000000000000000000000000000000000000000000000000000000000000000000000000000000
310
00000000000000000000000000000000000000000000000000000000000000000000000000000000000000000000000000000000000000000000000000000000000000000000000000000000000000000000000000000000000000000000000000000000000000000000000000000000000000000000000000000000000000
310
00000000000000000000000000000000000000000000000000000000000000000000000000000000000000000000000000000000000000000000000000000000000000000000000000000000000000000000000000000000000000000000000000000000000000000000000000000000000000000000000000000000000000
310
00000000000000000000000000000000000000000000000000000000000000000000000000000000000000000000000000000000000000000000000000000000000000000000000000000000000000000000000000000000000000000000000000000000000000000000000000000000000000000000000000000000000000
310
00000000000000000000000000000000000000000000000000000000000000000000000000000000000000000000000000000000000000000000000000000000000000000000000000000000000000000000000000000000000000000000000000000000000000000000000000000000000000000000000000000000000000
310
00000000000000000000000000000000000000000000000000000000000000000000000000000000000000000000000000000000000000000000000000000000000000000000000000000000000000000000000000000000000000000000000000000000000000000000000000000000000000000000000000000000000000
310
00000000000000000000000000000000000000000000000000000000000000000000000000000000000000000000000000000000000000000000000000000000000000000000000000000000000000000000000000000000000000000000000000000000000000000000000000000000000000000000000000000000000000
310
00000000000000000000000000000000000000000000000000000000000000000000000000000000000000000000000000000000000000000000000000000000000000000000000000000000000000000000000000000000000000000000000000000000000000000000000000000000000000000000000000000000000000
310
00000000000000000000000000000000000000000000000000000000000000000000000000000000000000000000000000000000000000000000000000000000000000000000000000000000000000000000000000000000000000000000000000000000000000000000000000000000000000000000000000000000000000
310
00000000000000000000000000000000000000000000000000000000000000000000000000000000000000000000000000000000000000000000000000000000000000000000000000000000000000000000000000000000000000000000000000000000000000000000000000000000000000000000000000000000000000
310
00000000000000000000000000000000000000000000000000000000000000000000000000000000000000000000000000000000000000000000000000000000000000000000000000000000000000000000000000000000000000000000000000000000000000000000000000000000000000000000000000000000000000
310
00000000000000000000000000000000000000000000000000000000000000000000000000000000000000000000000000000000000000000000000000000000000000000000000000000000000000000000000000000000000000000000000000000000000000000000000000000000000000000000000000000000000000
310
00000000000000000000000000000000000000000000000000000000000000000000000000000000000000000000000000000000000000000000000000000000000000000000000000000000000000000000000000000000000000000000000000000000000000000000000000000000000000000000000000000000000000
310
00000000000000000000000000000000000000000000000000000000000000000000000000000000000000000000000000000000000000000000000000000000000000000000000000000000000000000000000000000000000000000000000000000000000000000000000000000000000000000000000000000000000000
310
00000000000000000000000000000000000000000000000000000000000000000000000000000000000000000000000000000000000000000000000000000000000000000000000000000000000000000000000000000000000000000000000000000000000000000000000000000000000000000000000000000000000000
310
0000000000000000000000000000000000000000000000000000BEBEBE000000000000000000BEBEBEBEBEBEBEBEBE0000000000000000000000000000000000000000000000000000000000000000000000000000000000000000000000000000000000000000000000000000000000000000000000000000000000000000
310
00000000000000000000000000000000000000000000000000000000000000000000000000000000000000000000000000000000000000000000000000000000000000000000000000000000000000000000000000000000000000000000000000000000000000000000000000000000000000000000000000000000000000
310
00000000000000000000000000000000000000000000000000000000BEBEBEBEBEBEBEBEBEBEBEBEBEBEBEBEBEBEBEBEBE000000000000000000000000000000000000000000000000000000000000000000000000000000000000000000000000000000000000000000000000000000000000000000000000000000000000
310
00000000000000000000000000000000000000000000000000000000000000000000000000000000000000000000000000000000000000000000000000000000000000000000000000000000000000000000000000000000000000000000000000000000000000000000000000000000000000000000000000000000000000
310
000000000000000000000000000000000000000000000000000000000000BEBEBE0000BE0000BE0000BEBEBEBEBE00BEBEBEBE00000000000000000000000000000000000000000000000000000000000000000000000000000000000000000000000000000000000000000000000000000000000000DCDCDCDCDCDCDCDCDC
310
DCDCDCDCDCDCDCDCDCDCDCDCDCDCDCDCDCDCDCDCDCDCDCDCDCDCDCDCDCDCDCDCDCDCDCDCDCDCDCDCDCDCDCDCDCDCDCDCDCDCDCDCDCDCDCDCDCDCDCDCDCDCDCDCDCDCDCDCDCDCDCDCDCDCDCDCDCDCDCDCDCDCDCDCDCDCDCDCDCDCDCDCDCDCDCDCDCDCDCDCDCDCDCDCDCDCDCDCDCDCDCDCDCDCDCDCDCDCDCDCDCDCDCDCDCDCDC
310
DCDCDCDCDCDCDCDCDCDCDCDCDCDCDCDCDCDCDCDCDCDCDCDCDCDCDCDCDCDCDCBEDCBEDCDCDCDCDCDCDCDCBEDCDCBEDCDCDCDCDCDCDCDC000000000000000000000000000000000000000000000000000000000000000000000000000000000000000000000000000000000000000000000000000000000000DC000000000000
310
00000000000000000000000000000000000000000000000000000000000000000000000000000000000000000000000000000000000000000000000000000000000000000000000000000000000000000000000000000000000000000000000000000000000000000000000000000000000000000000000000000000000000
310
000000000000000000000000000000000000DC0000000000000000000000000000BEBEBE0000000000000000BEBEBEBE00000000000000DC000000000000000000000000000000000000000000000000000000000000000000000000000000000000000000000000000000000000000000000000000000000000DC00000000
310
00000000000000000000000000000000000000000000000000000000000000000000000000000000000000000000000000000000000000000000000000000000000000000000000000000000000000000000000000000000000000000000000000000000000000000000000000000000000000000000000000000000000000
310
0000000000000000000000000000000000000000DC0000000000000000000000000000BEBEBE0000000000000000BEBEBEBE00000000000000DC000000000000000000000000000000000000000000000000000000000000000000000000000000000000000000000000000000000000000000000000000000000000DC0000
310
00000000000000000000000000000000000000000000000000000000000000000000000000000000000000000000000000000000000000000000000000000000000000000000000000000000000000000000000000000000000000000000000000000000000000000000000000000000000000000000000000000000000000
310
00000000000000000000000000000000000000000000DCBEBEBEBEBEBEBEBEBEBEBEBEBEBEBEBEBE0000000000000000BEBEBEBE00000000000000DC000000000000000000000000000000000000000000000000000000000000000000000000000000000000000000000000000000000000000000000000000000000000DC
310
00000000000000000000000000000000000000000000000000000000000000000000000000000000000000000000000000000000000000000000000000000000000000000000000000000000000000000000000000000000000000000000000000000000000000000000000000000000000000000000000000000000000000
310
000000000000000000000000000000000000000000000000DC0000BE00BEBEBEBEBEBEBEBE0000BEBEBE0000000000000000BEBEBEBE00000000000000DC0000000000000000000000000000000000000000000000000000000000000000000000000000000000000000000000000000000000000000000000000000000000
310
00DC0000000000000000000000000000000000000000000000000000000000000000000000000000000000000000000000000000000000000000000000000000000000000000000000000000000000000000000000000000000000000000000000000000000000000000000000000000000000000000000000000000000000
310
0000000000000000000000000000000000000000000000000000DCBEBEBEBEBEBEBEBEBEBEBEBEBEBEBEBEBEBEBEBEBEBEBEBEBEBEBEBEBEBEBEBEBEBEBEBEBE000000000000000000000000000000000000000000000000000000000000000000000000000000000000000000000000000000000000000000000000000000
310
000000DC000000000000000000000000000000000000000000000000000000000000000000000000000000000000000000000000000000000000000000000000000000000000000000000000000000000000000000000000000000000000000000000000000000000000000000000000000000000000000000000000000000
310
00000000000000000000000000000000000000000000000000000000DCBEBEBEBE00BEBE0000000000000000000000BEBEBE0000BEBEBEBEBE00BEBEBE00000000DC00000000000000000000000000000000000000000000000000000000000000000000000000000000000000000000000000000000000000000000000000
310
0000000000DC00000000000000000000000000000000000000000000000000000000000000000000000000000000000000000000000000000000000000000000000000000000000000000000000000000000000000000000000000000000000000000000000000000000000000000000000000000000000000000000000000
310
000000000000000000000000000000000000000000000000000000000000DCBEBEBEBEBEBEBEBEBEBEBEBEBEBEBEBEBEBEBEBEBEBEBEBEBEBEBEBEBEBEBEBEBEBEBEBEBE0000000000000000000000000000000000000000000000000000000000000000000000000000000000000000000000000000000000000000000000
310
00000000000000DC0000000000000000000000000000000000000000000000000000000000000000000000000000000000000000000000000000000000000000000000000000000000000000000000000000000000000000000000000000000000000000000000000000000000000000000000000000000000000000000000
310
0000000000000000000000000000000000000000000000000000000000000000DCBEBEBEBEBEBEBE0000BEBEBEBE0000BEBEBEBEBEBEBEBEBEBEBE00000000000000BEBEBEBE000000000000000000000000000000000000000000000000000000000000000000000000000000000000000000000000000000000000000000
310
000000000000000000DC000000000000000000000000000000000000000000000000000000000000000000000000000000000000000000000000000000000000000000000000000000000000000000000000000000000000000000000000000000000000000000000000000000000000000000000000000000000000000000
310
00000000000000000000000000000000000000000000000000000000000000000000DCBEBEBEBEBEBEBE0000BEBEBEBE0000BEBEBEBEBEBEBEBEBEBEBE00000000000000BEBEBEBE00000000000000000000000000000000000000000000000000000000000000000000000000000000000000000000000000000000000000
310
0000000000000000000000DC00000000000000000000000000000000000000000000000000000000000000000000000000000000000000000000000000000000000000000000000000000000000000000000000000000000000000000000000000000000000000000000000000000000000000000000000000000000000000
310
000000000000000000000000000000000000000000000000000000000000000000000000DCBEBEBEBEBEBEBEBEBEBEBEBEBEBEBEBEBEBEBEBEBEBEBEBEBEBEBEBEBEBEBEBEBEBEBEBEBE0000000000000000000000000000000000000000000000000000000000000000000000000000000000000000000000000000000000
310
00000000000000000000000000DC0000000000000000000000000000000000000000000000000000000000000000000000000000000000000000000000000000000000000000000000000000000000000000000000000000000000000000000000000000000000000000000000000000000000000000000000000000000000
310
0000000000000000000000000000000000000000000000000000000000000000000000000000DCBEBEBEBEBEBEBE0000000000000000000000BEBEBEBEBEBEBEBE00000000000000000000DC000000000000000000000000000000000000000000000000000000000000000000000000000000000000000000000000000000
310
000000000000000000000000000000DC000000000000000000000000000000000000000000000000000000000000000000000000000000000000000000000000000000000000000000000000000000000000000000000000000000000000000000000000000000000000000000000000000000000000000000000000000000
310
00000000000000000000000000000000000000000000000000000000000000000000000000000000DCBEBEBEBEBEBEBEBEBEBEBEBEBEBEBEBEBEBEBEBEBEBEBEBEBEBEBEBEBEBEBEBEBEBEBEBEBE00000000000000000000000000000000000000000000000000000000000000000000000000000000000000000000000000
310
0000000000000000000000000000000000DC00000000000000000000000000000000000000000000000000000000000000000000000000000000000000000000000000000000000000000000000000000000000000000000000000000000000000000000000000000000000000000000000000000000000000000000000000
310
000000000000000000000000000000000000000000000000000000000000000000000000000000000000DCBEBE000000BEBE00000000BEBEBEBEBEBEBE00000000000000BEBEBEBEBEBE0000000000DC0000000000000000000000000000000000000000000000000000000000000000000000000000000000000000000000
310
00000000000000000000000000000000000000DC0000000000000000000000000000000000000000000000000000000000000000000000000000000000000000000000000000000000000000000000000000000000000000000000000000000000000000000000000000000000000000000000000000000000000000000000
310
0000000000000000000000000000000000000000000000000000000000000000000000000000000000000000DCBEBE0000BEBEBE00000000BEBEBEBEBEBEBEBEBEBEBEBEBE00BEBEBEBEBEBE0000000000DC000000000000000000000000000000000000000000000000000000000000000000000000000000000000000000
310
000000000000000000000000000000000000000000DC000000000000000000000000000000000000000000000000000000000000000000000000000000000000000000000000000000000000000000000000000000000000000000000000000000000000000000000000000000000000000000000000000000000000000000
310
00000000000000000000000000000000000000000000000000000000000000000000000000000000000000000000DCBEBE000000BEBE00000000BEBEBEBEBEBEBEBEBE0000000000BEBEBEBEBEBE0000000000DC00000000000000000000000000000000000000000000000000000000000000000000000000000000000000
310
0000000000000000000000000000000000000000000000DC00000000000000000000000000000000000000000000000000000000000000000000000000000000000000000000000000000000000000000000000000000000000000000000000000000000000000000000000000000000000000000000000000000000000000
310
000000000000000000000000000000000000000000000000000000000000000000000000000000000000000000000000DCDCDCDCDCDCDCBEDCDCDCDCDCDCDCDCDCDCDCDCDCDCDCDCDCDCDCDCDCDCDCDCDCDCDCDCDCDC0000000000000000000000000000000000000000000000000000000000000000000000000000000000
310
00000000000000000000000000000000000000000000000000DC0000000000000000000000000000000000000000000000000000000000000000000000000000000000000000000000000000000000000000000000000000000000000000000000000000000000000000000000000000000000000000000000000000000000
310
000000000000000000000000000000000000000000000000000000000000000000000000000000000000000000000000000000BEBEBEBEBEBEBEBEBEBEBEBEBEBEBE0000BEBEBEBEBEBEBEBEBEBEBEBEBE00BEBEBEBEBEDC000000000000000000000000000000000000000000000000000000000000000000000000000000
310
000000000000000000000000000000000000000000000000000000DC000000000000000000000000000000000000000000000000000000000000000000000000000000000000000000000000000000000000000000000000000000000000000000000000000000000000000000000000000000000000000000000000000000
310
0000000000000000000000000000000000000000000000000000000000000000000000000000000000000000000000000000000000BEBEBEBEBEBEBEBEBEBEBEBEBEBEBE0000BEBEBE00BEBEBEBEBE00BEBEBE00BEBEBEBEBEDC00000000000000000000000000000000000000000000000000000000000000000000000000
310
0000000000000000000000000000000000000000000000000000000000DC00000000000000000000000000000000000000000000000000000000000000000000000000000000000000000000000000000000000000000000000000000000000000000000000000000000000000000000000000000000000000000000000000
310
00000000000000000000000000000000000000000000000000000000000000000000000000000000000000000000000000000000000000000000000000000000000000000000000000000000000000000000000000000000000000DC0000000000000000000000000000000000000000000000000000000000000000000000
310
00000000000000000000000000000000000000000000000000000000000000DC0000000000000000000000000000000000000000000000000000000000000000000000000000000000000000000000000000000000000000000000000000000000000000000000000000000000000000000000000000000000000000000000
310
000000000000000000000000000000000000000000000000000000000000000000000000000000000000000000000000000000000000000000000000000000000000000000000000000000000000000000000000000000000000000000DC000000000000000000000000000000000000000000000000000000000000000000
310
000000000000000000000000000000000000000000000000000000000000000000DC000000000000000000000000000000000000000000000000000000000000000000000000000000000000000000000000000000000000000000000000000000000000000000000000000000000000000000000000000000000000000000
310
0000000000000000000000000000000000000000000000000000000000000000000000000000000000000000000000000000000000000000000000000000000000000000000000000000000000000000000000000000000000000000000000DC00000000000000000000000000000000000000000000000000000000000000
310
0000000000000000000000000000000000000000000000000000000000000000000000DC00000000000000000000000000000000000000000000000000000000000000000000000000000000000000000000000000000000000000000000000000000000000000000000000000000000000000000000000000000000000000
310
00000000000000000000000000000000000000000000000000000000000000000000000000000000000000000000000000000000000000000000000000000000000000000000000000000000000000000000000000000000000000000000000000DC0000000000000000000000000000000000000000000000000000000000
310
00000000000000000000000000000000000000000000000000000000000000000000000000DC0000000000000000000000000000000000000000000000000000000000000000000000000000000000000000000000000000000000000000000000000000000000000000000000000000000000000000000000000000000000
310
000000000000000000000000000000000000000000000000000000000000000000000000000000000000000000000000000000000000000000000000000000000000000000000000000000000000000000000000000000000000000000000000000000DC000000000000000000000000000000000000000000000000000000
310
000000000000000000000000000000000000000000000000000000000000000000000000000000DC000000000000000000000000000000000000000000000000000000000000000000000000000000000000000000000000000000000000000000000000000000000000000000000000000000000000000000000000000000
310
0000000000000000000000000000000000000000000000000000000000000000000000000000000000000000000000000000000000000000000000000000000000000000000000000000000000000000000000000000000000000000000000000000000000DC00000000000000000000000000000000000000000000000000
310
0000000000000000000000000000000000000000000000000000000000000000000000000000000000DC00000000000000000000000000000000000000000000000000000000000000000000000000000000000000000000000000000000000000000000000000000000000000000000000000000000000000000000000000
310
00000000000000000000000000000000000000000000000000000000000000000000000000000000000000000000000000000000000000000000000000000000000000000000000000000000000000000000000000000000000000000000000000000000000000DC0000000000000000000000000000000000000000000000
310
00000000000000000000000000000000000000000000000000000000000000000000000000000000000000DC0000000000000000000000000000000000000000000000000000000000000000000000000000000000000000000000000000000000000000000000000000000000000000000000000000000000000000000000
310
000000000000000000000000000000000000000000000000000000000000000000000000000000000000000000000000000000000000000000000000000000000000000000000000000000000000000000000000000000000000000000000000000000000000000000DC000000000000000000000000000000000000000000
310
000000000000000000000000000000000000000000000000000000000000000000000000000000000000000000DC000000000000000000000000000000000000000000000000000000000000000000000000000000000000000000000000000000000000000000000000000000000000000000000000000000000000000000
310
0000000000000000000000000000000000000000000000000000000000000000000000000000000000000000000000000000000000000000000000000000000000000000000000000000000000000000000000000000000000000000000000000000000000000000000000DC00000000000000000000000000000000000000
310
0000000000000000000000000000000000000000000000000000000000000000000000000000000000000000000000DC00000000000000000000000000000000000000000000000000000000000000000000000000000000000000000000000000000000000000000000000000000000000000000000000000000000000000
310
00000000000000000000000000000000000000000000000000000000000000000000000000000000000000000000000000000000000000000000000000000000000000000000000000000000000000000000000000000000000000000000000000000000000000000000000000DC0000000000000000000000000000000000
310
00000000000000000000000000000000000000000000000000000000000000000000000000000000000000000000000000DC0000000000000000000000000000000000000000000000000000000000000000000000000000000000000000000000000000000000000000000000000000000000000000000000000000000000
310
000000000000000000000000000000000000000000000000000000000000000000000000000000000000000000000000000000000000000000000000000000000000000000000000000000000000000000000000000000000000000000000000000000000000000000000000000000DC000000000000000000000000000000
310
000000000000000000000000000000000000000000000000000000000000000000000000000000000000000000000000000000DC000000000000000000000000000000000000000000000000000000000000000000000000000000000000000000000000000000000000000000000000000000000000000000000000000000
310
0000000000000000000000000000000000000000000000000000000000000000000000000000000000000000000000000000000000000000000000000000000000000000000000000000000000000000000000000000000000000000000000000000000000000000000000000000000000DC00000000000000000000000000
310
0000000000000000000000000000000000000000000000000000000000000000000000000000000000000000000000000000000000DC00000000000000000000000000000000000000000000000000000000000000000000000000000000000000000000000000000000000000000000000000000000000000000000000000
310
00000000000000000000000000000000000000000000000000000000000000000000000000000000000000000000000000000000000000000000000000000000000000000000000000000000000000000000000000000000000000000000000000000000000000000000000000000000000000DC0000000000000000000000
310
00000000000000000000000000000000000000000000000000000000000000000000000000000000000000000000000000000000000000DC0000000000000000000000000000000000000000000000000000000000000000000000000000000000000000000000000000000000000000000000000000000000000000000000
310
000000000000000000000000000000000000000000000000000000000000000000000000000000000000000000000000000000000000000000000000000000000000000000000000000000000000000000000000000000000000000000000000000000000000000000000000000000000000000000DC000000000000000000
310
000000000000000000000000000000000000000000000000000000000000000000000000000000000000000000000000000000000000000000DC000000000000000000000000000000000000000000000000000000000000000000000000000000000000000000000000000000000000000000000000000000000000000000
310
0000000000000000000000000000000000000000000000000000000000000000000000000000000000000000000000000000000000000000000000000000000000000000000000000000000000000000000000000000000000000000000000000000000000000000000000000000000000000000000000DC00000000000000
310
0000000000000000000000000000000000000000000000000000000000000000000000000000000000000000000000000000000000000000000000DC00000000000000000000000000000000000000000000000000000000000000000000000000000000000000000000000000000000000000000000000000000000000000
310
00000000000000000000000000000000000000000000000000000000000000000000000000000000000000000000000000000000000000000000000000000000000000000000000000000000000000000000000000000000000000000000000000000000000000000000000000000000000000000000000000DC0000000000
310
00000000000000000000000000000000000000000000000000000000000000000000000000000000000000000000000000000000000000000000000000DC0000000000000000000000000000000000000000000000000000000000000000000000000000000000000000000000000000000000000000000000000000000000
310
000000000000000000000000000000000000000000000000000000000000000000000000000000000000000000000000000000000000000000000000000000000000000000000000000000000000000000000000000000000000000000000000000000000000000000000000000000000000000000000000000000DC000000
310
000000000000000000000000000000000000000000000000000000000000000000000000000000000000000000000000000000000000000000000000000000DC000000000000000000000000000000000000000000000000000000000000000000000000000000000000000000000000000000000000000000000000000000
310
0000000000000000000000000000000000000000000000000000000000000000000000000000000000000000000000000000000000000000000000000000000000000000000000000000000000000000000000000000000000000000000000000000000000000000000000000000000000000000000000000000000000DC00
310
0000000000000000000000000000000000000000000000000000000000000000000000000000000000000000000000000000000000000000000000000000000000DC00000000000000000000000000000000000000000000000000000000000000000000000000000000000000000000000000000000000000000000000000
310
00000000000000000000000000000000000000000000000000000000000000000000000000000000000000000000000000000000000000000000000000000000000000000000000000000000000000000000000000000000000000000000000000000000000000000000000000000000000000000000000000000000000000
310
DC000000000000000000000000000000000000000000000000000000000000000000000000000000000000000000000000000000000000000000000000000000000000DC0000000000000000000000000000000000000000000000000000000000000000000000000000000000000000000000000000000000000000000000
310
00000000000000000000000000000000000000000000000000000000000000000000000000000000000000000000000000000000000000000000000000000000000000000000000000000000000000000000000000000000000000000000000000000000000000000000000000000000000000000000000000000000000000
310
0000DC000000000000000000000000000000000000000000000000000000000000000000000000000000000000000000000000000000000000000000000000000000000000DC000000000000000000000000000000000000000000000000000000000000000000000000000000000000000000000000000000000000000000
310
00000000000000000000000000000000000000000000000000000000000000000000000000000000000000000000000000000000000000000000000000000000000000000000000000000000000000000000000000000000000000000000000000000000000000000000000000000000000000000000000000000000000000
310
00000000DC000000000000000000000000000000000000000000000000000000000000000000000000000000000000000000000000000000000000000000000000000000000000DC00000000000000000000000000000000000000000000000000000000000000000000000000000000000000000000000000000000000000
310
00000000000000000000000000000000000000000000000000000000000000000000000000000000000000000000000000000000000000000000000000000000000000000000000000000000000000000000000000000000000000000000000000000000000000000000000000000000000000000000000000000000000000
310
000000000000DC000000000000000000000000000000000000000000000000000000000000000000000000000000000000000000000000000000000000000000000000000000000000DC0000000000000000000000000000000000000000000000000000000000000000000000000000000000000000000000000000000000
310
00000000000000000000000000000000000000000000000000000000000000000000000000000000000000000000000000000000000000000000000000000000000000000000000000000000000000000000000000000000000000000000000000000000000000000000000000000000000000000000000000000000000000
310
0000000000000000DC000000000000000000000000000000000000000000000000000000000000000000000000000000000000000000000000000000000000000000000000000000000000DC000000000000000000000000000000000000000000000000000000000000000000000000000000000000000000000000000000
310
00000000000000000000000000000000000000000000000000000000000000000000000000000000000000000000000000000000000000000000000000000000000000000000000000000000000000000000000000000000000000000000000000000000000000000000000000000000000000000000000000000000000000
310
00000000000000000000DC000000000000000000000000000000000000000000000000000000000000000000000000000000000000000000000000000000000000000000000000000000000000DC00000000000000000000000000000000000000000000000000000000000000000000000000000000000000000000000000
310
00000000000000000000000000000000000000000000000000000000000000000000000000000000000000000000000000000000000000000000000000000000000000000000000000000000000000000000000000000000000000000000000000000000000000000000000000000000000000000000000000000000000000
310
000000000000000000000000DC000000000000000000000000000000000000000000000000000000000000000000000000000000000000000000000000000000000000000000000000000000000000DC0000000000000000000000000000000000000000000000000000000000000000000000000000000000000000000000
310
00000000000000000000000000000000000000000000000000000000000000000000000000000000000000000000000000000000000000000000000000000000000000000000000000000000000000000000000000000000000000000000000000000000000000000000000000000000000000000000000000000000000000
310
0000000000000000000000000000DC000000000000000000000000000000000000000000000000000000000000000000000000000000000000000000000000000000000000000000000000000000000000DC000000000000000000000000000000000000000000000000000000000000000000000000000000000000000000
310
00000000000000000000000000000000000000000000000000000000000000000000000000000000000000000000000000000000000000000000000000000000000000000000000000000000000000000000000000000000000000000000000000000000000000000000000000000000000000000000000000000000000000
310
00000000000000000000000000000000DC000000000000000000000000000000000000000000000000000000000000000000000000000000000000000000000000000000000000000000000000000000000000DC00000000000000000000000000000000000000000000000000000000000000000000000000000000000000
310
00000000000000000000000000000000000000000000000000000000000000000000000000000000000000000000000000000000000000000000000000000000000000000000000000000000000000000000000000000000000000000000000000000000000000000000000000000000000000000000000000000000000000
310
000000000000000000000000000000000000DC000000000000000000000000000000000000000000000000000000000000000000000000000000000000000000000000000000000000000000000000000000000000DC0000000000000000000000000000000000000000000000000000000000000000000000000000000000
310
00000000000000000000000000000000000000000000000000000000000000000000000000000000000000000000000000000000000000000000000000000000000000000000000000000000000000000000000000000000000000000000000000000000000000000000000000000000000000000000000000000000000000
310
0000000000000000000000000000000000000000DC000000000000000000000000000000000000000000000000000000000000000000000000000000000000000000000000000000000000000000000000000000000000DC000000000000000000000000000000000000000000000000000000000000000000000000000000
310
00000000000000000000000000000000000000000000000000000000000000000000000000000000000000000000000000000000000000000000000000000000000000000000000000000000000000000000000000000000000000000000000000000000000000000000000000000000000000000000000000000000000000
310
00000000000000000000000000000000000000000000DC000000000000000000000000000000000000000000000000000000000000000000000000000000000000000000000000000000000000000000000000000000000000DC00000000000000000000000000000000000000000000000000000000000000000000000000
310
00000000000000000000000000000000000000000000000000000000000000000000000000000000000000000000000000000000000000000000000000000000000000000000000000000000000000000000000000000000000000000000000000000000000000000000000000000000000000000000000000000000000000
310
000000000000000000000000000000000000000000000000DC000000000000000000000000000000000000000000000000000000000000000000000000000000000000000000000000000000000000000000000000000000000000DC0000000000000000000000000000000000000000000000000000000000000000000000
310
00000000000000000000000000000000000000000000000000000000000000000000000000000000000000000000000000000000000000000000000000000000000000000000000000000000000000000000000000000000000000000000000000000000000000000000000000000000000000000000000000000000000000
310
0000000000000000000000000000000000000000000000000000DC000000000000000000000000000000000000000000000000000000000000000000000000000000000000000000000000000000000000000000000000000000000000DC000000000000000000000000000000000000000000000000000000000000000000
310
000000000000000000000000000000BE000000000000000000000000BE0000000000000000000000000000000000000000000000000000000000000000000000000000000000000000000000000000000000000000000000000000000000000000000000000000000000000000000000000000000000000000000000000000
310
00000000000000000000000000000000000000000000000000000000DC000000000000000000000000000000000000000000000000000000000000000000000000000000000000000000000000000000000000000000000000000000000000DC00000000000000000000000000000000000000000000000000000000000000
310
0000000000000000000000000000000000BEBEBEBEBEBEBEBEBEBEBEBEBEBE000000000000000000000000000000000000000000000000000000000000000000000000000000000000000000000000000000000000000000000000000000000000000000000000000000000000000000000000000000000000000000000000
310
000000000000000000000000000000000000000000000000000000000000DC000000000000000000000000000000000000000000000000000000000000000000000000000000000000000000000000000000000000000000000000000000000000DC0000000000000000000000000000000000000000000000000000000000
310
00000000000000000000000000000000000000BE00000000BEBEBEBE00000000BE00000000000000000000000000000000000000000000000000000000000000000000000000000000000000000000000000000000000000000000000000000000000000000000000000000000000000000000000000000000000000000000
310
0000000000000000000000000000000000000000000000000000000000000000DC000000000000000000000000000000000000000000000000000000000000000000000000000000000000000000000000000000000000000000000000000000000000DC000000000000000000000000000000000000000000000000000000
310
00000000000000000000000000000000000000BEBEBEBEBEBEBEBEBEBEBEBEBEBEBEBE0000000000000000000000000000000000000000000000000000000000000000000000000000000000000000000000000000000000000000000000000000000000000000000000000000000000000000000000000000000000000000
310
00000000000000000000000000000000000000000000000000000000000000000000DC000000000000000000000000000000000000000000000000000000000000000000000000000000000000000000000000000000000000000000000000000000000000DC00000000000000000000000000000000000000000000000000
310
00000000000000000000000000000000000000000000BEBEBE000000BEBEBEBE000000BEBE000000000000000000000000000000000000000000000000000000000000000000000000000000000000000000000000000000000000000000000000000000000000000000000000000000000000000000000000000000000000
310
000000000000000000000000000000000000000000000000000000000000000000000000DC000000000000000000000000000000000000000000000000000000000000000000000000000000000000000000000000000000000000000000000000000000000000DC0000000000000000000000000000000000000000000000
310
00000000000000000000000000000000000000000000000000BEBE000000BEBEBEBE00000000BE00000000000000000000000000000000000000000000000000000000000000000000000000000000000000000000000000000000000000000000000000000000000000000000000000000000000000000000000000000000
310
0000000000000000000000000000000000000000000000000000000000000000000000000000DC000000000000000000000000000000000000000000000000000000000000000000000000000000000000000000000000000000000000000000000000000000000000DC000000000000000000000000000000000000000000
310
000000000000000000000000000000000000000000000000000000BEBEBEBE000000000000000000BE000000000000000000000000000000000000000000000000000000000000000000000000000000000000000000000000000000000000000000000000000000000000000000000000000000BEBEBEBEBEBE0000000000
310
00000000000000000000000000000000000000000000000000000000000000000000000000000000DC000000000000000000000000000000000000000000000000000000000000000000000000000000000000000000000000000000000000000000000000000000000000DC00000000000000000000000000000000000000
310
0000000000000000000000000000000000000000000000000000000000BEBEBEBE000000000000000000BE000000000000000000000000000000000000000000000000000000000000000000000000000000000000000000000000000000000000000000000000000000000000000000000000000000BEBEBEBEBEBE000000
310
000000000000000000000000000000000000000000000000000000000000000000000000000000000000DC000000000000000000000000000000000000000000000000000000000000000000000000000000000000000000000000000000000000000000000000000000000000DC0000000000000000000000000000000000
310
00000000000000000000000000000000000000000000000000000000000000BEBEBEBE000000000000000000BE00000000000000000000000000000000000000000000000000000000000000000000000000000000000000000000000000000000000000000000000000000000000000BEBEBEBEBEBEBEBEBEBEBEBEBEBEBE
310
BE00000000000000000000000000000000000000000000000000000000000000000000000000000000000000DC000000000000000000000000000000000000000000000000000000000000000000000000000000000000000000000000000000000000000000000000000000000000DC000000000000000000000000000000
310
000000000000000000000000000000000000000000000000000000000000000000BE0000BE000000000000000000BE000000000000000000000000000000000000000000000000000000000000000000000000000000000000000000000000000000000000000000000000000000000000BE00000000BE0000BEBEBEBEBEBE
310
BE000000000000000000000000000000000000000000000000000000000000000000000000000000000000000000DC000000000000000000000000000000000000000000000000000000000000000000000000000000000000000000000000000000000000000000000000000000000000DC00000000000000000000000000
310
0000000000000000000000000000000000000000000000000000000000000000000000BE0000BE000000000000000000BE000000000000000000000000000000000000000000000000000000000000000000000000000000000000000000000000000000000000000000000000000000000000BE00000000BE000000000000
310
000000000000000000000000000000000000000000000000000000000000000000000000000000000000000000000000DC000000000000000000000000000000000000000000000000000000000000000000000000000000000000000000000000000000000000000000000000000000000000DC0000000000000000000000
310
00000000000000000000000000000000000000000000000000000000000000000000000000BE0000BE000000000000000000BE0000000000000000000000000000000000000000000000000000000000000000000000000000000000000000000000000000000000000000000000000000000000BE00000000BE0000000000
310
0000000000000000000000000000000000000000000000000000000000000000000000000000000000000000000000000000DC000000000000000000000000000000000000000000000000000000000000000000000000000000000000000000000000000000000000000000000000000000000000DC000000000000000000
310
000000000000000000000000000000000000000000000000000000000000000000000000000000BE0000BE000000000000000000BE00000000000000000000000000000000000000000000000000000000000000000000000000000000000000000000000000000000000000000000000000000000BE0F000000BE00000000
310
00000000000000000000000000000000000000000000000000000000000000000000000000000000000000000000000000000000DC000000000000000000000000000000000000000000000000000000000000000000000000000000000000000000000000000000000000000000000000000000000000DC00000000000000
310
000000000000000000000000000000000000000000000000000000BEBEBEBEBEBEBEBEBEBEBEBEBEBEBE2828BE2828282828282828282800000000000000000000000000000000000000000000000000000000000000000000000000000000002828282828282828282828282828282828282828282828BE28282828282828
310
28282828282828282828282828282828282828BEBEBEBEBEBEBEBEBEBEBEBEBEBE000000000000000000000000000000000000000000DC000000000000000000000000000000000000000000000000000000000000000000000000000000000000000000000000000000000000000000000000000000000000DC0000000000
310
0000000000000000000000000000000000000000000000000000000000BEBEBEBE00000000000000000000280000BE00000000000000000028000000000000000000000000000000000000000000000000000000000000000000000000000000000028000000000000000000000000000000000000000000BE000F0000BEBE
310
0000000000000000000000000000000000000000280000000000000000BEBEBE00BEBE000000000000000000000000000000000000000000DC000000000000000000000000000000000000000000000000000000000000000000000000000000000000000000000000000000000000000000000000000000000000DC000000
310
00000000000000000000000000000000000000000000000000000000000000BEBEBEBE00000000000000000000280000BEDCDCDCDCDCDCDCDCDCDCDCDCDC000000000000000000000000000000000000000000000000000000000000000000000000000028BE00000000BE00000000BE00000000BEBE00000000BE000F0000
310
BE00000000BE00000000BEBE000000BEBE00000000BE280000000000000000BEBEBE00BE00000000000000000000000000000000000000000000DC000000000000000000000000000000000000000000000000000000000000000000000000000000000000000000000000000000000000000000000000000000000000DC00
310
000000000000000000000000000000000000000000000000000000000000000000BEBEBEBEBEBEBEBEBEBEBEBEBEBEBEBEBEF52828282828282828282800BE00000000000000000000000000000000000000000000000000000000000000000000000000000028282828282828282828282828282828282828282828282828
310
28282828282828282828282828282828282828282828282828BEBEBEBEBEBEBEBEBEBEBE00BE00000000000000000000000000000000000000000000DC000000000000000000000000000000000000000000000000000000000000000000000000000000000000000000000000000000000000000000000000000000000000
310
DC00000000000000000000000000000000000000000000000000000000000000000000BE0000BE0000000000000000000028000028280000000000000000BE0000BE00000000000000000000000000000000000000000000000000000000000000000000000000002800000000000000000000000000000000000000000000
310
000F00000000000000000000000000000000000000000000000028000000000000000000BEBE00BE00000000000000000000000000000000000000000000DC00000000000000000000000000000000000000000000000000000000000000000000000000000000000000000000000000000000000000000000000000000000
310
0000DC00000000000000000000000000000000000000000000000000000000000000000000BE0000BE0000000000000000000028002828BEBE00000000000000BE0000BE0000000000000000000000000000000000000000000000000000000000000000000000000000280000000000000000000000000000000000000000
310
0000000F0000000000000000000000000000000000000000000000002800000000000000000000BE00BE00000000000000000000000000000000000000000000DC0000000000000000000000000000000000000000000000000000000000000000000000000000000000000000000000000000000000000000000000000000
310
00000000DC00000000000000000000000000000000000000000000000000000000000000000000BE0000BE00000000000000000000280028280000BEBE0000000000BE000000BE0000000000000000000000000000000000000000000000000000000000000000000000000028000000000000000000000000000000000000
310
00000000000F0000000000000000000000000000000000000000000000002800000000000000000000BE00BE00000000000000000000000000000000000000000000DC000000000000000000000000000000000000000000000000000000000000000000000000000000000000000000000000000000000000000000000000
310
000000000000DC00000000000000000000000000000000000000000000000000000000000000000000BE0000BE000000000000000000002800282800BEBEBEBE00000000BE00000000BE0000BEBEBEBEBE00000000000000000000000000000000000000000000000000000000002800000000000000000000000000000000
310
000000000000000F0000000000000000000000000000000000000000000000002800000000000000000000BE00BE00000000000000000000000000000000000000000000DC00000000000000000000000000000000000000000000000000000000000000000000000000000000000000000000000000000000000000000000
310
0000000000000000DC00000000000000000000000000000000000000000000000000000000000000000000BE0000BE0000000000000000000028002828000000BE0000000000BE00000000BE0000BEBEBEBEBE0000000000000000000000000000000000000000000000000000000000280000000000000000000000000000
310
0000000000000000000F0000000000000000000000000000000000000000000000002800000000000000000000BE00BE00000000000000000000000000000000000000000000DC0000000000000000000000000000000000000000000000000000000000000000000000000000000000000000000000000000000000000000
310
00000000000000000000DC00000000000000000000000000000000000000000000000000000000000000000000BE0000BE0000000000000000000028002828000000000000000000BE0000000000BEBEBEBEBEBEBEBEBEBEBE0000000000000000000000000000000000000000000000000028000000000000000000000000
310
00000000000000000000000F0000000000000000000000000000000000000000000000002800000000000000000000BE00BE00000000000000000000000000000000000000000000DC000000000000000000000000000000000000000000000000000000000000000000000000000000000000000000000000000000000000
310
000000000000000000000000DC00000000000000000000000000000000000000000000000000000000000000000000BE0000BE0000000000000000000028002828000000000000000000BE00000000000000BEBEBEBEBEBE000000000000000000000000000000000000000000000000000000002800000000000000000000
310
000000000000000000000000000F0000000000000000000000000000000000000000000000002800000000000000000000BE00BE00000000000000000000000000000000000000000000DC00000000000000000000000000000000000000000000000000000000000000000000000000000000000000000000000000000000
310
0000000000000000000000000000DC00000000000000000000000000000000000000000000000000000000000000000000BE0000BE0000000000000000000028002828000000000000000000BE0000000000000000000000000000000000000000000000000000000000000000000000000000000000280000000000000000
310
0000000000000000000000000000000F0000000000000000000000000000000000000000000000002800000000000000000000BE00BE00000000000000000000000000000000000000000000DC0000000000000000000000000000000000000000000000000000000000000000000000000000000000000000000000000000
310
00000000000000000000000000000000DC00000000000000000000000000000000000000000000000000000000000000000000BE0000BE0000000000000000000028002828000000000000000000BE000000000000000000000000000000000000000000000000000000000000000000000000000000000028000000000000
310
00000000000000000000000000000000000F0000000000000000000000000000000000000000000000002800000000000000000000BE00BE00000000000000000000000000000000000000000000DC000000000000000000000000000000000000000000000000000000000000000000000000000000000000000000000000
310
000000000000000000000000000000000000DC000000000000000000000000000000000000000000000000000000000000000000BEBE0000BE0000000000000000000028002828000000000000000000BE00000000000000000000000000000000000000000000000000000000000000000000000000000000002800000000
310
000000000000000000000000000000000000000F0000000000000000000000000000000000000000000000002800000000000000000000BEBEBE00000000000000000000000000000000000000000000DC00000000000000000000000000000000000000000000000000000000000000000000000000000000000000000000
310
0000000000000000000000000000000000000000DC000000000000000000000000000000000000000000000000000000000000000000BEBEBEBEBE0000000000000000000028002828000000000000000000BE0000000000000000000000000000000000000000000000000000000000000000000000000000000000280000
310
0000000000000000000000000000000000000000000F000000000000000000000000000000000000000000000000280000000000000000BEBEBEBEBE00000000000000000000000000000000000000000000DC0000000000000000000000000000000000000000000000000000000000000000000000000000000000000000
310
00000000000000000000000000000000000000000000DC000000000000000000000000000000000000000000000000000000000000000000BEBEBEBEBE0000000000000000000028002828000000000000000000BE000000000000000000000000000000000000000000000000000000000000000000000000000000000028
310
00000000000000000000000000000000000000000000000F000000000000000000000000000000000000000000000000280000000000000000BEBEBEBEBE00000000000000000000000000000000000000000000DC000000000000000000000000000000000000000000000000000000000000000000000000000000000000
310
000000000000000000000000000000000000000000000000DC00000000000000000000000000000000000000000000000000000000000000000000BEBEBEBE0000000000000000000028002828000000000000000000BE00000000000000000000000000000000000000000000000000000000000000000000000000000000
310
002800000000000000000000000000000000000000000000000F000000000000000000000000000000000000000000000000280000000000000000BEBEBE00BE00000000000000000000000000000000000000000000DC00000000000000000000000000000000000000000000000000000000000000000000000000000000
310
0000000000000000000000000000000000000000000000000000DC00000000000000000000000000000000000000000000000000000000000000000000BEBEBEBE0000000000000000000028002828000000000000000000BE0000000000000000000000000000000000000000000000000000000000000000000000000000
310
0000002800000000000000000000000000000000000000000000000F000000000000000000000000000000000000000000000000280000000000000000BEBEBE00BE00000000000000000000000000000000000000000000DC0000000000000000000000000000000000000000000000000000000000000000000000000000
310
00000000000000000000000000000000000000000000000000000000DC00000000000000000000000000000000000000000000000000000000000000000000BE0000BE0000000000000000000028002828000000000000000000BE000000000000000000000000000000000000000000000000000000000000000000000000
310
00000000002800000000000000000000000000000000000000000000000F0000000000000000000000000000000000000000000000002800000000000000000000BE00BE00000000000000000000000000000000000000000000DC000000000000000000000000000000000000000000000000000000000000000000000000
310
000000000000000000000000000000000000000000000000000000000000DC00000000000000000000000000000000000000000000000000000000000000000000BE0000BE0000000000000000000028002828000000000000000000BE00000000000000000000000000000000000000000000000000000000000000000000
310
000000000000002800000000000000000000000000000000000000000000000F0000000000000000000000000000000000000000000000002800000000000000000000BE00BE00000000000000000000000000000000000000000000DC00000000000000000000000000000000000000000000000000000000000000000000
310
0000000000000000000000000000000000000000000000000000000000000000DC00000000000000000000000000000000000000000000000000000000000000000000BE0000BE0000000000000000000028002828000000000000000000BE0000000000000000000000000000000000000000000000000000000000000000
310
0000000000000000002800000000000000000000000000000000000000000000000F0000000000000000000000000000000000000000000000002800000000000000000000BE00BE00000000000000000000000000000000000000000000DC0000000000000000000000000000000000000000000000000000000000000000
310
00000000000000000000000000000000000000000000000000000000000000000000DC00000000000000000000000000000000000000000000000000000000000000000000BE0000BE0000000000000000000028002828000000000000000000BE000000000000000000000000000000000000000000000000000000000000
310
00000000000000000000002800000000000000000000000000000000000000000000000F0000000000000000000000000000000000000000000000002800000000000000000000BE00BE00000000000000000000000000000000000000000000DC000000000000000000000000000000000000000000000000000000000000
310
000000000000000000000000000000000000000000000000000000000000000000000000DC00000000000000000000000000000000000000000000000000000000000000000000BE0000BE0000000000000000000028002828000000000000000000BE00000000000000000000000000000000000000000000000000000000
310
000000000000000000000000002800000000000000000000000000000000000000000000000F0000000000000000000000000000000000000000000000002800000000000000000000BE00BE00000000000000000000000000000000000000000000DC00000000000000000000000000000000000000000000000000000000
310
0000000000000000000000000000000000000000000000000000000000000000000000000000DC00000000000000000000000000000000000000000000000000000000000000000000BE0000BE0000000000000000000028002828000000000000000000BE0000000000000000000000000000000000000000000000000000
310
0000000000000000000000000000002800000000000000000000000000000000000000000000000F0000000000000000000000000000000000000000000000002800000000000000000000BE00BE00000000000000000000000000000000000000000000DC0000000000000000000000000000000000000000000000000000
310
00000000000000000000000000000000000000000000000000000000000000000000000000000000DC00000000000000000000000000000000000000000000000000000000000000000000BE0000BE0000000000000000000028002828000000000000000000BE000000000000000000000000000000000000000000000000
310
00000000000000000000000000000000002800000000000000000000000000000000000000000000000F0000000000000000000000000000000000000000000000002800000000000000000000BE00BE00000000000000000000000000000000000000000000DC000000000000000000000000000000000000000000000000
310
000000000000000000000000000000000000000000000000000000000000000000000000000000000000DC00000000000000000000000000000000000000000000000000000000000000000000BE0000BE0000000000000000000028002828000000000000000000BE00000000000000000000000000000000000000000000
310
000000000000000000000000000000000000002800000000000000000000000000000000000000000000000F0000000000000000000000000000000000000000000000002800000000000000000000BE00BE00000000000000000000000000000000000000000000DC00000000000000000000000000000000000000000000
310
0000000000000000000000000000000000000000000000000000000000000000000000000000000000000000DC00000000000000000000000000000000000000000000000000000000000000000000BE0000BE0000000000000000000028002828000000000000000000BE0000000000000000000000000000000000000000
310
0000000000000000000000000000000000000000002800000000000000000000000000000000000000000000000F0000000000000000000000000000000000000000000000002800000000000000000000BE00BE00000000000000000000000000000000000000000000DC0000000000000000000000000000000000000000
310
00000000000000000000000000000000000000000000000000000000000000000000000000000000000000000000DC00000000000000000000000000000000000000000000000000000000000000000000BE0000BE0000000000000000000028002828000000000000000000BE000000000000000000000000000000000000
310
00000000000000000000000000000000000000000000002800000000000000000000000000000000000000000000000F00000000000000000000000000000000000000000000000028000000000000000000BEBE00BEBE000000000000000000000000000000000000000000DC000000000000000000000000000000000000
310
000000000000000000000000000000000000000000000000000000000000000000000000000000000000000000000000DC00000000000000000000000000000000000000000000000000000000000000000000BEBEBEBEBEBEBEBEBEBEBEBEBEBE28282828000000000000000000BE00000000000000000000000000000000
310
000000000000000000000000000000000000000000000000002828282828282828282828282828282828282828282828282828282828282828282828282828282828282828282828282828BEBEBEBEBEBEBEBEBEBEBEBEBEBE000000000000000000000000000000000000000000DC00000000000000000000000000000000
310
0000000000000000000000000000000000000000000000000000000000000000000000000000000000000000000000000000DC000000000000000000000000000000000000000000000000000000000000000000000000000000000000000000000000BE0000BE000000000000000000BE0000000000000000000000000000
310
000000000000000000000000000000000000000000000000000000BE00000000000000000000000000000000000000000000000F000000000000000000000000000000000000000000000000BE0000000000000000000000000000000000000000000000000000000000000000000000DC0000000000000000000000000000
310
00000000000000000000000000000000000000000000000000000000000000000000000000000000000000000000000000000000DC000000000000000000000000000000000000000000000000000000000000000000000000000000000000000000000000BE0000BE000000000000000000BE000000000000000000000000
310
0000000000000000000000000000000000000000000000000000000000BE00000000000000000000000000000000000000000000000F000000000000000000000000000000000000000000000000BE0000000000000000000000000000000000000000000000000000000000000000000000DC000000000000000000000000
310
000000000000000000000000000000000000000000000000000000000000000000000000000000000000000000000000000000000000DC000000000000000000000000000000000000000000000000000000000000000000000000000000000000000000000000BE0000BE000000000000000000BE00000000000000000000
310
00000000000000000000000000000000000000000000000000000000000000BE000000000000000000000000000000000000000000000000000000000000000000000000000000000000000000000000BE0000000000000000000000000000000000000000000000000000000000000000000000DC00000000000000000000
310
0000000000000000000000000000000000000000000000000000000000000000000000000000000000000000000000000000000000000000DC000000000000000000000000000000000000000000000000000000000000000000000000000000000000000000000000BE0000BE000000000000000000BE0000000000000000
310
000000000000000000000000000000000000000000000000000000000000000000BE000000000000000000000000000000000000000000000000000000000000000000000000000000000000000000000000BE0000000000000000000000000000000000000000000000000000000000000000000000DC0000000000000000
310
00000000000000000000000000000000000000000000000000000000000000000000000000000000000000000000000000000000000000000000DC000000000000000000000000000000000000000000000000000000000000000000000000000000000000000000000000BE0000BE000000000000000000BE000000000000
310
0000000000000000000000000000000000000000000000000000000000000000000000BE000000000000000000000000000000000000000000000000000000000000000000000000000000000000000000000000BE0000000000000000000000000000000000000000000000000000000000000000000000DC000000000000
310
000000000000000000000000000000000000000000000000000000000000000000000000000000000000000000000000000000000000000000000000DC000000000000000000000000000000000000000000000000000000000000000000000000000000000000000000000000BE0000BE000000000000000000BE00000000
310
00000000000000000000000000000000000000000000000000000000000000000000000000BE000000000000000000000000000000000000000000000000000000000000000000000000000000000000000000000000BE0000000000000000000000000000000000000000000000000000000000000000000000DC00000000
310
0000000000000000000000000000000000000000000000000000000000000000000000000000000000000000000000000000000000000000000000000000DC000000000000000000000000000000000000000000000000000000000000000000000000000000000000000000000000BE0000BE000000000000000000BE0000
310
000000000000000000000000000000000000000000000000000000000000000000000000000000BE000000000000000000000000000000000000000000000000000000000000000000000000000000000000000000000000BE0000000000000000000000000000000000000000000000000000000000000000000000DC0000
310
00000000000000000000000000000000000000000000000000000000000000000000000000000000000000000000000000000000000000000000000000000000DC000000000000000000000000000000000000000000000000000000000000000000000000000000000000000000000000BE0000BE000000000000000000BE
310
0000000000000000000000000000000000000000000000000000000000000000000000000000000000BE000000000000000000000000000000000000000000000000000000000000000000000000000000000000000000000000BE0000000000000000000000000000000000000000000000000000000000000000000000DC
310
000000000000000000000000000000000000000000000000000000000000000000000000000000000000000000000000000000000000000000000000000000000000DC00000000000000000000000000000000000000000000000000000000000000000000000000000000000000000000BEBEBE0000BEBEBEBEBEBEBEBEBE
310
BEBE0000000000000000000000000000000000000000000000000000000000000000000000000000000000BE000000000000000000000000000000000000000000000000000000000000000000000000000000000000000000000000BE00000000000000000000000000000000000000000000000000000000000000000000
310
00DC000000000000000000000000000000000000000000000000000000000000000000000000000000000000000000000000000000000000000000000000000000000000DC000000000000000000000000000000000000000000000000000000000000000000000000000000000000000000000000BEBEBEBE000000BEBEBE
310
000000BE0000000000000000000000000000000000000000000000000000000000000000000000000000000000BE000000000000000000000000000000000000000000000000000000000000000000000000000000000000000000000000BE0000000000000000000000000000000000000000000000000000000000000000
310
000000DC000000000000000000000000000000000000000000000000000000000000000000000000000000000000000000000000000000000000000000000000000000000000DC000000000000000000000000000000000000000000000000000000000000000000000000000000000000000000000000BEBEBEBE000000BE
310
BEBE000000BE0000000000000000000000000000000000000000000000000000000000000000000000000000000000BE000000000000000000000000000000000000000000000000000000000000000000000000000000000000000000000000BE000000000000000000000000000000000000000000000000000000000000
310
0000000000DC000000000000000000000000000000000000000000000000000000000000000000000000000000000000000000000000000000000000000000000000000000000000DC000000000000000000000000000000000000000000000000000000000000000000000000000000000000000000000000BEBEBEBEBEBE
310
BEBEBEBEBEBEBEBE0000000000000000000000000000000000000000000000000000000000000000000000000000000000BEBEBEBEBEBEBEBEBEBEBEBEBEBEBEBEBEBEBEBEBEBEBEBEBEBEBEBEBEBEBEBEBEBEBEBEBEBEBEBEBEBEBEBEBEBEBEBEBEBE00000000000000000000000000000000000000000000000000000000
310
00000000000000DC000000000000000000000000000000000000000000000000000000000000000000000000000000000000000000000000000000000000000000000000000000000000DC000000000000000000000000000000000000000000000000000000000000000000000000000000000000000000000000BEBE0000
310
0000BEBEBE000000BEBE0000000000000000000000000000000000000000000000000000000000000000000000000000000000BEBE000000000000000000000000000000000000000000BEBEBEBE000000000000000000000000000000000000000000BEBE0000000000000000000000000000000000000000000000000000
310
000000000000000000DC000000000000000000000000000000000000000000000000000000000000000000000000000000000000000000000000000000000000000000000000000000000000DC0000000000000000000000000000000000000000000000000000000000000000000000000000000000000000000000000000
310
00000000BEBEBE000000000000000000000000000000000000000000000000000000000000000000000000000000000000000000000000000000000000000000000000000000000000000000BEBEBEBE0000000000000000000000000000000000000000000000000000000000000000000000000000000000000000000000
310
0000000000000000000000DC000000000000000000000000000000000000000000000000000000000000000000000000000000000000000000000000000000000000000000000000000000000000DC000000000000000000000000000000000000000000000000000000000000000000000000000000000000000000000000
310
00000000000000000000000000000000000000000000000000000000000000000000000000000000000000000000000000000000000000000000000000000000000000000000000000000000000000000000000000000000000000000000000000000000000000000000000000000000000000000000000000000000000000
310
00000000000000000000000000DC000000000000000000000000000000000000000000000000000000000000000000000000000000000000000000000000000000000000000000000000000000000000DC00000000000000000000000000000000000000000000000000000000000000000000000000000000000000000000
310
00000000000000000000000000000000000000000000000000000000000000000000000000000000000000000000000000000000000000000000000000000000000000000000000000000000000000000000000000000000000000000000000000000000000000000000000000000000000000000000000000000000000000
310
000000000000000000000000000000DC000000000000000000000000000000000000000000000000000000000000000000000000000000000000000000000000000000000000000000000000000000000000DC0000000000000000000000000000000000000000000000000000000000000000000000000000000000000000
310
00000000000000000000000000000000000000000000000000000000000000000000000000000000000000000000000000000000000000000000000000000000000000000000000000000000000000000000000000000000000000000000000000000000000000000000000000000000000000000000000000000000000000
310
0000000000000000000000000000000000DC000000000000000000000000000000000000000000000000000000000000000000000000000000000000000000000000000000000000000000000000000000000000DC000000000000000000000000000000000000000000000000000000000000000000000000000000000000
310
00000000000000000000000000000000000000000000000000000000000000000000000000000000000000000000000000000000000000000000000000000000000000000000000000000000000000000000000000000000000000000000000000000000000000000000000000000000000000000000000000000000000000
310
00000000000000000000000000000000000000DC000000000000000000000000000000000000000000000000000000000000000000000000000000000000000000000000000000000000000000000000000000000000DC00000000000000000000000000000000000000000000000000000000000000000000000000000000
310
00000000000000000000000000000000000000000000000000000000000000000000000000000000000000000000000000000000000000000000000000000000000000000000000000000000000000000000000000000000000000000000000000000000000000000000000000000000000000000000000000000000000000
310
000000000000000000000000000000000000000000DC000000000000000000000000000000000000000000000000000000000000000000000000000000000000000000000000000000000000000000000000000000000000DC0000000000000000000000000000000000000000000000000000000000000000000000000000
310
00000000000000000000000000000000000000000000000000000000000000000000000000000000000000000000000000000000000000000000000000000000000000000000000000000000000000000000000000000000000000000000000000000000000000000000000000000000000000000000000000000000000000
310
0000000000000000000000000000000000000000000000DC000000000000000000000000000000000000000000000000000000000000000000000000000000000000000000000000000000000000000000000000000000000000DC000000000000000000000000000000000000000000000000000000000000000000000000
310
00000000000000000000000000000000000000000000000000000000000000000000000000000000000000000000000000000000000000000000000000000000000000000000000000000000000000000000000000000000000000000000000000000000000000000000000000000000000000000000000000000000000000
310
00000000000000000000000000000000000000000000000000DC000000000000000000000000000000000000000000000000000000000000000000000000000000000000000000000000000000000000000000000000000000000000DC00000000000000000000000000000000000000000000000000000000000000000000
310
00000000000000000000000000000000000000000000000000000000000000000000000000000000000000000000000000000000000000000000000000000000000000000000000000000000000000000000000000000000000000000000000000000000000000000000000000000000000000000000000000000000000000
310
000000000000000000000000000000000000000000000000000000DC000000000000000000000000000000000000000000000000000000000000000000000000000000000000000000000000000000000000000000000000000000000000DC0000000000000000000000000000000000000000000000000000000000000000
310
00000000000000000000000000000000000000000000000000000000000000000000000000000000000000000000000000000000000000000000000000000000000000000000000000000000000000000000000000000000000000000000000000000000000000000000000000000000000000000000000000000000000000
310
0000000000000000000000000000000000000000000000000000000000DC000000000000000000000000000000000000000000000000000000000000000000000000000000000000000000000000000000000000000000000000000000000000DC000000000000000000000000000000000000000000000000000000000000
310
00000000000000000000000000000000000000000000000000000000000000000000000000000000000000000000000000000000000000000000000000000000000000000000000000000000000000000000000000000000000000000000000000000000000000000000000000000000000000000000000000000000000000
310
00000000000000000000000000000000000000000000000000000000000000DC000000000000000000000000000000000000000000000000000000000000000000000000000000000000000000000000000000000000000000000000000000000000DC00000000000000000000000000000000000000000000000000000000
310
00000000000000000000000000000000000000000000000000000000000000000000000000000000000000000000000000000000000000000000000000000000000000000000000000000000000000000000000000000000000000000000000000000000000000000000000000000000000000000000000000000000000000
310
000000000000000000000000000000000000000000000000000000000000000000DC000000000000000000000000000000000000000000000000000000000000000000000000000000000000000000000000000000000000000000000000000000000000DC0000000000000000000000000000000000000000000000000000
310
00000000000000000000000000000000000000000000000000000000000000000000000000000000000000000000000000000000000000000000000000000000000000000000000000000000000000000000000000000000000000000000000000000000000000000000000000000000000000000000000000000000000000
310
0000000000000000000000000000000000000000000000000000000000000000000000DC000000000000000000000000000000000000000000000000000000000000000000000000000000000000000000000000000000000000000000000000000000000000DC000000000000000000000000000000000000000000000000
310
00000000000000000000000000000000000000000000000000000000000000000000000000000000000000000000000000000000000000000000000000000000000000000000000000000000000000000000000000000000000000000000000000000000000000000000000000000000000000000000000000000000000000
310
00000000000000000000000000000000000000000000000000000000000000000000000000DC000000000000000000000000000000000000000000000000000000000000000000000000000000000000000000000000000000000000000000000000000000000000DC00000000000000000000000000000000000000000000
310
00000000000000000000000000000000000000000000000000000000000000000000000000000000000000000000000000000000000000000000000000000000000000000000000000000000000000000000000000000000000000000000000000000000000000000000000000000000000000000000000000000000000000
310
000000000000000000000000000000000000000000000000000000000000000000000000000000DC000000000000000000000000000000000000000000000000000000000000000000000000000000000000000000000000000000000000000000000000000000000000DC0000000000000000000000000000000000000000
310
00000000000000000000000000000000000000000000000000000000000000000000000000000000000000000000000000000000000000000000000000000000000000000000000000000000000000000000000000000000000000000000000000000000000000000000000000000000000000000000000000000000000000
310
0000000000000000000000000000000000000000000000000000000000000000000000000000000000DC000000000000000000000000000000000000000000000000000000000000000000000000000000000000000000000000000000000000000000000000000000000000DC000000000000000000000000000000000000
310
00000000000000000000000000000000000000000000000000000000000000000000000000000000000000000000000000000000000000000000000000000000000000000000000000000000000000000000000000000000000000000000000000000000000000000000000000000000000000000000000000000000000000
310
00000000000000000000000000000000000000000000000000000000000000000000000000000000000000DC000000000000000000000000000000000000000000000000000000000000000000000000000000000000000000000000000000000000000000000000000000000000DC00000000000000000000000000000000
310
00000000000000000000000000000000000000000000000000000000000000000000000000000000000000000000000000000000000000000000000000000000000000000000000000000000000000000000000000000000000000000000000000000000000000000000000000000000000000000000000000000000000000
310
000000000000000000000000000000000000000000000000000000000000000000000000000000000000000000DC000000000000000000000000000000000000000000000000000000000000000000000000000000000000000000000000000000000000000000000000000000000000DC0000000000000000000000000000
310
00000000000000000000000000000000000000000000000000000000000000000000000000000000000000000000000000000000000000000000000000000000000000000000000000000000000000000000000000000000000000000000000000000000000000000000000000000000000000000000000000000000000000
310
0000000000000000000000000000000000000000000000000000000000000000000000000000000000000000000000DC000000000000000000000000000000000000000000000000000000000000000000000000000000000000000000000000000000000000000000000000000000000000DC000000000000000000000000
310
00000000000000000000000000000000000000000000000000000000000000000000000000000000000000000000000000000000000000000000000000000000000000000000000000000000000000000000000000000000000000000000000000000000000000000000000000000000000000000000000000000000000000
310
00000000000000000000000000000000000000000000000000000000000000000000000000000000000000000000000000DC000000000000000000000000000000000000000000000000000000000000000000000000000000000000000000000000000000000000000000000000000000000000DC00000000000000000000
310
00000000000000000000000000000000000000000000000000000000000000000000000000000000000000000000000000000000000000000000000000000000000000000000000000000000000000000000000000000000000000000000000000000000000000000000000000000000000000000000000000000000000000
310
000000000000000000000000000000000000000000000000000000000000000000000000000000000000000000000000000000DC000000000000000000000000000000000000000000000000000000000000000000000000000000000000000000000000000000000000000000000000000000000000DC0000000000000000
310
00000000000000000000000000000000000000000000000000000000000000000000000000000000000000000000000000000000000000000000000000000000000000000000000000000000000000000000000000000000000000000000000000000000000000000000000000000000000000000000000000000000000000
310
0000000000000000000000000000000000000000000000000000000000000000000000000000000000000000000000000000000000DC000000000000000000000000000000000000000000000000000000000000000000000000000000000000000000000000000000000000000000000000000000000000DC000000000000
310
00000000000000000000000000000000000000000000000000000000000000000000000000000000000000000000000000000000000000000000000000000000000000000000000000000000000000000000000000000000000000000000000000000000000000000000000000000000000000000000000000000000000000
310
00000000000000000000000000000000000000000000000000000000000000000000000000000000000000000000000000000000000000DC000000000000000000000000000000000000000000000000000000000000000000000000000000000000000000000000000000000000000000000000000000000000DC00000000
310
00000000000000000000000000000000000000000000000000000000000000000000000000000000000000000000000000000000000000000000000000000000000000000000000000000000000000000000000000000000000000000000000000000000000000000000000000000000000000000000000000000000000000
310
000000000000000000000000000000000000000000000000000000000000000000000000000000000000000000000000000000000000000000DC000000000000000000000000000000000000000000000000000000000000000000000000000000000000000000000000000000000000000000000000000000000000DC0000
310
00000000000000000000000000000000000000000000000000000000000000000000000000000000000000000000000000000000000000000000000000000000000000000000000000000000000000000000000000000000000000000000000000000000000000000000000000000000000000000000000000000000000000
310
0000000000000000000000000000000000000000000000000000000000000000000000000000000000000000000000000000000000000000000000DC000000000000000000000000000000000000000000000000000000000000000000000000000000000000000000000000000000000000000000000000000000000000DC
310
00000000000000000000000000000000000000000000000000000000000000000000000000000000000000000000000000000000000000000000000000000000000000000000000000000000000000000000000000000000000000000000000000000000000000000000000000000000000000000000000000000000000000
310
00000000000000000000000000000000000000000000000000000000000000000000000000000000000000000000000000000000000000000000000000DC0000000000000000000000000000000000000000000000000000000000000000000000000000000000000000000000000000000000000000000000000000000000
310
00BEDCBEBEDCBEBEDCDCBEBEDCBEDCDCDCDCDCDCDCDCDCDCDCDCDCDCDCDCDCDCDCDCDCDCDCDCDCDCDCDCDCDCDCDCDCDCDCDCDCDCDCDCDCDCDCDCDCDCDCDCDCDCDCDCDCDCDCDCDCDCDCDCDCDCDCDCDCDCDCDCDCDCDCDCDCDCDCDCDCDCDCDCDCDCDCDCDCDCDCDCDCDCDCDCDCDCDCDCDCDCDCDCDCDCDCDCDCDCDCDCDCDCDCDCDC
310
DCDCDCDCDCDCDCDCDCDCDCDCDCDCDCDCDCDCDCDCDCDCDCDCDCDCDCDCDCDCDCDCDCDCDCDCDCDCDCDCDCDCDCDCDCDCDCDCDCDCDCDCDCDCDCDCDCDCDCDCDCDCDCDC000000000000000000000000000000000000000000000000000000000000000000000000000000000000000000000000000000000000000000000000000000
310
000000BE00BEBEBEBEBEBEBEBEBE00BE000000000000000000000000000000000000000000000000000000000000000000000000000000000000000000000000000000000000000000000000000000000000000000000000000000000000000000000000000000000000000000000000000000000000000000000000000000
310
00000000000000000000000000000000000000000000000000000000000000000000000000000000000000000000000000000000000000000000000000000000000000000000000000000000000000000000000000000000000000000000000000000000000000000000000000000000000000000000000000000000000000
310
0000000000BEBEBEBEBEBEBEBEBEBEBEBEBE00000000000000000000000000000000000000000000000000000000000000000000000000000000000000000000000000000000000000000000000000000000000000000000000000000000000000000000000000000000000000000000000000000000000000000000000000
310
00000000000000000000000000000000000000000000000000000000000000000000000000000000000000000000000000000000000000000000000000000000000000000000000000000000000000000000000000000000000000000000000000000000000000000000000000000000000000000000000000000000000000
310
00000000000000000000000000000000000000000000000000000000000000000000000000000000000000000000000000000000000000000000000000000000000000000000000000000000000000000000000000000000000000000000000000000000000000000000000000000000000000000000000000000000000000
310
00000000000000000000000000000000000000000000000000000000000000000000000000000000000000000000000000000000000000000000000000000000000000000000000000000000000000000000000000000000000000000000000000000000000000000000000000000000000000000000000000000000000000
310
00000000000000000000000000000000000000000000000000000000000000000000000000000000000000000000000000000000000000000000000000000000000000000000000000000000000000000000000000000000000000000000000000000000000000000000000000000000000000000000000000000000000000
310
00000000000000000000000000000000000000000000000000000000000000000000000000000000000000000000000000000000000000000000000000000000000000000000000000000000000000000000000000000000000000000000000000000000000000000000000000000000000000000000000000000000000000
310
00000000000000000000000000000000000000000000000000000000000000000000000000000000000000000000000000000000000000000000000000000000000000000000000000000000000000000000000000000000000000000000000000000000000000000000000000000000000000000000000000000000000000
310
00000000000000000000000000000000000000000000000000000000000000000000000000000000000000000000000000000000000000000000000000000000000000000000000000000000000000000000000000000000000000000000000000000000000000000000000000000000000000000000000000000000000000
310
00000000000000000000000000000000000000000000000000000000000000000000000000000000000000000000000000000000000000000000000000000000000000000000000000000000000000000000000000000000000000000000000000000000000000000000000000000000000000000000000000000000000000
310
00000000000000000000000000000000000000000000000000000000000000000000000000000000000000000000000000000000000000000000000000000000000000000000000000000000000000000000000000000000000000000000000000000000000000000000000000000000000000000000000000000000000000
310
00000000000000000000000000000000000000000000000000000000000000000000000000000000000000000000000000000000000000000000000000000000000000000000000000000000000000000000000000000000000000000000000000000000000000000000000000000000000000000000000000000000000000
310
00000000000000000000000000000000000000000000000000000000000000000000000000000000000000000000000000000000000000000000000000000000000000000000000000000000000000000000000000000000000000000000000000000000000000000000000000000000000000000000000000000000000000
310
00000000000000000000000000000000000000000000000000000000000000000000000000000000000000000000000000000000000000000000000000000000000000000000000000000000000000000000000000000000000000000000000000000000000000000000000000000000000000000000000000000000000000
310
00000000000000000000000000000000000000000000000000000000000000000000000000000000000000000000000000000000000000000000000000000000000000000000000000000000000000000000000000000000000000000000000000000000000000000000000000000000000000000000000000000000000000
310
00000000000000000000000000000000000000000000000000000000000000000000000000000000000000000000000000000000000000000000000000000000000000000000000000000000000000000000000000000000000000000000000000000000000000000000000000000000000000000000000000000000000000
310
00000000000000000000000000000000000000000000000000000000000000000000000000000000000000000000000000000000000000000000000000000000000000000000000000000000000000000000000000000000000000000000000000000000000000000000000000000000000000000000000000000000000000
310
00000000000000000000000000000000000000000000000000000000000000000000000000000000000000000000000000000000000000000000000000000000000000000000000000000000000000000000000000000000000000000000000000000000000000000000000000000000000000000000000000000000000000
310
00000000000000000000000000000000000000000000000000000000000000000000000000000000000000000000000000000000000000000000000000000000000000000000000000000000000000000000000000000000000000000000000000000000000000000000000000000000000000000000000000000000000000
310
00000000000000000000000000000000000000000000000000000000000000000000000000000000000000000000000000000000000000000000000000000000000000000000000000000000000000000000000000000000000000000000000000000000000000000000000000000000000000000000000000000000000000
310
00000000000000000000000000000000000000000000000000000000000000000000000000000000000000000000000000000000000000000000000000000000000000000000000000000000000000000000000000000000000000000000000000000000000000000000000000000000000000000000000000000000000000
310
00000000000000000000000000000000000000000000000000000000000000000000000000000000000000000000000000000000000000000000000000000000000000000000000000000000000000000000000000000000000000000000000000000000000000000000000000000000000000000000000000000000000000
310
00000000000000000000000000000000000000000000000000000000000000000000000000000000000000000000000000000000000000000000000000000000000000000000000000000000000000000000000000000000000000000000000000000000000000000000000000000000000000000000000000000000000000
310
00000000000000000000000000000000000000000000000000000000000000000000000000000000000000000000000000000000000000000000000000000000000000000000000000000000000000000000000000000000000000000000000000000000000000000000000000000000000000000000000000000000000000
310
0000000000000000000000000000000000000000000000000000000000000000000000000000000000000000000000000000000000000000000000000000000000000000000000000000000000000000000000000000000000000000000000000000000000000000000000000000000000000000000000000000
  0
XRECORD
  5
1CC3
102
{ACAD_REACTORS
330
1CC2
102
}
330
1CC2
100
AcDbXrecord
280
     1
102
MATERIAL
148
0.0
149
0.0
149
0.0
 93
        0
 94
      127
282
     0
 72
     0
 77
     0
171
     0
175
     0
179
     0
273
     0
  0
XRECORD
  5
1CC5
102
{ACAD_REACTORS
330
1CC4
102
}
330
1CC4
100
AcDbXrecord
280
     1
102
MATERIAL
148
0.0
149
0.0
149
0.0
 93
        0
 94
      127
282
     0
 72
     0
 77
     0
171
     0
175
     0
179
     0
273
     0
  0
XRECORD
  5
1CC7
102
{ACAD_REACTORS
330
1CC6
102
}
330
1CC6
100
AcDbXrecord
280
     1
102
MATERIAL
148
0.0
149
0.0
149
0.0
 93
        0
 94
      127
282
     0
 72
     0
 77
     0
171
     0
175
     0
179
     0
273
     0
  0
XRECORD
  5
1CB3
102
{ACAD_REACTORS
330
1CB2
102
}
330
1CB2
100
AcDbXrecord
280
     1
102
DISPLAYNAME
  1
Imperial24
102
FLAGS
 90
        0
  0
CELLSTYLEMAP
  5
1CCA
102
{ACAD_REACTORS
330
1CC8
102
}
330
1CC8
100
AcDbCellStyleMap
 90
        3
300
CELLSTYLE
  1
TABLEFORMAT_BEGIN
 90
        5
170
     1
 91
        0
 92
    32768
 62
   257
 93
        1
300
CONTENTFORMAT
  1
CONTENTFORMAT_BEGIN
 90
        0
 91
        0
 92
      512
 93
        0
300

 40
0.0
140
1.0
 94
        5
 62
     0
340
F
144
0.25
309
CONTENTFORMAT_END
171
     0
 94
        0
309
TABLEFORMAT_END
  1
CELLSTYLE_BEGIN
 90
        1
 91
        1
300
_TITLE
309
CELLSTYLE_END
300
CELLSTYLE
  1
TABLEFORMAT_BEGIN
 90
        5
170
     1
 91
        0
 92
        0
 62
   257
 93
        1
300
CONTENTFORMAT
  1
CONTENTFORMAT_BEGIN
 90
        0
 91
        0
 92
      512
 93
        0
300

 40
0.0
140
1.0
 94
        5
 62
     0
340
F
144
0.18
309
CONTENTFORMAT_END
171
     0
 94
        0
309
TABLEFORMAT_END
  1
CELLSTYLE_BEGIN
 90
        2
 91
        1
300
_HEADER
309
CELLSTYLE_END
300
CELLSTYLE
  1
TABLEFORMAT_BEGIN
 90
        5
170
     1
 91
        0
 92
        0
 62
   257
 93
        1
300
CONTENTFORMAT
  1
CONTENTFORMAT_BEGIN
 90
        0
 91
        0
 92
      512
 93
        0
300

 40
0.0
140
1.0
 94
        2
 62
     0
340
F
144
0.18
309
CONTENTFORMAT_END
171
     0
 94
        0
309
TABLEFORMAT_END
  1
CELLSTYLE_BEGIN
 90
        3
 91
        2
300
_DATA
309
CELLSTYLE_END
  0
XRECORD
  5
1CC9
102
{ACAD_REACTORS
330
1CC8
102
}
330
1CC8
100
AcDbXrecord
280
     1
102
ACAD_ROUNDTRIP_PRE2007_TABLESTYLE
 90
      512
 91
        0
  1

 92
      512
 93
        0
  2

 94
      512
 95
        0
  3

  0
XRECORD
  5
1CCD
102
{ACAD_REACTORS
330
1CCC
102
}
330
1CCC
100
AcDbXrecord
280
     1
102
RTVSPropertyOp0
 70
     1
102
RTVSPropertyOp1
 70
     1
102
RTVSPropertyOp2
 70
     1
102
RTVSPropertyOp3
 70
     1
102
RTVSPropertyOp4
 70
     1
102
RTVSPropertyOp5
 70
     1
102
RTVSPropertyOp6
 70
     1
102
RTVSPropertyOp7
 70
     1
102
RTVSPropertyOp8
 70
     1
102
RTVSPropertyOp9
 70
     1
102
RTVSPropertyOp10
 70
     1
102
RTVSPropertyOp11
 70
     1
102
RTVSPropertyOp12
 70
     1
102
RTVSPropertyOp13
 70
     1
102
RTVSPropertyOp14
 70
     1
102
RTVSPropertyOp15
 70
     1
102
RTVSPropertyOp16
 70
     1
102
RTVSPropertyOp17
 70
     1
102
RTVSPropertyOp18
 70
     1
102
RTVSPropertyOp19
 70
     1
102
RTVSPropertyOp20
 70
     1
102
RTVSPropertyOp21
 70
     1
102
RTVSPropertyOp22
 70
     1
102
RTVSPropertyOp23
 70
     1
102
RTVSPropertyOp24
 70
     1
102
RTVSPropertyOp25
 70
     1
102
RTVSPropertyOp26
 70
     1
102
RTVSPropertyOp27
 70
     1
  0
XRECORD
  5
1CCF
102
{ACAD_REACTORS
330
1CCE
102
}
330
1CCE
100
AcDbXrecord
280
     1
102
RTVSPropertyOp0
 70
     1
102
RTVSPropertyOp1
 70
     1
102
RTVSPropertyOp2
 70
     1
102
RTVSPropertyOp3
 70
     1
102
RTVSPropertyOp4
 70
     1
102
RTVSPropertyOp5
 70
     1
102
RTVSPropertyOp6
 70
     1
102
RTVSPropertyOp7
 70
     1
102
RTVSPropertyOp8
 70
     1
102
RTVSPropertyOp9
 70
     1
102
RTVSPropertyOp10
 70
     1
102
RTVSPropertyOp11
 70
     1
102
RTVSPropertyOp12
 70
     1
102
RTVSPropertyOp13
 70
     1
102
RTVSPropertyOp14
 70
     1
102
RTVSPropertyOp15
 70
     1
102
RTVSPropertyOp16
 70
     1
102
RTVSPropertyOp17
 70
     1
102
RTVSPropertyOp18
 70
     1
102
RTVSPropertyOp19
 70
     1
102
RTVSPropertyOp20
 70
     1
102
RTVSPropertyOp21
 70
     1
102
RTVSPropertyOp22
 70
     1
102
RTVSPropertyOp23
 70
     1
102
RTVSPropertyOp24
 70
     1
102
RTVSPropertyOp25
 70
     1
102
RTVSPropertyOp26
 70
     1
102
RTVSPropertyOp27
 70
     1
  0
XRECORD
  5
1CD1
102
{ACAD_REACTORS
330
1CD0
102
}
330
1CD0
100
AcDbXrecord
280
     1
102
RTVSPropertyOp0
 70
     1
102
RTVSPropertyOp1
 70
     1
102
RTVSPropertyOp2
 70
     1
102
RTVSPropertyOp3
 70
     1
102
RTVSPropertyOp4
 70
     1
102
RTVSPropertyOp5
 70
     1
102
RTVSPropertyOp6
 70
     1
102
RTVSPropertyOp7
 70
     1
102
RTVSPropertyOp8
 70
     1
102
RTVSPropertyOp9
 70
     1
102
RTVSPropertyOp10
 70
     1
102
RTVSPropertyOp11
 70
     1
102
RTVSPropertyOp12
 70
     1
102
RTVSPropertyOp13
 70
     1
102
RTVSPropertyOp14
 70
     1
102
RTVSPropertyOp15
 70
     1
102
RTVSPropertyOp16
 70
     1
102
RTVSPropertyOp17
 70
     1
102
RTVSPropertyOp18
 70
     1
102
RTVSPropertyOp19
 70
     1
102
RTVSPropertyOp20
 70
     1
102
RTVSPropertyOp21
 70
     1
102
RTVSPropertyOp22
 70
     1
102
RTVSPropertyOp23
 70
     1
102
RTVSPropertyOp24
 70
     1
102
RTVSPropertyOp25
 70
     1
102
RTVSPropertyOp26
 70
     1
102
RTVSPropertyOp27
 70
     1
  0
XRECORD
  5
1CD3
102
{ACAD_REACTORS
330
1CD2
102
}
330
1CD2
100
AcDbXrecord
280
     1
102
RTVSPropertyOp0
 70
     1
102
RTVSPropertyOp1
 70
     1
102
RTVSPropertyOp2
 70
     1
102
RTVSPropertyOp3
 70
     1
102
RTVSPropertyOp4
 70
     1
102
RTVSPropertyOp5
 70
     1
102
RTVSPropertyOp6
 70
     1
102
RTVSPropertyOp7
 70
     1
102
RTVSPropertyOp8
 70
     1
102
RTVSPropertyOp9
 70
     1
102
RTVSPropertyOp10
 70
     1
102
RTVSPropertyOp11
 70
     1
102
RTVSPropertyOp12
 70
     1
102
RTVSPropertyOp13
 70
     1
102
RTVSPropertyOp14
 70
     1
102
RTVSPropertyOp15
 70
     1
102
RTVSPropertyOp16
 70
     1
102
RTVSPropertyOp17
 70
     1
102
RTVSPropertyOp18
 70
     1
102
RTVSPropertyOp19
 70
     1
102
RTVSPropertyOp20
 70
     1
102
RTVSPropertyOp21
 70
     1
102
RTVSPropertyOp22
 70
     1
102
RTVSPropertyOp23
 70
     1
102
RTVSPropertyOp24
 70
     1
102
RTVSPropertyOp25
 70
     1
102
RTVSPropertyOp26
 70
     1
102
RTVSPropertyOp27
 70
     1
  0
XRECORD
  5
1CD5
102
{ACAD_REACTORS
330
1CD4
102
}
330
1CD4
100
AcDbXrecord
280
     1
102
RTVSPropertyOp0
 70
     1
102
RTVSPropertyOp1
 70
     1
102
RTVSPropertyOp2
 70
     1
102
RTVSPropertyOp3
 70
     1
102
RTVSPropertyOp4
 70
     1
102
RTVSPropertyOp5
 70
     1
102
RTVSPropertyOp6
 70
     1
102
RTVSPropertyOp7
 70
     1
102
RTVSPropertyOp8
 70
     1
102
RTVSPropertyOp9
 70
     1
102
RTVSPropertyOp10
 70
     1
102
RTVSPropertyOp11
 70
     1
102
RTVSPropertyOp12
 70
     1
102
RTVSPropertyOp13
 70
     1
102
RTVSPropertyOp14
 70
     1
102
RTVSPropertyOp15
 70
     1
102
RTVSPropertyOp16
 70
     1
102
RTVSPropertyOp17
 70
     1
102
RTVSPropertyOp18
 70
     1
102
RTVSPropertyOp19
 70
     1
102
RTVSPropertyOp20
 70
     1
102
RTVSPropertyOp21
 70
     1
102
RTVSPropertyOp22
 70
     1
102
RTVSPropertyOp23
 70
     1
102
RTVSPropertyOp24
 70
     1
102
RTVSPropertyOp25
 70
     1
102
RTVSPropertyOp26
 70
     1
102
RTVSPropertyOp27
 70
     1
  0
XRECORD
  5
1CD7
102
{ACAD_REACTORS
330
1CD6
102
}
330
1CD6
100
AcDbXrecord
280
     1
102
RTVSPropertyOp0
 70
     1
102
RTVSPropertyOp1
 70
     1
102
RTVSPropertyOp2
 70
     1
102
RTVSPropertyOp3
 70
     1
102
RTVSPropertyOp4
 70
     1
102
RTVSPropertyOp5
 70
     1
102
RTVSPropertyOp6
 70
     1
102
RTVSPropertyOp7
 70
     1
102
RTVSPropertyOp8
 70
     1
102
RTVSPropertyOp9
 70
     1
102
RTVSPropertyOp10
 70
     1
102
RTVSPropertyOp11
 70
     1
102
RTVSPropertyOp12
 70
     1
102
RTVSPropertyOp13
 70
     1
102
RTVSPropertyOp14
 70
     1
102
RTVSPropertyOp15
 70
     1
102
RTVSPropertyOp16
 70
     1
102
RTVSPropertyOp17
 70
     1
102
RTVSPropertyOp18
 70
     1
102
RTVSPropertyOp19
 70
     1
102
RTVSPropertyOp20
 70
     1
102
RTVSPropertyOp21
 70
     1
102
RTVSPropertyOp22
 70
     1
102
RTVSPropertyOp23
 70
     1
102
RTVSPropertyOp24
 70
     1
102
RTVSPropertyOp25
 70
     1
102
RTVSPropertyOp26
 70
     1
102
RTVSPropertyOp27
 70
     1
  0
XRECORD
  5
1CD9
102
{ACAD_REACTORS
330
1CD8
102
}
330
1CD8
100
AcDbXrecord
280
     1
102
RTVSPropertyOp0
 70
     1
102
RTVSPropertyOp1
 70
     1
102
RTVSPropertyOp2
 70
     1
102
RTVSPropertyOp3
 70
     1
102
RTVSPropertyOp4
 70
     1
102
RTVSPropertyOp5
 70
     1
102
RTVSPropertyOp6
 70
     1
102
RTVSPropertyOp7
 70
     1
102
RTVSPropertyOp8
 70
     1
102
RTVSPropertyOp9
 70
     1
102
RTVSPropertyOp10
 70
     1
102
RTVSPropertyOp11
 70
     1
102
RTVSPropertyOp12
 70
     1
102
RTVSPropertyOp13
 70
     1
102
RTVSPropertyOp14
 70
     1
102
RTVSPropertyOp15
 70
     1
102
RTVSPropertyOp16
 70
     1
102
RTVSPropertyOp17
 70
     1
102
RTVSPropertyOp18
 70
     1
102
RTVSPropertyOp19
 70
     1
102
RTVSPropertyOp20
 70
     1
102
RTVSPropertyOp21
 70
     1
102
RTVSPropertyOp22
 70
     1
102
RTVSPropertyOp23
 70
     1
102
RTVSPropertyOp24
 70
     1
102
RTVSPropertyOp25
 70
     1
102
RTVSPropertyOp26
 70
     1
102
RTVSPropertyOp27
 70
     1
  0
XRECORD
  5
1CDB
102
{ACAD_REACTORS
330
1CDA
102
}
330
1CDA
100
AcDbXrecord
280
     1
102
RTVSPropertyOp0
 70
     1
102
RTVSPropertyOp1
 70
     1
102
RTVSPropertyOp2
 70
     1
102
RTVSPropertyOp3
 70
     1
102
RTVSPropertyOp4
 70
     1
102
RTVSPropertyOp5
 70
     1
102
RTVSPropertyOp6
 70
     1
102
RTVSPropertyOp7
 70
     1
102
RTVSPropertyOp8
 70
     1
102
RTVSPropertyOp9
 70
     1
102
RTVSPropertyOp10
 70
     1
102
RTVSPropertyOp11
 70
     1
102
RTVSPropertyOp12
 70
     1
102
RTVSPropertyOp13
 70
     1
102
RTVSPropertyOp14
 70
     1
102
RTVSPropertyOp15
 70
     1
102
RTVSPropertyOp16
 70
     1
102
RTVSPropertyOp17
 70
     1
102
RTVSPropertyOp18
 70
     1
102
RTVSPropertyOp19
 70
     1
102
RTVSPropertyOp20
 70
     1
102
RTVSPropertyOp21
 70
     1
102
RTVSPropertyOp22
 70
     1
102
RTVSPropertyOp23
 70
     1
102
RTVSPropertyOp24
 70
     1
102
RTVSPropertyOp25
 70
     1
102
RTVSPropertyOp26
 70
     1
102
RTVSPropertyOp27
 70
     1
  0
XRECORD
  5
1CDD
102
{ACAD_REACTORS
330
1CDC
102
}
330
1CDC
100
AcDbXrecord
280
     1
102
RTVSPropertyOp0
 70
     1
102
RTVSPropertyOp1
 70
     1
102
RTVSPropertyOp2
 70
     1
102
RTVSPropertyOp3
 70
     1
102
RTVSPropertyOp4
 70
     1
102
RTVSPropertyOp5
 70
     1
102
RTVSPropertyOp6
 70
     1
102
RTVSPropertyOp7
 70
     1
102
RTVSPropertyOp8
 70
     1
102
RTVSPropertyOp9
 70
     1
102
RTVSPropertyOp10
 70
     1
102
RTVSPropertyOp11
 70
     1
102
RTVSPropertyOp12
 70
     1
102
RTVSPropertyOp13
 70
     1
102
RTVSPropertyOp14
 70
     1
102
RTVSPropertyOp15
 70
     1
102
RTVSPropertyOp16
 70
     1
102
RTVSPropertyOp17
 70
     1
102
RTVSPropertyOp18
 70
     1
102
RTVSPropertyOp19
 70
     1
102
RTVSPropertyOp20
 70
     1
102
RTVSPropertyOp21
 70
     1
102
RTVSPropertyOp22
 70
     1
102
RTVSPropertyOp23
 70
     1
102
RTVSPropertyOp24
 70
     1
102
RTVSPropertyOp25
 70
     1
102
RTVSPropertyOp26
 70
     1
102
RTVSPropertyOp27
 70
     1
  0
XRECORD
  5
1CDF
102
{ACAD_REACTORS
330
1CDE
102
}
330
1CDE
100
AcDbXrecord
280
     1
102
RTVSPropertyOp0
 70
     1
102
RTVSPropertyOp1
 70
     1
102
RTVSPropertyOp2
 70
     1
102
RTVSPropertyOp3
 70
     1
102
RTVSPropertyOp4
 70
     1
102
RTVSPropertyOp5
 70
     1
102
RTVSPropertyOp6
 70
     1
102
RTVSPropertyOp7
 70
     1
102
RTVSPropertyOp8
 70
     1
102
RTVSPropertyOp9
 70
     1
102
RTVSPropertyOp10
 70
     1
102
RTVSPropertyOp11
 70
     1
102
RTVSPropertyOp12
 70
     1
102
RTVSPropertyOp13
 70
     1
102
RTVSPropertyOp14
 70
     1
102
RTVSPropertyOp15
 70
     1
102
RTVSPropertyOp16
 70
     1
102
RTVSPropertyOp17
 70
     1
102
RTVSPropertyOp18
 70
     1
102
RTVSPropertyOp19
 70
     1
102
RTVSPropertyOp20
 70
     1
102
RTVSPropertyOp21
 70
     1
102
RTVSPropertyOp22
 70
     1
102
RTVSPropertyOp23
 70
     1
102
RTVSPropertyOp24
 70
     1
102
RTVSPropertyOp25
 70
     1
102
RTVSPropertyOp26
 70
     1
102
RTVSPropertyOp27
 70
     1
  0
XRECORD
  5
1CE1
102
{ACAD_REACTORS
330
1CE0
102
}
330
1CE0
100
AcDbXrecord
280
     1
102
RTVSPropertyOp0
 70
     1
102
RTVSPropertyOp1
 70
     1
102
RTVSPropertyOp2
 70
     1
102
RTVSPropertyOp3
 70
     1
102
RTVSPropertyOp4
 70
     1
102
RTVSPropertyOp5
 70
     1
102
RTVSPropertyOp6
 70
     1
102
RTVSPropertyOp7
 70
     1
102
RTVSPropertyOp8
 70
     1
102
RTVSPropertyOp9
 70
     1
102
RTVSPropertyOp10
 70
     1
102
RTVSPropertyOp11
 70
     1
102
RTVSPropertyOp12
 70
     1
102
RTVSPropertyOp13
 70
     1
102
RTVSPropertyOp14
 70
     1
102
RTVSPropertyOp15
 70
     1
102
RTVSPropertyOp16
 70
     1
102
RTVSPropertyOp17
 70
     1
102
RTVSPropertyOp18
 70
     1
102
RTVSPropertyOp19
 70
     1
102
RTVSPropertyOp20
 70
     1
102
RTVSPropertyOp21
 70
     1
102
RTVSPropertyOp22
 70
     1
102
RTVSPropertyOp23
 70
     1
102
RTVSPropertyOp24
 70
     1
102
RTVSPropertyOp25
 70
     1
102
RTVSPropertyOp26
 70
     1
102
RTVSPropertyOp27
 70
     1
  0
XRECORD
  5
1CE3
102
{ACAD_REACTORS
330
1CE2
102
}
330
1CE2
100
AcDbXrecord
280
     1
102
RTVSPropertyOp0
 70
     1
102
RTVSPropertyOp1
 70
     1
102
RTVSPropertyOp2
 70
     1
102
RTVSPropertyOp3
 70
     1
102
RTVSPropertyOp4
 70
     1
102
RTVSPropertyOp5
 70
     1
102
RTVSPropertyOp6
 70
     1
102
RTVSPropertyOp7
 70
     1
102
RTVSPropertyOp8
 70
     1
102
RTVSPropertyOp9
 70
     1
102
RTVSPropertyOp10
 70
     1
102
RTVSPropertyOp11
 70
     1
102
RTVSPropertyOp12
 70
     1
102
RTVSPropertyOp13
 70
     1
102
RTVSPropertyOp14
 70
     1
102
RTVSPropertyOp15
 70
     1
102
RTVSPropertyOp16
 70
     1
102
RTVSPropertyOp17
 70
     1
102
RTVSPropertyOp18
 70
     1
102
RTVSPropertyOp19
 70
     1
102
RTVSPropertyOp20
 70
     1
102
RTVSPropertyOp21
 70
     1
102
RTVSPropertyOp22
 70
     1
102
RTVSPropertyOp23
 70
     1
102
RTVSPropertyOp24
 70
     1
102
RTVSPropertyOp25
 70
     1
102
RTVSPropertyOp26
 70
     1
102
RTVSPropertyOp27
 70
     1
  0
XRECORD
  5
1CE5
102
{ACAD_REACTORS
330
1CE4
102
}
330
1CE4
100
AcDbXrecord
280
     1
102
RTVSPropertyOp0
 70
     1
102
RTVSPropertyOp1
 70
     1
102
RTVSPropertyOp2
 70
     1
102
RTVSPropertyOp3
 70
     1
102
RTVSPropertyOp4
 70
     1
102
RTVSPropertyOp5
 70
     1
102
RTVSPropertyOp6
 70
     1
102
RTVSPropertyOp7
 70
     1
102
RTVSPropertyOp8
 70
     1
102
RTVSPropertyOp9
 70
     1
102
RTVSPropertyOp10
 70
     1
102
RTVSPropertyOp11
 70
     1
102
RTVSPropertyOp12
 70
     1
102
RTVSPropertyOp13
 70
     1
102
RTVSPropertyOp14
 70
     1
102
RTVSPropertyOp15
 70
     1
102
RTVSPropertyOp16
 70
     1
102
RTVSPropertyOp17
 70
     1
102
RTVSPropertyOp18
 70
     1
102
RTVSPropertyOp19
 70
     1
102
RTVSPropertyOp20
 70
     1
102
RTVSPropertyOp21
 70
     1
102
RTVSPropertyOp22
 70
     1
102
RTVSPropertyOp23
 70
     1
102
RTVSPropertyOp24
 70
     1
102
RTVSPropertyOp25
 70
     1
102
RTVSPropertyOp26
 70
     1
102
RTVSPropertyOp27
 70
     1
  0
XRECORD
  5
1CE7
102
{ACAD_REACTORS
330
1CE6
102
}
330
1CE6
100
AcDbXrecord
280
     1
102
RTVSPropertyOp0
 70
     1
102
RTVSPropertyOp1
 70
     1
102
RTVSPropertyOp2
 70
     1
102
RTVSPropertyOp3
 70
     1
102
RTVSPropertyOp4
 70
     1
102
RTVSPropertyOp5
 70
     1
102
RTVSPropertyOp6
 70
     1
102
RTVSPropertyOp7
 70
     1
102
RTVSPropertyOp8
 70
     1
102
RTVSPropertyOp9
 70
     1
102
RTVSPropertyOp10
 70
     1
102
RTVSPropertyOp11
 70
     1
102
RTVSPropertyOp12
 70
     1
102
RTVSPropertyOp13
 70
     1
102
RTVSPropertyOp14
 70
     1
102
RTVSPropertyOp15
 70
     1
102
RTVSPropertyOp16
 70
     1
102
RTVSPropertyOp17
 70
     1
102
RTVSPropertyOp18
 70
     1
102
RTVSPropertyOp19
 70
     1
102
RTVSPropertyOp20
 70
     1
102
RTVSPropertyOp21
 70
     1
102
RTVSPropertyOp22
 70
     1
102
RTVSPropertyOp23
 70
     1
102
RTVSPropertyOp24
 70
     1
102
RTVSPropertyOp25
 70
     1
102
RTVSPropertyOp26
 70
     1
102
RTVSPropertyOp27
 70
     1
  0
XRECORD
  5
1CE9
102
{ACAD_REACTORS
330
1CE8
102
}
330
1CE8
100
AcDbXrecord
280
     1
102
RTVSPropertyOp0
 70
     1
102
RTVSPropertyOp1
 70
     1
102
RTVSPropertyOp2
 70
     1
102
RTVSPropertyOp3
 70
     1
102
RTVSPropertyOp4
 70
     1
102
RTVSPropertyOp5
 70
     1
102
RTVSPropertyOp6
 70
     1
102
RTVSPropertyOp7
 70
     1
102
RTVSPropertyOp8
 70
     1
102
RTVSPropertyOp9
 70
     1
102
RTVSPropertyOp10
 70
     1
102
RTVSPropertyOp11
 70
     1
102
RTVSPropertyOp12
 70
     1
102
RTVSPropertyOp13
 70
     1
102
RTVSPropertyOp14
 70
     1
102
RTVSPropertyOp15
 70
     1
102
RTVSPropertyOp16
 70
     1
102
RTVSPropertyOp17
 70
     1
102
RTVSPropertyOp18
 70
     1
102
RTVSPropertyOp19
 70
     1
102
RTVSPropertyOp20
 70
     1
102
RTVSPropertyOp21
 70
     1
102
RTVSPropertyOp22
 70
     1
102
RTVSPropertyOp23
 70
     1
102
RTVSPropertyOp24
 70
     1
102
RTVSPropertyOp25
 70
     1
102
RTVSPropertyOp26
 70
     1
102
RTVSPropertyOp27
 70
     1
  0
XRECORD
  5
1CEB
102
{ACAD_REACTORS
330
1CEA
102
}
330
1CEA
100
AcDbXrecord
280
     1
102
RTVSPropertyOp0
 70
     1
102
RTVSPropertyOp1
 70
     1
102
RTVSPropertyOp2
 70
     1
102
RTVSPropertyOp3
 70
     1
102
RTVSPropertyOp4
 70
     1
102
RTVSPropertyOp5
 70
     1
102
RTVSPropertyOp6
 70
     1
102
RTVSPropertyOp7
 70
     1
102
RTVSPropertyOp8
 70
     1
102
RTVSPropertyOp9
 70
     1
102
RTVSPropertyOp10
 70
     1
102
RTVSPropertyOp11
 70
     1
102
RTVSPropertyOp12
 70
     1
102
RTVSPropertyOp13
 70
     1
102
RTVSPropertyOp14
 70
     1
102
RTVSPropertyOp15
 70
     1
102
RTVSPropertyOp16
 70
     1
102
RTVSPropertyOp17
 70
     1
102
RTVSPropertyOp18
 70
     1
102
RTVSPropertyOp19
 70
     1
102
RTVSPropertyOp20
 70
     1
102
RTVSPropertyOp21
 70
     1
102
RTVSPropertyOp22
 70
     1
102
RTVSPropertyOp23
 70
     1
102
RTVSPropertyOp24
 70
     1
102
RTVSPropertyOp25
 70
     1
102
RTVSPropertyOp26
 70
     1
102
RTVSPropertyOp27
 70
     1
  0
XRECORD
  5
1CED
102
{ACAD_REACTORS
330
1CEC
102
}
330
1CEC
100
AcDbXrecord
280
     1
102
RTVSPropertyOp0
 70
     1
102
RTVSPropertyOp1
 70
     1
102
RTVSPropertyOp2
 70
     1
102
RTVSPropertyOp3
 70
     1
102
RTVSPropertyOp4
 70
     1
102
RTVSPropertyOp5
 70
     1
102
RTVSPropertyOp6
 70
     1
102
RTVSPropertyOp7
 70
     1
102
RTVSPropertyOp8
 70
     1
102
RTVSPropertyOp9
 70
     1
102
RTVSPropertyOp10
 70
     1
102
RTVSPropertyOp11
 70
     1
102
RTVSPropertyOp12
 70
     1
102
RTVSPropertyOp13
 70
     1
102
RTVSPropertyOp14
 70
     1
102
RTVSPropertyOp15
 70
     1
102
RTVSPropertyOp16
 70
     1
102
RTVSPropertyOp17
 70
     1
102
RTVSPropertyOp18
 70
     1
102
RTVSPropertyOp19
 70
     1
102
RTVSPropertyOp20
 70
     1
102
RTVSPropertyOp21
 70
     1
102
RTVSPropertyOp22
 70
     1
102
RTVSPropertyOp23
 70
     1
102
RTVSPropertyOp24
 70
     1
102
RTVSPropertyOp25
 70
     1
102
RTVSPropertyOp26
 70
     1
102
RTVSPropertyOp27
 70
     1
  0
XRECORD
  5
1CEF
102
{ACAD_REACTORS
330
1CEE
102
}
330
1CEE
100
AcDbXrecord
280
     1
102
RTVSPropertyOp0
 70
     1
102
RTVSPropertyOp1
 70
     1
102
RTVSPropertyOp2
 70
     1
102
RTVSPropertyOp3
 70
     1
102
RTVSPropertyOp4
 70
     1
102
RTVSPropertyOp5
 70
     1
102
RTVSPropertyOp6
 70
     1
102
RTVSPropertyOp7
 70
     1
102
RTVSPropertyOp8
 70
     1
102
RTVSPropertyOp9
 70
     1
102
RTVSPropertyOp10
 70
     1
102
RTVSPropertyOp11
 70
     1
102
RTVSPropertyOp12
 70
     1
102
RTVSPropertyOp13
 70
     1
102
RTVSPropertyOp14
 70
     1
102
RTVSPropertyOp15
 70
     1
102
RTVSPropertyOp16
 70
     1
102
RTVSPropertyOp17
 70
     1
102
RTVSPropertyOp18
 70
     1
102
RTVSPropertyOp19
 70
     1
102
RTVSPropertyOp20
 70
     1
102
RTVSPropertyOp21
 70
     1
102
RTVSPropertyOp22
 70
     1
102
RTVSPropertyOp23
 70
     1
102
RTVSPropertyOp24
 70
     1
102
RTVSPropertyOp25
 70
     1
102
RTVSPropertyOp26
 70
     1
102
RTVSPropertyOp27
 70
     1
  0
XRECORD
  5
1CF1
102
{ACAD_REACTORS
330
1CF0
102
}
330
1CF0
100
AcDbXrecord
280
     1
102
RTVSPropertyOp0
 70
     1
102
RTVSPropertyOp1
 70
     1
102
RTVSPropertyOp2
 70
     1
102
RTVSPropertyOp3
 70
     1
102
RTVSPropertyOp4
 70
     1
102
RTVSPropertyOp5
 70
     1
102
RTVSPropertyOp6
 70
     1
102
RTVSPropertyOp7
 70
     1
102
RTVSPropertyOp8
 70
     1
102
RTVSPropertyOp9
 70
     1
102
RTVSPropertyOp10
 70
     1
102
RTVSPropertyOp11
 70
     1
102
RTVSPropertyOp12
 70
     1
102
RTVSPropertyOp13
 70
     1
102
RTVSPropertyOp14
 70
     1
102
RTVSPropertyOp15
 70
     1
102
RTVSPropertyOp16
 70
     1
102
RTVSPropertyOp17
 70
     1
102
RTVSPropertyOp18
 70
     1
102
RTVSPropertyOp19
 70
     1
102
RTVSPropertyOp20
 70
     1
102
RTVSPropertyOp21
 70
     1
102
RTVSPropertyOp22
 70
     1
102
RTVSPropertyOp23
 70
     1
102
RTVSPropertyOp24
 70
     1
102
RTVSPropertyOp25
 70
     1
102
RTVSPropertyOp26
 70
     1
102
RTVSPropertyOp27
 70
     1
  0
XRECORD
  5
1CF3
102
{ACAD_REACTORS
330
1CF2
102
}
330
1CF2
100
AcDbXrecord
280
     1
102
RTVSPropertyOp0
 70
     1
102
RTVSPropertyOp1
 70
     1
102
RTVSPropertyOp2
 70
     1
102
RTVSPropertyOp3
 70
     1
102
RTVSPropertyOp4
 70
     1
102
RTVSPropertyOp5
 70
     1
102
RTVSPropertyOp6
 70
     1
102
RTVSPropertyOp7
 70
     1
102
RTVSPropertyOp8
 70
     1
102
RTVSPropertyOp9
 70
     1
102
RTVSPropertyOp10
 70
     1
102
RTVSPropertyOp11
 70
     1
102
RTVSPropertyOp12
 70
     1
102
RTVSPropertyOp13
 70
     1
102
RTVSPropertyOp14
 70
     1
102
RTVSPropertyOp15
 70
     1
102
RTVSPropertyOp16
 70
     1
102
RTVSPropertyOp17
 70
     1
102
RTVSPropertyOp18
 70
     1
102
RTVSPropertyOp19
 70
     1
102
RTVSPropertyOp20
 70
     1
102
RTVSPropertyOp21
 70
     1
102
RTVSPropertyOp22
 70
     1
102
RTVSPropertyOp23
 70
     1
102
RTVSPropertyOp24
 70
     1
102
RTVSPropertyOp25
 70
     1
102
RTVSPropertyOp26
 70
     1
102
RTVSPropertyOp27
 70
     1
  0
XRECORD
  5
1CF5
102
{ACAD_REACTORS
330
1CF4
102
}
330
1CF4
100
AcDbXrecord
280
     1
102
RTVSPropertyOp0
 70
     1
102
RTVSPropertyOp1
 70
     1
102
RTVSPropertyOp2
 70
     1
102
RTVSPropertyOp3
 70
     1
102
RTVSPropertyOp4
 70
     1
102
RTVSPropertyOp5
 70
     1
102
RTVSPropertyOp6
 70
     1
102
RTVSPropertyOp7
 70
     1
102
RTVSPropertyOp8
 70
     1
102
RTVSPropertyOp9
 70
     1
102
RTVSPropertyOp10
 70
     1
102
RTVSPropertyOp11
 70
     1
102
RTVSPropertyOp12
 70
     1
102
RTVSPropertyOp13
 70
     1
102
RTVSPropertyOp14
 70
     1
102
RTVSPropertyOp15
 70
     1
102
RTVSPropertyOp16
 70
     1
102
RTVSPropertyOp17
 70
     1
102
RTVSPropertyOp18
 70
     1
102
RTVSPropertyOp19
 70
     1
102
RTVSPropertyOp20
 70
     1
102
RTVSPropertyOp21
 70
     1
102
RTVSPropertyOp22
 70
     1
102
RTVSPropertyOp23
 70
     1
102
RTVSPropertyOp24
 70
     1
102
RTVSPropertyOp25
 70
     1
102
RTVSPropertyOp26
 70
     1
102
RTVSPropertyOp27
 70
     1
  0
XRECORD
  5
1CF7
102
{ACAD_REACTORS
330
1CF6
102
}
330
1CF6
100
AcDbXrecord
280
     1
102
RTVSPropertyOp0
 70
     1
102
RTVSPropertyOp1
 70
     1
102
RTVSPropertyOp2
 70
     1
102
RTVSPropertyOp3
 70
     1
102
RTVSPropertyOp4
 70
     1
102
RTVSPropertyOp5
 70
     1
102
RTVSPropertyOp6
 70
     1
102
RTVSPropertyOp7
 70
     1
102
RTVSPropertyOp8
 70
     1
102
RTVSPropertyOp9
 70
     1
102
RTVSPropertyOp10
 70
     1
102
RTVSPropertyOp11
 70
     1
102
RTVSPropertyOp12
 70
     1
102
RTVSPropertyOp13
 70
     1
102
RTVSPropertyOp14
 70
     1
102
RTVSPropertyOp15
 70
     1
102
RTVSPropertyOp16
 70
     1
102
RTVSPropertyOp17
 70
     1
102
RTVSPropertyOp18
 70
     1
102
RTVSPropertyOp19
 70
     1
102
RTVSPropertyOp20
 70
     1
102
RTVSPropertyOp21
 70
     1
102
RTVSPropertyOp22
 70
     1
102
RTVSPropertyOp23
 70
     1
102
RTVSPropertyOp24
 70
     1
102
RTVSPropertyOp25
 70
     1
102
RTVSPropertyOp26
 70
     1
102
RTVSPropertyOp27
 70
     1
  0
XRECORD
  5
1CF9
102
{ACAD_REACTORS
330
1CF8
102
}
330
1CF8
100
AcDbXrecord
280
     1
102
RTVSPropertyOp0
 70
     1
102
RTVSPropertyOp1
 70
     1
102
RTVSPropertyOp2
 70
     1
102
RTVSPropertyOp3
 70
     1
102
RTVSPropertyOp4
 70
     1
102
RTVSPropertyOp5
 70
     1
102
RTVSPropertyOp6
 70
     1
102
RTVSPropertyOp7
 70
     1
102
RTVSPropertyOp8
 70
     1
102
RTVSPropertyOp9
 70
     1
102
RTVSPropertyOp10
 70
     1
102
RTVSPropertyOp11
 70
     1
102
RTVSPropertyOp12
 70
     1
102
RTVSPropertyOp13
 70
     1
102
RTVSPropertyOp14
 70
     1
102
RTVSPropertyOp15
 70
     1
102
RTVSPropertyOp16
 70
     1
102
RTVSPropertyOp17
 70
     1
102
RTVSPropertyOp18
 70
     1
102
RTVSPropertyOp19
 70
     1
102
RTVSPropertyOp20
 70
     1
102
RTVSPropertyOp21
 70
     1
102
RTVSPropertyOp22
 70
     1
102
RTVSPropertyOp23
 70
     1
102
RTVSPropertyOp24
 70
     1
102
RTVSPropertyOp25
 70
     1
102
RTVSPropertyOp26
 70
     1
102
RTVSPropertyOp27
 70
     1
  0
XRECORD
  5
1CFB
102
{ACAD_REACTORS
330
1CFA
102
}
330
1CFA
100
AcDbXrecord
280
     1
102
RTVSPropertyOp0
 70
     1
102
RTVSPropertyOp1
 70
     1
102
RTVSPropertyOp2
 70
     1
102
RTVSPropertyOp3
 70
     1
102
RTVSPropertyOp4
 70
     1
102
RTVSPropertyOp5
 70
     1
102
RTVSPropertyOp6
 70
     1
102
RTVSPropertyOp7
 70
     1
102
RTVSPropertyOp8
 70
     1
102
RTVSPropertyOp9
 70
     1
102
RTVSPropertyOp10
 70
     1
102
RTVSPropertyOp11
 70
     1
102
RTVSPropertyOp12
 70
     1
102
RTVSPropertyOp13
 70
     1
102
RTVSPropertyOp14
 70
     1
102
RTVSPropertyOp15
 70
     1
102
RTVSPropertyOp16
 70
     1
102
RTVSPropertyOp17
 70
     1
102
RTVSPropertyOp18
 70
     1
102
RTVSPropertyOp19
 70
     1
102
RTVSPropertyOp20
 70
     1
102
RTVSPropertyOp21
 70
     1
102
RTVSPropertyOp22
 70
     1
102
RTVSPropertyOp23
 70
     1
102
RTVSPropertyOp24
 70
     1
102
RTVSPropertyOp25
 70
     1
102
RTVSPropertyOp26
 70
     1
102
RTVSPropertyOp27
 70
     1
  0
ENDSEC
  0
EOF
