  0
SECTION
  2
HEADER
  9
$ACADVER
  1
AC1018
  9
$ACADMAINTVER
 70
     0
  9
$DWGCODEPAGE
  3
ANSI_932
  9
$LASTSAVEDBY
  1
shinwa
  9
$INSBASE
 10
0.0
 20
0.0
 30
0.0
  9
$EXTMIN
 10
469.3601915370673
 20
-630.5861055082478
 30
0.0
  9
$EXTMAX
 10
16328.75540475084
 20
5540.0
 30
0.0
  9
$LIMMIN
 10
0.0
 20
0.0
  9
$LIMMAX
 10
8400.0
 20
5940.0
  9
$ORTHOMODE
 70
     1
  9
$REGENMODE
 70
     1
  9
$FILLMODE
 70
     1
  9
$QTEXTMODE
 70
     0
  9
$MIRRTEXT
 70
     1
  9
$LTSCALE
 40
200.0
  9
$ATTMODE
 70
     1
  9
$TEXTSIZE
 40
60.0
  9
$TRACEWID
 40
0.05
  9
$TEXTSTYLE
  7
STANDARD
  9
$CLAYER
  8
SUNPOU
  9
$CELTYPE
  6
BYLAYER
  9
$CECOLOR
 62
   256
  9
$CELTSCALE
 40
1.0
  9
$DISPSILH
 70
     0
  9
$DIMSCALE
 40
20.0
  9
$DIMASZ
 40
2.0
  9
$DIMEXO
 40
2.0
  9
$DIMDLI
 40
7.0
  9
$DIMRND
 40
0.0
  9
$DIMDLE
 40
0.0
  9
$DIMEXE
 40
0.5
  9
$DIMTP
 40
0.0
  9
$DIMTM
 40
0.0
  9
$DIMTXT
 40
2.5
  9
$DIMCEN
 40
0.0
  9
$DIMTSZ
 40
0.0
  9
$DIMTOL
 70
     0
  9
$DIMLIM
 70
     0
  9
$DIMTIH
 70
     0
  9
$DIMTOH
 70
     0
  9
$DIMSE1
 70
     0
  9
$DIMSE2
 70
     0
  9
$DIMTAD
 70
     1
  9
$DIMZIN
 70
     8
  9
$DIMBLK
  1

  9
$DIMASO
 70
     1
  9
$DIMSHO
 70
     1
  9
$DIMPOST
  1

  9
$DIMAPOST
  1

  9
$DIMALT
 70
     0
  9
$DIMALTD
 70
     2
  9
$DIMALTF
 40
25.4
  9
$DIMLFAC
 40
1.0
  9
$DIMTOFL
 70
     0
  9
$DIMTVP
 40
1.0
  9
$DIMTIX
 70
     1
  9
$DIMSOXD
 70
     0
  9
$DIMSAH
 70
     0
  9
$DIMBLK1
  1

  9
$DIMBLK2
  1

  9
$DIMSTYLE
  2
A3-20
  9
$DIMCLRD
 70
     0
  9
$DIMCLRE
 70
     0
  9
$DIMCLRT
 70
     0
  9
$DIMTFAC
 40
1.0
  9
$DIMGAP
 40
0.7
  9
$DIMJUST
 70
     0
  9
$DIMSD1
 70
     0
  9
$DIMSD2
 70
     0
  9
$DIMTOLJ
 70
     1
  9
$DIMTZIN
 70
     8
  9
$DIMALTZ
 70
     8
  9
$DIMALTTZ
 70
     8
  9
$DIMUPT
 70
     0
  9
$DIMDEC
 70
     0
  9
$DIMTDEC
 70
     0
  9
$DIMALTU
 70
     2
  9
$DIMALTTD
 70
     2
  9
$DIMTXSTY
  7
STANDARD
  9
$DIMAUNIT
 70
     0
  9
$DIMADEC
 70
     4
  9
$DIMALTRND
 40
0.0
  9
$DIMAZIN
 70
     0
  9
$DIMDSEP
 70
    46
  9
$DIMATFIT
 70
     3
  9
$DIMFRAC
 70
     0
  9
$DIMLDRBLK
  1

  9
$DIMLUNIT
 70
     2
  9
$DIMLWD
 70
    -2
  9
$DIMLWE
 70
    -2
  9
$DIMTMOVE
 70
     2
  9
$LUNITS
 70
     2
  9
$LUPREC
 70
     4
  9
$SKETCHINC
 40
0.1
  9
$FILLETRAD
 40
0.0
  9
$AUNITS
 70
     1
  9
$AUPREC
 70
     4
  9
$MENU
  1
acad
  9
$ELEVATION
 40
0.0
  9
$PELEVATION
 40
0.0
  9
$THICKNESS
 40
0.0
  9
$LIMCHECK
 70
     0
  9
$CHAMFERA
 40
0.0
  9
$CHAMFERB
 40
0.0
  9
$CHAMFERC
 40
0.0
  9
$CHAMFERD
 40
0.0
  9
$SKPOLY
 70
     0
  9
$TDCREATE
 40
2450014.656655093
  9
$TDUCREATE
 40
2450014.281655093
  9
$TDUPDATE
 40
2457540.464308218
  9
$TDUUPDATE
 40
2457540.089308218
  9
$TDINDWG
 40
0.5872854167
  9
$TDUSRTIMER
 40
0.5872854167
  9
$USRTIMER
 70
     1
  9
$ANGBASE
 50
0.0
  9
$ANGDIR
 70
     0
  9
$PDMODE
 70
     0
  9
$PDSIZE
 40
0.0
  9
$PLINEWID
 40
0.0
  9
$SPLFRAME
 70
     0
  9
$SPLINETYPE
 70
     6
  9
$SPLINESEGS
 70
     8
  9
$HANDSEED
  5
1885
  9
$SURFTAB1
 70
     6
  9
$SURFTAB2
 70
     6
  9
$SURFTYPE
 70
     6
  9
$SURFU
 70
     6
  9
$SURFV
 70
     6
  9
$UCSBASE
  2

  9
$UCSNAME
  2

  9
$UCSORG
 10
0.0
 20
0.0
 30
0.0
  9
$UCSXDIR
 10
1.0
 20
0.0
 30
0.0
  9
$UCSYDIR
 10
0.0
 20
1.0
 30
0.0
  9
$UCSORTHOREF
  2

  9
$UCSORTHOVIEW
 70
     0
  9
$UCSORGTOP
 10
0.0
 20
0.0
 30
0.0
  9
$UCSORGBOTTOM
 10
0.0
 20
0.0
 30
0.0
  9
$UCSORGLEFT
 10
0.0
 20
0.0
 30
0.0
  9
$UCSORGRIGHT
 10
0.0
 20
0.0
 30
0.0
  9
$UCSORGFRONT
 10
0.0
 20
0.0
 30
0.0
  9
$UCSORGBACK
 10
0.0
 20
0.0
 30
0.0
  9
$PUCSBASE
  2

  9
$PUCSNAME
  2

  9
$PUCSORG
 10
0.0
 20
0.0
 30
0.0
  9
$PUCSXDIR
 10
1.0
 20
0.0
 30
0.0
  9
$PUCSYDIR
 10
0.0
 20
1.0
 30
0.0
  9
$PUCSORTHOREF
  2

  9
$PUCSORTHOVIEW
 70
     0
  9
$PUCSORGTOP
 10
0.0
 20
0.0
 30
0.0
  9
$PUCSORGBOTTOM
 10
0.0
 20
0.0
 30
0.0
  9
$PUCSORGLEFT
 10
0.0
 20
0.0
 30
0.0
  9
$PUCSORGRIGHT
 10
0.0
 20
0.0
 30
0.0
  9
$PUCSORGFRONT
 10
0.0
 20
0.0
 30
0.0
  9
$PUCSORGBACK
 10
0.0
 20
0.0
 30
0.0
  9
$USERI1
 70
     0
  9
$USERI2
 70
     0
  9
$USERI3
 70
     0
  9
$USERI4
 70
     0
  9
$USERI5
 70
     0
  9
$USERR1
 40
0.0
  9
$USERR2
 40
0.0
  9
$USERR3
 40
0.0
  9
$USERR4
 40
0.0
  9
$USERR5
 40
0.0
  9
$WORLDVIEW
 70
     1
  9
$SHADEDGE
 70
     3
  9
$SHADEDIF
 70
    70
  9
$TILEMODE
 70
     1
  9
$MAXACTVP
 70
    48
  9
$PINSBASE
 10
0.0
 20
0.0
 30
0.0
  9
$PLIMCHECK
 70
     0
  9
$PEXTMIN
 10
1.000000000000000E+20
 20
1.000000000000000E+20
 30
1.000000000000000E+20
  9
$PEXTMAX
 10
-1.000000000000000E+20
 20
-1.000000000000000E+20
 30
-1.000000000000000E+20
  9
$PLIMMIN
 10
0.0
 20
0.0
  9
$PLIMMAX
 10
12.0
 20
9.0
  9
$UNITMODE
 70
     0
  9
$VISRETAIN
 70
     0
  9
$PLINEGEN
 70
     0
  9
$PSLTSCALE
 70
     0
  9
$TREEDEPTH
 70
  3020
  9
$CMLSTYLE
  2
STANDARD
  9
$CMLJUST
 70
     0
  9
$CMLSCALE
 40
1.0
  9
$PROXYGRAPHICS
 70
     1
  9
$MEASUREMENT
 70
     0
  9
$CELWEIGHT
370
    -1
  9
$ENDCAPS
280
     0
  9
$JOINSTYLE
280
     0
  9
$LWDISPLAY
290
     0
  9
$INSUNITS
 70
     0
  9
$HYPERLINKBASE
  1

  9
$STYLESHEET
  1

  9
$XEDIT
290
     1
  9
$CEPSNTYPE
380
     0
  9
$PSTYLEMODE
290
     1
  9
$FINGERPRINTGUID
  2
{760ABA89-1BA8-4A1F-9151-A355B294D2F2}
  9
$VERSIONGUID
  2
{376B96C3-1EDB-486E-ABD4-21F7D8EC8A2A}
  9
$EXTNAMES
290
     1
  9
$PSVPSCALE
 40
0.0
  9
$OLESTARTUP
290
     0
  9
$SORTENTS
280
   127
  9
$INDEXCTL
280
     0
  9
$HIDETEXT
280
     0
  9
$XCLIPFRAME
290
     0
  9
$HALOGAP
280
     0
  9
$OBSCOLOR
 70
   257
  9
$OBSLTYPE
280
     0
  9
$INTERSECTIONDISPLAY
280
     0
  9
$INTERSECTIONCOLOR
 70
   257
  9
$DIMASSOC
280
     1
  9
$PROJECTNAME
  1

  0
ENDSEC
  0
SECTION
  2
CLASSES
  0
CLASS
  1
LWPOLYLINE
  2
AcDbPolyline
  3
AutoCAD 2000
 90
        0
 91
        1
280
     0
281
     1
  0
CLASS
  1
ACDBDICTIONARYWDFLT
  2
AcDbDictionaryWithDefault
  3
ObjectDBX Classes
 90
        0
 91
        4
280
     0
281
     0
  0
CLASS
  1
MATERIAL
  2
AcDbMaterial
  3
ObjectDBX Classes
 90
     1153
 91
        4
280
     0
281
     0
  0
CLASS
  1
VISUALSTYLE
  2
AcDbVisualStyle
  3
ObjectDBX Classes
 90
     4095
 91
        4
280
     0
281
     0
  0
CLASS
  1
TABLESTYLE
  2
AcDbTableStyle
  3
ObjectDBX Classes
 90
     4095
 91
        4
280
     0
281
     0
  0
CLASS
  1
SCALE
  2
AcDbScale
  3
ObjectDBX Classes
 90
     1153
 91
        4
280
     0
281
     0
  0
CLASS
  1
MLEADERSTYLE
  2
AcDbMLeaderStyle
  3
ACDB_MLEADERSTYLE_CLASS
 90
     4095
 91
        4
280
     0
281
     0
  0
CLASS
  1
ACDBSECTIONVIEWSTYLE
  2
AcDbSectionViewStyle
  3
ObjectDBX Classes
 90
     1025
 91
        2
280
     1
281
     0
  0
CLASS
  1
ACDBDETAILVIEWSTYLE
  2
AcDbDetailViewStyle
  3
ObjectDBX Classes
 90
     1025
 91
        2
280
     1
281
     0
  0
CLASS
  1
ACARRAYJIGENTITY
  2
AcArrayJigEntity
  3
ACAD_ARRAY
 90
      129
 91
        1
280
     1
281
     1
  0
CLASS
  1
ACDBASSOCNETWORK
  2
AcDbAssocNetwork
  3
ObjectDBX Classes
 90
     1025
 91
        1
280
     1
281
     0
  0
CLASS
  1
ACDBASSOCACTION
  2
AcDbAssocAction
  3
ObjectDBX Classes
 90
     1025
 91
        1
280
     1
281
     0
  0
CLASS
  1
ACDBASSOCARRAYACTIONBODY
  2
AcDbAssocArrayActionBody
  3
ObjectDBX Classes
 90
     1025
 91
        1
280
     1
281
     0
  0
CLASS
  1
ACDBASSOCVERTEXACTIONPARAM
  2
AcDbAssocVertexActionParam
  3
ObjectDBX Classes
 90
     1025
 91
        1
280
     1
281
     0
  0
CLASS
  1
ACDBASSOCDEPENDENCY
  2
AcDbAssocDependency
  3
ObjectDBX Classes
 90
     1025
 91
        1
280
     1
281
     0
  0
CLASS
  1
ACDBASSOCARRAYRECTANGULARPARAMETERS
  2
AcDbAssocArrayRectangularParameters
  3
ObjectDBX Classes
 90
     1025
 91
        1
280
     1
281
     0
  0
CLASS
  1
DICTIONARYVAR
  2
AcDbDictionaryVar
  3
ObjectDBX Classes
 90
        0
 91
        4
280
     0
281
     0
  0
CLASS
  1
SORTENTSTABLE
  2
AcDbSortentsTable
  3
ObjectDBX Classes
 90
        0
 91
        4
280
     0
281
     0
  0
CLASS
  1
CELLSTYLEMAP
  2
AcDbCellStyleMap
  3
ObjectDBX Classes
 90
     1152
 91
        4
280
     0
281
     0
  0
ENDSEC
  0
SECTION
  2
TABLES
  0
TABLE
  2
VPORT
  5
8
102
{ACAD_XDICTIONARY
360
1664
102
}
330
0
100
AcDbSymbolTable
 70
     1
  0
VPORT
  5
1054
330
8
100
AcDbSymbolTableRecord
100
AcDbViewportTableRecord
  2
*ACTIVE
 70
     0
 10
0.0
 20
0.0
 11
1.0
 21
1.0
 12
4595.388753667639
 22
2769.859912220962
 13
0.0
 23
0.0
 14
20.0
 24
20.0
 15
200.0
 25
200.0
 16
0.0
 26
0.0
 36
1.0
 17
0.0
 27
0.0
 37
0.0
 40
6950.215674530835
 41
1.560747663551402
 42
50.0
 43
0.0
 44
0.0
 50
0.0
 51
0.0
 71
     0
 72
   100
 73
     1
 74
     1
 75
     0
 76
     0
 77
     0
 78
     0
281
     0
 65
     1
110
0.0
120
0.0
130
0.0
111
1.0
121
0.0
131
0.0
112
0.0
122
1.0
132
0.0
 79
     0
146
0.0
1001
ACAD_NAV_VCDISPLAY
1070
     3
  0
ENDTAB
  0
TABLE
  2
LTYPE
  5
5
330
0
100
AcDbSymbolTable
 70
     4
  0
LTYPE
  5
11
330
5
100
AcDbSymbolTableRecord
100
AcDbLinetypeTableRecord
  2
BYBLOCK
 70
     0
  3

 72
    65
 73
     0
 40
0.0
  0
LTYPE
  5
12
330
5
100
AcDbSymbolTableRecord
100
AcDbLinetypeTableRecord
  2
BYLAYER
 70
     0
  3

 72
    65
 73
     0
 40
0.0
  0
LTYPE
  5
13
330
5
100
AcDbSymbolTableRecord
100
AcDbLinetypeTableRecord
  2
CONTINUOUS
 70
     0
  3
Solid line
 72
    65
 73
     0
 40
0.0
  0
LTYPE
  5
1E
330
5
100
AcDbSymbolTableRecord
100
AcDbLinetypeTableRecord
  2
HIDDEN
 70
     0
  3
_ _ _ _ _ _ _ _ _ _ _ _ _ _ _ _ _ _ _ _ _ _ _
 72
    65
 73
     2
 40
0.375
 49
0.25
 74
     0
 49
-0.125
 74
     0
  0
LTYPE
  5
1F
330
5
100
AcDbSymbolTableRecord
100
AcDbLinetypeTableRecord
  2
CENTER
 70
     0
  3
____ _ ____ _ ____ _ ____ _ ____ _ ____ _ ____
 72
    65
 73
     4
 40
2.0
 49
1.25
 74
     0
 49
-0.25
 74
     0
 49
0.25
 74
     0
 49
-0.25
 74
     0
  0
LTYPE
  5
20
330
5
100
AcDbSymbolTableRecord
100
AcDbLinetypeTableRecord
  2
PHANTOM
 70
     0
  3
_____ _ _ _____ _ _ _____ _ _ _____ _ _ ____
 72
    65
 73
     6
 40
2.5
 49
1.25
 74
     0
 49
-0.25
 74
     0
 49
0.25
 74
     0
 49
-0.25
 74
     0
 49
0.25
 74
     0
 49
-0.25
 74
     0
  0
ENDTAB
  0
TABLE
  2
LAYER
  5
2
102
{ACAD_XDICTIONARY
360
1636
102
}
330
0
100
AcDbSymbolTable
 70
    10
  0
LAYER
  5
E
102
{ACAD_XDICTIONARY
360
1640
102
}
330
2
100
AcDbSymbolTableRecord
100
AcDbLayerTableRecord
  2
0
 70
     0
 62
     7
  6
CONTINUOUS
370
    -3
390
1057
  0
LAYER
  5
23
102
{ACAD_XDICTIONARY
360
1642
102
}
330
2
100
AcDbSymbolTableRecord
100
AcDbLayerTableRecord
  2
SUNPOU
 70
     0
 62
     1
  6
CONTINUOUS
370
    -3
390
1057
  0
LAYER
  5
24
102
{ACAD_XDICTIONARY
360
1644
102
}
330
2
100
AcDbSymbolTableRecord
100
AcDbLayerTableRecord
  2
HAIKIN
 70
     0
 62
     2
  6
CONTINUOUS
370
    -3
390
1057
  0
LAYER
  5
25
102
{ACAD_XDICTIONARY
360
1646
102
}
330
2
100
AcDbSymbolTableRecord
100
AcDbLayerTableRecord
  2
SEIHIN
 70
     0
 62
     3
  6
CONTINUOUS
370
    -3
390
1057
  0
LAYER
  5
26
102
{ACAD_XDICTIONARY
360
1648
102
}
330
2
100
AcDbSymbolTableRecord
100
AcDbLayerTableRecord
  2
HASEN
 70
     0
 62
     4
  6
HIDDEN
370
    -3
390
1057
  0
LAYER
  5
27
102
{ACAD_XDICTIONARY
360
164A
102
}
330
2
100
AcDbSymbolTableRecord
100
AcDbLayerTableRecord
  2
1HASEN
 70
     0
 62
     5
  6
CENTER
370
    -3
390
1057
  0
LAYER
  5
28
102
{ACAD_XDICTIONARY
360
164C
102
}
330
2
100
AcDbSymbolTableRecord
100
AcDbLayerTableRecord
  2
2HASEN
 70
     0
 62
     6
  6
PHANTOM
370
    -3
390
1057
  0
LAYER
  5
29
102
{ACAD_XDICTIONARY
360
164E
102
}
330
2
100
AcDbSymbolTableRecord
100
AcDbLayerTableRecord
  2
HOJO
 70
     0
 62
    -7
  6
CONTINUOUS
370
    -3
390
1057
  0
LAYER
  5
2A
102
{ACAD_XDICTIONARY
360
1650
102
}
330
2
100
AcDbSymbolTableRecord
100
AcDbLayerTableRecord
  2
TEN
 70
     0
 62
     7
  6
CONTINUOUS
370
    -3
390
1057
  0
LAYER
  5
B8
330
2
100
AcDbSymbolTableRecord
100
AcDbLayerTableRecord
  2
DEFPOINTS
 70
     0
 62
     7
  6
CONTINUOUS
290
     0
370
    -3
390
1057
  0
ENDTAB
  0
TABLE
  2
STYLE
  5
3
330
0
100
AcDbSymbolTable
 70
     1
  0
STYLE
  5
F
330
3
100
AcDbSymbolTableRecord
100
AcDbTextStyleTableRecord
  2
STANDARD
 70
     0
 40
0.0
 41
0.8
 50
0.0
 71
     0
 42
60.0
  3
TXT.shx
  4
BIGFONT.shx
  0
ENDTAB
  0
TABLE
  2
VIEW
  5
6
330
0
100
AcDbSymbolTable
 70
     0
  0
ENDTAB
  0
TABLE
  2
UCS
  5
7
330
0
100
AcDbSymbolTable
 70
     0
  0
ENDTAB
  0
TABLE
  2
APPID
  5
9
330
0
100
AcDbSymbolTable
 70
     9
  0
APPID
  5
10
330
9
100
AcDbSymbolTableRecord
100
AcDbRegAppTableRecord
  2
ACAD
 70
     0
  0
APPID
  5
15DF
330
9
100
AcDbSymbolTableRecord
100
AcDbRegAppTableRecord
  2
ACAD_EXEMPT_FROM_CAD_STANDARDS
 70
     0
  0
APPID
  5
1621
330
9
100
AcDbSymbolTableRecord
100
AcDbRegAppTableRecord
  2
AcadAnnoMonitorAlertIconDisabled
 70
     0
  0
APPID
  5
1635
330
9
100
AcDbSymbolTableRecord
100
AcDbRegAppTableRecord
  2
ACAD_NAV_VCDISPLAY
 70
     0
  0
APPID
  5
169A
330
9
100
AcDbSymbolTableRecord
100
AcDbRegAppTableRecord
  2
ACAD_MLEADERVER
 70
     0
  0
APPID
  5
16BE
330
9
100
AcDbSymbolTableRecord
100
AcDbRegAppTableRecord
  2
ACAD_DSTYLE_DIMJOGGED_JOGANGLE_SYMBOL
 70
     0
  0
APPID
  5
16DB
330
9
100
AcDbSymbolTableRecord
100
AcDbRegAppTableRecord
  2
AcadAnnoPO
 70
     0
  0
APPID
  5
16DC
330
9
100
AcDbSymbolTableRecord
100
AcDbRegAppTableRecord
  2
ACAD_DSTYLE_DIMJAG
 70
     0
  0
APPID
  5
16DD
330
9
100
AcDbSymbolTableRecord
100
AcDbRegAppTableRecord
  2
ACAD_DSTYLE_DIMTALN
 70
     0
  0
ENDTAB
  0
TABLE
  2
DIMSTYLE
  5
A
330
0
100
AcDbSymbolTable
 70
     2
100
AcDbDimStyleTable
  0
DIMSTYLE
105
61
102
{ACAD_REACTORS
330
D3
330
D4
330
D6
330
D8
330
D9
102
}
330
A
100
AcDbSymbolTableRecord
100
AcDbDimStyleTableRecord
  2
STANDARD
 70
     0
178
     0
340
F
  0
DIMSTYLE
105
16BD
102
{ACAD_REACTORS
330
FDC
330
ECB
330
BB2
330
BA5
330
B58
330
B4B
330
B3E
330
8F5
330
8E8
330
8DB
330
67D
330
2BF
330
E4A
330
E48
330
609
330
5FC
330
5EF
330
586
102
}
330
A
100
AcDbSymbolTableRecord
100
AcDbDimStyleTableRecord
  2
A3-20
 70
     0
 40
20.0
 41
2.0
 42
2.0
 43
7.0
 44
0.5
 73
     0
 74
     0
 77
     1
 78
     8
140
2.5
141
0.0
145
1.0
147
0.7
174
     1
178
     0
179
     4
271
     0
272
     0
279
     2
284
     8
285
     8
286
     8
340
F
1001
ACAD_DSTYLE_DIMJOGGED_JOGANGLE_SYMBOL
1070
   384
1040
0.7853981633974483
1001
ACAD_DSTYLE_DIMJAG
1070
   388
1040
1.5
1001
ACAD_DSTYLE_DIMTALN
1070
   392
1070
     0
  0
ENDTAB
  0
TABLE
  2
BLOCK_RECORD
  5
1
330
0
100
AcDbSymbolTable
 70
   113
  0
BLOCK_RECORD
  5
17
102
{ACAD_XDICTIONARY
360
15C4
102
}
330
1
100
AcDbSymbolTableRecord
100
AcDbBlockTableRecord
  2
*MODEL_SPACE
340
10A7
  0
BLOCK_RECORD
  5
14
330
1
100
AcDbSymbolTableRecord
100
AcDbBlockTableRecord
  2
*PAPER_SPACE
340
10A8
  0
BLOCK_RECORD
  5
1C
330
1
100
AcDbSymbolTableRecord
100
AcDbBlockTableRecord
  2
BORDER
340
0
  0
BLOCK_RECORD
  5
1D
330
1
100
AcDbSymbolTableRecord
100
AcDbBlockTableRecord
  2
SA3
340
0
  0
BLOCK_RECORD
  5
80
330
1
100
AcDbSymbolTableRecord
100
AcDbBlockTableRecord
  2
*D2
340
0
  0
BLOCK_RECORD
  5
8C
330
1
100
AcDbSymbolTableRecord
100
AcDbBlockTableRecord
  2
*D3
340
0
  0
BLOCK_RECORD
  5
98
330
1
100
AcDbSymbolTableRecord
100
AcDbBlockTableRecord
  2
*D4
340
0
  0
BLOCK_RECORD
  5
A4
330
1
100
AcDbSymbolTableRecord
100
AcDbBlockTableRecord
  2
*D5
340
0
  0
BLOCK_RECORD
  5
B0
330
1
100
AcDbSymbolTableRecord
100
AcDbBlockTableRecord
  2
*D6
340
0
  0
BLOCK_RECORD
  5
B9
330
1
100
AcDbSymbolTableRecord
100
AcDbBlockTableRecord
  2
A$C630D7A2A
340
0
  0
BLOCK_RECORD
  5
2B7
330
1
100
AcDbSymbolTableRecord
100
AcDbBlockTableRecord
  2
*D8
340
0
  0
BLOCK_RECORD
  5
57A
330
1
100
AcDbSymbolTableRecord
100
AcDbBlockTableRecord
  2
*D9
340
0
  0
BLOCK_RECORD
  5
5E3
330
1
100
AcDbSymbolTableRecord
100
AcDbBlockTableRecord
  2
*D13
340
0
  0
BLOCK_RECORD
  5
5F0
330
1
100
AcDbSymbolTableRecord
100
AcDbBlockTableRecord
  2
*D14
340
0
  0
BLOCK_RECORD
  5
5FD
330
1
100
AcDbSymbolTableRecord
100
AcDbBlockTableRecord
  2
*D15
340
0
  0
BLOCK_RECORD
  5
671
330
1
100
AcDbSymbolTableRecord
100
AcDbBlockTableRecord
  2
*D16
340
0
  0
BLOCK_RECORD
  5
8CF
330
1
100
AcDbSymbolTableRecord
100
AcDbBlockTableRecord
  2
*D28
340
0
  0
BLOCK_RECORD
  5
8DC
330
1
100
AcDbSymbolTableRecord
100
AcDbBlockTableRecord
  2
*D29
340
0
  0
BLOCK_RECORD
  5
8E9
330
1
100
AcDbSymbolTableRecord
100
AcDbBlockTableRecord
  2
*D30
340
0
  0
BLOCK_RECORD
  5
B32
330
1
100
AcDbSymbolTableRecord
100
AcDbBlockTableRecord
  2
*D39
340
0
  0
BLOCK_RECORD
  5
B3F
330
1
100
AcDbSymbolTableRecord
100
AcDbBlockTableRecord
  2
*D40
340
0
  0
BLOCK_RECORD
  5
B4C
330
1
100
AcDbSymbolTableRecord
100
AcDbBlockTableRecord
  2
*D41
340
0
  0
BLOCK_RECORD
  5
B99
330
1
100
AcDbSymbolTableRecord
100
AcDbBlockTableRecord
  2
*D42
340
0
  0
BLOCK_RECORD
  5
BA6
330
1
100
AcDbSymbolTableRecord
100
AcDbBlockTableRecord
  2
*D43
340
0
  0
BLOCK_RECORD
  5
EBD
330
1
100
AcDbSymbolTableRecord
100
AcDbBlockTableRecord
  2
*D45
340
0
  0
ENDTAB
  0
ENDSEC
  0
SECTION
  2
BLOCKS
  0
BLOCK
  5
2D
330
17
100
AcDbEntity
  8
0
100
AcDbBlockBegin
  2
*MODEL_SPACE
 70
     0
 10
0.0
 20
0.0
 30
0.0
  3
*MODEL_SPACE
  1

  0
ENDBLK
  5
2E
330
17
100
AcDbEntity
  8
0
100
AcDbBlockEnd
  0
BLOCK
  5
2B
330
14
100
AcDbEntity
 67
     1
  8
0
100
AcDbBlockBegin
  2
*PAPER_SPACE
 70
     0
 10
0.0
 20
0.0
 30
0.0
  3
*PAPER_SPACE
  1

  0
ENDBLK
  5
2C
330
14
100
AcDbEntity
 67
     1
  8
0
100
AcDbBlockEnd
  0
BLOCK
  5
2F
330
1C
100
AcDbEntity
  8
0
100
AcDbBlockBegin
  2
BORDER
 70
     0
 10
0.0
 20
0.0
 30
0.0
  3
BORDER
  1

  0
LINE
  5
30
330
1C
100
AcDbEntity
  8
0
100
AcDbLine
 10
0.0
 20
0.0
 30
0.0
 11
1.00000000000004
 21
0.0
 31
0.0
  0
LINE
  5
31
330
1C
100
AcDbEntity
  8
0
100
AcDbLine
 10
1.00000000000004
 20
0.0
 30
0.0
 11
1.00000000000004
 21
1.00000000000004
 31
0.0
  0
LINE
  5
32
330
1C
100
AcDbEntity
  8
0
100
AcDbLine
 10
1.00000000000004
 20
1.00000000000004
 30
0.0
 11
0.0
 21
1.00000000000004
 31
0.0
  0
LINE
  5
33
330
1C
100
AcDbEntity
  8
0
100
AcDbLine
 10
0.0
 20
1.00000000000004
 30
0.0
 11
0.0
 21
0.0
 31
0.0
  0
ENDBLK
  5
34
330
1C
100
AcDbEntity
  8
0
100
AcDbBlockEnd
  0
BLOCK
  5
35
330
1D
100
AcDbEntity
  8
HAIKIN
100
AcDbBlockBegin
  2
SA3
 70
     0
 10
0.0
 20
0.0
 30
0.0
  3
SA3
  1

  0
TEXT
  5
36
330
1D
100
AcDbEntity
  8
SUNPOU
100
AcDbText
 10
340.0
 20
0.0
 30
0.0
 40
2.5
  1
新和コンクリート工業株式会社
100
AcDbText
  0
TEXT
  5
39
330
1D
100
AcDbEntity
  8
SUNPOU
100
AcDbText
 10
361.4166666666667
 20
6.25
 30
0.0
 40
2.5
  1
製図
 72
     4
 11
364.0
 21
7.5
 31
0.0
100
AcDbText
  0
TEXT
  5
3A
330
1D
100
AcDbEntity
  8
SUNPOU
100
AcDbText
 10
361.3333333333333
 20
11.25
 30
0.0
 40
2.5
  1
設計
 72
     4
 11
364.0
 21
12.5
 31
0.0
100
AcDbText
  0
TEXT
  5
3B
330
1D
100
AcDbEntity
  8
SUNPOU
100
AcDbText
 10
339.0833333333333
 20
6.250000000000014
 30
0.0
 40
2.5
  1
認
 72
     4
 11
340.25
 21
7.500000000000014
 31
0.0
100
AcDbText
  0
TEXT
  5
3C
330
1D
100
AcDbEntity
  8
SUNPOU
100
AcDbText
 10
339.0833333333333
 20
11.33333333333336
 30
0.0
 40
2.5
  1
承
 72
     4
 11
340.25
 21
12.50000000000003
 31
0.0
100
AcDbText
  0
TEXT
  5
3D
330
1D
100
AcDbEntity
  8
SUNPOU
100
AcDbText
 10
312.75
 20
11.75000000000001
 30
0.0
 40
2.5
  1
図　面　番　号
 72
     4
 11
323.0
 21
13.00000000000001
 31
0.0
100
AcDbText
  0
TEXT
  5
3E
330
1D
100
AcDbEntity
  8
SUNPOU
100
AcDbText
 10
362.0
 20
17.0
 30
0.0
 40
2.5
  1
１／
100
AcDbText
  0
TEXT
  5
3F
330
1D
100
AcDbEntity
  8
SUNPOU
100
AcDbText
 10
347.3333333333333
 20
16.25000000000001
 30
0.0
 40
2.5
  1
縮　　尺
 72
     4
 11
353.0
 21
17.50000000000001
 31
0.0
100
AcDbText
  0
TEXT
  5
40
330
1D
100
AcDbEntity
  8
SUNPOU
100
AcDbText
 10
347.3333333333333
 20
21.25
 30
0.0
 40
2.5
  1
鉄 筋 量
 72
     4
 11
353.0
 21
22.5
 31
0.0
100
AcDbText
  0
TEXT
  5
41
330
1D
100
AcDbEntity
  8
SUNPOU
100
AcDbText
 10
347.3333333333333
 20
26.25
 30
0.0
 40
2.5
  1
製 造 数
 72
     4
 11
353.0
 21
27.5
 31
0.0
100
AcDbText
  0
TEXT
  5
42
330
1D
100
AcDbEntity
  8
SUNPOU
100
AcDbText
 10
377.0
 20
21.0
 30
0.0
 40
2.5
  1
ｋｇ
 72
     2
 11
382.0
 21
21.0
 31
0.0
100
AcDbText
  0
TEXT
  5
43
330
1D
100
AcDbEntity
  8
SUNPOU
100
AcDbText
 10
339.5
 20
21.0
 30
0.0
 40
2.5
  1
ｋｇ
 72
     2
 11
344.5
 21
21.0
 31
0.0
100
AcDbText
  0
TEXT
  5
44
330
1D
100
AcDbEntity
  8
SUNPOU
100
AcDbText
 10
310.0
 20
16.25000000000001
 30
0.0
 40
2.5
  1
年 月 日
 72
     4
 11
315.5
 21
17.50000000000001
 31
0.0
100
AcDbText
  0
TEXT
  5
45
330
1D
100
AcDbEntity
  8
SUNPOU
100
AcDbText
 10
309.8333333333333
 20
21.25
 30
0.0
 40
2.5
  1
製品質量
 72
     4
 11
315.5
 21
22.5
 31
0.0
100
AcDbText
  0
TEXT
  5
46
330
1D
100
AcDbEntity
  8
SUNPOU
100
AcDbText
 10
309.9166666666667
 20
26.25
 30
0.0
 40
2.5
  1
業 者 名
 72
     4
 11
315.5
 21
27.5
 31
0.0
100
AcDbText
  0
TEXT
  5
47
330
1D
100
AcDbEntity
  8
SUNPOU
100
AcDbText
 10
309.8333333333333
 20
32.5
 30
0.0
 40
2.5
  1
名　　称
 72
     4
 11
315.5
 21
33.75
 31
0.0
100
AcDbText
  0
LINE
  5
48
330
1D
100
AcDbEntity
  8
SUNPOU
100
AcDbLine
 10
338.0
 20
11.00000000000001
 30
0.0
 11
308.0
 21
11.00000000000001
 31
0.0
  0
LINE
  5
49
330
1D
100
AcDbEntity
  8
SUNPOU
100
AcDbLine
 10
367.5
 20
4.999999999999986
 30
0.0
 11
367.5
 21
14.99999999999999
 31
0.0
  0
LINE
  5
4A
330
1D
100
AcDbEntity
  8
SUNPOU
100
AcDbLine
 10
360.5
 20
4.999999999999986
 30
0.0
 11
360.5
 21
14.99999999999999
 31
0.0
  0
LINE
  5
4B
330
1D
100
AcDbEntity
  8
SUNPOU
100
AcDbLine
 10
342.5
 20
4.999999999999995
 30
0.0
 11
342.5
 21
15.0
 31
0.0
  0
LINE
  5
4C
330
1D
100
AcDbEntity
  8
SUNPOU
100
AcDbLine
 10
338.0
 20
4.999999999999995
 30
0.0
 11
338.0
 21
15.0
 31
0.0
  0
LINE
  5
4D
330
1D
100
AcDbEntity
  8
SUNPOU
100
AcDbLine
 10
323.0
 20
15.00000000000001
 30
0.0
 11
323.0
 21
37.5
 31
0.0
  0
LINE
  5
4E
330
1D
100
AcDbEntity
  8
SUNPOU
100
AcDbLine
 10
360.5
 20
15.00000000000001
 30
0.0
 11
360.5
 21
30.0
 31
0.0
  0
LINE
  5
4F
330
1D
100
AcDbEntity
  8
SUNPOU
100
AcDbLine
 10
345.5
 20
15.00000000000001
 30
0.0
 11
345.5
 21
30.0
 31
0.0
  0
LINE
  5
50
330
1D
100
AcDbEntity
  8
SUNPOU
100
AcDbLine
 10
383.0
 20
30.0
 30
0.0
 11
308.0
 21
30.0
 31
0.0
  0
LINE
  5
51
330
1D
100
AcDbEntity
  8
SUNPOU
100
AcDbLine
 10
383.0
 20
25.0
 30
0.0
 11
308.0
 21
25.0
 31
0.0
  0
LINE
  5
52
330
1D
100
AcDbEntity
  8
SUNPOU
100
AcDbLine
 10
383.0
 20
20.0
 30
0.0
 11
308.0
 21
20.0
 31
0.0
  0
LINE
  5
53
330
1D
100
AcDbEntity
  8
SUNPOU
100
AcDbLine
 10
383.0
 20
14.99999999999999
 30
0.0
 11
308.0
 21
15.00000000000004
 31
0.0
  0
LINE
  5
54
330
1D
100
AcDbEntity
  8
HAIKIN
100
AcDbLine
 10
308.0
 20
37.5
 30
0.0
 11
383.0
 21
37.5
 31
0.0
  0
LINE
  5
55
330
1D
100
AcDbEntity
  8
HAIKIN
100
AcDbLine
 10
308.0
 20
5.000000000000009
 30
0.0
 11
308.0
 21
37.5
 31
0.0
  0
LINE
  5
56
330
1D
100
AcDbEntity
  8
SUNPOU
100
AcDbLine
 10
0.000000000000016
 20
277.0
 30
0.0
 11
0.000000000000016
 21
272.0
 31
0.0
  0
LINE
  5
57
330
1D
100
AcDbEntity
  8
SUNPOU
100
AcDbLine
 10
25.00000000000001
 20
277.0
 30
0.0
 11
0.000000000000016
 21
277.0
 31
0.0
  0
LINE
  5
58
330
1D
100
AcDbEntity
  8
SUNPOU
100
AcDbLine
 10
25.00000000000001
 20
272.0
 30
0.0
 11
25.00000000000001
 21
277.0
 31
0.0
  0
LINE
  5
59
330
1D
100
AcDbEntity
  8
HAIKIN
100
AcDbLine
 10
0.0000000000000004
 20
5.0
 30
0.0
 11
383.0
 21
5.0
 31
0.0
  0
LINE
  5
5A
330
1D
100
AcDbEntity
  8
HAIKIN
100
AcDbLine
 10
0.0000000000000158
 20
272.0
 30
0.0
 11
383.0
 21
272.0
 31
0.0
  0
LINE
  5
5B
330
1D
100
AcDbEntity
  8
HAIKIN
100
AcDbLine
 10
383.0
 20
272.0
 30
0.0
 11
383.0
 21
5.0
 31
0.0
  0
TEXT
  5
5C
330
1D
100
AcDbEntity
  8
SUNPOU
100
AcDbText
 10
3.700000000000017
 20
273.0
 30
0.0
 40
3.0
  1
Ｈ－２－共
 72
     4
 11
12.50000000000002
 21
274.5
 31
0.0
100
AcDbText
  0
LINE
  5
5D
330
1D
100
AcDbEntity
  8
HAIKIN
100
AcDbLine
 10
0.0000000000000004
 20
5.0
 30
0.0
 11
0.0000000000000158
 21
272.0
 31
0.0
  0
ENDBLK
  5
5E
330
1D
100
AcDbEntity
  8
HAIKIN
100
AcDbBlockEnd
  0
BLOCK
  5
8A
330
80
100
AcDbEntity
  8
0
100
AcDbBlockBegin
  2
*D2
 70
     1
 10
0.0
 20
0.0
 30
0.0
  3
*D2
  1

  0
LINE
  5
81
330
80
100
AcDbEntity
  8
0
  6
ByBlock
 62
     0
440
 16777216
100
AcDbLine
 10
1328.918641876931
 20
1063.120542006091
 30
0.0
 11
1734.384164675743
 21
1063.120542006091
 31
0.0
  0
LINE
  5
82
330
80
100
AcDbEntity
  8
0
  6
ByBlock
 62
     0
440
 16777216
100
AcDbLine
 10
1408.918641876931
 20
943.1205420060905
 30
0.0
 11
1734.384164675743
 21
943.1205420060905
 31
0.0
  0
LINE
  5
83
330
80
100
AcDbEntity
  8
0
  6
ByBlock
 62
     0
440
 16777216
100
AcDbLine
 10
1724.384164675743
 20
1043.120542006091
 30
0.0
 11
1724.384164675743
 21
963.1205420060905
 31
0.0
  0
SOLID
  5
84
330
80
100
AcDbEntity
  8
0
  6
ByBlock
 62
     0
440
 16777216
100
AcDbTrace
 10
1721.05083134241
 20
1043.120542006091
 30
0.0
 11
1727.717498009076
 21
1043.120542006091
 31
0.0
 12
1724.384164675743
 22
1063.120542006091
 32
0.0
 13
1724.384164675743
 23
1063.120542006091
 33
0.0
  0
SOLID
  5
85
330
80
100
AcDbEntity
  8
0
  6
ByBlock
 62
     0
440
 16777216
100
AcDbTrace
 10
1721.05083134241
 20
963.1205420060905
 30
0.0
 11
1727.717498009076
 21
963.1205420060905
 31
0.0
 12
1724.384164675743
 22
943.1205420060905
 32
0.0
 13
1724.384164675743
 23
943.1205420060905
 33
0.0
  0
MTEXT
  5
86
330
80
100
AcDbEntity
  8
0
  6
ByBlock
 62
     0
440
 16777216
100
AcDbMText
 10
1699.384164675743
 20
1003.12054200609
 30
0.0
 40
25.0
 41
0.0
 71
     5
 72
     1
  1
\A1;120
 11
6.123031769111886E-17
 21
1.0
 31
0.0
 73
     1
 44
1.0
  0
POINT
  5
87
330
80
100
AcDbEntity
  8
DEFPOINTS
  6
ByBlock
 62
     0
440
 16777216
100
AcDbPoint
 10
1308.918641876931
 20
1063.120542006091
 30
0.0
  0
POINT
  5
88
330
80
100
AcDbEntity
  8
DEFPOINTS
  6
ByBlock
 62
     0
440
 16777216
100
AcDbPoint
 10
1388.918641876931
 20
943.1205420060905
 30
0.0
  0
POINT
  5
89
330
80
100
AcDbEntity
  8
DEFPOINTS
  6
ByBlock
 62
     0
440
 16777216
100
AcDbPoint
 10
1724.384164675743
 20
943.1205420060905
 30
0.0
  0
ENDBLK
  5
8B
330
80
100
AcDbEntity
  8
0
100
AcDbBlockEnd
  0
BLOCK
  5
96
330
8C
100
AcDbEntity
  8
0
100
AcDbBlockBegin
  2
*D3
 70
     1
 10
0.0
 20
0.0
 30
0.0
  3
*D3
  1

  0
LINE
  5
8D
330
8C
100
AcDbEntity
  8
0
  6
ByBlock
 62
     0
440
 16777216
100
AcDbLine
 10
1328.918641876931
 20
910.6599650098688
 30
0.0
 11
1674.384164675743
 21
910.6599650098688
 31
0.0
  0
LINE
  5
8E
330
8C
100
AcDbEntity
  8
0
  6
ByBlock
 62
     0
440
 16777216
100
AcDbLine
 10
1408.918641876931
 20
850.6599650098688
 30
0.0
 11
1674.384164675743
 21
850.6599650098688
 31
0.0
  0
LINE
  5
8F
330
8C
100
AcDbEntity
  8
0
  6
ByBlock
 62
     0
440
 16777216
100
AcDbLine
 10
1664.384164675743
 20
890.6599650098688
 30
0.0
 11
1664.384164675743
 21
870.6599650098688
 31
0.0
  0
SOLID
  5
90
330
8C
100
AcDbEntity
  8
0
  6
ByBlock
 62
     0
440
 16777216
100
AcDbTrace
 10
1661.05083134241
 20
890.6599650098688
 30
0.0
 11
1667.717498009076
 21
890.6599650098688
 31
0.0
 12
1664.384164675743
 22
910.6599650098688
 32
0.0
 13
1664.384164675743
 23
910.6599650098688
 33
0.0
  0
SOLID
  5
91
330
8C
100
AcDbEntity
  8
0
  6
ByBlock
 62
     0
440
 16777216
100
AcDbTrace
 10
1661.05083134241
 20
870.6599650098688
 30
0.0
 11
1667.717498009076
 21
870.6599650098688
 31
0.0
 12
1664.384164675743
 22
850.6599650098688
 32
0.0
 13
1664.384164675743
 23
850.6599650098688
 33
0.0
  0
MTEXT
  5
92
330
8C
100
AcDbEntity
  8
0
  6
ByBlock
 62
     0
440
 16777216
100
AcDbMText
 10
1639.384164675743
 20
880.6599650098688
 30
0.0
 40
25.0
 41
0.0
 71
     5
 72
     1
  1
\A1;60
 11
6.123031769111886E-17
 21
1.0
 31
0.0
 73
     1
 44
1.0
  0
POINT
  5
93
330
8C
100
AcDbEntity
  8
DEFPOINTS
  6
ByBlock
 62
     0
440
 16777216
100
AcDbPoint
 10
1308.918641876931
 20
910.6599650098688
 30
0.0
  0
POINT
  5
94
330
8C
100
AcDbEntity
  8
DEFPOINTS
  6
ByBlock
 62
     0
440
 16777216
100
AcDbPoint
 10
1388.918641876931
 20
850.6599650098688
 30
0.0
  0
POINT
  5
95
330
8C
100
AcDbEntity
  8
DEFPOINTS
  6
ByBlock
 62
     0
440
 16777216
100
AcDbPoint
 10
1664.384164675743
 20
850.6599650098688
 30
0.0
  0
ENDBLK
  5
97
330
8C
100
AcDbEntity
  8
0
100
AcDbBlockEnd
  0
BLOCK
  5
A2
330
98
100
AcDbEntity
  8
0
100
AcDbBlockBegin
  2
*D4
 70
     1
 10
0.0
 20
0.0
 30
0.0
  3
*D4
  1

  0
LINE
  5
99
330
98
100
AcDbEntity
  8
0
  6
ByBlock
 62
     0
440
 16777216
100
AcDbLine
 10
1408.918641876931
 20
850.6599650098689
 30
0.0
 11
1674.384164675743
 21
850.6599650098689
 31
0.0
  0
LINE
  5
9A
330
98
100
AcDbEntity
  8
0
  6
ByBlock
 62
     0
440
 16777216
100
AcDbLine
 10
1408.918641876931
 20
790.6599650098689
 30
0.0
 11
1674.384164675743
 21
790.6599650098689
 31
0.0
  0
LINE
  5
9B
330
98
100
AcDbEntity
  8
0
  6
ByBlock
 62
     0
440
 16777216
100
AcDbLine
 10
1664.384164675743
 20
830.6599650098689
 30
0.0
 11
1664.384164675743
 21
810.6599650098689
 31
0.0
  0
SOLID
  5
9C
330
98
100
AcDbEntity
  8
0
  6
ByBlock
 62
     0
440
 16777216
100
AcDbTrace
 10
1661.05083134241
 20
830.6599650098689
 30
0.0
 11
1667.717498009076
 21
830.6599650098689
 31
0.0
 12
1664.384164675743
 22
850.6599650098689
 32
0.0
 13
1664.384164675743
 23
850.6599650098689
 33
0.0
  0
SOLID
  5
9D
330
98
100
AcDbEntity
  8
0
  6
ByBlock
 62
     0
440
 16777216
100
AcDbTrace
 10
1661.05083134241
 20
810.6599650098689
 30
0.0
 11
1667.717498009076
 21
810.6599650098689
 31
0.0
 12
1664.384164675743
 22
790.6599650098689
 32
0.0
 13
1664.384164675743
 23
790.6599650098689
 33
0.0
  0
MTEXT
  5
9E
330
98
100
AcDbEntity
  8
0
  6
ByBlock
 62
     0
440
 16777216
100
AcDbMText
 10
1639.384164675743
 20
820.6599650098689
 30
0.0
 40
25.0
 41
0.0
 71
     5
 72
     1
  1
\A1;60
 11
6.123031769111886E-17
 21
1.0
 31
0.0
 73
     1
 44
1.0
  0
POINT
  5
9F
330
98
100
AcDbEntity
  8
DEFPOINTS
  6
ByBlock
 62
     0
440
 16777216
100
AcDbPoint
 10
1388.918641876931
 20
850.6599650098689
 30
0.0
  0
POINT
  5
A0
330
98
100
AcDbEntity
  8
DEFPOINTS
  6
ByBlock
 62
     0
440
 16777216
100
AcDbPoint
 10
1388.918641876931
 20
790.6599650098689
 30
0.0
  0
POINT
  5
A1
330
98
100
AcDbEntity
  8
DEFPOINTS
  6
ByBlock
 62
     0
440
 16777216
100
AcDbPoint
 10
1664.384164675743
 20
790.6599650098689
 30
0.0
  0
ENDBLK
  5
A3
330
98
100
AcDbEntity
  8
0
100
AcDbBlockEnd
  0
BLOCK
  5
AE
330
A4
100
AcDbEntity
  8
0
100
AcDbBlockBegin
  2
*D5
 70
     1
 10
0.0
 20
0.0
 30
0.0
  3
*D5
  1

  0
LINE
  5
A5
330
A4
100
AcDbEntity
  8
0
  6
ByBlock
 62
     0
440
 16777216
100
AcDbLine
 10
1308.918641876931
 20
930.6599650098688
 30
0.0
 11
1308.918641876931
 21
1103.301880364135
 31
0.0
  0
LINE
  5
A6
330
A4
100
AcDbEntity
  8
0
  6
ByBlock
 62
     0
440
 16777216
100
AcDbLine
 10
1388.918641876931
 20
870.6599650098689
 30
0.0
 11
1388.918641876931
 21
1103.301880364135
 31
0.0
  0
LINE
  5
A7
330
A4
100
AcDbEntity
  8
0
  6
ByBlock
 62
     0
440
 16777216
100
AcDbLine
 10
1328.918641876931
 20
1093.301880364135
 30
0.0
 11
1368.918641876931
 21
1093.301880364135
 31
0.0
  0
SOLID
  5
A8
330
A4
100
AcDbEntity
  8
0
  6
ByBlock
 62
     0
440
 16777216
100
AcDbTrace
 10
1328.918641876931
 20
1096.635213697469
 30
0.0
 11
1328.918641876931
 21
1089.968547030802
 31
0.0
 12
1308.918641876931
 22
1093.301880364135
 32
0.0
 13
1308.918641876931
 23
1093.301880364135
 33
0.0
  0
SOLID
  5
A9
330
A4
100
AcDbEntity
  8
0
  6
ByBlock
 62
     0
440
 16777216
100
AcDbTrace
 10
1368.918641876931
 20
1096.635213697469
 30
0.0
 11
1368.918641876931
 21
1089.968547030802
 31
0.0
 12
1388.918641876931
 22
1093.301880364135
 32
0.0
 13
1388.918641876931
 23
1093.301880364135
 33
0.0
  0
MTEXT
  5
AA
330
A4
100
AcDbEntity
  8
0
  6
ByBlock
 62
     0
440
 16777216
100
AcDbMText
 10
1348.918641876931
 20
1118.301880364135
 30
0.0
 40
25.0
 41
0.0
 71
     5
 72
     1
  1
\A1;80
 73
     1
 44
1.0
  0
POINT
  5
AB
330
A4
100
AcDbEntity
  8
DEFPOINTS
  6
ByBlock
 62
     0
440
 16777216
100
AcDbPoint
 10
1308.918641876931
 20
910.6599650098688
 30
0.0
  0
POINT
  5
AC
330
A4
100
AcDbEntity
  8
DEFPOINTS
  6
ByBlock
 62
     0
440
 16777216
100
AcDbPoint
 10
1388.918641876931
 20
850.6599650098689
 30
0.0
  0
POINT
  5
AD
330
A4
100
AcDbEntity
  8
DEFPOINTS
  6
ByBlock
 62
     0
440
 16777216
100
AcDbPoint
 10
1388.918641876931
 20
1093.301880364135
 30
0.0
  0
ENDBLK
  5
AF
330
A4
100
AcDbEntity
  8
0
100
AcDbBlockEnd
  0
BLOCK
  5
B6
330
B0
100
AcDbEntity
  8
0
100
AcDbBlockBegin
  2
*D6
 70
     1
 10
0.0
 20
0.0
 30
0.0
  3
*D6
  1

  0
LINE
  5
B1
330
B0
100
AcDbEntity
  8
0
  6
ByBlock
 62
     0
440
 16777216
100
AcDbLine
 10
968.9186418769314
 20
990.659965009869
 30
0.0
 11
928.1098170263085
 21
946.6754243812437
 31
0.0
  0
MTEXT
  5
B2
330
B0
100
AcDbEntity
  8
0
  6
ByBlock
 62
     0
440
 16777216
100
AcDbMText
 10
1000.539969260484
 20
1027.488583691892
 30
0.0
 40
25.0
 41
0.0
 71
     5
 72
     1
  1
\A1;R80
 11
0.6801470808437141
 21
0.7330756771437545
 31
0.0
 73
     1
 44
1.0
  0
SOLID
  5
B3
330
B0
100
AcDbEntity
  8
0
  6
ByBlock
 62
     0
440
 16777216
100
AcDbTrace
 10
925.6662314358293
 20
948.9425813173892
 30
0.0
 11
930.5534026167877
 21
944.4082674450979
 31
0.0
 12
914.5068754094342
 22
932.0139108383685
 32
0.0
 13
914.5068754094342
 23
932.0139108383685
 33
0.0
  0
POINT
  5
B4
330
B0
100
AcDbEntity
  8
DEFPOINTS
  6
ByBlock
 62
     0
440
 16777216
100
AcDbPoint
 10
914.5068754094342
 20
932.0139108383685
 30
0.0
  0
POINT
  5
B5
330
B0
100
AcDbEntity
  8
DEFPOINTS
  6
ByBlock
 62
     0
440
 16777216
100
AcDbPoint
 10
968.9186418769314
 20
990.659965009869
 30
0.0
  0
ENDBLK
  5
B7
330
B0
100
AcDbEntity
  8
0
100
AcDbBlockEnd
  0
BLOCK
  5
147
330
B9
100
AcDbEntity
  8
0
100
AcDbBlockBegin
  2
A$C630D7A2A
 70
     0
 10
0.0
 20
0.0
 30
0.0
  3
A$C630D7A2A
  1

  0
LINE
  5
BA
330
B9
100
AcDbEntity
  8
SUNPOU
100
AcDbLine
 10
959.736976452632
 20
1106.506644244947
 30
0.0
 11
2281.976822896288
 21
1106.506644244946
 31
0.0
  0
LINE
  5
BB
330
B9
100
AcDbEntity
  8
HASEN
100
AcDbLine
 10
1281.976822896288
 20
282.9999977848383
 30
0.0
 11
2281.976822896289
 21
282.9999977848383
 31
0.0
  0
LEADER
  5
BC
330
B9
100
AcDbEntity
  8
SUNPOU
100
AcDbLeader
  3
STANDARD
 76
     2
 10
1503.976822896288
 20
309.0026842404862
 30
0.0
 10
1695.976822896288
 20
309.0026842404862
 30
0.0
1001
ACAD
1000
DSTYLE
1002
{
1070
    78
1070
     8
1070
   284
1070
     8
1070
   140
1040
2.5
1070
   145
1040
1.0
1070
    74
1070
     0
1070
    73
1070
     0
1070
    40
1040
10.0
1070
   287
1070
     5
1070
    42
1040
2.0
1070
    44
1040
1.0
1070
    43
1040
7.0
1070
   141
1040
0.0
1070
   275
1070
     1
1070
    41
1040
2.0
1070
   285
1070
     8
1070
   286
1070
     8
1002
}
  0
LEADER
  5
BD
330
B9
100
AcDbEntity
  8
SUNPOU
100
AcDbLeader
  3
STANDARD
 76
     2
 10
1513.976822896288
 20
1106.506644244947
 30
0.0
 10
1321.976822896288
 20
1106.506644244947
 30
0.0
1001
ACAD
1000
DSTYLE
1002
{
1070
    78
1070
     8
1070
   284
1070
     8
1070
   140
1040
2.5
1070
   145
1040
1.0
1070
    74
1070
     0
1070
    73
1070
     0
1070
    40
1040
10.0
1070
   287
1070
     5
1070
    42
1040
2.0
1070
    44
1040
1.0
1070
    43
1040
7.0
1070
   141
1040
0.0
1070
   275
1070
     1
1070
    41
1040
2.0
1070
   285
1070
     8
1070
   286
1070
     8
1002
}
  0
LWPOLYLINE
  5
BE
330
B9
100
AcDbEntity
  8
SUNPOU
100
AcDbPolyline
 90
        2
 70
     1
 43
4.95
 10
1511.451822896287
 20
192.9999977848383
 42
1.0
 10
1516.501822896288
 20
192.9999977848383
 42
1.0
  0
LWPOLYLINE
  5
BF
330
B9
100
AcDbEntity
  8
SUNPOU
100
AcDbPolyline
 90
        2
 70
     1
 43
4.95
 10
1511.451822896287
 20
252.999997784838
 42
1.0
 10
1516.501822896288
 20
252.999997784838
 42
1.0
  0
LINE
  5
C0
330
B9
100
AcDbEntity
  8
HAIKIN
100
AcDbLine
 10
1301.976822896288
 20
244.9999977848381
 30
0.0
 11
2281.976822896288
 21
244.9999977848381
 31
0.0
  0
LINE
  5
C1
330
B9
100
AcDbEntity
  8
HAIKIN
100
AcDbLine
 10
1301.976822896288
 20
507.9999977848386
 30
0.0
 11
2281.976822896288
 21
507.9999977848386
 31
0.0
  0
LINE
  5
C2
330
B9
100
AcDbEntity
  8
HAIKIN
100
AcDbLine
 10
1301.976822896288
 20
752.9999977848386
 30
0.0
 11
2281.976822896288
 21
752.9999977848386
 31
0.0
  0
LINE
  5
C3
330
B9
100
AcDbEntity
  8
HAIKIN
100
AcDbLine
 10
1301.976822896288
 20
997.9999977848386
 30
0.0
 11
2281.976822896288
 21
997.9999977848386
 31
0.0
  0
LINE
  5
C4
330
B9
100
AcDbEntity
  8
HAIKIN
100
AcDbLine
 10
1301.976822896288
 20
200.9999977848383
 30
0.0
 11
2281.976822896288
 21
200.9999977848381
 31
0.0
  0
LINE
  5
C5
330
B9
100
AcDbEntity
  8
HAIKIN
100
AcDbLine
 10
1301.976822896288
 20
1242.999997784839
 30
0.0
 11
2281.976822896288
 21
1242.999997784839
 31
0.0
  0
LINE
  5
C6
330
B9
100
AcDbEntity
  8
SUNPOU
100
AcDbLine
 10
1281.976822896288
 20
162.9999977848383
 30
0.0
 11
2281.976822896287
 21
162.9999977848383
 31
0.0
  0
LINE
  5
C7
330
B9
100
AcDbEntity
  8
SUNPOU
100
AcDbLine
 10
1281.976822896288
 20
1282.999997784838
 30
0.0
 11
2281.976822896288
 21
1282.999997784838
 31
0.0
  0
LEADER
  5
C8
330
B9
100
AcDbEntity
  8
SUNPOU
100
AcDbLeader
  3
STANDARD
 76
     3
 10
229.3200875962164
 20
758.9999977848388
 30
0.0
 10
315.0778082627312
 20
873.0535803463317
 30
0.0
 10
565.4380575288906
 20
873.0535803463317
 30
0.0
1001
ACAD
1000
DSTYLE
1002
{
1070
    78
1070
     8
1070
   284
1070
     8
1070
   140
1040
2.5
1070
   145
1040
1.0
1070
    74
1070
     0
1070
    73
1070
     0
1070
    40
1040
10.0
1070
   287
1070
     5
1070
    42
1040
2.0
1070
    44
1040
1.0
1070
    43
1040
7.0
1070
   141
1040
0.0
1070
   275
1070
     1
1070
    41
1040
2.0
1070
   285
1070
     8
1070
   286
1070
     8
1002
}
  0
LEADER
  5
C9
330
B9
100
AcDbEntity
  8
SUNPOU
100
AcDbLeader
  3
STANDARD
 76
     3
 10
267.9218676798143
 20
758.9999977848388
 30
0.0
 10
353.6795883463292
 20
873.0535803463317
 30
0.0
 10
604.0398376124886
 20
873.0535803463317
 30
0.0
1001
ACAD
1000
DSTYLE
1002
{
1070
    78
1070
     8
1070
   284
1070
     8
1070
   140
1040
2.5
1070
   145
1040
1.0
1070
    74
1070
     0
1070
    73
1070
     0
1070
    40
1040
10.0
1070
   287
1070
     5
1070
    42
1040
2.0
1070
    44
1040
1.0
1070
    43
1040
7.0
1070
   141
1040
0.0
1070
   275
1070
     1
1070
    41
1040
2.0
1070
   285
1070
     8
1070
   286
1070
     8
1002
}
  0
LEADER
  5
CA
330
B9
100
AcDbEntity
  8
SUNPOU
100
AcDbLeader
  3
STANDARD
 76
     2
 10
1440.067580811962
 20
997.9999977848388
 30
0.0
 10
1440.067580811962
 20
752.9999977848388
 30
0.0
1001
ACAD
1000
DSTYLE
1002
{
1070
    78
1070
     8
1070
   284
1070
     8
1070
   140
1040
2.5
1070
   145
1040
1.0
1070
    74
1070
     0
1070
    73
1070
     0
1070
    40
1040
10.0
1070
   287
1070
     5
1070
    42
1040
2.0
1070
    44
1040
1.0
1070
    43
1040
7.0
1070
   141
1040
0.0
1070
   275
1070
     1
1070
    41
1040
2.0
1070
   285
1070
     8
1070
   286
1070
     8
1002
}
  0
LINE
  5
CB
330
B9
100
AcDbEntity
  8
HAIKIN
100
AcDbLine
 10
1321.976822896288
 20
1262.999997784839
 30
0.0
 11
1321.976822896288
 21
192.9999977848383
 31
0.0
  0
LINE
  5
CC
330
B9
100
AcDbEntity
  8
HAIKIN
100
AcDbLine
 10
228.4920027314397
 20
1262.999997784838
 30
0.0
 11
207.8747180798659
 21
213.39277915926
 31
0.0
  0
LINE
  5
CD
330
B9
100
AcDbEntity
  8
HAIKIN
100
AcDbLine
 10
268.8790728049153
 20
1262.999997784838
 30
0.0
 11
268.8790728049153
 21
192.9999977848383
 31
0.0
  0
LINE
  5
CE
330
B9
100
AcDbEntity
  8
SUNPOU
100
AcDbLine
 10
1281.976822896288
 20
1282.999997784838
 30
0.0
 11
1281.976822896288
 21
162.9999977848383
 31
0.0
  0
LINE
  5
CF
330
B9
100
AcDbEntity
  8
SUNPOU
100
AcDbLine
 10
198.8790728049153
 20
1282.999997784838
 30
0.0
 11
176.8790728049153
 21
162.9999977848383
 31
0.0
  0
LINE
  5
D0
330
B9
100
AcDbEntity
  8
SUNPOU
100
AcDbLine
 10
298.8790728049153
 20
1282.999997784838
 30
0.0
 11
298.8790728049153
 21
362.9999977848383
 31
0.0
  0
LEADER
  5
D1
330
B9
100
AcDbEntity
  8
SUNPOU
100
AcDbLeader
  3
STANDARD
 76
     3
 10
419.3209926586517
 20
252.9999977848381
 30
0.0
 10
419.3209926586517
 20
58.0315611644146
 30
0.0
 10
0.000002087728717
 20
58.0315611644146
 30
0.0
1001
ACAD
1000
DSTYLE
1002
{
1070
    78
1070
     8
1070
   284
1070
     8
1070
   140
1040
2.5
1070
   145
1040
1.0
1070
    74
1070
     0
1070
    73
1070
     0
1070
    40
1040
10.0
1070
   287
1070
     5
1070
    42
1040
2.0
1070
    44
1040
1.0
1070
    43
1040
7.0
1070
   141
1040
0.0
1070
   275
1070
     1
1070
    41
1040
2.0
1070
   285
1070
     8
1070
   286
1070
     8
1002
}
  0
LINE
  5
D2
330
B9
100
AcDbEntity
  8
SUNPOU
100
AcDbLine
 10
176.8790728049153
 20
162.9999977848383
 30
0.0
 11
798.8790728049153
 21
162.9999977848385
 31
0.0
  0
DIMENSION
  5
D3
330
B9
100
AcDbEntity
  8
SUNPOU
100
AcDbDimension
  2
*D4
 10
1074.344595603727
 20
162.9999977848385
 30
0.0
 11
1049.344595603727
 21
192.9999977848385
 31
0.0
 12
-590.0395690720161
 22
-627.6599672250304
 32
0.0
 71
     5
 42
-1.0
  3
STANDARD
100
AcDbAlignedDimension
 13
798.8790728049153
 23
222.9999977848385
 33
0.0
 14
798.8790728049153
 24
162.9999977848385
 34
0.0
 50
90.0
100
AcDbRotatedDimension
1001
ACAD
1000
DSTYLE
1002
{
1070
    40
1040
10.0
1070
    41
1040
2.0
1070
    42
1040
2.0
1070
    43
1040
7.0
1070
    44
1040
1.0
1070
    73
1070
     0
1070
    74
1070
     0
1070
    78
1070
     8
1070
   140
1040
2.5
1070
   141
1040
0.0
1070
   145
1040
1.0
1070
   275
1070
     1
1070
   279
1070
     2
1070
   284
1070
     8
1070
   285
1070
     8
1070
   286
1070
     8
1002
}
  0
DIMENSION
  5
D4
330
B9
100
AcDbEntity
  8
SUNPOU
100
AcDbDimension
  2
*D3
 10
1074.344595603727
 20
222.9999977848383
 30
0.0
 11
1049.344595603727
 21
252.9999977848383
 31
0.0
 12
-590.0395690720161
 22
-627.6599672250304
 32
0.0
 71
     5
 42
-1.0
  3
STANDARD
100
AcDbAlignedDimension
 13
718.8790728049153
 23
282.9999977848383
 33
0.0
 14
798.8790728049153
 24
222.9999977848383
 34
0.0
 50
90.0
100
AcDbRotatedDimension
1001
ACAD
1000
DSTYLE
1002
{
1070
    40
1040
10.0
1070
    41
1040
2.0
1070
    42
1040
2.0
1070
    43
1040
7.0
1070
    44
1040
1.0
1070
    73
1070
     0
1070
    74
1070
     0
1070
    78
1070
     8
1070
   140
1040
2.5
1070
   141
1040
0.0
1070
   145
1040
1.0
1070
   275
1070
     1
1070
   279
1070
     2
1070
   284
1070
     8
1070
   285
1070
     8
1070
   286
1070
     8
1002
}
  0
LEADER
  5
D5
330
B9
100
AcDbEntity
  8
SUNPOU
100
AcDbLeader
  3
STANDARD
 76
     3
 10
770.4987332130349
 20
248.9999977848381
 30
0.0
 10
770.4987332130349
 20
350.551300446703
 30
0.0
 10
1155.289369866668
 20
350.551300446703
 30
0.0
1001
ACAD
1000
DSTYLE
1002
{
1070
    78
1070
     8
1070
   284
1070
     8
1070
   140
1040
2.5
1070
   145
1040
1.0
1070
    74
1070
     0
1070
    73
1070
     0
1070
    40
1040
10.0
1070
   287
1070
     5
1070
    42
1040
2.0
1070
    44
1040
1.0
1070
    43
1040
7.0
1070
   141
1040
0.0
1070
   275
1070
     1
1070
    41
1040
2.0
1070
   285
1070
     8
1070
   286
1070
     8
1002
}
  0
DIMENSION
  5
D6
330
B9
100
AcDbEntity
  8
SUNPOU
100
AcDbDimension
  2
*D2
 10
1134.344595603727
 20
162.9999977848383
 30
0.0
 11
1109.344595603727
 21
222.9999977848382
 31
0.0
 12
-590.0395690720161
 22
-780.1205442212522
 32
0.0
 71
     5
 42
-1.0
  3
STANDARD
100
AcDbAlignedDimension
 13
718.8790728049153
 23
282.9999977848383
 33
0.0
 14
798.8790728049153
 24
162.9999977848383
 34
0.0
 50
90.0
100
AcDbRotatedDimension
1001
ACAD
1000
DSTYLE
1002
{
1070
    40
1040
10.0
1070
    41
1040
2.0
1070
    42
1040
2.0
1070
    43
1040
7.0
1070
    44
1040
1.0
1070
    73
1070
     0
1070
    74
1070
     0
1070
    78
1070
     8
1070
   140
1040
2.5
1070
   141
1040
0.0
1070
   145
1040
1.0
1070
   275
1070
     1
1070
   279
1070
     2
1070
   284
1070
     8
1070
   285
1070
     8
1070
   286
1070
     8
1002
}
  0
LINE
  5
D7
330
B9
100
AcDbEntity
  8
HAIKIN
100
AcDbLine
 10
538.8790728049153
 20
196.9999977848386
 30
0.0
 11
918.8790728049153
 21
196.9999977848382
 31
0.0
  0
DIMENSION
  5
D8
330
B9
100
AcDbEntity
  8
SUNPOU
100
AcDbDimension
  2
*D6
 10
378.8790728049153
 20
362.9999977848386
 30
0.0
 11
410.5004001884682
 21
399.8286164668616
 31
0.0
 12
-590.0395690720161
 22
-627.6599672250304
 32
0.0
 70
   132
 71
     5
 42
-1.0
  3
STANDARD
100
AcDbRadialDimension
 15
324.4673063374181
 25
304.3539436133381
 35
0.0
 40
0.0
1001
ACAD
1000
DSTYLE
1002
{
1070
    40
1040
10.0
1070
    41
1040
2.0
1070
    42
1040
2.0
1070
    43
1040
7.0
1070
    44
1040
1.0
1070
    73
1070
     0
1070
    74
1070
     0
1070
    78
1070
     8
1070
   140
1040
2.5
1070
   141
1040
0.0
1070
   145
1040
1.0
1070
   275
1070
     1
1070
   279
1070
     2
1070
   284
1070
     8
1070
   285
1070
     8
1070
   286
1070
     8
1070
   288
1070
     1
1002
}
  0
DIMENSION
  5
D9
330
B9
100
AcDbEntity
  8
SUNPOU
100
AcDbDimension
  2
*D5
 10
798.8790728049153
 20
465.6419131391049
 30
0.0
 11
758.8790728049153
 21
490.6419131391049
 31
0.0
 12
-590.0395690720161
 22
-627.6599672250304
 32
0.0
 71
     5
 42
-1.0
  3
STANDARD
100
AcDbAlignedDimension
 13
718.8790728049153
 23
282.9999977848383
 33
0.0
 14
798.8790728049153
 24
222.9999977848385
 34
0.0
100
AcDbRotatedDimension
1001
ACAD
1000
DSTYLE
1002
{
1070
    40
1040
10.0
1070
    41
1040
2.0
1070
    42
1040
2.0
1070
    43
1040
7.0
1070
    44
1040
1.0
1070
    73
1070
     0
1070
    74
1070
     0
1070
    78
1070
     8
1070
   140
1040
2.5
1070
   141
1040
0.0
1070
   145
1040
1.0
1070
   275
1070
     1
1070
   279
1070
     2
1070
   284
1070
     8
1070
   285
1070
     8
1070
   286
1070
     8
1002
}
  0
LEADER
  5
DA
330
B9
100
AcDbEntity
  8
SUNPOU
100
AcDbLeader
  3
STANDARD
 76
     3
 10
298.8790728049153
 20
282.9999977848383
 30
0.0
 10
424.4601063496466
 20
635.4571459657018
 30
0.0
 10
689.9144454045472
 20
635.4571459657018
 30
0.0
1001
ACAD
1000
DSTYLE
1002
{
1070
    78
1070
     8
1070
   284
1070
     8
1070
   140
1040
2.5
1070
   145
1040
1.0
1070
    74
1070
     0
1070
    73
1070
     0
1070
    40
1040
10.0
1070
   287
1070
     5
1070
    42
1040
2.0
1070
    44
1040
1.0
1070
    43
1040
7.0
1070
   141
1040
0.0
1070
   275
1070
     1
1070
    41
1040
2.0
1070
   285
1070
     8
1070
   286
1070
     8
1002
}
  0
LINE
  5
DB
330
B9
100
AcDbEntity
  8
HAIKIN
100
AcDbLine
 10
458.8790728049153
 20
248.9999977848381
 30
0.0
 11
838.8790728049153
 21
248.9999977848381
 31
0.0
  0
LINE
  5
DC
330
B9
100
AcDbEntity
  8
HAIKIN
100
AcDbLine
 10
227.8708607776939
 20
192.9999977848385
 30
0.0
 11
768.8790728049153
 21
192.9999977848385
 31
0.0
  0
LINE
  5
DD
330
B9
100
AcDbEntity
  8
HAIKIN
100
AcDbLine
 10
208.6527170171539
 20
252.9999977848381
 30
0.0
 11
698.8790728049153
 21
252.9999977848381
 31
0.0
  0
LINE
  5
DE
330
B9
100
AcDbEntity
  8
SUNPOU
100
AcDbLine
 10
378.8790728049153
 20
282.9999977848383
 30
0.0
 11
718.8790728049153
 21
282.9999977848383
 31
0.0
  0
LINE
  5
DF
330
B9
100
AcDbEntity
  8
HAIKIN
100
AcDbLine
 10
397.8740221710319
 20
184.0050484187216
 30
0.0
 11
199.8841234387987
 21
381.9949471509551
 31
0.0
  0
ARC
  5
E0
330
B9
100
AcDbEntity
  8
SUNPOU
100
AcDbCircle
 10
378.8790728049153
 20
362.9999977848383
 30
0.0
 40
80.0
100
AcDbArc
 50
180.0
 51
270.0
  0
ARC
  5
E1
330
B9
100
AcDbEntity
  8
HAIKIN
100
AcDbCircle
 10
227.8708607776939
 20
212.9999977848385
 30
0.0
 40
20.0
100
AcDbArc
 50
178.8746919035617
 51
270.0
  0
LWPOLYLINE
  5
E2
330
B9
100
AcDbEntity
  8
SUNPOU
100
AcDbPolyline
 90
        2
 70
     1
 43
2.95
 10
259.3540728049153
 20
200.9999977848386
 42
1.0
 10
262.4040728049152
 20
200.9999977848386
 42
1.0
  0
LWPOLYLINE
  5
E3
330
B9
100
AcDbEntity
  8
SUNPOU
100
AcDbPolyline
 90
        2
 70
     1
 43
2.95
 10
214.972117378513
 20
244.9999977848381
 42
1.0
 10
218.0221173785129
 20
244.9999977848381
 42
1.0
  0
LWPOLYLINE
  5
E4
330
B9
100
AcDbEntity
  8
SUNPOU
100
AcDbPolyline
 90
        2
 70
     1
 43
2.95
 10
259.3540728049153
 20
244.9999977848381
 42
1.0
 10
262.4040728049152
 20
244.9999977848381
 42
1.0
  0
POINT
  5
E5
330
B9
100
AcDbEntity
  8
TEN
100
AcDbPoint
 10
298.8790728049153
 20
282.9999977848383
 30
0.0
  0
LINE
  5
E6
330
B9
100
AcDbEntity
  8
HAIKIN
100
AcDbLine
 10
474.8790728049153
 20
262.9999977848383
 30
0.0
 11
474.8790728049153
 21
182.9999977848385
 31
0.0
  0
LWPOLYLINE
  5
E7
330
B9
100
AcDbEntity
  8
SUNPOU
100
AcDbPolyline
 90
        2
 70
     1
 43
2.95
 10
467.3540728049152
 20
200.9999977848385
 42
1.0
 10
470.4040728049154
 20
200.9999977848385
 42
1.0
  0
LWPOLYLINE
  5
E8
330
B9
100
AcDbEntity
  8
SUNPOU
100
AcDbPolyline
 90
        2
 70
     1
 43
2.95
 10
467.3540728049152
 20
244.9999977848383
 42
1.0
 10
470.4040728049154
 20
244.9999977848383
 42
1.0
  0
LWPOLYLINE
  5
E9
330
B9
100
AcDbEntity
  8
SUNPOU
100
AcDbPolyline
 90
        2
 70
     1
 43
2.95
 10
677.3540728049152
 20
200.9999977848385
 42
1.0
 10
680.4040728049154
 20
200.9999977848385
 42
1.0
  0
LWPOLYLINE
  5
EA
330
B9
100
AcDbEntity
  8
SUNPOU
100
AcDbPolyline
 90
        2
 70
     1
 43
2.95
 10
677.3540728049152
 20
244.9999977848383
 42
1.0
 10
680.4040728049154
 20
244.9999977848383
 42
1.0
  0
LINE
  5
EB
330
B9
100
AcDbEntity
  8
SUNPOU
100
AcDbLine
 10
718.8790728049153
 20
282.9999977848383
 30
0.0
 11
718.8790728049153
 21
222.9999977848385
 31
0.0
  0
LINE
  5
EC
330
B9
100
AcDbEntity
  8
SUNPOU
100
AcDbLine
 10
718.8790728049153
 20
222.9999977848385
 30
0.0
 11
798.8790728049153
 21
222.9999977848383
 31
0.0
  0
LINE
  5
ED
330
B9
100
AcDbEntity
  8
SUNPOU
100
AcDbLine
 10
798.8790728049153
 20
222.9999977848385
 30
0.0
 11
798.8790728049153
 21
162.9999977848383
 31
0.0
  0
CIRCLE
  5
EE
330
B9
100
AcDbEntity
  8
SUNPOU
100
AcDbCircle
 10
541.6878912985649
 20
655.1923364430108
 30
0.0
 40
19.81848743256705
  0
LWPOLYLINE
  5
EF
330
B9
100
AcDbEntity
  8
SUNPOU
100
AcDbPolyline
 90
        2
 70
     1
 43
2.95
 10
259.3540728049153
 20
507.9999977848383
 42
1.0
 10
262.4040728049152
 20
507.9999977848383
 42
1.0
  0
LWPOLYLINE
  5
F0
330
B9
100
AcDbEntity
  8
SUNPOU
100
AcDbPolyline
 90
        2
 70
     1
 43
2.95
 10
220.1381888070844
 20
507.9999977848383
 42
1.0
 10
223.1881888070843
 20
507.9999977848383
 42
1.0
  0
LINE
  5
F1
330
B9
100
AcDbEntity
  8
HAIKIN
100
AcDbLine
 10
208.5900737083125
 20
758.9999977848386
 30
0.0
 11
278.8790728049153
 21
758.9999977848386
 31
0.0
  0
CIRCLE
  5
F2
330
B9
100
AcDbEntity
  8
SUNPOU
100
AcDbCircle
 10
226.4756888070843
 20
752.9999977848386
 30
0.0
 40
9.252078666435409
  0
LWPOLYLINE
  5
F3
330
B9
100
AcDbEntity
  8
SUNPOU
100
AcDbPolyline
 90
        2
 70
     1
 43
2.95
 10
224.9506888070844
 20
752.9999977848383
 42
1.0
 10
228.0006888070843
 20
752.9999977848383
 42
1.0
  0
CIRCLE
  5
F4
330
B9
100
AcDbEntity
  8
SUNPOU
100
AcDbCircle
 10
260.8790728049153
 20
752.9999977848383
 30
0.0
 40
9.252078666435409
  0
LWPOLYLINE
  5
F5
330
B9
100
AcDbEntity
  8
SUNPOU
100
AcDbPolyline
 90
        2
 70
     1
 43
2.95
 10
259.3540728049153
 20
752.9999977848383
 42
1.0
 10
262.4040728049152
 20
752.9999977848383
 42
1.0
  0
TEXT
  5
F6
330
B9
100
AcDbEntity
  8
SUNPOU
100
AcDbText
 10
575.0837381635447
 20
642.4840412934614
 30
0.0
 40
25.0
  1
D10-11
100
AcDbText
  0
TEXT
  5
F7
330
B9
100
AcDbEntity
  8
SUNPOU
100
AcDbText
 10
532.8730096223753
 20
642.4840412934614
 30
0.0
 40
25.0
  1
5
100
AcDbText
  0
LEADER
  5
F8
330
B9
100
AcDbEntity
  8
SUNPOU
100
AcDbLeader
  3
STANDARD
 76
     2
 10
1440.067580811962
 20
507.9999977848388
 30
0.0
 10
1440.067580811962
 20
262.9999977848388
 30
0.0
1001
ACAD
1000
DSTYLE
1002
{
1070
    78
1070
     8
1070
   284
1070
     8
1070
   140
1040
2.5
1070
   145
1040
1.0
1070
    74
1070
     0
1070
    73
1070
     0
1070
    40
1040
10.0
1070
   287
1070
     5
1070
    42
1040
2.0
1070
    44
1040
1.0
1070
    43
1040
7.0
1070
   141
1040
0.0
1070
   275
1070
     1
1070
    41
1040
2.0
1070
   285
1070
     8
1070
   286
1070
     8
1002
}
  0
LEADER
  5
F9
330
B9
100
AcDbEntity
  8
SUNPOU
100
AcDbLeader
  3
STANDARD
 76
     3
 10
873.1205882131999
 20
196.9999977848383
 30
0.0
 10
873.1205882131999
 20
63.57780034866664
 30
0.0
 10
1153.335644594526
 20
63.57780034866664
 30
0.0
1001
ACAD
1000
DSTYLE
1002
{
1070
    78
1070
     8
1070
   284
1070
     8
1070
   140
1040
2.5
1070
   145
1040
1.0
1070
    74
1070
     0
1070
    73
1070
     0
1070
    40
1040
10.0
1070
   287
1070
     5
1070
    42
1040
2.0
1070
    44
1040
1.0
1070
    43
1040
7.0
1070
   141
1040
0.0
1070
   275
1070
     1
1070
    41
1040
2.0
1070
   285
1070
     8
1070
   286
1070
     8
1002
}
  0
CIRCLE
  5
FA
330
B9
100
AcDbEntity
  8
SUNPOU
100
AcDbCircle
 10
1005.109090488544
 20
83.3129908259757
 30
0.0
 40
19.81848743256705
  0
TEXT
  5
FB
330
B9
100
AcDbEntity
  8
SUNPOU
100
AcDbText
 10
996.2942088123546
 20
70.60469567642622
 30
0.0
 40
25.0
  1
9
100
AcDbText
  0
TEXT
  5
FC
330
B9
100
AcDbEntity
  8
SUNPOU
100
AcDbText
 10
1038.504937353524
 20
70.60469567642622
 30
0.0
 40
25.0
  1
D10-11
100
AcDbText
  0
CIRCLE
  5
FD
330
B9
100
AcDbEntity
  8
SUNPOU
100
AcDbCircle
 10
1007.062815760686
 20
370.286490924012
 30
0.0
 40
19.81848743256705
  0
TEXT
  5
FE
330
B9
100
AcDbEntity
  8
SUNPOU
100
AcDbText
 10
998.2479340844966
 20
357.5781957744625
 30
0.0
 40
25.0
  1
8
100
AcDbText
  0
TEXT
  5
FF
330
B9
100
AcDbEntity
  8
SUNPOU
100
AcDbText
 10
1040.458662625666
 20
357.5781957744625
 30
0.0
 40
25.0
  1
D10-11
100
AcDbText
  0
LEADER
  5
100
330
B9
100
AcDbEntity
  8
SUNPOU
100
AcDbLeader
  3
STANDARD
 76
     2
 10
1440.067580811962
 20
244.9999977848383
 30
0.0
 10
1440.067580811962
 20
-0.0000022151616577
 30
0.0
1001
ACAD
1000
DSTYLE
1002
{
1070
    78
1070
     8
1070
   284
1070
     8
1070
   140
1040
2.5
1070
   145
1040
1.0
1070
    74
1070
     0
1070
    73
1070
     0
1070
    40
1040
10.0
1070
   287
1070
     5
1070
    42
1040
2.0
1070
    44
1040
1.0
1070
    43
1040
7.0
1070
   141
1040
0.0
1070
   275
1070
     1
1070
    41
1040
2.0
1070
   285
1070
     8
1070
   286
1070
     8
1002
}
  0
LINE
  5
101
330
B9
100
AcDbEntity
  8
HAIKIN
100
AcDbLine
 10
1311.976822896288
 20
381.994947150955
 30
0.0
 11
1311.976822896288
 21
184.0050484187216
 31
0.0
  0
LWPOLYLINE
  5
102
330
B9
100
AcDbEntity
  8
SUNPOU
100
AcDbPolyline
 90
        2
 70
     1
 43
4.95
 10
1319.451822896287
 20
192.9999977848383
 42
1.0
 10
1324.501822896288
 20
192.9999977848383
 42
1.0
  0
LWPOLYLINE
  5
103
330
B9
100
AcDbEntity
  8
SUNPOU
100
AcDbPolyline
 90
        2
 70
     1
 43
4.95
 10
1319.451822896287
 20
252.999997784838
 42
1.0
 10
1324.501822896288
 20
252.999997784838
 42
1.0
  0
LINE
  5
104
330
B9
100
AcDbEntity
  8
HAIKIN
100
AcDbLine
 10
1503.976822896288
 20
381.994947150955
 30
0.0
 11
1503.976822896288
 21
184.0050484187216
 31
0.0
  0
LEADER
  5
105
330
B9
100
AcDbEntity
  8
SUNPOU
100
AcDbLeader
  3
STANDARD
 76
     2
 10
1440.067580811962
 20
752.9999977848388
 30
0.0
 10
1440.067580811962
 20
507.9999977848388
 30
0.0
1001
ACAD
1000
DSTYLE
1002
{
1070
    78
1070
     8
1070
   284
1070
     8
1070
   140
1040
2.5
1070
   145
1040
1.0
1070
    74
1070
     0
1070
    73
1070
     0
1070
    40
1040
10.0
1070
   287
1070
     5
1070
    42
1040
2.0
1070
    44
1040
1.0
1070
    43
1040
7.0
1070
   141
1040
0.0
1070
   275
1070
     1
1070
    41
1040
2.0
1070
   285
1070
     8
1070
   286
1070
     8
1002
}
  0
LEADER
  5
106
330
B9
100
AcDbEntity
  8
SUNPOU
100
AcDbLeader
  3
STANDARD
 76
     2
 10
268.8790728049153
 20
960.094388772236
 30
0.0
 10
603.3833909917175
 20
960.094388772236
 30
0.0
1001
ACAD
1000
DSTYLE
1002
{
1070
    78
1070
     8
1070
   284
1070
     8
1070
   140
1040
2.5
1070
   145
1040
1.0
1070
    74
1070
     0
1070
    73
1070
     0
1070
    40
1040
10.0
1070
   287
1070
     5
1070
    42
1040
2.0
1070
    44
1040
1.0
1070
    43
1040
7.0
1070
   141
1040
0.0
1070
   275
1070
     1
1070
    41
1040
2.0
1070
   285
1070
     8
1070
   286
1070
     8
1002
}
  0
LEADER
  5
107
330
B9
100
AcDbEntity
  8
SUNPOU
100
AcDbLeader
  3
STANDARD
 76
     2
 10
225.418026144049
 20
1106.506644244947
 30
0.0
 10
603.3833909917175
 20
1106.506644244947
 30
0.0
1001
ACAD
1000
DSTYLE
1002
{
1070
    78
1070
     8
1070
   284
1070
     8
1070
   140
1040
2.5
1070
   145
1040
1.0
1070
    74
1070
     0
1070
    73
1070
     0
1070
    40
1040
10.0
1070
   287
1070
     5
1070
    42
1040
2.0
1070
    44
1040
1.0
1070
    43
1040
7.0
1070
   141
1040
0.0
1070
   275
1070
     1
1070
    41
1040
2.0
1070
   285
1070
     8
1070
   286
1070
     8
1002
}
  0
TEXT
  5
108
330
B9
100
AcDbEntity
  8
SUNPOU
100
AcDbText
 10
490.3386072552476
 20
880.0804756740913
 30
0.0
 40
25.0
  1
D6-15
100
AcDbText
  0
TEXT
  5
109
330
B9
100
AcDbEntity
  8
SUNPOU
100
AcDbText
 10
488.552683750715
 20
967.1212840999956
 30
0.0
 40
25.0
  1
D10-11
100
AcDbText
  0
TEXT
  5
10A
330
B9
100
AcDbEntity
  8
SUNPOU
100
AcDbText
 10
488.552683750715
 20
1113.533539572707
 30
0.0
 40
25.0
  1
D10-11
100
AcDbText
  0
LWPOLYLINE
  5
10B
330
B9
100
AcDbEntity
  8
SUNPOU
100
AcDbPolyline
 90
        2
 70
     1
 43
2.95
 10
229.7631888070844
 20
997.9999977848383
 42
1.0
 10
232.8131888070843
 20
997.9999977848383
 42
1.0
  0
LWPOLYLINE
  5
10C
330
B9
100
AcDbEntity
  8
SUNPOU
100
AcDbPolyline
 90
        2
 70
     1
 43
2.95
 10
259.3540728049152
 20
997.9999977848383
 42
1.0
 10
262.4040728049151
 20
997.9999977848383
 42
1.0
  0
CIRCLE
  5
10D
330
B9
100
AcDbEntity
  8
SUNPOU
100
AcDbCircle
 10
455.1568368857352
 20
979.8295792495451
 30
0.0
 40
19.81848743256705
  0
TEXT
  5
10E
330
B9
100
AcDbEntity
  8
SUNPOU
100
AcDbText
 10
446.3419552095456
 20
967.1212840999956
 30
0.0
 40
25.0
  1
3
100
AcDbText
  0
CIRCLE
  5
10F
330
B9
100
AcDbEntity
  8
SUNPOU
100
AcDbCircle
 10
456.9427603902677
 20
892.7887708236408
 30
0.0
 40
19.81848743256705
  0
TEXT
  5
110
330
B9
100
AcDbEntity
  8
SUNPOU
100
AcDbText
 10
448.1278787140782
 20
880.0804756740913
 30
0.0
 40
25.0
  1
6
100
AcDbText
  0
LINE
  5
111
330
B9
100
AcDbEntity
  8
SUNPOU
100
AcDbLine
 10
198.8790728049153
 20
1282.999997784838
 30
0.0
 11
298.8790728049153
 21
1282.999997784838
 31
0.0
  0
LINE
  5
112
330
B9
100
AcDbEntity
  8
HAIKIN
100
AcDbLine
 10
218.2150737083125
 20
1248.999997784838
 30
0.0
 11
278.8790728049153
 21
1248.999997784838
 31
0.0
  0
LWPOLYLINE
  5
113
330
B9
100
AcDbEntity
  8
SUNPOU
100
AcDbPolyline
 90
        2
 70
     1
 43
2.95
 10
234.5756888070845
 20
1242.999997784838
 42
1.0
 10
237.6256888070844
 20
1242.999997784838
 42
1.0
  0
LWPOLYLINE
  5
114
330
B9
100
AcDbEntity
  8
SUNPOU
100
AcDbPolyline
 90
        2
 70
     1
 43
2.95
 10
259.3540728049152
 20
1242.999997784838
 42
1.0
 10
262.4040728049151
 20
1242.999997784838
 42
1.0
  0
CIRCLE
  5
115
330
B9
100
AcDbEntity
  8
SUNPOU
100
AcDbCircle
 10
455.1568368857352
 20
1126.241834722256
 30
0.0
 40
19.81848743256705
  0
TEXT
  5
116
330
B9
100
AcDbEntity
  8
SUNPOU
100
AcDbText
 10
450.7365677188227
 20
1113.533539572707
 30
0.0
 40
25.0
  1
1
100
AcDbText
  0
LEADER
  5
117
330
B9
100
AcDbEntity
  8
SUNPOU
100
AcDbLeader
  3
STANDARD
 76
     2
 10
1321.976822896288
 20
1106.506644244947
 30
0.0
 10
1129.976822896288
 20
1106.506644244947
 30
0.0
1001
ACAD
1000
DSTYLE
1002
{
1070
    78
1070
     8
1070
   284
1070
     8
1070
   140
1040
2.5
1070
   145
1040
1.0
1070
    74
1070
     0
1070
    73
1070
     0
1070
    40
1040
10.0
1070
   287
1070
     5
1070
    42
1040
2.0
1070
    44
1040
1.0
1070
    43
1040
7.0
1070
   141
1040
0.0
1070
   275
1070
     1
1070
    41
1040
2.0
1070
   285
1070
     8
1070
   286
1070
     8
1002
}
  0
TEXT
  5
118
330
B9
100
AcDbEntity
  8
SUNPOU
100
AcDbText
 10
1082.483818494316
 20
1113.533539572706
 30
0.0
 40
25.0
  1
D10-11
100
AcDbText
  0
CIRCLE
  5
119
330
B9
100
AcDbEntity
  8
SUNPOU
100
AcDbCircle
 10
1031.923757540886
 20
1126.241834722256
 30
0.0
 40
19.81848743256705
  0
CIRCLE
  5
11A
330
B9
100
AcDbEntity
  8
SUNPOU
100
AcDbCircle
 10
977.5826870844558
 20
1126.241834722256
 30
0.0
 40
19.81848743256705
  0
TEXT
  5
11B
330
B9
100
AcDbEntity
  8
SUNPOU
100
AcDbText
 10
973.1624179175433
 20
1113.533539572706
 30
0.0
 40
25.0
  1
1
100
AcDbText
  0
TEXT
  5
11C
330
B9
100
AcDbEntity
  8
SUNPOU
100
AcDbText
 10
1024.946269986913
 20
1113.533539572706
 30
0.0
 40
25.0
  1
3
100
AcDbText
  0
LINE
  5
11D
330
B9
100
AcDbEntity
  8
HAIKIN
100
AcDbLine
 10
2281.976822896288
 20
1262.999997784838
 30
0.0
 11
2281.976822896289
 21
192.9999977848383
 31
0.0
  0
LINE
  5
11E
330
B9
100
AcDbEntity
  8
HAIKIN
100
AcDbLine
 10
2089.976822896288
 20
1262.999997784839
 30
0.0
 11
2089.976822896288
 21
192.9999977848383
 31
0.0
  0
LINE
  5
11F
330
B9
100
AcDbEntity
  8
HAIKIN
100
AcDbLine
 10
1897.976822896288
 20
1262.999997784839
 30
0.0
 11
1897.976822896288
 21
192.9999977848383
 31
0.0
  0
LINE
  5
120
330
B9
100
AcDbEntity
  8
HAIKIN
100
AcDbLine
 10
1705.976822896288
 20
1262.999997784839
 30
0.0
 11
1705.976822896288
 21
192.9999977848383
 31
0.0
  0
LINE
  5
121
330
B9
100
AcDbEntity
  8
HAIKIN
100
AcDbLine
 10
1513.976822896288
 20
1262.999997784839
 30
0.0
 11
1513.976822896288
 21
192.9999977848383
 31
0.0
  0
LINE
  5
122
330
B9
100
AcDbEntity
  8
SEIHIN
100
AcDbLine
 10
3281.976822896288
 20
1282.999997784838
 30
0.0
 11
3281.976822896288
 21
162.9999977848383
 31
0.0
  0
LEADER
  5
123
330
B9
100
AcDbEntity
  8
SUNPOU
100
AcDbLeader
  3
STANDARD
 76
     2
 10
1887.976822896288
 20
309.0026842404862
 30
0.0
 10
2079.976822896288
 20
309.0026842404862
 30
0.0
1001
ACAD
1000
DSTYLE
1002
{
1070
    78
1070
     8
1070
   284
1070
     8
1070
   140
1040
2.5
1070
   145
1040
1.0
1070
    74
1070
     0
1070
    73
1070
     0
1070
    40
1040
10.0
1070
   287
1070
     5
1070
    42
1040
2.0
1070
    44
1040
1.0
1070
    43
1040
7.0
1070
   141
1040
0.0
1070
   275
1070
     1
1070
    41
1040
2.0
1070
   285
1070
     8
1070
   286
1070
     8
1002
}
  0
LEADER
  5
124
330
B9
100
AcDbEntity
  8
SUNPOU
100
AcDbLeader
  3
STANDARD
 76
     2
 10
1695.976822896288
 20
309.0026842404862
 30
0.0
 10
1887.976822896288
 20
309.0026842404862
 30
0.0
1001
ACAD
1000
DSTYLE
1002
{
1070
    78
1070
     8
1070
   284
1070
     8
1070
   140
1040
2.5
1070
   145
1040
1.0
1070
    74
1070
     0
1070
    73
1070
     0
1070
    40
1040
10.0
1070
   287
1070
     5
1070
    42
1040
2.0
1070
    44
1040
1.0
1070
    43
1040
7.0
1070
   141
1040
0.0
1070
   275
1070
     1
1070
    41
1040
2.0
1070
   285
1070
     8
1070
   286
1070
     8
1002
}
  0
LINE
  5
125
330
B9
100
AcDbEntity
  8
SEIHIN
100
AcDbLine
 10
2281.976822896287
 20
282.9999977848383
 30
0.0
 11
3281.976822896288
 21
282.9999977848383
 31
0.0
  0
LINE
  5
126
330
B9
100
AcDbEntity
  8
SEIHIN
100
AcDbLine
 10
2281.976822896287
 20
222.9999977848383
 30
0.0
 11
3281.976822896288
 21
222.9999977848383
 31
0.0
  0
LINE
  5
127
330
B9
100
AcDbEntity
  8
SEIHIN
100
AcDbLine
 10
2281.976822896287
 20
162.9999977848383
 30
0.0
 11
3281.976822896288
 21
162.9999977848383
 31
0.0
  0
LEADER
  5
128
330
B9
100
AcDbEntity
  8
SUNPOU
100
AcDbLeader
  3
STANDARD
 76
     2
 10
2271.976822896289
 20
309.0026842404856
 30
0.0
 10
2079.976822896289
 20
309.0026842404856
 30
0.0
1001
ACAD
1000
DSTYLE
1002
{
1070
    78
1070
     8
1070
   284
1070
     8
1070
   140
1040
2.5
1070
   145
1040
1.0
1070
    74
1070
     0
1070
    73
1070
     0
1070
    40
1040
10.0
1070
   287
1070
     5
1070
    42
1040
2.0
1070
    44
1040
1.0
1070
    43
1040
7.0
1070
   141
1040
0.0
1070
   275
1070
     1
1070
    41
1040
2.0
1070
   285
1070
     8
1070
   286
1070
     8
1002
}
  0
LINE
  5
129
330
B9
100
AcDbEntity
  8
HAIKIN
100
AcDbLine
 10
1695.976822896288
 20
381.994947150955
 30
0.0
 11
1695.976822896288
 21
184.0050484187216
 31
0.0
  0
LWPOLYLINE
  5
12A
330
B9
100
AcDbEntity
  8
SUNPOU
100
AcDbPolyline
 90
        2
 70
     1
 43
4.95
 10
1703.451822896287
 20
192.9999977848383
 42
1.0
 10
1708.501822896288
 20
192.9999977848383
 42
1.0
  0
LWPOLYLINE
  5
12B
330
B9
100
AcDbEntity
  8
SUNPOU
100
AcDbPolyline
 90
        2
 70
     1
 43
4.95
 10
1703.451822896287
 20
252.999997784838
 42
1.0
 10
1708.501822896288
 20
252.999997784838
 42
1.0
  0
LEADER
  5
12C
330
B9
100
AcDbEntity
  8
SUNPOU
100
AcDbLeader
  3
STANDARD
 76
     2
 10
2079.976822896288
 20
309.0026842404858
 30
0.0
 10
1887.976822896288
 20
309.0026842404858
 30
0.0
1001
ACAD
1000
DSTYLE
1002
{
1070
    78
1070
     8
1070
   284
1070
     8
1070
   140
1040
2.5
1070
   145
1040
1.0
1070
    74
1070
     0
1070
    73
1070
     0
1070
    40
1040
10.0
1070
   287
1070
     5
1070
    42
1040
2.0
1070
    44
1040
1.0
1070
    43
1040
7.0
1070
   141
1040
0.0
1070
   275
1070
     1
1070
    41
1040
2.0
1070
   285
1070
     8
1070
   286
1070
     8
1002
}
  0
LINE
  5
12D
330
B9
100
AcDbEntity
  8
HAIKIN
100
AcDbLine
 10
1887.976822896288
 20
381.994947150955
 30
0.0
 11
1887.976822896288
 21
184.0050484187216
 31
0.0
  0
LWPOLYLINE
  5
12E
330
B9
100
AcDbEntity
  8
SUNPOU
100
AcDbPolyline
 90
        2
 70
     1
 43
4.95
 10
1895.451822896287
 20
192.9999977848383
 42
1.0
 10
1900.501822896288
 20
192.9999977848383
 42
1.0
  0
LWPOLYLINE
  5
12F
330
B9
100
AcDbEntity
  8
SUNPOU
100
AcDbPolyline
 90
        2
 70
     1
 43
4.95
 10
1895.451822896287
 20
252.999997784838
 42
1.0
 10
1900.501822896288
 20
252.999997784838
 42
1.0
  0
LINE
  5
130
330
B9
100
AcDbEntity
  8
HAIKIN
100
AcDbLine
 10
2079.976822896288
 20
381.994947150955
 30
0.0
 11
2079.976822896288
 21
184.0050484187216
 31
0.0
  0
LWPOLYLINE
  5
131
330
B9
100
AcDbEntity
  8
SUNPOU
100
AcDbPolyline
 90
        2
 70
     1
 43
4.95
 10
2087.451822896287
 20
192.9999977848383
 42
1.0
 10
2092.501822896288
 20
192.9999977848383
 42
1.0
  0
LWPOLYLINE
  5
132
330
B9
100
AcDbEntity
  8
SUNPOU
100
AcDbPolyline
 90
        2
 70
     1
 43
4.95
 10
2087.451822896287
 20
252.999997784838
 42
1.0
 10
2092.501822896288
 20
252.999997784838
 42
1.0
  0
LINE
  5
133
330
B9
100
AcDbEntity
  8
1HASEN
100
AcDbLine
 10
2281.976822896288
 20
162.9999977848383
 30
0.0
 11
2281.976822896288
 21
62.99999778483834
 31
0.0
  0
LINE
  5
134
330
B9
100
AcDbEntity
  8
HAIKIN
100
AcDbLine
 10
2271.976822896288
 20
381.994947150955
 30
0.0
 11
2271.976822896288
 21
184.0050484187216
 31
0.0
  0
LWPOLYLINE
  5
135
330
B9
100
AcDbEntity
  8
SUNPOU
100
AcDbPolyline
 90
        2
 70
     1
 43
4.95
 10
2279.451822896287
 20
192.9999977848383
 42
1.0
 10
2284.501822896288
 20
192.9999977848383
 42
1.0
  0
LWPOLYLINE
  5
136
330
B9
100
AcDbEntity
  8
SUNPOU
100
AcDbPolyline
 90
        2
 70
     1
 43
4.95
 10
2279.451822896287
 20
252.999997784838
 42
1.0
 10
2284.501822896288
 20
252.999997784838
 42
1.0
  0
LWPOLYLINE
  5
137
330
B9
100
AcDbEntity
  8
SUNPOU
100
AcDbPolyline
 90
        2
 70
     1
 43
4.95
 10
2476.501822896288
 20
192.9999977848399
 42
-1.0
 10
2471.451822896288
 20
192.9999977848399
 42
-1.0
  0
LWPOLYLINE
  5
138
330
B9
100
AcDbEntity
  8
SUNPOU
100
AcDbPolyline
 90
        2
 70
     1
 43
4.95
 10
2476.501822896288
 20
252.9999977848396
 42
-1.0
 10
2471.451822896287
 20
252.9999977848396
 42
-1.0
  0
LWPOLYLINE
  5
139
330
B9
100
AcDbEntity
  8
SUNPOU
100
AcDbPolyline
 90
        2
 70
     1
 43
4.95
 10
2668.501822896288
 20
192.9999977848415
 42
-1.0
 10
2663.451822896288
 20
192.9999977848415
 42
-1.0
  0
LWPOLYLINE
  5
13A
330
B9
100
AcDbEntity
  8
SUNPOU
100
AcDbPolyline
 90
        2
 70
     1
 43
4.95
 10
2668.501822896288
 20
252.9999977848412
 42
-1.0
 10
2663.451822896287
 20
252.9999977848412
 42
-1.0
  0
LWPOLYLINE
  5
13B
330
B9
100
AcDbEntity
  8
SUNPOU
100
AcDbPolyline
 90
        2
 70
     1
 43
4.95
 10
2860.501822896288
 20
192.9999977848431
 42
-1.0
 10
2855.451822896288
 20
192.9999977848431
 42
-1.0
  0
LWPOLYLINE
  5
13C
330
B9
100
AcDbEntity
  8
SUNPOU
100
AcDbPolyline
 90
        2
 70
     1
 43
4.95
 10
2860.501822896288
 20
252.9999977848428
 42
-1.0
 10
2855.451822896287
 20
252.9999977848428
 42
-1.0
  0
LWPOLYLINE
  5
13D
330
B9
100
AcDbEntity
  8
SUNPOU
100
AcDbPolyline
 90
        2
 70
     1
 43
4.95
 10
3052.501822896288
 20
192.9999977848447
 42
-1.0
 10
3047.451822896288
 20
192.9999977848447
 42
-1.0
  0
LWPOLYLINE
  5
13E
330
B9
100
AcDbEntity
  8
SUNPOU
100
AcDbPolyline
 90
        2
 70
     1
 43
4.95
 10
3052.501822896288
 20
252.9999977848444
 42
-1.0
 10
3047.451822896287
 20
252.9999977848444
 42
-1.0
  0
LWPOLYLINE
  5
13F
330
B9
100
AcDbEntity
  8
SUNPOU
100
AcDbPolyline
 90
        2
 70
     1
 43
4.95
 10
3244.501822896288
 20
192.9999977848463
 42
-1.0
 10
3239.451822896288
 20
192.9999977848463
 42
-1.0
  0
LWPOLYLINE
  5
140
330
B9
100
AcDbEntity
  8
SUNPOU
100
AcDbPolyline
 90
        2
 70
     1
 43
4.95
 10
3244.501822896288
 20
252.999997784846
 42
-1.0
 10
3239.451822896287
 20
252.999997784846
 42
-1.0
  0
LINE
  5
141
330
B9
100
AcDbEntity
  8
SEIHIN
100
AcDbLine
 10
2281.976822896288
 20
1282.999997784838
 30
0.0
 11
3281.976822896288
 21
1282.999997784838
 31
0.0
  0
LEADER
  5
142
330
B9
100
AcDbEntity
  8
SUNPOU
100
AcDbLeader
  3
STANDARD
 76
     2
 10
2281.976822896288
 20
1106.506644244946
 30
0.0
 10
2089.976822896288
 20
1106.506644244946
 30
0.0
1001
ACAD
1000
DSTYLE
1002
{
1070
    78
1070
     8
1070
   284
1070
     8
1070
   140
1040
2.5
1070
   145
1040
1.0
1070
    74
1070
     0
1070
    73
1070
     0
1070
    40
1040
10.0
1070
   287
1070
     5
1070
    42
1040
2.0
1070
    44
1040
1.0
1070
    43
1040
7.0
1070
   141
1040
0.0
1070
   275
1070
     1
1070
    41
1040
2.0
1070
   285
1070
     8
1070
   286
1070
     8
1002
}
  0
LEADER
  5
143
330
B9
100
AcDbEntity
  8
SUNPOU
100
AcDbLeader
  3
STANDARD
 76
     2
 10
1897.976822896288
 20
1106.506644244947
 30
0.0
 10
1705.976822896288
 20
1106.506644244947
 30
0.0
1001
ACAD
1000
DSTYLE
1002
{
1070
    78
1070
     8
1070
   284
1070
     8
1070
   140
1040
2.5
1070
   145
1040
1.0
1070
    74
1070
     0
1070
    73
1070
     0
1070
    40
1040
10.0
1070
   287
1070
     5
1070
    42
1040
2.0
1070
    44
1040
1.0
1070
    43
1040
7.0
1070
   141
1040
0.0
1070
   275
1070
     1
1070
    41
1040
2.0
1070
   285
1070
     8
1070
   286
1070
     8
1002
}
  0
LEADER
  5
144
330
B9
100
AcDbEntity
  8
SUNPOU
100
AcDbLeader
  3
STANDARD
 76
     2
 10
1705.976822896288
 20
1106.506644244947
 30
0.0
 10
1513.976822896288
 20
1106.506644244947
 30
0.0
1001
ACAD
1000
DSTYLE
1002
{
1070
    78
1070
     8
1070
   284
1070
     8
1070
   140
1040
2.5
1070
   145
1040
1.0
1070
    74
1070
     0
1070
    73
1070
     0
1070
    40
1040
10.0
1070
   287
1070
     5
1070
    42
1040
2.0
1070
    44
1040
1.0
1070
    43
1040
7.0
1070
   141
1040
0.0
1070
   275
1070
     1
1070
    41
1040
2.0
1070
   285
1070
     8
1070
   286
1070
     8
1002
}
  0
LEADER
  5
145
330
B9
100
AcDbEntity
  8
SUNPOU
100
AcDbLeader
  3
STANDARD
 76
     2
 10
2089.976822896288
 20
1106.506644244947
 30
0.0
 10
1897.976822896288
 20
1106.506644244947
 30
0.0
1001
ACAD
1000
DSTYLE
1002
{
1070
    78
1070
     8
1070
   284
1070
     8
1070
   140
1040
2.5
1070
   145
1040
1.0
1070
    74
1070
     0
1070
    73
1070
     0
1070
    40
1040
10.0
1070
   287
1070
     5
1070
    42
1040
2.0
1070
    44
1040
1.0
1070
    43
1040
7.0
1070
   141
1040
0.0
1070
   275
1070
     1
1070
    41
1040
2.0
1070
   285
1070
     8
1070
   286
1070
     8
1002
}
  0
LINE
  5
146
330
B9
100
AcDbEntity
  8
1HASEN
100
AcDbLine
 10
2281.976822896288
 20
1382.999997784839
 30
0.0
 11
2281.976822896288
 21
1282.999997784838
 31
0.0
  0
ENDBLK
  5
148
330
B9
100
AcDbEntity
  8
0
100
AcDbBlockEnd
  0
BLOCK
  5
2B8
330
2B7
100
AcDbEntity
  8
0
100
AcDbBlockBegin
  2
*D8
 70
     1
 10
0.0
 20
0.0
 30
0.0
  3
*D8
  1

  0
LINE
  5
1739
330
2B7
100
AcDbEntity
  8
SUNPOU
 62
     0
440
 16777216
370
    -2
100
AcDbLine
 10
2656.680029666621
 20
2909.079370884768
 30
0.0
 11
2625.195488624785
 21
2884.40704478071
 31
0.0
  0
MTEXT
  5
173A
330
2B7
100
AcDbEntity
  8
SUNPOU
 62
     0
440
 16777216
100
AcDbMText
 10
2733.313877674053
 20
2984.388655838344
 30
0.0
 40
50.0
 41
0.0
 71
     5
 72
     1
  1
\A1;R80
 11
0.7871135260458888
 21
0.6168081526014455
 31
0.0
 73
     1
 44
1.0
  0
SOLID
  5
173B
330
2B7
100
AcDbEntity
  8
SUNPOU
 62
     0
440
 16777216
100
AcDbTrace
 10
2621.083434274108
 20
2889.654468287682
 30
0.0
 11
2629.307542975461
 21
2879.159621273737
 31
0.0
 12
2593.710947582949
 22
2859.734718676652
 32
0.0
 13
2593.710947582949
 23
2859.734718676652
 33
0.0
  0
POINT
  5
173C
330
2B7
100
AcDbEntity
  8
DEFPOINTS
 62
     0
440
 16777216
100
AcDbPoint
 10
2593.710947582949
 20
2859.734718676652
 30
0.0
  0
POINT
  5
173D
330
2B7
100
AcDbEntity
  8
DEFPOINTS
 62
     0
440
 16777216
100
AcDbPoint
 10
2656.680029666621
 20
2909.079370884768
 30
0.0
  0
ENDBLK
  5
2BE
330
2B7
100
AcDbEntity
  8
0
100
AcDbBlockEnd
  0
BLOCK
  5
57B
330
57A
100
AcDbEntity
  8
0
100
AcDbBlockBegin
  2
*D9
 70
     1
 10
0.0
 20
0.0
 30
0.0
  3
*D9
  1

  0
LINE
  5
17F5
330
57A
100
AcDbEntity
  8
SUNPOU
 62
     0
440
 16777216
370
    -2
100
AcDbLine
 10
4667.48632149221
 20
4069.079370884769
 30
0.0
 11
4667.48632149221
 21
4536.486721376255
 31
0.0
  0
LINE
  5
17F6
330
57A
100
AcDbEntity
  8
SUNPOU
 62
     0
440
 16777216
370
    -2
100
AcDbLine
 10
6667.48632149221
 20
4069.079370884769
 30
0.0
 11
6667.48632149221
 21
4536.486721376255
 31
0.0
  0
LINE
  5
17F7
330
57A
100
AcDbEntity
  8
SUNPOU
 62
     0
440
 16777216
370
    -2
100
AcDbLine
 10
4707.48632149221
 20
4526.486721376255
 30
0.0
 11
6627.48632149221
 21
4526.486721376255
 31
0.0
  0
SOLID
  5
17F8
330
57A
100
AcDbEntity
  8
SUNPOU
 62
     0
440
 16777216
100
AcDbTrace
 10
4707.48632149221
 20
4533.153388042922
 30
0.0
 11
4707.48632149221
 21
4519.820054709588
 31
0.0
 12
4667.48632149221
 22
4526.486721376255
 32
0.0
 13
4667.48632149221
 23
4526.486721376255
 33
0.0
  0
SOLID
  5
17F9
330
57A
100
AcDbEntity
  8
SUNPOU
 62
     0
440
 16777216
100
AcDbTrace
 10
6627.48632149221
 20
4533.153388042922
 30
0.0
 11
6627.48632149221
 21
4519.820054709588
 31
0.0
 12
6667.48632149221
 22
4526.486721376255
 32
0.0
 13
6667.48632149221
 23
4526.486721376255
 33
0.0
  0
MTEXT
  5
17FA
330
57A
100
AcDbEntity
  8
SUNPOU
 62
     0
440
 16777216
100
AcDbMText
 10
5667.48632149221
 20
4565.486721376255
 30
0.0
 40
50.0
 41
0.0
 71
     5
 72
     1
  1
\A1;2000
 73
     1
 44
1.0
  0
POINT
  5
17FB
330
57A
100
AcDbEntity
  8
DEFPOINTS
 62
     0
440
 16777216
100
AcDbPoint
 10
4667.48632149221
 20
4029.079370884769
 30
0.0
  0
POINT
  5
17FC
330
57A
100
AcDbEntity
  8
DEFPOINTS
 62
     0
440
 16777216
100
AcDbPoint
 10
6667.48632149221
 20
4029.079370884769
 30
0.0
  0
POINT
  5
17FD
330
57A
100
AcDbEntity
  8
DEFPOINTS
 62
     0
440
 16777216
100
AcDbPoint
 10
6667.48632149221
 20
4526.486721376255
 30
0.0
  0
ENDBLK
  5
585
330
57A
100
AcDbEntity
  8
0
100
AcDbBlockEnd
  0
BLOCK
  5
AB1
330
5E3
100
AcDbEntity
  8
0
100
AcDbBlockBegin
  2
*D13
 70
     1
 10
0.0
 20
0.0
 30
0.0
  3
*D13
  1

  0
LINE
  5
17DA
330
5E3
100
AcDbEntity
  8
SUNPOU
 62
     0
440
 16777216
370
    -2
100
AcDbLine
 10
6707.48632149221
 20
2689.079370884769
 30
0.0
 11
7084.559896806531
 21
2689.079370884769
 31
0.0
  0
LINE
  5
17DB
330
5E3
100
AcDbEntity
  8
SUNPOU
 62
     0
440
 16777216
370
    -2
100
AcDbLine
 10
6699.98632149221
 20
2829.079370884768
 30
0.0
 11
7084.559896806531
 21
2829.079370884768
 31
0.0
  0
LINE
  5
17DC
330
5E3
100
AcDbEntity
  8
SUNPOU
 62
     0
440
 16777216
370
    -2
100
AcDbLine
 10
7074.559896806531
 20
2729.079370884769
 30
0.0
 11
7074.559896806531
 21
2789.079370884768
 31
0.0
  0
SOLID
  5
17DD
330
5E3
100
AcDbEntity
  8
SUNPOU
 62
     0
440
 16777216
100
AcDbTrace
 10
7067.893230139864
 20
2729.079370884769
 30
0.0
 11
7081.226563473198
 21
2729.079370884769
 31
0.0
 12
7074.559896806531
 22
2689.079370884769
 32
0.0
 13
7074.559896806531
 23
2689.079370884769
 33
0.0
  0
SOLID
  5
17DE
330
5E3
100
AcDbEntity
  8
SUNPOU
 62
     0
440
 16777216
100
AcDbTrace
 10
7067.893230139864
 20
2789.079370884768
 30
0.0
 11
7081.226563473198
 21
2789.079370884768
 31
0.0
 12
7074.559896806531
 22
2829.079370884768
 32
0.0
 13
7074.559896806531
 23
2829.079370884768
 33
0.0
  0
MTEXT
  5
17DF
330
5E3
100
AcDbEntity
  8
SUNPOU
 62
     0
440
 16777216
100
AcDbMText
 10
7035.559896806531
 20
2759.079370884769
 30
0.0
 40
50.0
 41
0.0
 71
     5
 72
     1
  1
\A1;140
 11
6.123031769111886E-17
 21
1.0
 31
0.0
 73
     1
 44
1.0
  0
POINT
  5
17E0
330
5E3
100
AcDbEntity
  8
DEFPOINTS
 62
     0
440
 16777216
100
AcDbPoint
 10
6667.48632149221
 20
2689.079370884769
 30
0.0
  0
POINT
  5
17E1
330
5E3
100
AcDbEntity
  8
DEFPOINTS
 62
     0
440
 16777216
100
AcDbPoint
 10
6659.98632149221
 20
2829.079370884768
 30
0.0
  0
POINT
  5
17E2
330
5E3
100
AcDbEntity
  8
DEFPOINTS
 62
     0
440
 16777216
100
AcDbPoint
 10
7074.559896806531
 20
2829.079370884768
 30
0.0
  0
ENDBLK
  5
ABB
330
5E3
100
AcDbEntity
  8
0
100
AcDbBlockEnd
  0
BLOCK
  5
B0C
330
5F0
100
AcDbEntity
  8
0
100
AcDbBlockBegin
  2
*D14
 70
     1
 10
0.0
 20
0.0
 30
0.0
  3
*D14
  1

  0
LINE
  5
17E3
330
5F0
100
AcDbEntity
  8
SUNPOU
 62
     0
440
 16777216
370
    -2
100
AcDbLine
 10
6707.48632149221
 20
4029.079370884769
 30
0.0
 11
7084.559896806531
 21
4029.079370884769
 31
0.0
  0
LINE
  5
17E4
330
5F0
100
AcDbEntity
  8
SUNPOU
 62
     0
440
 16777216
370
    -2
100
AcDbLine
 10
6699.98632149221
 20
2829.079370884768
 30
0.0
 11
7084.559896806531
 21
2829.079370884768
 31
0.0
  0
LINE
  5
17E5
330
5F0
100
AcDbEntity
  8
SUNPOU
 62
     0
440
 16777216
370
    -2
100
AcDbLine
 10
7074.559896806531
 20
3989.079370884769
 30
0.0
 11
7074.559896806531
 21
2869.079370884768
 31
0.0
  0
SOLID
  5
17E6
330
5F0
100
AcDbEntity
  8
SUNPOU
 62
     0
440
 16777216
100
AcDbTrace
 10
7067.893230139864
 20
3989.079370884769
 30
0.0
 11
7081.226563473198
 21
3989.079370884769
 31
0.0
 12
7074.559896806531
 22
4029.079370884769
 32
0.0
 13
7074.559896806531
 23
4029.079370884769
 33
0.0
  0
SOLID
  5
17E7
330
5F0
100
AcDbEntity
  8
SUNPOU
 62
     0
440
 16777216
100
AcDbTrace
 10
7067.893230139864
 20
2869.079370884768
 30
0.0
 11
7081.226563473198
 21
2869.079370884768
 31
0.0
 12
7074.559896806531
 22
2829.079370884768
 32
0.0
 13
7074.559896806531
 23
2829.079370884768
 33
0.0
  0
MTEXT
  5
17E8
330
5F0
100
AcDbEntity
  8
SUNPOU
 62
     0
440
 16777216
100
AcDbMText
 10
7035.559896806531
 20
3429.079370884769
 30
0.0
 40
50.0
 41
0.0
 71
     5
 72
     1
  1
\A1;1200
 11
6.123031769111886E-17
 21
1.0
 31
0.0
 73
     1
 44
1.0
  0
POINT
  5
17E9
330
5F0
100
AcDbEntity
  8
DEFPOINTS
 62
     0
440
 16777216
100
AcDbPoint
 10
6667.48632149221
 20
4029.079370884769
 30
0.0
  0
POINT
  5
17EA
330
5F0
100
AcDbEntity
  8
DEFPOINTS
 62
     0
440
 16777216
100
AcDbPoint
 10
6659.98632149221
 20
2829.079370884768
 30
0.0
  0
POINT
  5
17EB
330
5F0
100
AcDbEntity
  8
DEFPOINTS
 62
     0
440
 16777216
100
AcDbPoint
 10
7074.559896806531
 20
2829.079370884768
 30
0.0
  0
ENDBLK
  5
B16
330
5F0
100
AcDbEntity
  8
0
100
AcDbBlockEnd
  0
BLOCK
  5
B01
330
5FD
100
AcDbEntity
  8
0
100
AcDbBlockBegin
  2
*D15
 70
     1
 10
0.0
 20
0.0
 30
0.0
  3
*D15
  1

  0
LINE
  5
17EC
330
5FD
100
AcDbEntity
  8
SUNPOU
 62
     0
440
 16777216
370
    -2
100
AcDbLine
 10
6707.48632149221
 20
4029.079370884769
 30
0.0
 11
7213.149662843658
 21
4029.079370884768
 31
0.0
  0
LINE
  5
17ED
330
5FD
100
AcDbEntity
  8
SUNPOU
 62
     0
440
 16777216
370
    -2
100
AcDbLine
 10
6707.48632149221
 20
2689.079370884769
 30
0.0
 11
7213.149662843658
 21
2689.079370884768
 31
0.0
  0
LINE
  5
17EE
330
5FD
100
AcDbEntity
  8
SUNPOU
 62
     0
440
 16777216
370
    -2
100
AcDbLine
 10
7203.149662843658
 20
3989.079370884768
 30
0.0
 11
7203.149662843658
 21
2729.079370884768
 31
0.0
  0
SOLID
  5
17EF
330
5FD
100
AcDbEntity
  8
SUNPOU
 62
     0
440
 16777216
100
AcDbTrace
 10
7196.482996176991
 20
3989.079370884768
 30
0.0
 11
7209.816329510325
 21
3989.079370884768
 31
0.0
 12
7203.149662843658
 22
4029.079370884768
 32
0.0
 13
7203.149662843658
 23
4029.079370884768
 33
0.0
  0
SOLID
  5
17F0
330
5FD
100
AcDbEntity
  8
SUNPOU
 62
     0
440
 16777216
100
AcDbTrace
 10
7196.482996176991
 20
2729.079370884768
 30
0.0
 11
7209.816329510325
 21
2729.079370884768
 31
0.0
 12
7203.149662843658
 22
2689.079370884768
 32
0.0
 13
7203.149662843658
 23
2689.079370884768
 33
0.0
  0
MTEXT
  5
17F1
330
5FD
100
AcDbEntity
  8
SUNPOU
 62
     0
440
 16777216
100
AcDbMText
 10
7164.149662843657
 20
3359.07937088477
 30
0.0
 40
50.0
 41
0.0
 71
     5
 72
     1
  1
\A1;1340
 11
6.123031769111886E-17
 21
1.0
 31
0.0
 73
     1
 44
1.0
  0
POINT
  5
17F2
330
5FD
100
AcDbEntity
  8
DEFPOINTS
 62
     0
440
 16777216
100
AcDbPoint
 10
6667.48632149221
 20
4029.079370884769
 30
0.0
  0
POINT
  5
17F3
330
5FD
100
AcDbEntity
  8
DEFPOINTS
 62
     0
440
 16777216
100
AcDbPoint
 10
6667.48632149221
 20
2689.079370884769
 30
0.0
  0
POINT
  5
17F4
330
5FD
100
AcDbEntity
  8
DEFPOINTS
 62
     0
440
 16777216
100
AcDbPoint
 10
7203.149662843658
 20
2689.079370884768
 30
0.0
  0
ENDBLK
  5
B0B
330
5FD
100
AcDbEntity
  8
0
100
AcDbBlockEnd
  0
BLOCK
  5
B8E
330
671
100
AcDbEntity
  8
0
100
AcDbBlockBegin
  2
*D16
 70
     1
 10
0.0
 20
0.0
 30
0.0
  3
*D16
  1

  0
LINE
  5
17A4
330
671
100
AcDbEntity
  8
SUNPOU
 62
     0
440
 16777216
370
    -2
100
AcDbLine
 10
2432.680029666621
 20
2649.079370884769
 30
0.0
 11
2432.680029666621
 21
2130.925040877431
 31
0.0
  0
LINE
  5
17A5
330
671
100
AcDbEntity
  8
SUNPOU
 62
     0
440
 16777216
370
    -2
100
AcDbLine
 10
2996.680029666621
 20
2649.079370884769
 30
0.0
 11
2996.680029666621
 21
2130.925040877431
 31
0.0
  0
LINE
  5
17A6
330
671
100
AcDbEntity
  8
SUNPOU
 62
     0
440
 16777216
370
    -2
100
AcDbLine
 10
2472.680029666621
 20
2140.925040877431
 30
0.0
 11
2956.680029666621
 21
2140.925040877431
 31
0.0
  0
SOLID
  5
17A7
330
671
100
AcDbEntity
  8
SUNPOU
 62
     0
440
 16777216
100
AcDbTrace
 10
2472.680029666621
 20
2147.591707544098
 30
0.0
 11
2472.680029666621
 21
2134.258374210765
 31
0.0
 12
2432.680029666621
 22
2140.925040877431
 32
0.0
 13
2432.680029666621
 23
2140.925040877431
 33
0.0
  0
SOLID
  5
17A8
330
671
100
AcDbEntity
  8
SUNPOU
 62
     0
440
 16777216
100
AcDbTrace
 10
2956.680029666621
 20
2147.591707544098
 30
0.0
 11
2956.680029666621
 21
2134.258374210765
 31
0.0
 12
2996.680029666621
 22
2140.925040877431
 32
0.0
 13
2996.680029666621
 23
2140.925040877431
 33
0.0
  0
MTEXT
  5
17A9
330
671
100
AcDbEntity
  8
SUNPOU
 62
     0
440
 16777216
100
AcDbMText
 10
2714.680029666621
 20
2179.925040877431
 30
0.0
 40
50.0
 41
0.0
 71
     5
 72
     1
  1
\A1;564
 73
     1
 44
1.0
  0
POINT
  5
17AA
330
671
100
AcDbEntity
  8
DEFPOINTS
 62
     0
440
 16777216
100
AcDbPoint
 10
2432.680029666621
 20
2689.079370884769
 30
0.0
  0
POINT
  5
17AB
330
671
100
AcDbEntity
  8
DEFPOINTS
 62
     0
440
 16777216
100
AcDbPoint
 10
2996.680029666621
 20
2689.079370884769
 30
0.0
  0
POINT
  5
17AC
330
671
100
AcDbEntity
  8
DEFPOINTS
 62
     0
440
 16777216
100
AcDbPoint
 10
2996.680029666621
 20
2140.925040877431
 30
0.0
  0
ENDBLK
  5
B98
330
671
100
AcDbEntity
  8
0
100
AcDbBlockEnd
  0
BLOCK
  5
B78
330
8CF
100
AcDbEntity
  8
0
100
AcDbBlockBegin
  2
*D28
 70
     1
 10
0.0
 20
0.0
 30
0.0
  3
*D28
  1

  0
LINE
  5
1759
330
8CF
100
AcDbEntity
  8
SUNPOU
 62
     0
440
 16777216
370
    -2
100
AcDbLine
 10
2426.680029666621
 20
4029.079370884768
 30
0.0
 11
2042.772060466581
 21
4029.079370884768
 31
0.0
  0
LINE
  5
175A
330
8CF
100
AcDbEntity
  8
SUNPOU
 62
     0
440
 16777216
370
    -2
100
AcDbLine
 10
2536.680029666621
 20
2829.079370884769
 30
0.0
 11
2042.772060466581
 21
2829.079370884769
 31
0.0
  0
LINE
  5
175B
330
8CF
100
AcDbEntity
  8
SUNPOU
 62
     0
440
 16777216
370
    -2
100
AcDbLine
 10
2052.772060466581
 20
3989.079370884768
 30
0.0
 11
2052.772060466581
 21
2869.079370884769
 31
0.0
  0
SOLID
  5
175C
330
8CF
100
AcDbEntity
  8
SUNPOU
 62
     0
440
 16777216
100
AcDbTrace
 10
2046.105393799915
 20
3989.079370884768
 30
0.0
 11
2059.438727133248
 21
3989.079370884768
 31
0.0
 12
2052.772060466581
 22
4029.079370884768
 32
0.0
 13
2052.772060466581
 23
4029.079370884768
 33
0.0
  0
SOLID
  5
175D
330
8CF
100
AcDbEntity
  8
SUNPOU
 62
     0
440
 16777216
100
AcDbTrace
 10
2046.105393799915
 20
2869.079370884769
 30
0.0
 11
2059.438727133248
 21
2869.079370884769
 31
0.0
 12
2052.772060466581
 22
2829.079370884769
 32
0.0
 13
2052.772060466581
 23
2829.079370884769
 33
0.0
  0
MTEXT
  5
175E
330
8CF
100
AcDbEntity
  8
SUNPOU
 62
     0
440
 16777216
100
AcDbMText
 10
2013.772060466581
 20
3429.079370884769
 30
0.0
 40
50.0
 41
0.0
 71
     5
 72
     1
  1
\A1;1200
 11
6.123031769111886E-17
 21
1.0
 31
0.0
 73
     1
 44
1.0
  0
POINT
  5
175F
330
8CF
100
AcDbEntity
  8
DEFPOINTS
 62
     0
440
 16777216
100
AcDbPoint
 10
2466.680029666621
 20
4029.079370884768
 30
0.0
  0
POINT
  5
1760
330
8CF
100
AcDbEntity
  8
DEFPOINTS
 62
     0
440
 16777216
100
AcDbPoint
 10
2576.680029666621
 20
2829.079370884769
 30
0.0
  0
POINT
  5
1761
330
8CF
100
AcDbEntity
  8
DEFPOINTS
 62
     0
440
 16777216
100
AcDbPoint
 10
2052.772060466581
 20
2829.079370884769
 30
0.0
  0
ENDBLK
  5
B82
330
8CF
100
AcDbEntity
  8
0
100
AcDbBlockEnd
  0
BLOCK
  5
B83
330
8DC
100
AcDbEntity
  8
0
100
AcDbBlockBegin
  2
*D29
 70
     1
 10
0.0
 20
0.0
 30
0.0
  3
*D29
  1

  0
LINE
  5
1762
330
8DC
100
AcDbEntity
  8
SUNPOU
 62
     0
440
 16777216
370
    -2
100
AcDbLine
 10
2536.680029666621
 20
2829.079370884769
 30
0.0
 11
2042.772060466581
 21
2829.079370884769
 31
0.0
  0
LINE
  5
1763
330
8DC
100
AcDbEntity
  8
SUNPOU
 62
     0
440
 16777216
370
    -2
100
AcDbLine
 10
2392.680029666621
 20
2689.079370884769
 30
0.0
 11
2042.772060466581
 21
2689.079370884769
 31
0.0
  0
LINE
  5
1764
330
8DC
100
AcDbEntity
  8
SUNPOU
 62
     0
440
 16777216
370
    -2
100
AcDbLine
 10
2052.772060466581
 20
2789.079370884769
 30
0.0
 11
2052.772060466581
 21
2729.079370884769
 31
0.0
  0
SOLID
  5
1765
330
8DC
100
AcDbEntity
  8
SUNPOU
 62
     0
440
 16777216
100
AcDbTrace
 10
2046.105393799915
 20
2789.079370884769
 30
0.0
 11
2059.438727133248
 21
2789.079370884769
 31
0.0
 12
2052.772060466581
 22
2829.079370884769
 32
0.0
 13
2052.772060466581
 23
2829.079370884769
 33
0.0
  0
SOLID
  5
1766
330
8DC
100
AcDbEntity
  8
SUNPOU
 62
     0
440
 16777216
100
AcDbTrace
 10
2046.105393799915
 20
2729.079370884769
 30
0.0
 11
2059.438727133248
 21
2729.079370884769
 31
0.0
 12
2052.772060466581
 22
2689.079370884769
 32
0.0
 13
2052.772060466581
 23
2689.079370884769
 33
0.0
  0
MTEXT
  5
1767
330
8DC
100
AcDbEntity
  8
SUNPOU
 62
     0
440
 16777216
100
AcDbMText
 10
2013.772060466581
 20
2759.079370884769
 30
0.0
 40
50.0
 41
0.0
 71
     5
 72
     1
  1
\A1;140
 11
6.123031769111886E-17
 21
1.0
 31
0.0
 73
     1
 44
1.0
  0
POINT
  5
1768
330
8DC
100
AcDbEntity
  8
DEFPOINTS
 62
     0
440
 16777216
100
AcDbPoint
 10
2576.680029666621
 20
2829.079370884769
 30
0.0
  0
POINT
  5
1769
330
8DC
100
AcDbEntity
  8
DEFPOINTS
 62
     0
440
 16777216
100
AcDbPoint
 10
2432.680029666621
 20
2689.079370884769
 30
0.0
  0
POINT
  5
176A
330
8DC
100
AcDbEntity
  8
DEFPOINTS
 62
     0
440
 16777216
100
AcDbPoint
 10
2052.772060466581
 20
2689.079370884769
 30
0.0
  0
ENDBLK
  5
B8D
330
8DC
100
AcDbEntity
  8
0
100
AcDbBlockEnd
  0
BLOCK
  5
B6D
330
8E9
100
AcDbEntity
  8
0
100
AcDbBlockBegin
  2
*D30
 70
     1
 10
0.0
 20
0.0
 30
0.0
  3
*D30
  1

  0
LINE
  5
176B
330
8E9
100
AcDbEntity
  8
SUNPOU
 62
     0
440
 16777216
370
    -2
100
AcDbLine
 10
2426.680029666621
 20
4029.079370884768
 30
0.0
 11
1920.792276362518
 21
4029.079370884768
 31
0.0
  0
LINE
  5
176C
330
8E9
100
AcDbEntity
  8
SUNPOU
 62
     0
440
 16777216
370
    -2
100
AcDbLine
 10
2392.680029666621
 20
2689.079370884769
 30
0.0
 11
1920.792276362517
 21
2689.079370884769
 31
0.0
  0
LINE
  5
176D
330
8E9
100
AcDbEntity
  8
SUNPOU
 62
     0
440
 16777216
370
    -2
100
AcDbLine
 10
1930.792276362518
 20
3989.079370884768
 30
0.0
 11
1930.792276362517
 21
2729.079370884769
 31
0.0
  0
SOLID
  5
176E
330
8E9
100
AcDbEntity
  8
SUNPOU
 62
     0
440
 16777216
100
AcDbTrace
 10
1924.125609695851
 20
3989.079370884768
 30
0.0
 11
1937.458943029184
 21
3989.079370884768
 31
0.0
 12
1930.792276362518
 22
4029.079370884768
 32
0.0
 13
1930.792276362518
 23
4029.079370884768
 33
0.0
  0
SOLID
  5
176F
330
8E9
100
AcDbEntity
  8
SUNPOU
 62
     0
440
 16777216
100
AcDbTrace
 10
1924.125609695851
 20
2729.079370884769
 30
0.0
 11
1937.458943029184
 21
2729.079370884769
 31
0.0
 12
1930.792276362517
 22
2689.079370884769
 32
0.0
 13
1930.792276362517
 23
2689.079370884769
 33
0.0
  0
MTEXT
  5
1770
330
8E9
100
AcDbEntity
  8
SUNPOU
 62
     0
440
 16777216
100
AcDbMText
 10
1891.792276362517
 20
3359.079370884769
 30
0.0
 40
50.0
 41
0.0
 71
     5
 72
     1
  1
\A1;1340
 11
6.123031769111886E-17
 21
1.0
 31
0.0
 73
     1
 44
1.0
  0
POINT
  5
1771
330
8E9
100
AcDbEntity
  8
DEFPOINTS
 62
     0
440
 16777216
100
AcDbPoint
 10
2466.680029666621
 20
4029.079370884768
 30
0.0
  0
POINT
  5
1772
330
8E9
100
AcDbEntity
  8
DEFPOINTS
 62
     0
440
 16777216
100
AcDbPoint
 10
2432.680029666621
 20
2689.079370884769
 30
0.0
  0
POINT
  5
1773
330
8E9
100
AcDbEntity
  8
DEFPOINTS
 62
     0
440
 16777216
100
AcDbPoint
 10
1930.792276362517
 20
2689.079370884769
 30
0.0
  0
ENDBLK
  5
B77
330
8E9
100
AcDbEntity
  8
0
100
AcDbBlockEnd
  0
BLOCK
  5
B33
330
B32
100
AcDbEntity
  8
0
100
AcDbBlockBegin
  2
*D39
 70
     1
 10
0.0
 20
0.0
 30
0.0
  3
*D39
  1

  0
LINE
  5
1750
330
B32
100
AcDbEntity
  8
SUNPOU
 62
     0
440
 16777216
370
    -2
100
AcDbLine
 10
2466.680029666621
 20
4069.079370884768
 30
0.0
 11
2466.680029666621
 21
4536.486721376255
 31
0.0
  0
LINE
  5
1751
330
B32
100
AcDbEntity
  8
SUNPOU
 62
     0
440
 16777216
370
    -2
100
AcDbLine
 10
2996.680029666621
 20
2869.079370884769
 30
0.0
 11
2996.680029666621
 21
4536.486721376255
 31
0.0
  0
LINE
  5
1752
330
B32
100
AcDbEntity
  8
SUNPOU
 62
     0
440
 16777216
370
    -2
100
AcDbLine
 10
2506.680029666621
 20
4526.486721376255
 30
0.0
 11
2956.680029666621
 21
4526.486721376255
 31
0.0
  0
SOLID
  5
1753
330
B32
100
AcDbEntity
  8
SUNPOU
 62
     0
440
 16777216
100
AcDbTrace
 10
2506.680029666621
 20
4533.153388042922
 30
0.0
 11
2506.680029666621
 21
4519.820054709588
 31
0.0
 12
2466.680029666621
 22
4526.486721376255
 32
0.0
 13
2466.680029666621
 23
4526.486721376255
 33
0.0
  0
SOLID
  5
1754
330
B32
100
AcDbEntity
  8
SUNPOU
 62
     0
440
 16777216
100
AcDbTrace
 10
2956.680029666621
 20
4533.153388042922
 30
0.0
 11
2956.680029666621
 21
4519.820054709588
 31
0.0
 12
2996.680029666621
 22
4526.486721376255
 32
0.0
 13
2996.680029666621
 23
4526.486721376255
 33
0.0
  0
MTEXT
  5
1755
330
B32
100
AcDbEntity
  8
SUNPOU
 62
     0
440
 16777216
100
AcDbMText
 10
2731.680029666621
 20
4565.486721376255
 30
0.0
 40
50.0
 41
0.0
 71
     5
 72
     1
  1
\A1;530
 73
     1
 44
1.0
  0
POINT
  5
1756
330
B32
100
AcDbEntity
  8
DEFPOINTS
 62
     0
440
 16777216
100
AcDbPoint
 10
2466.680029666621
 20
4029.079370884768
 30
0.0
  0
POINT
  5
1757
330
B32
100
AcDbEntity
  8
DEFPOINTS
 62
     0
440
 16777216
100
AcDbPoint
 10
2996.680029666621
 20
2829.079370884769
 30
0.0
  0
POINT
  5
1758
330
B32
100
AcDbEntity
  8
DEFPOINTS
 62
     0
440
 16777216
100
AcDbPoint
 10
2996.680029666621
 20
4526.486721376255
 30
0.0
  0
ENDBLK
  5
B3D
330
B32
100
AcDbEntity
  8
0
100
AcDbBlockEnd
  0
BLOCK
  5
B40
330
B3F
100
AcDbEntity
  8
0
100
AcDbBlockBegin
  2
*D40
 70
     1
 10
0.0
 20
0.0
 30
0.0
  3
*D40
  1

  0
LINE
  5
173E
330
B3F
100
AcDbEntity
  8
SUNPOU
 62
     0
440
 16777216
370
    -2
100
AcDbLine
 10
2576.680029666621
 20
4069.079370884769
 30
0.0
 11
2576.680029666621
 21
4422.211194041673
 31
0.0
  0
LINE
  5
173F
330
B3F
100
AcDbEntity
  8
SUNPOU
 62
     0
440
 16777216
370
    -2
100
AcDbLine
 10
2996.680029666621
 20
2869.079370884769
 30
0.0
 11
2996.680029666621
 21
4422.211194041673
 31
0.0
  0
LINE
  5
1740
330
B3F
100
AcDbEntity
  8
SUNPOU
 62
     0
440
 16777216
370
    -2
100
AcDbLine
 10
2616.680029666621
 20
4412.211194041673
 30
0.0
 11
2956.680029666621
 21
4412.211194041673
 31
0.0
  0
SOLID
  5
1741
330
B3F
100
AcDbEntity
  8
SUNPOU
 62
     0
440
 16777216
100
AcDbTrace
 10
2616.680029666621
 20
4418.87786070834
 30
0.0
 11
2616.680029666621
 21
4405.544527375006
 31
0.0
 12
2576.680029666621
 22
4412.211194041673
 32
0.0
 13
2576.680029666621
 23
4412.211194041673
 33
0.0
  0
SOLID
  5
1742
330
B3F
100
AcDbEntity
  8
SUNPOU
 62
     0
440
 16777216
100
AcDbTrace
 10
2956.680029666621
 20
4418.87786070834
 30
0.0
 11
2956.680029666621
 21
4405.544527375006
 31
0.0
 12
2996.680029666621
 22
4412.211194041673
 32
0.0
 13
2996.680029666621
 23
4412.211194041673
 33
0.0
  0
MTEXT
  5
1743
330
B3F
100
AcDbEntity
  8
SUNPOU
 62
     0
440
 16777216
100
AcDbMText
 10
2786.680029666621
 20
4451.211194041673
 30
0.0
 40
50.0
 41
0.0
 71
     5
 72
     1
  1
\A1;420
 73
     1
 44
1.0
  0
POINT
  5
1744
330
B3F
100
AcDbEntity
  8
DEFPOINTS
 62
     0
440
 16777216
100
AcDbPoint
 10
2576.680029666621
 20
4029.079370884769
 30
0.0
  0
POINT
  5
1745
330
B3F
100
AcDbEntity
  8
DEFPOINTS
 62
     0
440
 16777216
100
AcDbPoint
 10
2996.680029666621
 20
2829.079370884769
 30
0.0
  0
POINT
  5
1746
330
B3F
100
AcDbEntity
  8
DEFPOINTS
 62
     0
440
 16777216
100
AcDbPoint
 10
2996.680029666621
 20
4412.211194041673
 30
0.0
  0
ENDBLK
  5
B4A
330
B3F
100
AcDbEntity
  8
0
100
AcDbBlockEnd
  0
BLOCK
  5
B4D
330
B4C
100
AcDbEntity
  8
0
100
AcDbBlockBegin
  2
*D41
 70
     1
 10
0.0
 20
0.0
 30
0.0
  3
*D41
  1

  0
LINE
  5
1747
330
B4C
100
AcDbEntity
  8
SUNPOU
 62
     0
440
 16777216
370
    -2
100
AcDbLine
 10
2466.680029666621
 20
4069.079370884768
 30
0.0
 11
2466.680029666621
 21
4422.211194041673
 31
0.0
  0
LINE
  5
1748
330
B4C
100
AcDbEntity
  8
SUNPOU
 62
     0
440
 16777216
370
    -2
100
AcDbLine
 10
2576.680029666621
 20
4069.079370884769
 30
0.0
 11
2576.680029666621
 21
4422.211194041673
 31
0.0
  0
LINE
  5
1749
330
B4C
100
AcDbEntity
  8
SUNPOU
 62
     0
440
 16777216
370
    -2
100
AcDbLine
 10
2506.680029666621
 20
4412.211194041673
 30
0.0
 11
2536.680029666621
 21
4412.211194041673
 31
0.0
  0
SOLID
  5
174A
330
B4C
100
AcDbEntity
  8
SUNPOU
 62
     0
440
 16777216
100
AcDbTrace
 10
2506.680029666621
 20
4418.87786070834
 30
0.0
 11
2506.680029666621
 21
4405.544527375006
 31
0.0
 12
2466.680029666621
 22
4412.211194041673
 32
0.0
 13
2466.680029666621
 23
4412.211194041673
 33
0.0
  0
SOLID
  5
174B
330
B4C
100
AcDbEntity
  8
SUNPOU
 62
     0
440
 16777216
100
AcDbTrace
 10
2536.680029666621
 20
4418.87786070834
 30
0.0
 11
2536.680029666621
 21
4405.544527375006
 31
0.0
 12
2576.680029666621
 22
4412.211194041673
 32
0.0
 13
2576.680029666621
 23
4412.211194041673
 33
0.0
  0
MTEXT
  5
174C
330
B4C
100
AcDbEntity
  8
SUNPOU
 62
     0
440
 16777216
100
AcDbMText
 10
2521.680029666621
 20
4451.211194041673
 30
0.0
 40
50.0
 41
0.0
 71
     5
 72
     1
  1
\A1;110
 73
     1
 44
1.0
  0
POINT
  5
174D
330
B4C
100
AcDbEntity
  8
DEFPOINTS
 62
     0
440
 16777216
100
AcDbPoint
 10
2466.680029666621
 20
4029.079370884768
 30
0.0
  0
POINT
  5
174E
330
B4C
100
AcDbEntity
  8
DEFPOINTS
 62
     0
440
 16777216
100
AcDbPoint
 10
2576.680029666621
 20
4029.079370884769
 30
0.0
  0
POINT
  5
174F
330
B4C
100
AcDbEntity
  8
DEFPOINTS
 62
     0
440
 16777216
100
AcDbPoint
 10
2576.680029666621
 20
4412.211194041673
 30
0.0
  0
ENDBLK
  5
B57
330
B4C
100
AcDbEntity
  8
0
100
AcDbBlockEnd
  0
BLOCK
  5
B9A
330
B99
100
AcDbEntity
  8
0
100
AcDbBlockBegin
  2
*D42
 70
     1
 10
0.0
 20
0.0
 30
0.0
  3
*D42
  1

  0
LINE
  5
177D
330
B99
100
AcDbEntity
  8
SUNPOU
 62
     0
440
 16777216
370
    -2
100
AcDbLine
 10
2996.680029666621
 20
2649.079370884769
 30
0.0
 11
2996.680029666621
 21
2246.65801864674
 31
0.0
  0
LINE
  5
177E
330
B99
100
AcDbEntity
  8
SUNPOU
 62
     0
440
 16777216
370
    -2
100
AcDbLine
 10
2436.680029666621
 20
2649.079370884769
 30
0.0
 11
2436.680029666621
 21
2246.65801864674
 31
0.0
  0
LINE
  5
177F
330
B99
100
AcDbEntity
  8
SUNPOU
 62
     0
440
 16777216
370
    -2
100
AcDbLine
 10
2956.680029666621
 20
2256.65801864674
 30
0.0
 11
2476.680029666621
 21
2256.65801864674
 31
0.0
  0
SOLID
  5
1780
330
B99
100
AcDbEntity
  8
SUNPOU
 62
     0
440
 16777216
100
AcDbTrace
 10
2956.680029666621
 20
2263.324685313406
 30
0.0
 11
2956.680029666621
 21
2249.991351980073
 31
0.0
 12
2996.680029666621
 22
2256.65801864674
 32
0.0
 13
2996.680029666621
 23
2256.65801864674
 33
0.0
  0
SOLID
  5
1781
330
B99
100
AcDbEntity
  8
SUNPOU
 62
     0
440
 16777216
100
AcDbTrace
 10
2476.680029666621
 20
2263.324685313406
 30
0.0
 11
2476.680029666621
 21
2249.991351980073
 31
0.0
 12
2436.680029666621
 22
2256.65801864674
 32
0.0
 13
2436.680029666621
 23
2256.65801864674
 33
0.0
  0
MTEXT
  5
1782
330
B99
100
AcDbEntity
  8
SUNPOU
 62
     0
440
 16777216
100
AcDbMText
 10
2716.680029666621
 20
2295.65801864674
 30
0.0
 40
50.0
 41
0.0
 71
     5
 72
     1
  1
\A1;560
 73
     1
 44
1.0
  0
POINT
  5
1783
330
B99
100
AcDbEntity
  8
DEFPOINTS
 62
     0
440
 16777216
100
AcDbPoint
 10
2996.680029666621
 20
2689.079370884769
 30
0.0
  0
POINT
  5
1784
330
B99
100
AcDbEntity
  8
DEFPOINTS
 62
     0
440
 16777216
100
AcDbPoint
 10
2436.680029666621
 20
2689.079370884769
 30
0.0
  0
POINT
  5
1785
330
B99
100
AcDbEntity
  8
DEFPOINTS
 62
     0
440
 16777216
100
AcDbPoint
 10
2436.680029666621
 20
2256.65801864674
 30
0.0
  0
ENDBLK
  5
BA4
330
B99
100
AcDbEntity
  8
0
100
AcDbBlockEnd
  0
BLOCK
  5
BA7
330
BA6
100
AcDbEntity
  8
0
100
AcDbBlockBegin
  2
*D43
 70
     1
 10
0.0
 20
0.0
 30
0.0
  3
*D43
  1

  0
LINE
  5
1774
330
BA6
100
AcDbEntity
  8
SUNPOU
 62
     0
440
 16777216
370
    -2
100
AcDbLine
 10
2576.680029666621
 20
2789.079370884769
 30
0.0
 11
2576.680029666621
 21
2379.402386733585
 31
0.0
  0
LINE
  5
1775
330
BA6
100
AcDbEntity
  8
SUNPOU
 62
     0
440
 16777216
370
    -2
100
AcDbLine
 10
2436.680029666621
 20
2649.079370884769
 30
0.0
 11
2436.680029666621
 21
2379.402386733585
 31
0.0
  0
LINE
  5
1776
330
BA6
100
AcDbEntity
  8
SUNPOU
 62
     0
440
 16777216
370
    -2
100
AcDbLine
 10
2536.680029666621
 20
2389.402386733585
 30
0.0
 11
2476.680029666621
 21
2389.402386733585
 31
0.0
  0
SOLID
  5
1777
330
BA6
100
AcDbEntity
  8
SUNPOU
 62
     0
440
 16777216
100
AcDbTrace
 10
2536.680029666621
 20
2396.069053400252
 30
0.0
 11
2536.680029666621
 21
2382.735720066919
 31
0.0
 12
2576.680029666621
 22
2389.402386733585
 32
0.0
 13
2576.680029666621
 23
2389.402386733585
 33
0.0
  0
SOLID
  5
1778
330
BA6
100
AcDbEntity
  8
SUNPOU
 62
     0
440
 16777216
100
AcDbTrace
 10
2476.680029666621
 20
2396.069053400252
 30
0.0
 11
2476.680029666621
 21
2382.735720066919
 31
0.0
 12
2436.680029666621
 22
2389.402386733585
 32
0.0
 13
2436.680029666621
 23
2389.402386733585
 33
0.0
  0
MTEXT
  5
1779
330
BA6
100
AcDbEntity
  8
SUNPOU
 62
     0
440
 16777216
100
AcDbMText
 10
2506.680029666621
 20
2428.402386733585
 30
0.0
 40
50.0
 41
0.0
 71
     5
 72
     1
  1
\A1;140
 73
     1
 44
1.0
  0
POINT
  5
177A
330
BA6
100
AcDbEntity
  8
DEFPOINTS
 62
     0
440
 16777216
100
AcDbPoint
 10
2576.680029666621
 20
2829.079370884769
 30
0.0
  0
POINT
  5
177B
330
BA6
100
AcDbEntity
  8
DEFPOINTS
 62
     0
440
 16777216
100
AcDbPoint
 10
2436.680029666621
 20
2689.079370884769
 30
0.0
  0
POINT
  5
177C
330
BA6
100
AcDbEntity
  8
DEFPOINTS
 62
     0
440
 16777216
100
AcDbPoint
 10
2436.680029666621
 20
2389.402386733585
 30
0.0
  0
ENDBLK
  5
BB1
330
BA6
100
AcDbEntity
  8
0
100
AcDbBlockEnd
  0
BLOCK
  5
ED9
330
EBD
100
AcDbEntity
  8
0
100
AcDbBlockBegin
  2
*D45
 70
     1
 10
0.0
 20
0.0
 30
0.0
  3
*D45
  1

  0
LINE
  5
179A
330
EBD
100
AcDbEntity
  8
SUNPOU
 62
     0
440
 16777216
370
    -2
100
AcDbLine
 10
2432.680029666621
 20
2649.079370884769
 30
0.0
 11
2432.680029666621
 21
2246.65801864674
 31
0.0
  0
LINE
  5
179B
330
EBD
100
AcDbEntity
  8
SUNPOU
 62
     0
440
 16777216
370
    -2
100
AcDbLine
 10
2436.680029666621
 20
2649.079370884769
 30
0.0
 11
2436.680029666621
 21
2246.65801864674
 31
0.0
  0
LINE
  5
179C
330
EBD
100
AcDbEntity
  8
SUNPOU
 62
     0
440
 16777216
370
    -2
100
AcDbLine
 10
2392.680029666621
 20
2256.65801864674
 30
0.0
 11
2352.680029666621
 21
2256.65801864674
 31
0.0
  0
LINE
  5
179D
330
EBD
100
AcDbEntity
  8
SUNPOU
 62
     0
440
 16777216
370
    -2
100
AcDbLine
 10
2476.680029666621
 20
2256.65801864674
 30
0.0
 11
2516.680029666621
 21
2256.65801864674
 31
0.0
  0
MTEXT
  5
179E
330
EBD
100
AcDbEntity
  8
SUNPOU
 62
     0
440
 16777216
100
AcDbMText
 10
2455.48678257702
 20
2295.65801864674
 30
0.0
 40
50.0
 41
0.0
 71
     5
 72
     1
  1
\A1;4
 73
     1
 44
1.0
  0
SOLID
  5
179F
330
EBD
100
AcDbEntity
  8
SUNPOU
 62
     0
440
 16777216
100
AcDbTrace
 10
2392.680029666621
 20
2263.324685313406
 30
0.0
 11
2392.680029666621
 21
2249.991351980073
 31
0.0
 12
2432.680029666621
 22
2256.65801864674
 32
0.0
 13
2432.680029666621
 23
2256.65801864674
 33
0.0
  0
SOLID
  5
17A0
330
EBD
100
AcDbEntity
  8
SUNPOU
 62
     0
440
 16777216
100
AcDbTrace
 10
2476.680029666621
 20
2263.324685313406
 30
0.0
 11
2476.680029666621
 21
2249.991351980073
 31
0.0
 12
2436.680029666621
 22
2256.65801864674
 32
0.0
 13
2436.680029666621
 23
2256.65801864674
 33
0.0
  0
POINT
  5
17A1
330
EBD
100
AcDbEntity
  8
DEFPOINTS
 62
     0
440
 16777216
100
AcDbPoint
 10
2432.680029666621
 20
2689.079370884769
 30
0.0
  0
POINT
  5
17A2
330
EBD
100
AcDbEntity
  8
DEFPOINTS
 62
     0
440
 16777216
100
AcDbPoint
 10
2436.680029666621
 20
2689.079370884769
 30
0.0
  0
POINT
  5
17A3
330
EBD
100
AcDbEntity
  8
DEFPOINTS
 62
     0
440
 16777216
100
AcDbPoint
 10
2436.680029666621
 20
2256.65801864674
 30
0.0
  0
ENDBLK
  5
EE5
330
EBD
100
AcDbEntity
  8
0
100
AcDbBlockEnd
  0
ENDSEC
  0
SECTION
  2
ENTITIES
  0
TEXT
  5
5F
330
17
100
AcDbEntity
  8
SUNPOU
100
AcDbText
 10
7829.360191537064
 20
320.0
 30
0.0
 40
60.0
  1
20
100
AcDbText
  0
LINE
  5
160
330
17
100
AcDbEntity
  8
SEIHIN
100
AcDbLine
 10
2576.680029666621
 20
4029.079370884768
 30
0.0
 11
2576.680029666621
 21
2909.079370884769
 31
0.0
  0
LINE
  5
162
330
17
100
AcDbEntity
  8
SEIHIN
100
AcDbLine
 10
2432.680029666621
 20
2689.079370884769
 30
0.0
 11
2996.680029666621
 21
2689.079370884769
 31
0.0
  0
LINE
  5
16E
330
17
100
AcDbEntity
  8
SEIHIN
100
AcDbLine
 10
2656.680029666621
 20
2829.079370884769
 30
0.0
 11
2996.680029666621
 21
2829.079370884769
 31
0.0
  0
ARC
  5
170
330
17
100
AcDbEntity
  8
SEIHIN
100
AcDbCircle
 10
2656.680029666621
 20
2909.079370884769
 30
0.0
 40
80.0
100
AcDbArc
 50
180.0
 51
270.0
  0
POINT
  5
175
330
17
100
AcDbEntity
  8
TEN
100
AcDbPoint
 10
2576.680029666621
 20
2829.079370884769
 30
0.0
  0
LINE
  5
17D
330
17
100
AcDbEntity
  8
SEIHIN
100
AcDbLine
 10
2996.680029666621
 20
2829.079370884769
 30
0.0
 11
2996.680029666621
 21
2689.079370884769
 31
0.0
  0
LINE
  5
1A1
330
17
100
AcDbEntity
  8
SEIHIN
100
AcDbLine
 10
2466.680029666621
 20
4029.079370884768
 30
0.0
 11
2576.680029666621
 21
4029.079370884769
 31
0.0
  0
LINE
  5
1B7
330
17
100
AcDbEntity
  8
SEIHIN
100
AcDbLine
 10
5667.48632149221
 20
2689.079370884769
 30
0.0
 11
6667.48632149221
 21
2689.079370884769
 31
0.0
  0
LINE
  5
1D1
330
17
100
AcDbEntity
  8
SEIHIN
100
AcDbLine
 10
5667.48632149221
 20
4029.079370884769
 30
0.0
 11
6667.48632149221
 21
4029.079370884769
 31
0.0
  0
LINE
  5
1D6
330
17
100
AcDbEntity
  8
1HASEN
100
AcDbLine
 10
5667.48632149221
 20
4129.079370884769
 30
0.0
 11
5667.48632149221
 21
2609.079370884768
 31
0.0
  0
LINE
  5
244
330
17
100
AcDbEntity
  8
SEIHIN
100
AcDbLine
 10
4667.48632149221
 20
4029.079370884769
 30
0.0
 11
4667.48632149221
 21
2689.079370884769
 31
0.0
  0
LINE
  5
245
330
17
100
AcDbEntity
  8
SEIHIN
100
AcDbLine
 10
5667.48632149221
 20
2689.079370884769
 30
0.0
 11
4667.48632149221
 21
2689.079370884769
 31
0.0
  0
LINE
  5
246
330
17
100
AcDbEntity
  8
SEIHIN
100
AcDbLine
 10
5667.48632149221
 20
2829.079370884769
 30
0.0
 11
4674.98632149221
 21
2829.079370884768
 31
0.0
  0
LINE
  5
247
330
17
100
AcDbEntity
  8
SEIHIN
100
AcDbLine
 10
5667.48632149221
 20
4029.079370884769
 30
0.0
 11
4667.48632149221
 21
4029.079370884769
 31
0.0
  0
DIMENSION
  5
2BF
330
17
100
AcDbEntity
  8
SUNPOU
100
AcDbDimension
  2
*D8
 10
2656.680029666621
 20
2909.079370884768
 30
0.0
 11
2733.313877674053
 21
2984.388655838344
 31
0.0
 70
   164
 71
     5
 42
80.00000000000045
  3
A3-20
100
AcDbRadialDimension
 15
2593.710947582949
 25
2859.734718676652
 35
0.0
 40
0.0
  0
LINE
  5
345
330
17
100
AcDbEntity
  8
HAIKIN
100
AcDbLine
 10
2996.680029666621
 20
2759.079370884769
 30
0.0
 11
3106.68002966662
 21
2759.079370884769
 31
0.0
  0
LINE
  5
349
330
17
100
AcDbEntity
  8
HAIKIN
  6
HIDDEN
100
AcDbLine
 10
2596.680029666621
 20
2759.079370884769
 30
0.0
 11
2996.680029666621
 21
2759.079370884769
 31
0.0
  0
LINE
  5
37A
330
17
100
AcDbEntity
  8
HOJO
100
AcDbLine
 10
3962.284090254785
 20
4529.079370884769
 30
0.0
 11
3520.752965099204
 21
4529.079370884769
 31
0.0
  0
TEXT
  5
39B
330
17
100
AcDbEntity
  8
SUNPOU
100
AcDbText
 10
7269.360191537067
 20
0.0
 30
0.0
 40
50.0
  1
新和コンクリート工業株式会社
100
AcDbText
  0
TEXT
  5
39C
330
17
100
AcDbEntity
  8
SUNPOU
100
AcDbText
 10
7697.6935248704
 20
125.0
 30
0.0
 40
50.0
  1
製図
 72
     4
 11
7749.360191537067
 21
150.0
 31
0.0
100
AcDbText
  0
TEXT
  5
39D
330
17
100
AcDbEntity
  8
SUNPOU
100
AcDbText
 10
7696.026858203734
 20
225.0000000000001
 30
0.0
 40
50.0
  1
設計
 72
     4
 11
7749.360191537067
 21
250.0000000000001
 31
0.0
100
AcDbText
  0
TEXT
  5
39E
330
17
100
AcDbEntity
  8
SUNPOU
100
AcDbText
 10
7251.026858203734
 20
125.0000000000003
 30
0.0
 40
50.0
  1
認
 72
     4
 11
7274.360191537067
 21
150.0000000000003
 31
0.0
100
AcDbText
  0
TEXT
  5
39F
330
17
100
AcDbEntity
  8
SUNPOU
100
AcDbText
 10
7251.026858203734
 20
226.6666666666673
 30
0.0
 40
50.0
  1
承
 72
     4
 11
7274.360191537067
 21
250.0000000000006
 31
0.0
100
AcDbText
  0
TEXT
  5
3A0
330
17
100
AcDbEntity
  8
SUNPOU
100
AcDbText
 10
6724.360191537067
 20
235.0000000000002
 30
0.0
 40
50.0
  1
図　面　番　号
 72
     4
 11
6929.360191537067
 21
260.0000000000002
 31
0.0
100
AcDbText
  0
TEXT
  5
3A1
330
17
100
AcDbEntity
  8
SUNPOU
100
AcDbText
 10
7709.360191537067
 20
340.0000000000001
 30
0.0
 40
50.0
  1
１／
100
AcDbText
  0
TEXT
  5
3A2
330
17
100
AcDbEntity
  8
SUNPOU
100
AcDbText
 10
7416.026858203734
 20
325.0000000000002
 30
0.0
 40
50.0
  1
縮　　尺
 72
     4
 11
7529.360191537067
 21
350.0000000000002
 31
0.0
100
AcDbText
  0
TEXT
  5
3A3
330
17
100
AcDbEntity
  8
SUNPOU
100
AcDbText
 10
7416.026858203734
 20
425.0
 30
0.0
 40
50.0
  1
鉄 筋 量
 72
     4
 11
7529.360191537067
 21
450.0
 31
0.0
100
AcDbText
  0
TEXT
  5
3A4
330
17
100
AcDbEntity
  8
SUNPOU
100
AcDbText
 10
7416.026858203734
 20
525.0
 30
0.0
 40
50.0
  1
製 造 数
 72
     4
 11
7529.360191537067
 21
550.0
 31
0.0
100
AcDbText
  0
TEXT
  5
3A5
330
17
100
AcDbEntity
  8
SUNPOU
100
AcDbText
 10
8009.360191537067
 20
420.0
 30
0.0
 40
50.0
  1
ｋｇ
 72
     2
 11
8109.360191537067
 21
420.0
 31
0.0
100
AcDbText
  0
TEXT
  5
3A6
330
17
100
AcDbEntity
  8
SUNPOU
100
AcDbText
 10
7259.360191537067
 20
420.0
 30
0.0
 40
50.0
  1
ｋｇ
 72
     2
 11
7359.360191537067
 21
420.0
 31
0.0
100
AcDbText
  0
TEXT
  5
3A7
330
17
100
AcDbEntity
  8
SUNPOU
100
AcDbText
 10
6669.360191537067
 20
325.0000000000002
 30
0.0
 40
50.0
  1
年 月 日
 72
     4
 11
6779.360191537067
 21
350.0000000000002
 31
0.0
100
AcDbText
  0
TEXT
  5
3A8
330
17
100
AcDbEntity
  8
SUNPOU
100
AcDbText
 10
6666.026858203734
 20
425.0
 30
0.0
 40
50.0
  1
製品質量
 72
     4
 11
6779.360191537067
 21
450.0
 31
0.0
100
AcDbText
  0
TEXT
  5
3A9
330
17
100
AcDbEntity
  8
SUNPOU
100
AcDbText
 10
6667.6935248704
 20
525.0
 30
0.0
 40
50.0
  1
業 者 名
 72
     4
 11
6779.360191537067
 21
550.0
 31
0.0
100
AcDbText
  0
TEXT
  5
3AA
330
17
100
AcDbEntity
  8
SUNPOU
100
AcDbText
 10
6666.026858203734
 20
650.0
 30
0.0
 40
50.0
  1
名　　称
 72
     4
 11
6779.360191537067
 21
675.0
 31
0.0
100
AcDbText
  0
LINE
  5
3AB
330
17
100
AcDbEntity
  8
SUNPOU
100
AcDbLine
 10
7229.360191537067
 20
220.0000000000002
 30
0.0
 11
6629.360191537067
 21
220.0000000000002
 31
0.0
  0
LINE
  5
3AC
330
17
100
AcDbEntity
  8
SUNPOU
100
AcDbLine
 10
7819.360191537067
 20
99.99999999999972
 30
0.0
 11
7819.360191537067
 21
299.9999999999999
 31
0.0
  0
LINE
  5
3AD
330
17
100
AcDbEntity
  8
SUNPOU
100
AcDbLine
 10
7679.360191537067
 20
99.99999999999972
 30
0.0
 11
7679.360191537067
 21
299.9999999999999
 31
0.0
  0
LINE
  5
3AE
330
17
100
AcDbEntity
  8
SUNPOU
100
AcDbLine
 10
7319.360191537067
 20
99.99999999999989
 30
0.0
 11
7319.360191537067
 21
300.0000000000001
 31
0.0
  0
LINE
  5
3AF
330
17
100
AcDbEntity
  8
SUNPOU
100
AcDbLine
 10
7229.360191537067
 20
99.99999999999989
 30
0.0
 11
7229.360191537067
 21
300.0000000000001
 31
0.0
  0
LINE
  5
3B0
330
17
100
AcDbEntity
  8
SUNPOU
100
AcDbLine
 10
6929.360191537067
 20
300.0000000000002
 30
0.0
 11
6929.360191537067
 21
750.0
 31
0.0
  0
LINE
  5
3B1
330
17
100
AcDbEntity
  8
SUNPOU
100
AcDbLine
 10
7679.360191537067
 20
300.0000000000002
 30
0.0
 11
7679.360191537067
 21
600.0
 31
0.0
  0
LINE
  5
3B2
330
17
100
AcDbEntity
  8
SUNPOU
100
AcDbLine
 10
7379.360191537067
 20
300.0000000000002
 30
0.0
 11
7379.360191537067
 21
600.0
 31
0.0
  0
LINE
  5
3B3
330
17
100
AcDbEntity
  8
SUNPOU
100
AcDbLine
 10
8129.360191537067
 20
600.0
 30
0.0
 11
6629.360191537067
 21
600.0
 31
0.0
  0
LINE
  5
3B4
330
17
100
AcDbEntity
  8
SUNPOU
100
AcDbLine
 10
8129.360191537067
 20
500.0
 30
0.0
 11
6629.360191537067
 21
500.0
 31
0.0
  0
LINE
  5
3B5
330
17
100
AcDbEntity
  8
SUNPOU
100
AcDbLine
 10
8129.360191537067
 20
400.0
 30
0.0
 11
6629.360191537067
 21
400.0
 31
0.0
  0
LINE
  5
3B6
330
17
100
AcDbEntity
  8
SUNPOU
100
AcDbLine
 10
8129.360191537067
 20
299.9999999999999
 30
0.0
 11
6629.360191537067
 21
300.0000000000007
 31
0.0
  0
LINE
  5
3B7
330
17
100
AcDbEntity
  8
HAIKIN
100
AcDbLine
 10
6629.360191537067
 20
750.0
 30
0.0
 11
8129.360191537067
 21
750.0
 31
0.0
  0
LINE
  5
3B8
330
17
100
AcDbEntity
  8
HAIKIN
100
AcDbLine
 10
6629.360191537067
 20
100.0000000000002
 30
0.0
 11
6629.360191537067
 21
750.0
 31
0.0
  0
LINE
  5
3B9
330
17
100
AcDbEntity
  8
SUNPOU
100
AcDbLine
 10
469.3601915370673
 20
5540.0
 30
0.0
 11
469.3601915370673
 21
5440.0
 31
0.0
  0
LINE
  5
3BA
330
17
100
AcDbEntity
  8
SUNPOU
100
AcDbLine
 10
969.3601915370673
 20
5540.0
 30
0.0
 11
469.3601915370673
 21
5540.0
 31
0.0
  0
LINE
  5
3BB
330
17
100
AcDbEntity
  8
SUNPOU
100
AcDbLine
 10
969.3601915370673
 20
5440.0
 30
0.0
 11
969.3601915370673
 21
5540.0
 31
0.0
  0
LINE
  5
3BC
330
17
100
AcDbEntity
  8
HAIKIN
100
AcDbLine
 10
469.3601915370673
 20
100.0
 30
0.0
 11
8129.360191537067
 21
100.0
 31
0.0
  0
LINE
  5
3BD
330
17
100
AcDbEntity
  8
HAIKIN
100
AcDbLine
 10
469.3601915370673
 20
5440.0
 30
0.0
 11
8129.360191537067
 21
5440.0
 31
0.0
  0
LINE
  5
3BE
330
17
100
AcDbEntity
  8
HAIKIN
100
AcDbLine
 10
8129.360191537067
 20
5440.0
 30
0.0
 11
8129.360191537067
 21
100.0
 31
0.0
  0
TEXT
  5
3BF
330
17
100
AcDbEntity
  8
SUNPOU
100
AcDbText
 10
543.3601915370673
 20
5460.0
 30
0.0
 40
60.0
  1
Ｈ－２－共
 72
     4
 11
719.3601915370673
 21
5490.0
 31
0.0
100
AcDbText
  0
LINE
  5
3C0
330
17
100
AcDbEntity
  8
HAIKIN
100
AcDbLine
 10
469.3601915370673
 20
100.0
 30
0.0
 11
469.3601915370673
 21
5440.0
 31
0.0
  0
LINE
  5
3DC
330
17
100
AcDbEntity
  8
HOJO
100
AcDbLine
 10
3962.284090254785
 20
4649.079370884769
 30
0.0
 11
3520.752965099204
 21
4649.079370884769
 31
0.0
  0
LINE
  5
3EF
330
17
100
AcDbEntity
  8
HOJO
100
AcDbLine
 10
1954.680029666621
 20
4773.472249176133
 30
0.0
 11
1954.680029666621
 21
4163.462603349721
 31
0.0
  0
LINE
  5
3F0
330
17
100
AcDbEntity
  8
HOJO
100
AcDbLine
 10
1834.680029666621
 20
4773.472249176133
 30
0.0
 11
1834.680029666621
 21
4163.462603349721
 31
0.0
  0
LINE
  5
3F1
330
17
100
AcDbEntity
  8
HOJO
100
AcDbLine
 10
1714.680029666621
 20
4773.472249176133
 30
0.0
 11
1714.680029666621
 21
4163.462603349721
 31
0.0
  0
LINE
  5
3F8
330
17
100
AcDbEntity
  8
HOJO
100
AcDbLine
 10
3496.680029666621
 20
2689.079370884769
 30
0.0
 11
3496.680029666621
 21
2079.069725058356
 31
0.0
  0
LINE
  5
3FD
330
17
100
AcDbEntity
  8
HOJO
100
AcDbLine
 10
7167.48632149221
 20
2709.079370884769
 30
0.0
 11
7167.48632149221
 21
2099.069725058356
 31
0.0
  0
LINE
  5
3FE
330
17
100
AcDbEntity
  8
HOJO
100
AcDbLine
 10
7287.48632149221
 20
2709.079370884769
 30
0.0
 11
7287.48632149221
 21
2099.069725058356
 31
0.0
  0
LINE
  5
3FF
330
17
100
AcDbEntity
  8
HOJO
100
AcDbLine
 10
7407.48632149221
 20
2709.079370884769
 30
0.0
 11
7407.48632149221
 21
2099.069725058356
 31
0.0
  0
LINE
  5
434
330
17
100
AcDbEntity
  8
SEIHIN
100
AcDbLine
 10
2551.680029666621
 20
4029.079370884768
 30
0.0
 11
2551.680029666621
 21
2909.079370884769
 31
0.0
  0
LINE
  5
435
330
17
100
AcDbEntity
  8
SEIHIN
100
AcDbLine
 10
2656.680029666621
 20
2804.079370884769
 30
0.0
 11
2996.680029666621
 21
2804.079370884769
 31
0.0
  0
ARC
  5
436
330
17
100
AcDbEntity
  8
SEIHIN
100
AcDbCircle
 10
2656.680029666621
 20
2909.079370884769
 30
0.0
 40
105.0
100
AcDbArc
 50
180.0
 51
270.0
  0
LINE
  5
437
330
17
100
AcDbEntity
  8
SEIHIN
100
AcDbLine
 10
4674.98632149221
 20
4029.079370884769
 30
0.0
 11
4674.98632149221
 21
2804.079370884769
 31
0.0
  0
LINE
  5
43A
330
17
100
AcDbEntity
  8
SEIHIN
100
AcDbLine
 10
4674.98632149221
 20
2804.079370884769
 30
0.0
 11
4667.48632149221
 21
2804.079370884769
 31
0.0
  0
LINE
  5
43B
330
17
100
AcDbEntity
  8
SEIHIN
100
AcDbLine
 10
6659.98632149221
 20
4029.079370884769
 30
0.0
 11
6659.98632149221
 21
2804.079370884769
 31
0.0
  0
LINE
  5
43C
330
17
100
AcDbEntity
  8
SEIHIN
100
AcDbLine
 10
6659.98632149221
 20
2804.079370884769
 30
0.0
 11
6667.48632149221
 21
2804.079370884769
 31
0.0
  0
LINE
  5
43D
330
17
100
AcDbEntity
  8
SEIHIN
100
AcDbLine
 10
5667.48632149221
 20
2829.079370884769
 30
0.0
 11
6659.98632149221
 21
2829.079370884768
 31
0.0
  0
LINE
  5
43E
330
17
100
AcDbEntity
  8
SEIHIN
100
AcDbLine
 10
6667.48632149221
 20
4029.079370884769
 30
0.0
 11
6667.48632149221
 21
2689.079370884769
 31
0.0
  0
TEXT
  5
443
330
17
100
AcDbEntity
  8
SUNPOU
100
AcDbText
 10
7027.356635487141
 20
420.0
 30
0.0
 40
50.0
  1
1105
 72
     2
 11
7169.023302153808
 21
420.0
 31
0.0
100
AcDbText
  0
TEXT
  5
447
330
17
100
AcDbEntity
  8
SUNPOU
100
AcDbText
 10
7087.320567567876
 20
650.0
 30
0.0
 40
50.0
  1
水路用Ｌ形ブロック　H1200
 72
     4
 11
7487.320567567876
 21
675.0
 31
0.0
100
AcDbText
  0
TEXT
  5
448
330
17
100
AcDbEntity
  8
SUNPOU
100
AcDbText
 10
7391.803107551493
 20
782.2041775471989
 30
0.0
 40
50.0
  1
種～　種同一形状　構造図
 72
     4
 11
7743.46977421816
 21
807.2041775471989
 31
0.0
100
AcDbText
  0
LINE
  5
449
330
17
100
AcDbEntity
  8
SUNPOU
100
AcDbLine
 10
7346.090963390143
 20
832.2388009880342
 30
0.0
 11
7373.614263878429
 21
832.2388009880342
 31
0.0
  0
LINE
  5
44A
330
17
100
AcDbEntity
  8
SUNPOU
100
AcDbLine
 10
7346.090963390143
 20
781.5131807400576
 30
0.0
 11
7373.614263878429
 21
781.5131807400576
 31
0.0
  0
LINE
  5
44B
330
17
100
AcDbEntity
  8
SUNPOU
100
AcDbLine
 10
7359.852613634286
 20
832.2388009880342
 30
0.0
 11
7359.852613634286
 21
781.5131807400576
 31
0.0
  0
LINE
  5
44C
330
17
100
AcDbEntity
  8
SUNPOU
100
AcDbLine
 10
7505.11445218317
 20
832.2388009880342
 30
0.0
 11
7532.637752671457
 21
832.2388009880342
 31
0.0
  0
LINE
  5
44D
330
17
100
AcDbEntity
  8
SUNPOU
100
AcDbLine
 10
7505.11445218317
 20
781.5131807400576
 30
0.0
 11
7532.637752671457
 21
781.5131807400576
 31
0.0
  0
LINE
  5
44E
330
17
100
AcDbEntity
  8
SUNPOU
100
AcDbLine
 10
7518.876102427314
 20
832.2388009880342
 30
0.0
 11
7518.876102427314
 21
781.5131807400576
 31
0.0
  0
LINE
  5
44F
330
17
100
AcDbEntity
  8
SUNPOU
100
AcDbLine
 10
7518.876102427314
 20
781.5131807400576
 30
0.0
 11
7546.3994029156
 21
781.5131807400576
 31
0.0
  0
LINE
  5
450
330
17
100
AcDbEntity
  8
SUNPOU
100
AcDbLine
 10
7518.876102427314
 20
832.2388009880342
 30
0.0
 11
7546.3994029156
 21
832.2388009880342
 31
0.0
  0
LINE
  5
451
330
17
100
AcDbEntity
  8
SUNPOU
100
AcDbLine
 10
7532.637752671457
 20
832.2388009880342
 30
0.0
 11
7532.637752671457
 21
781.5131807400576
 31
0.0
  0
LINE
  5
452
330
17
100
AcDbEntity
  8
SUNPOU
100
AcDbLine
 10
7546.3994029156
 20
832.2388009880342
 30
0.0
 11
7546.3994029156
 21
781.5131807400576
 31
0.0
  0
LINE
  5
453
330
17
100
AcDbEntity
  8
SUNPOU
100
AcDbLine
 10
7532.637752671457
 20
832.2388009880342
 30
0.0
 11
7560.161053159743
 21
832.2388009880342
 31
0.0
  0
LINE
  5
454
330
17
100
AcDbEntity
  8
SUNPOU
100
AcDbLine
 10
7532.637752671457
 20
781.5131807400576
 30
0.0
 11
7560.161053159743
 21
781.5131807400576
 31
0.0
  0
LINE
  5
468
330
17
100
AcDbEntity
  8
HOJO
100
AcDbLine
 10
2263.687746168265
 20
1949.079370884769
 30
0.0
 11
1822.156621012684
 21
1949.079370884769
 31
0.0
  0
LINE
  5
469
330
17
100
AcDbEntity
  8
HOJO
100
AcDbLine
 10
2263.687746168265
 20
2069.079370884769
 30
0.0
 11
1822.156621012684
 21
2069.079370884769
 31
0.0
  0
LINE
  5
46A
330
17
100
AcDbEntity
  8
HOJO
100
AcDbLine
 10
2263.687746168265
 20
2189.079370884769
 30
0.0
 11
1822.156621012684
 21
2189.079370884769
 31
0.0
  0
DIMENSION
  5
586
330
17
100
AcDbEntity
  8
SUNPOU
100
AcDbDimension
  2
*D9
 10
6667.48632149221
 20
4526.486721376255
 30
0.0
 11
5667.48632149221
 21
4565.486721376255
 31
0.0
 70
    32
 71
     5
 42
2000.0
  3
A3-20
100
AcDbAlignedDimension
 13
4667.48632149221
 23
4029.079370884769
 33
0.0
 14
6667.48632149221
 24
4029.079370884769
 34
0.0
100
AcDbRotatedDimension
  0
DIMENSION
  5
5EF
330
17
100
AcDbEntity
  8
SUNPOU
100
AcDbDimension
  2
*D13
 10
7074.559896806531
 20
2829.079370884768
 30
0.0
 11
7035.559896806531
 21
2759.079370884769
 31
0.0
 70
    32
 71
     5
 42
139.9999999999995
  3
A3-20
100
AcDbAlignedDimension
 13
6667.48632149221
 23
2689.079370884769
 33
0.0
 14
6659.98632149221
 24
2829.079370884768
 34
0.0
 50
90.0
100
AcDbRotatedDimension
  0
DIMENSION
  5
5FC
330
17
100
AcDbEntity
  8
SUNPOU
100
AcDbDimension
  2
*D14
 10
7074.559896806531
 20
2829.079370884768
 30
0.0
 11
7035.559896806531
 21
3429.079370884769
 31
0.0
 70
    32
 71
     5
 42
1200.0
  3
A3-20
100
AcDbAlignedDimension
 13
6667.48632149221
 23
4029.079370884769
 33
0.0
 14
6659.98632149221
 24
2829.079370884768
 34
0.0
 50
90.0
100
AcDbRotatedDimension
  0
DIMENSION
  5
609
330
17
100
AcDbEntity
  8
SUNPOU
100
AcDbDimension
  2
*D15
 10
7203.149662843658
 20
2689.079370884768
 30
0.0
 11
7164.149662843657
 21
3359.07937088477
 31
0.0
 70
    32
 71
     5
 42
1340.0
  3
A3-20
100
AcDbAlignedDimension
 13
6667.48632149221
 23
4029.079370884769
 33
0.0
 14
6667.48632149221
 24
2689.079370884769
 34
0.0
 50
90.0
100
AcDbRotatedDimension
  0
LINE
  5
656
330
17
100
AcDbEntity
  8
HOJO
100
AcDbLine
 10
3962.284090254785
 20
4409.079370884769
 30
0.0
 11
3520.752965099204
 21
4409.079370884769
 31
0.0
  0
DIMENSION
  5
67D
330
17
100
AcDbEntity
  8
SUNPOU
100
AcDbDimension
  2
*D16
 10
2996.680029666621
 20
2140.925040877431
 30
0.0
 11
2714.680029666621
 21
2179.925040877431
 31
0.0
 70
    32
 71
     5
 42
564.0
  3
A3-20
100
AcDbAlignedDimension
 13
2432.680029666621
 23
2689.079370884769
 33
0.0
 14
2996.680029666621
 24
2689.079370884769
 34
0.0
100
AcDbRotatedDimension
  0
TEXT
  5
698
330
17
100
AcDbEntity
  8
SUNPOU
100
AcDbText
 10
6666.78213615748
 20
791.2088067156765
 30
0.0
 40
50.0
  1
水路幅1.30～3.20m
 72
     4
 11
6953.448802824147
 21
816.2088067156765
 31
0.0
100
AcDbText
  0
DIMENSION
  5
8DB
330
17
100
AcDbEntity
  8
SUNPOU
100
AcDbDimension
  2
*D28
 10
2052.772060466581
 20
2829.079370884769
 30
0.0
 11
2013.772060466581
 21
3429.079370884769
 31
0.0
 70
    32
 71
     5
 42
1200.0
  3
A3-20
100
AcDbAlignedDimension
 13
2466.680029666621
 23
4029.079370884768
 33
0.0
 14
2576.680029666621
 24
2829.079370884769
 34
0.0
 50
90.0
100
AcDbRotatedDimension
  0
DIMENSION
  5
8E8
330
17
100
AcDbEntity
  8
SUNPOU
100
AcDbDimension
  2
*D29
 10
2052.772060466581
 20
2689.079370884769
 30
0.0
 11
2013.772060466581
 21
2759.079370884769
 31
0.0
 70
    32
 71
     5
 42
140.0
  3
A3-20
100
AcDbAlignedDimension
 13
2576.680029666621
 23
2829.079370884769
 33
0.0
 14
2432.680029666621
 24
2689.079370884769
 34
0.0
 50
90.0
100
AcDbRotatedDimension
  0
DIMENSION
  5
8F5
330
17
100
AcDbEntity
  8
SUNPOU
100
AcDbDimension
  2
*D30
 10
1930.792276362517
 20
2689.079370884769
 30
0.0
 11
1891.792276362517
 21
3359.079370884769
 31
0.0
 70
    32
 71
     5
 42
1340.0
  3
A3-20
100
AcDbAlignedDimension
 13
2466.680029666621
 23
4029.079370884768
 33
0.0
 14
2432.680029666621
 24
2689.079370884769
 34
0.0
 50
90.0
100
AcDbRotatedDimension
  0
DIMENSION
  5
B3E
330
17
100
AcDbEntity
  8
SUNPOU
100
AcDbDimension
  2
*D39
 10
2996.680029666621
 20
4526.486721376255
 30
0.0
 11
2731.680029666621
 21
4565.486721376255
 31
0.0
 70
    32
 71
     5
 42
530.0
  3
A3-20
100
AcDbAlignedDimension
 13
2466.680029666621
 23
4029.079370884768
 33
0.0
 14
2996.680029666621
 24
2829.079370884769
 34
0.0
100
AcDbRotatedDimension
  0
DIMENSION
  5
B4B
330
17
100
AcDbEntity
  8
SUNPOU
100
AcDbDimension
  2
*D40
 10
2996.680029666621
 20
4412.211194041673
 30
0.0
 11
2786.680029666621
 21
4451.211194041673
 31
0.0
 70
    32
 71
     5
 42
420.0
  3
A3-20
100
AcDbAlignedDimension
 13
2576.680029666621
 23
4029.079370884769
 33
0.0
 14
2996.680029666621
 24
2829.079370884769
 34
0.0
100
AcDbRotatedDimension
  0
DIMENSION
  5
B58
330
17
100
AcDbEntity
  8
SUNPOU
100
AcDbDimension
  2
*D41
 10
2576.680029666621
 20
4412.211194041673
 30
0.0
 11
2521.680029666621
 21
4451.211194041673
 31
0.0
 70
    32
 71
     5
 42
110.0
  3
A3-20
100
AcDbAlignedDimension
 13
2466.680029666621
 23
4029.079370884768
 33
0.0
 14
2576.680029666621
 24
4029.079370884769
 34
0.0
100
AcDbRotatedDimension
  0
LINE
  5
B61
330
17
100
AcDbEntity
  8
SEIHIN
100
AcDbLine
 10
2432.680029666621
 20
2689.079370884769
 30
0.0
 11
2466.680029666621
 21
4029.079370884768
 31
0.0
  0
DIMENSION
  5
BA5
330
17
100
AcDbEntity
  8
SUNPOU
100
AcDbDimension
  2
*D42
 10
2436.680029666621
 20
2256.65801864674
 30
0.0
 11
2716.680029666621
 21
2295.65801864674
 31
0.0
 70
    32
 71
     5
 42
560.0
  3
A3-20
100
AcDbAlignedDimension
 13
2996.680029666621
 23
2689.079370884769
 33
0.0
 14
2436.680029666621
 24
2689.079370884769
 34
0.0
100
AcDbRotatedDimension
  0
DIMENSION
  5
BB2
330
17
100
AcDbEntity
  8
SUNPOU
100
AcDbDimension
  2
*D43
 10
2436.680029666621
 20
2389.402386733585
 30
0.0
 11
2506.680029666621
 21
2428.402386733585
 31
0.0
 70
    32
 71
     5
 42
140.0
  3
A3-20
100
AcDbAlignedDimension
 13
2576.680029666621
 23
2829.079370884769
 33
0.0
 14
2436.680029666621
 24
2689.079370884769
 34
0.0
100
AcDbRotatedDimension
  0
TEXT
  5
E46
330
17
100
AcDbEntity
  8
SUNPOU
100
AcDbText
 10
3293.095204344654
 20
3062.746790148474
 30
0.0
 40
49.99999999999999
  1
つなぎ鉄筋
 41
0.8
100
AcDbText
  0
LEADER
  5
E48
330
17
100
AcDbEntity
  8
SUNPOU
100
AcDbLeader
  3
A3-20
 76
     3
 10
5448.650723422812
 20
2751.079370884769
 30
0.0
 10
5612.441366882587
 20
2464.691591257932
 30
0.0
 10
5966.022320714357
 20
2464.691591257932
 30
0.0
  0
TEXT
  5
E49
330
17
100
AcDbEntity
  8
SUNPOU
100
AcDbText
 10
5699.750425373439
 20
2473.9712308948
 30
0.0
 40
49.99999999999999
  1
つなぎ鉄筋
 41
0.8
100
AcDbText
  0
LEADER
  5
E4A
330
17
100
AcDbEntity
  8
SUNPOU
100
AcDbLeader
  3
A3-20
 76
     3
 10
5305.105629495716
 20
2751.079370884769
 30
0.0
 10
5468.896272955491
 20
2464.691591257932
 30
0.0
 10
5874.866834406261
 20
2464.691591257932
 30
0.0
  0
DIMENSION
  5
ECB
330
17
100
AcDbEntity
  8
SUNPOU
100
AcDbDimension
  2
*D45
 10
2436.680029666621
 20
2256.65801864674
 30
0.0
 11
2455.48678257702
 21
2295.65801864674
 31
0.0
 70
   160
 71
     5
 42
4.0
  3
A3-20
100
AcDbAlignedDimension
 13
2432.680029666621
 23
2689.079370884769
 33
0.0
 14
2436.680029666621
 24
2689.079370884769
 34
0.0
100
AcDbRotatedDimension
  0
LEADER
  5
FDC
330
17
100
AcDbEntity
  8
SUNPOU
100
AcDbLeader
  3
A3-20
 76
     3
 10
3041.995502394027
 20
2767.079370884768
 30
0.0
 10
3205.786145853803
 20
3053.467150511606
 30
0.0
 10
3548.992263099433
 20
3053.467150511606
 30
0.0
  0
TEXT
  5
FDF
330
17
100
AcDbEntity
  8
SUNPOU
100
AcDbText
 10
3293.095204344654
 20
2990.527927060495
 30
0.0
 40
49.99999999999999
  1
D13x14
 41
0.8
100
AcDbText
  0
TEXT
  5
FE0
330
17
100
AcDbEntity
  8
SUNPOU
100
AcDbText
 10
5699.750425373439
 20
2401.752367806821
 30
0.0
 40
49.99999999999999
  1
D13x14
 41
0.8
100
AcDbText
  0
LWPOLYLINE
  5
1014
330
17
100
AcDbEntity
  8
SUNPOU
100
AcDbPolyline
 90
        2
 70
     1
 43
4.95
 10
6614.96132149221
 20
2759.079370884769
 42
1.0
 10
6620.011321492209
 20
2759.079370884769
 42
1.0
  0
LWPOLYLINE
  5
1601
330
17
100
AcDbEntity
  8
SUNPOU
100
AcDbPolyline
 90
        2
 70
     1
 43
4.95
 10
4720.011321492209
 20
2759.079370884769
 42
-1.0
 10
4714.96132149221
 20
2759.079370884769
 42
-1.0
  0
LWPOLYLINE
  5
1602
330
17
100
AcDbEntity
  8
SUNPOU
100
AcDbPolyline
 90
        2
 70
     1
 43
4.95
 10
4866.165121492209
 20
2759.079370884769
 42
-1.0
 10
4861.11512149221
 20
2759.079370884769
 42
-1.0
  0
LWPOLYLINE
  5
1603
330
17
100
AcDbEntity
  8
SUNPOU
100
AcDbPolyline
 90
        2
 70
     1
 43
4.95
 10
5012.318921492209
 20
2759.079370884769
 42
-1.0
 10
5007.26892149221
 20
2759.079370884769
 42
-1.0
  0
LWPOLYLINE
  5
1604
330
17
100
AcDbEntity
  8
SUNPOU
100
AcDbPolyline
 90
        2
 70
     1
 43
4.95
 10
5158.47272149221
 20
2759.079370884769
 42
-1.0
 10
5153.42272149221
 20
2759.079370884769
 42
-1.0
  0
LWPOLYLINE
  5
1605
330
17
100
AcDbEntity
  8
SUNPOU
100
AcDbPolyline
 90
        2
 70
     1
 43
4.95
 10
5304.62652149221
 20
2759.079370884769
 42
-1.0
 10
5299.57652149221
 20
2759.079370884769
 42
-1.0
  0
LWPOLYLINE
  5
1606
330
17
100
AcDbEntity
  8
SUNPOU
100
AcDbPolyline
 90
        2
 70
     1
 43
4.95
 10
5450.78032149221
 20
2759.079370884769
 42
-1.0
 10
5445.73032149221
 20
2759.079370884769
 42
-1.0
  0
LWPOLYLINE
  5
1607
330
17
100
AcDbEntity
  8
SUNPOU
100
AcDbPolyline
 90
        2
 70
     1
 43
4.95
 10
5596.93412149221
 20
2759.079370884769
 42
-1.0
 10
5591.88412149221
 20
2759.079370884769
 42
-1.0
  0
LWPOLYLINE
  5
1608
330
17
100
AcDbEntity
  8
SUNPOU
100
AcDbPolyline
 90
        2
 70
     1
 43
4.95
 10
5743.08792149221
 20
2759.079370884769
 42
-1.0
 10
5738.03792149221
 20
2759.079370884769
 42
-1.0
  0
LWPOLYLINE
  5
1609
330
17
100
AcDbEntity
  8
SUNPOU
100
AcDbPolyline
 90
        2
 70
     1
 43
4.95
 10
5889.24172149221
 20
2759.079370884769
 42
-1.0
 10
5884.19172149221
 20
2759.079370884769
 42
-1.0
  0
LWPOLYLINE
  5
160A
330
17
100
AcDbEntity
  8
SUNPOU
100
AcDbPolyline
 90
        2
 70
     1
 43
4.95
 10
6035.39552149221
 20
2759.079370884769
 42
-1.0
 10
6030.345521492211
 20
2759.079370884769
 42
-1.0
  0
LWPOLYLINE
  5
160B
330
17
100
AcDbEntity
  8
SUNPOU
100
AcDbPolyline
 90
        2
 70
     1
 43
4.95
 10
6181.54932149221
 20
2759.079370884769
 42
-1.0
 10
6176.499321492211
 20
2759.079370884769
 42
-1.0
  0
LWPOLYLINE
  5
160C
330
17
100
AcDbEntity
  8
SUNPOU
100
AcDbPolyline
 90
        2
 70
     1
 43
4.95
 10
6327.703121492209
 20
2759.079370884769
 42
-1.0
 10
6322.65312149221
 20
2759.079370884769
 42
-1.0
  0
LWPOLYLINE
  5
160D
330
17
100
AcDbEntity
  8
SUNPOU
100
AcDbPolyline
 90
        2
 70
     1
 43
4.95
 10
6473.856921492209
 20
2759.079370884769
 42
-1.0
 10
6468.80692149221
 20
2759.079370884769
 42
-1.0
  0
ENDSEC
  0
SECTION
  2
OBJECTS
  0
DICTIONARY
  5
C
330
0
100
AcDbDictionary
281
     1
  3
ACAD_CIP_PREVIOUS_PRODUCT_INFO
350
10AC
  3
ACAD_COLOR
350
108A
  3
ACAD_DETAILVIEWSTYLE
350
10A3
  3
ACAD_GROUP
350
D
  3
ACAD_LAYOUT
350
10A5
  3
ACAD_MATERIAL
350
1058
  3
ACAD_MLEADERSTYLE
350
109F
  3
ACAD_MLINESTYLE
350
1A
  3
ACAD_PLOTSETTINGS
350
10A6
  3
ACAD_PLOTSTYLENAME
350
1056
  3
ACAD_SCALELIST
350
108D
  3
ACAD_SECTIONVIEWSTYLE
350
10A1
  3
ACAD_TABLESTYLE
350
108B
  3
ACAD_VISUALSTYLE
350
1071
  3
ACDB_RECOMPOSE_DATA
350
1854
  3
AcDbVariableDictionary
350
15D1
  3
AcDsDecomposeData
350
180C
  0
DICTIONARY
  5
1664
330
8
100
AcDbDictionary
280
     1
281
     1
  3
ACAD_XREC_ROUNDTRIP
360
184A
  0
DICTIONARY
  5
1636
330
2
100
AcDbDictionary
280
     1
281
     1
  3
ACAD_LAYERSTATES
360
1637
  0
DICTIONARY
  5
1640
330
E
100
AcDbDictionary
280
     1
281
     1
  3
ADSK_XREC_LAYER_RECONCILED
360
1641
  0
DICTIONARY
  5
1642
330
23
100
AcDbDictionary
280
     1
281
     1
  3
ADSK_XREC_LAYER_RECONCILED
360
1643
  0
DICTIONARY
  5
1644
330
24
100
AcDbDictionary
280
     1
281
     1
  3
ADSK_XREC_LAYER_RECONCILED
360
1645
  0
DICTIONARY
  5
1646
330
25
100
AcDbDictionary
280
     1
281
     1
  3
ADSK_XREC_LAYER_RECONCILED
360
1647
  0
DICTIONARY
  5
1648
330
26
100
AcDbDictionary
280
     1
281
     1
  3
ADSK_XREC_LAYER_RECONCILED
360
1649
  0
DICTIONARY
  5
164A
330
27
100
AcDbDictionary
280
     1
281
     1
  3
ADSK_XREC_LAYER_RECONCILED
360
164B
  0
DICTIONARY
  5
164C
330
28
100
AcDbDictionary
280
     1
281
     1
  3
ADSK_XREC_LAYER_RECONCILED
360
164D
  0
DICTIONARY
  5
164E
330
29
100
AcDbDictionary
280
     1
281
     1
  3
ADSK_XREC_LAYER_RECONCILED
360
164F
  0
DICTIONARY
  5
1650
330
2A
100
AcDbDictionary
280
     1
281
     1
  3
ADSK_XREC_LAYER_RECONCILED
360
1651
  0
DICTIONARY
  5
15C4
330
17
100
AcDbDictionary
280
     1
281
     1
  3
ACAD_SORTENTS
360
160E
  0
XRECORD
  5
10AC
102
{ACAD_REACTORS
330
C
102
}
330
C
100
AcDbXrecord
280
     1
300
ACD
300
2014
300
ACD_F_S
  0
DICTIONARY
  5
108A
102
{ACAD_REACTORS
330
C
102
}
330
C
100
AcDbDictionary
281
     1
  0
DICTIONARY
  5
10A3
102
{ACAD_REACTORS
330
C
102
}
330
C
100
AcDbDictionary
281
     1
  3
Imperial24
350
10A4
  0
DICTIONARY
  5
D
102
{ACAD_REACTORS
330
C
102
}
330
C
100
AcDbDictionary
281
     1
  0
DICTIONARY
  5
10A5
102
{ACAD_REACTORS
330
C
102
}
330
C
100
AcDbDictionary
281
     1
  3
Model
350
10A7
  3
レイアウト1
350
10A8
  0
DICTIONARY
  5
1058
102
{ACAD_REACTORS
330
C
102
}
330
C
100
AcDbDictionary
281
     1
  3
ByBlock
350
1061
  3
ByLayer
350
1059
  3
Global
350
1069
  0
DICTIONARY
  5
109F
102
{ACAD_REACTORS
330
C
102
}
330
C
100
AcDbDictionary
281
     1
  3
Standard
350
10A0
  0
DICTIONARY
  5
1A
102
{ACAD_REACTORS
330
C
102
}
330
C
100
AcDbDictionary
281
     1
  3
STANDARD
350
1B
  0
DICTIONARY
  5
10A6
102
{ACAD_REACTORS
330
C
102
}
330
C
100
AcDbDictionary
281
     1
  0
ACDBDICTIONARYWDFLT
  5
1056
102
{ACAD_REACTORS
330
C
102
}
330
C
100
AcDbDictionary
281
     1
  3
Normal
350
1057
100
AcDbDictionaryWithDefault
340
1057
  0
DICTIONARY
  5
108D
102
{ACAD_REACTORS
330
C
102
}
330
C
100
AcDbDictionary
281
     1
  3
A0
350
108E
  3
A1
350
108F
  3
A2
350
1090
  3
A3
350
1091
  3
A4
350
1092
  3
A5
350
1093
  3
A6
350
1094
  3
A7
350
1095
  3
A8
350
1096
  3
A9
350
1097
  3
B0
350
1098
  3
B1
350
1099
  3
B2
350
109A
  3
B3
350
109B
  3
B4
350
109C
  3
B5
350
109D
  3
B6
350
109E
  0
DICTIONARY
  5
10A1
102
{ACAD_REACTORS
330
C
102
}
330
C
100
AcDbDictionary
281
     1
  3
Imperial24
350
10A2
  0
DICTIONARY
  5
108B
102
{ACAD_REACTORS
330
C
102
}
330
C
100
AcDbDictionary
281
     1
  3
Standard
350
108C
  0
DICTIONARY
  5
1071
102
{ACAD_REACTORS
330
C
102
}
330
C
100
AcDbDictionary
281
     1
  3
2dWireframe
350
1077
  3
Basic
350
1076
  3
Brighten
350
107D
  3
ColorChange
350
1081
  3
Conceptual
350
107A
  3
Dim
350
107C
  3
EdgeColorOff
350
1089
  3
Facepattern
350
1080
  3
Flat
350
1072
  3
FlatWithEdges
350
1073
  3
Gouraud
350
1074
  3
GouraudWithEdges
350
1075
  3
Hidden
350
1079
  3
JitterOff
350
1087
  3
Linepattern
350
107F
  3
OverhangOff
350
1088
  3
Realistic
350
107B
  3
Shaded
350
1086
  3
Shaded with edges
350
1085
  3
Shades of Gray
350
1082
  3
Sketchy
350
1083
  3
Thicken
350
107E
  3
Wireframe
350
1078
  3
X-Ray
350
1084
  0
XRECORD
  5
1854
102
{ACAD_REACTORS
330
C
102
}
330
C
100
AcDbXrecord
280
     1
 90
        1
330
108C
  0
DICTIONARY
  5
15D1
102
{ACAD_REACTORS
330
C
102
}
330
C
100
AcDbDictionary
281
     1
  3
CANNOSCALE
350
16AA
  3
CMLEADERSTYLE
350
16A7
  3
CTABLESTYLE
350
16A6
  3
CVIEWDETAILSTYLE
350
16A8
  3
CVIEWSECTIONSTYLE
350
16A9
  3
LAYEREVAL
350
1847
  3
LAYERNOTIFY
350
1848
  3
LIGHTINGUNITS
350
1846
  3
MSLTSCALE
350
1845
  3
XCLIPFRAME
350
1849
  0
DICTIONARY
  5
180C
102
{ACAD_REACTORS
330
C
102
}
330
C
100
AcDbDictionary
281
     1
  3
AcDsRecords
350
180E
  3
AcDsSchemas
350
180D
1001
ACAD
1070
     2
  0
XRECORD
  5
184A
102
{ACAD_REACTORS
330
1664
102
}
330
1664
100
AcDbXrecord
280
     1
102
VTR_0.000_0.000_1.000_1.000_VISUALSTYLE
340
1077
102
VTR_0.000_0.000_1.000_1.000_GRIDDISPLAY
 70
     3
102
VTR_0.000_0.000_1.000_1.000_GRIDMAJOR
 70
     5
102
VTR_0.000_0.000_1.000_1.000_DEFAULTLIGHTING
280
     1
102
VTR_0.000_0.000_1.000_1.000_DEFAULTLIGHTINGTYPE
 70
     1
102
VTR_0.000_0.000_1.000_1.000_BRIGHTNESS
141
0.0
102
VTR_0.000_0.000_1.000_1.000_CONTRAST
142
0.0
  0
DICTIONARY
  5
1637
102
{ACAD_REACTORS
330
1636
102
}
330
1636
100
AcDbDictionary
281
     1
  0
XRECORD
  5
1641
102
{ACAD_REACTORS
330
1640
102
}
330
1640
100
AcDbXrecord
280
     1
290
     1
  0
XRECORD
  5
1643
102
{ACAD_REACTORS
330
1642
102
}
330
1642
100
AcDbXrecord
280
     1
290
     1
  0
XRECORD
  5
1645
102
{ACAD_REACTORS
330
1644
102
}
330
1644
100
AcDbXrecord
280
     1
290
     1
  0
XRECORD
  5
1647
102
{ACAD_REACTORS
330
1646
102
}
330
1646
100
AcDbXrecord
280
     1
290
     1
  0
XRECORD
  5
1649
102
{ACAD_REACTORS
330
1648
102
}
330
1648
100
AcDbXrecord
280
     1
290
     1
  0
XRECORD
  5
164B
102
{ACAD_REACTORS
330
164A
102
}
330
164A
100
AcDbXrecord
280
     1
290
     1
  0
XRECORD
  5
164D
102
{ACAD_REACTORS
330
164C
102
}
330
164C
100
AcDbXrecord
280
     1
290
     1
  0
XRECORD
  5
164F
102
{ACAD_REACTORS
330
164E
102
}
330
164E
100
AcDbXrecord
280
     1
290
     1
  0
XRECORD
  5
1651
102
{ACAD_REACTORS
330
1650
102
}
330
1650
100
AcDbXrecord
280
     1
290
     1
  0
SORTENTSTABLE
  5
160E
102
{ACAD_REACTORS
330
15C4
102
}
330
15C4
100
AcDbSortentsTable
330
17
331
0
  5
BC2
331
5F
  5
5F
331
160
  5
160
331
162
  5
162
331
16E
  5
16E
331
170
  5
170
331
175
  5
175
331
17D
  5
17D
331
1A1
  5
1A1
331
1B7
  5
1B7
331
1D1
  5
1D1
331
1D6
  5
1D6
331
244
  5
244
331
245
  5
245
331
246
  5
246
331
247
  5
247
331
2BF
  5
2BF
331
345
  5
345
331
349
  5
349
331
37A
  5
37A
331
39B
  5
39B
331
39C
  5
39C
331
39D
  5
39D
331
39E
  5
39E
331
39F
  5
39F
331
3A0
  5
3A0
331
3A1
  5
3A1
331
3A2
  5
3A2
331
3A3
  5
3A3
331
3A4
  5
3A4
331
3A5
  5
3A5
331
3A6
  5
3A6
331
3A7
  5
3A7
331
3A8
  5
3A8
331
3A9
  5
3A9
331
3AA
  5
3AA
331
3AB
  5
3AB
331
3AC
  5
3AC
331
3AD
  5
3AD
331
3AE
  5
3AE
331
3AF
  5
3AF
331
3B0
  5
3B0
331
3B1
  5
3B1
331
3B2
  5
3B2
331
3B3
  5
3B3
331
3B4
  5
3B4
331
3B5
  5
3B5
331
3B6
  5
3B6
331
3B7
  5
3B7
331
3B8
  5
3B8
331
3B9
  5
3B9
331
3BA
  5
3BA
331
3BB
  5
3BB
331
3BC
  5
3BC
331
3BD
  5
3BD
331
3BE
  5
3BE
331
3BF
  5
3BF
331
3C0
  5
3C0
331
3DC
  5
3DC
331
3EF
  5
3EF
331
3F0
  5
3F0
331
3F1
  5
3F1
331
3F8
  5
3F8
331
3FD
  5
3FD
331
3FE
  5
3FE
331
3FF
  5
3FF
331
434
  5
434
331
435
  5
435
331
436
  5
436
331
437
  5
437
331
43A
  5
43A
331
43B
  5
43B
331
43C
  5
43C
331
43D
  5
43D
331
43E
  5
43E
331
443
  5
443
331
447
  5
447
331
448
  5
448
331
449
  5
449
331
44A
  5
44A
331
44B
  5
44B
331
44C
  5
44C
331
44D
  5
44D
331
44E
  5
44E
331
44F
  5
44F
331
450
  5
450
331
451
  5
451
331
452
  5
452
331
453
  5
453
331
454
  5
454
331
468
  5
468
331
469
  5
469
331
46A
  5
46A
331
586
  5
586
331
5EF
  5
5EF
331
5FC
  5
5FC
331
609
  5
609
331
656
  5
656
331
67D
  5
67D
331
698
  5
698
331
8DB
  5
8DB
331
8E8
  5
8E8
331
8F5
  5
8F5
331
B3E
  5
B3E
331
B4B
  5
B4B
331
B58
  5
B58
331
B61
  5
B61
331
BA5
  5
BA5
331
BB2
  5
BB2
331
E46
  5
E46
331
E48
  5
E48
331
E49
  5
E49
331
E4A
  5
E4A
331
ECB
  5
ECB
331
FDC
  5
FDC
331
FDF
  5
FDF
331
FE0
  5
FE0
331
1014
  5
1014
331
1601
  5
1601
331
1602
  5
1602
331
1603
  5
1603
331
1604
  5
1604
331
1605
  5
1605
331
1606
  5
1606
331
1607
  5
1607
331
1608
  5
1608
331
1609
  5
1609
331
160A
  5
160A
331
160B
  5
160B
331
160C
  5
160C
331
160D
  5
160D
  0
ACAD_PROXY_OBJECT
  5
10A4
102
{ACAD_REACTORS
330
10A3
102
}
102
{ACAD_XDICTIONARY
360
1843
102
}
330
10A3
100
AcDbProxyObject
 90
      499
 91
      508
 95
  3276827
 70
     0
 93
     2314
310
9207000000180005C0F42F5A8DC671F815AF46E07A15AE7E07000000180005C0F42F5A8DC671FA3300000018001000000180005C0F42F5A8DC671FA02000000000000741FA028CC00000060002330000001800000852480368038003280390034803080360019001A004AD12801E002E00208031802B003080390010002B00
310
348032803B802A003C803800328010002E0033001000110012803A003180188011001F001280100012801E002E00208031802B003080390010002B00348032803B80220032803A00308034803600248032001F0012802E00280029802180208026002280100012801E002E00208031802B003080390010002B00348032803B
310
802980318030803600328010002E0033001000110012803980370011001F0012802B0340
340
F
340
0
340
13
340
F
340
13
340
13
 94
        0
  0
LAYOUT
  5
10A7
102
{ACAD_REACTORS
330
10A5
102
}
102
{ACAD_XDICTIONARY
360
16A1
102
}
330
10A5
100
AcDbPlotSettings
  1

  2
RICOH IPSiO NX850 RPCS
  4

  6

 40
0.0
 41
0.0
 42
0.0
 43
0.0
 44
0.0
 45
0.0
 46
0.0
 47
0.0
 48
0.0
 49
0.0
140
0.0
141
0.0
142
1.0
143
1.0
 70
  1712
 72
     0
 73
     0
 74
     0
  7

 75
     0
 76
     0
 77
     2
 78
   300
147
1.0
148
0.0
149
0.0
100
AcDbLayout
  1
Model
 70
     1
 71
     0
 10
0.0
 20
0.0
 11
12.0
 21
9.0
 12
0.0
 22
0.0
 32
0.0
 14
0.0
 24
0.0
 34
0.0
 15
0.0
 25
0.0
 35
0.0
146
0.0
 13
0.0
 23
0.0
 33
0.0
 16
1.0
 26
0.0
 36
0.0
 17
0.0
 27
1.0
 37
0.0
 76
     0
330
17
331
1054
  0
LAYOUT
  5
10A8
102
{ACAD_REACTORS
330
10A5
102
}
330
10A5
100
AcDbPlotSettings
  1

  2
RICOH IPSiO NX850 RPCS
  4

  6

 40
0.0
 41
0.0
 42
0.0
 43
0.0
 44
0.0
 45
0.0
 46
0.0
 47
0.0
 48
0.0
 49
0.0
140
0.0
141
0.0
142
1.0
143
1.0
 70
   688
 72
     0
 73
     0
 74
     5
  7

 75
    16
 76
     0
 77
     2
 78
   300
147
1.0
148
0.0
149
0.0
100
AcDbLayout
  1
レイアウト1
 70
     0
 71
     1
 10
0.0
 20
0.0
 11
12.0
 21
9.0
 12
0.0
 22
0.0
 32
0.0
 14
1.000000000000000E+20
 24
1.000000000000000E+20
 34
1.000000000000000E+20
 15
-1.000000000000000E+20
 25
-1.000000000000000E+20
 35
-1.000000000000000E+20
146
0.0
 13
0.0
 23
0.0
 33
0.0
 16
1.0
 26
0.0
 36
0.0
 17
0.0
 27
1.0
 37
0.0
 76
     0
330
14
  0
MATERIAL
  5
1061
102
{ACAD_REACTORS
330
1058
102
}
102
{ACAD_XDICTIONARY
360
184B
102
}
330
1058
100
AcDbMaterial
  1
ByBlock
 72
     0
 73
     2
 43
0.0208333333333333
 43
0.0
 43
0.0
 43
0.0
 43
0.0
 43
0.0208333333333333
 43
0.0
 43
0.0
 43
0.0
 43
0.0
 43
1.0
 43
0.0
 43
0.0
 43
0.0
 43
0.0
 43
1.0
 77
     0
 78
     2
 47
0.0208333333333333
 47
0.0
 47
0.0
 47
0.0
 47
0.0
 47
0.0208333333333333
 47
0.0
 47
0.0
 47
0.0
 47
0.0
 47
1.0
 47
0.0
 47
0.0
 47
0.0
 47
0.0
 47
1.0
171
     0
172
     2
 49
0.0208333333333333
 49
0.0
 49
0.0
 49
0.0
 49
0.0
 49
0.0208333333333333
 49
0.0
 49
0.0
 49
0.0
 49
0.0
 49
1.0
 49
0.0
 49
0.0
 49
0.0
 49
0.0
 49
1.0
175
     0
176
     2
142
0.0208333333333333
142
0.0
142
0.0
142
0.0
142
0.0
142
0.0208333333333333
142
0.0
142
0.0
142
0.0
142
0.0
142
1.0
142
0.0
142
0.0
142
0.0
142
0.0
142
1.0
179
     0
270
     2
144
0.0208333333333333
144
0.0
144
0.0
144
0.0
144
0.0
144
0.0208333333333333
144
0.0
144
0.0
144
0.0
144
0.0
144
1.0
144
0.0
144
0.0
144
0.0
144
0.0
144
1.0
274
     2
147
0.0208333333333333
147
0.0
147
0.0
147
0.0
147
0.0
147
0.0208333333333333
147
0.0
147
0.0
147
0.0
147
0.0
147
1.0
147
0.0
147
0.0
147
0.0
147
0.0
147
1.0
  0
MATERIAL
  5
1059
102
{ACAD_REACTORS
330
1058
102
}
102
{ACAD_XDICTIONARY
360
184D
102
}
330
1058
100
AcDbMaterial
  1
ByLayer
 72
     0
 73
     2
 43
0.0208333333333333
 43
0.0
 43
0.0
 43
0.0
 43
0.0
 43
0.0208333333333333
 43
0.0
 43
0.0
 43
0.0
 43
0.0
 43
1.0
 43
0.0
 43
0.0
 43
0.0
 43
0.0
 43
1.0
 77
     0
 78
     2
 47
0.0208333333333333
 47
0.0
 47
0.0
 47
0.0
 47
0.0
 47
0.0208333333333333
 47
0.0
 47
0.0
 47
0.0
 47
0.0
 47
1.0
 47
0.0
 47
0.0
 47
0.0
 47
0.0
 47
1.0
171
     0
172
     2
 49
0.0208333333333333
 49
0.0
 49
0.0
 49
0.0
 49
0.0
 49
0.0208333333333333
 49
0.0
 49
0.0
 49
0.0
 49
0.0
 49
1.0
 49
0.0
 49
0.0
 49
0.0
 49
0.0
 49
1.0
175
     0
176
     2
142
0.0208333333333333
142
0.0
142
0.0
142
0.0
142
0.0
142
0.0208333333333333
142
0.0
142
0.0
142
0.0
142
0.0
142
1.0
142
0.0
142
0.0
142
0.0
142
0.0
142
1.0
179
     0
270
     2
144
0.0208333333333333
144
0.0
144
0.0
144
0.0
144
0.0
144
0.0208333333333333
144
0.0
144
0.0
144
0.0
144
0.0
144
1.0
144
0.0
144
0.0
144
0.0
144
0.0
144
1.0
274
     2
147
0.0208333333333333
147
0.0
147
0.0
147
0.0
147
0.0
147
0.0208333333333333
147
0.0
147
0.0
147
0.0
147
0.0
147
1.0
147
0.0
147
0.0
147
0.0
147
0.0
147
1.0
  0
MATERIAL
  5
1069
102
{ACAD_REACTORS
330
1058
102
}
102
{ACAD_XDICTIONARY
360
184F
102
}
330
1058
100
AcDbMaterial
  1
Global
 72
     0
 73
     2
 43
0.0208333333333333
 43
0.0
 43
0.0
 43
0.0
 43
0.0
 43
0.0208333333333333
 43
0.0
 43
0.0
 43
0.0
 43
0.0
 43
1.0
 43
0.0
 43
0.0
 43
0.0
 43
0.0
 43
1.0
 77
     0
 78
     2
 47
0.0208333333333333
 47
0.0
 47
0.0
 47
0.0
 47
0.0
 47
0.0208333333333333
 47
0.0
 47
0.0
 47
0.0
 47
0.0
 47
1.0
 47
0.0
 47
0.0
 47
0.0
 47
0.0
 47
1.0
171
     0
172
     2
 49
0.0208333333333333
 49
0.0
 49
0.0
 49
0.0
 49
0.0
 49
0.0208333333333333
 49
0.0
 49
0.0
 49
0.0
 49
0.0
 49
1.0
 49
0.0
 49
0.0
 49
0.0
 49
0.0
 49
1.0
175
     0
176
     2
142
0.0208333333333333
142
0.0
142
0.0
142
0.0
142
0.0
142
0.0208333333333333
142
0.0
142
0.0
142
0.0
142
0.0
142
1.0
142
0.0
142
0.0
142
0.0
142
0.0
142
1.0
179
     0
270
     2
144
0.0208333333333333
144
0.0
144
0.0
144
0.0
144
0.0
144
0.0208333333333333
144
0.0
144
0.0
144
0.0
144
0.0
144
1.0
144
0.0
144
0.0
144
0.0
144
0.0
144
1.0
274
     2
147
0.0208333333333333
147
0.0
147
0.0
147
0.0
147
0.0
147
0.0208333333333333
147
0.0
147
0.0
147
0.0
147
0.0
147
1.0
147
0.0
147
0.0
147
0.0
147
0.0
147
1.0
  0
MLEADERSTYLE
  5
10A0
102
{ACAD_REACTORS
330
109F
102
}
330
109F
100
AcDbMLeaderStyle
170
     2
171
     1
172
     0
 90
        2
 40
0.0
 41
0.0
173
     1
 91
-1056964608
340
11
 92
       -2
290
     1
 42
0.09
291
     1
 43
0.36
  3
Standard
341
0
 44
0.18
300

342
F
174
     1
178
     6
175
     1
176
     0
 93
-1056964608
 45
0.18
292
     0
297
     0
 46
0.18
343
0
 94
-1056964608
 47
1.0
 49
1.0
140
1.0
293
     1
141
0.0
294
     1
177
     0
142
1.0
295
     0
296
     0
143
0.125
1001
ACAD_MLEADERVER
1070
     2
  0
MLINESTYLE
  5
1B
102
{ACAD_REACTORS
330
1A
102
}
330
1A
100
AcDbMlineStyle
  2
STANDARD
 70
     0
  3

 62
   256
 51
90.0
 52
90.0
 71
     2
 49
0.5
 62
   256
  6
BYLAYER
 49
-0.5
 62
   256
  6
BYLAYER
  0
ACDBPLACEHOLDER
  5
1057
102
{ACAD_REACTORS
330
1056
102
}
330
1056
  0
SCALE
  5
108E
102
{ACAD_REACTORS
330
108D
102
}
330
108D
100
AcDbScale
 70
     0
300
1:1
140
1.0
141
1.0
290
     1
  0
SCALE
  5
108F
102
{ACAD_REACTORS
330
108D
102
}
330
108D
100
AcDbScale
 70
     0
300
1/128" = 1'-0"
140
0.0078125
141
12.0
290
     0
  0
SCALE
  5
1090
102
{ACAD_REACTORS
330
108D
102
}
330
108D
100
AcDbScale
 70
     0
300
1/64" = 1'-0"
140
0.015625
141
12.0
290
     0
  0
SCALE
  5
1091
102
{ACAD_REACTORS
330
108D
102
}
330
108D
100
AcDbScale
 70
     0
300
1/32" = 1'-0"
140
0.03125
141
12.0
290
     0
  0
SCALE
  5
1092
102
{ACAD_REACTORS
330
108D
102
}
330
108D
100
AcDbScale
 70
     0
300
1/16" = 1'-0"
140
0.0625
141
12.0
290
     0
  0
SCALE
  5
1093
102
{ACAD_REACTORS
330
108D
102
}
330
108D
100
AcDbScale
 70
     0
300
3/32" = 1'-0"
140
0.09375
141
12.0
290
     0
  0
SCALE
  5
1094
102
{ACAD_REACTORS
330
108D
102
}
330
108D
100
AcDbScale
 70
     0
300
1/8" = 1'-0"
140
0.125
141
12.0
290
     0
  0
SCALE
  5
1095
102
{ACAD_REACTORS
330
108D
102
}
330
108D
100
AcDbScale
 70
     0
300
3/16" = 1'-0"
140
0.1875
141
12.0
290
     0
  0
SCALE
  5
1096
102
{ACAD_REACTORS
330
108D
102
}
330
108D
100
AcDbScale
 70
     0
300
1/4" = 1'-0"
140
0.25
141
12.0
290
     0
  0
SCALE
  5
1097
102
{ACAD_REACTORS
330
108D
102
}
330
108D
100
AcDbScale
 70
     0
300
3/8" = 1'-0"
140
0.375
141
12.0
290
     0
  0
SCALE
  5
1098
102
{ACAD_REACTORS
330
108D
102
}
330
108D
100
AcDbScale
 70
     0
300
1/2" = 1'-0"
140
0.5
141
12.0
290
     0
  0
SCALE
  5
1099
102
{ACAD_REACTORS
330
108D
102
}
330
108D
100
AcDbScale
 70
     0
300
3/4" = 1'-0"
140
0.75
141
12.0
290
     0
  0
SCALE
  5
109A
102
{ACAD_REACTORS
330
108D
102
}
330
108D
100
AcDbScale
 70
     0
300
1" = 1'-0"
140
1.0
141
12.0
290
     0
  0
SCALE
  5
109B
102
{ACAD_REACTORS
330
108D
102
}
330
108D
100
AcDbScale
 70
     0
300
1-1/2" = 1'-0"
140
1.5
141
12.0
290
     0
  0
SCALE
  5
109C
102
{ACAD_REACTORS
330
108D
102
}
330
108D
100
AcDbScale
 70
     0
300
3" = 1'-0"
140
3.0
141
12.0
290
     0
  0
SCALE
  5
109D
102
{ACAD_REACTORS
330
108D
102
}
330
108D
100
AcDbScale
 70
     0
300
6" = 1'-0"
140
6.0
141
12.0
290
     0
  0
SCALE
  5
109E
102
{ACAD_REACTORS
330
108D
102
}
330
108D
100
AcDbScale
 70
     0
300
1'-0" = 1'-0"
140
12.0
141
12.0
290
     0
  0
ACAD_PROXY_OBJECT
  5
10A2
102
{ACAD_REACTORS
330
10A1
102
}
102
{ACAD_XDICTIONARY
360
1841
102
}
330
10A1
100
AcDbProxyObject
 90
      499
 91
      507
 95
  3276827
 70
     0
 93
     3814
310
929D000000180005C0F42F5A8DC671FC00000060001703D0BD6A3719C7E5C0F42F5A8DC6F1FA330000001800099400000060001703D0BD6A3719C7E5C0F42F5A8DC671FC00000060001703D0BD6A3719C7E808000000000001D07E80C0000006000400000064003081815AF46E07A158E7E80C8340C16A22A7D90FC9F8CAE6
310
5A70A583A07E1FE81C635378FA1F8CAE65A70A583A17E7944A7F127A97E9FA149200DA00E000CA00E400D200C200D80064006800882480160010002780160010002880160010002980160010002C00160010002D002F84A007800B8008200C600AC00C200E4004000AC00D200CA00EE00A800F200E000CA004000B800CC004
310
00044004A00E800C600620044007C004A0040004A007800B8008200C600AC00C200E4004000AC00D200CA00EE00A600CA00C600E800D200DE00DC00A600E800C200E400E8009200C8007C004A005A004A007800B8008200C600AC00C200E4004000AC00D200CA00EE00A600CA00C600E800D200DE00DC008A00DC00C800920
310
0C8007C004A00B800A000A6008600820098008A0040004A007800B8008200C600AC00C200E4004000AC00D200CA00EE00A600C600C200D800CA004000B800CC00400044004A00E600DC0044007C004A00832080270029802480198018807404C
340
F
340
0
340
0
340
13
340
13
340
F
 94
        0
  0
TABLESTYLE
  5
108C
102
{ACAD_REACTORS
330
108B
102
}
102
{ACAD_XDICTIONARY
360
1851
102
}
330
108B
100
AcDbTableStyle
  3
Standard
 70
     0
 71
     0
 40
0.06
 41
0.06
280
     0
281
     0
  7
STANDARD
140
0.18
170
     2
 62
     0
 63
   257
283
     0
274
    -2
284
     1
 64
     0
275
    -2
285
     1
 65
     0
276
    -2
286
     1
 66
     0
277
    -2
287
     1
 67
     0
278
    -2
288
     1
 68
     0
279
    -2
289
     1
 69
     0
  7
STANDARD
140
0.25
170
     5
 62
     0
 63
   257
283
     0
274
    -2
284
     1
 64
     0
275
    -2
285
     1
 65
     0
276
    -2
286
     1
 66
     0
277
    -2
287
     1
 67
     0
278
    -2
288
     1
 68
     0
279
    -2
289
     1
 69
     0
  7
STANDARD
140
0.18
170
     5
 62
     0
 63
   257
283
     0
274
    -2
284
     1
 64
     0
275
    -2
285
     1
 65
     0
276
    -2
286
     1
 66
     0
277
    -2
287
     1
 67
     0
278
    -2
288
     1
 68
     0
279
    -2
289
     1
 69
     0
  0
VISUALSTYLE
  5
1077
102
{ACAD_REACTORS
330
1071
102
}
102
{ACAD_XDICTIONARY
360
1855
102
}
330
1071
100
AcDbVisualStyle
  2
2dWireframe
 70
     4
 71
     0
 72
     2
 73
     0
 90
        0
 40
-0.6
 41
-30.0
 62
     5
 63
     7
421
 16777215
 74
     1
 91
        4
 64
     7
 65
   257
 75
     1
175
     1
 42
1.0
 92
        0
 66
   257
 43
1.0
 76
     1
 77
     6
 78
     2
 67
     7
 79
     5
170
     0
171
     0
290
     0
174
     0
 93
        1
 44
0.0
173
     0
291
     0
 45
0.0
1001
ACAD
1000
AcDbSavedByObjectVersion
1070
     0
  0
VISUALSTYLE
  5
1076
102
{ACAD_REACTORS
330
1071
102
}
102
{ACAD_XDICTIONARY
360
1857
102
}
330
1071
100
AcDbVisualStyle
  2
Basic
 70
     7
 71
     1
 72
     0
 73
     1
 90
        0
 40
-0.6
 41
-30.0
 62
     5
 63
     7
421
 16777215
 74
     0
 91
        4
 64
     7
 65
   257
 75
     1
175
     1
 42
1.0
 92
        8
 66
     7
 43
1.0
 76
     1
 77
     6
 78
     2
 67
     7
 79
     5
170
     0
171
     0
290
     0
174
     0
 93
        1
 44
0.0
173
     0
291
     1
 45
0.0
1001
ACAD
1000
AcDbSavedByObjectVersion
1070
     0
  0
VISUALSTYLE
  5
107D
102
{ACAD_REACTORS
330
1071
102
}
102
{ACAD_XDICTIONARY
360
1859
102
}
330
1071
100
AcDbVisualStyle
  2
Brighten
 70
    12
 71
     2
 72
     2
 73
     0
 90
        0
 40
-0.6
 41
-30.0
 62
     5
 63
     7
421
 16777215
 74
     1
 91
        4
 64
     7
 65
   257
 75
     1
175
     1
 42
1.0
 92
        8
 66
     7
 43
1.0
 76
     1
 77
     6
 78
     2
 67
     7
 79
     5
170
     0
171
     0
290
     0
174
     0
 93
        1
 44
50.0
173
     0
291
     1
 45
0.0
1001
ACAD
1000
AcDbSavedByObjectVersion
1070
     0
  0
VISUALSTYLE
  5
1081
102
{ACAD_REACTORS
330
1071
102
}
102
{ACAD_XDICTIONARY
360
185B
102
}
330
1071
100
AcDbVisualStyle
  2
ColorChange
 70
    16
 71
     2
 72
     2
 73
     3
 90
        0
 40
-0.6
 41
-30.0
 62
     5
 63
     8
421
  8421504
 74
     1
 91
        4
 64
     7
 65
   257
 75
     1
175
     1
 42
1.0
 92
        8
 66
     8
424
  8421504
 43
1.0
 76
     1
 77
     6
 78
     2
 67
     7
 79
     5
170
     0
171
     0
290
     0
174
     0
 93
        1
 44
0.0
173
     0
291
     1
 45
0.0
1001
ACAD
1000
AcDbSavedByObjectVersion
1070
     0
  0
VISUALSTYLE
  5
107A
102
{ACAD_REACTORS
330
1071
102
}
102
{ACAD_XDICTIONARY
360
185D
102
}
330
1071
100
AcDbVisualStyle
  2
Conceptual
 70
     9
 71
     3
 72
     2
 73
     0
 90
        0
 40
-0.6
 41
-30.0
 62
     5
 63
     7
421
 16777215
 74
     2
 91
        2
 64
     7
 65
   257
 75
     1
175
     1
 42
179.0
 92
        8
 66
     7
 43
1.0
 76
     1
 77
     6
 78
     2
 67
     7
 79
     3
170
     0
171
     0
290
     0
174
     0
 93
        1
 44
0.0
173
     0
291
     0
 45
0.0
1001
ACAD
1000
AcDbSavedByObjectVersion
1070
     0
  0
VISUALSTYLE
  5
107C
102
{ACAD_REACTORS
330
1071
102
}
102
{ACAD_XDICTIONARY
360
185F
102
}
330
1071
100
AcDbVisualStyle
  2
Dim
 70
    11
 71
     2
 72
     2
 73
     0
 90
        0
 40
-0.6
 41
-30.0
 62
     5
 63
     7
421
 16777215
 74
     1
 91
        4
 64
     7
 65
   257
 75
     1
175
     1
 42
1.0
 92
        8
 66
     7
 43
1.0
 76
     1
 77
     6
 78
     2
 67
     7
 79
     5
170
     0
171
     0
290
     0
174
     0
 93
        1
 44
-50.0
173
     0
291
     1
 45
0.0
1001
ACAD
1000
AcDbSavedByObjectVersion
1070
     0
  0
VISUALSTYLE
  5
1089
102
{ACAD_REACTORS
330
1071
102
}
102
{ACAD_XDICTIONARY
360
1861
102
}
330
1071
100
AcDbVisualStyle
  2
EdgeColorOff
 70
    22
 71
     2
 72
     2
 73
     0
 90
        0
 40
-0.6
 41
-30.0
 62
     5
 63
     7
421
 16777215
 74
     1
 91
        4
 64
     7
 65
   257
 75
     1
175
     1
 42
1.0
 92
        8
 66
     7
 43
1.0
 76
     1
 77
     6
 78
     2
 67
     7
 79
     5
170
     0
171
     0
290
     0
174
     0
 93
        1
 44
0.0
173
     0
291
     1
 45
0.0
1001
ACAD
1000
AcDbSavedByObjectVersion
1070
     0
  0
VISUALSTYLE
  5
1080
102
{ACAD_REACTORS
330
1071
102
}
102
{ACAD_XDICTIONARY
360
1863
102
}
330
1071
100
AcDbVisualStyle
  2
Facepattern
 70
    15
 71
     2
 72
     2
 73
     0
 90
        0
 40
-0.6
 41
-30.0
 62
     5
 63
     7
421
 16777215
 74
     1
 91
        4
 64
     7
 65
   257
 75
     1
175
     1
 42
1.0
 92
        8
 66
     7
 43
1.0
 76
     1
 77
     6
 78
     2
 67
     7
 79
     5
170
     0
171
     0
290
     0
174
     0
 93
        1
 44
0.0
173
     0
291
     1
 45
0.0
1001
ACAD
1000
AcDbSavedByObjectVersion
1070
     0
  0
VISUALSTYLE
  5
1072
102
{ACAD_REACTORS
330
1071
102
}
102
{ACAD_XDICTIONARY
360
1865
102
}
330
1071
100
AcDbVisualStyle
  2
Flat
 70
     0
 71
     2
 72
     1
 73
     1
 90
        2
 40
-0.6
 41
30.0
 62
     5
 63
     7
421
 16777215
 74
     0
 91
        0
 64
     7
 65
   257
 75
     1
175
     1
 42
1.0
 92
        8
 66
     7
 43
1.0
 76
     1
 77
     6
 78
     2
 67
     7
 79
     5
170
     0
171
     0
290
     0
174
     0
 93
       13
 44
0.0
173
     0
291
     1
 45
0.0
1001
ACAD
1000
AcDbSavedByObjectVersion
1070
     0
  0
VISUALSTYLE
  5
1073
102
{ACAD_REACTORS
330
1071
102
}
102
{ACAD_XDICTIONARY
360
1867
102
}
330
1071
100
AcDbVisualStyle
  2
FlatWithEdges
 70
     1
 71
     2
 72
     1
 73
     1
 90
        2
 40
-0.6
 41
30.0
 62
     5
 63
     7
421
 16777215
 74
     1
 91
        0
 64
     7
 65
   257
 75
     1
175
     1
 42
1.0
 92
        0
 66
   257
 43
1.0
 76
     1
 77
     6
 78
     2
 67
     7
 79
     5
170
     0
171
     0
290
     0
174
     0
 93
       13
 44
0.0
173
     0
291
     1
 45
0.0
1001
ACAD
1000
AcDbSavedByObjectVersion
1070
     0
  0
VISUALSTYLE
  5
1074
102
{ACAD_REACTORS
330
1071
102
}
102
{ACAD_XDICTIONARY
360
1869
102
}
330
1071
100
AcDbVisualStyle
  2
Gouraud
 70
     2
 71
     2
 72
     2
 73
     1
 90
        2
 40
-0.6
 41
30.0
 62
     5
 63
     7
421
 16777215
 74
     0
 91
        0
 64
     7
 65
   257
 75
     1
175
     1
 42
1.0
 92
        0
 66
     7
 43
1.0
 76
     1
 77
     6
 78
     2
 67
     7
 79
     5
170
     0
171
     0
290
     0
174
     0
 93
       13
 44
0.0
173
     0
291
     1
 45
0.0
1001
ACAD
1000
AcDbSavedByObjectVersion
1070
     0
  0
VISUALSTYLE
  5
1075
102
{ACAD_REACTORS
330
1071
102
}
102
{ACAD_XDICTIONARY
360
186B
102
}
330
1071
100
AcDbVisualStyle
  2
GouraudWithEdges
 70
     3
 71
     2
 72
     2
 73
     1
 90
        2
 40
-0.6
 41
30.0
 62
     5
 63
     7
421
 16777215
 74
     1
 91
        0
 64
     7
 65
   257
 75
     1
175
     1
 42
1.0
 92
        0
 66
   257
 43
1.0
 76
     1
 77
     6
 78
     2
 67
     7
 79
     5
170
     0
171
     0
290
     0
174
     0
 93
       13
 44
0.0
173
     0
291
     1
 45
0.0
1001
ACAD
1000
AcDbSavedByObjectVersion
1070
     0
  0
VISUALSTYLE
  5
1079
102
{ACAD_REACTORS
330
1071
102
}
102
{ACAD_XDICTIONARY
360
186D
102
}
330
1071
100
AcDbVisualStyle
  2
Hidden
 70
     6
 71
     1
 72
     2
 73
     2
 90
        0
 40
-0.6
 41
-30.0
 62
     5
 63
     7
421
 16777215
 74
     2
 91
        2
 64
     7
 65
   257
 75
     2
175
     1
 42
40.0
 92
        0
 66
   257
 43
1.0
 76
     1
 77
     6
 78
     2
 67
     7
 79
     3
170
     0
171
     0
290
     0
174
     0
 93
        1
 44
0.0
173
     0
291
     0
 45
0.0
1001
ACAD
1000
AcDbSavedByObjectVersion
1070
     0
  0
VISUALSTYLE
  5
1087
102
{ACAD_REACTORS
330
1071
102
}
102
{ACAD_XDICTIONARY
360
186F
102
}
330
1071
100
AcDbVisualStyle
  2
JitterOff
 70
    20
 71
     2
 72
     2
 73
     0
 90
        0
 40
-0.6
 41
-30.0
 62
     5
 63
     7
421
 16777215
 74
     1
 91
        4
 64
     7
 65
   257
 75
     1
175
     1
 42
1.0
 92
       10
 66
     7
 43
1.0
 76
     1
 77
     6
 78
     2
 67
     7
 79
     5
170
     0
171
     0
290
     0
174
     0
 93
        1
 44
0.0
173
     0
291
     1
 45
0.0
1001
ACAD
1000
AcDbSavedByObjectVersion
1070
     0
  0
VISUALSTYLE
  5
107F
102
{ACAD_REACTORS
330
1071
102
}
102
{ACAD_XDICTIONARY
360
1871
102
}
330
1071
100
AcDbVisualStyle
  2
Linepattern
 70
    14
 71
     2
 72
     2
 73
     0
 90
        0
 40
-0.6
 41
-30.0
 62
     5
 63
     7
421
 16777215
 74
     1
 91
        4
 64
     7
 65
   257
 75
     7
175
     7
 42
1.0
 92
        8
 66
     7
 43
1.0
 76
     1
 77
     6
 78
     2
 67
     7
 79
     5
170
     0
171
     0
290
     0
174
     0
 93
        1
 44
0.0
173
     0
291
     1
 45
0.0
1001
ACAD
1000
AcDbSavedByObjectVersion
1070
     0
  0
VISUALSTYLE
  5
1088
102
{ACAD_REACTORS
330
1071
102
}
102
{ACAD_XDICTIONARY
360
1873
102
}
330
1071
100
AcDbVisualStyle
  2
OverhangOff
 70
    21
 71
     2
 72
     2
 73
     0
 90
        0
 40
-0.6
 41
-30.0
 62
     5
 63
     7
421
 16777215
 74
     1
 91
        4
 64
     7
 65
   257
 75
     1
175
     1
 42
1.0
 92
        9
 66
     7
 43
1.0
 76
     1
 77
     6
 78
     2
 67
     7
 79
     5
170
     0
171
     0
290
     0
174
     0
 93
        1
 44
0.0
173
     0
291
     1
 45
0.0
1001
ACAD
1000
AcDbSavedByObjectVersion
1070
     0
  0
VISUALSTYLE
  5
107B
102
{ACAD_REACTORS
330
1071
102
}
102
{ACAD_XDICTIONARY
360
1875
102
}
330
1071
100
AcDbVisualStyle
  2
Realistic
 70
     8
 71
     2
 72
     2
 73
     0
 90
        2
 40
-0.6
 41
30.0
 62
     5
 63
     7
421
 16777215
 74
     0
 91
        0
 64
     7
 65
   257
 75
     1
175
     1
 42
1.0
 92
        8
 66
   257
 43
1.0
 76
     1
 77
     6
 78
     2
 67
     7
 79
     3
170
     0
171
     0
290
     0
174
     0
 93
       13
 44
0.0
173
     0
291
     0
 45
0.0
1001
ACAD
1000
AcDbSavedByObjectVersion
1070
     0
  0
VISUALSTYLE
  5
1086
102
{ACAD_REACTORS
330
1071
102
}
102
{ACAD_XDICTIONARY
360
1877
102
}
330
1071
100
AcDbVisualStyle
  2
Shaded
 70
    27
 71
     2
 72
     2
 73
     1
 90
        2
 40
-0.6
 41
30.0
 62
     5
 63
     7
421
 16777215
 74
     0
 91
        4
 64
     7
 65
   257
 75
     1
175
     1
 42
1.0
 92
        8
 66
   257
 43
1.0
 76
     1
 77
     6
 78
     2
 67
     8
425
  7895160
 79
     3
170
     0
171
     0
290
     0
174
     0
 93
        5
 44
0.0
173
     0
291
     0
 45
0.0
1001
ACAD
1000
AcDbSavedByObjectVersion
1070
     0
  0
VISUALSTYLE
  5
1085
102
{ACAD_REACTORS
330
1071
102
}
102
{ACAD_XDICTIONARY
360
1879
102
}
330
1071
100
AcDbVisualStyle
  2
Shaded with edges
 70
    26
 71
     2
 72
     2
 73
     1
 90
        2
 40
-0.6
 41
30.0
 62
     5
 63
     7
421
 16777215
 74
     1
 91
       10
 64
     7
 65
   257
 75
     2
175
     1
 42
1.0
 92
        8
 66
   257
 43
1.0
 76
     1
 77
     6
 78
     2
 67
     7
 79
     3
170
     0
171
     0
290
     0
174
     0
 93
        5
 44
0.0
173
     0
291
     0
 45
0.0
1001
ACAD
1000
AcDbSavedByObjectVersion
1070
     0
  0
VISUALSTYLE
  5
1082
102
{ACAD_REACTORS
330
1071
102
}
102
{ACAD_XDICTIONARY
360
187B
102
}
330
1071
100
AcDbVisualStyle
  2
Shades of Gray
 70
    23
 71
     2
 72
     2
 73
     3
 90
        0
 40
-0.6
 41
-30.0
 62
     5
 63
     7
421
 16777215
 74
     2
 91
        2
 64
     7
 65
     7
 75
     1
175
     1
 42
40.0
 92
        8
 66
     7
 43
1.0
 76
     1
 77
     6
 78
     2
 67
     7
 79
     3
170
     0
171
     0
290
     0
174
     0
 93
        1
 44
0.0
173
     0
291
     0
 45
0.0
1001
ACAD
1000
AcDbSavedByObjectVersion
1070
     0
  0
VISUALSTYLE
  5
1083
102
{ACAD_REACTORS
330
1071
102
}
102
{ACAD_XDICTIONARY
360
187D
102
}
330
1071
100
AcDbVisualStyle
  2
Sketchy
 70
    24
 71
     1
 72
     2
 73
     2
 90
        0
 40
-0.6
 41
-30.0
 62
     5
 63
     7
421
 16777215
 74
     2
 91
        2
 64
     7
 65
     7
 75
     1
175
     1
 42
40.0
 92
       11
 66
     7
 43
1.0
 76
     1
 77
     6
 78
     2
 67
     7
 79
     6
170
     0
171
     0
290
     0
174
     0
 93
        1
 44
0.0
173
     0
291
     0
 45
0.0
1001
ACAD
1000
AcDbSavedByObjectVersion
1070
     0
  0
VISUALSTYLE
  5
107E
102
{ACAD_REACTORS
330
1071
102
}
102
{ACAD_XDICTIONARY
360
187F
102
}
330
1071
100
AcDbVisualStyle
  2
Thicken
 70
    13
 71
     2
 72
     2
 73
     0
 90
        0
 40
-0.6
 41
-30.0
 62
     5
 63
     7
421
 16777215
 74
     1
 91
        4
 64
     7
 65
   257
 75
     1
175
     1
 42
1.0
 92
       12
 66
     7
 43
1.0
 76
     1
 77
     6
 78
     2
 67
     7
 79
     5
170
     0
171
     0
290
     0
174
     0
 93
        1
 44
0.0
173
     0
291
     1
 45
0.0
1001
ACAD
1000
AcDbSavedByObjectVersion
1070
     0
  0
VISUALSTYLE
  5
1078
102
{ACAD_REACTORS
330
1071
102
}
102
{ACAD_XDICTIONARY
360
1881
102
}
330
1071
100
AcDbVisualStyle
  2
Wireframe
 70
     5
 71
     0
 72
     2
 73
     0
 90
        0
 40
-0.6
 41
-30.0
 62
     5
 63
     7
421
 16777215
 74
     1
 91
        4
 64
     7
 65
   257
 75
     1
175
     1
 42
1.0
 92
        0
 66
   257
 43
1.0
 76
     1
 77
     6
 78
     2
 67
     7
 79
     3
170
     0
171
     0
290
     0
174
     0
 93
        1
 44
0.0
173
     0
291
     0
 45
0.0
1001
ACAD
1000
AcDbSavedByObjectVersion
1070
     0
  0
VISUALSTYLE
  5
1084
102
{ACAD_REACTORS
330
1071
102
}
102
{ACAD_XDICTIONARY
360
1883
102
}
330
1071
100
AcDbVisualStyle
  2
X-Ray
 70
    25
 71
     2
 72
     2
 73
     1
 90
        1
 40
0.5
 41
-30.0
 62
     5
 63
     7
421
 16777215
 74
     1
 91
        0
 64
     7
 65
   257
 75
     1
175
     1
 42
1.0
 92
        8
 66
     7
 43
1.0
 76
     1
 77
     6
 78
     2
 67
     7
 79
     3
170
     0
171
     0
290
     0
174
     0
 93
       13
 44
0.0
173
     0
291
     0
 45
0.0
1001
ACAD
1000
AcDbSavedByObjectVersion
1070
     0
  0
DICTIONARYVAR
  5
16AA
102
{ACAD_REACTORS
330
15D1
102
}
330
15D1
100
DictionaryVariables
280
     0
  1
1:1
  0
DICTIONARYVAR
  5
16A7
102
{ACAD_REACTORS
330
15D1
102
}
330
15D1
100
DictionaryVariables
280
     0
  1
Standard
  0
DICTIONARYVAR
  5
16A6
102
{ACAD_REACTORS
330
15D1
102
}
330
15D1
100
DictionaryVariables
280
     0
  1
Standard
  0
DICTIONARYVAR
  5
16A8
102
{ACAD_REACTORS
330
15D1
102
}
330
15D1
100
DictionaryVariables
280
     0
  1
Imperial24
  0
DICTIONARYVAR
  5
16A9
102
{ACAD_REACTORS
330
15D1
102
}
330
15D1
100
DictionaryVariables
280
     0
  1
Imperial24
  0
DICTIONARYVAR
  5
1847
102
{ACAD_REACTORS
330
15D1
102
}
330
15D1
100
DictionaryVariables
280
     0
  1
1
  0
DICTIONARYVAR
  5
1848
102
{ACAD_REACTORS
330
15D1
102
}
330
15D1
100
DictionaryVariables
280
     0
  1
15
  0
DICTIONARYVAR
  5
1846
102
{ACAD_REACTORS
330
15D1
102
}
330
15D1
100
DictionaryVariables
280
     0
  1
0
  0
DICTIONARYVAR
  5
1845
102
{ACAD_REACTORS
330
15D1
102
}
330
15D1
100
DictionaryVariables
280
     0
  1
0
  0
DICTIONARYVAR
  5
1849
102
{ACAD_REACTORS
330
15D1
102
}
330
15D1
100
DictionaryVariables
280
     0
  1
2
  0
DICTIONARY
  5
180E
102
{ACAD_REACTORS
330
180C
102
}
330
180C
100
AcDbDictionary
281
     1
  0
DICTIONARY
  5
180D
102
{ACAD_REACTORS
330
180C
102
}
330
180C
100
AcDbDictionary
281
     1
  3
2129687800
350
1807
  3
2129687808
350
1808
  3
2129687816
350
1809
  3
2129687824
350
180A
  3
2129687832
350
180B
  0
DICTIONARY
  5
1843
330
10A4
100
AcDbDictionary
280
     1
281
     1
  3
ACAD_XREC_ROUNDTRIP
360
1844
  0
DICTIONARY
  5
16A1
330
10A7
100
AcDbDictionary
280
     1
281
     1
  3
ADSK_XREC_LAYOUTTHUMBNAIL
360
16A2
  0
DICTIONARY
  5
184B
330
1061
100
AcDbDictionary
280
     1
281
     1
  3
ACAD_XREC_ROUNDTRIP
360
184C
  0
DICTIONARY
  5
184D
330
1059
100
AcDbDictionary
280
     1
281
     1
  3
ACAD_XREC_ROUNDTRIP
360
184E
  0
DICTIONARY
  5
184F
330
1069
100
AcDbDictionary
280
     1
281
     1
  3
ACAD_XREC_ROUNDTRIP
360
1850
  0
DICTIONARY
  5
1841
330
10A2
100
AcDbDictionary
280
     1
281
     1
  3
ACAD_XREC_ROUNDTRIP
360
1842
  0
DICTIONARY
  5
1851
330
108C
100
AcDbDictionary
280
     1
281
     1
  3
ACAD_ROUNDTRIP_2008_TABLESTYLE_CELLSTYLEMAP
360
1853
  3
ACAD_XREC_ROUNDTRIP
360
1852
  0
DICTIONARY
  5
1855
330
1077
100
AcDbDictionary
280
     1
281
     1
  3
ACAD_XREC_ROUNDTRIP
360
1856
  0
DICTIONARY
  5
1857
330
1076
100
AcDbDictionary
280
     1
281
     1
  3
ACAD_XREC_ROUNDTRIP
360
1858
  0
DICTIONARY
  5
1859
330
107D
100
AcDbDictionary
280
     1
281
     1
  3
ACAD_XREC_ROUNDTRIP
360
185A
  0
DICTIONARY
  5
185B
330
1081
100
AcDbDictionary
280
     1
281
     1
  3
ACAD_XREC_ROUNDTRIP
360
185C
  0
DICTIONARY
  5
185D
330
107A
100
AcDbDictionary
280
     1
281
     1
  3
ACAD_XREC_ROUNDTRIP
360
185E
  0
DICTIONARY
  5
185F
330
107C
100
AcDbDictionary
280
     1
281
     1
  3
ACAD_XREC_ROUNDTRIP
360
1860
  0
DICTIONARY
  5
1861
330
1089
100
AcDbDictionary
280
     1
281
     1
  3
ACAD_XREC_ROUNDTRIP
360
1862
  0
DICTIONARY
  5
1863
330
1080
100
AcDbDictionary
280
     1
281
     1
  3
ACAD_XREC_ROUNDTRIP
360
1864
  0
DICTIONARY
  5
1865
330
1072
100
AcDbDictionary
280
     1
281
     1
  3
ACAD_XREC_ROUNDTRIP
360
1866
  0
DICTIONARY
  5
1867
330
1073
100
AcDbDictionary
280
     1
281
     1
  3
ACAD_XREC_ROUNDTRIP
360
1868
  0
DICTIONARY
  5
1869
330
1074
100
AcDbDictionary
280
     1
281
     1
  3
ACAD_XREC_ROUNDTRIP
360
186A
  0
DICTIONARY
  5
186B
330
1075
100
AcDbDictionary
280
     1
281
     1
  3
ACAD_XREC_ROUNDTRIP
360
186C
  0
DICTIONARY
  5
186D
330
1079
100
AcDbDictionary
280
     1
281
     1
  3
ACAD_XREC_ROUNDTRIP
360
186E
  0
DICTIONARY
  5
186F
330
1087
100
AcDbDictionary
280
     1
281
     1
  3
ACAD_XREC_ROUNDTRIP
360
1870
  0
DICTIONARY
  5
1871
330
107F
100
AcDbDictionary
280
     1
281
     1
  3
ACAD_XREC_ROUNDTRIP
360
1872
  0
DICTIONARY
  5
1873
330
1088
100
AcDbDictionary
280
     1
281
     1
  3
ACAD_XREC_ROUNDTRIP
360
1874
  0
DICTIONARY
  5
1875
330
107B
100
AcDbDictionary
280
     1
281
     1
  3
ACAD_XREC_ROUNDTRIP
360
1876
  0
DICTIONARY
  5
1877
330
1086
100
AcDbDictionary
280
     1
281
     1
  3
ACAD_XREC_ROUNDTRIP
360
1878
  0
DICTIONARY
  5
1879
330
1085
100
AcDbDictionary
280
     1
281
     1
  3
ACAD_XREC_ROUNDTRIP
360
187A
  0
DICTIONARY
  5
187B
330
1082
100
AcDbDictionary
280
     1
281
     1
  3
ACAD_XREC_ROUNDTRIP
360
187C
  0
DICTIONARY
  5
187D
330
1083
100
AcDbDictionary
280
     1
281
     1
  3
ACAD_XREC_ROUNDTRIP
360
187E
  0
DICTIONARY
  5
187F
330
107E
100
AcDbDictionary
280
     1
281
     1
  3
ACAD_XREC_ROUNDTRIP
360
1880
  0
DICTIONARY
  5
1881
330
1078
100
AcDbDictionary
280
     1
281
     1
  3
ACAD_XREC_ROUNDTRIP
360
1882
  0
DICTIONARY
  5
1883
330
1084
100
AcDbDictionary
280
     1
281
     1
  3
ACAD_XREC_ROUNDTRIP
360
1884
  0
XRECORD
  5
1807
102
{ACAD_REACTORS
330
180D
102
}
330
180D
100
AcDbXrecord
280
     1
  1
AcDb_Thumbnail_Schema
102
{ATTRRECORD
341
1808
  2
AcDbDs::TreatedAsObjectData
280
     1
291
     1
102
ATTRRECORD}
102
{ATTRRECORD
341
1809
  2
AcDbDs::Legacy
280
     1
291
     1
102
ATTRRECORD}
  2
AcDbDs::ID
280
    10
 91
        8
102
{ATTRRECORD
341
180A
  2
AcDs:Indexable
280
     1
291
     1
102
ATTRRECORD}
102
{ATTRRECORD
341
180B
  2
AcDbDs::HandleAttribute
280
     7
282
     1
102
ATTRRECORD}
  2
Thumbnail_Data
280
    15
 91
        0
  0
XRECORD
  5
1808
102
{ACAD_REACTORS
330
180D
102
}
330
180D
100
AcDbXrecord
280
     1
  1
AcDbDs::TreatedAsObjectDataSchema
  2
AcDbDs::TreatedAsObjectData
280
     1
 91
        0
  0
XRECORD
  5
1809
102
{ACAD_REACTORS
330
180D
102
}
330
180D
100
AcDbXrecord
280
     1
  1
AcDbDs::LegacySchema
  2
AcDbDs::Legacy
280
     1
 91
        0
  0
XRECORD
  5
180A
102
{ACAD_REACTORS
330
180D
102
}
330
180D
100
AcDbXrecord
280
     1
  1
AcDbDs::IndexedPropertySchema
  2
AcDs:Indexable
280
     1
 91
        0
  0
XRECORD
  5
180B
102
{ACAD_REACTORS
330
180D
102
}
330
180D
100
AcDbXrecord
280
     1
  1
AcDbDs::HandleAttributeSchema
  2
AcDbDs::HandleAttribute
280
     7
 91
        1
284
     1
  0
XRECORD
  5
1844
102
{ACAD_REACTORS
330
1843
102
}
330
1843
100
AcDbXrecord
280
     1
102
DISPLAYNAME
  1
Imperial24
102
FLAGS
 90
        0
  0
XRECORD
  5
16A2
102
{ACAD_REACTORS
330
16A1
102
}
330
16A1
100
AcDbXrecord
280
     1
310
2800000000010000A4000000010008000000000000A4000001000000010000000001000000000000302821FF000000FFC8C8C8FF000000FF000000FF000000FF000000FF000000FF000000FF000000FF000000FF330000FF660000FF990000FFCC0000FFFF0000FF003300FF333300FF663300FF993300FFCC3300FFFF3300
310
FF006600FF336600FF666600FF996600FFCC6600FFFF6600FF009900FF339900FF669900FF999900FFCC9900FFFF9900FF00CC00FF33CC00FF66CC00FF99CC00FFCCCC00FFFFCC00FF00FF00FF33FF00FF66FF00FF99FF00FFCCFF00FFFFFF00FF000033FF330033FF660033FF990033FFCC0033FFFF0033FF003333FF3333
310
33FF663333FF993333FFCC3333FFFF3333FF006633FF336633FF666633FF996633FFCC6633FFFF6633FF009933FF339933FF669933FF999933FFCC9933FFFF9933FF00CC33FF33CC33FF66CC33FF99CC33FFCCCC33FFFFCC33FF00FF33FF33FF33FF66FF33FF99FF33FFCCFF33FFFFFF33FF000066FF330066FF660066FF99
310
0066FFCC0066FFFF0066FF003366FF333366FF663366FF993366FFCC3366FFFF3366FF006666FF336666FF666666FF996666FFCC6666FFFF6666FF009966FF339966FF669966FF999966FFCC9966FFFF9966FF00CC66FF33CC66FF66CC66FF99CC66FFCCCC66FFFFCC66FF00FF66FF33FF66FF66FF66FF99FF66FFCCFF66FF
310
FFFF66FF000099FF330099FF660099FF990099FFCC0099FFFF0099FF003399FF333399FF663399FF993399FFCC3399FFFF3399FF006699FF336699FF666699FF996699FFCC6699FFFF6699FF009999FF339999FF669999FF999999FFCC9999FFFF9999FF00CC99FF33CC99FF66CC99FF99CC99FFCCCC99FFFFCC99FF00FF99
310
FF33FF99FF66FF99FF99FF99FFCCFF99FFFFFF99FF0000CCFF3300CCFF6600CCFF9900CCFFCC00CCFFFF00CCFF0033CCFF3333CCFF6633CCFF9933CCFFCC33CCFFFF33CCFF0066CCFF3366CCFF6666CCFF9966CCFFCC66CCFFFF66CCFF0099CCFF3399CCFF6699CCFF9999CCFFCC99CCFFFF99CCFF00CCCCFF33CCCCFF66CC
310
CCFF99CCCCFFCCCCCCFFFFCCCCFF00FFCCFF33FFCCFF66FFCCFF99FFCCFFCCFFCCFFFFFFCCFF0000FFFF3300FFFF6600FFFF9900FFFFCC00FFFFFF00FFFF0033FFFF3333FFFF6633FFFF9933FFFFCC33FFFFFF33FFFF0066FFFF3366FFFF6666FFFF9966FFFFCC66FFFFFF66FFFF0099FFFF3399FFFF6699FFFF9999FFFFCC
310
99FFFFFF99FFFF00CCFFFF33CCFFFF66CCFFFF99CCFFFFCCCCFFFFFFCCFFFF00FFFFFF33FFFFFF66FFFFFF99FFFFFFCCFFFFFFFFFFFFFF000000FF0D0D0DFF1A1A1AFF282828FF353535FF434343FF505050FF5D5D5DFF6B6B6BFF787878FF868686FF939393FFA1A1A1FFAEAEAEFFBBBBBBFFC9C9C9FFD6D6D6FFE4E4E4FF
310
F1F1F1FFFFFFFFFF000000FF000000FF000000FF000000FF000000FF000000FF000000FF000000FF000000FF0000000000000000000000000000000000000000000000000000000000000000000000000000000000000000000000000000000000000000000000000000000000000000000000000000000000000000000000
310
00000000000000000000000000000000000000000000000000000000000000000000000000000000000000000000000000000000000000000000000000000000000000000000000000000000000000000000000000000000000000000000000000000000000000000000000000000000000000000000000000000000000000
310
00000000000000000000000000000000000000000000000000000000000000000000000000000000000000000000000000000000000000000000000000000000000000000000000000000000000000000000000000000000000000000000000000000000000000000000000000000000000000000000000000000000000000
310
00000000000000000000000000000000000000000000000000000000000000000000000000000000000000000000000000000000000000000000000000000000000000000000000000000000000000000000000000000000000000000000000000000000000000000000000000000000000000000000000000000000000000
310
00000000000000000000000000000000000000000000000000000000000000000000000000000000000000000000000000000000000000000000000000000000000000000000000000000000000000000000000000000000000000000000000000000000000000000000000000000000000000000000000000000000000000
310
00000000000000000000000000000000000000000000000000000000000000000000000000000000000000000000000000000000000000000000000000000000000000000000000000000000000000000000000000000000000000000000000000000000000000000000000000000000000000000000000000000000000000
310
00000000000000000000000000000000000000000000000000000000000000000000000000000000000000000000000000000000000000000000000000000000000000000000000000000000000000000000000000000000000000000000000000000000000000000000000000000000000000000000000000000000000000
310
00000000000000000000000000000000000000000000000000000000000000000000000000000000000000000000000000000000000000000000000000000000000000000000000000000000000000000000000000000000000000000000000000000000000000000000000000000000000000000000000000000000000000
310
00000000000000000000000000000000000000000000000000000000000000000000000000000000000000000000000000000000000000000000000000000000000000000000000000000000000000000000000000000000000000000000000000000000000000000000000000000000000000000000000000000000000000
310
00000000000000000000000000000000000000000000000000000000000000000000000000000000000000000000000000000000000000000000000000000000000000000000000000000000000000000000000000000000000000000000000000000000000000000000000000000000000000000000000000000000000000
310
00000000000000000000000000000000000000000000000000000000000000000000000000000000000000000000000000000000000000000000000000000000000000000000000000000000000000000000000000000000000000000000000000000000000000000000000000000000000000000000000000000000000000
310
00000000000000000000000000000000000000000000000000000000000000000000000000000000000000000000000000000000000000000000000000000000000000000000000000000000000000000000000000000000000000000000000000000000000000000000000000000000000000000000000000000000000000
310
00000000000000000000000000000000000000000000000000000000000000000000000000000000000000000000000000000000000000000000000000000000000000000000000000000000000000000000000000000000000000000000000000000000000000000000000000000000000000000000000000000000000000
310
00000000000000000000000000000000000000000000000000000000000000000000000000000000000000000000000000000000000000000000000000000000000000000000000000000000000000000000000000000000000000000000000000000000000000000000000000000000000000000000000000000000000000
310
00000000000000000000000000000000000000000000000000000000000000000000000000000000000000000000000000000000000000000000000000000000000000000000000000000000000000000000000000000000000000000000000000000000000000000000000000000000000000000000000000000000000000
310
00000000000000000000000000000000000000000000000000000000000000000000000000000000000000000000000000000000000000000000000000000000000000000000000000000000000000000000000000000000000000000000000000000000000000000000000000000000000000000000000000000000000000
310
00000000000000000000000000000000000000000000000000000000000000000000000000000000000000000000000000000000000000000000000000000000000000000000000000000000000000000000000000000000000000000000000000000000000000000000000000000000000000000000000000000000000000
310
00000000000000000000000000000000000000000000000000000000000000000000000000000000000000000000000000000000000000000000000000000000000000000000000000000000000000000000000000000000000000000000000000000000000000000000000000000000000000000000000000000000000000
310
00000000000000000000000000000000000000000000000000000000000000000000000000000000000000000000000000000000000000000000000000000000000000000000000000000000000000000000000000000000000000000000000000000000000000000000000000000000000000000000000000000000000000
310
00000000000000000000000000000000000000000000000000000000000000000000000000000000000000000000000000000000000000000000000000000000000000000000000000000000000000000000000000000000000000000000000000000000000000000000000000000000000000000000000000000000000000
310
00000000000000000000000000000000000000000000000000000000000000000000000000000000000000000000000000000000000000000000000000000000000000000000000000000000000000000000000000000000000000000000000000000000000000000000000000000000000000000000000000000000000000
310
00000000000000000000000000000000000000000000000000000000000000000000000000000000000000000000000000000000000000000000000000000000000000000000000000000000000000000000000000000000000000000000000000000000000000000000000000000000000000000000000000000000000000
310
00000000000000000000000000000000000000000000000000000000000000000000000000000000000000000000000000000000000000000000000000000000000000000000000000000000000000000000000000000000000000000000000000000000000000000000000000000000000000000000000000000000000000
310
00000000000000000000000000000000000000000000000000000000000000000000000000000000000000000000000000000000000000000000000000000000000000000000000000000000000000000000000000000000000000000000000000000000000000000000000000000000000000000000000000000000000000
310
00000000000000000000000000000000000000000000000000000000000000000000000000000000000000000000000000000000000000000000000000000000000000000000000000000000000000000000000000000000000000000000000000000000000000000000000000000000000000000000000000000000000000
310
00000000000000000000000000000000000000000000000000000000000000000000000000000000000000000000000000000000000000000000000000000000000000000000000000000000000000000000000000000000000000000000000000000000000000000000000000000000000000000000000000000000000000
310
00000000000000000000000000000000000000000000000000000000000000000000000000000000000000000000000000000000000000000000000000000000000000000000000000000000000000000000000000000000000000000000000000000000000000000000000000000000000000000000000000000000000000
310
00000000000000000000000000000000000000000000000000000000000000000000000000000000000000000000000000000000000000000000000000000000000000000000000000000000000000000000000000000000000000000000000000000000000000000000000000000000000000000000000000000000000000
310
00000000000000000000000000000000000000000000000000000000000000000000000000000000000000000000000000000000000000000000000000000000000000000000000000000000000000000000000000000000000000000000000000000000000000000000000000000000000000000000000000000000000000
310
00000000000000000000000000000000000000000000000000000000000000000000000000000000000000000000000000000000000000000000000000000000000000000000000000000000000000000000000000000000000000000000000000000000000000000000000000000000000000000000000000000000000000
310
00000000000000000000000000000000000000000000000000000000000000000000000000000000000000000000000000000000000000000000000000000000000000000000000000000000000000000000000000000000000000000000000000000000000000000000000000000000000000000000000000000000000000
310
00000000000000000000000000000000000000000000000000000000000000000000000000000000000000000000000000000000000000000000000000000000000000000000000000000000000000000000000000000000000000000000000000000000000000000000000000000000000000000000000000000000000000
310
00000000000000000000000000000000000000000000000000000000000000000000000000000000000000000000000000000000000000000000000000000000000000000000000000000000000000000000000000000000000000000000000000000000000000000000000000000000000000000000000000000000000000
310
00000000000000000000000000000000000000000000000000000000000000000000000000000000000000000000000000000000000000000000000000000000000000000000000000000000000000000000000000000000000000000000000000000000000000000000000000000000000000000000000000000000000000
310
00000000000000000000000000000000000000000000000000000000000000000000000000000000000000000000000000000000000000000000000000000000000000000000000000000000000000000000000000000000000000000000000000000000000000000000000000000000000000000000000000000000000000
310
00000000000000000000000000000000000000000000000000000000000000000000000000000000000000000000000000000000000000000000000000000000000000000000000000000000000000000000000000000000000000000000000000000000000000000000000000000000000000000000000000000000000000
310
000000000000000000000000000000000000BEBEBEBEBEBEBEBEBEBEBEBEBEBEBEBEBEBEBEBEBE00000000000000000000000000000000000000000000000000000000000000000000000000000000000000000000000000000000000000000000000000000000000000000000000000000000000000000000000000000000
310
00000000000000000000000000000000000000000000000000000000000000000000000000000000000000000000000000000000000000000000000000000000000000000000000000000000000000000000000000000000000000000000000000000000000000000000000000000000000000000000000000000000000000
310
0000000000000000000000000000000000000000BEBEBEBE00BE0000BE0000BEBEBEBEBE00BEBEBE0000000000000000000000000000000000000000000000000000000000000000000000000000000000000000000000000000000000000000000000000000000000000000000000000000000000DCDCDCDCDCDCDCDCDCDC
310
DCDCDCDCDCDCDCDCDCDCDCDCDCDCDCDCDCDCDCDCDCDCDCDCDCDCDCDCDCDCDCDCDCDCDCDCDCDCDCDCDCDCDCDCDCDCDCDCDCDCDCDCDCDCDCDCDCDCDCDCDCDCDCDCDCDCDCDCDCDCDCDCDCDCDCDCDCDCDCDCDCDCDCDCDCDCDCDCDCDCDCDCDCDCDCDCDCDCDCDCDCDCDCDCDCDCDCDCDCDCDCDCDCDCDCDCDCDCDCDCDCDCDCDCDCDCDC
310
DCDCDCDCDCDCDCDCDCDCDCDCDCDCDCDCDCDCDCDCDCDCDCDCDCDCDCDCDCDCDCDCDCDCDCDCDCDCDCDCDCDCDCDC000000000000000000000000000000000000000000000000000000000000000000000000000000000000000000000000000000000000000000000000000000000000000000000000000000DC00000000000000
310
00000000000000000000000000000000000000000000000000000000000000000000000000000000000000000000000000000000000000000000000000000000000000000000000000000000000000000000000000000000000000000000000000000000000000000000000000000000000000000000000000000000000000
310
000000000000000000DC00000000000000000000000000BEBEBEBE00000000000000BEBEBEBE00000000000000DC000000000000000000000000000000000000000000000000000000000000000000000000000000000000000000000000000000000000000000000000000000000000000000000000000000DC0000000000
310
00000000000000000000000000000000000000000000000000000000000000000000000000000000000000000000000000000000000000000000000000000000000000000000000000000000000000000000000000000000000000000000000000000000000000000000000000000000000000000000000000000000000000
310
0000000000000000000000DC00000000000000000000000000BEBEBEBE00000000000000BEBEBEBE00000000000000DC000000000000000000000000000000000000000000000000000000000000000000000000000000000000000000000000000000000000000000000000000000000000000000000000000000DC000000
310
00000000000000000000000000000000000000000000000000000000000000000000000000000000000000000000000000000000000000000000000000000000000000000000000000000000000000000000000000000000000000000000000000000000000000000000000000000000000000000000000000000000000000
310
00000000000000000000000000DCBEBEBEBEBEBEBEBEBEBEBEBEBEBEBEBEBE00000000000000BEBEBEBE00000000000000DC000000000000000000000000000000000000000000000000000000000000000000000000000000000000000000000000000000000000000000000000000000000000000000000000000000DC00
310
00000000000000000000000000000000000000000000000000000000000000000000000000000000000000000000000000000000000000000000000000000000000000000000000000000000000000000000000000000000000000000000000000000000000000000000000000000000000000000000000000000000000000
310
000000000000000000000000000000DC0000BEBEBEBE00BEBE00BEBE00BEBEBEBE00000000000000BEBEBEBE00000000000000DC000000000000000000000000000000000000000000000000000000000000000000000000000000000000000000000000000000000000000000000000000000000000000000000000000000
310
DC000000000000000000000000000000000000000000000000000000000000000000000000000000000000000000000000000000000000000000000000000000000000000000000000000000000000000000000000000000000000000000000000000000000000000000000000000000000000000000000000000000000000
310
0000000000000000000000000000000000DCBEBEBEBEBEBEBEBEBEBEBEBEBEBEBEBEBEBEBEBEBEBEBEBEBEBEBEBEBEBEBEBEBEBEBEDC00000000000000000000000000000000000000000000000000000000000000000000000000000000000000000000000000000000000000000000000000000000000000000000000000
310
0000DC00000000000000000000000000000000000000000000000000000000000000000000000000000000000000000000000000000000000000000000000000000000000000000000000000000000000000000000000000000000000000000000000000000000000000000000000000000000000000000000000000000000
310
00000000000000000000000000000000000000DCBEBE00BE00BEBE00000000000000000000BEBEBE0000BEBEBEBEBE00BEBEBE00000000DC0000000000000000000000000000000000000000000000000000000000000000000000000000000000000000000000000000000000000000000000000000000000000000000000
310
00000000DC0000000000000000000000000000000000000000000000000000000000000000000000000000000000000000000000000000000000000000000000000000000000000000000000000000000000000000000000000000000000000000000000000000000000000000000000000000000000000000000000000000
310
000000000000000000000000000000000000000000DCBEBEBEBEBEBEBEBEBEBEBEBEBEBEBEBEBEBEBEBEBEBEBEBEBEBEBEBEBEBEBEBEBEBEBEDC000000000000000000000000000000000000000000000000000000000000000000000000000000000000000000000000000000000000000000000000000000000000000000
310
000000000000DC000000000000000000000000000000000000000000000000000000000000000000000000000000000000000000000000000000000000000000000000000000000000000000000000000000000000000000000000000000000000000000000000000000000000000000000000000000000000000000000000
310
0000000000000000000000000000000000000000000000DCBEBEBEBEBEBEBE0000BEBEBEBE00BEBEBEBEBEBEBEBEBEBEBE00000000000000BEBEBEDC00000000000000000000000000000000000000000000000000000000000000000000000000000000000000000000000000000000000000000000000000000000000000
310
0000000000000000DC00000000000000000000000000000000000000000000000000000000000000000000000000000000000000000000000000000000000000000000000000000000000000000000000000000000000000000000000000000000000000000000000000000000000000000000000000000000000000000000
310
00000000000000000000000000000000000000000000000000DCBEBEBEBEBEBEBEBEBEBEBEBEBEBEBEBEBEBEBEBEBEBEBEBEBEBEBEBEBEBEBEBEBEBEBEDC0000000000000000000000000000000000000000000000000000000000000000000000000000000000000000000000000000000000000000000000000000000000
310
00000000000000000000DC0000000000000000000000000000000000000000000000000000000000000000000000000000000000000000000000000000000000000000000000000000000000000000000000000000000000000000000000000000000000000000000000000000000000000000000000000000000000000000
310
000000000000000000000000000000000000000000000000000000DCBEBEBEBE00BEBE00000000000000000000BEBEBEBEBEBEBEBE00000000000000000000DC000000000000000000000000000000000000000000000000000000000000000000000000000000000000000000000000000000000000000000000000000000
310
000000000000000000000000DC000000000000000000000000000000000000000000000000000000000000000000000000000000000000000000000000000000000000000000000000000000000000000000000000000000000000000000000000000000000000000000000000000000000000000000000000000000000000
310
0000000000000000000000000000000000000000000000000000000000DCBEBEBEBEBEBEBE00000000000000000000BEBEBEBEBEBEBEBE00000000000000000000DC00000000000000000000000000000000000000000000000000000000000000000000000000000000000000000000000000000000000000000000000000
310
0000000000000000000000000000DC00000000000000000000000000000000000000000000000000000000000000000000000000000000000000000000000000000000000000000000000000000000000000000000000000000000000000000000000000000000000000000000000000000000000000000000000000000000
310
00000000000000000000000000000000000000000000000000000000000000DCBEBEBEBEBEBEBEBEBEBEBEBEBEBEBEBEBEBEBEBEBEBEBEBEBEBEBEBEBEBEBEBEBEBEBEDC0000000000000000000000000000000000000000000000000000000000000000000000000000000000000000000000000000000000000000000000
310
00000000000000000000000000000000DC0000000000000000000000000000000000000000000000000000000000000000000000000000000000000000000000000000000000000000000000000000000000000000000000000000000000000000000000000000000000000000000000000000000000000000000000000000
310
000000000000000000000000000000000000000000000000000000000000000000DCBEBE0000BEBEBE000000BEBEBEBEBEBEBEBEBEBEBEBEBE00BEBEBEBEBEBE0000000000DC000000000000000000000000000000000000000000000000000000000000000000000000000000000000000000000000000000000000000000
310
000000000000000000000000000000000000DC000000000000000000000000000000000000000000000000000000000000000000000000000000000000000000000000000000000000000000000000000000000000000000000000000000000000000000000000000000000000000000000000000000000000000000000000
310
0000000000000000000000000000000000000000000000000000000000000000000000DCBEBE0000BEBEBE000000BEBEBEBEBEBEBEBEBEBEBEBEBE00BEBEBEBEBEBE0000000000DC00000000000000000000000000000000000000000000000000000000000000000000000000000000000000000000000000000000000000
310
0000000000000000000000000000000000000000DC00000000000000000000000000000000000000000000000000000000000000000000000000000000000000000000000000000000000000000000000000000000000000000000000000000000000000000000000000000000000000000000000000000000000000000000
310
00000000000000000000000000000000000000000000000000000000000000000000000000DCDCDCDCDCDCDCDCDCDCDCDCDCDCDCDCDCDCDCDCDCDCDCDCDCDCDCDCDCDCDCDCDCDCDCDCDC0000000000000000000000000000000000000000000000000000000000000000000000000000000000000000000000000000000000
310
00000000000000000000000000000000000000000000DC0000000000000000000000000000000000000000000000000000000000000000000000000000000000000000000000000000000000000000000000000000000000000000000000000000000000000000000000000000000000000000000000000000000000000000
310
00000000000000000000000000000000000000000000000000000000000000000000000000000000BEBEBEBEBEBEBEBE00BEBEBEBEBEBE00BEBEBEBEBEBEBEBEBE00BEBEBE00BEBEBEBEBEDC000000000000000000000000000000000000000000000000000000000000000000000000000000000000000000000000000000
310
000000000000000000000000000000000000000000000000DC000000000000000000000000000000000000000000000000000000000000000000000000000000000000000000000000000000000000000000000000000000000000000000000000000000000000000000000000000000000000000000000000000000000000
310
000000000000000000000000000000000000000000000000000000000000000000000000000000000000BEBEBEBEBEBEBEBEBEBEBEBEBEBEBE00BEBEBEBEBEBEBEBEBEBEBEBEBE00BEBEBEBEBEDC00000000000000000000000000000000000000000000000000000000000000000000000000000000000000000000000000
310
0000000000000000000000000000000000000000000000000000DC00000000000000000000000000000000000000000000000000000000000000000000000000000000000000000000000000000000000000000000000000000000000000000000000000000000000000000000000000000000000000000000000000000000
310
00000000000000000000000000000000000000000000000000000000000000000000000000000000000000000000000000000000000000000000000000000000000000000000000000000000000000DC0000000000000000000000000000000000000000000000000000000000000000000000000000000000000000000000
310
00000000000000000000000000000000000000000000000000000000DC0000000000000000000000000000000000000000000000000000000000000000000000000000000000000000000000000000000000000000000000000000000000000000000000000000000000000000000000000000000000000000000000000000
310
000000000000000000000000000000000000000000000000000000000000000000000000000000000000000000000000000000000000000000000000000000000000000000000000000000000000000000DC000000000000000000000000000000000000000000000000000000000000000000000000000000000000000000
310
000000000000000000000000000000000000000000000000000000000000DC000000000000000000000000000000000000000000000000000000000000000000000000000000000000000000000000000000000000000000000000000000000000000000000000000000000000000000000000000000000000000000000000
310
0000000000000000000000000000000000000000000000000000000000000000000000000000000000000000000000000000000000000000000000000000000000000000000000000000000000000000000000DC00000000000000000000000000000000000000000000000000000000000000000000000000000000000000
310
0000000000000000000000000000000000000000000000000000000000000000DC00000000000000000000000000000000000000000000000000000000000000000000000000000000000000000000000000000000000000000000000000000000000000000000000000000000000000000000000000000000000000000000
310
00000000000000000000000000000000000000000000000000000000000000000000000000000000000000000000000000000000000000000000000000000000000000000000000000000000000000000000000000DC0000000000000000000000000000000000000000000000000000000000000000000000000000000000
310
00000000000000000000000000000000000000000000000000000000000000000000DC0000000000000000000000000000000000000000000000000000000000000000000000000000000000000000000000000000000000000000000000000000000000000000000000000000000000000000000000000000000000000000
310
000000000000000000000000000000000000000000000000000000000000000000000000000000000000000000000000000000000000000000000000000000000000000000000000000000000000000000000000000000DC000000000000000000000000000000000000000000000000000000000000000000000000000000
310
000000000000000000000000000000000000000000000000000000000000000000000000DC000000000000000000000000000000000000000000000000000000000000000000000000000000000000000000000000000000000000000000000000000000000000000000000000000000000000000000000000000000000000
310
0000000000000000000000000000000000000000000000000000000000000000000000000000000000000000000000000000000000000000000000000000000000000000000000000000000000000000000000000000000000DC00000000000000000000000000000000000000000000000000000000000000000000000000
310
0000000000000000000000000000000000000000000000000000000000000000000000000000DC00000000000000000000000000000000000000000000000000000000000000000000000000000000000000000000000000000000000000000000000000000000000000000000000000000000000000000000000000000000
310
00000000000000000000000000000000000000000000000000000000000000000000000000000000000000000000000000000000000000000000000000000000000000000000000000000000000000000000000000000000000000DC0000000000000000000000000000000000000000000000000000000000000000000000
310
00000000000000000000000000000000000000000000000000000000000000000000000000000000DC0000000000000000000000000000000000000000000000000000000000000000000000000000000000000000000000000000000000000000000000000000000000000000000000000000000000000000000000000000
310
000000000000000000000000000000000000000000000000000000000000000000000000000000000000000000000000000000000000000000000000000000000000000000000000000000000000000000000000000000000000000000DC000000000000000000000000000000000000000000000000000000000000000000
310
000000000000000000000000000000000000000000000000000000000000000000000000000000000000DC000000000000000000000000000000000000000000000000000000000000000000000000000000000000000000000000000000000000000000000000000000000000000000000000000000000000000000000000
310
0000000000000000000000000000000000000000000000000000000000000000000000000000000000000000000000000000000000000000000000000000000000000000000000000000000000000000000000000000000000000000000000DC00000000000000000000000000000000000000000000000000000000000000
310
0000000000000000000000000000000000000000000000000000000000000000000000000000000000000000DC00000000000000000000000000000000000000000000000000000000000000000000000000000000000000000000000000000000000000000000000000000000000000000000000000000000000000000000
310
00000000000000000000000000000000000000000000000000000000000000000000000000000000000000000000000000000000000000000000000000000000000000000000000000000000000000000000000000000000000000000000000000DC0000000000000000000000000000000000000000000000000000000000
310
00000000000000000000000000000000000000000000000000000000000000000000000000000000000000000000DC0000000000000000000000000000000000000000000000000000000000000000000000000000000000000000000000000000000000000000000000000000000000000000000000000000000000000000
310
000000000000000000000000000000000000000000000000000000000000000000000000000000000000000000000000000000000000000000000000000000000000000000000000000000000000000000000000000000000000000000000000000000DC000000000000000000000000000000000000000000000000000000
310
000000000000000000000000000000000000000000000000000000000000000000000000000000000000000000000000DC000000000000000000000000000000000000000000000000000000000000000000000000000000000000000000000000000000000000000000000000000000000000000000000000000000000000
310
0000000000000000000000000000000000000000000000000000000000000000000000000000000000000000000000000000000000000000000000000000000000000000000000000000000000000000000000000000000000000000000000000000000000DC00000000000000000000000000000000000000000000000000
310
0000000000000000000000000000000000000000000000000000000000000000000000000000000000000000000000000000DC00000000000000000000000000000000000000000000000000000000000000000000000000000000000000000000000000000000000000000000000000000000000000000000000000000000
310
00000000000000000000000000000000000000000000000000000000000000000000000000000000000000000000000000000000000000000000000000000000000000000000000000000000000000000000000000000000000000000000000000000000000000DC0000000000000000000000000000000000000000000000
310
00000000000000000000000000000000000000000000000000000000000000000000000000000000000000000000000000000000DC0000000000000000000000000000000000000000000000000000000000000000000000000000000000000000000000000000000000000000000000000000000000000000000000000000
310
000000000000000000000000000000000000000000000000000000000000000000000000000000000000000000000000000000000000000000000000000000000000000000000000000000000000000000000000000000000000000000000000000000000000000000DC000000000000000000000000000000000000000000
310
000000000000000000000000000000000000000000000000000000000000000000000000000000000000000000000000000000000000DC000000000000000000000000000000000000000000000000000000000000000000000000000000000000000000000000000000000000000000000000000000000000000000000000
310
0000000000000000000000000000000000000000000000000000000000000000000000000000000000000000000000000000000000000000000000000000000000000000000000000000000000000000000000000000000000000000000000000000000000000000000000DC00000000000000000000000000000000000000
310
0000000000000000000000000000000000000000000000000000000000000000000000000000000000000000000000000000000000000000DC00000000000000000000000000000000000000000000000000000000000000000000000000000000000000000000000000000000000000000000000000000000000000000000
310
00000000000000000000000000000000000000000000000000000000000000000000000000000000000000000000000000000000000000000000000000000000000000000000000000000000000000000000000000000000000000000000000000000000000000000000000000DC0000000000000000000000000000000000
310
00000000000000000000000000000000000000000000000000000000000000000000000000000000000000000000000000000000000000000000DC0000000000000000000000000000000000000000000000000000000000000000000000000000000000000000000000000000000000000000000000000000000000000000
310
000000000000000000000000000000000000000000000000000000000000000000000000000000000000000000000000000000000000000000000000000000000000000000000000000000000000000000000000000000000000000000000000000000000000000000000000000000DC000000000000000000000000000000
310
000000000000000000000000000000000000000000000000000000000000000000000000000000000000000000000000000000000000000000000000DC000000000000000000000000000000000000000000000000000000000000000000000000000000000000000000000000000000000000000000000000000000000000
310
0000000000000000000000000000000000000000000000000000000000000000000000000000000000000000000000000000000000000000000000000000000000000000000000000000000000000000000000000000000000000000000000000000000000000000000000000000000000DC00000000000000000000000000
310
0000000000000000000000000000000000000000000000000000000000000000000000000000000000000000000000000000000000000000000000000000DC00000000000000000000000000000000000000000000000000000000000000000000000000000000000000000000000000000000000000000000000000000000
310
00000000000000000000000000000000000000000000000000000000000000000000000000000000000000000000000000000000000000000000000000000000000000000000000000000000000000000000000000000000000000000000000000000000000000000000000000000000000000DC0000000000000000000000
310
00000000000000000000000000000000000000000000000000000000000000000000000000000000000000000000000000000000000000000000000000000000DC0000000000000000000000000000000000000000000000000000000000000000000000000000000000000000000000000000000000000000000000000000
310
000000000000000000000000000000000000000000000000000000000000000000000000000000000000000000000000000000000000000000000000000000000000000000000000000000000000000000000000000000000000000000000000000000000000000000000000000000000000000000DC000000000000000000
310
000000000000000000000000000000000000000000000000000000000000000000000000000000000000000000000000000000000000000000000000000000000000DC000000000000000000000000000000000000000000000000000000000000000000000000000000000000000000000000000000000000000000000000
310
0000000000000000000000000000000000000000000000000000000000000000000000000000000000000000000000000000000000000000000000000000000000000000000000000000000000000000000000000000000000000000000000000000000000000000000000000000000000000000000000DC00000000000000
310
0000000000000000000000000000000000000000000000000000000000000000000000000000000000000000000000000000000000000000000000000000000000000000DC00000000000000000000000000000000000000000000000000000000000000000000000000000000000000000000000000000000000000000000
310
00000000000000000000000000000000000000000000000000000000000000000000000000000000000000000000000000000000000000000000000000000000000000000000000000000000000000000000000000000000000000000000000000000000000000000000000000000000000000000000000000DC0000000000
310
00000000000000000000000000000000000000000000000000000000000000000000000000000000000000000000000000000000000000000000000000000000000000000000DC0000000000000000000000000000000000000000000000000000000000000000000000000000000000000000000000000000000000000000
310
000000000000000000000000000000000000000000000000000000000000000000000000000000000000000000000000000000000000000000000000000000000000000000000000000000000000000000000000000000000000000000000000000000000000000000000000000000000000000000000000000000DC000000
310
000000000000000000000000000000000000000000000000000000000000000000000000000000000000000000000000000000000000000000000000000000000000000000000000DC000000000000000000000000000000000000000000000000000000000000000000000000000000000000000000000000000000000000
310
0000000000000000000000000000000000000000000000000000000000000000000000000000000000000000000000000000000000000000000000000000000000000000000000000000000000000000000000000000000000000000000000000000000000000000000000000000000000000000000000000000000000DC00
310
0000000000000000000000000000000000000000000000000000000000000000000000000000000000000000000000000000000000000000000000000000000000000000000000000000DC00000000000000000000000000000000000000000000000000000000000000000000000000000000000000000000000000000000
310
00000000000000000000000000000000000000000000000000000000000000000000000000000000000000000000000000000000000000000000000000000000000000000000000000000000000000000000000000000000000000000000000000000000000000000000000000000000000000000000000000000000000000
310
DC000000000000000000000000000000000000000000000000000000000000000000000000000000000000000000000000000000000000000000000000000000000000000000000000000000DC0000000000000000000000000000000000000000000000000000000000000000000000000000000000000000000000000000
310
00000000000000000000000000000000000000000000000000000000000000000000000000000000000000000000000000000000000000000000000000000000000000000000000000000000000000000000000000000000000000000000000000000000000000000000000000000000000000000000000000000000000000
310
0000DC000000000000000000000000000000000000000000000000000000000000000000000000000000000000000000000000000000000000000000000000000000000000000000000000000000DC000000000000000000000000000000000000000000000000000000000000000000000000000000000000000000000000
310
00000000000000000000000000000000000000000000000000000000000000000000000000000000000000000000000000000000000000000000000000000000000000000000000000000000000000000000000000000000000000000000000000000000000000000000000000000000000000000000000000000000000000
310
00000000DC000000000000000000000000000000000000000000000000000000000000000000000000000000000000000000000000000000000000000000000000000000000000000000000000000000DC00000000000000000000000000000000000000000000000000000000000000000000000000000000000000000000
310
00000000000000000000000000000000000000000000000000000000000000000000000000000000000000000000000000000000000000000000000000000000000000000000000000000000000000000000000000000000000000000000000000000000000000000000000000000000000000000000000000000000000000
310
000000000000DC000000000000000000000000000000000000000000000000000000000000000000000000000000000000000000000000000000000000000000000000000000000000000000000000000000DC0000000000000000000000000000000000000000000000000000000000000000000000000000000000000000
310
00000000000000000000000000000000000000000000000000000000000000000000000000000000000000000000000000000000000000000000000000000000000000000000000000000000000000000000000000000000000000000000000000000000000000000000000000000000000000000000000000000000000000
310
0000000000000000DC000000000000000000000000000000000000000000000000000000000000000000000000000000000000000000000000000000000000000000000000000000000000000000000000000000DC000000000000000000000000000000000000000000000000000000000000000000000000000000000000
310
00000000000000000000000000000000000000000000000000000000000000000000000000000000000000000000000000000000000000000000000000000000000000000000000000000000000000000000000000000000000000000000000000000000000000000000000000000000000000000000000000000000000000
310
00000000000000000000DC000000000000000000000000000000000000000000000000000000000000000000000000000000000000000000000000000000000000000000000000000000000000000000000000000000DC00000000000000000000000000000000000000000000000000000000000000000000000000000000
310
0000000000BEBEBEBEBEBEBEBEBEBEBEBEBEBE000000000000000000000000000000000000000000000000000000000000000000000000000000000000000000000000000000000000000000000000000000000000000000000000000000000000000000000000000000000000000000000000000000000000000000000000
310
000000000000000000000000DC000000000000000000000000000000000000000000000000000000000000000000000000000000000000000000000000000000000000000000000000000000000000000000000000000000DC0000000000000000000000000000000000000000000000000000000000000000000000000000
310
00000000000000BE00000000BEBEBE0000000000BE00000000000000000000000000000000000000000000000000000000000000000000000000000000000000000000000000000000000000000000000000000000000000000000000000000000000000000000000000000000000000000000000000000000000000000000
310
0000000000000000000000000000DC000000000000000000000000000000000000000000000000000000000000000000000000000000000000000000000000000000000000000000000000000000000000000000000000000000DC000000000000000000000000000000000000000000000000000000000000000000000000
310
00000000000000BEBEBEBEBEBEBEBEBEBEBEBEBEBEBEBE0000000000000000000000000000000000000000000000000000000000000000000000000000000000000000000000000000000000000000000000000000000000000000000000000000000000000000000000000000000000000000000000000000000000000000
310
00000000000000000000000000000000DC000000000000000000000000000000000000000000000000000000000000000000000000000000000000000000000000000000000000000000000000000000000000000000000000000000DC00000000000000000000000000000000000000000000000000000000000000000000
310
00000000000000000000BEBEBE000000BEBEBEBE000000BEBE000000000000000000000000000000000000000000000000000000000000000000000000000000000000000000000000000000000000000000000000000000000000000000000000000000000000000000000000000000000000000000000000000000000000
310
000000000000000000000000000000000000DC000000000000000000000000000000000000000000000000000000000000000000000000000000000000000000000000000000000000000000000000000000000000000000000000000000DC0000000000000000000000000000000000000000000000000000000000000000
310
00000000000000000000000000BE00000000BEBEBEBE00000000BE00000000000000000000000000000000000000000000000000000000000000000000000000000000000000000000000000000000000000000000000000000000000000000000000000000000000000000000000000000000000000000000000000000000
310
0000000000000000000000000000000000000000DC000000000000000000000000000000000000000000000000000000000000000000000000000000000000000000000000000000000000000000000000000000000000000000000000000000DC000000000000000000000000000000000000000000000000000000000000
310
000000000000000000000000000000BEBEBEBE000000000000000000BE0000000000000000000000000000000000000000000000000000000000000000000000000000000000000000000000000000000000000000000000000000000000000000000000000000000000000000000000000000000000000000000000000000
310
00000000000000000000000000000000000000000000DC000000000000000000000000000000000000000000000000000000000000000000000000000000000000000000000000000000000000000000000000000000000000000000000000000000DC00000000000000000000000000000000000000000000000000000000
310
0000000000000000000000000000000000BEBEBEBE000000000000000000BE0000000000000000000000000000000000000000000000000000000000000000000000000000000000000000000000000000000000000000000000000000BEBEBEBEBEBE00000000000000000000000000000000000000000000000000000000
310
000000000000000000000000000000000000000000000000DC000000000000000000000000000000000000000000000000000000000000000000000000000000000000000000000000000000000000000000000000000000000000000000000000000000DC0000000000000000000000000000000000000000000000000000
310
00000000000000000000000000000000000000BEBEBEBE000000000000000000BE000000000000000000000000000000000000000000000000000000000000000000000000000000000000000000000000000000000000000000BEBEBEBEBEBEBEBEBEBEBEBEBE000000000000000000000000000000000000000000000000
310
0000000000000000000000000000000000000000000000000000DC000000000000000000000000000000000000000000000000000000000000000000000000000000000000000000000000000000000000000000000000000000000000000000000000000000DC000000000000000000000000000000000000000000000000
310
000000000000000000000000000000000000000000BE0000BE000000000000000000BE000000000000000000000000000000000000000000000000000000000000000000000000000000000000000000000000000000000000000000BE0000BE00BEBEBEBEBEBEBE0000000000000000000000000000000000000000000000
310
00000000000000000000000000000000000000000000000000000000DC000000000000000000000000000000000000000000000000000000000000000000000000000000000000000000000000000000000000000000000000000000000000000000000000000000DC00000000000000000000000000000000000000000000
310
0000000000000000000000000000000000000000000000BE0000BE000000000000000000BE0000000000000000000000000000000000000000000000000000000000000000000000000000000000000000000000000000000000000000BE0000BE00000000BEBEBEBEBE000000000000000000000000000000000000000000
310
000000000000000000000000000000000000000000000000000000000000DC000000000000000000000000000000000000000000000000000000000000000000000000000000000000000000000000000000000000000000000000000000000000000000000000000000DC0000000000000000000000000000000000000000
310
00000000000000000000000000000000000000000000000000BE0000BE000000000000000000BE0000000000000000000000000000000000000000000000000000000000000000000000000000000000000000000000000000000000000000BE0000BE00000000000000000000000000000000000000000000000000000000
310
0000000000000000000000000000000000000000000000000000000000000000DC000000000000000000000000000000000000000000000000000000000000000000000000000000000000000000000000000000000000000000000000000000000000000000000000000000DC000000000000000000000000000000000000
310
000000000000000000000000000000000000000000000000000000BE0000BE000000000000000000BE00000000000000000000000000000000000000000000000000000000000000000000000000000000000000000000000000000000000000BE0000BE0000000F0000000000000000000000000000000000000000000000
310
00000000000000000000000000000000000000000000000000000000000000000000DC000000000000000000000000000000000000000000000000000000000000000000000000000000000000000000000000000000000000000000000000000000000000000000000000000000DC00000000000000000000000000000000
310
0000000000000000000000000000000000000000000000000000000000BE0000BE000000000000000000BE00000000000000000000000000000000000000000000000000000000000000000000000000000000000000000000000000000000000000BE0000BE0000000F000000000000000000000000000000000000000000
310
000000000000000000000000000000000000000000000000000000000000000000000000DC000000000000000000000000000000000000000000000000000000000000000000000000000000000000000000000000000000000000000000000000000000000000000000000000000000DC0000000000000000000000000000
310
00000000000000000000000000000000000000BEBEBEBEBEBEBEBEBEBEBEBEBE2828BE282828282828282828BE000000000000000000000000000000000000000000000000000000000000000000000000000028282828282828282828282828282828BE2828BE282828282828282828282828282828282828282828282828
310
282828BEBEBEBEBEBEBEBEBEBEBEBEBEBE000000000000000000000000000000000000000000DC000000000000000000000000000000000000000000000000000000000000000000000000000000000000000000000000000000000000000000000000000000000000000000000000000000DC000000000000000000000000
310
000000000000000000000000000000000000000000BEBEBEBE0000000000000000280000BEDCDCDCDCDCDCDCDCDCDCBEDCDC000000000000000000000000000000000000000000000000000000000000000000000028BE000000BE0000BE000000BE0000BE0000BEBE0000BE000FBEBE0000BE0000BE000000BE0000BE0000
310
BEBE0000BE2800000000000000BEBEBE0000BE000000000000000000000000000000000000000000DC000000000000000000000000000000000000000000000000000000000000000000000000000000000000000000000000000000000000000000000000000000000000000000000000000000DC00000000000000000000
310
0000000000000000000000000000000000000000000000BEBEBEBE0000000000000000280000BE00282828282828282828BEBE0000000000000000000000000000000000000000000000000000000000000000000000002800000000000000000000000000000000000000000000000F000000000000000000000000000000
310
000000000000002800000000000000BEBEBE0000BE000000000000000000000000000000000000000000DC000000000000000000000000000000000000000000000000000000000000000000000000000000000000000000000000000000000000000000000000000000000000000000000000000000DC0000000000000000
310
00000000000000000000000000000000000000000000000000BE00BEBEBEBEBEBEBEBEBEBE28BEBEBE282828282828282828BE00BE0000000000000000000000000000000000000000000000000000000000000000000000002828282828282828282828282828282828282828282828282828282828282828282828282828
310
282828282828282828BEBEBEBEBEBEBEBEBEBEBE0000BE000000000000000000000000000000000000000000DC000000000000000000000000000000000000000000000000000000000000000000000000000000000000000000000000000000000000000000000000000000000000000000000000000000DC000000000000
310
000000000000000000000000000000000000000000000000000000BE0000BE000000000000000028000028BE0000000000000000BE00BE0000000000000000000000000000000000000000000000000000000000000000000000002800000000000000000000000000000000000000000000000F0000000000000000000000
310
000000000000000000000028000000000000000000BE0000BE000000000000000000000000000000000000000000DC000000000000000000000000000000000000000000000000000000000000000000000000000000000000000000000000000000000000000000000000000000000000000000000000000000DC00000000
310
0000000000000000000000000000000000000000000000000000000000BE0000BE00000000000000002800282800BEBE000000000000BE0000BE000000000000000000000000000000000000000000000000000000000000000000000028000000000000000000000000000000000000000000000000000000000000000000
310
0000000000000000000000000028000000000000000000BE0000BE000000000000000000000000000000000000000000DC000000000000000000000000000000000000000000000000000000000000000000000000000000000000000000000000000000000000000000000000000000000000000000000000000000DC0000
310
00000000000000000000000000000000000000000000000000000000000000BE0000BE00000000000000002800282800BEBEBE0000000000BE000000BE000000000000000000000000000000000000000000000000000000000000000000002800000000000000000000000000000000000000000000000F00000000000000
310
00000000000000000000000000000028000000000000000000BE0000BE000000000000000000000000000000000000000000DC000000000000000000000000000000000000000000000000000000000000000000000000000000000000000000000000000000000000000000000000000000000000000000000000000000DC
310
000000000000000000000000000000000000000000000000000000000000000000BE0000BE0000000000000000280028280000BEBEBE00000000BE000000BE0000BEBEBEBEBEBE00000000000000000000000000000000000000000000000000002800000000000000000000000000000000000000000000000F0000000000
310
000000000000000000000000000000000028000000000000000000BE0000BE000000000000000000000000000000000000000000DC0000000000000000000000000000000000000000000000000000000000000000000000000000000000000000000000000000000000000000000000000000000000000000000000000000
310
00DC000000000000000000000000000000000000000000000000000000000000000000BE0000BE000000000000000028002828000000BE0000000000BE00000000BEBEBEBEBEBEBEBEBE000000000000000000000000000000000000000000000000002800000000000000000000000000000000000000000000000F000000
310
0000000000000000000000000000000000000028000000000000000000BE0000BE000000000000000000000000000000000000000000DC000000000000000000000000000000000000000000000000000000000000000000000000000000000000000000000000000000000000000000000000000000000000000000000000
310
000000DC000000000000000000000000000000000000000000000000000000000000000000BE0000BE000000000000000028002828000000000000000000BE000000000000BEBEBEBEBEBE00000000000000000000000000000000000000000000000000002800000000000000000000000000000000000000000000000F00
310
00000000000000000000000000000000000000000028000000000000000000BE0000BE000000000000000000000000000000000000000000DC00000000000000000000000000000000000000000000000000000000000000000000000000000000000000000000000000000000000000000000000000000000000000000000
310
0000000000DC000000000000000000000000000000000000000000000000000000000000000000BE0000BE000000000000000028002828000000000000000000BE000000000000000000BEBEBE0000000000000000000000000000000000000000000000000000280000000000000000000000000000000000000000000000
310
0F0000000000000000000000000000000000000000000028000000000000000000BE0000BE000000000000000000000000000000000000000000DC0000000000000000000000000000000000000000000000000000000000000000000000000000000000000000000000000000000000000000000000000000000000000000
310
00000000000000DC000000000000000000000000000000000000000000000000000000000000000000BE0000BE000000000000000028002828000000000000000000BE000000000000000000000000000000000000000000000000000000000000000000000000000028000000000000000000000000000000000000000000
310
00000F0000000000000000000000000000000000000000000028000000000000000000BE0000BE000000000000000000000000000000000000000000DC000000000000000000000000000000000000000000000000000000000000000000000000000000000000000000000000000000000000000000000000000000000000
310
000000000000000000DC000000000000000000000000000000000000000000000000000000000000000000BE0000BE000000000000000028002828000000000000000000BE00000000000000000000000000000000000000000000000000000000000000000000000000002800000000000000000000000000000000000000
310
000000000F0000000000000000000000000000000000000000000028000000000000000000BE0000BE000000000000000000000000000000000000000000DC00000000000000000000000000000000000000000000000000000000000000000000000000000000000000000000000000000000000000000000000000000000
310
0000000000000000000000DC000000000000000000000000000000000000000000000000000000000000000000BE0000BE000000000000000028002828000000000000000000BE0000000000000000000000000000000000000000000000000000000000000000000000000000280000000000000000000000000000000000
310
0000000000000F0000000000000000000000000000000000000000000028000000000000000000BE0000BE000000000000000000000000000000000000000000DC0000000000000000000000000000000000000000000000000000000000000000000000000000000000000000000000000000000000000000000000000000
310
00000000000000000000000000DC00000000000000000000000000000000000000000000000000000000000000BEBEBE0000BE000000000000000028002828000000000000000000BE000000000000000000000000000000000000000000000000000000000000000000000000000028000000000000000000000000000000
310
00000000000000000F0000000000000000000000000000000000000000000028000000000000000000BEBEBEBE000000000000000000000000000000000000000000DC000000000000000000000000000000000000000000000000000000000000000000000000000000000000000000000000000000000000000000000000
310
000000000000000000000000000000DC00000000000000000000000000000000000000000000000000000000000000BEBEBE0000BE000000000000000028002828000000000000000000BE00000000000000000000000000000000000000000000000000000000000000000000000000002800000000000000000000000000
310
000000000000000000000F0000000000000000000000000000000000000000000028000000000000000000BEBEBEBE000000000000000000000000000000000000000000DC00000000000000000000000000000000000000000000000000000000000000000000000000000000000000000000000000000000000000000000
310
0000000000000000000000000000000000DC00000000000000000000000000000000000000000000000000000000000000BEBEBEBEBEBE000000000000000028002828000000000000000000BE0000000000000000000000000000000000000000000000000000000000000000000000000000280000000000000000000000
310
0000000000000000000000000F000000000000000000000000000000000000000000002800000000000000BEBEBEBEBEBE000000000000000000000000000000000000000000DC0000000000000000000000000000000000000000000000000000000000000000000000000000000000000000000000000000000000000000
310
00000000000000000000000000000000000000DC00000000000000000000000000000000000000000000000000000000000000BEBEBEBEBEBE000000000000000028002828000000000000000000BE000000000000000000000000000000000000000000000000000000000000000000000000000028000000000000000000
310
00000000000000000000000000000F000000000000000000000000000000000000000000002800000000000000BEBEBEBEBEBE000000000000000000000000000000000000000000DC000000000000000000000000000000000000000000000000000000000000000000000000000000000000000000000000000000000000
310
000000000000000000000000000000000000000000DC000000000000000000000000000000000000000000000000000000000000000000BEBEBEBE000000000000000028002828000000000000000000BE00000000000000000000000000000000000000000000000000000000000000000000000000002800000000000000
310
000000000000000000000000000000000F000000000000000000000000000000000000000000002800000000000000BEBEBE0000BE000000000000000000000000000000000000000000DC00000000000000000000000000000000000000000000000000000000000000000000000000000000000000000000000000000000
310
0000000000000000000000000000000000000000000000DC000000000000000000000000000000000000000000000000000000000000000000BE0000BE000000000000000028002828000000000000000000BE0000000000000000000000000000000000000000000000000000000000000000000000000000280000000000
310
0000000000000000000000000000000000000F0000000000000000000000000000000000000000000028000000000000000000BE0000BE000000000000000000000000000000000000000000DC0000000000000000000000000000000000000000000000000000000000000000000000000000000000000000000000000000
310
00000000000000000000000000000000000000000000000000DC000000000000000000000000000000000000000000000000000000000000000000BE0000BE000000000000000028002828000000000000000000BE000000000000000000000000000000000000000000000000000000000000000000000000000028000000
310
00000000000000000000000000000000000000000F0000000000000000000000000000000000000000000028000000000000000000BE0000BE000000000000000000000000000000000000000000DC000000000000000000000000000000000000000000000000000000000000000000000000000000000000000000000000
310
000000000000000000000000000000000000000000000000000000DC000000000000000000000000000000000000000000000000000000000000000000BE0000BE000000000000000028002828000000000000000000BE00000000000000000000000000000000000000000000000000000000000000000000000000002800
310
000000000000000000000000000000000000000000000F0000000000000000000000000000000000000000000028000000000000000000BE0000BE000000000000000000000000000000000000000000DC00000000000000000000000000000000000000000000000000000000000000000000000000000000000000000000
310
0000000000000000000000000000000000000000000000000000000000DC000000000000000000000000000000000000000000000000000000000000000000BE0000BE000000000000000028002828000000000000000000BE0000000000000000000000000000000000000000000000000000000000000000000000000000
310
2800000000000000000000000000000000000000000000000F0000000000000000000000000000000000000000000028000000000000000000BE0000BE000000000000000000000000000000000000000000DC0000000000000000000000000000000000000000000000000000000000000000000000000000000000000000
310
00000000000000000000000000000000000000000000000000000000000000DC000000000000000000000000000000000000000000000000000000000000000000BE0000BE000000000000000028002828000000000000000000BE000000000000000000000000000000000000000000000000000000000000000000000000
310
00002800000000000000000000000000000000000000000000000F0000000000000000000000000000000000000000000028000000000000000000BE0000BE000000000000000000000000000000000000000000DC000000000000000000000000000000000000000000000000000000000000000000000000000000000000
310
000000000000000000000000000000000000000000000000000000000000000000DC000000000000000000000000000000000000000000000000000000000000000000BE0000BE000000000000000028002828000000000000000000BE00000000000000000000000000000000000000000000000000000000000000000000
310
000000002800000000000000000000000000000000000000000000000F0000000000000000000000000000000000000000000028000000000000000000BE0000BE000000000000000000000000000000000000000000DC00000000000000000000000000000000000000000000000000000000000000000000000000000000
310
0000000000000000000000000000000000000000000000000000000000000000000000DC000000000000000000000000000000000000000000000000000000000000000000BE0000BE000000000000000028002828000000000000000000BE0000000000000000000000000000000000000000000000000000000000000000
310
0000000000002800000000000000000000000000000000000000000000000F0000000000000000000000000000000000000000000028000000000000000000BE0000BE000000000000000000000000000000000000000000DC0000000000000000000000000000000000000000000000000000000000000000000000000000
310
00000000000000000000000000000000000000000000000000000000000000000000000000DC000000000000000000000000000000000000000000000000000000000000000000BE0000BE000000000000000028002828000000000000000000BE000000000000000000000000000000000000000000000000000000000000
310
00000000000000002800000000000000000000000000000000000000000000000F0000000000000000000000000000000000000000000028000000000000000000BE0000BE000000000000000000000000000000000000000000DC000000000000000000000000000000000000000000000000000000000000000000000000
310
000000000000000000000000000000000000000000000000000000000000000000000000000000DC000000000000000000000000000000000000000000000000000000000000000000BE0000BE000000000000000028002828000000000000000000BE00000000000000000000000000000000000000000000000000000000
310
000000000000000000002800000000000000000000000000000000000000000000000F0000000000000000000000000000000000000000000028000000000000000000BE0000BE000000000000000000000000000000000000000000DC00000000000000000000000000000000000000000000000000000000000000000000
310
0000000000000000000000000000000000000000000000000000000000000000000000000000000000DC000000000000000000000000000000000000000000000000000000000000000000BE0000BE000000000000000028002828000000000000000000BE0000000000000000000000000000000000000000000000000000
310
0000000000000000000000002800000000000000000000000000000000000000000000000F0000000000000000000000000000000000000000000028000000000000000000BE0000BE000000000000000000000000000000000000000000DC0000000000000000000000000000000000000000000000000000000000000000
310
00000000000000000000000000000000000000000000000000000000000000000000000000000000000000DC000000000000000000000000000000000000000000000000000000000000000000BE0000BE000000000000000028002828000000000000000000BE000000000000000000000000000000000000000000000000
310
00000000000000000000000000002800000000000000000000000000000000000000000000000F0000000000000000000000000000000000000000000028000000000000000000BE0000BE000000000000000000000000000000000000000000DC000000000000000000000000000000000000000000000000000000000000
310
000000000000000000000000000000000000000000000000000000000000000000000000000000000000000000DC000000000000000000000000000000000000000000000000000000000000000000BE0000BE000000000000000028002828000000000000000000BE00000000000000000000000000000000000000000000
310
000000000000000000000000000000002800000000000000000000000000000000000000000000000F0000000000000000000000000000000000000000000028000000000000000000BE0000BE000000000000000000000000000000000000000000DC00000000000000000000000000000000000000000000000000000000
310
0000000000000000000000000000000000000000000000000000000000000000000000000000000000000000000000DC000000000000000000000000000000000000000000000000000000000000000000BEBEBEBEBEBEBEBEBEBEBEBE282828BE000000000000000000BE0000000000000000000000000000000000000000
310
000000000000000000000000000000000000BE28282828282828282828282828282828282828282828282828282828282828282828282828282828282828282828BEBEBEBEBEBEBEBEBEBEBEBEBEBE000000000000000000000000000000000000000000DC0000000000000000000000000000000000000000000000000000
310
00000000000000000000000000000000000000000000000000000000000000000000000000000000000000000000000000DC000000000000000000000000000000000000000000000000000000000000000000000000000000000000000000BE0000BE000000000000000000BE000000000000000000000000000000000000
310
0000000000000000000000000000000000000000BE00000000000000000000000000000000000000000000000F00000000000000000000000000000000000000000000BE00000000000000000000000000000000000000000000000000000000000000000000DC000000000000000000000000000000000000000000000000
310
000000000000000000000000000000000000000000000000000000000000000000000000000000000000000000000000000000DC000000000000000000000000000000000000000000000000000000000000000000000000000000000000000000BE0000BE000000000000000000BE00000000000000000000000000000000
310
00000000000000000000000000000000000000000000BE00000000000000000000000000000000000000000000000F00000000000000000000000000000000000000000000BE00000000000000000000000000000000000000000000000000000000000000000000DC00000000000000000000000000000000000000000000
310
0000000000000000000000000000000000000000000000000000000000000000000000000000000000000000000000000000000000DC000000000000000000000000000000000000000000000000000000000000000000000000000000000000000000BE0000BE000000000000000000BE0000000000000000000000000000
310
000000000000000000000000000000000000000000000000BE00000000000000000000000000000000000000000000000000000000000000000000000000000000000000000000BE00000000000000000000000000000000000000000000000000000000000000000000DC0000000000000000000000000000000000000000
310
00000000000000000000000000000000000000000000000000000000000000000000000000000000000000000000000000000000000000DC000000000000000000000000000000000000000000000000000000000000000000000000000000000000000000BE0000BE000000000000000000BE000000000000000000000000
310
0000000000000000000000000000000000000000000000000000BE00000000000000000000000000000000000000000000000000000000000000000000000000000000000000000000BE00000000000000000000000000000000000000000000000000000000000000000000DC000000000000000000000000000000000000
310
000000000000000000000000000000000000000000000000000000000000000000000000000000000000000000000000000000000000000000DC000000000000000000000000000000000000000000000000000000000000000000000000000000000000000000BE0000BE000000000000000000BE00000000000000000000
310
00000000000000000000000000000000000000000000000000000000BE00000000000000000000000000000000000000000000000000000000000000000000000000000000000000000000BE00000000000000000000000000000000000000000000000000000000000000000000DC00000000000000000000000000000000
310
0000000000000000000000000000000000000000000000000000000000000000000000000000000000000000000000000000000000000000000000DC000000000000000000000000000000000000000000000000000000000000000000000000000000000000000000BE0000BE000000000000000000BE0000000000000000
310
000000000000000000000000000000000000000000000000000000000000BE00000000000000000000000000000000000000000000000000000000000000000000000000000000000000000000BE00000000000000000000000000000000000000000000000000000000000000000000DC0000000000000000000000000000
310
00000000000000000000000000000000000000000000000000000000000000000000000000000000000000000000000000000000000000000000000000DC000000000000000000000000000000000000000000000000000000000000000000000000000000000000000000BE0000BE000000000000000000BE000000000000
310
0000000000000000000000000000000000000000000000000000000000000000BE00000000000000000000000000000000000000000000000000000000000000000000000000000000000000000000BE00000000000000000000000000000000000000000000000000000000000000000000DC000000000000000000000000
310
000000000000000000000000000000000000000000000000000000000000000000000000000000000000000000000000000000000000000000000000000000DC000000000000000000000000000000000000000000000000000000000000000000000000000000000000000000BE0000BE000000000000000000BE00000000
310
00000000000000000000000000000000000000000000000000000000000000000000BE00000000000000000000000000000000000000000000000000000000000000000000000000000000000000000000BE00000000000000000000000000000000000000000000000000000000000000000000DC00000000000000000000
310
0000000000000000000000000000000000000000000000000000000000000000000000000000000000000000000000000000000000000000000000000000000000DC000000000000000000000000000000000000000000000000000000000000000000000000000000000000000000BEBEBEBEBEBEBEBEBEBEBEBEBEBE0000
310
000000000000000000000000000000000000000000000000000000000000000000000000BE00000000000000000000000000000000000000000000000000000000000000000000000000000000000000000000BE00000000000000000000000000000000000000000000000000000000000000000000DC0000000000000000
310
00000000000000000000000000000000000000000000000000000000000000000000000000000000000000000000000000000000000000000000000000000000000000DC000000000000000000000000000000000000000000000000000000000000000000000000000000000000000000BEBEBEBE000000BEBEBE000000BE
310
0000000000000000000000000000000000000000000000000000000000000000000000000000BE00000000000000000000000000000000000000000000000000000000000000000000000000000000000000000000BE00000000000000000000000000000000000000000000000000000000000000000000DC000000000000
310
000000000000000000000000000000000000000000000000000000000000000000000000000000000000000000000000000000000000000000000000000000000000000000DC000000000000000000000000000000000000000000000000000000000000000000000000000000000000000000BEBEBE00000000BEBEBE0000
310
00BE0000000000000000000000000000000000000000000000000000000000000000000000000000BE00000000000000000000000000000000000000000000000000000000000000000000000000000000000000000000BE00000000000000000000000000000000000000000000000000000000000000000000DC00000000
310
0000000000000000000000000000000000000000000000000000000000000000000000000000000000000000000000000000000000000000000000000000000000000000000000DC000000000000000000000000000000000000000000000000000000000000000000000000000000000000000000BEBEBEBEBEBEBEBEBEBE
310
BEBEBEBE0000000000000000000000000000000000000000000000000000000000000000000000000000BEBEBEBEBEBEBEBEBEBEBEBEBEBEBEBEBEBEBEBEBEBEBEBEBEBEBEBEBEBEBEBEBEBEBEBEBEBEBEBEBEBEBEBEBEBEBEBE00000000000000000000000000000000000000000000000000000000000000000000DC0000
310
00000000000000000000000000000000000000000000000000000000000000000000000000000000000000000000000000000000000000000000000000000000000000000000000000DC000000000000000000000000000000000000000000000000000000000000000000000000000000000000000000000000000000BEBE
310
BE0000000000000000000000000000000000000000000000000000000000000000000000000000000000000000000000000000000000000000000000000000000000BEBEBEBE0000000000000000000000000000000000000000000000000000000000000000000000000000000000000000000000000000000000000000DC
310
000000000000000000000000000000000000000000000000000000000000000000000000000000000000000000000000000000000000000000000000000000000000000000000000000000DC000000000000000000000000000000000000000000000000000000000000000000000000000000000000000000000000000000
310
00000000000000000000000000000000000000000000000000000000000000000000000000000000000000000000000000000000000000000000000000000000000000000000000000000000000000000000000000000000000000000000000000000000000000000000000000000000000000000000000000000000000000
310
00DC000000000000000000000000000000000000000000000000000000000000000000000000000000000000000000000000000000000000000000000000000000000000000000000000000000DC00000000000000000000000000000000000000000000000000000000000000000000000000000000000000000000000000
310
00000000000000000000000000000000000000000000000000000000000000000000000000000000000000000000000000000000000000000000000000000000000000000000000000000000000000000000000000000000000000000000000000000000000000000000000000000000000000000000000000000000000000
310
000000DC000000000000000000000000000000000000000000000000000000000000000000000000000000000000000000000000000000000000000000000000000000000000000000000000000000DC0000000000000000000000000000000000000000000000000000000000000000000000000000000000000000000000
310
00000000000000000000000000000000000000000000000000000000000000000000000000000000000000000000000000000000000000000000000000000000000000000000000000000000000000000000000000000000000000000000000000000000000000000000000000000000000000000000000000000000000000
310
0000000000DC000000000000000000000000000000000000000000000000000000000000000000000000000000000000000000000000000000000000000000000000000000000000000000000000000000DC000000000000000000000000000000000000000000000000000000000000000000000000000000000000000000
310
00000000000000000000000000000000000000000000000000000000000000000000000000000000000000000000000000000000000000000000000000000000000000000000000000000000000000000000000000000000000000000000000000000000000000000000000000000000000000000000000000000000000000
310
00000000000000DC000000000000000000000000000000000000000000000000000000000000000000000000000000000000000000000000000000000000000000000000000000000000000000000000000000DC00000000000000000000000000000000000000000000000000000000000000000000000000000000000000
310
00000000000000000000000000000000000000000000000000000000000000000000000000000000000000000000000000000000000000000000000000000000000000000000000000000000000000000000000000000000000000000000000000000000000000000000000000000000000000000000000000000000000000
310
000000000000000000DC000000000000000000000000000000000000000000000000000000000000000000000000000000000000000000000000000000000000000000000000000000000000000000000000000000DC0000000000000000000000000000000000000000000000000000000000000000000000000000000000
310
00000000000000000000000000000000000000000000000000000000000000000000000000000000000000000000000000000000000000000000000000000000000000000000000000000000000000000000000000000000000000000000000000000000000000000000000000000000000000000000000000000000000000
310
0000000000000000000000DC000000000000000000000000000000000000000000000000000000000000000000000000000000000000000000000000000000000000000000000000000000000000000000000000000000DC000000000000000000000000000000000000000000000000000000000000000000000000000000
310
00000000000000000000000000000000000000000000000000000000000000000000000000000000000000000000000000000000000000000000000000000000000000000000000000000000000000000000000000000000000000000000000000000000000000000000000000000000000000000000000000000000000000
310
00000000000000000000000000DC000000000000000000000000000000000000000000000000000000000000000000000000000000000000000000000000000000000000000000000000000000000000000000000000000000DC00000000000000000000000000000000000000000000000000000000000000000000000000
310
00000000000000000000000000000000000000000000000000000000000000000000000000000000000000000000000000000000000000000000000000000000000000000000000000000000000000000000000000000000000000000000000000000000000000000000000000000000000000000000000000000000000000
310
000000000000000000000000000000DC000000000000000000000000000000000000000000000000000000000000000000000000000000000000000000000000000000000000000000000000000000000000000000000000000000DC0000000000000000000000000000000000000000000000000000000000000000000000
310
00000000000000000000000000000000000000000000000000000000000000000000000000000000000000000000000000000000000000000000000000000000000000000000000000000000000000000000000000000000000000000000000000000000000000000000000000000000000000000000000000000000000000
310
0000000000000000000000000000000000DC000000000000000000000000000000000000000000000000000000000000000000000000000000000000000000000000000000000000000000000000000000000000000000000000000000DC000000000000000000000000000000000000000000000000000000000000000000
310
00000000000000000000000000000000000000000000000000000000000000000000000000000000000000000000000000000000000000000000000000000000000000000000000000000000000000000000000000000000000000000000000000000000000000000000000000000000000000000000000000000000000000
310
00000000000000000000000000000000000000DC000000000000000000000000000000000000000000000000000000000000000000000000000000000000000000000000000000000000000000000000000000000000000000000000000000DC00000000000000000000000000000000000000000000000000000000000000
310
00000000000000000000000000000000000000000000000000000000000000000000000000000000000000000000000000000000000000000000000000000000000000000000000000000000000000000000000000000000000000000000000000000000000000000000000000000000000000000000000000000000000000
310
000000000000000000000000000000000000000000DC000000000000000000000000000000000000000000000000000000000000000000000000000000000000000000000000000000000000000000000000000000000000000000000000000000DC0000000000000000000000000000000000000000000000000000000000
310
00000000000000000000000000000000000000000000000000000000000000000000000000000000000000000000000000000000000000000000000000000000000000000000000000000000000000000000000000000000000000000000000000000000000000000000000000000000000000000000000000000000000000
310
0000000000000000000000000000000000000000000000DC000000000000000000000000000000000000000000000000000000000000000000000000000000000000000000000000000000000000000000000000000000000000000000000000000000DC000000000000000000000000000000000000000000000000000000
310
00000000000000000000000000000000000000000000000000000000000000000000000000000000000000000000000000000000000000000000000000000000000000000000000000000000000000000000000000000000000000000000000000000000000000000000000000000000000000000000000000000000000000
310
00000000000000000000000000000000000000000000000000DC000000000000000000000000000000000000000000000000000000000000000000000000000000000000000000000000000000000000000000000000000000000000000000000000000000DC00000000000000000000000000000000000000000000000000
310
00000000000000000000000000000000000000000000000000000000000000000000000000000000000000000000000000000000000000000000000000000000000000000000000000000000000000000000000000000000000000000000000000000000000000000000000000000000000000000000000000000000000000
310
000000000000000000000000000000000000000000000000000000DC000000000000000000000000000000000000000000000000000000000000000000000000000000000000000000000000000000000000000000000000000000000000000000000000000000DC0000000000000000000000000000000000000000000000
310
00000000000000000000000000000000000000000000000000000000000000000000000000000000000000000000000000000000000000000000000000000000000000000000000000000000000000000000000000000000000000000000000000000000000000000000000000000000000000000000000000000000000000
310
0000000000000000000000000000000000000000000000000000000000DC000000000000000000000000000000000000000000000000000000000000000000000000000000000000000000000000000000000000000000000000000000000000000000000000000000DC000000000000000000000000000000000000000000
310
00000000000000000000000000000000000000000000000000000000000000000000000000000000000000000000000000000000000000000000000000000000000000000000000000000000000000000000000000000000000000000000000000000000000000000000000000000000000000000000000000000000000000
310
00000000000000000000000000000000000000000000000000000000000000DC000000000000000000000000000000000000000000000000000000000000000000000000000000000000000000000000000000000000000000000000000000000000000000000000000000DC00000000000000000000000000000000000000
310
00000000000000000000000000000000000000000000000000000000000000000000000000000000000000000000000000000000000000000000000000000000000000000000000000000000000000000000000000000000000000000000000000000000000000000000000000000000000000000000000000000000000000
310
000000000000000000000000000000000000000000000000000000000000000000DC000000000000000000000000000000000000000000000000000000000000000000000000000000000000000000000000000000000000000000000000000000000000000000000000000000DC0000000000000000000000000000000000
310
00000000000000000000000000000000000000000000000000000000000000000000000000000000000000000000000000000000000000000000000000000000000000000000000000000000000000000000000000000000000000000000000000000000000000000000000000000000000000000000000000000000000000
310
0000000000000000000000000000000000000000000000000000000000000000000000DC000000000000000000000000000000000000000000000000000000000000000000000000000000000000000000000000000000000000000000000000000000000000000000000000000000DC000000000000000000000000000000
310
00000000000000000000000000000000000000000000000000000000000000000000000000000000000000000000000000000000000000000000000000000000000000000000000000000000000000000000000000000000000000000000000000000000000000000000000000000000000000000000000000000000000000
310
00000000000000000000000000000000000000000000000000000000000000000000000000DC000000000000000000000000000000000000000000000000000000000000000000000000000000000000000000000000000000000000000000000000000000000000000000000000000000DCDCDCDCDCDCDCDCDCDCDCDCDCDC
310
DCDCDCDCDCDCDCDCDCDCDCDCDCDCDCDCDCDCDCDCDCDCDCDCDCDCDCDCDCDCDCDCDCDCDCDCDCDCDCDCDCDCDCDCDCDCDCDCDCDCDCDCDCDCDCDCDCDCDCDCDCDCDCDCDCDCDCDCDCDCDCDCDCDCDCDCDCDCDCDCDCDCDCDCDCDCDCDCDCDCDCDCDCDCDCDCDCDCDCDCDCDCDCDCDCDCDCDCDCDCDCDCDCDCDCDCDCDCDCDCDCDCDCDCDCDCDC
310
DCDCDCDCDCDCDCDCDCDCDCDCDCDCDCDCDCDCDCDCDCDCDCDCDCDCDCDCDCDCDCDCDCDCDCDCDCDCDCDC000000000000000000000000000000000000000000000000000000000000000000000000000000000000000000000000000000000000000000000000000000000000000000000000000000BEBEBEBEBEBEBEBEBEBE00BE
310
00000000000000000000000000000000000000000000000000000000000000000000000000000000000000000000000000000000000000000000000000000000000000000000000000000000000000000000000000000000000000000000000000000000000000000000000000000000000000000000000000000000000000
310
000000000000000000000000000000000000000000000000000000000000000000000000000000000000000000000000000000000000000000000000000000000000000000000000000000000000000000000000000000000000000000000000000000000000000000000000000000000000000000BEBEBEBEBEBEBEBEBEBE
310
BEBE0000000000000000000000000000000000000000000000000000000000000000000000000000000000000000000000000000000000000000000000000000000000000000000000000000000000000000000000000000000000000000000000000000000000000000000000000000000000000000000000000000000000
310
00000000000000000000000000000000000000000000000000000000000000000000000000000000000000000000000000000000000000000000000000000000000000000000000000000000000000000000000000000000000000000000000000000000000000000000000000000000000000000000000000000000000000
310
00000000000000000000000000000000000000000000000000000000000000000000000000000000000000000000000000000000000000000000000000000000000000000000000000000000000000000000000000000000000000000000000000000000000000000000000000000000000000000000000000000000000000
310
00000000000000000000000000000000000000000000000000000000000000000000000000000000000000000000000000000000000000000000000000000000000000000000000000000000000000000000000000000000000000000000000000000000000000000000000000000000000000000000000000000000000000
310
00000000000000000000000000000000000000000000000000000000000000000000000000000000000000000000000000000000000000000000000000000000000000000000000000000000000000000000000000000000000000000000000000000000000000000000000000000000000000000000000000000000000000
310
00000000000000000000000000000000000000000000000000000000000000000000000000000000000000000000000000000000000000000000000000000000000000000000000000000000000000000000000000000000000000000000000000000000000000000000000000000000000000000000000000000000000000
310
00000000000000000000000000000000000000000000000000000000000000000000000000000000000000000000000000000000000000000000000000000000000000000000000000000000000000000000000000000000000000000000000000000000000000000000000000000000000000000000000000000000000000
310
00000000000000000000000000000000000000000000000000000000000000000000000000000000000000000000000000000000000000000000000000000000000000000000000000000000000000000000000000000000000000000000000000000000000000000000000000000000000000000000000000000000000000
310
00000000000000000000000000000000000000000000000000000000000000000000000000000000000000000000000000000000000000000000000000000000000000000000000000000000000000000000000000000000000000000000000000000000000000000000000000000000000000000000000000000000000000
310
00000000000000000000000000000000000000000000000000000000000000000000000000000000000000000000000000000000000000000000000000000000000000000000000000000000000000000000000000000000000000000000000000000000000000000000000000000000000000000000000000000000000000
310
00000000000000000000000000000000000000000000000000000000000000000000000000000000000000000000000000000000000000000000000000000000000000000000000000000000000000000000000000000000000000000000000000000000000000000000000000000000000000000000000000000000000000
310
00000000000000000000000000000000000000000000000000000000000000000000000000000000000000000000000000000000000000000000000000000000000000000000000000000000000000000000000000000000000000000000000000000000000000000000000000000000000000000000000000000000000000
310
00000000000000000000000000000000000000000000000000000000000000000000000000000000000000000000000000000000000000000000000000000000000000000000000000000000000000000000000000000000000000000000000000000000000000000000000000000000000000000000000000000000000000
310
00000000000000000000000000000000000000000000000000000000000000000000000000000000000000000000000000000000000000000000000000000000000000000000000000000000000000000000000000000000000000000000000000000000000000000000000000000000000000000000000000000000000000
310
00000000000000000000000000000000000000000000000000000000000000000000000000000000000000000000000000000000000000000000000000000000000000000000000000000000000000000000000000000000000000000000000000000000000000000000000000000000000000000000000000000000000000
310
00000000000000000000000000000000000000000000000000000000000000000000000000000000000000000000000000000000000000000000000000000000000000000000000000000000000000000000000000000000000000000000000000000000000000000000000000000000000000000000000000000000000000
310
00000000000000000000000000000000000000000000000000000000000000000000000000000000000000000000000000000000000000000000000000000000000000000000000000000000000000000000000000000000000000000000000000000000000000000000000000000000000000000000000000000000000000
310
00000000000000000000000000000000000000000000000000000000000000000000000000000000000000000000000000000000000000000000000000000000000000000000000000000000000000000000000000000000000000000000000000000000000000000000000000000000000000000000000000000000000000
310
00000000000000000000000000000000000000000000000000000000000000000000000000000000000000000000000000000000000000000000000000000000000000000000000000000000000000000000000000000000000000000000000000000000000000000000000000000000000000000000000000000000000000
310
00000000000000000000000000000000000000000000000000000000000000000000000000000000000000000000000000000000000000000000000000000000000000000000000000000000000000000000000000000000000000000000000000000000000000000000000000000000000000000000000000000000000000
310
00000000000000000000000000000000000000000000000000000000000000000000000000000000000000000000000000000000000000000000000000000000000000000000000000000000000000000000000000000000000000000000000000000000000000000000000000000000000000000000000000000000000000
310
00000000000000000000000000000000000000000000000000000000000000000000000000000000000000000000000000000000000000000000000000000000000000000000000000000000000000000000000000000000000000000000000000000000000000000000000000000000000000000000000000000000000000
310
00000000000000000000000000000000000000000000000000000000000000000000000000000000000000000000000000000000000000000000000000000000000000000000000000000000000000000000000000000000000000000000000000000000000000000000000000000000000000000000000000000000000000
310
00000000000000000000000000000000000000000000000000000000000000000000000000000000000000000000000000000000000000000000000000000000000000000000000000000000000000000000000000000000000000000000000000000000000000000000000000000000000000000000000000000000000000
310
00000000000000000000000000000000000000000000000000000000000000000000000000000000000000000000000000000000000000000000000000000000000000000000000000000000000000000000000000000000000000000000000000000000000000000000000000000000000000000000000000000000000000
310
00000000000000000000000000000000000000000000000000000000000000000000000000000000000000000000000000000000000000000000000000000000000000000000000000000000000000000000000000000000000000000000000000000000000000000000000000000000000000000000000000000000000000
310
00000000000000000000000000000000000000000000000000000000000000000000000000000000000000000000000000000000000000000000000000000000000000000000000000000000000000000000000000000000000000000000000000000000000000000000000000000000000000000000000000000000000000
310
00000000000000000000000000000000000000000000000000000000000000000000000000000000000000000000000000000000000000000000000000000000000000000000000000000000000000000000000000000000000000000000000000000000000000000000000000000000000000000000000000000000000000
310
00000000000000000000000000000000000000000000000000000000000000000000000000000000000000000000000000000000000000000000000000000000000000000000000000000000000000000000000000000000000000000000000000000000000000000000000000000000000000000000000000000000000000
310
00000000000000000000000000000000000000000000000000000000000000000000000000000000000000000000000000000000000000000000000000000000000000000000000000000000000000000000000000000000000000000000000000000000000000000000000000000000000000000000000000000000000000
310
00000000000000000000000000000000000000000000000000000000000000000000000000000000000000000000000000000000000000000000000000000000000000000000000000000000000000000000000000000000000000000000000000000000000000000000000000000000000000000000000000000000000000
310
00000000000000000000000000000000000000000000000000000000000000000000000000000000000000000000000000000000000000000000000000000000000000000000000000000000000000000000000000000000000000000000000000000000000000000000000000000000000000000000000000000000000000
310
00000000000000000000000000000000000000000000000000000000000000000000000000000000000000000000000000000000000000000000000000000000000000000000000000000000000000000000000000000000000000000000000000000000000000000000000000000000000000000000000000000000000000
310
00000000000000000000000000000000000000000000000000000000000000000000000000000000000000000000000000000000000000000000000000000000000000000000000000000000000000000000000000000000000000000000000000000000000000000000000000000000000000000000000000000000000000
310
00000000000000000000000000000000000000000000000000000000000000000000000000000000000000000000000000000000000000000000000000000000000000000000000000000000000000000000000000000000000000000000000000000000000000000000000000000000000000000000000000000000000000
310
0000000000000000000000000000000000000000000000000000000000000000000000000000000000000000000000000000000000000000000000000000000000000000000000000000000000000000000000000000000000000000000000000000000000000000000000000000000000000000000000000000
  0
XRECORD
  5
184C
102
{ACAD_REACTORS
330
184B
102
}
330
184B
100
AcDbXrecord
280
     1
102
MATERIAL
148
0.0
149
0.0
149
0.0
 93
        0
 94
      127
282
     0
 72
     0
 77
     0
171
     0
175
     0
179
     0
273
     0
  0
XRECORD
  5
184E
102
{ACAD_REACTORS
330
184D
102
}
330
184D
100
AcDbXrecord
280
     1
102
MATERIAL
148
0.0
149
0.0
149
0.0
 93
        0
 94
      127
282
     0
 72
     0
 77
     0
171
     0
175
     0
179
     0
273
     0
  0
XRECORD
  5
1850
102
{ACAD_REACTORS
330
184F
102
}
330
184F
100
AcDbXrecord
280
     1
102
MATERIAL
148
0.0
149
0.0
149
0.0
 93
        0
 94
      127
282
     0
 72
     0
 77
     0
171
     0
175
     0
179
     0
273
     0
  0
XRECORD
  5
1842
102
{ACAD_REACTORS
330
1841
102
}
330
1841
100
AcDbXrecord
280
     1
102
DISPLAYNAME
  1
Imperial24
102
FLAGS
 90
        0
  0
CELLSTYLEMAP
  5
1853
102
{ACAD_REACTORS
330
1851
102
}
330
1851
100
AcDbCellStyleMap
 90
        3
300
CELLSTYLE
  1
TABLEFORMAT_BEGIN
 90
        5
170
     1
 91
        0
 92
    32768
 62
   257
 93
        1
300
CONTENTFORMAT
  1
CONTENTFORMAT_BEGIN
 90
        0
 91
        0
 92
      512
 93
        0
300

 40
0.0
140
1.0
 94
        5
 62
     0
340
F
144
0.25
309
CONTENTFORMAT_END
171
     0
 94
        0
309
TABLEFORMAT_END
  1
CELLSTYLE_BEGIN
 90
        1
 91
        1
300
_TITLE
309
CELLSTYLE_END
300
CELLSTYLE
  1
TABLEFORMAT_BEGIN
 90
        5
170
     1
 91
        0
 92
        0
 62
   257
 93
        1
300
CONTENTFORMAT
  1
CONTENTFORMAT_BEGIN
 90
        0
 91
        0
 92
      512
 93
        0
300

 40
0.0
140
1.0
 94
        5
 62
     0
340
F
144
0.18
309
CONTENTFORMAT_END
171
     0
 94
        0
309
TABLEFORMAT_END
  1
CELLSTYLE_BEGIN
 90
        2
 91
        1
300
_HEADER
309
CELLSTYLE_END
300
CELLSTYLE
  1
TABLEFORMAT_BEGIN
 90
        5
170
     1
 91
        0
 92
        0
 62
   257
 93
        1
300
CONTENTFORMAT
  1
CONTENTFORMAT_BEGIN
 90
        0
 91
        0
 92
      512
 93
        0
300

 40
0.0
140
1.0
 94
        2
 62
     0
340
F
144
0.18
309
CONTENTFORMAT_END
171
     0
 94
        0
309
TABLEFORMAT_END
  1
CELLSTYLE_BEGIN
 90
        3
 91
        2
300
_DATA
309
CELLSTYLE_END
  0
XRECORD
  5
1852
102
{ACAD_REACTORS
330
1851
102
}
330
1851
100
AcDbXrecord
280
     1
102
ACAD_ROUNDTRIP_PRE2007_TABLESTYLE
 90
      512
 91
        0
  1

 92
      512
 93
        0
  2

 94
      512
 95
        0
  3

  0
XRECORD
  5
1856
102
{ACAD_REACTORS
330
1855
102
}
330
1855
100
AcDbXrecord
280
     1
102
RTVSPropertyOp0
 70
     1
102
RTVSPropertyOp1
 70
     1
102
RTVSPropertyOp2
 70
     1
102
RTVSPropertyOp3
 70
     1
102
RTVSPropertyOp4
 70
     1
102
RTVSPropertyOp5
 70
     1
102
RTVSPropertyOp6
 70
     1
102
RTVSPropertyOp7
 70
     1
102
RTVSPropertyOp8
 70
     1
102
RTVSPropertyOp9
 70
     1
102
RTVSPropertyOp10
 70
     1
102
RTVSPropertyOp11
 70
     1
102
RTVSPropertyOp12
 70
     1
102
RTVSPropertyOp13
 70
     1
102
RTVSPropertyOp14
 70
     1
102
RTVSPropertyOp15
 70
     1
102
RTVSPropertyOp16
 70
     1
102
RTVSPropertyOp17
 70
     1
102
RTVSPropertyOp18
 70
     1
102
RTVSPropertyOp19
 70
     1
102
RTVSPropertyOp20
 70
     1
102
RTVSPropertyOp21
 70
     1
102
RTVSPropertyOp22
 70
     1
102
RTVSPropertyOp23
 70
     1
102
RTVSPropertyOp24
 70
     1
102
RTVSPropertyOp25
 70
     1
102
RTVSPropertyOp26
 70
     1
102
RTVSPropertyOp27
 70
     1
  0
XRECORD
  5
1858
102
{ACAD_REACTORS
330
1857
102
}
330
1857
100
AcDbXrecord
280
     1
102
RTVSPropertyOp0
 70
     1
102
RTVSPropertyOp1
 70
     1
102
RTVSPropertyOp2
 70
     1
102
RTVSPropertyOp3
 70
     1
102
RTVSPropertyOp4
 70
     1
102
RTVSPropertyOp5
 70
     1
102
RTVSPropertyOp6
 70
     1
102
RTVSPropertyOp7
 70
     1
102
RTVSPropertyOp8
 70
     1
102
RTVSPropertyOp9
 70
     1
102
RTVSPropertyOp10
 70
     1
102
RTVSPropertyOp11
 70
     1
102
RTVSPropertyOp12
 70
     1
102
RTVSPropertyOp13
 70
     1
102
RTVSPropertyOp14
 70
     1
102
RTVSPropertyOp15
 70
     1
102
RTVSPropertyOp16
 70
     1
102
RTVSPropertyOp17
 70
     1
102
RTVSPropertyOp18
 70
     1
102
RTVSPropertyOp19
 70
     1
102
RTVSPropertyOp20
 70
     1
102
RTVSPropertyOp21
 70
     1
102
RTVSPropertyOp22
 70
     1
102
RTVSPropertyOp23
 70
     1
102
RTVSPropertyOp24
 70
     1
102
RTVSPropertyOp25
 70
     1
102
RTVSPropertyOp26
 70
     1
102
RTVSPropertyOp27
 70
     1
  0
XRECORD
  5
185A
102
{ACAD_REACTORS
330
1859
102
}
330
1859
100
AcDbXrecord
280
     1
102
RTVSPropertyOp0
 70
     1
102
RTVSPropertyOp1
 70
     1
102
RTVSPropertyOp2
 70
     1
102
RTVSPropertyOp3
 70
     1
102
RTVSPropertyOp4
 70
     1
102
RTVSPropertyOp5
 70
     1
102
RTVSPropertyOp6
 70
     1
102
RTVSPropertyOp7
 70
     1
102
RTVSPropertyOp8
 70
     1
102
RTVSPropertyOp9
 70
     1
102
RTVSPropertyOp10
 70
     1
102
RTVSPropertyOp11
 70
     1
102
RTVSPropertyOp12
 70
     1
102
RTVSPropertyOp13
 70
     1
102
RTVSPropertyOp14
 70
     1
102
RTVSPropertyOp15
 70
     1
102
RTVSPropertyOp16
 70
     1
102
RTVSPropertyOp17
 70
     1
102
RTVSPropertyOp18
 70
     1
102
RTVSPropertyOp19
 70
     1
102
RTVSPropertyOp20
 70
     1
102
RTVSPropertyOp21
 70
     1
102
RTVSPropertyOp22
 70
     1
102
RTVSPropertyOp23
 70
     1
102
RTVSPropertyOp24
 70
     1
102
RTVSPropertyOp25
 70
     1
102
RTVSPropertyOp26
 70
     1
102
RTVSPropertyOp27
 70
     1
  0
XRECORD
  5
185C
102
{ACAD_REACTORS
330
185B
102
}
330
185B
100
AcDbXrecord
280
     1
102
RTVSPropertyOp0
 70
     1
102
RTVSPropertyOp1
 70
     1
102
RTVSPropertyOp2
 70
     1
102
RTVSPropertyOp3
 70
     1
102
RTVSPropertyOp4
 70
     1
102
RTVSPropertyOp5
 70
     1
102
RTVSPropertyOp6
 70
     1
102
RTVSPropertyOp7
 70
     1
102
RTVSPropertyOp8
 70
     1
102
RTVSPropertyOp9
 70
     1
102
RTVSPropertyOp10
 70
     1
102
RTVSPropertyOp11
 70
     1
102
RTVSPropertyOp12
 70
     1
102
RTVSPropertyOp13
 70
     1
102
RTVSPropertyOp14
 70
     1
102
RTVSPropertyOp15
 70
     1
102
RTVSPropertyOp16
 70
     1
102
RTVSPropertyOp17
 70
     1
102
RTVSPropertyOp18
 70
     1
102
RTVSPropertyOp19
 70
     1
102
RTVSPropertyOp20
 70
     1
102
RTVSPropertyOp21
 70
     1
102
RTVSPropertyOp22
 70
     1
102
RTVSPropertyOp23
 70
     1
102
RTVSPropertyOp24
 70
     1
102
RTVSPropertyOp25
 70
     1
102
RTVSPropertyOp26
 70
     1
102
RTVSPropertyOp27
 70
     1
  0
XRECORD
  5
185E
102
{ACAD_REACTORS
330
185D
102
}
330
185D
100
AcDbXrecord
280
     1
102
RTVSPropertyOp0
 70
     1
102
RTVSPropertyOp1
 70
     1
102
RTVSPropertyOp2
 70
     1
102
RTVSPropertyOp3
 70
     1
102
RTVSPropertyOp4
 70
     1
102
RTVSPropertyOp5
 70
     1
102
RTVSPropertyOp6
 70
     1
102
RTVSPropertyOp7
 70
     1
102
RTVSPropertyOp8
 70
     1
102
RTVSPropertyOp9
 70
     1
102
RTVSPropertyOp10
 70
     1
102
RTVSPropertyOp11
 70
     1
102
RTVSPropertyOp12
 70
     1
102
RTVSPropertyOp13
 70
     1
102
RTVSPropertyOp14
 70
     1
102
RTVSPropertyOp15
 70
     1
102
RTVSPropertyOp16
 70
     1
102
RTVSPropertyOp17
 70
     1
102
RTVSPropertyOp18
 70
     1
102
RTVSPropertyOp19
 70
     1
102
RTVSPropertyOp20
 70
     1
102
RTVSPropertyOp21
 70
     1
102
RTVSPropertyOp22
 70
     1
102
RTVSPropertyOp23
 70
     1
102
RTVSPropertyOp24
 70
     1
102
RTVSPropertyOp25
 70
     1
102
RTVSPropertyOp26
 70
     1
102
RTVSPropertyOp27
 70
     1
  0
XRECORD
  5
1860
102
{ACAD_REACTORS
330
185F
102
}
330
185F
100
AcDbXrecord
280
     1
102
RTVSPropertyOp0
 70
     1
102
RTVSPropertyOp1
 70
     1
102
RTVSPropertyOp2
 70
     1
102
RTVSPropertyOp3
 70
     1
102
RTVSPropertyOp4
 70
     1
102
RTVSPropertyOp5
 70
     1
102
RTVSPropertyOp6
 70
     1
102
RTVSPropertyOp7
 70
     1
102
RTVSPropertyOp8
 70
     1
102
RTVSPropertyOp9
 70
     1
102
RTVSPropertyOp10
 70
     1
102
RTVSPropertyOp11
 70
     1
102
RTVSPropertyOp12
 70
     1
102
RTVSPropertyOp13
 70
     1
102
RTVSPropertyOp14
 70
     1
102
RTVSPropertyOp15
 70
     1
102
RTVSPropertyOp16
 70
     1
102
RTVSPropertyOp17
 70
     1
102
RTVSPropertyOp18
 70
     1
102
RTVSPropertyOp19
 70
     1
102
RTVSPropertyOp20
 70
     1
102
RTVSPropertyOp21
 70
     1
102
RTVSPropertyOp22
 70
     1
102
RTVSPropertyOp23
 70
     1
102
RTVSPropertyOp24
 70
     1
102
RTVSPropertyOp25
 70
     1
102
RTVSPropertyOp26
 70
     1
102
RTVSPropertyOp27
 70
     1
  0
XRECORD
  5
1862
102
{ACAD_REACTORS
330
1861
102
}
330
1861
100
AcDbXrecord
280
     1
102
RTVSPropertyOp0
 70
     1
102
RTVSPropertyOp1
 70
     1
102
RTVSPropertyOp2
 70
     1
102
RTVSPropertyOp3
 70
     1
102
RTVSPropertyOp4
 70
     1
102
RTVSPropertyOp5
 70
     1
102
RTVSPropertyOp6
 70
     1
102
RTVSPropertyOp7
 70
     1
102
RTVSPropertyOp8
 70
     1
102
RTVSPropertyOp9
 70
     1
102
RTVSPropertyOp10
 70
     1
102
RTVSPropertyOp11
 70
     1
102
RTVSPropertyOp12
 70
     1
102
RTVSPropertyOp13
 70
     1
102
RTVSPropertyOp14
 70
     1
102
RTVSPropertyOp15
 70
     1
102
RTVSPropertyOp16
 70
     1
102
RTVSPropertyOp17
 70
     1
102
RTVSPropertyOp18
 70
     1
102
RTVSPropertyOp19
 70
     1
102
RTVSPropertyOp20
 70
     1
102
RTVSPropertyOp21
 70
     1
102
RTVSPropertyOp22
 70
     1
102
RTVSPropertyOp23
 70
     1
102
RTVSPropertyOp24
 70
     1
102
RTVSPropertyOp25
 70
     1
102
RTVSPropertyOp26
 70
     1
102
RTVSPropertyOp27
 70
     1
  0
XRECORD
  5
1864
102
{ACAD_REACTORS
330
1863
102
}
330
1863
100
AcDbXrecord
280
     1
102
RTVSPropertyOp0
 70
     1
102
RTVSPropertyOp1
 70
     1
102
RTVSPropertyOp2
 70
     1
102
RTVSPropertyOp3
 70
     1
102
RTVSPropertyOp4
 70
     1
102
RTVSPropertyOp5
 70
     1
102
RTVSPropertyOp6
 70
     1
102
RTVSPropertyOp7
 70
     1
102
RTVSPropertyOp8
 70
     1
102
RTVSPropertyOp9
 70
     1
102
RTVSPropertyOp10
 70
     1
102
RTVSPropertyOp11
 70
     1
102
RTVSPropertyOp12
 70
     1
102
RTVSPropertyOp13
 70
     1
102
RTVSPropertyOp14
 70
     1
102
RTVSPropertyOp15
 70
     1
102
RTVSPropertyOp16
 70
     1
102
RTVSPropertyOp17
 70
     1
102
RTVSPropertyOp18
 70
     1
102
RTVSPropertyOp19
 70
     1
102
RTVSPropertyOp20
 70
     1
102
RTVSPropertyOp21
 70
     1
102
RTVSPropertyOp22
 70
     1
102
RTVSPropertyOp23
 70
     1
102
RTVSPropertyOp24
 70
     1
102
RTVSPropertyOp25
 70
     1
102
RTVSPropertyOp26
 70
     1
102
RTVSPropertyOp27
 70
     1
  0
XRECORD
  5
1866
102
{ACAD_REACTORS
330
1865
102
}
330
1865
100
AcDbXrecord
280
     1
102
RTVSPropertyOp0
 70
     1
102
RTVSPropertyOp1
 70
     1
102
RTVSPropertyOp2
 70
     1
102
RTVSPropertyOp3
 70
     1
102
RTVSPropertyOp4
 70
     1
102
RTVSPropertyOp5
 70
     1
102
RTVSPropertyOp6
 70
     1
102
RTVSPropertyOp7
 70
     1
102
RTVSPropertyOp8
 70
     1
102
RTVSPropertyOp9
 70
     1
102
RTVSPropertyOp10
 70
     1
102
RTVSPropertyOp11
 70
     1
102
RTVSPropertyOp12
 70
     1
102
RTVSPropertyOp13
 70
     1
102
RTVSPropertyOp14
 70
     1
102
RTVSPropertyOp15
 70
     1
102
RTVSPropertyOp16
 70
     1
102
RTVSPropertyOp17
 70
     1
102
RTVSPropertyOp18
 70
     1
102
RTVSPropertyOp19
 70
     1
102
RTVSPropertyOp20
 70
     1
102
RTVSPropertyOp21
 70
     1
102
RTVSPropertyOp22
 70
     1
102
RTVSPropertyOp23
 70
     1
102
RTVSPropertyOp24
 70
     1
102
RTVSPropertyOp25
 70
     1
102
RTVSPropertyOp26
 70
     1
102
RTVSPropertyOp27
 70
     1
  0
XRECORD
  5
1868
102
{ACAD_REACTORS
330
1867
102
}
330
1867
100
AcDbXrecord
280
     1
102
RTVSPropertyOp0
 70
     1
102
RTVSPropertyOp1
 70
     1
102
RTVSPropertyOp2
 70
     1
102
RTVSPropertyOp3
 70
     1
102
RTVSPropertyOp4
 70
     1
102
RTVSPropertyOp5
 70
     1
102
RTVSPropertyOp6
 70
     1
102
RTVSPropertyOp7
 70
     1
102
RTVSPropertyOp8
 70
     1
102
RTVSPropertyOp9
 70
     1
102
RTVSPropertyOp10
 70
     1
102
RTVSPropertyOp11
 70
     1
102
RTVSPropertyOp12
 70
     1
102
RTVSPropertyOp13
 70
     1
102
RTVSPropertyOp14
 70
     1
102
RTVSPropertyOp15
 70
     1
102
RTVSPropertyOp16
 70
     1
102
RTVSPropertyOp17
 70
     1
102
RTVSPropertyOp18
 70
     1
102
RTVSPropertyOp19
 70
     1
102
RTVSPropertyOp20
 70
     1
102
RTVSPropertyOp21
 70
     1
102
RTVSPropertyOp22
 70
     1
102
RTVSPropertyOp23
 70
     1
102
RTVSPropertyOp24
 70
     1
102
RTVSPropertyOp25
 70
     1
102
RTVSPropertyOp26
 70
     1
102
RTVSPropertyOp27
 70
     1
  0
XRECORD
  5
186A
102
{ACAD_REACTORS
330
1869
102
}
330
1869
100
AcDbXrecord
280
     1
102
RTVSPropertyOp0
 70
     1
102
RTVSPropertyOp1
 70
     1
102
RTVSPropertyOp2
 70
     1
102
RTVSPropertyOp3
 70
     1
102
RTVSPropertyOp4
 70
     1
102
RTVSPropertyOp5
 70
     1
102
RTVSPropertyOp6
 70
     1
102
RTVSPropertyOp7
 70
     1
102
RTVSPropertyOp8
 70
     1
102
RTVSPropertyOp9
 70
     1
102
RTVSPropertyOp10
 70
     1
102
RTVSPropertyOp11
 70
     1
102
RTVSPropertyOp12
 70
     1
102
RTVSPropertyOp13
 70
     1
102
RTVSPropertyOp14
 70
     1
102
RTVSPropertyOp15
 70
     1
102
RTVSPropertyOp16
 70
     1
102
RTVSPropertyOp17
 70
     1
102
RTVSPropertyOp18
 70
     1
102
RTVSPropertyOp19
 70
     1
102
RTVSPropertyOp20
 70
     1
102
RTVSPropertyOp21
 70
     1
102
RTVSPropertyOp22
 70
     1
102
RTVSPropertyOp23
 70
     1
102
RTVSPropertyOp24
 70
     1
102
RTVSPropertyOp25
 70
     1
102
RTVSPropertyOp26
 70
     1
102
RTVSPropertyOp27
 70
     1
  0
XRECORD
  5
186C
102
{ACAD_REACTORS
330
186B
102
}
330
186B
100
AcDbXrecord
280
     1
102
RTVSPropertyOp0
 70
     1
102
RTVSPropertyOp1
 70
     1
102
RTVSPropertyOp2
 70
     1
102
RTVSPropertyOp3
 70
     1
102
RTVSPropertyOp4
 70
     1
102
RTVSPropertyOp5
 70
     1
102
RTVSPropertyOp6
 70
     1
102
RTVSPropertyOp7
 70
     1
102
RTVSPropertyOp8
 70
     1
102
RTVSPropertyOp9
 70
     1
102
RTVSPropertyOp10
 70
     1
102
RTVSPropertyOp11
 70
     1
102
RTVSPropertyOp12
 70
     1
102
RTVSPropertyOp13
 70
     1
102
RTVSPropertyOp14
 70
     1
102
RTVSPropertyOp15
 70
     1
102
RTVSPropertyOp16
 70
     1
102
RTVSPropertyOp17
 70
     1
102
RTVSPropertyOp18
 70
     1
102
RTVSPropertyOp19
 70
     1
102
RTVSPropertyOp20
 70
     1
102
RTVSPropertyOp21
 70
     1
102
RTVSPropertyOp22
 70
     1
102
RTVSPropertyOp23
 70
     1
102
RTVSPropertyOp24
 70
     1
102
RTVSPropertyOp25
 70
     1
102
RTVSPropertyOp26
 70
     1
102
RTVSPropertyOp27
 70
     1
  0
XRECORD
  5
186E
102
{ACAD_REACTORS
330
186D
102
}
330
186D
100
AcDbXrecord
280
     1
102
RTVSPropertyOp0
 70
     1
102
RTVSPropertyOp1
 70
     1
102
RTVSPropertyOp2
 70
     1
102
RTVSPropertyOp3
 70
     1
102
RTVSPropertyOp4
 70
     1
102
RTVSPropertyOp5
 70
     1
102
RTVSPropertyOp6
 70
     1
102
RTVSPropertyOp7
 70
     1
102
RTVSPropertyOp8
 70
     1
102
RTVSPropertyOp9
 70
     1
102
RTVSPropertyOp10
 70
     1
102
RTVSPropertyOp11
 70
     1
102
RTVSPropertyOp12
 70
     1
102
RTVSPropertyOp13
 70
     1
102
RTVSPropertyOp14
 70
     1
102
RTVSPropertyOp15
 70
     1
102
RTVSPropertyOp16
 70
     1
102
RTVSPropertyOp17
 70
     1
102
RTVSPropertyOp18
 70
     1
102
RTVSPropertyOp19
 70
     1
102
RTVSPropertyOp20
 70
     1
102
RTVSPropertyOp21
 70
     1
102
RTVSPropertyOp22
 70
     1
102
RTVSPropertyOp23
 70
     1
102
RTVSPropertyOp24
 70
     1
102
RTVSPropertyOp25
 70
     1
102
RTVSPropertyOp26
 70
     1
102
RTVSPropertyOp27
 70
     1
  0
XRECORD
  5
1870
102
{ACAD_REACTORS
330
186F
102
}
330
186F
100
AcDbXrecord
280
     1
102
RTVSPropertyOp0
 70
     1
102
RTVSPropertyOp1
 70
     1
102
RTVSPropertyOp2
 70
     1
102
RTVSPropertyOp3
 70
     1
102
RTVSPropertyOp4
 70
     1
102
RTVSPropertyOp5
 70
     1
102
RTVSPropertyOp6
 70
     1
102
RTVSPropertyOp7
 70
     1
102
RTVSPropertyOp8
 70
     1
102
RTVSPropertyOp9
 70
     1
102
RTVSPropertyOp10
 70
     1
102
RTVSPropertyOp11
 70
     1
102
RTVSPropertyOp12
 70
     1
102
RTVSPropertyOp13
 70
     1
102
RTVSPropertyOp14
 70
     1
102
RTVSPropertyOp15
 70
     1
102
RTVSPropertyOp16
 70
     1
102
RTVSPropertyOp17
 70
     1
102
RTVSPropertyOp18
 70
     1
102
RTVSPropertyOp19
 70
     1
102
RTVSPropertyOp20
 70
     1
102
RTVSPropertyOp21
 70
     1
102
RTVSPropertyOp22
 70
     1
102
RTVSPropertyOp23
 70
     1
102
RTVSPropertyOp24
 70
     1
102
RTVSPropertyOp25
 70
     1
102
RTVSPropertyOp26
 70
     1
102
RTVSPropertyOp27
 70
     1
  0
XRECORD
  5
1872
102
{ACAD_REACTORS
330
1871
102
}
330
1871
100
AcDbXrecord
280
     1
102
RTVSPropertyOp0
 70
     1
102
RTVSPropertyOp1
 70
     1
102
RTVSPropertyOp2
 70
     1
102
RTVSPropertyOp3
 70
     1
102
RTVSPropertyOp4
 70
     1
102
RTVSPropertyOp5
 70
     1
102
RTVSPropertyOp6
 70
     1
102
RTVSPropertyOp7
 70
     1
102
RTVSPropertyOp8
 70
     1
102
RTVSPropertyOp9
 70
     1
102
RTVSPropertyOp10
 70
     1
102
RTVSPropertyOp11
 70
     1
102
RTVSPropertyOp12
 70
     1
102
RTVSPropertyOp13
 70
     1
102
RTVSPropertyOp14
 70
     1
102
RTVSPropertyOp15
 70
     1
102
RTVSPropertyOp16
 70
     1
102
RTVSPropertyOp17
 70
     1
102
RTVSPropertyOp18
 70
     1
102
RTVSPropertyOp19
 70
     1
102
RTVSPropertyOp20
 70
     1
102
RTVSPropertyOp21
 70
     1
102
RTVSPropertyOp22
 70
     1
102
RTVSPropertyOp23
 70
     1
102
RTVSPropertyOp24
 70
     1
102
RTVSPropertyOp25
 70
     1
102
RTVSPropertyOp26
 70
     1
102
RTVSPropertyOp27
 70
     1
  0
XRECORD
  5
1874
102
{ACAD_REACTORS
330
1873
102
}
330
1873
100
AcDbXrecord
280
     1
102
RTVSPropertyOp0
 70
     1
102
RTVSPropertyOp1
 70
     1
102
RTVSPropertyOp2
 70
     1
102
RTVSPropertyOp3
 70
     1
102
RTVSPropertyOp4
 70
     1
102
RTVSPropertyOp5
 70
     1
102
RTVSPropertyOp6
 70
     1
102
RTVSPropertyOp7
 70
     1
102
RTVSPropertyOp8
 70
     1
102
RTVSPropertyOp9
 70
     1
102
RTVSPropertyOp10
 70
     1
102
RTVSPropertyOp11
 70
     1
102
RTVSPropertyOp12
 70
     1
102
RTVSPropertyOp13
 70
     1
102
RTVSPropertyOp14
 70
     1
102
RTVSPropertyOp15
 70
     1
102
RTVSPropertyOp16
 70
     1
102
RTVSPropertyOp17
 70
     1
102
RTVSPropertyOp18
 70
     1
102
RTVSPropertyOp19
 70
     1
102
RTVSPropertyOp20
 70
     1
102
RTVSPropertyOp21
 70
     1
102
RTVSPropertyOp22
 70
     1
102
RTVSPropertyOp23
 70
     1
102
RTVSPropertyOp24
 70
     1
102
RTVSPropertyOp25
 70
     1
102
RTVSPropertyOp26
 70
     1
102
RTVSPropertyOp27
 70
     1
  0
XRECORD
  5
1876
102
{ACAD_REACTORS
330
1875
102
}
330
1875
100
AcDbXrecord
280
     1
102
RTVSPropertyOp0
 70
     1
102
RTVSPropertyOp1
 70
     1
102
RTVSPropertyOp2
 70
     1
102
RTVSPropertyOp3
 70
     1
102
RTVSPropertyOp4
 70
     1
102
RTVSPropertyOp5
 70
     1
102
RTVSPropertyOp6
 70
     1
102
RTVSPropertyOp7
 70
     1
102
RTVSPropertyOp8
 70
     1
102
RTVSPropertyOp9
 70
     1
102
RTVSPropertyOp10
 70
     1
102
RTVSPropertyOp11
 70
     1
102
RTVSPropertyOp12
 70
     1
102
RTVSPropertyOp13
 70
     1
102
RTVSPropertyOp14
 70
     1
102
RTVSPropertyOp15
 70
     1
102
RTVSPropertyOp16
 70
     1
102
RTVSPropertyOp17
 70
     1
102
RTVSPropertyOp18
 70
     1
102
RTVSPropertyOp19
 70
     1
102
RTVSPropertyOp20
 70
     1
102
RTVSPropertyOp21
 70
     1
102
RTVSPropertyOp22
 70
     1
102
RTVSPropertyOp23
 70
     1
102
RTVSPropertyOp24
 70
     1
102
RTVSPropertyOp25
 70
     1
102
RTVSPropertyOp26
 70
     1
102
RTVSPropertyOp27
 70
     1
  0
XRECORD
  5
1878
102
{ACAD_REACTORS
330
1877
102
}
330
1877
100
AcDbXrecord
280
     1
102
RTVSPropertyOp0
 70
     1
102
RTVSPropertyOp1
 70
     1
102
RTVSPropertyOp2
 70
     1
102
RTVSPropertyOp3
 70
     1
102
RTVSPropertyOp4
 70
     1
102
RTVSPropertyOp5
 70
     1
102
RTVSPropertyOp6
 70
     1
102
RTVSPropertyOp7
 70
     1
102
RTVSPropertyOp8
 70
     1
102
RTVSPropertyOp9
 70
     1
102
RTVSPropertyOp10
 70
     1
102
RTVSPropertyOp11
 70
     1
102
RTVSPropertyOp12
 70
     1
102
RTVSPropertyOp13
 70
     1
102
RTVSPropertyOp14
 70
     1
102
RTVSPropertyOp15
 70
     1
102
RTVSPropertyOp16
 70
     1
102
RTVSPropertyOp17
 70
     1
102
RTVSPropertyOp18
 70
     1
102
RTVSPropertyOp19
 70
     1
102
RTVSPropertyOp20
 70
     1
102
RTVSPropertyOp21
 70
     1
102
RTVSPropertyOp22
 70
     1
102
RTVSPropertyOp23
 70
     1
102
RTVSPropertyOp24
 70
     1
102
RTVSPropertyOp25
 70
     1
102
RTVSPropertyOp26
 70
     1
102
RTVSPropertyOp27
 70
     1
  0
XRECORD
  5
187A
102
{ACAD_REACTORS
330
1879
102
}
330
1879
100
AcDbXrecord
280
     1
102
RTVSPropertyOp0
 70
     1
102
RTVSPropertyOp1
 70
     1
102
RTVSPropertyOp2
 70
     1
102
RTVSPropertyOp3
 70
     1
102
RTVSPropertyOp4
 70
     1
102
RTVSPropertyOp5
 70
     1
102
RTVSPropertyOp6
 70
     1
102
RTVSPropertyOp7
 70
     1
102
RTVSPropertyOp8
 70
     1
102
RTVSPropertyOp9
 70
     1
102
RTVSPropertyOp10
 70
     1
102
RTVSPropertyOp11
 70
     1
102
RTVSPropertyOp12
 70
     1
102
RTVSPropertyOp13
 70
     1
102
RTVSPropertyOp14
 70
     1
102
RTVSPropertyOp15
 70
     1
102
RTVSPropertyOp16
 70
     1
102
RTVSPropertyOp17
 70
     1
102
RTVSPropertyOp18
 70
     1
102
RTVSPropertyOp19
 70
     1
102
RTVSPropertyOp20
 70
     1
102
RTVSPropertyOp21
 70
     1
102
RTVSPropertyOp22
 70
     1
102
RTVSPropertyOp23
 70
     1
102
RTVSPropertyOp24
 70
     1
102
RTVSPropertyOp25
 70
     1
102
RTVSPropertyOp26
 70
     1
102
RTVSPropertyOp27
 70
     1
  0
XRECORD
  5
187C
102
{ACAD_REACTORS
330
187B
102
}
330
187B
100
AcDbXrecord
280
     1
102
RTVSPropertyOp0
 70
     1
102
RTVSPropertyOp1
 70
     1
102
RTVSPropertyOp2
 70
     1
102
RTVSPropertyOp3
 70
     1
102
RTVSPropertyOp4
 70
     1
102
RTVSPropertyOp5
 70
     1
102
RTVSPropertyOp6
 70
     1
102
RTVSPropertyOp7
 70
     1
102
RTVSPropertyOp8
 70
     1
102
RTVSPropertyOp9
 70
     1
102
RTVSPropertyOp10
 70
     1
102
RTVSPropertyOp11
 70
     1
102
RTVSPropertyOp12
 70
     1
102
RTVSPropertyOp13
 70
     1
102
RTVSPropertyOp14
 70
     1
102
RTVSPropertyOp15
 70
     1
102
RTVSPropertyOp16
 70
     1
102
RTVSPropertyOp17
 70
     1
102
RTVSPropertyOp18
 70
     1
102
RTVSPropertyOp19
 70
     1
102
RTVSPropertyOp20
 70
     1
102
RTVSPropertyOp21
 70
     1
102
RTVSPropertyOp22
 70
     1
102
RTVSPropertyOp23
 70
     1
102
RTVSPropertyOp24
 70
     1
102
RTVSPropertyOp25
 70
     1
102
RTVSPropertyOp26
 70
     1
102
RTVSPropertyOp27
 70
     1
  0
XRECORD
  5
187E
102
{ACAD_REACTORS
330
187D
102
}
330
187D
100
AcDbXrecord
280
     1
102
RTVSPropertyOp0
 70
     1
102
RTVSPropertyOp1
 70
     1
102
RTVSPropertyOp2
 70
     1
102
RTVSPropertyOp3
 70
     1
102
RTVSPropertyOp4
 70
     1
102
RTVSPropertyOp5
 70
     1
102
RTVSPropertyOp6
 70
     1
102
RTVSPropertyOp7
 70
     1
102
RTVSPropertyOp8
 70
     1
102
RTVSPropertyOp9
 70
     1
102
RTVSPropertyOp10
 70
     1
102
RTVSPropertyOp11
 70
     1
102
RTVSPropertyOp12
 70
     1
102
RTVSPropertyOp13
 70
     1
102
RTVSPropertyOp14
 70
     1
102
RTVSPropertyOp15
 70
     1
102
RTVSPropertyOp16
 70
     1
102
RTVSPropertyOp17
 70
     1
102
RTVSPropertyOp18
 70
     1
102
RTVSPropertyOp19
 70
     1
102
RTVSPropertyOp20
 70
     1
102
RTVSPropertyOp21
 70
     1
102
RTVSPropertyOp22
 70
     1
102
RTVSPropertyOp23
 70
     1
102
RTVSPropertyOp24
 70
     1
102
RTVSPropertyOp25
 70
     1
102
RTVSPropertyOp26
 70
     1
102
RTVSPropertyOp27
 70
     1
  0
XRECORD
  5
1880
102
{ACAD_REACTORS
330
187F
102
}
330
187F
100
AcDbXrecord
280
     1
102
RTVSPropertyOp0
 70
     1
102
RTVSPropertyOp1
 70
     1
102
RTVSPropertyOp2
 70
     1
102
RTVSPropertyOp3
 70
     1
102
RTVSPropertyOp4
 70
     1
102
RTVSPropertyOp5
 70
     1
102
RTVSPropertyOp6
 70
     1
102
RTVSPropertyOp7
 70
     1
102
RTVSPropertyOp8
 70
     1
102
RTVSPropertyOp9
 70
     1
102
RTVSPropertyOp10
 70
     1
102
RTVSPropertyOp11
 70
     1
102
RTVSPropertyOp12
 70
     1
102
RTVSPropertyOp13
 70
     1
102
RTVSPropertyOp14
 70
     1
102
RTVSPropertyOp15
 70
     1
102
RTVSPropertyOp16
 70
     1
102
RTVSPropertyOp17
 70
     1
102
RTVSPropertyOp18
 70
     1
102
RTVSPropertyOp19
 70
     1
102
RTVSPropertyOp20
 70
     1
102
RTVSPropertyOp21
 70
     1
102
RTVSPropertyOp22
 70
     1
102
RTVSPropertyOp23
 70
     1
102
RTVSPropertyOp24
 70
     1
102
RTVSPropertyOp25
 70
     1
102
RTVSPropertyOp26
 70
     1
102
RTVSPropertyOp27
 70
     1
  0
XRECORD
  5
1882
102
{ACAD_REACTORS
330
1881
102
}
330
1881
100
AcDbXrecord
280
     1
102
RTVSPropertyOp0
 70
     1
102
RTVSPropertyOp1
 70
     1
102
RTVSPropertyOp2
 70
     1
102
RTVSPropertyOp3
 70
     1
102
RTVSPropertyOp4
 70
     1
102
RTVSPropertyOp5
 70
     1
102
RTVSPropertyOp6
 70
     1
102
RTVSPropertyOp7
 70
     1
102
RTVSPropertyOp8
 70
     1
102
RTVSPropertyOp9
 70
     1
102
RTVSPropertyOp10
 70
     1
102
RTVSPropertyOp11
 70
     1
102
RTVSPropertyOp12
 70
     1
102
RTVSPropertyOp13
 70
     1
102
RTVSPropertyOp14
 70
     1
102
RTVSPropertyOp15
 70
     1
102
RTVSPropertyOp16
 70
     1
102
RTVSPropertyOp17
 70
     1
102
RTVSPropertyOp18
 70
     1
102
RTVSPropertyOp19
 70
     1
102
RTVSPropertyOp20
 70
     1
102
RTVSPropertyOp21
 70
     1
102
RTVSPropertyOp22
 70
     1
102
RTVSPropertyOp23
 70
     1
102
RTVSPropertyOp24
 70
     1
102
RTVSPropertyOp25
 70
     1
102
RTVSPropertyOp26
 70
     1
102
RTVSPropertyOp27
 70
     1
  0
XRECORD
  5
1884
102
{ACAD_REACTORS
330
1883
102
}
330
1883
100
AcDbXrecord
280
     1
102
RTVSPropertyOp0
 70
     1
102
RTVSPropertyOp1
 70
     1
102
RTVSPropertyOp2
 70
     1
102
RTVSPropertyOp3
 70
     1
102
RTVSPropertyOp4
 70
     1
102
RTVSPropertyOp5
 70
     1
102
RTVSPropertyOp6
 70
     1
102
RTVSPropertyOp7
 70
     1
102
RTVSPropertyOp8
 70
     1
102
RTVSPropertyOp9
 70
     1
102
RTVSPropertyOp10
 70
     1
102
RTVSPropertyOp11
 70
     1
102
RTVSPropertyOp12
 70
     1
102
RTVSPropertyOp13
 70
     1
102
RTVSPropertyOp14
 70
     1
102
RTVSPropertyOp15
 70
     1
102
RTVSPropertyOp16
 70
     1
102
RTVSPropertyOp17
 70
     1
102
RTVSPropertyOp18
 70
     1
102
RTVSPropertyOp19
 70
     1
102
RTVSPropertyOp20
 70
     1
102
RTVSPropertyOp21
 70
     1
102
RTVSPropertyOp22
 70
     1
102
RTVSPropertyOp23
 70
     1
102
RTVSPropertyOp24
 70
     1
102
RTVSPropertyOp25
 70
     1
102
RTVSPropertyOp26
 70
     1
102
RTVSPropertyOp27
 70
     1
  0
ENDSEC
  0
EOF
