  0
SECTION
  2
HEADER
  9
$ACADVER
  1
AC1018
  9
$ACADMAINTVER
 70
     0
  9
$DWGCODEPAGE
  3
ANSI_932
  9
$LASTSAVEDBY
  1
shinwa
  9
$INSBASE
 10
0.0
 20
0.0
 30
0.0
  9
$EXTMIN
 10
469.3601915370673
 20
-0.0000000000000142
 30
0.0
  9
$EXTMAX
 10
16685.48766984873
 20
6639.089013905281
 30
0.0
  9
$LIMMIN
 10
0.0
 20
0.0
  9
$LIMMAX
 10
8400.0
 20
5940.0
  9
$ORTHOMODE
 70
     1
  9
$REGENMODE
 70
     1
  9
$FILLMODE
 70
     1
  9
$QTEXTMODE
 70
     0
  9
$MIRRTEXT
 70
     1
  9
$LTSCALE
 40
200.0
  9
$ATTMODE
 70
     1
  9
$TEXTSIZE
 40
60.0
  9
$TRACEWID
 40
0.05
  9
$TEXTSTYLE
  7
STANDARD
  9
$CLAYER
  8
SUNPOU
  9
$CELTYPE
  6
BYLAYER
  9
$CECOLOR
 62
   256
  9
$CELTSCALE
 40
1.0
  9
$DISPSILH
 70
     0
  9
$DIMSCALE
 40
20.0
  9
$DIMASZ
 40
2.0
  9
$DIMEXO
 40
2.0
  9
$DIMDLI
 40
7.0
  9
$DIMRND
 40
0.0
  9
$DIMDLE
 40
0.0
  9
$DIMEXE
 40
0.5
  9
$DIMTP
 40
0.0
  9
$DIMTM
 40
0.0
  9
$DIMTXT
 40
2.5
  9
$DIMCEN
 40
0.0
  9
$DIMTSZ
 40
0.0
  9
$DIMTOL
 70
     0
  9
$DIMLIM
 70
     0
  9
$DIMTIH
 70
     0
  9
$DIMTOH
 70
     0
  9
$DIMSE1
 70
     0
  9
$DIMSE2
 70
     0
  9
$DIMTAD
 70
     1
  9
$DIMZIN
 70
     8
  9
$DIMBLK
  1

  9
$DIMASO
 70
     1
  9
$DIMSHO
 70
     1
  9
$DIMPOST
  1

  9
$DIMAPOST
  1

  9
$DIMALT
 70
     0
  9
$DIMALTD
 70
     2
  9
$DIMALTF
 40
25.4
  9
$DIMLFAC
 40
1.0
  9
$DIMTOFL
 70
     0
  9
$DIMTVP
 40
1.0
  9
$DIMTIX
 70
     1
  9
$DIMSOXD
 70
     0
  9
$DIMSAH
 70
     0
  9
$DIMBLK1
  1

  9
$DIMBLK2
  1

  9
$DIMSTYLE
  2
A3-20
  9
$DIMCLRD
 70
     0
  9
$DIMCLRE
 70
     0
  9
$DIMCLRT
 70
     0
  9
$DIMTFAC
 40
1.0
  9
$DIMGAP
 40
0.7
  9
$DIMJUST
 70
     0
  9
$DIMSD1
 70
     0
  9
$DIMSD2
 70
     0
  9
$DIMTOLJ
 70
     1
  9
$DIMTZIN
 70
     8
  9
$DIMALTZ
 70
     8
  9
$DIMALTTZ
 70
     8
  9
$DIMUPT
 70
     0
  9
$DIMDEC
 70
     0
  9
$DIMTDEC
 70
     0
  9
$DIMALTU
 70
     2
  9
$DIMALTTD
 70
     2
  9
$DIMTXSTY
  7
STANDARD
  9
$DIMAUNIT
 70
     0
  9
$DIMADEC
 70
     4
  9
$DIMALTRND
 40
0.0
  9
$DIMAZIN
 70
     0
  9
$DIMDSEP
 70
    46
  9
$DIMATFIT
 70
     3
  9
$DIMFRAC
 70
     0
  9
$DIMLDRBLK
  1

  9
$DIMLUNIT
 70
     2
  9
$DIMLWD
 70
    -2
  9
$DIMLWE
 70
    -2
  9
$DIMTMOVE
 70
     2
  9
$LUNITS
 70
     2
  9
$LUPREC
 70
     4
  9
$SKETCHINC
 40
0.1
  9
$FILLETRAD
 40
100.0
  9
$AUNITS
 70
     1
  9
$AUPREC
 70
     4
  9
$MENU
  1
acad
  9
$ELEVATION
 40
0.0
  9
$PELEVATION
 40
0.0
  9
$THICKNESS
 40
0.0
  9
$LIMCHECK
 70
     0
  9
$CHAMFERA
 40
0.0
  9
$CHAMFERB
 40
0.0
  9
$CHAMFERC
 40
0.0
  9
$CHAMFERD
 40
0.0
  9
$SKPOLY
 70
     0
  9
$TDCREATE
 40
2450014.656655093
  9
$TDUCREATE
 40
2450014.281655093
  9
$TDUPDATE
 40
2457540.466065764
  9
$TDUUPDATE
 40
2457540.091065764
  9
$TDINDWG
 40
0.6717210995
  9
$TDUSRTIMER
 40
0.6717210995
  9
$USRTIMER
 70
     1
  9
$ANGBASE
 50
0.0
  9
$ANGDIR
 70
     0
  9
$PDMODE
 70
     0
  9
$PDSIZE
 40
0.0
  9
$PLINEWID
 40
0.0
  9
$SPLFRAME
 70
     0
  9
$SPLINETYPE
 70
     6
  9
$SPLINESEGS
 70
     8
  9
$HANDSEED
  5
1EBA
  9
$SURFTAB1
 70
     6
  9
$SURFTAB2
 70
     6
  9
$SURFTYPE
 70
     6
  9
$SURFU
 70
     6
  9
$SURFV
 70
     6
  9
$UCSBASE
  2

  9
$UCSNAME
  2

  9
$UCSORG
 10
0.0
 20
0.0
 30
0.0
  9
$UCSXDIR
 10
1.0
 20
0.0
 30
0.0
  9
$UCSYDIR
 10
0.0
 20
1.0
 30
0.0
  9
$UCSORTHOREF
  2

  9
$UCSORTHOVIEW
 70
     0
  9
$UCSORGTOP
 10
0.0
 20
0.0
 30
0.0
  9
$UCSORGBOTTOM
 10
0.0
 20
0.0
 30
0.0
  9
$UCSORGLEFT
 10
0.0
 20
0.0
 30
0.0
  9
$UCSORGRIGHT
 10
0.0
 20
0.0
 30
0.0
  9
$UCSORGFRONT
 10
0.0
 20
0.0
 30
0.0
  9
$UCSORGBACK
 10
0.0
 20
0.0
 30
0.0
  9
$PUCSBASE
  2

  9
$PUCSNAME
  2

  9
$PUCSORG
 10
0.0
 20
0.0
 30
0.0
  9
$PUCSXDIR
 10
1.0
 20
0.0
 30
0.0
  9
$PUCSYDIR
 10
0.0
 20
1.0
 30
0.0
  9
$PUCSORTHOREF
  2

  9
$PUCSORTHOVIEW
 70
     0
  9
$PUCSORGTOP
 10
0.0
 20
0.0
 30
0.0
  9
$PUCSORGBOTTOM
 10
0.0
 20
0.0
 30
0.0
  9
$PUCSORGLEFT
 10
0.0
 20
0.0
 30
0.0
  9
$PUCSORGRIGHT
 10
0.0
 20
0.0
 30
0.0
  9
$PUCSORGFRONT
 10
0.0
 20
0.0
 30
0.0
  9
$PUCSORGBACK
 10
0.0
 20
0.0
 30
0.0
  9
$USERI1
 70
     0
  9
$USERI2
 70
     0
  9
$USERI3
 70
     0
  9
$USERI4
 70
     0
  9
$USERI5
 70
     0
  9
$USERR1
 40
0.0
  9
$USERR2
 40
0.0
  9
$USERR3
 40
0.0
  9
$USERR4
 40
0.0
  9
$USERR5
 40
0.0
  9
$WORLDVIEW
 70
     1
  9
$SHADEDGE
 70
     3
  9
$SHADEDIF
 70
    70
  9
$TILEMODE
 70
     1
  9
$MAXACTVP
 70
    48
  9
$PINSBASE
 10
0.0
 20
0.0
 30
0.0
  9
$PLIMCHECK
 70
     0
  9
$PEXTMIN
 10
1.000000000000000E+20
 20
1.000000000000000E+20
 30
1.000000000000000E+20
  9
$PEXTMAX
 10
-1.000000000000000E+20
 20
-1.000000000000000E+20
 30
-1.000000000000000E+20
  9
$PLIMMIN
 10
0.0
 20
0.0
  9
$PLIMMAX
 10
12.0
 20
9.0
  9
$UNITMODE
 70
     0
  9
$VISRETAIN
 70
     0
  9
$PLINEGEN
 70
     0
  9
$PSLTSCALE
 70
     0
  9
$TREEDEPTH
 70
  3020
  9
$CMLSTYLE
  2
STANDARD
  9
$CMLJUST
 70
     0
  9
$CMLSCALE
 40
1.0
  9
$PROXYGRAPHICS
 70
     1
  9
$MEASUREMENT
 70
     0
  9
$CELWEIGHT
370
    -1
  9
$ENDCAPS
280
     0
  9
$JOINSTYLE
280
     0
  9
$LWDISPLAY
290
     0
  9
$INSUNITS
 70
     0
  9
$HYPERLINKBASE
  1

  9
$STYLESHEET
  1

  9
$XEDIT
290
     1
  9
$CEPSNTYPE
380
     0
  9
$PSTYLEMODE
290
     1
  9
$FINGERPRINTGUID
  2
{95C3BF51-CAF8-4A84-B071-F85017E7B337}
  9
$VERSIONGUID
  2
{5AABC2A8-606A-44A9-9CB4-B219D1395178}
  9
$EXTNAMES
290
     1
  9
$PSVPSCALE
 40
0.0
  9
$OLESTARTUP
290
     0
  9
$SORTENTS
280
   127
  9
$INDEXCTL
280
     0
  9
$HIDETEXT
280
     0
  9
$XCLIPFRAME
290
     0
  9
$HALOGAP
280
     0
  9
$OBSCOLOR
 70
   257
  9
$OBSLTYPE
280
     0
  9
$INTERSECTIONDISPLAY
280
     0
  9
$INTERSECTIONCOLOR
 70
   257
  9
$DIMASSOC
280
     1
  9
$PROJECTNAME
  1

  0
ENDSEC
  0
SECTION
  2
CLASSES
  0
CLASS
  1
LWPOLYLINE
  2
AcDbPolyline
  3
AutoCAD 2000
 90
        0
 91
        1
280
     0
281
     1
  0
CLASS
  1
ACDBDICTIONARYWDFLT
  2
AcDbDictionaryWithDefault
  3
ObjectDBX Classes
 90
        0
 91
        4
280
     0
281
     0
  0
CLASS
  1
ACDBPLACEHOLDER
  2
AcDbPlaceHolder
  3
ObjectDBX Classes
 90
        0
 91
        1
280
     0
281
     0
  0
CLASS
  1
LAYOUT
  2
AcDbLayout
  3
ObjectDBX Classes
 90
        0
 91
        1
280
     0
281
     0
  0
CLASS
  1
DICTIONARYVAR
  2
AcDbDictionaryVar
  3
ObjectDBX Classes
 90
        0
 91
        4
280
     0
281
     0
  0
CLASS
  1
MATERIAL
  2
AcDbMaterial
  3
ObjectDBX Classes
 90
     1153
 91
        4
280
     0
281
     0
  0
CLASS
  1
VISUALSTYLE
  2
AcDbVisualStyle
  3
ObjectDBX Classes
 90
     4095
 91
        4
280
     0
281
     0
  0
CLASS
  1
TABLESTYLE
  2
AcDbTableStyle
  3
ObjectDBX Classes
 90
     4095
 91
        4
280
     0
281
     0
  0
CLASS
  1
SCALE
  2
AcDbScale
  3
ObjectDBX Classes
 90
     1153
 91
        4
280
     0
281
     0
  0
CLASS
  1
MLEADERSTYLE
  2
AcDbMLeaderStyle
  3
ACDB_MLEADERSTYLE_CLASS
 90
     4095
 91
        4
280
     0
281
     0
  0
CLASS
  1
ACDBSECTIONVIEWSTYLE
  2
AcDbSectionViewStyle
  3
ObjectDBX Classes
 90
     1025
 91
        2
280
     1
281
     0
  0
CLASS
  1
ACDBDETAILVIEWSTYLE
  2
AcDbDetailViewStyle
  3
ObjectDBX Classes
 90
     1025
 91
        2
280
     1
281
     0
  0
CLASS
  1
CELLSTYLEMAP
  2
AcDbCellStyleMap
  3
ObjectDBX Classes
 90
     1152
 91
        4
280
     0
281
     0
  0
ENDSEC
  0
SECTION
  2
TABLES
  0
TABLE
  2
VPORT
  5
8
102
{ACAD_XDICTIONARY
360
1CAC
102
}
330
0
100
AcDbSymbolTable
 70
     1
  0
VPORT
  5
12E7
330
8
100
AcDbSymbolTableRecord
100
AcDbViewportTableRecord
  2
*Active
 70
     0
 10
0.0
 20
0.0
 11
1.0
 21
1.0
 12
4640.643791889966
 22
2557.936140476335
 13
0.0
 23
0.0
 14
20.0
 24
20.0
 15
200.0
 25
200.0
 16
0.0
 26
0.0
 36
1.0
 17
0.0
 27
0.0
 37
0.0
 40
7468.505749017309
 41
1.560747663551402
 42
50.0
 43
0.0
 44
0.0
 50
0.0
 51
0.0
 71
     0
 72
   100
 73
     1
 74
     1
 75
     0
 76
     0
 77
     0
 78
     0
281
     0
 65
     1
110
0.0
120
0.0
130
0.0
111
1.0
121
0.0
131
0.0
112
0.0
122
1.0
132
0.0
 79
     0
146
0.0
1001
ACAD_NAV_VCDISPLAY
1070
     3
  0
ENDTAB
  0
TABLE
  2
LTYPE
  5
5
330
0
100
AcDbSymbolTable
 70
     4
  0
LTYPE
  5
11
330
5
100
AcDbSymbolTableRecord
100
AcDbLinetypeTableRecord
  2
BYBLOCK
 70
     0
  3

 72
    65
 73
     0
 40
0.0
  0
LTYPE
  5
12
330
5
100
AcDbSymbolTableRecord
100
AcDbLinetypeTableRecord
  2
BYLAYER
 70
     0
  3

 72
    65
 73
     0
 40
0.0
  0
LTYPE
  5
13
330
5
100
AcDbSymbolTableRecord
100
AcDbLinetypeTableRecord
  2
CONTINUOUS
 70
     0
  3
Solid line
 72
    65
 73
     0
 40
0.0
  0
LTYPE
  5
1E
330
5
100
AcDbSymbolTableRecord
100
AcDbLinetypeTableRecord
  2
HIDDEN
 70
     0
  3
_ _ _ _ _ _ _ _ _ _ _ _ _ _ _ _ _ _ _ _ _ _ _
 72
    65
 73
     2
 40
0.375
 49
0.25
 74
     0
 49
-0.125
 74
     0
  0
LTYPE
  5
1F
330
5
100
AcDbSymbolTableRecord
100
AcDbLinetypeTableRecord
  2
CENTER
 70
     0
  3
____ _ ____ _ ____ _ ____ _ ____ _ ____ _ ____
 72
    65
 73
     4
 40
2.0
 49
1.25
 74
     0
 49
-0.25
 74
     0
 49
0.25
 74
     0
 49
-0.25
 74
     0
  0
LTYPE
  5
20
330
5
100
AcDbSymbolTableRecord
100
AcDbLinetypeTableRecord
  2
PHANTOM
 70
     0
  3
_____ _ _ _____ _ _ _____ _ _ _____ _ _ ____
 72
    65
 73
     6
 40
2.5
 49
1.25
 74
     0
 49
-0.25
 74
     0
 49
0.25
 74
     0
 49
-0.25
 74
     0
 49
0.25
 74
     0
 49
-0.25
 74
     0
  0
ENDTAB
  0
TABLE
  2
LAYER
  5
2
102
{ACAD_XDICTIONARY
360
134F
102
}
330
0
100
AcDbSymbolTable
 70
    10
  0
LAYER
  5
E
102
{ACAD_XDICTIONARY
360
133A
102
}
330
2
100
AcDbSymbolTableRecord
100
AcDbLayerTableRecord
  2
0
 70
     0
 62
     7
  6
CONTINUOUS
370
    -3
390
12D8
  0
LAYER
  5
23
102
{ACAD_XDICTIONARY
360
133C
102
}
330
2
100
AcDbSymbolTableRecord
100
AcDbLayerTableRecord
  2
SUNPOU
 70
     0
 62
     1
  6
CONTINUOUS
370
    -3
390
12D8
  0
LAYER
  5
24
102
{ACAD_XDICTIONARY
360
133E
102
}
330
2
100
AcDbSymbolTableRecord
100
AcDbLayerTableRecord
  2
HAIKIN
 70
     0
 62
     2
  6
CONTINUOUS
370
    -3
390
12D8
  0
LAYER
  5
25
102
{ACAD_XDICTIONARY
360
1340
102
}
330
2
100
AcDbSymbolTableRecord
100
AcDbLayerTableRecord
  2
SEIHIN
 70
     0
 62
     3
  6
CONTINUOUS
370
    -3
390
12D8
  0
LAYER
  5
26
102
{ACAD_XDICTIONARY
360
1342
102
}
330
2
100
AcDbSymbolTableRecord
100
AcDbLayerTableRecord
  2
HASEN
 70
     0
 62
     4
  6
HIDDEN
370
    -3
390
12D8
  0
LAYER
  5
27
102
{ACAD_XDICTIONARY
360
1344
102
}
330
2
100
AcDbSymbolTableRecord
100
AcDbLayerTableRecord
  2
1HASEN
 70
     0
 62
     5
  6
CENTER
370
    -3
390
12D8
  0
LAYER
  5
28
102
{ACAD_XDICTIONARY
360
1346
102
}
330
2
100
AcDbSymbolTableRecord
100
AcDbLayerTableRecord
  2
2HASEN
 70
     0
 62
     6
  6
PHANTOM
370
    -3
390
12D8
  0
LAYER
  5
29
102
{ACAD_XDICTIONARY
360
1348
102
}
330
2
100
AcDbSymbolTableRecord
100
AcDbLayerTableRecord
  2
HOJO
 70
     0
 62
    -7
  6
CONTINUOUS
370
    -3
390
12D8
  0
LAYER
  5
2A
102
{ACAD_XDICTIONARY
360
134A
102
}
330
2
100
AcDbSymbolTableRecord
100
AcDbLayerTableRecord
  2
TEN
 70
     0
 62
     7
  6
CONTINUOUS
370
    -3
390
12D8
  0
LAYER
  5
B8
330
2
100
AcDbSymbolTableRecord
100
AcDbLayerTableRecord
  2
DEFPOINTS
 70
     0
 62
     7
  6
CONTINUOUS
290
     0
370
    -3
390
12D8
  0
ENDTAB
  0
TABLE
  2
STYLE
  5
3
330
0
100
AcDbSymbolTable
 70
     1
  0
STYLE
  5
F
330
3
100
AcDbSymbolTableRecord
100
AcDbTextStyleTableRecord
  2
STANDARD
 70
     0
 40
0.0
 41
0.8
 50
0.0
 71
     0
 42
60.0
  3
TXT.shx
  4
BIGFONT.shx
  0
ENDTAB
  0
TABLE
  2
VIEW
  5
6
330
0
100
AcDbSymbolTable
 70
     0
  0
ENDTAB
  0
TABLE
  2
UCS
  5
7
330
0
100
AcDbSymbolTable
 70
     0
  0
ENDTAB
  0
TABLE
  2
APPID
  5
9
330
0
100
AcDbSymbolTable
 70
     7
  0
APPID
  5
10
330
9
100
AcDbSymbolTableRecord
100
AcDbRegAppTableRecord
  2
ACAD
 70
     0
  0
APPID
  5
1355
330
9
100
AcDbSymbolTableRecord
100
AcDbRegAppTableRecord
  2
ACAD_NAV_VCDISPLAY
 70
     0
  0
APPID
  5
1CE4
330
9
100
AcDbSymbolTableRecord
100
AcDbRegAppTableRecord
  2
ACAD_MLEADERVER
 70
     0
  0
APPID
  5
1D03
330
9
100
AcDbSymbolTableRecord
100
AcDbRegAppTableRecord
  2
ACAD_DSTYLE_DIMJOGGED_JOGANGLE_SYMBOL
 70
     0
  0
APPID
  5
1D04
330
9
100
AcDbSymbolTableRecord
100
AcDbRegAppTableRecord
  2
ACAD_DSTYLE_DIMJAG
 70
     0
  0
APPID
  5
1D05
330
9
100
AcDbSymbolTableRecord
100
AcDbRegAppTableRecord
  2
ACAD_DSTYLE_DIMTALN
 70
     0
  0
APPID
  5
1D22
330
9
100
AcDbSymbolTableRecord
100
AcDbRegAppTableRecord
  2
AcadAnnoPO
 70
     0
  0
ENDTAB
  0
TABLE
  2
DIMSTYLE
  5
A
330
0
100
AcDbSymbolTable
 70
     2
100
AcDbDimStyleTable
  0
DIMSTYLE
105
61
102
{ACAD_REACTORS
330
D3
330
D4
330
D6
330
D8
330
D9
102
}
330
A
100
AcDbSymbolTableRecord
100
AcDbDimStyleTableRecord
  2
STANDARD
 70
     0
178
     0
340
F
  0
DIMSTYLE
105
1D02
102
{ACAD_REACTORS
330
126E
330
11EA
330
11DD
330
11D0
330
11C3
330
1036
330
101C
330
FE8
330
FDB
330
FCD
330
F0D
330
E4A
330
E48
330
609
330
5FC
330
5EF
330
586
330
1DE5
102
}
330
A
100
AcDbSymbolTableRecord
100
AcDbDimStyleTableRecord
  2
A3-20
 70
     0
 40
20.0
 41
2.0
 42
2.0
 43
7.0
 44
0.5
 73
     0
 74
     0
 77
     1
 78
     8
140
2.5
141
0.0
145
1.0
147
0.7
174
     1
178
     0
179
     4
271
     0
272
     0
279
     2
284
     8
285
     8
286
     8
340
F
1001
ACAD_DSTYLE_DIMJOGGED_JOGANGLE_SYMBOL
1070
   384
1040
0.7853981633974483
1001
ACAD_DSTYLE_DIMJAG
1070
   388
1040
1.5
1001
ACAD_DSTYLE_DIMTALN
1070
   392
1070
     0
  0
ENDTAB
  0
TABLE
  2
BLOCK_RECORD
  5
1
330
0
100
AcDbSymbolTable
 70
   123
  0
BLOCK_RECORD
  5
17
330
1
100
AcDbSymbolTableRecord
100
AcDbBlockTableRecord
  2
*MODEL_SPACE
340
12DB
  0
BLOCK_RECORD
  5
14
330
1
100
AcDbSymbolTableRecord
100
AcDbBlockTableRecord
  2
*PAPER_SPACE
340
12DC
  0
BLOCK_RECORD
  5
1C
330
1
100
AcDbSymbolTableRecord
100
AcDbBlockTableRecord
  2
BORDER
340
0
  0
BLOCK_RECORD
  5
1D
330
1
100
AcDbSymbolTableRecord
100
AcDbBlockTableRecord
  2
SA3
340
0
  0
BLOCK_RECORD
  5
80
330
1
100
AcDbSymbolTableRecord
100
AcDbBlockTableRecord
  2
*D2
340
0
  0
BLOCK_RECORD
  5
8C
330
1
100
AcDbSymbolTableRecord
100
AcDbBlockTableRecord
  2
*D3
340
0
  0
BLOCK_RECORD
  5
98
330
1
100
AcDbSymbolTableRecord
100
AcDbBlockTableRecord
  2
*D4
340
0
  0
BLOCK_RECORD
  5
A4
330
1
100
AcDbSymbolTableRecord
100
AcDbBlockTableRecord
  2
*D5
340
0
  0
BLOCK_RECORD
  5
B0
330
1
100
AcDbSymbolTableRecord
100
AcDbBlockTableRecord
  2
*D6
340
0
  0
BLOCK_RECORD
  5
B9
330
1
100
AcDbSymbolTableRecord
100
AcDbBlockTableRecord
  2
A$C630D7A2A
340
0
  0
BLOCK_RECORD
  5
57A
330
1
100
AcDbSymbolTableRecord
100
AcDbBlockTableRecord
  2
*D8
340
0
  0
BLOCK_RECORD
  5
5E3
330
1
100
AcDbSymbolTableRecord
100
AcDbBlockTableRecord
  2
*D9
340
0
  0
BLOCK_RECORD
  5
5F0
330
1
100
AcDbSymbolTableRecord
100
AcDbBlockTableRecord
  2
*D10
340
0
  0
BLOCK_RECORD
  5
5FD
330
1
100
AcDbSymbolTableRecord
100
AcDbBlockTableRecord
  2
*D11
340
0
  0
BLOCK_RECORD
  5
F05
330
1
100
AcDbSymbolTableRecord
100
AcDbBlockTableRecord
  2
*D24
340
0
  0
BLOCK_RECORD
  5
FC1
330
1
100
AcDbSymbolTableRecord
100
AcDbBlockTableRecord
  2
*D25
340
0
  0
BLOCK_RECORD
  5
FCF
330
1
100
AcDbSymbolTableRecord
100
AcDbBlockTableRecord
  2
*D26
340
0
  0
BLOCK_RECORD
  5
FDC
330
1
100
AcDbSymbolTableRecord
100
AcDbBlockTableRecord
  2
*D27
340
0
  0
BLOCK_RECORD
  5
1010
330
1
100
AcDbSymbolTableRecord
100
AcDbBlockTableRecord
  2
*D29
340
0
  0
BLOCK_RECORD
  5
102A
330
1
100
AcDbSymbolTableRecord
100
AcDbBlockTableRecord
  2
*D30
340
0
  0
BLOCK_RECORD
  5
11B7
330
1
100
AcDbSymbolTableRecord
100
AcDbBlockTableRecord
  2
*D34
340
0
  0
BLOCK_RECORD
  5
11C4
330
1
100
AcDbSymbolTableRecord
100
AcDbBlockTableRecord
  2
*D35
340
0
  0
BLOCK_RECORD
  5
11D1
330
1
100
AcDbSymbolTableRecord
100
AcDbBlockTableRecord
  2
*D36
340
0
  0
BLOCK_RECORD
  5
11DE
330
1
100
AcDbSymbolTableRecord
100
AcDbBlockTableRecord
  2
*D37
340
0
  0
BLOCK_RECORD
  5
1DE6
330
1
100
AcDbSymbolTableRecord
100
AcDbBlockTableRecord
  2
*D122
340
0
  0
ENDTAB
  0
ENDSEC
  0
SECTION
  2
BLOCKS
  0
BLOCK
  5
2D
330
17
100
AcDbEntity
  8
0
100
AcDbBlockBegin
  2
*MODEL_SPACE
 70
     0
 10
0.0
 20
0.0
 30
0.0
  3
*MODEL_SPACE
  1

  0
ENDBLK
  5
2E
330
17
100
AcDbEntity
  8
0
100
AcDbBlockEnd
  0
BLOCK
  5
2B
330
14
100
AcDbEntity
 67
     1
  8
0
100
AcDbBlockBegin
  2
*PAPER_SPACE
 70
     0
 10
0.0
 20
0.0
 30
0.0
  3
*PAPER_SPACE
  1

  0
ENDBLK
  5
2C
330
14
100
AcDbEntity
 67
     1
  8
0
100
AcDbBlockEnd
  0
BLOCK
  5
2F
330
1C
100
AcDbEntity
  8
0
100
AcDbBlockBegin
  2
BORDER
 70
     0
 10
0.0
 20
0.0
 30
0.0
  3
BORDER
  1

  0
LINE
  5
30
330
1C
100
AcDbEntity
  8
0
100
AcDbLine
 10
0.0
 20
0.0
 30
0.0
 11
1.00000000000004
 21
0.0
 31
0.0
  0
LINE
  5
31
330
1C
100
AcDbEntity
  8
0
100
AcDbLine
 10
1.00000000000004
 20
0.0
 30
0.0
 11
1.00000000000004
 21
1.00000000000004
 31
0.0
  0
LINE
  5
32
330
1C
100
AcDbEntity
  8
0
100
AcDbLine
 10
1.00000000000004
 20
1.00000000000004
 30
0.0
 11
0.0
 21
1.00000000000004
 31
0.0
  0
LINE
  5
33
330
1C
100
AcDbEntity
  8
0
100
AcDbLine
 10
0.0
 20
1.00000000000004
 30
0.0
 11
0.0
 21
0.0
 31
0.0
  0
ENDBLK
  5
34
330
1C
100
AcDbEntity
  8
0
100
AcDbBlockEnd
  0
BLOCK
  5
35
330
1D
100
AcDbEntity
  8
HAIKIN
100
AcDbBlockBegin
  2
SA3
 70
     0
 10
0.0
 20
0.0
 30
0.0
  3
SA3
  1

  0
TEXT
  5
36
330
1D
100
AcDbEntity
  8
SUNPOU
100
AcDbText
 10
340.0
 20
0.0
 30
0.0
 40
2.5
  1
新和コンクリート工業株式会社
100
AcDbText
  0
TEXT
  5
39
330
1D
100
AcDbEntity
  8
SUNPOU
100
AcDbText
 10
361.4166666666667
 20
6.25
 30
0.0
 40
2.5
  1
製図
 72
     4
 11
364.0
 21
7.5
 31
0.0
100
AcDbText
  0
TEXT
  5
3A
330
1D
100
AcDbEntity
  8
SUNPOU
100
AcDbText
 10
361.3333333333333
 20
11.25
 30
0.0
 40
2.5
  1
設計
 72
     4
 11
364.0
 21
12.5
 31
0.0
100
AcDbText
  0
TEXT
  5
3B
330
1D
100
AcDbEntity
  8
SUNPOU
100
AcDbText
 10
339.0833333333333
 20
6.250000000000014
 30
0.0
 40
2.5
  1
認
 72
     4
 11
340.25
 21
7.500000000000014
 31
0.0
100
AcDbText
  0
TEXT
  5
3C
330
1D
100
AcDbEntity
  8
SUNPOU
100
AcDbText
 10
339.0833333333333
 20
11.33333333333336
 30
0.0
 40
2.5
  1
承
 72
     4
 11
340.25
 21
12.50000000000003
 31
0.0
100
AcDbText
  0
TEXT
  5
3D
330
1D
100
AcDbEntity
  8
SUNPOU
100
AcDbText
 10
312.75
 20
11.75000000000001
 30
0.0
 40
2.5
  1
図　面　番　号
 72
     4
 11
323.0
 21
13.00000000000001
 31
0.0
100
AcDbText
  0
TEXT
  5
3E
330
1D
100
AcDbEntity
  8
SUNPOU
100
AcDbText
 10
362.0
 20
17.0
 30
0.0
 40
2.5
  1
１／
100
AcDbText
  0
TEXT
  5
3F
330
1D
100
AcDbEntity
  8
SUNPOU
100
AcDbText
 10
347.3333333333333
 20
16.25000000000001
 30
0.0
 40
2.5
  1
縮　　尺
 72
     4
 11
353.0
 21
17.50000000000001
 31
0.0
100
AcDbText
  0
TEXT
  5
40
330
1D
100
AcDbEntity
  8
SUNPOU
100
AcDbText
 10
347.3333333333333
 20
21.25
 30
0.0
 40
2.5
  1
鉄 筋 量
 72
     4
 11
353.0
 21
22.5
 31
0.0
100
AcDbText
  0
TEXT
  5
41
330
1D
100
AcDbEntity
  8
SUNPOU
100
AcDbText
 10
347.3333333333333
 20
26.25
 30
0.0
 40
2.5
  1
製 造 数
 72
     4
 11
353.0
 21
27.5
 31
0.0
100
AcDbText
  0
TEXT
  5
42
330
1D
100
AcDbEntity
  8
SUNPOU
100
AcDbText
 10
377.0
 20
21.0
 30
0.0
 40
2.5
  1
ｋｇ
 72
     2
 11
382.0
 21
21.0
 31
0.0
100
AcDbText
  0
TEXT
  5
43
330
1D
100
AcDbEntity
  8
SUNPOU
100
AcDbText
 10
339.5
 20
21.0
 30
0.0
 40
2.5
  1
ｋｇ
 72
     2
 11
344.5
 21
21.0
 31
0.0
100
AcDbText
  0
TEXT
  5
44
330
1D
100
AcDbEntity
  8
SUNPOU
100
AcDbText
 10
310.0
 20
16.25000000000001
 30
0.0
 40
2.5
  1
年 月 日
 72
     4
 11
315.5
 21
17.50000000000001
 31
0.0
100
AcDbText
  0
TEXT
  5
45
330
1D
100
AcDbEntity
  8
SUNPOU
100
AcDbText
 10
309.8333333333333
 20
21.25
 30
0.0
 40
2.5
  1
製品質量
 72
     4
 11
315.5
 21
22.5
 31
0.0
100
AcDbText
  0
TEXT
  5
46
330
1D
100
AcDbEntity
  8
SUNPOU
100
AcDbText
 10
309.9166666666667
 20
26.25
 30
0.0
 40
2.5
  1
業 者 名
 72
     4
 11
315.5
 21
27.5
 31
0.0
100
AcDbText
  0
TEXT
  5
47
330
1D
100
AcDbEntity
  8
SUNPOU
100
AcDbText
 10
309.8333333333333
 20
32.5
 30
0.0
 40
2.5
  1
名　　称
 72
     4
 11
315.5
 21
33.75
 31
0.0
100
AcDbText
  0
LINE
  5
48
330
1D
100
AcDbEntity
  8
SUNPOU
100
AcDbLine
 10
338.0
 20
11.00000000000001
 30
0.0
 11
308.0
 21
11.00000000000001
 31
0.0
  0
LINE
  5
49
330
1D
100
AcDbEntity
  8
SUNPOU
100
AcDbLine
 10
367.5
 20
4.999999999999986
 30
0.0
 11
367.5
 21
14.99999999999999
 31
0.0
  0
LINE
  5
4A
330
1D
100
AcDbEntity
  8
SUNPOU
100
AcDbLine
 10
360.5
 20
4.999999999999986
 30
0.0
 11
360.5
 21
14.99999999999999
 31
0.0
  0
LINE
  5
4B
330
1D
100
AcDbEntity
  8
SUNPOU
100
AcDbLine
 10
342.5
 20
4.999999999999995
 30
0.0
 11
342.5
 21
15.0
 31
0.0
  0
LINE
  5
4C
330
1D
100
AcDbEntity
  8
SUNPOU
100
AcDbLine
 10
338.0
 20
4.999999999999995
 30
0.0
 11
338.0
 21
15.0
 31
0.0
  0
LINE
  5
4D
330
1D
100
AcDbEntity
  8
SUNPOU
100
AcDbLine
 10
323.0
 20
15.00000000000001
 30
0.0
 11
323.0
 21
37.5
 31
0.0
  0
LINE
  5
4E
330
1D
100
AcDbEntity
  8
SUNPOU
100
AcDbLine
 10
360.5
 20
15.00000000000001
 30
0.0
 11
360.5
 21
30.0
 31
0.0
  0
LINE
  5
4F
330
1D
100
AcDbEntity
  8
SUNPOU
100
AcDbLine
 10
345.5
 20
15.00000000000001
 30
0.0
 11
345.5
 21
30.0
 31
0.0
  0
LINE
  5
50
330
1D
100
AcDbEntity
  8
SUNPOU
100
AcDbLine
 10
383.0
 20
30.0
 30
0.0
 11
308.0
 21
30.0
 31
0.0
  0
LINE
  5
51
330
1D
100
AcDbEntity
  8
SUNPOU
100
AcDbLine
 10
383.0
 20
25.0
 30
0.0
 11
308.0
 21
25.0
 31
0.0
  0
LINE
  5
52
330
1D
100
AcDbEntity
  8
SUNPOU
100
AcDbLine
 10
383.0
 20
20.0
 30
0.0
 11
308.0
 21
20.0
 31
0.0
  0
LINE
  5
53
330
1D
100
AcDbEntity
  8
SUNPOU
100
AcDbLine
 10
383.0
 20
14.99999999999999
 30
0.0
 11
308.0
 21
15.00000000000004
 31
0.0
  0
LINE
  5
54
330
1D
100
AcDbEntity
  8
HAIKIN
100
AcDbLine
 10
308.0
 20
37.5
 30
0.0
 11
383.0
 21
37.5
 31
0.0
  0
LINE
  5
55
330
1D
100
AcDbEntity
  8
HAIKIN
100
AcDbLine
 10
308.0
 20
5.000000000000009
 30
0.0
 11
308.0
 21
37.5
 31
0.0
  0
LINE
  5
56
330
1D
100
AcDbEntity
  8
SUNPOU
100
AcDbLine
 10
0.000000000000016
 20
277.0
 30
0.0
 11
0.000000000000016
 21
272.0
 31
0.0
  0
LINE
  5
57
330
1D
100
AcDbEntity
  8
SUNPOU
100
AcDbLine
 10
25.00000000000001
 20
277.0
 30
0.0
 11
0.000000000000016
 21
277.0
 31
0.0
  0
LINE
  5
58
330
1D
100
AcDbEntity
  8
SUNPOU
100
AcDbLine
 10
25.00000000000001
 20
272.0
 30
0.0
 11
25.00000000000001
 21
277.0
 31
0.0
  0
LINE
  5
59
330
1D
100
AcDbEntity
  8
HAIKIN
100
AcDbLine
 10
0.0000000000000004
 20
5.0
 30
0.0
 11
383.0
 21
5.0
 31
0.0
  0
LINE
  5
5A
330
1D
100
AcDbEntity
  8
HAIKIN
100
AcDbLine
 10
0.0000000000000158
 20
272.0
 30
0.0
 11
383.0
 21
272.0
 31
0.0
  0
LINE
  5
5B
330
1D
100
AcDbEntity
  8
HAIKIN
100
AcDbLine
 10
383.0
 20
272.0
 30
0.0
 11
383.0
 21
5.0
 31
0.0
  0
TEXT
  5
5C
330
1D
100
AcDbEntity
  8
SUNPOU
100
AcDbText
 10
3.700000000000017
 20
273.0
 30
0.0
 40
3.0
  1
Ｈ－２－共
 72
     4
 11
12.50000000000002
 21
274.5
 31
0.0
100
AcDbText
  0
LINE
  5
5D
330
1D
100
AcDbEntity
  8
HAIKIN
100
AcDbLine
 10
0.0000000000000004
 20
5.0
 30
0.0
 11
0.0000000000000158
 21
272.0
 31
0.0
  0
ENDBLK
  5
5E
330
1D
100
AcDbEntity
  8
HAIKIN
100
AcDbBlockEnd
  0
BLOCK
  5
8A
330
80
100
AcDbEntity
  8
0
100
AcDbBlockBegin
  2
*D2
 70
     1
 10
0.0
 20
0.0
 30
0.0
  3
*D2
  1

  0
LINE
  5
81
330
80
100
AcDbEntity
  8
0
  6
ByBlock
 62
     0
440
 16777216
100
AcDbLine
 10
1328.918641876931
 20
1063.120542006091
 30
0.0
 11
1734.384164675743
 21
1063.120542006091
 31
0.0
  0
LINE
  5
82
330
80
100
AcDbEntity
  8
0
  6
ByBlock
 62
     0
440
 16777216
100
AcDbLine
 10
1408.918641876931
 20
943.1205420060905
 30
0.0
 11
1734.384164675743
 21
943.1205420060905
 31
0.0
  0
LINE
  5
83
330
80
100
AcDbEntity
  8
0
  6
ByBlock
 62
     0
440
 16777216
100
AcDbLine
 10
1724.384164675743
 20
1043.120542006091
 30
0.0
 11
1724.384164675743
 21
963.1205420060905
 31
0.0
  0
SOLID
  5
84
330
80
100
AcDbEntity
  8
0
  6
ByBlock
 62
     0
440
 16777216
100
AcDbTrace
 10
1721.05083134241
 20
1043.120542006091
 30
0.0
 11
1727.717498009076
 21
1043.120542006091
 31
0.0
 12
1724.384164675743
 22
1063.120542006091
 32
0.0
 13
1724.384164675743
 23
1063.120542006091
 33
0.0
  0
SOLID
  5
85
330
80
100
AcDbEntity
  8
0
  6
ByBlock
 62
     0
440
 16777216
100
AcDbTrace
 10
1721.05083134241
 20
963.1205420060905
 30
0.0
 11
1727.717498009076
 21
963.1205420060905
 31
0.0
 12
1724.384164675743
 22
943.1205420060905
 32
0.0
 13
1724.384164675743
 23
943.1205420060905
 33
0.0
  0
MTEXT
  5
86
330
80
100
AcDbEntity
  8
0
  6
ByBlock
 62
     0
440
 16777216
100
AcDbMText
 10
1699.384164675743
 20
1003.12054200609
 30
0.0
 40
25.0
 41
0.0
 71
     5
 72
     1
  1
\A1;120
 11
6.123031769111886E-17
 21
1.0
 31
0.0
 73
     1
 44
1.0
  0
POINT
  5
87
330
80
100
AcDbEntity
  8
DEFPOINTS
  6
ByBlock
 62
     0
440
 16777216
100
AcDbPoint
 10
1308.918641876931
 20
1063.120542006091
 30
0.0
  0
POINT
  5
88
330
80
100
AcDbEntity
  8
DEFPOINTS
  6
ByBlock
 62
     0
440
 16777216
100
AcDbPoint
 10
1388.918641876931
 20
943.1205420060905
 30
0.0
  0
POINT
  5
89
330
80
100
AcDbEntity
  8
DEFPOINTS
  6
ByBlock
 62
     0
440
 16777216
100
AcDbPoint
 10
1724.384164675743
 20
943.1205420060905
 30
0.0
  0
ENDBLK
  5
8B
330
80
100
AcDbEntity
  8
0
100
AcDbBlockEnd
  0
BLOCK
  5
96
330
8C
100
AcDbEntity
  8
0
100
AcDbBlockBegin
  2
*D3
 70
     1
 10
0.0
 20
0.0
 30
0.0
  3
*D3
  1

  0
LINE
  5
8D
330
8C
100
AcDbEntity
  8
0
  6
ByBlock
 62
     0
440
 16777216
100
AcDbLine
 10
1328.918641876931
 20
910.6599650098688
 30
0.0
 11
1674.384164675743
 21
910.6599650098688
 31
0.0
  0
LINE
  5
8E
330
8C
100
AcDbEntity
  8
0
  6
ByBlock
 62
     0
440
 16777216
100
AcDbLine
 10
1408.918641876931
 20
850.6599650098688
 30
0.0
 11
1674.384164675743
 21
850.6599650098688
 31
0.0
  0
LINE
  5
8F
330
8C
100
AcDbEntity
  8
0
  6
ByBlock
 62
     0
440
 16777216
100
AcDbLine
 10
1664.384164675743
 20
890.6599650098688
 30
0.0
 11
1664.384164675743
 21
870.6599650098688
 31
0.0
  0
SOLID
  5
90
330
8C
100
AcDbEntity
  8
0
  6
ByBlock
 62
     0
440
 16777216
100
AcDbTrace
 10
1661.05083134241
 20
890.6599650098688
 30
0.0
 11
1667.717498009076
 21
890.6599650098688
 31
0.0
 12
1664.384164675743
 22
910.6599650098688
 32
0.0
 13
1664.384164675743
 23
910.6599650098688
 33
0.0
  0
SOLID
  5
91
330
8C
100
AcDbEntity
  8
0
  6
ByBlock
 62
     0
440
 16777216
100
AcDbTrace
 10
1661.05083134241
 20
870.6599650098688
 30
0.0
 11
1667.717498009076
 21
870.6599650098688
 31
0.0
 12
1664.384164675743
 22
850.6599650098688
 32
0.0
 13
1664.384164675743
 23
850.6599650098688
 33
0.0
  0
MTEXT
  5
92
330
8C
100
AcDbEntity
  8
0
  6
ByBlock
 62
     0
440
 16777216
100
AcDbMText
 10
1639.384164675743
 20
880.6599650098688
 30
0.0
 40
25.0
 41
0.0
 71
     5
 72
     1
  1
\A1;60
 11
6.123031769111886E-17
 21
1.0
 31
0.0
 73
     1
 44
1.0
  0
POINT
  5
93
330
8C
100
AcDbEntity
  8
DEFPOINTS
  6
ByBlock
 62
     0
440
 16777216
100
AcDbPoint
 10
1308.918641876931
 20
910.6599650098688
 30
0.0
  0
POINT
  5
94
330
8C
100
AcDbEntity
  8
DEFPOINTS
  6
ByBlock
 62
     0
440
 16777216
100
AcDbPoint
 10
1388.918641876931
 20
850.6599650098688
 30
0.0
  0
POINT
  5
95
330
8C
100
AcDbEntity
  8
DEFPOINTS
  6
ByBlock
 62
     0
440
 16777216
100
AcDbPoint
 10
1664.384164675743
 20
850.6599650098688
 30
0.0
  0
ENDBLK
  5
97
330
8C
100
AcDbEntity
  8
0
100
AcDbBlockEnd
  0
BLOCK
  5
A2
330
98
100
AcDbEntity
  8
0
100
AcDbBlockBegin
  2
*D4
 70
     1
 10
0.0
 20
0.0
 30
0.0
  3
*D4
  1

  0
LINE
  5
99
330
98
100
AcDbEntity
  8
0
  6
ByBlock
 62
     0
440
 16777216
100
AcDbLine
 10
1408.918641876931
 20
850.6599650098689
 30
0.0
 11
1674.384164675743
 21
850.6599650098689
 31
0.0
  0
LINE
  5
9A
330
98
100
AcDbEntity
  8
0
  6
ByBlock
 62
     0
440
 16777216
100
AcDbLine
 10
1408.918641876931
 20
790.6599650098689
 30
0.0
 11
1674.384164675743
 21
790.6599650098689
 31
0.0
  0
LINE
  5
9B
330
98
100
AcDbEntity
  8
0
  6
ByBlock
 62
     0
440
 16777216
100
AcDbLine
 10
1664.384164675743
 20
830.6599650098689
 30
0.0
 11
1664.384164675743
 21
810.6599650098689
 31
0.0
  0
SOLID
  5
9C
330
98
100
AcDbEntity
  8
0
  6
ByBlock
 62
     0
440
 16777216
100
AcDbTrace
 10
1661.05083134241
 20
830.6599650098689
 30
0.0
 11
1667.717498009076
 21
830.6599650098689
 31
0.0
 12
1664.384164675743
 22
850.6599650098689
 32
0.0
 13
1664.384164675743
 23
850.6599650098689
 33
0.0
  0
SOLID
  5
9D
330
98
100
AcDbEntity
  8
0
  6
ByBlock
 62
     0
440
 16777216
100
AcDbTrace
 10
1661.05083134241
 20
810.6599650098689
 30
0.0
 11
1667.717498009076
 21
810.6599650098689
 31
0.0
 12
1664.384164675743
 22
790.6599650098689
 32
0.0
 13
1664.384164675743
 23
790.6599650098689
 33
0.0
  0
MTEXT
  5
9E
330
98
100
AcDbEntity
  8
0
  6
ByBlock
 62
     0
440
 16777216
100
AcDbMText
 10
1639.384164675743
 20
820.6599650098689
 30
0.0
 40
25.0
 41
0.0
 71
     5
 72
     1
  1
\A1;60
 11
6.123031769111886E-17
 21
1.0
 31
0.0
 73
     1
 44
1.0
  0
POINT
  5
9F
330
98
100
AcDbEntity
  8
DEFPOINTS
  6
ByBlock
 62
     0
440
 16777216
100
AcDbPoint
 10
1388.918641876931
 20
850.6599650098689
 30
0.0
  0
POINT
  5
A0
330
98
100
AcDbEntity
  8
DEFPOINTS
  6
ByBlock
 62
     0
440
 16777216
100
AcDbPoint
 10
1388.918641876931
 20
790.6599650098689
 30
0.0
  0
POINT
  5
A1
330
98
100
AcDbEntity
  8
DEFPOINTS
  6
ByBlock
 62
     0
440
 16777216
100
AcDbPoint
 10
1664.384164675743
 20
790.6599650098689
 30
0.0
  0
ENDBLK
  5
A3
330
98
100
AcDbEntity
  8
0
100
AcDbBlockEnd
  0
BLOCK
  5
AE
330
A4
100
AcDbEntity
  8
0
100
AcDbBlockBegin
  2
*D5
 70
     1
 10
0.0
 20
0.0
 30
0.0
  3
*D5
  1

  0
LINE
  5
A5
330
A4
100
AcDbEntity
  8
0
  6
ByBlock
 62
     0
440
 16777216
100
AcDbLine
 10
1308.918641876931
 20
930.6599650098688
 30
0.0
 11
1308.918641876931
 21
1103.301880364135
 31
0.0
  0
LINE
  5
A6
330
A4
100
AcDbEntity
  8
0
  6
ByBlock
 62
     0
440
 16777216
100
AcDbLine
 10
1388.918641876931
 20
870.6599650098689
 30
0.0
 11
1388.918641876931
 21
1103.301880364135
 31
0.0
  0
LINE
  5
A7
330
A4
100
AcDbEntity
  8
0
  6
ByBlock
 62
     0
440
 16777216
100
AcDbLine
 10
1328.918641876931
 20
1093.301880364135
 30
0.0
 11
1368.918641876931
 21
1093.301880364135
 31
0.0
  0
SOLID
  5
A8
330
A4
100
AcDbEntity
  8
0
  6
ByBlock
 62
     0
440
 16777216
100
AcDbTrace
 10
1328.918641876931
 20
1096.635213697469
 30
0.0
 11
1328.918641876931
 21
1089.968547030802
 31
0.0
 12
1308.918641876931
 22
1093.301880364135
 32
0.0
 13
1308.918641876931
 23
1093.301880364135
 33
0.0
  0
SOLID
  5
A9
330
A4
100
AcDbEntity
  8
0
  6
ByBlock
 62
     0
440
 16777216
100
AcDbTrace
 10
1368.918641876931
 20
1096.635213697469
 30
0.0
 11
1368.918641876931
 21
1089.968547030802
 31
0.0
 12
1388.918641876931
 22
1093.301880364135
 32
0.0
 13
1388.918641876931
 23
1093.301880364135
 33
0.0
  0
MTEXT
  5
AA
330
A4
100
AcDbEntity
  8
0
  6
ByBlock
 62
     0
440
 16777216
100
AcDbMText
 10
1348.918641876931
 20
1118.301880364135
 30
0.0
 40
25.0
 41
0.0
 71
     5
 72
     1
  1
\A1;80
 73
     1
 44
1.0
  0
POINT
  5
AB
330
A4
100
AcDbEntity
  8
DEFPOINTS
  6
ByBlock
 62
     0
440
 16777216
100
AcDbPoint
 10
1308.918641876931
 20
910.6599650098688
 30
0.0
  0
POINT
  5
AC
330
A4
100
AcDbEntity
  8
DEFPOINTS
  6
ByBlock
 62
     0
440
 16777216
100
AcDbPoint
 10
1388.918641876931
 20
850.6599650098689
 30
0.0
  0
POINT
  5
AD
330
A4
100
AcDbEntity
  8
DEFPOINTS
  6
ByBlock
 62
     0
440
 16777216
100
AcDbPoint
 10
1388.918641876931
 20
1093.301880364135
 30
0.0
  0
ENDBLK
  5
AF
330
A4
100
AcDbEntity
  8
0
100
AcDbBlockEnd
  0
BLOCK
  5
B6
330
B0
100
AcDbEntity
  8
0
100
AcDbBlockBegin
  2
*D6
 70
     1
 10
0.0
 20
0.0
 30
0.0
  3
*D6
  1

  0
LINE
  5
B1
330
B0
100
AcDbEntity
  8
0
  6
ByBlock
 62
     0
440
 16777216
100
AcDbLine
 10
968.9186418769314
 20
990.659965009869
 30
0.0
 11
928.1098170263085
 21
946.6754243812437
 31
0.0
  0
MTEXT
  5
B2
330
B0
100
AcDbEntity
  8
0
  6
ByBlock
 62
     0
440
 16777216
100
AcDbMText
 10
1000.539969260484
 20
1027.488583691892
 30
0.0
 40
25.0
 41
0.0
 71
     5
 72
     1
  1
\A1;R80
 11
0.6801470808437141
 21
0.7330756771437545
 31
0.0
 73
     1
 44
1.0
  0
SOLID
  5
B3
330
B0
100
AcDbEntity
  8
0
  6
ByBlock
 62
     0
440
 16777216
100
AcDbTrace
 10
925.6662314358293
 20
948.9425813173892
 30
0.0
 11
930.5534026167877
 21
944.4082674450979
 31
0.0
 12
914.5068754094342
 22
932.0139108383685
 32
0.0
 13
914.5068754094342
 23
932.0139108383685
 33
0.0
  0
POINT
  5
B4
330
B0
100
AcDbEntity
  8
DEFPOINTS
  6
ByBlock
 62
     0
440
 16777216
100
AcDbPoint
 10
914.5068754094342
 20
932.0139108383685
 30
0.0
  0
POINT
  5
B5
330
B0
100
AcDbEntity
  8
DEFPOINTS
  6
ByBlock
 62
     0
440
 16777216
100
AcDbPoint
 10
968.9186418769314
 20
990.659965009869
 30
0.0
  0
ENDBLK
  5
B7
330
B0
100
AcDbEntity
  8
0
100
AcDbBlockEnd
  0
BLOCK
  5
147
330
B9
100
AcDbEntity
  8
0
100
AcDbBlockBegin
  2
A$C630D7A2A
 70
     0
 10
0.0
 20
0.0
 30
0.0
  3
A$C630D7A2A
  1

  0
LINE
  5
BA
330
B9
100
AcDbEntity
  8
SUNPOU
100
AcDbLine
 10
959.736976452632
 20
1106.506644244947
 30
0.0
 11
2281.976822896288
 21
1106.506644244946
 31
0.0
  0
LINE
  5
BB
330
B9
100
AcDbEntity
  8
HASEN
100
AcDbLine
 10
1281.976822896288
 20
282.9999977848383
 30
0.0
 11
2281.976822896289
 21
282.9999977848383
 31
0.0
  0
LEADER
  5
BC
330
B9
100
AcDbEntity
  8
SUNPOU
100
AcDbLeader
  3
STANDARD
 76
     2
 10
1503.976822896288
 20
309.0026842404862
 30
0.0
 10
1695.976822896288
 20
309.0026842404862
 30
0.0
1001
ACAD
1000
DSTYLE
1002
{
1070
    78
1070
     8
1070
   284
1070
     8
1070
   140
1040
2.5
1070
   145
1040
1.0
1070
    74
1070
     0
1070
    73
1070
     0
1070
    40
1040
10.0
1070
   287
1070
     5
1070
    42
1040
2.0
1070
    44
1040
1.0
1070
    43
1040
7.0
1070
   141
1040
0.0
1070
   275
1070
     1
1070
    41
1040
2.0
1070
   285
1070
     8
1070
   286
1070
     8
1002
}
  0
LEADER
  5
BD
330
B9
100
AcDbEntity
  8
SUNPOU
100
AcDbLeader
  3
STANDARD
 76
     2
 10
1513.976822896288
 20
1106.506644244947
 30
0.0
 10
1321.976822896288
 20
1106.506644244947
 30
0.0
1001
ACAD
1000
DSTYLE
1002
{
1070
    78
1070
     8
1070
   284
1070
     8
1070
   140
1040
2.5
1070
   145
1040
1.0
1070
    74
1070
     0
1070
    73
1070
     0
1070
    40
1040
10.0
1070
   287
1070
     5
1070
    42
1040
2.0
1070
    44
1040
1.0
1070
    43
1040
7.0
1070
   141
1040
0.0
1070
   275
1070
     1
1070
    41
1040
2.0
1070
   285
1070
     8
1070
   286
1070
     8
1002
}
  0
LWPOLYLINE
  5
BE
330
B9
100
AcDbEntity
  8
SUNPOU
100
AcDbPolyline
 90
        2
 70
     1
 43
4.95
 10
1511.451822896287
 20
192.9999977848383
 42
1.0
 10
1516.501822896288
 20
192.9999977848383
 42
1.0
  0
LWPOLYLINE
  5
BF
330
B9
100
AcDbEntity
  8
SUNPOU
100
AcDbPolyline
 90
        2
 70
     1
 43
4.95
 10
1511.451822896287
 20
252.999997784838
 42
1.0
 10
1516.501822896288
 20
252.999997784838
 42
1.0
  0
LINE
  5
C0
330
B9
100
AcDbEntity
  8
HAIKIN
100
AcDbLine
 10
1301.976822896288
 20
244.9999977848381
 30
0.0
 11
2281.976822896288
 21
244.9999977848381
 31
0.0
  0
LINE
  5
C1
330
B9
100
AcDbEntity
  8
HAIKIN
100
AcDbLine
 10
1301.976822896288
 20
507.9999977848386
 30
0.0
 11
2281.976822896288
 21
507.9999977848386
 31
0.0
  0
LINE
  5
C2
330
B9
100
AcDbEntity
  8
HAIKIN
100
AcDbLine
 10
1301.976822896288
 20
752.9999977848386
 30
0.0
 11
2281.976822896288
 21
752.9999977848386
 31
0.0
  0
LINE
  5
C3
330
B9
100
AcDbEntity
  8
HAIKIN
100
AcDbLine
 10
1301.976822896288
 20
997.9999977848386
 30
0.0
 11
2281.976822896288
 21
997.9999977848386
 31
0.0
  0
LINE
  5
C4
330
B9
100
AcDbEntity
  8
HAIKIN
100
AcDbLine
 10
1301.976822896288
 20
200.9999977848383
 30
0.0
 11
2281.976822896288
 21
200.9999977848381
 31
0.0
  0
LINE
  5
C5
330
B9
100
AcDbEntity
  8
HAIKIN
100
AcDbLine
 10
1301.976822896288
 20
1242.999997784839
 30
0.0
 11
2281.976822896288
 21
1242.999997784839
 31
0.0
  0
LINE
  5
C6
330
B9
100
AcDbEntity
  8
SUNPOU
100
AcDbLine
 10
1281.976822896288
 20
162.9999977848383
 30
0.0
 11
2281.976822896287
 21
162.9999977848383
 31
0.0
  0
LINE
  5
C7
330
B9
100
AcDbEntity
  8
SUNPOU
100
AcDbLine
 10
1281.976822896288
 20
1282.999997784838
 30
0.0
 11
2281.976822896288
 21
1282.999997784838
 31
0.0
  0
LEADER
  5
C8
330
B9
100
AcDbEntity
  8
SUNPOU
100
AcDbLeader
  3
STANDARD
 76
     3
 10
229.3200875962164
 20
758.9999977848388
 30
0.0
 10
315.0778082627312
 20
873.0535803463317
 30
0.0
 10
565.4380575288906
 20
873.0535803463317
 30
0.0
1001
ACAD
1000
DSTYLE
1002
{
1070
    78
1070
     8
1070
   284
1070
     8
1070
   140
1040
2.5
1070
   145
1040
1.0
1070
    74
1070
     0
1070
    73
1070
     0
1070
    40
1040
10.0
1070
   287
1070
     5
1070
    42
1040
2.0
1070
    44
1040
1.0
1070
    43
1040
7.0
1070
   141
1040
0.0
1070
   275
1070
     1
1070
    41
1040
2.0
1070
   285
1070
     8
1070
   286
1070
     8
1002
}
  0
LEADER
  5
C9
330
B9
100
AcDbEntity
  8
SUNPOU
100
AcDbLeader
  3
STANDARD
 76
     3
 10
267.9218676798143
 20
758.9999977848388
 30
0.0
 10
353.6795883463292
 20
873.0535803463317
 30
0.0
 10
604.0398376124886
 20
873.0535803463317
 30
0.0
1001
ACAD
1000
DSTYLE
1002
{
1070
    78
1070
     8
1070
   284
1070
     8
1070
   140
1040
2.5
1070
   145
1040
1.0
1070
    74
1070
     0
1070
    73
1070
     0
1070
    40
1040
10.0
1070
   287
1070
     5
1070
    42
1040
2.0
1070
    44
1040
1.0
1070
    43
1040
7.0
1070
   141
1040
0.0
1070
   275
1070
     1
1070
    41
1040
2.0
1070
   285
1070
     8
1070
   286
1070
     8
1002
}
  0
LEADER
  5
CA
330
B9
100
AcDbEntity
  8
SUNPOU
100
AcDbLeader
  3
STANDARD
 76
     2
 10
1440.067580811962
 20
997.9999977848388
 30
0.0
 10
1440.067580811962
 20
752.9999977848388
 30
0.0
1001
ACAD
1000
DSTYLE
1002
{
1070
    78
1070
     8
1070
   284
1070
     8
1070
   140
1040
2.5
1070
   145
1040
1.0
1070
    74
1070
     0
1070
    73
1070
     0
1070
    40
1040
10.0
1070
   287
1070
     5
1070
    42
1040
2.0
1070
    44
1040
1.0
1070
    43
1040
7.0
1070
   141
1040
0.0
1070
   275
1070
     1
1070
    41
1040
2.0
1070
   285
1070
     8
1070
   286
1070
     8
1002
}
  0
LINE
  5
CB
330
B9
100
AcDbEntity
  8
HAIKIN
100
AcDbLine
 10
1321.976822896288
 20
1262.999997784839
 30
0.0
 11
1321.976822896288
 21
192.9999977848383
 31
0.0
  0
LINE
  5
CC
330
B9
100
AcDbEntity
  8
HAIKIN
100
AcDbLine
 10
228.4920027314397
 20
1262.999997784838
 30
0.0
 11
207.8747180798659
 21
213.39277915926
 31
0.0
  0
LINE
  5
CD
330
B9
100
AcDbEntity
  8
HAIKIN
100
AcDbLine
 10
268.8790728049153
 20
1262.999997784838
 30
0.0
 11
268.8790728049153
 21
192.9999977848383
 31
0.0
  0
LINE
  5
CE
330
B9
100
AcDbEntity
  8
SUNPOU
100
AcDbLine
 10
1281.976822896288
 20
1282.999997784838
 30
0.0
 11
1281.976822896288
 21
162.9999977848383
 31
0.0
  0
LINE
  5
CF
330
B9
100
AcDbEntity
  8
SUNPOU
100
AcDbLine
 10
198.8790728049153
 20
1282.999997784838
 30
0.0
 11
176.8790728049153
 21
162.9999977848383
 31
0.0
  0
LINE
  5
D0
330
B9
100
AcDbEntity
  8
SUNPOU
100
AcDbLine
 10
298.8790728049153
 20
1282.999997784838
 30
0.0
 11
298.8790728049153
 21
362.9999977848383
 31
0.0
  0
LEADER
  5
D1
330
B9
100
AcDbEntity
  8
SUNPOU
100
AcDbLeader
  3
STANDARD
 76
     3
 10
419.3209926586517
 20
252.9999977848381
 30
0.0
 10
419.3209926586517
 20
58.0315611644146
 30
0.0
 10
0.000002087728717
 20
58.0315611644146
 30
0.0
1001
ACAD
1000
DSTYLE
1002
{
1070
    78
1070
     8
1070
   284
1070
     8
1070
   140
1040
2.5
1070
   145
1040
1.0
1070
    74
1070
     0
1070
    73
1070
     0
1070
    40
1040
10.0
1070
   287
1070
     5
1070
    42
1040
2.0
1070
    44
1040
1.0
1070
    43
1040
7.0
1070
   141
1040
0.0
1070
   275
1070
     1
1070
    41
1040
2.0
1070
   285
1070
     8
1070
   286
1070
     8
1002
}
  0
LINE
  5
D2
330
B9
100
AcDbEntity
  8
SUNPOU
100
AcDbLine
 10
176.8790728049153
 20
162.9999977848383
 30
0.0
 11
798.8790728049153
 21
162.9999977848385
 31
0.0
  0
DIMENSION
  5
D3
330
B9
100
AcDbEntity
  8
SUNPOU
100
AcDbDimension
  2
*D4
 10
1074.344595603727
 20
162.9999977848385
 30
0.0
 11
1049.344595603727
 21
192.9999977848385
 31
0.0
 12
-590.0395690720161
 22
-627.6599672250304
 32
0.0
 71
     5
 42
-1.0
  3
STANDARD
100
AcDbAlignedDimension
 13
798.8790728049153
 23
222.9999977848385
 33
0.0
 14
798.8790728049153
 24
162.9999977848385
 34
0.0
 50
90.0
100
AcDbRotatedDimension
1001
ACAD
1000
DSTYLE
1002
{
1070
    40
1040
10.0
1070
    41
1040
2.0
1070
    42
1040
2.0
1070
    43
1040
7.0
1070
    44
1040
1.0
1070
    73
1070
     0
1070
    74
1070
     0
1070
    78
1070
     8
1070
   140
1040
2.5
1070
   141
1040
0.0
1070
   145
1040
1.0
1070
   275
1070
     1
1070
   279
1070
     2
1070
   284
1070
     8
1070
   285
1070
     8
1070
   286
1070
     8
1002
}
  0
DIMENSION
  5
D4
330
B9
100
AcDbEntity
  8
SUNPOU
100
AcDbDimension
  2
*D3
 10
1074.344595603727
 20
222.9999977848383
 30
0.0
 11
1049.344595603727
 21
252.9999977848383
 31
0.0
 12
-590.0395690720161
 22
-627.6599672250304
 32
0.0
 71
     5
 42
-1.0
  3
STANDARD
100
AcDbAlignedDimension
 13
718.8790728049153
 23
282.9999977848383
 33
0.0
 14
798.8790728049153
 24
222.9999977848383
 34
0.0
 50
90.0
100
AcDbRotatedDimension
1001
ACAD
1000
DSTYLE
1002
{
1070
    40
1040
10.0
1070
    41
1040
2.0
1070
    42
1040
2.0
1070
    43
1040
7.0
1070
    44
1040
1.0
1070
    73
1070
     0
1070
    74
1070
     0
1070
    78
1070
     8
1070
   140
1040
2.5
1070
   141
1040
0.0
1070
   145
1040
1.0
1070
   275
1070
     1
1070
   279
1070
     2
1070
   284
1070
     8
1070
   285
1070
     8
1070
   286
1070
     8
1002
}
  0
LEADER
  5
D5
330
B9
100
AcDbEntity
  8
SUNPOU
100
AcDbLeader
  3
STANDARD
 76
     3
 10
770.4987332130349
 20
248.9999977848381
 30
0.0
 10
770.4987332130349
 20
350.551300446703
 30
0.0
 10
1155.289369866668
 20
350.551300446703
 30
0.0
1001
ACAD
1000
DSTYLE
1002
{
1070
    78
1070
     8
1070
   284
1070
     8
1070
   140
1040
2.5
1070
   145
1040
1.0
1070
    74
1070
     0
1070
    73
1070
     0
1070
    40
1040
10.0
1070
   287
1070
     5
1070
    42
1040
2.0
1070
    44
1040
1.0
1070
    43
1040
7.0
1070
   141
1040
0.0
1070
   275
1070
     1
1070
    41
1040
2.0
1070
   285
1070
     8
1070
   286
1070
     8
1002
}
  0
DIMENSION
  5
D6
330
B9
100
AcDbEntity
  8
SUNPOU
100
AcDbDimension
  2
*D2
 10
1134.344595603727
 20
162.9999977848383
 30
0.0
 11
1109.344595603727
 21
222.9999977848382
 31
0.0
 12
-590.0395690720161
 22
-780.1205442212522
 32
0.0
 71
     5
 42
-1.0
  3
STANDARD
100
AcDbAlignedDimension
 13
718.8790728049153
 23
282.9999977848383
 33
0.0
 14
798.8790728049153
 24
162.9999977848383
 34
0.0
 50
90.0
100
AcDbRotatedDimension
1001
ACAD
1000
DSTYLE
1002
{
1070
    40
1040
10.0
1070
    41
1040
2.0
1070
    42
1040
2.0
1070
    43
1040
7.0
1070
    44
1040
1.0
1070
    73
1070
     0
1070
    74
1070
     0
1070
    78
1070
     8
1070
   140
1040
2.5
1070
   141
1040
0.0
1070
   145
1040
1.0
1070
   275
1070
     1
1070
   279
1070
     2
1070
   284
1070
     8
1070
   285
1070
     8
1070
   286
1070
     8
1002
}
  0
LINE
  5
D7
330
B9
100
AcDbEntity
  8
HAIKIN
100
AcDbLine
 10
538.8790728049153
 20
196.9999977848386
 30
0.0
 11
918.8790728049153
 21
196.9999977848382
 31
0.0
  0
DIMENSION
  5
D8
330
B9
100
AcDbEntity
  8
SUNPOU
100
AcDbDimension
  2
*D6
 10
378.8790728049153
 20
362.9999977848386
 30
0.0
 11
410.5004001884682
 21
399.8286164668616
 31
0.0
 12
-590.0395690720161
 22
-627.6599672250304
 32
0.0
 70
   132
 71
     5
 42
-1.0
  3
STANDARD
100
AcDbRadialDimension
 15
324.4673063374181
 25
304.3539436133381
 35
0.0
 40
0.0
1001
ACAD
1000
DSTYLE
1002
{
1070
    40
1040
10.0
1070
    41
1040
2.0
1070
    42
1040
2.0
1070
    43
1040
7.0
1070
    44
1040
1.0
1070
    73
1070
     0
1070
    74
1070
     0
1070
    78
1070
     8
1070
   140
1040
2.5
1070
   141
1040
0.0
1070
   145
1040
1.0
1070
   275
1070
     1
1070
   279
1070
     2
1070
   284
1070
     8
1070
   285
1070
     8
1070
   286
1070
     8
1070
   288
1070
     1
1002
}
  0
DIMENSION
  5
D9
330
B9
100
AcDbEntity
  8
SUNPOU
100
AcDbDimension
  2
*D5
 10
798.8790728049153
 20
465.6419131391049
 30
0.0
 11
758.8790728049153
 21
490.6419131391049
 31
0.0
 12
-590.0395690720161
 22
-627.6599672250304
 32
0.0
 71
     5
 42
-1.0
  3
STANDARD
100
AcDbAlignedDimension
 13
718.8790728049153
 23
282.9999977848383
 33
0.0
 14
798.8790728049153
 24
222.9999977848385
 34
0.0
100
AcDbRotatedDimension
1001
ACAD
1000
DSTYLE
1002
{
1070
    40
1040
10.0
1070
    41
1040
2.0
1070
    42
1040
2.0
1070
    43
1040
7.0
1070
    44
1040
1.0
1070
    73
1070
     0
1070
    74
1070
     0
1070
    78
1070
     8
1070
   140
1040
2.5
1070
   141
1040
0.0
1070
   145
1040
1.0
1070
   275
1070
     1
1070
   279
1070
     2
1070
   284
1070
     8
1070
   285
1070
     8
1070
   286
1070
     8
1002
}
  0
LEADER
  5
DA
330
B9
100
AcDbEntity
  8
SUNPOU
100
AcDbLeader
  3
STANDARD
 76
     3
 10
298.8790728049153
 20
282.9999977848383
 30
0.0
 10
424.4601063496466
 20
635.4571459657018
 30
0.0
 10
689.9144454045472
 20
635.4571459657018
 30
0.0
1001
ACAD
1000
DSTYLE
1002
{
1070
    78
1070
     8
1070
   284
1070
     8
1070
   140
1040
2.5
1070
   145
1040
1.0
1070
    74
1070
     0
1070
    73
1070
     0
1070
    40
1040
10.0
1070
   287
1070
     5
1070
    42
1040
2.0
1070
    44
1040
1.0
1070
    43
1040
7.0
1070
   141
1040
0.0
1070
   275
1070
     1
1070
    41
1040
2.0
1070
   285
1070
     8
1070
   286
1070
     8
1002
}
  0
LINE
  5
DB
330
B9
100
AcDbEntity
  8
HAIKIN
100
AcDbLine
 10
458.8790728049153
 20
248.9999977848381
 30
0.0
 11
838.8790728049153
 21
248.9999977848381
 31
0.0
  0
LINE
  5
DC
330
B9
100
AcDbEntity
  8
HAIKIN
100
AcDbLine
 10
227.8708607776939
 20
192.9999977848385
 30
0.0
 11
768.8790728049153
 21
192.9999977848385
 31
0.0
  0
LINE
  5
DD
330
B9
100
AcDbEntity
  8
HAIKIN
100
AcDbLine
 10
208.6527170171539
 20
252.9999977848381
 30
0.0
 11
698.8790728049153
 21
252.9999977848381
 31
0.0
  0
LINE
  5
DE
330
B9
100
AcDbEntity
  8
SUNPOU
100
AcDbLine
 10
378.8790728049153
 20
282.9999977848383
 30
0.0
 11
718.8790728049153
 21
282.9999977848383
 31
0.0
  0
LINE
  5
DF
330
B9
100
AcDbEntity
  8
HAIKIN
100
AcDbLine
 10
397.8740221710319
 20
184.0050484187216
 30
0.0
 11
199.8841234387987
 21
381.9949471509551
 31
0.0
  0
ARC
  5
E0
330
B9
100
AcDbEntity
  8
SUNPOU
100
AcDbCircle
 10
378.8790728049153
 20
362.9999977848383
 30
0.0
 40
80.0
100
AcDbArc
 50
180.0
 51
270.0
  0
ARC
  5
E1
330
B9
100
AcDbEntity
  8
HAIKIN
100
AcDbCircle
 10
227.8708607776939
 20
212.9999977848385
 30
0.0
 40
20.0
100
AcDbArc
 50
178.8746919035617
 51
270.0
  0
LWPOLYLINE
  5
E2
330
B9
100
AcDbEntity
  8
SUNPOU
100
AcDbPolyline
 90
        2
 70
     1
 43
2.95
 10
259.3540728049153
 20
200.9999977848386
 42
1.0
 10
262.4040728049152
 20
200.9999977848386
 42
1.0
  0
LWPOLYLINE
  5
E3
330
B9
100
AcDbEntity
  8
SUNPOU
100
AcDbPolyline
 90
        2
 70
     1
 43
2.95
 10
214.972117378513
 20
244.9999977848381
 42
1.0
 10
218.0221173785129
 20
244.9999977848381
 42
1.0
  0
LWPOLYLINE
  5
E4
330
B9
100
AcDbEntity
  8
SUNPOU
100
AcDbPolyline
 90
        2
 70
     1
 43
2.95
 10
259.3540728049153
 20
244.9999977848381
 42
1.0
 10
262.4040728049152
 20
244.9999977848381
 42
1.0
  0
POINT
  5
E5
330
B9
100
AcDbEntity
  8
TEN
100
AcDbPoint
 10
298.8790728049153
 20
282.9999977848383
 30
0.0
  0
LINE
  5
E6
330
B9
100
AcDbEntity
  8
HAIKIN
100
AcDbLine
 10
474.8790728049153
 20
262.9999977848383
 30
0.0
 11
474.8790728049153
 21
182.9999977848385
 31
0.0
  0
LWPOLYLINE
  5
E7
330
B9
100
AcDbEntity
  8
SUNPOU
100
AcDbPolyline
 90
        2
 70
     1
 43
2.95
 10
467.3540728049152
 20
200.9999977848385
 42
1.0
 10
470.4040728049154
 20
200.9999977848385
 42
1.0
  0
LWPOLYLINE
  5
E8
330
B9
100
AcDbEntity
  8
SUNPOU
100
AcDbPolyline
 90
        2
 70
     1
 43
2.95
 10
467.3540728049152
 20
244.9999977848383
 42
1.0
 10
470.4040728049154
 20
244.9999977848383
 42
1.0
  0
LWPOLYLINE
  5
E9
330
B9
100
AcDbEntity
  8
SUNPOU
100
AcDbPolyline
 90
        2
 70
     1
 43
2.95
 10
677.3540728049152
 20
200.9999977848385
 42
1.0
 10
680.4040728049154
 20
200.9999977848385
 42
1.0
  0
LWPOLYLINE
  5
EA
330
B9
100
AcDbEntity
  8
SUNPOU
100
AcDbPolyline
 90
        2
 70
     1
 43
2.95
 10
677.3540728049152
 20
244.9999977848383
 42
1.0
 10
680.4040728049154
 20
244.9999977848383
 42
1.0
  0
LINE
  5
EB
330
B9
100
AcDbEntity
  8
SUNPOU
100
AcDbLine
 10
718.8790728049153
 20
282.9999977848383
 30
0.0
 11
718.8790728049153
 21
222.9999977848385
 31
0.0
  0
LINE
  5
EC
330
B9
100
AcDbEntity
  8
SUNPOU
100
AcDbLine
 10
718.8790728049153
 20
222.9999977848385
 30
0.0
 11
798.8790728049153
 21
222.9999977848383
 31
0.0
  0
LINE
  5
ED
330
B9
100
AcDbEntity
  8
SUNPOU
100
AcDbLine
 10
798.8790728049153
 20
222.9999977848385
 30
0.0
 11
798.8790728049153
 21
162.9999977848383
 31
0.0
  0
CIRCLE
  5
EE
330
B9
100
AcDbEntity
  8
SUNPOU
100
AcDbCircle
 10
541.6878912985649
 20
655.1923364430108
 30
0.0
 40
19.81848743256705
  0
LWPOLYLINE
  5
EF
330
B9
100
AcDbEntity
  8
SUNPOU
100
AcDbPolyline
 90
        2
 70
     1
 43
2.95
 10
259.3540728049153
 20
507.9999977848383
 42
1.0
 10
262.4040728049152
 20
507.9999977848383
 42
1.0
  0
LWPOLYLINE
  5
F0
330
B9
100
AcDbEntity
  8
SUNPOU
100
AcDbPolyline
 90
        2
 70
     1
 43
2.95
 10
220.1381888070844
 20
507.9999977848383
 42
1.0
 10
223.1881888070843
 20
507.9999977848383
 42
1.0
  0
LINE
  5
F1
330
B9
100
AcDbEntity
  8
HAIKIN
100
AcDbLine
 10
208.5900737083125
 20
758.9999977848386
 30
0.0
 11
278.8790728049153
 21
758.9999977848386
 31
0.0
  0
CIRCLE
  5
F2
330
B9
100
AcDbEntity
  8
SUNPOU
100
AcDbCircle
 10
226.4756888070843
 20
752.9999977848386
 30
0.0
 40
9.252078666435409
  0
LWPOLYLINE
  5
F3
330
B9
100
AcDbEntity
  8
SUNPOU
100
AcDbPolyline
 90
        2
 70
     1
 43
2.95
 10
224.9506888070844
 20
752.9999977848383
 42
1.0
 10
228.0006888070843
 20
752.9999977848383
 42
1.0
  0
CIRCLE
  5
F4
330
B9
100
AcDbEntity
  8
SUNPOU
100
AcDbCircle
 10
260.8790728049153
 20
752.9999977848383
 30
0.0
 40
9.252078666435409
  0
LWPOLYLINE
  5
F5
330
B9
100
AcDbEntity
  8
SUNPOU
100
AcDbPolyline
 90
        2
 70
     1
 43
2.95
 10
259.3540728049153
 20
752.9999977848383
 42
1.0
 10
262.4040728049152
 20
752.9999977848383
 42
1.0
  0
TEXT
  5
F6
330
B9
100
AcDbEntity
  8
SUNPOU
100
AcDbText
 10
575.0837381635447
 20
642.4840412934614
 30
0.0
 40
25.0
  1
D10-11
100
AcDbText
  0
TEXT
  5
F7
330
B9
100
AcDbEntity
  8
SUNPOU
100
AcDbText
 10
532.8730096223753
 20
642.4840412934614
 30
0.0
 40
25.0
  1
5
100
AcDbText
  0
LEADER
  5
F8
330
B9
100
AcDbEntity
  8
SUNPOU
100
AcDbLeader
  3
STANDARD
 76
     2
 10
1440.067580811962
 20
507.9999977848388
 30
0.0
 10
1440.067580811962
 20
262.9999977848388
 30
0.0
1001
ACAD
1000
DSTYLE
1002
{
1070
    78
1070
     8
1070
   284
1070
     8
1070
   140
1040
2.5
1070
   145
1040
1.0
1070
    74
1070
     0
1070
    73
1070
     0
1070
    40
1040
10.0
1070
   287
1070
     5
1070
    42
1040
2.0
1070
    44
1040
1.0
1070
    43
1040
7.0
1070
   141
1040
0.0
1070
   275
1070
     1
1070
    41
1040
2.0
1070
   285
1070
     8
1070
   286
1070
     8
1002
}
  0
LEADER
  5
F9
330
B9
100
AcDbEntity
  8
SUNPOU
100
AcDbLeader
  3
STANDARD
 76
     3
 10
873.1205882131999
 20
196.9999977848383
 30
0.0
 10
873.1205882131999
 20
63.57780034866664
 30
0.0
 10
1153.335644594526
 20
63.57780034866664
 30
0.0
1001
ACAD
1000
DSTYLE
1002
{
1070
    78
1070
     8
1070
   284
1070
     8
1070
   140
1040
2.5
1070
   145
1040
1.0
1070
    74
1070
     0
1070
    73
1070
     0
1070
    40
1040
10.0
1070
   287
1070
     5
1070
    42
1040
2.0
1070
    44
1040
1.0
1070
    43
1040
7.0
1070
   141
1040
0.0
1070
   275
1070
     1
1070
    41
1040
2.0
1070
   285
1070
     8
1070
   286
1070
     8
1002
}
  0
CIRCLE
  5
FA
330
B9
100
AcDbEntity
  8
SUNPOU
100
AcDbCircle
 10
1005.109090488544
 20
83.3129908259757
 30
0.0
 40
19.81848743256705
  0
TEXT
  5
FB
330
B9
100
AcDbEntity
  8
SUNPOU
100
AcDbText
 10
996.2942088123546
 20
70.60469567642622
 30
0.0
 40
25.0
  1
9
100
AcDbText
  0
TEXT
  5
FC
330
B9
100
AcDbEntity
  8
SUNPOU
100
AcDbText
 10
1038.504937353524
 20
70.60469567642622
 30
0.0
 40
25.0
  1
D10-11
100
AcDbText
  0
CIRCLE
  5
FD
330
B9
100
AcDbEntity
  8
SUNPOU
100
AcDbCircle
 10
1007.062815760686
 20
370.286490924012
 30
0.0
 40
19.81848743256705
  0
TEXT
  5
FE
330
B9
100
AcDbEntity
  8
SUNPOU
100
AcDbText
 10
998.2479340844966
 20
357.5781957744625
 30
0.0
 40
25.0
  1
8
100
AcDbText
  0
TEXT
  5
FF
330
B9
100
AcDbEntity
  8
SUNPOU
100
AcDbText
 10
1040.458662625666
 20
357.5781957744625
 30
0.0
 40
25.0
  1
D10-11
100
AcDbText
  0
LEADER
  5
100
330
B9
100
AcDbEntity
  8
SUNPOU
100
AcDbLeader
  3
STANDARD
 76
     2
 10
1440.067580811962
 20
244.9999977848383
 30
0.0
 10
1440.067580811962
 20
-0.0000022151616577
 30
0.0
1001
ACAD
1000
DSTYLE
1002
{
1070
    78
1070
     8
1070
   284
1070
     8
1070
   140
1040
2.5
1070
   145
1040
1.0
1070
    74
1070
     0
1070
    73
1070
     0
1070
    40
1040
10.0
1070
   287
1070
     5
1070
    42
1040
2.0
1070
    44
1040
1.0
1070
    43
1040
7.0
1070
   141
1040
0.0
1070
   275
1070
     1
1070
    41
1040
2.0
1070
   285
1070
     8
1070
   286
1070
     8
1002
}
  0
LINE
  5
101
330
B9
100
AcDbEntity
  8
HAIKIN
100
AcDbLine
 10
1311.976822896288
 20
381.994947150955
 30
0.0
 11
1311.976822896288
 21
184.0050484187216
 31
0.0
  0
LWPOLYLINE
  5
102
330
B9
100
AcDbEntity
  8
SUNPOU
100
AcDbPolyline
 90
        2
 70
     1
 43
4.95
 10
1319.451822896287
 20
192.9999977848383
 42
1.0
 10
1324.501822896288
 20
192.9999977848383
 42
1.0
  0
LWPOLYLINE
  5
103
330
B9
100
AcDbEntity
  8
SUNPOU
100
AcDbPolyline
 90
        2
 70
     1
 43
4.95
 10
1319.451822896287
 20
252.999997784838
 42
1.0
 10
1324.501822896288
 20
252.999997784838
 42
1.0
  0
LINE
  5
104
330
B9
100
AcDbEntity
  8
HAIKIN
100
AcDbLine
 10
1503.976822896288
 20
381.994947150955
 30
0.0
 11
1503.976822896288
 21
184.0050484187216
 31
0.0
  0
LEADER
  5
105
330
B9
100
AcDbEntity
  8
SUNPOU
100
AcDbLeader
  3
STANDARD
 76
     2
 10
1440.067580811962
 20
752.9999977848388
 30
0.0
 10
1440.067580811962
 20
507.9999977848388
 30
0.0
1001
ACAD
1000
DSTYLE
1002
{
1070
    78
1070
     8
1070
   284
1070
     8
1070
   140
1040
2.5
1070
   145
1040
1.0
1070
    74
1070
     0
1070
    73
1070
     0
1070
    40
1040
10.0
1070
   287
1070
     5
1070
    42
1040
2.0
1070
    44
1040
1.0
1070
    43
1040
7.0
1070
   141
1040
0.0
1070
   275
1070
     1
1070
    41
1040
2.0
1070
   285
1070
     8
1070
   286
1070
     8
1002
}
  0
LEADER
  5
106
330
B9
100
AcDbEntity
  8
SUNPOU
100
AcDbLeader
  3
STANDARD
 76
     2
 10
268.8790728049153
 20
960.094388772236
 30
0.0
 10
603.3833909917175
 20
960.094388772236
 30
0.0
1001
ACAD
1000
DSTYLE
1002
{
1070
    78
1070
     8
1070
   284
1070
     8
1070
   140
1040
2.5
1070
   145
1040
1.0
1070
    74
1070
     0
1070
    73
1070
     0
1070
    40
1040
10.0
1070
   287
1070
     5
1070
    42
1040
2.0
1070
    44
1040
1.0
1070
    43
1040
7.0
1070
   141
1040
0.0
1070
   275
1070
     1
1070
    41
1040
2.0
1070
   285
1070
     8
1070
   286
1070
     8
1002
}
  0
LEADER
  5
107
330
B9
100
AcDbEntity
  8
SUNPOU
100
AcDbLeader
  3
STANDARD
 76
     2
 10
225.418026144049
 20
1106.506644244947
 30
0.0
 10
603.3833909917175
 20
1106.506644244947
 30
0.0
1001
ACAD
1000
DSTYLE
1002
{
1070
    78
1070
     8
1070
   284
1070
     8
1070
   140
1040
2.5
1070
   145
1040
1.0
1070
    74
1070
     0
1070
    73
1070
     0
1070
    40
1040
10.0
1070
   287
1070
     5
1070
    42
1040
2.0
1070
    44
1040
1.0
1070
    43
1040
7.0
1070
   141
1040
0.0
1070
   275
1070
     1
1070
    41
1040
2.0
1070
   285
1070
     8
1070
   286
1070
     8
1002
}
  0
TEXT
  5
108
330
B9
100
AcDbEntity
  8
SUNPOU
100
AcDbText
 10
490.3386072552476
 20
880.0804756740913
 30
0.0
 40
25.0
  1
D6-15
100
AcDbText
  0
TEXT
  5
109
330
B9
100
AcDbEntity
  8
SUNPOU
100
AcDbText
 10
488.552683750715
 20
967.1212840999956
 30
0.0
 40
25.0
  1
D10-11
100
AcDbText
  0
TEXT
  5
10A
330
B9
100
AcDbEntity
  8
SUNPOU
100
AcDbText
 10
488.552683750715
 20
1113.533539572707
 30
0.0
 40
25.0
  1
D10-11
100
AcDbText
  0
LWPOLYLINE
  5
10B
330
B9
100
AcDbEntity
  8
SUNPOU
100
AcDbPolyline
 90
        2
 70
     1
 43
2.95
 10
229.7631888070844
 20
997.9999977848383
 42
1.0
 10
232.8131888070843
 20
997.9999977848383
 42
1.0
  0
LWPOLYLINE
  5
10C
330
B9
100
AcDbEntity
  8
SUNPOU
100
AcDbPolyline
 90
        2
 70
     1
 43
2.95
 10
259.3540728049152
 20
997.9999977848383
 42
1.0
 10
262.4040728049151
 20
997.9999977848383
 42
1.0
  0
CIRCLE
  5
10D
330
B9
100
AcDbEntity
  8
SUNPOU
100
AcDbCircle
 10
455.1568368857352
 20
979.8295792495451
 30
0.0
 40
19.81848743256705
  0
TEXT
  5
10E
330
B9
100
AcDbEntity
  8
SUNPOU
100
AcDbText
 10
446.3419552095456
 20
967.1212840999956
 30
0.0
 40
25.0
  1
3
100
AcDbText
  0
CIRCLE
  5
10F
330
B9
100
AcDbEntity
  8
SUNPOU
100
AcDbCircle
 10
456.9427603902677
 20
892.7887708236408
 30
0.0
 40
19.81848743256705
  0
TEXT
  5
110
330
B9
100
AcDbEntity
  8
SUNPOU
100
AcDbText
 10
448.1278787140782
 20
880.0804756740913
 30
0.0
 40
25.0
  1
6
100
AcDbText
  0
LINE
  5
111
330
B9
100
AcDbEntity
  8
SUNPOU
100
AcDbLine
 10
198.8790728049153
 20
1282.999997784838
 30
0.0
 11
298.8790728049153
 21
1282.999997784838
 31
0.0
  0
LINE
  5
112
330
B9
100
AcDbEntity
  8
HAIKIN
100
AcDbLine
 10
218.2150737083125
 20
1248.999997784838
 30
0.0
 11
278.8790728049153
 21
1248.999997784838
 31
0.0
  0
LWPOLYLINE
  5
113
330
B9
100
AcDbEntity
  8
SUNPOU
100
AcDbPolyline
 90
        2
 70
     1
 43
2.95
 10
234.5756888070845
 20
1242.999997784838
 42
1.0
 10
237.6256888070844
 20
1242.999997784838
 42
1.0
  0
LWPOLYLINE
  5
114
330
B9
100
AcDbEntity
  8
SUNPOU
100
AcDbPolyline
 90
        2
 70
     1
 43
2.95
 10
259.3540728049152
 20
1242.999997784838
 42
1.0
 10
262.4040728049151
 20
1242.999997784838
 42
1.0
  0
CIRCLE
  5
115
330
B9
100
AcDbEntity
  8
SUNPOU
100
AcDbCircle
 10
455.1568368857352
 20
1126.241834722256
 30
0.0
 40
19.81848743256705
  0
TEXT
  5
116
330
B9
100
AcDbEntity
  8
SUNPOU
100
AcDbText
 10
450.7365677188227
 20
1113.533539572707
 30
0.0
 40
25.0
  1
1
100
AcDbText
  0
LEADER
  5
117
330
B9
100
AcDbEntity
  8
SUNPOU
100
AcDbLeader
  3
STANDARD
 76
     2
 10
1321.976822896288
 20
1106.506644244947
 30
0.0
 10
1129.976822896288
 20
1106.506644244947
 30
0.0
1001
ACAD
1000
DSTYLE
1002
{
1070
    78
1070
     8
1070
   284
1070
     8
1070
   140
1040
2.5
1070
   145
1040
1.0
1070
    74
1070
     0
1070
    73
1070
     0
1070
    40
1040
10.0
1070
   287
1070
     5
1070
    42
1040
2.0
1070
    44
1040
1.0
1070
    43
1040
7.0
1070
   141
1040
0.0
1070
   275
1070
     1
1070
    41
1040
2.0
1070
   285
1070
     8
1070
   286
1070
     8
1002
}
  0
TEXT
  5
118
330
B9
100
AcDbEntity
  8
SUNPOU
100
AcDbText
 10
1082.483818494316
 20
1113.533539572706
 30
0.0
 40
25.0
  1
D10-11
100
AcDbText
  0
CIRCLE
  5
119
330
B9
100
AcDbEntity
  8
SUNPOU
100
AcDbCircle
 10
1031.923757540886
 20
1126.241834722256
 30
0.0
 40
19.81848743256705
  0
CIRCLE
  5
11A
330
B9
100
AcDbEntity
  8
SUNPOU
100
AcDbCircle
 10
977.5826870844558
 20
1126.241834722256
 30
0.0
 40
19.81848743256705
  0
TEXT
  5
11B
330
B9
100
AcDbEntity
  8
SUNPOU
100
AcDbText
 10
973.1624179175433
 20
1113.533539572706
 30
0.0
 40
25.0
  1
1
100
AcDbText
  0
TEXT
  5
11C
330
B9
100
AcDbEntity
  8
SUNPOU
100
AcDbText
 10
1024.946269986913
 20
1113.533539572706
 30
0.0
 40
25.0
  1
3
100
AcDbText
  0
LINE
  5
11D
330
B9
100
AcDbEntity
  8
HAIKIN
100
AcDbLine
 10
2281.976822896288
 20
1262.999997784838
 30
0.0
 11
2281.976822896289
 21
192.9999977848383
 31
0.0
  0
LINE
  5
11E
330
B9
100
AcDbEntity
  8
HAIKIN
100
AcDbLine
 10
2089.976822896288
 20
1262.999997784839
 30
0.0
 11
2089.976822896288
 21
192.9999977848383
 31
0.0
  0
LINE
  5
11F
330
B9
100
AcDbEntity
  8
HAIKIN
100
AcDbLine
 10
1897.976822896288
 20
1262.999997784839
 30
0.0
 11
1897.976822896288
 21
192.9999977848383
 31
0.0
  0
LINE
  5
120
330
B9
100
AcDbEntity
  8
HAIKIN
100
AcDbLine
 10
1705.976822896288
 20
1262.999997784839
 30
0.0
 11
1705.976822896288
 21
192.9999977848383
 31
0.0
  0
LINE
  5
121
330
B9
100
AcDbEntity
  8
HAIKIN
100
AcDbLine
 10
1513.976822896288
 20
1262.999997784839
 30
0.0
 11
1513.976822896288
 21
192.9999977848383
 31
0.0
  0
LINE
  5
122
330
B9
100
AcDbEntity
  8
SEIHIN
100
AcDbLine
 10
3281.976822896288
 20
1282.999997784838
 30
0.0
 11
3281.976822896288
 21
162.9999977848383
 31
0.0
  0
LEADER
  5
123
330
B9
100
AcDbEntity
  8
SUNPOU
100
AcDbLeader
  3
STANDARD
 76
     2
 10
1887.976822896288
 20
309.0026842404862
 30
0.0
 10
2079.976822896288
 20
309.0026842404862
 30
0.0
1001
ACAD
1000
DSTYLE
1002
{
1070
    78
1070
     8
1070
   284
1070
     8
1070
   140
1040
2.5
1070
   145
1040
1.0
1070
    74
1070
     0
1070
    73
1070
     0
1070
    40
1040
10.0
1070
   287
1070
     5
1070
    42
1040
2.0
1070
    44
1040
1.0
1070
    43
1040
7.0
1070
   141
1040
0.0
1070
   275
1070
     1
1070
    41
1040
2.0
1070
   285
1070
     8
1070
   286
1070
     8
1002
}
  0
LEADER
  5
124
330
B9
100
AcDbEntity
  8
SUNPOU
100
AcDbLeader
  3
STANDARD
 76
     2
 10
1695.976822896288
 20
309.0026842404862
 30
0.0
 10
1887.976822896288
 20
309.0026842404862
 30
0.0
1001
ACAD
1000
DSTYLE
1002
{
1070
    78
1070
     8
1070
   284
1070
     8
1070
   140
1040
2.5
1070
   145
1040
1.0
1070
    74
1070
     0
1070
    73
1070
     0
1070
    40
1040
10.0
1070
   287
1070
     5
1070
    42
1040
2.0
1070
    44
1040
1.0
1070
    43
1040
7.0
1070
   141
1040
0.0
1070
   275
1070
     1
1070
    41
1040
2.0
1070
   285
1070
     8
1070
   286
1070
     8
1002
}
  0
LINE
  5
125
330
B9
100
AcDbEntity
  8
SEIHIN
100
AcDbLine
 10
2281.976822896287
 20
282.9999977848383
 30
0.0
 11
3281.976822896288
 21
282.9999977848383
 31
0.0
  0
LINE
  5
126
330
B9
100
AcDbEntity
  8
SEIHIN
100
AcDbLine
 10
2281.976822896287
 20
222.9999977848383
 30
0.0
 11
3281.976822896288
 21
222.9999977848383
 31
0.0
  0
LINE
  5
127
330
B9
100
AcDbEntity
  8
SEIHIN
100
AcDbLine
 10
2281.976822896287
 20
162.9999977848383
 30
0.0
 11
3281.976822896288
 21
162.9999977848383
 31
0.0
  0
LEADER
  5
128
330
B9
100
AcDbEntity
  8
SUNPOU
100
AcDbLeader
  3
STANDARD
 76
     2
 10
2271.976822896289
 20
309.0026842404856
 30
0.0
 10
2079.976822896289
 20
309.0026842404856
 30
0.0
1001
ACAD
1000
DSTYLE
1002
{
1070
    78
1070
     8
1070
   284
1070
     8
1070
   140
1040
2.5
1070
   145
1040
1.0
1070
    74
1070
     0
1070
    73
1070
     0
1070
    40
1040
10.0
1070
   287
1070
     5
1070
    42
1040
2.0
1070
    44
1040
1.0
1070
    43
1040
7.0
1070
   141
1040
0.0
1070
   275
1070
     1
1070
    41
1040
2.0
1070
   285
1070
     8
1070
   286
1070
     8
1002
}
  0
LINE
  5
129
330
B9
100
AcDbEntity
  8
HAIKIN
100
AcDbLine
 10
1695.976822896288
 20
381.994947150955
 30
0.0
 11
1695.976822896288
 21
184.0050484187216
 31
0.0
  0
LWPOLYLINE
  5
12A
330
B9
100
AcDbEntity
  8
SUNPOU
100
AcDbPolyline
 90
        2
 70
     1
 43
4.95
 10
1703.451822896287
 20
192.9999977848383
 42
1.0
 10
1708.501822896288
 20
192.9999977848383
 42
1.0
  0
LWPOLYLINE
  5
12B
330
B9
100
AcDbEntity
  8
SUNPOU
100
AcDbPolyline
 90
        2
 70
     1
 43
4.95
 10
1703.451822896287
 20
252.999997784838
 42
1.0
 10
1708.501822896288
 20
252.999997784838
 42
1.0
  0
LEADER
  5
12C
330
B9
100
AcDbEntity
  8
SUNPOU
100
AcDbLeader
  3
STANDARD
 76
     2
 10
2079.976822896288
 20
309.0026842404858
 30
0.0
 10
1887.976822896288
 20
309.0026842404858
 30
0.0
1001
ACAD
1000
DSTYLE
1002
{
1070
    78
1070
     8
1070
   284
1070
     8
1070
   140
1040
2.5
1070
   145
1040
1.0
1070
    74
1070
     0
1070
    73
1070
     0
1070
    40
1040
10.0
1070
   287
1070
     5
1070
    42
1040
2.0
1070
    44
1040
1.0
1070
    43
1040
7.0
1070
   141
1040
0.0
1070
   275
1070
     1
1070
    41
1040
2.0
1070
   285
1070
     8
1070
   286
1070
     8
1002
}
  0
LINE
  5
12D
330
B9
100
AcDbEntity
  8
HAIKIN
100
AcDbLine
 10
1887.976822896288
 20
381.994947150955
 30
0.0
 11
1887.976822896288
 21
184.0050484187216
 31
0.0
  0
LWPOLYLINE
  5
12E
330
B9
100
AcDbEntity
  8
SUNPOU
100
AcDbPolyline
 90
        2
 70
     1
 43
4.95
 10
1895.451822896287
 20
192.9999977848383
 42
1.0
 10
1900.501822896288
 20
192.9999977848383
 42
1.0
  0
LWPOLYLINE
  5
12F
330
B9
100
AcDbEntity
  8
SUNPOU
100
AcDbPolyline
 90
        2
 70
     1
 43
4.95
 10
1895.451822896287
 20
252.999997784838
 42
1.0
 10
1900.501822896288
 20
252.999997784838
 42
1.0
  0
LINE
  5
130
330
B9
100
AcDbEntity
  8
HAIKIN
100
AcDbLine
 10
2079.976822896288
 20
381.994947150955
 30
0.0
 11
2079.976822896288
 21
184.0050484187216
 31
0.0
  0
LWPOLYLINE
  5
131
330
B9
100
AcDbEntity
  8
SUNPOU
100
AcDbPolyline
 90
        2
 70
     1
 43
4.95
 10
2087.451822896287
 20
192.9999977848383
 42
1.0
 10
2092.501822896288
 20
192.9999977848383
 42
1.0
  0
LWPOLYLINE
  5
132
330
B9
100
AcDbEntity
  8
SUNPOU
100
AcDbPolyline
 90
        2
 70
     1
 43
4.95
 10
2087.451822896287
 20
252.999997784838
 42
1.0
 10
2092.501822896288
 20
252.999997784838
 42
1.0
  0
LINE
  5
133
330
B9
100
AcDbEntity
  8
1HASEN
100
AcDbLine
 10
2281.976822896288
 20
162.9999977848383
 30
0.0
 11
2281.976822896288
 21
62.99999778483834
 31
0.0
  0
LINE
  5
134
330
B9
100
AcDbEntity
  8
HAIKIN
100
AcDbLine
 10
2271.976822896288
 20
381.994947150955
 30
0.0
 11
2271.976822896288
 21
184.0050484187216
 31
0.0
  0
LWPOLYLINE
  5
135
330
B9
100
AcDbEntity
  8
SUNPOU
100
AcDbPolyline
 90
        2
 70
     1
 43
4.95
 10
2279.451822896287
 20
192.9999977848383
 42
1.0
 10
2284.501822896288
 20
192.9999977848383
 42
1.0
  0
LWPOLYLINE
  5
136
330
B9
100
AcDbEntity
  8
SUNPOU
100
AcDbPolyline
 90
        2
 70
     1
 43
4.95
 10
2279.451822896287
 20
252.999997784838
 42
1.0
 10
2284.501822896288
 20
252.999997784838
 42
1.0
  0
LWPOLYLINE
  5
137
330
B9
100
AcDbEntity
  8
SUNPOU
100
AcDbPolyline
 90
        2
 70
     1
 43
4.95
 10
2476.501822896288
 20
192.9999977848399
 42
-1.0
 10
2471.451822896288
 20
192.9999977848399
 42
-1.0
  0
LWPOLYLINE
  5
138
330
B9
100
AcDbEntity
  8
SUNPOU
100
AcDbPolyline
 90
        2
 70
     1
 43
4.95
 10
2476.501822896288
 20
252.9999977848396
 42
-1.0
 10
2471.451822896287
 20
252.9999977848396
 42
-1.0
  0
LWPOLYLINE
  5
139
330
B9
100
AcDbEntity
  8
SUNPOU
100
AcDbPolyline
 90
        2
 70
     1
 43
4.95
 10
2668.501822896288
 20
192.9999977848415
 42
-1.0
 10
2663.451822896288
 20
192.9999977848415
 42
-1.0
  0
LWPOLYLINE
  5
13A
330
B9
100
AcDbEntity
  8
SUNPOU
100
AcDbPolyline
 90
        2
 70
     1
 43
4.95
 10
2668.501822896288
 20
252.9999977848412
 42
-1.0
 10
2663.451822896287
 20
252.9999977848412
 42
-1.0
  0
LWPOLYLINE
  5
13B
330
B9
100
AcDbEntity
  8
SUNPOU
100
AcDbPolyline
 90
        2
 70
     1
 43
4.95
 10
2860.501822896288
 20
192.9999977848431
 42
-1.0
 10
2855.451822896288
 20
192.9999977848431
 42
-1.0
  0
LWPOLYLINE
  5
13C
330
B9
100
AcDbEntity
  8
SUNPOU
100
AcDbPolyline
 90
        2
 70
     1
 43
4.95
 10
2860.501822896288
 20
252.9999977848428
 42
-1.0
 10
2855.451822896287
 20
252.9999977848428
 42
-1.0
  0
LWPOLYLINE
  5
13D
330
B9
100
AcDbEntity
  8
SUNPOU
100
AcDbPolyline
 90
        2
 70
     1
 43
4.95
 10
3052.501822896288
 20
192.9999977848447
 42
-1.0
 10
3047.451822896288
 20
192.9999977848447
 42
-1.0
  0
LWPOLYLINE
  5
13E
330
B9
100
AcDbEntity
  8
SUNPOU
100
AcDbPolyline
 90
        2
 70
     1
 43
4.95
 10
3052.501822896288
 20
252.9999977848444
 42
-1.0
 10
3047.451822896287
 20
252.9999977848444
 42
-1.0
  0
LWPOLYLINE
  5
13F
330
B9
100
AcDbEntity
  8
SUNPOU
100
AcDbPolyline
 90
        2
 70
     1
 43
4.95
 10
3244.501822896288
 20
192.9999977848463
 42
-1.0
 10
3239.451822896288
 20
192.9999977848463
 42
-1.0
  0
LWPOLYLINE
  5
140
330
B9
100
AcDbEntity
  8
SUNPOU
100
AcDbPolyline
 90
        2
 70
     1
 43
4.95
 10
3244.501822896288
 20
252.999997784846
 42
-1.0
 10
3239.451822896287
 20
252.999997784846
 42
-1.0
  0
LINE
  5
141
330
B9
100
AcDbEntity
  8
SEIHIN
100
AcDbLine
 10
2281.976822896288
 20
1282.999997784838
 30
0.0
 11
3281.976822896288
 21
1282.999997784838
 31
0.0
  0
LEADER
  5
142
330
B9
100
AcDbEntity
  8
SUNPOU
100
AcDbLeader
  3
STANDARD
 76
     2
 10
2281.976822896288
 20
1106.506644244946
 30
0.0
 10
2089.976822896288
 20
1106.506644244946
 30
0.0
1001
ACAD
1000
DSTYLE
1002
{
1070
    78
1070
     8
1070
   284
1070
     8
1070
   140
1040
2.5
1070
   145
1040
1.0
1070
    74
1070
     0
1070
    73
1070
     0
1070
    40
1040
10.0
1070
   287
1070
     5
1070
    42
1040
2.0
1070
    44
1040
1.0
1070
    43
1040
7.0
1070
   141
1040
0.0
1070
   275
1070
     1
1070
    41
1040
2.0
1070
   285
1070
     8
1070
   286
1070
     8
1002
}
  0
LEADER
  5
143
330
B9
100
AcDbEntity
  8
SUNPOU
100
AcDbLeader
  3
STANDARD
 76
     2
 10
1897.976822896288
 20
1106.506644244947
 30
0.0
 10
1705.976822896288
 20
1106.506644244947
 30
0.0
1001
ACAD
1000
DSTYLE
1002
{
1070
    78
1070
     8
1070
   284
1070
     8
1070
   140
1040
2.5
1070
   145
1040
1.0
1070
    74
1070
     0
1070
    73
1070
     0
1070
    40
1040
10.0
1070
   287
1070
     5
1070
    42
1040
2.0
1070
    44
1040
1.0
1070
    43
1040
7.0
1070
   141
1040
0.0
1070
   275
1070
     1
1070
    41
1040
2.0
1070
   285
1070
     8
1070
   286
1070
     8
1002
}
  0
LEADER
  5
144
330
B9
100
AcDbEntity
  8
SUNPOU
100
AcDbLeader
  3
STANDARD
 76
     2
 10
1705.976822896288
 20
1106.506644244947
 30
0.0
 10
1513.976822896288
 20
1106.506644244947
 30
0.0
1001
ACAD
1000
DSTYLE
1002
{
1070
    78
1070
     8
1070
   284
1070
     8
1070
   140
1040
2.5
1070
   145
1040
1.0
1070
    74
1070
     0
1070
    73
1070
     0
1070
    40
1040
10.0
1070
   287
1070
     5
1070
    42
1040
2.0
1070
    44
1040
1.0
1070
    43
1040
7.0
1070
   141
1040
0.0
1070
   275
1070
     1
1070
    41
1040
2.0
1070
   285
1070
     8
1070
   286
1070
     8
1002
}
  0
LEADER
  5
145
330
B9
100
AcDbEntity
  8
SUNPOU
100
AcDbLeader
  3
STANDARD
 76
     2
 10
2089.976822896288
 20
1106.506644244947
 30
0.0
 10
1897.976822896288
 20
1106.506644244947
 30
0.0
1001
ACAD
1000
DSTYLE
1002
{
1070
    78
1070
     8
1070
   284
1070
     8
1070
   140
1040
2.5
1070
   145
1040
1.0
1070
    74
1070
     0
1070
    73
1070
     0
1070
    40
1040
10.0
1070
   287
1070
     5
1070
    42
1040
2.0
1070
    44
1040
1.0
1070
    43
1040
7.0
1070
   141
1040
0.0
1070
   275
1070
     1
1070
    41
1040
2.0
1070
   285
1070
     8
1070
   286
1070
     8
1002
}
  0
LINE
  5
146
330
B9
100
AcDbEntity
  8
1HASEN
100
AcDbLine
 10
2281.976822896288
 20
1382.999997784839
 30
0.0
 11
2281.976822896288
 21
1282.999997784838
 31
0.0
  0
ENDBLK
  5
148
330
B9
100
AcDbEntity
  8
0
100
AcDbBlockEnd
  0
BLOCK
  5
57B
330
57A
100
AcDbEntity
  8
0
100
AcDbBlockBegin
  2
*D8
 70
     1
 10
0.0
 20
0.0
 30
0.0
  3
*D8
  1

  0
LINE
  5
1E06
330
57A
100
AcDbEntity
  8
SUNPOU
 62
     0
440
 16777216
370
    -2
100
AcDbLine
 10
4667.48632149221
 20
4269.079370884769
 30
0.0
 11
4667.48632149221
 21
4667.986181300803
 31
0.0
  0
LINE
  5
1E07
330
57A
100
AcDbEntity
  8
SUNPOU
 62
     0
440
 16777216
370
    -2
100
AcDbLine
 10
6667.48632149221
 20
4269.079370884769
 30
0.0
 11
6667.48632149221
 21
4667.986181300803
 31
0.0
  0
LINE
  5
1E08
330
57A
100
AcDbEntity
  8
SUNPOU
 62
     0
440
 16777216
370
    -2
100
AcDbLine
 10
4707.48632149221
 20
4657.986181300803
 30
0.0
 11
6627.48632149221
 21
4657.986181300803
 31
0.0
  0
SOLID
  5
1E09
330
57A
100
AcDbEntity
  8
SUNPOU
 62
     0
440
 16777216
100
AcDbTrace
 10
4707.48632149221
 20
4664.65284796747
 30
0.0
 11
4707.48632149221
 21
4651.319514634136
 31
0.0
 12
4667.48632149221
 22
4657.986181300803
 32
0.0
 13
4667.48632149221
 23
4657.986181300803
 33
0.0
  0
SOLID
  5
1E0A
330
57A
100
AcDbEntity
  8
SUNPOU
 62
     0
440
 16777216
100
AcDbTrace
 10
6627.48632149221
 20
4664.65284796747
 30
0.0
 11
6627.48632149221
 21
4651.319514634136
 31
0.0
 12
6667.48632149221
 22
4657.986181300803
 32
0.0
 13
6667.48632149221
 23
4657.986181300803
 33
0.0
  0
MTEXT
  5
1E0B
330
57A
100
AcDbEntity
  8
SUNPOU
 62
     0
440
 16777216
100
AcDbMText
 10
5667.48632149221
 20
4696.986181300803
 30
0.0
 40
50.0
 41
0.0
 71
     5
 72
     1
  1
\A1;2000
 73
     1
 44
1.0
  0
POINT
  5
1E0C
330
57A
100
AcDbEntity
  8
DEFPOINTS
 62
     0
440
 16777216
100
AcDbPoint
 10
4667.48632149221
 20
4229.079370884769
 30
0.0
  0
POINT
  5
1E0D
330
57A
100
AcDbEntity
  8
DEFPOINTS
 62
     0
440
 16777216
100
AcDbPoint
 10
6667.48632149221
 20
4229.079370884769
 30
0.0
  0
POINT
  5
1E0E
330
57A
100
AcDbEntity
  8
DEFPOINTS
 62
     0
440
 16777216
100
AcDbPoint
 10
6667.48632149221
 20
4657.986181300803
 30
0.0
  0
ENDBLK
  5
585
330
57A
100
AcDbEntity
  8
0
100
AcDbBlockEnd
  0
BLOCK
  5
EE7
330
5E3
100
AcDbEntity
  8
0
100
AcDbBlockBegin
  2
*D9
 70
     1
 10
0.0
 20
0.0
 30
0.0
  3
*D9
  1

  0
LINE
  5
1E18
330
5E3
100
AcDbEntity
  8
SUNPOU
 62
     0
440
 16777216
370
    -2
100
AcDbLine
 10
6707.48632149221
 20
2674.079370884769
 30
0.0
 11
7099.682318851148
 21
2674.079370884769
 31
0.0
  0
LINE
  5
1E19
330
5E3
100
AcDbEntity
  8
SUNPOU
 62
     0
440
 16777216
370
    -2
100
AcDbLine
 10
6699.98632149221
 20
2829.079370884768
 30
0.0
 11
7099.682318851148
 21
2829.079370884768
 31
0.0
  0
LINE
  5
1E1A
330
5E3
100
AcDbEntity
  8
SUNPOU
 62
     0
440
 16777216
370
    -2
100
AcDbLine
 10
7089.682318851148
 20
2714.079370884769
 30
0.0
 11
7089.682318851148
 21
2789.079370884768
 31
0.0
  0
SOLID
  5
1E1B
330
5E3
100
AcDbEntity
  8
SUNPOU
 62
     0
440
 16777216
100
AcDbTrace
 10
7083.015652184481
 20
2714.079370884769
 30
0.0
 11
7096.348985517815
 21
2714.079370884769
 31
0.0
 12
7089.682318851148
 22
2674.079370884769
 32
0.0
 13
7089.682318851148
 23
2674.079370884769
 33
0.0
  0
SOLID
  5
1E1C
330
5E3
100
AcDbEntity
  8
SUNPOU
 62
     0
440
 16777216
100
AcDbTrace
 10
7083.015652184481
 20
2789.079370884768
 30
0.0
 11
7096.348985517815
 21
2789.079370884768
 31
0.0
 12
7089.682318851148
 22
2829.079370884768
 32
0.0
 13
7089.682318851148
 23
2829.079370884768
 33
0.0
  0
MTEXT
  5
1E1D
330
5E3
100
AcDbEntity
  8
SUNPOU
 62
     0
440
 16777216
100
AcDbMText
 10
7050.682318851147
 20
2751.579370884769
 30
0.0
 40
50.0
 41
0.0
 71
     5
 72
     1
  1
\A1;155
 11
6.123031769111886E-17
 21
1.0
 31
0.0
 73
     1
 44
1.0
  0
POINT
  5
1E1E
330
5E3
100
AcDbEntity
  8
DEFPOINTS
 62
     0
440
 16777216
100
AcDbPoint
 10
6667.48632149221
 20
2674.079370884769
 30
0.0
  0
POINT
  5
1E1F
330
5E3
100
AcDbEntity
  8
DEFPOINTS
 62
     0
440
 16777216
100
AcDbPoint
 10
6659.98632149221
 20
2829.079370884768
 30
0.0
  0
POINT
  5
1E20
330
5E3
100
AcDbEntity
  8
DEFPOINTS
 62
     0
440
 16777216
100
AcDbPoint
 10
7089.682318851148
 20
2829.079370884768
 30
0.0
  0
ENDBLK
  5
EF1
330
5E3
100
AcDbEntity
  8
0
100
AcDbBlockEnd
  0
BLOCK
  5
EB5
330
5F0
100
AcDbEntity
  8
0
100
AcDbBlockBegin
  2
*D10
 70
     1
 10
0.0
 20
0.0
 30
0.0
  3
*D10
  1

  0
LINE
  5
1E21
330
5F0
100
AcDbEntity
  8
SUNPOU
 62
     0
440
 16777216
370
    -2
100
AcDbLine
 10
6707.48632149221
 20
4229.079370884769
 30
0.0
 11
7099.682318851148
 21
4229.079370884769
 31
0.0
  0
LINE
  5
1E22
330
5F0
100
AcDbEntity
  8
SUNPOU
 62
     0
440
 16777216
370
    -2
100
AcDbLine
 10
6699.98632149221
 20
2829.079370884768
 30
0.0
 11
7099.682318851148
 21
2829.079370884768
 31
0.0
  0
LINE
  5
1E23
330
5F0
100
AcDbEntity
  8
SUNPOU
 62
     0
440
 16777216
370
    -2
100
AcDbLine
 10
7089.682318851148
 20
4189.079370884769
 30
0.0
 11
7089.682318851148
 21
2869.079370884768
 31
0.0
  0
SOLID
  5
1E24
330
5F0
100
AcDbEntity
  8
SUNPOU
 62
     0
440
 16777216
100
AcDbTrace
 10
7083.015652184481
 20
4189.079370884769
 30
0.0
 11
7096.348985517815
 21
4189.079370884769
 31
0.0
 12
7089.682318851148
 22
4229.079370884769
 32
0.0
 13
7089.682318851148
 23
4229.079370884769
 33
0.0
  0
SOLID
  5
1E25
330
5F0
100
AcDbEntity
  8
SUNPOU
 62
     0
440
 16777216
100
AcDbTrace
 10
7083.015652184481
 20
2869.079370884768
 30
0.0
 11
7096.348985517815
 21
2869.079370884768
 31
0.0
 12
7089.682318851148
 22
2829.079370884768
 32
0.0
 13
7089.682318851148
 23
2829.079370884768
 33
0.0
  0
MTEXT
  5
1E26
330
5F0
100
AcDbEntity
  8
SUNPOU
 62
     0
440
 16777216
100
AcDbMText
 10
7050.682318851147
 20
3529.07937088477
 30
0.0
 40
50.0
 41
0.0
 71
     5
 72
     1
  1
\A1;1400
 11
6.123031769111886E-17
 21
1.0
 31
0.0
 73
     1
 44
1.0
  0
POINT
  5
1E27
330
5F0
100
AcDbEntity
  8
DEFPOINTS
 62
     0
440
 16777216
100
AcDbPoint
 10
6667.48632149221
 20
4229.079370884769
 30
0.0
  0
POINT
  5
1E28
330
5F0
100
AcDbEntity
  8
DEFPOINTS
 62
     0
440
 16777216
100
AcDbPoint
 10
6659.98632149221
 20
2829.079370884768
 30
0.0
  0
POINT
  5
1E29
330
5F0
100
AcDbEntity
  8
DEFPOINTS
 62
     0
440
 16777216
100
AcDbPoint
 10
7089.682318851148
 20
2829.079370884768
 30
0.0
  0
ENDBLK
  5
EBF
330
5F0
100
AcDbEntity
  8
0
100
AcDbBlockEnd
  0
BLOCK
  5
EF2
330
5FD
100
AcDbEntity
  8
0
100
AcDbBlockBegin
  2
*D11
 70
     1
 10
0.0
 20
0.0
 30
0.0
  3
*D11
  1

  0
LINE
  5
1E2A
330
5FD
100
AcDbEntity
  8
SUNPOU
 62
     0
440
 16777216
370
    -2
100
AcDbLine
 10
6707.48632149221
 20
4229.079370884769
 30
0.0
 11
7232.05063050324
 21
4229.079370884769
 31
0.0
  0
LINE
  5
1E2B
330
5FD
100
AcDbEntity
  8
SUNPOU
 62
     0
440
 16777216
370
    -2
100
AcDbLine
 10
6707.48632149221
 20
2674.079370884769
 30
0.0
 11
7232.05063050324
 21
2674.079370884768
 31
0.0
  0
LINE
  5
1E2C
330
5FD
100
AcDbEntity
  8
SUNPOU
 62
     0
440
 16777216
370
    -2
100
AcDbLine
 10
7222.05063050324
 20
4189.079370884769
 30
0.0
 11
7222.05063050324
 21
2714.079370884768
 31
0.0
  0
SOLID
  5
1E2D
330
5FD
100
AcDbEntity
  8
SUNPOU
 62
     0
440
 16777216
100
AcDbTrace
 10
7215.383963836573
 20
4189.079370884769
 30
0.0
 11
7228.717297169906
 21
4189.079370884769
 31
0.0
 12
7222.05063050324
 22
4229.079370884769
 32
0.0
 13
7222.05063050324
 23
4229.079370884769
 33
0.0
  0
SOLID
  5
1E2E
330
5FD
100
AcDbEntity
  8
SUNPOU
 62
     0
440
 16777216
100
AcDbTrace
 10
7215.383963836573
 20
2714.079370884768
 30
0.0
 11
7228.717297169906
 21
2714.079370884768
 31
0.0
 12
7222.05063050324
 22
2674.079370884768
 32
0.0
 13
7222.05063050324
 23
2674.079370884768
 33
0.0
  0
MTEXT
  5
1E2F
330
5FD
100
AcDbEntity
  8
SUNPOU
 62
     0
440
 16777216
100
AcDbMText
 10
7183.050630503239
 20
3451.57937088477
 30
0.0
 40
50.0
 41
0.0
 71
     5
 72
     1
  1
\A1;1555
 11
6.123031769111886E-17
 21
1.0
 31
0.0
 73
     1
 44
1.0
  0
POINT
  5
1E30
330
5FD
100
AcDbEntity
  8
DEFPOINTS
 62
     0
440
 16777216
100
AcDbPoint
 10
6667.48632149221
 20
4229.079370884769
 30
0.0
  0
POINT
  5
1E31
330
5FD
100
AcDbEntity
  8
DEFPOINTS
 62
     0
440
 16777216
100
AcDbPoint
 10
6667.48632149221
 20
2674.079370884769
 30
0.0
  0
POINT
  5
1E32
330
5FD
100
AcDbEntity
  8
DEFPOINTS
 62
     0
440
 16777216
100
AcDbPoint
 10
7222.05063050324
 20
2674.079370884768
 30
0.0
  0
ENDBLK
  5
EFC
330
5FD
100
AcDbEntity
  8
0
100
AcDbBlockEnd
  0
BLOCK
  5
F0E
330
F05
100
AcDbEntity
  8
0
100
AcDbBlockBegin
  2
*D24
 70
     1
 10
0.0
 20
0.0
 30
0.0
  3
*D24
  1

  0
LINE
  5
1D74
330
F05
100
AcDbEntity
  8
SUNPOU
 62
     0
440
 16777216
370
    -2
100
AcDbLine
 10
2676.680029666622
 20
2929.079370884768
 30
0.0
 11
2631.900108756848
 21
2889.144941086479
 31
0.0
  0
MTEXT
  5
1D75
330
F05
100
AcDbEntity
  8
SUNPOU
 62
     0
440
 16777216
100
AcDbMText
 10
2747.878852149479
 20
2997.050066805794
 30
0.0
 40
50.0
 41
0.0
 71
     5
 72
     1
  1
\A1;R100
 11
0.7463320151628863
 21
0.6655738299714805
 31
0.0
 73
     1
 44
1.0
  0
SOLID
  5
1D76
330
F05
100
AcDbEntity
  8
SUNPOU
 62
     0
440
 16777216
100
AcDbTrace
 10
2627.462949890371
 20
2894.120487854232
 30
0.0
 11
2636.337267623325
 21
2884.169394318727
 31
0.0
 12
2602.046828150333
 22
2862.52198788762
 32
0.0
 13
2602.046828150333
 23
2862.52198788762
 33
0.0
  0
POINT
  5
1D77
330
F05
100
AcDbEntity
  8
DEFPOINTS
 62
     0
440
 16777216
100
AcDbPoint
 10
2602.046828150333
 20
2862.52198788762
 30
0.0
  0
POINT
  5
1D78
330
F05
100
AcDbEntity
  8
DEFPOINTS
 62
     0
440
 16777216
100
AcDbPoint
 10
2676.680029666622
 20
2929.079370884768
 30
0.0
  0
ENDBLK
  5
F14
330
F05
100
AcDbEntity
  8
0
100
AcDbBlockEnd
  0
BLOCK
  5
FC2
330
FC1
100
AcDbEntity
  8
0
100
AcDbBlockBegin
  2
*D25
 70
     1
 10
0.0
 20
0.0
 30
0.0
  3
*D25
  1

  0
LINE
  5
1DD3
330
FC1
100
AcDbEntity
  8
SUNPOU
 62
     0
440
 16777216
370
    -2
100
AcDbLine
 10
2421.680029666621
 20
2634.079370884769
 30
0.0
 11
2421.680029666621
 21
2332.858764129618
 31
0.0
  0
LINE
  5
1DD4
330
FC1
100
AcDbEntity
  8
SUNPOU
 62
     0
440
 16777216
370
    -2
100
AcDbLine
 10
2576.680029666621
 20
2789.079370884769
 30
0.0
 11
2576.680029666621
 21
2332.858764129618
 31
0.0
  0
LINE
  5
1DD5
330
FC1
100
AcDbEntity
  8
SUNPOU
 62
     0
440
 16777216
370
    -2
100
AcDbLine
 10
2461.680029666621
 20
2342.858764129618
 30
0.0
 11
2536.680029666621
 21
2342.858764129618
 31
0.0
  0
SOLID
  5
1DD6
330
FC1
100
AcDbEntity
  8
SUNPOU
 62
     0
440
 16777216
100
AcDbTrace
 10
2461.680029666621
 20
2349.525430796285
 30
0.0
 11
2461.680029666621
 21
2336.192097462952
 31
0.0
 12
2421.680029666621
 22
2342.858764129618
 32
0.0
 13
2421.680029666621
 23
2342.858764129618
 33
0.0
  0
SOLID
  5
1DD7
330
FC1
100
AcDbEntity
  8
SUNPOU
 62
     0
440
 16777216
100
AcDbTrace
 10
2536.680029666621
 20
2349.525430796285
 30
0.0
 11
2536.680029666621
 21
2336.192097462952
 31
0.0
 12
2576.680029666621
 22
2342.858764129618
 32
0.0
 13
2576.680029666621
 23
2342.858764129618
 33
0.0
  0
MTEXT
  5
1DD8
330
FC1
100
AcDbEntity
  8
SUNPOU
 62
     0
440
 16777216
100
AcDbMText
 10
2499.180029666621
 20
2381.858764129618
 30
0.0
 40
50.0
 41
0.0
 71
     5
 72
     1
  1
\A1;155
 73
     1
 44
1.0
  0
POINT
  5
1DD9
330
FC1
100
AcDbEntity
  8
DEFPOINTS
 62
     0
440
 16777216
100
AcDbPoint
 10
2421.680029666621
 20
2674.079370884769
 30
0.0
  0
POINT
  5
1DDA
330
FC1
100
AcDbEntity
  8
DEFPOINTS
 62
     0
440
 16777216
100
AcDbPoint
 10
2576.680029666621
 20
2829.079370884769
 30
0.0
  0
POINT
  5
1DDB
330
FC1
100
AcDbEntity
  8
DEFPOINTS
 62
     0
440
 16777216
100
AcDbPoint
 10
2576.680029666621
 20
2342.858764129618
 30
0.0
  0
ENDBLK
  5
FCC
330
FC1
100
AcDbEntity
  8
0
100
AcDbBlockEnd
  0
BLOCK
  5
FD0
330
FCF
100
AcDbEntity
  8
0
100
AcDbBlockBegin
  2
*D26
 70
     1
 10
0.0
 20
0.0
 30
0.0
  3
*D26
  1

  0
LINE
  5
1DCA
330
FCF
100
AcDbEntity
  8
SUNPOU
 62
     0
440
 16777216
370
    -2
100
AcDbLine
 10
2416.680029666621
 20
4229.079370884769
 30
0.0
 11
1934.489416996039
 21
4229.07937088477
 31
0.0
  0
LINE
  5
1DCB
330
FCF
100
AcDbEntity
  8
SUNPOU
 62
     0
440
 16777216
370
    -2
100
AcDbLine
 10
2377.68002966662
 20
2674.079370884768
 30
0.0
 11
1934.489416996039
 21
2674.079370884768
 31
0.0
  0
LINE
  5
1DCC
330
FCF
100
AcDbEntity
  8
SUNPOU
 62
     0
440
 16777216
370
    -2
100
AcDbLine
 10
1944.489416996039
 20
4189.07937088477
 30
0.0
 11
1944.489416996039
 21
2714.079370884768
 31
0.0
  0
SOLID
  5
1DCD
330
FCF
100
AcDbEntity
  8
SUNPOU
 62
     0
440
 16777216
100
AcDbTrace
 10
1937.822750329372
 20
4189.07937088477
 30
0.0
 11
1951.156083662706
 21
4189.07937088477
 31
0.0
 12
1944.489416996039
 22
4229.07937088477
 32
0.0
 13
1944.489416996039
 23
4229.07937088477
 33
0.0
  0
SOLID
  5
1DCE
330
FCF
100
AcDbEntity
  8
SUNPOU
 62
     0
440
 16777216
100
AcDbTrace
 10
1937.822750329372
 20
2714.079370884768
 30
0.0
 11
1951.156083662706
 21
2714.079370884768
 31
0.0
 12
1944.489416996039
 22
2674.079370884768
 32
0.0
 13
1944.489416996039
 23
2674.079370884768
 33
0.0
  0
MTEXT
  5
1DCF
330
FCF
100
AcDbEntity
  8
SUNPOU
 62
     0
440
 16777216
100
AcDbMText
 10
1905.489416996038
 20
3451.579370884769
 30
0.0
 40
50.0
 41
0.0
 71
     5
 72
     1
  1
\A1;1555
 11
6.123031769111886E-17
 21
1.0
 31
0.0
 73
     1
 44
1.0
  0
POINT
  5
1DD0
330
FCF
100
AcDbEntity
  8
DEFPOINTS
 62
     0
440
 16777216
100
AcDbPoint
 10
2456.680029666621
 20
4229.079370884769
 30
0.0
  0
POINT
  5
1DD1
330
FCF
100
AcDbEntity
  8
DEFPOINTS
 62
     0
440
 16777216
100
AcDbPoint
 10
2417.68002966662
 20
2674.079370884768
 30
0.0
  0
POINT
  5
1DD2
330
FCF
100
AcDbEntity
  8
DEFPOINTS
 62
     0
440
 16777216
100
AcDbPoint
 10
1944.489416996039
 20
2674.079370884768
 30
0.0
  0
ENDBLK
  5
FDA
330
FCF
100
AcDbEntity
  8
0
100
AcDbBlockEnd
  0
BLOCK
  5
FDD
330
FDC
100
AcDbEntity
  8
0
100
AcDbBlockBegin
  2
*D27
 70
     1
 10
0.0
 20
0.0
 30
0.0
  3
*D27
  1

  0
LINE
  5
1D9D
330
FDC
100
AcDbEntity
  8
SUNPOU
 62
     0
440
 16777216
370
    -2
100
AcDbLine
 10
2456.680029666621
 20
4269.079370884769
 30
0.0
 11
2456.680029666621
 21
4546.603671664245
 31
0.0
  0
LINE
  5
1D9E
330
FDC
100
AcDbEntity
  8
SUNPOU
 62
     0
440
 16777216
370
    -2
100
AcDbLine
 10
2576.680029666621
 20
4269.079370884769
 30
0.0
 11
2576.680029666621
 21
4546.603671664245
 31
0.0
  0
LINE
  5
1D9F
330
FDC
100
AcDbEntity
  8
SUNPOU
 62
     0
440
 16777216
370
    -2
100
AcDbLine
 10
2496.680029666621
 20
4536.603671664245
 30
0.0
 11
2536.680029666621
 21
4536.603671664245
 31
0.0
  0
SOLID
  5
1DA0
330
FDC
100
AcDbEntity
  8
SUNPOU
 62
     0
440
 16777216
100
AcDbTrace
 10
2496.680029666621
 20
4543.270338330912
 30
0.0
 11
2496.680029666621
 21
4529.937004997578
 31
0.0
 12
2456.680029666621
 22
4536.603671664245
 32
0.0
 13
2456.680029666621
 23
4536.603671664245
 33
0.0
  0
SOLID
  5
1DA1
330
FDC
100
AcDbEntity
  8
SUNPOU
 62
     0
440
 16777216
100
AcDbTrace
 10
2536.680029666621
 20
4543.270338330912
 30
0.0
 11
2536.680029666621
 21
4529.937004997578
 31
0.0
 12
2576.680029666621
 22
4536.603671664245
 32
0.0
 13
2576.680029666621
 23
4536.603671664245
 33
0.0
  0
MTEXT
  5
1DA2
330
FDC
100
AcDbEntity
  8
SUNPOU
 62
     0
440
 16777216
100
AcDbMText
 10
2516.680029666621
 20
4575.603671664245
 30
0.0
 40
50.0
 41
0.0
 71
     5
 72
     1
  1
\A1;120
 73
     1
 44
1.0
  0
POINT
  5
1DA3
330
FDC
100
AcDbEntity
  8
DEFPOINTS
 62
     0
440
 16777216
100
AcDbPoint
 10
2456.680029666621
 20
4229.079370884769
 30
0.0
  0
POINT
  5
1DA4
330
FDC
100
AcDbEntity
  8
DEFPOINTS
 62
     0
440
 16777216
100
AcDbPoint
 10
2576.680029666621
 20
4229.079370884769
 30
0.0
  0
POINT
  5
1DA5
330
FDC
100
AcDbEntity
  8
DEFPOINTS
 62
     0
440
 16777216
100
AcDbPoint
 10
2576.680029666621
 20
4536.603671664245
 30
0.0
  0
ENDBLK
  5
FE7
330
FDC
100
AcDbEntity
  8
0
100
AcDbBlockEnd
  0
BLOCK
  5
1011
330
1010
100
AcDbEntity
  8
0
100
AcDbBlockBegin
  2
*D29
 70
     1
 10
0.0
 20
0.0
 30
0.0
  3
*D29
  1

  0
LINE
  5
1DB8
330
1010
100
AcDbEntity
  8
SUNPOU
 62
     0
440
 16777216
370
    -2
100
AcDbLine
 10
2416.680029666621
 20
4229.079370884769
 30
0.0
 11
2071.543304864449
 21
4229.079370884769
 31
0.0
  0
LINE
  5
1DB9
330
1010
100
AcDbEntity
  8
SUNPOU
 62
     0
440
 16777216
370
    -2
100
AcDbLine
 10
2536.680029666621
 20
2829.079370884769
 30
0.0
 11
2071.543304864448
 21
2829.079370884769
 31
0.0
  0
LINE
  5
1DBA
330
1010
100
AcDbEntity
  8
SUNPOU
 62
     0
440
 16777216
370
    -2
100
AcDbLine
 10
2081.543304864449
 20
4189.079370884769
 30
0.0
 11
2081.543304864448
 21
2869.079370884769
 31
0.0
  0
SOLID
  5
1DBB
330
1010
100
AcDbEntity
  8
SUNPOU
 62
     0
440
 16777216
100
AcDbTrace
 10
2074.876638197782
 20
4189.079370884769
 30
0.0
 11
2088.209971531115
 21
4189.079370884769
 31
0.0
 12
2081.543304864449
 22
4229.079370884769
 32
0.0
 13
2081.543304864449
 23
4229.079370884769
 33
0.0
  0
SOLID
  5
1DBC
330
1010
100
AcDbEntity
  8
SUNPOU
 62
     0
440
 16777216
100
AcDbTrace
 10
2074.876638197782
 20
2869.079370884769
 30
0.0
 11
2088.209971531115
 21
2869.079370884769
 31
0.0
 12
2081.543304864448
 22
2829.079370884769
 32
0.0
 13
2081.543304864448
 23
2829.079370884769
 33
0.0
  0
MTEXT
  5
1DBD
330
1010
100
AcDbEntity
  8
SUNPOU
 62
     0
440
 16777216
100
AcDbMText
 10
2042.543304864448
 20
3529.07937088477
 30
0.0
 40
50.0
 41
0.0
 71
     5
 72
     1
  1
\A1;1400
 11
6.123031769111886E-17
 21
1.0
 31
0.0
 73
     1
 44
1.0
  0
POINT
  5
1DBE
330
1010
100
AcDbEntity
  8
DEFPOINTS
 62
     0
440
 16777216
100
AcDbPoint
 10
2456.680029666621
 20
4229.079370884769
 30
0.0
  0
POINT
  5
1DBF
330
1010
100
AcDbEntity
  8
DEFPOINTS
 62
     0
440
 16777216
100
AcDbPoint
 10
2576.680029666621
 20
2829.079370884769
 30
0.0
  0
POINT
  5
1DC0
330
1010
100
AcDbEntity
  8
DEFPOINTS
 62
     0
440
 16777216
100
AcDbPoint
 10
2081.543304864448
 20
2829.079370884769
 30
0.0
  0
ENDBLK
  5
101B
330
1010
100
AcDbEntity
  8
0
100
AcDbBlockEnd
  0
BLOCK
  5
102B
330
102A
100
AcDbEntity
  8
0
100
AcDbBlockBegin
  2
*D30
 70
     1
 10
0.0
 20
0.0
 30
0.0
  3
*D30
  1

  0
LINE
  5
1DC1
330
102A
100
AcDbEntity
  8
SUNPOU
 62
     0
440
 16777216
370
    -2
100
AcDbLine
 10
2381.567489473694
 20
2829.079370884769
 30
0.0
 11
2071.543304864448
 21
2829.079370884769
 31
0.0
  0
LINE
  5
1DC2
330
102A
100
AcDbEntity
  8
SUNPOU
 62
     0
440
 16777216
370
    -2
100
AcDbLine
 10
2377.68002966662
 20
2674.079370884768
 30
0.0
 11
2071.543304864448
 21
2674.079370884768
 31
0.0
  0
LINE
  5
1DC3
330
102A
100
AcDbEntity
  8
SUNPOU
 62
     0
440
 16777216
370
    -2
100
AcDbLine
 10
2081.543304864448
 20
2789.079370884769
 30
0.0
 11
2081.543304864448
 21
2714.079370884768
 31
0.0
  0
SOLID
  5
1DC4
330
102A
100
AcDbEntity
  8
SUNPOU
 62
     0
440
 16777216
100
AcDbTrace
 10
2074.876638197782
 20
2789.079370884769
 30
0.0
 11
2088.209971531115
 21
2789.079370884769
 31
0.0
 12
2081.543304864448
 22
2829.079370884769
 32
0.0
 13
2081.543304864448
 23
2829.079370884769
 33
0.0
  0
SOLID
  5
1DC5
330
102A
100
AcDbEntity
  8
SUNPOU
 62
     0
440
 16777216
100
AcDbTrace
 10
2074.876638197782
 20
2714.079370884768
 30
0.0
 11
2088.209971531115
 21
2714.079370884768
 31
0.0
 12
2081.543304864448
 22
2674.079370884768
 32
0.0
 13
2081.543304864448
 23
2674.079370884768
 33
0.0
  0
MTEXT
  5
1DC6
330
102A
100
AcDbEntity
  8
SUNPOU
 62
     0
440
 16777216
100
AcDbMText
 10
2042.543304864448
 20
2751.579370884769
 30
0.0
 40
50.0
 41
0.0
 71
     5
 72
     1
  1
\A1;155
 11
6.123031769111886E-17
 21
1.0
 31
0.0
 73
     1
 44
1.0
  0
POINT
  5
1DC7
330
102A
100
AcDbEntity
  8
DEFPOINTS
 62
     0
440
 16777216
100
AcDbPoint
 10
2421.567489473694
 20
2829.079370884769
 30
0.0
  0
POINT
  5
1DC8
330
102A
100
AcDbEntity
  8
DEFPOINTS
 62
     0
440
 16777216
100
AcDbPoint
 10
2417.68002966662
 20
2674.079370884768
 30
0.0
  0
POINT
  5
1DC9
330
102A
100
AcDbEntity
  8
DEFPOINTS
 62
     0
440
 16777216
100
AcDbPoint
 10
2081.543304864448
 20
2674.079370884768
 30
0.0
  0
ENDBLK
  5
1035
330
102A
100
AcDbEntity
  8
0
100
AcDbBlockEnd
  0
BLOCK
  5
11B8
330
11B7
100
AcDbEntity
  8
0
100
AcDbBlockBegin
  2
*D34
 70
     1
 10
0.0
 20
0.0
 30
0.0
  3
*D34
  1

  0
LINE
  5
1DA6
330
11B7
100
AcDbEntity
  8
SUNPOU
 62
     0
440
 16777216
370
    -2
100
AcDbLine
 10
2576.680029666621
 20
4269.079370884769
 30
0.0
 11
2576.680029666621
 21
4546.603671664245
 31
0.0
  0
LINE
  5
1DA7
330
11B7
100
AcDbEntity
  8
SUNPOU
 62
     0
440
 16777216
370
    -2
100
AcDbLine
 10
3076.680029666621
 20
2869.079370884769
 30
0.0
 11
3076.680029666621
 21
4546.603671664245
 31
0.0
  0
LINE
  5
1DA8
330
11B7
100
AcDbEntity
  8
SUNPOU
 62
     0
440
 16777216
370
    -2
100
AcDbLine
 10
2616.680029666621
 20
4536.603671664245
 30
0.0
 11
3036.680029666621
 21
4536.603671664245
 31
0.0
  0
SOLID
  5
1DA9
330
11B7
100
AcDbEntity
  8
SUNPOU
 62
     0
440
 16777216
100
AcDbTrace
 10
2616.680029666621
 20
4543.270338330912
 30
0.0
 11
2616.680029666621
 21
4529.937004997578
 31
0.0
 12
2576.680029666621
 22
4536.603671664245
 32
0.0
 13
2576.680029666621
 23
4536.603671664245
 33
0.0
  0
SOLID
  5
1DAA
330
11B7
100
AcDbEntity
  8
SUNPOU
 62
     0
440
 16777216
100
AcDbTrace
 10
3036.680029666621
 20
4543.270338330912
 30
0.0
 11
3036.680029666621
 21
4529.937004997578
 31
0.0
 12
3076.680029666621
 22
4536.603671664245
 32
0.0
 13
3076.680029666621
 23
4536.603671664245
 33
0.0
  0
MTEXT
  5
1DAB
330
11B7
100
AcDbEntity
  8
SUNPOU
 62
     0
440
 16777216
100
AcDbMText
 10
2826.680029666621
 20
4575.603671664245
 30
0.0
 40
50.0
 41
0.0
 71
     5
 72
     1
  1
\A1;500
 73
     1
 44
1.0
  0
POINT
  5
1DAC
330
11B7
100
AcDbEntity
  8
DEFPOINTS
 62
     0
440
 16777216
100
AcDbPoint
 10
2576.680029666621
 20
4229.079370884769
 30
0.0
  0
POINT
  5
1DAD
330
11B7
100
AcDbEntity
  8
DEFPOINTS
 62
     0
440
 16777216
100
AcDbPoint
 10
3076.680029666621
 20
2829.079370884769
 30
0.0
  0
POINT
  5
1DAE
330
11B7
100
AcDbEntity
  8
DEFPOINTS
 62
     0
440
 16777216
100
AcDbPoint
 10
3076.680029666621
 20
4536.603671664245
 30
0.0
  0
ENDBLK
  5
11C2
330
11B7
100
AcDbEntity
  8
0
100
AcDbBlockEnd
  0
BLOCK
  5
11C5
330
11C4
100
AcDbEntity
  8
0
100
AcDbBlockBegin
  2
*D35
 70
     1
 10
0.0
 20
0.0
 30
0.0
  3
*D35
  1

  0
LINE
  5
1DAF
330
11C4
100
AcDbEntity
  8
SUNPOU
 62
     0
440
 16777216
370
    -2
100
AcDbLine
 10
2456.680029666621
 20
4269.079370884769
 30
0.0
 11
2456.680029666621
 21
4667.986181300803
 31
0.0
  0
LINE
  5
1DB0
330
11C4
100
AcDbEntity
  8
SUNPOU
 62
     0
440
 16777216
370
    -2
100
AcDbLine
 10
3076.680029666621
 20
2869.079370884769
 30
0.0
 11
3076.680029666621
 21
4667.986181300803
 31
0.0
  0
LINE
  5
1DB1
330
11C4
100
AcDbEntity
  8
SUNPOU
 62
     0
440
 16777216
370
    -2
100
AcDbLine
 10
2496.680029666621
 20
4657.986181300803
 30
0.0
 11
3036.680029666621
 21
4657.986181300803
 31
0.0
  0
SOLID
  5
1DB2
330
11C4
100
AcDbEntity
  8
SUNPOU
 62
     0
440
 16777216
100
AcDbTrace
 10
2496.680029666621
 20
4664.65284796747
 30
0.0
 11
2496.680029666621
 21
4651.319514634136
 31
0.0
 12
2456.680029666621
 22
4657.986181300803
 32
0.0
 13
2456.680029666621
 23
4657.986181300803
 33
0.0
  0
SOLID
  5
1DB3
330
11C4
100
AcDbEntity
  8
SUNPOU
 62
     0
440
 16777216
100
AcDbTrace
 10
3036.680029666621
 20
4664.65284796747
 30
0.0
 11
3036.680029666621
 21
4651.319514634136
 31
0.0
 12
3076.680029666621
 22
4657.986181300803
 32
0.0
 13
3076.680029666621
 23
4657.986181300803
 33
0.0
  0
MTEXT
  5
1DB4
330
11C4
100
AcDbEntity
  8
SUNPOU
 62
     0
440
 16777216
100
AcDbMText
 10
2766.680029666621
 20
4696.986181300803
 30
0.0
 40
50.0
 41
0.0
 71
     5
 72
     1
  1
\A1;620
 73
     1
 44
1.0
  0
POINT
  5
1DB5
330
11C4
100
AcDbEntity
  8
DEFPOINTS
 62
     0
440
 16777216
100
AcDbPoint
 10
2456.680029666621
 20
4229.079370884769
 30
0.0
  0
POINT
  5
1DB6
330
11C4
100
AcDbEntity
  8
DEFPOINTS
 62
     0
440
 16777216
100
AcDbPoint
 10
3076.680029666621
 20
2829.079370884769
 30
0.0
  0
POINT
  5
1DB7
330
11C4
100
AcDbEntity
  8
DEFPOINTS
 62
     0
440
 16777216
100
AcDbPoint
 10
3076.680029666621
 20
4657.986181300803
 30
0.0
  0
ENDBLK
  5
11CF
330
11C4
100
AcDbEntity
  8
0
100
AcDbBlockEnd
  0
BLOCK
  5
11D2
330
11D1
100
AcDbEntity
  8
0
100
AcDbBlockBegin
  2
*D36
 70
     1
 10
0.0
 20
0.0
 30
0.0
  3
*D36
  1

  0
LINE
  5
1DFD
330
11D1
100
AcDbEntity
  8
SUNPOU
 62
     0
440
 16777216
370
    -2
100
AcDbLine
 10
2417.68002966662
 20
2634.079370884768
 30
0.0
 11
2417.68002966662
 21
2081.458973489473
 31
0.0
  0
LINE
  5
1DFE
330
11D1
100
AcDbEntity
  8
SUNPOU
 62
     0
440
 16777216
370
    -2
100
AcDbLine
 10
3076.68002966662
 20
2634.079370884768
 30
0.0
 11
3076.68002966662
 21
2081.458973489473
 31
0.0
  0
LINE
  5
1DFF
330
11D1
100
AcDbEntity
  8
SUNPOU
 62
     0
440
 16777216
370
    -2
100
AcDbLine
 10
2457.68002966662
 20
2091.458973489473
 30
0.0
 11
3036.68002966662
 21
2091.458973489473
 31
0.0
  0
SOLID
  5
1E00
330
11D1
100
AcDbEntity
  8
SUNPOU
 62
     0
440
 16777216
100
AcDbTrace
 10
2457.68002966662
 20
2098.125640156139
 30
0.0
 11
2457.68002966662
 21
2084.792306822806
 31
0.0
 12
2417.68002966662
 22
2091.458973489473
 32
0.0
 13
2417.68002966662
 23
2091.458973489473
 33
0.0
  0
SOLID
  5
1E01
330
11D1
100
AcDbEntity
  8
SUNPOU
 62
     0
440
 16777216
100
AcDbTrace
 10
3036.68002966662
 20
2098.125640156139
 30
0.0
 11
3036.68002966662
 21
2084.792306822806
 31
0.0
 12
3076.68002966662
 22
2091.458973489473
 32
0.0
 13
3076.68002966662
 23
2091.458973489473
 33
0.0
  0
MTEXT
  5
1E02
330
11D1
100
AcDbEntity
  8
SUNPOU
 62
     0
440
 16777216
100
AcDbMText
 10
2747.18002966662
 20
2130.458973489473
 30
0.0
 40
50.0
 41
0.0
 71
     5
 72
     1
  1
\A1;659
 73
     1
 44
1.0
  0
POINT
  5
1E03
330
11D1
100
AcDbEntity
  8
DEFPOINTS
 62
     0
440
 16777216
100
AcDbPoint
 10
2417.68002966662
 20
2674.079370884768
 30
0.0
  0
POINT
  5
1E04
330
11D1
100
AcDbEntity
  8
DEFPOINTS
 62
     0
440
 16777216
100
AcDbPoint
 10
3076.68002966662
 20
2674.079370884768
 30
0.0
  0
POINT
  5
1E05
330
11D1
100
AcDbEntity
  8
DEFPOINTS
 62
     0
440
 16777216
100
AcDbPoint
 10
3076.68002966662
 20
2091.458973489473
 30
0.0
  0
ENDBLK
  5
11DC
330
11D1
100
AcDbEntity
  8
0
100
AcDbBlockEnd
  0
BLOCK
  5
11DF
330
11DE
100
AcDbEntity
  8
0
100
AcDbBlockBegin
  2
*D37
 70
     1
 10
0.0
 20
0.0
 30
0.0
  3
*D37
  1

  0
LINE
  5
1DDC
330
11DE
100
AcDbEntity
  8
SUNPOU
 62
     0
440
 16777216
370
    -2
100
AcDbLine
 10
2421.680029666621
 20
2594.079370884769
 30
0.0
 11
2421.680029666621
 21
2200.828733570303
 31
0.0
  0
LINE
  5
1DDD
330
11DE
100
AcDbEntity
  8
SUNPOU
 62
     0
440
 16777216
370
    -2
100
AcDbLine
 10
3076.68002966662
 20
2634.079370884768
 30
0.0
 11
3076.68002966662
 21
2200.828733570303
 31
0.0
  0
LINE
  5
1DDE
330
11DE
100
AcDbEntity
  8
SUNPOU
 62
     0
440
 16777216
370
    -2
100
AcDbLine
 10
2461.680029666621
 20
2210.828733570303
 30
0.0
 11
3036.68002966662
 21
2210.828733570303
 31
0.0
  0
SOLID
  5
1DDF
330
11DE
100
AcDbEntity
  8
SUNPOU
 62
     0
440
 16777216
100
AcDbTrace
 10
2461.680029666621
 20
2217.495400236969
 30
0.0
 11
2461.680029666621
 21
2204.162066903636
 31
0.0
 12
2421.680029666621
 22
2210.828733570303
 32
0.0
 13
2421.680029666621
 23
2210.828733570303
 33
0.0
  0
SOLID
  5
1DE0
330
11DE
100
AcDbEntity
  8
SUNPOU
 62
     0
440
 16777216
100
AcDbTrace
 10
3036.68002966662
 20
2217.495400236969
 30
0.0
 11
3036.68002966662
 21
2204.162066903636
 31
0.0
 12
3076.68002966662
 22
2210.828733570303
 32
0.0
 13
3076.68002966662
 23
2210.828733570303
 33
0.0
  0
MTEXT
  5
1DE1
330
11DE
100
AcDbEntity
  8
SUNPOU
 62
     0
440
 16777216
100
AcDbMText
 10
2749.18002966662
 20
2249.828733570303
 30
0.0
 40
50.0
 41
0.0
 71
     5
 72
     1
  1
\A1;655
 73
     1
 44
1.0
  0
POINT
  5
1DE2
330
11DE
100
AcDbEntity
  8
DEFPOINTS
 62
     0
440
 16777216
100
AcDbPoint
 10
2421.680029666621
 20
2634.079370884769
 30
0.0
  0
POINT
  5
1DE3
330
11DE
100
AcDbEntity
  8
DEFPOINTS
 62
     0
440
 16777216
100
AcDbPoint
 10
3076.68002966662
 20
2674.079370884768
 30
0.0
  0
POINT
  5
1DE4
330
11DE
100
AcDbEntity
  8
DEFPOINTS
 62
     0
440
 16777216
100
AcDbPoint
 10
3076.68002966662
 20
2210.828733570303
 30
0.0
  0
ENDBLK
  5
11E9
330
11DE
100
AcDbEntity
  8
0
100
AcDbBlockEnd
  0
BLOCK
  5
1DE7
330
1DE6
100
AcDbEntity
  8
0
100
AcDbBlockBegin
  2
*D122
 70
     1
 10
0.0
 20
0.0
 30
0.0
  3
*D122
  1

  0
LINE
  5
1DF3
330
1DE6
100
AcDbEntity
  8
SUNPOU
 62
     0
440
 16777216
370
    -2
100
AcDbLine
 10
2421.680029666621
 20
2634.079370884769
 30
0.0
 11
2421.680029666621
 21
2200.828733570303
 31
0.0
  0
LINE
  5
1DF4
330
1DE6
100
AcDbEntity
  8
SUNPOU
 62
     0
440
 16777216
370
    -2
100
AcDbLine
 10
2417.68254418794
 20
2634.179629363012
 30
0.0
 11
2417.68254418794
 21
2200.828733570303
 31
0.0
  0
LINE
  5
1DF5
330
1DE6
100
AcDbEntity
  8
SUNPOU
 62
     0
440
 16777216
370
    -2
100
AcDbLine
 10
2461.680029666621
 20
2210.828733570303
 30
0.0
 11
2501.680029666621
 21
2210.828733570303
 31
0.0
  0
LINE
  5
1DF6
330
1DE6
100
AcDbEntity
  8
SUNPOU
 62
     0
440
 16777216
370
    -2
100
AcDbLine
 10
2377.68254418794
 20
2210.828733570303
 30
0.0
 11
2337.68254418794
 21
2210.828733570303
 31
0.0
  0
MTEXT
  5
1DF7
330
1DE6
100
AcDbEntity
  8
SUNPOU
 62
     0
440
 16777216
100
AcDbMText
 10
2445.903907927648
 20
2249.828733570303
 30
0.0
 40
50.0
 41
0.0
 71
     5
 72
     1
  1
\A1;4
 73
     1
 44
1.0
  0
SOLID
  5
1DF8
330
1DE6
100
AcDbEntity
  8
SUNPOU
 62
     0
440
 16777216
100
AcDbTrace
 10
2461.680029666621
 20
2217.495400236969
 30
0.0
 11
2461.680029666621
 21
2204.162066903636
 31
0.0
 12
2421.680029666621
 22
2210.828733570303
 32
0.0
 13
2421.680029666621
 23
2210.828733570303
 33
0.0
  0
SOLID
  5
1DF9
330
1DE6
100
AcDbEntity
  8
SUNPOU
 62
     0
440
 16777216
100
AcDbTrace
 10
2377.68254418794
 20
2217.495400236969
 30
0.0
 11
2377.68254418794
 21
2204.162066903636
 31
0.0
 12
2417.68254418794
 22
2210.828733570303
 32
0.0
 13
2417.68254418794
 23
2210.828733570303
 33
0.0
  0
POINT
  5
1DFA
330
1DE6
100
AcDbEntity
  8
DEFPOINTS
 62
     0
440
 16777216
100
AcDbPoint
 10
2421.680029666621
 20
2674.079370884769
 30
0.0
  0
POINT
  5
1DFB
330
1DE6
100
AcDbEntity
  8
DEFPOINTS
 62
     0
440
 16777216
100
AcDbPoint
 10
2417.68254418794
 20
2674.179629363012
 30
0.0
  0
POINT
  5
1DFC
330
1DE6
100
AcDbEntity
  8
DEFPOINTS
 62
     0
440
 16777216
100
AcDbPoint
 10
2417.68254418794
 20
2210.828733570303
 30
0.0
  0
ENDBLK
  5
1DE8
330
1DE6
100
AcDbEntity
  8
0
100
AcDbBlockEnd
  0
ENDSEC
  0
SECTION
  2
ENTITIES
  0
TEXT
  5
5F
330
17
100
AcDbEntity
  8
SUNPOU
100
AcDbText
 10
7829.360191537064
 20
320.0
 30
0.0
 40
60.0
  1
20
100
AcDbText
  0
LINE
  5
160
330
17
100
AcDbEntity
  8
SEIHIN
100
AcDbLine
 10
2576.680029666621
 20
4229.079370884769
 30
0.0
 11
2576.680029666621
 21
2929.079370884769
 31
0.0
  0
LINE
  5
162
330
17
100
AcDbEntity
  8
SEIHIN
100
AcDbLine
 10
2417.68002966662
 20
2674.079370884768
 30
0.0
 11
3076.68002966662
 21
2674.079370884768
 31
0.0
  0
LINE
  5
16E
330
17
100
AcDbEntity
  8
SEIHIN
100
AcDbLine
 10
2676.680029666621
 20
2829.079370884769
 30
0.0
 11
3076.680029666621
 21
2829.079370884768
 31
0.0
  0
POINT
  5
175
330
17
100
AcDbEntity
  8
TEN
100
AcDbPoint
 10
2576.680029666621
 20
2829.079370884769
 30
0.0
  0
LINE
  5
1B7
330
17
100
AcDbEntity
  8
SEIHIN
100
AcDbLine
 10
5667.48632149221
 20
2674.079370884769
 30
0.0
 11
6667.48632149221
 21
2674.079370884769
 31
0.0
  0
LINE
  5
1D1
330
17
100
AcDbEntity
  8
SEIHIN
100
AcDbLine
 10
5667.48632149221
 20
4229.079370884769
 30
0.0
 11
6667.48632149221
 21
4229.079370884769
 31
0.0
  0
LINE
  5
1D6
330
17
100
AcDbEntity
  8
1HASEN
100
AcDbLine
 10
5667.48632149221
 20
4329.079370884769
 30
0.0
 11
5667.48632149221
 21
2609.079370884768
 31
0.0
  0
LINE
  5
244
330
17
100
AcDbEntity
  8
SEIHIN
100
AcDbLine
 10
4667.48632149221
 20
4229.079370884769
 30
0.0
 11
4667.48632149221
 21
2674.079370884769
 31
0.0
  0
LINE
  5
245
330
17
100
AcDbEntity
  8
SEIHIN
100
AcDbLine
 10
5667.48632149221
 20
2674.079370884769
 30
0.0
 11
4667.48632149221
 21
2674.079370884769
 31
0.0
  0
LINE
  5
246
330
17
100
AcDbEntity
  8
SEIHIN
100
AcDbLine
 10
5667.48632149221
 20
2829.079370884769
 30
0.0
 11
4674.98632149221
 21
2829.079370884768
 31
0.0
  0
LINE
  5
247
330
17
100
AcDbEntity
  8
SEIHIN
100
AcDbLine
 10
5667.48632149221
 20
4229.079370884769
 30
0.0
 11
4667.48632149221
 21
4229.079370884769
 31
0.0
  0
LINE
  5
37A
330
17
100
AcDbEntity
  8
HOJO
100
AcDbLine
 10
3962.284090254785
 20
4729.079370884769
 30
0.0
 11
3520.752965099204
 21
4729.079370884769
 31
0.0
  0
TEXT
  5
39B
330
17
100
AcDbEntity
  8
SUNPOU
100
AcDbText
 10
7269.360191537067
 20
0.0
 30
0.0
 40
50.0
  1
新和コンクリート工業株式会社
100
AcDbText
  0
TEXT
  5
39C
330
17
100
AcDbEntity
  8
SUNPOU
100
AcDbText
 10
7697.6935248704
 20
125.0
 30
0.0
 40
50.0
  1
製図
 72
     4
 11
7749.360191537067
 21
150.0
 31
0.0
100
AcDbText
  0
TEXT
  5
39D
330
17
100
AcDbEntity
  8
SUNPOU
100
AcDbText
 10
7696.026858203734
 20
225.0000000000001
 30
0.0
 40
50.0
  1
設計
 72
     4
 11
7749.360191537067
 21
250.0000000000001
 31
0.0
100
AcDbText
  0
TEXT
  5
39E
330
17
100
AcDbEntity
  8
SUNPOU
100
AcDbText
 10
7251.026858203734
 20
125.0000000000003
 30
0.0
 40
50.0
  1
認
 72
     4
 11
7274.360191537067
 21
150.0000000000003
 31
0.0
100
AcDbText
  0
TEXT
  5
39F
330
17
100
AcDbEntity
  8
SUNPOU
100
AcDbText
 10
7251.026858203734
 20
226.6666666666673
 30
0.0
 40
50.0
  1
承
 72
     4
 11
7274.360191537067
 21
250.0000000000006
 31
0.0
100
AcDbText
  0
TEXT
  5
3A0
330
17
100
AcDbEntity
  8
SUNPOU
100
AcDbText
 10
6724.360191537067
 20
235.0000000000002
 30
0.0
 40
50.0
  1
図　面　番　号
 72
     4
 11
6929.360191537067
 21
260.0000000000002
 31
0.0
100
AcDbText
  0
TEXT
  5
3A1
330
17
100
AcDbEntity
  8
SUNPOU
100
AcDbText
 10
7709.360191537067
 20
340.0000000000001
 30
0.0
 40
50.0
  1
１／
100
AcDbText
  0
TEXT
  5
3A2
330
17
100
AcDbEntity
  8
SUNPOU
100
AcDbText
 10
7416.026858203734
 20
325.0000000000002
 30
0.0
 40
50.0
  1
縮　　尺
 72
     4
 11
7529.360191537067
 21
350.0000000000002
 31
0.0
100
AcDbText
  0
TEXT
  5
3A3
330
17
100
AcDbEntity
  8
SUNPOU
100
AcDbText
 10
7416.026858203734
 20
425.0
 30
0.0
 40
50.0
  1
鉄 筋 量
 72
     4
 11
7529.360191537067
 21
450.0
 31
0.0
100
AcDbText
  0
TEXT
  5
3A4
330
17
100
AcDbEntity
  8
SUNPOU
100
AcDbText
 10
7416.026858203734
 20
525.0
 30
0.0
 40
50.0
  1
製 造 数
 72
     4
 11
7529.360191537067
 21
550.0
 31
0.0
100
AcDbText
  0
TEXT
  5
3A5
330
17
100
AcDbEntity
  8
SUNPOU
100
AcDbText
 10
8009.360191537067
 20
420.0
 30
0.0
 40
50.0
  1
ｋｇ
 72
     2
 11
8109.360191537067
 21
420.0
 31
0.0
100
AcDbText
  0
TEXT
  5
3A6
330
17
100
AcDbEntity
  8
SUNPOU
100
AcDbText
 10
7259.360191537067
 20
420.0
 30
0.0
 40
50.0
  1
ｋｇ
 72
     2
 11
7359.360191537067
 21
420.0
 31
0.0
100
AcDbText
  0
TEXT
  5
3A7
330
17
100
AcDbEntity
  8
SUNPOU
100
AcDbText
 10
6669.360191537067
 20
325.0000000000002
 30
0.0
 40
50.0
  1
年 月 日
 72
     4
 11
6779.360191537067
 21
350.0000000000002
 31
0.0
100
AcDbText
  0
TEXT
  5
3A8
330
17
100
AcDbEntity
  8
SUNPOU
100
AcDbText
 10
6666.026858203734
 20
425.0
 30
0.0
 40
50.0
  1
製品質量
 72
     4
 11
6779.360191537067
 21
450.0
 31
0.0
100
AcDbText
  0
TEXT
  5
3A9
330
17
100
AcDbEntity
  8
SUNPOU
100
AcDbText
 10
6667.6935248704
 20
525.0
 30
0.0
 40
50.0
  1
業 者 名
 72
     4
 11
6779.360191537067
 21
550.0
 31
0.0
100
AcDbText
  0
TEXT
  5
3AA
330
17
100
AcDbEntity
  8
SUNPOU
100
AcDbText
 10
6666.026858203734
 20
650.0
 30
0.0
 40
50.0
  1
名　　称
 72
     4
 11
6779.360191537067
 21
675.0
 31
0.0
100
AcDbText
  0
LINE
  5
3AB
330
17
100
AcDbEntity
  8
SUNPOU
100
AcDbLine
 10
7229.360191537067
 20
220.0000000000002
 30
0.0
 11
6629.360191537067
 21
220.0000000000002
 31
0.0
  0
LINE
  5
3AC
330
17
100
AcDbEntity
  8
SUNPOU
100
AcDbLine
 10
7819.360191537067
 20
99.99999999999972
 30
0.0
 11
7819.360191537067
 21
299.9999999999999
 31
0.0
  0
LINE
  5
3AD
330
17
100
AcDbEntity
  8
SUNPOU
100
AcDbLine
 10
7679.360191537067
 20
99.99999999999972
 30
0.0
 11
7679.360191537067
 21
299.9999999999999
 31
0.0
  0
LINE
  5
3AE
330
17
100
AcDbEntity
  8
SUNPOU
100
AcDbLine
 10
7319.360191537067
 20
99.99999999999989
 30
0.0
 11
7319.360191537067
 21
300.0000000000001
 31
0.0
  0
LINE
  5
3AF
330
17
100
AcDbEntity
  8
SUNPOU
100
AcDbLine
 10
7229.360191537067
 20
99.99999999999989
 30
0.0
 11
7229.360191537067
 21
300.0000000000001
 31
0.0
  0
LINE
  5
3B0
330
17
100
AcDbEntity
  8
SUNPOU
100
AcDbLine
 10
6929.360191537067
 20
300.0000000000002
 30
0.0
 11
6929.360191537067
 21
750.0
 31
0.0
  0
LINE
  5
3B1
330
17
100
AcDbEntity
  8
SUNPOU
100
AcDbLine
 10
7679.360191537067
 20
300.0000000000002
 30
0.0
 11
7679.360191537067
 21
600.0
 31
0.0
  0
LINE
  5
3B2
330
17
100
AcDbEntity
  8
SUNPOU
100
AcDbLine
 10
7379.360191537067
 20
300.0000000000002
 30
0.0
 11
7379.360191537067
 21
600.0
 31
0.0
  0
LINE
  5
3B3
330
17
100
AcDbEntity
  8
SUNPOU
100
AcDbLine
 10
8129.360191537067
 20
600.0
 30
0.0
 11
6629.360191537067
 21
600.0
 31
0.0
  0
LINE
  5
3B4
330
17
100
AcDbEntity
  8
SUNPOU
100
AcDbLine
 10
8129.360191537067
 20
500.0
 30
0.0
 11
6629.360191537067
 21
500.0
 31
0.0
  0
LINE
  5
3B5
330
17
100
AcDbEntity
  8
SUNPOU
100
AcDbLine
 10
8129.360191537067
 20
400.0
 30
0.0
 11
6629.360191537067
 21
400.0
 31
0.0
  0
LINE
  5
3B6
330
17
100
AcDbEntity
  8
SUNPOU
100
AcDbLine
 10
8129.360191537067
 20
299.9999999999999
 30
0.0
 11
6629.360191537067
 21
300.0000000000007
 31
0.0
  0
LINE
  5
3B7
330
17
100
AcDbEntity
  8
HAIKIN
100
AcDbLine
 10
6629.360191537067
 20
750.0
 30
0.0
 11
8129.360191537067
 21
750.0
 31
0.0
  0
LINE
  5
3B8
330
17
100
AcDbEntity
  8
HAIKIN
100
AcDbLine
 10
6629.360191537067
 20
100.0000000000002
 30
0.0
 11
6629.360191537067
 21
750.0
 31
0.0
  0
LINE
  5
3B9
330
17
100
AcDbEntity
  8
SUNPOU
100
AcDbLine
 10
469.3601915370673
 20
5540.0
 30
0.0
 11
469.3601915370673
 21
5440.0
 31
0.0
  0
LINE
  5
3BA
330
17
100
AcDbEntity
  8
SUNPOU
100
AcDbLine
 10
969.3601915370673
 20
5540.0
 30
0.0
 11
469.3601915370673
 21
5540.0
 31
0.0
  0
LINE
  5
3BB
330
17
100
AcDbEntity
  8
SUNPOU
100
AcDbLine
 10
969.3601915370673
 20
5440.0
 30
0.0
 11
969.3601915370673
 21
5540.0
 31
0.0
  0
LINE
  5
3BC
330
17
100
AcDbEntity
  8
HAIKIN
100
AcDbLine
 10
469.3601915370673
 20
100.0
 30
0.0
 11
8129.360191537067
 21
100.0
 31
0.0
  0
LINE
  5
3BD
330
17
100
AcDbEntity
  8
HAIKIN
100
AcDbLine
 10
469.3601915370673
 20
5440.0
 30
0.0
 11
8129.360191537067
 21
5440.0
 31
0.0
  0
LINE
  5
3BE
330
17
100
AcDbEntity
  8
HAIKIN
100
AcDbLine
 10
8129.360191537067
 20
5440.0
 30
0.0
 11
8129.360191537067
 21
100.0
 31
0.0
  0
TEXT
  5
3BF
330
17
100
AcDbEntity
  8
SUNPOU
100
AcDbText
 10
543.3601915370673
 20
5460.0
 30
0.0
 40
60.0
  1
Ｈ－２－共
 72
     4
 11
719.3601915370673
 21
5490.0
 31
0.0
100
AcDbText
  0
LINE
  5
3C0
330
17
100
AcDbEntity
  8
HAIKIN
100
AcDbLine
 10
469.3601915370673
 20
100.0
 30
0.0
 11
469.3601915370673
 21
5440.0
 31
0.0
  0
LINE
  5
3DC
330
17
100
AcDbEntity
  8
HOJO
100
AcDbLine
 10
3962.284090254785
 20
4849.079370884769
 30
0.0
 11
3520.752965099204
 21
4849.079370884769
 31
0.0
  0
LINE
  5
3EF
330
17
100
AcDbEntity
  8
HOJO
100
AcDbLine
 10
1944.680029666621
 20
4839.089016711181
 30
0.0
 11
1944.680029666621
 21
4229.079370884769
 31
0.0
  0
LINE
  5
3F0
330
17
100
AcDbEntity
  8
HOJO
100
AcDbLine
 10
1824.680029666621
 20
4839.089016711181
 30
0.0
 11
1824.680029666621
 21
4229.079370884769
 31
0.0
  0
LINE
  5
3F1
330
17
100
AcDbEntity
  8
HOJO
100
AcDbLine
 10
1704.680029666621
 20
4839.089016711181
 30
0.0
 11
1704.680029666621
 21
4229.079370884769
 31
0.0
  0
LINE
  5
3F8
330
17
100
AcDbEntity
  8
HOJO
100
AcDbLine
 10
3676.680029666621
 20
2689.079370884769
 30
0.0
 11
3676.680029666621
 21
2079.069725058356
 31
0.0
  0
LINE
  5
3FD
330
17
100
AcDbEntity
  8
HOJO
100
AcDbLine
 10
7167.48632149221
 20
2709.079370884769
 30
0.0
 11
7167.48632149221
 21
2099.069725058356
 31
0.0
  0
LINE
  5
3FE
330
17
100
AcDbEntity
  8
HOJO
100
AcDbLine
 10
7287.48632149221
 20
2709.079370884769
 30
0.0
 11
7287.48632149221
 21
2099.069725058356
 31
0.0
  0
LINE
  5
3FF
330
17
100
AcDbEntity
  8
HOJO
100
AcDbLine
 10
7407.48632149221
 20
2709.079370884769
 30
0.0
 11
7407.48632149221
 21
2099.069725058356
 31
0.0
  0
LINE
  5
434
330
17
100
AcDbEntity
  8
SEIHIN
100
AcDbLine
 10
2551.680029666621
 20
4229.079370884769
 30
0.0
 11
2551.680029666621
 21
2929.079370884769
 31
0.0
  0
LINE
  5
435
330
17
100
AcDbEntity
  8
SEIHIN
100
AcDbLine
 10
2676.680029666621
 20
2804.079370884769
 30
0.0
 11
3076.680029666621
 21
2804.079370884769
 31
0.0
  0
LINE
  5
437
330
17
100
AcDbEntity
  8
SEIHIN
100
AcDbLine
 10
4674.98632149221
 20
4229.079370884769
 30
0.0
 11
4674.98632149221
 21
2804.079370884769
 31
0.0
  0
LINE
  5
43A
330
17
100
AcDbEntity
  8
SEIHIN
100
AcDbLine
 10
4674.98632149221
 20
2804.079370884769
 30
0.0
 11
4667.48632149221
 21
2804.079370884769
 31
0.0
  0
LINE
  5
43B
330
17
100
AcDbEntity
  8
SEIHIN
100
AcDbLine
 10
6659.98632149221
 20
4229.079370884769
 30
0.0
 11
6659.98632149221
 21
2804.079370884769
 31
0.0
  0
LINE
  5
43C
330
17
100
AcDbEntity
  8
SEIHIN
100
AcDbLine
 10
6659.98632149221
 20
2804.079370884769
 30
0.0
 11
6667.48632149221
 21
2804.079370884769
 31
0.0
  0
LINE
  5
43D
330
17
100
AcDbEntity
  8
SEIHIN
100
AcDbLine
 10
5667.48632149221
 20
2829.079370884769
 30
0.0
 11
6659.98632149221
 21
2829.079370884768
 31
0.0
  0
LINE
  5
43E
330
17
100
AcDbEntity
  8
SEIHIN
100
AcDbLine
 10
6667.48632149221
 20
4229.079370884769
 30
0.0
 11
6667.48632149221
 21
2674.079370884769
 31
0.0
  0
TEXT
  5
443
330
17
100
AcDbEntity
  8
SUNPOU
100
AcDbText
 10
7002.356635487141
 20
420.0
 30
0.0
 40
50.0
  1
1425
 72
     2
 11
7169.023302153808
 21
420.0
 31
0.0
100
AcDbText
  0
TEXT
  5
447
330
17
100
AcDbEntity
  8
SUNPOU
100
AcDbText
 10
7087.320567567876
 20
650.0
 30
0.0
 40
50.0
  1
水路用Ｌ形ブロック　H1400
 72
     4
 11
7487.320567567876
 21
675.0
 31
0.0
100
AcDbText
  0
TEXT
  5
448
330
17
100
AcDbEntity
  8
SUNPOU
100
AcDbText
 10
7391.803107551493
 20
782.2041775471989
 30
0.0
 40
50.0
  1
種～　種同一形状　構造図
 72
     4
 11
7743.46977421816
 21
807.2041775471989
 31
0.0
100
AcDbText
  0
LINE
  5
449
330
17
100
AcDbEntity
  8
SUNPOU
100
AcDbLine
 10
7346.090963390143
 20
832.2388009880342
 30
0.0
 11
7373.614263878429
 21
832.2388009880342
 31
0.0
  0
LINE
  5
44A
330
17
100
AcDbEntity
  8
SUNPOU
100
AcDbLine
 10
7346.090963390143
 20
781.5131807400576
 30
0.0
 11
7373.614263878429
 21
781.5131807400576
 31
0.0
  0
LINE
  5
44B
330
17
100
AcDbEntity
  8
SUNPOU
100
AcDbLine
 10
7359.852613634286
 20
832.2388009880342
 30
0.0
 11
7359.852613634286
 21
781.5131807400576
 31
0.0
  0
LINE
  5
44C
330
17
100
AcDbEntity
  8
SUNPOU
100
AcDbLine
 10
7505.11445218317
 20
832.2388009880342
 30
0.0
 11
7532.637752671457
 21
832.2388009880342
 31
0.0
  0
LINE
  5
44D
330
17
100
AcDbEntity
  8
SUNPOU
100
AcDbLine
 10
7505.11445218317
 20
781.5131807400576
 30
0.0
 11
7532.637752671457
 21
781.5131807400576
 31
0.0
  0
LINE
  5
44E
330
17
100
AcDbEntity
  8
SUNPOU
100
AcDbLine
 10
7518.876102427314
 20
832.2388009880342
 30
0.0
 11
7518.876102427314
 21
781.5131807400576
 31
0.0
  0
LINE
  5
44F
330
17
100
AcDbEntity
  8
SUNPOU
100
AcDbLine
 10
7518.876102427314
 20
781.5131807400576
 30
0.0
 11
7546.3994029156
 21
781.5131807400576
 31
0.0
  0
LINE
  5
450
330
17
100
AcDbEntity
  8
SUNPOU
100
AcDbLine
 10
7518.876102427314
 20
832.2388009880342
 30
0.0
 11
7546.3994029156
 21
832.2388009880342
 31
0.0
  0
LINE
  5
451
330
17
100
AcDbEntity
  8
SUNPOU
100
AcDbLine
 10
7532.637752671457
 20
832.2388009880342
 30
0.0
 11
7532.637752671457
 21
781.5131807400576
 31
0.0
  0
LINE
  5
452
330
17
100
AcDbEntity
  8
SUNPOU
100
AcDbLine
 10
7546.3994029156
 20
832.2388009880342
 30
0.0
 11
7546.3994029156
 21
781.5131807400576
 31
0.0
  0
LINE
  5
453
330
17
100
AcDbEntity
  8
SUNPOU
100
AcDbLine
 10
7532.637752671457
 20
832.2388009880342
 30
0.0
 11
7560.161053159743
 21
832.2388009880342
 31
0.0
  0
LINE
  5
454
330
17
100
AcDbEntity
  8
SUNPOU
100
AcDbLine
 10
7532.637752671457
 20
781.5131807400576
 30
0.0
 11
7560.161053159743
 21
781.5131807400576
 31
0.0
  0
LINE
  5
468
330
17
100
AcDbEntity
  8
HOJO
100
AcDbLine
 10
4316.053094424546
 20
1934.079370884769
 30
0.0
 11
3874.521969268964
 21
1934.079370884769
 31
0.0
  0
LINE
  5
469
330
17
100
AcDbEntity
  8
HOJO
100
AcDbLine
 10
4316.053094424546
 20
2054.079370884769
 30
0.0
 11
3874.521969268964
 21
2054.079370884769
 31
0.0
  0
LINE
  5
46A
330
17
100
AcDbEntity
  8
HOJO
100
AcDbLine
 10
4316.053094424546
 20
2174.079370884769
 30
0.0
 11
3874.521969268964
 21
2174.079370884769
 31
0.0
  0
DIMENSION
  5
586
330
17
100
AcDbEntity
  8
SUNPOU
100
AcDbDimension
  2
*D8
 10
6667.48632149221
 20
4657.986181300803
 30
0.0
 11
5667.48632149221
 21
4696.986181300803
 31
0.0
 70
    32
 71
     5
 42
2000.0
  3
A3-20
100
AcDbAlignedDimension
 13
4667.48632149221
 23
4229.079370884769
 33
0.0
 14
6667.48632149221
 24
4229.079370884769
 34
0.0
100
AcDbRotatedDimension
  0
DIMENSION
  5
5EF
330
17
100
AcDbEntity
  8
SUNPOU
100
AcDbDimension
  2
*D9
 10
7089.682318851148
 20
2829.079370884768
 30
0.0
 11
7050.682318851147
 21
2751.579370884769
 31
0.0
 70
    32
 71
     5
 42
154.9999999999995
  3
A3-20
100
AcDbAlignedDimension
 13
6667.48632149221
 23
2674.079370884769
 33
0.0
 14
6659.98632149221
 24
2829.079370884768
 34
0.0
 50
90.0
100
AcDbRotatedDimension
  0
DIMENSION
  5
5FC
330
17
100
AcDbEntity
  8
SUNPOU
100
AcDbDimension
  2
*D10
 10
7089.682318851148
 20
2829.079370884768
 30
0.0
 11
7050.682318851147
 21
3529.07937088477
 31
0.0
 70
    32
 71
     5
 42
1400.000000000001
  3
A3-20
100
AcDbAlignedDimension
 13
6667.48632149221
 23
4229.079370884769
 33
0.0
 14
6659.98632149221
 24
2829.079370884768
 34
0.0
 50
90.0
100
AcDbRotatedDimension
  0
DIMENSION
  5
609
330
17
100
AcDbEntity
  8
SUNPOU
100
AcDbDimension
  2
*D11
 10
7222.05063050324
 20
2674.079370884768
 30
0.0
 11
7183.050630503239
 21
3451.57937088477
 31
0.0
 70
    32
 71
     5
 42
1555.0
  3
A3-20
100
AcDbAlignedDimension
 13
6667.48632149221
 23
4229.079370884769
 33
0.0
 14
6667.48632149221
 24
2674.079370884769
 34
0.0
 50
90.0
100
AcDbRotatedDimension
  0
LINE
  5
656
330
17
100
AcDbEntity
  8
HOJO
100
AcDbLine
 10
3962.284090254785
 20
4609.079370884769
 30
0.0
 11
3520.752965099204
 21
4609.079370884769
 31
0.0
  0
TEXT
  5
698
330
17
100
AcDbEntity
  8
SUNPOU
100
AcDbText
 10
6666.78213615748
 20
791.2088067156765
 30
0.0
 40
50.0
  1
水路幅1.50～3.60m
 72
     4
 11
6953.448802824147
 21
816.2088067156765
 31
0.0
100
AcDbText
  0
TEXT
  5
E46
330
17
100
AcDbEntity
  8
SUNPOU
100
AcDbText
 10
3377.894908085962
 20
3047.746790148475
 30
0.0
 40
49.99999999999999
  1
つなぎ鉄筋
 41
0.8
100
AcDbText
  0
LEADER
  5
E48
330
17
100
AcDbEntity
  8
SUNPOU
100
AcDbLeader
  3
A3-20
 76
     3
 10
5362.112414175364
 20
2730.983598946476
 30
0.0
 10
5525.90305763514
 20
2444.595819319638
 30
0.0
 10
5931.873619085909
 20
2444.595819319638
 30
0.0
  0
TEXT
  5
E49
330
17
100
AcDbEntity
  8
SUNPOU
100
AcDbText
 10
5623.447312892875
 20
2453.875458956506
 30
0.0
 40
49.99999999999999
  1
つなぎ鉄筋
 41
0.8
100
AcDbText
  0
LEADER
  5
E4A
330
17
100
AcDbEntity
  8
SUNPOU
100
AcDbLeader
  3
A3-20
 76
     3
 10
5228.802517015152
 20
2730.983598946476
 30
0.0
 10
5392.593160474928
 20
2444.595819319638
 30
0.0
 10
5798.563721925697
 20
2444.595819319638
 30
0.0
  0
ARC
  5
F01
330
17
100
AcDbEntity
  8
SEIHIN
100
AcDbCircle
 10
2676.680029666621
 20
2929.079370884769
 30
0.0
 40
100.0
100
AcDbArc
 50
180.0
 51
269.9999999999999
  0
ARC
  5
F04
330
17
100
AcDbEntity
  8
SEIHIN
100
AcDbCircle
 10
2676.680029666621
 20
2929.079370884769
 30
0.0
 40
125.0
100
AcDbArc
 50
180.0
 51
270.0
  0
DIMENSION
  5
F0D
330
17
100
AcDbEntity
  8
SUNPOU
100
AcDbDimension
  2
*D24
 10
2676.680029666622
 20
2929.079370884768
 30
0.0
 11
2747.878852149479
 21
2997.050066805794
 31
0.0
 70
   164
 71
     5
 42
100.0
  3
A3-20
100
AcDbRadialDimension
 15
2602.046828150333
 25
2862.52198788762
 35
0.0
 40
0.0
  0
LINE
  5
F15
330
17
100
AcDbEntity
  8
SEIHIN
100
AcDbLine
 10
3076.680029666621
 20
2829.079370884769
 30
0.0
 11
3076.68002966662
 21
2674.079370884768
 31
0.0
  0
LINE
  5
F25
330
17
100
AcDbEntity
  8
SEIHIN
100
AcDbLine
 10
2576.680029666621
 20
4229.079370884769
 30
0.0
 11
2456.680029666621
 21
4229.079370884769
 31
0.0
  0
DIMENSION
  5
FCD
330
17
100
AcDbEntity
  8
SUNPOU
100
AcDbDimension
  2
*D25
 10
2576.680029666621
 20
2342.858764129618
 30
0.0
 11
2499.180029666621
 21
2381.858764129618
 31
0.0
 70
    32
 71
     5
 42
155.0
  3
A3-20
100
AcDbAlignedDimension
 13
2421.680029666621
 23
2674.079370884769
 33
0.0
 14
2576.680029666621
 24
2829.079370884769
 34
0.0
100
AcDbRotatedDimension
  0
LINE
  5
FCE
330
17
100
AcDbEntity
  8
SEIHIN
100
AcDbLine
 10
2456.680029666621
 20
4229.079370884769
 30
0.0
 11
2417.68002966662
 21
2674.079370884768
 31
0.0
  0
DIMENSION
  5
FDB
330
17
100
AcDbEntity
  8
SUNPOU
100
AcDbDimension
  2
*D26
 10
1944.489416996039
 20
2674.079370884768
 30
0.0
 11
1905.489416996038
 21
3451.579370884769
 31
0.0
 70
    32
 71
     5
 42
1555.000000000001
  3
A3-20
100
AcDbAlignedDimension
 13
2456.680029666621
 23
4229.079370884769
 33
0.0
 14
2417.68002966662
 24
2674.079370884768
 34
0.0
 50
90.0
100
AcDbRotatedDimension
  0
DIMENSION
  5
FE8
330
17
100
AcDbEntity
  8
SUNPOU
100
AcDbDimension
  2
*D27
 10
2576.680029666621
 20
4536.603671664245
 30
0.0
 11
2516.680029666621
 21
4575.603671664245
 31
0.0
 70
    32
 71
     5
 42
120.0
  3
A3-20
100
AcDbAlignedDimension
 13
2456.680029666621
 23
4229.079370884769
 33
0.0
 14
2576.680029666621
 24
4229.079370884769
 34
0.0
100
AcDbRotatedDimension
  0
DIMENSION
  5
101C
330
17
100
AcDbEntity
  8
SUNPOU
100
AcDbDimension
  2
*D29
 10
2081.543304864448
 20
2829.079370884769
 30
0.0
 11
2042.543304864448
 21
3529.07937088477
 31
0.0
 70
    32
 71
     5
 42
1400.0
  3
A3-20
100
AcDbAlignedDimension
 13
2456.680029666621
 23
4229.079370884769
 33
0.0
 14
2576.680029666621
 24
2829.079370884769
 34
0.0
 50
90.0
100
AcDbRotatedDimension
  0
DIMENSION
  5
1036
330
17
100
AcDbEntity
  8
SUNPOU
100
AcDbDimension
  2
*D30
 10
2081.543304864448
 20
2674.079370884768
 30
0.0
 11
2042.543304864448
 21
2751.579370884769
 31
0.0
 70
    32
 71
     5
 42
155.0000000000005
  3
A3-20
100
AcDbAlignedDimension
 13
2421.567489473694
 23
2829.079370884769
 33
0.0
 14
2417.68002966662
 24
2674.079370884768
 34
0.0
 50
90.0
100
AcDbRotatedDimension
  0
LINE
  5
103B
330
17
100
AcDbEntity
  8
HAIKIN
100
AcDbLine
 10
3076.680029666621
 20
2751.579370884769
 30
0.0
 11
3236.68002966662
 21
2751.579370884769
 31
0.0
  0
LINE
  5
10AC
330
17
100
AcDbEntity
  8
HAIKIN
  6
HIDDEN
100
AcDbLine
 10
3076.68002966662
 20
2751.579370884769
 30
0.0
 11
2586.68002966662
 21
2751.579370884771
 31
0.0
  0
DIMENSION
  5
11C3
330
17
100
AcDbEntity
  8
SUNPOU
100
AcDbDimension
  2
*D34
 10
3076.680029666621
 20
4536.603671664245
 30
0.0
 11
2826.680029666621
 21
4575.603671664245
 31
0.0
 70
    32
 71
     5
 42
500.0
  3
A3-20
100
AcDbAlignedDimension
 13
2576.680029666621
 23
4229.079370884769
 33
0.0
 14
3076.680029666621
 24
2829.079370884769
 34
0.0
100
AcDbRotatedDimension
  0
DIMENSION
  5
11D0
330
17
100
AcDbEntity
  8
SUNPOU
100
AcDbDimension
  2
*D35
 10
3076.680029666621
 20
4657.986181300803
 30
0.0
 11
2766.680029666621
 21
4696.986181300803
 31
0.0
 70
    32
 71
     5
 42
620.0
  3
A3-20
100
AcDbAlignedDimension
 13
2456.680029666621
 23
4229.079370884769
 33
0.0
 14
3076.680029666621
 24
2829.079370884769
 34
0.0
100
AcDbRotatedDimension
  0
DIMENSION
  5
11DD
330
17
100
AcDbEntity
  8
SUNPOU
100
AcDbDimension
  2
*D36
 10
3076.68002966662
 20
2091.458973489473
 30
0.0
 11
2747.18002966662
 21
2130.458973489473
 31
0.0
 70
    32
 71
     5
 42
658.9999999999995
  3
A3-20
100
AcDbAlignedDimension
 13
2417.68002966662
 23
2674.079370884768
 33
0.0
 14
3076.68002966662
 24
2674.079370884768
 34
0.0
100
AcDbRotatedDimension
  0
DIMENSION
  5
11EA
330
17
100
AcDbEntity
  8
SUNPOU
100
AcDbDimension
  2
*D37
 10
3076.68002966662
 20
2210.828733570303
 30
0.0
 11
2749.18002966662
 21
2249.828733570303
 31
0.0
 70
    32
 71
     5
 42
654.9999999999991
  3
A3-20
100
AcDbAlignedDimension
 13
2421.680029666621
 23
2634.079370884769
 33
0.0
 14
3076.68002966662
 24
2674.079370884768
 34
0.0
100
AcDbRotatedDimension
  0
LWPOLYLINE
  5
11EE
330
17
100
AcDbEntity
  8
SUNPOU
100
AcDbPolyline
 90
        2
 70
     1
 43
7.95
 10
4713.46132149221
 20
2751.579370884769
 42
1.0
 10
4721.511321492209
 20
2751.579370884769
 42
1.0
  0
LWPOLYLINE
  5
1218
330
17
100
AcDbEntity
  8
SUNPOU
100
AcDbPolyline
 90
        2
 70
     1
 43
7.95
 10
4840.13132149221
 20
2751.579370884769
 42
1.0
 10
4848.181321492209
 20
2751.579370884769
 42
1.0
  0
LWPOLYLINE
  5
1219
330
17
100
AcDbEntity
  8
SUNPOU
100
AcDbPolyline
 90
        2
 70
     1
 43
7.95
 10
4966.80132149221
 20
2751.579370884769
 42
1.0
 10
4974.85132149221
 20
2751.579370884769
 42
1.0
  0
LWPOLYLINE
  5
121A
330
17
100
AcDbEntity
  8
SUNPOU
100
AcDbPolyline
 90
        2
 70
     1
 43
7.95
 10
5093.47132149221
 20
2751.579370884769
 42
1.0
 10
5101.52132149221
 20
2751.579370884769
 42
1.0
  0
LWPOLYLINE
  5
121B
330
17
100
AcDbEntity
  8
SUNPOU
100
AcDbPolyline
 90
        2
 70
     1
 43
7.95
 10
5220.14132149221
 20
2751.579370884769
 42
1.0
 10
5228.19132149221
 20
2751.579370884769
 42
1.0
  0
LWPOLYLINE
  5
121C
330
17
100
AcDbEntity
  8
SUNPOU
100
AcDbPolyline
 90
        2
 70
     1
 43
7.95
 10
5346.81132149221
 20
2751.579370884769
 42
1.0
 10
5354.86132149221
 20
2751.579370884769
 42
1.0
  0
LWPOLYLINE
  5
121D
330
17
100
AcDbEntity
  8
SUNPOU
100
AcDbPolyline
 90
        2
 70
     1
 43
7.95
 10
5473.481321492211
 20
2751.579370884769
 42
1.0
 10
5481.53132149221
 20
2751.579370884769
 42
1.0
  0
LWPOLYLINE
  5
121E
330
17
100
AcDbEntity
  8
SUNPOU
100
AcDbPolyline
 90
        2
 70
     1
 43
7.95
 10
5600.151321492211
 20
2751.579370884769
 42
1.0
 10
5608.20132149221
 20
2751.579370884769
 42
1.0
  0
LWPOLYLINE
  5
121F
330
17
100
AcDbEntity
  8
SUNPOU
100
AcDbPolyline
 90
        2
 70
     1
 43
7.95
 10
6621.511321492209
 20
2751.579370884769
 42
-1.0
 10
6613.46132149221
 20
2751.579370884769
 42
-1.0
  0
LWPOLYLINE
  5
1220
330
17
100
AcDbEntity
  8
SUNPOU
100
AcDbPolyline
 90
        2
 70
     1
 43
7.95
 10
6494.841321492209
 20
2751.579370884769
 42
-1.0
 10
6486.79132149221
 20
2751.579370884769
 42
-1.0
  0
LWPOLYLINE
  5
1221
330
17
100
AcDbEntity
  8
SUNPOU
100
AcDbPolyline
 90
        2
 70
     1
 43
7.95
 10
6368.171321492209
 20
2751.579370884769
 42
-1.0
 10
6360.12132149221
 20
2751.579370884769
 42
-1.0
  0
LWPOLYLINE
  5
1222
330
17
100
AcDbEntity
  8
SUNPOU
100
AcDbPolyline
 90
        2
 70
     1
 43
7.95
 10
6241.501321492209
 20
2751.579370884769
 42
-1.0
 10
6233.45132149221
 20
2751.579370884769
 42
-1.0
  0
LWPOLYLINE
  5
1223
330
17
100
AcDbEntity
  8
SUNPOU
100
AcDbPolyline
 90
        2
 70
     1
 43
7.95
 10
5988.161321492209
 20
2751.579370884769
 42
-1.0
 10
5980.11132149221
 20
2751.579370884769
 42
-1.0
  0
LWPOLYLINE
  5
1224
330
17
100
AcDbEntity
  8
SUNPOU
100
AcDbPolyline
 90
        2
 70
     1
 43
7.95
 10
6114.831321492209
 20
2751.579370884769
 42
-1.0
 10
6106.78132149221
 20
2751.579370884769
 42
-1.0
  0
LWPOLYLINE
  5
1225
330
17
100
AcDbEntity
  8
SUNPOU
100
AcDbPolyline
 90
        2
 70
     1
 43
7.95
 10
5861.491321492209
 20
2751.579370884769
 42
-1.0
 10
5853.44132149221
 20
2751.579370884769
 42
-1.0
  0
LWPOLYLINE
  5
1226
330
17
100
AcDbEntity
  8
SUNPOU
100
AcDbPolyline
 90
        2
 70
     1
 43
7.95
 10
5734.821321492209
 20
2751.579370884769
 42
-1.0
 10
5726.77132149221
 20
2751.579370884769
 42
-1.0
  0
LEADER
  5
126E
330
17
100
AcDbEntity
  8
SUNPOU
100
AcDbLeader
  3
A3-20
 76
     3
 10
3126.795206135335
 20
2752.07937088477
 30
0.0
 10
3290.585849595111
 20
3038.467150511607
 30
0.0
 10
3696.55641104588
 20
3038.467150511607
 30
0.0
  0
TEXT
  5
126F
330
17
100
AcDbEntity
  8
SUNPOU
100
AcDbText
 10
3377.894908085962
 20
2976.925407994425
 30
0.0
 40
49.99999999999999
  1
D16x16
 41
0.8
100
AcDbText
  0
TEXT
  5
1270
330
17
100
AcDbEntity
  8
SUNPOU
100
AcDbText
 10
5613.212116125991
 20
2383.054076802456
 30
0.0
 40
49.99999999999999
  1
D16x16
 41
0.8
100
AcDbText
  0
DIMENSION
  5
1DE5
330
17
100
AcDbEntity
  8
SUNPOU
100
AcDbDimension
  2
*D122
 10
2417.68254418794
 20
2210.828733570303
 30
0.0
 11
2445.903907927648
 21
2249.828733570303
 31
0.0
 70
   160
 71
     5
 42
3.997485478681028
  3
A3-20
100
AcDbAlignedDimension
 13
2421.680029666621
 23
2674.079370884769
 33
0.0
 14
2417.68254418794
 24
2674.179629363012
 34
0.0
100
AcDbRotatedDimension
  0
ENDSEC
  0
SECTION
  2
OBJECTS
  0
DICTIONARY
  5
C
330
0
100
AcDbDictionary
281
     1
  3
ACAD_CIP_PREVIOUS_PRODUCT_INFO
350
1339
  3
ACAD_COLOR
350
131B
  3
ACAD_DETAILVIEWSTYLE
350
1334
  3
ACAD_GROUP
350
D
  3
ACAD_LAYOUT
350
12D9
  3
ACAD_MATERIAL
350
12E9
  3
ACAD_MLEADERSTYLE
350
1330
  3
ACAD_MLINESTYLE
350
1A
  3
ACAD_PLOTSETTINGS
350
12DA
  3
ACAD_PLOTSTYLENAME
350
12D7
  3
ACAD_SCALELIST
350
131E
  3
ACAD_SECTIONVIEWSTYLE
350
1332
  3
ACAD_TABLESTYLE
350
131C
  3
ACAD_VISUALSTYLE
350
1302
  3
ACDB_RECOMPOSE_DATA
350
1E89
  3
AcDbVariableDictionary
350
12E1
  3
AcDsDecomposeData
350
1E41
  0
DICTIONARY
  5
1CAC
330
8
100
AcDbDictionary
280
     1
281
     1
  3
ACAD_XREC_ROUNDTRIP
360
1E7F
  0
DICTIONARY
  5
134F
330
2
100
AcDbDictionary
280
     1
281
     1
  3
ACAD_LAYERSTATES
360
1350
  0
DICTIONARY
  5
133A
330
E
100
AcDbDictionary
280
     1
281
     1
  3
ADSK_XREC_LAYER_RECONCILED
360
133B
  0
DICTIONARY
  5
133C
330
23
100
AcDbDictionary
280
     1
281
     1
  3
ADSK_XREC_LAYER_RECONCILED
360
133D
  0
DICTIONARY
  5
133E
330
24
100
AcDbDictionary
280
     1
281
     1
  3
ADSK_XREC_LAYER_RECONCILED
360
133F
  0
DICTIONARY
  5
1340
330
25
100
AcDbDictionary
280
     1
281
     1
  3
ADSK_XREC_LAYER_RECONCILED
360
1341
  0
DICTIONARY
  5
1342
330
26
100
AcDbDictionary
280
     1
281
     1
  3
ADSK_XREC_LAYER_RECONCILED
360
1343
  0
DICTIONARY
  5
1344
330
27
100
AcDbDictionary
280
     1
281
     1
  3
ADSK_XREC_LAYER_RECONCILED
360
1345
  0
DICTIONARY
  5
1346
330
28
100
AcDbDictionary
280
     1
281
     1
  3
ADSK_XREC_LAYER_RECONCILED
360
1347
  0
DICTIONARY
  5
1348
330
29
100
AcDbDictionary
280
     1
281
     1
  3
ADSK_XREC_LAYER_RECONCILED
360
1349
  0
DICTIONARY
  5
134A
330
2A
100
AcDbDictionary
280
     1
281
     1
  3
ADSK_XREC_LAYER_RECONCILED
360
134B
  0
XRECORD
  5
1339
102
{ACAD_REACTORS
330
C
102
}
330
C
100
AcDbXrecord
280
     1
300
ACD
300
2014
300
ACD_F_S
  0
DICTIONARY
  5
131B
102
{ACAD_REACTORS
330
C
102
}
330
C
100
AcDbDictionary
281
     1
  0
DICTIONARY
  5
1334
102
{ACAD_REACTORS
330
C
102
}
330
C
100
AcDbDictionary
281
     1
  3
Imperial24
350
1335
  0
DICTIONARY
  5
D
102
{ACAD_REACTORS
330
C
102
}
330
C
100
AcDbDictionary
281
     1
  0
DICTIONARY
  5
12D9
102
{ACAD_REACTORS
330
C
102
}
330
C
100
AcDbDictionary
281
     1
  3
Model
350
12DB
  3
ﾚｲｱｳﾄ1
350
12DC
  0
DICTIONARY
  5
12E9
102
{ACAD_REACTORS
330
C
102
}
330
C
100
AcDbDictionary
281
     1
  3
ByBlock
350
12F2
  3
ByLayer
350
12EA
  3
Global
350
12FA
  0
DICTIONARY
  5
1330
102
{ACAD_REACTORS
330
C
102
}
330
C
100
AcDbDictionary
281
     1
  3
Standard
350
1331
  0
DICTIONARY
  5
1A
102
{ACAD_REACTORS
330
C
102
}
330
C
100
AcDbDictionary
281
     1
  3
STANDARD
350
1B
  0
DICTIONARY
  5
12DA
102
{ACAD_REACTORS
330
C
102
}
330
C
100
AcDbDictionary
281
     1
  0
ACDBDICTIONARYWDFLT
  5
12D7
102
{ACAD_REACTORS
330
C
102
}
330
C
100
AcDbDictionary
281
     1
  3
Normal
350
12D8
100
AcDbDictionaryWithDefault
340
12D8
  0
DICTIONARY
  5
131E
102
{ACAD_REACTORS
330
C
102
}
330
C
100
AcDbDictionary
281
     1
  3
A0
350
131F
  3
A1
350
1320
  3
A2
350
1321
  3
A3
350
1322
  3
A4
350
1323
  3
A5
350
1324
  3
A6
350
1325
  3
A7
350
1326
  3
A8
350
1327
  3
A9
350
1328
  3
B0
350
1329
  3
B1
350
132A
  3
B2
350
132B
  3
B3
350
132C
  3
B4
350
132D
  3
B5
350
132E
  3
B6
350
132F
  0
DICTIONARY
  5
1332
102
{ACAD_REACTORS
330
C
102
}
330
C
100
AcDbDictionary
281
     1
  3
Imperial24
350
1333
  0
DICTIONARY
  5
131C
102
{ACAD_REACTORS
330
C
102
}
330
C
100
AcDbDictionary
281
     1
  3
Standard
350
131D
  0
DICTIONARY
  5
1302
102
{ACAD_REACTORS
330
C
102
}
330
C
100
AcDbDictionary
281
     1
  3
2dWireframe
350
1308
  3
Basic
350
1307
  3
Brighten
350
130E
  3
ColorChange
350
1312
  3
Conceptual
350
130B
  3
Dim
350
130D
  3
EdgeColorOff
350
131A
  3
Facepattern
350
1311
  3
Flat
350
1303
  3
FlatWithEdges
350
1304
  3
Gouraud
350
1305
  3
GouraudWithEdges
350
1306
  3
Hidden
350
130A
  3
JitterOff
350
1318
  3
Linepattern
350
1310
  3
OverhangOff
350
1319
  3
Realistic
350
130C
  3
Shaded
350
1317
  3
Shaded with edges
350
1316
  3
Shades of Gray
350
1313
  3
Sketchy
350
1314
  3
Thicken
350
130F
  3
Wireframe
350
1309
  3
X-Ray
350
1315
  0
XRECORD
  5
1E89
102
{ACAD_REACTORS
330
C
102
}
330
C
100
AcDbXrecord
280
     1
 90
        1
330
131D
  0
DICTIONARY
  5
12E1
102
{ACAD_REACTORS
330
C
102
}
330
C
100
AcDbDictionary
281
     1
  3
CANNOSCALE
350
1CEF
  3
CMLEADERSTYLE
350
1CEC
  3
CTABLESTYLE
350
1CEB
  3
CVIEWDETAILSTYLE
350
1CED
  3
CVIEWSECTIONSTYLE
350
1CEE
  3
DIMASSOC
350
12E2
  3
LAYEREVAL
350
1E7C
  3
LAYERNOTIFY
350
1E7D
  3
LIGHTINGUNITS
350
1E7B
  3
MSLTSCALE
350
1E7A
  3
XCLIPFRAME
350
1E7E
  0
DICTIONARY
  5
1E41
102
{ACAD_REACTORS
330
C
102
}
330
C
100
AcDbDictionary
281
     1
  3
AcDsRecords
350
1E43
  3
AcDsSchemas
350
1E42
1001
ACAD
1070
     2
  0
XRECORD
  5
1E7F
102
{ACAD_REACTORS
330
1CAC
102
}
330
1CAC
100
AcDbXrecord
280
     1
102
VTR_0.000_0.000_1.000_1.000_VISUALSTYLE
340
1308
102
VTR_0.000_0.000_1.000_1.000_GRIDDISPLAY
 70
     3
102
VTR_0.000_0.000_1.000_1.000_GRIDMAJOR
 70
     5
102
VTR_0.000_0.000_1.000_1.000_DEFAULTLIGHTING
280
     1
102
VTR_0.000_0.000_1.000_1.000_DEFAULTLIGHTINGTYPE
 70
     1
102
VTR_0.000_0.000_1.000_1.000_BRIGHTNESS
141
0.0
102
VTR_0.000_0.000_1.000_1.000_CONTRAST
142
0.0
  0
DICTIONARY
  5
1350
102
{ACAD_REACTORS
330
134F
102
}
330
134F
100
AcDbDictionary
281
     1
  0
XRECORD
  5
133B
102
{ACAD_REACTORS
330
133A
102
}
330
133A
100
AcDbXrecord
280
     1
290
     1
  0
XRECORD
  5
133D
102
{ACAD_REACTORS
330
133C
102
}
330
133C
100
AcDbXrecord
280
     1
290
     1
  0
XRECORD
  5
133F
102
{ACAD_REACTORS
330
133E
102
}
330
133E
100
AcDbXrecord
280
     1
290
     1
  0
XRECORD
  5
1341
102
{ACAD_REACTORS
330
1340
102
}
330
1340
100
AcDbXrecord
280
     1
290
     1
  0
XRECORD
  5
1343
102
{ACAD_REACTORS
330
1342
102
}
330
1342
100
AcDbXrecord
280
     1
290
     1
  0
XRECORD
  5
1345
102
{ACAD_REACTORS
330
1344
102
}
330
1344
100
AcDbXrecord
280
     1
290
     1
  0
XRECORD
  5
1347
102
{ACAD_REACTORS
330
1346
102
}
330
1346
100
AcDbXrecord
280
     1
290
     1
  0
XRECORD
  5
1349
102
{ACAD_REACTORS
330
1348
102
}
330
1348
100
AcDbXrecord
280
     1
290
     1
  0
XRECORD
  5
134B
102
{ACAD_REACTORS
330
134A
102
}
330
134A
100
AcDbXrecord
280
     1
290
     1
  0
ACAD_PROXY_OBJECT
  5
1335
102
{ACAD_REACTORS
330
1334
102
}
102
{ACAD_XDICTIONARY
360
1E78
102
}
330
1334
100
AcDbProxyObject
 90
      499
 91
      511
 95
  3276827
 70
     0
 93
     2314
310
9207000000180005C0F42F5A8DC671F815AF46E07A15AE7E07000000180005C0F42F5A8DC671FA3300000018001000000180005C0F42F5A8DC671FA02000000000000741FA028CC00000060002330000001800000852480368038003280390034803080360019001A004AD12801E002E00208031802B003080390010002B00
310
348032803B802A003C803800328010002E0033001000110012803A003180188011001F001280100012801E002E00208031802B003080390010002B00348032803B80220032803A00308034803600248032001F0012802E00280029802180208026002280100012801E002E00208031802B003080390010002B00348032803B
310
802980318030803600328010002E0033001000110012803980370011001F0012802B0340
340
F
340
0
340
13
340
F
340
13
340
13
 94
        0
  0
LAYOUT
  5
12DB
102
{ACAD_REACTORS
330
12D9
102
}
102
{ACAD_XDICTIONARY
360
1CAE
102
}
330
12D9
100
AcDbPlotSettings
  1

  2
RICOH imagio MP C3500 RPCS
  4
A4
  6

 40
5.873749732971191
 41
5.873747825622559
 42
5.873748779296875
 43
5.873748779296875
 44
209.9733276367188
 45
296.9259948730469
 46
0.0
 47
6.61
 48
339.2345247685407
 49
-138.2391020513969
140
8286.878428514341
141
5654.465527923756
142
1.0
143
29.22275394463534
 70
 11956
 72
     1
 73
     1
 74
     4
  7

 75
     0
 76
     0
 77
     2
 78
   300
147
0.0342199096599374
148
-339.2345247685407
149
138.2391020513969
100
AcDbLayout
  1
Model
 70
     1
 71
     0
 10
0.0
 20
0.0
 11
12.0
 21
9.0
 12
0.0
 22
0.0
 32
0.0
 14
0.0
 24
0.0
 34
0.0
 15
0.0
 25
0.0
 35
0.0
146
0.0
 13
0.0
 23
0.0
 33
0.0
 16
1.0
 26
0.0
 36
0.0
 17
0.0
 27
1.0
 37
0.0
 76
     0
330
17
331
12E7
  0
LAYOUT
  5
12DC
102
{ACAD_REACTORS
330
12D9
102
}
330
12D9
100
AcDbPlotSettings
  1

  2
RICOH IPSiO CX8800 RPCS
  4

  6

 40
0.0
 41
0.0
 42
0.0
 43
0.0
 44
0.0
 45
0.0
 46
0.0
 47
0.0
 48
0.0
 49
0.0
140
0.0
141
0.0
142
1.0
143
1.0
 70
   688
 72
     0
 73
     0
 74
     5
  7

 75
    16
 76
     0
 77
     2
 78
   300
147
1.0
148
0.0
149
0.0
100
AcDbLayout
  1
ﾚｲｱｳﾄ1
 70
     0
 71
     1
 10
0.0
 20
0.0
 11
12.0
 21
9.0
 12
0.0
 22
0.0
 32
0.0
 14
1.000000000000000E+20
 24
1.000000000000000E+20
 34
1.000000000000000E+20
 15
-1.000000000000000E+20
 25
-1.000000000000000E+20
 35
-1.000000000000000E+20
146
0.0
 13
0.0
 23
0.0
 33
0.0
 16
1.0
 26
0.0
 36
0.0
 17
0.0
 27
1.0
 37
0.0
 76
     0
330
14
  0
MATERIAL
  5
12F2
102
{ACAD_REACTORS
330
12E9
102
}
102
{ACAD_XDICTIONARY
360
1E80
102
}
330
12E9
100
AcDbMaterial
  1
ByBlock
 72
     0
 73
     2
 43
0.0208333333333333
 43
0.0
 43
0.0
 43
0.0
 43
0.0
 43
0.0208333333333333
 43
0.0
 43
0.0
 43
0.0
 43
0.0
 43
1.0
 43
0.0
 43
0.0
 43
0.0
 43
0.0
 43
1.0
 77
     0
 78
     2
 47
0.0208333333333333
 47
0.0
 47
0.0
 47
0.0
 47
0.0
 47
0.0208333333333333
 47
0.0
 47
0.0
 47
0.0
 47
0.0
 47
1.0
 47
0.0
 47
0.0
 47
0.0
 47
0.0
 47
1.0
171
     0
172
     2
 49
0.0208333333333333
 49
0.0
 49
0.0
 49
0.0
 49
0.0
 49
0.0208333333333333
 49
0.0
 49
0.0
 49
0.0
 49
0.0
 49
1.0
 49
0.0
 49
0.0
 49
0.0
 49
0.0
 49
1.0
175
     0
176
     2
142
0.0208333333333333
142
0.0
142
0.0
142
0.0
142
0.0
142
0.0208333333333333
142
0.0
142
0.0
142
0.0
142
0.0
142
1.0
142
0.0
142
0.0
142
0.0
142
0.0
142
1.0
179
     0
270
     2
144
0.0208333333333333
144
0.0
144
0.0
144
0.0
144
0.0
144
0.0208333333333333
144
0.0
144
0.0
144
0.0
144
0.0
144
1.0
144
0.0
144
0.0
144
0.0
144
0.0
144
1.0
274
     2
147
0.0208333333333333
147
0.0
147
0.0
147
0.0
147
0.0
147
0.0208333333333333
147
0.0
147
0.0
147
0.0
147
0.0
147
1.0
147
0.0
147
0.0
147
0.0
147
0.0
147
1.0
  0
MATERIAL
  5
12EA
102
{ACAD_REACTORS
330
12E9
102
}
102
{ACAD_XDICTIONARY
360
1E82
102
}
330
12E9
100
AcDbMaterial
  1
ByLayer
 72
     0
 73
     2
 43
0.0208333333333333
 43
0.0
 43
0.0
 43
0.0
 43
0.0
 43
0.0208333333333333
 43
0.0
 43
0.0
 43
0.0
 43
0.0
 43
1.0
 43
0.0
 43
0.0
 43
0.0
 43
0.0
 43
1.0
 77
     0
 78
     2
 47
0.0208333333333333
 47
0.0
 47
0.0
 47
0.0
 47
0.0
 47
0.0208333333333333
 47
0.0
 47
0.0
 47
0.0
 47
0.0
 47
1.0
 47
0.0
 47
0.0
 47
0.0
 47
0.0
 47
1.0
171
     0
172
     2
 49
0.0208333333333333
 49
0.0
 49
0.0
 49
0.0
 49
0.0
 49
0.0208333333333333
 49
0.0
 49
0.0
 49
0.0
 49
0.0
 49
1.0
 49
0.0
 49
0.0
 49
0.0
 49
0.0
 49
1.0
175
     0
176
     2
142
0.0208333333333333
142
0.0
142
0.0
142
0.0
142
0.0
142
0.0208333333333333
142
0.0
142
0.0
142
0.0
142
0.0
142
1.0
142
0.0
142
0.0
142
0.0
142
0.0
142
1.0
179
     0
270
     2
144
0.0208333333333333
144
0.0
144
0.0
144
0.0
144
0.0
144
0.0208333333333333
144
0.0
144
0.0
144
0.0
144
0.0
144
1.0
144
0.0
144
0.0
144
0.0
144
0.0
144
1.0
274
     2
147
0.0208333333333333
147
0.0
147
0.0
147
0.0
147
0.0
147
0.0208333333333333
147
0.0
147
0.0
147
0.0
147
0.0
147
1.0
147
0.0
147
0.0
147
0.0
147
0.0
147
1.0
  0
MATERIAL
  5
12FA
102
{ACAD_REACTORS
330
12E9
102
}
102
{ACAD_XDICTIONARY
360
1E84
102
}
330
12E9
100
AcDbMaterial
  1
Global
 72
     0
 73
     2
 43
0.0208333333333333
 43
0.0
 43
0.0
 43
0.0
 43
0.0
 43
0.0208333333333333
 43
0.0
 43
0.0
 43
0.0
 43
0.0
 43
1.0
 43
0.0
 43
0.0
 43
0.0
 43
0.0
 43
1.0
 77
     0
 78
     2
 47
0.0208333333333333
 47
0.0
 47
0.0
 47
0.0
 47
0.0
 47
0.0208333333333333
 47
0.0
 47
0.0
 47
0.0
 47
0.0
 47
1.0
 47
0.0
 47
0.0
 47
0.0
 47
0.0
 47
1.0
171
     0
172
     2
 49
0.0208333333333333
 49
0.0
 49
0.0
 49
0.0
 49
0.0
 49
0.0208333333333333
 49
0.0
 49
0.0
 49
0.0
 49
0.0
 49
1.0
 49
0.0
 49
0.0
 49
0.0
 49
0.0
 49
1.0
175
     0
176
     2
142
0.0208333333333333
142
0.0
142
0.0
142
0.0
142
0.0
142
0.0208333333333333
142
0.0
142
0.0
142
0.0
142
0.0
142
1.0
142
0.0
142
0.0
142
0.0
142
0.0
142
1.0
179
     0
270
     2
144
0.0208333333333333
144
0.0
144
0.0
144
0.0
144
0.0
144
0.0208333333333333
144
0.0
144
0.0
144
0.0
144
0.0
144
1.0
144
0.0
144
0.0
144
0.0
144
0.0
144
1.0
274
     2
147
0.0208333333333333
147
0.0
147
0.0
147
0.0
147
0.0
147
0.0208333333333333
147
0.0
147
0.0
147
0.0
147
0.0
147
1.0
147
0.0
147
0.0
147
0.0
147
0.0
147
1.0
  0
MLEADERSTYLE
  5
1331
102
{ACAD_REACTORS
330
1330
102
}
330
1330
100
AcDbMLeaderStyle
170
     2
171
     1
172
     0
 90
        2
 40
0.0
 41
0.0
173
     1
 91
-1056964608
340
11
 92
       -2
290
     1
 42
0.09
291
     1
 43
0.36
  3
Standard
341
0
 44
0.18
300

342
F
174
     1
178
     6
175
     1
176
     0
 93
-1056964608
 45
0.18
292
     0
297
     0
 46
0.18
343
0
 94
-1056964608
 47
1.0
 49
1.0
140
1.0
293
     1
141
0.0
294
     1
177
     0
142
1.0
295
     0
296
     0
143
0.125
1001
ACAD_MLEADERVER
1070
     2
  0
MLINESTYLE
  5
1B
102
{ACAD_REACTORS
330
1A
102
}
330
1A
100
AcDbMlineStyle
  2
STANDARD
 70
     0
  3

 62
   256
 51
90.0
 52
90.0
 71
     2
 49
0.5
 62
   256
  6
BYLAYER
 49
-0.5
 62
   256
  6
BYLAYER
  0
ACDBPLACEHOLDER
  5
12D8
102
{ACAD_REACTORS
330
12D7
102
}
330
12D7
  0
SCALE
  5
131F
102
{ACAD_REACTORS
330
131E
102
}
330
131E
100
AcDbScale
 70
     0
300
1:1
140
1.0
141
1.0
290
     1
  0
SCALE
  5
1320
102
{ACAD_REACTORS
330
131E
102
}
330
131E
100
AcDbScale
 70
     0
300
1/128" = 1'-0"
140
0.0078125
141
12.0
290
     0
  0
SCALE
  5
1321
102
{ACAD_REACTORS
330
131E
102
}
330
131E
100
AcDbScale
 70
     0
300
1/64" = 1'-0"
140
0.015625
141
12.0
290
     0
  0
SCALE
  5
1322
102
{ACAD_REACTORS
330
131E
102
}
330
131E
100
AcDbScale
 70
     0
300
1/32" = 1'-0"
140
0.03125
141
12.0
290
     0
  0
SCALE
  5
1323
102
{ACAD_REACTORS
330
131E
102
}
330
131E
100
AcDbScale
 70
     0
300
1/16" = 1'-0"
140
0.0625
141
12.0
290
     0
  0
SCALE
  5
1324
102
{ACAD_REACTORS
330
131E
102
}
330
131E
100
AcDbScale
 70
     0
300
3/32" = 1'-0"
140
0.09375
141
12.0
290
     0
  0
SCALE
  5
1325
102
{ACAD_REACTORS
330
131E
102
}
330
131E
100
AcDbScale
 70
     0
300
1/8" = 1'-0"
140
0.125
141
12.0
290
     0
  0
SCALE
  5
1326
102
{ACAD_REACTORS
330
131E
102
}
330
131E
100
AcDbScale
 70
     0
300
3/16" = 1'-0"
140
0.1875
141
12.0
290
     0
  0
SCALE
  5
1327
102
{ACAD_REACTORS
330
131E
102
}
330
131E
100
AcDbScale
 70
     0
300
1/4" = 1'-0"
140
0.25
141
12.0
290
     0
  0
SCALE
  5
1328
102
{ACAD_REACTORS
330
131E
102
}
330
131E
100
AcDbScale
 70
     0
300
3/8" = 1'-0"
140
0.375
141
12.0
290
     0
  0
SCALE
  5
1329
102
{ACAD_REACTORS
330
131E
102
}
330
131E
100
AcDbScale
 70
     0
300
1/2" = 1'-0"
140
0.5
141
12.0
290
     0
  0
SCALE
  5
132A
102
{ACAD_REACTORS
330
131E
102
}
330
131E
100
AcDbScale
 70
     0
300
3/4" = 1'-0"
140
0.75
141
12.0
290
     0
  0
SCALE
  5
132B
102
{ACAD_REACTORS
330
131E
102
}
330
131E
100
AcDbScale
 70
     0
300
1" = 1'-0"
140
1.0
141
12.0
290
     0
  0
SCALE
  5
132C
102
{ACAD_REACTORS
330
131E
102
}
330
131E
100
AcDbScale
 70
     0
300
1-1/2" = 1'-0"
140
1.5
141
12.0
290
     0
  0
SCALE
  5
132D
102
{ACAD_REACTORS
330
131E
102
}
330
131E
100
AcDbScale
 70
     0
300
3" = 1'-0"
140
3.0
141
12.0
290
     0
  0
SCALE
  5
132E
102
{ACAD_REACTORS
330
131E
102
}
330
131E
100
AcDbScale
 70
     0
300
6" = 1'-0"
140
6.0
141
12.0
290
     0
  0
SCALE
  5
132F
102
{ACAD_REACTORS
330
131E
102
}
330
131E
100
AcDbScale
 70
     0
300
1'-0" = 1'-0"
140
12.0
141
12.0
290
     0
  0
ACAD_PROXY_OBJECT
  5
1333
102
{ACAD_REACTORS
330
1332
102
}
102
{ACAD_XDICTIONARY
360
1E76
102
}
330
1332
100
AcDbProxyObject
 90
      499
 91
      510
 95
  3276827
 70
     0
 93
     3814
310
929D000000180005C0F42F5A8DC671FC00000060001703D0BD6A3719C7E5C0F42F5A8DC6F1FA330000001800099400000060001703D0BD6A3719C7E5C0F42F5A8DC671FC00000060001703D0BD6A3719C7E808000000000001D07E80C0000006000400000064003081815AF46E07A158E7E80C8340C16A22A7D90FC9F8CAE6
310
5A70A583A07E1FE81C635378FA1F8CAE65A70A583A17E7944A7F127A97E9FA149200DA00E000CA00E400D200C200D80064006800882480160010002780160010002880160010002980160010002C00160010002D002F84A007800B8008200C600AC00C200E4004000AC00D200CA00EE00A800F200E000CA004000B800CC004
310
00044004A00E800C600620044007C004A0040004A007800B8008200C600AC00C200E4004000AC00D200CA00EE00A600CA00C600E800D200DE00DC00A600E800C200E400E8009200C8007C004A005A004A007800B8008200C600AC00C200E4004000AC00D200CA00EE00A600CA00C600E800D200DE00DC008A00DC00C800920
310
0C8007C004A00B800A000A6008600820098008A0040004A007800B8008200C600AC00C200E4004000AC00D200CA00EE00A600C600C200D800CA004000B800CC00400044004A00E600DC0044007C004A00832080270029802480198018807404C
340
F
340
0
340
0
340
13
340
13
340
F
 94
        0
  0
TABLESTYLE
  5
131D
102
{ACAD_REACTORS
330
131C
102
}
102
{ACAD_XDICTIONARY
360
1E86
102
}
330
131C
100
AcDbTableStyle
  3
Standard
 70
     0
 71
     0
 40
0.06
 41
0.06
280
     0
281
     0
  7
STANDARD
140
0.18
170
     2
 62
     0
 63
   257
283
     0
274
    -2
284
     1
 64
     0
275
    -2
285
     1
 65
     0
276
    -2
286
     1
 66
     0
277
    -2
287
     1
 67
     0
278
    -2
288
     1
 68
     0
279
    -2
289
     1
 69
     0
  7
STANDARD
140
0.25
170
     5
 62
     0
 63
   257
283
     0
274
    -2
284
     1
 64
     0
275
    -2
285
     1
 65
     0
276
    -2
286
     1
 66
     0
277
    -2
287
     1
 67
     0
278
    -2
288
     1
 68
     0
279
    -2
289
     1
 69
     0
  7
STANDARD
140
0.18
170
     5
 62
     0
 63
   257
283
     0
274
    -2
284
     1
 64
     0
275
    -2
285
     1
 65
     0
276
    -2
286
     1
 66
     0
277
    -2
287
     1
 67
     0
278
    -2
288
     1
 68
     0
279
    -2
289
     1
 69
     0
  0
VISUALSTYLE
  5
1308
102
{ACAD_REACTORS
330
1302
102
}
102
{ACAD_XDICTIONARY
360
1E8A
102
}
330
1302
100
AcDbVisualStyle
  2
2dWireframe
 70
     4
 71
     0
 72
     2
 73
     0
 90
        0
 40
-0.6
 41
-30.0
 62
     5
 63
     7
421
 16777215
 74
     1
 91
        4
 64
     7
 65
   257
 75
     1
175
     1
 42
1.0
 92
        0
 66
   257
 43
1.0
 76
     1
 77
     6
 78
     2
 67
     7
 79
     5
170
     0
171
     0
290
     0
174
     0
 93
        1
 44
0.0
173
     0
291
     0
 45
0.0
1001
ACAD
1000
AcDbSavedByObjectVersion
1070
     0
  0
VISUALSTYLE
  5
1307
102
{ACAD_REACTORS
330
1302
102
}
102
{ACAD_XDICTIONARY
360
1E8C
102
}
330
1302
100
AcDbVisualStyle
  2
Basic
 70
     7
 71
     1
 72
     0
 73
     1
 90
        0
 40
-0.6
 41
-30.0
 62
     5
 63
     7
421
 16777215
 74
     0
 91
        4
 64
     7
 65
   257
 75
     1
175
     1
 42
1.0
 92
        8
 66
     7
 43
1.0
 76
     1
 77
     6
 78
     2
 67
     7
 79
     5
170
     0
171
     0
290
     0
174
     0
 93
        1
 44
0.0
173
     0
291
     1
 45
0.0
1001
ACAD
1000
AcDbSavedByObjectVersion
1070
     0
  0
VISUALSTYLE
  5
130E
102
{ACAD_REACTORS
330
1302
102
}
102
{ACAD_XDICTIONARY
360
1E8E
102
}
330
1302
100
AcDbVisualStyle
  2
Brighten
 70
    12
 71
     2
 72
     2
 73
     0
 90
        0
 40
-0.6
 41
-30.0
 62
     5
 63
     7
421
 16777215
 74
     1
 91
        4
 64
     7
 65
   257
 75
     1
175
     1
 42
1.0
 92
        8
 66
     7
 43
1.0
 76
     1
 77
     6
 78
     2
 67
     7
 79
     5
170
     0
171
     0
290
     0
174
     0
 93
        1
 44
50.0
173
     0
291
     1
 45
0.0
1001
ACAD
1000
AcDbSavedByObjectVersion
1070
     0
  0
VISUALSTYLE
  5
1312
102
{ACAD_REACTORS
330
1302
102
}
102
{ACAD_XDICTIONARY
360
1E90
102
}
330
1302
100
AcDbVisualStyle
  2
ColorChange
 70
    16
 71
     2
 72
     2
 73
     3
 90
        0
 40
-0.6
 41
-30.0
 62
     5
 63
     8
421
  8421504
 74
     1
 91
        4
 64
     7
 65
   257
 75
     1
175
     1
 42
1.0
 92
        8
 66
     8
424
  8421504
 43
1.0
 76
     1
 77
     6
 78
     2
 67
     7
 79
     5
170
     0
171
     0
290
     0
174
     0
 93
        1
 44
0.0
173
     0
291
     1
 45
0.0
1001
ACAD
1000
AcDbSavedByObjectVersion
1070
     0
  0
VISUALSTYLE
  5
130B
102
{ACAD_REACTORS
330
1302
102
}
102
{ACAD_XDICTIONARY
360
1E92
102
}
330
1302
100
AcDbVisualStyle
  2
Conceptual
 70
     9
 71
     3
 72
     2
 73
     0
 90
        0
 40
-0.6
 41
-30.0
 62
     5
 63
     7
421
 16777215
 74
     2
 91
        2
 64
     7
 65
   257
 75
     1
175
     1
 42
179.0
 92
        8
 66
     7
 43
1.0
 76
     1
 77
     6
 78
     2
 67
     7
 79
     3
170
     0
171
     0
290
     0
174
     0
 93
        1
 44
0.0
173
     0
291
     0
 45
0.0
1001
ACAD
1000
AcDbSavedByObjectVersion
1070
     0
  0
VISUALSTYLE
  5
130D
102
{ACAD_REACTORS
330
1302
102
}
102
{ACAD_XDICTIONARY
360
1E94
102
}
330
1302
100
AcDbVisualStyle
  2
Dim
 70
    11
 71
     2
 72
     2
 73
     0
 90
        0
 40
-0.6
 41
-30.0
 62
     5
 63
     7
421
 16777215
 74
     1
 91
        4
 64
     7
 65
   257
 75
     1
175
     1
 42
1.0
 92
        8
 66
     7
 43
1.0
 76
     1
 77
     6
 78
     2
 67
     7
 79
     5
170
     0
171
     0
290
     0
174
     0
 93
        1
 44
-50.0
173
     0
291
     1
 45
0.0
1001
ACAD
1000
AcDbSavedByObjectVersion
1070
     0
  0
VISUALSTYLE
  5
131A
102
{ACAD_REACTORS
330
1302
102
}
102
{ACAD_XDICTIONARY
360
1E96
102
}
330
1302
100
AcDbVisualStyle
  2
EdgeColorOff
 70
    22
 71
     2
 72
     2
 73
     0
 90
        0
 40
-0.6
 41
-30.0
 62
     5
 63
     7
421
 16777215
 74
     1
 91
        4
 64
     7
 65
   257
 75
     1
175
     1
 42
1.0
 92
        8
 66
     7
 43
1.0
 76
     1
 77
     6
 78
     2
 67
     7
 79
     5
170
     0
171
     0
290
     0
174
     0
 93
        1
 44
0.0
173
     0
291
     1
 45
0.0
1001
ACAD
1000
AcDbSavedByObjectVersion
1070
     0
  0
VISUALSTYLE
  5
1311
102
{ACAD_REACTORS
330
1302
102
}
102
{ACAD_XDICTIONARY
360
1E98
102
}
330
1302
100
AcDbVisualStyle
  2
Facepattern
 70
    15
 71
     2
 72
     2
 73
     0
 90
        0
 40
-0.6
 41
-30.0
 62
     5
 63
     7
421
 16777215
 74
     1
 91
        4
 64
     7
 65
   257
 75
     1
175
     1
 42
1.0
 92
        8
 66
     7
 43
1.0
 76
     1
 77
     6
 78
     2
 67
     7
 79
     5
170
     0
171
     0
290
     0
174
     0
 93
        1
 44
0.0
173
     0
291
     1
 45
0.0
1001
ACAD
1000
AcDbSavedByObjectVersion
1070
     0
  0
VISUALSTYLE
  5
1303
102
{ACAD_REACTORS
330
1302
102
}
102
{ACAD_XDICTIONARY
360
1E9A
102
}
330
1302
100
AcDbVisualStyle
  2
Flat
 70
     0
 71
     2
 72
     1
 73
     1
 90
        2
 40
-0.6
 41
30.0
 62
     5
 63
     7
421
 16777215
 74
     0
 91
        0
 64
     7
 65
   257
 75
     1
175
     1
 42
1.0
 92
        8
 66
     7
 43
1.0
 76
     1
 77
     6
 78
     2
 67
     7
 79
     5
170
     0
171
     0
290
     0
174
     0
 93
       13
 44
0.0
173
     0
291
     1
 45
0.0
1001
ACAD
1000
AcDbSavedByObjectVersion
1070
     0
  0
VISUALSTYLE
  5
1304
102
{ACAD_REACTORS
330
1302
102
}
102
{ACAD_XDICTIONARY
360
1E9C
102
}
330
1302
100
AcDbVisualStyle
  2
FlatWithEdges
 70
     1
 71
     2
 72
     1
 73
     1
 90
        2
 40
-0.6
 41
30.0
 62
     5
 63
     7
421
 16777215
 74
     1
 91
        0
 64
     7
 65
   257
 75
     1
175
     1
 42
1.0
 92
        0
 66
   257
 43
1.0
 76
     1
 77
     6
 78
     2
 67
     7
 79
     5
170
     0
171
     0
290
     0
174
     0
 93
       13
 44
0.0
173
     0
291
     1
 45
0.0
1001
ACAD
1000
AcDbSavedByObjectVersion
1070
     0
  0
VISUALSTYLE
  5
1305
102
{ACAD_REACTORS
330
1302
102
}
102
{ACAD_XDICTIONARY
360
1E9E
102
}
330
1302
100
AcDbVisualStyle
  2
Gouraud
 70
     2
 71
     2
 72
     2
 73
     1
 90
        2
 40
-0.6
 41
30.0
 62
     5
 63
     7
421
 16777215
 74
     0
 91
        0
 64
     7
 65
   257
 75
     1
175
     1
 42
1.0
 92
        0
 66
     7
 43
1.0
 76
     1
 77
     6
 78
     2
 67
     7
 79
     5
170
     0
171
     0
290
     0
174
     0
 93
       13
 44
0.0
173
     0
291
     1
 45
0.0
1001
ACAD
1000
AcDbSavedByObjectVersion
1070
     0
  0
VISUALSTYLE
  5
1306
102
{ACAD_REACTORS
330
1302
102
}
102
{ACAD_XDICTIONARY
360
1EA0
102
}
330
1302
100
AcDbVisualStyle
  2
GouraudWithEdges
 70
     3
 71
     2
 72
     2
 73
     1
 90
        2
 40
-0.6
 41
30.0
 62
     5
 63
     7
421
 16777215
 74
     1
 91
        0
 64
     7
 65
   257
 75
     1
175
     1
 42
1.0
 92
        0
 66
   257
 43
1.0
 76
     1
 77
     6
 78
     2
 67
     7
 79
     5
170
     0
171
     0
290
     0
174
     0
 93
       13
 44
0.0
173
     0
291
     1
 45
0.0
1001
ACAD
1000
AcDbSavedByObjectVersion
1070
     0
  0
VISUALSTYLE
  5
130A
102
{ACAD_REACTORS
330
1302
102
}
102
{ACAD_XDICTIONARY
360
1EA2
102
}
330
1302
100
AcDbVisualStyle
  2
Hidden
 70
     6
 71
     1
 72
     2
 73
     2
 90
        0
 40
-0.6
 41
-30.0
 62
     5
 63
     7
421
 16777215
 74
     2
 91
        2
 64
     7
 65
   257
 75
     2
175
     1
 42
40.0
 92
        0
 66
   257
 43
1.0
 76
     1
 77
     6
 78
     2
 67
     7
 79
     3
170
     0
171
     0
290
     0
174
     0
 93
        1
 44
0.0
173
     0
291
     0
 45
0.0
1001
ACAD
1000
AcDbSavedByObjectVersion
1070
     0
  0
VISUALSTYLE
  5
1318
102
{ACAD_REACTORS
330
1302
102
}
102
{ACAD_XDICTIONARY
360
1EA4
102
}
330
1302
100
AcDbVisualStyle
  2
JitterOff
 70
    20
 71
     2
 72
     2
 73
     0
 90
        0
 40
-0.6
 41
-30.0
 62
     5
 63
     7
421
 16777215
 74
     1
 91
        4
 64
     7
 65
   257
 75
     1
175
     1
 42
1.0
 92
       10
 66
     7
 43
1.0
 76
     1
 77
     6
 78
     2
 67
     7
 79
     5
170
     0
171
     0
290
     0
174
     0
 93
        1
 44
0.0
173
     0
291
     1
 45
0.0
1001
ACAD
1000
AcDbSavedByObjectVersion
1070
     0
  0
VISUALSTYLE
  5
1310
102
{ACAD_REACTORS
330
1302
102
}
102
{ACAD_XDICTIONARY
360
1EA6
102
}
330
1302
100
AcDbVisualStyle
  2
Linepattern
 70
    14
 71
     2
 72
     2
 73
     0
 90
        0
 40
-0.6
 41
-30.0
 62
     5
 63
     7
421
 16777215
 74
     1
 91
        4
 64
     7
 65
   257
 75
     7
175
     7
 42
1.0
 92
        8
 66
     7
 43
1.0
 76
     1
 77
     6
 78
     2
 67
     7
 79
     5
170
     0
171
     0
290
     0
174
     0
 93
        1
 44
0.0
173
     0
291
     1
 45
0.0
1001
ACAD
1000
AcDbSavedByObjectVersion
1070
     0
  0
VISUALSTYLE
  5
1319
102
{ACAD_REACTORS
330
1302
102
}
102
{ACAD_XDICTIONARY
360
1EA8
102
}
330
1302
100
AcDbVisualStyle
  2
OverhangOff
 70
    21
 71
     2
 72
     2
 73
     0
 90
        0
 40
-0.6
 41
-30.0
 62
     5
 63
     7
421
 16777215
 74
     1
 91
        4
 64
     7
 65
   257
 75
     1
175
     1
 42
1.0
 92
        9
 66
     7
 43
1.0
 76
     1
 77
     6
 78
     2
 67
     7
 79
     5
170
     0
171
     0
290
     0
174
     0
 93
        1
 44
0.0
173
     0
291
     1
 45
0.0
1001
ACAD
1000
AcDbSavedByObjectVersion
1070
     0
  0
VISUALSTYLE
  5
130C
102
{ACAD_REACTORS
330
1302
102
}
102
{ACAD_XDICTIONARY
360
1EAA
102
}
330
1302
100
AcDbVisualStyle
  2
Realistic
 70
     8
 71
     2
 72
     2
 73
     0
 90
        2
 40
-0.6
 41
30.0
 62
     5
 63
     7
421
 16777215
 74
     0
 91
        0
 64
     7
 65
   257
 75
     1
175
     1
 42
1.0
 92
        8
 66
   257
 43
1.0
 76
     1
 77
     6
 78
     2
 67
     7
 79
     3
170
     0
171
     0
290
     0
174
     0
 93
       13
 44
0.0
173
     0
291
     0
 45
0.0
1001
ACAD
1000
AcDbSavedByObjectVersion
1070
     0
  0
VISUALSTYLE
  5
1317
102
{ACAD_REACTORS
330
1302
102
}
102
{ACAD_XDICTIONARY
360
1EAC
102
}
330
1302
100
AcDbVisualStyle
  2
Shaded
 70
    27
 71
     2
 72
     2
 73
     1
 90
        2
 40
-0.6
 41
30.0
 62
     5
 63
     7
421
 16777215
 74
     0
 91
        4
 64
     7
 65
   257
 75
     1
175
     1
 42
1.0
 92
        8
 66
   257
 43
1.0
 76
     1
 77
     6
 78
     2
 67
     8
425
  7895160
 79
     3
170
     0
171
     0
290
     0
174
     0
 93
        5
 44
0.0
173
     0
291
     0
 45
0.0
1001
ACAD
1000
AcDbSavedByObjectVersion
1070
     0
  0
VISUALSTYLE
  5
1316
102
{ACAD_REACTORS
330
1302
102
}
102
{ACAD_XDICTIONARY
360
1EAE
102
}
330
1302
100
AcDbVisualStyle
  2
Shaded with edges
 70
    26
 71
     2
 72
     2
 73
     1
 90
        2
 40
-0.6
 41
30.0
 62
     5
 63
     7
421
 16777215
 74
     1
 91
       10
 64
     7
 65
   257
 75
     2
175
     1
 42
1.0
 92
        8
 66
   257
 43
1.0
 76
     1
 77
     6
 78
     2
 67
     7
 79
     3
170
     0
171
     0
290
     0
174
     0
 93
        5
 44
0.0
173
     0
291
     0
 45
0.0
1001
ACAD
1000
AcDbSavedByObjectVersion
1070
     0
  0
VISUALSTYLE
  5
1313
102
{ACAD_REACTORS
330
1302
102
}
102
{ACAD_XDICTIONARY
360
1EB0
102
}
330
1302
100
AcDbVisualStyle
  2
Shades of Gray
 70
    23
 71
     2
 72
     2
 73
     3
 90
        0
 40
-0.6
 41
-30.0
 62
     5
 63
     7
421
 16777215
 74
     2
 91
        2
 64
     7
 65
     7
 75
     1
175
     1
 42
40.0
 92
        8
 66
     7
 43
1.0
 76
     1
 77
     6
 78
     2
 67
     7
 79
     3
170
     0
171
     0
290
     0
174
     0
 93
        1
 44
0.0
173
     0
291
     0
 45
0.0
1001
ACAD
1000
AcDbSavedByObjectVersion
1070
     0
  0
VISUALSTYLE
  5
1314
102
{ACAD_REACTORS
330
1302
102
}
102
{ACAD_XDICTIONARY
360
1EB2
102
}
330
1302
100
AcDbVisualStyle
  2
Sketchy
 70
    24
 71
     1
 72
     2
 73
     2
 90
        0
 40
-0.6
 41
-30.0
 62
     5
 63
     7
421
 16777215
 74
     2
 91
        2
 64
     7
 65
     7
 75
     1
175
     1
 42
40.0
 92
       11
 66
     7
 43
1.0
 76
     1
 77
     6
 78
     2
 67
     7
 79
     6
170
     0
171
     0
290
     0
174
     0
 93
        1
 44
0.0
173
     0
291
     0
 45
0.0
1001
ACAD
1000
AcDbSavedByObjectVersion
1070
     0
  0
VISUALSTYLE
  5
130F
102
{ACAD_REACTORS
330
1302
102
}
102
{ACAD_XDICTIONARY
360
1EB4
102
}
330
1302
100
AcDbVisualStyle
  2
Thicken
 70
    13
 71
     2
 72
     2
 73
     0
 90
        0
 40
-0.6
 41
-30.0
 62
     5
 63
     7
421
 16777215
 74
     1
 91
        4
 64
     7
 65
   257
 75
     1
175
     1
 42
1.0
 92
       12
 66
     7
 43
1.0
 76
     1
 77
     6
 78
     2
 67
     7
 79
     5
170
     0
171
     0
290
     0
174
     0
 93
        1
 44
0.0
173
     0
291
     1
 45
0.0
1001
ACAD
1000
AcDbSavedByObjectVersion
1070
     0
  0
VISUALSTYLE
  5
1309
102
{ACAD_REACTORS
330
1302
102
}
102
{ACAD_XDICTIONARY
360
1EB6
102
}
330
1302
100
AcDbVisualStyle
  2
Wireframe
 70
     5
 71
     0
 72
     2
 73
     0
 90
        0
 40
-0.6
 41
-30.0
 62
     5
 63
     7
421
 16777215
 74
     1
 91
        4
 64
     7
 65
   257
 75
     1
175
     1
 42
1.0
 92
        0
 66
   257
 43
1.0
 76
     1
 77
     6
 78
     2
 67
     7
 79
     3
170
     0
171
     0
290
     0
174
     0
 93
        1
 44
0.0
173
     0
291
     0
 45
0.0
1001
ACAD
1000
AcDbSavedByObjectVersion
1070
     0
  0
VISUALSTYLE
  5
1315
102
{ACAD_REACTORS
330
1302
102
}
102
{ACAD_XDICTIONARY
360
1EB8
102
}
330
1302
100
AcDbVisualStyle
  2
X-Ray
 70
    25
 71
     2
 72
     2
 73
     1
 90
        1
 40
0.5
 41
-30.0
 62
     5
 63
     7
421
 16777215
 74
     1
 91
        0
 64
     7
 65
   257
 75
     1
175
     1
 42
1.0
 92
        8
 66
     7
 43
1.0
 76
     1
 77
     6
 78
     2
 67
     7
 79
     3
170
     0
171
     0
290
     0
174
     0
 93
       13
 44
0.0
173
     0
291
     0
 45
0.0
1001
ACAD
1000
AcDbSavedByObjectVersion
1070
     0
  0
DICTIONARYVAR
  5
1CEF
102
{ACAD_REACTORS
330
12E1
102
}
330
12E1
100
DictionaryVariables
280
     0
  1
1:1
  0
DICTIONARYVAR
  5
1CEC
102
{ACAD_REACTORS
330
12E1
102
}
330
12E1
100
DictionaryVariables
280
     0
  1
Standard
  0
DICTIONARYVAR
  5
1CEB
102
{ACAD_REACTORS
330
12E1
102
}
330
12E1
100
DictionaryVariables
280
     0
  1
Standard
  0
DICTIONARYVAR
  5
1CED
102
{ACAD_REACTORS
330
12E1
102
}
330
12E1
100
DictionaryVariables
280
     0
  1
Imperial24
  0
DICTIONARYVAR
  5
1CEE
102
{ACAD_REACTORS
330
12E1
102
}
330
12E1
100
DictionaryVariables
280
     0
  1
Imperial24
  0
DICTIONARYVAR
  5
12E2
102
{ACAD_REACTORS
330
12E1
102
}
330
12E1
100
DictionaryVariables
280
     0
  1
1
  0
DICTIONARYVAR
  5
1E7C
102
{ACAD_REACTORS
330
12E1
102
}
330
12E1
100
DictionaryVariables
280
     0
  1
1
  0
DICTIONARYVAR
  5
1E7D
102
{ACAD_REACTORS
330
12E1
102
}
330
12E1
100
DictionaryVariables
280
     0
  1
15
  0
DICTIONARYVAR
  5
1E7B
102
{ACAD_REACTORS
330
12E1
102
}
330
12E1
100
DictionaryVariables
280
     0
  1
0
  0
DICTIONARYVAR
  5
1E7A
102
{ACAD_REACTORS
330
12E1
102
}
330
12E1
100
DictionaryVariables
280
     0
  1
0
  0
DICTIONARYVAR
  5
1E7E
102
{ACAD_REACTORS
330
12E1
102
}
330
12E1
100
DictionaryVariables
280
     0
  1
2
  0
DICTIONARY
  5
1E43
102
{ACAD_REACTORS
330
1E41
102
}
330
1E41
100
AcDbDictionary
281
     1
  0
DICTIONARY
  5
1E42
102
{ACAD_REACTORS
330
1E41
102
}
330
1E41
100
AcDbDictionary
281
     1
  3
2129911008
350
1E3C
  3
2129911016
350
1E3D
  3
2129911024
350
1E3E
  3
2129911032
350
1E3F
  3
2129911040
350
1E40
  0
DICTIONARY
  5
1E78
330
1335
100
AcDbDictionary
280
     1
281
     1
  3
ACAD_XREC_ROUNDTRIP
360
1E79
  0
DICTIONARY
  5
1CAE
330
12DB
100
AcDbDictionary
280
     1
281
     1
  3
ADSK_XREC_LAYOUTTHUMBNAIL
360
1CAF
  0
DICTIONARY
  5
1E80
330
12F2
100
AcDbDictionary
280
     1
281
     1
  3
ACAD_XREC_ROUNDTRIP
360
1E81
  0
DICTIONARY
  5
1E82
330
12EA
100
AcDbDictionary
280
     1
281
     1
  3
ACAD_XREC_ROUNDTRIP
360
1E83
  0
DICTIONARY
  5
1E84
330
12FA
100
AcDbDictionary
280
     1
281
     1
  3
ACAD_XREC_ROUNDTRIP
360
1E85
  0
DICTIONARY
  5
1E76
330
1333
100
AcDbDictionary
280
     1
281
     1
  3
ACAD_XREC_ROUNDTRIP
360
1E77
  0
DICTIONARY
  5
1E86
330
131D
100
AcDbDictionary
280
     1
281
     1
  3
ACAD_ROUNDTRIP_2008_TABLESTYLE_CELLSTYLEMAP
360
1E88
  3
ACAD_XREC_ROUNDTRIP
360
1E87
  0
DICTIONARY
  5
1E8A
330
1308
100
AcDbDictionary
280
     1
281
     1
  3
ACAD_XREC_ROUNDTRIP
360
1E8B
  0
DICTIONARY
  5
1E8C
330
1307
100
AcDbDictionary
280
     1
281
     1
  3
ACAD_XREC_ROUNDTRIP
360
1E8D
  0
DICTIONARY
  5
1E8E
330
130E
100
AcDbDictionary
280
     1
281
     1
  3
ACAD_XREC_ROUNDTRIP
360
1E8F
  0
DICTIONARY
  5
1E90
330
1312
100
AcDbDictionary
280
     1
281
     1
  3
ACAD_XREC_ROUNDTRIP
360
1E91
  0
DICTIONARY
  5
1E92
330
130B
100
AcDbDictionary
280
     1
281
     1
  3
ACAD_XREC_ROUNDTRIP
360
1E93
  0
DICTIONARY
  5
1E94
330
130D
100
AcDbDictionary
280
     1
281
     1
  3
ACAD_XREC_ROUNDTRIP
360
1E95
  0
DICTIONARY
  5
1E96
330
131A
100
AcDbDictionary
280
     1
281
     1
  3
ACAD_XREC_ROUNDTRIP
360
1E97
  0
DICTIONARY
  5
1E98
330
1311
100
AcDbDictionary
280
     1
281
     1
  3
ACAD_XREC_ROUNDTRIP
360
1E99
  0
DICTIONARY
  5
1E9A
330
1303
100
AcDbDictionary
280
     1
281
     1
  3
ACAD_XREC_ROUNDTRIP
360
1E9B
  0
DICTIONARY
  5
1E9C
330
1304
100
AcDbDictionary
280
     1
281
     1
  3
ACAD_XREC_ROUNDTRIP
360
1E9D
  0
DICTIONARY
  5
1E9E
330
1305
100
AcDbDictionary
280
     1
281
     1
  3
ACAD_XREC_ROUNDTRIP
360
1E9F
  0
DICTIONARY
  5
1EA0
330
1306
100
AcDbDictionary
280
     1
281
     1
  3
ACAD_XREC_ROUNDTRIP
360
1EA1
  0
DICTIONARY
  5
1EA2
330
130A
100
AcDbDictionary
280
     1
281
     1
  3
ACAD_XREC_ROUNDTRIP
360
1EA3
  0
DICTIONARY
  5
1EA4
330
1318
100
AcDbDictionary
280
     1
281
     1
  3
ACAD_XREC_ROUNDTRIP
360
1EA5
  0
DICTIONARY
  5
1EA6
330
1310
100
AcDbDictionary
280
     1
281
     1
  3
ACAD_XREC_ROUNDTRIP
360
1EA7
  0
DICTIONARY
  5
1EA8
330
1319
100
AcDbDictionary
280
     1
281
     1
  3
ACAD_XREC_ROUNDTRIP
360
1EA9
  0
DICTIONARY
  5
1EAA
330
130C
100
AcDbDictionary
280
     1
281
     1
  3
ACAD_XREC_ROUNDTRIP
360
1EAB
  0
DICTIONARY
  5
1EAC
330
1317
100
AcDbDictionary
280
     1
281
     1
  3
ACAD_XREC_ROUNDTRIP
360
1EAD
  0
DICTIONARY
  5
1EAE
330
1316
100
AcDbDictionary
280
     1
281
     1
  3
ACAD_XREC_ROUNDTRIP
360
1EAF
  0
DICTIONARY
  5
1EB0
330
1313
100
AcDbDictionary
280
     1
281
     1
  3
ACAD_XREC_ROUNDTRIP
360
1EB1
  0
DICTIONARY
  5
1EB2
330
1314
100
AcDbDictionary
280
     1
281
     1
  3
ACAD_XREC_ROUNDTRIP
360
1EB3
  0
DICTIONARY
  5
1EB4
330
130F
100
AcDbDictionary
280
     1
281
     1
  3
ACAD_XREC_ROUNDTRIP
360
1EB5
  0
DICTIONARY
  5
1EB6
330
1309
100
AcDbDictionary
280
     1
281
     1
  3
ACAD_XREC_ROUNDTRIP
360
1EB7
  0
DICTIONARY
  5
1EB8
330
1315
100
AcDbDictionary
280
     1
281
     1
  3
ACAD_XREC_ROUNDTRIP
360
1EB9
  0
XRECORD
  5
1E3C
102
{ACAD_REACTORS
330
1E42
102
}
330
1E42
100
AcDbXrecord
280
     1
  1
AcDb_Thumbnail_Schema
102
{ATTRRECORD
341
1E3D
  2
AcDbDs::TreatedAsObjectData
280
     1
291
     1
102
ATTRRECORD}
102
{ATTRRECORD
341
1E3E
  2
AcDbDs::Legacy
280
     1
291
     1
102
ATTRRECORD}
  2
AcDbDs::ID
280
    10
 91
        8
102
{ATTRRECORD
341
1E3F
  2
AcDs:Indexable
280
     1
291
     1
102
ATTRRECORD}
102
{ATTRRECORD
341
1E40
  2
AcDbDs::HandleAttribute
280
     7
282
     1
102
ATTRRECORD}
  2
Thumbnail_Data
280
    15
 91
        0
  0
XRECORD
  5
1E3D
102
{ACAD_REACTORS
330
1E42
102
}
330
1E42
100
AcDbXrecord
280
     1
  1
AcDbDs::TreatedAsObjectDataSchema
  2
AcDbDs::TreatedAsObjectData
280
     1
 91
        0
  0
XRECORD
  5
1E3E
102
{ACAD_REACTORS
330
1E42
102
}
330
1E42
100
AcDbXrecord
280
     1
  1
AcDbDs::LegacySchema
  2
AcDbDs::Legacy
280
     1
 91
        0
  0
XRECORD
  5
1E3F
102
{ACAD_REACTORS
330
1E42
102
}
330
1E42
100
AcDbXrecord
280
     1
  1
AcDbDs::IndexedPropertySchema
  2
AcDs:Indexable
280
     1
 91
        0
  0
XRECORD
  5
1E40
102
{ACAD_REACTORS
330
1E42
102
}
330
1E42
100
AcDbXrecord
280
     1
  1
AcDbDs::HandleAttributeSchema
  2
AcDbDs::HandleAttribute
280
     7
 91
        1
284
     1
  0
XRECORD
  5
1E79
102
{ACAD_REACTORS
330
1E78
102
}
330
1E78
100
AcDbXrecord
280
     1
102
DISPLAYNAME
  1
Imperial24
102
FLAGS
 90
        0
  0
XRECORD
  5
1CAF
102
{ACAD_REACTORS
330
1CAE
102
}
330
1CAE
100
AcDbXrecord
280
     1
310
2800000000010000A4000000010008000000000000A4000001000000010000000001000000000000302821FF000000FFC8C8C8FF000000FF000000FF000000FF000000FF000000FF000000FF000000FF000000FF330000FF660000FF990000FFCC0000FFFF0000FF003300FF333300FF663300FF993300FFCC3300FFFF3300
310
FF006600FF336600FF666600FF996600FFCC6600FFFF6600FF009900FF339900FF669900FF999900FFCC9900FFFF9900FF00CC00FF33CC00FF66CC00FF99CC00FFCCCC00FFFFCC00FF00FF00FF33FF00FF66FF00FF99FF00FFCCFF00FFFFFF00FF000033FF330033FF660033FF990033FFCC0033FFFF0033FF003333FF3333
310
33FF663333FF993333FFCC3333FFFF3333FF006633FF336633FF666633FF996633FFCC6633FFFF6633FF009933FF339933FF669933FF999933FFCC9933FFFF9933FF00CC33FF33CC33FF66CC33FF99CC33FFCCCC33FFFFCC33FF00FF33FF33FF33FF66FF33FF99FF33FFCCFF33FFFFFF33FF000066FF330066FF660066FF99
310
0066FFCC0066FFFF0066FF003366FF333366FF663366FF993366FFCC3366FFFF3366FF006666FF336666FF666666FF996666FFCC6666FFFF6666FF009966FF339966FF669966FF999966FFCC9966FFFF9966FF00CC66FF33CC66FF66CC66FF99CC66FFCCCC66FFFFCC66FF00FF66FF33FF66FF66FF66FF99FF66FFCCFF66FF
310
FFFF66FF000099FF330099FF660099FF990099FFCC0099FFFF0099FF003399FF333399FF663399FF993399FFCC3399FFFF3399FF006699FF336699FF666699FF996699FFCC6699FFFF6699FF009999FF339999FF669999FF999999FFCC9999FFFF9999FF00CC99FF33CC99FF66CC99FF99CC99FFCCCC99FFFFCC99FF00FF99
310
FF33FF99FF66FF99FF99FF99FFCCFF99FFFFFF99FF0000CCFF3300CCFF6600CCFF9900CCFFCC00CCFFFF00CCFF0033CCFF3333CCFF6633CCFF9933CCFFCC33CCFFFF33CCFF0066CCFF3366CCFF6666CCFF9966CCFFCC66CCFFFF66CCFF0099CCFF3399CCFF6699CCFF9999CCFFCC99CCFFFF99CCFF00CCCCFF33CCCCFF66CC
310
CCFF99CCCCFFCCCCCCFFFFCCCCFF00FFCCFF33FFCCFF66FFCCFF99FFCCFFCCFFCCFFFFFFCCFF0000FFFF3300FFFF6600FFFF9900FFFFCC00FFFFFF00FFFF0033FFFF3333FFFF6633FFFF9933FFFFCC33FFFFFF33FFFF0066FFFF3366FFFF6666FFFF9966FFFFCC66FFFFFF66FFFF0099FFFF3399FFFF6699FFFF9999FFFFCC
310
99FFFFFF99FFFF00CCFFFF33CCFFFF66CCFFFF99CCFFFFCCCCFFFFFFCCFFFF00FFFFFF33FFFFFF66FFFFFF99FFFFFFCCFFFFFFFFFFFFFF000000FF0D0D0DFF1A1A1AFF282828FF353535FF434343FF505050FF5D5D5DFF6B6B6BFF787878FF868686FF939393FFA1A1A1FFAEAEAEFFBBBBBBFFC9C9C9FFD6D6D6FFE4E4E4FF
310
F1F1F1FFFFFFFFFF000000FF000000FF000000FF000000FF000000FF000000FF000000FF000000FF000000FF0000000000000000000000000000000000000000000000000000000000000000000000000000000000000000000000000000000000000000000000000000000000000000000000000000000000000000000000
310
00000000000000000000000000000000000000000000000000000000000000000000000000000000000000000000000000000000000000000000000000000000000000000000000000000000000000000000000000000000000000000000000000000000000000000000000000000000000000000000000000000000000000
310
00000000000000000000000000000000000000000000000000000000000000000000000000000000000000000000000000000000000000000000000000000000000000000000000000000000000000000000000000000000000000000000000000000000000000000000000000000000000000000000000000000000000000
310
00000000000000000000000000000000000000000000000000000000000000000000000000000000000000000000000000000000000000000000000000000000000000000000000000000000000000000000000000000000000000000000000000000000000000000000000000000000000000000000000000000000000000
310
00000000000000000000000000000000000000000000000000000000000000000000000000000000000000000000000000000000000000000000000000000000000000000000000000000000000000000000000000000000000000000000000000000000000000000000000000000000000000000000000000000000000000
310
00000000000000000000000000000000000000000000000000000000000000000000000000000000000000000000000000000000000000000000000000000000000000000000000000000000000000000000000000000000000000000000000000000000000000000000000000000000000000000000000000000000000000
310
00000000000000000000000000000000000000000000000000000000000000000000000000000000000000000000000000000000000000000000000000000000000000000000000000000000000000000000000000000000000000000000000000000000000000000000000000000000000000000000000000000000000000
310
00000000000000000000000000000000000000000000000000000000000000000000000000000000000000000000000000000000000000000000000000000000000000000000000000000000000000000000000000000000000000000000000000000000000000000000000000000000000000000000000000000000000000
310
00000000000000000000000000000000000000000000000000000000000000000000000000000000000000000000000000000000000000000000000000000000000000000000000000000000000000000000000000000000000000000000000000000000000000000000000000000000000000000000000000000000000000
310
00000000000000000000000000000000000000000000000000000000000000000000000000000000000000000000000000000000000000000000000000000000000000000000000000000000000000000000000000000000000000000000000000000000000000000000000000000000000000000000000000000000000000
310
00000000000000000000000000000000000000000000000000000000000000000000000000000000000000000000000000000000000000000000000000000000000000000000000000000000000000000000000000000000000000000000000000000000000000000000000000000000000000000000000000000000000000
310
00000000000000000000000000000000000000000000000000000000000000000000000000000000000000000000000000000000000000000000000000000000000000000000000000000000000000000000000000000000000000000000000000000000000000000000000000000000000000000000000000000000000000
310
00000000000000000000000000000000000000000000000000000000000000000000000000000000000000000000000000000000000000000000000000000000000000000000000000000000000000000000000000000000000000000000000000000000000000000000000000000000000000000000000000000000000000
310
00000000000000000000000000000000000000000000000000000000000000000000000000000000000000000000000000000000000000000000000000000000000000000000000000000000000000000000000000000000000000000000000000000000000000000000000000000000000000000000000000000000000000
310
00000000000000000000000000000000000000000000000000000000000000000000000000000000000000000000000000000000000000000000000000000000000000000000000000000000000000000000000000000000000000000000000000000000000000000000000000000000000000000000000000000000000000
310
00000000000000000000000000000000000000000000000000000000000000000000000000000000000000000000000000000000000000000000000000000000000000000000000000000000000000000000000000000000000000000000000000000000000000000000000000000000000000000000000000000000000000
310
00000000000000000000000000000000000000000000000000000000000000000000000000000000000000000000000000000000000000000000000000000000000000000000000000000000000000000000000000000000000000000000000000000000000000000000000000000000000000000000000000000000000000
310
00000000000000000000000000000000000000000000000000000000000000000000000000000000000000000000000000000000000000000000000000000000000000000000000000000000000000000000000000000000000000000000000000000000000000000000000000000000000000000000000000000000000000
310
00000000000000000000000000000000000000000000000000000000000000000000000000000000000000000000000000000000000000000000000000000000000000000000000000000000000000000000000000000000000000000000000000000000000000000000000000000000000000000000000000000000000000
310
00000000000000000000000000000000000000000000000000000000000000000000000000000000000000000000000000000000000000000000000000000000000000000000000000000000000000000000000000000000000000000000000000000000000000000000000000000000000000000000000000000000000000
310
00000000000000000000000000000000000000000000000000000000000000000000000000000000000000000000000000000000000000000000000000000000000000000000000000000000000000000000000000000000000000000000000000000000000000000000000000000000000000000000000000000000000000
310
00000000000000000000000000000000000000000000000000000000000000000000000000000000000000000000000000000000000000000000000000000000000000000000000000000000000000000000000000000000000000000000000000000000000000000000000000000000000000000000000000000000000000
310
00000000000000000000000000000000000000000000000000000000000000000000000000000000000000000000000000000000000000000000000000000000000000000000000000000000000000000000000000000000000000000000000000000000000000000000000000000000000000000000000000000000000000
310
00000000000000000000000000000000000000000000000000000000000000000000000000000000000000000000000000000000000000000000000000000000000000000000000000000000000000000000000000000000000000000000000000000000000000000000000000000000000000000000000000000000000000
310
00000000000000000000000000000000000000000000000000000000000000000000000000000000000000000000000000000000000000000000000000000000000000000000000000000000000000000000000000000000000000000000000000000000000000000000000000000000000000000000000000000000000000
310
00000000000000000000000000000000000000000000000000000000000000000000000000000000000000000000000000000000000000000000000000000000000000000000000000000000000000000000000000000000000000000000000000000000000000000000000000000000000000000000000000000000000000
310
00000000000000000000000000000000000000000000000000000000000000000000000000000000000000000000000000000000000000000000000000000000000000000000000000000000000000000000000000000000000000000000000000000000000000000000000000000000000000000000000000000000000000
310
00000000000000000000000000000000000000000000000000000000000000000000000000000000000000000000000000000000000000000000000000000000000000000000000000000000000000000000000000000000000000000000000000000000000000000000000000000000000000000000000000000000000000
310
00000000000000000000000000000000000000000000000000000000000000000000000000000000000000000000000000000000000000000000000000000000000000000000000000000000000000000000000000000000000000000000000000000000000000000000000000000000000000000000000000000000000000
310
00000000000000000000000000000000000000000000000000000000000000000000000000000000000000000000000000000000000000000000000000000000000000000000000000000000000000000000000000000000000000000000000000000000000000000000000000000000000000000000000000000000000000
310
00000000000000000000000000000000000000000000000000000000000000000000000000000000000000000000000000000000000000000000000000000000000000000000000000000000000000000000000000000000000000000000000000000000000000000000000000000000000000000000000000000000000000
310
00000000000000000000000000000000000000000000000000000000000000000000000000000000000000000000000000000000000000000000000000000000000000000000000000000000000000000000000000000000000000000000000000000000000000000000000000000000000000000000000000000000000000
310
00000000000000000000000000000000000000000000000000000000000000000000000000000000000000000000000000000000000000000000000000000000000000000000000000000000000000000000000000000000000000000000000000000000000000000000000000000000000000000000000000000000000000
310
00000000000000000000000000000000000000000000000000000000000000000000000000000000000000000000000000000000000000000000000000000000000000000000000000000000000000000000000000000000000000000000000000000000000000000000000000000000000000000000000000000000000000
310
00000000000000000000000000000000000000000000000000000000000000000000000000000000000000000000000000000000000000000000000000000000000000000000000000000000000000000000000000000000000000000000000000000000000000000000000000000000000000000000000000000000000000
310
00000000000000000000000000000000000000000000000000000000000000000000000000000000000000000000000000000000000000000000000000000000000000000000000000000000000000000000000000000000000000000000000000000000000000000000000000000000000000000000000000000000000000
310
00000000000000000000000000000000000000000000000000000000000000000000000000000000000000000000000000000000000000000000000000000000000000000000000000000000000000000000000000000000000000000000000000000000000000000000000000000000000000000000000000000000000000
310
00000000000000000000000000000000000000000000000000000000000000000000000000000000000000000000000000000000000000000000000000000000000000000000000000000000000000000000000000000000000000000000000000000000000000000000000000000000000000000000000000000000000000
310
00000000000000000000000000000000000000000000000000000000000000000000000000000000000000000000000000000000000000000000000000000000000000000000000000000000000000000000000000000000000000000000000000000000000000000000000000000000000000000000000000000000000000
310
00000000000000000000000000000000000000000000000000000000000000000000000000000000000000000000000000000000000000000000000000000000000000000000000000000000000000000000000000000000000000000000000000000000000000000000000000000000000000000000000000000000000000
310
00000000000000000000000000000000000000000000000000000000000000000000000000000000000000000000000000000000000000000000000000000000000000000000000000000000000000000000000000000000000000000000000000000000000000000000000000000000000000000000000000000000000000
310
00000000000000000000000000000000000000000000000000000000000000000000000000000000000000000000000000000000000000000000000000000000000000000000000000000000000000000000000000000000000000000000000000000000000000000000000000000000000000000000000000000000000000
310
00000000000000000000000000000000000000000000000000000000000000000000000000000000000000000000000000000000000000000000000000000000000000000000000000000000000000000000000000000000000000000000000000000000000000000000000000000000000000000000000000000000000000
310
00000000000000000000000000000000000000000000000000000000000000000000000000000000000000000000000000000000000000000000000000000000000000000000000000000000000000000000000000000000000000000000000000000000000000000000000000000000000000000000000000000000000000
310
00000000000000000000000000000000000000000000000000000000000000000000000000000000000000000000000000000000000000000000000000000000000000000000000000000000000000000000000000000000000000000000000000000000000000000000000000000000000000000000000000000000000000
310
00000000000000000000000000000000000000000000000000000000000000000000000000000000000000000000000000000000000000000000000000000000000000000000000000000000000000000000000000000000000000000000000000000000000000000000000000000000000000000000000000000000000000
310
00000000000000000000000000000000000000000000000000000000000000000000000000000000000000000000000000000000000000000000000000000000000000000000000000000000000000000000000000000000000000000000000000000000000000000000000000000000000000000000000000000000000000
310
00000000000000000000000000000000000000000000000000000000000000000000000000000000000000000000000000000000000000000000000000000000000000000000000000000000000000000000000000000000000000000000000000000000000000000000000000000000000000000000000000000000000000
310
00000000000000000000000000000000000000000000000000000000000000000000000000000000000000000000000000000000000000000000000000000000000000000000000000000000000000000000000000000000000000000000000000000000000000000000000000000000000000000000000000000000000000
310
00000000000000000000000000000000000000000000000000000000000000000000000000000000000000000000000000000000000000000000000000000000000000000000000000000000000000000000000000000000000000000000000000000000000000000000000000000000000000000000000000000000000000
310
00000000000000000000000000000000000000000000000000000000000000000000000000000000000000000000000000000000000000000000000000000000000000000000000000000000000000000000000000000000000000000000000000000000000000000000000000000000000000000000000000000000000000
310
00000000000000000000000000000000000000000000000000000000000000000000000000000000000000000000000000000000000000000000000000000000000000000000000000000000000000000000000000000000000000000000000000000000000000000000000000000000000000000000000000000000000000
310
00000000000000000000000000000000000000000000000000000000000000000000000000000000000000000000000000000000000000000000000000000000000000000000000000000000000000000000000000000000000000000000000000000000000000000000000000000000000000000000000000000000000000
310
00000000000000000000000000000000000000000000000000000000000000000000000000000000000000000000000000000000000000000000000000000000000000000000000000000000000000000000000000000000000000000000000000000000000000000000000000000000000000000000000000000000000000
310
00000000000000000000000000000000000000000000000000000000000000BEBEBEBEBEBEBEBEBEBEBEBEBEBEBEBEBEBEBE0000000000000000000000000000000000000000000000000000000000000000000000000000000000000000000000000000000000000000000000000000000000000000000000000000000000
310
00000000000000000000000000000000000000000000000000000000000000000000000000000000000000000000000000000000000000000000000000000000000000000000000000000000000000000000000000000000000000000000000000000000000000000000000000000000000000000000000000000000000000
310
000000000000000000000000000000000000000000000000000000000000000000BEBEBEBEBE00BEBE00BE00BEBEBEBEBEBEBEBE000000000000000000000000000000000000000000000000000000000000000000000000000000000000000000000000000000000000000000000000000000000000000000000000000000
310
00000000000000000000000000DCDCDCDCDCDCDCDCDCDCDCDCDCDCDCDCDCDCDCDCDCDCDCDCDCDCDCDCDCDCDCDCDCDCDCDCDCDCDCDCDCDCDCDCDCDCDCDCDCDCDCDCDCDCDCDCDCDCDCDCDCDCDCDCDCDCDCDCDCDCDCDCDCDCDCDCDCDCDCDCDCDCDCDCDCDCDCDCDCDCDCDCDCDCDCDCDCDCDCDCDCDCDCDCDCDCDCDCDCDCDCDCDCDC
310
DCDCDCDCDCDCDCDCDCDCDCDCDCDCDCDCDCDCDCDCDCDCDCDCDCDCDCDCDCDCDCDCDCDCDCDCDCDCDCDCDCDCDCDCDCDCDCDCDCDCDCDCDCDCDC000000000000000000000000000000000000000000000000000000000000000000000000000000000000000000000000000000000000000000000000000000000000000000000000
310
000000000000000000000000000000DC000000000000000000000000000000000000000000000000000000000000000000000000000000000000000000000000000000000000000000000000000000000000000000000000000000000000000000000000000000000000000000000000000000000000000000000000000000
310
0000000000000000000000000000000000000000000000DC000000000000000000000000BEBEBE00000000000000BEBEBEBE000000000000DC00000000000000000000000000000000000000000000000000000000000000000000000000000000000000000000000000000000000000000000000000000000000000000000
310
0000000000000000000000000000000000DC00000000000000000000000000000000000000000000000000000000000000000000000000000000000000000000000000000000000000000000000000000000000000000000000000000000000000000000000000000000000000000000000000000000000000000000000000
310
00000000000000000000000000000000000000000000000000DCBEBEBEBEBEBEBEBEBEBEBEBEBE00BE00000000000000BE0000BE000000000000DC0000000000000000000000000000000000000000000000000000000000000000000000000000000000000000000000000000000000000000000000000000000000000000
310
00000000000000000000000000000000000000DC0000000000000000000000000000000000000000000000000000000000000000000000000000000000000000000000000000000000000000000000000000000000000000000000000000000000000000000000000000000000000000000000000000000000000000000000
310
000000000000000000000000000000000000000000000000000000DC00BEBE00BEBEBEBE00BEBE00BEBEBE00000000000000BEBEBEBE000000000000DC000000000000000000000000000000000000000000000000000000000000000000000000000000000000000000000000000000000000000000000000000000000000
310
000000000000000000000000000000000000000000DC000000000000000000000000000000000000000000000000000000000000000000000000000000000000000000000000000000000000000000000000000000000000000000000000000000000000000000000000000000000000000000000000000000000000000000
310
0000000000000000000000000000000000000000000000000000000000DCBEBEBEBEBEBEBEBEBEBEBEBEBEBEBEBEBEBEBEBEBEBEBEBEBEBEBEBEBEBEBEBEDC00000000000000000000000000000000000000000000000000000000000000000000000000000000000000000000000000000000000000000000000000000000
310
0000000000000000000000000000000000000000000000DC00000000000000000000000000000000000000000000000000000000000000000000000000000000000000000000000000000000000000000000000000000000000000000000000000000000000000000000000000000000000000000000000000000000000000
310
00000000000000000000000000000000000000000000000000000000000000DCBEBEBEBEBEBEBE0000000000000000BEBEBE0000BEBEBEBEBEBEBEBE00000000DC0000000000000000000000000000000000000000000000000000000000000000000000000000000000000000000000000000000000000000000000000000
310
00000000000000000000000000000000000000000000000000DC0000000000000000000000000000000000000000000000000000000000000000000000000000000000000000000000000000000000000000000000000000000000000000000000000000000000000000000000000000000000000000000000000000000000
310
000000000000000000000000000000000000000000000000000000000000000000DCBEBEBEBEBEBEBEBEBEBEBEBEBEBEBEBEBEBEBEBEBEBEBEBEBEBEBEBEBEBEBEBEDC000000000000000000000000000000000000000000000000000000000000000000000000000000000000000000000000000000000000000000000000
310
000000000000000000000000000000000000000000000000000000DC000000000000000000000000000000000000000000000000000000000000000000000000000000000000000000000000000000000000000000000000000000000000000000000000000000000000000000000000000000000000000000000000000000
310
0000000000000000000000000000000000000000000000000000000000000000000000DCBEBEBEBEBEBEBEBEBEBEBEBE00BEBEBEBEBEBEBEBEBEBE000000000000BEBEBEDC00000000000000000000000000000000000000000000000000000000000000000000000000000000000000000000000000000000000000000000
310
0000000000000000000000000000000000000000000000000000000000DC00000000000000000000000000000000000000000000000000000000000000000000000000000000000000000000000000000000000000000000000000000000000000000000000000000000000000000000000000000000000000000000000000
310
00000000000000000000000000000000000000000000000000000000000000000000000000DCBEBEBEBEBEBEBEBEBEBEBEBE00BEBEBEBEBEBEBEBEBEBE000000000000BEBEBEDC0000000000000000000000000000000000000000000000000000000000000000000000000000000000000000000000000000000000000000
310
00000000000000000000000000000000000000000000000000000000000000DC0000000000000000000000000000000000000000000000000000000000000000000000000000000000000000000000000000000000000000000000000000000000000000000000000000000000000000000000000000000000000000000000
310
000000000000000000000000000000000000000000000000000000000000000000000000000000DCBEBEBEBEBEBEBEBEBEBEBEBEBEBEBEBEBEBEBEBEBEBEBEBEBEBEBEBEBEBEBEBEDC000000000000000000000000000000000000000000000000000000000000000000000000000000000000000000000000000000000000
310
000000000000000000000000000000000000000000000000000000000000000000DC000000000000000000000000000000000000000000000000000000000000000000000000000000000000000000000000000000000000000000000000000000000000000000000000000000000000000000000000000000000000000000
310
0000000000000000000000000000000000000000000000000000000000000000000000000000000000DCBEBEBEBEBEBEBE0000000000000000BEBEBEBEBEBEBEBE000000000000000000DC00000000000000000000000000000000000000000000000000000000000000000000000000000000000000000000000000000000
310
0000000000000000000000000000000000000000000000000000000000000000000000DC00000000000000000000000000000000000000000000000000000000000000000000000000000000000000000000000000000000000000000000000000000000000000000000000000000000000000000000000000000000000000
310
00000000000000000000000000000000000000000000000000000000000000000000000000000000000000DCBEBEBEBEBEBEBEBEBEBEBEBEBEBEBEBEBEBEBEBEBEBEBEBEBEBEBEBEBEBEBEBEDC0000000000000000000000000000000000000000000000000000000000000000000000000000000000000000000000000000
310
00000000000000000000000000000000000000000000000000000000000000000000000000DC0000000000000000000000000000000000000000000000000000000000000000000000000000000000000000000000000000000000000000000000000000000000000000000000000000000000000000000000000000000000
310
000000000000000000000000000000000000000000000000000000000000000000000000000000000000000000DCBEBE0000BEBEBE0000BEBEBEBEBEBEBEBEBEBEBEBE00BEBEBEBEBEBE00000000DC000000000000000000000000000000000000000000000000000000000000000000000000000000000000000000000000
310
000000000000000000000000000000000000000000000000000000000000000000000000000000DC000000000000000000000000000000000000000000000000000000000000000000000000000000000000000000000000000000000000000000000000000000000000000000000000000000000000000000000000000000
310
0000000000000000000000000000000000000000000000000000000000000000000000000000000000000000000000DCBEBE0000BEBEBE0000BEBEBEBEBEBEBEBEBEBEBEBE00BEBE00BEBEBE00000000DC00000000000000000000000000000000000000000000000000000000000000000000000000000000000000000000
310
0000000000000000000000000000000000000000000000000000000000000000000000000000000000DC00000000000000000000000000000000000000000000000000000000000000000000000000000000000000000000000000000000000000000000000000000000000000000000000000000000000000000000000000
310
00000000000000000000000000000000000000000000000000000000000000000000000000000000000000000000000000DCDCDCDCDCDCDCDCDCDCDCDCDCDCDCDCDCDCDCDCDCDCDCDCDCDCDCDCDCDCDCDCDCDC0000000000000000000000000000000000000000000000000000000000000000000000000000000000000000
310
00000000000000000000000000000000000000000000000000000000000000000000000000000000000000DC0000000000000000000000000000000000000000000000000000000000000000000000000000000000000000000000000000000000000000000000000000000000000000000000000000000000000000000000
310
00000000000000000000000000000000000000000000000000000000000000000000000000000000000000000000000000000000BEBEBEBEBEBEBEBEBEBEBEBEBE0000BEBEBEBEBEBEBEBEBEBEBEBEBEBEBEBEBEDC000000000000000000000000000000000000000000000000000000000000000000000000000000000000
310
000000000000000000000000000000000000000000000000000000000000000000000000000000000000000000DC000000000000000000000000000000000000000000000000000000000000000000000000000000000000000000000000000000000000000000000000000000000000000000000000000000000000000000
310
000000000000000000000000000000000000000000000000000000000000000000000000000000000000000000000000000000000000BEBEBEBEBEBEBEBEBEBEBEBEBE0000BEBEBEBEBEBEBEBE00BEBEBEBEBEBEBEBEDC00000000000000000000000000000000000000000000000000000000000000000000000000000000
310
0000000000000000000000000000000000000000000000000000000000000000000000000000000000000000000000DC00000000000000000000000000000000000000000000000000000000000000000000000000000000000000000000000000000000000000000000000000000000000000000000000000000000000000
310
00000000000000000000000000000000000000000000000000000000000000000000000000000000000000000000000000000000000000000000000000000000000000000000000000000000000000000000000000000000DC0000000000000000000000000000000000000000000000000000000000000000000000000000
310
00000000000000000000000000000000000000000000000000000000000000000000000000000000000000000000000000DC0000000000000000000000000000000000000000000000000000000000000000000000000000000000000000000000000000000000000000000000000000000000000000000000000000000000
310
000000000000000000000000000000000000000000000000000000000000000000000000000000000000000000000000000000000000000000000000000000000000000000000000000000000000000000000000000000000000DC000000000000000000000000000000000000000000000000000000000000000000000000
310
000000000000000000000000000000000000000000000000000000000000000000000000000000000000000000000000000000DC000000000000000000000000000000000000000000000000000000000000000000000000000000000000000000000000000000000000000000000000000000000000000000000000000000
310
0000000000000000000000000000000000000000000000000000000000000000000000000000000000000000000000000000000000000000000000000000000000000000000000000000000000000000000000000000000000000000DC00000000000000000000000000000000000000000000000000000000000000000000
310
0000000000000000000000000000000000000000000000000000000000000000000000000000000000000000000000000000000000DC00000000000000000000000000000000000000000000000000000000000000000000000000000000000000000000000000000000000000000000000000000000000000000000000000
310
00000000000000000000000000000000000000000000000000000000000000000000000000000000000000000000000000000000000000000000000000000000000000000000000000000000000000000000000000000000000000000000DC0000000000000000000000000000000000000000000000000000000000000000
310
00000000000000000000000000000000000000000000000000000000000000000000000000000000000000000000000000000000000000DC0000000000000000000000000000000000000000000000000000000000000000000000000000000000000000000000000000000000000000000000000000000000000000000000
310
000000000000000000000000000000000000000000000000000000000000000000000000000000000000000000000000000000000000000000000000000000000000000000000000000000000000000000000000000000000000000000000000DC000000000000000000000000000000000000000000000000000000000000
310
000000000000000000000000000000000000000000000000000000000000000000000000000000000000000000000000000000000000000000DC000000000000000000000000000000000000000000000000000000000000000000000000000000000000000000000000000000000000000000000000000000000000000000
310
0000000000000000000000000000000000000000000000000000000000000000000000000000000000000000000000000000000000000000000000000000000000000000000000000000000000000000000000000000000000000000000000000000DC00000000000000000000000000000000000000000000000000000000
310
0000000000000000000000000000000000000000000000000000000000000000000000000000000000000000000000000000000000000000000000DC00000000000000000000000000000000000000000000000000000000000000000000000000000000000000000000000000000000000000000000000000000000000000
310
00000000000000000000000000000000000000000000000000000000000000000000000000000000000000000000000000000000000000000000000000000000000000000000000000000000000000000000000000000000000000000000000000000000DC0000000000000000000000000000000000000000000000000000
310
00000000000000000000000000000000000000000000000000000000000000000000000000000000000000000000000000000000000000000000000000DC0000000000000000000000000000000000000000000000000000000000000000000000000000000000000000000000000000000000000000000000000000000000
310
000000000000000000000000000000000000000000000000000000000000000000000000000000000000000000000000000000000000000000000000000000000000000000000000000000000000000000000000000000000000000000000000000000000000DC000000000000000000000000000000000000000000000000
310
000000000000000000000000000000000000000000000000000000000000000000000000000000000000000000000000000000000000000000000000000000DC000000000000000000000000000000000000000000000000000000000000000000000000000000000000000000000000000000000000000000000000000000
310
0000000000000000000000000000000000000000000000000000000000000000000000000000000000000000000000000000000000000000000000000000000000000000000000000000000000000000000000000000000000000000000000000000000000000000DC00000000000000000000000000000000000000000000
310
0000000000000000000000000000000000000000000000000000000000000000000000000000000000000000000000000000000000000000000000000000000000DC00000000000000000000000000000000000000000000000000000000000000000000000000000000000000000000000000000000000000000000000000
310
00000000000000000000000000000000000000000000000000000000000000000000000000000000000000000000000000000000000000000000000000000000000000000000000000000000000000000000000000000000000000000000000000000000000000000000DC0000000000000000000000000000000000000000
310
00000000000000000000000000000000000000000000000000000000000000000000000000000000000000000000000000000000000000000000000000000000000000DC0000000000000000000000000000000000000000000000000000000000000000000000000000000000000000000000000000000000000000000000
310
000000000000000000000000000000000000000000000000000000000000000000000000000000000000000000000000000000000000000000000000000000000000000000000000000000000000000000000000000000000000000000000000000000000000000000000000DC000000000000000000000000000000000000
310
000000000000000000000000000000000000000000000000000000000000000000000000000000000000000000000000000000000000000000000000000000000000000000DC000000000000000000000000000000000000000000000000000000000000000000000000000000000000000000000000000000000000000000
310
0000000000000000000000000000000000000000000000000000000000000000000000000000000000000000000000000000000000000000000000000000000000000000000000000000000000000000000000000000000000000000000000000000000000000000000000000000DC00000000000000000000000000000000
310
0000000000000000000000000000000000000000000000000000000000000000000000000000000000000000000000000000000000000000000000000000000000000000000000DC00000000000000000000000000000000000000000000000000000000000000000000000000000000000000000000000000000000000000
310
00000000000000000000000000000000000000000000000000000000000000000000000000000000000000000000000000000000000000000000000000000000000000000000000000000000000000000000000000000000000000000000000000000000000000000000000000000000DC0000000000000000000000000000
310
00000000000000000000000000000000000000000000000000000000000000000000000000000000000000000000000000000000000000000000000000000000000000000000000000DC0000000000000000000000000000000000000000000000000000000000000000000000000000000000000000000000000000000000
310
000000000000000000000000000000000000000000000000000000000000000000000000000000000000000000000000000000000000000000000000000000000000000000000000000000000000000000000000000000000000000000000000000000000000000000000000000000000000DC000000000000000000000000
310
000000000000000000000000000000000000000000000000000000000000000000000000000000000000000000000000000000000000000000000000000000000000000000000000000000DC000000000000000000000000000000000000000000000000000000000000000000000000000000000000000000000000000000
310
0000000000000000000000000000000000000000000000000000000000000000000000000000000000000000000000000000000000000000000000000000000000000000000000000000000000000000000000000000000000000000000000000000000000000000000000000000000000000000DC00000000000000000000
310
0000000000000000000000000000000000000000000000000000000000000000000000000000000000000000000000000000000000000000000000000000000000000000000000000000000000DC00000000000000000000000000000000000000000000000000000000000000000000000000000000000000000000000000
310
00000000000000000000000000000000000000000000000000000000000000000000000000000000000000000000000000000000000000000000000000000000000000000000000000000000000000000000000000000000000000000000000000000000000000000000000000000000000000000000DC0000000000000000
310
00000000000000000000000000000000000000000000000000000000000000000000000000000000000000000000000000000000000000000000000000000000000000000000000000000000000000DC0000000000000000000000000000000000000000000000000000000000000000000000000000000000000000000000
310
000000000000000000000000000000000000000000000000000000000000000000000000000000000000000000000000000000000000000000000000000000000000000000000000000000000000000000000000000000000000000000000000000000000000000000000000000000000000000000000000DC000000000000
310
000000000000000000000000000000000000000000000000000000000000000000000000000000000000000000000000000000000000000000000000000000000000000000000000000000000000000000DC000000000000000000000000000000000000000000000000000000000000000000000000000000000000000000
310
0000000000000000000000000000000000000000000000000000000000000000000000000000000000000000000000000000000000000000000000000000000000000000000000000000000000000000000000000000000000000000000000000000000000000000000000000000000000000000000000000000DC00000000
310
0000000000000000000000000000000000000000000000000000000000000000000000000000000000000000000000000000000000000000000000000000000000000000000000000000000000000000000000DC00000000000000000000000000000000000000000000000000000000000000000000000000000000000000
310
00000000000000000000000000000000000000000000000000000000000000000000000000000000000000000000000000000000000000000000000000000000000000000000000000000000000000000000000000000000000000000000000000000000000000000000000000000000000000000000000000000000DC0000
310
00000000000000000000000000000000000000000000000000000000000000000000000000000000000000000000000000000000000000000000000000000000000000000000000000000000000000000000000000DC0000000000000000000000000000000000000000000000000000000000000000000000000000000000
310
000000000000000000000000000000000000000000000000000000000000000000000000000000000000000000000000000000000000000000000000000000000000000000000000000000000000000000000000000000000000000000000000000000000000000000000000000000000000000000000000000000000000DC
310
000000000000000000000000000000000000000000000000000000000000000000000000000000000000000000000000000000000000000000000000000000000000000000000000000000000000000000000000000000DC000000000000000000000000000000000000000000000000000000000000000000000000000000
310
00000000000000000000000000000000000000000000000000000000000000000000000000000000000000000000000000000000000000000000000000000000000000000000000000000000000000000000000000000000000000000000000000000000000000000000000000000000000000000000000000000000000000
310
00DC000000000000000000000000000000000000000000000000000000000000000000000000000000000000000000000000000000000000000000000000000000000000000000000000000000000000000000000000000000DC00000000000000000000000000000000000000000000000000000000000000000000000000
310
00000000000000000000000000000000000000000000000000000000000000000000000000000000000000000000000000000000000000000000000000000000000000000000000000000000000000000000000000000000000000000000000000000000000000000000000000000000000000000000000000000000000000
310
000000DC000000000000000000000000000000000000000000000000000000000000000000000000000000000000000000000000000000000000000000000000000000000000000000000000000000000000000000000000000000DC0000000000000000000000000000000000000000000000000000000000000000000000
310
00000000000000000000000000000000000000000000000000000000000000000000000000000000000000000000000000000000000000000000000000000000000000000000000000000000000000000000000000000000000000000000000000000000000000000000000000000000000000000000000000000000000000
310
0000000000DC000000000000000000000000000000000000000000000000000000000000000000000000000000000000000000000000000000000000000000000000000000000000000000000000000000000000000000000000000000DC000000000000000000000000000000000000000000000000000000000000000000
310
00000000000000000000000000000000000000000000000000000000000000000000000000000000000000000000000000000000000000000000000000000000000000000000000000000000000000000000000000000000000000000000000000000000000000000000000000000000000000000000000000000000000000
310
00000000000000DC000000000000000000000000000000000000000000000000000000000000000000000000000000000000000000000000000000000000000000000000000000000000000000000000000000000000000000000000000000DC00000000000000000000000000000000000000000000000000000000000000
310
00000000000000000000000000000000000000000000000000000000000000000000000000000000000000000000000000000000000000000000000000000000000000000000000000000000000000000000000000000000000000000000000000000000000000000000000000000000000000000000000000000000000000
310
000000000000000000DC000000000000000000000000000000000000000000000000000000000000000000000000000000000000000000000000000000000000000000000000000000000000000000000000000000000000000000000000000000DC0000000000000000000000000000000000000000000000000000000000
310
00000000000000000000000000000000000000000000000000000000000000000000000000000000000000000000000000000000000000000000000000000000000000000000000000000000000000000000000000000000000000000000000000000000000000000000000000000000000000000000000000000000000000
310
0000000000000000000000DC000000000000000000000000000000000000000000000000000000000000000000000000000000000000000000000000000000000000000000000000000000000000000000000000000000000000000000000000000000DC000000000000000000000000000000000000000000000000000000
310
000000000000000000000000000000BEBEBEBEBEBEBEBEBEBEBEBEBEBEBE00000000000000000000000000000000000000000000000000000000000000000000000000000000000000000000000000000000000000000000000000000000000000000000000000000000000000000000000000000000000000000000000000
310
00000000000000000000000000DC000000000000000000000000000000000000000000000000000000000000000000000000000000000000000000000000000000000000000000000000000000000000000000000000000000000000000000000000000000DC00000000000000000000000000000000000000000000000000
310
0000000000000000000000000000000000BE0000000000BEBEBE0000000000BE0000000000000000000000000000000000000000000000000000000000000000000000000000000000000000000000000000000000000000000000000000000000000000000000000000000000000000000000000000000000000000000000
310
000000000000000000000000000000DC000000000000000000000000000000000000000000000000000000000000000000000000000000000000000000000000000000000000000000000000000000000000000000000000000000000000000000000000000000DC0000000000000000000000000000000000000000000000
310
00000000000000000000000000000000000000BE0000000000BEBEBE0000000000BE000000000000000000000000000000000000000000000000000000000000000000000000000000000000000000000000000000000000000000000000000000000000000000000000000000000000000000000000000000000000000000
310
0000000000000000000000000000000000DC000000000000000000000000000000000000000000000000000000000000000000000000000000000000000000000000000000000000000000000000000000000000000000000000000000000000000000000000000000DC000000000000000000000000000000000000000000
310
00000000000000000000000000000000000000BEBEBEBEBEBEBEBEBEBEBEBEBEBEBEBEBE00000000000000000000000000000000000000000000000000000000000000000000000000000000000000000000000000000000000000000000000000000000000000000000000000000000000000000000000000000000000000
310
00000000000000000000000000000000000000DC000000000000000000000000000000000000000000000000000000000000000000000000000000000000000000000000000000000000000000000000000000000000000000000000000000000000000000000000000000DC00000000000000000000000000000000000000
310
0000000000000000000000000000000000000000000000BEBE00000000BEBEBE0000000000BE0000000000000000000000000000000000000000000000000000000000000000000000000000000000000000000000000000000000000000000000000000000000000000000000000000000000000000000000000000000000
310
000000000000000000000000000000000000000000DC000000000000000000000000000000000000000000000000000000000000000000000000000000000000000000000000000000000000000000000000000000000000000000000000000000000000000000000000000000DC0000000000000000000000000000000000
310
00000000000000000000000000000000000000000000000000BE00000000000000000000000000BE000000000000000000000000000000000000000000000000000000000000000000000000000000000000000000000000000000000000000000000000000000000000000000000000000000000000000000000000000000
310
0000000000000000000000000000000000000000000000DC000000000000000000000000000000000000000000000000000000000000000000000000000000000000000000000000000000000000000000000000000000000000000000000000000000000000000000000000000000DC000000000000000000000000000000
310
000000000000000000000000000000000000000000000000000000BEBEBEBE00000000000000000000BE00000000000000000000000000000000000000000000000000000000000000000000000000000000000000000000000000000000000000000000000000000000000000000000000000000000000000000000000000
310
00000000000000000000000000000000000000000000000000DC000000000000000000000000000000000000000000000000000000000000000000000000000000000000000000000000000000000000000000000000000000000000000000000000000000000000000000000000000000DC00000000000000000000000000
310
0000000000000000000000000000000000000000000000000000000000BEBEBEBE00000000000000000000BE00000000000000000000000000000000000000000000000000000000000000000000000000000000000000000000000000000000000000BEBEBEBEBE0000000000000000000000000000000000000000000000
310
000000000000000000000000000000000000000000000000000000DC000000000000000000000000000000000000000000000000000000000000000000000000000000000000000000000000000000000000000000000000000000000000000000000000000000000000000000000000000000DC0000000000000000000000
310
00000000000000000000000000000000000000000000000000000000000000BE0000BE00000000000000000000BE0000000000000000000000000000000000000000000000000000000000000000000000000000000000000000000000000000BEBEBEBEBEBEBEBEBEBEBEBEBE000000000000000000000000000000000000
310
0000000000000000000000000000000000000000000000000000000000DC000000000000000000000000000000000000000000000000000000000000000000000000000000000000000000000000000000000000000000000000000000000000000000000000000000000000000000000000000000DC000000000000000000
310
000000000000000000000000000000000000000000000000000000000000000000BE0000BE00000000000000000000BE0000000000000000000000000000000000000000000000000000000000000000000000000000000000000000000000000000BE0000BE00BEBEBEBEBEBE000000000000000000000000000000000000
310
00000000000000000000000000000000000000000000000000000000000000DC000000000000000000000000000000000000000000000000000000000000000000000000000000000000000000000000000000000000000000000000000000000000000000000000000000000000000000000000000000DC00000000000000
310
0000000000000000000000000000000000000000000000000000000000000000000000BE0000BE00000000000000000000BE00000000000000000000000000000000000000000000000000000000000000000000000000000000000000000000000000BE0000BE000000000000000000000000000000000000000000000000
310
000000000000000000000000000000000000000000000000000000000000000000DC000000000000000000000000000000000000000000000000000000000000000000000000000000000000000000000000000000000000000000000000000000000000000000000000000000000000000000000000000000DC0000000000
310
00000000000000000000000000000000000000000000000000000000000000000000000000BE0000BE00000000000000000000BE00000000000000000000000000000000000000000000000000000000000000000000000000000000000000000000000000BE0000BE00000000000000000000000000000000000000000000
310
0000000000000000000000000000000000000000000000000000000000000000000000DC000000000000000000000000000000000000000000000000000000000000000000000000000000000000000000000000000000000000000000000000000000000000000000000000000000000000000000000000000000DC000000
310
000000000000000000000000000000000000000000000000000000000000000000000000000000BE0000BE00000000000000000000BE000000000000000000000000000000000000000000000000000000000000000000000000000000000000000000000000BE0000BE000000000F00000000000000000000000000000000
310
00000000000000000000000000000000000000000000000000000000000000000000000000DC000000000000000000000000000000000000000000000000000000000000000000000000000000000000000000000000000000000000000000000000000000000000000000000000000000000000000000000000000000DC00
310
000000000000000000000000000000000000000000000000000000000000BEBEBEBEBEBEBEBEBEBEBEBE2828BE28282828282828282828BE0000000000000000000000000000000000000000000000000000000000000000000028282828282828282828282828BEBE28BEBE28282828282828282828282828282828282828
310
28282828282828BEBEBEBEBEBEBEBEBEBEBEBEBE00000000000000000000000000000000000000DC000000000000000000000000000000000000000000000000000000000000000000000000000000000000000000000000000000000000000000000000000000000000000000000000000000000000000000000000000000
310
DC00000000000000000000000000000000000000000000000000000000000000BEBEBEBEBE000000000000280000BE000000000000000000002800000000000000000000000000000000000000000000000000000000000000000000280000000000000000000000BEBE00BEBE00000000000F000000000000000000000000
310
0000000000000000002800000000000000BEBE0000BE00000000000000000000000000000000000000DC00000000000000000000000000000000000000000000000000000000000000000000000000000000000000000000000000000000000000000000000000000000000000000000000000000000000000000000000000
310
0000DC0000000000000000000000000000000000000000000000000000000000000000BEBEBEBE000000000000280000BEDCDCDCDCDCDCDCDCDCDCDCBEBEDCDC00000000000000000000000000000000000000000000000000000000000028BE0000BE0000BE00BEBE00BE0000BE0000BE00BEBE0FBEBE00BE0000BE00BEBE
310
00BEBE00BE0000BE0000BE2800000000000000BEBE0000BE00000000000000000000000000000000000000DC0000000000000000000000000000000000000000000000000000000000000000000000000000000000000000000000000000000000000000000000000000000000000000000000000000000000000000000000
310
00000000DC0000000000000000000000000000000000000000000000000000000000000000BEBEBEBEBEBEBEBEBEBEBEBEBEBE28282828282828282828BE00BEBE0000000000000000000000000000000000000000000000000000000000000028282828282828282828282828282828282828282828282828282828282828
310
28282828282828282828282828BEBEBEBEBEBEBEBEBEBE0000BE00000000000000000000000000000000000000DC000000000000000000000000000000000000000000000000000000000000000000000000000000000000000000000000000000000000000000000000000000000000000000000000000000000000000000
310
000000000000DC0000000000000000000000000000000000000000000000000000000000000000BE00BEBE00000000000028000028BE280000000000000000BE0000BE00000000000000000000000000000000000000000000000000000000000000280000000000000000000000000000000000000000000F000000000000
310
000000000000000000000000000000280000000000000000BE0000BE00000000000000000000000000000000000000DC00000000000000000000000000000000000000000000000000000000000000000000000000000000000000000000000000000000000000000000000000000000000000000000000000000000000000
310
0000000000000000DC0000000000000000000000000000000000000000000000000000000000000000BE0000BE00000000000028000028BEBE0000000000000000BE000000BE000000000000000000000000000000000000000000000000000000000000280000000000000000000000000000000000000000000F00000000
310
0000000000000000000000000000000000280000000000000000BE0000BE00000000000000000000000000000000000000DC0000000000000000000000000000000000000000000000000000000000000000000000000000000000000000000000000000000000000000000000000000000000000000000000000000000000
310
00000000000000000000DC0000000000000000000000000000000000000000000000000000000000000000BE0000BE000000000000280000280000BEBE000000000000BE000000BE000000000000000000000000000000000000000000000000000000000000280000000000000000000000000000000000000000000F0000
310
00000000000000000000000000000000000000280000000000000000BE0000BE00000000000000000000000000000000000000DC000000000000000000000000000000000000000000000000000000000000000000000000000000000000000000000000000000000000000000000000000000000000000000000000000000
310
000000000000000000000000DC0000000000000000000000000000000000000000000000000000000000000000BE0000BE000000000000280000280000BEBEBE0000000000BE00000000BE00BEBEBEBEBE0000000000000000000000000000000000000000000000280000000000000000000000000000000000000000000F
310
000000000000000000000000000000000000000000280000000000000000BE0000BE00000000000000000000000000000000000000DC00000000000000000000000000000000000000000000000000000000000000000000000000000000000000000000000000000000000000000000000000000000000000000000000000
310
0000000000000000000000000000DC0000000000000000000000000000000000000000000000000000000000000000BE0000BE00000000000028000028000000BEBE0000000000BE00000000BEBEBEBEBEBEBEBEBEBE0000000000000000000000000000000000000000280000000000000000000000000000000000000000
310
000F000000000000000000000000000000000000000000280000000000000000BE0000BE00000000000000000000000000000000000000DC0000000000000000000000000000000000000000000000000000000000000000000000000000000000000000000000000000000000000000000000000000000000000000000000
310
00000000000000000000000000000000DC0000000000000000000000000000000000000000000000000000000000000000BE0000BE0000000000002800002800000000000000000000BE000000000000BEBEBEBEBEBE0000000000000000000000000000000000000000000028000000000000000000000000000000000000
310
0000000F000000000000000000000000000000000000000000280000000000000000BE0000BE00000000000000000000000000000000000000DC000000000000000000000000000000000000000000000000000000000000000000000000000000000000000000000000000000000000000000000000000000000000000000
310
000000000000000000000000000000000000DC0000000000000000000000000000000000000000000000000000000000000000BE0000BE0000000000002800002800000000000000000000BE000000000000000000000000000000000000000000000000000000000000000000002800000000000000000000000000000000
310
00000000000F000000000000000000000000000000000000000000280000000000000000BE0000BE00000000000000000000000000000000000000DC00000000000000000000000000000000000000000000000000000000000000000000000000000000000000000000000000000000000000000000000000000000000000
310
0000000000000000000000000000000000000000DC0000000000000000000000000000000000000000000000000000000000000000BE0000BE0000000000002800002800000000000000000000BE00000000000000000000000000000000000000000000000000000000000000000000280000000000000000000000000000
310
000000000000000F000000000000000000000000000000000000000000280000000000000000BE0000BE00000000000000000000000000000000000000DC0000000000000000000000000000000000000000000000000000000000000000000000000000000000000000000000000000000000000000000000000000000000
310
00000000000000000000000000000000000000000000DC0000000000000000000000000000000000000000000000000000000000000000BE0000BE0000000000002800002800000000000000000000BE0000000000000000000000000000000000000000000000000000000000000000000028000000000000000000000000
310
0000000000000000000F000000000000000000000000000000000000000000280000000000000000BE0000BE00000000000000000000000000000000000000DC000000000000000000000000000000000000000000000000000000000000000000000000000000000000000000000000000000000000000000000000000000
310
000000000000000000000000000000000000000000000000DC0000000000000000000000000000000000000000000000000000000000000000BE0000BE0000000000002800002800000000000000000000BE000000000000000000000000000000000000000000000000000000000000000000002800000000000000000000
310
00000000000000000000000F000000000000000000000000000000000000000000280000000000000000BE0000BE00000000000000000000000000000000000000DC00000000000000000000000000000000000000000000000000000000000000000000000000000000000000000000000000000000000000000000000000
310
0000000000000000000000000000000000000000000000000000DC0000000000000000000000000000000000000000000000000000000000000000BE0000BE0000000000002800002800000000000000000000BE00000000000000000000000000000000000000000000000000000000000000000000280000000000000000
310
000000000000000000000000000F000000000000000000000000000000000000000000280000000000000000BE0000BE00000000000000000000000000000000000000DC0000000000000000000000000000000000000000000000000000000000000000000000000000000000000000000000000000000000000000000000
310
00000000000000000000000000000000000000000000000000000000DC0000000000000000000000000000000000000000000000000000000000000000BE0000BE0000000000002800002800000000000000000000BE0000000000000000000000000000000000000000000000000000000000000000000028000000000000
310
0000000000000000000000000000000F000000000000000000000000000000000000000000280000000000000000BE0000BE00000000000000000000000000000000000000DC000000000000000000000000000000000000000000000000000000000000000000000000000000000000000000000000000000000000000000
310
000000000000000000000000000000000000000000000000000000000000DC000000000000000000000000000000000000000000000000000000000000BEBEBE0000BE0000000000002800002800000000000000000000BE000000000000000000000000000000000000000000000000000000000000000000002800000000
310
00000000000000000000000000000000000F000000000000000000000000000000000000000000280000000000000000BE00BEBE00000000000000000000000000000000000000DC00000000000000000000000000000000000000000000000000000000000000000000000000000000000000000000000000000000000000
310
0000000000000000000000000000000000000000000000000000000000000000DC000000000000000000000000000000000000000000000000000000000000BEBEBEBEBEBE0000000000002800002800000000000000000000BE00000000000000000000000000000000000000000000000000000000000000000000280000
310
000000000000000000000000000000000000000F0000000000000000000000000000000000000000002800000000000000BEBE00BEBE00000000000000000000000000000000000000DC0000000000000000000000000000000000000000000000000000000000000000000000000000000000000000000000000000000000
310
00000000000000000000000000000000000000000000000000000000000000000000DC000000000000000000000000000000000000000000000000000000000000BEBEBEBEBEBE0000000000000028002800000000000000000000BE0000000000000000000000000000000000000000000000000000000000000000000028
310
0000000000000000000000000000000000000000000F0000000000000000000000000000000000000000002800000000000000BEBE00BEBE00000000000000000000000000000000000000DC000000000000000000000000000000000000000000000000000000000000000000000000000000000000000000000000000000
310
000000000000000000000000000000000000000000000000000000000000000000000000DC0000000000000000000000000000000000000000000000000000000000000000BEBEBEBE0000000000000028002800000000000000000000BE000000000000000000000000000000000000000000000000000000000000000000
310
00280000000000000000000000000000000000000000000F0000000000000000000000000000000000000000002800000000000000BEBE0000BE00000000000000000000000000000000000000DC00000000000000000000000000000000000000000000000000000000000000000000000000000000000000000000000000
310
0000000000000000000000000000000000000000000000000000000000000000000000000000DC0000000000000000000000000000000000000000000000000000000000000000BEBEBEBE0000000000000028002800000000000000000000BE00000000000000000000000000000000000000000000000000000000000000
310
000000280000000000000000000000000000000000000000000F0000000000000000000000000000000000000000002800000000000000BEBE0000BE00000000000000000000000000000000000000DC0000000000000000000000000000000000000000000000000000000000000000000000000000000000000000000000
310
00000000000000000000000000000000000000000000000000000000000000000000000000000000DC0000000000000000000000000000000000000000000000000000000000000000BE0000BE0000000000000028002800000000000000000000BE0000000000000000000000000000000000000000000000000000000000
310
0000000000280000000000000000000000000000000000000000000F000000000000000000000000000000000000000000280000000000000000BE0000BE00000000000000000000000000000000000000DC000000000000000000000000000000000000000000000000000000000000000000000000000000000000000000
310
000000000000000000000000000000000000000000000000000000000000000000000000000000000000DC0000000000000000000000000000000000000000000000000000000000000000BE0000BE0000000000000028002800000000000000000000BE000000000000000000000000000000000000000000000000000000
310
00000000000000280000000000000000000000000000000000000000000F000000000000000000000000000000000000000000280000000000000000BE0000BE00000000000000000000000000000000000000DC00000000000000000000000000000000000000000000000000000000000000000000000000000000000000
310
0000000000000000000000000000000000000000000000000000000000000000000000000000000000000000DC0000000000000000000000000000000000000000000000000000000000000000BE0000BE0000000000000028002800000000000000000000BE00000000000000000000000000000000000000000000000000
310
000000000000000000280000000000000000000000000000000000000000000F000000000000000000000000000000000000000000280000000000000000BE0000BE00000000000000000000000000000000000000DC0000000000000000000000000000000000000000000000000000000000000000000000000000000000
310
00000000000000000000000000000000000000000000000000000000000000000000000000000000000000000000DC0000000000000000000000000000000000000000000000000000000000000000BE0000BE0000000000000028002800000000000000000000BE0000000000000000000000000000000000000000000000
310
0000000000000000000000280000000000000000000000000000000000000000000F000000000000000000000000000000000000000000280000000000000000BE0000BE00000000000000000000000000000000000000DC000000000000000000000000000000000000000000000000000000000000000000000000000000
310
000000000000000000000000000000000000000000000000000000000000000000000000000000000000000000000000DC0000000000000000000000000000000000000000000000000000000000000000BE0000BE0000000000000028002800000000000000000000BE000000000000000000000000000000000000000000
310
00000000000000000000000000280000000000000000000000000000000000000000000F000000000000000000000000000000000000000000280000000000000000BE0000BE00000000000000000000000000000000000000DC00000000000000000000000000000000000000000000000000000000000000000000000000
310
0000000000000000000000000000000000000000000000000000000000000000000000000000000000000000000000000000DC0000000000000000000000000000000000000000000000000000000000000000BE0000BE0000000000000028002800000000000000000000BE00000000000000000000000000000000000000
310
000000000000000000000000000000280000000000000000000000000000000000000000000F000000000000000000000000000000000000000000280000000000000000BE0000BE00000000000000000000000000000000000000DC0000000000000000000000000000000000000000000000000000000000000000000000
310
00000000000000000000000000000000000000000000000000000000000000000000000000000000000000000000000000000000DC0000000000000000000000000000000000000000000000000000000000000000BE0000BE0000000000000028002800000000000000000000BE0000000000000000000000000000000000
310
0000000000000000000000000000000000280000000000000000000000000000000000000000000F000000000000000000000000000000000000000000280000000000000000BE0000BE00000000000000000000000000000000000000DC000000000000000000000000000000000000000000000000000000000000000000
310
000000000000000000000000000000000000000000000000000000000000000000000000000000000000000000000000000000000000DC0000000000000000000000000000000000000000000000000000000000000000BE0000BE0000000000000028002800000000000000000000BE000000000000000000000000000000
310
00000000000000000000000000000000000000280000000000000000000000000000000000000000000F000000000000000000000000000000000000000000280000000000000000BE0000BE00000000000000000000000000000000000000DC00000000000000000000000000000000000000000000000000000000000000
310
0000000000000000000000000000000000000000000000000000000000000000000000000000000000000000000000000000000000000000DC0000000000000000000000000000000000000000000000000000000000000000BE0000BE0000000000000028002800000000000000000000BE00000000000000000000000000
310
000000000000000000000000000000000000000000280000000000000000000000000000000000000000000F000000000000000000000000000000000000000000280000000000000000BE0000BE00000000000000000000000000000000000000DC0000000000000000000000000000000000000000000000000000000000
310
00000000000000000000000000000000000000000000000000000000000000000000000000000000000000000000000000000000000000000000DC0000000000000000000000000000000000000000000000000000000000000000BE0000BE0000000000000028002800000000000000000000BE0000000000000000000000
310
0000000000000000000000000000000000000000000000280000000000000000000000000000000000000000000F000000000000000000000000000000000000000000280000000000000000BE0000BE00000000000000000000000000000000000000DC000000000000000000000000000000000000000000000000000000
310
000000000000000000000000000000000000000000000000000000000000000000000000000000000000000000000000000000000000000000000000DC0000000000000000000000000000000000000000000000000000000000000000BE0000BE0000000000000028002800000000000000000000BE000000000000000000
310
00000000000000000000000000000000000000000000000000280000000000000000000000000000000000000000000F000000000000000000000000000000000000000000280000000000000000BE0000BE00000000000000000000000000000000000000DC00000000000000000000000000000000000000000000000000
310
0000000000000000000000000000000000000000000000000000000000000000000000000000000000000000000000000000000000000000000000000000DC0000000000000000000000000000000000000000000000000000000000000000BE0000BE0000000000000028002800000000000000000000BE00000000000000
310
000000000000000000000000000000000000000000000000000000280000000000000000000000000000000000000000000F000000000000000000000000000000000000000000280000000000000000BE0000BE00000000000000000000000000000000000000DC0000000000000000000000000000000000000000000000
310
00000000000000000000000000000000000000000000000000000000000000000000000000000000000000000000000000000000000000000000000000000000DC00000000000000000000000000000000000000000000000000000000000000BEBE00BEBE0000000000000028002800000000000000000000BE0000000000
310
0000000000000000000000000000000000000000000000000000000000280000000000000000000000000000000000000000000F000000000000000000000000000000000000000000280000000000000000BE0000BE00000000000000000000000000000000000000DC000000000000000000000000000000000000000000
310
000000000000000000000000000000000000000000000000000000000000000000000000000000000000000000000000000000000000000000000000000000000000DC00000000000000000000000000000000000000000000000000000000000000BEBEBEBEBEBEBEBEBEBEBEBEBE28BE00000000000000000000BE000000
310
00000000000000000000000000000000000000000000000000000000000000BE28282828282828282828282828282828282828282828282828282828282828282828282828282828282828BEBEBEBEBEBEBEBEBEBEBEBEBE00000000000000000000000000000000000000DC00000000000000000000000000000000000000
310
0000000000000000000000000000000000000000000000000000000000000000000000000000000000000000000000000000000000000000000000000000000000000000DC00000000000000000000000000000000000000000000000000000000000000000000000000000000000000BE00BE00000000000000000000BE00
310
000000000000000000000000000000000000000000000000000000000000000000BE0000000000000000000000000000000000000000000F000000000000000000000000000000000000000000BE00000000000000000000000000000000000000000000000000000000000000DC0000000000000000000000000000000000
310
00000000000000000000000000000000000000000000000000000000000000000000000000000000000000000000000000000000000000000000000000000000000000000000DC00000000000000000000000000000000000000000000000000000000000000000000000000000000000000BE00BE00000000000000000000
310
BE00000000000000000000000000000000000000000000000000000000000000000000BE0000000000000000000000000000000000000000000F000000000000000000000000000000000000000000BE00000000000000000000000000000000000000000000000000000000000000DC000000000000000000000000000000
310
000000000000000000000000000000000000000000000000000000000000000000000000000000000000000000000000000000000000000000000000000000000000000000000000DC00000000000000000000000000000000000000000000000000000000000000000000000000000000000000BE00BE0000000000000000
310
0000BE00000000000000000000000000000000000000000000000000000000000000000000BE00000000000000000000000000000000000000000000000000000000000000000000000000000000000000BE00000000000000000000000000000000000000000000000000000000000000DC00000000000000000000000000
310
0000000000000000000000000000000000000000000000000000000000000000000000000000000000000000000000000000000000000000000000000000000000000000000000000000DC00000000000000000000000000000000000000000000000000000000000000000000000000000000000000BE00BE000000000000
310
00000000BE00000000000000000000000000000000000000000000000000000000000000000000BE00000000000000000000000000000000000000000000000000000000000000000000000000000000000000BE00000000000000000000000000000000000000000000000000000000000000DC0000000000000000000000
310
00000000000000000000000000000000000000000000000000000000000000000000000000000000000000000000000000000000000000000000000000000000000000000000000000000000DC00000000000000000000000000000000000000000000000000000000000000000000000000000000000000BE00BE00000000
310
000000000000BE00000000000000000000000000000000000000000000000000000000000000000000BE00000000000000000000000000000000000000000000000000000000000000000000000000000000000000BE00000000000000000000000000000000000000000000000000000000000000DC000000000000000000
310
000000000000000000000000000000000000000000000000000000000000000000000000000000000000000000000000000000000000000000000000000000000000000000000000000000000000DC00000000000000000000000000000000000000000000000000000000000000000000000000000000000000BE00BE0000
310
0000000000000000BE00000000000000000000000000000000000000000000000000000000000000000000BE00000000000000000000000000000000000000000000000000000000000000000000000000000000000000BE00000000000000000000000000000000000000000000000000000000000000DC00000000000000
310
0000000000000000000000000000000000000000000000000000000000000000000000000000000000000000000000000000000000000000000000000000000000000000000000000000000000000000DC00000000000000000000000000000000000000000000000000000000000000000000000000000000000000BEBEBE
310
BEBEBEBEBEBEBEBEBEBEBE00000000000000000000000000000000000000000000000000000000000000000000BE00000000000000000000000000000000000000000000000000000000000000000000000000000000000000BE00000000000000000000000000000000000000000000000000000000000000DC0000000000
310
00000000000000000000000000000000000000000000000000000000000000000000000000000000000000000000000000000000000000000000000000000000000000000000000000000000000000000000DC00000000000000000000000000000000000000000000000000000000000000000000000000000000000000BE
310
BEBE00000000BEBEBE000000BE00000000000000000000000000000000000000000000000000000000000000000000BE00000000000000000000000000000000000000000000000000000000000000000000000000000000000000BE00000000000000000000000000000000000000000000000000000000000000DC000000
310
000000000000000000000000000000000000000000000000000000000000000000000000000000000000000000000000000000000000000000000000000000000000000000000000000000000000000000000000DC000000000000000000000000000000000000000000000000000000000000000000000000000000000000
310
00BEBEBEBEBEBEBEBEBEBEBEBEBEBE00000000000000000000000000000000000000000000000000000000000000000000BEBEBEBEBEBEBEBEBEBEBEBEBEBEBEBEBEBEBEBEBEBEBEBEBEBEBEBEBEBEBEBEBEBEBEBEBEBEBEBEBEBEBEBEBE00000000000000000000000000000000000000000000000000000000000000DC00
310
0000000000000000000000000000000000000000000000000000000000000000000000000000000000000000000000000000000000000000000000000000000000000000000000000000000000000000000000000000DC00000000000000000000000000000000000000000000000000000000000000000000000000000000
310
000000BE00000000BEBEBEBE00000000BE00000000000000000000000000000000000000000000000000000000000000000000BE0000000000000000000000000000000000000000BEBEBE0000000000000000000000000000000000000000BE00000000000000000000000000000000000000000000000000000000000000
310
DC000000000000000000000000000000000000000000000000000000000000000000000000000000000000000000000000000000000000000000000000000000000000000000000000000000000000000000000000000000DC0000000000000000000000000000000000000000000000000000000000000000000000000000
310
0000000000000000000000BEBEBE000000000000000000000000000000000000000000000000000000000000000000000000000000000000000000000000000000000000000000000000BEBEBE0000000000000000000000000000000000000000000000000000000000000000000000000000000000000000000000000000
310
0000DC000000000000000000000000000000000000000000000000000000000000000000000000000000000000000000000000000000000000000000000000000000000000000000000000000000000000000000000000000000DC000000000000000000000000000000000000000000000000000000000000000000000000
310
00000000000000000000000000000000000000000000000000000000000000000000000000000000000000000000000000000000000000000000000000000000000000000000000000000000000000000000000000000000000000000000000000000000000000000000000000000000000000000000000000000000000000
310
00000000DC000000000000000000000000000000000000000000000000000000000000000000000000000000000000000000000000000000000000000000000000000000000000000000000000000000000000000000000000000000DC00000000000000000000000000000000000000000000000000000000000000000000
310
00000000000000000000000000000000000000000000000000000000000000000000000000000000000000000000000000000000000000000000000000000000000000000000000000000000000000000000000000000000000000000000000000000000000000000000000000000000000000000000000000000000000000
310
000000000000DC000000000000000000000000000000000000000000000000000000000000000000000000000000000000000000000000000000000000000000000000000000000000000000000000000000000000000000000000000000DC0000000000000000000000000000000000000000000000000000000000000000
310
00000000000000000000000000000000000000000000000000000000000000000000000000000000000000000000000000000000000000000000000000000000000000000000000000000000000000000000000000000000000000000000000000000000000000000000000000000000000000000000000000000000000000
310
0000000000000000DC000000000000000000000000000000000000000000000000000000000000000000000000000000000000000000000000000000000000000000000000000000000000000000000000000000000000000000000000000000DC000000000000000000000000000000000000000000000000000000000000
310
00000000000000000000000000000000000000000000000000000000000000000000000000000000000000000000000000000000000000000000000000000000000000000000000000000000000000000000000000000000000000000000000000000000000000000000000000000000000000000000000000000000000000
310
00000000000000000000DC000000000000000000000000000000000000000000000000000000000000000000000000000000000000000000000000000000000000000000000000000000000000000000000000000000000000000000000000000000DC00000000000000000000000000000000000000000000000000000000
310
00000000000000000000000000000000000000000000000000000000000000000000000000000000000000000000000000000000000000000000000000000000000000000000000000000000000000000000000000000000000000000000000000000000000000000000000000000000000000000000000000000000000000
310
000000000000000000000000DC000000000000000000000000000000000000000000000000000000000000000000000000000000000000000000000000000000000000000000000000000000000000000000000000000000000000000000000000000000DC0000000000000000000000000000000000000000000000000000
310
00000000000000000000000000000000000000000000000000000000000000000000000000000000000000000000000000000000000000000000000000000000000000000000000000000000000000000000000000000000000000000000000000000000000000000000000000000000000000000000000000000000000000
310
0000000000000000000000000000DC000000000000000000000000000000000000000000000000000000000000000000000000000000000000000000000000000000000000000000000000000000000000000000000000000000000000000000000000000000DC000000000000000000000000000000000000000000000000
310
00000000000000000000000000000000000000000000000000000000000000000000000000000000000000000000000000000000000000000000000000000000000000000000000000000000000000000000000000000000000000000000000000000000000000000000000000000000000000000000000000000000000000
310
00000000000000000000000000000000DC000000000000000000000000000000000000000000000000000000000000000000000000000000000000000000000000000000000000000000000000000000000000000000000000000000000000000000000000000000DC00000000000000000000000000000000000000000000
310
00000000000000000000000000000000000000000000000000000000000000000000000000000000000000000000000000000000000000000000000000000000000000000000000000000000000000000000000000000000000000000000000000000000000000000000000000000000000000000000000000000000000000
310
000000000000000000000000000000000000DC000000000000000000000000000000000000000000000000000000000000000000000000000000000000000000000000000000000000000000000000000000000000000000000000000000000000000000000000000000DC0000000000000000000000000000000000000000
310
00000000000000000000000000000000000000000000000000000000000000000000000000000000000000000000000000000000000000000000000000000000000000000000000000000000000000000000000000000000000000000000000000000000000000000000000000000000000000000000000000000000000000
310
0000000000000000000000000000000000000000DC000000000000000000000000000000000000000000000000000000000000000000000000000000000000000000000000000000000000000000000000000000000000000000000000000000000000000000000000000000DC000000000000000000000000000000000000
310
00000000000000000000000000000000000000000000000000000000000000000000000000000000000000000000000000000000000000000000000000000000000000000000000000000000000000000000000000000000000000000000000000000000000000000000000000000000000000000000000000000000000000
310
00000000000000000000000000000000000000000000DC000000000000000000000000000000000000000000000000000000000000000000000000000000000000000000000000000000000000000000000000000000000000000000000000000000000000000000000000000000DC00000000000000000000000000000000
310
00000000000000000000000000000000000000000000000000000000000000000000000000000000000000000000000000000000000000000000000000000000000000000000000000000000000000000000000000000000000000000000000000000000000000000000000000000000000000000000000000000000000000
310
000000000000000000000000000000000000000000000000DC000000000000000000000000000000000000000000000000000000000000000000000000000000000000000000000000000000000000000000000000000000000000000000000000000000000000000000000000000000DC0000000000000000000000000000
310
00000000000000000000000000000000000000000000000000000000000000000000000000000000000000000000000000000000000000000000000000000000000000000000000000000000000000000000000000000000000000000000000000000000000000000000000000000000000000000000000000000000000000
310
0000000000000000000000000000000000000000000000000000DC000000000000000000000000000000000000000000000000000000000000000000000000000000000000000000000000000000000000000000000000000000000000000000000000000000000000000000000000000000DC000000000000000000000000
310
00000000000000000000000000000000000000000000000000000000000000000000000000000000000000000000000000000000000000000000000000000000000000000000000000000000000000000000000000000000000000000000000000000000000000000000000000000000000000000000000000000000000000
310
00000000000000000000000000000000000000000000000000000000DC000000000000000000000000000000000000000000000000000000000000000000000000000000000000000000000000000000000000000000000000000000000000000000000000000000000000000000000000000000DC00000000000000000000
310
00000000000000000000000000000000000000000000000000000000000000000000000000000000000000000000000000000000000000000000000000000000000000000000000000000000000000000000000000000000000000000000000000000000000000000000000000000000000000000000000000000000000000
310
000000000000000000000000000000000000000000000000000000000000DC000000000000000000000000000000000000000000000000000000000000000000000000000000000000000000000000000000000000000000000000000000000000000000000000000000000000000000000000000000DCDCDCDCDCDCDCDCDC
310
DCDCDCDCDCDCDCDCDCDCDCDCDCDCDCDCDCDCDCDCDCDCDCDCDCDCDCDCDCDCDCDCDCDCDCDCDCDCDCDCDCDCDCDCDCDCDCDCDCDCDCDCDCDCDCDCDCDCDCDCDCDCDCDCDCDCDCDCDCDCDCDCDCDCDCDCDCDCDCDCDCDCDCDCDCDCDCDCDCDCDCDCDCDCDCDCDCDCDCDCDCDCDCDCDCDCDCDCDCDCDCDCDCDCDCDCDCDCDCDCDCDCDCDCDCDCDC
310
DCDCDCDCDCDCDCDCDCDCDCDCDCDCDCDCDCDCDCDCDCDCDCDCDCDCDCDCDCDCDCDCDC000000000000000000000000000000000000000000000000000000000000000000000000000000000000000000000000000000000000000000000000000000000000000000000000000000000000000000000000000000BE00BEBE00BEBE
310
00BEBE00BE0000000000000000000000000000000000000000000000000000000000000000000000000000000000000000000000000000000000000000000000000000000000000000000000000000000000000000000000000000000000000000000000000000000000000000000000000000000000000000000000000000
310
0000000000000000000000000000000000000000000000000000000000000000000000000000000000000000000000000000000000000000000000000000000000000000000000000000000000000000000000000000000000000000000000000000000000000000000000000000000000000000000000000000BE00BEBEBE
310
BEBEBEBEBE00BE000000000000000000000000000000000000000000000000000000000000000000000000000000000000000000000000000000000000000000000000000000000000000000000000000000000000000000000000000000000000000000000000000000000000000000000000000000000000000000000000
310
00000000000000000000000000000000000000000000000000000000000000000000000000000000000000000000000000000000000000000000000000000000000000000000000000000000000000000000000000000000000000000000000000000000000000000000000000000000000000000000000000000000BEBEBE
310
BEBEBEBEBEBEBEBEBE00000000000000000000000000000000000000000000000000000000000000000000000000000000000000000000000000000000000000000000000000000000000000000000000000000000000000000000000000000000000000000000000000000000000000000000000000000000000000000000
310
00000000000000000000000000000000000000000000000000000000000000000000000000000000000000000000000000000000000000000000000000000000000000000000000000000000000000000000000000000000000000000000000000000000000000000000000000000000000000000000000000000000000000
310
00000000000000000000000000000000000000000000000000000000000000000000000000000000000000000000000000000000000000000000000000000000000000000000000000000000000000000000000000000000000000000000000000000000000000000000000000000000000000000000000000000000000000
310
00000000000000000000000000000000000000000000000000000000000000000000000000000000000000000000000000000000000000000000000000000000000000000000000000000000000000000000000000000000000000000000000000000000000000000000000000000000000000000000000000000000000000
310
00000000000000000000000000000000000000000000000000000000000000000000000000000000000000000000000000000000000000000000000000000000000000000000000000000000000000000000000000000000000000000000000000000000000000000000000000000000000000000000000000000000000000
310
00000000000000000000000000000000000000000000000000000000000000000000000000000000000000000000000000000000000000000000000000000000000000000000000000000000000000000000000000000000000000000000000000000000000000000000000000000000000000000000000000000000000000
310
00000000000000000000000000000000000000000000000000000000000000000000000000000000000000000000000000000000000000000000000000000000000000000000000000000000000000000000000000000000000000000000000000000000000000000000000000000000000000000000000000000000000000
310
00000000000000000000000000000000000000000000000000000000000000000000000000000000000000000000000000000000000000000000000000000000000000000000000000000000000000000000000000000000000000000000000000000000000000000000000000000000000000000000000000000000000000
310
00000000000000000000000000000000000000000000000000000000000000000000000000000000000000000000000000000000000000000000000000000000000000000000000000000000000000000000000000000000000000000000000000000000000000000000000000000000000000000000000000000000000000
310
00000000000000000000000000000000000000000000000000000000000000000000000000000000000000000000000000000000000000000000000000000000000000000000000000000000000000000000000000000000000000000000000000000000000000000000000000000000000000000000000000000000000000
310
00000000000000000000000000000000000000000000000000000000000000000000000000000000000000000000000000000000000000000000000000000000000000000000000000000000000000000000000000000000000000000000000000000000000000000000000000000000000000000000000000000000000000
310
00000000000000000000000000000000000000000000000000000000000000000000000000000000000000000000000000000000000000000000000000000000000000000000000000000000000000000000000000000000000000000000000000000000000000000000000000000000000000000000000000000000000000
310
00000000000000000000000000000000000000000000000000000000000000000000000000000000000000000000000000000000000000000000000000000000000000000000000000000000000000000000000000000000000000000000000000000000000000000000000000000000000000000000000000000000000000
310
00000000000000000000000000000000000000000000000000000000000000000000000000000000000000000000000000000000000000000000000000000000000000000000000000000000000000000000000000000000000000000000000000000000000000000000000000000000000000000000000000000000000000
310
00000000000000000000000000000000000000000000000000000000000000000000000000000000000000000000000000000000000000000000000000000000000000000000000000000000000000000000000000000000000000000000000000000000000000000000000000000000000000000000000000000000000000
310
00000000000000000000000000000000000000000000000000000000000000000000000000000000000000000000000000000000000000000000000000000000000000000000000000000000000000000000000000000000000000000000000000000000000000000000000000000000000000000000000000000000000000
310
00000000000000000000000000000000000000000000000000000000000000000000000000000000000000000000000000000000000000000000000000000000000000000000000000000000000000000000000000000000000000000000000000000000000000000000000000000000000000000000000000000000000000
310
00000000000000000000000000000000000000000000000000000000000000000000000000000000000000000000000000000000000000000000000000000000000000000000000000000000000000000000000000000000000000000000000000000000000000000000000000000000000000000000000000000000000000
310
00000000000000000000000000000000000000000000000000000000000000000000000000000000000000000000000000000000000000000000000000000000000000000000000000000000000000000000000000000000000000000000000000000000000000000000000000000000000000000000000000000000000000
310
00000000000000000000000000000000000000000000000000000000000000000000000000000000000000000000000000000000000000000000000000000000000000000000000000000000000000000000000000000000000000000000000000000000000000000000000000000000000000000000000000000000000000
310
00000000000000000000000000000000000000000000000000000000000000000000000000000000000000000000000000000000000000000000000000000000000000000000000000000000000000000000000000000000000000000000000000000000000000000000000000000000000000000000000000000000000000
310
00000000000000000000000000000000000000000000000000000000000000000000000000000000000000000000000000000000000000000000000000000000000000000000000000000000000000000000000000000000000000000000000000000000000000000000000000000000000000000000000000000000000000
310
00000000000000000000000000000000000000000000000000000000000000000000000000000000000000000000000000000000000000000000000000000000000000000000000000000000000000000000000000000000000000000000000000000000000000000000000000000000000000000000000000000000000000
310
00000000000000000000000000000000000000000000000000000000000000000000000000000000000000000000000000000000000000000000000000000000000000000000000000000000000000000000000000000000000000000000000000000000000000000000000000000000000000000000000000000000000000
310
00000000000000000000000000000000000000000000000000000000000000000000000000000000000000000000000000000000000000000000000000000000000000000000000000000000000000000000000000000000000000000000000000000000000000000000000000000000000000000000000000000000000000
310
00000000000000000000000000000000000000000000000000000000000000000000000000000000000000000000000000000000000000000000000000000000000000000000000000000000000000000000000000000000000000000000000000000000000000000000000000000000000000000000000000000000000000
310
00000000000000000000000000000000000000000000000000000000000000000000000000000000000000000000000000000000000000000000000000000000000000000000000000000000000000000000000000000000000000000000000000000000000000000000000000000000000000000000000000000000000000
310
00000000000000000000000000000000000000000000000000000000000000000000000000000000000000000000000000000000000000000000000000000000000000000000000000000000000000000000000000000000000000000000000000000000000000000000000000000000000000000000000000000000000000
310
00000000000000000000000000000000000000000000000000000000000000000000000000000000000000000000000000000000000000000000000000000000000000000000000000000000000000000000000000000000000000000000000000000000000000000000000000000000000000000000000000000000000000
310
00000000000000000000000000000000000000000000000000000000000000000000000000000000000000000000000000000000000000000000000000000000000000000000000000000000000000000000000000000000000000000000000000000000000000000000000000000000000000000000000000000000000000
310
00000000000000000000000000000000000000000000000000000000000000000000000000000000000000000000000000000000000000000000000000000000000000000000000000000000000000000000000000000000000000000000000000000000000000000000000000000000000000000000000000000000000000
310
00000000000000000000000000000000000000000000000000000000000000000000000000000000000000000000000000000000000000000000000000000000000000000000000000000000000000000000000000000000000000000000000000000000000000000000000000000000000000000000000000000000000000
310
00000000000000000000000000000000000000000000000000000000000000000000000000000000000000000000000000000000000000000000000000000000000000000000000000000000000000000000000000000000000000000000000000000000000000000000000000000000000000000000000000000000000000
310
0000000000000000000000000000000000000000000000000000000000000000000000000000000000000000000000000000000000000000000000000000000000000000000000000000000000000000000000000000000000000000000000000000000000000000000000000000000000000000000000000000
  0
XRECORD
  5
1E81
102
{ACAD_REACTORS
330
1E80
102
}
330
1E80
100
AcDbXrecord
280
     1
102
MATERIAL
148
0.0
149
0.0
149
0.0
 93
        0
 94
      127
282
     0
 72
     0
 77
     0
171
     0
175
     0
179
     0
273
     0
  0
XRECORD
  5
1E83
102
{ACAD_REACTORS
330
1E82
102
}
330
1E82
100
AcDbXrecord
280
     1
102
MATERIAL
148
0.0
149
0.0
149
0.0
 93
        0
 94
      127
282
     0
 72
     0
 77
     0
171
     0
175
     0
179
     0
273
     0
  0
XRECORD
  5
1E85
102
{ACAD_REACTORS
330
1E84
102
}
330
1E84
100
AcDbXrecord
280
     1
102
MATERIAL
148
0.0
149
0.0
149
0.0
 93
        0
 94
      127
282
     0
 72
     0
 77
     0
171
     0
175
     0
179
     0
273
     0
  0
XRECORD
  5
1E77
102
{ACAD_REACTORS
330
1E76
102
}
330
1E76
100
AcDbXrecord
280
     1
102
DISPLAYNAME
  1
Imperial24
102
FLAGS
 90
        0
  0
CELLSTYLEMAP
  5
1E88
102
{ACAD_REACTORS
330
1E86
102
}
330
1E86
100
AcDbCellStyleMap
 90
        3
300
CELLSTYLE
  1
TABLEFORMAT_BEGIN
 90
        5
170
     1
 91
        0
 92
    32768
 62
   257
 93
        1
300
CONTENTFORMAT
  1
CONTENTFORMAT_BEGIN
 90
        0
 91
        0
 92
      512
 93
        0
300

 40
0.0
140
1.0
 94
        5
 62
     0
340
F
144
0.25
309
CONTENTFORMAT_END
171
     0
 94
        0
309
TABLEFORMAT_END
  1
CELLSTYLE_BEGIN
 90
        1
 91
        1
300
_TITLE
309
CELLSTYLE_END
300
CELLSTYLE
  1
TABLEFORMAT_BEGIN
 90
        5
170
     1
 91
        0
 92
        0
 62
   257
 93
        1
300
CONTENTFORMAT
  1
CONTENTFORMAT_BEGIN
 90
        0
 91
        0
 92
      512
 93
        0
300

 40
0.0
140
1.0
 94
        5
 62
     0
340
F
144
0.18
309
CONTENTFORMAT_END
171
     0
 94
        0
309
TABLEFORMAT_END
  1
CELLSTYLE_BEGIN
 90
        2
 91
        1
300
_HEADER
309
CELLSTYLE_END
300
CELLSTYLE
  1
TABLEFORMAT_BEGIN
 90
        5
170
     1
 91
        0
 92
        0
 62
   257
 93
        1
300
CONTENTFORMAT
  1
CONTENTFORMAT_BEGIN
 90
        0
 91
        0
 92
      512
 93
        0
300

 40
0.0
140
1.0
 94
        2
 62
     0
340
F
144
0.18
309
CONTENTFORMAT_END
171
     0
 94
        0
309
TABLEFORMAT_END
  1
CELLSTYLE_BEGIN
 90
        3
 91
        2
300
_DATA
309
CELLSTYLE_END
  0
XRECORD
  5
1E87
102
{ACAD_REACTORS
330
1E86
102
}
330
1E86
100
AcDbXrecord
280
     1
102
ACAD_ROUNDTRIP_PRE2007_TABLESTYLE
 90
      512
 91
        0
  1

 92
      512
 93
        0
  2

 94
      512
 95
        0
  3

  0
XRECORD
  5
1E8B
102
{ACAD_REACTORS
330
1E8A
102
}
330
1E8A
100
AcDbXrecord
280
     1
102
RTVSPropertyOp0
 70
     1
102
RTVSPropertyOp1
 70
     1
102
RTVSPropertyOp2
 70
     1
102
RTVSPropertyOp3
 70
     1
102
RTVSPropertyOp4
 70
     1
102
RTVSPropertyOp5
 70
     1
102
RTVSPropertyOp6
 70
     1
102
RTVSPropertyOp7
 70
     1
102
RTVSPropertyOp8
 70
     1
102
RTVSPropertyOp9
 70
     1
102
RTVSPropertyOp10
 70
     1
102
RTVSPropertyOp11
 70
     1
102
RTVSPropertyOp12
 70
     1
102
RTVSPropertyOp13
 70
     1
102
RTVSPropertyOp14
 70
     1
102
RTVSPropertyOp15
 70
     1
102
RTVSPropertyOp16
 70
     1
102
RTVSPropertyOp17
 70
     1
102
RTVSPropertyOp18
 70
     1
102
RTVSPropertyOp19
 70
     1
102
RTVSPropertyOp20
 70
     1
102
RTVSPropertyOp21
 70
     1
102
RTVSPropertyOp22
 70
     1
102
RTVSPropertyOp23
 70
     1
102
RTVSPropertyOp24
 70
     1
102
RTVSPropertyOp25
 70
     1
102
RTVSPropertyOp26
 70
     1
102
RTVSPropertyOp27
 70
     1
  0
XRECORD
  5
1E8D
102
{ACAD_REACTORS
330
1E8C
102
}
330
1E8C
100
AcDbXrecord
280
     1
102
RTVSPropertyOp0
 70
     1
102
RTVSPropertyOp1
 70
     1
102
RTVSPropertyOp2
 70
     1
102
RTVSPropertyOp3
 70
     1
102
RTVSPropertyOp4
 70
     1
102
RTVSPropertyOp5
 70
     1
102
RTVSPropertyOp6
 70
     1
102
RTVSPropertyOp7
 70
     1
102
RTVSPropertyOp8
 70
     1
102
RTVSPropertyOp9
 70
     1
102
RTVSPropertyOp10
 70
     1
102
RTVSPropertyOp11
 70
     1
102
RTVSPropertyOp12
 70
     1
102
RTVSPropertyOp13
 70
     1
102
RTVSPropertyOp14
 70
     1
102
RTVSPropertyOp15
 70
     1
102
RTVSPropertyOp16
 70
     1
102
RTVSPropertyOp17
 70
     1
102
RTVSPropertyOp18
 70
     1
102
RTVSPropertyOp19
 70
     1
102
RTVSPropertyOp20
 70
     1
102
RTVSPropertyOp21
 70
     1
102
RTVSPropertyOp22
 70
     1
102
RTVSPropertyOp23
 70
     1
102
RTVSPropertyOp24
 70
     1
102
RTVSPropertyOp25
 70
     1
102
RTVSPropertyOp26
 70
     1
102
RTVSPropertyOp27
 70
     1
  0
XRECORD
  5
1E8F
102
{ACAD_REACTORS
330
1E8E
102
}
330
1E8E
100
AcDbXrecord
280
     1
102
RTVSPropertyOp0
 70
     1
102
RTVSPropertyOp1
 70
     1
102
RTVSPropertyOp2
 70
     1
102
RTVSPropertyOp3
 70
     1
102
RTVSPropertyOp4
 70
     1
102
RTVSPropertyOp5
 70
     1
102
RTVSPropertyOp6
 70
     1
102
RTVSPropertyOp7
 70
     1
102
RTVSPropertyOp8
 70
     1
102
RTVSPropertyOp9
 70
     1
102
RTVSPropertyOp10
 70
     1
102
RTVSPropertyOp11
 70
     1
102
RTVSPropertyOp12
 70
     1
102
RTVSPropertyOp13
 70
     1
102
RTVSPropertyOp14
 70
     1
102
RTVSPropertyOp15
 70
     1
102
RTVSPropertyOp16
 70
     1
102
RTVSPropertyOp17
 70
     1
102
RTVSPropertyOp18
 70
     1
102
RTVSPropertyOp19
 70
     1
102
RTVSPropertyOp20
 70
     1
102
RTVSPropertyOp21
 70
     1
102
RTVSPropertyOp22
 70
     1
102
RTVSPropertyOp23
 70
     1
102
RTVSPropertyOp24
 70
     1
102
RTVSPropertyOp25
 70
     1
102
RTVSPropertyOp26
 70
     1
102
RTVSPropertyOp27
 70
     1
  0
XRECORD
  5
1E91
102
{ACAD_REACTORS
330
1E90
102
}
330
1E90
100
AcDbXrecord
280
     1
102
RTVSPropertyOp0
 70
     1
102
RTVSPropertyOp1
 70
     1
102
RTVSPropertyOp2
 70
     1
102
RTVSPropertyOp3
 70
     1
102
RTVSPropertyOp4
 70
     1
102
RTVSPropertyOp5
 70
     1
102
RTVSPropertyOp6
 70
     1
102
RTVSPropertyOp7
 70
     1
102
RTVSPropertyOp8
 70
     1
102
RTVSPropertyOp9
 70
     1
102
RTVSPropertyOp10
 70
     1
102
RTVSPropertyOp11
 70
     1
102
RTVSPropertyOp12
 70
     1
102
RTVSPropertyOp13
 70
     1
102
RTVSPropertyOp14
 70
     1
102
RTVSPropertyOp15
 70
     1
102
RTVSPropertyOp16
 70
     1
102
RTVSPropertyOp17
 70
     1
102
RTVSPropertyOp18
 70
     1
102
RTVSPropertyOp19
 70
     1
102
RTVSPropertyOp20
 70
     1
102
RTVSPropertyOp21
 70
     1
102
RTVSPropertyOp22
 70
     1
102
RTVSPropertyOp23
 70
     1
102
RTVSPropertyOp24
 70
     1
102
RTVSPropertyOp25
 70
     1
102
RTVSPropertyOp26
 70
     1
102
RTVSPropertyOp27
 70
     1
  0
XRECORD
  5
1E93
102
{ACAD_REACTORS
330
1E92
102
}
330
1E92
100
AcDbXrecord
280
     1
102
RTVSPropertyOp0
 70
     1
102
RTVSPropertyOp1
 70
     1
102
RTVSPropertyOp2
 70
     1
102
RTVSPropertyOp3
 70
     1
102
RTVSPropertyOp4
 70
     1
102
RTVSPropertyOp5
 70
     1
102
RTVSPropertyOp6
 70
     1
102
RTVSPropertyOp7
 70
     1
102
RTVSPropertyOp8
 70
     1
102
RTVSPropertyOp9
 70
     1
102
RTVSPropertyOp10
 70
     1
102
RTVSPropertyOp11
 70
     1
102
RTVSPropertyOp12
 70
     1
102
RTVSPropertyOp13
 70
     1
102
RTVSPropertyOp14
 70
     1
102
RTVSPropertyOp15
 70
     1
102
RTVSPropertyOp16
 70
     1
102
RTVSPropertyOp17
 70
     1
102
RTVSPropertyOp18
 70
     1
102
RTVSPropertyOp19
 70
     1
102
RTVSPropertyOp20
 70
     1
102
RTVSPropertyOp21
 70
     1
102
RTVSPropertyOp22
 70
     1
102
RTVSPropertyOp23
 70
     1
102
RTVSPropertyOp24
 70
     1
102
RTVSPropertyOp25
 70
     1
102
RTVSPropertyOp26
 70
     1
102
RTVSPropertyOp27
 70
     1
  0
XRECORD
  5
1E95
102
{ACAD_REACTORS
330
1E94
102
}
330
1E94
100
AcDbXrecord
280
     1
102
RTVSPropertyOp0
 70
     1
102
RTVSPropertyOp1
 70
     1
102
RTVSPropertyOp2
 70
     1
102
RTVSPropertyOp3
 70
     1
102
RTVSPropertyOp4
 70
     1
102
RTVSPropertyOp5
 70
     1
102
RTVSPropertyOp6
 70
     1
102
RTVSPropertyOp7
 70
     1
102
RTVSPropertyOp8
 70
     1
102
RTVSPropertyOp9
 70
     1
102
RTVSPropertyOp10
 70
     1
102
RTVSPropertyOp11
 70
     1
102
RTVSPropertyOp12
 70
     1
102
RTVSPropertyOp13
 70
     1
102
RTVSPropertyOp14
 70
     1
102
RTVSPropertyOp15
 70
     1
102
RTVSPropertyOp16
 70
     1
102
RTVSPropertyOp17
 70
     1
102
RTVSPropertyOp18
 70
     1
102
RTVSPropertyOp19
 70
     1
102
RTVSPropertyOp20
 70
     1
102
RTVSPropertyOp21
 70
     1
102
RTVSPropertyOp22
 70
     1
102
RTVSPropertyOp23
 70
     1
102
RTVSPropertyOp24
 70
     1
102
RTVSPropertyOp25
 70
     1
102
RTVSPropertyOp26
 70
     1
102
RTVSPropertyOp27
 70
     1
  0
XRECORD
  5
1E97
102
{ACAD_REACTORS
330
1E96
102
}
330
1E96
100
AcDbXrecord
280
     1
102
RTVSPropertyOp0
 70
     1
102
RTVSPropertyOp1
 70
     1
102
RTVSPropertyOp2
 70
     1
102
RTVSPropertyOp3
 70
     1
102
RTVSPropertyOp4
 70
     1
102
RTVSPropertyOp5
 70
     1
102
RTVSPropertyOp6
 70
     1
102
RTVSPropertyOp7
 70
     1
102
RTVSPropertyOp8
 70
     1
102
RTVSPropertyOp9
 70
     1
102
RTVSPropertyOp10
 70
     1
102
RTVSPropertyOp11
 70
     1
102
RTVSPropertyOp12
 70
     1
102
RTVSPropertyOp13
 70
     1
102
RTVSPropertyOp14
 70
     1
102
RTVSPropertyOp15
 70
     1
102
RTVSPropertyOp16
 70
     1
102
RTVSPropertyOp17
 70
     1
102
RTVSPropertyOp18
 70
     1
102
RTVSPropertyOp19
 70
     1
102
RTVSPropertyOp20
 70
     1
102
RTVSPropertyOp21
 70
     1
102
RTVSPropertyOp22
 70
     1
102
RTVSPropertyOp23
 70
     1
102
RTVSPropertyOp24
 70
     1
102
RTVSPropertyOp25
 70
     1
102
RTVSPropertyOp26
 70
     1
102
RTVSPropertyOp27
 70
     1
  0
XRECORD
  5
1E99
102
{ACAD_REACTORS
330
1E98
102
}
330
1E98
100
AcDbXrecord
280
     1
102
RTVSPropertyOp0
 70
     1
102
RTVSPropertyOp1
 70
     1
102
RTVSPropertyOp2
 70
     1
102
RTVSPropertyOp3
 70
     1
102
RTVSPropertyOp4
 70
     1
102
RTVSPropertyOp5
 70
     1
102
RTVSPropertyOp6
 70
     1
102
RTVSPropertyOp7
 70
     1
102
RTVSPropertyOp8
 70
     1
102
RTVSPropertyOp9
 70
     1
102
RTVSPropertyOp10
 70
     1
102
RTVSPropertyOp11
 70
     1
102
RTVSPropertyOp12
 70
     1
102
RTVSPropertyOp13
 70
     1
102
RTVSPropertyOp14
 70
     1
102
RTVSPropertyOp15
 70
     1
102
RTVSPropertyOp16
 70
     1
102
RTVSPropertyOp17
 70
     1
102
RTVSPropertyOp18
 70
     1
102
RTVSPropertyOp19
 70
     1
102
RTVSPropertyOp20
 70
     1
102
RTVSPropertyOp21
 70
     1
102
RTVSPropertyOp22
 70
     1
102
RTVSPropertyOp23
 70
     1
102
RTVSPropertyOp24
 70
     1
102
RTVSPropertyOp25
 70
     1
102
RTVSPropertyOp26
 70
     1
102
RTVSPropertyOp27
 70
     1
  0
XRECORD
  5
1E9B
102
{ACAD_REACTORS
330
1E9A
102
}
330
1E9A
100
AcDbXrecord
280
     1
102
RTVSPropertyOp0
 70
     1
102
RTVSPropertyOp1
 70
     1
102
RTVSPropertyOp2
 70
     1
102
RTVSPropertyOp3
 70
     1
102
RTVSPropertyOp4
 70
     1
102
RTVSPropertyOp5
 70
     1
102
RTVSPropertyOp6
 70
     1
102
RTVSPropertyOp7
 70
     1
102
RTVSPropertyOp8
 70
     1
102
RTVSPropertyOp9
 70
     1
102
RTVSPropertyOp10
 70
     1
102
RTVSPropertyOp11
 70
     1
102
RTVSPropertyOp12
 70
     1
102
RTVSPropertyOp13
 70
     1
102
RTVSPropertyOp14
 70
     1
102
RTVSPropertyOp15
 70
     1
102
RTVSPropertyOp16
 70
     1
102
RTVSPropertyOp17
 70
     1
102
RTVSPropertyOp18
 70
     1
102
RTVSPropertyOp19
 70
     1
102
RTVSPropertyOp20
 70
     1
102
RTVSPropertyOp21
 70
     1
102
RTVSPropertyOp22
 70
     1
102
RTVSPropertyOp23
 70
     1
102
RTVSPropertyOp24
 70
     1
102
RTVSPropertyOp25
 70
     1
102
RTVSPropertyOp26
 70
     1
102
RTVSPropertyOp27
 70
     1
  0
XRECORD
  5
1E9D
102
{ACAD_REACTORS
330
1E9C
102
}
330
1E9C
100
AcDbXrecord
280
     1
102
RTVSPropertyOp0
 70
     1
102
RTVSPropertyOp1
 70
     1
102
RTVSPropertyOp2
 70
     1
102
RTVSPropertyOp3
 70
     1
102
RTVSPropertyOp4
 70
     1
102
RTVSPropertyOp5
 70
     1
102
RTVSPropertyOp6
 70
     1
102
RTVSPropertyOp7
 70
     1
102
RTVSPropertyOp8
 70
     1
102
RTVSPropertyOp9
 70
     1
102
RTVSPropertyOp10
 70
     1
102
RTVSPropertyOp11
 70
     1
102
RTVSPropertyOp12
 70
     1
102
RTVSPropertyOp13
 70
     1
102
RTVSPropertyOp14
 70
     1
102
RTVSPropertyOp15
 70
     1
102
RTVSPropertyOp16
 70
     1
102
RTVSPropertyOp17
 70
     1
102
RTVSPropertyOp18
 70
     1
102
RTVSPropertyOp19
 70
     1
102
RTVSPropertyOp20
 70
     1
102
RTVSPropertyOp21
 70
     1
102
RTVSPropertyOp22
 70
     1
102
RTVSPropertyOp23
 70
     1
102
RTVSPropertyOp24
 70
     1
102
RTVSPropertyOp25
 70
     1
102
RTVSPropertyOp26
 70
     1
102
RTVSPropertyOp27
 70
     1
  0
XRECORD
  5
1E9F
102
{ACAD_REACTORS
330
1E9E
102
}
330
1E9E
100
AcDbXrecord
280
     1
102
RTVSPropertyOp0
 70
     1
102
RTVSPropertyOp1
 70
     1
102
RTVSPropertyOp2
 70
     1
102
RTVSPropertyOp3
 70
     1
102
RTVSPropertyOp4
 70
     1
102
RTVSPropertyOp5
 70
     1
102
RTVSPropertyOp6
 70
     1
102
RTVSPropertyOp7
 70
     1
102
RTVSPropertyOp8
 70
     1
102
RTVSPropertyOp9
 70
     1
102
RTVSPropertyOp10
 70
     1
102
RTVSPropertyOp11
 70
     1
102
RTVSPropertyOp12
 70
     1
102
RTVSPropertyOp13
 70
     1
102
RTVSPropertyOp14
 70
     1
102
RTVSPropertyOp15
 70
     1
102
RTVSPropertyOp16
 70
     1
102
RTVSPropertyOp17
 70
     1
102
RTVSPropertyOp18
 70
     1
102
RTVSPropertyOp19
 70
     1
102
RTVSPropertyOp20
 70
     1
102
RTVSPropertyOp21
 70
     1
102
RTVSPropertyOp22
 70
     1
102
RTVSPropertyOp23
 70
     1
102
RTVSPropertyOp24
 70
     1
102
RTVSPropertyOp25
 70
     1
102
RTVSPropertyOp26
 70
     1
102
RTVSPropertyOp27
 70
     1
  0
XRECORD
  5
1EA1
102
{ACAD_REACTORS
330
1EA0
102
}
330
1EA0
100
AcDbXrecord
280
     1
102
RTVSPropertyOp0
 70
     1
102
RTVSPropertyOp1
 70
     1
102
RTVSPropertyOp2
 70
     1
102
RTVSPropertyOp3
 70
     1
102
RTVSPropertyOp4
 70
     1
102
RTVSPropertyOp5
 70
     1
102
RTVSPropertyOp6
 70
     1
102
RTVSPropertyOp7
 70
     1
102
RTVSPropertyOp8
 70
     1
102
RTVSPropertyOp9
 70
     1
102
RTVSPropertyOp10
 70
     1
102
RTVSPropertyOp11
 70
     1
102
RTVSPropertyOp12
 70
     1
102
RTVSPropertyOp13
 70
     1
102
RTVSPropertyOp14
 70
     1
102
RTVSPropertyOp15
 70
     1
102
RTVSPropertyOp16
 70
     1
102
RTVSPropertyOp17
 70
     1
102
RTVSPropertyOp18
 70
     1
102
RTVSPropertyOp19
 70
     1
102
RTVSPropertyOp20
 70
     1
102
RTVSPropertyOp21
 70
     1
102
RTVSPropertyOp22
 70
     1
102
RTVSPropertyOp23
 70
     1
102
RTVSPropertyOp24
 70
     1
102
RTVSPropertyOp25
 70
     1
102
RTVSPropertyOp26
 70
     1
102
RTVSPropertyOp27
 70
     1
  0
XRECORD
  5
1EA3
102
{ACAD_REACTORS
330
1EA2
102
}
330
1EA2
100
AcDbXrecord
280
     1
102
RTVSPropertyOp0
 70
     1
102
RTVSPropertyOp1
 70
     1
102
RTVSPropertyOp2
 70
     1
102
RTVSPropertyOp3
 70
     1
102
RTVSPropertyOp4
 70
     1
102
RTVSPropertyOp5
 70
     1
102
RTVSPropertyOp6
 70
     1
102
RTVSPropertyOp7
 70
     1
102
RTVSPropertyOp8
 70
     1
102
RTVSPropertyOp9
 70
     1
102
RTVSPropertyOp10
 70
     1
102
RTVSPropertyOp11
 70
     1
102
RTVSPropertyOp12
 70
     1
102
RTVSPropertyOp13
 70
     1
102
RTVSPropertyOp14
 70
     1
102
RTVSPropertyOp15
 70
     1
102
RTVSPropertyOp16
 70
     1
102
RTVSPropertyOp17
 70
     1
102
RTVSPropertyOp18
 70
     1
102
RTVSPropertyOp19
 70
     1
102
RTVSPropertyOp20
 70
     1
102
RTVSPropertyOp21
 70
     1
102
RTVSPropertyOp22
 70
     1
102
RTVSPropertyOp23
 70
     1
102
RTVSPropertyOp24
 70
     1
102
RTVSPropertyOp25
 70
     1
102
RTVSPropertyOp26
 70
     1
102
RTVSPropertyOp27
 70
     1
  0
XRECORD
  5
1EA5
102
{ACAD_REACTORS
330
1EA4
102
}
330
1EA4
100
AcDbXrecord
280
     1
102
RTVSPropertyOp0
 70
     1
102
RTVSPropertyOp1
 70
     1
102
RTVSPropertyOp2
 70
     1
102
RTVSPropertyOp3
 70
     1
102
RTVSPropertyOp4
 70
     1
102
RTVSPropertyOp5
 70
     1
102
RTVSPropertyOp6
 70
     1
102
RTVSPropertyOp7
 70
     1
102
RTVSPropertyOp8
 70
     1
102
RTVSPropertyOp9
 70
     1
102
RTVSPropertyOp10
 70
     1
102
RTVSPropertyOp11
 70
     1
102
RTVSPropertyOp12
 70
     1
102
RTVSPropertyOp13
 70
     1
102
RTVSPropertyOp14
 70
     1
102
RTVSPropertyOp15
 70
     1
102
RTVSPropertyOp16
 70
     1
102
RTVSPropertyOp17
 70
     1
102
RTVSPropertyOp18
 70
     1
102
RTVSPropertyOp19
 70
     1
102
RTVSPropertyOp20
 70
     1
102
RTVSPropertyOp21
 70
     1
102
RTVSPropertyOp22
 70
     1
102
RTVSPropertyOp23
 70
     1
102
RTVSPropertyOp24
 70
     1
102
RTVSPropertyOp25
 70
     1
102
RTVSPropertyOp26
 70
     1
102
RTVSPropertyOp27
 70
     1
  0
XRECORD
  5
1EA7
102
{ACAD_REACTORS
330
1EA6
102
}
330
1EA6
100
AcDbXrecord
280
     1
102
RTVSPropertyOp0
 70
     1
102
RTVSPropertyOp1
 70
     1
102
RTVSPropertyOp2
 70
     1
102
RTVSPropertyOp3
 70
     1
102
RTVSPropertyOp4
 70
     1
102
RTVSPropertyOp5
 70
     1
102
RTVSPropertyOp6
 70
     1
102
RTVSPropertyOp7
 70
     1
102
RTVSPropertyOp8
 70
     1
102
RTVSPropertyOp9
 70
     1
102
RTVSPropertyOp10
 70
     1
102
RTVSPropertyOp11
 70
     1
102
RTVSPropertyOp12
 70
     1
102
RTVSPropertyOp13
 70
     1
102
RTVSPropertyOp14
 70
     1
102
RTVSPropertyOp15
 70
     1
102
RTVSPropertyOp16
 70
     1
102
RTVSPropertyOp17
 70
     1
102
RTVSPropertyOp18
 70
     1
102
RTVSPropertyOp19
 70
     1
102
RTVSPropertyOp20
 70
     1
102
RTVSPropertyOp21
 70
     1
102
RTVSPropertyOp22
 70
     1
102
RTVSPropertyOp23
 70
     1
102
RTVSPropertyOp24
 70
     1
102
RTVSPropertyOp25
 70
     1
102
RTVSPropertyOp26
 70
     1
102
RTVSPropertyOp27
 70
     1
  0
XRECORD
  5
1EA9
102
{ACAD_REACTORS
330
1EA8
102
}
330
1EA8
100
AcDbXrecord
280
     1
102
RTVSPropertyOp0
 70
     1
102
RTVSPropertyOp1
 70
     1
102
RTVSPropertyOp2
 70
     1
102
RTVSPropertyOp3
 70
     1
102
RTVSPropertyOp4
 70
     1
102
RTVSPropertyOp5
 70
     1
102
RTVSPropertyOp6
 70
     1
102
RTVSPropertyOp7
 70
     1
102
RTVSPropertyOp8
 70
     1
102
RTVSPropertyOp9
 70
     1
102
RTVSPropertyOp10
 70
     1
102
RTVSPropertyOp11
 70
     1
102
RTVSPropertyOp12
 70
     1
102
RTVSPropertyOp13
 70
     1
102
RTVSPropertyOp14
 70
     1
102
RTVSPropertyOp15
 70
     1
102
RTVSPropertyOp16
 70
     1
102
RTVSPropertyOp17
 70
     1
102
RTVSPropertyOp18
 70
     1
102
RTVSPropertyOp19
 70
     1
102
RTVSPropertyOp20
 70
     1
102
RTVSPropertyOp21
 70
     1
102
RTVSPropertyOp22
 70
     1
102
RTVSPropertyOp23
 70
     1
102
RTVSPropertyOp24
 70
     1
102
RTVSPropertyOp25
 70
     1
102
RTVSPropertyOp26
 70
     1
102
RTVSPropertyOp27
 70
     1
  0
XRECORD
  5
1EAB
102
{ACAD_REACTORS
330
1EAA
102
}
330
1EAA
100
AcDbXrecord
280
     1
102
RTVSPropertyOp0
 70
     1
102
RTVSPropertyOp1
 70
     1
102
RTVSPropertyOp2
 70
     1
102
RTVSPropertyOp3
 70
     1
102
RTVSPropertyOp4
 70
     1
102
RTVSPropertyOp5
 70
     1
102
RTVSPropertyOp6
 70
     1
102
RTVSPropertyOp7
 70
     1
102
RTVSPropertyOp8
 70
     1
102
RTVSPropertyOp9
 70
     1
102
RTVSPropertyOp10
 70
     1
102
RTVSPropertyOp11
 70
     1
102
RTVSPropertyOp12
 70
     1
102
RTVSPropertyOp13
 70
     1
102
RTVSPropertyOp14
 70
     1
102
RTVSPropertyOp15
 70
     1
102
RTVSPropertyOp16
 70
     1
102
RTVSPropertyOp17
 70
     1
102
RTVSPropertyOp18
 70
     1
102
RTVSPropertyOp19
 70
     1
102
RTVSPropertyOp20
 70
     1
102
RTVSPropertyOp21
 70
     1
102
RTVSPropertyOp22
 70
     1
102
RTVSPropertyOp23
 70
     1
102
RTVSPropertyOp24
 70
     1
102
RTVSPropertyOp25
 70
     1
102
RTVSPropertyOp26
 70
     1
102
RTVSPropertyOp27
 70
     1
  0
XRECORD
  5
1EAD
102
{ACAD_REACTORS
330
1EAC
102
}
330
1EAC
100
AcDbXrecord
280
     1
102
RTVSPropertyOp0
 70
     1
102
RTVSPropertyOp1
 70
     1
102
RTVSPropertyOp2
 70
     1
102
RTVSPropertyOp3
 70
     1
102
RTVSPropertyOp4
 70
     1
102
RTVSPropertyOp5
 70
     1
102
RTVSPropertyOp6
 70
     1
102
RTVSPropertyOp7
 70
     1
102
RTVSPropertyOp8
 70
     1
102
RTVSPropertyOp9
 70
     1
102
RTVSPropertyOp10
 70
     1
102
RTVSPropertyOp11
 70
     1
102
RTVSPropertyOp12
 70
     1
102
RTVSPropertyOp13
 70
     1
102
RTVSPropertyOp14
 70
     1
102
RTVSPropertyOp15
 70
     1
102
RTVSPropertyOp16
 70
     1
102
RTVSPropertyOp17
 70
     1
102
RTVSPropertyOp18
 70
     1
102
RTVSPropertyOp19
 70
     1
102
RTVSPropertyOp20
 70
     1
102
RTVSPropertyOp21
 70
     1
102
RTVSPropertyOp22
 70
     1
102
RTVSPropertyOp23
 70
     1
102
RTVSPropertyOp24
 70
     1
102
RTVSPropertyOp25
 70
     1
102
RTVSPropertyOp26
 70
     1
102
RTVSPropertyOp27
 70
     1
  0
XRECORD
  5
1EAF
102
{ACAD_REACTORS
330
1EAE
102
}
330
1EAE
100
AcDbXrecord
280
     1
102
RTVSPropertyOp0
 70
     1
102
RTVSPropertyOp1
 70
     1
102
RTVSPropertyOp2
 70
     1
102
RTVSPropertyOp3
 70
     1
102
RTVSPropertyOp4
 70
     1
102
RTVSPropertyOp5
 70
     1
102
RTVSPropertyOp6
 70
     1
102
RTVSPropertyOp7
 70
     1
102
RTVSPropertyOp8
 70
     1
102
RTVSPropertyOp9
 70
     1
102
RTVSPropertyOp10
 70
     1
102
RTVSPropertyOp11
 70
     1
102
RTVSPropertyOp12
 70
     1
102
RTVSPropertyOp13
 70
     1
102
RTVSPropertyOp14
 70
     1
102
RTVSPropertyOp15
 70
     1
102
RTVSPropertyOp16
 70
     1
102
RTVSPropertyOp17
 70
     1
102
RTVSPropertyOp18
 70
     1
102
RTVSPropertyOp19
 70
     1
102
RTVSPropertyOp20
 70
     1
102
RTVSPropertyOp21
 70
     1
102
RTVSPropertyOp22
 70
     1
102
RTVSPropertyOp23
 70
     1
102
RTVSPropertyOp24
 70
     1
102
RTVSPropertyOp25
 70
     1
102
RTVSPropertyOp26
 70
     1
102
RTVSPropertyOp27
 70
     1
  0
XRECORD
  5
1EB1
102
{ACAD_REACTORS
330
1EB0
102
}
330
1EB0
100
AcDbXrecord
280
     1
102
RTVSPropertyOp0
 70
     1
102
RTVSPropertyOp1
 70
     1
102
RTVSPropertyOp2
 70
     1
102
RTVSPropertyOp3
 70
     1
102
RTVSPropertyOp4
 70
     1
102
RTVSPropertyOp5
 70
     1
102
RTVSPropertyOp6
 70
     1
102
RTVSPropertyOp7
 70
     1
102
RTVSPropertyOp8
 70
     1
102
RTVSPropertyOp9
 70
     1
102
RTVSPropertyOp10
 70
     1
102
RTVSPropertyOp11
 70
     1
102
RTVSPropertyOp12
 70
     1
102
RTVSPropertyOp13
 70
     1
102
RTVSPropertyOp14
 70
     1
102
RTVSPropertyOp15
 70
     1
102
RTVSPropertyOp16
 70
     1
102
RTVSPropertyOp17
 70
     1
102
RTVSPropertyOp18
 70
     1
102
RTVSPropertyOp19
 70
     1
102
RTVSPropertyOp20
 70
     1
102
RTVSPropertyOp21
 70
     1
102
RTVSPropertyOp22
 70
     1
102
RTVSPropertyOp23
 70
     1
102
RTVSPropertyOp24
 70
     1
102
RTVSPropertyOp25
 70
     1
102
RTVSPropertyOp26
 70
     1
102
RTVSPropertyOp27
 70
     1
  0
XRECORD
  5
1EB3
102
{ACAD_REACTORS
330
1EB2
102
}
330
1EB2
100
AcDbXrecord
280
     1
102
RTVSPropertyOp0
 70
     1
102
RTVSPropertyOp1
 70
     1
102
RTVSPropertyOp2
 70
     1
102
RTVSPropertyOp3
 70
     1
102
RTVSPropertyOp4
 70
     1
102
RTVSPropertyOp5
 70
     1
102
RTVSPropertyOp6
 70
     1
102
RTVSPropertyOp7
 70
     1
102
RTVSPropertyOp8
 70
     1
102
RTVSPropertyOp9
 70
     1
102
RTVSPropertyOp10
 70
     1
102
RTVSPropertyOp11
 70
     1
102
RTVSPropertyOp12
 70
     1
102
RTVSPropertyOp13
 70
     1
102
RTVSPropertyOp14
 70
     1
102
RTVSPropertyOp15
 70
     1
102
RTVSPropertyOp16
 70
     1
102
RTVSPropertyOp17
 70
     1
102
RTVSPropertyOp18
 70
     1
102
RTVSPropertyOp19
 70
     1
102
RTVSPropertyOp20
 70
     1
102
RTVSPropertyOp21
 70
     1
102
RTVSPropertyOp22
 70
     1
102
RTVSPropertyOp23
 70
     1
102
RTVSPropertyOp24
 70
     1
102
RTVSPropertyOp25
 70
     1
102
RTVSPropertyOp26
 70
     1
102
RTVSPropertyOp27
 70
     1
  0
XRECORD
  5
1EB5
102
{ACAD_REACTORS
330
1EB4
102
}
330
1EB4
100
AcDbXrecord
280
     1
102
RTVSPropertyOp0
 70
     1
102
RTVSPropertyOp1
 70
     1
102
RTVSPropertyOp2
 70
     1
102
RTVSPropertyOp3
 70
     1
102
RTVSPropertyOp4
 70
     1
102
RTVSPropertyOp5
 70
     1
102
RTVSPropertyOp6
 70
     1
102
RTVSPropertyOp7
 70
     1
102
RTVSPropertyOp8
 70
     1
102
RTVSPropertyOp9
 70
     1
102
RTVSPropertyOp10
 70
     1
102
RTVSPropertyOp11
 70
     1
102
RTVSPropertyOp12
 70
     1
102
RTVSPropertyOp13
 70
     1
102
RTVSPropertyOp14
 70
     1
102
RTVSPropertyOp15
 70
     1
102
RTVSPropertyOp16
 70
     1
102
RTVSPropertyOp17
 70
     1
102
RTVSPropertyOp18
 70
     1
102
RTVSPropertyOp19
 70
     1
102
RTVSPropertyOp20
 70
     1
102
RTVSPropertyOp21
 70
     1
102
RTVSPropertyOp22
 70
     1
102
RTVSPropertyOp23
 70
     1
102
RTVSPropertyOp24
 70
     1
102
RTVSPropertyOp25
 70
     1
102
RTVSPropertyOp26
 70
     1
102
RTVSPropertyOp27
 70
     1
  0
XRECORD
  5
1EB7
102
{ACAD_REACTORS
330
1EB6
102
}
330
1EB6
100
AcDbXrecord
280
     1
102
RTVSPropertyOp0
 70
     1
102
RTVSPropertyOp1
 70
     1
102
RTVSPropertyOp2
 70
     1
102
RTVSPropertyOp3
 70
     1
102
RTVSPropertyOp4
 70
     1
102
RTVSPropertyOp5
 70
     1
102
RTVSPropertyOp6
 70
     1
102
RTVSPropertyOp7
 70
     1
102
RTVSPropertyOp8
 70
     1
102
RTVSPropertyOp9
 70
     1
102
RTVSPropertyOp10
 70
     1
102
RTVSPropertyOp11
 70
     1
102
RTVSPropertyOp12
 70
     1
102
RTVSPropertyOp13
 70
     1
102
RTVSPropertyOp14
 70
     1
102
RTVSPropertyOp15
 70
     1
102
RTVSPropertyOp16
 70
     1
102
RTVSPropertyOp17
 70
     1
102
RTVSPropertyOp18
 70
     1
102
RTVSPropertyOp19
 70
     1
102
RTVSPropertyOp20
 70
     1
102
RTVSPropertyOp21
 70
     1
102
RTVSPropertyOp22
 70
     1
102
RTVSPropertyOp23
 70
     1
102
RTVSPropertyOp24
 70
     1
102
RTVSPropertyOp25
 70
     1
102
RTVSPropertyOp26
 70
     1
102
RTVSPropertyOp27
 70
     1
  0
XRECORD
  5
1EB9
102
{ACAD_REACTORS
330
1EB8
102
}
330
1EB8
100
AcDbXrecord
280
     1
102
RTVSPropertyOp0
 70
     1
102
RTVSPropertyOp1
 70
     1
102
RTVSPropertyOp2
 70
     1
102
RTVSPropertyOp3
 70
     1
102
RTVSPropertyOp4
 70
     1
102
RTVSPropertyOp5
 70
     1
102
RTVSPropertyOp6
 70
     1
102
RTVSPropertyOp7
 70
     1
102
RTVSPropertyOp8
 70
     1
102
RTVSPropertyOp9
 70
     1
102
RTVSPropertyOp10
 70
     1
102
RTVSPropertyOp11
 70
     1
102
RTVSPropertyOp12
 70
     1
102
RTVSPropertyOp13
 70
     1
102
RTVSPropertyOp14
 70
     1
102
RTVSPropertyOp15
 70
     1
102
RTVSPropertyOp16
 70
     1
102
RTVSPropertyOp17
 70
     1
102
RTVSPropertyOp18
 70
     1
102
RTVSPropertyOp19
 70
     1
102
RTVSPropertyOp20
 70
     1
102
RTVSPropertyOp21
 70
     1
102
RTVSPropertyOp22
 70
     1
102
RTVSPropertyOp23
 70
     1
102
RTVSPropertyOp24
 70
     1
102
RTVSPropertyOp25
 70
     1
102
RTVSPropertyOp26
 70
     1
102
RTVSPropertyOp27
 70
     1
  0
ENDSEC
  0
EOF
