  0
SECTION
  2
HEADER
  9
$ACADVER
  1
AC1018
  9
$ACADMAINTVER
 70
     0
  9
$DWGCODEPAGE
  3
ANSI_932
  9
$LASTSAVEDBY
  1
shinwa
  9
$INSBASE
 10
0.0
 20
0.0
 30
0.0
  9
$EXTMIN
 10
469.3601915370673
 20
-0.0000000000000142
 30
0.0
  9
$EXTMAX
 10
8129.360191537067
 20
5540.0
 30
0.0
  9
$LIMMIN
 10
0.0
 20
0.0
  9
$LIMMAX
 10
8400.0
 20
5940.0
  9
$ORTHOMODE
 70
     1
  9
$REGENMODE
 70
     1
  9
$FILLMODE
 70
     1
  9
$QTEXTMODE
 70
     0
  9
$MIRRTEXT
 70
     1
  9
$LTSCALE
 40
200.0
  9
$ATTMODE
 70
     1
  9
$TEXTSIZE
 40
60.0
  9
$TRACEWID
 40
0.05
  9
$TEXTSTYLE
  7
STANDARD
  9
$CLAYER
  8
SUNPOU
  9
$CELTYPE
  6
BYLAYER
  9
$CECOLOR
 62
   256
  9
$CELTSCALE
 40
1.0
  9
$DISPSILH
 70
     0
  9
$DIMSCALE
 40
20.0
  9
$DIMASZ
 40
2.0
  9
$DIMEXO
 40
2.0
  9
$DIMDLI
 40
7.0
  9
$DIMRND
 40
0.0
  9
$DIMDLE
 40
0.0
  9
$DIMEXE
 40
0.5
  9
$DIMTP
 40
0.0
  9
$DIMTM
 40
0.0
  9
$DIMTXT
 40
2.5
  9
$DIMCEN
 40
0.0
  9
$DIMTSZ
 40
0.0
  9
$DIMTOL
 70
     0
  9
$DIMLIM
 70
     0
  9
$DIMTIH
 70
     0
  9
$DIMTOH
 70
     0
  9
$DIMSE1
 70
     0
  9
$DIMSE2
 70
     0
  9
$DIMTAD
 70
     1
  9
$DIMZIN
 70
     8
  9
$DIMBLK
  1

  9
$DIMASO
 70
     1
  9
$DIMSHO
 70
     1
  9
$DIMPOST
  1

  9
$DIMAPOST
  1

  9
$DIMALT
 70
     0
  9
$DIMALTD
 70
     2
  9
$DIMALTF
 40
25.4
  9
$DIMLFAC
 40
1.0
  9
$DIMTOFL
 70
     0
  9
$DIMTVP
 40
1.0
  9
$DIMTIX
 70
     1
  9
$DIMSOXD
 70
     0
  9
$DIMSAH
 70
     0
  9
$DIMBLK1
  1

  9
$DIMBLK2
  1

  9
$DIMSTYLE
  2
A3-20
  9
$DIMCLRD
 70
     0
  9
$DIMCLRE
 70
     0
  9
$DIMCLRT
 70
     0
  9
$DIMTFAC
 40
1.0
  9
$DIMGAP
 40
0.7
  9
$DIMJUST
 70
     0
  9
$DIMSD1
 70
     0
  9
$DIMSD2
 70
     0
  9
$DIMTOLJ
 70
     1
  9
$DIMTZIN
 70
     8
  9
$DIMALTZ
 70
     8
  9
$DIMALTTZ
 70
     8
  9
$DIMUPT
 70
     0
  9
$DIMDEC
 70
     0
  9
$DIMTDEC
 70
     0
  9
$DIMALTU
 70
     2
  9
$DIMALTTD
 70
     2
  9
$DIMTXSTY
  7
STANDARD
  9
$DIMAUNIT
 70
     0
  9
$DIMADEC
 70
     4
  9
$DIMALTRND
 40
0.0
  9
$DIMAZIN
 70
     0
  9
$DIMDSEP
 70
    46
  9
$DIMATFIT
 70
     3
  9
$DIMFRAC
 70
     0
  9
$DIMLDRBLK
  1

  9
$DIMLUNIT
 70
     2
  9
$DIMLWD
 70
    -2
  9
$DIMLWE
 70
    -2
  9
$DIMTMOVE
 70
     2
  9
$LUNITS
 70
     2
  9
$LUPREC
 70
     4
  9
$SKETCHINC
 40
0.1
  9
$FILLETRAD
 40
150.0
  9
$AUNITS
 70
     1
  9
$AUPREC
 70
     4
  9
$MENU
  1
acad
  9
$ELEVATION
 40
0.0
  9
$PELEVATION
 40
0.0
  9
$THICKNESS
 40
0.0
  9
$LIMCHECK
 70
     0
  9
$CHAMFERA
 40
0.0
  9
$CHAMFERB
 40
0.0
  9
$CHAMFERC
 40
0.0
  9
$CHAMFERD
 40
0.0
  9
$SKPOLY
 70
     0
  9
$TDCREATE
 40
2450014.656655093
  9
$TDUCREATE
 40
2450014.281655093
  9
$TDUPDATE
 40
2457540.468425428
  9
$TDUUPDATE
 40
2457540.093425428
  9
$TDINDWG
 40
0.7224705208
  9
$TDUSRTIMER
 40
0.7224705208
  9
$USRTIMER
 70
     1
  9
$ANGBASE
 50
0.0
  9
$ANGDIR
 70
     0
  9
$PDMODE
 70
     0
  9
$PDSIZE
 40
0.0
  9
$PLINEWID
 40
0.0
  9
$SPLFRAME
 70
     0
  9
$SPLINETYPE
 70
     6
  9
$SPLINESEGS
 70
     8
  9
$HANDSEED
  5
1868
  9
$SURFTAB1
 70
     6
  9
$SURFTAB2
 70
     6
  9
$SURFTYPE
 70
     6
  9
$SURFU
 70
     6
  9
$SURFV
 70
     6
  9
$UCSBASE
  2

  9
$UCSNAME
  2

  9
$UCSORG
 10
0.0
 20
0.0
 30
0.0
  9
$UCSXDIR
 10
1.0
 20
0.0
 30
0.0
  9
$UCSYDIR
 10
0.0
 20
1.0
 30
0.0
  9
$UCSORTHOREF
  2

  9
$UCSORTHOVIEW
 70
     0
  9
$UCSORGTOP
 10
0.0
 20
0.0
 30
0.0
  9
$UCSORGBOTTOM
 10
0.0
 20
0.0
 30
0.0
  9
$UCSORGLEFT
 10
0.0
 20
0.0
 30
0.0
  9
$UCSORGRIGHT
 10
0.0
 20
0.0
 30
0.0
  9
$UCSORGFRONT
 10
0.0
 20
0.0
 30
0.0
  9
$UCSORGBACK
 10
0.0
 20
0.0
 30
0.0
  9
$PUCSBASE
  2

  9
$PUCSNAME
  2

  9
$PUCSORG
 10
0.0
 20
0.0
 30
0.0
  9
$PUCSXDIR
 10
1.0
 20
0.0
 30
0.0
  9
$PUCSYDIR
 10
0.0
 20
1.0
 30
0.0
  9
$PUCSORTHOREF
  2

  9
$PUCSORTHOVIEW
 70
     0
  9
$PUCSORGTOP
 10
0.0
 20
0.0
 30
0.0
  9
$PUCSORGBOTTOM
 10
0.0
 20
0.0
 30
0.0
  9
$PUCSORGLEFT
 10
0.0
 20
0.0
 30
0.0
  9
$PUCSORGRIGHT
 10
0.0
 20
0.0
 30
0.0
  9
$PUCSORGFRONT
 10
0.0
 20
0.0
 30
0.0
  9
$PUCSORGBACK
 10
0.0
 20
0.0
 30
0.0
  9
$USERI1
 70
     0
  9
$USERI2
 70
     0
  9
$USERI3
 70
     0
  9
$USERI4
 70
     0
  9
$USERI5
 70
     0
  9
$USERR1
 40
0.0
  9
$USERR2
 40
0.0
  9
$USERR3
 40
0.0
  9
$USERR4
 40
0.0
  9
$USERR5
 40
0.0
  9
$WORLDVIEW
 70
     1
  9
$SHADEDGE
 70
     3
  9
$SHADEDIF
 70
    70
  9
$TILEMODE
 70
     1
  9
$MAXACTVP
 70
    48
  9
$PINSBASE
 10
0.0
 20
0.0
 30
0.0
  9
$PLIMCHECK
 70
     0
  9
$PEXTMIN
 10
1.000000000000000E+20
 20
1.000000000000000E+20
 30
1.000000000000000E+20
  9
$PEXTMAX
 10
-1.000000000000000E+20
 20
-1.000000000000000E+20
 30
-1.000000000000000E+20
  9
$PLIMMIN
 10
0.0
 20
0.0
  9
$PLIMMAX
 10
12.0
 20
9.0
  9
$UNITMODE
 70
     0
  9
$VISRETAIN
 70
     0
  9
$PLINEGEN
 70
     0
  9
$PSLTSCALE
 70
     0
  9
$TREEDEPTH
 70
  3020
  9
$CMLSTYLE
  2
STANDARD
  9
$CMLJUST
 70
     0
  9
$CMLSCALE
 40
1.0
  9
$PROXYGRAPHICS
 70
     1
  9
$MEASUREMENT
 70
     0
  9
$CELWEIGHT
370
    -1
  9
$ENDCAPS
280
     0
  9
$JOINSTYLE
280
     0
  9
$LWDISPLAY
290
     0
  9
$INSUNITS
 70
     0
  9
$HYPERLINKBASE
  1

  9
$STYLESHEET
  1

  9
$XEDIT
290
     1
  9
$CEPSNTYPE
380
     0
  9
$PSTYLEMODE
290
     1
  9
$FINGERPRINTGUID
  2
{D3596C08-5CF9-4F58-ACDB-C97EE97FD1D6}
  9
$VERSIONGUID
  2
{DCDF415C-75E3-4DE5-8E2A-76106330C467}
  9
$EXTNAMES
290
     1
  9
$PSVPSCALE
 40
0.0
  9
$OLESTARTUP
290
     0
  9
$SORTENTS
280
   127
  9
$INDEXCTL
280
     0
  9
$HIDETEXT
280
     0
  9
$XCLIPFRAME
290
     0
  9
$HALOGAP
280
     0
  9
$OBSCOLOR
 70
   257
  9
$OBSLTYPE
280
     0
  9
$INTERSECTIONDISPLAY
280
     0
  9
$INTERSECTIONCOLOR
 70
   257
  9
$DIMASSOC
280
     1
  9
$PROJECTNAME
  1

  0
ENDSEC
  0
SECTION
  2
CLASSES
  0
CLASS
  1
LWPOLYLINE
  2
AcDbPolyline
  3
AutoCAD 2000
 90
        0
 91
        1
280
     0
281
     1
  0
CLASS
  1
ACDBDICTIONARYWDFLT
  2
AcDbDictionaryWithDefault
  3
ObjectDBX Classes
 90
        0
 91
        4
280
     0
281
     0
  0
CLASS
  1
MATERIAL
  2
AcDbMaterial
  3
ObjectDBX Classes
 90
     1153
 91
        4
280
     0
281
     0
  0
CLASS
  1
VISUALSTYLE
  2
AcDbVisualStyle
  3
ObjectDBX Classes
 90
     4095
 91
        4
280
     0
281
     0
  0
CLASS
  1
TABLESTYLE
  2
AcDbTableStyle
  3
ObjectDBX Classes
 90
     4095
 91
        4
280
     0
281
     0
  0
CLASS
  1
SCALE
  2
AcDbScale
  3
ObjectDBX Classes
 90
     1153
 91
        4
280
     0
281
     0
  0
CLASS
  1
MLEADERSTYLE
  2
AcDbMLeaderStyle
  3
ACDB_MLEADERSTYLE_CLASS
 90
     4095
 91
        4
280
     0
281
     0
  0
CLASS
  1
ACDBSECTIONVIEWSTYLE
  2
AcDbSectionViewStyle
  3
ObjectDBX Classes
 90
     1025
 91
        2
280
     1
281
     0
  0
CLASS
  1
ACDBDETAILVIEWSTYLE
  2
AcDbDetailViewStyle
  3
ObjectDBX Classes
 90
     1025
 91
        2
280
     1
281
     0
  0
CLASS
  1
CELLSTYLEMAP
  2
AcDbCellStyleMap
  3
ObjectDBX Classes
 90
     1152
 91
        4
280
     0
281
     0
  0
CLASS
  1
DICTIONARYVAR
  2
AcDbDictionaryVar
  3
ObjectDBX Classes
 90
        0
 91
        4
280
     0
281
     0
  0
ENDSEC
  0
SECTION
  2
TABLES
  0
TABLE
  2
VPORT
  5
8
102
{ACAD_XDICTIONARY
360
182C
102
}
330
0
100
AcDbSymbolTable
 70
     1
  0
VPORT
  5
15DA
330
8
100
AcDbSymbolTableRecord
100
AcDbViewportTableRecord
  2
*ACTIVE
 70
     0
 10
0.0
 20
0.0
 11
1.0
 21
1.0
 12
4154.026035694529
 22
2961.415832806032
 13
0.0
 23
0.0
 14
20.0
 24
20.0
 15
200.0
 25
200.0
 16
0.0
 26
0.0
 36
1.0
 17
0.0
 27
0.0
 37
0.0
 40
7008.440339690986
 41
1.560747663551402
 42
50.0
 43
0.0
 44
0.0
 50
0.0
 51
0.0
 71
     0
 72
   100
 73
     1
 74
     1
 75
     0
 76
     0
 77
     0
 78
     0
281
     0
 65
     1
110
0.0
120
0.0
130
0.0
111
1.0
121
0.0
131
0.0
112
0.0
122
1.0
132
0.0
 79
     0
146
0.0
1001
ACAD_NAV_VCDISPLAY
1070
     3
  0
ENDTAB
  0
TABLE
  2
LTYPE
  5
5
330
0
100
AcDbSymbolTable
 70
     4
  0
LTYPE
  5
11
330
5
100
AcDbSymbolTableRecord
100
AcDbLinetypeTableRecord
  2
BYBLOCK
 70
     0
  3

 72
    65
 73
     0
 40
0.0
  0
LTYPE
  5
12
330
5
100
AcDbSymbolTableRecord
100
AcDbLinetypeTableRecord
  2
BYLAYER
 70
     0
  3

 72
    65
 73
     0
 40
0.0
  0
LTYPE
  5
13
330
5
100
AcDbSymbolTableRecord
100
AcDbLinetypeTableRecord
  2
CONTINUOUS
 70
     0
  3
Solid line
 72
    65
 73
     0
 40
0.0
  0
LTYPE
  5
1E
330
5
100
AcDbSymbolTableRecord
100
AcDbLinetypeTableRecord
  2
HIDDEN
 70
     0
  3
_ _ _ _ _ _ _ _ _ _ _ _ _ _ _ _ _ _ _ _ _ _ _
 72
    65
 73
     2
 40
0.375
 49
0.25
 74
     0
 49
-0.125
 74
     0
  0
LTYPE
  5
1F
330
5
100
AcDbSymbolTableRecord
100
AcDbLinetypeTableRecord
  2
CENTER
 70
     0
  3
____ _ ____ _ ____ _ ____ _ ____ _ ____ _ ____
 72
    65
 73
     4
 40
2.0
 49
1.25
 74
     0
 49
-0.25
 74
     0
 49
0.25
 74
     0
 49
-0.25
 74
     0
  0
LTYPE
  5
20
330
5
100
AcDbSymbolTableRecord
100
AcDbLinetypeTableRecord
  2
PHANTOM
 70
     0
  3
_____ _ _ _____ _ _ _____ _ _ _____ _ _ ____
 72
    65
 73
     6
 40
2.5
 49
1.25
 74
     0
 49
-0.25
 74
     0
 49
0.25
 74
     0
 49
-0.25
 74
     0
 49
0.25
 74
     0
 49
-0.25
 74
     0
  0
ENDTAB
  0
TABLE
  2
LAYER
  5
2
102
{ACAD_XDICTIONARY
360
17D7
102
}
330
0
100
AcDbSymbolTable
 70
    10
  0
LAYER
  5
E
102
{ACAD_XDICTIONARY
360
17C2
102
}
330
2
100
AcDbSymbolTableRecord
100
AcDbLayerTableRecord
  2
0
 70
     0
 62
     7
  6
CONTINUOUS
370
    -3
390
15DD
  0
LAYER
  5
23
102
{ACAD_XDICTIONARY
360
17C4
102
}
330
2
100
AcDbSymbolTableRecord
100
AcDbLayerTableRecord
  2
SUNPOU
 70
     0
 62
     1
  6
CONTINUOUS
370
    -3
390
15DD
  0
LAYER
  5
24
102
{ACAD_XDICTIONARY
360
17C6
102
}
330
2
100
AcDbSymbolTableRecord
100
AcDbLayerTableRecord
  2
HAIKIN
 70
     0
 62
     2
  6
CONTINUOUS
370
    -3
390
15DD
  0
LAYER
  5
25
102
{ACAD_XDICTIONARY
360
17C8
102
}
330
2
100
AcDbSymbolTableRecord
100
AcDbLayerTableRecord
  2
SEIHIN
 70
     0
 62
     3
  6
CONTINUOUS
370
    -3
390
15DD
  0
LAYER
  5
26
102
{ACAD_XDICTIONARY
360
17CA
102
}
330
2
100
AcDbSymbolTableRecord
100
AcDbLayerTableRecord
  2
HASEN
 70
     0
 62
     4
  6
HIDDEN
370
    -3
390
15DD
  0
LAYER
  5
27
102
{ACAD_XDICTIONARY
360
17CC
102
}
330
2
100
AcDbSymbolTableRecord
100
AcDbLayerTableRecord
  2
1HASEN
 70
     0
 62
     5
  6
CENTER
370
    -3
390
15DD
  0
LAYER
  5
28
102
{ACAD_XDICTIONARY
360
17CE
102
}
330
2
100
AcDbSymbolTableRecord
100
AcDbLayerTableRecord
  2
2HASEN
 70
     0
 62
     6
  6
PHANTOM
370
    -3
390
15DD
  0
LAYER
  5
29
102
{ACAD_XDICTIONARY
360
17D0
102
}
330
2
100
AcDbSymbolTableRecord
100
AcDbLayerTableRecord
  2
HOJO
 70
     0
 62
    -7
  6
CONTINUOUS
370
    -3
390
15DD
  0
LAYER
  5
2A
102
{ACAD_XDICTIONARY
360
17D2
102
}
330
2
100
AcDbSymbolTableRecord
100
AcDbLayerTableRecord
  2
TEN
 70
     0
 62
     7
  6
CONTINUOUS
370
    -3
390
15DD
  0
LAYER
  5
B8
330
2
100
AcDbSymbolTableRecord
100
AcDbLayerTableRecord
  2
DEFPOINTS
 70
     0
 62
     7
  6
CONTINUOUS
290
     0
370
    -3
390
15DD
  0
ENDTAB
  0
TABLE
  2
STYLE
  5
3
330
0
100
AcDbSymbolTable
 70
     1
  0
STYLE
  5
F
330
3
100
AcDbSymbolTableRecord
100
AcDbTextStyleTableRecord
  2
STANDARD
 70
     0
 40
0.0
 41
0.8
 50
0.0
 71
     0
 42
60.0
  3
TXT.shx
  4
BIGFONT.shx
  0
ENDTAB
  0
TABLE
  2
VIEW
  5
6
330
0
100
AcDbSymbolTable
 70
     0
  0
ENDTAB
  0
TABLE
  2
UCS
  5
7
330
0
100
AcDbSymbolTable
 70
     0
  0
ENDTAB
  0
TABLE
  2
APPID
  5
9
330
0
100
AcDbSymbolTable
 70
     7
  0
APPID
  5
10
330
9
100
AcDbSymbolTableRecord
100
AcDbRegAppTableRecord
  2
ACAD
 70
     0
  0
APPID
  5
1640
330
9
100
AcDbSymbolTableRecord
100
AcDbRegAppTableRecord
  2
ACAD_DSTYLE_DIMJOGGED_JOGANGLE_SYMBOL
 70
     0
  0
APPID
  5
1641
330
9
100
AcDbSymbolTableRecord
100
AcDbRegAppTableRecord
  2
ACAD_NAV_VCDISPLAY
 70
     0
  0
APPID
  5
1642
330
9
100
AcDbSymbolTableRecord
100
AcDbRegAppTableRecord
  2
ACAD_DSTYLE_DIMJAG
 70
     0
  0
APPID
  5
1643
330
9
100
AcDbSymbolTableRecord
100
AcDbRegAppTableRecord
  2
ACAD_DSTYLE_DIMTALN
 70
     0
  0
APPID
  5
1660
330
9
100
AcDbSymbolTableRecord
100
AcDbRegAppTableRecord
  2
AcadAnnoPO
 70
     0
  0
APPID
  5
1818
330
9
100
AcDbSymbolTableRecord
100
AcDbRegAppTableRecord
  2
ACAD_MLEADERVER
 70
     0
  0
ENDTAB
  0
TABLE
  2
DIMSTYLE
  5
A
330
0
100
AcDbSymbolTable
 70
     2
100
AcDbDimStyleTable
  0
DIMSTYLE
105
61
102
{ACAD_REACTORS
330
D3
330
D4
330
D6
330
D8
330
D9
102
}
330
A
100
AcDbSymbolTableRecord
100
AcDbDimStyleTableRecord
  2
STANDARD
 70
     0
178
     0
340
F
  0
DIMSTYLE
105
163F
102
{ACAD_REACTORS
330
15D2
330
15D1
330
14F7
330
1449
330
143C
330
142F
330
1351
330
1344
330
1337
330
131F
330
130D
330
1300
330
12DE
330
12C6
330
1294
330
1287
330
1273
330
E4A
330
E48
330
586
330
1765
330
1791
102
}
330
A
100
AcDbSymbolTableRecord
100
AcDbDimStyleTableRecord
  2
A3-20
 70
     0
 40
20.0
 41
2.0
 42
2.0
 43
7.0
 44
0.5
 73
     0
 74
     0
 77
     1
 78
     8
140
2.5
141
0.0
145
1.0
147
0.7
174
     1
178
     0
179
     4
271
     0
272
     0
279
     2
284
     8
285
     8
286
     8
340
F
1001
ACAD_DSTYLE_DIMJOGGED_JOGANGLE_SYMBOL
1070
   384
1040
0.7853981633974483
1001
ACAD_DSTYLE_DIMJAG
1070
   388
1040
1.5
1001
ACAD_DSTYLE_DIMTALN
1070
   392
1070
     0
  0
ENDTAB
  0
TABLE
  2
BLOCK_RECORD
  5
1
330
0
100
AcDbSymbolTable
 70
    66
  0
BLOCK_RECORD
  5
17
330
1
100
AcDbSymbolTableRecord
100
AcDbBlockTableRecord
  2
*MODEL_SPACE
340
162D
  0
BLOCK_RECORD
  5
14
330
1
100
AcDbSymbolTableRecord
100
AcDbBlockTableRecord
  2
*PAPER_SPACE
340
162E
  0
BLOCK_RECORD
  5
1C
330
1
100
AcDbSymbolTableRecord
100
AcDbBlockTableRecord
  2
BORDER
340
0
  0
BLOCK_RECORD
  5
1D
330
1
100
AcDbSymbolTableRecord
100
AcDbBlockTableRecord
  2
SA3
340
0
  0
BLOCK_RECORD
  5
80
330
1
100
AcDbSymbolTableRecord
100
AcDbBlockTableRecord
  2
*D2
340
0
  0
BLOCK_RECORD
  5
8C
330
1
100
AcDbSymbolTableRecord
100
AcDbBlockTableRecord
  2
*D3
340
0
  0
BLOCK_RECORD
  5
98
330
1
100
AcDbSymbolTableRecord
100
AcDbBlockTableRecord
  2
*D4
340
0
  0
BLOCK_RECORD
  5
A4
330
1
100
AcDbSymbolTableRecord
100
AcDbBlockTableRecord
  2
*D5
340
0
  0
BLOCK_RECORD
  5
B0
330
1
100
AcDbSymbolTableRecord
100
AcDbBlockTableRecord
  2
*D6
340
0
  0
BLOCK_RECORD
  5
B9
330
1
100
AcDbSymbolTableRecord
100
AcDbBlockTableRecord
  2
A$C630D7A2A
340
0
  0
BLOCK_RECORD
  5
57A
330
1
100
AcDbSymbolTableRecord
100
AcDbBlockTableRecord
  2
*D8
340
0
  0
BLOCK_RECORD
  5
1267
330
1
100
AcDbSymbolTableRecord
100
AcDbBlockTableRecord
  2
*D25
340
0
  0
BLOCK_RECORD
  5
127B
330
1
100
AcDbSymbolTableRecord
100
AcDbBlockTableRecord
  2
*D26
340
0
  0
BLOCK_RECORD
  5
1288
330
1
100
AcDbSymbolTableRecord
100
AcDbBlockTableRecord
  2
*D27
340
0
  0
BLOCK_RECORD
  5
12BA
330
1
100
AcDbSymbolTableRecord
100
AcDbBlockTableRecord
  2
*D29
340
0
  0
BLOCK_RECORD
  5
12D2
330
1
100
AcDbSymbolTableRecord
100
AcDbBlockTableRecord
  2
*D30
340
0
  0
BLOCK_RECORD
  5
12F4
330
1
100
AcDbSymbolTableRecord
100
AcDbBlockTableRecord
  2
*D32
340
0
  0
BLOCK_RECORD
  5
1301
330
1
100
AcDbSymbolTableRecord
100
AcDbBlockTableRecord
  2
*D33
340
0
  0
BLOCK_RECORD
  5
1313
330
1
100
AcDbSymbolTableRecord
100
AcDbBlockTableRecord
  2
*D34
340
0
  0
BLOCK_RECORD
  5
132B
330
1
100
AcDbSymbolTableRecord
100
AcDbBlockTableRecord
  2
*D35
340
0
  0
BLOCK_RECORD
  5
1338
330
1
100
AcDbSymbolTableRecord
100
AcDbBlockTableRecord
  2
*D36
340
0
  0
BLOCK_RECORD
  5
1345
330
1
100
AcDbSymbolTableRecord
100
AcDbBlockTableRecord
  2
*D37
340
0
  0
BLOCK_RECORD
  5
1423
330
1
100
AcDbSymbolTableRecord
100
AcDbBlockTableRecord
  2
*D43
340
0
  0
BLOCK_RECORD
  5
1430
330
1
100
AcDbSymbolTableRecord
100
AcDbBlockTableRecord
  2
*D44
340
0
  0
BLOCK_RECORD
  5
143D
330
1
100
AcDbSymbolTableRecord
100
AcDbBlockTableRecord
  2
*D45
340
0
  0
BLOCK_RECORD
  5
14EF
330
1
100
AcDbSymbolTableRecord
100
AcDbBlockTableRecord
  2
*D51
340
0
  0
BLOCK_RECORD
  5
1766
330
1
100
AcDbSymbolTableRecord
100
AcDbBlockTableRecord
  2
*D64
340
0
  0
BLOCK_RECORD
  5
1792
330
1
100
AcDbSymbolTableRecord
100
AcDbBlockTableRecord
  2
*D65
340
0
  0
ENDTAB
  0
ENDSEC
  0
SECTION
  2
BLOCKS
  0
BLOCK
  5
2D
330
17
100
AcDbEntity
  8
0
100
AcDbBlockBegin
  2
*MODEL_SPACE
 70
     0
 10
0.0
 20
0.0
 30
0.0
  3
*MODEL_SPACE
  1

  0
ENDBLK
  5
2E
330
17
100
AcDbEntity
  8
0
100
AcDbBlockEnd
  0
BLOCK
  5
2B
330
14
100
AcDbEntity
 67
     1
  8
0
100
AcDbBlockBegin
  2
*PAPER_SPACE
 70
     0
 10
0.0
 20
0.0
 30
0.0
  3
*PAPER_SPACE
  1

  0
ENDBLK
  5
2C
330
14
100
AcDbEntity
 67
     1
  8
0
100
AcDbBlockEnd
  0
BLOCK
  5
2F
330
1C
100
AcDbEntity
  8
0
100
AcDbBlockBegin
  2
BORDER
 70
     0
 10
0.0
 20
0.0
 30
0.0
  3
BORDER
  1

  0
LINE
  5
30
330
1C
100
AcDbEntity
  8
0
100
AcDbLine
 10
0.0
 20
0.0
 30
0.0
 11
1.00000000000004
 21
0.0
 31
0.0
  0
LINE
  5
31
330
1C
100
AcDbEntity
  8
0
100
AcDbLine
 10
1.00000000000004
 20
0.0
 30
0.0
 11
1.00000000000004
 21
1.00000000000004
 31
0.0
  0
LINE
  5
32
330
1C
100
AcDbEntity
  8
0
100
AcDbLine
 10
1.00000000000004
 20
1.00000000000004
 30
0.0
 11
0.0
 21
1.00000000000004
 31
0.0
  0
LINE
  5
33
330
1C
100
AcDbEntity
  8
0
100
AcDbLine
 10
0.0
 20
1.00000000000004
 30
0.0
 11
0.0
 21
0.0
 31
0.0
  0
ENDBLK
  5
34
330
1C
100
AcDbEntity
  8
0
100
AcDbBlockEnd
  0
BLOCK
  5
35
330
1D
100
AcDbEntity
  8
HAIKIN
100
AcDbBlockBegin
  2
SA3
 70
     0
 10
0.0
 20
0.0
 30
0.0
  3
SA3
  1

  0
TEXT
  5
36
330
1D
100
AcDbEntity
  8
SUNPOU
100
AcDbText
 10
340.0
 20
0.0
 30
0.0
 40
2.5
  1
新和コンクリート工業株式会社
100
AcDbText
  0
TEXT
  5
39
330
1D
100
AcDbEntity
  8
SUNPOU
100
AcDbText
 10
361.4166666666667
 20
6.25
 30
0.0
 40
2.5
  1
製図
 72
     4
 11
364.0
 21
7.5
 31
0.0
100
AcDbText
  0
TEXT
  5
3A
330
1D
100
AcDbEntity
  8
SUNPOU
100
AcDbText
 10
361.3333333333333
 20
11.25
 30
0.0
 40
2.5
  1
設計
 72
     4
 11
364.0
 21
12.5
 31
0.0
100
AcDbText
  0
TEXT
  5
3B
330
1D
100
AcDbEntity
  8
SUNPOU
100
AcDbText
 10
339.0833333333333
 20
6.250000000000014
 30
0.0
 40
2.5
  1
認
 72
     4
 11
340.25
 21
7.500000000000014
 31
0.0
100
AcDbText
  0
TEXT
  5
3C
330
1D
100
AcDbEntity
  8
SUNPOU
100
AcDbText
 10
339.0833333333333
 20
11.33333333333336
 30
0.0
 40
2.5
  1
承
 72
     4
 11
340.25
 21
12.50000000000003
 31
0.0
100
AcDbText
  0
TEXT
  5
3D
330
1D
100
AcDbEntity
  8
SUNPOU
100
AcDbText
 10
312.75
 20
11.75000000000001
 30
0.0
 40
2.5
  1
図　面　番　号
 72
     4
 11
323.0
 21
13.00000000000001
 31
0.0
100
AcDbText
  0
TEXT
  5
3E
330
1D
100
AcDbEntity
  8
SUNPOU
100
AcDbText
 10
362.0
 20
17.0
 30
0.0
 40
2.5
  1
１／
100
AcDbText
  0
TEXT
  5
3F
330
1D
100
AcDbEntity
  8
SUNPOU
100
AcDbText
 10
347.3333333333333
 20
16.25000000000001
 30
0.0
 40
2.5
  1
縮　　尺
 72
     4
 11
353.0
 21
17.50000000000001
 31
0.0
100
AcDbText
  0
TEXT
  5
40
330
1D
100
AcDbEntity
  8
SUNPOU
100
AcDbText
 10
347.3333333333333
 20
21.25
 30
0.0
 40
2.5
  1
鉄 筋 量
 72
     4
 11
353.0
 21
22.5
 31
0.0
100
AcDbText
  0
TEXT
  5
41
330
1D
100
AcDbEntity
  8
SUNPOU
100
AcDbText
 10
347.3333333333333
 20
26.25
 30
0.0
 40
2.5
  1
製 造 数
 72
     4
 11
353.0
 21
27.5
 31
0.0
100
AcDbText
  0
TEXT
  5
42
330
1D
100
AcDbEntity
  8
SUNPOU
100
AcDbText
 10
377.0
 20
21.0
 30
0.0
 40
2.5
  1
ｋｇ
 72
     2
 11
382.0
 21
21.0
 31
0.0
100
AcDbText
  0
TEXT
  5
43
330
1D
100
AcDbEntity
  8
SUNPOU
100
AcDbText
 10
339.5
 20
21.0
 30
0.0
 40
2.5
  1
ｋｇ
 72
     2
 11
344.5
 21
21.0
 31
0.0
100
AcDbText
  0
TEXT
  5
44
330
1D
100
AcDbEntity
  8
SUNPOU
100
AcDbText
 10
310.0
 20
16.25000000000001
 30
0.0
 40
2.5
  1
年 月 日
 72
     4
 11
315.5
 21
17.50000000000001
 31
0.0
100
AcDbText
  0
TEXT
  5
45
330
1D
100
AcDbEntity
  8
SUNPOU
100
AcDbText
 10
309.8333333333333
 20
21.25
 30
0.0
 40
2.5
  1
製品質量
 72
     4
 11
315.5
 21
22.5
 31
0.0
100
AcDbText
  0
TEXT
  5
46
330
1D
100
AcDbEntity
  8
SUNPOU
100
AcDbText
 10
309.9166666666667
 20
26.25
 30
0.0
 40
2.5
  1
業 者 名
 72
     4
 11
315.5
 21
27.5
 31
0.0
100
AcDbText
  0
TEXT
  5
47
330
1D
100
AcDbEntity
  8
SUNPOU
100
AcDbText
 10
309.8333333333333
 20
32.5
 30
0.0
 40
2.5
  1
名　　称
 72
     4
 11
315.5
 21
33.75
 31
0.0
100
AcDbText
  0
LINE
  5
48
330
1D
100
AcDbEntity
  8
SUNPOU
100
AcDbLine
 10
338.0
 20
11.00000000000001
 30
0.0
 11
308.0
 21
11.00000000000001
 31
0.0
  0
LINE
  5
49
330
1D
100
AcDbEntity
  8
SUNPOU
100
AcDbLine
 10
367.5
 20
4.999999999999986
 30
0.0
 11
367.5
 21
14.99999999999999
 31
0.0
  0
LINE
  5
4A
330
1D
100
AcDbEntity
  8
SUNPOU
100
AcDbLine
 10
360.5
 20
4.999999999999986
 30
0.0
 11
360.5
 21
14.99999999999999
 31
0.0
  0
LINE
  5
4B
330
1D
100
AcDbEntity
  8
SUNPOU
100
AcDbLine
 10
342.5
 20
4.999999999999995
 30
0.0
 11
342.5
 21
15.0
 31
0.0
  0
LINE
  5
4C
330
1D
100
AcDbEntity
  8
SUNPOU
100
AcDbLine
 10
338.0
 20
4.999999999999995
 30
0.0
 11
338.0
 21
15.0
 31
0.0
  0
LINE
  5
4D
330
1D
100
AcDbEntity
  8
SUNPOU
100
AcDbLine
 10
323.0
 20
15.00000000000001
 30
0.0
 11
323.0
 21
37.5
 31
0.0
  0
LINE
  5
4E
330
1D
100
AcDbEntity
  8
SUNPOU
100
AcDbLine
 10
360.5
 20
15.00000000000001
 30
0.0
 11
360.5
 21
30.0
 31
0.0
  0
LINE
  5
4F
330
1D
100
AcDbEntity
  8
SUNPOU
100
AcDbLine
 10
345.5
 20
15.00000000000001
 30
0.0
 11
345.5
 21
30.0
 31
0.0
  0
LINE
  5
50
330
1D
100
AcDbEntity
  8
SUNPOU
100
AcDbLine
 10
383.0
 20
30.0
 30
0.0
 11
308.0
 21
30.0
 31
0.0
  0
LINE
  5
51
330
1D
100
AcDbEntity
  8
SUNPOU
100
AcDbLine
 10
383.0
 20
25.0
 30
0.0
 11
308.0
 21
25.0
 31
0.0
  0
LINE
  5
52
330
1D
100
AcDbEntity
  8
SUNPOU
100
AcDbLine
 10
383.0
 20
20.0
 30
0.0
 11
308.0
 21
20.0
 31
0.0
  0
LINE
  5
53
330
1D
100
AcDbEntity
  8
SUNPOU
100
AcDbLine
 10
383.0
 20
14.99999999999999
 30
0.0
 11
308.0
 21
15.00000000000004
 31
0.0
  0
LINE
  5
54
330
1D
100
AcDbEntity
  8
HAIKIN
100
AcDbLine
 10
308.0
 20
37.5
 30
0.0
 11
383.0
 21
37.5
 31
0.0
  0
LINE
  5
55
330
1D
100
AcDbEntity
  8
HAIKIN
100
AcDbLine
 10
308.0
 20
5.000000000000009
 30
0.0
 11
308.0
 21
37.5
 31
0.0
  0
LINE
  5
56
330
1D
100
AcDbEntity
  8
SUNPOU
100
AcDbLine
 10
0.000000000000016
 20
277.0
 30
0.0
 11
0.000000000000016
 21
272.0
 31
0.0
  0
LINE
  5
57
330
1D
100
AcDbEntity
  8
SUNPOU
100
AcDbLine
 10
25.00000000000001
 20
277.0
 30
0.0
 11
0.000000000000016
 21
277.0
 31
0.0
  0
LINE
  5
58
330
1D
100
AcDbEntity
  8
SUNPOU
100
AcDbLine
 10
25.00000000000001
 20
272.0
 30
0.0
 11
25.00000000000001
 21
277.0
 31
0.0
  0
LINE
  5
59
330
1D
100
AcDbEntity
  8
HAIKIN
100
AcDbLine
 10
0.0000000000000004
 20
5.0
 30
0.0
 11
383.0
 21
5.0
 31
0.0
  0
LINE
  5
5A
330
1D
100
AcDbEntity
  8
HAIKIN
100
AcDbLine
 10
0.0000000000000158
 20
272.0
 30
0.0
 11
383.0
 21
272.0
 31
0.0
  0
LINE
  5
5B
330
1D
100
AcDbEntity
  8
HAIKIN
100
AcDbLine
 10
383.0
 20
272.0
 30
0.0
 11
383.0
 21
5.0
 31
0.0
  0
TEXT
  5
5C
330
1D
100
AcDbEntity
  8
SUNPOU
100
AcDbText
 10
3.700000000000017
 20
273.0
 30
0.0
 40
3.0
  1
Ｈ－２－共
 72
     4
 11
12.50000000000002
 21
274.5
 31
0.0
100
AcDbText
  0
LINE
  5
5D
330
1D
100
AcDbEntity
  8
HAIKIN
100
AcDbLine
 10
0.0000000000000004
 20
5.0
 30
0.0
 11
0.0000000000000158
 21
272.0
 31
0.0
  0
ENDBLK
  5
5E
330
1D
100
AcDbEntity
  8
HAIKIN
100
AcDbBlockEnd
  0
BLOCK
  5
8A
330
80
100
AcDbEntity
  8
0
100
AcDbBlockBegin
  2
*D2
 70
     1
 10
0.0
 20
0.0
 30
0.0
  3
*D2
  1

  0
LINE
  5
81
330
80
100
AcDbEntity
  8
0
  6
ByBlock
 62
     0
100
AcDbLine
 10
1328.918641876931
 20
1063.120542006091
 30
0.0
 11
1734.384164675743
 21
1063.120542006091
 31
0.0
  0
LINE
  5
82
330
80
100
AcDbEntity
  8
0
  6
ByBlock
 62
     0
100
AcDbLine
 10
1408.918641876931
 20
943.1205420060905
 30
0.0
 11
1734.384164675743
 21
943.1205420060905
 31
0.0
  0
LINE
  5
83
330
80
100
AcDbEntity
  8
0
  6
ByBlock
 62
     0
100
AcDbLine
 10
1724.384164675743
 20
1043.120542006091
 30
0.0
 11
1724.384164675743
 21
963.1205420060905
 31
0.0
  0
SOLID
  5
84
330
80
100
AcDbEntity
  8
0
  6
ByBlock
 62
     0
100
AcDbTrace
 10
1721.05083134241
 20
1043.120542006091
 30
0.0
 11
1727.717498009076
 21
1043.120542006091
 31
0.0
 12
1724.384164675743
 22
1063.120542006091
 32
0.0
 13
1724.384164675743
 23
1063.120542006091
 33
0.0
  0
SOLID
  5
85
330
80
100
AcDbEntity
  8
0
  6
ByBlock
 62
     0
100
AcDbTrace
 10
1721.05083134241
 20
963.1205420060905
 30
0.0
 11
1727.717498009076
 21
963.1205420060905
 31
0.0
 12
1724.384164675743
 22
943.1205420060905
 32
0.0
 13
1724.384164675743
 23
943.1205420060905
 33
0.0
  0
MTEXT
  5
86
330
80
100
AcDbEntity
  8
0
  6
ByBlock
 62
     0
100
AcDbMText
 10
1699.384164675743
 20
1003.12054200609
 30
0.0
 40
25.0
 41
0.0
 71
     5
 72
     1
  1
\A1;120
 11
6.123031769111886E-17
 21
1.0
 31
0.0
 73
     1
 44
1.0
  0
POINT
  5
87
330
80
100
AcDbEntity
  8
DEFPOINTS
  6
ByBlock
 62
     0
100
AcDbPoint
 10
1308.918641876931
 20
1063.120542006091
 30
0.0
  0
POINT
  5
88
330
80
100
AcDbEntity
  8
DEFPOINTS
  6
ByBlock
 62
     0
100
AcDbPoint
 10
1388.918641876931
 20
943.1205420060905
 30
0.0
  0
POINT
  5
89
330
80
100
AcDbEntity
  8
DEFPOINTS
  6
ByBlock
 62
     0
100
AcDbPoint
 10
1724.384164675743
 20
943.1205420060905
 30
0.0
  0
ENDBLK
  5
8B
330
80
100
AcDbEntity
  8
0
100
AcDbBlockEnd
  0
BLOCK
  5
96
330
8C
100
AcDbEntity
  8
0
100
AcDbBlockBegin
  2
*D3
 70
     1
 10
0.0
 20
0.0
 30
0.0
  3
*D3
  1

  0
LINE
  5
8D
330
8C
100
AcDbEntity
  8
0
  6
ByBlock
 62
     0
100
AcDbLine
 10
1328.918641876931
 20
910.6599650098688
 30
0.0
 11
1674.384164675743
 21
910.6599650098688
 31
0.0
  0
LINE
  5
8E
330
8C
100
AcDbEntity
  8
0
  6
ByBlock
 62
     0
100
AcDbLine
 10
1408.918641876931
 20
850.6599650098688
 30
0.0
 11
1674.384164675743
 21
850.6599650098688
 31
0.0
  0
LINE
  5
8F
330
8C
100
AcDbEntity
  8
0
  6
ByBlock
 62
     0
100
AcDbLine
 10
1664.384164675743
 20
890.6599650098688
 30
0.0
 11
1664.384164675743
 21
870.6599650098688
 31
0.0
  0
SOLID
  5
90
330
8C
100
AcDbEntity
  8
0
  6
ByBlock
 62
     0
100
AcDbTrace
 10
1661.05083134241
 20
890.6599650098688
 30
0.0
 11
1667.717498009076
 21
890.6599650098688
 31
0.0
 12
1664.384164675743
 22
910.6599650098688
 32
0.0
 13
1664.384164675743
 23
910.6599650098688
 33
0.0
  0
SOLID
  5
91
330
8C
100
AcDbEntity
  8
0
  6
ByBlock
 62
     0
100
AcDbTrace
 10
1661.05083134241
 20
870.6599650098688
 30
0.0
 11
1667.717498009076
 21
870.6599650098688
 31
0.0
 12
1664.384164675743
 22
850.6599650098688
 32
0.0
 13
1664.384164675743
 23
850.6599650098688
 33
0.0
  0
MTEXT
  5
92
330
8C
100
AcDbEntity
  8
0
  6
ByBlock
 62
     0
100
AcDbMText
 10
1639.384164675743
 20
880.6599650098688
 30
0.0
 40
25.0
 41
0.0
 71
     5
 72
     1
  1
\A1;60
 11
6.123031769111886E-17
 21
1.0
 31
0.0
 73
     1
 44
1.0
  0
POINT
  5
93
330
8C
100
AcDbEntity
  8
DEFPOINTS
  6
ByBlock
 62
     0
100
AcDbPoint
 10
1308.918641876931
 20
910.6599650098688
 30
0.0
  0
POINT
  5
94
330
8C
100
AcDbEntity
  8
DEFPOINTS
  6
ByBlock
 62
     0
100
AcDbPoint
 10
1388.918641876931
 20
850.6599650098688
 30
0.0
  0
POINT
  5
95
330
8C
100
AcDbEntity
  8
DEFPOINTS
  6
ByBlock
 62
     0
100
AcDbPoint
 10
1664.384164675743
 20
850.6599650098688
 30
0.0
  0
ENDBLK
  5
97
330
8C
100
AcDbEntity
  8
0
100
AcDbBlockEnd
  0
BLOCK
  5
A2
330
98
100
AcDbEntity
  8
0
100
AcDbBlockBegin
  2
*D4
 70
     1
 10
0.0
 20
0.0
 30
0.0
  3
*D4
  1

  0
LINE
  5
99
330
98
100
AcDbEntity
  8
0
  6
ByBlock
 62
     0
100
AcDbLine
 10
1408.918641876931
 20
850.6599650098689
 30
0.0
 11
1674.384164675743
 21
850.6599650098689
 31
0.0
  0
LINE
  5
9A
330
98
100
AcDbEntity
  8
0
  6
ByBlock
 62
     0
100
AcDbLine
 10
1408.918641876931
 20
790.6599650098689
 30
0.0
 11
1674.384164675743
 21
790.6599650098689
 31
0.0
  0
LINE
  5
9B
330
98
100
AcDbEntity
  8
0
  6
ByBlock
 62
     0
100
AcDbLine
 10
1664.384164675743
 20
830.6599650098689
 30
0.0
 11
1664.384164675743
 21
810.6599650098689
 31
0.0
  0
SOLID
  5
9C
330
98
100
AcDbEntity
  8
0
  6
ByBlock
 62
     0
100
AcDbTrace
 10
1661.05083134241
 20
830.6599650098689
 30
0.0
 11
1667.717498009076
 21
830.6599650098689
 31
0.0
 12
1664.384164675743
 22
850.6599650098689
 32
0.0
 13
1664.384164675743
 23
850.6599650098689
 33
0.0
  0
SOLID
  5
9D
330
98
100
AcDbEntity
  8
0
  6
ByBlock
 62
     0
100
AcDbTrace
 10
1661.05083134241
 20
810.6599650098689
 30
0.0
 11
1667.717498009076
 21
810.6599650098689
 31
0.0
 12
1664.384164675743
 22
790.6599650098689
 32
0.0
 13
1664.384164675743
 23
790.6599650098689
 33
0.0
  0
MTEXT
  5
9E
330
98
100
AcDbEntity
  8
0
  6
ByBlock
 62
     0
100
AcDbMText
 10
1639.384164675743
 20
820.6599650098689
 30
0.0
 40
25.0
 41
0.0
 71
     5
 72
     1
  1
\A1;60
 11
6.123031769111886E-17
 21
1.0
 31
0.0
 73
     1
 44
1.0
  0
POINT
  5
9F
330
98
100
AcDbEntity
  8
DEFPOINTS
  6
ByBlock
 62
     0
100
AcDbPoint
 10
1388.918641876931
 20
850.6599650098689
 30
0.0
  0
POINT
  5
A0
330
98
100
AcDbEntity
  8
DEFPOINTS
  6
ByBlock
 62
     0
100
AcDbPoint
 10
1388.918641876931
 20
790.6599650098689
 30
0.0
  0
POINT
  5
A1
330
98
100
AcDbEntity
  8
DEFPOINTS
  6
ByBlock
 62
     0
100
AcDbPoint
 10
1664.384164675743
 20
790.6599650098689
 30
0.0
  0
ENDBLK
  5
A3
330
98
100
AcDbEntity
  8
0
100
AcDbBlockEnd
  0
BLOCK
  5
AE
330
A4
100
AcDbEntity
  8
0
100
AcDbBlockBegin
  2
*D5
 70
     1
 10
0.0
 20
0.0
 30
0.0
  3
*D5
  1

  0
LINE
  5
A5
330
A4
100
AcDbEntity
  8
0
  6
ByBlock
 62
     0
100
AcDbLine
 10
1308.918641876931
 20
930.6599650098688
 30
0.0
 11
1308.918641876931
 21
1103.301880364135
 31
0.0
  0
LINE
  5
A6
330
A4
100
AcDbEntity
  8
0
  6
ByBlock
 62
     0
100
AcDbLine
 10
1388.918641876931
 20
870.6599650098689
 30
0.0
 11
1388.918641876931
 21
1103.301880364135
 31
0.0
  0
LINE
  5
A7
330
A4
100
AcDbEntity
  8
0
  6
ByBlock
 62
     0
100
AcDbLine
 10
1328.918641876931
 20
1093.301880364135
 30
0.0
 11
1368.918641876931
 21
1093.301880364135
 31
0.0
  0
SOLID
  5
A8
330
A4
100
AcDbEntity
  8
0
  6
ByBlock
 62
     0
100
AcDbTrace
 10
1328.918641876931
 20
1096.635213697469
 30
0.0
 11
1328.918641876931
 21
1089.968547030802
 31
0.0
 12
1308.918641876931
 22
1093.301880364135
 32
0.0
 13
1308.918641876931
 23
1093.301880364135
 33
0.0
  0
SOLID
  5
A9
330
A4
100
AcDbEntity
  8
0
  6
ByBlock
 62
     0
100
AcDbTrace
 10
1368.918641876931
 20
1096.635213697469
 30
0.0
 11
1368.918641876931
 21
1089.968547030802
 31
0.0
 12
1388.918641876931
 22
1093.301880364135
 32
0.0
 13
1388.918641876931
 23
1093.301880364135
 33
0.0
  0
MTEXT
  5
AA
330
A4
100
AcDbEntity
  8
0
  6
ByBlock
 62
     0
100
AcDbMText
 10
1348.918641876931
 20
1118.301880364135
 30
0.0
 40
25.0
 41
0.0
 71
     5
 72
     1
  1
\A1;80
 73
     1
 44
1.0
  0
POINT
  5
AB
330
A4
100
AcDbEntity
  8
DEFPOINTS
  6
ByBlock
 62
     0
100
AcDbPoint
 10
1308.918641876931
 20
910.6599650098688
 30
0.0
  0
POINT
  5
AC
330
A4
100
AcDbEntity
  8
DEFPOINTS
  6
ByBlock
 62
     0
100
AcDbPoint
 10
1388.918641876931
 20
850.6599650098689
 30
0.0
  0
POINT
  5
AD
330
A4
100
AcDbEntity
  8
DEFPOINTS
  6
ByBlock
 62
     0
100
AcDbPoint
 10
1388.918641876931
 20
1093.301880364135
 30
0.0
  0
ENDBLK
  5
AF
330
A4
100
AcDbEntity
  8
0
100
AcDbBlockEnd
  0
BLOCK
  5
B6
330
B0
100
AcDbEntity
  8
0
100
AcDbBlockBegin
  2
*D6
 70
     1
 10
0.0
 20
0.0
 30
0.0
  3
*D6
  1

  0
LINE
  5
B1
330
B0
100
AcDbEntity
  8
0
  6
ByBlock
 62
     0
100
AcDbLine
 10
968.9186418769314
 20
990.659965009869
 30
0.0
 11
928.1098170263085
 21
946.6754243812437
 31
0.0
  0
MTEXT
  5
B2
330
B0
100
AcDbEntity
  8
0
  6
ByBlock
 62
     0
100
AcDbMText
 10
1000.539969260484
 20
1027.488583691892
 30
0.0
 40
25.0
 41
0.0
 71
     5
 72
     1
  1
\A1;R80
 11
0.6801470808437141
 21
0.7330756771437545
 31
0.0
 73
     1
 44
1.0
  0
SOLID
  5
B3
330
B0
100
AcDbEntity
  8
0
  6
ByBlock
 62
     0
100
AcDbTrace
 10
925.6662314358293
 20
948.9425813173892
 30
0.0
 11
930.5534026167877
 21
944.4082674450979
 31
0.0
 12
914.5068754094342
 22
932.0139108383685
 32
0.0
 13
914.5068754094342
 23
932.0139108383685
 33
0.0
  0
POINT
  5
B4
330
B0
100
AcDbEntity
  8
DEFPOINTS
  6
ByBlock
 62
     0
100
AcDbPoint
 10
914.5068754094342
 20
932.0139108383685
 30
0.0
  0
POINT
  5
B5
330
B0
100
AcDbEntity
  8
DEFPOINTS
  6
ByBlock
 62
     0
100
AcDbPoint
 10
968.9186418769314
 20
990.659965009869
 30
0.0
  0
ENDBLK
  5
B7
330
B0
100
AcDbEntity
  8
0
100
AcDbBlockEnd
  0
BLOCK
  5
147
330
B9
100
AcDbEntity
  8
0
100
AcDbBlockBegin
  2
A$C630D7A2A
 70
     0
 10
0.0
 20
0.0
 30
0.0
  3
A$C630D7A2A
  1

  0
LINE
  5
BA
330
B9
100
AcDbEntity
  8
SUNPOU
100
AcDbLine
 10
959.736976452632
 20
1106.506644244947
 30
0.0
 11
2281.976822896288
 21
1106.506644244946
 31
0.0
  0
LINE
  5
BB
330
B9
100
AcDbEntity
  8
HASEN
100
AcDbLine
 10
1281.976822896288
 20
282.9999977848383
 30
0.0
 11
2281.976822896289
 21
282.9999977848383
 31
0.0
  0
LEADER
  5
BC
330
B9
100
AcDbEntity
  8
SUNPOU
100
AcDbLeader
  3
STANDARD
 76
     2
 10
1503.976822896288
 20
309.0026842404862
 30
0.0
 10
1695.976822896288
 20
309.0026842404862
 30
0.0
1001
ACAD
1000
DSTYLE
1002
{
1070
    78
1070
     8
1070
   284
1070
     8
1070
   140
1040
2.5
1070
   145
1040
1.0
1070
    74
1070
     0
1070
    73
1070
     0
1070
    40
1040
10.0
1070
   287
1070
     5
1070
    42
1040
2.0
1070
    44
1040
1.0
1070
    43
1040
7.0
1070
   141
1040
0.0
1070
   275
1070
     1
1070
    41
1040
2.0
1070
   285
1070
     8
1070
   286
1070
     8
1002
}
  0
LEADER
  5
BD
330
B9
100
AcDbEntity
  8
SUNPOU
100
AcDbLeader
  3
STANDARD
 76
     2
 10
1513.976822896288
 20
1106.506644244947
 30
0.0
 10
1321.976822896288
 20
1106.506644244947
 30
0.0
1001
ACAD
1000
DSTYLE
1002
{
1070
    78
1070
     8
1070
   284
1070
     8
1070
   140
1040
2.5
1070
   145
1040
1.0
1070
    74
1070
     0
1070
    73
1070
     0
1070
    40
1040
10.0
1070
   287
1070
     5
1070
    42
1040
2.0
1070
    44
1040
1.0
1070
    43
1040
7.0
1070
   141
1040
0.0
1070
   275
1070
     1
1070
    41
1040
2.0
1070
   285
1070
     8
1070
   286
1070
     8
1002
}
  0
LWPOLYLINE
  5
BE
330
B9
100
AcDbEntity
  8
SUNPOU
100
AcDbPolyline
 90
        2
 70
     1
 43
4.95
 10
1511.451822896287
 20
192.9999977848383
 42
1.0
 10
1516.501822896288
 20
192.9999977848383
 42
1.0
  0
LWPOLYLINE
  5
BF
330
B9
100
AcDbEntity
  8
SUNPOU
100
AcDbPolyline
 90
        2
 70
     1
 43
4.95
 10
1511.451822896287
 20
252.999997784838
 42
1.0
 10
1516.501822896288
 20
252.999997784838
 42
1.0
  0
LINE
  5
C0
330
B9
100
AcDbEntity
  8
HAIKIN
100
AcDbLine
 10
1301.976822896288
 20
244.9999977848381
 30
0.0
 11
2281.976822896288
 21
244.9999977848381
 31
0.0
  0
LINE
  5
C1
330
B9
100
AcDbEntity
  8
HAIKIN
100
AcDbLine
 10
1301.976822896288
 20
507.9999977848386
 30
0.0
 11
2281.976822896288
 21
507.9999977848386
 31
0.0
  0
LINE
  5
C2
330
B9
100
AcDbEntity
  8
HAIKIN
100
AcDbLine
 10
1301.976822896288
 20
752.9999977848386
 30
0.0
 11
2281.976822896288
 21
752.9999977848386
 31
0.0
  0
LINE
  5
C3
330
B9
100
AcDbEntity
  8
HAIKIN
100
AcDbLine
 10
1301.976822896288
 20
997.9999977848386
 30
0.0
 11
2281.976822896288
 21
997.9999977848386
 31
0.0
  0
LINE
  5
C4
330
B9
100
AcDbEntity
  8
HAIKIN
100
AcDbLine
 10
1301.976822896288
 20
200.9999977848383
 30
0.0
 11
2281.976822896288
 21
200.9999977848381
 31
0.0
  0
LINE
  5
C5
330
B9
100
AcDbEntity
  8
HAIKIN
100
AcDbLine
 10
1301.976822896288
 20
1242.999997784839
 30
0.0
 11
2281.976822896288
 21
1242.999997784839
 31
0.0
  0
LINE
  5
C6
330
B9
100
AcDbEntity
  8
SUNPOU
100
AcDbLine
 10
1281.976822896288
 20
162.9999977848383
 30
0.0
 11
2281.976822896287
 21
162.9999977848383
 31
0.0
  0
LINE
  5
C7
330
B9
100
AcDbEntity
  8
SUNPOU
100
AcDbLine
 10
1281.976822896288
 20
1282.999997784838
 30
0.0
 11
2281.976822896288
 21
1282.999997784838
 31
0.0
  0
LEADER
  5
C8
330
B9
100
AcDbEntity
  8
SUNPOU
100
AcDbLeader
  3
STANDARD
 76
     3
 10
229.3200875962164
 20
758.9999977848388
 30
0.0
 10
315.0778082627312
 20
873.0535803463317
 30
0.0
 10
565.4380575288906
 20
873.0535803463317
 30
0.0
1001
ACAD
1000
DSTYLE
1002
{
1070
    78
1070
     8
1070
   284
1070
     8
1070
   140
1040
2.5
1070
   145
1040
1.0
1070
    74
1070
     0
1070
    73
1070
     0
1070
    40
1040
10.0
1070
   287
1070
     5
1070
    42
1040
2.0
1070
    44
1040
1.0
1070
    43
1040
7.0
1070
   141
1040
0.0
1070
   275
1070
     1
1070
    41
1040
2.0
1070
   285
1070
     8
1070
   286
1070
     8
1002
}
  0
LEADER
  5
C9
330
B9
100
AcDbEntity
  8
SUNPOU
100
AcDbLeader
  3
STANDARD
 76
     3
 10
267.9218676798143
 20
758.9999977848388
 30
0.0
 10
353.6795883463292
 20
873.0535803463317
 30
0.0
 10
604.0398376124886
 20
873.0535803463317
 30
0.0
1001
ACAD
1000
DSTYLE
1002
{
1070
    78
1070
     8
1070
   284
1070
     8
1070
   140
1040
2.5
1070
   145
1040
1.0
1070
    74
1070
     0
1070
    73
1070
     0
1070
    40
1040
10.0
1070
   287
1070
     5
1070
    42
1040
2.0
1070
    44
1040
1.0
1070
    43
1040
7.0
1070
   141
1040
0.0
1070
   275
1070
     1
1070
    41
1040
2.0
1070
   285
1070
     8
1070
   286
1070
     8
1002
}
  0
LEADER
  5
CA
330
B9
100
AcDbEntity
  8
SUNPOU
100
AcDbLeader
  3
STANDARD
 76
     2
 10
1440.067580811962
 20
997.9999977848388
 30
0.0
 10
1440.067580811962
 20
752.9999977848388
 30
0.0
1001
ACAD
1000
DSTYLE
1002
{
1070
    78
1070
     8
1070
   284
1070
     8
1070
   140
1040
2.5
1070
   145
1040
1.0
1070
    74
1070
     0
1070
    73
1070
     0
1070
    40
1040
10.0
1070
   287
1070
     5
1070
    42
1040
2.0
1070
    44
1040
1.0
1070
    43
1040
7.0
1070
   141
1040
0.0
1070
   275
1070
     1
1070
    41
1040
2.0
1070
   285
1070
     8
1070
   286
1070
     8
1002
}
  0
LINE
  5
CB
330
B9
100
AcDbEntity
  8
HAIKIN
100
AcDbLine
 10
1321.976822896288
 20
1262.999997784839
 30
0.0
 11
1321.976822896288
 21
192.9999977848383
 31
0.0
  0
LINE
  5
CC
330
B9
100
AcDbEntity
  8
HAIKIN
100
AcDbLine
 10
228.4920027314397
 20
1262.999997784838
 30
0.0
 11
207.8747180798659
 21
213.39277915926
 31
0.0
  0
LINE
  5
CD
330
B9
100
AcDbEntity
  8
HAIKIN
100
AcDbLine
 10
268.8790728049153
 20
1262.999997784838
 30
0.0
 11
268.8790728049153
 21
192.9999977848383
 31
0.0
  0
LINE
  5
CE
330
B9
100
AcDbEntity
  8
SUNPOU
100
AcDbLine
 10
1281.976822896288
 20
1282.999997784838
 30
0.0
 11
1281.976822896288
 21
162.9999977848383
 31
0.0
  0
LINE
  5
CF
330
B9
100
AcDbEntity
  8
SUNPOU
100
AcDbLine
 10
198.8790728049153
 20
1282.999997784838
 30
0.0
 11
176.8790728049153
 21
162.9999977848383
 31
0.0
  0
LINE
  5
D0
330
B9
100
AcDbEntity
  8
SUNPOU
100
AcDbLine
 10
298.8790728049153
 20
1282.999997784838
 30
0.0
 11
298.8790728049153
 21
362.9999977848383
 31
0.0
  0
LEADER
  5
D1
330
B9
100
AcDbEntity
  8
SUNPOU
100
AcDbLeader
  3
STANDARD
 76
     3
 10
419.3209926586517
 20
252.9999977848381
 30
0.0
 10
419.3209926586517
 20
58.0315611644146
 30
0.0
 10
0.000002087728717
 20
58.0315611644146
 30
0.0
1001
ACAD
1000
DSTYLE
1002
{
1070
    78
1070
     8
1070
   284
1070
     8
1070
   140
1040
2.5
1070
   145
1040
1.0
1070
    74
1070
     0
1070
    73
1070
     0
1070
    40
1040
10.0
1070
   287
1070
     5
1070
    42
1040
2.0
1070
    44
1040
1.0
1070
    43
1040
7.0
1070
   141
1040
0.0
1070
   275
1070
     1
1070
    41
1040
2.0
1070
   285
1070
     8
1070
   286
1070
     8
1002
}
  0
LINE
  5
D2
330
B9
100
AcDbEntity
  8
SUNPOU
100
AcDbLine
 10
176.8790728049153
 20
162.9999977848383
 30
0.0
 11
798.8790728049153
 21
162.9999977848385
 31
0.0
  0
DIMENSION
  5
D3
330
B9
100
AcDbEntity
  8
SUNPOU
100
AcDbDimension
  2
*D4
 10
1074.344595603727
 20
162.9999977848385
 30
0.0
 11
1049.344595603727
 21
192.9999977848385
 31
0.0
 12
-590.0395690720161
 22
-627.6599672250304
 32
0.0
 71
     5
 42
-1.0
  3
STANDARD
100
AcDbAlignedDimension
 13
798.8790728049153
 23
222.9999977848385
 33
0.0
 14
798.8790728049153
 24
162.9999977848385
 34
0.0
 50
90.0
100
AcDbRotatedDimension
1001
ACAD
1000
DSTYLE
1002
{
1070
    40
1040
10.0
1070
    41
1040
2.0
1070
    42
1040
2.0
1070
    43
1040
7.0
1070
    44
1040
1.0
1070
    73
1070
     0
1070
    74
1070
     0
1070
    78
1070
     8
1070
   140
1040
2.5
1070
   141
1040
0.0
1070
   145
1040
1.0
1070
   275
1070
     1
1070
   279
1070
     2
1070
   284
1070
     8
1070
   285
1070
     8
1070
   286
1070
     8
1002
}
  0
DIMENSION
  5
D4
330
B9
100
AcDbEntity
  8
SUNPOU
100
AcDbDimension
  2
*D3
 10
1074.344595603727
 20
222.9999977848383
 30
0.0
 11
1049.344595603727
 21
252.9999977848383
 31
0.0
 12
-590.0395690720161
 22
-627.6599672250304
 32
0.0
 71
     5
 42
-1.0
  3
STANDARD
100
AcDbAlignedDimension
 13
718.8790728049153
 23
282.9999977848383
 33
0.0
 14
798.8790728049153
 24
222.9999977848383
 34
0.0
 50
90.0
100
AcDbRotatedDimension
1001
ACAD
1000
DSTYLE
1002
{
1070
    40
1040
10.0
1070
    41
1040
2.0
1070
    42
1040
2.0
1070
    43
1040
7.0
1070
    44
1040
1.0
1070
    73
1070
     0
1070
    74
1070
     0
1070
    78
1070
     8
1070
   140
1040
2.5
1070
   141
1040
0.0
1070
   145
1040
1.0
1070
   275
1070
     1
1070
   279
1070
     2
1070
   284
1070
     8
1070
   285
1070
     8
1070
   286
1070
     8
1002
}
  0
LEADER
  5
D5
330
B9
100
AcDbEntity
  8
SUNPOU
100
AcDbLeader
  3
STANDARD
 76
     3
 10
770.4987332130349
 20
248.9999977848381
 30
0.0
 10
770.4987332130349
 20
350.551300446703
 30
0.0
 10
1155.289369866668
 20
350.551300446703
 30
0.0
1001
ACAD
1000
DSTYLE
1002
{
1070
    78
1070
     8
1070
   284
1070
     8
1070
   140
1040
2.5
1070
   145
1040
1.0
1070
    74
1070
     0
1070
    73
1070
     0
1070
    40
1040
10.0
1070
   287
1070
     5
1070
    42
1040
2.0
1070
    44
1040
1.0
1070
    43
1040
7.0
1070
   141
1040
0.0
1070
   275
1070
     1
1070
    41
1040
2.0
1070
   285
1070
     8
1070
   286
1070
     8
1002
}
  0
DIMENSION
  5
D6
330
B9
100
AcDbEntity
  8
SUNPOU
100
AcDbDimension
  2
*D2
 10
1134.344595603727
 20
162.9999977848383
 30
0.0
 11
1109.344595603727
 21
222.9999977848382
 31
0.0
 12
-590.0395690720161
 22
-780.1205442212522
 32
0.0
 71
     5
 42
-1.0
  3
STANDARD
100
AcDbAlignedDimension
 13
718.8790728049153
 23
282.9999977848383
 33
0.0
 14
798.8790728049153
 24
162.9999977848383
 34
0.0
 50
90.0
100
AcDbRotatedDimension
1001
ACAD
1000
DSTYLE
1002
{
1070
    40
1040
10.0
1070
    41
1040
2.0
1070
    42
1040
2.0
1070
    43
1040
7.0
1070
    44
1040
1.0
1070
    73
1070
     0
1070
    74
1070
     0
1070
    78
1070
     8
1070
   140
1040
2.5
1070
   141
1040
0.0
1070
   145
1040
1.0
1070
   275
1070
     1
1070
   279
1070
     2
1070
   284
1070
     8
1070
   285
1070
     8
1070
   286
1070
     8
1002
}
  0
LINE
  5
D7
330
B9
100
AcDbEntity
  8
HAIKIN
100
AcDbLine
 10
538.8790728049153
 20
196.9999977848386
 30
0.0
 11
918.8790728049153
 21
196.9999977848382
 31
0.0
  0
DIMENSION
  5
D8
330
B9
100
AcDbEntity
  8
SUNPOU
100
AcDbDimension
  2
*D6
 10
378.8790728049153
 20
362.9999977848386
 30
0.0
 11
410.5004001884682
 21
399.8286164668616
 31
0.0
 12
-590.0395690720161
 22
-627.6599672250304
 32
0.0
 70
   132
 71
     5
 42
-1.0
  3
STANDARD
100
AcDbRadialDimension
 15
324.4673063374181
 25
304.3539436133381
 35
0.0
 40
0.0
1001
ACAD
1000
DSTYLE
1002
{
1070
    40
1040
10.0
1070
    41
1040
2.0
1070
    42
1040
2.0
1070
    43
1040
7.0
1070
    44
1040
1.0
1070
    73
1070
     0
1070
    74
1070
     0
1070
    78
1070
     8
1070
   140
1040
2.5
1070
   141
1040
0.0
1070
   145
1040
1.0
1070
   275
1070
     1
1070
   279
1070
     2
1070
   284
1070
     8
1070
   285
1070
     8
1070
   286
1070
     8
1070
   288
1070
     1
1002
}
  0
DIMENSION
  5
D9
330
B9
100
AcDbEntity
  8
SUNPOU
100
AcDbDimension
  2
*D5
 10
798.8790728049153
 20
465.6419131391049
 30
0.0
 11
758.8790728049153
 21
490.6419131391049
 31
0.0
 12
-590.0395690720161
 22
-627.6599672250304
 32
0.0
 71
     5
 42
-1.0
  3
STANDARD
100
AcDbAlignedDimension
 13
718.8790728049153
 23
282.9999977848383
 33
0.0
 14
798.8790728049153
 24
222.9999977848385
 34
0.0
100
AcDbRotatedDimension
1001
ACAD
1000
DSTYLE
1002
{
1070
    40
1040
10.0
1070
    41
1040
2.0
1070
    42
1040
2.0
1070
    43
1040
7.0
1070
    44
1040
1.0
1070
    73
1070
     0
1070
    74
1070
     0
1070
    78
1070
     8
1070
   140
1040
2.5
1070
   141
1040
0.0
1070
   145
1040
1.0
1070
   275
1070
     1
1070
   279
1070
     2
1070
   284
1070
     8
1070
   285
1070
     8
1070
   286
1070
     8
1002
}
  0
LEADER
  5
DA
330
B9
100
AcDbEntity
  8
SUNPOU
100
AcDbLeader
  3
STANDARD
 76
     3
 10
298.8790728049153
 20
282.9999977848383
 30
0.0
 10
424.4601063496466
 20
635.4571459657018
 30
0.0
 10
689.9144454045472
 20
635.4571459657018
 30
0.0
1001
ACAD
1000
DSTYLE
1002
{
1070
    78
1070
     8
1070
   284
1070
     8
1070
   140
1040
2.5
1070
   145
1040
1.0
1070
    74
1070
     0
1070
    73
1070
     0
1070
    40
1040
10.0
1070
   287
1070
     5
1070
    42
1040
2.0
1070
    44
1040
1.0
1070
    43
1040
7.0
1070
   141
1040
0.0
1070
   275
1070
     1
1070
    41
1040
2.0
1070
   285
1070
     8
1070
   286
1070
     8
1002
}
  0
LINE
  5
DB
330
B9
100
AcDbEntity
  8
HAIKIN
100
AcDbLine
 10
458.8790728049153
 20
248.9999977848381
 30
0.0
 11
838.8790728049153
 21
248.9999977848381
 31
0.0
  0
LINE
  5
DC
330
B9
100
AcDbEntity
  8
HAIKIN
100
AcDbLine
 10
227.8708607776939
 20
192.9999977848385
 30
0.0
 11
768.8790728049153
 21
192.9999977848385
 31
0.0
  0
LINE
  5
DD
330
B9
100
AcDbEntity
  8
HAIKIN
100
AcDbLine
 10
208.6527170171539
 20
252.9999977848381
 30
0.0
 11
698.8790728049153
 21
252.9999977848381
 31
0.0
  0
LINE
  5
DE
330
B9
100
AcDbEntity
  8
SUNPOU
100
AcDbLine
 10
378.8790728049153
 20
282.9999977848383
 30
0.0
 11
718.8790728049153
 21
282.9999977848383
 31
0.0
  0
LINE
  5
DF
330
B9
100
AcDbEntity
  8
HAIKIN
100
AcDbLine
 10
397.8740221710319
 20
184.0050484187216
 30
0.0
 11
199.8841234387987
 21
381.9949471509551
 31
0.0
  0
ARC
  5
E0
330
B9
100
AcDbEntity
  8
SUNPOU
100
AcDbCircle
 10
378.8790728049153
 20
362.9999977848383
 30
0.0
 40
80.0
100
AcDbArc
 50
180.0
 51
270.0
  0
ARC
  5
E1
330
B9
100
AcDbEntity
  8
HAIKIN
100
AcDbCircle
 10
227.8708607776939
 20
212.9999977848385
 30
0.0
 40
20.0
100
AcDbArc
 50
178.8746919035617
 51
270.0
  0
LWPOLYLINE
  5
E2
330
B9
100
AcDbEntity
  8
SUNPOU
100
AcDbPolyline
 90
        2
 70
     1
 43
2.95
 10
259.3540728049153
 20
200.9999977848386
 42
1.0
 10
262.4040728049152
 20
200.9999977848386
 42
1.0
  0
LWPOLYLINE
  5
E3
330
B9
100
AcDbEntity
  8
SUNPOU
100
AcDbPolyline
 90
        2
 70
     1
 43
2.95
 10
214.972117378513
 20
244.9999977848381
 42
1.0
 10
218.0221173785129
 20
244.9999977848381
 42
1.0
  0
LWPOLYLINE
  5
E4
330
B9
100
AcDbEntity
  8
SUNPOU
100
AcDbPolyline
 90
        2
 70
     1
 43
2.95
 10
259.3540728049153
 20
244.9999977848381
 42
1.0
 10
262.4040728049152
 20
244.9999977848381
 42
1.0
  0
POINT
  5
E5
330
B9
100
AcDbEntity
  8
TEN
100
AcDbPoint
 10
298.8790728049153
 20
282.9999977848383
 30
0.0
  0
LINE
  5
E6
330
B9
100
AcDbEntity
  8
HAIKIN
100
AcDbLine
 10
474.8790728049153
 20
262.9999977848383
 30
0.0
 11
474.8790728049153
 21
182.9999977848385
 31
0.0
  0
LWPOLYLINE
  5
E7
330
B9
100
AcDbEntity
  8
SUNPOU
100
AcDbPolyline
 90
        2
 70
     1
 43
2.95
 10
467.3540728049152
 20
200.9999977848385
 42
1.0
 10
470.4040728049154
 20
200.9999977848385
 42
1.0
  0
LWPOLYLINE
  5
E8
330
B9
100
AcDbEntity
  8
SUNPOU
100
AcDbPolyline
 90
        2
 70
     1
 43
2.95
 10
467.3540728049152
 20
244.9999977848383
 42
1.0
 10
470.4040728049154
 20
244.9999977848383
 42
1.0
  0
LWPOLYLINE
  5
E9
330
B9
100
AcDbEntity
  8
SUNPOU
100
AcDbPolyline
 90
        2
 70
     1
 43
2.95
 10
677.3540728049152
 20
200.9999977848385
 42
1.0
 10
680.4040728049154
 20
200.9999977848385
 42
1.0
  0
LWPOLYLINE
  5
EA
330
B9
100
AcDbEntity
  8
SUNPOU
100
AcDbPolyline
 90
        2
 70
     1
 43
2.95
 10
677.3540728049152
 20
244.9999977848383
 42
1.0
 10
680.4040728049154
 20
244.9999977848383
 42
1.0
  0
LINE
  5
EB
330
B9
100
AcDbEntity
  8
SUNPOU
100
AcDbLine
 10
718.8790728049153
 20
282.9999977848383
 30
0.0
 11
718.8790728049153
 21
222.9999977848385
 31
0.0
  0
LINE
  5
EC
330
B9
100
AcDbEntity
  8
SUNPOU
100
AcDbLine
 10
718.8790728049153
 20
222.9999977848385
 30
0.0
 11
798.8790728049153
 21
222.9999977848383
 31
0.0
  0
LINE
  5
ED
330
B9
100
AcDbEntity
  8
SUNPOU
100
AcDbLine
 10
798.8790728049153
 20
222.9999977848385
 30
0.0
 11
798.8790728049153
 21
162.9999977848383
 31
0.0
  0
CIRCLE
  5
EE
330
B9
100
AcDbEntity
  8
SUNPOU
100
AcDbCircle
 10
541.6878912985649
 20
655.1923364430108
 30
0.0
 40
19.81848743256705
  0
LWPOLYLINE
  5
EF
330
B9
100
AcDbEntity
  8
SUNPOU
100
AcDbPolyline
 90
        2
 70
     1
 43
2.95
 10
259.3540728049153
 20
507.9999977848383
 42
1.0
 10
262.4040728049152
 20
507.9999977848383
 42
1.0
  0
LWPOLYLINE
  5
F0
330
B9
100
AcDbEntity
  8
SUNPOU
100
AcDbPolyline
 90
        2
 70
     1
 43
2.95
 10
220.1381888070844
 20
507.9999977848383
 42
1.0
 10
223.1881888070843
 20
507.9999977848383
 42
1.0
  0
LINE
  5
F1
330
B9
100
AcDbEntity
  8
HAIKIN
100
AcDbLine
 10
208.5900737083125
 20
758.9999977848386
 30
0.0
 11
278.8790728049153
 21
758.9999977848386
 31
0.0
  0
CIRCLE
  5
F2
330
B9
100
AcDbEntity
  8
SUNPOU
100
AcDbCircle
 10
226.4756888070843
 20
752.9999977848386
 30
0.0
 40
9.252078666435409
  0
LWPOLYLINE
  5
F3
330
B9
100
AcDbEntity
  8
SUNPOU
100
AcDbPolyline
 90
        2
 70
     1
 43
2.95
 10
224.9506888070844
 20
752.9999977848383
 42
1.0
 10
228.0006888070843
 20
752.9999977848383
 42
1.0
  0
CIRCLE
  5
F4
330
B9
100
AcDbEntity
  8
SUNPOU
100
AcDbCircle
 10
260.8790728049153
 20
752.9999977848383
 30
0.0
 40
9.252078666435409
  0
LWPOLYLINE
  5
F5
330
B9
100
AcDbEntity
  8
SUNPOU
100
AcDbPolyline
 90
        2
 70
     1
 43
2.95
 10
259.3540728049153
 20
752.9999977848383
 42
1.0
 10
262.4040728049152
 20
752.9999977848383
 42
1.0
  0
TEXT
  5
F6
330
B9
100
AcDbEntity
  8
SUNPOU
100
AcDbText
 10
575.0837381635447
 20
642.4840412934614
 30
0.0
 40
25.0
  1
D10-11
100
AcDbText
  0
TEXT
  5
F7
330
B9
100
AcDbEntity
  8
SUNPOU
100
AcDbText
 10
532.8730096223753
 20
642.4840412934614
 30
0.0
 40
25.0
  1
5
100
AcDbText
  0
LEADER
  5
F8
330
B9
100
AcDbEntity
  8
SUNPOU
100
AcDbLeader
  3
STANDARD
 76
     2
 10
1440.067580811962
 20
507.9999977848388
 30
0.0
 10
1440.067580811962
 20
262.9999977848388
 30
0.0
1001
ACAD
1000
DSTYLE
1002
{
1070
    78
1070
     8
1070
   284
1070
     8
1070
   140
1040
2.5
1070
   145
1040
1.0
1070
    74
1070
     0
1070
    73
1070
     0
1070
    40
1040
10.0
1070
   287
1070
     5
1070
    42
1040
2.0
1070
    44
1040
1.0
1070
    43
1040
7.0
1070
   141
1040
0.0
1070
   275
1070
     1
1070
    41
1040
2.0
1070
   285
1070
     8
1070
   286
1070
     8
1002
}
  0
LEADER
  5
F9
330
B9
100
AcDbEntity
  8
SUNPOU
100
AcDbLeader
  3
STANDARD
 76
     3
 10
873.1205882131999
 20
196.9999977848383
 30
0.0
 10
873.1205882131999
 20
63.57780034866664
 30
0.0
 10
1153.335644594526
 20
63.57780034866664
 30
0.0
1001
ACAD
1000
DSTYLE
1002
{
1070
    78
1070
     8
1070
   284
1070
     8
1070
   140
1040
2.5
1070
   145
1040
1.0
1070
    74
1070
     0
1070
    73
1070
     0
1070
    40
1040
10.0
1070
   287
1070
     5
1070
    42
1040
2.0
1070
    44
1040
1.0
1070
    43
1040
7.0
1070
   141
1040
0.0
1070
   275
1070
     1
1070
    41
1040
2.0
1070
   285
1070
     8
1070
   286
1070
     8
1002
}
  0
CIRCLE
  5
FA
330
B9
100
AcDbEntity
  8
SUNPOU
100
AcDbCircle
 10
1005.109090488544
 20
83.3129908259757
 30
0.0
 40
19.81848743256705
  0
TEXT
  5
FB
330
B9
100
AcDbEntity
  8
SUNPOU
100
AcDbText
 10
996.2942088123546
 20
70.60469567642622
 30
0.0
 40
25.0
  1
9
100
AcDbText
  0
TEXT
  5
FC
330
B9
100
AcDbEntity
  8
SUNPOU
100
AcDbText
 10
1038.504937353524
 20
70.60469567642622
 30
0.0
 40
25.0
  1
D10-11
100
AcDbText
  0
CIRCLE
  5
FD
330
B9
100
AcDbEntity
  8
SUNPOU
100
AcDbCircle
 10
1007.062815760686
 20
370.286490924012
 30
0.0
 40
19.81848743256705
  0
TEXT
  5
FE
330
B9
100
AcDbEntity
  8
SUNPOU
100
AcDbText
 10
998.2479340844966
 20
357.5781957744625
 30
0.0
 40
25.0
  1
8
100
AcDbText
  0
TEXT
  5
FF
330
B9
100
AcDbEntity
  8
SUNPOU
100
AcDbText
 10
1040.458662625666
 20
357.5781957744625
 30
0.0
 40
25.0
  1
D10-11
100
AcDbText
  0
LEADER
  5
100
330
B9
100
AcDbEntity
  8
SUNPOU
100
AcDbLeader
  3
STANDARD
 76
     2
 10
1440.067580811962
 20
244.9999977848383
 30
0.0
 10
1440.067580811962
 20
-0.0000022151616577
 30
0.0
1001
ACAD
1000
DSTYLE
1002
{
1070
    78
1070
     8
1070
   284
1070
     8
1070
   140
1040
2.5
1070
   145
1040
1.0
1070
    74
1070
     0
1070
    73
1070
     0
1070
    40
1040
10.0
1070
   287
1070
     5
1070
    42
1040
2.0
1070
    44
1040
1.0
1070
    43
1040
7.0
1070
   141
1040
0.0
1070
   275
1070
     1
1070
    41
1040
2.0
1070
   285
1070
     8
1070
   286
1070
     8
1002
}
  0
LINE
  5
101
330
B9
100
AcDbEntity
  8
HAIKIN
100
AcDbLine
 10
1311.976822896288
 20
381.994947150955
 30
0.0
 11
1311.976822896288
 21
184.0050484187216
 31
0.0
  0
LWPOLYLINE
  5
102
330
B9
100
AcDbEntity
  8
SUNPOU
100
AcDbPolyline
 90
        2
 70
     1
 43
4.95
 10
1319.451822896287
 20
192.9999977848383
 42
1.0
 10
1324.501822896288
 20
192.9999977848383
 42
1.0
  0
LWPOLYLINE
  5
103
330
B9
100
AcDbEntity
  8
SUNPOU
100
AcDbPolyline
 90
        2
 70
     1
 43
4.95
 10
1319.451822896287
 20
252.999997784838
 42
1.0
 10
1324.501822896288
 20
252.999997784838
 42
1.0
  0
LINE
  5
104
330
B9
100
AcDbEntity
  8
HAIKIN
100
AcDbLine
 10
1503.976822896288
 20
381.994947150955
 30
0.0
 11
1503.976822896288
 21
184.0050484187216
 31
0.0
  0
LEADER
  5
105
330
B9
100
AcDbEntity
  8
SUNPOU
100
AcDbLeader
  3
STANDARD
 76
     2
 10
1440.067580811962
 20
752.9999977848388
 30
0.0
 10
1440.067580811962
 20
507.9999977848388
 30
0.0
1001
ACAD
1000
DSTYLE
1002
{
1070
    78
1070
     8
1070
   284
1070
     8
1070
   140
1040
2.5
1070
   145
1040
1.0
1070
    74
1070
     0
1070
    73
1070
     0
1070
    40
1040
10.0
1070
   287
1070
     5
1070
    42
1040
2.0
1070
    44
1040
1.0
1070
    43
1040
7.0
1070
   141
1040
0.0
1070
   275
1070
     1
1070
    41
1040
2.0
1070
   285
1070
     8
1070
   286
1070
     8
1002
}
  0
LEADER
  5
106
330
B9
100
AcDbEntity
  8
SUNPOU
100
AcDbLeader
  3
STANDARD
 76
     2
 10
268.8790728049153
 20
960.094388772236
 30
0.0
 10
603.3833909917175
 20
960.094388772236
 30
0.0
1001
ACAD
1000
DSTYLE
1002
{
1070
    78
1070
     8
1070
   284
1070
     8
1070
   140
1040
2.5
1070
   145
1040
1.0
1070
    74
1070
     0
1070
    73
1070
     0
1070
    40
1040
10.0
1070
   287
1070
     5
1070
    42
1040
2.0
1070
    44
1040
1.0
1070
    43
1040
7.0
1070
   141
1040
0.0
1070
   275
1070
     1
1070
    41
1040
2.0
1070
   285
1070
     8
1070
   286
1070
     8
1002
}
  0
LEADER
  5
107
330
B9
100
AcDbEntity
  8
SUNPOU
100
AcDbLeader
  3
STANDARD
 76
     2
 10
225.418026144049
 20
1106.506644244947
 30
0.0
 10
603.3833909917175
 20
1106.506644244947
 30
0.0
1001
ACAD
1000
DSTYLE
1002
{
1070
    78
1070
     8
1070
   284
1070
     8
1070
   140
1040
2.5
1070
   145
1040
1.0
1070
    74
1070
     0
1070
    73
1070
     0
1070
    40
1040
10.0
1070
   287
1070
     5
1070
    42
1040
2.0
1070
    44
1040
1.0
1070
    43
1040
7.0
1070
   141
1040
0.0
1070
   275
1070
     1
1070
    41
1040
2.0
1070
   285
1070
     8
1070
   286
1070
     8
1002
}
  0
TEXT
  5
108
330
B9
100
AcDbEntity
  8
SUNPOU
100
AcDbText
 10
490.3386072552476
 20
880.0804756740913
 30
0.0
 40
25.0
  1
D6-15
100
AcDbText
  0
TEXT
  5
109
330
B9
100
AcDbEntity
  8
SUNPOU
100
AcDbText
 10
488.552683750715
 20
967.1212840999956
 30
0.0
 40
25.0
  1
D10-11
100
AcDbText
  0
TEXT
  5
10A
330
B9
100
AcDbEntity
  8
SUNPOU
100
AcDbText
 10
488.552683750715
 20
1113.533539572707
 30
0.0
 40
25.0
  1
D10-11
100
AcDbText
  0
LWPOLYLINE
  5
10B
330
B9
100
AcDbEntity
  8
SUNPOU
100
AcDbPolyline
 90
        2
 70
     1
 43
2.95
 10
229.7631888070844
 20
997.9999977848383
 42
1.0
 10
232.8131888070843
 20
997.9999977848383
 42
1.0
  0
LWPOLYLINE
  5
10C
330
B9
100
AcDbEntity
  8
SUNPOU
100
AcDbPolyline
 90
        2
 70
     1
 43
2.95
 10
259.3540728049152
 20
997.9999977848383
 42
1.0
 10
262.4040728049151
 20
997.9999977848383
 42
1.0
  0
CIRCLE
  5
10D
330
B9
100
AcDbEntity
  8
SUNPOU
100
AcDbCircle
 10
455.1568368857352
 20
979.8295792495451
 30
0.0
 40
19.81848743256705
  0
TEXT
  5
10E
330
B9
100
AcDbEntity
  8
SUNPOU
100
AcDbText
 10
446.3419552095456
 20
967.1212840999956
 30
0.0
 40
25.0
  1
3
100
AcDbText
  0
CIRCLE
  5
10F
330
B9
100
AcDbEntity
  8
SUNPOU
100
AcDbCircle
 10
456.9427603902677
 20
892.7887708236408
 30
0.0
 40
19.81848743256705
  0
TEXT
  5
110
330
B9
100
AcDbEntity
  8
SUNPOU
100
AcDbText
 10
448.1278787140782
 20
880.0804756740913
 30
0.0
 40
25.0
  1
6
100
AcDbText
  0
LINE
  5
111
330
B9
100
AcDbEntity
  8
SUNPOU
100
AcDbLine
 10
198.8790728049153
 20
1282.999997784838
 30
0.0
 11
298.8790728049153
 21
1282.999997784838
 31
0.0
  0
LINE
  5
112
330
B9
100
AcDbEntity
  8
HAIKIN
100
AcDbLine
 10
218.2150737083125
 20
1248.999997784838
 30
0.0
 11
278.8790728049153
 21
1248.999997784838
 31
0.0
  0
LWPOLYLINE
  5
113
330
B9
100
AcDbEntity
  8
SUNPOU
100
AcDbPolyline
 90
        2
 70
     1
 43
2.95
 10
234.5756888070845
 20
1242.999997784838
 42
1.0
 10
237.6256888070844
 20
1242.999997784838
 42
1.0
  0
LWPOLYLINE
  5
114
330
B9
100
AcDbEntity
  8
SUNPOU
100
AcDbPolyline
 90
        2
 70
     1
 43
2.95
 10
259.3540728049152
 20
1242.999997784838
 42
1.0
 10
262.4040728049151
 20
1242.999997784838
 42
1.0
  0
CIRCLE
  5
115
330
B9
100
AcDbEntity
  8
SUNPOU
100
AcDbCircle
 10
455.1568368857352
 20
1126.241834722256
 30
0.0
 40
19.81848743256705
  0
TEXT
  5
116
330
B9
100
AcDbEntity
  8
SUNPOU
100
AcDbText
 10
450.7365677188227
 20
1113.533539572707
 30
0.0
 40
25.0
  1
1
100
AcDbText
  0
LEADER
  5
117
330
B9
100
AcDbEntity
  8
SUNPOU
100
AcDbLeader
  3
STANDARD
 76
     2
 10
1321.976822896288
 20
1106.506644244947
 30
0.0
 10
1129.976822896288
 20
1106.506644244947
 30
0.0
1001
ACAD
1000
DSTYLE
1002
{
1070
    78
1070
     8
1070
   284
1070
     8
1070
   140
1040
2.5
1070
   145
1040
1.0
1070
    74
1070
     0
1070
    73
1070
     0
1070
    40
1040
10.0
1070
   287
1070
     5
1070
    42
1040
2.0
1070
    44
1040
1.0
1070
    43
1040
7.0
1070
   141
1040
0.0
1070
   275
1070
     1
1070
    41
1040
2.0
1070
   285
1070
     8
1070
   286
1070
     8
1002
}
  0
TEXT
  5
118
330
B9
100
AcDbEntity
  8
SUNPOU
100
AcDbText
 10
1082.483818494316
 20
1113.533539572706
 30
0.0
 40
25.0
  1
D10-11
100
AcDbText
  0
CIRCLE
  5
119
330
B9
100
AcDbEntity
  8
SUNPOU
100
AcDbCircle
 10
1031.923757540886
 20
1126.241834722256
 30
0.0
 40
19.81848743256705
  0
CIRCLE
  5
11A
330
B9
100
AcDbEntity
  8
SUNPOU
100
AcDbCircle
 10
977.5826870844558
 20
1126.241834722256
 30
0.0
 40
19.81848743256705
  0
TEXT
  5
11B
330
B9
100
AcDbEntity
  8
SUNPOU
100
AcDbText
 10
973.1624179175433
 20
1113.533539572706
 30
0.0
 40
25.0
  1
1
100
AcDbText
  0
TEXT
  5
11C
330
B9
100
AcDbEntity
  8
SUNPOU
100
AcDbText
 10
1024.946269986913
 20
1113.533539572706
 30
0.0
 40
25.0
  1
3
100
AcDbText
  0
LINE
  5
11D
330
B9
100
AcDbEntity
  8
HAIKIN
100
AcDbLine
 10
2281.976822896288
 20
1262.999997784838
 30
0.0
 11
2281.976822896289
 21
192.9999977848383
 31
0.0
  0
LINE
  5
11E
330
B9
100
AcDbEntity
  8
HAIKIN
100
AcDbLine
 10
2089.976822896288
 20
1262.999997784839
 30
0.0
 11
2089.976822896288
 21
192.9999977848383
 31
0.0
  0
LINE
  5
11F
330
B9
100
AcDbEntity
  8
HAIKIN
100
AcDbLine
 10
1897.976822896288
 20
1262.999997784839
 30
0.0
 11
1897.976822896288
 21
192.9999977848383
 31
0.0
  0
LINE
  5
120
330
B9
100
AcDbEntity
  8
HAIKIN
100
AcDbLine
 10
1705.976822896288
 20
1262.999997784839
 30
0.0
 11
1705.976822896288
 21
192.9999977848383
 31
0.0
  0
LINE
  5
121
330
B9
100
AcDbEntity
  8
HAIKIN
100
AcDbLine
 10
1513.976822896288
 20
1262.999997784839
 30
0.0
 11
1513.976822896288
 21
192.9999977848383
 31
0.0
  0
LINE
  5
122
330
B9
100
AcDbEntity
  8
SEIHIN
100
AcDbLine
 10
3281.976822896288
 20
1282.999997784838
 30
0.0
 11
3281.976822896288
 21
162.9999977848383
 31
0.0
  0
LEADER
  5
123
330
B9
100
AcDbEntity
  8
SUNPOU
100
AcDbLeader
  3
STANDARD
 76
     2
 10
1887.976822896288
 20
309.0026842404862
 30
0.0
 10
2079.976822896288
 20
309.0026842404862
 30
0.0
1001
ACAD
1000
DSTYLE
1002
{
1070
    78
1070
     8
1070
   284
1070
     8
1070
   140
1040
2.5
1070
   145
1040
1.0
1070
    74
1070
     0
1070
    73
1070
     0
1070
    40
1040
10.0
1070
   287
1070
     5
1070
    42
1040
2.0
1070
    44
1040
1.0
1070
    43
1040
7.0
1070
   141
1040
0.0
1070
   275
1070
     1
1070
    41
1040
2.0
1070
   285
1070
     8
1070
   286
1070
     8
1002
}
  0
LEADER
  5
124
330
B9
100
AcDbEntity
  8
SUNPOU
100
AcDbLeader
  3
STANDARD
 76
     2
 10
1695.976822896288
 20
309.0026842404862
 30
0.0
 10
1887.976822896288
 20
309.0026842404862
 30
0.0
1001
ACAD
1000
DSTYLE
1002
{
1070
    78
1070
     8
1070
   284
1070
     8
1070
   140
1040
2.5
1070
   145
1040
1.0
1070
    74
1070
     0
1070
    73
1070
     0
1070
    40
1040
10.0
1070
   287
1070
     5
1070
    42
1040
2.0
1070
    44
1040
1.0
1070
    43
1040
7.0
1070
   141
1040
0.0
1070
   275
1070
     1
1070
    41
1040
2.0
1070
   285
1070
     8
1070
   286
1070
     8
1002
}
  0
LINE
  5
125
330
B9
100
AcDbEntity
  8
SEIHIN
100
AcDbLine
 10
2281.976822896287
 20
282.9999977848383
 30
0.0
 11
3281.976822896288
 21
282.9999977848383
 31
0.0
  0
LINE
  5
126
330
B9
100
AcDbEntity
  8
SEIHIN
100
AcDbLine
 10
2281.976822896287
 20
222.9999977848383
 30
0.0
 11
3281.976822896288
 21
222.9999977848383
 31
0.0
  0
LINE
  5
127
330
B9
100
AcDbEntity
  8
SEIHIN
100
AcDbLine
 10
2281.976822896287
 20
162.9999977848383
 30
0.0
 11
3281.976822896288
 21
162.9999977848383
 31
0.0
  0
LEADER
  5
128
330
B9
100
AcDbEntity
  8
SUNPOU
100
AcDbLeader
  3
STANDARD
 76
     2
 10
2271.976822896289
 20
309.0026842404856
 30
0.0
 10
2079.976822896289
 20
309.0026842404856
 30
0.0
1001
ACAD
1000
DSTYLE
1002
{
1070
    78
1070
     8
1070
   284
1070
     8
1070
   140
1040
2.5
1070
   145
1040
1.0
1070
    74
1070
     0
1070
    73
1070
     0
1070
    40
1040
10.0
1070
   287
1070
     5
1070
    42
1040
2.0
1070
    44
1040
1.0
1070
    43
1040
7.0
1070
   141
1040
0.0
1070
   275
1070
     1
1070
    41
1040
2.0
1070
   285
1070
     8
1070
   286
1070
     8
1002
}
  0
LINE
  5
129
330
B9
100
AcDbEntity
  8
HAIKIN
100
AcDbLine
 10
1695.976822896288
 20
381.994947150955
 30
0.0
 11
1695.976822896288
 21
184.0050484187216
 31
0.0
  0
LWPOLYLINE
  5
12A
330
B9
100
AcDbEntity
  8
SUNPOU
100
AcDbPolyline
 90
        2
 70
     1
 43
4.95
 10
1703.451822896287
 20
192.9999977848383
 42
1.0
 10
1708.501822896288
 20
192.9999977848383
 42
1.0
  0
LWPOLYLINE
  5
12B
330
B9
100
AcDbEntity
  8
SUNPOU
100
AcDbPolyline
 90
        2
 70
     1
 43
4.95
 10
1703.451822896287
 20
252.999997784838
 42
1.0
 10
1708.501822896288
 20
252.999997784838
 42
1.0
  0
LEADER
  5
12C
330
B9
100
AcDbEntity
  8
SUNPOU
100
AcDbLeader
  3
STANDARD
 76
     2
 10
2079.976822896288
 20
309.0026842404858
 30
0.0
 10
1887.976822896288
 20
309.0026842404858
 30
0.0
1001
ACAD
1000
DSTYLE
1002
{
1070
    78
1070
     8
1070
   284
1070
     8
1070
   140
1040
2.5
1070
   145
1040
1.0
1070
    74
1070
     0
1070
    73
1070
     0
1070
    40
1040
10.0
1070
   287
1070
     5
1070
    42
1040
2.0
1070
    44
1040
1.0
1070
    43
1040
7.0
1070
   141
1040
0.0
1070
   275
1070
     1
1070
    41
1040
2.0
1070
   285
1070
     8
1070
   286
1070
     8
1002
}
  0
LINE
  5
12D
330
B9
100
AcDbEntity
  8
HAIKIN
100
AcDbLine
 10
1887.976822896288
 20
381.994947150955
 30
0.0
 11
1887.976822896288
 21
184.0050484187216
 31
0.0
  0
LWPOLYLINE
  5
12E
330
B9
100
AcDbEntity
  8
SUNPOU
100
AcDbPolyline
 90
        2
 70
     1
 43
4.95
 10
1895.451822896287
 20
192.9999977848383
 42
1.0
 10
1900.501822896288
 20
192.9999977848383
 42
1.0
  0
LWPOLYLINE
  5
12F
330
B9
100
AcDbEntity
  8
SUNPOU
100
AcDbPolyline
 90
        2
 70
     1
 43
4.95
 10
1895.451822896287
 20
252.999997784838
 42
1.0
 10
1900.501822896288
 20
252.999997784838
 42
1.0
  0
LINE
  5
130
330
B9
100
AcDbEntity
  8
HAIKIN
100
AcDbLine
 10
2079.976822896288
 20
381.994947150955
 30
0.0
 11
2079.976822896288
 21
184.0050484187216
 31
0.0
  0
LWPOLYLINE
  5
131
330
B9
100
AcDbEntity
  8
SUNPOU
100
AcDbPolyline
 90
        2
 70
     1
 43
4.95
 10
2087.451822896287
 20
192.9999977848383
 42
1.0
 10
2092.501822896288
 20
192.9999977848383
 42
1.0
  0
LWPOLYLINE
  5
132
330
B9
100
AcDbEntity
  8
SUNPOU
100
AcDbPolyline
 90
        2
 70
     1
 43
4.95
 10
2087.451822896287
 20
252.999997784838
 42
1.0
 10
2092.501822896288
 20
252.999997784838
 42
1.0
  0
LINE
  5
133
330
B9
100
AcDbEntity
  8
1HASEN
100
AcDbLine
 10
2281.976822896288
 20
162.9999977848383
 30
0.0
 11
2281.976822896288
 21
62.99999778483834
 31
0.0
  0
LINE
  5
134
330
B9
100
AcDbEntity
  8
HAIKIN
100
AcDbLine
 10
2271.976822896288
 20
381.994947150955
 30
0.0
 11
2271.976822896288
 21
184.0050484187216
 31
0.0
  0
LWPOLYLINE
  5
135
330
B9
100
AcDbEntity
  8
SUNPOU
100
AcDbPolyline
 90
        2
 70
     1
 43
4.95
 10
2279.451822896287
 20
192.9999977848383
 42
1.0
 10
2284.501822896288
 20
192.9999977848383
 42
1.0
  0
LWPOLYLINE
  5
136
330
B9
100
AcDbEntity
  8
SUNPOU
100
AcDbPolyline
 90
        2
 70
     1
 43
4.95
 10
2279.451822896287
 20
252.999997784838
 42
1.0
 10
2284.501822896288
 20
252.999997784838
 42
1.0
  0
LWPOLYLINE
  5
137
330
B9
100
AcDbEntity
  8
SUNPOU
100
AcDbPolyline
 90
        2
 70
     1
 43
4.95
 10
2476.501822896288
 20
192.9999977848399
 42
-1.0
 10
2471.451822896288
 20
192.9999977848399
 42
-1.0
  0
LWPOLYLINE
  5
138
330
B9
100
AcDbEntity
  8
SUNPOU
100
AcDbPolyline
 90
        2
 70
     1
 43
4.95
 10
2476.501822896288
 20
252.9999977848396
 42
-1.0
 10
2471.451822896287
 20
252.9999977848396
 42
-1.0
  0
LWPOLYLINE
  5
139
330
B9
100
AcDbEntity
  8
SUNPOU
100
AcDbPolyline
 90
        2
 70
     1
 43
4.95
 10
2668.501822896288
 20
192.9999977848415
 42
-1.0
 10
2663.451822896288
 20
192.9999977848415
 42
-1.0
  0
LWPOLYLINE
  5
13A
330
B9
100
AcDbEntity
  8
SUNPOU
100
AcDbPolyline
 90
        2
 70
     1
 43
4.95
 10
2668.501822896288
 20
252.9999977848412
 42
-1.0
 10
2663.451822896287
 20
252.9999977848412
 42
-1.0
  0
LWPOLYLINE
  5
13B
330
B9
100
AcDbEntity
  8
SUNPOU
100
AcDbPolyline
 90
        2
 70
     1
 43
4.95
 10
2860.501822896288
 20
192.9999977848431
 42
-1.0
 10
2855.451822896288
 20
192.9999977848431
 42
-1.0
  0
LWPOLYLINE
  5
13C
330
B9
100
AcDbEntity
  8
SUNPOU
100
AcDbPolyline
 90
        2
 70
     1
 43
4.95
 10
2860.501822896288
 20
252.9999977848428
 42
-1.0
 10
2855.451822896287
 20
252.9999977848428
 42
-1.0
  0
LWPOLYLINE
  5
13D
330
B9
100
AcDbEntity
  8
SUNPOU
100
AcDbPolyline
 90
        2
 70
     1
 43
4.95
 10
3052.501822896288
 20
192.9999977848447
 42
-1.0
 10
3047.451822896288
 20
192.9999977848447
 42
-1.0
  0
LWPOLYLINE
  5
13E
330
B9
100
AcDbEntity
  8
SUNPOU
100
AcDbPolyline
 90
        2
 70
     1
 43
4.95
 10
3052.501822896288
 20
252.9999977848444
 42
-1.0
 10
3047.451822896287
 20
252.9999977848444
 42
-1.0
  0
LWPOLYLINE
  5
13F
330
B9
100
AcDbEntity
  8
SUNPOU
100
AcDbPolyline
 90
        2
 70
     1
 43
4.95
 10
3244.501822896288
 20
192.9999977848463
 42
-1.0
 10
3239.451822896288
 20
192.9999977848463
 42
-1.0
  0
LWPOLYLINE
  5
140
330
B9
100
AcDbEntity
  8
SUNPOU
100
AcDbPolyline
 90
        2
 70
     1
 43
4.95
 10
3244.501822896288
 20
252.999997784846
 42
-1.0
 10
3239.451822896287
 20
252.999997784846
 42
-1.0
  0
LINE
  5
141
330
B9
100
AcDbEntity
  8
SEIHIN
100
AcDbLine
 10
2281.976822896288
 20
1282.999997784838
 30
0.0
 11
3281.976822896288
 21
1282.999997784838
 31
0.0
  0
LEADER
  5
142
330
B9
100
AcDbEntity
  8
SUNPOU
100
AcDbLeader
  3
STANDARD
 76
     2
 10
2281.976822896288
 20
1106.506644244946
 30
0.0
 10
2089.976822896288
 20
1106.506644244946
 30
0.0
1001
ACAD
1000
DSTYLE
1002
{
1070
    78
1070
     8
1070
   284
1070
     8
1070
   140
1040
2.5
1070
   145
1040
1.0
1070
    74
1070
     0
1070
    73
1070
     0
1070
    40
1040
10.0
1070
   287
1070
     5
1070
    42
1040
2.0
1070
    44
1040
1.0
1070
    43
1040
7.0
1070
   141
1040
0.0
1070
   275
1070
     1
1070
    41
1040
2.0
1070
   285
1070
     8
1070
   286
1070
     8
1002
}
  0
LEADER
  5
143
330
B9
100
AcDbEntity
  8
SUNPOU
100
AcDbLeader
  3
STANDARD
 76
     2
 10
1897.976822896288
 20
1106.506644244947
 30
0.0
 10
1705.976822896288
 20
1106.506644244947
 30
0.0
1001
ACAD
1000
DSTYLE
1002
{
1070
    78
1070
     8
1070
   284
1070
     8
1070
   140
1040
2.5
1070
   145
1040
1.0
1070
    74
1070
     0
1070
    73
1070
     0
1070
    40
1040
10.0
1070
   287
1070
     5
1070
    42
1040
2.0
1070
    44
1040
1.0
1070
    43
1040
7.0
1070
   141
1040
0.0
1070
   275
1070
     1
1070
    41
1040
2.0
1070
   285
1070
     8
1070
   286
1070
     8
1002
}
  0
LEADER
  5
144
330
B9
100
AcDbEntity
  8
SUNPOU
100
AcDbLeader
  3
STANDARD
 76
     2
 10
1705.976822896288
 20
1106.506644244947
 30
0.0
 10
1513.976822896288
 20
1106.506644244947
 30
0.0
1001
ACAD
1000
DSTYLE
1002
{
1070
    78
1070
     8
1070
   284
1070
     8
1070
   140
1040
2.5
1070
   145
1040
1.0
1070
    74
1070
     0
1070
    73
1070
     0
1070
    40
1040
10.0
1070
   287
1070
     5
1070
    42
1040
2.0
1070
    44
1040
1.0
1070
    43
1040
7.0
1070
   141
1040
0.0
1070
   275
1070
     1
1070
    41
1040
2.0
1070
   285
1070
     8
1070
   286
1070
     8
1002
}
  0
LEADER
  5
145
330
B9
100
AcDbEntity
  8
SUNPOU
100
AcDbLeader
  3
STANDARD
 76
     2
 10
2089.976822896288
 20
1106.506644244947
 30
0.0
 10
1897.976822896288
 20
1106.506644244947
 30
0.0
1001
ACAD
1000
DSTYLE
1002
{
1070
    78
1070
     8
1070
   284
1070
     8
1070
   140
1040
2.5
1070
   145
1040
1.0
1070
    74
1070
     0
1070
    73
1070
     0
1070
    40
1040
10.0
1070
   287
1070
     5
1070
    42
1040
2.0
1070
    44
1040
1.0
1070
    43
1040
7.0
1070
   141
1040
0.0
1070
   275
1070
     1
1070
    41
1040
2.0
1070
   285
1070
     8
1070
   286
1070
     8
1002
}
  0
LINE
  5
146
330
B9
100
AcDbEntity
  8
1HASEN
100
AcDbLine
 10
2281.976822896288
 20
1382.999997784839
 30
0.0
 11
2281.976822896288
 21
1282.999997784838
 31
0.0
  0
ENDBLK
  5
148
330
B9
100
AcDbEntity
  8
0
100
AcDbBlockEnd
  0
BLOCK
  5
57B
330
57A
100
AcDbEntity
  8
0
100
AcDbBlockBegin
  2
*D8
 70
     1
 10
0.0
 20
0.0
 30
0.0
  3
*D8
  1

  0
LINE
  5
17B9
330
57A
100
AcDbEntity
  8
SUNPOU
 62
     0
440
 16777216
370
    -2
100
AcDbLine
 10
4667.48632149221
 20
4221.194208881485
 30
0.0
 11
4667.48632149221
 21
4692.884323861677
 31
0.0
  0
LINE
  5
17BA
330
57A
100
AcDbEntity
  8
SUNPOU
 62
     0
440
 16777216
370
    -2
100
AcDbLine
 10
6667.48632149221
 20
4221.194208881485
 30
0.0
 11
6667.48632149221
 21
4692.884323861677
 31
0.0
  0
LINE
  5
17BB
330
57A
100
AcDbEntity
  8
SUNPOU
 62
     0
440
 16777216
370
    -2
100
AcDbLine
 10
4707.48632149221
 20
4682.884323861677
 30
0.0
 11
6627.48632149221
 21
4682.884323861677
 31
0.0
  0
SOLID
  5
17BC
330
57A
100
AcDbEntity
  8
SUNPOU
 62
     0
440
 16777216
100
AcDbTrace
 10
4707.48632149221
 20
4689.550990528344
 30
0.0
 11
4707.48632149221
 21
4676.21765719501
 31
0.0
 12
4667.48632149221
 22
4682.884323861677
 32
0.0
 13
4667.48632149221
 23
4682.884323861677
 33
0.0
  0
SOLID
  5
17BD
330
57A
100
AcDbEntity
  8
SUNPOU
 62
     0
440
 16777216
100
AcDbTrace
 10
6627.48632149221
 20
4689.550990528344
 30
0.0
 11
6627.48632149221
 21
4676.21765719501
 31
0.0
 12
6667.48632149221
 22
4682.884323861677
 32
0.0
 13
6667.48632149221
 23
4682.884323861677
 33
0.0
  0
MTEXT
  5
17BE
330
57A
100
AcDbEntity
  8
SUNPOU
 62
     0
440
 16777216
100
AcDbMText
 10
5667.48632149221
 20
4721.884323861677
 30
0.0
 40
50.0
 41
0.0
 71
     5
 72
     1
  1
\A1;2000
 73
     1
 44
1.0
  0
POINT
  5
17BF
330
57A
100
AcDbEntity
  8
DEFPOINTS
 62
     0
440
 16777216
100
AcDbPoint
 10
4667.48632149221
 20
4181.194208881485
 30
0.0
  0
POINT
  5
17C0
330
57A
100
AcDbEntity
  8
DEFPOINTS
 62
     0
440
 16777216
100
AcDbPoint
 10
6667.48632149221
 20
4181.194208881485
 30
0.0
  0
POINT
  5
17C1
330
57A
100
AcDbEntity
  8
DEFPOINTS
 62
     0
440
 16777216
100
AcDbPoint
 10
6667.48632149221
 20
4682.884323861677
 30
0.0
  0
ENDBLK
  5
585
330
57A
100
AcDbEntity
  8
0
100
AcDbBlockEnd
  0
BLOCK
  5
1268
330
1267
100
AcDbEntity
  8
0
100
AcDbBlockBegin
  2
*D25
 70
     1
 10
0.0
 20
0.0
 30
0.0
  3
*D25
  1

  0
LINE
  5
17B0
330
1267
100
AcDbEntity
  8
SUNPOU
 62
     0
440
 16777216
370
    -2
100
AcDbLine
 10
6707.48632149221
 20
4181.194208881485
 30
0.0
 11
7232.130407741497
 21
4181.194208881485
 31
0.0
  0
LINE
  5
17B1
330
1267
100
AcDbEntity
  8
SUNPOU
 62
     0
440
 16777216
370
    -2
100
AcDbLine
 10
6707.48632149221
 20
2401.194208881485
 30
0.0
 11
7232.130407741497
 21
2401.194208881484
 31
0.0
  0
LINE
  5
17B2
330
1267
100
AcDbEntity
  8
SUNPOU
 62
     0
440
 16777216
370
    -2
100
AcDbLine
 10
7222.130407741497
 20
4141.194208881485
 30
0.0
 11
7222.130407741497
 21
2441.194208881484
 31
0.0
  0
SOLID
  5
17B3
330
1267
100
AcDbEntity
  8
SUNPOU
 62
     0
440
 16777216
100
AcDbTrace
 10
7215.46374107483
 20
4141.194208881485
 30
0.0
 11
7228.797074408164
 21
4141.194208881485
 31
0.0
 12
7222.130407741497
 22
4181.194208881485
 32
0.0
 13
7222.130407741497
 23
4181.194208881485
 33
0.0
  0
SOLID
  5
17B4
330
1267
100
AcDbEntity
  8
SUNPOU
 62
     0
440
 16777216
100
AcDbTrace
 10
7215.46374107483
 20
2441.194208881484
 30
0.0
 11
7228.797074408164
 21
2441.194208881484
 31
0.0
 12
7222.130407741497
 22
2401.194208881484
 32
0.0
 13
7222.130407741497
 23
2401.194208881484
 33
0.0
  0
MTEXT
  5
17B5
330
1267
100
AcDbEntity
  8
SUNPOU
 62
     0
440
 16777216
100
AcDbMText
 10
7183.130407741496
 20
3291.194208881486
 30
0.0
 40
50.0
 41
0.0
 71
     5
 72
     1
  1
\A1;1780
 11
6.123031769111886E-17
 21
1.0
 31
0.0
 73
     1
 44
1.0
  0
POINT
  5
17B6
330
1267
100
AcDbEntity
  8
DEFPOINTS
 62
     0
440
 16777216
100
AcDbPoint
 10
6667.48632149221
 20
4181.194208881485
 30
0.0
  0
POINT
  5
17B7
330
1267
100
AcDbEntity
  8
DEFPOINTS
 62
     0
440
 16777216
100
AcDbPoint
 10
6667.48632149221
 20
2401.194208881485
 30
0.0
  0
POINT
  5
17B8
330
1267
100
AcDbEntity
  8
DEFPOINTS
 62
     0
440
 16777216
100
AcDbPoint
 10
7222.130407741497
 20
2401.194208881484
 30
0.0
  0
ENDBLK
  5
1272
330
1267
100
AcDbEntity
  8
0
100
AcDbBlockEnd
  0
BLOCK
  5
127C
330
127B
100
AcDbEntity
  8
0
100
AcDbBlockBegin
  2
*D26
 70
     1
 10
0.0
 20
0.0
 30
0.0
  3
*D26
  1

  0
LINE
  5
179E
330
127B
100
AcDbEntity
  8
SUNPOU
 62
     0
440
 16777216
370
    -2
100
AcDbLine
 10
6699.98632149221
 20
2581.194208881484
 30
0.0
 11
7099.254431383139
 21
2581.194208881484
 31
0.0
  0
LINE
  5
179F
330
127B
100
AcDbEntity
  8
SUNPOU
 62
     0
440
 16777216
370
    -2
100
AcDbLine
 10
6707.48632149221
 20
2401.194208881485
 30
0.0
 11
7099.254431383139
 21
2401.194208881485
 31
0.0
  0
LINE
  5
17A0
330
127B
100
AcDbEntity
  8
SUNPOU
 62
     0
440
 16777216
370
    -2
100
AcDbLine
 10
7089.254431383139
 20
2541.194208881484
 30
0.0
 11
7089.254431383139
 21
2441.194208881485
 31
0.0
  0
SOLID
  5
17A1
330
127B
100
AcDbEntity
  8
SUNPOU
 62
     0
440
 16777216
100
AcDbTrace
 10
7082.587764716472
 20
2541.194208881484
 30
0.0
 11
7095.921098049806
 21
2541.194208881484
 31
0.0
 12
7089.254431383139
 22
2581.194208881484
 32
0.0
 13
7089.254431383139
 23
2581.194208881484
 33
0.0
  0
SOLID
  5
17A2
330
127B
100
AcDbEntity
  8
SUNPOU
 62
     0
440
 16777216
100
AcDbTrace
 10
7082.587764716472
 20
2441.194208881485
 30
0.0
 11
7095.921098049806
 21
2441.194208881485
 31
0.0
 12
7089.254431383139
 22
2401.194208881485
 32
0.0
 13
7089.254431383139
 23
2401.194208881485
 33
0.0
  0
MTEXT
  5
17A3
330
127B
100
AcDbEntity
  8
SUNPOU
 62
     0
440
 16777216
100
AcDbMText
 10
7050.254431383138
 20
2491.194208881485
 30
0.0
 40
50.0
 41
0.0
 71
     5
 72
     1
  1
\A1;180
 11
6.123031769111886E-17
 21
1.0
 31
0.0
 73
     1
 44
1.0
  0
POINT
  5
17A4
330
127B
100
AcDbEntity
  8
DEFPOINTS
 62
     0
440
 16777216
100
AcDbPoint
 10
6659.98632149221
 20
2581.194208881484
 30
0.0
  0
POINT
  5
17A5
330
127B
100
AcDbEntity
  8
DEFPOINTS
 62
     0
440
 16777216
100
AcDbPoint
 10
6667.48632149221
 20
2401.194208881485
 30
0.0
  0
POINT
  5
17A6
330
127B
100
AcDbEntity
  8
DEFPOINTS
 62
     0
440
 16777216
100
AcDbPoint
 10
7089.254431383139
 20
2401.194208881485
 30
0.0
  0
ENDBLK
  5
1286
330
127B
100
AcDbEntity
  8
0
100
AcDbBlockEnd
  0
BLOCK
  5
1289
330
1288
100
AcDbEntity
  8
0
100
AcDbBlockBegin
  2
*D27
 70
     1
 10
0.0
 20
0.0
 30
0.0
  3
*D27
  1

  0
LINE
  5
17A7
330
1288
100
AcDbEntity
  8
SUNPOU
 62
     0
440
 16777216
370
    -2
100
AcDbLine
 10
6707.48632149221
 20
4181.194208881485
 30
0.0
 11
7099.254431383139
 21
4181.194208881485
 31
0.0
  0
LINE
  5
17A8
330
1288
100
AcDbEntity
  8
SUNPOU
 62
     0
440
 16777216
370
    -2
100
AcDbLine
 10
6739.98632149221
 20
2581.194208881484
 30
0.0
 11
7099.254431383139
 21
2581.194208881484
 31
0.0
  0
LINE
  5
17A9
330
1288
100
AcDbEntity
  8
SUNPOU
 62
     0
440
 16777216
370
    -2
100
AcDbLine
 10
7089.254431383139
 20
4141.194208881485
 30
0.0
 11
7089.254431383139
 21
2621.194208881484
 31
0.0
  0
SOLID
  5
17AA
330
1288
100
AcDbEntity
  8
SUNPOU
 62
     0
440
 16777216
100
AcDbTrace
 10
7082.587764716472
 20
4141.194208881485
 30
0.0
 11
7095.921098049806
 21
4141.194208881485
 31
0.0
 12
7089.254431383139
 22
4181.194208881485
 32
0.0
 13
7089.254431383139
 23
4181.194208881485
 33
0.0
  0
SOLID
  5
17AB
330
1288
100
AcDbEntity
  8
SUNPOU
 62
     0
440
 16777216
100
AcDbTrace
 10
7082.587764716472
 20
2621.194208881484
 30
0.0
 11
7095.921098049806
 21
2621.194208881484
 31
0.0
 12
7089.254431383139
 22
2581.194208881484
 32
0.0
 13
7089.254431383139
 23
2581.194208881484
 33
0.0
  0
MTEXT
  5
17AC
330
1288
100
AcDbEntity
  8
SUNPOU
 62
     0
440
 16777216
100
AcDbMText
 10
7050.254431383138
 20
3381.194208881486
 30
0.0
 40
50.0
 41
0.0
 71
     5
 72
     1
  1
\A1;1600
 11
6.123031769111886E-17
 21
1.0
 31
0.0
 73
     1
 44
1.0
  0
POINT
  5
17AD
330
1288
100
AcDbEntity
  8
DEFPOINTS
 62
     0
440
 16777216
100
AcDbPoint
 10
6667.48632149221
 20
4181.194208881485
 30
0.0
  0
POINT
  5
17AE
330
1288
100
AcDbEntity
  8
DEFPOINTS
 62
     0
440
 16777216
100
AcDbPoint
 10
6699.98632149221
 20
2581.194208881484
 30
0.0
  0
POINT
  5
17AF
330
1288
100
AcDbEntity
  8
DEFPOINTS
 62
     0
440
 16777216
100
AcDbPoint
 10
7089.254431383139
 20
2581.194208881484
 30
0.0
  0
ENDBLK
  5
1293
330
1288
100
AcDbEntity
  8
0
100
AcDbBlockEnd
  0
BLOCK
  5
12C7
330
12BA
100
AcDbEntity
  8
0
100
AcDbBlockBegin
  2
*D29
 70
     1
 10
0.0
 20
0.0
 30
0.0
  3
*D29
  1

  0
LINE
  5
1741
330
12BA
100
AcDbEntity
  8
SUNPOU
 62
     0
440
 16777216
370
    -2
100
AcDbLine
 10
2392.680029666621
 20
4181.194208881485
 30
0.0
 11
1811.0377863906
 21
4181.194208881486
 31
0.0
  0
LINE
  5
1742
330
12BA
100
AcDbEntity
  8
SUNPOU
 62
     0
440
 16777216
370
    -2
100
AcDbLine
 10
2353.246183512774
 20
2401.194208881484
 30
0.0
 11
1811.0377863906
 21
2401.194208881484
 31
0.0
  0
LINE
  5
1743
330
12BA
100
AcDbEntity
  8
SUNPOU
 62
     0
440
 16777216
370
    -2
100
AcDbLine
 10
1821.0377863906
 20
4141.194208881486
 30
0.0
 11
1821.0377863906
 21
2441.194208881484
 31
0.0
  0
SOLID
  5
1744
330
12BA
100
AcDbEntity
  8
SUNPOU
 62
     0
440
 16777216
100
AcDbTrace
 10
1814.371119723933
 20
4141.194208881486
 30
0.0
 11
1827.704453057267
 21
4141.194208881486
 31
0.0
 12
1821.0377863906
 22
4181.194208881486
 32
0.0
 13
1821.0377863906
 23
4181.194208881486
 33
0.0
  0
SOLID
  5
1745
330
12BA
100
AcDbEntity
  8
SUNPOU
 62
     0
440
 16777216
100
AcDbTrace
 10
1814.371119723933
 20
2441.194208881484
 30
0.0
 11
1827.704453057266
 21
2441.194208881484
 31
0.0
 12
1821.0377863906
 22
2401.194208881484
 32
0.0
 13
1821.0377863906
 23
2401.194208881484
 33
0.0
  0
MTEXT
  5
1746
330
12BA
100
AcDbEntity
  8
SUNPOU
 62
     0
440
 16777216
100
AcDbMText
 10
1782.037786390599
 20
3291.194208881485
 30
0.0
 40
50.0
 41
0.0
 71
     5
 72
     1
  1
\A1;1780
 11
6.123031769111886E-17
 21
1.0
 31
0.0
 73
     1
 44
1.0
  0
POINT
  5
1747
330
12BA
100
AcDbEntity
  8
DEFPOINTS
 62
     0
440
 16777216
100
AcDbPoint
 10
2432.680029666621
 20
4181.194208881485
 30
0.0
  0
POINT
  5
1748
330
12BA
100
AcDbEntity
  8
DEFPOINTS
 62
     0
440
 16777216
100
AcDbPoint
 10
2393.246183512774
 20
2401.194208881484
 30
0.0
  0
POINT
  5
1749
330
12BA
100
AcDbEntity
  8
DEFPOINTS
 62
     0
440
 16777216
100
AcDbPoint
 10
1821.0377863906
 20
2401.194208881484
 30
0.0
  0
ENDBLK
  5
12D1
330
12BA
100
AcDbEntity
  8
0
100
AcDbBlockEnd
  0
BLOCK
  5
12D3
330
12D2
100
AcDbEntity
  8
0
100
AcDbBlockBegin
  2
*D30
 70
     1
 10
0.0
 20
0.0
 30
0.0
  3
*D30
  1

  0
LINE
  5
172F
330
12D2
100
AcDbEntity
  8
SUNPOU
 62
     0
440
 16777216
370
    -2
100
AcDbLine
 10
2392.680029666621
 20
4181.194208881485
 30
0.0
 11
1938.761034676427
 21
4181.194208881486
 31
0.0
  0
LINE
  5
1730
330
12D2
100
AcDbEntity
  8
SUNPOU
 62
     0
440
 16777216
370
    -2
100
AcDbLine
 10
2536.680029666621
 20
2581.194208881485
 30
0.0
 11
1938.761034676427
 21
2581.194208881485
 31
0.0
  0
LINE
  5
1731
330
12D2
100
AcDbEntity
  8
SUNPOU
 62
     0
440
 16777216
370
    -2
100
AcDbLine
 10
1948.761034676427
 20
4141.194208881486
 30
0.0
 11
1948.761034676427
 21
2621.194208881485
 31
0.0
  0
SOLID
  5
1732
330
12D2
100
AcDbEntity
  8
SUNPOU
 62
     0
440
 16777216
100
AcDbTrace
 10
1942.09436800976
 20
4141.194208881486
 30
0.0
 11
1955.427701343094
 21
4141.194208881486
 31
0.0
 12
1948.761034676427
 22
4181.194208881486
 32
0.0
 13
1948.761034676427
 23
4181.194208881486
 33
0.0
  0
SOLID
  5
1733
330
12D2
100
AcDbEntity
  8
SUNPOU
 62
     0
440
 16777216
100
AcDbTrace
 10
1942.09436800976
 20
2621.194208881485
 30
0.0
 11
1955.427701343094
 21
2621.194208881485
 31
0.0
 12
1948.761034676427
 22
2581.194208881485
 32
0.0
 13
1948.761034676427
 23
2581.194208881485
 33
0.0
  0
MTEXT
  5
1734
330
12D2
100
AcDbEntity
  8
SUNPOU
 62
     0
440
 16777216
100
AcDbMText
 10
1909.761034676426
 20
3381.194208881486
 30
0.0
 40
50.0
 41
0.0
 71
     5
 72
     1
  1
\A1;1600
 11
6.123031769111886E-17
 21
1.0
 31
0.0
 73
     1
 44
1.0
  0
POINT
  5
1735
330
12D2
100
AcDbEntity
  8
DEFPOINTS
 62
     0
440
 16777216
100
AcDbPoint
 10
2432.680029666621
 20
4181.194208881485
 30
0.0
  0
POINT
  5
1736
330
12D2
100
AcDbEntity
  8
DEFPOINTS
 62
     0
440
 16777216
100
AcDbPoint
 10
2576.680029666621
 20
2581.194208881485
 30
0.0
  0
POINT
  5
1737
330
12D2
100
AcDbEntity
  8
DEFPOINTS
 62
     0
440
 16777216
100
AcDbPoint
 10
1948.761034676427
 20
2581.194208881485
 30
0.0
  0
ENDBLK
  5
12DD
330
12D2
100
AcDbEntity
  8
0
100
AcDbBlockEnd
  0
BLOCK
  5
12F5
330
12F4
100
AcDbEntity
  8
0
100
AcDbBlockBegin
  2
*D32
 70
     1
 10
0.0
 20
0.0
 30
0.0
  3
*D32
  1

  0
LINE
  5
1738
330
12F4
100
AcDbEntity
  8
SUNPOU
 62
     0
440
 16777216
370
    -2
100
AcDbLine
 10
2536.680029666621
 20
2581.194208881485
 30
0.0
 11
1938.761034676427
 21
2581.194208881485
 31
0.0
  0
LINE
  5
1739
330
12F4
100
AcDbEntity
  8
SUNPOU
 62
     0
440
 16777216
370
    -2
100
AcDbLine
 10
2352.63002966662
 20
2401.194208881484
 30
0.0
 11
1938.761034676427
 21
2401.194208881484
 31
0.0
  0
LINE
  5
173A
330
12F4
100
AcDbEntity
  8
SUNPOU
 62
     0
440
 16777216
370
    -2
100
AcDbLine
 10
1948.761034676427
 20
2541.194208881485
 30
0.0
 11
1948.761034676427
 21
2441.194208881484
 31
0.0
  0
SOLID
  5
173B
330
12F4
100
AcDbEntity
  8
SUNPOU
 62
     0
440
 16777216
100
AcDbTrace
 10
1942.09436800976
 20
2541.194208881485
 30
0.0
 11
1955.427701343094
 21
2541.194208881485
 31
0.0
 12
1948.761034676427
 22
2581.194208881485
 32
0.0
 13
1948.761034676427
 23
2581.194208881485
 33
0.0
  0
SOLID
  5
173C
330
12F4
100
AcDbEntity
  8
SUNPOU
 62
     0
440
 16777216
100
AcDbTrace
 10
1942.09436800976
 20
2441.194208881484
 30
0.0
 11
1955.427701343094
 21
2441.194208881484
 31
0.0
 12
1948.761034676427
 22
2401.194208881484
 32
0.0
 13
1948.761034676427
 23
2401.194208881484
 33
0.0
  0
MTEXT
  5
173D
330
12F4
100
AcDbEntity
  8
SUNPOU
 62
     0
440
 16777216
100
AcDbMText
 10
1909.761034676427
 20
2491.194208881485
 30
0.0
 40
50.0
 41
0.0
 71
     5
 72
     1
  1
\A1;180
 11
6.123031769111886E-17
 21
1.0
 31
0.0
 73
     1
 44
1.0
  0
POINT
  5
173E
330
12F4
100
AcDbEntity
  8
DEFPOINTS
 62
     0
440
 16777216
100
AcDbPoint
 10
2576.680029666621
 20
2581.194208881485
 30
0.0
  0
POINT
  5
173F
330
12F4
100
AcDbEntity
  8
DEFPOINTS
 62
     0
440
 16777216
100
AcDbPoint
 10
2392.63002966662
 20
2401.194208881484
 30
0.0
  0
POINT
  5
1740
330
12F4
100
AcDbEntity
  8
DEFPOINTS
 62
     0
440
 16777216
100
AcDbPoint
 10
1948.761034676427
 20
2401.194208881484
 30
0.0
  0
ENDBLK
  5
12FF
330
12F4
100
AcDbEntity
  8
0
100
AcDbBlockEnd
  0
BLOCK
  5
1302
330
1301
100
AcDbEntity
  8
0
100
AcDbBlockBegin
  2
*D33
 70
     1
 10
0.0
 20
0.0
 30
0.0
  3
*D33
  1

  0
LINE
  5
1714
330
1301
100
AcDbEntity
  8
SUNPOU
 62
     0
440
 16777216
370
    -2
100
AcDbLine
 10
2432.680029666621
 20
4221.194208881485
 30
0.0
 11
2432.680029666621
 21
4563.673595213944
 31
0.0
  0
LINE
  5
1715
330
1301
100
AcDbEntity
  8
SUNPOU
 62
     0
440
 16777216
370
    -2
100
AcDbLine
 10
2576.680029666621
 20
4221.194208881485
 30
0.0
 11
2576.680029666621
 21
4563.673595213944
 31
0.0
  0
LINE
  5
1716
330
1301
100
AcDbEntity
  8
SUNPOU
 62
     0
440
 16777216
370
    -2
100
AcDbLine
 10
2472.680029666621
 20
4553.673595213944
 30
0.0
 11
2536.680029666621
 21
4553.673595213944
 31
0.0
  0
SOLID
  5
1717
330
1301
100
AcDbEntity
  8
SUNPOU
 62
     0
440
 16777216
100
AcDbTrace
 10
2472.680029666621
 20
4560.340261880611
 30
0.0
 11
2472.680029666621
 21
4547.006928547277
 31
0.0
 12
2432.680029666621
 22
4553.673595213944
 32
0.0
 13
2432.680029666621
 23
4553.673595213944
 33
0.0
  0
SOLID
  5
1718
330
1301
100
AcDbEntity
  8
SUNPOU
 62
     0
440
 16777216
100
AcDbTrace
 10
2536.680029666621
 20
4560.340261880611
 30
0.0
 11
2536.680029666621
 21
4547.006928547277
 31
0.0
 12
2576.680029666621
 22
4553.673595213944
 32
0.0
 13
2576.680029666621
 23
4553.673595213944
 33
0.0
  0
MTEXT
  5
1719
330
1301
100
AcDbEntity
  8
SUNPOU
 62
     0
440
 16777216
100
AcDbMText
 10
2504.680029666621
 20
4592.673595213944
 30
0.0
 40
50.0
 41
0.0
 71
     5
 72
     1
  1
\A1;144
 73
     1
 44
1.0
  0
POINT
  5
171A
330
1301
100
AcDbEntity
  8
DEFPOINTS
 62
     0
440
 16777216
100
AcDbPoint
 10
2432.680029666621
 20
4181.194208881485
 30
0.0
  0
POINT
  5
171B
330
1301
100
AcDbEntity
  8
DEFPOINTS
 62
     0
440
 16777216
100
AcDbPoint
 10
2576.680029666621
 20
4181.194208881485
 30
0.0
  0
POINT
  5
171C
330
1301
100
AcDbEntity
  8
DEFPOINTS
 62
     0
440
 16777216
100
AcDbPoint
 10
2576.680029666621
 20
4553.673595213944
 30
0.0
  0
ENDBLK
  5
130C
330
1301
100
AcDbEntity
  8
0
100
AcDbBlockEnd
  0
BLOCK
  5
1320
330
1313
100
AcDbEntity
  8
0
100
AcDbBlockBegin
  2
*D34
 70
     1
 10
0.0
 20
0.0
 30
0.0
  3
*D34
  1

  0
LINE
  5
171D
330
1313
100
AcDbEntity
  8
SUNPOU
 62
     0
440
 16777216
370
    -2
100
AcDbLine
 10
2576.680029666621
 20
4221.194208881485
 30
0.0
 11
2576.680029666621
 21
4563.673595213944
 31
0.0
  0
LINE
  5
171E
330
1313
100
AcDbEntity
  8
SUNPOU
 62
     0
440
 16777216
370
    -2
100
AcDbLine
 10
3376.680029666622
 20
2621.194208881484
 30
0.0
 11
3376.680029666622
 21
4563.673595213944
 31
0.0
  0
LINE
  5
171F
330
1313
100
AcDbEntity
  8
SUNPOU
 62
     0
440
 16777216
370
    -2
100
AcDbLine
 10
2616.680029666621
 20
4553.673595213944
 30
0.0
 11
3336.680029666622
 21
4553.673595213944
 31
0.0
  0
SOLID
  5
1720
330
1313
100
AcDbEntity
  8
SUNPOU
 62
     0
440
 16777216
100
AcDbTrace
 10
2616.680029666621
 20
4560.340261880611
 30
0.0
 11
2616.680029666621
 21
4547.006928547277
 31
0.0
 12
2576.680029666621
 22
4553.673595213944
 32
0.0
 13
2576.680029666621
 23
4553.673595213944
 33
0.0
  0
SOLID
  5
1721
330
1313
100
AcDbEntity
  8
SUNPOU
 62
     0
440
 16777216
100
AcDbTrace
 10
3336.680029666622
 20
4560.340261880611
 30
0.0
 11
3336.680029666622
 21
4547.006928547277
 31
0.0
 12
3376.680029666622
 22
4553.673595213944
 32
0.0
 13
3376.680029666622
 23
4553.673595213944
 33
0.0
  0
MTEXT
  5
1722
330
1313
100
AcDbEntity
  8
SUNPOU
 62
     0
440
 16777216
100
AcDbMText
 10
2976.680029666622
 20
4592.673595213944
 30
0.0
 40
50.0
 41
0.0
 71
     5
 72
     1
  1
\A1;800
 73
     1
 44
1.0
  0
POINT
  5
1723
330
1313
100
AcDbEntity
  8
DEFPOINTS
 62
     0
440
 16777216
100
AcDbPoint
 10
2576.680029666621
 20
4181.194208881485
 30
0.0
  0
POINT
  5
1724
330
1313
100
AcDbEntity
  8
DEFPOINTS
 62
     0
440
 16777216
100
AcDbPoint
 10
3376.680029666622
 20
2581.194208881484
 30
0.0
  0
POINT
  5
1725
330
1313
100
AcDbEntity
  8
DEFPOINTS
 62
     0
440
 16777216
100
AcDbPoint
 10
3376.680029666622
 20
4553.673595213944
 30
0.0
  0
ENDBLK
  5
132A
330
1313
100
AcDbEntity
  8
0
100
AcDbBlockEnd
  0
BLOCK
  5
132C
330
132B
100
AcDbEntity
  8
0
100
AcDbBlockBegin
  2
*D35
 70
     1
 10
0.0
 20
0.0
 30
0.0
  3
*D35
  1

  0
LINE
  5
174A
330
132B
100
AcDbEntity
  8
SUNPOU
 62
     0
440
 16777216
370
    -2
100
AcDbLine
 10
2576.680029666621
 20
2541.194208881485
 30
0.0
 11
2576.680029666621
 21
2046.622823295338
 31
0.0
  0
LINE
  5
174B
330
132B
100
AcDbEntity
  8
SUNPOU
 62
     0
440
 16777216
370
    -2
100
AcDbLine
 10
2396.680029666621
 20
2541.194208881485
 30
0.0
 11
2396.680029666621
 21
2046.622823295338
 31
0.0
  0
LINE
  5
174C
330
132B
100
AcDbEntity
  8
SUNPOU
 62
     0
440
 16777216
370
    -2
100
AcDbLine
 10
2536.680029666621
 20
2056.622823295338
 30
0.0
 11
2436.680029666621
 21
2056.622823295338
 31
0.0
  0
SOLID
  5
174D
330
132B
100
AcDbEntity
  8
SUNPOU
 62
     0
440
 16777216
100
AcDbTrace
 10
2536.680029666621
 20
2063.289489962005
 30
0.0
 11
2536.680029666621
 21
2049.956156628672
 31
0.0
 12
2576.680029666621
 22
2056.622823295338
 32
0.0
 13
2576.680029666621
 23
2056.622823295338
 33
0.0
  0
SOLID
  5
174E
330
132B
100
AcDbEntity
  8
SUNPOU
 62
     0
440
 16777216
100
AcDbTrace
 10
2436.680029666621
 20
2063.289489962005
 30
0.0
 11
2436.680029666621
 21
2049.956156628672
 31
0.0
 12
2396.680029666621
 22
2056.622823295338
 32
0.0
 13
2396.680029666621
 23
2056.622823295338
 33
0.0
  0
MTEXT
  5
174F
330
132B
100
AcDbEntity
  8
SUNPOU
 62
     0
440
 16777216
100
AcDbMText
 10
2486.680029666621
 20
2095.622823295338
 30
0.0
 40
50.0
 41
0.0
 71
     5
 72
     1
  1
\A1;180
 73
     1
 44
1.0
  0
POINT
  5
1750
330
132B
100
AcDbEntity
  8
DEFPOINTS
 62
     0
440
 16777216
100
AcDbPoint
 10
2576.680029666621
 20
2581.194208881485
 30
0.0
  0
POINT
  5
1751
330
132B
100
AcDbEntity
  8
DEFPOINTS
 62
     0
440
 16777216
100
AcDbPoint
 10
2396.680029666621
 20
2581.194208881485
 30
0.0
  0
POINT
  5
1752
330
132B
100
AcDbEntity
  8
DEFPOINTS
 62
     0
440
 16777216
100
AcDbPoint
 10
2396.680029666621
 20
2056.622823295338
 30
0.0
  0
ENDBLK
  5
1336
330
132B
100
AcDbEntity
  8
0
100
AcDbBlockEnd
  0
BLOCK
  5
1339
330
1338
100
AcDbEntity
  8
0
100
AcDbBlockBegin
  2
*D36
 70
     1
 10
0.0
 20
0.0
 30
0.0
  3
*D36
  1

  0
LINE
  5
1753
330
1338
100
AcDbEntity
  8
SUNPOU
 62
     0
440
 16777216
370
    -2
100
AcDbLine
 10
2396.680029666621
 20
2361.194208881484
 30
0.0
 11
2396.680029666621
 21
1907.169858027526
 31
0.0
  0
LINE
  5
1754
330
1338
100
AcDbEntity
  8
SUNPOU
 62
     0
440
 16777216
370
    -2
100
AcDbLine
 10
3376.680029666621
 20
2361.194208881484
 30
0.0
 11
3376.680029666621
 21
1907.169858027526
 31
0.0
  0
LINE
  5
1755
330
1338
100
AcDbEntity
  8
SUNPOU
 62
     0
440
 16777216
370
    -2
100
AcDbLine
 10
2436.680029666621
 20
1917.169858027526
 30
0.0
 11
3336.680029666621
 21
1917.169858027526
 31
0.0
  0
SOLID
  5
1756
330
1338
100
AcDbEntity
  8
SUNPOU
 62
     0
440
 16777216
100
AcDbTrace
 10
2436.680029666621
 20
1923.836524694193
 30
0.0
 11
2436.680029666621
 21
1910.503191360859
 31
0.0
 12
2396.680029666621
 22
1917.169858027526
 32
0.0
 13
2396.680029666621
 23
1917.169858027526
 33
0.0
  0
SOLID
  5
1757
330
1338
100
AcDbEntity
  8
SUNPOU
 62
     0
440
 16777216
100
AcDbTrace
 10
3336.680029666621
 20
1923.836524694193
 30
0.0
 11
3336.680029666621
 21
1910.503191360859
 31
0.0
 12
3376.680029666621
 22
1917.169858027526
 32
0.0
 13
3376.680029666621
 23
1917.169858027526
 33
0.0
  0
MTEXT
  5
1758
330
1338
100
AcDbEntity
  8
SUNPOU
 62
     0
440
 16777216
100
AcDbMText
 10
2886.680029666621
 20
1956.169858027526
 30
0.0
 40
50.0
 41
0.0
 71
     5
 72
     1
  1
\A1;980
 73
     1
 44
1.0
  0
POINT
  5
1759
330
1338
100
AcDbEntity
  8
DEFPOINTS
 62
     0
440
 16777216
100
AcDbPoint
 10
2396.680029666621
 20
2401.194208881484
 30
0.0
  0
POINT
  5
175A
330
1338
100
AcDbEntity
  8
DEFPOINTS
 62
     0
440
 16777216
100
AcDbPoint
 10
3376.680029666621
 20
2401.194208881484
 30
0.0
  0
POINT
  5
175B
330
1338
100
AcDbEntity
  8
DEFPOINTS
 62
     0
440
 16777216
100
AcDbPoint
 10
3376.680029666621
 20
1917.169858027526
 30
0.0
  0
ENDBLK
  5
1343
330
1338
100
AcDbEntity
  8
0
100
AcDbBlockEnd
  0
BLOCK
  5
1352
330
1345
100
AcDbEntity
  8
0
100
AcDbBlockBegin
  2
*D37
 70
     1
 10
0.0
 20
0.0
 30
0.0
  3
*D37
  1

  0
LINE
  5
175C
330
1345
100
AcDbEntity
  8
SUNPOU
 62
     0
440
 16777216
370
    -2
100
AcDbLine
 10
2392.63002966662
 20
2361.194208881484
 30
0.0
 11
2392.63002966662
 21
1794.279355084806
 31
0.0
  0
LINE
  5
175D
330
1345
100
AcDbEntity
  8
SUNPOU
 62
     0
440
 16777216
370
    -2
100
AcDbLine
 10
3376.680029666621
 20
2361.194208881484
 30
0.0
 11
3376.680029666621
 21
1794.279355084806
 31
0.0
  0
LINE
  5
175E
330
1345
100
AcDbEntity
  8
SUNPOU
 62
     0
440
 16777216
370
    -2
100
AcDbLine
 10
2432.63002966662
 20
1804.279355084806
 30
0.0
 11
3336.680029666621
 21
1804.279355084806
 31
0.0
  0
SOLID
  5
175F
330
1345
100
AcDbEntity
  8
SUNPOU
 62
     0
440
 16777216
100
AcDbTrace
 10
2432.63002966662
 20
1810.946021751472
 30
0.0
 11
2432.63002966662
 21
1797.612688418139
 31
0.0
 12
2392.63002966662
 22
1804.279355084806
 32
0.0
 13
2392.63002966662
 23
1804.279355084806
 33
0.0
  0
SOLID
  5
1760
330
1345
100
AcDbEntity
  8
SUNPOU
 62
     0
440
 16777216
100
AcDbTrace
 10
3336.680029666621
 20
1810.946021751472
 30
0.0
 11
3336.680029666621
 21
1797.612688418139
 31
0.0
 12
3376.680029666621
 22
1804.279355084806
 32
0.0
 13
3376.680029666621
 23
1804.279355084806
 33
0.0
  0
MTEXT
  5
1761
330
1345
100
AcDbEntity
  8
SUNPOU
 62
     0
440
 16777216
100
AcDbMText
 10
2884.65502966662
 20
1843.279355084806
 30
0.0
 40
50.0
 41
0.0
 71
     5
 72
     1
  1
\A1;984
 73
     1
 44
1.0
  0
POINT
  5
1762
330
1345
100
AcDbEntity
  8
DEFPOINTS
 62
     0
440
 16777216
100
AcDbPoint
 10
2392.63002966662
 20
2401.194208881484
 30
0.0
  0
POINT
  5
1763
330
1345
100
AcDbEntity
  8
DEFPOINTS
 62
     0
440
 16777216
100
AcDbPoint
 10
3376.680029666621
 20
2401.194208881484
 30
0.0
  0
POINT
  5
1764
330
1345
100
AcDbEntity
  8
DEFPOINTS
 62
     0
440
 16777216
100
AcDbPoint
 10
3376.680029666621
 20
1804.279355084806
 30
0.0
  0
ENDBLK
  5
135C
330
1345
100
AcDbEntity
  8
0
100
AcDbBlockEnd
  0
BLOCK
  5
1424
330
1423
100
AcDbEntity
  8
0
100
AcDbBlockBegin
  2
*D43
 70
     1
 10
0.0
 20
0.0
 30
0.0
  3
*D43
  1

  0
LINE
  5
167A
330
1423
100
AcDbEntity
  8
SUNPOU
 62
     0
440
 16777216
370
    -2
100
AcDbLine
 10
3276.680029666622
 20
2621.194208881484
 30
0.0
 11
3276.680029666622
 21
2775.282326301241
 31
0.0
  0
LINE
  5
167B
330
1423
100
AcDbEntity
  8
SUNPOU
 62
     0
440
 16777216
370
    -2
100
AcDbLine
 10
3376.680029666622
 20
2531.194208881484
 30
0.0
 11
3376.680029666622
 21
2775.282326301241
 31
0.0
  0
LINE
  5
167C
330
1423
100
AcDbEntity
  8
SUNPOU
 62
     0
440
 16777216
370
    -2
100
AcDbLine
 10
3236.680029666622
 20
2765.282326301241
 30
0.0
 11
3196.680029666622
 21
2765.282326301241
 31
0.0
  0
LINE
  5
167D
330
1423
100
AcDbEntity
  8
SUNPOU
 62
     0
440
 16777216
370
    -2
100
AcDbLine
 10
3416.680029666622
 20
2765.282326301241
 30
0.0
 11
3456.680029666622
 21
2765.282326301241
 31
0.0
  0
SOLID
  5
167E
330
1423
100
AcDbEntity
  8
SUNPOU
 62
     0
440
 16777216
100
AcDbTrace
 10
3236.680029666622
 20
2771.948992967908
 30
0.0
 11
3236.680029666622
 21
2758.615659634575
 31
0.0
 12
3276.680029666622
 22
2765.282326301241
 32
0.0
 13
3276.680029666622
 23
2765.282326301241
 33
0.0
  0
SOLID
  5
167F
330
1423
100
AcDbEntity
  8
SUNPOU
 62
     0
440
 16777216
100
AcDbTrace
 10
3416.680029666622
 20
2771.948992967908
 30
0.0
 11
3416.680029666622
 21
2758.615659634575
 31
0.0
 12
3376.680029666622
 22
2765.282326301241
 32
0.0
 13
3376.680029666622
 23
2765.282326301241
 33
0.0
  0
MTEXT
  5
1680
330
1423
100
AcDbEntity
  8
SUNPOU
 62
     0
440
 16777216
100
AcDbMText
 10
3326.680029666622
 20
2804.282326301241
 30
0.0
 40
50.0
 41
0.0
 71
     5
 72
     1
  1
\A1;100
 73
     1
 44
1.0
  0
POINT
  5
1681
330
1423
100
AcDbEntity
  8
DEFPOINTS
 62
     0
440
 16777216
100
AcDbPoint
 10
3276.680029666622
 20
2581.194208881484
 30
0.0
  0
POINT
  5
1682
330
1423
100
AcDbEntity
  8
DEFPOINTS
 62
     0
440
 16777216
100
AcDbPoint
 10
3376.680029666622
 20
2491.194208881484
 30
0.0
  0
POINT
  5
1683
330
1423
100
AcDbEntity
  8
DEFPOINTS
 62
     0
440
 16777216
100
AcDbPoint
 10
3376.680029666622
 20
2765.282326301241
 30
0.0
  0
ENDBLK
  5
142E
330
1423
100
AcDbEntity
  8
0
100
AcDbBlockEnd
  0
BLOCK
  5
1431
330
1430
100
AcDbEntity
  8
0
100
AcDbBlockBegin
  2
*D44
 70
     1
 10
0.0
 20
0.0
 30
0.0
  3
*D44
  1

  0
LINE
  5
1787
330
1430
100
AcDbEntity
  8
SUNPOU
 62
     0
440
 16777216
370
    -2
100
AcDbLine
 10
3316.680029666622
 20
2581.194208881484
 30
0.0
 11
3745.080219354139
 21
2581.194208881484
 31
0.0
  0
LINE
  5
1788
330
1430
100
AcDbEntity
  8
SUNPOU
 62
     0
440
 16777216
370
    -2
100
AcDbLine
 10
3416.680029666622
 20
2491.194208881484
 30
0.0
 11
3745.080219354139
 21
2491.194208881484
 31
0.0
  0
LINE
  5
1789
330
1430
100
AcDbEntity
  8
SUNPOU
 62
     0
440
 16777216
370
    -2
100
AcDbLine
 10
3735.080219354139
 20
2621.194208881484
 30
0.0
 11
3735.080219354139
 21
2661.194208881484
 31
0.0
  0
LINE
  5
178A
330
1430
100
AcDbEntity
  8
SUNPOU
 62
     0
440
 16777216
370
    -2
100
AcDbLine
 10
3735.080219354139
 20
2451.194208881484
 30
0.0
 11
3735.080219354139
 21
2411.194208881484
 31
0.0
  0
SOLID
  5
178B
330
1430
100
AcDbEntity
  8
SUNPOU
 62
     0
440
 16777216
100
AcDbTrace
 10
3728.413552687472
 20
2621.194208881484
 30
0.0
 11
3741.746886020805
 21
2621.194208881484
 31
0.0
 12
3735.080219354139
 22
2581.194208881484
 32
0.0
 13
3735.080219354139
 23
2581.194208881484
 33
0.0
  0
SOLID
  5
178C
330
1430
100
AcDbEntity
  8
SUNPOU
 62
     0
440
 16777216
100
AcDbTrace
 10
3728.413552687472
 20
2451.194208881484
 30
0.0
 11
3741.746886020805
 21
2451.194208881484
 31
0.0
 12
3735.080219354139
 22
2491.194208881484
 32
0.0
 13
3735.080219354139
 23
2491.194208881484
 33
0.0
  0
MTEXT
  5
178D
330
1430
100
AcDbEntity
  8
SUNPOU
 62
     0
440
 16777216
100
AcDbMText
 10
3696.080219354138
 20
2536.194208881485
 30
0.0
 40
50.0
 41
0.0
 71
     5
 72
     1
  1
\A1;90
 11
6.123031769111886E-17
 21
1.0
 31
0.0
 73
     1
 44
1.0
  0
POINT
  5
178E
330
1430
100
AcDbEntity
  8
DEFPOINTS
 62
     0
440
 16777216
100
AcDbPoint
 10
3276.680029666622
 20
2581.194208881484
 30
0.0
  0
POINT
  5
178F
330
1430
100
AcDbEntity
  8
DEFPOINTS
 62
     0
440
 16777216
100
AcDbPoint
 10
3376.680029666622
 20
2491.194208881484
 30
0.0
  0
POINT
  5
1790
330
1430
100
AcDbEntity
  8
DEFPOINTS
 62
     0
440
 16777216
100
AcDbPoint
 10
3735.080219354139
 20
2491.194208881484
 30
0.0
  0
ENDBLK
  5
143B
330
1430
100
AcDbEntity
  8
0
100
AcDbBlockEnd
  0
BLOCK
  5
144A
330
143D
100
AcDbEntity
  8
0
100
AcDbBlockBegin
  2
*D45
 70
     1
 10
0.0
 20
0.0
 30
0.0
  3
*D45
  1

  0
LINE
  5
177D
330
143D
100
AcDbEntity
  8
SUNPOU
 62
     0
440
 16777216
370
    -2
100
AcDbLine
 10
3416.680029666622
 20
2491.194208881484
 30
0.0
 11
3745.080219354139
 21
2491.194208881484
 31
0.0
  0
LINE
  5
177E
330
143D
100
AcDbEntity
  8
SUNPOU
 62
     0
440
 16777216
370
    -2
100
AcDbLine
 10
3416.680029666621
 20
2401.194208881484
 30
0.0
 11
3745.080219354139
 21
2401.194208881484
 31
0.0
  0
LINE
  5
177F
330
143D
100
AcDbEntity
  8
SUNPOU
 62
     0
440
 16777216
370
    -2
100
AcDbLine
 10
3735.080219354139
 20
2531.194208881484
 30
0.0
 11
3735.080219354139
 21
2571.194208881484
 31
0.0
  0
LINE
  5
1780
330
143D
100
AcDbEntity
  8
SUNPOU
 62
     0
440
 16777216
370
    -2
100
AcDbLine
 10
3735.080219354139
 20
2361.194208881484
 30
0.0
 11
3735.080219354139
 21
2321.194208881484
 31
0.0
  0
SOLID
  5
1781
330
143D
100
AcDbEntity
  8
SUNPOU
 62
     0
440
 16777216
100
AcDbTrace
 10
3728.413552687472
 20
2531.194208881484
 30
0.0
 11
3741.746886020805
 21
2531.194208881484
 31
0.0
 12
3735.080219354139
 22
2491.194208881484
 32
0.0
 13
3735.080219354139
 23
2491.194208881484
 33
0.0
  0
SOLID
  5
1782
330
143D
100
AcDbEntity
  8
SUNPOU
 62
     0
440
 16777216
100
AcDbTrace
 10
3728.413552687472
 20
2361.194208881484
 30
0.0
 11
3741.746886020805
 21
2361.194208881484
 31
0.0
 12
3735.080219354139
 22
2401.194208881484
 32
0.0
 13
3735.080219354139
 23
2401.194208881484
 33
0.0
  0
MTEXT
  5
1783
330
143D
100
AcDbEntity
  8
SUNPOU
 62
     0
440
 16777216
100
AcDbMText
 10
3696.080219354138
 20
2446.194208881485
 30
0.0
 40
50.0
 41
0.0
 71
     5
 72
     1
  1
\A1;90
 11
6.123031769111886E-17
 21
1.0
 31
0.0
 73
     1
 44
1.0
  0
POINT
  5
1784
330
143D
100
AcDbEntity
  8
DEFPOINTS
 62
     0
440
 16777216
100
AcDbPoint
 10
3376.680029666622
 20
2491.194208881484
 30
0.0
  0
POINT
  5
1785
330
143D
100
AcDbEntity
  8
DEFPOINTS
 62
     0
440
 16777216
100
AcDbPoint
 10
3376.680029666621
 20
2401.194208881484
 30
0.0
  0
POINT
  5
1786
330
143D
100
AcDbEntity
  8
DEFPOINTS
 62
     0
440
 16777216
100
AcDbPoint
 10
3735.080219354139
 20
2401.194208881484
 30
0.0
  0
ENDBLK
  5
1454
330
143D
100
AcDbEntity
  8
0
100
AcDbBlockEnd
  0
BLOCK
  5
14F8
330
14EF
100
AcDbEntity
  8
0
100
AcDbBlockBegin
  2
*D51
 70
     1
 10
0.0
 20
0.0
 30
0.0
  3
*D51
  1

  0
LINE
  5
1661
330
14EF
100
AcDbEntity
  8
SUNPOU
 62
     0
440
 16777216
370
    -2
100
AcDbLine
 10
2726.680029666621
 20
2731.194208881485
 30
0.0
 11
2655.97764052181
 21
2646.92575589215
 31
0.0
  0
MTEXT
  5
1662
330
14EF
100
AcDbEntity
  8
SUNPOU
 62
     0
440
 16777216
100
AcDbMText
 10
2772.843408696048
 20
2807.461933748798
 30
0.0
 40
50.0
 41
0.0
 71
     5
 72
     1
  1
\A1;R150
 11
0.6427489922255554
 21
0.7660768453575875
 31
0.0
 73
     1
 44
1.0
  0
SOLID
  5
1663
330
14EF
100
AcDbEntity
  8
SUNPOU
 62
     0
440
 16777216
100
AcDbTrace
 10
2650.870461552759
 20
2651.210749173654
 30
0.0
 11
2661.084819490861
 21
2642.640762610647
 31
0.0
 12
2630.267680832788
 22
2616.282682077847
 32
0.0
 13
2630.267680832788
 23
2616.282682077847
 33
0.0
  0
POINT
  5
1664
330
14EF
100
AcDbEntity
  8
DEFPOINTS
 62
     0
440
 16777216
100
AcDbPoint
 10
2630.267680832788
 20
2616.282682077847
 30
0.0
  0
POINT
  5
1665
330
14EF
100
AcDbEntity
  8
DEFPOINTS
 62
     0
440
 16777216
100
AcDbPoint
 10
2726.680029666621
 20
2731.194208881485
 30
0.0
  0
ENDBLK
  5
14FE
330
14EF
100
AcDbEntity
  8
0
100
AcDbBlockEnd
  0
BLOCK
  5
1767
330
1766
100
AcDbEntity
  8
0
100
AcDbBlockBegin
  2
*D64
 70
     1
 10
0.0
 20
0.0
 30
0.0
  3
*D64
  1

  0
LINE
  5
1773
330
1766
100
AcDbEntity
  8
SUNPOU
 62
     0
440
 16777216
370
    -2
100
AcDbLine
 10
2396.680029666621
 20
2361.194208881484
 30
0.0
 11
2396.680029666621
 21
1907.169858027526
 31
0.0
  0
LINE
  5
1774
330
1766
100
AcDbEntity
  8
SUNPOU
 62
     0
440
 16777216
370
    -2
100
AcDbLine
 10
2392.632078941674
 20
2361.285287772796
 30
0.0
 11
2392.632078941674
 21
1907.169858027526
 31
0.0
  0
LINE
  5
1775
330
1766
100
AcDbEntity
  8
SUNPOU
 62
     0
440
 16777216
370
    -2
100
AcDbLine
 10
2436.680029666621
 20
1917.169858027526
 30
0.0
 11
2476.680029666621
 21
1917.169858027526
 31
0.0
  0
LINE
  5
1776
330
1766
100
AcDbEntity
  8
SUNPOU
 62
     0
440
 16777216
370
    -2
100
AcDbLine
 10
2352.632078941674
 20
1917.169858027526
 30
0.0
 11
2312.632078941674
 21
1917.169858027526
 31
0.0
  0
MTEXT
  5
1777
330
1766
100
AcDbEntity
  8
SUNPOU
 62
     0
440
 16777216
100
AcDbMText
 10
2423.41218523138
 20
1955.503988185803
 30
0.0
 40
50.0
 41
0.0
 71
     5
 72
     1
  1
\A1;4
 73
     1
 44
1.0
  0
SOLID
  5
1778
330
1766
100
AcDbEntity
  8
SUNPOU
 62
     0
440
 16777216
100
AcDbTrace
 10
2436.680029666621
 20
1923.836524694193
 30
0.0
 11
2436.680029666621
 21
1910.503191360859
 31
0.0
 12
2396.680029666621
 22
1917.169858027526
 32
0.0
 13
2396.680029666621
 23
1917.169858027526
 33
0.0
  0
SOLID
  5
1779
330
1766
100
AcDbEntity
  8
SUNPOU
 62
     0
440
 16777216
100
AcDbTrace
 10
2352.632078941674
 20
1923.836524694193
 30
0.0
 11
2352.632078941674
 21
1910.503191360859
 31
0.0
 12
2392.632078941674
 22
1917.169858027526
 32
0.0
 13
2392.632078941674
 23
1917.169858027526
 33
0.0
  0
POINT
  5
177A
330
1766
100
AcDbEntity
  8
DEFPOINTS
 62
     0
440
 16777216
100
AcDbPoint
 10
2396.680029666621
 20
2401.194208881484
 30
0.0
  0
POINT
  5
177B
330
1766
100
AcDbEntity
  8
DEFPOINTS
 62
     0
440
 16777216
100
AcDbPoint
 10
2392.632078941674
 20
2401.285287772796
 30
0.0
  0
POINT
  5
177C
330
1766
100
AcDbEntity
  8
DEFPOINTS
 62
     0
440
 16777216
100
AcDbPoint
 10
2392.632078941674
 20
1917.169858027526
 30
0.0
  0
ENDBLK
  5
1768
330
1766
100
AcDbEntity
  8
0
100
AcDbBlockEnd
  0
BLOCK
  5
1793
330
1792
100
AcDbEntity
  8
0
100
AcDbBlockBegin
  2
*D65
 70
     1
 10
0.0
 20
0.0
 30
0.0
  3
*D65
  1

  0
LINE
  5
1795
330
1792
100
AcDbEntity
  8
SUNPOU
 62
     0
440
 16777216
370
    -2
100
AcDbLine
 10
2432.680029666621
 20
4221.194208881485
 30
0.0
 11
2432.680029666621
 21
4692.884323861677
 31
0.0
  0
LINE
  5
1796
330
1792
100
AcDbEntity
  8
SUNPOU
 62
     0
440
 16777216
370
    -2
100
AcDbLine
 10
3376.680029666622
 20
2531.194208881484
 30
0.0
 11
3376.680029666622
 21
4692.884323861677
 31
0.0
  0
LINE
  5
1797
330
1792
100
AcDbEntity
  8
SUNPOU
 62
     0
440
 16777216
370
    -2
100
AcDbLine
 10
2472.680029666621
 20
4682.884323861677
 30
0.0
 11
3336.680029666622
 21
4682.884323861677
 31
0.0
  0
SOLID
  5
1798
330
1792
100
AcDbEntity
  8
SUNPOU
 62
     0
440
 16777216
100
AcDbTrace
 10
2472.680029666621
 20
4689.550990528344
 30
0.0
 11
2472.680029666621
 21
4676.21765719501
 31
0.0
 12
2432.680029666621
 22
4682.884323861677
 32
0.0
 13
2432.680029666621
 23
4682.884323861677
 33
0.0
  0
SOLID
  5
1799
330
1792
100
AcDbEntity
  8
SUNPOU
 62
     0
440
 16777216
100
AcDbTrace
 10
3336.680029666622
 20
4689.550990528344
 30
0.0
 11
3336.680029666622
 21
4676.21765719501
 31
0.0
 12
3376.680029666622
 22
4682.884323861677
 32
0.0
 13
3376.680029666622
 23
4682.884323861677
 33
0.0
  0
MTEXT
  5
179A
330
1792
100
AcDbEntity
  8
SUNPOU
 62
     0
440
 16777216
100
AcDbMText
 10
2904.680029666621
 20
4721.884323861677
 30
0.0
 40
50.0
 41
0.0
 71
     5
 72
     1
  1
\A1;944
 73
     1
 44
1.0
  0
POINT
  5
179B
330
1792
100
AcDbEntity
  8
DEFPOINTS
 62
     0
440
 16777216
100
AcDbPoint
 10
2432.680029666621
 20
4181.194208881485
 30
0.0
  0
POINT
  5
179C
330
1792
100
AcDbEntity
  8
DEFPOINTS
 62
     0
440
 16777216
100
AcDbPoint
 10
3376.680029666622
 20
2491.194208881484
 30
0.0
  0
POINT
  5
179D
330
1792
100
AcDbEntity
  8
DEFPOINTS
 62
     0
440
 16777216
100
AcDbPoint
 10
3376.680029666622
 20
4682.884323861677
 30
0.0
  0
ENDBLK
  5
1794
330
1792
100
AcDbEntity
  8
0
100
AcDbBlockEnd
  0
ENDSEC
  0
SECTION
  2
ENTITIES
  0
TEXT
  5
5F
330
17
100
AcDbEntity
  8
SUNPOU
100
AcDbText
 10
7829.360191537064
 20
320.0
 30
0.0
 40
60.0
  1
20
100
AcDbText
  0
LINE
  5
160
330
17
100
AcDbEntity
  8
SEIHIN
100
AcDbLine
 10
2576.680029666621
 20
4181.194208881486
 30
0.0
 11
2576.680029666621
 21
2731.194208881485
 31
0.0
  0
LINE
  5
162
330
17
100
AcDbEntity
  8
SEIHIN
100
AcDbLine
 10
2392.63002966662
 20
2401.194208881484
 30
0.0
 11
3376.680029666621
 21
2401.194208881484
 31
0.0
  0
LINE
  5
16E
330
17
100
AcDbEntity
  8
SEIHIN
100
AcDbLine
 10
2726.680029666621
 20
2581.194208881485
 30
0.0
 11
3276.680029666622
 21
2581.194208881484
 31
0.0
  0
POINT
  5
175
330
17
100
AcDbEntity
  8
TEN
100
AcDbPoint
 10
2576.680029666621
 20
2581.194208881485
 30
0.0
  0
LINE
  5
1B7
330
17
100
AcDbEntity
  8
SEIHIN
100
AcDbLine
 10
5667.48632149221
 20
2401.194208881485
 30
0.0
 11
6667.48632149221
 21
2401.194208881485
 31
0.0
  0
LINE
  5
1D1
330
17
100
AcDbEntity
  8
SEIHIN
100
AcDbLine
 10
5667.48632149221
 20
4181.194208881485
 30
0.0
 11
6667.48632149221
 21
4181.194208881485
 31
0.0
  0
LINE
  5
1D6
330
17
100
AcDbEntity
  8
1HASEN
100
AcDbLine
 10
5667.48632149221
 20
4281.194208881485
 30
0.0
 11
5667.48632149221
 21
2336.194208881484
 31
0.0
  0
LINE
  5
244
330
17
100
AcDbEntity
  8
SEIHIN
100
AcDbLine
 10
4667.48632149221
 20
4181.194208881485
 30
0.0
 11
4667.48632149221
 21
2401.194208881485
 31
0.0
  0
LINE
  5
245
330
17
100
AcDbEntity
  8
SEIHIN
100
AcDbLine
 10
5667.48632149221
 20
2401.194208881485
 30
0.0
 11
4667.48632149221
 21
2401.194208881485
 31
0.0
  0
LINE
  5
246
330
17
100
AcDbEntity
  8
SEIHIN
100
AcDbLine
 10
5667.48632149221
 20
2581.194208881485
 30
0.0
 11
4674.98632149221
 21
2581.194208881484
 31
0.0
  0
LINE
  5
247
330
17
100
AcDbEntity
  8
SEIHIN
100
AcDbLine
 10
5667.48632149221
 20
4181.194208881485
 30
0.0
 11
4667.48632149221
 21
4181.194208881485
 31
0.0
  0
LINE
  5
37A
330
17
100
AcDbEntity
  8
HOJO
100
AcDbLine
 10
3962.284090254785
 20
4729.079370884769
 30
0.0
 11
3520.752965099204
 21
4729.079370884769
 31
0.0
  0
TEXT
  5
39B
330
17
100
AcDbEntity
  8
SUNPOU
100
AcDbText
 10
7269.360191537067
 20
0.0
 30
0.0
 40
50.0
  1
新和コンクリート工業株式会社
100
AcDbText
  0
TEXT
  5
39C
330
17
100
AcDbEntity
  8
SUNPOU
100
AcDbText
 10
7697.6935248704
 20
125.0
 30
0.0
 40
50.0
  1
製図
 72
     4
 11
7749.360191537067
 21
150.0
 31
0.0
100
AcDbText
  0
TEXT
  5
39D
330
17
100
AcDbEntity
  8
SUNPOU
100
AcDbText
 10
7696.026858203734
 20
225.0000000000001
 30
0.0
 40
50.0
  1
設計
 72
     4
 11
7749.360191537067
 21
250.0000000000001
 31
0.0
100
AcDbText
  0
TEXT
  5
39E
330
17
100
AcDbEntity
  8
SUNPOU
100
AcDbText
 10
7251.026858203734
 20
125.0000000000003
 30
0.0
 40
50.0
  1
認
 72
     4
 11
7274.360191537067
 21
150.0000000000003
 31
0.0
100
AcDbText
  0
TEXT
  5
39F
330
17
100
AcDbEntity
  8
SUNPOU
100
AcDbText
 10
7251.026858203734
 20
226.6666666666673
 30
0.0
 40
50.0
  1
承
 72
     4
 11
7274.360191537067
 21
250.0000000000006
 31
0.0
100
AcDbText
  0
TEXT
  5
3A0
330
17
100
AcDbEntity
  8
SUNPOU
100
AcDbText
 10
6724.360191537067
 20
235.0000000000002
 30
0.0
 40
50.0
  1
図　面　番　号
 72
     4
 11
6929.360191537067
 21
260.0000000000002
 31
0.0
100
AcDbText
  0
TEXT
  5
3A1
330
17
100
AcDbEntity
  8
SUNPOU
100
AcDbText
 10
7709.360191537067
 20
340.0000000000001
 30
0.0
 40
50.0
  1
１／
100
AcDbText
  0
TEXT
  5
3A2
330
17
100
AcDbEntity
  8
SUNPOU
100
AcDbText
 10
7416.026858203734
 20
325.0000000000002
 30
0.0
 40
50.0
  1
縮　　尺
 72
     4
 11
7529.360191537067
 21
350.0000000000002
 31
0.0
100
AcDbText
  0
TEXT
  5
3A3
330
17
100
AcDbEntity
  8
SUNPOU
100
AcDbText
 10
7416.026858203734
 20
425.0
 30
0.0
 40
50.0
  1
鉄 筋 量
 72
     4
 11
7529.360191537067
 21
450.0
 31
0.0
100
AcDbText
  0
TEXT
  5
3A4
330
17
100
AcDbEntity
  8
SUNPOU
100
AcDbText
 10
7416.026858203734
 20
525.0
 30
0.0
 40
50.0
  1
製 造 数
 72
     4
 11
7529.360191537067
 21
550.0
 31
0.0
100
AcDbText
  0
TEXT
  5
3A5
330
17
100
AcDbEntity
  8
SUNPOU
100
AcDbText
 10
8009.360191537067
 20
420.0
 30
0.0
 40
50.0
  1
ｋｇ
 72
     2
 11
8109.360191537067
 21
420.0
 31
0.0
100
AcDbText
  0
TEXT
  5
3A6
330
17
100
AcDbEntity
  8
SUNPOU
100
AcDbText
 10
7259.360191537067
 20
420.0
 30
0.0
 40
50.0
  1
ｋｇ
 72
     2
 11
7359.360191537067
 21
420.0
 31
0.0
100
AcDbText
  0
TEXT
  5
3A7
330
17
100
AcDbEntity
  8
SUNPOU
100
AcDbText
 10
6669.360191537067
 20
325.0000000000002
 30
0.0
 40
50.0
  1
年 月 日
 72
     4
 11
6779.360191537067
 21
350.0000000000002
 31
0.0
100
AcDbText
  0
TEXT
  5
3A8
330
17
100
AcDbEntity
  8
SUNPOU
100
AcDbText
 10
6666.026858203734
 20
425.0
 30
0.0
 40
50.0
  1
製品質量
 72
     4
 11
6779.360191537067
 21
450.0
 31
0.0
100
AcDbText
  0
TEXT
  5
3A9
330
17
100
AcDbEntity
  8
SUNPOU
100
AcDbText
 10
6667.6935248704
 20
525.0
 30
0.0
 40
50.0
  1
業 者 名
 72
     4
 11
6779.360191537067
 21
550.0
 31
0.0
100
AcDbText
  0
TEXT
  5
3AA
330
17
100
AcDbEntity
  8
SUNPOU
100
AcDbText
 10
6666.026858203734
 20
650.0
 30
0.0
 40
50.0
  1
名　　称
 72
     4
 11
6779.360191537067
 21
675.0
 31
0.0
100
AcDbText
  0
LINE
  5
3AB
330
17
100
AcDbEntity
  8
SUNPOU
100
AcDbLine
 10
7229.360191537067
 20
220.0000000000002
 30
0.0
 11
6629.360191537067
 21
220.0000000000002
 31
0.0
  0
LINE
  5
3AC
330
17
100
AcDbEntity
  8
SUNPOU
100
AcDbLine
 10
7819.360191537067
 20
99.99999999999972
 30
0.0
 11
7819.360191537067
 21
299.9999999999999
 31
0.0
  0
LINE
  5
3AD
330
17
100
AcDbEntity
  8
SUNPOU
100
AcDbLine
 10
7679.360191537067
 20
99.99999999999972
 30
0.0
 11
7679.360191537067
 21
299.9999999999999
 31
0.0
  0
LINE
  5
3AE
330
17
100
AcDbEntity
  8
SUNPOU
100
AcDbLine
 10
7319.360191537067
 20
99.99999999999989
 30
0.0
 11
7319.360191537067
 21
300.0000000000001
 31
0.0
  0
LINE
  5
3AF
330
17
100
AcDbEntity
  8
SUNPOU
100
AcDbLine
 10
7229.360191537067
 20
99.99999999999989
 30
0.0
 11
7229.360191537067
 21
300.0000000000001
 31
0.0
  0
LINE
  5
3B0
330
17
100
AcDbEntity
  8
SUNPOU
100
AcDbLine
 10
6929.360191537067
 20
300.0000000000002
 30
0.0
 11
6929.360191537067
 21
750.0
 31
0.0
  0
LINE
  5
3B1
330
17
100
AcDbEntity
  8
SUNPOU
100
AcDbLine
 10
7679.360191537067
 20
300.0000000000002
 30
0.0
 11
7679.360191537067
 21
600.0
 31
0.0
  0
LINE
  5
3B2
330
17
100
AcDbEntity
  8
SUNPOU
100
AcDbLine
 10
7379.360191537067
 20
300.0000000000002
 30
0.0
 11
7379.360191537067
 21
600.0
 31
0.0
  0
LINE
  5
3B3
330
17
100
AcDbEntity
  8
SUNPOU
100
AcDbLine
 10
8129.360191537067
 20
600.0
 30
0.0
 11
6629.360191537067
 21
600.0
 31
0.0
  0
LINE
  5
3B4
330
17
100
AcDbEntity
  8
SUNPOU
100
AcDbLine
 10
8129.360191537067
 20
500.0
 30
0.0
 11
6629.360191537067
 21
500.0
 31
0.0
  0
LINE
  5
3B5
330
17
100
AcDbEntity
  8
SUNPOU
100
AcDbLine
 10
8129.360191537067
 20
400.0
 30
0.0
 11
6629.360191537067
 21
400.0
 31
0.0
  0
LINE
  5
3B6
330
17
100
AcDbEntity
  8
SUNPOU
100
AcDbLine
 10
8129.360191537067
 20
299.9999999999999
 30
0.0
 11
6629.360191537067
 21
300.0000000000007
 31
0.0
  0
LINE
  5
3B7
330
17
100
AcDbEntity
  8
HAIKIN
100
AcDbLine
 10
6629.360191537067
 20
750.0
 30
0.0
 11
8129.360191537067
 21
750.0
 31
0.0
  0
LINE
  5
3B8
330
17
100
AcDbEntity
  8
HAIKIN
100
AcDbLine
 10
6629.360191537067
 20
100.0000000000002
 30
0.0
 11
6629.360191537067
 21
750.0
 31
0.0
  0
LINE
  5
3B9
330
17
100
AcDbEntity
  8
SUNPOU
100
AcDbLine
 10
469.3601915370673
 20
5540.0
 30
0.0
 11
469.3601915370673
 21
5440.0
 31
0.0
  0
LINE
  5
3BA
330
17
100
AcDbEntity
  8
SUNPOU
100
AcDbLine
 10
969.3601915370673
 20
5540.0
 30
0.0
 11
469.3601915370673
 21
5540.0
 31
0.0
  0
LINE
  5
3BB
330
17
100
AcDbEntity
  8
SUNPOU
100
AcDbLine
 10
969.3601915370673
 20
5440.0
 30
0.0
 11
969.3601915370673
 21
5540.0
 31
0.0
  0
LINE
  5
3BC
330
17
100
AcDbEntity
  8
HAIKIN
100
AcDbLine
 10
469.3601915370673
 20
100.0
 30
0.0
 11
8129.360191537067
 21
100.0
 31
0.0
  0
LINE
  5
3BD
330
17
100
AcDbEntity
  8
HAIKIN
100
AcDbLine
 10
469.3601915370673
 20
5440.0
 30
0.0
 11
8129.360191537067
 21
5440.0
 31
0.0
  0
LINE
  5
3BE
330
17
100
AcDbEntity
  8
HAIKIN
100
AcDbLine
 10
8129.360191537067
 20
5440.0
 30
0.0
 11
8129.360191537067
 21
100.0
 31
0.0
  0
TEXT
  5
3BF
330
17
100
AcDbEntity
  8
SUNPOU
100
AcDbText
 10
543.3601915370673
 20
5460.0
 30
0.0
 40
60.0
  1
Ｈ－２－共
 72
     4
 11
719.3601915370673
 21
5490.0
 31
0.0
100
AcDbText
  0
LINE
  5
3C0
330
17
100
AcDbEntity
  8
HAIKIN
100
AcDbLine
 10
469.3601915370673
 20
100.0
 30
0.0
 11
469.3601915370673
 21
5440.0
 31
0.0
  0
LINE
  5
3DC
330
17
100
AcDbEntity
  8
HOJO
100
AcDbLine
 10
3962.284090254785
 20
4849.079370884769
 30
0.0
 11
3520.752965099204
 21
4849.079370884769
 31
0.0
  0
LINE
  5
3EF
330
17
100
AcDbEntity
  8
HOJO
100
AcDbLine
 10
1944.680029666621
 20
4839.089016711181
 30
0.0
 11
1944.680029666621
 21
4229.079370884769
 31
0.0
  0
LINE
  5
3F0
330
17
100
AcDbEntity
  8
HOJO
100
AcDbLine
 10
1824.680029666621
 20
4839.089016711181
 30
0.0
 11
1824.680029666621
 21
4229.079370884769
 31
0.0
  0
LINE
  5
3F1
330
17
100
AcDbEntity
  8
HOJO
100
AcDbLine
 10
1704.680029666621
 20
4839.089016711181
 30
0.0
 11
1704.680029666621
 21
4229.079370884769
 31
0.0
  0
LINE
  5
3F8
330
17
100
AcDbEntity
  8
HOJO
100
AcDbLine
 10
3676.680029666621
 20
2689.079370884769
 30
0.0
 11
3676.680029666621
 21
2079.069725058356
 31
0.0
  0
LINE
  5
3FD
330
17
100
AcDbEntity
  8
HOJO
100
AcDbLine
 10
7167.48632149221
 20
2709.079370884769
 30
0.0
 11
7167.48632149221
 21
2099.069725058356
 31
0.0
  0
LINE
  5
3FE
330
17
100
AcDbEntity
  8
HOJO
100
AcDbLine
 10
7287.48632149221
 20
2709.079370884769
 30
0.0
 11
7287.48632149221
 21
2099.069725058356
 31
0.0
  0
LINE
  5
3FF
330
17
100
AcDbEntity
  8
HOJO
100
AcDbLine
 10
7407.48632149221
 20
2709.079370884769
 30
0.0
 11
7407.48632149221
 21
2099.069725058356
 31
0.0
  0
LINE
  5
434
330
17
100
AcDbEntity
  8
SEIHIN
100
AcDbLine
 10
2551.680029666621
 20
4181.194208881486
 30
0.0
 11
2551.680029666621
 21
2731.194208881485
 31
0.0
  0
LINE
  5
435
330
17
100
AcDbEntity
  8
SEIHIN
100
AcDbLine
 10
2726.680029666621
 20
2556.194208881485
 30
0.0
 11
3276.680029666622
 21
2556.194208881485
 31
0.0
  0
LINE
  5
437
330
17
100
AcDbEntity
  8
SEIHIN
100
AcDbLine
 10
4674.986321492209
 20
4181.194208881485
 30
0.0
 11
4674.986321492209
 21
2556.194208881484
 31
0.0
  0
LINE
  5
43A
330
17
100
AcDbEntity
  8
SEIHIN
100
AcDbLine
 10
4674.98632149221
 20
2556.194208881485
 30
0.0
 11
4667.48632149221
 21
2556.194208881485
 31
0.0
  0
LINE
  5
43B
330
17
100
AcDbEntity
  8
SEIHIN
100
AcDbLine
 10
6659.986321492209
 20
4181.194208881485
 30
0.0
 11
6659.98632149221
 21
2556.194208881484
 31
0.0
  0
LINE
  5
43C
330
17
100
AcDbEntity
  8
SEIHIN
100
AcDbLine
 10
6659.98632149221
 20
2556.194208881485
 30
0.0
 11
6667.48632149221
 21
2556.194208881485
 31
0.0
  0
LINE
  5
43D
330
17
100
AcDbEntity
  8
SEIHIN
100
AcDbLine
 10
5667.48632149221
 20
2581.194208881485
 30
0.0
 11
6659.98632149221
 21
2581.194208881484
 31
0.0
  0
LINE
  5
43E
330
17
100
AcDbEntity
  8
SEIHIN
100
AcDbLine
 10
6667.486321492209
 20
4181.194208881485
 30
0.0
 11
6667.48632149221
 21
2401.194208881485
 31
0.0
  0
TEXT
  5
443
330
17
100
AcDbEntity
  8
SUNPOU
100
AcDbText
 10
6994.023302153808
 20
420.0
 30
0.0
 40
50.0
  1
2075
 72
     2
 11
7169.023302153808
 21
420.0
 31
0.0
100
AcDbText
  0
TEXT
  5
447
330
17
100
AcDbEntity
  8
SUNPOU
100
AcDbText
 10
7087.320567567876
 20
650.0
 30
0.0
 40
50.0
  1
水路用Ｌ形ブロック　H1600
 72
     4
 11
7487.320567567876
 21
675.0
 31
0.0
100
AcDbText
  0
TEXT
  5
448
330
17
100
AcDbEntity
  8
SUNPOU
100
AcDbText
 10
7391.803107551493
 20
782.2041775471989
 30
0.0
 40
50.0
  1
種～　種同一形状　構造図
 72
     4
 11
7743.46977421816
 21
807.2041775471989
 31
0.0
100
AcDbText
  0
LINE
  5
449
330
17
100
AcDbEntity
  8
SUNPOU
100
AcDbLine
 10
7346.090963390143
 20
832.2388009880342
 30
0.0
 11
7373.614263878429
 21
832.2388009880342
 31
0.0
  0
LINE
  5
44A
330
17
100
AcDbEntity
  8
SUNPOU
100
AcDbLine
 10
7346.090963390143
 20
781.5131807400576
 30
0.0
 11
7373.614263878429
 21
781.5131807400576
 31
0.0
  0
LINE
  5
44B
330
17
100
AcDbEntity
  8
SUNPOU
100
AcDbLine
 10
7359.852613634286
 20
832.2388009880342
 30
0.0
 11
7359.852613634286
 21
781.5131807400576
 31
0.0
  0
LINE
  5
44C
330
17
100
AcDbEntity
  8
SUNPOU
100
AcDbLine
 10
7505.11445218317
 20
832.2388009880342
 30
0.0
 11
7532.637752671457
 21
832.2388009880342
 31
0.0
  0
LINE
  5
44D
330
17
100
AcDbEntity
  8
SUNPOU
100
AcDbLine
 10
7505.11445218317
 20
781.5131807400576
 30
0.0
 11
7532.637752671457
 21
781.5131807400576
 31
0.0
  0
LINE
  5
44E
330
17
100
AcDbEntity
  8
SUNPOU
100
AcDbLine
 10
7518.876102427314
 20
832.2388009880342
 30
0.0
 11
7518.876102427314
 21
781.5131807400576
 31
0.0
  0
LINE
  5
44F
330
17
100
AcDbEntity
  8
SUNPOU
100
AcDbLine
 10
7518.876102427314
 20
781.5131807400576
 30
0.0
 11
7546.3994029156
 21
781.5131807400576
 31
0.0
  0
LINE
  5
450
330
17
100
AcDbEntity
  8
SUNPOU
100
AcDbLine
 10
7518.876102427314
 20
832.2388009880342
 30
0.0
 11
7546.3994029156
 21
832.2388009880342
 31
0.0
  0
LINE
  5
451
330
17
100
AcDbEntity
  8
SUNPOU
100
AcDbLine
 10
7532.637752671457
 20
832.2388009880342
 30
0.0
 11
7532.637752671457
 21
781.5131807400576
 31
0.0
  0
LINE
  5
452
330
17
100
AcDbEntity
  8
SUNPOU
100
AcDbLine
 10
7546.3994029156
 20
832.2388009880342
 30
0.0
 11
7546.3994029156
 21
781.5131807400576
 31
0.0
  0
LINE
  5
453
330
17
100
AcDbEntity
  8
SUNPOU
100
AcDbLine
 10
7532.637752671457
 20
832.2388009880342
 30
0.0
 11
7560.161053159743
 21
832.2388009880342
 31
0.0
  0
LINE
  5
454
330
17
100
AcDbEntity
  8
SUNPOU
100
AcDbLine
 10
7532.637752671457
 20
781.5131807400576
 30
0.0
 11
7560.161053159743
 21
781.5131807400576
 31
0.0
  0
LINE
  5
468
330
17
100
AcDbEntity
  8
HOJO
100
AcDbLine
 10
4316.053094424546
 20
1934.079370884769
 30
0.0
 11
3874.521969268964
 21
1934.079370884769
 31
0.0
  0
LINE
  5
469
330
17
100
AcDbEntity
  8
HOJO
100
AcDbLine
 10
4316.053094424546
 20
2054.079370884769
 30
0.0
 11
3874.521969268964
 21
2054.079370884769
 31
0.0
  0
LINE
  5
46A
330
17
100
AcDbEntity
  8
HOJO
100
AcDbLine
 10
4316.053094424546
 20
2174.079370884769
 30
0.0
 11
3874.521969268964
 21
2174.079370884769
 31
0.0
  0
DIMENSION
  5
586
330
17
100
AcDbEntity
  8
SUNPOU
100
AcDbDimension
  2
*D8
 10
6667.48632149221
 20
4682.884323861677
 30
0.0
 11
5667.48632149221
 21
4721.884323861677
 31
0.0
 70
    32
 71
     5
 42
2000.0
  3
A3-20
100
AcDbAlignedDimension
 13
4667.48632149221
 23
4181.194208881485
 33
0.0
 14
6667.48632149221
 24
4181.194208881485
 34
0.0
100
AcDbRotatedDimension
  0
LINE
  5
656
330
17
100
AcDbEntity
  8
HOJO
100
AcDbLine
 10
3962.284090254785
 20
4609.079370884769
 30
0.0
 11
3520.752965099204
 21
4609.079370884769
 31
0.0
  0
TEXT
  5
698
330
17
100
AcDbEntity
  8
SUNPOU
100
AcDbText
 10
6675.115469490814
 20
791.2088067156765
 30
0.0
 40
50.0
  1
水路幅1.90～4.10m
 72
     4
 11
6953.448802824147
 21
816.2088067156765
 31
0.0
100
AcDbText
  0
LEADER
  5
E48
330
17
100
AcDbEntity
  8
SUNPOU
100
AcDbLeader
  3
A3-20
 76
     3
 10
5397.093201777083
 20
2458.098436943192
 30
0.0
 10
5560.883845236858
 20
2171.710657316355
 30
0.0
 10
5966.854406687627
 20
2171.710657316355
 30
0.0
  0
TEXT
  5
E49
330
17
100
AcDbEntity
  8
SUNPOU
100
AcDbText
 10
5658.428100494593
 20
2180.990296953223
 30
0.0
 40
49.99999999999999
  1
つなぎ鉄筋
 41
0.8
100
AcDbText
  0
LEADER
  5
E4A
330
17
100
AcDbEntity
  8
SUNPOU
100
AcDbLeader
  3
A3-20
 76
     3
 10
5263.783304616871
 20
2458.098436943192
 30
0.0
 10
5427.573948076646
 20
2171.710657316355
 30
0.0
 10
5833.544509527415
 20
2171.710657316355
 30
0.0
  0
LINE
  5
F15
330
17
100
AcDbEntity
  8
SEIHIN
100
AcDbLine
 10
3376.680029666622
 20
2491.194208881484
 30
0.0
 11
3376.680029666621
 21
2401.194208881484
 31
0.0
  0
LINE
  5
F25
330
17
100
AcDbEntity
  8
SEIHIN
100
AcDbLine
 10
2576.680029666621
 20
4181.194208881485
 30
0.0
 11
2432.680029666621
 21
4181.194208881485
 31
0.0
  0
LINE
  5
103B
330
17
100
AcDbEntity
  8
HAIKIN
100
AcDbLine
 10
3376.680029666622
 20
2461.194208881484
 30
0.0
 11
3486.680029666621
 21
2461.194208881484
 31
0.0
  0
LINE
  5
10AC
330
17
100
AcDbEntity
  8
HAIKIN
  6
HIDDEN
100
AcDbLine
 10
3376.680029666621
 20
2461.194208881484
 30
0.0
 11
2976.680029666622
 21
2461.194208881487
 31
0.0
  0
DIMENSION
  5
1273
330
17
100
AcDbEntity
  8
SUNPOU
100
AcDbDimension
  2
*D25
 10
7222.130407741497
 20
2401.194208881484
 30
0.0
 11
7183.130407741496
 21
3291.194208881486
 31
0.0
 70
    32
 71
     5
 42
1780.0
  3
A3-20
100
AcDbAlignedDimension
 13
6667.48632149221
 23
4181.194208881485
 33
0.0
 14
6667.48632149221
 24
2401.194208881485
 34
0.0
 50
90.0
100
AcDbRotatedDimension
  0
DIMENSION
  5
1287
330
17
100
AcDbEntity
  8
SUNPOU
100
AcDbDimension
  2
*D26
 10
7089.254431383139
 20
2401.194208881485
 30
0.0
 11
7050.254431383138
 21
2491.194208881485
 31
0.0
 70
    32
 71
     5
 42
179.9999999999995
  3
A3-20
100
AcDbAlignedDimension
 13
6659.98632149221
 23
2581.194208881484
 33
0.0
 14
6667.48632149221
 24
2401.194208881485
 34
0.0
 50
90.0
100
AcDbRotatedDimension
  0
DIMENSION
  5
1294
330
17
100
AcDbEntity
  8
SUNPOU
100
AcDbDimension
  2
*D27
 10
7089.254431383139
 20
2581.194208881484
 30
0.0
 11
7050.254431383138
 21
3381.194208881486
 31
0.0
 70
    32
 71
     5
 42
1600.000000000001
  3
A3-20
100
AcDbAlignedDimension
 13
6667.48632149221
 23
4181.194208881485
 33
0.0
 14
6699.98632149221
 24
2581.194208881484
 34
0.0
 50
90.0
100
AcDbRotatedDimension
  0
DIMENSION
  5
12C6
330
17
100
AcDbEntity
  8
SUNPOU
100
AcDbDimension
  2
*D29
 10
1821.0377863906
 20
2401.194208881484
 30
0.0
 11
1782.037786390599
 21
3291.194208881485
 31
0.0
 70
    32
 71
     5
 42
1780.000000000001
  3
A3-20
100
AcDbAlignedDimension
 13
2432.680029666621
 23
4181.194208881485
 33
0.0
 14
2393.246183512774
 24
2401.194208881484
 34
0.0
 50
90.0
100
AcDbRotatedDimension
  0
DIMENSION
  5
12DE
330
17
100
AcDbEntity
  8
SUNPOU
100
AcDbDimension
  2
*D30
 10
1948.761034676427
 20
2581.194208881485
 30
0.0
 11
1909.761034676426
 21
3381.194208881486
 31
0.0
 70
    32
 71
     5
 42
1600.0
  3
A3-20
100
AcDbAlignedDimension
 13
2432.680029666621
 23
4181.194208881485
 33
0.0
 14
2576.680029666621
 24
2581.194208881485
 34
0.0
 50
90.0
100
AcDbRotatedDimension
  0
LINE
  5
12E0
330
17
100
AcDbEntity
  8
SEIHIN
100
AcDbLine
 10
2432.680029666621
 20
4181.194208881485
 30
0.0
 11
2392.63002966662
 21
2401.194208881484
 31
0.0
  0
ARC
  5
12E1
330
17
100
AcDbEntity
  8
SEIHIN
100
AcDbCircle
 10
2726.680029666621
 20
2731.194208881485
 30
0.0
 40
150.0
100
AcDbArc
 50
180.0
 51
269.9999999999999
  0
ARC
  5
12E5
330
17
100
AcDbEntity
  8
SEIHIN
100
AcDbCircle
 10
2726.680029666621
 20
2731.194208881485
 30
0.0
 40
175.0
100
AcDbArc
 50
180.0
 51
270.0
  0
DIMENSION
  5
1300
330
17
100
AcDbEntity
  8
SUNPOU
100
AcDbDimension
  2
*D32
 10
1948.761034676427
 20
2401.194208881484
 30
0.0
 11
1909.761034676427
 21
2491.194208881485
 31
0.0
 70
    32
 71
     5
 42
180.0000000000009
  3
A3-20
100
AcDbAlignedDimension
 13
2576.680029666621
 23
2581.194208881485
 33
0.0
 14
2392.63002966662
 24
2401.194208881484
 34
0.0
 50
90.0
100
AcDbRotatedDimension
  0
DIMENSION
  5
130D
330
17
100
AcDbEntity
  8
SUNPOU
100
AcDbDimension
  2
*D33
 10
2576.680029666621
 20
4553.673595213944
 30
0.0
 11
2504.680029666621
 21
4592.673595213944
 31
0.0
 70
    32
 71
     5
 42
144.0
  3
A3-20
100
AcDbAlignedDimension
 13
2432.680029666621
 23
4181.194208881485
 33
0.0
 14
2576.680029666621
 24
4181.194208881485
 34
0.0
100
AcDbRotatedDimension
  0
DIMENSION
  5
131F
330
17
100
AcDbEntity
  8
SUNPOU
100
AcDbDimension
  2
*D34
 10
3376.680029666622
 20
4553.673595213944
 30
0.0
 11
2976.680029666622
 21
4592.673595213944
 31
0.0
 70
    32
 71
     5
 42
800.0000000000018
  3
A3-20
100
AcDbAlignedDimension
 13
2576.680029666621
 23
4181.194208881485
 33
0.0
 14
3376.680029666622
 24
2581.194208881484
 34
0.0
100
AcDbRotatedDimension
  0
DIMENSION
  5
1337
330
17
100
AcDbEntity
  8
SUNPOU
100
AcDbDimension
  2
*D35
 10
2396.680029666621
 20
2056.622823295338
 30
0.0
 11
2486.680029666621
 21
2095.622823295338
 31
0.0
 70
    32
 71
     5
 42
180.0
  3
A3-20
100
AcDbAlignedDimension
 13
2576.680029666621
 23
2581.194208881485
 33
0.0
 14
2396.680029666621
 24
2581.194208881485
 34
0.0
100
AcDbRotatedDimension
  0
DIMENSION
  5
1344
330
17
100
AcDbEntity
  8
SUNPOU
100
AcDbDimension
  2
*D36
 10
3376.680029666621
 20
1917.169858027526
 30
0.0
 11
2886.680029666621
 21
1956.169858027526
 31
0.0
 70
    32
 71
     5
 42
980.0
  3
A3-20
100
AcDbAlignedDimension
 13
2396.680029666621
 23
2401.194208881484
 33
0.0
 14
3376.680029666621
 24
2401.194208881484
 34
0.0
100
AcDbRotatedDimension
  0
DIMENSION
  5
1351
330
17
100
AcDbEntity
  8
SUNPOU
100
AcDbDimension
  2
*D37
 10
3376.680029666621
 20
1804.279355084806
 30
0.0
 11
2884.65502966662
 21
1843.279355084806
 31
0.0
 70
    32
  1
984
 71
     5
 42
984.0500000000011
  3
A3-20
100
AcDbAlignedDimension
 13
2392.63002966662
 23
2401.194208881484
 33
0.0
 14
3376.680029666621
 24
2401.194208881484
 34
0.0
100
AcDbRotatedDimension
  0
LINE
  5
1372
330
17
100
AcDbEntity
  8
SEIHIN
100
AcDbLine
 10
3276.680029666622
 20
2581.194208881485
 30
0.0
 11
3276.680029666621
 21
2491.194208881484
 31
0.0
  0
LINE
  5
1373
330
17
100
AcDbEntity
  8
SEIHIN
100
AcDbLine
 10
3276.680029666621
 20
2491.194208881484
 30
0.0
 11
3376.680029666622
 21
2491.194208881484
 31
0.0
  0
LINE
  5
1376
330
17
100
AcDbEntity
  8
HAIKIN
  6
HIDDEN
100
AcDbLine
 10
3276.680029666622
 20
2521.194208881484
 30
0.0
 11
2876.680029666622
 21
2521.194208881487
 31
0.0
  0
LINE
  5
1377
330
17
100
AcDbEntity
  8
HAIKIN
100
AcDbLine
 10
3276.680029666623
 20
2521.194208881484
 30
0.0
 11
3386.680029666622
 21
2521.194208881484
 31
0.0
  0
LWPOLYLINE
  5
137D
330
17
100
AcDbEntity
  8
SUNPOU
100
AcDbPolyline
 90
        2
 70
     1
 43
6.45
 10
5664.21132149221
 20
2521.194208881485
 42
1.0
 10
5670.761321492209
 20
2521.194208881485
 42
1.0
  0
LWPOLYLINE
  5
137E
330
17
100
AcDbEntity
  8
SUNPOU
100
AcDbPolyline
 90
        2
 70
     1
 43
6.45
 10
5664.21132149221
 20
2461.194208881485
 42
1.0
 10
5670.761321492209
 20
2461.194208881485
 42
1.0
  0
LWPOLYLINE
  5
137F
330
17
100
AcDbEntity
  8
SUNPOU
100
AcDbPolyline
 90
        2
 70
     1
 43
6.45
 10
5528.51132149221
 20
2461.194208881485
 42
1.0
 10
5535.06132149221
 20
2461.194208881485
 42
1.0
  0
LWPOLYLINE
  5
1380
330
17
100
AcDbEntity
  8
SUNPOU
100
AcDbPolyline
 90
        2
 70
     1
 43
6.45
 10
5528.51132149221
 20
2521.194208881485
 42
1.0
 10
5535.06132149221
 20
2521.194208881485
 42
1.0
  0
LWPOLYLINE
  5
1381
330
17
100
AcDbEntity
  8
SUNPOU
100
AcDbPolyline
 90
        2
 70
     1
 43
6.45
 10
5392.81132149221
 20
2461.194208881485
 42
1.0
 10
5399.36132149221
 20
2461.194208881485
 42
1.0
  0
LWPOLYLINE
  5
1382
330
17
100
AcDbEntity
  8
SUNPOU
100
AcDbPolyline
 90
        2
 70
     1
 43
6.45
 10
5392.81132149221
 20
2521.194208881485
 42
1.0
 10
5399.36132149221
 20
2521.194208881485
 42
1.0
  0
LWPOLYLINE
  5
1383
330
17
100
AcDbEntity
  8
SUNPOU
100
AcDbPolyline
 90
        2
 70
     1
 43
6.45
 10
5257.111321492211
 20
2461.194208881485
 42
1.0
 10
5263.66132149221
 20
2461.194208881485
 42
1.0
  0
LWPOLYLINE
  5
1384
330
17
100
AcDbEntity
  8
SUNPOU
100
AcDbPolyline
 90
        2
 70
     1
 43
6.45
 10
5257.111321492211
 20
2521.194208881485
 42
1.0
 10
5263.66132149221
 20
2521.194208881485
 42
1.0
  0
LWPOLYLINE
  5
1385
330
17
100
AcDbEntity
  8
SUNPOU
100
AcDbPolyline
 90
        2
 70
     1
 43
6.45
 10
5121.411321492211
 20
2461.194208881485
 42
1.0
 10
5127.96132149221
 20
2461.194208881485
 42
1.0
  0
LWPOLYLINE
  5
1386
330
17
100
AcDbEntity
  8
SUNPOU
100
AcDbPolyline
 90
        2
 70
     1
 43
6.45
 10
5121.411321492211
 20
2521.194208881485
 42
1.0
 10
5127.96132149221
 20
2521.194208881485
 42
1.0
  0
LWPOLYLINE
  5
1387
330
17
100
AcDbEntity
  8
SUNPOU
100
AcDbPolyline
 90
        2
 70
     1
 43
6.45
 10
4985.711321492211
 20
2461.194208881485
 42
1.0
 10
4992.26132149221
 20
2461.194208881485
 42
1.0
  0
LWPOLYLINE
  5
1388
330
17
100
AcDbEntity
  8
SUNPOU
100
AcDbPolyline
 90
        2
 70
     1
 43
6.45
 10
4985.711321492211
 20
2521.194208881485
 42
1.0
 10
4992.26132149221
 20
2521.194208881485
 42
1.0
  0
LWPOLYLINE
  5
1389
330
17
100
AcDbEntity
  8
SUNPOU
100
AcDbPolyline
 90
        2
 70
     1
 43
6.45
 10
4850.011321492211
 20
2461.194208881485
 42
1.0
 10
4856.56132149221
 20
2461.194208881485
 42
1.0
  0
LWPOLYLINE
  5
138A
330
17
100
AcDbEntity
  8
SUNPOU
100
AcDbPolyline
 90
        2
 70
     1
 43
6.45
 10
4850.011321492211
 20
2521.194208881485
 42
1.0
 10
4856.56132149221
 20
2521.194208881485
 42
1.0
  0
LWPOLYLINE
  5
138B
330
17
100
AcDbEntity
  8
SUNPOU
100
AcDbPolyline
 90
        2
 70
     1
 43
6.45
 10
4714.311321492211
 20
2461.194208881485
 42
1.0
 10
4720.861321492211
 20
2461.194208881485
 42
1.0
  0
LWPOLYLINE
  5
138C
330
17
100
AcDbEntity
  8
SUNPOU
100
AcDbPolyline
 90
        2
 70
     1
 43
6.45
 10
4714.311321492211
 20
2521.194208881485
 42
1.0
 10
4720.861321492211
 20
2521.194208881485
 42
1.0
  0
LWPOLYLINE
  5
13C4
330
17
100
AcDbEntity
  8
SUNPOU
100
AcDbPolyline
 90
        2
 70
     1
 43
6.45
 10
6484.961321492208
 20
2521.194208881485
 42
-1.0
 10
6478.411321492209
 20
2521.194208881485
 42
-1.0
  0
LWPOLYLINE
  5
13C5
330
17
100
AcDbEntity
  8
SUNPOU
100
AcDbPolyline
 90
        2
 70
     1
 43
6.45
 10
6484.961321492208
 20
2461.194208881485
 42
-1.0
 10
6478.411321492209
 20
2461.194208881485
 42
-1.0
  0
LWPOLYLINE
  5
13C6
330
17
100
AcDbEntity
  8
SUNPOU
100
AcDbPolyline
 90
        2
 70
     1
 43
6.45
 10
6620.661321492208
 20
2461.194208881485
 42
-1.0
 10
6614.111321492209
 20
2461.194208881485
 42
-1.0
  0
LWPOLYLINE
  5
13C7
330
17
100
AcDbEntity
  8
SUNPOU
100
AcDbPolyline
 90
        2
 70
     1
 43
6.45
 10
6620.661321492208
 20
2521.194208881485
 42
-1.0
 10
6614.111321492209
 20
2521.194208881485
 42
-1.0
  0
LWPOLYLINE
  5
13C8
330
17
100
AcDbEntity
  8
SUNPOU
100
AcDbPolyline
 90
        2
 70
     1
 43
6.45
 10
6349.261321492208
 20
2461.194208881485
 42
-1.0
 10
6342.711321492209
 20
2461.194208881485
 42
-1.0
  0
LWPOLYLINE
  5
13C9
330
17
100
AcDbEntity
  8
SUNPOU
100
AcDbPolyline
 90
        2
 70
     1
 43
6.45
 10
6213.561321492209
 20
2461.194208881485
 42
-1.0
 10
6207.011321492209
 20
2461.194208881485
 42
-1.0
  0
LWPOLYLINE
  5
13CA
330
17
100
AcDbEntity
  8
SUNPOU
100
AcDbPolyline
 90
        2
 70
     1
 43
6.45
 10
6349.261321492208
 20
2521.194208881485
 42
-1.0
 10
6342.711321492209
 20
2521.194208881485
 42
-1.0
  0
LWPOLYLINE
  5
13CB
330
17
100
AcDbEntity
  8
SUNPOU
100
AcDbPolyline
 90
        2
 70
     1
 43
6.45
 10
6213.561321492209
 20
2521.194208881485
 42
-1.0
 10
6207.011321492209
 20
2521.194208881485
 42
-1.0
  0
LWPOLYLINE
  5
13CC
330
17
100
AcDbEntity
  8
SUNPOU
100
AcDbPolyline
 90
        2
 70
     1
 43
6.45
 10
6077.861321492209
 20
2461.194208881485
 42
-1.0
 10
6071.31132149221
 20
2461.194208881485
 42
-1.0
  0
LWPOLYLINE
  5
13CD
330
17
100
AcDbEntity
  8
SUNPOU
100
AcDbPolyline
 90
        2
 70
     1
 43
6.45
 10
5942.161321492209
 20
2461.194208881485
 42
-1.0
 10
5935.61132149221
 20
2461.194208881485
 42
-1.0
  0
LWPOLYLINE
  5
13CE
330
17
100
AcDbEntity
  8
SUNPOU
100
AcDbPolyline
 90
        2
 70
     1
 43
6.45
 10
6077.861321492209
 20
2521.194208881485
 42
-1.0
 10
6071.31132149221
 20
2521.194208881485
 42
-1.0
  0
LWPOLYLINE
  5
13CF
330
17
100
AcDbEntity
  8
SUNPOU
100
AcDbPolyline
 90
        2
 70
     1
 43
6.45
 10
5942.161321492209
 20
2521.194208881485
 42
-1.0
 10
5935.61132149221
 20
2521.194208881485
 42
-1.0
  0
LWPOLYLINE
  5
13D0
330
17
100
AcDbEntity
  8
SUNPOU
100
AcDbPolyline
 90
        2
 70
     1
 43
6.45
 10
5806.461321492209
 20
2461.194208881485
 42
-1.0
 10
5799.91132149221
 20
2461.194208881485
 42
-1.0
  0
LWPOLYLINE
  5
13D1
330
17
100
AcDbEntity
  8
SUNPOU
100
AcDbPolyline
 90
        2
 70
     1
 43
6.45
 10
5806.461321492209
 20
2521.194208881485
 42
-1.0
 10
5799.91132149221
 20
2521.194208881485
 42
-1.0
  0
SOLID
  5
13EE
330
17
100
AcDbEntity
  8
SUNPOU
100
AcDbTrace
 10
5277.854636389172
 20
2475.411810974267
 30
0.0
 11
5263.783304616871
 21
2513.443929855527
 31
0.0
 12
5289.428765119726
 22
2482.03127635346
 32
0.0
 13
5289.428765119726
 23
2482.03127635346
 33
0.0
1001
ACAD
1000
DSTYLE
1002
{
1070
    78
1070
     8
1070
   284
1070
     8
1070
   140
1040
2.5
1070
   145
1040
1.0
1070
    74
1070
     0
1070
    73
1070
     0
1070
    40
1040
20.0
1070
   287
1070
     5
1070
    42
1040
2.0
1070
    44
1040
1.0
1070
    43
1040
7.0
1070
   141
1040
0.0
1070
   275
1070
     1
1070
    41
1040
2.0
1070
   285
1070
     8
1070
   286
1070
     8
1002
}
  0
LINE
  5
13F0
330
17
100
AcDbEntity
  8
SUNPOU
100
AcDbLine
 10
5283.64170075445
 20
2478.721543663863
 30
0.0
 11
5459.227093013631
 21
2171.710657316355
 31
0.0
1001
ACAD
1000
DSTYLE
1002
{
1070
    78
1070
     8
1070
   284
1070
     8
1070
   140
1040
2.5
1070
   145
1040
1.0
1070
    74
1070
     0
1070
    73
1070
     0
1070
    40
1040
20.0
1070
   287
1070
     5
1070
    42
1040
2.0
1070
    44
1040
1.0
1070
    43
1040
7.0
1070
   141
1040
0.0
1070
   275
1070
     1
1070
    41
1040
2.0
1070
   285
1070
     8
1070
   286
1070
     8
1002
}
  0
DIMENSION
  5
142F
330
17
100
AcDbEntity
  8
SUNPOU
100
AcDbDimension
  2
*D43
 10
3376.680029666622
 20
2765.282326301241
 30
0.0
 11
3326.680029666622
 21
2804.282326301241
 31
0.0
 70
    32
 71
     5
 42
99.99999999999955
  3
A3-20
100
AcDbAlignedDimension
 13
3276.680029666622
 23
2581.194208881484
 33
0.0
 14
3376.680029666622
 24
2491.194208881484
 34
0.0
100
AcDbRotatedDimension
  0
DIMENSION
  5
143C
330
17
100
AcDbEntity
  8
SUNPOU
100
AcDbDimension
  2
*D44
 10
3735.080219354139
 20
2491.194208881484
 30
0.0
 11
3696.080219354138
 21
2536.194208881485
 31
0.0
 70
    32
 71
     5
 42
90.00000000000045
  3
A3-20
100
AcDbAlignedDimension
 13
3276.680029666622
 23
2581.194208881484
 33
0.0
 14
3376.680029666622
 24
2491.194208881484
 34
0.0
 50
90.0
100
AcDbRotatedDimension
  0
DIMENSION
  5
1449
330
17
100
AcDbEntity
  8
SUNPOU
100
AcDbDimension
  2
*D45
 10
3735.080219354139
 20
2401.194208881484
 30
0.0
 11
3696.080219354138
 21
2446.194208881485
 31
0.0
 70
    32
 71
     5
 42
89.99999999999955
  3
A3-20
100
AcDbAlignedDimension
 13
3376.680029666622
 23
2491.194208881484
 33
0.0
 14
3376.680029666621
 24
2401.194208881484
 34
0.0
 50
90.0
100
AcDbRotatedDimension
  0
LINE
  5
14B8
330
17
100
AcDbEntity
  8
SEIHIN
100
AcDbLine
 10
5667.48632149221
 20
2491.194208881485
 30
0.0
 11
4667.48632149221
 21
2491.194208881485
 31
0.0
  0
LINE
  5
14B9
330
17
100
AcDbEntity
  8
SEIHIN
100
AcDbLine
 10
5667.48632149221
 20
2491.194208881485
 30
0.0
 11
6667.48632149221
 21
2491.194208881485
 31
0.0
  0
DIMENSION
  5
14F7
330
17
100
AcDbEntity
  8
SUNPOU
100
AcDbDimension
  2
*D51
 10
2726.680029666621
 20
2731.194208881485
 30
0.0
 11
2772.843408696048
 21
2807.461933748798
 31
0.0
 70
   164
 71
     5
 42
150.0
  3
A3-20
100
AcDbRadialDimension
 15
2630.267680832788
 25
2616.282682077847
 35
0.0
 40
0.0
  0
TEXT
  5
1508
330
17
100
AcDbEntity
  8
SUNPOU
100
AcDbText
 10
5590.814120203735
 20
2102.758032707426
 30
0.0
 40
49.99999999999999
  1
D13x15x2
 41
0.8
100
AcDbText
  0
TEXT
  5
15CF
330
17
100
AcDbEntity
  8
SUNPOU
100
AcDbText
 10
3698.619110422
 20
2875.903797084432
 30
0.0
 40
49.99999999999999
  1
つなぎ鉄筋
 41
0.8
100
AcDbText
  0
TEXT
  5
15D0
330
17
100
AcDbEntity
  8
SUNPOU
100
AcDbText
 10
3631.005130131141
 20
2797.671532838636
 30
0.0
 40
49.99999999999999
  1
D13x15x2
 41
0.8
100
AcDbText
  0
LEADER
  5
15D1
330
17
100
AcDbEntity
  8
SUNPOU
100
AcDbLeader
  3
A3-20
 76
     3
 10
3328.853900034588
 20
2521.194208881484
 30
0.0
 10
3601.074855164265
 20
2866.624157447564
 30
0.0
 10
4007.045416615034
 20
2866.624157447564
 30
0.0
  0
LEADER
  5
15D2
330
17
100
AcDbEntity
  8
SUNPOU
100
AcDbLeader
  3
A3-20
 76
     2
 10
3440.80013234073
 20
2461.194208881484
 30
0.0
 10
3601.074855164265
 20
2866.624157447564
 30
0.0
  0
DIMENSION
  5
1765
330
17
100
AcDbEntity
  8
SUNPOU
100
AcDbDimension
  2
*D64
 10
2392.632078941674
 20
1917.169858027526
 30
0.0
 11
2423.41218523138
 21
1955.503988185803
 31
0.0
 70
   160
 71
     5
 42
4.047950724946531
  3
A3-20
100
AcDbAlignedDimension
 13
2396.680029666621
 23
2401.194208881484
 33
0.0
 14
2392.632078941674
 24
2401.285287772796
 34
0.0
100
AcDbRotatedDimension
  0
DIMENSION
  5
1791
330
17
100
AcDbEntity
  8
SUNPOU
100
AcDbDimension
  2
*D65
 10
3376.680029666622
 20
4682.884323861677
 30
0.0
 11
2904.680029666621
 21
4721.884323861677
 31
0.0
 70
    32
 71
     5
 42
944.0000000000009
  3
A3-20
100
AcDbAlignedDimension
 13
2432.680029666621
 23
4181.194208881485
 33
0.0
 14
3376.680029666622
 24
2491.194208881484
 34
0.0
100
AcDbRotatedDimension
  0
ENDSEC
  0
SECTION
  2
OBJECTS
  0
DICTIONARY
  5
C
330
0
100
AcDbDictionary
281
     1
  3
ACAD_CIP_PREVIOUS_PRODUCT_INFO
350
1632
  3
ACAD_COLOR
350
1610
  3
ACAD_DETAILVIEWSTYLE
350
1629
  3
ACAD_GROUP
350
D
  3
ACAD_LAYOUT
350
162B
  3
ACAD_MATERIAL
350
15DE
  3
ACAD_MLEADERSTYLE
350
1625
  3
ACAD_MLINESTYLE
350
1A
  3
ACAD_PLOTSETTINGS
350
162C
  3
ACAD_PLOTSTYLENAME
350
15DC
  3
ACAD_SCALELIST
350
1613
  3
ACAD_SECTIONVIEWSTYLE
350
1627
  3
ACAD_TABLESTYLE
350
1611
  3
ACAD_VISUALSTYLE
350
15F7
  3
ACDB_RECOMPOSE_DATA
350
1837
  3
AcDbVariableDictionary
350
1821
  3
AcDsDecomposeData
350
17E5
  0
DICTIONARY
  5
182C
330
8
100
AcDbDictionary
280
     1
281
     1
  3
ACAD_XREC_ROUNDTRIP
360
182D
  0
DICTIONARY
  5
17D7
330
2
100
AcDbDictionary
280
     1
281
     1
  3
ACAD_LAYERSTATES
360
17D8
  0
DICTIONARY
  5
17C2
330
E
100
AcDbDictionary
280
     1
281
     1
  3
ADSK_XREC_LAYER_RECONCILED
360
17C3
  0
DICTIONARY
  5
17C4
330
23
100
AcDbDictionary
280
     1
281
     1
  3
ADSK_XREC_LAYER_RECONCILED
360
17C5
  0
DICTIONARY
  5
17C6
330
24
100
AcDbDictionary
280
     1
281
     1
  3
ADSK_XREC_LAYER_RECONCILED
360
17C7
  0
DICTIONARY
  5
17C8
330
25
100
AcDbDictionary
280
     1
281
     1
  3
ADSK_XREC_LAYER_RECONCILED
360
17C9
  0
DICTIONARY
  5
17CA
330
26
100
AcDbDictionary
280
     1
281
     1
  3
ADSK_XREC_LAYER_RECONCILED
360
17CB
  0
DICTIONARY
  5
17CC
330
27
100
AcDbDictionary
280
     1
281
     1
  3
ADSK_XREC_LAYER_RECONCILED
360
17CD
  0
DICTIONARY
  5
17CE
330
28
100
AcDbDictionary
280
     1
281
     1
  3
ADSK_XREC_LAYER_RECONCILED
360
17CF
  0
DICTIONARY
  5
17D0
330
29
100
AcDbDictionary
280
     1
281
     1
  3
ADSK_XREC_LAYER_RECONCILED
360
17D1
  0
DICTIONARY
  5
17D2
330
2A
100
AcDbDictionary
280
     1
281
     1
  3
ADSK_XREC_LAYER_RECONCILED
360
17D3
  0
XRECORD
  5
1632
102
{ACAD_REACTORS
330
C
102
}
330
C
100
AcDbXrecord
280
     1
300
ACD
300
2014
300
ACD_F_S
  0
DICTIONARY
  5
1610
102
{ACAD_REACTORS
330
C
102
}
330
C
100
AcDbDictionary
281
     1
  0
DICTIONARY
  5
1629
102
{ACAD_REACTORS
330
C
102
}
330
C
100
AcDbDictionary
281
     1
  3
Imperial24
350
162A
  0
DICTIONARY
  5
D
102
{ACAD_REACTORS
330
C
102
}
330
C
100
AcDbDictionary
281
     1
  0
DICTIONARY
  5
162B
102
{ACAD_REACTORS
330
C
102
}
330
C
100
AcDbDictionary
281
     1
  3
Model
350
162D
  3
レイアウト1
350
162E
  0
DICTIONARY
  5
15DE
102
{ACAD_REACTORS
330
C
102
}
330
C
100
AcDbDictionary
281
     1
  3
ByBlock
350
15E7
  3
ByLayer
350
15DF
  3
Global
350
15EF
  0
DICTIONARY
  5
1625
102
{ACAD_REACTORS
330
C
102
}
330
C
100
AcDbDictionary
281
     1
  3
Standard
350
1626
  0
DICTIONARY
  5
1A
102
{ACAD_REACTORS
330
C
102
}
330
C
100
AcDbDictionary
281
     1
  3
STANDARD
350
1B
  0
DICTIONARY
  5
162C
102
{ACAD_REACTORS
330
C
102
}
330
C
100
AcDbDictionary
281
     1
  0
ACDBDICTIONARYWDFLT
  5
15DC
102
{ACAD_REACTORS
330
C
102
}
330
C
100
AcDbDictionary
281
     1
  3
Normal
350
15DD
100
AcDbDictionaryWithDefault
340
15DD
  0
DICTIONARY
  5
1613
102
{ACAD_REACTORS
330
C
102
}
330
C
100
AcDbDictionary
281
     1
  3
A0
350
1614
  3
A1
350
1615
  3
A2
350
1616
  3
A3
350
1617
  3
A4
350
1618
  3
A5
350
1619
  3
A6
350
161A
  3
A7
350
161B
  3
A8
350
161C
  3
A9
350
161D
  3
B0
350
161E
  3
B1
350
161F
  3
B2
350
1620
  3
B3
350
1621
  3
B4
350
1622
  3
B5
350
1623
  3
B6
350
1624
  0
DICTIONARY
  5
1627
102
{ACAD_REACTORS
330
C
102
}
330
C
100
AcDbDictionary
281
     1
  3
Imperial24
350
1628
  0
DICTIONARY
  5
1611
102
{ACAD_REACTORS
330
C
102
}
330
C
100
AcDbDictionary
281
     1
  3
Standard
350
1612
  0
DICTIONARY
  5
15F7
102
{ACAD_REACTORS
330
C
102
}
330
C
100
AcDbDictionary
281
     1
  3
2dWireframe
350
15FD
  3
Basic
350
15FC
  3
Brighten
350
1603
  3
ColorChange
350
1607
  3
Conceptual
350
1600
  3
Dim
350
1602
  3
EdgeColorOff
350
160F
  3
Facepattern
350
1606
  3
Flat
350
15F8
  3
FlatWithEdges
350
15F9
  3
Gouraud
350
15FA
  3
GouraudWithEdges
350
15FB
  3
Hidden
350
15FF
  3
JitterOff
350
160D
  3
Linepattern
350
1605
  3
OverhangOff
350
160E
  3
Realistic
350
1601
  3
Shaded
350
160C
  3
Shaded with edges
350
160B
  3
Shades of Gray
350
1608
  3
Sketchy
350
1609
  3
Thicken
350
1604
  3
Wireframe
350
15FE
  3
X-Ray
350
160A
  0
XRECORD
  5
1837
102
{ACAD_REACTORS
330
C
102
}
330
C
100
AcDbXrecord
280
     1
 90
        1
330
1612
  0
DICTIONARY
  5
1821
102
{ACAD_REACTORS
330
C
102
}
330
C
100
AcDbDictionary
281
     1
  3
CANNOSCALE
350
1827
  3
CMLEADERSTYLE
350
1823
  3
CTABLESTYLE
350
1822
  3
CVIEWDETAILSTYLE
350
1824
  3
CVIEWSECTIONSTYLE
350
1825
  3
LAYEREVAL
350
1829
  3
LAYERNOTIFY
350
182A
  3
LIGHTINGUNITS
350
1828
  3
MSLTSCALE
350
1826
  3
XCLIPFRAME
350
182B
  0
DICTIONARY
  5
17E5
102
{ACAD_REACTORS
330
C
102
}
330
C
100
AcDbDictionary
281
     1
  3
AcDsRecords
350
17E7
  3
AcDsSchemas
350
17E6
1001
ACAD
1070
     2
  0
XRECORD
  5
182D
102
{ACAD_REACTORS
330
182C
102
}
330
182C
100
AcDbXrecord
280
     1
102
VTR_0.000_0.000_1.000_1.000_VISUALSTYLE
340
15FD
102
VTR_0.000_0.000_1.000_1.000_GRIDDISPLAY
 70
     3
102
VTR_0.000_0.000_1.000_1.000_GRIDMAJOR
 70
     5
102
VTR_0.000_0.000_1.000_1.000_DEFAULTLIGHTING
280
     1
102
VTR_0.000_0.000_1.000_1.000_DEFAULTLIGHTINGTYPE
 70
     1
102
VTR_0.000_0.000_1.000_1.000_BRIGHTNESS
141
0.0
102
VTR_0.000_0.000_1.000_1.000_CONTRAST
142
0.0
  0
DICTIONARY
  5
17D8
102
{ACAD_REACTORS
330
17D7
102
}
330
17D7
100
AcDbDictionary
281
     1
  0
XRECORD
  5
17C3
102
{ACAD_REACTORS
330
17C2
102
}
330
17C2
100
AcDbXrecord
280
     1
290
     1
  0
XRECORD
  5
17C5
102
{ACAD_REACTORS
330
17C4
102
}
330
17C4
100
AcDbXrecord
280
     1
290
     1
  0
XRECORD
  5
17C7
102
{ACAD_REACTORS
330
17C6
102
}
330
17C6
100
AcDbXrecord
280
     1
290
     1
  0
XRECORD
  5
17C9
102
{ACAD_REACTORS
330
17C8
102
}
330
17C8
100
AcDbXrecord
280
     1
290
     1
  0
XRECORD
  5
17CB
102
{ACAD_REACTORS
330
17CA
102
}
330
17CA
100
AcDbXrecord
280
     1
290
     1
  0
XRECORD
  5
17CD
102
{ACAD_REACTORS
330
17CC
102
}
330
17CC
100
AcDbXrecord
280
     1
290
     1
  0
XRECORD
  5
17CF
102
{ACAD_REACTORS
330
17CE
102
}
330
17CE
100
AcDbXrecord
280
     1
290
     1
  0
XRECORD
  5
17D1
102
{ACAD_REACTORS
330
17D0
102
}
330
17D0
100
AcDbXrecord
280
     1
290
     1
  0
XRECORD
  5
17D3
102
{ACAD_REACTORS
330
17D2
102
}
330
17D2
100
AcDbXrecord
280
     1
290
     1
  0
ACAD_PROXY_OBJECT
  5
162A
102
{ACAD_REACTORS
330
1629
102
}
102
{ACAD_XDICTIONARY
360
181D
102
}
330
1629
100
AcDbProxyObject
 90
      499
 91
      508
 95
  3276827
 70
     0
 93
     2314
310
9207000000180005C0F42F5A8DC671F815AF46E07A15AE7E07000000180005C0F42F5A8DC671FA3300000018001000000180005C0F42F5A8DC671FA02000000000000741FA028CC00000060002330000001800000852480368038003280390034803080360019001A004AD12801E002E00208031802B003080390010002B00
310
348032803B802A003C803800328010002E0033001000110012803A003180188011001F001280100012801E002E00208031802B003080390010002B00348032803B80220032803A00308034803600248032001F0012802E00280029802180208026002280100012801E002E00208031802B003080390010002B00348032803B
310
802980318030803600328010002E0033001000110012803980370011001F0012802B0360
340
F
340
0
340
13
340
F
340
13
340
13
 94
        0
  0
LAYOUT
  5
162D
102
{ACAD_REACTORS
330
162B
102
}
102
{ACAD_XDICTIONARY
360
181F
102
}
330
162B
100
AcDbPlotSettings
  1

  2
DocuWorks Printer
  4

  6

 40
0.0
 41
0.0
 42
0.0
 43
0.0
 44
0.0
 45
0.0
 46
0.0
 47
0.0
 48
0.0
 49
0.0
140
0.0
141
0.0
142
1.0
143
1.0
 70
  1712
 72
     0
 73
     0
 74
     0
  7

 75
     0
 76
     0
 77
     2
 78
   300
147
1.0
148
0.0
149
0.0
100
AcDbLayout
  1
Model
 70
     1
 71
     0
 10
0.0
 20
0.0
 11
12.0
 21
9.0
 12
0.0
 22
0.0
 32
0.0
 14
0.0
 24
0.0
 34
0.0
 15
0.0
 25
0.0
 35
0.0
146
0.0
 13
0.0
 23
0.0
 33
0.0
 16
1.0
 26
0.0
 36
0.0
 17
0.0
 27
1.0
 37
0.0
 76
     0
330
17
331
15DA
  0
LAYOUT
  5
162E
102
{ACAD_REACTORS
330
162B
102
}
330
162B
100
AcDbPlotSettings
  1

  2
DocuWorks Printer
  4

  6

 40
0.0
 41
0.0
 42
0.0
 43
0.0
 44
0.0
 45
0.0
 46
0.0
 47
0.0
 48
0.0
 49
0.0
140
0.0
141
0.0
142
1.0
143
1.0
 70
   688
 72
     0
 73
     0
 74
     5
  7

 75
    16
 76
     0
 77
     2
 78
   300
147
1.0
148
0.0
149
0.0
100
AcDbLayout
  1
レイアウト1
 70
     0
 71
     1
 10
0.0
 20
0.0
 11
12.0
 21
9.0
 12
0.0
 22
0.0
 32
0.0
 14
1.000000000000000E+20
 24
1.000000000000000E+20
 34
1.000000000000000E+20
 15
-1.000000000000000E+20
 25
-1.000000000000000E+20
 35
-1.000000000000000E+20
146
0.0
 13
0.0
 23
0.0
 33
0.0
 16
1.0
 26
0.0
 36
0.0
 17
0.0
 27
1.0
 37
0.0
 76
     0
330
14
  0
MATERIAL
  5
15E7
102
{ACAD_REACTORS
330
15DE
102
}
102
{ACAD_XDICTIONARY
360
182E
102
}
330
15DE
100
AcDbMaterial
  1
ByBlock
 72
     0
 73
     2
 43
0.0208333333333333
 43
0.0
 43
0.0
 43
0.0
 43
0.0
 43
0.0208333333333333
 43
0.0
 43
0.0
 43
0.0
 43
0.0
 43
1.0
 43
0.0
 43
0.0
 43
0.0
 43
0.0
 43
1.0
 77
     0
 78
     2
 47
0.0208333333333333
 47
0.0
 47
0.0
 47
0.0
 47
0.0
 47
0.0208333333333333
 47
0.0
 47
0.0
 47
0.0
 47
0.0
 47
1.0
 47
0.0
 47
0.0
 47
0.0
 47
0.0
 47
1.0
171
     0
172
     2
 49
0.0208333333333333
 49
0.0
 49
0.0
 49
0.0
 49
0.0
 49
0.0208333333333333
 49
0.0
 49
0.0
 49
0.0
 49
0.0
 49
1.0
 49
0.0
 49
0.0
 49
0.0
 49
0.0
 49
1.0
175
     0
176
     2
142
0.0208333333333333
142
0.0
142
0.0
142
0.0
142
0.0
142
0.0208333333333333
142
0.0
142
0.0
142
0.0
142
0.0
142
1.0
142
0.0
142
0.0
142
0.0
142
0.0
142
1.0
179
     0
270
     2
144
0.0208333333333333
144
0.0
144
0.0
144
0.0
144
0.0
144
0.0208333333333333
144
0.0
144
0.0
144
0.0
144
0.0
144
1.0
144
0.0
144
0.0
144
0.0
144
0.0
144
1.0
274
     2
147
0.0208333333333333
147
0.0
147
0.0
147
0.0
147
0.0
147
0.0208333333333333
147
0.0
147
0.0
147
0.0
147
0.0
147
1.0
147
0.0
147
0.0
147
0.0
147
0.0
147
1.0
  0
MATERIAL
  5
15DF
102
{ACAD_REACTORS
330
15DE
102
}
102
{ACAD_XDICTIONARY
360
1830
102
}
330
15DE
100
AcDbMaterial
  1
ByLayer
 72
     0
 73
     2
 43
0.0208333333333333
 43
0.0
 43
0.0
 43
0.0
 43
0.0
 43
0.0208333333333333
 43
0.0
 43
0.0
 43
0.0
 43
0.0
 43
1.0
 43
0.0
 43
0.0
 43
0.0
 43
0.0
 43
1.0
 77
     0
 78
     2
 47
0.0208333333333333
 47
0.0
 47
0.0
 47
0.0
 47
0.0
 47
0.0208333333333333
 47
0.0
 47
0.0
 47
0.0
 47
0.0
 47
1.0
 47
0.0
 47
0.0
 47
0.0
 47
0.0
 47
1.0
171
     0
172
     2
 49
0.0208333333333333
 49
0.0
 49
0.0
 49
0.0
 49
0.0
 49
0.0208333333333333
 49
0.0
 49
0.0
 49
0.0
 49
0.0
 49
1.0
 49
0.0
 49
0.0
 49
0.0
 49
0.0
 49
1.0
175
     0
176
     2
142
0.0208333333333333
142
0.0
142
0.0
142
0.0
142
0.0
142
0.0208333333333333
142
0.0
142
0.0
142
0.0
142
0.0
142
1.0
142
0.0
142
0.0
142
0.0
142
0.0
142
1.0
179
     0
270
     2
144
0.0208333333333333
144
0.0
144
0.0
144
0.0
144
0.0
144
0.0208333333333333
144
0.0
144
0.0
144
0.0
144
0.0
144
1.0
144
0.0
144
0.0
144
0.0
144
0.0
144
1.0
274
     2
147
0.0208333333333333
147
0.0
147
0.0
147
0.0
147
0.0
147
0.0208333333333333
147
0.0
147
0.0
147
0.0
147
0.0
147
1.0
147
0.0
147
0.0
147
0.0
147
0.0
147
1.0
  0
MATERIAL
  5
15EF
102
{ACAD_REACTORS
330
15DE
102
}
102
{ACAD_XDICTIONARY
360
1832
102
}
330
15DE
100
AcDbMaterial
  1
Global
 72
     0
 73
     2
 43
0.0208333333333333
 43
0.0
 43
0.0
 43
0.0
 43
0.0
 43
0.0208333333333333
 43
0.0
 43
0.0
 43
0.0
 43
0.0
 43
1.0
 43
0.0
 43
0.0
 43
0.0
 43
0.0
 43
1.0
 77
     0
 78
     2
 47
0.0208333333333333
 47
0.0
 47
0.0
 47
0.0
 47
0.0
 47
0.0208333333333333
 47
0.0
 47
0.0
 47
0.0
 47
0.0
 47
1.0
 47
0.0
 47
0.0
 47
0.0
 47
0.0
 47
1.0
171
     0
172
     2
 49
0.0208333333333333
 49
0.0
 49
0.0
 49
0.0
 49
0.0
 49
0.0208333333333333
 49
0.0
 49
0.0
 49
0.0
 49
0.0
 49
1.0
 49
0.0
 49
0.0
 49
0.0
 49
0.0
 49
1.0
175
     0
176
     2
142
0.0208333333333333
142
0.0
142
0.0
142
0.0
142
0.0
142
0.0208333333333333
142
0.0
142
0.0
142
0.0
142
0.0
142
1.0
142
0.0
142
0.0
142
0.0
142
0.0
142
1.0
179
     0
270
     2
144
0.0208333333333333
144
0.0
144
0.0
144
0.0
144
0.0
144
0.0208333333333333
144
0.0
144
0.0
144
0.0
144
0.0
144
1.0
144
0.0
144
0.0
144
0.0
144
0.0
144
1.0
274
     2
147
0.0208333333333333
147
0.0
147
0.0
147
0.0
147
0.0
147
0.0208333333333333
147
0.0
147
0.0
147
0.0
147
0.0
147
1.0
147
0.0
147
0.0
147
0.0
147
0.0
147
1.0
  0
MLEADERSTYLE
  5
1626
102
{ACAD_REACTORS
330
1625
102
}
330
1625
100
AcDbMLeaderStyle
170
     2
171
     1
172
     0
 90
        2
 40
0.0
 41
0.0
173
     1
 91
-1056964608
340
11
 92
       -2
290
     1
 42
0.09
291
     1
 43
0.36
  3
Standard
341
0
 44
0.18
300

342
F
174
     1
178
     6
175
     1
176
     0
 93
-1056964608
 45
0.18
292
     0
297
     0
 46
0.18
343
0
 94
-1056964608
 47
1.0
 49
1.0
140
1.0
293
     1
141
0.0
294
     1
177
     0
142
1.0
295
     0
296
     0
143
0.125
1001
ACAD_MLEADERVER
1070
     2
  0
MLINESTYLE
  5
1B
102
{ACAD_REACTORS
330
1A
102
}
330
1A
100
AcDbMlineStyle
  2
STANDARD
 70
     0
  3

 62
   256
 51
90.0
 52
90.0
 71
     2
 49
0.5
 62
   256
  6
BYLAYER
 49
-0.5
 62
   256
  6
BYLAYER
  0
ACDBPLACEHOLDER
  5
15DD
102
{ACAD_REACTORS
330
15DC
102
}
330
15DC
  0
SCALE
  5
1614
102
{ACAD_REACTORS
330
1613
102
}
330
1613
100
AcDbScale
 70
     0
300
1:1
140
1.0
141
1.0
290
     1
  0
SCALE
  5
1615
102
{ACAD_REACTORS
330
1613
102
}
330
1613
100
AcDbScale
 70
     0
300
1/128" = 1'-0"
140
0.0078125
141
12.0
290
     0
  0
SCALE
  5
1616
102
{ACAD_REACTORS
330
1613
102
}
330
1613
100
AcDbScale
 70
     0
300
1/64" = 1'-0"
140
0.015625
141
12.0
290
     0
  0
SCALE
  5
1617
102
{ACAD_REACTORS
330
1613
102
}
330
1613
100
AcDbScale
 70
     0
300
1/32" = 1'-0"
140
0.03125
141
12.0
290
     0
  0
SCALE
  5
1618
102
{ACAD_REACTORS
330
1613
102
}
330
1613
100
AcDbScale
 70
     0
300
1/16" = 1'-0"
140
0.0625
141
12.0
290
     0
  0
SCALE
  5
1619
102
{ACAD_REACTORS
330
1613
102
}
330
1613
100
AcDbScale
 70
     0
300
3/32" = 1'-0"
140
0.09375
141
12.0
290
     0
  0
SCALE
  5
161A
102
{ACAD_REACTORS
330
1613
102
}
330
1613
100
AcDbScale
 70
     0
300
1/8" = 1'-0"
140
0.125
141
12.0
290
     0
  0
SCALE
  5
161B
102
{ACAD_REACTORS
330
1613
102
}
330
1613
100
AcDbScale
 70
     0
300
3/16" = 1'-0"
140
0.1875
141
12.0
290
     0
  0
SCALE
  5
161C
102
{ACAD_REACTORS
330
1613
102
}
330
1613
100
AcDbScale
 70
     0
300
1/4" = 1'-0"
140
0.25
141
12.0
290
     0
  0
SCALE
  5
161D
102
{ACAD_REACTORS
330
1613
102
}
330
1613
100
AcDbScale
 70
     0
300
3/8" = 1'-0"
140
0.375
141
12.0
290
     0
  0
SCALE
  5
161E
102
{ACAD_REACTORS
330
1613
102
}
330
1613
100
AcDbScale
 70
     0
300
1/2" = 1'-0"
140
0.5
141
12.0
290
     0
  0
SCALE
  5
161F
102
{ACAD_REACTORS
330
1613
102
}
330
1613
100
AcDbScale
 70
     0
300
3/4" = 1'-0"
140
0.75
141
12.0
290
     0
  0
SCALE
  5
1620
102
{ACAD_REACTORS
330
1613
102
}
330
1613
100
AcDbScale
 70
     0
300
1" = 1'-0"
140
1.0
141
12.0
290
     0
  0
SCALE
  5
1621
102
{ACAD_REACTORS
330
1613
102
}
330
1613
100
AcDbScale
 70
     0
300
1-1/2" = 1'-0"
140
1.5
141
12.0
290
     0
  0
SCALE
  5
1622
102
{ACAD_REACTORS
330
1613
102
}
330
1613
100
AcDbScale
 70
     0
300
3" = 1'-0"
140
3.0
141
12.0
290
     0
  0
SCALE
  5
1623
102
{ACAD_REACTORS
330
1613
102
}
330
1613
100
AcDbScale
 70
     0
300
6" = 1'-0"
140
6.0
141
12.0
290
     0
  0
SCALE
  5
1624
102
{ACAD_REACTORS
330
1613
102
}
330
1613
100
AcDbScale
 70
     0
300
1'-0" = 1'-0"
140
12.0
141
12.0
290
     0
  0
ACAD_PROXY_OBJECT
  5
1628
102
{ACAD_REACTORS
330
1627
102
}
102
{ACAD_XDICTIONARY
360
181B
102
}
330
1627
100
AcDbProxyObject
 90
      499
 91
      507
 95
  3276827
 70
     0
 93
     3814
310
929D000000180005C0F42F5A8DC671FC00000060001703D0BD6A3719C7E5C0F42F5A8DC6F1FA330000001800099400000060001703D0BD6A3719C7E5C0F42F5A8DC671FC00000060001703D0BD6A3719C7E808000000000001D07E80C0000006000400000064003081815AF46E07A158E7E80C8340C16A22A7D90FC9F8CAE6
310
5A70A583A07E1FE81C635378FA1F8CAE65A70A583A17E7944A7F127A97E9FA149200DA00E000CA00E400D200C200D80064006800882480160010002780160010002880160010002980160010002C00160010002D002F84A007800B8008200C600AC00C200E4004000AC00D200CA00EE00A800F200E000CA004000B800CC004
310
00044004A00E800C600620044007C004A0040004A007800B8008200C600AC00C200E4004000AC00D200CA00EE00A600CA00C600E800D200DE00DC00A600E800C200E400E8009200C8007C004A005A004A007800B8008200C600AC00C200E4004000AC00D200CA00EE00A600CA00C600E800D200DE00DC008A00DC00C800920
310
0C8007C004A00B800A000A6008600820098008A0040004A007800B8008200C600AC00C200E4004000AC00D200CA00EE00A600C600C200D800CA004000B800CC00400044004A00E600DC0044007C004A00832080270029802480198018807404C
340
F
340
0
340
0
340
13
340
13
340
F
 94
        0
  0
TABLESTYLE
  5
1612
102
{ACAD_REACTORS
330
1611
102
}
102
{ACAD_XDICTIONARY
360
1834
102
}
330
1611
100
AcDbTableStyle
  3
Standard
 70
     0
 71
     0
 40
0.06
 41
0.06
280
     0
281
     0
  7
STANDARD
140
0.18
170
     2
 62
     0
 63
   257
283
     0
274
    -2
284
     1
 64
     0
275
    -2
285
     1
 65
     0
276
    -2
286
     1
 66
     0
277
    -2
287
     1
 67
     0
278
    -2
288
     1
 68
     0
279
    -2
289
     1
 69
     0
  7
STANDARD
140
0.25
170
     5
 62
     0
 63
   257
283
     0
274
    -2
284
     1
 64
     0
275
    -2
285
     1
 65
     0
276
    -2
286
     1
 66
     0
277
    -2
287
     1
 67
     0
278
    -2
288
     1
 68
     0
279
    -2
289
     1
 69
     0
  7
STANDARD
140
0.18
170
     5
 62
     0
 63
   257
283
     0
274
    -2
284
     1
 64
     0
275
    -2
285
     1
 65
     0
276
    -2
286
     1
 66
     0
277
    -2
287
     1
 67
     0
278
    -2
288
     1
 68
     0
279
    -2
289
     1
 69
     0
  0
VISUALSTYLE
  5
15FD
102
{ACAD_REACTORS
330
15F7
102
}
102
{ACAD_XDICTIONARY
360
1838
102
}
330
15F7
100
AcDbVisualStyle
  2
2dWireframe
 70
     4
 71
     0
 72
     2
 73
     0
 90
        0
 40
-0.6
 41
-30.0
 62
     5
 63
     7
421
 16777215
 74
     1
 91
        4
 64
     7
 65
   257
 75
     1
175
     1
 42
1.0
 92
        0
 66
   257
 43
1.0
 76
     1
 77
     6
 78
     2
 67
     7
 79
     5
170
     0
171
     0
290
     0
174
     0
 93
        1
 44
0.0
173
     0
291
     0
 45
0.0
1001
ACAD
1000
AcDbSavedByObjectVersion
1070
     0
  0
VISUALSTYLE
  5
15FC
102
{ACAD_REACTORS
330
15F7
102
}
102
{ACAD_XDICTIONARY
360
183A
102
}
330
15F7
100
AcDbVisualStyle
  2
Basic
 70
     7
 71
     1
 72
     0
 73
     1
 90
        0
 40
-0.6
 41
-30.0
 62
     5
 63
     7
421
 16777215
 74
     0
 91
        4
 64
     7
 65
   257
 75
     1
175
     1
 42
1.0
 92
        8
 66
     7
 43
1.0
 76
     1
 77
     6
 78
     2
 67
     7
 79
     5
170
     0
171
     0
290
     0
174
     0
 93
        1
 44
0.0
173
     0
291
     1
 45
0.0
1001
ACAD
1000
AcDbSavedByObjectVersion
1070
     0
  0
VISUALSTYLE
  5
1603
102
{ACAD_REACTORS
330
15F7
102
}
102
{ACAD_XDICTIONARY
360
183C
102
}
330
15F7
100
AcDbVisualStyle
  2
Brighten
 70
    12
 71
     2
 72
     2
 73
     0
 90
        0
 40
-0.6
 41
-30.0
 62
     5
 63
     7
421
 16777215
 74
     1
 91
        4
 64
     7
 65
   257
 75
     1
175
     1
 42
1.0
 92
        8
 66
     7
 43
1.0
 76
     1
 77
     6
 78
     2
 67
     7
 79
     5
170
     0
171
     0
290
     0
174
     0
 93
        1
 44
50.0
173
     0
291
     1
 45
0.0
1001
ACAD
1000
AcDbSavedByObjectVersion
1070
     0
  0
VISUALSTYLE
  5
1607
102
{ACAD_REACTORS
330
15F7
102
}
102
{ACAD_XDICTIONARY
360
183E
102
}
330
15F7
100
AcDbVisualStyle
  2
ColorChange
 70
    16
 71
     2
 72
     2
 73
     3
 90
        0
 40
-0.6
 41
-30.0
 62
     5
 63
     8
421
  8421504
 74
     1
 91
        4
 64
     7
 65
   257
 75
     1
175
     1
 42
1.0
 92
        8
 66
     8
424
  8421504
 43
1.0
 76
     1
 77
     6
 78
     2
 67
     7
 79
     5
170
     0
171
     0
290
     0
174
     0
 93
        1
 44
0.0
173
     0
291
     1
 45
0.0
1001
ACAD
1000
AcDbSavedByObjectVersion
1070
     0
  0
VISUALSTYLE
  5
1600
102
{ACAD_REACTORS
330
15F7
102
}
102
{ACAD_XDICTIONARY
360
1840
102
}
330
15F7
100
AcDbVisualStyle
  2
Conceptual
 70
     9
 71
     3
 72
     2
 73
     0
 90
        0
 40
-0.6
 41
-30.0
 62
     5
 63
     7
421
 16777215
 74
     2
 91
        2
 64
     7
 65
   257
 75
     1
175
     1
 42
179.0
 92
        8
 66
     7
 43
1.0
 76
     1
 77
     6
 78
     2
 67
     7
 79
     3
170
     0
171
     0
290
     0
174
     0
 93
        1
 44
0.0
173
     0
291
     0
 45
0.0
1001
ACAD
1000
AcDbSavedByObjectVersion
1070
     0
  0
VISUALSTYLE
  5
1602
102
{ACAD_REACTORS
330
15F7
102
}
102
{ACAD_XDICTIONARY
360
1842
102
}
330
15F7
100
AcDbVisualStyle
  2
Dim
 70
    11
 71
     2
 72
     2
 73
     0
 90
        0
 40
-0.6
 41
-30.0
 62
     5
 63
     7
421
 16777215
 74
     1
 91
        4
 64
     7
 65
   257
 75
     1
175
     1
 42
1.0
 92
        8
 66
     7
 43
1.0
 76
     1
 77
     6
 78
     2
 67
     7
 79
     5
170
     0
171
     0
290
     0
174
     0
 93
        1
 44
-50.0
173
     0
291
     1
 45
0.0
1001
ACAD
1000
AcDbSavedByObjectVersion
1070
     0
  0
VISUALSTYLE
  5
160F
102
{ACAD_REACTORS
330
15F7
102
}
102
{ACAD_XDICTIONARY
360
1844
102
}
330
15F7
100
AcDbVisualStyle
  2
EdgeColorOff
 70
    22
 71
     2
 72
     2
 73
     0
 90
        0
 40
-0.6
 41
-30.0
 62
     5
 63
     7
421
 16777215
 74
     1
 91
        4
 64
     7
 65
   257
 75
     1
175
     1
 42
1.0
 92
        8
 66
     7
 43
1.0
 76
     1
 77
     6
 78
     2
 67
     7
 79
     5
170
     0
171
     0
290
     0
174
     0
 93
        1
 44
0.0
173
     0
291
     1
 45
0.0
1001
ACAD
1000
AcDbSavedByObjectVersion
1070
     0
  0
VISUALSTYLE
  5
1606
102
{ACAD_REACTORS
330
15F7
102
}
102
{ACAD_XDICTIONARY
360
1846
102
}
330
15F7
100
AcDbVisualStyle
  2
Facepattern
 70
    15
 71
     2
 72
     2
 73
     0
 90
        0
 40
-0.6
 41
-30.0
 62
     5
 63
     7
421
 16777215
 74
     1
 91
        4
 64
     7
 65
   257
 75
     1
175
     1
 42
1.0
 92
        8
 66
     7
 43
1.0
 76
     1
 77
     6
 78
     2
 67
     7
 79
     5
170
     0
171
     0
290
     0
174
     0
 93
        1
 44
0.0
173
     0
291
     1
 45
0.0
1001
ACAD
1000
AcDbSavedByObjectVersion
1070
     0
  0
VISUALSTYLE
  5
15F8
102
{ACAD_REACTORS
330
15F7
102
}
102
{ACAD_XDICTIONARY
360
1848
102
}
330
15F7
100
AcDbVisualStyle
  2
Flat
 70
     0
 71
     2
 72
     1
 73
     1
 90
        2
 40
-0.6
 41
30.0
 62
     5
 63
     7
421
 16777215
 74
     0
 91
        0
 64
     7
 65
   257
 75
     1
175
     1
 42
1.0
 92
        8
 66
     7
 43
1.0
 76
     1
 77
     6
 78
     2
 67
     7
 79
     5
170
     0
171
     0
290
     0
174
     0
 93
       13
 44
0.0
173
     0
291
     1
 45
0.0
1001
ACAD
1000
AcDbSavedByObjectVersion
1070
     0
  0
VISUALSTYLE
  5
15F9
102
{ACAD_REACTORS
330
15F7
102
}
102
{ACAD_XDICTIONARY
360
184A
102
}
330
15F7
100
AcDbVisualStyle
  2
FlatWithEdges
 70
     1
 71
     2
 72
     1
 73
     1
 90
        2
 40
-0.6
 41
30.0
 62
     5
 63
     7
421
 16777215
 74
     1
 91
        0
 64
     7
 65
   257
 75
     1
175
     1
 42
1.0
 92
        0
 66
   257
 43
1.0
 76
     1
 77
     6
 78
     2
 67
     7
 79
     5
170
     0
171
     0
290
     0
174
     0
 93
       13
 44
0.0
173
     0
291
     1
 45
0.0
1001
ACAD
1000
AcDbSavedByObjectVersion
1070
     0
  0
VISUALSTYLE
  5
15FA
102
{ACAD_REACTORS
330
15F7
102
}
102
{ACAD_XDICTIONARY
360
184C
102
}
330
15F7
100
AcDbVisualStyle
  2
Gouraud
 70
     2
 71
     2
 72
     2
 73
     1
 90
        2
 40
-0.6
 41
30.0
 62
     5
 63
     7
421
 16777215
 74
     0
 91
        0
 64
     7
 65
   257
 75
     1
175
     1
 42
1.0
 92
        0
 66
     7
 43
1.0
 76
     1
 77
     6
 78
     2
 67
     7
 79
     5
170
     0
171
     0
290
     0
174
     0
 93
       13
 44
0.0
173
     0
291
     1
 45
0.0
1001
ACAD
1000
AcDbSavedByObjectVersion
1070
     0
  0
VISUALSTYLE
  5
15FB
102
{ACAD_REACTORS
330
15F7
102
}
102
{ACAD_XDICTIONARY
360
184E
102
}
330
15F7
100
AcDbVisualStyle
  2
GouraudWithEdges
 70
     3
 71
     2
 72
     2
 73
     1
 90
        2
 40
-0.6
 41
30.0
 62
     5
 63
     7
421
 16777215
 74
     1
 91
        0
 64
     7
 65
   257
 75
     1
175
     1
 42
1.0
 92
        0
 66
   257
 43
1.0
 76
     1
 77
     6
 78
     2
 67
     7
 79
     5
170
     0
171
     0
290
     0
174
     0
 93
       13
 44
0.0
173
     0
291
     1
 45
0.0
1001
ACAD
1000
AcDbSavedByObjectVersion
1070
     0
  0
VISUALSTYLE
  5
15FF
102
{ACAD_REACTORS
330
15F7
102
}
102
{ACAD_XDICTIONARY
360
1850
102
}
330
15F7
100
AcDbVisualStyle
  2
Hidden
 70
     6
 71
     1
 72
     2
 73
     2
 90
        0
 40
-0.6
 41
-30.0
 62
     5
 63
     7
421
 16777215
 74
     2
 91
        2
 64
     7
 65
   257
 75
     2
175
     1
 42
40.0
 92
        0
 66
   257
 43
1.0
 76
     1
 77
     6
 78
     2
 67
     7
 79
     3
170
     0
171
     0
290
     0
174
     0
 93
        1
 44
0.0
173
     0
291
     0
 45
0.0
1001
ACAD
1000
AcDbSavedByObjectVersion
1070
     0
  0
VISUALSTYLE
  5
160D
102
{ACAD_REACTORS
330
15F7
102
}
102
{ACAD_XDICTIONARY
360
1852
102
}
330
15F7
100
AcDbVisualStyle
  2
JitterOff
 70
    20
 71
     2
 72
     2
 73
     0
 90
        0
 40
-0.6
 41
-30.0
 62
     5
 63
     7
421
 16777215
 74
     1
 91
        4
 64
     7
 65
   257
 75
     1
175
     1
 42
1.0
 92
       10
 66
     7
 43
1.0
 76
     1
 77
     6
 78
     2
 67
     7
 79
     5
170
     0
171
     0
290
     0
174
     0
 93
        1
 44
0.0
173
     0
291
     1
 45
0.0
1001
ACAD
1000
AcDbSavedByObjectVersion
1070
     0
  0
VISUALSTYLE
  5
1605
102
{ACAD_REACTORS
330
15F7
102
}
102
{ACAD_XDICTIONARY
360
1854
102
}
330
15F7
100
AcDbVisualStyle
  2
Linepattern
 70
    14
 71
     2
 72
     2
 73
     0
 90
        0
 40
-0.6
 41
-30.0
 62
     5
 63
     7
421
 16777215
 74
     1
 91
        4
 64
     7
 65
   257
 75
     7
175
     7
 42
1.0
 92
        8
 66
     7
 43
1.0
 76
     1
 77
     6
 78
     2
 67
     7
 79
     5
170
     0
171
     0
290
     0
174
     0
 93
        1
 44
0.0
173
     0
291
     1
 45
0.0
1001
ACAD
1000
AcDbSavedByObjectVersion
1070
     0
  0
VISUALSTYLE
  5
160E
102
{ACAD_REACTORS
330
15F7
102
}
102
{ACAD_XDICTIONARY
360
1856
102
}
330
15F7
100
AcDbVisualStyle
  2
OverhangOff
 70
    21
 71
     2
 72
     2
 73
     0
 90
        0
 40
-0.6
 41
-30.0
 62
     5
 63
     7
421
 16777215
 74
     1
 91
        4
 64
     7
 65
   257
 75
     1
175
     1
 42
1.0
 92
        9
 66
     7
 43
1.0
 76
     1
 77
     6
 78
     2
 67
     7
 79
     5
170
     0
171
     0
290
     0
174
     0
 93
        1
 44
0.0
173
     0
291
     1
 45
0.0
1001
ACAD
1000
AcDbSavedByObjectVersion
1070
     0
  0
VISUALSTYLE
  5
1601
102
{ACAD_REACTORS
330
15F7
102
}
102
{ACAD_XDICTIONARY
360
1858
102
}
330
15F7
100
AcDbVisualStyle
  2
Realistic
 70
     8
 71
     2
 72
     2
 73
     0
 90
        2
 40
-0.6
 41
30.0
 62
     5
 63
     7
421
 16777215
 74
     0
 91
        0
 64
     7
 65
   257
 75
     1
175
     1
 42
1.0
 92
        8
 66
   257
 43
1.0
 76
     1
 77
     6
 78
     2
 67
     7
 79
     3
170
     0
171
     0
290
     0
174
     0
 93
       13
 44
0.0
173
     0
291
     0
 45
0.0
1001
ACAD
1000
AcDbSavedByObjectVersion
1070
     0
  0
VISUALSTYLE
  5
160C
102
{ACAD_REACTORS
330
15F7
102
}
102
{ACAD_XDICTIONARY
360
185A
102
}
330
15F7
100
AcDbVisualStyle
  2
Shaded
 70
    27
 71
     2
 72
     2
 73
     1
 90
        2
 40
-0.6
 41
30.0
 62
     5
 63
     7
421
 16777215
 74
     0
 91
        4
 64
     7
 65
   257
 75
     1
175
     1
 42
1.0
 92
        8
 66
   257
 43
1.0
 76
     1
 77
     6
 78
     2
 67
     8
425
  7895160
 79
     3
170
     0
171
     0
290
     0
174
     0
 93
        5
 44
0.0
173
     0
291
     0
 45
0.0
1001
ACAD
1000
AcDbSavedByObjectVersion
1070
     0
  0
VISUALSTYLE
  5
160B
102
{ACAD_REACTORS
330
15F7
102
}
102
{ACAD_XDICTIONARY
360
185C
102
}
330
15F7
100
AcDbVisualStyle
  2
Shaded with edges
 70
    26
 71
     2
 72
     2
 73
     1
 90
        2
 40
-0.6
 41
30.0
 62
     5
 63
     7
421
 16777215
 74
     1
 91
       10
 64
     7
 65
   257
 75
     2
175
     1
 42
1.0
 92
        8
 66
   257
 43
1.0
 76
     1
 77
     6
 78
     2
 67
     7
 79
     3
170
     0
171
     0
290
     0
174
     0
 93
        5
 44
0.0
173
     0
291
     0
 45
0.0
1001
ACAD
1000
AcDbSavedByObjectVersion
1070
     0
  0
VISUALSTYLE
  5
1608
102
{ACAD_REACTORS
330
15F7
102
}
102
{ACAD_XDICTIONARY
360
185E
102
}
330
15F7
100
AcDbVisualStyle
  2
Shades of Gray
 70
    23
 71
     2
 72
     2
 73
     3
 90
        0
 40
-0.6
 41
-30.0
 62
     5
 63
     7
421
 16777215
 74
     2
 91
        2
 64
     7
 65
     7
 75
     1
175
     1
 42
40.0
 92
        8
 66
     7
 43
1.0
 76
     1
 77
     6
 78
     2
 67
     7
 79
     3
170
     0
171
     0
290
     0
174
     0
 93
        1
 44
0.0
173
     0
291
     0
 45
0.0
1001
ACAD
1000
AcDbSavedByObjectVersion
1070
     0
  0
VISUALSTYLE
  5
1609
102
{ACAD_REACTORS
330
15F7
102
}
102
{ACAD_XDICTIONARY
360
1860
102
}
330
15F7
100
AcDbVisualStyle
  2
Sketchy
 70
    24
 71
     1
 72
     2
 73
     2
 90
        0
 40
-0.6
 41
-30.0
 62
     5
 63
     7
421
 16777215
 74
     2
 91
        2
 64
     7
 65
     7
 75
     1
175
     1
 42
40.0
 92
       11
 66
     7
 43
1.0
 76
     1
 77
     6
 78
     2
 67
     7
 79
     6
170
     0
171
     0
290
     0
174
     0
 93
        1
 44
0.0
173
     0
291
     0
 45
0.0
1001
ACAD
1000
AcDbSavedByObjectVersion
1070
     0
  0
VISUALSTYLE
  5
1604
102
{ACAD_REACTORS
330
15F7
102
}
102
{ACAD_XDICTIONARY
360
1862
102
}
330
15F7
100
AcDbVisualStyle
  2
Thicken
 70
    13
 71
     2
 72
     2
 73
     0
 90
        0
 40
-0.6
 41
-30.0
 62
     5
 63
     7
421
 16777215
 74
     1
 91
        4
 64
     7
 65
   257
 75
     1
175
     1
 42
1.0
 92
       12
 66
     7
 43
1.0
 76
     1
 77
     6
 78
     2
 67
     7
 79
     5
170
     0
171
     0
290
     0
174
     0
 93
        1
 44
0.0
173
     0
291
     1
 45
0.0
1001
ACAD
1000
AcDbSavedByObjectVersion
1070
     0
  0
VISUALSTYLE
  5
15FE
102
{ACAD_REACTORS
330
15F7
102
}
102
{ACAD_XDICTIONARY
360
1864
102
}
330
15F7
100
AcDbVisualStyle
  2
Wireframe
 70
     5
 71
     0
 72
     2
 73
     0
 90
        0
 40
-0.6
 41
-30.0
 62
     5
 63
     7
421
 16777215
 74
     1
 91
        4
 64
     7
 65
   257
 75
     1
175
     1
 42
1.0
 92
        0
 66
   257
 43
1.0
 76
     1
 77
     6
 78
     2
 67
     7
 79
     3
170
     0
171
     0
290
     0
174
     0
 93
        1
 44
0.0
173
     0
291
     0
 45
0.0
1001
ACAD
1000
AcDbSavedByObjectVersion
1070
     0
  0
VISUALSTYLE
  5
160A
102
{ACAD_REACTORS
330
15F7
102
}
102
{ACAD_XDICTIONARY
360
1866
102
}
330
15F7
100
AcDbVisualStyle
  2
X-Ray
 70
    25
 71
     2
 72
     2
 73
     1
 90
        1
 40
0.5
 41
-30.0
 62
     5
 63
     7
421
 16777215
 74
     1
 91
        0
 64
     7
 65
   257
 75
     1
175
     1
 42
1.0
 92
        8
 66
     7
 43
1.0
 76
     1
 77
     6
 78
     2
 67
     7
 79
     3
170
     0
171
     0
290
     0
174
     0
 93
       13
 44
0.0
173
     0
291
     0
 45
0.0
1001
ACAD
1000
AcDbSavedByObjectVersion
1070
     0
  0
DICTIONARYVAR
  5
1827
102
{ACAD_REACTORS
330
1821
102
}
330
1821
100
DictionaryVariables
280
     0
  1
1:1
  0
DICTIONARYVAR
  5
1823
102
{ACAD_REACTORS
330
1821
102
}
330
1821
100
DictionaryVariables
280
     0
  1
Standard
  0
DICTIONARYVAR
  5
1822
102
{ACAD_REACTORS
330
1821
102
}
330
1821
100
DictionaryVariables
280
     0
  1
Standard
  0
DICTIONARYVAR
  5
1824
102
{ACAD_REACTORS
330
1821
102
}
330
1821
100
DictionaryVariables
280
     0
  1
Imperial24
  0
DICTIONARYVAR
  5
1825
102
{ACAD_REACTORS
330
1821
102
}
330
1821
100
DictionaryVariables
280
     0
  1
Imperial24
  0
DICTIONARYVAR
  5
1829
102
{ACAD_REACTORS
330
1821
102
}
330
1821
100
DictionaryVariables
280
     0
  1
1
  0
DICTIONARYVAR
  5
182A
102
{ACAD_REACTORS
330
1821
102
}
330
1821
100
DictionaryVariables
280
     0
  1
15
  0
DICTIONARYVAR
  5
1828
102
{ACAD_REACTORS
330
1821
102
}
330
1821
100
DictionaryVariables
280
     0
  1
0
  0
DICTIONARYVAR
  5
1826
102
{ACAD_REACTORS
330
1821
102
}
330
1821
100
DictionaryVariables
280
     0
  1
0
  0
DICTIONARYVAR
  5
182B
102
{ACAD_REACTORS
330
1821
102
}
330
1821
100
DictionaryVariables
280
     0
  1
2
  0
DICTIONARY
  5
17E7
102
{ACAD_REACTORS
330
17E5
102
}
330
17E5
100
AcDbDictionary
281
     1
  0
DICTIONARY
  5
17E6
102
{ACAD_REACTORS
330
17E5
102
}
330
17E5
100
AcDbDictionary
281
     1
  3
2129784256
350
17E0
  3
2129784264
350
17E1
  3
2129784272
350
17E2
  3
2129784280
350
17E3
  3
2129784288
350
17E4
  0
DICTIONARY
  5
181D
330
162A
100
AcDbDictionary
280
     1
281
     1
  3
ACAD_XREC_ROUNDTRIP
360
181E
  0
DICTIONARY
  5
181F
330
162D
100
AcDbDictionary
280
     1
281
     1
  3
ADSK_XREC_LAYOUTTHUMBNAIL
360
1820
  0
DICTIONARY
  5
182E
330
15E7
100
AcDbDictionary
280
     1
281
     1
  3
ACAD_XREC_ROUNDTRIP
360
182F
  0
DICTIONARY
  5
1830
330
15DF
100
AcDbDictionary
280
     1
281
     1
  3
ACAD_XREC_ROUNDTRIP
360
1831
  0
DICTIONARY
  5
1832
330
15EF
100
AcDbDictionary
280
     1
281
     1
  3
ACAD_XREC_ROUNDTRIP
360
1833
  0
DICTIONARY
  5
181B
330
1628
100
AcDbDictionary
280
     1
281
     1
  3
ACAD_XREC_ROUNDTRIP
360
181C
  0
DICTIONARY
  5
1834
330
1612
100
AcDbDictionary
280
     1
281
     1
  3
ACAD_ROUNDTRIP_2008_TABLESTYLE_CELLSTYLEMAP
360
1836
  3
ACAD_XREC_ROUNDTRIP
360
1835
  0
DICTIONARY
  5
1838
330
15FD
100
AcDbDictionary
280
     1
281
     1
  3
ACAD_XREC_ROUNDTRIP
360
1839
  0
DICTIONARY
  5
183A
330
15FC
100
AcDbDictionary
280
     1
281
     1
  3
ACAD_XREC_ROUNDTRIP
360
183B
  0
DICTIONARY
  5
183C
330
1603
100
AcDbDictionary
280
     1
281
     1
  3
ACAD_XREC_ROUNDTRIP
360
183D
  0
DICTIONARY
  5
183E
330
1607
100
AcDbDictionary
280
     1
281
     1
  3
ACAD_XREC_ROUNDTRIP
360
183F
  0
DICTIONARY
  5
1840
330
1600
100
AcDbDictionary
280
     1
281
     1
  3
ACAD_XREC_ROUNDTRIP
360
1841
  0
DICTIONARY
  5
1842
330
1602
100
AcDbDictionary
280
     1
281
     1
  3
ACAD_XREC_ROUNDTRIP
360
1843
  0
DICTIONARY
  5
1844
330
160F
100
AcDbDictionary
280
     1
281
     1
  3
ACAD_XREC_ROUNDTRIP
360
1845
  0
DICTIONARY
  5
1846
330
1606
100
AcDbDictionary
280
     1
281
     1
  3
ACAD_XREC_ROUNDTRIP
360
1847
  0
DICTIONARY
  5
1848
330
15F8
100
AcDbDictionary
280
     1
281
     1
  3
ACAD_XREC_ROUNDTRIP
360
1849
  0
DICTIONARY
  5
184A
330
15F9
100
AcDbDictionary
280
     1
281
     1
  3
ACAD_XREC_ROUNDTRIP
360
184B
  0
DICTIONARY
  5
184C
330
15FA
100
AcDbDictionary
280
     1
281
     1
  3
ACAD_XREC_ROUNDTRIP
360
184D
  0
DICTIONARY
  5
184E
330
15FB
100
AcDbDictionary
280
     1
281
     1
  3
ACAD_XREC_ROUNDTRIP
360
184F
  0
DICTIONARY
  5
1850
330
15FF
100
AcDbDictionary
280
     1
281
     1
  3
ACAD_XREC_ROUNDTRIP
360
1851
  0
DICTIONARY
  5
1852
330
160D
100
AcDbDictionary
280
     1
281
     1
  3
ACAD_XREC_ROUNDTRIP
360
1853
  0
DICTIONARY
  5
1854
330
1605
100
AcDbDictionary
280
     1
281
     1
  3
ACAD_XREC_ROUNDTRIP
360
1855
  0
DICTIONARY
  5
1856
330
160E
100
AcDbDictionary
280
     1
281
     1
  3
ACAD_XREC_ROUNDTRIP
360
1857
  0
DICTIONARY
  5
1858
330
1601
100
AcDbDictionary
280
     1
281
     1
  3
ACAD_XREC_ROUNDTRIP
360
1859
  0
DICTIONARY
  5
185A
330
160C
100
AcDbDictionary
280
     1
281
     1
  3
ACAD_XREC_ROUNDTRIP
360
185B
  0
DICTIONARY
  5
185C
330
160B
100
AcDbDictionary
280
     1
281
     1
  3
ACAD_XREC_ROUNDTRIP
360
185D
  0
DICTIONARY
  5
185E
330
1608
100
AcDbDictionary
280
     1
281
     1
  3
ACAD_XREC_ROUNDTRIP
360
185F
  0
DICTIONARY
  5
1860
330
1609
100
AcDbDictionary
280
     1
281
     1
  3
ACAD_XREC_ROUNDTRIP
360
1861
  0
DICTIONARY
  5
1862
330
1604
100
AcDbDictionary
280
     1
281
     1
  3
ACAD_XREC_ROUNDTRIP
360
1863
  0
DICTIONARY
  5
1864
330
15FE
100
AcDbDictionary
280
     1
281
     1
  3
ACAD_XREC_ROUNDTRIP
360
1865
  0
DICTIONARY
  5
1866
330
160A
100
AcDbDictionary
280
     1
281
     1
  3
ACAD_XREC_ROUNDTRIP
360
1867
  0
XRECORD
  5
17E0
102
{ACAD_REACTORS
330
17E6
102
}
330
17E6
100
AcDbXrecord
280
     1
  1
AcDb_Thumbnail_Schema
102
{ATTRRECORD
341
17E1
  2
AcDbDs::TreatedAsObjectData
280
     1
291
     1
102
ATTRRECORD}
102
{ATTRRECORD
341
17E2
  2
AcDbDs::Legacy
280
     1
291
     1
102
ATTRRECORD}
  2
AcDbDs::ID
280
    10
 91
        8
102
{ATTRRECORD
341
17E3
  2
AcDs:Indexable
280
     1
291
     1
102
ATTRRECORD}
102
{ATTRRECORD
341
17E4
  2
AcDbDs::HandleAttribute
280
     7
282
     1
102
ATTRRECORD}
  2
Thumbnail_Data
280
    15
 91
        0
  0
XRECORD
  5
17E1
102
{ACAD_REACTORS
330
17E6
102
}
330
17E6
100
AcDbXrecord
280
     1
  1
AcDbDs::TreatedAsObjectDataSchema
  2
AcDbDs::TreatedAsObjectData
280
     1
 91
        0
  0
XRECORD
  5
17E2
102
{ACAD_REACTORS
330
17E6
102
}
330
17E6
100
AcDbXrecord
280
     1
  1
AcDbDs::LegacySchema
  2
AcDbDs::Legacy
280
     1
 91
        0
  0
XRECORD
  5
17E3
102
{ACAD_REACTORS
330
17E6
102
}
330
17E6
100
AcDbXrecord
280
     1
  1
AcDbDs::IndexedPropertySchema
  2
AcDs:Indexable
280
     1
 91
        0
  0
XRECORD
  5
17E4
102
{ACAD_REACTORS
330
17E6
102
}
330
17E6
100
AcDbXrecord
280
     1
  1
AcDbDs::HandleAttributeSchema
  2
AcDbDs::HandleAttribute
280
     7
 91
        1
284
     1
  0
XRECORD
  5
181E
102
{ACAD_REACTORS
330
181D
102
}
330
181D
100
AcDbXrecord
280
     1
102
DISPLAYNAME
  1
Imperial24
102
FLAGS
 90
        0
  0
XRECORD
  5
1820
102
{ACAD_REACTORS
330
181F
102
}
330
181F
100
AcDbXrecord
280
     1
310
2800000000010000A4000000010008000000000000A4000001000000010000000001000000000000302821FF000000FFC8C8C8FF000000FF000000FF000000FF000000FF000000FF000000FF000000FF000000FF330000FF660000FF990000FFCC0000FFFF0000FF003300FF333300FF663300FF993300FFCC3300FFFF3300
310
FF006600FF336600FF666600FF996600FFCC6600FFFF6600FF009900FF339900FF669900FF999900FFCC9900FFFF9900FF00CC00FF33CC00FF66CC00FF99CC00FFCCCC00FFFFCC00FF00FF00FF33FF00FF66FF00FF99FF00FFCCFF00FFFFFF00FF000033FF330033FF660033FF990033FFCC0033FFFF0033FF003333FF3333
310
33FF663333FF993333FFCC3333FFFF3333FF006633FF336633FF666633FF996633FFCC6633FFFF6633FF009933FF339933FF669933FF999933FFCC9933FFFF9933FF00CC33FF33CC33FF66CC33FF99CC33FFCCCC33FFFFCC33FF00FF33FF33FF33FF66FF33FF99FF33FFCCFF33FFFFFF33FF000066FF330066FF660066FF99
310
0066FFCC0066FFFF0066FF003366FF333366FF663366FF993366FFCC3366FFFF3366FF006666FF336666FF666666FF996666FFCC6666FFFF6666FF009966FF339966FF669966FF999966FFCC9966FFFF9966FF00CC66FF33CC66FF66CC66FF99CC66FFCCCC66FFFFCC66FF00FF66FF33FF66FF66FF66FF99FF66FFCCFF66FF
310
FFFF66FF000099FF330099FF660099FF990099FFCC0099FFFF0099FF003399FF333399FF663399FF993399FFCC3399FFFF3399FF006699FF336699FF666699FF996699FFCC6699FFFF6699FF009999FF339999FF669999FF999999FFCC9999FFFF9999FF00CC99FF33CC99FF66CC99FF99CC99FFCCCC99FFFFCC99FF00FF99
310
FF33FF99FF66FF99FF99FF99FFCCFF99FFFFFF99FF0000CCFF3300CCFF6600CCFF9900CCFFCC00CCFFFF00CCFF0033CCFF3333CCFF6633CCFF9933CCFFCC33CCFFFF33CCFF0066CCFF3366CCFF6666CCFF9966CCFFCC66CCFFFF66CCFF0099CCFF3399CCFF6699CCFF9999CCFFCC99CCFFFF99CCFF00CCCCFF33CCCCFF66CC
310
CCFF99CCCCFFCCCCCCFFFFCCCCFF00FFCCFF33FFCCFF66FFCCFF99FFCCFFCCFFCCFFFFFFCCFF0000FFFF3300FFFF6600FFFF9900FFFFCC00FFFFFF00FFFF0033FFFF3333FFFF6633FFFF9933FFFFCC33FFFFFF33FFFF0066FFFF3366FFFF6666FFFF9966FFFFCC66FFFFFF66FFFF0099FFFF3399FFFF6699FFFF9999FFFFCC
310
99FFFFFF99FFFF00CCFFFF33CCFFFF66CCFFFF99CCFFFFCCCCFFFFFFCCFFFF00FFFFFF33FFFFFF66FFFFFF99FFFFFFCCFFFFFFFFFFFFFF000000FF0D0D0DFF1A1A1AFF282828FF353535FF434343FF505050FF5D5D5DFF6B6B6BFF787878FF868686FF939393FFA1A1A1FFAEAEAEFFBBBBBBFFC9C9C9FFD6D6D6FFE4E4E4FF
310
F1F1F1FFFFFFFFFF000000FF000000FF000000FF000000FF000000FF000000FF000000FF000000FF000000FF0000000000000000000000000000000000000000000000000000000000000000000000000000000000000000000000000000000000000000000000000000000000000000000000000000000000000000000000
310
00000000000000000000000000000000000000000000000000000000000000000000000000000000000000000000000000000000000000000000000000000000000000000000000000000000000000000000000000000000000000000000000000000000000000000000000000000000000000000000000000000000000000
310
00000000000000000000000000000000000000000000000000000000000000000000000000000000000000000000000000000000000000000000000000000000000000000000000000000000000000000000000000000000000000000000000000000000000000000000000000000000000000000000000000000000000000
310
00000000000000000000000000000000000000000000000000000000000000000000000000000000000000000000000000000000000000000000000000000000000000000000000000000000000000000000000000000000000000000000000000000000000000000000000000000000000000000000000000000000000000
310
00000000000000000000000000000000000000000000000000000000000000000000000000000000000000000000000000000000000000000000000000000000000000000000000000000000000000000000000000000000000000000000000000000000000000000000000000000000000000000000000000000000000000
310
00000000000000000000000000000000000000000000000000000000000000000000000000000000000000000000000000000000000000000000000000000000000000000000000000000000000000000000000000000000000000000000000000000000000000000000000000000000000000000000000000000000000000
310
00000000000000000000000000000000000000000000000000000000000000000000000000000000000000000000000000000000000000000000000000000000000000000000000000000000000000000000000000000000000000000000000000000000000000000000000000000000000000000000000000000000000000
310
00000000000000000000000000000000000000000000000000000000000000000000000000000000000000000000000000000000000000000000000000000000000000000000000000000000000000000000000000000000000000000000000000000000000000000000000000000000000000000000000000000000000000
310
00000000000000000000000000000000000000000000000000000000000000000000000000000000000000000000000000000000000000000000000000000000000000000000000000000000000000000000000000000000000000000000000000000000000000000000000000000000000000000000000000000000000000
310
00000000000000000000000000000000000000000000000000000000000000000000000000000000000000000000000000000000000000000000000000000000000000000000000000000000000000000000000000000000000000000000000000000000000000000000000000000000000000000000000000000000000000
310
00000000000000000000000000000000000000000000000000000000000000000000000000000000000000000000000000000000000000000000000000000000000000000000000000000000000000000000000000000000000000000000000000000000000000000000000000000000000000000000000000000000000000
310
00000000000000000000000000000000000000000000000000000000000000000000000000000000000000000000000000000000000000000000000000000000000000000000000000000000000000000000000000000000000000000000000000000000000000000000000000000000000000000000000000000000000000
310
00000000000000000000000000000000000000000000000000000000000000000000000000000000000000000000000000000000000000000000000000000000000000000000000000000000000000000000000000000000000000000000000000000000000000000000000000000000000000000000000000000000000000
310
00000000000000000000000000000000000000000000000000000000000000000000000000000000000000000000000000000000000000000000000000000000000000000000000000000000000000000000000000000000000000000000000000000000000000000000000000000000000000000000000000000000000000
310
00000000000000000000000000000000000000000000000000000000000000000000000000000000000000000000000000000000000000000000000000000000000000000000000000000000000000000000000000000000000000000000000000000000000000000000000000000000000000000000000000000000000000
310
00000000000000000000000000000000000000000000000000000000000000000000000000000000000000000000000000000000000000000000000000000000000000000000000000000000000000000000000000000000000000000000000000000000000000000000000000000000000000000000000000000000000000
310
00000000000000000000000000000000000000000000000000000000000000000000000000000000000000000000000000000000000000000000000000000000000000000000000000000000000000000000000000000000000000000000000000000000000000000000000000000000000000000000000000000000000000
310
00000000000000000000000000000000000000000000000000000000000000000000000000000000000000000000000000000000000000000000000000000000000000000000000000000000000000000000000000000000000000000000000000000000000000000000000000000000000000000000000000000000000000
310
00000000000000000000000000000000000000000000000000000000000000000000000000000000000000000000000000000000000000000000000000000000000000000000000000000000000000000000000000000000000000000000000000000000000000000000000000000000000000000000000000000000000000
310
00000000000000000000000000000000000000000000000000000000000000000000000000000000000000000000000000000000000000000000000000000000000000000000000000000000000000000000000000000000000000000000000000000000000000000000000000000000000000000000000000000000000000
310
00000000000000000000000000000000000000000000000000000000000000000000000000000000000000000000000000000000000000000000000000000000000000000000000000000000000000000000000000000000000000000000000000000000000000000000000000000000000000000000000000000000000000
310
00000000000000000000000000000000000000000000000000000000000000000000000000000000000000000000000000000000000000000000000000000000000000000000000000000000000000000000000000000000000000000000000000000000000000000000000000000000000000000000000000000000000000
310
00000000000000000000000000000000000000000000000000000000000000000000000000000000000000000000000000000000000000000000000000000000000000000000000000000000000000000000000000000000000000000000000000000000000000000000000000000000000000000000000000000000000000
310
00000000000000000000000000000000000000000000000000000000000000000000000000000000000000000000000000000000000000000000000000000000000000000000000000000000000000000000000000000000000000000000000000000000000000000000000000000000000000000000000000000000000000
310
00000000000000000000000000000000000000000000000000000000000000000000000000000000000000000000000000000000000000000000000000000000000000000000000000000000000000000000000000000000000000000000000000000000000000000000000000000000000000000000000000000000000000
310
00000000000000000000000000000000000000000000000000000000000000000000000000000000000000000000000000000000000000000000000000000000000000000000000000000000000000000000000000000000000000000000000000000000000000000000000000000000000000000000000000000000000000
310
00000000000000000000000000000000000000000000000000000000000000000000000000000000000000000000000000000000000000000000000000000000000000000000000000000000000000000000000000000000000000000000000000000000000000000000000000000000000000000000000000000000000000
310
00000000000000000000000000000000000000000000000000000000000000000000000000000000000000000000000000000000000000000000000000000000000000000000000000000000000000000000000000000000000000000000000000000000000000000000000000000000000000000000000000000000000000
310
0000000000000000000000000000000000000000BEBEBEBEBEBEBEBEBEBEBEBEBEBEBEBEBEBEBEBE000000000000000000000000000000000000000000000000000000000000000000000000000000000000000000000000000000000000000000000000000000000000000000000000000000000000000000000000000000
310
00000000000000000000000000000000000000000000000000000000000000000000000000000000000000000000000000000000000000000000000000000000000000000000000000000000000000000000000000000000000000000000000000000000000000000000000000000000000000000000000000000000000000
310
00000000000000000000000000000000000000000000BEBEBEBEBE00BEBEBE00BEBEBEBEBEBEBEBEBEBE000000000000000000000000000000000000000000000000000000000000000000000000000000000000000000000000000000000000000000000000000000000000000000000000000000000000DCDCDCDCDCDCDC
310
DCDCDCDCDCDCDCDCDCDCDCDCDCDCDCDCDCDCDCDCDCDCDCDCDCDCDCDCDCDCDCDCDCDCDCDCDCDCDCDCDCDCDCDCDCDCDCDCDCDCDCDCDCDCDCDCDCDCDCDCDCDCDCDCDCDCDCDCDCDCDCDCDCDCDCDCDCDCDCDCDCDCDCDCDCDCDCDCDCDCDCDCDCDCDCDCDCDCDCDCDCDCDCDCDCDCDCDCDCDCDCDCDCDCDCDCDCDCDCDCDCDCDCDCDCDCDC
310
DCDCDCDCDCDCDCDCDCDCDCDCDCDCDCDCDCDCDCDCDCDCDCDCDCDCDCDCDCDCDCDCDCDCDCDCDCDCDCDCDCDCDCDCDC0000000000000000000000000000000000000000000000000000000000000000000000000000000000000000000000000000000000000000000000000000000000000000000000000000000000DC00000000
310
00000000000000000000000000000000000000000000000000000000000000000000000000000000000000000000000000000000000000000000000000000000000000000000000000000000000000000000000000000000000000000000000000000000000000000000000000000000000000000000000000000000000000
310
0000000000000000000000DC00000000000000000000000000BEBEBE0000000000000000BEBEBEBE000000000000DC0000000000000000000000000000000000000000000000000000000000000000000000000000000000000000000000000000000000000000000000000000000000000000000000000000000000DC0000
310
00000000000000000000000000000000000000000000000000000000000000000000000000000000000000000000000000000000000000000000000000000000000000000000000000000000000000000000000000000000000000000000000000000000000000000000000000000000000000000000000000000000000000
310
00000000000000000000000000DC00000000000000000000000000BEBEBE0000000000000000BEBEBEBE000000000000DC0000000000000000000000000000000000000000000000000000000000000000000000000000000000000000000000000000000000000000000000000000000000000000000000000000000000DC
310
00000000000000000000000000000000000000000000000000000000000000000000000000000000000000000000000000000000000000000000000000000000000000000000000000000000000000000000000000000000000000000000000000000000000000000000000000000000000000000000000000000000000000
310
000000000000000000000000000000DCBEBEBEBEBEBEBEBEBEBEBEBEBEBEBEBE0000000000000000BEBEBEBE000000000000DC00000000000000000000000000000000000000000000000000000000000000000000000000000000000000000000000000000000000000000000000000000000000000000000000000000000
310
00DC0000000000000000000000000000000000000000000000000000000000000000000000000000000000000000000000000000000000000000000000000000000000000000000000000000000000000000000000000000000000000000000000000000000000000000000000000000000000000000000000000000000000
310
0000000000000000000000000000000000DC00BEBE00BEBE00BEBE00BEBE00BEBEBE0000000000000000BEBEBEBE000000000000DC0000000000000000000000000000000000000000000000000000000000000000000000000000000000000000000000000000000000000000000000000000000000000000000000000000
310
000000DC000000000000000000000000000000000000000000000000000000000000000000000000000000000000000000000000000000000000000000000000000000000000000000000000000000000000000000000000000000000000000000000000000000000000000000000000000000000000000000000000000000
310
00000000000000000000000000000000000000DCBEBEBEBEBEBEBEBEBEBEBEBEBEBEBEBEBEBEBEBEBEBEBEBEBEBEBEBEBEBEBEBEBEBEDC000000000000000000000000000000000000000000000000000000000000000000000000000000000000000000000000000000000000000000000000000000000000000000000000
310
0000000000DC00000000000000000000000000000000000000000000000000000000000000000000000000000000000000000000000000000000000000000000000000000000000000000000000000000000000000000000000000000000000000000000000000000000000000000000000000000000000000000000000000
310
000000000000000000000000000000000000000000DCBEBEBEBEBEBEBE00000000000000000000BEBEBE0000BEBEBEBEBEBEBEBE00000000DC00000000000000000000000000000000000000000000000000000000000000000000000000000000000000000000000000000000000000000000000000000000000000000000
310
00000000000000DC0000000000000000000000000000000000000000000000000000000000000000000000000000000000000000000000000000000000000000000000000000000000000000000000000000000000000000000000000000000000000000000000000000000000000000000000000000000000000000000000
310
0000000000000000000000000000000000000000000000DCBEBEBEBEBEBEBEBEBEBEBEBEBEBEBEBEBEBEBEBEBEBEBEBEBEBEBEBEBEBEBEBEBEBEDC0000000000000000000000000000000000000000000000000000000000000000000000000000000000000000000000000000000000000000000000000000000000000000
310
000000000000000000DC000000000000000000000000000000000000000000000000000000000000000000000000000000000000000000000000000000000000000000000000000000000000000000000000000000000000000000000000000000000000000000000000000000000000000000000000000000000000000000
310
00000000000000000000000000000000000000000000000000DCBEBEBEBEBEBEBE00BEBE00BEBE00BEBEBEBEBEBEBEBEBEBEBE00000000000000BEBEDC000000000000000000000000000000000000000000000000000000000000000000000000000000000000000000000000000000000000000000000000000000000000
310
0000000000000000000000DC00000000000000000000000000000000000000000000000000000000000000000000000000000000000000000000000000000000000000000000000000000000000000000000000000000000000000000000000000000000000000000000000000000000000000000000000000000000000000
310
000000000000000000000000000000000000000000000000000000DCBEBEBEBEBEBEBEBEBEBEBEBEBEBEBEBEBEBEBEBEBEBEBEBEBEBEBEBEBEBEBEBEBEBEDC00000000000000000000000000000000000000000000000000000000000000000000000000000000000000000000000000000000000000000000000000000000
310
00000000000000000000000000DC0000000000000000000000000000000000000000000000000000000000000000000000000000000000000000000000000000000000000000000000000000000000000000000000000000000000000000000000000000000000000000000000000000000000000000000000000000000000
310
0000000000000000000000000000000000000000000000000000000000DCBEBEBEBEBEBEBE00000000000000000000BEBEBEBEBEBEBEBE000000000000000000DC0000000000000000000000000000000000000000000000000000000000000000000000000000000000000000000000000000000000000000000000000000
310
000000000000000000000000000000DC000000000000000000000000000000000000000000000000000000000000000000000000000000000000000000000000000000000000000000000000000000000000000000000000000000000000000000000000000000000000000000000000000000000000000000000000000000
310
00000000000000000000000000000000000000000000000000000000000000DCBEBEBEBEBEBEBE00000000000000000000BEBEBEBEBEBEBEBE000000000000000000DC000000000000000000000000000000000000000000000000000000000000000000000000000000000000000000000000000000000000000000000000
310
0000000000000000000000000000000000DC00000000000000000000000000000000000000000000000000000000000000000000000000000000000000000000000000000000000000000000000000000000000000000000000000000000000000000000000000000000000000000000000000000000000000000000000000
310
000000000000000000000000000000000000000000000000000000000000000000DCBEBEBEBEBEBEBEBEBEBEBEBEBEBEBEBEBEBEBEBEBEBEBEBEBEBEBEBEBEBEBEBEBEBEDC00000000000000000000000000000000000000000000000000000000000000000000000000000000000000000000000000000000000000000000
310
00000000000000000000000000000000000000DC0000000000000000000000000000000000000000000000000000000000000000000000000000000000000000000000000000000000000000000000000000000000000000000000000000000000000000000000000000000000000000000000000000000000000000000000
310
0000000000000000000000000000000000000000000000000000000000000000000000DCBEBE0000BEBEBE000000BEBEBEBEBEBEBEBEBEBEBEBEBE00BEBEBEBEBEBE00000000DC0000000000000000000000000000000000000000000000000000000000000000000000000000000000000000000000000000000000000000
310
000000000000000000000000000000000000000000DC000000000000000000000000000000000000000000000000000000000000000000000000000000000000000000000000000000000000000000000000000000000000000000000000000000000000000000000000000000000000000000000000000000000000000000
310
00000000000000000000000000000000000000000000000000000000000000000000000000DCBEBE0000BEBEBE000000BEBEBEBEBEBEBEBEBEBEBE00BE00BEBEBEBEBEBE00000000DC000000000000000000000000000000000000000000000000000000000000000000000000000000000000000000000000000000000000
310
0000000000000000000000000000000000000000000000DC00000000000000000000000000000000000000000000000000000000000000000000000000000000000000000000000000000000000000000000000000000000000000000000000000000000000000000000000000000000000000000000000000000000000000
310
000000000000000000000000000000000000000000000000000000000000000000000000000000DCDCDCDCDCDCDCDCDCDCDCDCDCDCDCDCDCDCDCDCDCDCDCDCDCDCDCDCDCDCDCDCDCDCDCDC00000000000000000000000000000000000000000000000000000000000000000000000000000000000000000000000000000000
310
00000000000000000000000000000000000000000000000000DC0000000000000000000000000000000000000000000000000000000000000000000000000000000000000000000000000000000000000000000000000000000000000000000000000000000000000000000000000000000000000000000000000000000000
310
000000000000000000000000000000000000000000000000000000000000000000000000000000000000BEBEBEBEBEBEBEBE00BEBEBEBEBE0000BEBEBEBEBEBEBEBEBEBEBEBEBE00BEBEBEBEDC0000000000000000000000000000000000000000000000000000000000000000000000000000000000000000000000000000
310
000000000000000000000000000000000000000000000000000000DC000000000000000000000000000000000000000000000000000000000000000000000000000000000000000000000000000000000000000000000000000000000000000000000000000000000000000000000000000000000000000000000000000000
310
0000000000000000000000000000000000000000000000000000000000000000000000000000000000000000BEBEBEBEBEBEBEBEBEBEBEBEBEBE0000BEBEBEBEBEBEBEBEBEBEBEBEBE00BEBEBEBEDC000000000000000000000000000000000000000000000000000000000000000000000000000000000000000000000000
310
0000000000000000000000000000000000000000000000000000000000DC00000000000000000000000000000000000000000000000000000000000000000000000000000000000000000000000000000000000000000000000000000000000000000000000000000000000000000000000000000000000000000000000000
310
0000000000000000000000000000000000000000000000000000000000000000000000000000000000000000000000000000000000000000000000000000000000000000000000000000000000000000DC00000000000000000000000000000000000000000000000000000000000000000000000000000000000000000000
310
00000000000000000000000000000000000000000000000000000000000000DC0000000000000000000000000000000000000000000000000000000000000000000000000000000000000000000000000000000000000000000000000000000000000000000000000000000000000000000000000000000000000000000000
310
00000000000000000000000000000000000000000000000000000000000000000000000000000000000000000000000000000000000000000000000000000000000000000000000000000000000000000000DC0000000000000000000000000000000000000000000000000000000000000000000000000000000000000000
310
000000000000000000000000000000000000000000000000000000000000000000DC000000000000000000000000000000000000000000000000000000000000000000000000000000000000000000000000000000000000000000000000000000000000000000000000000000000000000000000000000000000000000000
310
000000000000000000000000000000000000000000000000000000000000000000000000000000000000000000000000000000000000000000000000000000000000000000000000000000000000000000000000DC000000000000000000000000000000000000000000000000000000000000000000000000000000000000
310
0000000000000000000000000000000000000000000000000000000000000000000000DC00000000000000000000000000000000000000000000000000000000000000000000000000000000000000000000000000000000000000000000000000000000000000000000000000000000000000000000000000000000000000
310
0000000000000000000000000000000000000000000000000000000000000000000000000000000000000000000000000000000000000000000000000000000000000000000000000000000000000000000000000000DC00000000000000000000000000000000000000000000000000000000000000000000000000000000
310
00000000000000000000000000000000000000000000000000000000000000000000000000DC0000000000000000000000000000000000000000000000000000000000000000000000000000000000000000000000000000000000000000000000000000000000000000000000000000000000000000000000000000000000
310
00000000000000000000000000000000000000000000000000000000000000000000000000000000000000000000000000000000000000000000000000000000000000000000000000000000000000000000000000000000DC0000000000000000000000000000000000000000000000000000000000000000000000000000
310
000000000000000000000000000000000000000000000000000000000000000000000000000000DC000000000000000000000000000000000000000000000000000000000000000000000000000000000000000000000000000000000000000000000000000000000000000000000000000000000000000000000000000000
310
000000000000000000000000000000000000000000000000000000000000000000000000000000000000000000000000000000000000000000000000000000000000000000000000000000000000000000000000000000000000DC000000000000000000000000000000000000000000000000000000000000000000000000
310
0000000000000000000000000000000000000000000000000000000000000000000000000000000000DC00000000000000000000000000000000000000000000000000000000000000000000000000000000000000000000000000000000000000000000000000000000000000000000000000000000000000000000000000
310
0000000000000000000000000000000000000000000000000000000000000000000000000000000000000000000000000000000000000000000000000000000000000000000000000000000000000000000000000000000000000000DC00000000000000000000000000000000000000000000000000000000000000000000
310
00000000000000000000000000000000000000000000000000000000000000000000000000000000000000DC0000000000000000000000000000000000000000000000000000000000000000000000000000000000000000000000000000000000000000000000000000000000000000000000000000000000000000000000
310
00000000000000000000000000000000000000000000000000000000000000000000000000000000000000000000000000000000000000000000000000000000000000000000000000000000000000000000000000000000000000000000DC0000000000000000000000000000000000000000000000000000000000000000
310
000000000000000000000000000000000000000000000000000000000000000000000000000000000000000000DC000000000000000000000000000000000000000000000000000000000000000000000000000000000000000000000000000000000000000000000000000000000000000000000000000000000000000000
310
000000000000000000000000000000000000000000000000000000000000000000000000000000000000000000000000000000000000000000000000000000000000000000000000000000000000000000000000000000000000000000000000DC000000000000000000000000000000000000000000000000000000000000
310
0000000000000000000000000000000000000000000000000000000000000000000000000000000000000000000000DC00000000000000000000000000000000000000000000000000000000000000000000000000000000000000000000000000000000000000000000000000000000000000000000000000000000000000
310
0000000000000000000000000000000000000000000000000000000000000000000000000000000000000000000000000000000000000000000000000000000000000000000000000000000000000000000000000000000000000000000000000000DC00000000000000000000000000000000000000000000000000000000
310
00000000000000000000000000000000000000000000000000000000000000000000000000000000000000000000000000DC0000000000000000000000000000000000000000000000000000000000000000000000000000000000000000000000000000000000000000000000000000000000000000000000000000000000
310
00000000000000000000000000000000000000000000000000000000000000000000000000000000000000000000000000000000000000000000000000000000000000000000000000000000000000000000000000000000000000000000000000000000DC0000000000000000000000000000000000000000000000000000
310
000000000000000000000000000000000000000000000000000000000000000000000000000000000000000000000000000000DC000000000000000000000000000000000000000000000000000000000000000000000000000000000000000000000000000000000000000000000000000000000000000000000000000000
310
000000000000000000000000000000000000000000000000000000000000000000000000000000000000000000000000000000000000000000000000000000000000000000000000000000000000000000000000000000000000000000000000000000000000DC000000000000000000000000000000000000000000000000
310
0000000000000000000000000000000000000000000000000000000000000000000000000000000000000000000000000000000000DC00000000000000000000000000000000000000000000000000000000000000000000000000000000000000000000000000000000000000000000000000000000000000000000000000
310
0000000000000000000000000000000000000000000000000000000000000000000000000000000000000000000000000000000000000000000000000000000000000000000000000000000000000000000000000000000000000000000000000000000000000000DC00000000000000000000000000000000000000000000
310
00000000000000000000000000000000000000000000000000000000000000000000000000000000000000000000000000000000000000DC0000000000000000000000000000000000000000000000000000000000000000000000000000000000000000000000000000000000000000000000000000000000000000000000
310
00000000000000000000000000000000000000000000000000000000000000000000000000000000000000000000000000000000000000000000000000000000000000000000000000000000000000000000000000000000000000000000000000000000000000000000DC0000000000000000000000000000000000000000
310
000000000000000000000000000000000000000000000000000000000000000000000000000000000000000000000000000000000000000000DC000000000000000000000000000000000000000000000000000000000000000000000000000000000000000000000000000000000000000000000000000000000000000000
310
000000000000000000000000000000000000000000000000000000000000000000000000000000000000000000000000000000000000000000000000000000000000000000000000000000000000000000000000000000000000000000000000000000000000000000000000DC000000000000000000000000000000000000
310
0000000000000000000000000000000000000000000000000000000000000000000000000000000000000000000000000000000000000000000000DC00000000000000000000000000000000000000000000000000000000000000000000000000000000000000000000000000000000000000000000000000000000000000
310
0000000000000000000000000000000000000000000000000000000000000000000000000000000000000000000000000000000000000000000000000000000000000000000000000000000000000000000000000000000000000000000000000000000000000000000000000000DC00000000000000000000000000000000
310
00000000000000000000000000000000000000000000000000000000000000000000000000000000000000000000000000000000000000000000000000DC0000000000000000000000000000000000000000000000000000000000000000000000000000000000000000000000000000000000000000000000000000000000
310
00000000000000000000000000000000000000000000000000000000000000000000000000000000000000000000000000000000000000000000000000000000000000000000000000000000000000000000000000000000000000000000000000000000000000000000000000000000DC0000000000000000000000000000
310
000000000000000000000000000000000000000000000000000000000000000000000000000000000000000000000000000000000000000000000000000000DC000000000000000000000000000000000000000000000000000000000000000000000000000000000000000000000000000000000000000000000000000000
310
000000000000000000000000000000000000000000000000000000000000000000000000000000000000000000000000000000000000000000000000000000000000000000000000000000000000000000000000000000000000000000000000000000000000000000000000000000000000DC000000000000000000000000
310
0000000000000000000000000000000000000000000000000000000000000000000000000000000000000000000000000000000000000000000000000000000000DC00000000000000000000000000000000000000000000000000000000000000000000000000000000000000000000000000000000000000000000000000
310
0000000000000000000000000000000000000000000000000000000000000000000000000000000000000000000000000000000000000000000000000000000000000000000000000000000000000000000000000000000000000000000000000000000000000000000000000000000000000000DC00000000000000000000
310
00000000000000000000000000000000000000000000000000000000000000000000000000000000000000000000000000000000000000000000000000000000000000DC0000000000000000000000000000000000000000000000000000000000000000000000000000000000000000000000000000000000000000000000
310
00000000000000000000000000000000000000000000000000000000000000000000000000000000000000000000000000000000000000000000000000000000000000000000000000000000000000000000000000000000000000000000000000000000000000000000000000000000000000000000DC0000000000000000
310
000000000000000000000000000000000000000000000000000000000000000000000000000000000000000000000000000000000000000000000000000000000000000000DC000000000000000000000000000000000000000000000000000000000000000000000000000000000000000000000000000000000000000000
310
000000000000000000000000000000000000000000000000000000000000000000000000000000000000000000000000000000000000000000000000000000000000000000000000000000000000000000000000000000000000000000000000000000000000000000000000000000000000000000000000DC000000000000
310
0000000000000000000000000000000000000000000000000000000000000000000000000000000000000000000000000000000000000000000000000000000000000000000000DC00000000000000000000000000000000000000000000000000000000000000000000000000000000000000BEBE00000000000000000000
310
00000000000000000000BEBE0000000000000000000000000000000000000000000000000000000000000000000000000000000000000000000000000000000000000000000000000000000000000000000000000000000000000000000000000000000000000000000000000000000000000000000000000000DC00000000
310
00000000000000000000000000000000000000000000000000000000000000000000000000000000000000000000000000000000000000000000000000000000000000000000000000DC00000000000000000000000000000000000000000000000000000000000000000000000000000000000000BEBEBEBEBEBEBEBEBEBE
310
BEBEBEBEBEBEBEBEBEBEBEBEBEBE0000000000000000000000000000000000000000000000000000000000000000000000000000000000000000000000000000000000000000000000000000000000000000000000000000000000000000000000000000000000000000000000000000000000000000000000000000DC0000
310
000000000000000000000000000000000000000000000000000000000000000000000000000000000000000000000000000000000000000000000000000000000000000000000000000000DC00000000000000000000000000000000000000000000000000000000000000000000000000000000000000BE00000000000000
310
000000BEBEBE000000000000000000BE0000000000000000000000000000000000000000000000000000000000000000000000000000000000000000000000000000000000000000000000000000000000000000000000000000000000000000000000000000000000000000000000000000000000000000000000000000DC
310
0000000000000000000000000000000000000000000000000000000000000000000000000000000000000000000000000000000000000000000000000000000000000000000000000000000000DC000000000000000000000000000000000000000000000000000000000000000000000000000000000000BEBEBEBEBEBEBE
310
BEBEBEBEBEBEBEBEBEBEBEBEBEBEBEBEBEBE00000000000000000000000000000000000000000000000000000000000000000000000000000000000000000000000000000000000000000000000000000000000000000000000000000000000000000000000000000000000000000000000000000000000000000000000000
310
00DC0000000000000000000000000000000000000000000000000000000000000000000000000000000000000000000000000000000000000000000000000000000000000000000000000000000000DC00000000000000000000000000000000000000000000000000000000000000000000000000000000000000BEBE0000
310
00000000000000BEBEBE000000000000000000BE0000000000000000000000000000000000000000000000000000000000000000000000000000000000000000000000000000000000000000000000000000000000000000000000000000000000000000000000000000000000000000000000000000000000000000000000
310
000000DC0000000000000000000000000000000000000000000000000000000000000000000000000000000000000000000000000000000000000000000000000000000000000000000000000000000000DC00000000000000000000000000000000000000000000000000000000000000000000000000000000000000BEBE
310
000000000000000000BEBEBE000000000000000000BE000000000000000000000000000000000000000000000000000000000000000000000000000000000000000000000000000000000000000000000000000000000000000000000000000000000000000000000000000000000000000000000000000000000000000000
310
0000000000DC0000000000000000000000000000000000000000000000000000000000000000000000000000000000000000000000000000000000000000000000000000000000000000000000000000000000DC00000000000000000000000000000000000000000000000000000000000000000000000000000000000000
310
BEBEBEBEBEBE0000000000000000000000000000000000BE00000000000000000000000000000000000000000000000000000000000000000000000000000000000000000000000000000000000000000000000000000000000000000000000000000000000000000000000000000000000000000000000000000000000000
310
00000000000000DC0000000000000000000000000000000000000000000000000000000000000000000000000000000000000000000000000000000000000000000000000000000000000000000000000000000000DC0000000000000000000000000000000000000000000000000000000000000000000000000000000000
310
0000BEBEBEBEBEBE0000000000000000000000000000000000BE0000000000000000000000000000000000000000000000000000000000000000000000000000000000000000000000000000000000000000000000000000000000000000000000000000000000000000000000000000000000000000000000000000000000
310
000000000000000000DC0000000000000000000000000000000000000000000000000000000000000000000000000000000000000000000000000000000000000000000000000000000000000000000000000000000000DC000000000000000000000000000000000000000000000000000000000000000000000000000000
310
00000000BEBEBEBEBEBE0000000000000000000000000000000000BE000000000000000000000000000000000000000000000000000000000000000000000000000000000000000000000000000000BEBEBEBEBEBEBEBE00000000000000000000000000000000000000000000000000000000000000000000000000000000
310
0000000000000000000000DC0000000000000000000000000000000000000000000000000000000000000000000000000000000000000000000000000000000000000000000000000000000000000000000000000000000000DC00000000000000000000000000000000000000000000000000000000000000000000000000
310
000000000000BEBE000000BE0000000000000000000000000000000000BE0000000000000000000000000000000000000000000000000000000000000000000000000000000000000000000000BEBEBEBEBEBEBEBEBEBEBEBEBEBE000000000000000000000000000000000000000000000000000000000000000000000000
310
00000000000000000000000000DC0000000000000000000000000000000000000000000000000000000000000000000000000000000000000000000000000000000000000000000000000000000000000000000000000000000000DC0000000000000000000000000000000000000000000000000000000000000000000000
310
0000000000000000BEBE000000BE0000000000000000000000000000000000BE0000000000000000000000000000000000000000000000000000000000000000000000000000000000000000000000BE0000BE0000BEBEBEBEBEBE000000000000000000000000000000000000000000000000000000000000000000000000
310
000000000000000000000000000000DC0000000000000000000000000000000000000000000000000000000000000000000000000000000000000000000000000000000000000000000000000000000000000000000000000000000000DC000000000000000000000000000000000000000000000000000000000000000000
310
00000000000000000000BEBE000000BE0000000000000000000000000000000000BE00000000000000000000000000000000000000000000000000000000000000000000000000000000000000000000BEBE00BE000000000000BEBEBE00000000000000000000000000000000000000000000000000000000000000000000
310
0000000000000000000000000000000000DC0000000000000000000000000000000000000000000000000000000000000000000000000000000000000000000000000000000000000000000000000000000000000000000000000000000000DC00000000000000000000000000000000000000000000000000000000000000
310
000000000000000000000000BEBE000000BE0000000000000000000000000000000000BE00000000000000000000000000000000000000000000000000000000000000000000000000000000000000000000BE0000BE0000000000000000000000000000000000000000000000000000000000000000000000000000000000
310
00000000000000000000000000000000000000DC0000000000000000000000000000000000000000000000000000000000000000000000000000000000000000000000000000000000000000000000000000000000000000000000000000000000DC0000000000000000000000000000000000000000000000000000000000
310
0000000000000000000000000000BEBE000000BE0000000000000000000000000000000000BE0000000000000000BE000000000000000000000000000000000000000000000000000000000000000000000000BEBE00BE000000000F0000000000000000000000000000000000000000000000000000000000000000000000
310
000000000000000000000000000000000000000000DC0000000000000000000000000000000000000000000000000000000000000000000000000000000000000000000000000000000000000000000000000000000000000000000000000000000000DC000000000000000000000000000000000000000000000000000000
310
000000BEBEBEBEBEBEBEBEBEBEBEBEBEBEBE282828BE2828282828282828282828282828282828BEBEBEBEBEBEBEBEBEBE000000000000000000000000000000000000000028282828282828282828282828282828BE282828282828282828282828282828282828282828282828282828282828BEBEBEBEBEBEBEBEBEBEBE
310
BEBEBE0000000000000000000000000000000000000000DC0000000000000000000000000000000000000000000000000000000000000000000000000000000000000000000000000000000000000000000000000000000000000000000000000000000000DC00000000000000000000000000000000000000000000000000
310
0000000000BE0000BE00000000000000000028BE000000BE000000000000000000000000000000000028000000000000BEBEBE0000000000000000000000000000000000000000280000000000000000000000000000BEBE00BE00000000000F00000000000000000000000000000000000000000000280000000000000000
310
00BE0000BE0000000000000000000000000000000000000000DC0000000000000000000000000000000000000000000000000000000000000000000000000000000000000000000000000000000000000000000000000000000000000000000000000000000000DC0000000000000000000000000000000000000000000000
310
00000000000000BE00BEBE00000000000000000028BE000000BE0000000000000000DCDCDCDCDCDCDCDCDCDCDCDCDC000000BEBEBE000000000000000000000000000000000000000028BEBE0000BE0000BE0000BE0000BEBE00BEBE00BEBE0000BE0000BE0000BE0000BE0000BEBE00BEBE0000BE0000BE28000000000000
310
00BEBEBE0000BE0000000000000000000000000000000000000000DC0000000000000000000000000000000000000000000000000000000000000000000000000000000000000000000000000000000000000000000000000000000000000000000000000000000000DC000000000000000000000000000000000000000000
310
000000000000000000BE00BEBE00000000000000000028BE000000BE000000000000DCDCDCDCDCDCDCDCDCDCDCBEBEBEBEBEBEBEBEBEBE000000000000000000000000000000000000000028282828282828282828282828282828282828282828282828282828282828282828282828282828282828282828282800000000
310
000000BEBEBE0000BE0000000000000000000000000000000000000000DC0000000000000000000000000000000000000000000000000000000000000000000000000000000000000000000000000000000000000000000000000000000000000000000000000000000000DC00000000000000000000000000000000000000
310
0000000000000000000000BE00BEBE00000000000000000028BE000000BE0028282828282828282828282828282800BE0000BE000000BEBEBE00000000000000000000000000000000000000002828000000000000000000000000000000000000000000000F00000000000000000000000000000000000000000000280000
310
000000000000BEBE0000BE0000000000000000000000000000000000000000DC0000000000000000000000000000000000000000000000000000000000000000000000000000000000000000000000000000000000000000000000000000000000000000000000000000000000DC0000000000000000000000000000000000
310
00000000000000000000000000BE0000BEBEBEBEBEBEBEBEBEBEBEBEBEBEBEBEBE2828282828282828282828282828BEBEBEBEBEBEBEBEBEBEBEBE00000000000000000000000000000000000000002828282828282828282828282828282828282828282828282828282828282828282828282828282828282828282828BE
310
BEBEBEBEBEBEBEBEBEBE0000BE0000000000000000000000000000000000000000DC0000000000000000000000000000000000000000000000000000000000000000000000000000000000000000000000000000000000000000000000000000000000000000000000000000000000DC000000000000000000000000000000
310
000000000000000000000000000000BE0000BE000000000000000000280000000028BEBE00000000000000000000000000BE00BE00BE00BE00000000BE00000000000000000000000000000000000000002828000000000000000000000000000000000000000000000F000000000000000000000000000000000000000000
310
0028000000000000000000BE0000BE0000000000000000000000000000000000000000DC0000000000000000000000000000000000000000000000000000000000000000000000000000000000000000000000000000000000000000000000000000000000000000000000000000000000DC00000000000000000000000000
310
0000000000000000000000000000000000BE0000BE0000000000000000002800000028280000BE000000000000000000000000BE00BE0000BEBE00000000BE00000000000000000000000000000000000000002828000000000000000000000000000000000000000000000F00000000000000000000000000000000000000
310
00000028000000000000000000BE0000BE0000000000000000000000000000000000000000DC0000000000000000000000000000000000000000000000000000000000000000000000000000000000000000000000000000000000000000000000000000000000000000000000000000000000DC0000000000000000000000
310
00000000000000000000000000000000000000BE0000BE0000000000000000002800000028280000BEBE0000000000000000000000BE00BE0000BE00BE0000000000000000000000000000000000000000000000002828000000000000000000000000000000000000000000000F0000000000000000000000000000000000
310
000000000028000000000000000000BE0000BE0000000000000000000000000000000000000000DC0000000000000000000000000000000000000000000000000000000000000000000000000000000000000000000000000000000000000000000000000000000000000000000000000000000000DC000000000000000000
310
000000000000000000000000000000000000000000BE0000BE0000000000000000002800000028280000BEBEBE0000000000000000BEBEBEBEBEBEBE00BEBE0000000000000000000000000000000000000000000000002828000000000000000000000000000000000000000000000F000000000000000000000000000000
310
0000000000000028000000000000000000BE0000BE0000000000000000000000000000000000000000DC0000000000000000000000000000000000000000000000000000000000000000000000000000000000000000000000000000000000000000000000000000000000000000000000000000000000DC00000000000000
310
0000000000000000000000000000000000000000000000BE0000BE0000000000000000002800000028280000BEBEBE00000000000000000000BEBEBE00000000BEBEBEBEBEBEBEBEBE000000000000000000000000000000002828000000000000000000000000000000000000000000000F00000000000000000000000000
310
00000000000000000028000000000000000000BE0000BE0000000000000000000000000000000000000000DC0000000000000000000000000000000000000000000000000000000000000000000000000000000000000000000000000000000000000000000000000000000000000000000000000000000000DC0000000000
310
00000000000000000000000000000000000000000000000000BE0000BE000000000000000000280000002828000000BEBEBE0000000000000000000000BE0000000000BEBEBEBEBEBEBEBEBEBE00000000000000000000000000002828000000000000000000000000000000000000000000000F0000000000000000000000
310
000000000000000000000028000000000000000000BE0000BE0000000000000000000000000000000000000000DC0000000000000000000000000000000000000000000000000000000000000000000000000000000000000000000000000000000000000000000000000000000000000000000000000000000000DC000000
310
000000000000000000000000000000000000000000000000000000BE0000BE0000000000000000002800000028280000000000000000000000000000000000BE00000000000000BEBEBEBEBEBE000000000000000000000000000000002828000000000000000000000000000000000000000000000F000000000000000000
310
0000000000000000000000000028000000000000000000BE0000BE0000000000000000000000000000000000000000DC0000000000000000000000000000000000000000000000000000000000000000000000000000000000000000000000000000000000000000000000000000000000000000000000000000000000DC00
310
0000000000000000000000000000000000000000000000000000000000BE0000BE0000000000000000002800000028280000000000000000000000000000000000BE0000000000000000BEBEBEBEBE000000000000000000000000000000002828000000000000000000000000000000000000000000000F00000000000000
310
00000000000000000000000000000028000000000000000000BE0000BE0000000000000000000000000000000000000000DC0000000000000000000000000000000000000000000000000000000000000000000000000000000000000000000000000000000000000000000000000000000000000000000000000000000000
310
DC000000000000000000000000000000000000000000000000000000000000BE0000BE0000000000000000002800000028280000000000000000000000000000000000BE00000000000000000000000000000000000000000000000000000000002828000000000000000000000000000000000000000000000F0000000000
310
000000000000000000000000000000000028000000000000000000BE0000BE0000000000000000000000000000000000000000DC000000000000000000000000000000000000000000000000000000000000000000000000000000000000000000000000000000000000000000000000000000000000000000000000000000
310
0000DC000000000000000000000000000000000000000000000000000000000000BE0000BE0000000000000000002800000028280000000000000000000000000000000000BE00000000000000000000000000000000000000000000000000000000002828000000000000000000000000000000000000000000000F000000
310
0000000000000000000000000000000000000028000000000000000000BE0000BE0000000000000000000000000000000000000000DC00000000000000000000000000000000000000000000000000000000000000000000000000000000000000000000000000000000000000000000000000000000000000000000000000
310
00000000DC000000000000000000000000000000000000000000000000000000000000BE0000BE0000000000000000002800000028280000000000000000000000000000000000BE00000000000000000000000000000000000000000000000000000000002828000000000000000000000000000000000000000000000F00
310
00000000000000000000000000000000000000000028000000000000000000BE0000BE0000000000000000000000000000000000000000DC0000000000000000000000000000000000000000000000000000000000000000000000000000000000000000000000000000000000000000000000000000000000000000000000
310
000000000000DC000000000000000000000000000000000000000000000000000000000000BE0000BE0000000000000000002800000028280000000000000000000000000000000000BE0000000000000000000000000000000000000000000000000000000000282800000000000000000000000000000000000000000000
310
0F0000000000000000000000000000000000000000000028000000000000000000BE0000BE0000000000000000000000000000000000000000DC000000000000000000000000000000000000000000000000000000000000000000000000000000000000000000000000000000000000000000000000000000000000000000
310
0000000000000000DC000000000000000000000000000000000000000000000000000000000000BE0000BE0000000000000000002800000028280000000000000000000000000000000000BE000000000000000000000000000000000000000000000000000000000028280000000000000000000000000000000000000000
310
00000F0000000000000000000000000000000000000000000028000000000000000000BE0000BE0000000000000000000000000000000000000000DC00000000000000000000000000000000000000000000000000000000000000000000000000000000000000000000000000000000000000000000000000000000000000
310
00000000000000000000DC000000000000000000000000000000000000000000000000000000000000BE0000BE0000000000000000002800000028280000000000000000000000000000000000BE00000000000000000000000000000000000000000000000000000000002828000000000000000000000000000000000000
310
000000000F0000000000000000000000000000000000000000000028000000000000000000BE0000BE0000000000000000000000000000000000000000DC0000000000000000000000000000000000000000000000000000000000000000000000000000000000000000000000000000000000000000000000000000000000
310
000000000000000000000000DC0000000000000000000000000000000000000000000000000000000000BEBE0000BE0000000000000000002800000028280000000000000000000000000000000000BE0000000000000000000000000000000000000000000000000000000000282800000000000000000000000000000000
310
0000000000000F0000000000000000000000000000000000000000000028000000000000000000BE00BEBE0000000000000000000000000000000000000000DC000000000000000000000000000000000000000000000000000000000000000000000000000000000000000000000000000000000000000000000000000000
310
0000000000000000000000000000DC0000000000000000000000000000000000000000000000000000000000BEBE0000BE0000000000000000002800000028280000000000000000000000000000000000BE000000000000000000000000000000000000000000000000000000000028280000000000000000000000000000
310
00000000000000000F0000000000000000000000000000000000000000000028000000000000000000BE00BEBE0000000000000000000000000000000000000000DC00000000000000000000000000000000000000000000000000000000000000000000000000000000000000000000000000000000000000000000000000
310
00000000000000000000000000000000DC0000000000000000000000000000000000000000000000000000000000BEBE00BEBE0000000000000000000028000028280000000000000000000000000000000000BE00000000000000000000000000000000000000000000000000000000002828000000000000000000000000
310
000000000000000000000F000000000000000000000000000000000000000000002800000000000000BEBEBE00BEBE0000000000000000000000000000000000000000DC0000000000000000000000000000000000000000000000000000000000000000000000000000000000000000000000000000000000000000000000
310
000000000000000000000000000000000000DC0000000000000000000000000000000000000000000000000000000000BEBE00BEBE0000000000000000000028000028280000000000000000000000000000000000BE0000000000000000000000000000000000000000000000000000000000282800000000000000000000
310
0000000000000000000000000F000000000000000000000000000000000000000000002800000000000000BEBEBE00BEBE0000000000000000000000000000000000000000DC000000000000000000000000000000000000000000000000000000000000000000000000000000000000000000000000000000000000000000
310
0000000000000000000000000000000000000000DC000000000000000000000000000000000000000000000000000000000000BE00BEBE0000000000000000000028000028280000000000000000000000000000000000BE000000000000000000000000000000000000000000000000000000000028280000000000000000
310
00000000000000000000000000000F000000000000000000000000000000000000000000002800000000000000BEBEBE0000BE0000000000000000000000000000000000000000DC00000000000000000000000000000000000000000000000000000000000000000000000000000000000000000000000000000000000000
310
00000000000000000000000000000000000000000000DC000000000000000000000000000000000000000000000000000000000000BE00BEBE0000000000000000000028000028280000000000000000000000000000000000BE00000000000000000000000000000000000000000000000000000000002828000000000000
310
0000000000000000000000000000000000000000000000000000000000000000000000000000002800000000000000BEBEBE0000BE0000000000000000000000000000000000000000DC0000000000000000000000000000000000000000000000000000000000000000000000000000000000000000000000000000000000
310
000000000000000000000000000000000000000000000000DC000000000000000000000000000000000000000000000000000000000000BE0000BE0000000000000000000028000028280000000000000000000000000000000000BE0000000000000000000000000000000000000000000000000000000000282800000000
310
0000000000000000000000000000000000000F0000000000000000000000000000000000000000000028000000000000000000BE0000BE0000000000000000000000000000000000000000DC000000000000000000000000000000000000000000000000000000000000000000000000000000000000000000000000000000
310
0000000000000000000000000000000000000000000000000000DC000000000000000000000000000000000000000000000000000000000000BE0000BE0000000000000000000028000028280000000000000000000000000000000000BE000000000000000000000000000000000000000000000000000000000028280000
310
00000000000000000000000000000000000000000F0000000000000000000000000000000000000000000028000000000000000000BE0000BE0000000000000000000000000000000000000000DC00000000000000000000000000000000000000000000000000000000000000000000000000000000000000000000000000
310
00000000000000000000000000000000000000000000000000000000DC000000000000000000000000000000000000000000000000000000000000BE0000BE0000000000000000000028000028280000000000000000000000000000000000BE00000000000000000000000000000000000000000000000000000000002828
310
000000000000000000000000000000000000000000000F0000000000000000000000000000000000000000000028000000000000000000BE0000BE0000000000000000000000000000000000000000DC0000000000000000000000000000000000000000000000000000000000000000000000000000000000000000000000
310
000000000000000000000000000000000000000000000000000000000000DC000000000000000000000000000000000000000000000000000000000000BE0000BE0000000000000000000028000028280000000000000000000000000000000000BE0000000000000000000000000000000000000000000000000000000000
310
2828000000000000000000000000000000000000000000000F0000000000000000000000000000000000000000000028000000000000000000BE0000BE0000000000000000000000000000000000000000DC000000000000000000000000000000000000000000000000000000000000000000000000000000000000000000
310
0000000000000000000000000000000000000000000000000000000000000000DC000000000000000000000000000000000000000000000000000000000000BE0000BE0000000000000000000028000028280000000000000000000000000000000000BE000000000000000000000000000000000000000000000000000000
310
00002828000000000000000000000000000000000000000000000F0000000000000000000000000000000000000000000028000000000000000000BE0000BE0000000000000000000000000000000000000000DC00000000000000000000000000000000000000000000000000000000000000000000000000000000000000
310
00000000000000000000000000000000000000000000000000000000000000000000DC000000000000000000000000000000000000000000000000000000000000BE0000BE0000000000000000000028000028280000000000000000000000000000000000BE00000000000000000000000000000000000000000000000000
310
000000002828000000000000000000000000000000000000000000000F0000000000000000000000000000000000000000000028000000000000000000BE0000BE0000000000000000000000000000000000000000DC0000000000000000000000000000000000000000000000000000000000000000000000000000000000
310
000000000000000000000000000000000000000000000000000000000000000000000000DC000000000000000000000000000000000000000000000000000000000000BE0000BE0000000000000000000028000028280000000000000000000000000000000000BE0000000000000000000000000000000000000000000000
310
0000000000002828000000000000000000000000000000000000000000000F0000000000000000000000000000000000000000000028000000000000000000BE0000BE0000000000000000000000000000000000000000DC000000000000000000000000000000000000000000000000000000000000000000000000000000
310
0000000000000000000000000000000000000000000000000000000000000000000000000000DC000000000000000000000000000000000000000000000000000000000000BE0000BE0000000000000000000028000028280000000000000000000000000000000000BE000000000000000000000000000000000000000000
310
00000000000000002828000000000000000000000000000000000000000000000F0000000000000000000000000000000000000000000028000000000000000000BE0000BE0000000000000000000000000000000000000000DC00000000000000000000000000000000000000000000000000000000000000000000000000
310
00000000000000000000000000000000000000000000000000000000000000000000000000000000DC000000000000000000000000000000000000000000000000000000000000BE0000BE0000000000000000000028000028280000000000000000000000000000000000BE00000000000000000000000000000000000000
310
000000000000000000002828000000000000000000000000000000000000000000000F0000000000000000000000000000000000000000000028000000000000000000BE0000BE0000000000000000000000000000000000000000DC0000000000000000000000000000000000000000000000000000000000000000000000
310
000000000000000000000000000000000000000000000000000000000000000000000000000000000000DC000000000000000000000000000000000000000000000000000000000000BE0000BE0000000000000000000028000028280000000000000000000000000000000000BE0000000000000000000000000000000000
310
0000000000000000000000002828000000000000000000000000000000000000000000000F0000000000000000000000000000000000000000000028000000000000000000BE0000BE0000000000000000000000000000000000000000DC000000000000000000000000000000000000000000000000000000000000000000
310
0000000000000000000000000000000000000000000000000000000000000000000000000000000000000000DC000000000000000000000000000000000000000000000000000000000000BE0000BE0000000000000000000028000028280000000000000000000000000000000000BE000000000000000000000000000000
310
00000000000000000000000000002828000000000000000000000000000000000000000000000F0000000000000000000000000000000000000000000028000000000000000000BE0000BE0000000000000000000000000000000000000000DC00000000000000000000000000000000000000000000000000000000000000
310
00000000000000000000000000000000000000000000000000000000000000000000000000000000000000000000DC000000000000000000000000000000000000000000000000000000000000BE0000BE0000000000000000000028000028280000000000000000000000000000000000BE00000000000000000000000000
310
000000000000000000000000000000002828000000000000000000000000000000000000000000000F0000000000000000000000000000000000000000000028000000000000000000BE0000BE0000000000000000000000000000000000000000DC0000000000000000000000000000000000000000000000000000000000
310
000000000000000000000000000000000000000000000000000000000000000000000000000000000000000000000000DC000000000000000000000000000000000000000000000000000000000000BE0000BE0000000000000000000028000028280000000000000000000000000000000000BE0000000000000000000000
310
0000000000000000000000000000000000002828000000000000000000000000000000000000000000000F0000000000000000000000000000000000000000000028000000000000000000BE0000BE0000000000000000000000000000000000000000DC000000000000000000000000000000000000000000000000000000
310
0000000000000000000000000000000000000000000000000000000000000000000000000000000000000000000000000000DC000000000000000000000000000000000000000000000000000000000000BE0000BE0000000000000000000028000028280000000000000000000000000000000000BE000000000000000000
310
00000000000000000000000000000000000000002828000000000000000000000000000000000000000000000F0000000000000000000000000000000000000000000028000000000000000000BE0000BE0000000000000000000000000000000000000000DC00000000000000000000000000000000000000000000000000
310
00000000000000000000000000000000000000000000000000000000000000000000000000000000000000000000000000000000DC000000000000000000000000000000000000000000000000000000000000BE0000BE0000000000000000000028000028280000000000000000000000000000000000BE00000000000000
310
000000000000000000000000000000000000000000002828000000000000000000000000000000000000000000000F0000000000000000000000000000000000000000000028000000000000000000BE0000BE0000000000000000000000000000000000000000DC0000000000000000000000000000000000000000000000
310
000000000000000000000000000000000000000000000000000000000000000000000000000000000000000000000000000000000000DC000000000000000000000000000000000000000000000000000000000000BE0000BE0000000000000000000028000028280000000000000000000000000000000000BE0000000000
310
0000000000000000000000000000000000000000000000002828000000000000000000000000000000000000000000000F0000000000000000000000000000000000000000000028000000000000000000BE0000BE0000000000000000000000000000000000000000DC000000000000000000000000000000000000000000
310
0000000000000000000000000000000000000000000000000000000000000000000000000000000000000000000000000000000000000000DC000000000000000000000000000000000000000000000000000000000000BEBEBEBEBEBEBEBEBEBEBEBEBEBEBE282828BE0000000000000000000000000000000000BE000000
310
0000000000000000000000000000000000000000000000000000BE28282828282828282828282828282828282828282828282828282828282828282828282828282828282828282828BEBEBEBEBEBEBEBEBEBEBEBEBEBE0000000000000000000000000000000000000000DC00000000000000000000000000000000000000
310
00000000000000000000000000000000000000000000000000000000000000000000000000000000000000000000000000000000000000000000DC0000000000000000000000000000000000000000000000000000000000000000000000000000000000000000BE000000BE0000000000000000000000000000000000BE00
310
00000000000000000000000000000000000000000000000000000000BE00000000000000000000000000000000000000000000000F00000000000000000000000000000000000000000000BE000000000000000000000000000000000000000000000000000000000000000000DC0000000000000000000000000000000000
310
000000000000000000000000000000000000000000000000000000000000000000000000000000000000000000000000000000000000000000000000DC0000000000000000000000000000000000000000000000000000000000000000000000000000000000000000BE000000BE0000000000000000000000000000000000
310
BE0000000000000000000000000000000000000000000000000000000000BE00000000000000000000000000000000000000000000000F00000000000000000000000000000000000000000000BE000000000000000000000000000000000000000000000000000000000000000000DC000000000000000000000000000000
310
0000000000000000000000000000000000000000000000000000000000000000000000000000000000000000000000000000000000000000000000000000DC0000000000000000000000000000000000000000000000000000000000000000000000000000000000000000BE000000BE000000000000000000000000000000
310
0000BE0000000000000000000000000000000000000000000000000000000000BE00000000000000000000000000000000000000000000000000000000000000000000000000000000000000000000BE000000000000000000000000000000000000000000000000000000000000000000DC00000000000000000000000000
310
00000000000000000000000000000000000000000000000000000000000000000000000000000000000000000000000000000000000000000000000000000000DC0000000000000000000000000000000000000000000000000000000000000000000000000000000000000000BE000000BE00000000000000000000000000
310
00000000BE0000000000000000000000000000000000000000000000000000000000BE00000000000000000000000000000000000000000000000000000000000000000000000000000000000000000000BE000000000000000000000000000000000000000000000000000000000000000000DC0000000000000000000000
310
000000000000000000000000000000000000000000000000000000000000000000000000000000000000000000000000000000000000000000000000000000000000DC0000000000000000000000000000000000000000000000000000000000000000000000000000000000000000BE000000BE0000000000000000000000
310
000000000000BE0000000000000000000000000000000000000000000000000000000000BE00000000000000000000000000000000000000000000000000000000000000000000000000000000000000000000BE000000000000000000000000000000000000000000000000000000000000000000DC000000000000000000
310
0000000000000000000000000000000000000000000000000000000000000000000000000000000000000000000000000000000000000000000000000000000000000000DC0000000000000000000000000000000000000000000000000000000000000000000000000000000000000000BE000000BE000000000000000000
310
0000000000000000BE0000000000000000000000000000000000000000000000000000000000BE00000000000000000000000000000000000000000000000000000000000000000000000000000000000000000000BE000000000000000000000000000000000000000000000000000000000000000000DC00000000000000
310
00000000000000000000000000000000000000000000000000000000000000000000000000000000000000000000000000000000000000000000000000000000000000000000DC0000000000000000000000000000000000000000000000000000000000000000000000000000000000000000BE000000BE00000000000000
310
00000000000000000000BE0000000000000000000000000000000000000000000000000000000000BE00000000000000000000000000000000000000000000000000000000000000000000000000000000000000000000BE000000000000000000000000000000000000000000000000000000000000000000DC0000000000
310
000000000000000000000000000000000000000000000000000000000000000000000000000000000000000000000000000000000000000000000000000000000000000000000000DC0000000000000000000000000000000000000000000000000000000000000000000000000000000000000000BEBE00BEBEBE00000000
310
0000000000000000000000BEBE0000000000000000000000000000000000000000000000000000000000BE00000000000000000000000000000000000000000000000000000000000000000000000000000000000000000000BE000000000000000000000000000000000000000000000000000000000000000000DC000000
310
0000000000000000000000000000000000000000000000000000000000000000000000000000000000000000000000000000000000000000000000000000000000000000000000000000DC0000000000000000000000000000000000000000000000000000000000000000000000000000000000000000BEBEBEBEBEBEBEBE
310
BEBEBEBEBEBEBEBEBEBEBEBEBEBEBE0000000000000000000000000000000000000000000000000000000000BE00000000000000000000000000000000000000000000000000000000000000000000000000000000000000000000BE000000000000000000000000000000000000000000000000000000000000000000DC00
310
00000000000000000000000000000000000000000000000000000000000000000000000000000000000000000000000000000000000000000000000000000000000000000000000000000000DC0000000000000000000000000000000000000000000000000000000000000000000000000000000000000000BEBEBEBE0000
310
000000000000BEBEBE00000000000000BE0000000000000000000000000000000000000000000000000000000000BE00000000000000000000000000000000000000000000000000000000000000000000000000000000000000000000BE000000000000000000000000000000000000000000000000000000000000000000
310
DC0000000000000000000000000000000000000000000000000000000000000000000000000000000000000000000000000000000000000000000000000000000000000000000000000000000000DC0000000000000000000000000000000000000000000000000000000000000000000000000000000000000000BEBE0000
310
0000000000000000000000000000000000BEBE0000000000000000000000000000000000000000000000000000000000BEBE0000000000000000000000000000000000000000000000000000000000000000000000000000000000000000BEBE00000000000000000000000000000000000000000000000000000000000000
310
0000DC0000000000000000000000000000000000000000000000000000000000000000000000000000000000000000000000000000000000000000000000000000000000000000000000000000000000DC0000000000000000000000000000000000000000000000000000000000000000000000000000000000000000BEBE
310
BEBEBEBEBEBEBEBEBEBEBEBEBEBEBEBEBEBEBEBEBE0000000000000000000000000000000000000000000000000000000000BEBEBEBEBEBEBEBEBEBEBEBEBEBEBEBEBEBEBEBEBEBEBEBEBEBEBEBEBEBEBEBEBEBEBEBEBEBEBEBEBEBEBEBEBEBEBEBE0000000000000000000000000000000000000000000000000000000000
310
00000000DC0000000000000000000000000000000000000000000000000000000000000000000000000000000000000000000000000000000000000000000000000000000000000000000000000000000000DC0000000000000000000000000000000000000000000000000000000000000000000000000000000000000000
310
00000000000000000000BEBEBE00000000000000000000000000000000000000000000000000000000000000000000000000000000000000000000000000000000000000000000000000BEBEBEBE00000000000000000000000000000000000000000000000000000000000000000000000000000000000000000000000000
310
000000000000DC0000000000000000000000000000000000000000000000000000000000000000000000000000000000000000000000000000000000000000000000000000000000000000000000000000000000DC000000000000000000000000000000000000000000000000000000000000000000000000000000000000
310
00000000000000000000000000000000000000000000000000000000000000000000000000000000000000000000000000000000000000000000000000000000000000000000000000000000000000000000000000000000000000000000000000000000000000000000000000000000000000000000000000000000000000
310
0000000000000000DC0000000000000000000000000000000000000000000000000000000000000000000000000000000000000000000000000000000000000000000000000000000000000000000000000000000000DC00000000000000000000000000000000000000000000000000000000000000000000000000000000
310
00000000000000000000000000000000000000000000000000000000000000000000000000000000000000000000000000000000000000000000000000000000000000000000000000000000000000000000000000000000000000000000000000000000000000000000000000000000000000000000000000000000000000
310
00000000000000000000DC0000000000000000000000000000000000000000000000000000000000000000000000000000000000000000000000000000000000000000000000000000000000000000000000000000000000DC0000000000000000000000000000000000000000000000000000000000000000000000000000
310
00000000000000000000000000000000000000000000000000000000000000000000000000000000000000000000000000000000000000000000000000000000000000000000000000000000000000000000000000000000000000000000000000000000000000000000000000000000000000000000000000000000000000
310
000000000000000000000000DC0000000000000000000000000000000000000000000000000000000000000000000000000000000000000000000000000000000000000000000000000000000000000000000000000000000000DC000000000000000000000000000000000000000000000000000000000000000000000000
310
00000000000000000000000000000000000000000000000000000000000000000000000000000000000000000000000000000000000000000000000000000000000000000000000000000000000000000000000000000000000000000000000000000000000000000000000000000000000000000000000000000000000000
310
0000000000000000000000000000DC0000000000000000000000000000000000000000000000000000000000000000000000000000000000000000000000000000000000000000000000000000000000000000000000000000000000DC00000000000000000000000000000000000000000000000000000000000000000000
310
00000000000000000000000000000000000000000000000000000000000000000000000000000000000000000000000000000000000000000000000000000000000000000000000000000000000000000000000000000000000000000000000000000000000000000000000000000000000000000000000000000000000000
310
00000000000000000000000000000000DC0000000000000000000000000000000000000000000000000000000000000000000000000000000000000000000000000000000000000000000000000000000000000000000000000000000000DC0000000000000000000000000000000000000000000000000000000000000000
310
00000000000000000000000000000000000000000000000000000000000000000000000000000000000000000000000000000000000000000000000000000000000000000000000000000000000000000000000000000000000000000000000000000000000000000000000000000000000000000000000000000000000000
310
000000000000000000000000000000000000DC0000000000000000000000000000000000000000000000000000000000000000000000000000000000000000000000000000000000000000000000000000000000000000000000000000000000DC000000000000000000000000000000000000000000000000000000000000
310
00000000000000000000000000000000000000000000000000000000000000000000000000000000000000000000000000000000000000000000000000000000000000000000000000000000000000000000000000000000000000000000000000000000000000000000000000000000000000000000000000000000000000
310
0000000000000000000000000000000000000000DC0000000000000000000000000000000000000000000000000000000000000000000000000000000000000000000000000000000000000000000000000000000000000000000000000000000000DC00000000000000000000000000000000000000000000000000000000
310
00000000000000000000000000000000000000000000000000000000000000000000000000000000000000000000000000000000000000000000000000000000000000000000000000000000000000000000000000000000000000000000000000000000000000000000000000000000000000000000000000000000000000
310
00000000000000000000000000000000000000000000DC0000000000000000000000000000000000000000000000000000000000000000000000000000000000000000000000000000000000000000000000000000000000000000000000000000000000DC0000000000000000000000000000000000000000000000000000
310
00000000000000000000000000000000000000000000000000000000000000000000000000000000000000000000000000000000000000000000000000000000000000000000000000000000000000000000000000000000000000000000000000000000000000000000000000000000000000000000000000000000000000
310
000000000000000000000000000000000000000000000000DC0000000000000000000000000000000000000000000000000000000000000000000000000000000000000000000000000000000000000000000000000000000000000000000000000000000000DC000000000000000000000000000000000000000000000000
310
00000000000000000000000000000000000000000000000000000000000000000000000000000000000000000000000000000000000000000000000000000000000000000000000000000000000000000000000000000000000000000000000000000000000000000000000000000000000000000000000000000000000000
310
0000000000000000000000000000000000000000000000000000DC0000000000000000000000000000000000000000000000000000000000000000000000000000000000000000000000000000000000000000000000000000000000000000000000000000000000DC00000000000000000000000000000000000000000000
310
00000000000000000000000000000000000000000000000000000000000000000000000000000000000000000000000000000000000000000000000000000000000000000000000000000000000000000000000000000000000000000000000000000000000000000000000000000000000000000000000000000000000000
310
00000000000000000000000000000000000000000000000000000000DC0000000000000000000000000000000000000000000000000000000000000000000000000000000000000000000000000000000000000000000000000000000000000000000000000000000000DC0000000000000000000000000000000000000000
310
00000000000000000000000000000000000000000000000000000000000000000000000000000000000000000000000000000000000000000000000000000000000000000000000000000000000000000000000000000000000000000000000000000000000000000000000000000000000000000000000000000000000000
310
000000000000000000000000000000000000000000000000000000000000DC0000000000000000000000000000000000000000000000000000000000000000000000000000000000000000000000000000000000000000000000000000000000000000000000000000000000DC000000000000000000000000000000000000
310
00000000000000000000000000000000000000000000000000000000000000000000000000000000000000000000000000000000000000000000000000000000000000000000000000000000000000000000000000000000000000000000000000000000000000000000000000000000000000000000000000000000000000
310
0000000000000000000000000000000000000000000000000000000000000000DC0000000000000000000000000000000000000000000000000000000000000000000000000000000000000000000000000000000000000000000000000000000000000000000000000000000000DC00000000000000000000000000000000
310
00000000000000000000000000000000000000000000000000000000000000000000000000000000000000000000000000000000000000000000000000000000000000000000000000000000000000000000000000000000000000000000000000000000000000000000000000000000000000000000000000000000000000
310
00000000000000000000000000000000000000000000000000000000000000000000DC0000000000000000000000000000000000000000000000000000000000000000000000000000000000000000000000000000000000000000000000000000000000000000000000000000000000DC0000000000000000000000000000
310
00000000000000000000000000000000000000000000000000000000000000000000000000000000000000000000000000000000000000000000000000000000000000000000000000000000000000000000000000000000000000000000000000000000000000000000000000000000000000000000000000000000000000
310
000000000000000000000000000000000000000000000000000000000000000000000000DC0000000000000000000000000000000000000000000000000000000000000000000000000000000000000000000000000000000000000000000000000000000000000000000000000000000000DCDCDCDCDCDCDCDCDCDCDCDCDC
310
DCDCDCDCDCDCDCDCDCDCDCDCDCDCDCDCDCDCDCDCDCDCDCDCDCDCDCDCDCDCDCDCDCDCDCDCDCDCDCDCDCDCDCDCDCDCDCDCDCDCDCDCDCDCDCDCDCDCDCDCDCDCDCDCDCDCDCDCDCDCDCDCDCDCDCDCDCDCDCDCDCDCDCDCDCDCDCDCDCDCDCDCDCDCDCDCDCDCDCDCDCDCDCDCDCDCDCDCDCDCDCDCDCDCDCDCDCDCDCDCDCDCDCDCDCDCDC
310
DCDCDCDCDCDCDCDCDCDCDCDCDCDCDCDCDCDCDCDCDCDCDCDCDCDCDCDCDCDCDCDCDCDCDCDCDCDCDC0000000000000000000000000000000000000000000000000000000000000000000000000000000000000000000000000000000000000000000000000000000000000000000000000000000000BE00BEBEBEBEBEBEBEBE00
310
BE000000000000000000000000000000000000000000000000000000000000000000000000000000000000000000000000000000000000000000000000000000000000000000000000000000000000000000000000000000000000000000000000000000000000000000000000000000000000000000000000000000000000
310
00000000000000000000000000000000000000000000000000000000000000000000000000000000000000000000000000000000000000000000000000000000000000000000000000000000000000000000000000000000000000000000000000000000000000000000000000000000000000000000BEBEBEBEBEBEBEBEBE
310
BEBEBE00000000000000000000000000000000000000000000000000000000000000000000000000000000000000000000000000000000000000000000000000000000000000000000000000000000000000000000000000000000000000000000000000000000000000000000000000000000000000000000000000000000
310
00000000000000000000000000000000000000000000000000000000000000000000000000000000000000000000000000000000000000000000000000000000000000000000000000000000000000000000000000000000000000000000000000000000000000000000000000000000000000000000000000000000000000
310
00000000000000000000000000000000000000000000000000000000000000000000000000000000000000000000000000000000000000000000000000000000000000000000000000000000000000000000000000000000000000000000000000000000000000000000000000000000000000000000000000000000000000
310
00000000000000000000000000000000000000000000000000000000000000000000000000000000000000000000000000000000000000000000000000000000000000000000000000000000000000000000000000000000000000000000000000000000000000000000000000000000000000000000000000000000000000
310
00000000000000000000000000000000000000000000000000000000000000000000000000000000000000000000000000000000000000000000000000000000000000000000000000000000000000000000000000000000000000000000000000000000000000000000000000000000000000000000000000000000000000
310
00000000000000000000000000000000000000000000000000000000000000000000000000000000000000000000000000000000000000000000000000000000000000000000000000000000000000000000000000000000000000000000000000000000000000000000000000000000000000000000000000000000000000
310
00000000000000000000000000000000000000000000000000000000000000000000000000000000000000000000000000000000000000000000000000000000000000000000000000000000000000000000000000000000000000000000000000000000000000000000000000000000000000000000000000000000000000
310
00000000000000000000000000000000000000000000000000000000000000000000000000000000000000000000000000000000000000000000000000000000000000000000000000000000000000000000000000000000000000000000000000000000000000000000000000000000000000000000000000000000000000
310
00000000000000000000000000000000000000000000000000000000000000000000000000000000000000000000000000000000000000000000000000000000000000000000000000000000000000000000000000000000000000000000000000000000000000000000000000000000000000000000000000000000000000
310
00000000000000000000000000000000000000000000000000000000000000000000000000000000000000000000000000000000000000000000000000000000000000000000000000000000000000000000000000000000000000000000000000000000000000000000000000000000000000000000000000000000000000
310
00000000000000000000000000000000000000000000000000000000000000000000000000000000000000000000000000000000000000000000000000000000000000000000000000000000000000000000000000000000000000000000000000000000000000000000000000000000000000000000000000000000000000
310
00000000000000000000000000000000000000000000000000000000000000000000000000000000000000000000000000000000000000000000000000000000000000000000000000000000000000000000000000000000000000000000000000000000000000000000000000000000000000000000000000000000000000
310
00000000000000000000000000000000000000000000000000000000000000000000000000000000000000000000000000000000000000000000000000000000000000000000000000000000000000000000000000000000000000000000000000000000000000000000000000000000000000000000000000000000000000
310
00000000000000000000000000000000000000000000000000000000000000000000000000000000000000000000000000000000000000000000000000000000000000000000000000000000000000000000000000000000000000000000000000000000000000000000000000000000000000000000000000000000000000
310
00000000000000000000000000000000000000000000000000000000000000000000000000000000000000000000000000000000000000000000000000000000000000000000000000000000000000000000000000000000000000000000000000000000000000000000000000000000000000000000000000000000000000
310
00000000000000000000000000000000000000000000000000000000000000000000000000000000000000000000000000000000000000000000000000000000000000000000000000000000000000000000000000000000000000000000000000000000000000000000000000000000000000000000000000000000000000
310
00000000000000000000000000000000000000000000000000000000000000000000000000000000000000000000000000000000000000000000000000000000000000000000000000000000000000000000000000000000000000000000000000000000000000000000000000000000000000000000000000000000000000
310
00000000000000000000000000000000000000000000000000000000000000000000000000000000000000000000000000000000000000000000000000000000000000000000000000000000000000000000000000000000000000000000000000000000000000000000000000000000000000000000000000000000000000
310
00000000000000000000000000000000000000000000000000000000000000000000000000000000000000000000000000000000000000000000000000000000000000000000000000000000000000000000000000000000000000000000000000000000000000000000000000000000000000000000000000000000000000
310
00000000000000000000000000000000000000000000000000000000000000000000000000000000000000000000000000000000000000000000000000000000000000000000000000000000000000000000000000000000000000000000000000000000000000000000000000000000000000000000000000000000000000
310
00000000000000000000000000000000000000000000000000000000000000000000000000000000000000000000000000000000000000000000000000000000000000000000000000000000000000000000000000000000000000000000000000000000000000000000000000000000000000000000000000000000000000
310
00000000000000000000000000000000000000000000000000000000000000000000000000000000000000000000000000000000000000000000000000000000000000000000000000000000000000000000000000000000000000000000000000000000000000000000000000000000000000000000000000000000000000
310
00000000000000000000000000000000000000000000000000000000000000000000000000000000000000000000000000000000000000000000000000000000000000000000000000000000000000000000000000000000000000000000000000000000000000000000000000000000000000000000000000000000000000
310
00000000000000000000000000000000000000000000000000000000000000000000000000000000000000000000000000000000000000000000000000000000000000000000000000000000000000000000000000000000000000000000000000000000000000000000000000000000000000000000000000000000000000
310
00000000000000000000000000000000000000000000000000000000000000000000000000000000000000000000000000000000000000000000000000000000000000000000000000000000000000000000000000000000000000000000000000000000000000000000000000000000000000000000000000000000000000
310
00000000000000000000000000000000000000000000000000000000000000000000000000000000000000000000000000000000000000000000000000000000000000000000000000000000000000000000000000000000000000000000000000000000000000000000000000000000000000000000000000000000000000
310
00000000000000000000000000000000000000000000000000000000000000000000000000000000000000000000000000000000000000000000000000000000000000000000000000000000000000000000000000000000000000000000000000000000000000000000000000000000000000000000000000000000000000
310
00000000000000000000000000000000000000000000000000000000000000000000000000000000000000000000000000000000000000000000000000000000000000000000000000000000000000000000000000000000000000000000000000000000000000000000000000000000000000000000000000000000000000
310
00000000000000000000000000000000000000000000000000000000000000000000000000000000000000000000000000000000000000000000000000000000000000000000000000000000000000000000000000000000000000000000000000000000000000000000000000000000000000000000000000000000000000
310
00000000000000000000000000000000000000000000000000000000000000000000000000000000000000000000000000000000000000000000000000000000000000000000000000000000000000000000000000000000000000000000000000000000000000000000000000000000000000000000000000000000000000
310
00000000000000000000000000000000000000000000000000000000000000000000000000000000000000000000000000000000000000000000000000000000000000000000000000000000000000000000000000000000000000000000000000000000000000000000000000000000000000000000000000000000000000
310
00000000000000000000000000000000000000000000000000000000000000000000000000000000000000000000000000000000000000000000000000000000000000000000000000000000000000000000000000000000000000000000000000000000000000000000000000000000000000000000000000000000000000
310
00000000000000000000000000000000000000000000000000000000000000000000000000000000000000000000000000000000000000000000000000000000000000000000000000000000000000000000000000000000000000000000000000000000000000000000000000000000000000000000000000000000000000
310
00000000000000000000000000000000000000000000000000000000000000000000000000000000000000000000000000000000000000000000000000000000000000000000000000000000000000000000000000000000000000000000000000000000000000000000000000000000000000000000000000000000000000
310
00000000000000000000000000000000000000000000000000000000000000000000000000000000000000000000000000000000000000000000000000000000000000000000000000000000000000000000000000000000000000000000000000000000000000000000000000000000000000000000000000000000000000
310
00000000000000000000000000000000000000000000000000000000000000000000000000000000000000000000000000000000000000000000000000000000000000000000000000000000000000000000000000000000000000000000000000000000000000000000000000000000000000000000000000000000000000
310
00000000000000000000000000000000000000000000000000000000000000000000000000000000000000000000000000000000000000000000000000000000000000000000000000000000000000000000000000000000000000000000000000000000000000000000000000000000000000000000000000000000000000
310
00000000000000000000000000000000000000000000000000000000000000000000000000000000000000000000000000000000000000000000000000000000000000000000000000000000000000000000000000000000000000000000000000000000000000000000000000000000000000000000000000000000000000
310
00000000000000000000000000000000000000000000000000000000000000000000000000000000000000000000000000000000000000000000000000000000000000000000000000000000000000000000000000000000000000000000000000000000000000000000000000000000000000000000000000000000000000
310
00000000000000000000000000000000000000000000000000000000000000000000000000000000000000000000000000000000000000000000000000000000000000000000000000000000000000000000000000000000000000000000000000000000000000000000000000000000000000000000000000000000000000
310
00000000000000000000000000000000000000000000000000000000000000000000000000000000000000000000000000000000000000000000000000000000000000000000000000000000000000000000000000000000000000000000000000000000000000000000000000000000000000000000000000000000000000
310
00000000000000000000000000000000000000000000000000000000000000000000000000000000000000000000000000000000000000000000000000000000000000000000000000000000000000000000000000000000000000000000000000000000000000000000000000000000000000000000000000000000000000
310
00000000000000000000000000000000000000000000000000000000000000000000000000000000000000000000000000000000000000000000000000000000000000000000000000000000000000000000000000000000000000000000000000000000000000000000000000000000000000000000000000000000000000
310
00000000000000000000000000000000000000000000000000000000000000000000000000000000000000000000000000000000000000000000000000000000000000000000000000000000000000000000000000000000000000000000000000000000000000000000000000000000000000000000000000000000000000
310
00000000000000000000000000000000000000000000000000000000000000000000000000000000000000000000000000000000000000000000000000000000000000000000000000000000000000000000000000000000000000000000000000000000000000000000000000000000000000000000000000000000000000
310
0000000000000000000000000000000000000000000000000000000000000000000000000000000000000000000000000000000000000000000000000000000000000000000000000000000000000000000000000000000000000000000000000000000000000000000000000000000000000000000000000000
  0
XRECORD
  5
182F
102
{ACAD_REACTORS
330
182E
102
}
330
182E
100
AcDbXrecord
280
     1
102
MATERIAL
148
0.0
149
0.0
149
0.0
 93
        0
 94
      127
282
     0
 72
     0
 77
     0
171
     0
175
     0
179
     0
273
     0
  0
XRECORD
  5
1831
102
{ACAD_REACTORS
330
1830
102
}
330
1830
100
AcDbXrecord
280
     1
102
MATERIAL
148
0.0
149
0.0
149
0.0
 93
        0
 94
      127
282
     0
 72
     0
 77
     0
171
     0
175
     0
179
     0
273
     0
  0
XRECORD
  5
1833
102
{ACAD_REACTORS
330
1832
102
}
330
1832
100
AcDbXrecord
280
     1
102
MATERIAL
148
0.0
149
0.0
149
0.0
 93
        0
 94
      127
282
     0
 72
     0
 77
     0
171
     0
175
     0
179
     0
273
     0
  0
XRECORD
  5
181C
102
{ACAD_REACTORS
330
181B
102
}
330
181B
100
AcDbXrecord
280
     1
102
DISPLAYNAME
  1
Imperial24
102
FLAGS
 90
        0
  0
CELLSTYLEMAP
  5
1836
102
{ACAD_REACTORS
330
1834
102
}
330
1834
100
AcDbCellStyleMap
 90
        3
300
CELLSTYLE
  1
TABLEFORMAT_BEGIN
 90
        5
170
     1
 91
        0
 92
    32768
 62
   257
 93
        1
300
CONTENTFORMAT
  1
CONTENTFORMAT_BEGIN
 90
        0
 91
        0
 92
      512
 93
        0
300

 40
0.0
140
1.0
 94
        5
 62
     0
340
F
144
0.25
309
CONTENTFORMAT_END
171
     0
 94
        0
309
TABLEFORMAT_END
  1
CELLSTYLE_BEGIN
 90
        1
 91
        1
300
_TITLE
309
CELLSTYLE_END
300
CELLSTYLE
  1
TABLEFORMAT_BEGIN
 90
        5
170
     1
 91
        0
 92
        0
 62
   257
 93
        1
300
CONTENTFORMAT
  1
CONTENTFORMAT_BEGIN
 90
        0
 91
        0
 92
      512
 93
        0
300

 40
0.0
140
1.0
 94
        5
 62
     0
340
F
144
0.18
309
CONTENTFORMAT_END
171
     0
 94
        0
309
TABLEFORMAT_END
  1
CELLSTYLE_BEGIN
 90
        2
 91
        1
300
_HEADER
309
CELLSTYLE_END
300
CELLSTYLE
  1
TABLEFORMAT_BEGIN
 90
        5
170
     1
 91
        0
 92
        0
 62
   257
 93
        1
300
CONTENTFORMAT
  1
CONTENTFORMAT_BEGIN
 90
        0
 91
        0
 92
      512
 93
        0
300

 40
0.0
140
1.0
 94
        2
 62
     0
340
F
144
0.18
309
CONTENTFORMAT_END
171
     0
 94
        0
309
TABLEFORMAT_END
  1
CELLSTYLE_BEGIN
 90
        3
 91
        2
300
_DATA
309
CELLSTYLE_END
  0
XRECORD
  5
1835
102
{ACAD_REACTORS
330
1834
102
}
330
1834
100
AcDbXrecord
280
     1
102
ACAD_ROUNDTRIP_PRE2007_TABLESTYLE
 90
      512
 91
        0
  1

 92
      512
 93
        0
  2

 94
      512
 95
        0
  3

  0
XRECORD
  5
1839
102
{ACAD_REACTORS
330
1838
102
}
330
1838
100
AcDbXrecord
280
     1
102
RTVSPropertyOp0
 70
     1
102
RTVSPropertyOp1
 70
     1
102
RTVSPropertyOp2
 70
     1
102
RTVSPropertyOp3
 70
     1
102
RTVSPropertyOp4
 70
     1
102
RTVSPropertyOp5
 70
     1
102
RTVSPropertyOp6
 70
     1
102
RTVSPropertyOp7
 70
     1
102
RTVSPropertyOp8
 70
     1
102
RTVSPropertyOp9
 70
     1
102
RTVSPropertyOp10
 70
     1
102
RTVSPropertyOp11
 70
     1
102
RTVSPropertyOp12
 70
     1
102
RTVSPropertyOp13
 70
     1
102
RTVSPropertyOp14
 70
     1
102
RTVSPropertyOp15
 70
     1
102
RTVSPropertyOp16
 70
     1
102
RTVSPropertyOp17
 70
     1
102
RTVSPropertyOp18
 70
     1
102
RTVSPropertyOp19
 70
     1
102
RTVSPropertyOp20
 70
     1
102
RTVSPropertyOp21
 70
     1
102
RTVSPropertyOp22
 70
     1
102
RTVSPropertyOp23
 70
     1
102
RTVSPropertyOp24
 70
     1
102
RTVSPropertyOp25
 70
     1
102
RTVSPropertyOp26
 70
     1
102
RTVSPropertyOp27
 70
     1
  0
XRECORD
  5
183B
102
{ACAD_REACTORS
330
183A
102
}
330
183A
100
AcDbXrecord
280
     1
102
RTVSPropertyOp0
 70
     1
102
RTVSPropertyOp1
 70
     1
102
RTVSPropertyOp2
 70
     1
102
RTVSPropertyOp3
 70
     1
102
RTVSPropertyOp4
 70
     1
102
RTVSPropertyOp5
 70
     1
102
RTVSPropertyOp6
 70
     1
102
RTVSPropertyOp7
 70
     1
102
RTVSPropertyOp8
 70
     1
102
RTVSPropertyOp9
 70
     1
102
RTVSPropertyOp10
 70
     1
102
RTVSPropertyOp11
 70
     1
102
RTVSPropertyOp12
 70
     1
102
RTVSPropertyOp13
 70
     1
102
RTVSPropertyOp14
 70
     1
102
RTVSPropertyOp15
 70
     1
102
RTVSPropertyOp16
 70
     1
102
RTVSPropertyOp17
 70
     1
102
RTVSPropertyOp18
 70
     1
102
RTVSPropertyOp19
 70
     1
102
RTVSPropertyOp20
 70
     1
102
RTVSPropertyOp21
 70
     1
102
RTVSPropertyOp22
 70
     1
102
RTVSPropertyOp23
 70
     1
102
RTVSPropertyOp24
 70
     1
102
RTVSPropertyOp25
 70
     1
102
RTVSPropertyOp26
 70
     1
102
RTVSPropertyOp27
 70
     1
  0
XRECORD
  5
183D
102
{ACAD_REACTORS
330
183C
102
}
330
183C
100
AcDbXrecord
280
     1
102
RTVSPropertyOp0
 70
     1
102
RTVSPropertyOp1
 70
     1
102
RTVSPropertyOp2
 70
     1
102
RTVSPropertyOp3
 70
     1
102
RTVSPropertyOp4
 70
     1
102
RTVSPropertyOp5
 70
     1
102
RTVSPropertyOp6
 70
     1
102
RTVSPropertyOp7
 70
     1
102
RTVSPropertyOp8
 70
     1
102
RTVSPropertyOp9
 70
     1
102
RTVSPropertyOp10
 70
     1
102
RTVSPropertyOp11
 70
     1
102
RTVSPropertyOp12
 70
     1
102
RTVSPropertyOp13
 70
     1
102
RTVSPropertyOp14
 70
     1
102
RTVSPropertyOp15
 70
     1
102
RTVSPropertyOp16
 70
     1
102
RTVSPropertyOp17
 70
     1
102
RTVSPropertyOp18
 70
     1
102
RTVSPropertyOp19
 70
     1
102
RTVSPropertyOp20
 70
     1
102
RTVSPropertyOp21
 70
     1
102
RTVSPropertyOp22
 70
     1
102
RTVSPropertyOp23
 70
     1
102
RTVSPropertyOp24
 70
     1
102
RTVSPropertyOp25
 70
     1
102
RTVSPropertyOp26
 70
     1
102
RTVSPropertyOp27
 70
     1
  0
XRECORD
  5
183F
102
{ACAD_REACTORS
330
183E
102
}
330
183E
100
AcDbXrecord
280
     1
102
RTVSPropertyOp0
 70
     1
102
RTVSPropertyOp1
 70
     1
102
RTVSPropertyOp2
 70
     1
102
RTVSPropertyOp3
 70
     1
102
RTVSPropertyOp4
 70
     1
102
RTVSPropertyOp5
 70
     1
102
RTVSPropertyOp6
 70
     1
102
RTVSPropertyOp7
 70
     1
102
RTVSPropertyOp8
 70
     1
102
RTVSPropertyOp9
 70
     1
102
RTVSPropertyOp10
 70
     1
102
RTVSPropertyOp11
 70
     1
102
RTVSPropertyOp12
 70
     1
102
RTVSPropertyOp13
 70
     1
102
RTVSPropertyOp14
 70
     1
102
RTVSPropertyOp15
 70
     1
102
RTVSPropertyOp16
 70
     1
102
RTVSPropertyOp17
 70
     1
102
RTVSPropertyOp18
 70
     1
102
RTVSPropertyOp19
 70
     1
102
RTVSPropertyOp20
 70
     1
102
RTVSPropertyOp21
 70
     1
102
RTVSPropertyOp22
 70
     1
102
RTVSPropertyOp23
 70
     1
102
RTVSPropertyOp24
 70
     1
102
RTVSPropertyOp25
 70
     1
102
RTVSPropertyOp26
 70
     1
102
RTVSPropertyOp27
 70
     1
  0
XRECORD
  5
1841
102
{ACAD_REACTORS
330
1840
102
}
330
1840
100
AcDbXrecord
280
     1
102
RTVSPropertyOp0
 70
     1
102
RTVSPropertyOp1
 70
     1
102
RTVSPropertyOp2
 70
     1
102
RTVSPropertyOp3
 70
     1
102
RTVSPropertyOp4
 70
     1
102
RTVSPropertyOp5
 70
     1
102
RTVSPropertyOp6
 70
     1
102
RTVSPropertyOp7
 70
     1
102
RTVSPropertyOp8
 70
     1
102
RTVSPropertyOp9
 70
     1
102
RTVSPropertyOp10
 70
     1
102
RTVSPropertyOp11
 70
     1
102
RTVSPropertyOp12
 70
     1
102
RTVSPropertyOp13
 70
     1
102
RTVSPropertyOp14
 70
     1
102
RTVSPropertyOp15
 70
     1
102
RTVSPropertyOp16
 70
     1
102
RTVSPropertyOp17
 70
     1
102
RTVSPropertyOp18
 70
     1
102
RTVSPropertyOp19
 70
     1
102
RTVSPropertyOp20
 70
     1
102
RTVSPropertyOp21
 70
     1
102
RTVSPropertyOp22
 70
     1
102
RTVSPropertyOp23
 70
     1
102
RTVSPropertyOp24
 70
     1
102
RTVSPropertyOp25
 70
     1
102
RTVSPropertyOp26
 70
     1
102
RTVSPropertyOp27
 70
     1
  0
XRECORD
  5
1843
102
{ACAD_REACTORS
330
1842
102
}
330
1842
100
AcDbXrecord
280
     1
102
RTVSPropertyOp0
 70
     1
102
RTVSPropertyOp1
 70
     1
102
RTVSPropertyOp2
 70
     1
102
RTVSPropertyOp3
 70
     1
102
RTVSPropertyOp4
 70
     1
102
RTVSPropertyOp5
 70
     1
102
RTVSPropertyOp6
 70
     1
102
RTVSPropertyOp7
 70
     1
102
RTVSPropertyOp8
 70
     1
102
RTVSPropertyOp9
 70
     1
102
RTVSPropertyOp10
 70
     1
102
RTVSPropertyOp11
 70
     1
102
RTVSPropertyOp12
 70
     1
102
RTVSPropertyOp13
 70
     1
102
RTVSPropertyOp14
 70
     1
102
RTVSPropertyOp15
 70
     1
102
RTVSPropertyOp16
 70
     1
102
RTVSPropertyOp17
 70
     1
102
RTVSPropertyOp18
 70
     1
102
RTVSPropertyOp19
 70
     1
102
RTVSPropertyOp20
 70
     1
102
RTVSPropertyOp21
 70
     1
102
RTVSPropertyOp22
 70
     1
102
RTVSPropertyOp23
 70
     1
102
RTVSPropertyOp24
 70
     1
102
RTVSPropertyOp25
 70
     1
102
RTVSPropertyOp26
 70
     1
102
RTVSPropertyOp27
 70
     1
  0
XRECORD
  5
1845
102
{ACAD_REACTORS
330
1844
102
}
330
1844
100
AcDbXrecord
280
     1
102
RTVSPropertyOp0
 70
     1
102
RTVSPropertyOp1
 70
     1
102
RTVSPropertyOp2
 70
     1
102
RTVSPropertyOp3
 70
     1
102
RTVSPropertyOp4
 70
     1
102
RTVSPropertyOp5
 70
     1
102
RTVSPropertyOp6
 70
     1
102
RTVSPropertyOp7
 70
     1
102
RTVSPropertyOp8
 70
     1
102
RTVSPropertyOp9
 70
     1
102
RTVSPropertyOp10
 70
     1
102
RTVSPropertyOp11
 70
     1
102
RTVSPropertyOp12
 70
     1
102
RTVSPropertyOp13
 70
     1
102
RTVSPropertyOp14
 70
     1
102
RTVSPropertyOp15
 70
     1
102
RTVSPropertyOp16
 70
     1
102
RTVSPropertyOp17
 70
     1
102
RTVSPropertyOp18
 70
     1
102
RTVSPropertyOp19
 70
     1
102
RTVSPropertyOp20
 70
     1
102
RTVSPropertyOp21
 70
     1
102
RTVSPropertyOp22
 70
     1
102
RTVSPropertyOp23
 70
     1
102
RTVSPropertyOp24
 70
     1
102
RTVSPropertyOp25
 70
     1
102
RTVSPropertyOp26
 70
     1
102
RTVSPropertyOp27
 70
     1
  0
XRECORD
  5
1847
102
{ACAD_REACTORS
330
1846
102
}
330
1846
100
AcDbXrecord
280
     1
102
RTVSPropertyOp0
 70
     1
102
RTVSPropertyOp1
 70
     1
102
RTVSPropertyOp2
 70
     1
102
RTVSPropertyOp3
 70
     1
102
RTVSPropertyOp4
 70
     1
102
RTVSPropertyOp5
 70
     1
102
RTVSPropertyOp6
 70
     1
102
RTVSPropertyOp7
 70
     1
102
RTVSPropertyOp8
 70
     1
102
RTVSPropertyOp9
 70
     1
102
RTVSPropertyOp10
 70
     1
102
RTVSPropertyOp11
 70
     1
102
RTVSPropertyOp12
 70
     1
102
RTVSPropertyOp13
 70
     1
102
RTVSPropertyOp14
 70
     1
102
RTVSPropertyOp15
 70
     1
102
RTVSPropertyOp16
 70
     1
102
RTVSPropertyOp17
 70
     1
102
RTVSPropertyOp18
 70
     1
102
RTVSPropertyOp19
 70
     1
102
RTVSPropertyOp20
 70
     1
102
RTVSPropertyOp21
 70
     1
102
RTVSPropertyOp22
 70
     1
102
RTVSPropertyOp23
 70
     1
102
RTVSPropertyOp24
 70
     1
102
RTVSPropertyOp25
 70
     1
102
RTVSPropertyOp26
 70
     1
102
RTVSPropertyOp27
 70
     1
  0
XRECORD
  5
1849
102
{ACAD_REACTORS
330
1848
102
}
330
1848
100
AcDbXrecord
280
     1
102
RTVSPropertyOp0
 70
     1
102
RTVSPropertyOp1
 70
     1
102
RTVSPropertyOp2
 70
     1
102
RTVSPropertyOp3
 70
     1
102
RTVSPropertyOp4
 70
     1
102
RTVSPropertyOp5
 70
     1
102
RTVSPropertyOp6
 70
     1
102
RTVSPropertyOp7
 70
     1
102
RTVSPropertyOp8
 70
     1
102
RTVSPropertyOp9
 70
     1
102
RTVSPropertyOp10
 70
     1
102
RTVSPropertyOp11
 70
     1
102
RTVSPropertyOp12
 70
     1
102
RTVSPropertyOp13
 70
     1
102
RTVSPropertyOp14
 70
     1
102
RTVSPropertyOp15
 70
     1
102
RTVSPropertyOp16
 70
     1
102
RTVSPropertyOp17
 70
     1
102
RTVSPropertyOp18
 70
     1
102
RTVSPropertyOp19
 70
     1
102
RTVSPropertyOp20
 70
     1
102
RTVSPropertyOp21
 70
     1
102
RTVSPropertyOp22
 70
     1
102
RTVSPropertyOp23
 70
     1
102
RTVSPropertyOp24
 70
     1
102
RTVSPropertyOp25
 70
     1
102
RTVSPropertyOp26
 70
     1
102
RTVSPropertyOp27
 70
     1
  0
XRECORD
  5
184B
102
{ACAD_REACTORS
330
184A
102
}
330
184A
100
AcDbXrecord
280
     1
102
RTVSPropertyOp0
 70
     1
102
RTVSPropertyOp1
 70
     1
102
RTVSPropertyOp2
 70
     1
102
RTVSPropertyOp3
 70
     1
102
RTVSPropertyOp4
 70
     1
102
RTVSPropertyOp5
 70
     1
102
RTVSPropertyOp6
 70
     1
102
RTVSPropertyOp7
 70
     1
102
RTVSPropertyOp8
 70
     1
102
RTVSPropertyOp9
 70
     1
102
RTVSPropertyOp10
 70
     1
102
RTVSPropertyOp11
 70
     1
102
RTVSPropertyOp12
 70
     1
102
RTVSPropertyOp13
 70
     1
102
RTVSPropertyOp14
 70
     1
102
RTVSPropertyOp15
 70
     1
102
RTVSPropertyOp16
 70
     1
102
RTVSPropertyOp17
 70
     1
102
RTVSPropertyOp18
 70
     1
102
RTVSPropertyOp19
 70
     1
102
RTVSPropertyOp20
 70
     1
102
RTVSPropertyOp21
 70
     1
102
RTVSPropertyOp22
 70
     1
102
RTVSPropertyOp23
 70
     1
102
RTVSPropertyOp24
 70
     1
102
RTVSPropertyOp25
 70
     1
102
RTVSPropertyOp26
 70
     1
102
RTVSPropertyOp27
 70
     1
  0
XRECORD
  5
184D
102
{ACAD_REACTORS
330
184C
102
}
330
184C
100
AcDbXrecord
280
     1
102
RTVSPropertyOp0
 70
     1
102
RTVSPropertyOp1
 70
     1
102
RTVSPropertyOp2
 70
     1
102
RTVSPropertyOp3
 70
     1
102
RTVSPropertyOp4
 70
     1
102
RTVSPropertyOp5
 70
     1
102
RTVSPropertyOp6
 70
     1
102
RTVSPropertyOp7
 70
     1
102
RTVSPropertyOp8
 70
     1
102
RTVSPropertyOp9
 70
     1
102
RTVSPropertyOp10
 70
     1
102
RTVSPropertyOp11
 70
     1
102
RTVSPropertyOp12
 70
     1
102
RTVSPropertyOp13
 70
     1
102
RTVSPropertyOp14
 70
     1
102
RTVSPropertyOp15
 70
     1
102
RTVSPropertyOp16
 70
     1
102
RTVSPropertyOp17
 70
     1
102
RTVSPropertyOp18
 70
     1
102
RTVSPropertyOp19
 70
     1
102
RTVSPropertyOp20
 70
     1
102
RTVSPropertyOp21
 70
     1
102
RTVSPropertyOp22
 70
     1
102
RTVSPropertyOp23
 70
     1
102
RTVSPropertyOp24
 70
     1
102
RTVSPropertyOp25
 70
     1
102
RTVSPropertyOp26
 70
     1
102
RTVSPropertyOp27
 70
     1
  0
XRECORD
  5
184F
102
{ACAD_REACTORS
330
184E
102
}
330
184E
100
AcDbXrecord
280
     1
102
RTVSPropertyOp0
 70
     1
102
RTVSPropertyOp1
 70
     1
102
RTVSPropertyOp2
 70
     1
102
RTVSPropertyOp3
 70
     1
102
RTVSPropertyOp4
 70
     1
102
RTVSPropertyOp5
 70
     1
102
RTVSPropertyOp6
 70
     1
102
RTVSPropertyOp7
 70
     1
102
RTVSPropertyOp8
 70
     1
102
RTVSPropertyOp9
 70
     1
102
RTVSPropertyOp10
 70
     1
102
RTVSPropertyOp11
 70
     1
102
RTVSPropertyOp12
 70
     1
102
RTVSPropertyOp13
 70
     1
102
RTVSPropertyOp14
 70
     1
102
RTVSPropertyOp15
 70
     1
102
RTVSPropertyOp16
 70
     1
102
RTVSPropertyOp17
 70
     1
102
RTVSPropertyOp18
 70
     1
102
RTVSPropertyOp19
 70
     1
102
RTVSPropertyOp20
 70
     1
102
RTVSPropertyOp21
 70
     1
102
RTVSPropertyOp22
 70
     1
102
RTVSPropertyOp23
 70
     1
102
RTVSPropertyOp24
 70
     1
102
RTVSPropertyOp25
 70
     1
102
RTVSPropertyOp26
 70
     1
102
RTVSPropertyOp27
 70
     1
  0
XRECORD
  5
1851
102
{ACAD_REACTORS
330
1850
102
}
330
1850
100
AcDbXrecord
280
     1
102
RTVSPropertyOp0
 70
     1
102
RTVSPropertyOp1
 70
     1
102
RTVSPropertyOp2
 70
     1
102
RTVSPropertyOp3
 70
     1
102
RTVSPropertyOp4
 70
     1
102
RTVSPropertyOp5
 70
     1
102
RTVSPropertyOp6
 70
     1
102
RTVSPropertyOp7
 70
     1
102
RTVSPropertyOp8
 70
     1
102
RTVSPropertyOp9
 70
     1
102
RTVSPropertyOp10
 70
     1
102
RTVSPropertyOp11
 70
     1
102
RTVSPropertyOp12
 70
     1
102
RTVSPropertyOp13
 70
     1
102
RTVSPropertyOp14
 70
     1
102
RTVSPropertyOp15
 70
     1
102
RTVSPropertyOp16
 70
     1
102
RTVSPropertyOp17
 70
     1
102
RTVSPropertyOp18
 70
     1
102
RTVSPropertyOp19
 70
     1
102
RTVSPropertyOp20
 70
     1
102
RTVSPropertyOp21
 70
     1
102
RTVSPropertyOp22
 70
     1
102
RTVSPropertyOp23
 70
     1
102
RTVSPropertyOp24
 70
     1
102
RTVSPropertyOp25
 70
     1
102
RTVSPropertyOp26
 70
     1
102
RTVSPropertyOp27
 70
     1
  0
XRECORD
  5
1853
102
{ACAD_REACTORS
330
1852
102
}
330
1852
100
AcDbXrecord
280
     1
102
RTVSPropertyOp0
 70
     1
102
RTVSPropertyOp1
 70
     1
102
RTVSPropertyOp2
 70
     1
102
RTVSPropertyOp3
 70
     1
102
RTVSPropertyOp4
 70
     1
102
RTVSPropertyOp5
 70
     1
102
RTVSPropertyOp6
 70
     1
102
RTVSPropertyOp7
 70
     1
102
RTVSPropertyOp8
 70
     1
102
RTVSPropertyOp9
 70
     1
102
RTVSPropertyOp10
 70
     1
102
RTVSPropertyOp11
 70
     1
102
RTVSPropertyOp12
 70
     1
102
RTVSPropertyOp13
 70
     1
102
RTVSPropertyOp14
 70
     1
102
RTVSPropertyOp15
 70
     1
102
RTVSPropertyOp16
 70
     1
102
RTVSPropertyOp17
 70
     1
102
RTVSPropertyOp18
 70
     1
102
RTVSPropertyOp19
 70
     1
102
RTVSPropertyOp20
 70
     1
102
RTVSPropertyOp21
 70
     1
102
RTVSPropertyOp22
 70
     1
102
RTVSPropertyOp23
 70
     1
102
RTVSPropertyOp24
 70
     1
102
RTVSPropertyOp25
 70
     1
102
RTVSPropertyOp26
 70
     1
102
RTVSPropertyOp27
 70
     1
  0
XRECORD
  5
1855
102
{ACAD_REACTORS
330
1854
102
}
330
1854
100
AcDbXrecord
280
     1
102
RTVSPropertyOp0
 70
     1
102
RTVSPropertyOp1
 70
     1
102
RTVSPropertyOp2
 70
     1
102
RTVSPropertyOp3
 70
     1
102
RTVSPropertyOp4
 70
     1
102
RTVSPropertyOp5
 70
     1
102
RTVSPropertyOp6
 70
     1
102
RTVSPropertyOp7
 70
     1
102
RTVSPropertyOp8
 70
     1
102
RTVSPropertyOp9
 70
     1
102
RTVSPropertyOp10
 70
     1
102
RTVSPropertyOp11
 70
     1
102
RTVSPropertyOp12
 70
     1
102
RTVSPropertyOp13
 70
     1
102
RTVSPropertyOp14
 70
     1
102
RTVSPropertyOp15
 70
     1
102
RTVSPropertyOp16
 70
     1
102
RTVSPropertyOp17
 70
     1
102
RTVSPropertyOp18
 70
     1
102
RTVSPropertyOp19
 70
     1
102
RTVSPropertyOp20
 70
     1
102
RTVSPropertyOp21
 70
     1
102
RTVSPropertyOp22
 70
     1
102
RTVSPropertyOp23
 70
     1
102
RTVSPropertyOp24
 70
     1
102
RTVSPropertyOp25
 70
     1
102
RTVSPropertyOp26
 70
     1
102
RTVSPropertyOp27
 70
     1
  0
XRECORD
  5
1857
102
{ACAD_REACTORS
330
1856
102
}
330
1856
100
AcDbXrecord
280
     1
102
RTVSPropertyOp0
 70
     1
102
RTVSPropertyOp1
 70
     1
102
RTVSPropertyOp2
 70
     1
102
RTVSPropertyOp3
 70
     1
102
RTVSPropertyOp4
 70
     1
102
RTVSPropertyOp5
 70
     1
102
RTVSPropertyOp6
 70
     1
102
RTVSPropertyOp7
 70
     1
102
RTVSPropertyOp8
 70
     1
102
RTVSPropertyOp9
 70
     1
102
RTVSPropertyOp10
 70
     1
102
RTVSPropertyOp11
 70
     1
102
RTVSPropertyOp12
 70
     1
102
RTVSPropertyOp13
 70
     1
102
RTVSPropertyOp14
 70
     1
102
RTVSPropertyOp15
 70
     1
102
RTVSPropertyOp16
 70
     1
102
RTVSPropertyOp17
 70
     1
102
RTVSPropertyOp18
 70
     1
102
RTVSPropertyOp19
 70
     1
102
RTVSPropertyOp20
 70
     1
102
RTVSPropertyOp21
 70
     1
102
RTVSPropertyOp22
 70
     1
102
RTVSPropertyOp23
 70
     1
102
RTVSPropertyOp24
 70
     1
102
RTVSPropertyOp25
 70
     1
102
RTVSPropertyOp26
 70
     1
102
RTVSPropertyOp27
 70
     1
  0
XRECORD
  5
1859
102
{ACAD_REACTORS
330
1858
102
}
330
1858
100
AcDbXrecord
280
     1
102
RTVSPropertyOp0
 70
     1
102
RTVSPropertyOp1
 70
     1
102
RTVSPropertyOp2
 70
     1
102
RTVSPropertyOp3
 70
     1
102
RTVSPropertyOp4
 70
     1
102
RTVSPropertyOp5
 70
     1
102
RTVSPropertyOp6
 70
     1
102
RTVSPropertyOp7
 70
     1
102
RTVSPropertyOp8
 70
     1
102
RTVSPropertyOp9
 70
     1
102
RTVSPropertyOp10
 70
     1
102
RTVSPropertyOp11
 70
     1
102
RTVSPropertyOp12
 70
     1
102
RTVSPropertyOp13
 70
     1
102
RTVSPropertyOp14
 70
     1
102
RTVSPropertyOp15
 70
     1
102
RTVSPropertyOp16
 70
     1
102
RTVSPropertyOp17
 70
     1
102
RTVSPropertyOp18
 70
     1
102
RTVSPropertyOp19
 70
     1
102
RTVSPropertyOp20
 70
     1
102
RTVSPropertyOp21
 70
     1
102
RTVSPropertyOp22
 70
     1
102
RTVSPropertyOp23
 70
     1
102
RTVSPropertyOp24
 70
     1
102
RTVSPropertyOp25
 70
     1
102
RTVSPropertyOp26
 70
     1
102
RTVSPropertyOp27
 70
     1
  0
XRECORD
  5
185B
102
{ACAD_REACTORS
330
185A
102
}
330
185A
100
AcDbXrecord
280
     1
102
RTVSPropertyOp0
 70
     1
102
RTVSPropertyOp1
 70
     1
102
RTVSPropertyOp2
 70
     1
102
RTVSPropertyOp3
 70
     1
102
RTVSPropertyOp4
 70
     1
102
RTVSPropertyOp5
 70
     1
102
RTVSPropertyOp6
 70
     1
102
RTVSPropertyOp7
 70
     1
102
RTVSPropertyOp8
 70
     1
102
RTVSPropertyOp9
 70
     1
102
RTVSPropertyOp10
 70
     1
102
RTVSPropertyOp11
 70
     1
102
RTVSPropertyOp12
 70
     1
102
RTVSPropertyOp13
 70
     1
102
RTVSPropertyOp14
 70
     1
102
RTVSPropertyOp15
 70
     1
102
RTVSPropertyOp16
 70
     1
102
RTVSPropertyOp17
 70
     1
102
RTVSPropertyOp18
 70
     1
102
RTVSPropertyOp19
 70
     1
102
RTVSPropertyOp20
 70
     1
102
RTVSPropertyOp21
 70
     1
102
RTVSPropertyOp22
 70
     1
102
RTVSPropertyOp23
 70
     1
102
RTVSPropertyOp24
 70
     1
102
RTVSPropertyOp25
 70
     1
102
RTVSPropertyOp26
 70
     1
102
RTVSPropertyOp27
 70
     1
  0
XRECORD
  5
185D
102
{ACAD_REACTORS
330
185C
102
}
330
185C
100
AcDbXrecord
280
     1
102
RTVSPropertyOp0
 70
     1
102
RTVSPropertyOp1
 70
     1
102
RTVSPropertyOp2
 70
     1
102
RTVSPropertyOp3
 70
     1
102
RTVSPropertyOp4
 70
     1
102
RTVSPropertyOp5
 70
     1
102
RTVSPropertyOp6
 70
     1
102
RTVSPropertyOp7
 70
     1
102
RTVSPropertyOp8
 70
     1
102
RTVSPropertyOp9
 70
     1
102
RTVSPropertyOp10
 70
     1
102
RTVSPropertyOp11
 70
     1
102
RTVSPropertyOp12
 70
     1
102
RTVSPropertyOp13
 70
     1
102
RTVSPropertyOp14
 70
     1
102
RTVSPropertyOp15
 70
     1
102
RTVSPropertyOp16
 70
     1
102
RTVSPropertyOp17
 70
     1
102
RTVSPropertyOp18
 70
     1
102
RTVSPropertyOp19
 70
     1
102
RTVSPropertyOp20
 70
     1
102
RTVSPropertyOp21
 70
     1
102
RTVSPropertyOp22
 70
     1
102
RTVSPropertyOp23
 70
     1
102
RTVSPropertyOp24
 70
     1
102
RTVSPropertyOp25
 70
     1
102
RTVSPropertyOp26
 70
     1
102
RTVSPropertyOp27
 70
     1
  0
XRECORD
  5
185F
102
{ACAD_REACTORS
330
185E
102
}
330
185E
100
AcDbXrecord
280
     1
102
RTVSPropertyOp0
 70
     1
102
RTVSPropertyOp1
 70
     1
102
RTVSPropertyOp2
 70
     1
102
RTVSPropertyOp3
 70
     1
102
RTVSPropertyOp4
 70
     1
102
RTVSPropertyOp5
 70
     1
102
RTVSPropertyOp6
 70
     1
102
RTVSPropertyOp7
 70
     1
102
RTVSPropertyOp8
 70
     1
102
RTVSPropertyOp9
 70
     1
102
RTVSPropertyOp10
 70
     1
102
RTVSPropertyOp11
 70
     1
102
RTVSPropertyOp12
 70
     1
102
RTVSPropertyOp13
 70
     1
102
RTVSPropertyOp14
 70
     1
102
RTVSPropertyOp15
 70
     1
102
RTVSPropertyOp16
 70
     1
102
RTVSPropertyOp17
 70
     1
102
RTVSPropertyOp18
 70
     1
102
RTVSPropertyOp19
 70
     1
102
RTVSPropertyOp20
 70
     1
102
RTVSPropertyOp21
 70
     1
102
RTVSPropertyOp22
 70
     1
102
RTVSPropertyOp23
 70
     1
102
RTVSPropertyOp24
 70
     1
102
RTVSPropertyOp25
 70
     1
102
RTVSPropertyOp26
 70
     1
102
RTVSPropertyOp27
 70
     1
  0
XRECORD
  5
1861
102
{ACAD_REACTORS
330
1860
102
}
330
1860
100
AcDbXrecord
280
     1
102
RTVSPropertyOp0
 70
     1
102
RTVSPropertyOp1
 70
     1
102
RTVSPropertyOp2
 70
     1
102
RTVSPropertyOp3
 70
     1
102
RTVSPropertyOp4
 70
     1
102
RTVSPropertyOp5
 70
     1
102
RTVSPropertyOp6
 70
     1
102
RTVSPropertyOp7
 70
     1
102
RTVSPropertyOp8
 70
     1
102
RTVSPropertyOp9
 70
     1
102
RTVSPropertyOp10
 70
     1
102
RTVSPropertyOp11
 70
     1
102
RTVSPropertyOp12
 70
     1
102
RTVSPropertyOp13
 70
     1
102
RTVSPropertyOp14
 70
     1
102
RTVSPropertyOp15
 70
     1
102
RTVSPropertyOp16
 70
     1
102
RTVSPropertyOp17
 70
     1
102
RTVSPropertyOp18
 70
     1
102
RTVSPropertyOp19
 70
     1
102
RTVSPropertyOp20
 70
     1
102
RTVSPropertyOp21
 70
     1
102
RTVSPropertyOp22
 70
     1
102
RTVSPropertyOp23
 70
     1
102
RTVSPropertyOp24
 70
     1
102
RTVSPropertyOp25
 70
     1
102
RTVSPropertyOp26
 70
     1
102
RTVSPropertyOp27
 70
     1
  0
XRECORD
  5
1863
102
{ACAD_REACTORS
330
1862
102
}
330
1862
100
AcDbXrecord
280
     1
102
RTVSPropertyOp0
 70
     1
102
RTVSPropertyOp1
 70
     1
102
RTVSPropertyOp2
 70
     1
102
RTVSPropertyOp3
 70
     1
102
RTVSPropertyOp4
 70
     1
102
RTVSPropertyOp5
 70
     1
102
RTVSPropertyOp6
 70
     1
102
RTVSPropertyOp7
 70
     1
102
RTVSPropertyOp8
 70
     1
102
RTVSPropertyOp9
 70
     1
102
RTVSPropertyOp10
 70
     1
102
RTVSPropertyOp11
 70
     1
102
RTVSPropertyOp12
 70
     1
102
RTVSPropertyOp13
 70
     1
102
RTVSPropertyOp14
 70
     1
102
RTVSPropertyOp15
 70
     1
102
RTVSPropertyOp16
 70
     1
102
RTVSPropertyOp17
 70
     1
102
RTVSPropertyOp18
 70
     1
102
RTVSPropertyOp19
 70
     1
102
RTVSPropertyOp20
 70
     1
102
RTVSPropertyOp21
 70
     1
102
RTVSPropertyOp22
 70
     1
102
RTVSPropertyOp23
 70
     1
102
RTVSPropertyOp24
 70
     1
102
RTVSPropertyOp25
 70
     1
102
RTVSPropertyOp26
 70
     1
102
RTVSPropertyOp27
 70
     1
  0
XRECORD
  5
1865
102
{ACAD_REACTORS
330
1864
102
}
330
1864
100
AcDbXrecord
280
     1
102
RTVSPropertyOp0
 70
     1
102
RTVSPropertyOp1
 70
     1
102
RTVSPropertyOp2
 70
     1
102
RTVSPropertyOp3
 70
     1
102
RTVSPropertyOp4
 70
     1
102
RTVSPropertyOp5
 70
     1
102
RTVSPropertyOp6
 70
     1
102
RTVSPropertyOp7
 70
     1
102
RTVSPropertyOp8
 70
     1
102
RTVSPropertyOp9
 70
     1
102
RTVSPropertyOp10
 70
     1
102
RTVSPropertyOp11
 70
     1
102
RTVSPropertyOp12
 70
     1
102
RTVSPropertyOp13
 70
     1
102
RTVSPropertyOp14
 70
     1
102
RTVSPropertyOp15
 70
     1
102
RTVSPropertyOp16
 70
     1
102
RTVSPropertyOp17
 70
     1
102
RTVSPropertyOp18
 70
     1
102
RTVSPropertyOp19
 70
     1
102
RTVSPropertyOp20
 70
     1
102
RTVSPropertyOp21
 70
     1
102
RTVSPropertyOp22
 70
     1
102
RTVSPropertyOp23
 70
     1
102
RTVSPropertyOp24
 70
     1
102
RTVSPropertyOp25
 70
     1
102
RTVSPropertyOp26
 70
     1
102
RTVSPropertyOp27
 70
     1
  0
XRECORD
  5
1867
102
{ACAD_REACTORS
330
1866
102
}
330
1866
100
AcDbXrecord
280
     1
102
RTVSPropertyOp0
 70
     1
102
RTVSPropertyOp1
 70
     1
102
RTVSPropertyOp2
 70
     1
102
RTVSPropertyOp3
 70
     1
102
RTVSPropertyOp4
 70
     1
102
RTVSPropertyOp5
 70
     1
102
RTVSPropertyOp6
 70
     1
102
RTVSPropertyOp7
 70
     1
102
RTVSPropertyOp8
 70
     1
102
RTVSPropertyOp9
 70
     1
102
RTVSPropertyOp10
 70
     1
102
RTVSPropertyOp11
 70
     1
102
RTVSPropertyOp12
 70
     1
102
RTVSPropertyOp13
 70
     1
102
RTVSPropertyOp14
 70
     1
102
RTVSPropertyOp15
 70
     1
102
RTVSPropertyOp16
 70
     1
102
RTVSPropertyOp17
 70
     1
102
RTVSPropertyOp18
 70
     1
102
RTVSPropertyOp19
 70
     1
102
RTVSPropertyOp20
 70
     1
102
RTVSPropertyOp21
 70
     1
102
RTVSPropertyOp22
 70
     1
102
RTVSPropertyOp23
 70
     1
102
RTVSPropertyOp24
 70
     1
102
RTVSPropertyOp25
 70
     1
102
RTVSPropertyOp26
 70
     1
102
RTVSPropertyOp27
 70
     1
  0
ENDSEC
  0
EOF
