  0
SECTION
  2
HEADER
  9
$ACADVER
  1
AC1015
  9
$ACADMAINTVER
 70
     6
  9
$DWGCODEPAGE
  3
ANSI_932
  9
$INSBASE
 10
0.0
 20
0.0
 30
0.0
  9
$EXTMIN
 10
-31992.51160208319
 20
300.0
 30
0.0
  9
$EXTMAX
 10
-16392.5116020832
 20
11300.0
 30
0.0
  9
$LIMMIN
 10
350.0
 20
150.0
  9
$LIMMAX
 10
12600.0
 20
8910.0
  9
$ORTHOMODE
 70
     1
  9
$REGENMODE
 70
     1
  9
$FILLMODE
 70
     1
  9
$QTEXTMODE
 70
     0
  9
$MIRRTEXT
 70
     1
  9
$LTSCALE
 40
300.0
  9
$ATTMODE
 70
     1
  9
$TEXTSIZE
 40
100.0
  9
$TRACEWID
 40
0.05
  9
$TEXTSTYLE
  7
STANDARD
  9
$CLAYER
  8
0
  9
$CELTYPE
  6
BYLAYER
  9
$CECOLOR
 62
   256
  9
$CELTSCALE
 40
1.0
  9
$DISPSILH
 70
     0
  9
$DIMSCALE
 40
40.0
  9
$DIMASZ
 40
2.0
  9
$DIMEXO
 40
2.0
  9
$DIMDLI
 40
7.0
  9
$DIMRND
 40
0.0
  9
$DIMDLE
 40
0.0
  9
$DIMEXE
 40
1.0
  9
$DIMTP
 40
0.0
  9
$DIMTM
 40
0.0
  9
$DIMTXT
 40
3.0
  9
$DIMCEN
 40
0.0
  9
$DIMTSZ
 40
0.0
  9
$DIMTOL
 70
     0
  9
$DIMLIM
 70
     0
  9
$DIMTIH
 70
     0
  9
$DIMTOH
 70
     0
  9
$DIMSE1
 70
     0
  9
$DIMSE2
 70
     0
  9
$DIMTAD
 70
     1
  9
$DIMZIN
 70
     8
  9
$DIMBLK
  1

  9
$DIMASO
 70
     1
  9
$DIMSHO
 70
     1
  9
$DIMPOST
  1

  9
$DIMAPOST
  1

  9
$DIMALT
 70
     0
  9
$DIMALTD
 70
     2
  9
$DIMALTF
 40
25.4
  9
$DIMLFAC
 40
1.0
  9
$DIMTOFL
 70
     1
  9
$DIMTVP
 40
1.0
  9
$DIMTIX
 70
     1
  9
$DIMSOXD
 70
     0
  9
$DIMSAH
 70
     0
  9
$DIMBLK1
  1

  9
$DIMBLK2
  1

  9
$DIMSTYLE
  2
STANDARD
  9
$DIMCLRD
 70
     0
  9
$DIMCLRE
 70
   256
  9
$DIMCLRT
 70
     0
  9
$DIMTFAC
 40
1.0
  9
$DIMGAP
 40
0.8
  9
$DIMJUST
 70
     0
  9
$DIMSD1
 70
     0
  9
$DIMSD2
 70
     0
  9
$DIMTOLJ
 70
     1
  9
$DIMTZIN
 70
     8
  9
$DIMALTZ
 70
     8
  9
$DIMALTTZ
 70
     8
  9
$DIMUPT
 70
     0
  9
$DIMDEC
 70
     0
  9
$DIMTDEC
 70
     0
  9
$DIMALTU
 70
     2
  9
$DIMALTTD
 70
     2
  9
$DIMTXSTY
  7
STANDARD
  9
$DIMAUNIT
 70
     1
  9
$DIMADEC
 70
     0
  9
$DIMALTRND
 40
0.0
  9
$DIMAZIN
 70
     0
  9
$DIMDSEP
 70
    46
  9
$DIMATFIT
 70
     0
  9
$DIMFRAC
 70
     0
  9
$DIMLDRBLK
  1

  9
$DIMLUNIT
 70
     2
  9
$DIMLWD
 70
    -2
  9
$DIMLWE
 70
    -2
  9
$DIMTMOVE
 70
     0
  9
$LUNITS
 70
     2
  9
$LUPREC
 70
     4
  9
$SKETCHINC
 40
0.1
  9
$FILLETRAD
 40
0.0
  9
$AUNITS
 70
     1
  9
$AUPREC
 70
     4
  9
$MENU
  1
acad
  9
$ELEVATION
 40
0.0
  9
$PELEVATION
 40
0.0
  9
$THICKNESS
 40
0.0
  9
$LIMCHECK
 70
     0
  9
$CHAMFERA
 40
0.0
  9
$CHAMFERB
 40
0.0
  9
$CHAMFERC
 40
0.0
  9
$CHAMFERD
 40
0.0
  9
$SKPOLY
 70
     0
  9
$TDCREATE
 40
2450014.659421296
  9
$TDUCREATE
 40
2450014.284421296
  9
$TDUPDATE
 40
2455019.639743553
  9
$TDUUPDATE
 40
2455019.264743553
  9
$TDINDWG
 40
2.3307978704
  9
$TDUSRTIMER
 40
2.3307978704
  9
$USRTIMER
 70
     1
  9
$ANGBASE
 50
0.0
  9
$ANGDIR
 70
     0
  9
$PDMODE
 70
     0
  9
$PDSIZE
 40
0.0
  9
$PLINEWID
 40
0.0
  9
$SPLFRAME
 70
     0
  9
$SPLINETYPE
 70
     6
  9
$SPLINESEGS
 70
     8
  9
$HANDSEED
  5
17A9F
  9
$SURFTAB1
 70
     6
  9
$SURFTAB2
 70
     6
  9
$SURFTYPE
 70
     6
  9
$SURFU
 70
     6
  9
$SURFV
 70
     6
  9
$UCSBASE
  2

  9
$UCSNAME
  2

  9
$UCSORG
 10
0.0
 20
0.0
 30
0.0
  9
$UCSXDIR
 10
1.0
 20
0.0
 30
0.0
  9
$UCSYDIR
 10
0.0
 20
1.0
 30
0.0
  9
$UCSORTHOREF
  2

  9
$UCSORTHOVIEW
 70
     0
  9
$UCSORGTOP
 10
0.0
 20
0.0
 30
0.0
  9
$UCSORGBOTTOM
 10
0.0
 20
0.0
 30
0.0
  9
$UCSORGLEFT
 10
0.0
 20
0.0
 30
0.0
  9
$UCSORGRIGHT
 10
0.0
 20
0.0
 30
0.0
  9
$UCSORGFRONT
 10
0.0
 20
0.0
 30
0.0
  9
$UCSORGBACK
 10
0.0
 20
0.0
 30
0.0
  9
$PUCSBASE
  2

  9
$PUCSNAME
  2

  9
$PUCSORG
 10
0.0
 20
0.0
 30
0.0
  9
$PUCSXDIR
 10
1.0
 20
0.0
 30
0.0
  9
$PUCSYDIR
 10
0.0
 20
1.0
 30
0.0
  9
$PUCSORTHOREF
  2

  9
$PUCSORTHOVIEW
 70
     0
  9
$PUCSORGTOP
 10
0.0
 20
0.0
 30
0.0
  9
$PUCSORGBOTTOM
 10
0.0
 20
0.0
 30
0.0
  9
$PUCSORGLEFT
 10
0.0
 20
0.0
 30
0.0
  9
$PUCSORGRIGHT
 10
0.0
 20
0.0
 30
0.0
  9
$PUCSORGFRONT
 10
0.0
 20
0.0
 30
0.0
  9
$PUCSORGBACK
 10
0.0
 20
0.0
 30
0.0
  9
$USERI1
 70
     0
  9
$USERI2
 70
     0
  9
$USERI3
 70
     0
  9
$USERI4
 70
     0
  9
$USERI5
 70
     0
  9
$USERR1
 40
0.0
  9
$USERR2
 40
0.0
  9
$USERR3
 40
0.0
  9
$USERR4
 40
0.0
  9
$USERR5
 40
0.0
  9
$WORLDVIEW
 70
     1
  9
$SHADEDGE
 70
     3
  9
$SHADEDIF
 70
    70
  9
$TILEMODE
 70
     1
  9
$MAXACTVP
 70
    48
  9
$PINSBASE
 10
0.0
 20
0.0
 30
0.0
  9
$PLIMCHECK
 70
     0
  9
$PEXTMIN
 10
1.000000000000000E+20
 20
1.000000000000000E+20
 30
1.000000000000000E+20
  9
$PEXTMAX
 10
-1.000000000000000E+20
 20
-1.000000000000000E+20
 30
-1.000000000000000E+20
  9
$PLIMMIN
 10
0.0
 20
0.0
  9
$PLIMMAX
 10
12.0
 20
9.0
  9
$UNITMODE
 70
     0
  9
$VISRETAIN
 70
     0
  9
$PLINEGEN
 70
     0
  9
$PSLTSCALE
 70
     0
  9
$TREEDEPTH
 70
  3020
  9
$CMLSTYLE
  2
STANDARD
  9
$CMLJUST
 70
     0
  9
$CMLSCALE
 40
1.0
  9
$PROXYGRAPHICS
 70
     1
  9
$MEASUREMENT
 70
     0
  9
$CELWEIGHT
370
    -1
  9
$ENDCAPS
280
     0
  9
$JOINSTYLE
280
     0
  9
$LWDISPLAY
290
     0
  9
$INSUNITS
 70
     0
  9
$HYPERLINKBASE
  1

  9
$STYLESHEET
  1
aclt.ctb
  9
$XEDIT
290
     1
  9
$CEPSNTYPE
380
     0
  9
$PSTYLEMODE
290
     1
  9
$FINGERPRINTGUID
  2
{13D4EEAC-250E-11D6-9351-0080AD72C8A3}
  9
$VERSIONGUID
  2
{BE8CC6C1-7E19-4B32-9AEB-6221F0724975}
  9
$EXTNAMES
290
     1
  9
$PSVPSCALE
 40
0.0
  9
$OLESTARTUP
290
     0
  0
ENDSEC
  0
SECTION
  2
CLASSES
  0
CLASS
  1
LWPOLYLINE
  2
AcDbPolyline
  3
AutoCAD 2000
 90
        0
280
     0
281
     1
  0
CLASS
  1
ACDBDICTIONARYWDFLT
  2
AcDbDictionaryWithDefault
  3
ObjectDBX Classes
 90
        0
280
     0
281
     0
  0
CLASS
  1
ACDBPLACEHOLDER
  2
AcDbPlaceHolder
  3
ObjectDBX Classes
 90
        0
280
     0
281
     0
  0
CLASS
  1
LAYOUT
  2
AcDbLayout
  3
ObjectDBX Classes
 90
        0
280
     0
281
     0
  0
CLASS
  1
DICTIONARYVAR
  2
AcDbDictionaryVar
  3
ObjectDBX Classes
 90
        0
280
     0
281
     0
  0
CLASS
  1
DUMMY
  2
AcDbLongTransaction
  3
DUMMY
 90
        0
280
     0
281
     0
  0
CLASS
  1
LWPOLYLINE
  2
AcDbPolyline
  3
AutoCAD 2000
 90
        0
280
     0
281
     1
  0
CLASS
  1
HATCH
  2
AcDbHatch
  3
AutoCAD 2000
 90
        0
280
     0
281
     1
  0
CLASS
  1
XRECORD
  2
AcDbXrecord
  3
AutoCAD 2000
 90
        0
280
     0
281
     0
  0
CLASS
  1
DUMMY
  2
AcDbLongTransaction
  3
DUMMY
 90
        0
280
     0
281
     0
  0
CLASS
  1
LWPOLYLINE
  2
AcDbPolyline
  3
AutoCAD 2000
 90
        0
280
     0
281
     1
  0
CLASS
  1
HATCH
  2
AcDbHatch
  3
AutoCAD 2000
 90
        0
280
     0
281
     1
  0
CLASS
  1
XRECORD
  2
AcDbXrecord
  3
AutoCAD 2000
 90
        0
280
     0
281
     0
  0
CLASS
  1
DUMMY
  2
AcDbLongTransaction
  3
DUMMY
 90
        0
280
     0
281
     0
  0
CLASS
  1
LWPOLYLINE
  2
AcDbPolyline
  3
AutoCAD 2000
 90
        0
280
     0
281
     1
  0
CLASS
  1
HATCH
  2
AcDbHatch
  3
AutoCAD 2000
 90
        0
280
     0
281
     1
  0
CLASS
  1
XRECORD
  2
AcDbXrecord
  3
AutoCAD 2000
 90
        0
280
     0
281
     0
  0
CLASS
  1
DUMMY
  2
AcDbLongTransaction
  3
DUMMY
 90
        0
280
     0
281
     0
  0
CLASS
  1
LWPOLYLINE
  2
AcDbPolyline
  3
AutoCAD 2000
 90
        0
280
     0
281
     1
  0
CLASS
  1
HATCH
  2
AcDbHatch
  3
AutoCAD 2000
 90
        0
280
     0
281
     1
  0
CLASS
  1
XRECORD
  2
AcDbXrecord
  3
AutoCAD 2000
 90
        0
280
     0
281
     0
  0
CLASS
  1
DUMMY
  2
AcDbLongTransaction
  3
DUMMY
 90
        0
280
     0
281
     0
  0
CLASS
  1
LWPOLYLINE
  2
AcDbPolyline
  3
AutoCAD 2000
 90
        0
280
     0
281
     1
  0
CLASS
  1
HATCH
  2
AcDbHatch
  3
AutoCAD 2000
 90
        0
280
     0
281
     1
  0
CLASS
  1
XRECORD
  2
AcDbXrecord
  3
AutoCAD 2000
 90
        0
280
     0
281
     0
  0
CLASS
  1
DUMMY
  2
AcDbLongTransaction
  3
DUMMY
 90
        0
280
     0
281
     0
  0
CLASS
  1
LWPOLYLINE
  2
AcDbPolyline
  3
AutoCAD 2000
 90
        0
280
     0
281
     1
  0
CLASS
  1
HATCH
  2
AcDbHatch
  3
AutoCAD 2000
 90
        0
280
     0
281
     1
  0
CLASS
  1
XRECORD
  2
AcDbXrecord
  3
AutoCAD 2000
 90
        0
280
     0
281
     0
  0
CLASS
  1
DUMMY
  2
AcDbLongTransaction
  3
DUMMY
 90
        0
280
     0
281
     0
  0
CLASS
  1
LWPOLYLINE
  2
AcDbPolyline
  3
AutoCAD 2000
 90
        0
280
     0
281
     1
  0
CLASS
  1
HATCH
  2
AcDbHatch
  3
AutoCAD 2000
 90
        0
280
     0
281
     1
  0
CLASS
  1
XRECORD
  2
AcDbXrecord
  3
AutoCAD 2000
 90
        0
280
     0
281
     0
  0
CLASS
  1
DUMMY
  2
AcDbLongTransaction
  3
DUMMY
 90
        0
280
     0
281
     0
  0
CLASS
  1
LWPOLYLINE
  2
AcDbPolyline
  3
AutoCAD 2000
 90
        0
280
     0
281
     1
  0
CLASS
  1
HATCH
  2
AcDbHatch
  3
AutoCAD 2000
 90
        0
280
     0
281
     1
  0
CLASS
  1
XRECORD
  2
AcDbXrecord
  3
AutoCAD 2000
 90
        0
280
     0
281
     0
  0
CLASS
  1
DUMMY
  2
AcDbLongTransaction
  3
DUMMY
 90
        0
280
     0
281
     0
  0
CLASS
  1
LWPOLYLINE
  2
AcDbPolyline
  3
AutoCAD 2000
 90
        0
280
     0
281
     1
  0
CLASS
  1
HATCH
  2
AcDbHatch
  3
AutoCAD 2000
 90
        0
280
     0
281
     1
  0
CLASS
  1
XRECORD
  2
AcDbXrecord
  3
AutoCAD 2000
 90
        0
280
     0
281
     0
  0
CLASS
  1
DUMMY
  2
AcDbLongTransaction
  3
DUMMY
 90
        0
280
     0
281
     0
  0
CLASS
  1
LWPOLYLINE
  2
AcDbPolyline
  3
AutoCAD 2000
 90
        0
280
     0
281
     1
  0
CLASS
  1
HATCH
  2
AcDbHatch
  3
AutoCAD 2000
 90
        0
280
     0
281
     1
  0
CLASS
  1
XRECORD
  2
AcDbXrecord
  3
AutoCAD 2000
 90
        0
280
     0
281
     0
  0
CLASS
  1
DUMMY
  2
AcDbLongTransaction
  3
DUMMY
 90
        0
280
     0
281
     0
  0
CLASS
  1
LWPOLYLINE
  2
AcDbPolyline
  3
AutoCAD 2000
 90
        0
280
     0
281
     1
  0
CLASS
  1
HATCH
  2
AcDbHatch
  3
AutoCAD 2000
 90
        0
280
     0
281
     1
  0
CLASS
  1
XRECORD
  2
AcDbXrecord
  3
AutoCAD 2000
 90
        0
280
     0
281
     0
  0
CLASS
  1
TABLESTYLE
  2
AcDbTableStyle
  3
ObjectDBX Classes
 90
     4095
280
     0
281
     0
  0
CLASS
  1
SORTENTSTABLE
  2
AcDbSortentsTable
  3
ObjectDBX Classes
 90
        0
280
     0
281
     0
  0
ENDSEC
  0
SECTION
  2
TABLES
  0
TABLE
  2
VPORT
  5
8
330
0
100
AcDbSymbolTable
 70
     2
  0
VPORT
  5
17A95
330
8
100
AcDbSymbolTableRecord
100
AcDbViewportTableRecord
  2
*Active
 70
     0
 10
0.0
 20
0.0
 11
1.0
 21
1.0
 12
-24258.10776935853
 22
5841.150426625944
 13
0.0
 23
0.0
 14
30.0
 24
30.0
 15
300.0
 25
300.0
 16
0.0
 26
0.0
 36
1.0
 17
0.0
 27
0.0
 37
0.0
 40
11423.7306854232
 41
1.507024265644955
 42
50.0
 43
0.0
 44
0.0
 50
0.0
 51
0.0
 71
     0
 72
   100
 73
     1
 74
     0
 75
     0
 76
     0
 77
     0
 78
     0
281
     0
 65
     1
110
0.0
120
0.0
130
0.0
111
1.0
121
0.0
131
0.0
112
0.0
122
1.0
132
0.0
 79
     0
146
0.0
  0
ENDTAB
  0
TABLE
  2
LTYPE
  5
5
330
0
100
AcDbSymbolTable
 70
     3
  0
LTYPE
  5
11
330
5
100
AcDbSymbolTableRecord
100
AcDbLinetypeTableRecord
  2
BYBLOCK
 70
     0
  3

 72
    65
 73
     0
 40
0.0
  0
LTYPE
  5
12
330
5
100
AcDbSymbolTableRecord
100
AcDbLinetypeTableRecord
  2
BYLAYER
 70
     0
  3

 72
    65
 73
     0
 40
0.0
  0
LTYPE
  5
13
330
5
100
AcDbSymbolTableRecord
100
AcDbLinetypeTableRecord
  2
CONTINUOUS
 70
     0
  3
Solid line
 72
    65
 73
     0
 40
0.0
  0
LTYPE
  5
1E
330
5
100
AcDbSymbolTableRecord
100
AcDbLinetypeTableRecord
  2
HIDDEN
 70
     0
  3
_ _ _ _ _ _ _ _ _ _ _ _ _ _ _ _ _ _ _ _ _ _ _
 72
    65
 73
     2
 40
0.375
 49
0.25
 74
     0
 49
-0.125
 74
     0
  0
LTYPE
  5
1F
330
5
100
AcDbSymbolTableRecord
100
AcDbLinetypeTableRecord
  2
CENTER
 70
     0
  3
____ _ ____ _ ____ _ ____ _ ____ _ ____ _ ____
 72
    65
 73
     4
 40
2.0
 49
1.25
 74
     0
 49
-0.25
 74
     0
 49
0.25
 74
     0
 49
-0.25
 74
     0
  0
ENDTAB
  0
TABLE
  2
LAYER
  5
2
102
{ACAD_XDICTIONARY
360
1796B
102
}
330
0
100
AcDbSymbolTable
 70
    10
  0
LAYER
  5
E
330
2
100
AcDbSymbolTableRecord
100
AcDbLayerTableRecord
  2
0
 70
     0
 62
     7
  6
CONTINUOUS
370
    -3
390
12F2
  0
LAYER
  5
23
330
2
100
AcDbSymbolTableRecord
100
AcDbLayerTableRecord
  2
SUNPOU
 70
     0
 62
     1
  6
CONTINUOUS
370
    -3
390
12F2
  0
LAYER
  5
24
330
2
100
AcDbSymbolTableRecord
100
AcDbLayerTableRecord
  2
HAIKIN
 70
     0
 62
     2
  6
CONTINUOUS
370
    -3
390
12F2
  0
LAYER
  5
25
330
2
100
AcDbSymbolTableRecord
100
AcDbLayerTableRecord
  2
SEIHIN
 70
     0
 62
     3
  6
CONTINUOUS
370
    -3
390
12F2
  0
LAYER
  5
26
330
2
100
AcDbSymbolTableRecord
100
AcDbLayerTableRecord
  2
HASEN
 70
     0
 62
     4
  6
HIDDEN
370
    -3
390
12F2
  0
LAYER
  5
27
330
2
100
AcDbSymbolTableRecord
100
AcDbLayerTableRecord
  2
1HASEN
 70
     0
 62
     5
  6
CENTER
370
    -3
390
12F2
  0
LAYER
  5
11F
330
2
100
AcDbSymbolTableRecord
100
AcDbLayerTableRecord
  2
DEFPOINTS
 70
     0
 62
     7
  6
CONTINUOUS
290
     0
370
    -3
390
12F2
  0
LAYER
  5
6D27
330
2
100
AcDbSymbolTableRecord
100
AcDbLayerTableRecord
  2
PC
 70
     0
 62
     3
  6
CONTINUOUS
370
    -3
390
12F2
  0
LAYER
  5
8E48
330
2
100
AcDbSymbolTableRecord
100
AcDbLayerTableRecord
  2
ASHADE
 70
     0
 62
     7
  6
CONTINUOUS
370
    -3
390
12F2
  0
LAYER
  5
17969
330
2
100
AcDbSymbolTableRecord
100
AcDbLayerTableRecord
  2
吊り金具
 70
     0
 62
     7
  6
CONTINUOUS
370
    -3
390
12F2
1001
AcAecLayerStandard
1000

1000

  0
ENDTAB
  0
TABLE
  2
STYLE
  5
3
330
0
100
AcDbSymbolTable
 70
     1
  0
STYLE
  5
F
330
3
100
AcDbSymbolTableRecord
100
AcDbTextStyleTableRecord
  2
STANDARD
 70
     0
 40
0.0
 41
0.8
 50
0.0
 71
     0
 42
100.0
  3
TXT.shx
  4
BIGFONT.shx
  0
ENDTAB
  0
TABLE
  2
VIEW
  5
6
330
0
100
AcDbSymbolTable
 70
     0
  0
ENDTAB
  0
TABLE
  2
UCS
  5
7
330
0
100
AcDbSymbolTable
 70
     0
  0
ENDTAB
  0
TABLE
  2
APPID
  5
9
330
0
100
AcDbSymbolTable
 70
     7
  0
APPID
  5
10
330
9
100
AcDbSymbolTableRecord
100
AcDbRegAppTableRecord
  2
ACAD
 70
     0
  0
APPID
  5
8E46
330
9
100
AcDbSymbolTableRecord
100
AcDbRegAppTableRecord
  2
AVE_RENDER
 70
     0
  0
APPID
  5
8E47
330
9
100
AcDbSymbolTableRecord
100
AcDbRegAppTableRecord
  2
AVE_ENTITY_MATERIAL
 70
     0
  0
APPID
  5
8E54
330
9
100
AcDbSymbolTableRecord
100
AcDbRegAppTableRecord
  2
AVE_FINISH
 70
     0
  0
APPID
  5
8E55
330
9
100
AcDbSymbolTableRecord
100
AcDbRegAppTableRecord
  2
AVE_MATERIAL
 70
     0
  0
APPID
  5
8E56
330
9
100
AcDbSymbolTableRecord
100
AcDbRegAppTableRecord
  2
AVE_GLOBAL
 70
     0
  0
APPID
  5
1796A
330
9
100
AcDbSymbolTableRecord
100
AcDbRegAppTableRecord
  2
AcAecLayerStandard
 70
     0
  0
ENDTAB
  0
TABLE
  2
DIMSTYLE
  5
A
330
0
100
AcDbSymbolTable
 70
     2
100
AcDbDimStyleTable
  0
DIMSTYLE
105
61
102
{ACAD_REACTORS
330
6C06
330
6C15
330
6C08
330
6C22
330
9723
330
9721
330
9285
330
9309
330
1234B
330
1234A
330
1234C
330
1234D
330
18BC
330
194F
330
195C
330
18AF
330
1234F
330
1234E
330
12350
330
12351
330
6CD5
330
184F
330
6CA0
330
9F65
330
183F
330
185C
330
118EF
330
118F0
330
118EA
330
118EC
330
118E9
330
118EB
330
118F3
330
118DC
330
118DD
330
118E0
330
118E1
330
15910
330
15911
330
158F6
330
158F7
330
158F8
330
15906
330
15907
330
15904
330
15905
330
1590A
330
1590B
330
1590C
330
118DB
330
118ED
330
118EE
330
15914
330
15918
330
17557
330
1755B
330
1796E
330
1797B
330
17988
330
1799C
330
179A9
330
179BF
102
}
330
A
100
AcDbSymbolTableRecord
100
AcDbDimStyleTableRecord
  2
STANDARD
 70
     0
340
F
  0
DIMSTYLE
105
178B1
330
A
100
AcDbSymbolTableRecord
100
AcDbDimStyleTableRecord
  2
1-60
 70
     0
 40
60.0
 41
2.0
 42
1.5
 43
7.0
 44
0.6
 73
     0
 74
     0
 77
     1
140
3.0
141
0.0
143
0.03937
147
0.8
172
     1
174
     1
176
     1
177
     1
178
     1
271
     0
272
     0
275
     1
278
    44
279
     2
340
F
  0
ENDTAB
  0
TABLE
  2
BLOCK_RECORD
  5
1
330
0
100
AcDbSymbolTable
 70
    64
  0
BLOCK_RECORD
  5
17
102
{ACAD_XDICTIONARY
360
1653
102
}
330
1
100
AcDbSymbolTableRecord
100
AcDbBlockTableRecord
  2
*MODEL_SPACE
340
12F5
  0
BLOCK_RECORD
  5
14
330
1
100
AcDbSymbolTableRecord
100
AcDbBlockTableRecord
  2
*PAPER_SPACE
340
12F6
  0
BLOCK_RECORD
  5
1840
330
1
100
AcDbSymbolTableRecord
100
AcDbBlockTableRecord
  2
*D0
340
0
  0
BLOCK_RECORD
  5
1850
330
1
100
AcDbSymbolTableRecord
100
AcDbBlockTableRecord
  2
*D1
340
0
  0
BLOCK_RECORD
  5
185D
330
1
100
AcDbSymbolTableRecord
100
AcDbBlockTableRecord
  2
*D2
340
0
  0
BLOCK_RECORD
  5
18B0
330
1
100
AcDbSymbolTableRecord
100
AcDbBlockTableRecord
  2
*D3
340
0
  0
BLOCK_RECORD
  5
18BD
330
1
100
AcDbSymbolTableRecord
100
AcDbBlockTableRecord
  2
*D4
340
0
  0
BLOCK_RECORD
  5
1950
330
1
100
AcDbSymbolTableRecord
100
AcDbBlockTableRecord
  2
*D5
340
0
  0
BLOCK_RECORD
  5
195D
330
1
100
AcDbSymbolTableRecord
100
AcDbBlockTableRecord
  2
*D6
340
0
  0
BLOCK_RECORD
  5
6C09
330
1
100
AcDbSymbolTableRecord
100
AcDbBlockTableRecord
  2
*D7
340
0
  0
BLOCK_RECORD
  5
6C16
330
1
100
AcDbSymbolTableRecord
100
AcDbBlockTableRecord
  2
*D8
340
0
  0
BLOCK_RECORD
  5
6C23
330
1
100
AcDbSymbolTableRecord
100
AcDbBlockTableRecord
  2
*D9
340
0
  0
BLOCK_RECORD
  5
6CA1
330
1
100
AcDbSymbolTableRecord
100
AcDbBlockTableRecord
  2
*D10
340
0
  0
BLOCK_RECORD
  5
6CD6
330
1
100
AcDbSymbolTableRecord
100
AcDbBlockTableRecord
  2
*D11
340
0
  0
BLOCK_RECORD
  5
8E49
330
1
100
AcDbSymbolTableRecord
100
AcDbBlockTableRecord
  2
AVE_RENDER
340
0
102
{BLKREFS
331
8E4C
331
8E4D
331
8E4E
331
8E4F
331
8E50
331
8E51
331
8E52
331
8E53
102
}
  0
BLOCK_RECORD
  5
8E57
330
1
100
AcDbSymbolTableRecord
100
AcDbBlockTableRecord
  2
AVE_GLOBAL
340
0
102
{BLKREFS
331
8E5A
102
}
  0
BLOCK_RECORD
  5
9286
330
1
100
AcDbSymbolTableRecord
100
AcDbBlockTableRecord
  2
*D14
340
0
  0
BLOCK_RECORD
  5
930A
330
1
100
AcDbSymbolTableRecord
100
AcDbBlockTableRecord
  2
*D15
340
0
  0
BLOCK_RECORD
  5
9725
330
1
100
AcDbSymbolTableRecord
100
AcDbBlockTableRecord
  2
*D16
340
0
  0
BLOCK_RECORD
  5
9740
330
1
100
AcDbSymbolTableRecord
100
AcDbBlockTableRecord
  2
*D17
340
0
  0
BLOCK_RECORD
  5
9F66
330
1
100
AcDbSymbolTableRecord
100
AcDbBlockTableRecord
  2
*D18
340
0
  0
BLOCK_RECORD
  5
11903
330
1
100
AcDbSymbolTableRecord
100
AcDbBlockTableRecord
  2
*D19
340
0
  0
BLOCK_RECORD
  5
1190F
330
1
100
AcDbSymbolTableRecord
100
AcDbBlockTableRecord
  2
*D20
340
0
  0
BLOCK_RECORD
  5
1191D
330
1
100
AcDbSymbolTableRecord
100
AcDbBlockTableRecord
  2
*D21
340
0
  0
BLOCK_RECORD
  5
11929
330
1
100
AcDbSymbolTableRecord
100
AcDbBlockTableRecord
  2
*D22
340
0
  0
BLOCK_RECORD
  5
11935
330
1
100
AcDbSymbolTableRecord
100
AcDbBlockTableRecord
  2
*D23
340
0
  0
BLOCK_RECORD
  5
11941
330
1
100
AcDbSymbolTableRecord
100
AcDbBlockTableRecord
  2
*D24
340
0
  0
BLOCK_RECORD
  5
1194D
330
1
100
AcDbSymbolTableRecord
100
AcDbBlockTableRecord
  2
*D25
340
0
  0
BLOCK_RECORD
  5
1195B
330
1
100
AcDbSymbolTableRecord
100
AcDbBlockTableRecord
  2
*D26
340
0
  0
BLOCK_RECORD
  5
11967
330
1
100
AcDbSymbolTableRecord
100
AcDbBlockTableRecord
  2
*D27
340
0
  0
BLOCK_RECORD
  5
11975
330
1
100
AcDbSymbolTableRecord
100
AcDbBlockTableRecord
  2
*D28
340
0
  0
BLOCK_RECORD
  5
11983
330
1
100
AcDbSymbolTableRecord
100
AcDbBlockTableRecord
  2
*D29
340
0
  0
BLOCK_RECORD
  5
11991
330
1
100
AcDbSymbolTableRecord
100
AcDbBlockTableRecord
  2
*D30
340
0
  0
BLOCK_RECORD
  5
1199F
330
1
100
AcDbSymbolTableRecord
100
AcDbBlockTableRecord
  2
*D31
340
0
  0
BLOCK_RECORD
  5
119AD
330
1
100
AcDbSymbolTableRecord
100
AcDbBlockTableRecord
  2
*D32
340
0
  0
BLOCK_RECORD
  5
12352
330
1
100
AcDbSymbolTableRecord
100
AcDbBlockTableRecord
  2
*D33
340
0
  0
BLOCK_RECORD
  5
12360
330
1
100
AcDbSymbolTableRecord
100
AcDbBlockTableRecord
  2
*D34
340
0
  0
BLOCK_RECORD
  5
1236C
330
1
100
AcDbSymbolTableRecord
100
AcDbBlockTableRecord
  2
*D35
340
0
  0
BLOCK_RECORD
  5
12378
330
1
100
AcDbSymbolTableRecord
100
AcDbBlockTableRecord
  2
*D36
340
0
  0
BLOCK_RECORD
  5
12386
330
1
100
AcDbSymbolTableRecord
100
AcDbBlockTableRecord
  2
*D37
340
0
  0
BLOCK_RECORD
  5
12392
330
1
100
AcDbSymbolTableRecord
100
AcDbBlockTableRecord
  2
*D38
340
0
  0
BLOCK_RECORD
  5
1239E
330
1
100
AcDbSymbolTableRecord
100
AcDbBlockTableRecord
  2
*D39
340
0
  0
BLOCK_RECORD
  5
123AC
330
1
100
AcDbSymbolTableRecord
100
AcDbBlockTableRecord
  2
*D40
340
0
  0
BLOCK_RECORD
  5
1592B
330
1
100
AcDbSymbolTableRecord
100
AcDbBlockTableRecord
  2
*D41
340
0
  0
BLOCK_RECORD
  5
15937
330
1
100
AcDbSymbolTableRecord
100
AcDbBlockTableRecord
  2
*D42
340
0
  0
BLOCK_RECORD
  5
15945
330
1
100
AcDbSymbolTableRecord
100
AcDbBlockTableRecord
  2
*D43
340
0
  0
BLOCK_RECORD
  5
15951
330
1
100
AcDbSymbolTableRecord
100
AcDbBlockTableRecord
  2
*D44
340
0
  0
BLOCK_RECORD
  5
1595D
330
1
100
AcDbSymbolTableRecord
100
AcDbBlockTableRecord
  2
*D45
340
0
  0
BLOCK_RECORD
  5
15969
330
1
100
AcDbSymbolTableRecord
100
AcDbBlockTableRecord
  2
*D46
340
0
  0
BLOCK_RECORD
  5
15975
330
1
100
AcDbSymbolTableRecord
100
AcDbBlockTableRecord
  2
*D47
340
0
  0
BLOCK_RECORD
  5
15983
330
1
100
AcDbSymbolTableRecord
100
AcDbBlockTableRecord
  2
*D48
340
0
  0
BLOCK_RECORD
  5
1598F
330
1
100
AcDbSymbolTableRecord
100
AcDbBlockTableRecord
  2
*D49
340
0
  0
BLOCK_RECORD
  5
1599B
330
1
100
AcDbSymbolTableRecord
100
AcDbBlockTableRecord
  2
*D50
340
0
  0
BLOCK_RECORD
  5
159A9
330
1
100
AcDbSymbolTableRecord
100
AcDbBlockTableRecord
  2
*D51
340
0
  0
BLOCK_RECORD
  5
159B7
330
1
100
AcDbSymbolTableRecord
100
AcDbBlockTableRecord
  2
*D52
340
0
  0
BLOCK_RECORD
  5
159C5
330
1
100
AcDbSymbolTableRecord
100
AcDbBlockTableRecord
  2
*D53
340
0
  0
BLOCK_RECORD
  5
159D3
330
1
100
AcDbSymbolTableRecord
100
AcDbBlockTableRecord
  2
*D54
340
0
  0
BLOCK_RECORD
  5
17414
330
1
100
AcDbSymbolTableRecord
100
AcDbBlockTableRecord
  2
_DotSmall
340
0
102
{BLKREFS
331
176F7
331
17702
331
177B7
331
177B8
331
177C2
331
177C3
331
177CD
331
177CE
331
177D9
331
177DA
331
177E4
331
177E5
331
177EF
331
177F0
331
17852
331
1785D
102
}
  0
BLOCK_RECORD
  5
17569
330
1
100
AcDbSymbolTableRecord
100
AcDbBlockTableRecord
  2
*D56
340
0
  0
BLOCK_RECORD
  5
17577
330
1
100
AcDbSymbolTableRecord
100
AcDbBlockTableRecord
  2
*D57
340
0
  0
BLOCK_RECORD
  5
1796F
330
1
100
AcDbSymbolTableRecord
100
AcDbBlockTableRecord
  2
*D58
340
0
  0
BLOCK_RECORD
  5
1797C
330
1
100
AcDbSymbolTableRecord
100
AcDbBlockTableRecord
  2
*D59
340
0
  0
BLOCK_RECORD
  5
17989
330
1
100
AcDbSymbolTableRecord
100
AcDbBlockTableRecord
  2
*D60
340
0
  0
BLOCK_RECORD
  5
1799D
330
1
100
AcDbSymbolTableRecord
100
AcDbBlockTableRecord
  2
*D61
340
0
  0
BLOCK_RECORD
  5
179AA
330
1
100
AcDbSymbolTableRecord
100
AcDbBlockTableRecord
  2
*D62
340
0
  0
BLOCK_RECORD
  5
179C0
330
1
100
AcDbSymbolTableRecord
100
AcDbBlockTableRecord
  2
*D63
340
0
  0
ENDTAB
  0
ENDSEC
  0
SECTION
  2
BLOCKS
  0
BLOCK
  5
2D
330
17
100
AcDbEntity
  8
0
100
AcDbBlockBegin
  2
*MODEL_SPACE
 70
     0
 10
0.0
 20
0.0
 30
0.0
  3
*MODEL_SPACE
  1

  0
ENDBLK
  5
2E
330
17
100
AcDbEntity
  8
0
100
AcDbBlockEnd
  0
BLOCK
  5
2B
330
14
100
AcDbEntity
 67
     1
  8
0
100
AcDbBlockBegin
  2
*PAPER_SPACE
 70
     0
 10
0.0
 20
0.0
 30
0.0
  3
*PAPER_SPACE
  1

  0
ENDBLK
  5
2C
330
14
100
AcDbEntity
 67
     1
  8
0
100
AcDbBlockEnd
  0
BLOCK
  5
184C
330
1840
100
AcDbEntity
  8
0
100
AcDbBlockBegin
  2
*D0
 70
     1
 10
0.0
 20
0.0
 30
0.0
  3
*D0
  1

  0
LINE
  5
179CC
330
1840
100
AcDbEntity
  8
SUNPOU
370
    -2
100
AcDbLine
 10
-27112.51160208319
 20
7920.115717752411
 30
0.0
 11
-26594.51160208319
 21
7920.11571775241
 31
0.0
  0
LINE
  5
179CD
330
1840
100
AcDbEntity
  8
SUNPOU
370
    -2
100
AcDbLine
 10
-27227.51160208319
 20
7840.115717752413
 30
0.0
 11
-26594.51160208319
 21
7840.115717752412
 31
0.0
  0
LINE
  5
179CE
330
1840
100
AcDbEntity
  8
SUNPOU
 62
     0
370
    -2
100
AcDbLine
 10
-26634.51160208319
 20
8000.115717752411
 30
0.0
 11
-26634.51160208319
 21
8080.115717752411
 31
0.0
  0
LINE
  5
179CF
330
1840
100
AcDbEntity
  8
SUNPOU
 62
     0
370
    -2
100
AcDbLine
 10
-26634.51160208319
 20
7760.115717752413
 30
0.0
 11
-26634.51160208319
 21
7472.115717752413
 31
0.0
  0
LINE
  5
179D0
330
1840
100
AcDbEntity
  8
SUNPOU
 62
     0
370
    -2
100
AcDbLine
 10
-26634.51160208319
 20
7920.115717752411
 30
0.0
 11
-26634.51160208319
 21
7840.115717752413
 31
0.0
  0
SOLID
  5
179D1
330
1840
100
AcDbEntity
  8
SUNPOU
 62
     0
100
AcDbTrace
 10
-26647.84493541652
 20
8000.115717752411
 30
0.0
 11
-26621.17826874986
 21
8000.11571775241
 31
0.0
 12
-26634.51160208319
 22
7920.115717752411
 32
0.0
 13
-26634.51160208319
 23
7920.115717752411
 33
0.0
  0
SOLID
  5
179D2
330
1840
100
AcDbEntity
  8
SUNPOU
 62
     0
100
AcDbTrace
 10
-26647.84493541652
 20
7760.115717752413
 30
0.0
 11
-26621.17826874986
 21
7760.115717752412
 31
0.0
 12
-26634.51160208319
 22
7840.115717752413
 32
0.0
 13
-26634.51160208319
 23
7840.115717752413
 33
0.0
  0
MTEXT
  5
179D3
330
1840
100
AcDbEntity
  8
SUNPOU
 62
     0
100
AcDbMText
 10
-26726.51160208319
 20
7576.115717752408
 30
0.0
 40
120.0
 41
0.0
 71
     5
 72
     1
  1
\A1;80
 11
6.123031769111886E-17
 21
1.0
 31
0.0
 73
     1
 44
1.0
  0
POINT
  5
179D4
330
1840
100
AcDbEntity
  8
DEFPOINTS
 62
     0
100
AcDbPoint
 10
-27192.51160208319
 20
7920.115717752411
 30
0.0
  0
POINT
  5
179D5
330
1840
100
AcDbEntity
  8
DEFPOINTS
 62
     0
100
AcDbPoint
 10
-27307.51160208319
 20
7840.115717752413
 30
0.0
  0
POINT
  5
179D6
330
1840
100
AcDbEntity
  8
DEFPOINTS
 62
     0
100
AcDbPoint
 10
-26634.51160208319
 20
7840.115717752413
 30
0.0
  0
ENDBLK
  5
184D
330
1840
100
AcDbEntity
  8
0
100
AcDbBlockEnd
  0
BLOCK
  5
185A
330
1850
100
AcDbEntity
  8
0
100
AcDbBlockBegin
  2
*D1
 70
     1
 10
0.0
 20
0.0
 30
0.0
  3
*D1
  1

  0
LINE
  5
179D7
330
1850
100
AcDbEntity
  8
SUNPOU
370
    -2
100
AcDbLine
 10
-27227.51160208319
 20
7840.115717752413
 30
0.0
 11
-26314.51160208319
 21
7840.115717752412
 31
0.0
  0
LINE
  5
179D8
330
1850
100
AcDbEntity
  8
SUNPOU
370
    -2
100
AcDbLine
 10
-27112.51160208319
 20
9840.115717752411
 30
0.0
 11
-26314.51160208319
 21
9840.115717752411
 31
0.0
  0
LINE
  5
179D9
330
1850
100
AcDbEntity
  8
SUNPOU
 62
     0
370
    -2
100
AcDbLine
 10
-26354.51160208319
 20
7920.115717752412
 30
0.0
 11
-26354.51160208319
 21
9760.115717752411
 31
0.0
  0
SOLID
  5
179DA
330
1850
100
AcDbEntity
  8
SUNPOU
 62
     0
100
AcDbTrace
 10
-26367.84493541652
 20
7920.115717752412
 30
0.0
 11
-26341.17826874986
 21
7920.115717752412
 31
0.0
 12
-26354.51160208319
 22
7840.115717752412
 32
0.0
 13
-26354.51160208319
 23
7840.115717752412
 33
0.0
  0
SOLID
  5
179DB
330
1850
100
AcDbEntity
  8
SUNPOU
 62
     0
100
AcDbTrace
 10
-26367.84493541652
 20
9760.115717752411
 30
0.0
 11
-26341.17826874986
 21
9760.115717752411
 31
0.0
 12
-26354.51160208319
 22
9840.115717752411
 32
0.0
 13
-26354.51160208319
 23
9840.115717752411
 33
0.0
  0
MTEXT
  5
179DC
330
1850
100
AcDbEntity
  8
SUNPOU
 62
     0
100
AcDbMText
 10
-26446.51160208319
 20
8840.115717752407
 30
0.0
 40
120.0
 41
0.0
 71
     5
 72
     1
  1
\A1;2000
 11
6.123031769111886E-17
 21
1.0
 31
0.0
 73
     1
 44
1.0
  0
POINT
  5
179DD
330
1850
100
AcDbEntity
  8
DEFPOINTS
 62
     0
100
AcDbPoint
 10
-27307.51160208319
 20
7840.115717752413
 30
0.0
  0
POINT
  5
179DE
330
1850
100
AcDbEntity
  8
DEFPOINTS
 62
     0
100
AcDbPoint
 10
-27192.51160208319
 20
9840.115717752411
 30
0.0
  0
POINT
  5
179DF
330
1850
100
AcDbEntity
  8
DEFPOINTS
 62
     0
100
AcDbPoint
 10
-26354.51160208319
 20
9840.115717752411
 30
0.0
  0
ENDBLK
  5
185B
330
1850
100
AcDbEntity
  8
0
100
AcDbBlockEnd
  0
BLOCK
  5
1869
330
185D
100
AcDbEntity
  8
0
100
AcDbBlockBegin
  2
*D2
 70
     1
 10
0.0
 20
0.0
 30
0.0
  3
*D2
  1

  0
LINE
  5
179E0
330
185D
100
AcDbEntity
  8
SUNPOU
370
    -2
100
AcDbLine
 10
-27112.51160208319
 20
9920.115717752411
 30
0.0
 11
-26314.51160208319
 21
9920.115717752411
 31
0.0
  0
LINE
  5
179E1
330
185D
100
AcDbEntity
  8
SUNPOU
370
    -2
100
AcDbLine
 10
-27112.51160208319
 20
9840.115717752411
 30
0.0
 11
-26314.51160208319
 21
9840.115717752411
 31
0.0
  0
LINE
  5
179E2
330
185D
100
AcDbEntity
  8
SUNPOU
 62
     0
370
    -2
100
AcDbLine
 10
-26354.51160208319
 20
9760.115717752411
 30
0.0
 11
-26354.51160208319
 21
9680.115717752411
 31
0.0
  0
LINE
  5
179E3
330
185D
100
AcDbEntity
  8
SUNPOU
 62
     0
370
    -2
100
AcDbLine
 10
-26354.51160208319
 20
10000.11571775241
 30
0.0
 11
-26354.51160208319
 21
10288.11571775241
 31
0.0
  0
LINE
  5
179E4
330
185D
100
AcDbEntity
  8
SUNPOU
 62
     0
370
    -2
100
AcDbLine
 10
-26354.51160208319
 20
9840.115717752411
 30
0.0
 11
-26354.51160208319
 21
9920.115717752411
 31
0.0
  0
SOLID
  5
179E5
330
185D
100
AcDbEntity
  8
SUNPOU
 62
     0
100
AcDbTrace
 10
-26367.84493541652
 20
9760.115717752411
 30
0.0
 11
-26341.17826874986
 21
9760.115717752411
 31
0.0
 12
-26354.51160208319
 22
9840.115717752411
 32
0.0
 13
-26354.51160208319
 23
9840.115717752411
 33
0.0
  0
SOLID
  5
179E6
330
185D
100
AcDbEntity
  8
SUNPOU
 62
     0
100
AcDbTrace
 10
-26367.84493541652
 20
10000.11571775241
 30
0.0
 11
-26341.17826874986
 21
10000.11571775241
 31
0.0
 12
-26354.51160208319
 22
9920.115717752411
 32
0.0
 13
-26354.51160208319
 23
9920.115717752411
 33
0.0
  0
MTEXT
  5
179E7
330
185D
100
AcDbEntity
  8
SUNPOU
 62
     0
100
AcDbMText
 10
-26446.51160208319
 20
10184.11571775241
 30
0.0
 40
120.0
 41
0.0
 71
     5
 72
     1
  1
\A1;80
 11
6.123031769111886E-17
 21
1.0
 31
0.0
 73
     1
 44
1.0
  0
POINT
  5
179E8
330
185D
100
AcDbEntity
  8
DEFPOINTS
 62
     0
100
AcDbPoint
 10
-27192.51160208319
 20
9920.115717752411
 30
0.0
  0
POINT
  5
179E9
330
185D
100
AcDbEntity
  8
DEFPOINTS
 62
     0
100
AcDbPoint
 10
-27192.51160208319
 20
9840.115717752411
 30
0.0
  0
POINT
  5
179EA
330
185D
100
AcDbEntity
  8
DEFPOINTS
 62
     0
100
AcDbPoint
 10
-26354.51160208319
 20
9840.115717752411
 30
0.0
  0
ENDBLK
  5
186A
330
185D
100
AcDbEntity
  8
0
100
AcDbBlockEnd
  0
BLOCK
  5
18BA
330
18B0
100
AcDbEntity
  8
0
100
AcDbBlockBegin
  2
*D3
 70
     1
 10
0.0
 20
0.0
 30
0.0
  3
*D3
  1

  0
LINE
  5
175B8
330
18B0
100
AcDbEntity
  8
SUNPOU
370
    -2
100
AcDbLine
 10
-27112.51160208319
 20
4004.049253714657
 30
0.0
 11
-26594.51160208319
 21
4004.049253714657
 31
0.0
  0
LINE
  5
175B9
330
18B0
100
AcDbEntity
  8
SUNPOU
370
    -2
100
AcDbLine
 10
-27112.51160208319
 20
3804.049253714657
 30
0.0
 11
-26594.51160208319
 21
3804.049253714657
 31
0.0
  0
LINE
  5
175BA
330
18B0
100
AcDbEntity
  8
SUNPOU
 62
     0
370
    -2
100
AcDbLine
 10
-26634.51160208319
 20
4084.049253714657
 30
0.0
 11
-26634.51160208319
 21
4164.049253714657
 31
0.0
  0
LINE
  5
175BB
330
18B0
100
AcDbEntity
  8
SUNPOU
 62
     0
370
    -2
100
AcDbLine
 10
-26634.51160208319
 20
3724.049253714657
 30
0.0
 11
-26634.51160208319
 21
3644.049253714657
 31
0.0
  0
LINE
  5
175BC
330
18B0
100
AcDbEntity
  8
SUNPOU
 62
     0
370
    -2
100
AcDbLine
 10
-26634.51160208319
 20
4004.049253714657
 30
0.0
 11
-26634.51160208319
 21
3804.049253714657
 31
0.0
  0
SOLID
  5
175BD
330
18B0
100
AcDbEntity
  8
SUNPOU
 62
     0
100
AcDbTrace
 10
-26647.84493541652
 20
4084.049253714657
 30
0.0
 11
-26621.17826874986
 21
4084.049253714657
 31
0.0
 12
-26634.51160208319
 22
4004.049253714657
 32
0.0
 13
-26634.51160208319
 23
4004.049253714657
 33
0.0
  0
SOLID
  5
175BE
330
18B0
100
AcDbEntity
  8
SUNPOU
 62
     0
100
AcDbTrace
 10
-26647.84493541652
 20
3724.049253714657
 30
0.0
 11
-26621.17826874986
 21
3724.049253714657
 31
0.0
 12
-26634.51160208319
 22
3804.049253714657
 32
0.0
 13
-26634.51160208319
 23
3804.049253714657
 33
0.0
  0
MTEXT
  5
175BF
330
18B0
100
AcDbEntity
  8
SUNPOU
 62
     0
100
AcDbMText
 10
-26726.51160208319
 20
3904.049253714653
 30
0.0
 40
120.0
 41
0.0
 71
     5
 72
     1
  1
\A1;200
 11
6.123031769111886E-17
 21
1.0
 31
0.0
 73
     1
 44
1.0
  0
POINT
  5
175C0
330
18B0
100
AcDbEntity
  8
DEFPOINTS
 62
     0
100
AcDbPoint
 10
-27192.51160208319
 20
4004.049253714657
 30
0.0
  0
POINT
  5
175C1
330
18B0
100
AcDbEntity
  8
DEFPOINTS
 62
     0
100
AcDbPoint
 10
-27192.51160208319
 20
3804.049253714657
 30
0.0
  0
POINT
  5
175C2
330
18B0
100
AcDbEntity
  8
DEFPOINTS
 62
     0
100
AcDbPoint
 10
-26634.51160208319
 20
3804.049253714657
 30
0.0
  0
ENDBLK
  5
18BB
330
18B0
100
AcDbEntity
  8
0
100
AcDbBlockEnd
  0
BLOCK
  5
18C7
330
18BD
100
AcDbEntity
  8
0
100
AcDbBlockBegin
  2
*D4
 70
     1
 10
0.0
 20
0.0
 30
0.0
  3
*D4
  1

  0
LINE
  5
17894
330
18BD
100
AcDbEntity
  8
SUNPOU
370
    -2
100
AcDbLine
 10
-27112.51160208319
 20
5704.049253714657
 30
0.0
 11
-26594.51160208319
 21
5704.049253714656
 31
0.0
  0
LINE
  5
17895
330
18BD
100
AcDbEntity
  8
SUNPOU
370
    -2
100
AcDbLine
 10
-27112.51160208319
 20
5904.049253714657
 30
0.0
 11
-26594.51160208319
 21
5904.049253714656
 31
0.0
  0
LINE
  5
17896
330
18BD
100
AcDbEntity
  8
SUNPOU
 62
     0
370
    -2
100
AcDbLine
 10
-26634.51160208319
 20
5624.049253714657
 30
0.0
 11
-26634.51160208319
 21
5544.049253714657
 31
0.0
  0
LINE
  5
17897
330
18BD
100
AcDbEntity
  8
SUNPOU
 62
     0
370
    -2
100
AcDbLine
 10
-26634.51160208319
 20
5984.049253714657
 30
0.0
 11
-26634.51160208319
 21
6064.049253714657
 31
0.0
  0
LINE
  5
17898
330
18BD
100
AcDbEntity
  8
SUNPOU
 62
     0
370
    -2
100
AcDbLine
 10
-26634.51160208319
 20
5704.049253714657
 30
0.0
 11
-26634.51160208319
 21
5904.049253714657
 31
0.0
  0
SOLID
  5
17899
330
18BD
100
AcDbEntity
  8
SUNPOU
 62
     0
100
AcDbTrace
 10
-26647.84493541652
 20
5624.049253714657
 30
0.0
 11
-26621.17826874986
 21
5624.049253714656
 31
0.0
 12
-26634.51160208319
 22
5704.049253714657
 32
0.0
 13
-26634.51160208319
 23
5704.049253714657
 33
0.0
  0
SOLID
  5
1789A
330
18BD
100
AcDbEntity
  8
SUNPOU
 62
     0
100
AcDbTrace
 10
-26647.84493541652
 20
5984.049253714657
 30
0.0
 11
-26621.17826874986
 21
5984.049253714656
 31
0.0
 12
-26634.51160208319
 22
5904.049253714657
 32
0.0
 13
-26634.51160208319
 23
5904.049253714657
 33
0.0
  0
MTEXT
  5
1789B
330
18BD
100
AcDbEntity
  8
SUNPOU
 62
     0
100
AcDbMText
 10
-26726.51160208319
 20
5804.049253714652
 30
0.0
 40
120.0
 41
0.0
 71
     5
 72
     1
  1
\A1;200
 11
6.123031769111886E-17
 21
1.0
 31
0.0
 73
     1
 44
1.0
  0
POINT
  5
1789C
330
18BD
100
AcDbEntity
  8
DEFPOINTS
 62
     0
100
AcDbPoint
 10
-27192.51160208319
 20
5704.049253714657
 30
0.0
  0
POINT
  5
1789D
330
18BD
100
AcDbEntity
  8
DEFPOINTS
 62
     0
100
AcDbPoint
 10
-27192.51160208319
 20
5904.049253714657
 30
0.0
  0
POINT
  5
1789E
330
18BD
100
AcDbEntity
  8
DEFPOINTS
 62
     0
100
AcDbPoint
 10
-26634.51160208319
 20
5904.049253714657
 30
0.0
  0
ENDBLK
  5
18C8
330
18BD
100
AcDbEntity
  8
0
100
AcDbBlockEnd
  0
BLOCK
  5
195A
330
1950
100
AcDbEntity
  8
0
100
AcDbBlockBegin
  2
*D5
 70
     1
 10
0.0
 20
0.0
 30
0.0
  3
*D5
  1

  0
LINE
  5
1788B
330
1950
100
AcDbEntity
  8
SUNPOU
370
    -2
100
AcDbLine
 10
-27112.51160208319
 20
4004.049253714657
 30
0.0
 11
-26594.51160208319
 21
4004.049253714657
 31
0.0
  0
LINE
  5
1788C
330
1950
100
AcDbEntity
  8
SUNPOU
370
    -2
100
AcDbLine
 10
-27112.51160208319
 20
5704.049253714657
 30
0.0
 11
-26594.51160208319
 21
5704.049253714656
 31
0.0
  0
LINE
  5
1788D
330
1950
100
AcDbEntity
  8
SUNPOU
 62
     0
370
    -2
100
AcDbLine
 10
-26634.51160208319
 20
4084.049253714657
 30
0.0
 11
-26634.51160208319
 21
5624.049253714657
 31
0.0
  0
SOLID
  5
1788E
330
1950
100
AcDbEntity
  8
SUNPOU
 62
     0
100
AcDbTrace
 10
-26647.84493541652
 20
4084.049253714657
 30
0.0
 11
-26621.17826874986
 21
4084.049253714657
 31
0.0
 12
-26634.51160208319
 22
4004.049253714657
 32
0.0
 13
-26634.51160208319
 23
4004.049253714657
 33
0.0
  0
SOLID
  5
1788F
330
1950
100
AcDbEntity
  8
SUNPOU
 62
     0
100
AcDbTrace
 10
-26647.84493541652
 20
5624.049253714657
 30
0.0
 11
-26621.17826874986
 21
5624.049253714656
 31
0.0
 12
-26634.51160208319
 22
5704.049253714657
 32
0.0
 13
-26634.51160208319
 23
5704.049253714657
 33
0.0
  0
MTEXT
  5
17890
330
1950
100
AcDbEntity
  8
SUNPOU
 62
     0
100
AcDbMText
 10
-26726.51160208319
 20
4854.049253714652
 30
0.0
 40
120.0
 41
0.0
 71
     5
 72
     1
  1
\A1;1700
 11
6.123031769111886E-17
 21
1.0
 31
0.0
 73
     1
 44
1.0
  0
POINT
  5
17891
330
1950
100
AcDbEntity
  8
DEFPOINTS
 62
     0
100
AcDbPoint
 10
-27192.51160208319
 20
4004.049253714657
 30
0.0
  0
POINT
  5
17892
330
1950
100
AcDbEntity
  8
DEFPOINTS
 62
     0
100
AcDbPoint
 10
-27192.51160208319
 20
5704.049253714657
 30
0.0
  0
POINT
  5
17893
330
1950
100
AcDbEntity
  8
DEFPOINTS
 62
     0
100
AcDbPoint
 10
-26634.51160208319
 20
5704.049253714657
 30
0.0
  0
ENDBLK
  5
195B
330
1950
100
AcDbEntity
  8
0
100
AcDbBlockEnd
  0
BLOCK
  5
1967
330
195D
100
AcDbEntity
  8
0
100
AcDbBlockBegin
  2
*D6
 70
     1
 10
0.0
 20
0.0
 30
0.0
  3
*D6
  1

  0
LINE
  5
17882
330
195D
100
AcDbEntity
  8
SUNPOU
370
    -2
100
AcDbLine
 10
-27112.51160208319
 20
5904.049253714657
 30
0.0
 11
-26314.5116020832
 21
5904.049253714656
 31
0.0
  0
LINE
  5
17883
330
195D
100
AcDbEntity
  8
SUNPOU
370
    -2
100
AcDbLine
 10
-27112.51160208319
 20
3804.049253714657
 30
0.0
 11
-26314.5116020832
 21
3804.049253714657
 31
0.0
  0
LINE
  5
17884
330
195D
100
AcDbEntity
  8
SUNPOU
 62
     0
370
    -2
100
AcDbLine
 10
-26354.5116020832
 20
5824.049253714656
 30
0.0
 11
-26354.5116020832
 21
3884.049253714657
 31
0.0
  0
SOLID
  5
17885
330
195D
100
AcDbEntity
  8
SUNPOU
 62
     0
100
AcDbTrace
 10
-26367.84493541653
 20
5824.049253714656
 30
0.0
 11
-26341.17826874986
 21
5824.049253714656
 31
0.0
 12
-26354.5116020832
 22
5904.049253714656
 32
0.0
 13
-26354.5116020832
 23
5904.049253714656
 33
0.0
  0
SOLID
  5
17886
330
195D
100
AcDbEntity
  8
SUNPOU
 62
     0
100
AcDbTrace
 10
-26367.84493541653
 20
3884.049253714657
 30
0.0
 11
-26341.17826874986
 21
3884.049253714657
 31
0.0
 12
-26354.5116020832
 22
3804.049253714657
 32
0.0
 13
-26354.5116020832
 23
3804.049253714657
 33
0.0
  0
MTEXT
  5
17887
330
195D
100
AcDbEntity
  8
SUNPOU
 62
     0
100
AcDbMText
 10
-26446.5116020832
 20
4854.049253714653
 30
0.0
 40
120.0
 41
0.0
 71
     5
 72
     1
  1
\A1;2100
 11
6.123031769111886E-17
 21
1.0
 31
0.0
 73
     1
 44
1.0
  0
POINT
  5
17888
330
195D
100
AcDbEntity
  8
DEFPOINTS
 62
     0
100
AcDbPoint
 10
-27192.51160208319
 20
5904.049253714657
 30
0.0
  0
POINT
  5
17889
330
195D
100
AcDbEntity
  8
DEFPOINTS
 62
     0
100
AcDbPoint
 10
-27192.51160208319
 20
3804.049253714657
 30
0.0
  0
POINT
  5
1788A
330
195D
100
AcDbEntity
  8
DEFPOINTS
 62
     0
100
AcDbPoint
 10
-26354.5116020832
 20
3804.049253714657
 30
0.0
  0
ENDBLK
  5
1968
330
195D
100
AcDbEntity
  8
0
100
AcDbBlockEnd
  0
BLOCK
  5
6C13
330
6C09
100
AcDbEntity
  8
0
100
AcDbBlockBegin
  2
*D7
 70
     1
 10
0.0
 20
0.0
 30
0.0
  3
*D7
  1

  0
LINE
  5
17877
330
6C09
100
AcDbEntity
  8
SUNPOU
370
    -2
100
AcDbLine
 10
-24458.92327040974
 20
5984.049253714657
 30
0.0
 11
-24458.92327040974
 21
6381.450375298221
 31
0.0
  0
LINE
  5
17878
330
6C09
100
AcDbEntity
  8
SUNPOU
370
    -2
100
AcDbLine
 10
-24218.92327040973
 20
5984.049253714657
 30
0.0
 11
-24218.92327040973
 21
6381.450375298221
 31
0.0
  0
LINE
  5
17879
330
6C09
100
AcDbEntity
  8
SUNPOU
 62
     0
370
    -2
100
AcDbLine
 10
-24538.92327040974
 20
6341.450375298221
 30
0.0
 11
-24618.92327040974
 21
6341.450375298221
 31
0.0
  0
LINE
  5
1787A
330
6C09
100
AcDbEntity
  8
SUNPOU
 62
     0
370
    -2
100
AcDbLine
 10
-24138.92327040973
 20
6341.450375298221
 30
0.0
 11
-24058.92327040973
 21
6341.450375298221
 31
0.0
  0
LINE
  5
1787B
330
6C09
100
AcDbEntity
  8
SUNPOU
 62
     0
370
    -2
100
AcDbLine
 10
-24458.92327040974
 20
6341.450375298221
 30
0.0
 11
-24218.92327040973
 21
6341.450375298221
 31
0.0
  0
SOLID
  5
1787C
330
6C09
100
AcDbEntity
  8
SUNPOU
 62
     0
100
AcDbTrace
 10
-24538.92327040974
 20
6354.783708631554
 30
0.0
 11
-24538.92327040974
 21
6328.117041964888
 31
0.0
 12
-24458.92327040974
 22
6341.450375298221
 32
0.0
 13
-24458.92327040974
 23
6341.450375298221
 33
0.0
  0
SOLID
  5
1787D
330
6C09
100
AcDbEntity
  8
SUNPOU
 62
     0
100
AcDbTrace
 10
-24138.92327040973
 20
6354.783708631554
 30
0.0
 11
-24138.92327040973
 21
6328.117041964888
 31
0.0
 12
-24218.92327040973
 22
6341.450375298221
 32
0.0
 13
-24218.92327040973
 23
6341.450375298221
 33
0.0
  0
MTEXT
  5
1787E
330
6C09
100
AcDbEntity
  8
SUNPOU
 62
     0
100
AcDbMText
 10
-24338.92327040974
 20
6433.450375298221
 30
0.0
 40
120.0
 41
0.0
 71
     5
 72
     1
  1
\A1;240
 73
     1
 44
1.0
  0
POINT
  5
1787F
330
6C09
100
AcDbEntity
  8
DEFPOINTS
 62
     0
100
AcDbPoint
 10
-24458.92327040974
 20
5904.049253714657
 30
0.0
  0
POINT
  5
17880
330
6C09
100
AcDbEntity
  8
DEFPOINTS
 62
     0
100
AcDbPoint
 10
-24218.92327040973
 20
5904.049253714657
 30
0.0
  0
POINT
  5
17881
330
6C09
100
AcDbEntity
  8
DEFPOINTS
 62
     0
100
AcDbPoint
 10
-24218.92327040973
 20
6341.450375298221
 30
0.0
  0
ENDBLK
  5
6C14
330
6C09
100
AcDbEntity
  8
0
100
AcDbBlockEnd
  0
BLOCK
  5
6C20
330
6C16
100
AcDbEntity
  8
0
100
AcDbBlockBegin
  2
*D8
 70
     1
 10
0.0
 20
0.0
 30
0.0
  3
*D8
  1

  0
LINE
  5
1786E
330
6C16
100
AcDbEntity
  8
SUNPOU
370
    -2
100
AcDbLine
 10
-24218.92327040973
 20
5984.049253714657
 30
0.0
 11
-24218.92327040973
 21
6381.450375298221
 31
0.0
  0
LINE
  5
1786F
330
6C16
100
AcDbEntity
  8
SUNPOU
370
    -2
100
AcDbLine
 10
-22618.92327040973
 20
5984.049253714657
 30
0.0
 11
-22618.92327040973
 21
6381.450375298221
 31
0.0
  0
LINE
  5
17870
330
6C16
100
AcDbEntity
  8
SUNPOU
 62
     0
370
    -2
100
AcDbLine
 10
-24138.92327040973
 20
6341.450375298221
 30
0.0
 11
-22698.92327040973
 21
6341.450375298221
 31
0.0
  0
SOLID
  5
17871
330
6C16
100
AcDbEntity
  8
SUNPOU
 62
     0
100
AcDbTrace
 10
-24138.92327040973
 20
6354.783708631554
 30
0.0
 11
-24138.92327040973
 21
6328.117041964888
 31
0.0
 12
-24218.92327040973
 22
6341.450375298221
 32
0.0
 13
-24218.92327040973
 23
6341.450375298221
 33
0.0
  0
SOLID
  5
17872
330
6C16
100
AcDbEntity
  8
SUNPOU
 62
     0
100
AcDbTrace
 10
-22698.92327040973
 20
6354.783708631554
 30
0.0
 11
-22698.92327040973
 21
6328.117041964888
 31
0.0
 12
-22618.92327040973
 22
6341.450375298221
 32
0.0
 13
-22618.92327040973
 23
6341.450375298221
 33
0.0
  0
MTEXT
  5
17873
330
6C16
100
AcDbEntity
  8
SUNPOU
 62
     0
100
AcDbMText
 10
-23418.92327040973
 20
6433.450375298221
 30
0.0
 40
120.0
 41
0.0
 71
     5
 72
     1
  1
\A1;4@400=1600
 73
     1
 44
1.0
  0
POINT
  5
17874
330
6C16
100
AcDbEntity
  8
DEFPOINTS
 62
     0
100
AcDbPoint
 10
-24218.92327040973
 20
5904.049253714657
 30
0.0
  0
POINT
  5
17875
330
6C16
100
AcDbEntity
  8
DEFPOINTS
 62
     0
100
AcDbPoint
 10
-22618.92327040973
 20
5904.049253714657
 30
0.0
  0
POINT
  5
17876
330
6C16
100
AcDbEntity
  8
DEFPOINTS
 62
     0
100
AcDbPoint
 10
-22618.92327040973
 20
6341.450375298221
 30
0.0
  0
ENDBLK
  5
6C21
330
6C16
100
AcDbEntity
  8
0
100
AcDbBlockEnd
  0
BLOCK
  5
6C2D
330
6C23
100
AcDbEntity
  8
0
100
AcDbBlockBegin
  2
*D9
 70
     1
 10
0.0
 20
0.0
 30
0.0
  3
*D9
  1

  0
LINE
  5
17863
330
6C23
100
AcDbEntity
  8
SUNPOU
370
    -2
100
AcDbLine
 10
-22618.92327040973
 20
5984.049253714657
 30
0.0
 11
-22618.92327040973
 21
6381.450375298221
 31
0.0
  0
LINE
  5
17864
330
6C23
100
AcDbEntity
  8
SUNPOU
370
    -2
100
AcDbLine
 10
-22378.92327040974
 20
5984.049253714657
 30
0.0
 11
-22378.92327040974
 21
6381.450375298221
 31
0.0
  0
LINE
  5
17865
330
6C23
100
AcDbEntity
  8
SUNPOU
 62
     0
370
    -2
100
AcDbLine
 10
-22698.92327040973
 20
6341.450375298221
 30
0.0
 11
-22778.92327040973
 21
6341.450375298221
 31
0.0
  0
LINE
  5
17866
330
6C23
100
AcDbEntity
  8
SUNPOU
 62
     0
370
    -2
100
AcDbLine
 10
-22298.92327040974
 20
6341.450375298221
 30
0.0
 11
-22218.92327040974
 21
6341.450375298221
 31
0.0
  0
LINE
  5
17867
330
6C23
100
AcDbEntity
  8
SUNPOU
 62
     0
370
    -2
100
AcDbLine
 10
-22618.92327040973
 20
6341.450375298221
 30
0.0
 11
-22378.92327040974
 21
6341.450375298221
 31
0.0
  0
SOLID
  5
17868
330
6C23
100
AcDbEntity
  8
SUNPOU
 62
     0
100
AcDbTrace
 10
-22698.92327040973
 20
6354.783708631554
 30
0.0
 11
-22698.92327040973
 21
6328.117041964888
 31
0.0
 12
-22618.92327040973
 22
6341.450375298221
 32
0.0
 13
-22618.92327040973
 23
6341.450375298221
 33
0.0
  0
SOLID
  5
17869
330
6C23
100
AcDbEntity
  8
SUNPOU
 62
     0
100
AcDbTrace
 10
-22298.92327040974
 20
6354.783708631554
 30
0.0
 11
-22298.92327040974
 21
6328.117041964888
 31
0.0
 12
-22378.92327040974
 22
6341.450375298221
 32
0.0
 13
-22378.92327040974
 23
6341.450375298221
 33
0.0
  0
MTEXT
  5
1786A
330
6C23
100
AcDbEntity
  8
SUNPOU
 62
     0
100
AcDbMText
 10
-22498.92327040974
 20
6433.450375298221
 30
0.0
 40
120.0
 41
0.0
 71
     5
 72
     1
  1
\A1;240
 73
     1
 44
1.0
  0
POINT
  5
1786B
330
6C23
100
AcDbEntity
  8
DEFPOINTS
 62
     0
100
AcDbPoint
 10
-22618.92327040973
 20
5904.049253714657
 30
0.0
  0
POINT
  5
1786C
330
6C23
100
AcDbEntity
  8
DEFPOINTS
 62
     0
100
AcDbPoint
 10
-22378.92327040974
 20
5904.049253714657
 30
0.0
  0
POINT
  5
1786D
330
6C23
100
AcDbEntity
  8
DEFPOINTS
 62
     0
100
AcDbPoint
 10
-22378.92327040974
 20
6341.450375298221
 30
0.0
  0
ENDBLK
  5
6C2E
330
6C23
100
AcDbEntity
  8
0
100
AcDbBlockEnd
  0
BLOCK
  5
6CAD
330
6CA1
100
AcDbEntity
  8
0
100
AcDbBlockBegin
  2
*D10
 70
     1
 10
0.0
 20
0.0
 30
0.0
  3
*D10
  1

  0
LINE
  5
179EB
330
6CA1
100
AcDbEntity
  8
SUNPOU
370
    -2
100
AcDbLine
 10
-27112.51160208319
 20
8080.115717752408
 30
0.0
 11
-26874.51160208319
 21
8080.115717752408
 31
0.0
  0
LINE
  5
179EC
330
6CA1
100
AcDbEntity
  8
SUNPOU
370
    -2
100
AcDbLine
 10
-27227.51160208319
 20
7840.115717752413
 30
0.0
 11
-26874.51160208319
 21
7840.115717752413
 31
0.0
  0
LINE
  5
179ED
330
6CA1
100
AcDbEntity
  8
SUNPOU
 62
     0
370
    -2
100
AcDbLine
 10
-26914.51160208319
 20
8160.115717752408
 30
0.0
 11
-26914.51160208318
 21
8240.115717752407
 31
0.0
  0
LINE
  5
179EE
330
6CA1
100
AcDbEntity
  8
SUNPOU
 62
     0
370
    -2
100
AcDbLine
 10
-26914.51160208319
 20
7760.115717752413
 30
0.0
 11
-26914.51160208319
 21
7680.115717752413
 31
0.0
  0
LINE
  5
179EF
330
6CA1
100
AcDbEntity
  8
SUNPOU
 62
     0
370
    -2
100
AcDbLine
 10
-26914.51160208319
 20
8080.115717752408
 30
0.0
 11
-26914.51160208319
 21
7840.115717752413
 31
0.0
  0
SOLID
  5
179F0
330
6CA1
100
AcDbEntity
  8
SUNPOU
 62
     0
100
AcDbTrace
 10
-26927.84493541652
 20
8160.115717752408
 30
0.0
 11
-26901.17826874986
 21
8160.115717752408
 31
0.0
 12
-26914.51160208319
 22
8080.115717752408
 32
0.0
 13
-26914.51160208319
 23
8080.115717752408
 33
0.0
  0
SOLID
  5
179F1
330
6CA1
100
AcDbEntity
  8
SUNPOU
 62
     0
100
AcDbTrace
 10
-26927.84493541652
 20
7760.115717752413
 30
0.0
 11
-26901.17826874986
 21
7760.115717752413
 31
0.0
 12
-26914.51160208319
 22
7840.115717752413
 32
0.0
 13
-26914.51160208319
 23
7840.115717752413
 33
0.0
  0
MTEXT
  5
179F2
330
6CA1
100
AcDbEntity
  8
SUNPOU
 62
     0
100
AcDbMText
 10
-27006.51160208319
 20
7960.115717752406
 30
0.0
 40
120.0
 41
0.0
 71
     5
 72
     1
  1
\A1;240
 11
6.123031769111886E-17
 21
1.0
 31
0.0
 73
     1
 44
1.0
  0
POINT
  5
179F3
330
6CA1
100
AcDbEntity
  8
DEFPOINTS
 62
     0
100
AcDbPoint
 10
-27192.51160208319
 20
8080.115717752408
 30
0.0
  0
POINT
  5
179F4
330
6CA1
100
AcDbEntity
  8
DEFPOINTS
 62
     0
100
AcDbPoint
 10
-27307.51160208319
 20
7840.115717752413
 30
0.0
  0
POINT
  5
179F5
330
6CA1
100
AcDbEntity
  8
DEFPOINTS
 62
     0
100
AcDbPoint
 10
-26914.51160208319
 20
7840.115717752413
 30
0.0
  0
ENDBLK
  5
6CAE
330
6CA1
100
AcDbEntity
  8
0
100
AcDbBlockEnd
  0
BLOCK
  5
6CE0
330
6CD6
100
AcDbEntity
  8
0
100
AcDbBlockBegin
  2
*D11
 70
     1
 10
0.0
 20
0.0
 30
0.0
  3
*D11
  1

  0
LINE
  5
179F6
330
6CD6
100
AcDbEntity
  8
SUNPOU
370
    -2
100
AcDbLine
 10
-27112.51160208319
 20
8080.115717752408
 30
0.0
 11
-26874.51160208319
 21
8080.115717752408
 31
0.0
  0
LINE
  5
179F7
330
6CD6
100
AcDbEntity
  8
SUNPOU
370
    -2
100
AcDbLine
 10
-27112.51160208319
 20
9680.11571775241
 30
0.0
 11
-26874.51160208319
 21
9680.11571775241
 31
0.0
  0
LINE
  5
179F8
330
6CD6
100
AcDbEntity
  8
SUNPOU
 62
     0
370
    -2
100
AcDbLine
 10
-26914.51160208319
 20
8160.115717752408
 30
0.0
 11
-26914.51160208319
 21
9600.11571775241
 31
0.0
  0
SOLID
  5
179F9
330
6CD6
100
AcDbEntity
  8
SUNPOU
 62
     0
100
AcDbTrace
 10
-26927.84493541652
 20
8160.115717752408
 30
0.0
 11
-26901.17826874986
 21
8160.115717752408
 31
0.0
 12
-26914.51160208319
 22
8080.115717752408
 32
0.0
 13
-26914.51160208319
 23
8080.115717752408
 33
0.0
  0
SOLID
  5
179FA
330
6CD6
100
AcDbEntity
  8
SUNPOU
 62
     0
100
AcDbTrace
 10
-26927.84493541652
 20
9600.11571775241
 30
0.0
 11
-26901.17826874986
 21
9600.11571775241
 31
0.0
 12
-26914.51160208319
 22
9680.11571775241
 32
0.0
 13
-26914.51160208319
 23
9680.11571775241
 33
0.0
  0
MTEXT
  5
179FB
330
6CD6
100
AcDbEntity
  8
SUNPOU
 62
     0
100
AcDbMText
 10
-27006.51160208319
 20
8880.115717752406
 30
0.0
 40
120.0
 41
0.0
 71
     5
 72
     1
  1
\A1;4@400=1600
 11
6.123031769111886E-17
 21
1.0
 31
0.0
 73
     1
 44
1.0
  0
POINT
  5
179FC
330
6CD6
100
AcDbEntity
  8
DEFPOINTS
 62
     0
100
AcDbPoint
 10
-27192.51160208319
 20
8080.115717752408
 30
0.0
  0
POINT
  5
179FD
330
6CD6
100
AcDbEntity
  8
DEFPOINTS
 62
     0
100
AcDbPoint
 10
-27192.51160208319
 20
9680.11571775241
 30
0.0
  0
POINT
  5
179FE
330
6CD6
100
AcDbEntity
  8
DEFPOINTS
 62
     0
100
AcDbPoint
 10
-26914.51160208319
 20
9680.11571775241
 30
0.0
  0
ENDBLK
  5
6CE1
330
6CD6
100
AcDbEntity
  8
0
100
AcDbBlockEnd
  0
BLOCK
  5
8E4A
330
8E49
100
AcDbEntity
  8
ASHADE
100
AcDbBlockBegin
  2
AVE_RENDER
 70
     0
 10
0.0
 20
0.0
 30
0.0
  3
AVE_RENDER
  1
AVE_RENDER
  0
ENDBLK
  5
8E4B
330
8E49
100
AcDbEntity
  8
0
100
AcDbBlockEnd
  0
BLOCK
  5
8E58
330
8E57
100
AcDbEntity
  8
ASHADE
100
AcDbBlockBegin
  2
AVE_GLOBAL
 70
     0
 10
0.0
 20
0.0
 30
0.0
  3
AVE_GLOBAL
  1
AVE_GLOBAL
  0
ENDBLK
  5
8E59
330
8E57
100
AcDbEntity
  8
0
100
AcDbBlockEnd
  0
BLOCK
  5
9290
330
9286
100
AcDbEntity
  8
0
100
AcDbBlockBegin
  2
*D14
 70
     1
 10
0.0
 20
0.0
 30
0.0
  3
*D14
  1

  0
LINE
  5
176F2
330
9286
100
AcDbEntity
  8
SUNPOU
370
    -2
100
AcDbLine
 10
-24538.92327040974
 20
3914.049253714659
 30
0.0
 11
-25003.67431908198
 21
3914.049253714659
 31
0.0
  0
LINE
  5
176F3
330
9286
100
AcDbEntity
  8
SUNPOU
370
    -2
100
AcDbLine
 10
-24458.92327040974
 20
3804.049253714659
 30
0.0
 11
-25003.67431908198
 21
3804.049253714659
 31
0.0
  0
LINE
  5
176F4
330
9286
100
AcDbEntity
  8
SUNPOU
 62
     0
370
    -2
100
AcDbLine
 10
-24963.67431908198
 20
3914.049253714659
 30
0.0
 11
-24963.67431908198
 21
3994.049253714659
 31
0.0
  0
LINE
  5
176F5
330
9286
100
AcDbEntity
  8
SUNPOU
 62
     0
370
    -2
100
AcDbLine
 10
-24963.67431908198
 20
3724.049253714659
 30
0.0
 11
-24963.67431908198
 21
3388.049253714659
 31
0.0
  0
LINE
  5
176F6
330
9286
100
AcDbEntity
  8
SUNPOU
 62
     0
370
    -2
100
AcDbLine
 10
-24963.67431908198
 20
3914.049253714659
 30
0.0
 11
-24963.67431908198
 21
3804.049253714659
 31
0.0
  0
INSERT
  5
176F7
330
9286
100
AcDbEntity
  8
SUNPOU
 62
     0
370
    -2
100
AcDbBlockReference
  2
_DotSmall
 10
-24963.67431908198
 20
3914.049253714659
 30
0.0
 41
80.0
 42
80.0
 43
80.0
 50
270.0
  0
SOLID
  5
176F8
330
9286
100
AcDbEntity
  8
SUNPOU
 62
     0
100
AcDbTrace
 10
-24977.00765241532
 20
3724.049253714659
 30
0.0
 11
-24950.34098574865
 21
3724.049253714659
 31
0.0
 12
-24963.67431908198
 22
3804.049253714659
 32
0.0
 13
-24963.67431908198
 23
3804.049253714659
 33
0.0
  0
MTEXT
  5
176F9
330
9286
100
AcDbEntity
  8
SUNPOU
 62
     0
100
AcDbMText
 10
-25055.67431908198
 20
3508.049253714655
 30
0.0
 40
120.0
 41
0.0
 71
     5
 72
     1
  1
\A1;110
 11
6.123031769111886E-17
 21
1.0
 31
0.0
 73
     1
 44
1.0
  0
POINT
  5
176FA
330
9286
100
AcDbEntity
  8
DEFPOINTS
 62
     0
100
AcDbPoint
 10
-24458.92327040974
 20
3914.049253714659
 30
0.0
  0
POINT
  5
176FB
330
9286
100
AcDbEntity
  8
DEFPOINTS
 62
     0
100
AcDbPoint
 10
-24378.92327040974
 20
3804.049253714659
 30
0.0
  0
POINT
  5
176FC
330
9286
100
AcDbEntity
  8
DEFPOINTS
 62
     0
100
AcDbPoint
 10
-24963.67431908198
 20
3804.049253714659
 30
0.0
  0
ENDBLK
  5
9291
330
9286
100
AcDbEntity
  8
0
100
AcDbBlockEnd
  0
BLOCK
  5
9316
330
930A
100
AcDbEntity
  8
0
100
AcDbBlockBegin
  2
*D15
 70
     1
 10
0.0
 20
0.0
 30
0.0
  3
*D15
  1

  0
LINE
  5
176FD
330
930A
100
AcDbEntity
  8
SUNPOU
370
    -2
100
AcDbLine
 10
-24538.92327040974
 20
3914.049253714659
 30
0.0
 11
-25003.67431908198
 21
3914.049253714659
 31
0.0
  0
LINE
  5
176FE
330
930A
100
AcDbEntity
  8
SUNPOU
370
    -2
100
AcDbLine
 10
-24538.92327040974
 20
4004.049253714657
 30
0.0
 11
-25003.67431908198
 21
4004.049253714657
 31
0.0
  0
LINE
  5
176FF
330
930A
100
AcDbEntity
  8
SUNPOU
 62
     0
370
    -2
100
AcDbLine
 10
-24963.67431908198
 20
3914.049253714659
 30
0.0
 11
-24963.67431908198
 21
3834.049253714659
 31
0.0
  0
LINE
  5
17700
330
930A
100
AcDbEntity
  8
SUNPOU
 62
     0
370
    -2
100
AcDbLine
 10
-24963.67431908198
 20
4084.049253714657
 30
0.0
 11
-24963.67431908198
 21
4380.049253714657
 31
0.0
  0
LINE
  5
17701
330
930A
100
AcDbEntity
  8
SUNPOU
 62
     0
370
    -2
100
AcDbLine
 10
-24963.67431908198
 20
3914.049253714659
 30
0.0
 11
-24963.67431908198
 21
4004.049253714657
 31
0.0
  0
INSERT
  5
17702
330
930A
100
AcDbEntity
  8
SUNPOU
 62
     0
370
    -2
100
AcDbBlockReference
  2
_DotSmall
 10
-24963.67431908198
 20
3914.049253714659
 30
0.0
 41
80.0
 42
80.0
 43
80.0
 50
90.0
  0
SOLID
  5
17703
330
930A
100
AcDbEntity
  8
SUNPOU
 62
     0
100
AcDbTrace
 10
-24977.00765241532
 20
4084.049253714657
 30
0.0
 11
-24950.34098574865
 21
4084.049253714657
 31
0.0
 12
-24963.67431908198
 22
4004.049253714657
 32
0.0
 13
-24963.67431908198
 23
4004.049253714657
 33
0.0
  0
MTEXT
  5
17704
330
930A
100
AcDbEntity
  8
SUNPOU
 62
     0
100
AcDbMText
 10
-25055.67431908198
 20
4276.049253714653
 30
0.0
 40
120.0
 41
0.0
 71
     5
 72
     1
  1
\A1;90
 11
6.123031769111886E-17
 21
1.0
 31
0.0
 73
     1
 44
1.0
  0
POINT
  5
17705
330
930A
100
AcDbEntity
  8
DEFPOINTS
 62
     0
100
AcDbPoint
 10
-24458.92327040974
 20
3914.049253714659
 30
0.0
  0
POINT
  5
17706
330
930A
100
AcDbEntity
  8
DEFPOINTS
 62
     0
100
AcDbPoint
 10
-24458.92327040974
 20
4004.049253714657
 30
0.0
  0
POINT
  5
17707
330
930A
100
AcDbEntity
  8
DEFPOINTS
 62
     0
100
AcDbPoint
 10
-24963.67431908198
 20
4004.049253714657
 30
0.0
  0
ENDBLK
  5
9317
330
930A
100
AcDbEntity
  8
0
100
AcDbBlockEnd
  0
BLOCK
  5
9730
330
9725
100
AcDbEntity
  8
0
100
AcDbBlockBegin
  2
*D16
 70
     1
 10
0.0
 20
0.0
 30
0.0
  3
*D16
  1

  0
LINE
  5
1784D
330
9725
100
AcDbEntity
  8
SUNPOU
370
    -2
100
AcDbLine
 10
-24538.92327040974
 20
5794.049253714657
 30
0.0
 11
-25003.67431908198
 21
5794.049253714657
 31
0.0
  0
LINE
  5
1784E
330
9725
100
AcDbEntity
  8
SUNPOU
370
    -2
100
AcDbLine
 10
-24458.92327040974
 20
5904.049253714657
 30
0.0
 11
-25003.67431908198
 21
5904.049253714657
 31
0.0
  0
LINE
  5
1784F
330
9725
100
AcDbEntity
  8
SUNPOU
 62
     0
370
    -2
100
AcDbLine
 10
-24963.67431908198
 20
5794.049253714657
 30
0.0
 11
-24963.67431908198
 21
5714.049253714657
 31
0.0
  0
LINE
  5
17850
330
9725
100
AcDbEntity
  8
SUNPOU
 62
     0
370
    -2
100
AcDbLine
 10
-24963.67431908198
 20
5984.049253714657
 30
0.0
 11
-24963.67431908198
 21
6320.049253714657
 31
0.0
  0
LINE
  5
17851
330
9725
100
AcDbEntity
  8
SUNPOU
 62
     0
370
    -2
100
AcDbLine
 10
-24963.67431908198
 20
5794.049253714657
 30
0.0
 11
-24963.67431908198
 21
5904.049253714657
 31
0.0
  0
INSERT
  5
17852
330
9725
100
AcDbEntity
  8
SUNPOU
 62
     0
370
    -2
100
AcDbBlockReference
  2
_DotSmall
 10
-24963.67431908198
 20
5794.049253714657
 30
0.0
 41
80.0
 42
80.0
 43
80.0
 50
90.0
  0
SOLID
  5
17853
330
9725
100
AcDbEntity
  8
SUNPOU
 62
     0
100
AcDbTrace
 10
-24977.00765241532
 20
5984.049253714657
 30
0.0
 11
-24950.34098574865
 21
5984.049253714657
 31
0.0
 12
-24963.67431908198
 22
5904.049253714657
 32
0.0
 13
-24963.67431908198
 23
5904.049253714657
 33
0.0
  0
MTEXT
  5
17854
330
9725
100
AcDbEntity
  8
SUNPOU
 62
     0
100
AcDbMText
 10
-25055.67431908198
 20
6200.049253714653
 30
0.0
 40
120.0
 41
0.0
 71
     5
 72
     1
  1
\A1;110
 11
6.123031769111886E-17
 21
1.0
 31
0.0
 73
     1
 44
1.0
  0
POINT
  5
17855
330
9725
100
AcDbEntity
  8
DEFPOINTS
 62
     0
100
AcDbPoint
 10
-24458.92327040974
 20
5794.049253714657
 30
0.0
  0
POINT
  5
17856
330
9725
100
AcDbEntity
  8
DEFPOINTS
 62
     0
100
AcDbPoint
 10
-24378.92327040974
 20
5904.049253714657
 30
0.0
  0
POINT
  5
17857
330
9725
100
AcDbEntity
  8
DEFPOINTS
 62
     0
100
AcDbPoint
 10
-24963.67431908198
 20
5904.049253714657
 30
0.0
  0
ENDBLK
  5
9731
330
9725
100
AcDbEntity
  8
0
100
AcDbBlockEnd
  0
BLOCK
  5
974B
330
9740
100
AcDbEntity
  8
0
100
AcDbBlockBegin
  2
*D17
 70
     1
 10
0.0
 20
0.0
 30
0.0
  3
*D17
  1

  0
LINE
  5
17858
330
9740
100
AcDbEntity
  8
SUNPOU
370
    -2
100
AcDbLine
 10
-24538.92327040974
 20
5794.049253714657
 30
0.0
 11
-25003.67431908198
 21
5794.049253714657
 31
0.0
  0
LINE
  5
17859
330
9740
100
AcDbEntity
  8
SUNPOU
370
    -2
100
AcDbLine
 10
-24538.92327040974
 20
5704.049253714658
 30
0.0
 11
-25003.67431908198
 21
5704.049253714658
 31
0.0
  0
LINE
  5
1785A
330
9740
100
AcDbEntity
  8
SUNPOU
 62
     0
370
    -2
100
AcDbLine
 10
-24963.67431908198
 20
5794.049253714657
 30
0.0
 11
-24963.67431908198
 21
5874.049253714657
 31
0.0
  0
LINE
  5
1785B
330
9740
100
AcDbEntity
  8
SUNPOU
 62
     0
370
    -2
100
AcDbLine
 10
-24963.67431908198
 20
5624.049253714658
 30
0.0
 11
-24963.67431908198
 21
5328.049253714658
 31
0.0
  0
LINE
  5
1785C
330
9740
100
AcDbEntity
  8
SUNPOU
 62
     0
370
    -2
100
AcDbLine
 10
-24963.67431908198
 20
5794.049253714657
 30
0.0
 11
-24963.67431908198
 21
5704.049253714658
 31
0.0
  0
INSERT
  5
1785D
330
9740
100
AcDbEntity
  8
SUNPOU
 62
     0
370
    -2
100
AcDbBlockReference
  2
_DotSmall
 10
-24963.67431908198
 20
5794.049253714657
 30
0.0
 41
80.0
 42
80.0
 43
80.0
 50
270.0
  0
SOLID
  5
1785E
330
9740
100
AcDbEntity
  8
SUNPOU
 62
     0
100
AcDbTrace
 10
-24977.00765241532
 20
5624.049253714658
 30
0.0
 11
-24950.34098574865
 21
5624.049253714658
 31
0.0
 12
-24963.67431908198
 22
5704.049253714658
 32
0.0
 13
-24963.67431908198
 23
5704.049253714658
 33
0.0
  0
MTEXT
  5
1785F
330
9740
100
AcDbEntity
  8
SUNPOU
 62
     0
100
AcDbMText
 10
-25055.67431908198
 20
5432.049253714655
 30
0.0
 40
120.0
 41
0.0
 71
     5
 72
     1
  1
\A1;90
 11
6.123031769111886E-17
 21
1.0
 31
0.0
 73
     1
 44
1.0
  0
POINT
  5
17860
330
9740
100
AcDbEntity
  8
DEFPOINTS
 62
     0
100
AcDbPoint
 10
-24458.92327040974
 20
5794.049253714657
 30
0.0
  0
POINT
  5
17861
330
9740
100
AcDbEntity
  8
DEFPOINTS
 62
     0
100
AcDbPoint
 10
-24458.92327040974
 20
5704.049253714658
 30
0.0
  0
POINT
  5
17862
330
9740
100
AcDbEntity
  8
DEFPOINTS
 62
     0
100
AcDbPoint
 10
-24963.67431908198
 20
5704.049253714658
 30
0.0
  0
ENDBLK
  5
974C
330
9740
100
AcDbEntity
  8
0
100
AcDbBlockEnd
  0
BLOCK
  5
9F72
330
9F66
100
AcDbEntity
  8
0
100
AcDbBlockBegin
  2
*D18
 70
     1
 10
0.0
 20
0.0
 30
0.0
  3
*D18
  1

  0
LINE
  5
179FF
330
9F66
100
AcDbEntity
  8
SUNPOU
370
    -2
100
AcDbLine
 10
-27112.51160208319
 20
9680.11571775241
 30
0.0
 11
-26874.51160208319
 21
9680.11571775241
 31
0.0
  0
LINE
  5
17A00
330
9F66
100
AcDbEntity
  8
SUNPOU
370
    -2
100
AcDbLine
 10
-27112.51160208319
 20
9920.115717752411
 30
0.0
 11
-26874.51160208319
 21
9920.115717752411
 31
0.0
  0
LINE
  5
17A01
330
9F66
100
AcDbEntity
  8
SUNPOU
 62
     0
370
    -2
100
AcDbLine
 10
-26914.51160208319
 20
9600.11571775241
 30
0.0
 11
-26914.51160208319
 21
9520.11571775241
 31
0.0
  0
LINE
  5
17A02
330
9F66
100
AcDbEntity
  8
SUNPOU
 62
     0
370
    -2
100
AcDbLine
 10
-26914.51160208319
 20
10000.11571775241
 30
0.0
 11
-26914.51160208319
 21
10080.11571775241
 31
0.0
  0
LINE
  5
17A03
330
9F66
100
AcDbEntity
  8
SUNPOU
 62
     0
370
    -2
100
AcDbLine
 10
-26914.51160208319
 20
9680.11571775241
 30
0.0
 11
-26914.51160208319
 21
9920.115717752411
 31
0.0
  0
SOLID
  5
17A04
330
9F66
100
AcDbEntity
  8
SUNPOU
 62
     0
100
AcDbTrace
 10
-26927.84493541652
 20
9600.11571775241
 30
0.0
 11
-26901.17826874986
 21
9600.11571775241
 31
0.0
 12
-26914.51160208319
 22
9680.11571775241
 32
0.0
 13
-26914.51160208319
 23
9680.11571775241
 33
0.0
  0
SOLID
  5
17A05
330
9F66
100
AcDbEntity
  8
SUNPOU
 62
     0
100
AcDbTrace
 10
-26927.84493541652
 20
10000.11571775241
 30
0.0
 11
-26901.17826874986
 21
10000.11571775241
 31
0.0
 12
-26914.51160208319
 22
9920.115717752411
 32
0.0
 13
-26914.51160208319
 23
9920.115717752411
 33
0.0
  0
MTEXT
  5
17A06
330
9F66
100
AcDbEntity
  8
SUNPOU
 62
     0
100
AcDbMText
 10
-27006.51160208319
 20
9800.115717752406
 30
0.0
 40
120.0
 41
0.0
 71
     5
 72
     1
  1
\A1;240
 11
6.123031769111886E-17
 21
1.0
 31
0.0
 73
     1
 44
1.0
  0
POINT
  5
17A07
330
9F66
100
AcDbEntity
  8
DEFPOINTS
 62
     0
100
AcDbPoint
 10
-27192.51160208319
 20
9680.11571775241
 30
0.0
  0
POINT
  5
17A08
330
9F66
100
AcDbEntity
  8
DEFPOINTS
 62
     0
100
AcDbPoint
 10
-27192.51160208319
 20
9920.115717752411
 30
0.0
  0
POINT
  5
17A09
330
9F66
100
AcDbEntity
  8
DEFPOINTS
 62
     0
100
AcDbPoint
 10
-26914.51160208319
 20
9920.115717752411
 30
0.0
  0
ENDBLK
  5
9F73
330
9F66
100
AcDbEntity
  8
0
100
AcDbBlockEnd
  0
BLOCK
  5
1190D
330
11903
100
AcDbEntity
  8
0
100
AcDbBlockBegin
  2
*D19
 70
     1
 10
0.0
 20
0.0
 30
0.0
  3
*D19
  1

  0
LINE
  5
1773B
330
11903
100
AcDbEntity
  8
SUNPOU
370
    -2
100
AcDbLine
 10
-19400.97766769209
 20
6228.687658493953
 30
0.0
 11
-20794.31100102543
 21
6228.687658493953
 31
0.0
  0
LINE
  5
1773C
330
11903
100
AcDbEntity
  8
SUNPOU
370
    -2
100
AcDbLine
 10
-20400.97766769209
 20
5888.687658493953
 30
0.0
 11
-20794.31100102543
 21
5888.687658493953
 31
0.0
  0
LINE
  5
1773D
330
11903
100
AcDbEntity
  8
SUNPOU
 62
     0
370
    -2
100
AcDbLine
 10
-20754.31100102543
 20
6148.687658493953
 30
0.0
 11
-20754.31100102543
 21
5968.687658493953
 31
0.0
  0
SOLID
  5
1773E
330
11903
100
AcDbEntity
  8
SUNPOU
 62
     0
100
AcDbTrace
 10
-20767.64433435877
 20
6148.687658493953
 30
0.0
 11
-20740.9776676921
 21
6148.687658493953
 31
0.0
 12
-20754.31100102543
 22
6228.687658493953
 32
0.0
 13
-20754.31100102543
 23
6228.687658493953
 33
0.0
  0
SOLID
  5
1773F
330
11903
100
AcDbEntity
  8
SUNPOU
 62
     0
100
AcDbTrace
 10
-20767.64433435877
 20
5968.687658493953
 30
0.0
 11
-20740.9776676921
 21
5968.687658493953
 31
0.0
 12
-20754.31100102543
 22
5888.687658493953
 32
0.0
 13
-20754.31100102543
 23
5888.687658493953
 33
0.0
  0
MTEXT
  5
17740
330
11903
100
AcDbEntity
  8
SUNPOU
 62
     0
100
AcDbMText
 10
-20846.31100102543
 20
6058.687658493949
 30
0.0
 40
120.0
 41
0.0
 71
     5
 72
     1
  1
\A1;85
 11
6.123031769111886E-17
 21
1.0
 31
0.0
 73
     1
 44
1.0
  0
POINT
  5
17741
330
11903
100
AcDbEntity
  8
DEFPOINTS
 62
     0
100
AcDbPoint
 10
-19320.97766769209
 20
6228.687658493953
 30
0.0
  0
POINT
  5
17742
330
11903
100
AcDbEntity
  8
DEFPOINTS
 62
     0
100
AcDbPoint
 10
-20320.97766769209
 20
5888.687658493953
 30
0.0
  0
POINT
  5
17743
330
11903
100
AcDbEntity
  8
DEFPOINTS
 62
     0
100
AcDbPoint
 10
-20754.31100102543
 20
5888.687658493953
 30
0.0
  0
ENDBLK
  5
1190E
330
11903
100
AcDbEntity
  8
0
100
AcDbBlockEnd
  0
BLOCK
  5
1191B
330
1190F
100
AcDbEntity
  8
0
100
AcDbBlockBegin
  2
*D20
 70
     1
 10
0.0
 20
0.0
 30
0.0
  3
*D20
  1

  0
LINE
  5
17744
330
1190F
100
AcDbEntity
  8
SUNPOU
370
    -2
100
AcDbLine
 10
-19720.97766769209
 20
6308.687658493953
 30
0.0
 11
-20794.31100102543
 21
6308.687658493953
 31
0.0
  0
LINE
  5
17745
330
1190F
100
AcDbEntity
  8
SUNPOU
370
    -2
100
AcDbLine
 10
-19400.97766769209
 20
6228.687658493953
 30
0.0
 11
-20794.31100102543
 21
6228.687658493953
 31
0.0
  0
LINE
  5
17746
330
1190F
100
AcDbEntity
  8
SUNPOU
 62
     0
370
    -2
100
AcDbLine
 10
-20754.31100102543
 20
6388.687658493953
 30
0.0
 11
-20754.31100102543
 21
6468.687658493953
 31
0.0
  0
LINE
  5
17747
330
1190F
100
AcDbEntity
  8
SUNPOU
 62
     0
370
    -2
100
AcDbLine
 10
-20754.31100102543
 20
6148.687658493953
 30
0.0
 11
-20754.31100102543
 21
6068.687658493953
 31
0.0
  0
LINE
  5
17748
330
1190F
100
AcDbEntity
  8
SUNPOU
 62
     0
370
    -2
100
AcDbLine
 10
-20754.31100102543
 20
6308.687658493953
 30
0.0
 11
-20754.31100102543
 21
6228.687658493953
 31
0.0
  0
SOLID
  5
17749
330
1190F
100
AcDbEntity
  8
SUNPOU
 62
     0
100
AcDbTrace
 10
-20767.64433435877
 20
6388.687658493953
 30
0.0
 11
-20740.9776676921
 21
6388.687658493953
 31
0.0
 12
-20754.31100102543
 22
6308.687658493953
 32
0.0
 13
-20754.31100102543
 23
6308.687658493953
 33
0.0
  0
SOLID
  5
1774A
330
1190F
100
AcDbEntity
  8
SUNPOU
 62
     0
100
AcDbTrace
 10
-20767.64433435877
 20
6148.687658493953
 30
0.0
 11
-20740.9776676921
 21
6148.687658493953
 31
0.0
 12
-20754.31100102543
 22
6228.687658493953
 32
0.0
 13
-20754.31100102543
 23
6228.687658493953
 33
0.0
  0
MTEXT
  5
1774B
330
1190F
100
AcDbEntity
  8
SUNPOU
 62
     0
100
AcDbMText
 10
-20846.31100102543
 20
6268.687658493949
 30
0.0
 40
120.0
 41
0.0
 71
     5
 72
     1
  1
\A1;20
 11
6.123031769111886E-17
 21
1.0
 31
0.0
 73
     1
 44
1.0
  0
POINT
  5
1774C
330
1190F
100
AcDbEntity
  8
DEFPOINTS
 62
     0
100
AcDbPoint
 10
-19640.97766769209
 20
6308.687658493953
 30
0.0
  0
POINT
  5
1774D
330
1190F
100
AcDbEntity
  8
DEFPOINTS
 62
     0
100
AcDbPoint
 10
-19320.97766769209
 20
6228.687658493953
 30
0.0
  0
POINT
  5
1774E
330
1190F
100
AcDbEntity
  8
DEFPOINTS
 62
     0
100
AcDbPoint
 10
-20754.31100102543
 20
6228.687658493953
 30
0.0
  0
ENDBLK
  5
1191C
330
1190F
100
AcDbEntity
  8
0
100
AcDbBlockEnd
  0
BLOCK
  5
11927
330
1191D
100
AcDbEntity
  8
0
100
AcDbBlockBegin
  2
*D21
 70
     1
 10
0.0
 20
0.0
 30
0.0
  3
*D21
  1

  0
LINE
  5
17732
330
1191D
100
AcDbEntity
  8
SUNPOU
370
    -2
100
AcDbLine
 10
-20400.9776676921
 20
6688.687658493953
 30
0.0
 11
-20794.31100102543
 21
6688.687658493953
 31
0.0
  0
LINE
  5
17733
330
1191D
100
AcDbEntity
  8
SUNPOU
370
    -2
100
AcDbLine
 10
-19720.97766769209
 20
6308.687658493953
 30
0.0
 11
-20794.31100102543
 21
6308.687658493953
 31
0.0
  0
LINE
  5
17734
330
1191D
100
AcDbEntity
  8
SUNPOU
 62
     0
370
    -2
100
AcDbLine
 10
-20754.31100102543
 20
6608.687658493953
 30
0.0
 11
-20754.31100102543
 21
6388.687658493953
 31
0.0
  0
SOLID
  5
17735
330
1191D
100
AcDbEntity
  8
SUNPOU
 62
     0
100
AcDbTrace
 10
-20767.64433435877
 20
6608.687658493953
 30
0.0
 11
-20740.9776676921
 21
6608.687658493953
 31
0.0
 12
-20754.31100102543
 22
6688.687658493953
 32
0.0
 13
-20754.31100102543
 23
6688.687658493953
 33
0.0
  0
SOLID
  5
17736
330
1191D
100
AcDbEntity
  8
SUNPOU
 62
     0
100
AcDbTrace
 10
-20767.64433435877
 20
6388.687658493953
 30
0.0
 11
-20740.9776676921
 21
6388.687658493953
 31
0.0
 12
-20754.31100102543
 22
6308.687658493953
 32
0.0
 13
-20754.31100102543
 23
6308.687658493953
 33
0.0
  0
MTEXT
  5
17737
330
1191D
100
AcDbEntity
  8
SUNPOU
 62
     0
100
AcDbMText
 10
-20846.31100102543
 20
6498.687658493949
 30
0.0
 40
120.0
 41
0.0
 71
     5
 72
     1
  1
\A1;95
 11
6.123031769111886E-17
 21
1.0
 31
0.0
 73
     1
 44
1.0
  0
POINT
  5
17738
330
1191D
100
AcDbEntity
  8
DEFPOINTS
 62
     0
100
AcDbPoint
 10
-20320.9776676921
 20
6688.687658493953
 30
0.0
  0
POINT
  5
17739
330
1191D
100
AcDbEntity
  8
DEFPOINTS
 62
     0
100
AcDbPoint
 10
-19640.97766769209
 20
6308.687658493953
 30
0.0
  0
POINT
  5
1773A
330
1191D
100
AcDbEntity
  8
DEFPOINTS
 62
     0
100
AcDbPoint
 10
-20754.31100102543
 20
6308.687658493953
 30
0.0
  0
ENDBLK
  5
11928
330
1191D
100
AcDbEntity
  8
0
100
AcDbBlockEnd
  0
BLOCK
  5
11933
330
11929
100
AcDbEntity
  8
0
100
AcDbBlockBegin
  2
*D22
 70
     1
 10
0.0
 20
0.0
 30
0.0
  3
*D22
  1

  0
LINE
  5
17729
330
11929
100
AcDbEntity
  8
SUNPOU
370
    -2
100
AcDbLine
 10
-20400.9776676921
 20
6688.687658493953
 30
0.0
 11
-21074.31100102543
 21
6688.687658493953
 31
0.0
  0
LINE
  5
1772A
330
11929
100
AcDbEntity
  8
SUNPOU
370
    -2
100
AcDbLine
 10
-20400.9776676921
 20
5888.687658493953
 30
0.0
 11
-21074.31100102543
 21
5888.687658493953
 31
0.0
  0
LINE
  5
1772B
330
11929
100
AcDbEntity
  8
SUNPOU
 62
     0
370
    -2
100
AcDbLine
 10
-21034.31100102543
 20
6608.687658493953
 30
0.0
 11
-21034.31100102543
 21
5968.687658493953
 31
0.0
  0
SOLID
  5
1772C
330
11929
100
AcDbEntity
  8
SUNPOU
 62
     0
100
AcDbTrace
 10
-21047.64433435877
 20
6608.687658493953
 30
0.0
 11
-21020.9776676921
 21
6608.687658493953
 31
0.0
 12
-21034.31100102543
 22
6688.687658493953
 32
0.0
 13
-21034.31100102543
 23
6688.687658493953
 33
0.0
  0
SOLID
  5
1772D
330
11929
100
AcDbEntity
  8
SUNPOU
 62
     0
100
AcDbTrace
 10
-21047.64433435877
 20
5968.687658493953
 30
0.0
 11
-21020.9776676921
 21
5968.687658493953
 31
0.0
 12
-21034.31100102543
 22
5888.687658493953
 32
0.0
 13
-21034.31100102543
 23
5888.687658493953
 33
0.0
  0
MTEXT
  5
1772E
330
11929
100
AcDbEntity
  8
SUNPOU
 62
     0
100
AcDbMText
 10
-21126.31100102543
 20
6288.687658493949
 30
0.0
 40
120.0
 41
0.0
 71
     5
 72
     1
  1
\A1;200
 11
6.123031769111886E-17
 21
1.0
 31
0.0
 73
     1
 44
1.0
  0
POINT
  5
1772F
330
11929
100
AcDbEntity
  8
DEFPOINTS
 62
     0
100
AcDbPoint
 10
-20320.9776676921
 20
6688.687658493953
 30
0.0
  0
POINT
  5
17730
330
11929
100
AcDbEntity
  8
DEFPOINTS
 62
     0
100
AcDbPoint
 10
-20320.9776676921
 20
5888.687658493953
 30
0.0
  0
POINT
  5
17731
330
11929
100
AcDbEntity
  8
DEFPOINTS
 62
     0
100
AcDbPoint
 10
-21034.31100102543
 20
5888.687658493953
 30
0.0
  0
ENDBLK
  5
11934
330
11929
100
AcDbEntity
  8
0
100
AcDbBlockEnd
  0
BLOCK
  5
1193F
330
11935
100
AcDbEntity
  8
0
100
AcDbBlockBegin
  2
*D23
 70
     1
 10
0.0
 20
0.0
 30
0.0
  3
*D23
  1

  0
LINE
  5
17794
330
11935
100
AcDbEntity
  8
SUNPOU
370
    -2
100
AcDbLine
 10
-18925.20633963065
 20
6268.687658493953
 30
0.0
 11
-17800.97766769208
 21
6268.687658493952
 31
0.0
  0
LINE
  5
17795
330
11935
100
AcDbEntity
  8
SUNPOU
370
    -2
100
AcDbLine
 10
-18240.97766769208
 20
5888.687658493951
 30
0.0
 11
-17800.97766769208
 21
5888.687658493951
 31
0.0
  0
LINE
  5
17796
330
11935
100
AcDbEntity
  8
SUNPOU
 62
     0
370
    -2
100
AcDbLine
 10
-17840.97766769208
 20
6188.687658493952
 30
0.0
 11
-17840.97766769208
 21
5968.687658493951
 31
0.0
  0
SOLID
  5
17797
330
11935
100
AcDbEntity
  8
SUNPOU
 62
     0
100
AcDbTrace
 10
-17854.31100102542
 20
6188.687658493952
 30
0.0
 11
-17827.64433435875
 21
6188.687658493952
 31
0.0
 12
-17840.97766769208
 22
6268.687658493952
 32
0.0
 13
-17840.97766769208
 23
6268.687658493952
 33
0.0
  0
SOLID
  5
17798
330
11935
100
AcDbEntity
  8
SUNPOU
 62
     0
100
AcDbTrace
 10
-17854.31100102542
 20
5968.687658493951
 30
0.0
 11
-17827.64433435875
 21
5968.687658493951
 31
0.0
 12
-17840.97766769208
 22
5888.687658493951
 32
0.0
 13
-17840.97766769208
 23
5888.687658493951
 33
0.0
  0
MTEXT
  5
17799
330
11935
100
AcDbEntity
  8
SUNPOU
 62
     0
100
AcDbMText
 10
-17932.97766769208
 20
6078.687658493948
 30
0.0
 40
120.0
 41
0.0
 71
     5
 72
     1
  1
\A1;95
 11
6.123031769111886E-17
 21
1.0
 31
0.0
 73
     1
 44
1.0
  0
POINT
  5
1779A
330
11935
100
AcDbEntity
  8
DEFPOINTS
 62
     0
100
AcDbPoint
 10
-19005.20633963065
 20
6268.687658493953
 30
0.0
  0
POINT
  5
1779B
330
11935
100
AcDbEntity
  8
DEFPOINTS
 62
     0
100
AcDbPoint
 10
-18320.97766769208
 20
5888.687658493951
 30
0.0
  0
POINT
  5
1779C
330
11935
100
AcDbEntity
  8
DEFPOINTS
 62
     0
100
AcDbPoint
 10
-17840.97766769208
 20
5888.687658493951
 30
0.0
  0
ENDBLK
  5
11940
330
11935
100
AcDbEntity
  8
0
100
AcDbBlockEnd
  0
BLOCK
  5
1194B
330
11941
100
AcDbEntity
  8
0
100
AcDbBlockBegin
  2
*D24
 70
     1
 10
0.0
 20
0.0
 30
0.0
  3
*D24
  1

  0
LINE
  5
1779D
330
11941
100
AcDbEntity
  8
SUNPOU
370
    -2
100
AcDbLine
 10
-19245.20633963065
 20
6348.687658493953
 30
0.0
 11
-17800.97766769208
 21
6348.687658493952
 31
0.0
  0
LINE
  5
1779E
330
11941
100
AcDbEntity
  8
SUNPOU
370
    -2
100
AcDbLine
 10
-18240.97766769208
 20
6688.687658493951
 30
0.0
 11
-17800.97766769208
 21
6688.687658493951
 31
0.0
  0
LINE
  5
1779F
330
11941
100
AcDbEntity
  8
SUNPOU
 62
     0
370
    -2
100
AcDbLine
 10
-17840.97766769208
 20
6428.687658493952
 30
0.0
 11
-17840.97766769208
 21
6608.687658493951
 31
0.0
  0
SOLID
  5
177A0
330
11941
100
AcDbEntity
  8
SUNPOU
 62
     0
100
AcDbTrace
 10
-17854.31100102542
 20
6428.687658493952
 30
0.0
 11
-17827.64433435875
 21
6428.687658493952
 31
0.0
 12
-17840.97766769208
 22
6348.687658493952
 32
0.0
 13
-17840.97766769208
 23
6348.687658493952
 33
0.0
  0
SOLID
  5
177A1
330
11941
100
AcDbEntity
  8
SUNPOU
 62
     0
100
AcDbTrace
 10
-17854.31100102542
 20
6608.687658493951
 30
0.0
 11
-17827.64433435875
 21
6608.687658493951
 31
0.0
 12
-17840.97766769208
 22
6688.687658493951
 32
0.0
 13
-17840.97766769208
 23
6688.687658493951
 33
0.0
  0
MTEXT
  5
177A2
330
11941
100
AcDbEntity
  8
SUNPOU
 62
     0
100
AcDbMText
 10
-17932.97766769208
 20
6518.687658493948
 30
0.0
 40
120.0
 41
0.0
 71
     5
 72
     1
  1
\A1;85
 11
6.123031769111886E-17
 21
1.0
 31
0.0
 73
     1
 44
1.0
  0
POINT
  5
177A3
330
11941
100
AcDbEntity
  8
DEFPOINTS
 62
     0
100
AcDbPoint
 10
-19325.20633963065
 20
6348.687658493953
 30
0.0
  0
POINT
  5
177A4
330
11941
100
AcDbEntity
  8
DEFPOINTS
 62
     0
100
AcDbPoint
 10
-18320.97766769208
 20
6688.687658493951
 30
0.0
  0
POINT
  5
177A5
330
11941
100
AcDbEntity
  8
DEFPOINTS
 62
     0
100
AcDbPoint
 10
-17840.97766769208
 20
6688.687658493951
 30
0.0
  0
ENDBLK
  5
1194C
330
11941
100
AcDbEntity
  8
0
100
AcDbBlockEnd
  0
BLOCK
  5
11959
330
1194D
100
AcDbEntity
  8
0
100
AcDbBlockBegin
  2
*D25
 70
     1
 10
0.0
 20
0.0
 30
0.0
  3
*D25
  1

  0
LINE
  5
177A6
330
1194D
100
AcDbEntity
  8
SUNPOU
370
    -2
100
AcDbLine
 10
-18925.20633963065
 20
6268.687658493953
 30
0.0
 11
-17800.97766769208
 21
6268.687658493952
 31
0.0
  0
LINE
  5
177A7
330
1194D
100
AcDbEntity
  8
SUNPOU
370
    -2
100
AcDbLine
 10
-19245.20633963065
 20
6348.687658493953
 30
0.0
 11
-17800.97766769208
 21
6348.687658493952
 31
0.0
  0
LINE
  5
177A8
330
1194D
100
AcDbEntity
  8
SUNPOU
 62
     0
370
    -2
100
AcDbLine
 10
-17840.97766769208
 20
6188.687658493952
 30
0.0
 11
-17840.97766769208
 21
6108.687658493952
 31
0.0
  0
LINE
  5
177A9
330
1194D
100
AcDbEntity
  8
SUNPOU
 62
     0
370
    -2
100
AcDbLine
 10
-17840.97766769208
 20
6428.687658493952
 30
0.0
 11
-17840.97766769208
 21
6508.687658493952
 31
0.0
  0
LINE
  5
177AA
330
1194D
100
AcDbEntity
  8
SUNPOU
 62
     0
370
    -2
100
AcDbLine
 10
-17840.97766769208
 20
6268.687658493952
 30
0.0
 11
-17840.97766769208
 21
6348.687658493952
 31
0.0
  0
SOLID
  5
177AB
330
1194D
100
AcDbEntity
  8
SUNPOU
 62
     0
100
AcDbTrace
 10
-17854.31100102542
 20
6188.687658493952
 30
0.0
 11
-17827.64433435875
 21
6188.687658493952
 31
0.0
 12
-17840.97766769208
 22
6268.687658493952
 32
0.0
 13
-17840.97766769208
 23
6268.687658493952
 33
0.0
  0
SOLID
  5
177AC
330
1194D
100
AcDbEntity
  8
SUNPOU
 62
     0
100
AcDbTrace
 10
-17854.31100102542
 20
6428.687658493952
 30
0.0
 11
-17827.64433435875
 21
6428.687658493952
 31
0.0
 12
-17840.97766769208
 22
6348.687658493952
 32
0.0
 13
-17840.97766769208
 23
6348.687658493952
 33
0.0
  0
MTEXT
  5
177AD
330
1194D
100
AcDbEntity
  8
SUNPOU
 62
     0
100
AcDbMText
 10
-17932.97766769208
 20
6308.687658493949
 30
0.0
 40
120.0
 41
0.0
 71
     5
 72
     1
  1
\A1;20
 11
6.123031769111886E-17
 21
1.0
 31
0.0
 73
     1
 44
1.0
  0
POINT
  5
177AE
330
1194D
100
AcDbEntity
  8
DEFPOINTS
 62
     0
100
AcDbPoint
 10
-19005.20633963065
 20
6268.687658493953
 30
0.0
  0
POINT
  5
177AF
330
1194D
100
AcDbEntity
  8
DEFPOINTS
 62
     0
100
AcDbPoint
 10
-19325.20633963065
 20
6348.687658493953
 30
0.0
  0
POINT
  5
177B0
330
1194D
100
AcDbEntity
  8
DEFPOINTS
 62
     0
100
AcDbPoint
 10
-17840.97766769208
 20
6348.687658493952
 30
0.0
  0
ENDBLK
  5
1195A
330
1194D
100
AcDbEntity
  8
0
100
AcDbBlockEnd
  0
BLOCK
  5
11965
330
1195B
100
AcDbEntity
  8
0
100
AcDbBlockBegin
  2
*D26
 70
     1
 10
0.0
 20
0.0
 30
0.0
  3
*D26
  1

  0
LINE
  5
119FC
330
1195B
100
AcDbEntity
  8
SUNPOU
370
    -2
100
AcDbLine
 10
-19640.97766769209
 20
6228.687658493953
 30
0.0
 11
-19640.97766769209
 21
5508.687658493953
 31
0.0
  0
LINE
  5
119FD
330
1195B
100
AcDbEntity
  8
SUNPOU
370
    -2
100
AcDbLine
 10
-19320.97766769209
 20
5808.687658493953
 30
0.0
 11
-19320.97766769209
 21
5508.687658493953
 31
0.0
  0
LINE
  5
119FE
330
1195B
100
AcDbEntity
  8
SUNPOU
 62
     0
370
    -2
100
AcDbLine
 10
-19560.97766769209
 20
5548.687658493953
 30
0.0
 11
-19400.97766769209
 21
5548.687658493953
 31
0.0
  0
SOLID
  5
119FF
330
1195B
100
AcDbEntity
  8
SUNPOU
 62
     0
100
AcDbTrace
 10
-19560.97766769209
 20
5562.020991827286
 30
0.0
 11
-19560.97766769209
 21
5535.35432516062
 31
0.0
 12
-19640.97766769209
 22
5548.687658493953
 32
0.0
 13
-19640.97766769209
 23
5548.687658493953
 33
0.0
  0
SOLID
  5
11A00
330
1195B
100
AcDbEntity
  8
SUNPOU
 62
     0
100
AcDbTrace
 10
-19400.97766769209
 20
5562.020991827286
 30
0.0
 11
-19400.97766769209
 21
5535.35432516062
 31
0.0
 12
-19320.97766769209
 22
5548.687658493953
 32
0.0
 13
-19320.97766769209
 23
5548.687658493953
 33
0.0
  0
MTEXT
  5
11A01
330
1195B
100
AcDbEntity
  8
SUNPOU
 62
     0
100
AcDbMText
 10
-19480.97766769209
 20
5640.687658493953
 30
0.0
 40
120.0
 41
0.0
 71
     5
 72
     1
  1
\A1;80
 73
     1
 44
1.0
  0
POINT
  5
11A02
330
1195B
100
AcDbEntity
  8
DEFPOINTS
 62
     0
100
AcDbPoint
 10
-19640.97766769209
 20
6308.687658493953
 30
0.0
  0
POINT
  5
11A03
330
1195B
100
AcDbEntity
  8
DEFPOINTS
 62
     0
100
AcDbPoint
 10
-19320.97766769209
 20
5888.687658493953
 30
0.0
  0
POINT
  5
11A04
330
1195B
100
AcDbEntity
  8
DEFPOINTS
 62
     0
100
AcDbPoint
 10
-19320.97766769209
 20
5548.687658493953
 30
0.0
  0
ENDBLK
  5
11966
330
1195B
100
AcDbEntity
  8
0
100
AcDbBlockEnd
  0
BLOCK
  5
11973
330
11967
100
AcDbEntity
  8
0
100
AcDbBlockBegin
  2
*D27
 70
     1
 10
0.0
 20
0.0
 30
0.0
  3
*D27
  1

  0
LINE
  5
177B2
330
11967
100
AcDbEntity
  8
SUNPOU
370
    -2
100
AcDbLine
 10
-18913.20633963065
 20
6056.687658493953
 30
0.0
 11
-18553.20633963065
 21
6056.687658493953
 31
0.0
  0
LINE
  5
177B3
330
11967
100
AcDbEntity
  8
SUNPOU
370
    -2
100
AcDbLine
 10
-18913.20633963065
 20
6144.687658493953
 30
0.0
 11
-18553.20633963065
 21
6144.687658493953
 31
0.0
  0
LINE
  5
177B4
330
11967
100
AcDbEntity
  8
SUNPOU
 62
     0
370
    -2
100
AcDbLine
 10
-18593.20633963065
 20
6056.687658493953
 30
0.0
 11
-18593.20633963065
 21
5976.687658493953
 31
0.0
  0
LINE
  5
177B5
330
11967
100
AcDbEntity
  8
SUNPOU
 62
     0
370
    -2
100
AcDbLine
 10
-18593.20633963065
 20
6144.687658493953
 30
0.0
 11
-18593.20633963065
 21
6528.687658493953
 31
0.0
  0
LINE
  5
177B6
330
11967
100
AcDbEntity
  8
SUNPOU
 62
     0
370
    -2
100
AcDbLine
 10
-18593.20633963065
 20
6056.687658493953
 30
0.0
 11
-18593.20633963065
 21
6144.687658493953
 31
0.0
  0
INSERT
  5
177B7
330
11967
100
AcDbEntity
  8
SUNPOU
 62
     0
370
    -2
100
AcDbBlockReference
  2
_DotSmall
 10
-18593.20633963065
 20
6056.687658493953
 30
0.0
 41
80.0
 42
80.0
 43
80.0
 50
90.0
  0
INSERT
  5
177B8
330
11967
100
AcDbEntity
  8
SUNPOU
 62
     0
370
    -2
100
AcDbBlockReference
  2
_DotSmall
 10
-18593.20633963065
 20
6144.687658493953
 30
0.0
 41
80.0
 42
80.0
 43
80.0
 50
270.0
  0
MTEXT
  5
177B9
330
11967
100
AcDbEntity
  8
SUNPOU
 62
     0
100
AcDbMText
 10
-18685.20633963065
 20
6416.687658493949
 30
0.0
 40
120.0
 41
0.0
 71
     5
 72
     1
  1
\A1;22
 11
6.123031769111886E-17
 21
1.0
 31
0.0
 73
     1
 44
1.0
  0
POINT
  5
177BA
330
11967
100
AcDbEntity
  8
DEFPOINTS
 62
     0
100
AcDbPoint
 10
-18993.20633963065
 20
6056.687658493953
 30
0.0
  0
POINT
  5
177BB
330
11967
100
AcDbEntity
  8
DEFPOINTS
 62
     0
100
AcDbPoint
 10
-18993.20633963065
 20
6144.687658493953
 30
0.0
  0
POINT
  5
177BC
330
11967
100
AcDbEntity
  8
DEFPOINTS
 62
     0
100
AcDbPoint
 10
-18593.20633963065
 20
6144.687658493953
 30
0.0
  0
ENDBLK
  5
11974
330
11967
100
AcDbEntity
  8
0
100
AcDbBlockEnd
  0
BLOCK
  5
11981
330
11975
100
AcDbEntity
  8
0
100
AcDbBlockBegin
  2
*D28
 70
     1
 10
0.0
 20
0.0
 30
0.0
  3
*D28
  1

  0
LINE
  5
11A10
330
11975
100
AcDbEntity
  8
SUNPOU
370
    -2
100
AcDbLine
 10
-19005.20633963065
 20
6348.687658493953
 30
0.0
 11
-19005.20633963065
 21
6822.020991827287
 31
0.0
  0
LINE
  5
11A11
330
11975
100
AcDbEntity
  8
SUNPOU
370
    -2
100
AcDbLine
 10
-18993.20633963065
 20
6224.687658493953
 30
0.0
 11
-18993.20633963065
 21
6822.020991827287
 31
0.0
  0
LINE
  5
11A12
330
11975
100
AcDbEntity
  8
SUNPOU
 62
     0
370
    -2
100
AcDbLine
 10
-19085.20633963065
 20
6782.020991827287
 30
0.0
 11
-19165.20633963065
 21
6782.020991827287
 31
0.0
  0
LINE
  5
11A13
330
11975
100
AcDbEntity
  8
SUNPOU
 62
     0
370
    -2
100
AcDbLine
 10
-18913.20633963065
 20
6782.020991827287
 30
0.0
 11
-18833.20633963065
 21
6782.020991827287
 31
0.0
  0
MTEXT
  5
11A14
330
11975
100
AcDbEntity
  8
SUNPOU
 62
     0
100
AcDbMText
 10
-18903.6102479525
 20
6864.020991827287
 30
0.0
 40
120.0
 41
0.0
 71
     5
 72
     1
  1
\A1;3
 73
     1
 44
1.0
  0
LINE
  5
11A15
330
11975
100
AcDbEntity
  8
SUNPOU
 62
     0
370
    -2
100
AcDbLine
 10
-19005.20633963065
 20
6782.020991827287
 30
0.0
 11
-18993.20633963065
 21
6782.020991827287
 31
0.0
  0
SOLID
  5
11A16
330
11975
100
AcDbEntity
  8
SUNPOU
 62
     0
100
AcDbTrace
 10
-19085.20633963065
 20
6795.35432516062
 30
0.0
 11
-19085.20633963065
 21
6768.687658493954
 31
0.0
 12
-19005.20633963065
 22
6782.020991827287
 32
0.0
 13
-19005.20633963065
 23
6782.020991827287
 33
0.0
  0
SOLID
  5
11A17
330
11975
100
AcDbEntity
  8
SUNPOU
 62
     0
100
AcDbTrace
 10
-18913.20633963065
 20
6795.35432516062
 30
0.0
 11
-18913.20633963065
 21
6768.687658493954
 31
0.0
 12
-18993.20633963065
 22
6782.020991827287
 32
0.0
 13
-18993.20633963065
 23
6782.020991827287
 33
0.0
  0
POINT
  5
11A18
330
11975
100
AcDbEntity
  8
DEFPOINTS
 62
     0
100
AcDbPoint
 10
-19005.20633963065
 20
6268.687658493953
 30
0.0
  0
POINT
  5
11A19
330
11975
100
AcDbEntity
  8
DEFPOINTS
 62
     0
100
AcDbPoint
 10
-18993.20633963065
 20
6144.687658493953
 30
0.0
  0
POINT
  5
11A1A
330
11975
100
AcDbEntity
  8
DEFPOINTS
 62
     0
100
AcDbPoint
 10
-18993.20633963065
 20
6782.020991827287
 30
0.0
  0
ENDBLK
  5
11982
330
11975
100
AcDbEntity
  8
0
100
AcDbBlockEnd
  0
BLOCK
  5
1198F
330
11983
100
AcDbEntity
  8
0
100
AcDbBlockBegin
  2
*D29
 70
     1
 10
0.0
 20
0.0
 30
0.0
  3
*D29
  1

  0
LINE
  5
177C8
330
11983
100
AcDbEntity
  8
SUNPOU
370
    -2
100
AcDbLine
 10
-18925.20633963065
 20
5948.687658493953
 30
0.0
 11
-18553.20633963065
 21
5948.687658493953
 31
0.0
  0
LINE
  5
177C9
330
11983
100
AcDbEntity
  8
SUNPOU
370
    -2
100
AcDbLine
 10
-18885.20633963065
 20
5888.687658493953
 30
0.0
 11
-18553.20633963065
 21
5888.687658493953
 31
0.0
  0
LINE
  5
177CA
330
11983
100
AcDbEntity
  8
SUNPOU
 62
     0
370
    -2
100
AcDbLine
 10
-18593.20633963065
 20
5948.687658493953
 30
0.0
 11
-18593.20633963065
 21
6028.687658493953
 31
0.0
  0
LINE
  5
177CB
330
11983
100
AcDbEntity
  8
SUNPOU
 62
     0
370
    -2
100
AcDbLine
 10
-18593.20633963065
 20
5888.687658493953
 30
0.0
 11
-18593.20633963065
 21
5536.687658493953
 31
0.0
  0
LINE
  5
177CC
330
11983
100
AcDbEntity
  8
SUNPOU
 62
     0
370
    -2
100
AcDbLine
 10
-18593.20633963065
 20
5948.687658493953
 30
0.0
 11
-18593.20633963065
 21
5888.687658493953
 31
0.0
  0
INSERT
  5
177CD
330
11983
100
AcDbEntity
  8
SUNPOU
 62
     0
370
    -2
100
AcDbBlockReference
  2
_DotSmall
 10
-18593.20633963065
 20
5948.687658493953
 30
0.0
 41
80.0
 42
80.0
 43
80.0
 50
270.0
  0
INSERT
  5
177CE
330
11983
100
AcDbEntity
  8
SUNPOU
 62
     0
370
    -2
100
AcDbBlockReference
  2
_DotSmall
 10
-18593.20633963065
 20
5888.687658493953
 30
0.0
 41
80.0
 42
80.0
 43
80.0
 50
90.0
  0
MTEXT
  5
177CF
330
11983
100
AcDbEntity
  8
SUNPOU
 62
     0
100
AcDbMText
 10
-18685.20633963065
 20
5632.687658493949
 30
0.0
 40
120.0
 41
0.0
 71
     5
 72
     1
  1
\A1;15
 11
6.123031769111886E-17
 21
1.0
 31
0.0
 73
     1
 44
1.0
  0
POINT
  5
177D0
330
11983
100
AcDbEntity
  8
DEFPOINTS
 62
     0
100
AcDbPoint
 10
-19005.20633963065
 20
5948.687658493953
 30
0.0
  0
POINT
  5
177D1
330
11983
100
AcDbEntity
  8
DEFPOINTS
 62
     0
100
AcDbPoint
 10
-18965.20633963065
 20
5888.687658493953
 30
0.0
  0
POINT
  5
177D2
330
11983
100
AcDbEntity
  8
DEFPOINTS
 62
     0
100
AcDbPoint
 10
-18593.20633963065
 20
5888.687658493953
 30
0.0
  0
ENDBLK
  5
11990
330
11983
100
AcDbEntity
  8
0
100
AcDbBlockEnd
  0
BLOCK
  5
1199D
330
11991
100
AcDbEntity
  8
0
100
AcDbBlockBegin
  2
*D30
 70
     1
 10
0.0
 20
0.0
 30
0.0
  3
*D30
  1

  0
LINE
  5
177BD
330
11991
100
AcDbEntity
  8
SUNPOU
370
    -2
100
AcDbLine
 10
-18925.20633963065
 20
5948.687658493953
 30
0.0
 11
-18553.20633963065
 21
5948.687658493953
 31
0.0
  0
LINE
  5
177BE
330
11991
100
AcDbEntity
  8
SUNPOU
370
    -2
100
AcDbLine
 10
-18913.20633963065
 20
6056.687658493953
 30
0.0
 11
-18553.20633963065
 21
6056.687658493953
 31
0.0
  0
LINE
  5
177BF
330
11991
100
AcDbEntity
  8
SUNPOU
 62
     0
370
    -2
100
AcDbLine
 10
-18593.20633963065
 20
5948.687658493953
 30
0.0
 11
-18593.20633963065
 21
5868.687658493953
 31
0.0
  0
LINE
  5
177C0
330
11991
100
AcDbEntity
  8
SUNPOU
 62
     0
370
    -2
100
AcDbLine
 10
-18593.20633963065
 20
6056.687658493953
 30
0.0
 11
-18593.20633963065
 21
6136.687658493953
 31
0.0
  0
LINE
  5
177C1
330
11991
100
AcDbEntity
  8
SUNPOU
 62
     0
370
    -2
100
AcDbLine
 10
-18593.20633963065
 20
5948.687658493953
 30
0.0
 11
-18593.20633963065
 21
6056.687658493953
 31
0.0
  0
INSERT
  5
177C2
330
11991
100
AcDbEntity
  8
SUNPOU
 62
     0
370
    -2
100
AcDbBlockReference
  2
_DotSmall
 10
-18593.20633963065
 20
5948.687658493953
 30
0.0
 41
80.0
 42
80.0
 43
80.0
 50
90.0
  0
INSERT
  5
177C3
330
11991
100
AcDbEntity
  8
SUNPOU
 62
     0
370
    -2
100
AcDbBlockReference
  2
_DotSmall
 10
-18593.20633963065
 20
6056.687658493953
 30
0.0
 41
80.0
 42
80.0
 43
80.0
 50
270.0
  0
MTEXT
  5
177C4
330
11991
100
AcDbEntity
  8
SUNPOU
 62
     0
100
AcDbMText
 10
-18685.20633963065
 20
6002.687658493949
 30
0.0
 40
120.0
 41
0.0
 71
     5
 72
     1
  1
\A1;27
 11
6.123031769111886E-17
 21
1.0
 31
0.0
 73
     1
 44
1.0
  0
POINT
  5
177C5
330
11991
100
AcDbEntity
  8
DEFPOINTS
 62
     0
100
AcDbPoint
 10
-19005.20633963065
 20
5948.687658493953
 30
0.0
  0
POINT
  5
177C6
330
11991
100
AcDbEntity
  8
DEFPOINTS
 62
     0
100
AcDbPoint
 10
-18993.20633963065
 20
6056.687658493953
 30
0.0
  0
POINT
  5
177C7
330
11991
100
AcDbEntity
  8
DEFPOINTS
 62
     0
100
AcDbPoint
 10
-18593.20633963065
 20
6056.687658493953
 30
0.0
  0
ENDBLK
  5
1199E
330
11991
100
AcDbEntity
  8
0
100
AcDbBlockEnd
  0
BLOCK
  5
119AB
330
1199F
100
AcDbEntity
  8
0
100
AcDbBlockBegin
  2
*D31
 70
     1
 10
0.0
 20
0.0
 30
0.0
  3
*D31
  1

  0
LINE
  5
12456
330
1199F
100
AcDbEntity
  8
SUNPOU
370
    -2
100
AcDbLine
 10
-19005.20633963065
 20
5868.687658493953
 30
0.0
 11
-19005.20633963065
 21
5155.519925937917
 31
0.0
  0
LINE
  5
12457
330
1199F
100
AcDbEntity
  8
SUNPOU
370
    -2
100
AcDbLine
 10
-18957.20633963065
 20
5848.687658493953
 30
0.0
 11
-18957.20633963065
 21
5155.519925937917
 31
0.0
  0
LINE
  5
12458
330
1199F
100
AcDbEntity
  8
SUNPOU
 62
     0
370
    -2
100
AcDbLine
 10
-19085.20633963065
 20
5195.519925937917
 30
0.0
 11
-19165.20633963065
 21
5195.519925937917
 31
0.0
  0
LINE
  5
12459
330
1199F
100
AcDbEntity
  8
SUNPOU
 62
     0
370
    -2
100
AcDbLine
 10
-18877.20633963065
 20
5195.519925937917
 30
0.0
 11
-18605.20633963065
 21
5195.519925937917
 31
0.0
  0
LINE
  5
1245A
330
1199F
100
AcDbEntity
  8
SUNPOU
 62
     0
370
    -2
100
AcDbLine
 10
-19005.20633963065
 20
5195.519925937917
 30
0.0
 11
-18957.20633963065
 21
5195.519925937917
 31
0.0
  0
SOLID
  5
1245B
330
1199F
100
AcDbEntity
  8
SUNPOU
 62
     0
100
AcDbTrace
 10
-19085.20633963065
 20
5208.85325927125
 30
0.0
 11
-19085.20633963065
 21
5182.186592604584
 31
0.0
 12
-19005.20633963065
 22
5195.519925937917
 32
0.0
 13
-19005.20633963065
 23
5195.519925937917
 33
0.0
  0
SOLID
  5
1245C
330
1199F
100
AcDbEntity
  8
SUNPOU
 62
     0
100
AcDbTrace
 10
-18877.20633963065
 20
5208.85325927125
 30
0.0
 11
-18877.20633963065
 21
5182.186592604584
 31
0.0
 12
-18957.20633963065
 22
5195.519925937917
 32
0.0
 13
-18957.20633963065
 23
5195.519925937917
 33
0.0
  0
MTEXT
  5
1245D
330
1199F
100
AcDbEntity
  8
SUNPOU
 62
     0
100
AcDbMText
 10
-18701.20633963065
 20
5287.519925937917
 30
0.0
 40
120.0
 41
0.0
 71
     5
 72
     1
  1
\A1;12
 73
     1
 44
1.0
  0
POINT
  5
1245E
330
1199F
100
AcDbEntity
  8
DEFPOINTS
 62
     0
100
AcDbPoint
 10
-19005.20633963065
 20
5948.687658493953
 30
0.0
  0
POINT
  5
1245F
330
1199F
100
AcDbEntity
  8
DEFPOINTS
 62
     0
100
AcDbPoint
 10
-18957.20633963065
 20
5928.687658493953
 30
0.0
  0
POINT
  5
12460
330
1199F
100
AcDbEntity
  8
DEFPOINTS
 62
     0
100
AcDbPoint
 10
-18957.20633963065
 20
5195.519925937917
 30
0.0
  0
ENDBLK
  5
119AC
330
1199F
100
AcDbEntity
  8
0
100
AcDbBlockEnd
  0
BLOCK
  5
119B7
330
119AD
100
AcDbEntity
  8
0
100
AcDbBlockBegin
  2
*D32
 70
     1
 10
0.0
 20
0.0
 30
0.0
  3
*D32
  1

  0
LINE
  5
11A3C
330
119AD
100
AcDbEntity
  8
SUNPOU
370
    -2
100
AcDbLine
 10
-19005.20633963065
 20
6348.687658493953
 30
0.0
 11
-19005.20633963065
 21
7062.5371640308
 31
0.0
  0
LINE
  5
11A3D
330
119AD
100
AcDbEntity
  8
SUNPOU
370
    -2
100
AcDbLine
 10
-19325.20633963065
 20
6768.687658493953
 30
0.0
 11
-19325.20633963065
 21
7062.5371640308
 31
0.0
  0
LINE
  5
11A3E
330
119AD
100
AcDbEntity
  8
SUNPOU
 62
     0
370
    -2
100
AcDbLine
 10
-19085.20633963065
 20
7022.5371640308
 30
0.0
 11
-19245.20633963065
 21
7022.5371640308
 31
0.0
  0
SOLID
  5
11A3F
330
119AD
100
AcDbEntity
  8
SUNPOU
 62
     0
100
AcDbTrace
 10
-19085.20633963065
 20
7035.870497364133
 30
0.0
 11
-19085.20633963065
 21
7009.203830697467
 31
0.0
 12
-19005.20633963065
 22
7022.5371640308
 32
0.0
 13
-19005.20633963065
 23
7022.5371640308
 33
0.0
  0
SOLID
  5
11A40
330
119AD
100
AcDbEntity
  8
SUNPOU
 62
     0
100
AcDbTrace
 10
-19245.20633963065
 20
7035.870497364133
 30
0.0
 11
-19245.20633963065
 21
7009.203830697467
 31
0.0
 12
-19325.20633963065
 22
7022.5371640308
 32
0.0
 13
-19325.20633963065
 23
7022.5371640308
 33
0.0
  0
MTEXT
  5
11A41
330
119AD
100
AcDbEntity
  8
SUNPOU
 62
     0
100
AcDbMText
 10
-19165.20633963065
 20
7114.5371640308
 30
0.0
 40
120.0
 41
0.0
 71
     5
 72
     1
  1
\A1;80
 73
     1
 44
1.0
  0
POINT
  5
11A42
330
119AD
100
AcDbEntity
  8
DEFPOINTS
 62
     0
100
AcDbPoint
 10
-19005.20633963065
 20
6268.687658493953
 30
0.0
  0
POINT
  5
11A43
330
119AD
100
AcDbEntity
  8
DEFPOINTS
 62
     0
100
AcDbPoint
 10
-19325.20633963065
 20
6688.687658493953
 30
0.0
  0
POINT
  5
11A44
330
119AD
100
AcDbEntity
  8
DEFPOINTS
 62
     0
100
AcDbPoint
 10
-19325.20633963065
 20
7022.5371640308
 30
0.0
  0
ENDBLK
  5
119B8
330
119AD
100
AcDbEntity
  8
0
100
AcDbBlockEnd
  0
BLOCK
  5
1235E
330
12352
100
AcDbEntity
  8
0
100
AcDbBlockBegin
  2
*D33
 70
     1
 10
0.0
 20
0.0
 30
0.0
  3
*D33
  1

  0
LINE
  5
175AD
330
12352
100
AcDbEntity
  8
SUNPOU
370
    -2
100
AcDbLine
 10
-27392.51160208319
 20
3724.049253714657
 30
0.0
 11
-27392.51160208319
 21
3223.040342463102
 31
0.0
  0
LINE
  5
175AE
330
12352
100
AcDbEntity
  8
SUNPOU
370
    -2
100
AcDbLine
 10
-27192.51160208319
 20
3724.049253714657
 30
0.0
 11
-27192.51160208319
 21
3223.040342463102
 31
0.0
  0
LINE
  5
175AF
330
12352
100
AcDbEntity
  8
SUNPOU
 62
     0
370
    -2
100
AcDbLine
 10
-27472.51160208319
 20
3263.040342463102
 30
0.0
 11
-27552.51160208319
 21
3263.040342463102
 31
0.0
  0
LINE
  5
175B0
330
12352
100
AcDbEntity
  8
SUNPOU
 62
     0
370
    -2
100
AcDbLine
 10
-27112.51160208319
 20
3263.040342463102
 30
0.0
 11
-27032.51160208319
 21
3263.040342463102
 31
0.0
  0
LINE
  5
175B1
330
12352
100
AcDbEntity
  8
SUNPOU
 62
     0
370
    -2
100
AcDbLine
 10
-27392.51160208319
 20
3263.040342463102
 30
0.0
 11
-27192.51160208319
 21
3263.040342463102
 31
0.0
  0
SOLID
  5
175B2
330
12352
100
AcDbEntity
  8
SUNPOU
 62
     0
100
AcDbTrace
 10
-27472.51160208319
 20
3276.373675796435
 30
0.0
 11
-27472.51160208319
 21
3249.707009129768
 31
0.0
 12
-27392.51160208319
 22
3263.040342463102
 32
0.0
 13
-27392.51160208319
 23
3263.040342463102
 33
0.0
  0
SOLID
  5
175B3
330
12352
100
AcDbEntity
  8
SUNPOU
 62
     0
100
AcDbTrace
 10
-27112.51160208319
 20
3276.373675796435
 30
0.0
 11
-27112.51160208319
 21
3249.707009129768
 31
0.0
 12
-27192.51160208319
 22
3263.040342463102
 32
0.0
 13
-27192.51160208319
 23
3263.040342463102
 33
0.0
  0
MTEXT
  5
175B4
330
12352
100
AcDbEntity
  8
SUNPOU
 62
     0
100
AcDbMText
 10
-27292.51160208319
 20
3355.040342463102
 30
0.0
 40
120.0
 41
0.0
 71
     5
 72
     1
  1
\A1;200
 73
     1
 44
1.0
  0
POINT
  5
175B5
330
12352
100
AcDbEntity
  8
DEFPOINTS
 62
     0
100
AcDbPoint
 10
-27392.51160208319
 20
3804.049253714657
 30
0.0
  0
POINT
  5
175B6
330
12352
100
AcDbEntity
  8
DEFPOINTS
 62
     0
100
AcDbPoint
 10
-27192.51160208319
 20
3804.049253714657
 30
0.0
  0
POINT
  5
175B7
330
12352
100
AcDbEntity
  8
DEFPOINTS
 62
     0
100
AcDbPoint
 10
-27192.51160208319
 20
3263.040342463102
 30
0.0
  0
ENDBLK
  5
1235F
330
12352
100
AcDbEntity
  8
0
100
AcDbBlockEnd
  0
BLOCK
  5
1236A
330
12360
100
AcDbEntity
  8
0
100
AcDbBlockBegin
  2
*D34
 70
     1
 10
0.0
 20
0.0
 30
0.0
  3
*D34
  1

  0
LINE
  5
175CE
330
12360
100
AcDbEntity
  8
SUNPOU
370
    -2
100
AcDbLine
 10
-27392.51160208319
 20
3724.049253714657
 30
0.0
 11
-27392.51160208319
 21
3225.202504625264
 31
0.0
  0
LINE
  5
175CF
330
12360
100
AcDbEntity
  8
SUNPOU
370
    -2
100
AcDbLine
 10
-30192.51160208317
 20
3724.049253714657
 30
0.0
 11
-30192.51160208317
 21
3225.202504625264
 31
0.0
  0
LINE
  5
175D0
330
12360
100
AcDbEntity
  8
SUNPOU
 62
     0
370
    -2
100
AcDbLine
 10
-27472.51160208319
 20
3265.202504625264
 30
0.0
 11
-30112.51160208317
 21
3265.202504625264
 31
0.0
  0
SOLID
  5
175D1
330
12360
100
AcDbEntity
  8
SUNPOU
 62
     0
100
AcDbTrace
 10
-27472.51160208319
 20
3278.535837958597
 30
0.0
 11
-27472.51160208319
 21
3251.86917129193
 31
0.0
 12
-27392.51160208319
 22
3265.202504625264
 32
0.0
 13
-27392.51160208319
 23
3265.202504625264
 33
0.0
  0
SOLID
  5
175D2
330
12360
100
AcDbEntity
  8
SUNPOU
 62
     0
100
AcDbTrace
 10
-30112.51160208317
 20
3278.535837958597
 30
0.0
 11
-30112.51160208317
 21
3251.86917129193
 31
0.0
 12
-30192.51160208317
 22
3265.202504625264
 32
0.0
 13
-30192.51160208317
 23
3265.202504625264
 33
0.0
  0
MTEXT
  5
175D3
330
12360
100
AcDbEntity
  8
SUNPOU
 62
     0
100
AcDbMText
 10
-28792.51160208318
 20
3357.202504625264
 30
0.0
 40
120.0
 41
0.0
 71
     5
 72
     1
  1
\A1;2800
 73
     1
 44
1.0
  0
POINT
  5
175D4
330
12360
100
AcDbEntity
  8
DEFPOINTS
 62
     0
100
AcDbPoint
 10
-27392.51160208319
 20
3804.049253714657
 30
0.0
  0
POINT
  5
175D5
330
12360
100
AcDbEntity
  8
DEFPOINTS
 62
     0
100
AcDbPoint
 10
-30192.51160208317
 20
3804.049253714657
 30
0.0
  0
POINT
  5
175D6
330
12360
100
AcDbEntity
  8
DEFPOINTS
 62
     0
100
AcDbPoint
 10
-30192.51160208317
 20
3265.202504625264
 30
0.0
  0
ENDBLK
  5
1236B
330
12360
100
AcDbEntity
  8
0
100
AcDbBlockEnd
  0
BLOCK
  5
12376
330
1236C
100
AcDbEntity
  8
0
100
AcDbBlockBegin
  2
*D35
 70
     1
 10
0.0
 20
0.0
 30
0.0
  3
*D35
  1

  0
LINE
  5
175D7
330
1236C
100
AcDbEntity
  8
SUNPOU
370
    -2
100
AcDbLine
 10
-30392.51160208319
 20
3724.049253714657
 30
0.0
 11
-30392.51160208319
 21
2945.202504625264
 31
0.0
  0
LINE
  5
175D8
330
1236C
100
AcDbEntity
  8
SUNPOU
370
    -2
100
AcDbLine
 10
-27192.51160208319
 20
3724.049253714657
 30
0.0
 11
-27192.51160208319
 21
2945.202504625264
 31
0.0
  0
LINE
  5
175D9
330
1236C
100
AcDbEntity
  8
SUNPOU
 62
     0
370
    -2
100
AcDbLine
 10
-30312.51160208319
 20
2985.202504625264
 30
0.0
 11
-27272.51160208319
 21
2985.202504625264
 31
0.0
  0
SOLID
  5
175DA
330
1236C
100
AcDbEntity
  8
SUNPOU
 62
     0
100
AcDbTrace
 10
-30312.51160208319
 20
2998.535837958597
 30
0.0
 11
-30312.51160208319
 21
2971.86917129193
 31
0.0
 12
-30392.51160208319
 22
2985.202504625264
 32
0.0
 13
-30392.51160208319
 23
2985.202504625264
 33
0.0
  0
SOLID
  5
175DB
330
1236C
100
AcDbEntity
  8
SUNPOU
 62
     0
100
AcDbTrace
 10
-27272.51160208319
 20
2998.535837958597
 30
0.0
 11
-27272.51160208319
 21
2971.86917129193
 31
0.0
 12
-27192.51160208319
 22
2985.202504625264
 32
0.0
 13
-27192.51160208319
 23
2985.202504625264
 33
0.0
  0
MTEXT
  5
175DC
330
1236C
100
AcDbEntity
  8
SUNPOU
 62
     0
100
AcDbMText
 10
-28792.51160208319
 20
3077.202504625264
 30
0.0
 40
120.0
 41
0.0
 71
     5
 72
     1
  1
\A1;3200
 73
     1
 44
1.0
  0
POINT
  5
175DD
330
1236C
100
AcDbEntity
  8
DEFPOINTS
 62
     0
100
AcDbPoint
 10
-30392.51160208319
 20
3804.049253714657
 30
0.0
  0
POINT
  5
175DE
330
1236C
100
AcDbEntity
  8
DEFPOINTS
 62
     0
100
AcDbPoint
 10
-27192.51160208319
 20
3804.049253714657
 30
0.0
  0
POINT
  5
175DF
330
1236C
100
AcDbEntity
  8
DEFPOINTS
 62
     0
100
AcDbPoint
 10
-27192.51160208319
 20
2985.202504625264
 30
0.0
  0
ENDBLK
  5
12377
330
1236C
100
AcDbEntity
  8
0
100
AcDbBlockEnd
  0
BLOCK
  5
12384
330
12378
100
AcDbEntity
  8
0
100
AcDbBlockBegin
  2
*D36
 70
     1
 10
0.0
 20
0.0
 30
0.0
  3
*D36
  1

  0
LINE
  5
175C3
330
12378
100
AcDbEntity
  8
SUNPOU
370
    -2
100
AcDbLine
 10
-30392.51160208319
 20
3724.049253714657
 30
0.0
 11
-30392.51160208319
 21
3225.202504625264
 31
0.0
  0
LINE
  5
175C4
330
12378
100
AcDbEntity
  8
SUNPOU
370
    -2
100
AcDbLine
 10
-30192.51160208317
 20
3724.049253714657
 30
0.0
 11
-30192.51160208317
 21
3225.202504625264
 31
0.0
  0
LINE
  5
175C5
330
12378
100
AcDbEntity
  8
SUNPOU
 62
     0
370
    -2
100
AcDbLine
 10
-30472.51160208319
 20
3265.202504625264
 30
0.0
 11
-30552.51160208319
 21
3265.202504625264
 31
0.0
  0
LINE
  5
175C6
330
12378
100
AcDbEntity
  8
SUNPOU
 62
     0
370
    -2
100
AcDbLine
 10
-30112.51160208317
 20
3265.202504625264
 30
0.0
 11
-30032.51160208317
 21
3265.202504625264
 31
0.0
  0
LINE
  5
175C7
330
12378
100
AcDbEntity
  8
SUNPOU
 62
     0
370
    -2
100
AcDbLine
 10
-30392.51160208319
 20
3265.202504625264
 30
0.0
 11
-30192.51160208317
 21
3265.202504625264
 31
0.0
  0
SOLID
  5
175C8
330
12378
100
AcDbEntity
  8
SUNPOU
 62
     0
100
AcDbTrace
 10
-30472.51160208319
 20
3278.535837958597
 30
0.0
 11
-30472.51160208319
 21
3251.86917129193
 31
0.0
 12
-30392.51160208319
 22
3265.202504625264
 32
0.0
 13
-30392.51160208319
 23
3265.202504625264
 33
0.0
  0
SOLID
  5
175C9
330
12378
100
AcDbEntity
  8
SUNPOU
 62
     0
100
AcDbTrace
 10
-30112.51160208317
 20
3278.535837958597
 30
0.0
 11
-30112.51160208317
 21
3251.86917129193
 31
0.0
 12
-30192.51160208317
 22
3265.202504625264
 32
0.0
 13
-30192.51160208317
 23
3265.202504625264
 33
0.0
  0
MTEXT
  5
175CA
330
12378
100
AcDbEntity
  8
SUNPOU
 62
     0
100
AcDbMText
 10
-30292.51160208318
 20
3357.202504625264
 30
0.0
 40
120.0
 41
0.0
 71
     5
 72
     1
  1
\A1;200
 73
     1
 44
1.0
  0
POINT
  5
175CB
330
12378
100
AcDbEntity
  8
DEFPOINTS
 62
     0
100
AcDbPoint
 10
-30392.51160208319
 20
3804.049253714657
 30
0.0
  0
POINT
  5
175CC
330
12378
100
AcDbEntity
  8
DEFPOINTS
 62
     0
100
AcDbPoint
 10
-30192.51160208317
 20
3804.049253714657
 30
0.0
  0
POINT
  5
175CD
330
12378
100
AcDbEntity
  8
DEFPOINTS
 62
     0
100
AcDbPoint
 10
-30192.51160208317
 20
3265.202504625264
 30
0.0
  0
ENDBLK
  5
12385
330
12378
100
AcDbEntity
  8
0
100
AcDbBlockEnd
  0
BLOCK
  5
12390
330
12386
100
AcDbEntity
  8
0
100
AcDbBlockBegin
  2
*D37
 70
     1
 10
0.0
 20
0.0
 30
0.0
  3
*D37
  1

  0
LINE
  5
1761C
330
12386
100
AcDbEntity
  8
SUNPOU
370
    -2
100
AcDbLine
 10
-24458.92327040974
 20
3724.049253714657
 30
0.0
 11
-24458.92327040974
 21
2945.202504625264
 31
0.0
  0
LINE
  5
1761D
330
12386
100
AcDbEntity
  8
SUNPOU
370
    -2
100
AcDbLine
 10
-22378.92327040974
 20
3724.04925371466
 30
0.0
 11
-22378.92327040974
 21
2945.202504625264
 31
0.0
  0
LINE
  5
1761E
330
12386
100
AcDbEntity
  8
SUNPOU
 62
     0
370
    -2
100
AcDbLine
 10
-24378.92327040974
 20
2985.202504625264
 30
0.0
 11
-22458.92327040974
 21
2985.202504625264
 31
0.0
  0
SOLID
  5
1761F
330
12386
100
AcDbEntity
  8
SUNPOU
 62
     0
100
AcDbTrace
 10
-24378.92327040974
 20
2998.535837958597
 30
0.0
 11
-24378.92327040974
 21
2971.86917129193
 31
0.0
 12
-24458.92327040974
 22
2985.202504625264
 32
0.0
 13
-24458.92327040974
 23
2985.202504625264
 33
0.0
  0
SOLID
  5
17620
330
12386
100
AcDbEntity
  8
SUNPOU
 62
     0
100
AcDbTrace
 10
-22458.92327040974
 20
2998.535837958597
 30
0.0
 11
-22458.92327040974
 21
2971.86917129193
 31
0.0
 12
-22378.92327040974
 22
2985.202504625264
 32
0.0
 13
-22378.92327040974
 23
2985.202504625264
 33
0.0
  0
MTEXT
  5
17621
330
12386
100
AcDbEntity
  8
SUNPOU
 62
     0
100
AcDbMText
 10
-23418.92327040974
 20
3077.202504625264
 30
0.0
 40
120.0
 41
0.0
 71
     5
 72
     1
  1
\A1;2080
 73
     1
 44
1.0
  0
POINT
  5
17622
330
12386
100
AcDbEntity
  8
DEFPOINTS
 62
     0
100
AcDbPoint
 10
-24458.92327040974
 20
3804.049253714657
 30
0.0
  0
POINT
  5
17623
330
12386
100
AcDbEntity
  8
DEFPOINTS
 62
     0
100
AcDbPoint
 10
-22378.92327040974
 20
3804.04925371466
 30
0.0
  0
POINT
  5
17624
330
12386
100
AcDbEntity
  8
DEFPOINTS
 62
     0
100
AcDbPoint
 10
-22378.92327040974
 20
2985.202504625264
 30
0.0
  0
ENDBLK
  5
12391
330
12386
100
AcDbEntity
  8
0
100
AcDbBlockEnd
  0
BLOCK
  5
1239C
330
12392
100
AcDbEntity
  8
0
100
AcDbBlockBegin
  2
*D38
 70
     1
 10
0.0
 20
0.0
 30
0.0
  3
*D38
  1

  0
LINE
  5
17613
330
12392
100
AcDbEntity
  8
SUNPOU
370
    -2
100
AcDbLine
 10
-24458.92327040974
 20
3724.04925371466
 30
0.0
 11
-24458.92327040974
 21
3223.040342463102
 31
0.0
  0
LINE
  5
17614
330
12392
100
AcDbEntity
  8
SUNPOU
370
    -2
100
AcDbLine
 10
-22458.92327040974
 20
3724.04925371466
 30
0.0
 11
-22458.92327040974
 21
3223.040342463102
 31
0.0
  0
LINE
  5
17615
330
12392
100
AcDbEntity
  8
SUNPOU
 62
     0
370
    -2
100
AcDbLine
 10
-24378.92327040974
 20
3263.040342463102
 30
0.0
 11
-22538.92327040974
 21
3263.040342463102
 31
0.0
  0
SOLID
  5
17616
330
12392
100
AcDbEntity
  8
SUNPOU
 62
     0
100
AcDbTrace
 10
-24378.92327040974
 20
3276.373675796435
 30
0.0
 11
-24378.92327040974
 21
3249.707009129768
 31
0.0
 12
-24458.92327040974
 22
3263.040342463102
 32
0.0
 13
-24458.92327040974
 23
3263.040342463102
 33
0.0
  0
SOLID
  5
17617
330
12392
100
AcDbEntity
  8
SUNPOU
 62
     0
100
AcDbTrace
 10
-22538.92327040974
 20
3276.373675796435
 30
0.0
 11
-22538.92327040974
 21
3249.707009129768
 31
0.0
 12
-22458.92327040974
 22
3263.040342463102
 32
0.0
 13
-22458.92327040974
 23
3263.040342463102
 33
0.0
  0
MTEXT
  5
17618
330
12392
100
AcDbEntity
  8
SUNPOU
 62
     0
100
AcDbMText
 10
-23458.92327040974
 20
3355.040342463102
 30
0.0
 40
120.0
 41
0.0
 71
     5
 72
     1
  1
\A1;2000
 73
     1
 44
1.0
  0
POINT
  5
17619
330
12392
100
AcDbEntity
  8
DEFPOINTS
 62
     0
100
AcDbPoint
 10
-24458.92327040974
 20
3804.04925371466
 30
0.0
  0
POINT
  5
1761A
330
12392
100
AcDbEntity
  8
DEFPOINTS
 62
     0
100
AcDbPoint
 10
-22458.92327040974
 20
3804.04925371466
 30
0.0
  0
POINT
  5
1761B
330
12392
100
AcDbEntity
  8
DEFPOINTS
 62
     0
100
AcDbPoint
 10
-22458.92327040974
 20
3263.040342463102
 30
0.0
  0
ENDBLK
  5
1239D
330
12392
100
AcDbEntity
  8
0
100
AcDbBlockEnd
  0
BLOCK
  5
123AA
330
1239E
100
AcDbEntity
  8
0
100
AcDbBlockBegin
  2
*D39
 70
     1
 10
0.0
 20
0.0
 30
0.0
  3
*D39
  1

  0
LINE
  5
17630
330
1239E
100
AcDbEntity
  8
SUNPOU
370
    -2
100
AcDbLine
 10
-24458.92327040974
 20
3724.049253714657
 30
0.0
 11
-24458.92327040974
 21
3503.040342463102
 31
0.0
  0
LINE
  5
17631
330
1239E
100
AcDbEntity
  8
SUNPOU
370
    -2
100
AcDbLine
 10
-24378.92327040974
 20
3724.04925371466
 30
0.0
 11
-24378.92327040974
 21
3503.040342463102
 31
0.0
  0
LINE
  5
17632
330
1239E
100
AcDbEntity
  8
SUNPOU
 62
     0
370
    -2
100
AcDbLine
 10
-24538.92327040974
 20
3543.040342463102
 30
0.0
 11
-24618.92327040974
 21
3543.040342463102
 31
0.0
  0
LINE
  5
17633
330
1239E
100
AcDbEntity
  8
SUNPOU
 62
     0
370
    -2
100
AcDbLine
 10
-24298.92327040974
 20
3543.040342463102
 30
0.0
 11
-24010.92327040974
 21
3543.040342463102
 31
0.0
  0
LINE
  5
17634
330
1239E
100
AcDbEntity
  8
SUNPOU
 62
     0
370
    -2
100
AcDbLine
 10
-24458.92327040974
 20
3543.040342463102
 30
0.0
 11
-24378.92327040974
 21
3543.040342463102
 31
0.0
  0
SOLID
  5
17635
330
1239E
100
AcDbEntity
  8
SUNPOU
 62
     0
100
AcDbTrace
 10
-24538.92327040974
 20
3556.373675796435
 30
0.0
 11
-24538.92327040974
 21
3529.707009129768
 31
0.0
 12
-24458.92327040974
 22
3543.040342463102
 32
0.0
 13
-24458.92327040974
 23
3543.040342463102
 33
0.0
  0
SOLID
  5
17636
330
1239E
100
AcDbEntity
  8
SUNPOU
 62
     0
100
AcDbTrace
 10
-24298.92327040974
 20
3556.373675796435
 30
0.0
 11
-24298.92327040974
 21
3529.707009129768
 31
0.0
 12
-24378.92327040974
 22
3543.040342463102
 32
0.0
 13
-24378.92327040974
 23
3543.040342463102
 33
0.0
  0
MTEXT
  5
17637
330
1239E
100
AcDbEntity
  8
SUNPOU
 62
     0
100
AcDbMText
 10
-24114.92327040974
 20
3635.040342463102
 30
0.0
 40
120.0
 41
0.0
 71
     5
 72
     1
  1
\A1;80
 73
     1
 44
1.0
  0
POINT
  5
17638
330
1239E
100
AcDbEntity
  8
DEFPOINTS
 62
     0
100
AcDbPoint
 10
-24458.92327040974
 20
3804.049253714657
 30
0.0
  0
POINT
  5
17639
330
1239E
100
AcDbEntity
  8
DEFPOINTS
 62
     0
100
AcDbPoint
 10
-24378.92327040974
 20
3804.04925371466
 30
0.0
  0
POINT
  5
1763A
330
1239E
100
AcDbEntity
  8
DEFPOINTS
 62
     0
100
AcDbPoint
 10
-24378.92327040974
 20
3543.040342463102
 30
0.0
  0
ENDBLK
  5
123AB
330
1239E
100
AcDbEntity
  8
0
100
AcDbBlockEnd
  0
BLOCK
  5
123B8
330
123AC
100
AcDbEntity
  8
0
100
AcDbBlockBegin
  2
*D40
 70
     1
 10
0.0
 20
0.0
 30
0.0
  3
*D40
  1

  0
LINE
  5
17646
330
123AC
100
AcDbEntity
  8
SUNPOU
370
    -2
100
AcDbLine
 10
-22458.92327040974
 20
3724.04925371466
 30
0.0
 11
-22458.92327040974
 21
3223.040342463102
 31
0.0
  0
LINE
  5
17647
330
123AC
100
AcDbEntity
  8
SUNPOU
370
    -2
100
AcDbLine
 10
-22378.92327040974
 20
3724.04925371466
 30
0.0
 11
-22378.92327040974
 21
3223.040342463102
 31
0.0
  0
LINE
  5
17648
330
123AC
100
AcDbEntity
  8
SUNPOU
 62
     0
370
    -2
100
AcDbLine
 10
-22538.92327040974
 20
3263.040342463102
 30
0.0
 11
-22618.92327040974
 21
3263.040342463102
 31
0.0
  0
LINE
  5
17649
330
123AC
100
AcDbEntity
  8
SUNPOU
 62
     0
370
    -2
100
AcDbLine
 10
-22298.92327040974
 20
3263.040342463102
 30
0.0
 11
-21997.62597311244
 21
3263.040342463102
 31
0.0
  0
LINE
  5
1764A
330
123AC
100
AcDbEntity
  8
SUNPOU
 62
     0
370
    -2
100
AcDbLine
 10
-22458.92327040974
 20
3263.040342463102
 30
0.0
 11
-22378.92327040974
 21
3263.040342463102
 31
0.0
  0
SOLID
  5
1764B
330
123AC
100
AcDbEntity
  8
SUNPOU
 62
     0
100
AcDbTrace
 10
-22538.92327040974
 20
3276.373675796435
 30
0.0
 11
-22538.92327040974
 21
3249.707009129768
 31
0.0
 12
-22458.92327040974
 22
3263.040342463102
 32
0.0
 13
-22458.92327040974
 23
3263.040342463102
 33
0.0
  0
SOLID
  5
1764C
330
123AC
100
AcDbEntity
  8
SUNPOU
 62
     0
100
AcDbTrace
 10
-22298.92327040974
 20
3276.373675796435
 30
0.0
 11
-22298.92327040974
 21
3249.707009129768
 31
0.0
 12
-22378.92327040974
 22
3263.040342463102
 32
0.0
 13
-22378.92327040974
 23
3263.040342463102
 33
0.0
  0
MTEXT
  5
1764D
330
123AC
100
AcDbEntity
  8
SUNPOU
 62
     0
100
AcDbMText
 10
-22101.62597311244
 20
3355.040342463102
 30
0.0
 40
120.0
 41
0.0
 71
     5
 72
     1
  1
\A1;80
 73
     1
 44
1.0
  0
POINT
  5
1764E
330
123AC
100
AcDbEntity
  8
DEFPOINTS
 62
     0
100
AcDbPoint
 10
-22458.92327040974
 20
3804.04925371466
 30
0.0
  0
POINT
  5
1764F
330
123AC
100
AcDbEntity
  8
DEFPOINTS
 62
     0
100
AcDbPoint
 10
-22378.92327040974
 20
3804.04925371466
 30
0.0
  0
POINT
  5
17650
330
123AC
100
AcDbEntity
  8
DEFPOINTS
 62
     0
100
AcDbPoint
 10
-22378.92327040974
 20
3263.040342463102
 30
0.0
  0
ENDBLK
  5
123B9
330
123AC
100
AcDbEntity
  8
0
100
AcDbBlockEnd
  0
BLOCK
  5
15935
330
1592B
100
AcDbEntity
  8
0
100
AcDbBlockBegin
  2
*D41
 70
     1
 10
0.0
 20
0.0
 30
0.0
  3
*D41
  1

  0
LINE
  5
159E1
330
1592B
100
AcDbEntity
  8
SUNPOU
370
    -2
100
AcDbLine
 10
-19640.97766769209
 20
3566.427880578646
 30
0.0
 11
-19640.97766769209
 21
2846.427880578646
 31
0.0
  0
LINE
  5
159E2
330
1592B
100
AcDbEntity
  8
SUNPOU
370
    -2
100
AcDbLine
 10
-19320.97766769209
 20
3146.427880578646
 30
0.0
 11
-19320.97766769209
 21
2846.427880578646
 31
0.0
  0
LINE
  5
159E3
330
1592B
100
AcDbEntity
  8
SUNPOU
 62
     0
370
    -2
100
AcDbLine
 10
-19560.97766769209
 20
2886.427880578646
 30
0.0
 11
-19400.97766769209
 21
2886.427880578646
 31
0.0
  0
SOLID
  5
159E4
330
1592B
100
AcDbEntity
  8
SUNPOU
 62
     0
100
AcDbTrace
 10
-19560.97766769209
 20
2899.76121391198
 30
0.0
 11
-19560.97766769209
 21
2873.094547245313
 31
0.0
 12
-19640.97766769209
 22
2886.427880578646
 32
0.0
 13
-19640.97766769209
 23
2886.427880578646
 33
0.0
  0
SOLID
  5
159E5
330
1592B
100
AcDbEntity
  8
SUNPOU
 62
     0
100
AcDbTrace
 10
-19400.97766769209
 20
2899.76121391198
 30
0.0
 11
-19400.97766769209
 21
2873.094547245313
 31
0.0
 12
-19320.97766769209
 22
2886.427880578646
 32
0.0
 13
-19320.97766769209
 23
2886.427880578646
 33
0.0
  0
MTEXT
  5
159E6
330
1592B
100
AcDbEntity
  8
SUNPOU
 62
     0
100
AcDbMText
 10
-19480.97766769209
 20
2978.427880578646
 30
0.0
 40
120.0
 41
0.0
 71
     5
 72
     1
  1
\A1;80
 73
     1
 44
1.0
  0
POINT
  5
159E7
330
1592B
100
AcDbEntity
  8
DEFPOINTS
 62
     0
100
AcDbPoint
 10
-19640.97766769209
 20
3646.427880578646
 30
0.0
  0
POINT
  5
159E8
330
1592B
100
AcDbEntity
  8
DEFPOINTS
 62
     0
100
AcDbPoint
 10
-19320.97766769209
 20
3226.427880578646
 30
0.0
  0
POINT
  5
159E9
330
1592B
100
AcDbEntity
  8
DEFPOINTS
 62
     0
100
AcDbPoint
 10
-19320.97766769209
 20
2886.427880578646
 30
0.0
  0
ENDBLK
  5
15936
330
1592B
100
AcDbEntity
  8
0
100
AcDbBlockEnd
  0
BLOCK
  5
15943
330
15937
100
AcDbEntity
  8
0
100
AcDbBlockBegin
  2
*D42
 70
     1
 10
0.0
 20
0.0
 30
0.0
  3
*D42
  1

  0
LINE
  5
17750
330
15937
100
AcDbEntity
  8
SUNPOU
370
    -2
100
AcDbLine
 10
-19720.97766769209
 20
3646.427880578646
 30
0.0
 11
-20794.31100102543
 21
3646.427880578646
 31
0.0
  0
LINE
  5
17751
330
15937
100
AcDbEntity
  8
SUNPOU
370
    -2
100
AcDbLine
 10
-19400.97766769209
 20
3566.427880578646
 30
0.0
 11
-20794.31100102543
 21
3566.427880578647
 31
0.0
  0
LINE
  5
17752
330
15937
100
AcDbEntity
  8
SUNPOU
 62
     0
370
    -2
100
AcDbLine
 10
-20754.31100102543
 20
3726.427880578646
 30
0.0
 11
-20754.31100102543
 21
3806.427880578646
 31
0.0
  0
LINE
  5
17753
330
15937
100
AcDbEntity
  8
SUNPOU
 62
     0
370
    -2
100
AcDbLine
 10
-20754.31100102543
 20
3486.427880578647
 30
0.0
 11
-20754.31100102543
 21
3406.427880578647
 31
0.0
  0
LINE
  5
17754
330
15937
100
AcDbEntity
  8
SUNPOU
 62
     0
370
    -2
100
AcDbLine
 10
-20754.31100102543
 20
3646.427880578646
 30
0.0
 11
-20754.31100102543
 21
3566.427880578647
 31
0.0
  0
SOLID
  5
17755
330
15937
100
AcDbEntity
  8
SUNPOU
 62
     0
100
AcDbTrace
 10
-20767.64433435877
 20
3726.427880578646
 30
0.0
 11
-20740.9776676921
 21
3726.427880578646
 31
0.0
 12
-20754.31100102543
 22
3646.427880578646
 32
0.0
 13
-20754.31100102543
 23
3646.427880578646
 33
0.0
  0
SOLID
  5
17756
330
15937
100
AcDbEntity
  8
SUNPOU
 62
     0
100
AcDbTrace
 10
-20767.64433435877
 20
3486.427880578647
 30
0.0
 11
-20740.9776676921
 21
3486.427880578647
 31
0.0
 12
-20754.31100102543
 22
3566.427880578647
 32
0.0
 13
-20754.31100102543
 23
3566.427880578647
 33
0.0
  0
MTEXT
  5
17757
330
15937
100
AcDbEntity
  8
SUNPOU
 62
     0
100
AcDbMText
 10
-20846.31100102543
 20
3606.427880578643
 30
0.0
 40
120.0
 41
0.0
 71
     5
 72
     1
  1
\A1;20
 11
6.123031769111886E-17
 21
1.0
 31
0.0
 73
     1
 44
1.0
  0
POINT
  5
17758
330
15937
100
AcDbEntity
  8
DEFPOINTS
 62
     0
100
AcDbPoint
 10
-19640.97766769209
 20
3646.427880578646
 30
0.0
  0
POINT
  5
17759
330
15937
100
AcDbEntity
  8
DEFPOINTS
 62
     0
100
AcDbPoint
 10
-19320.97766769209
 20
3566.427880578646
 30
0.0
  0
POINT
  5
1775A
330
15937
100
AcDbEntity
  8
DEFPOINTS
 62
     0
100
AcDbPoint
 10
-20754.31100102543
 20
3566.427880578647
 30
0.0
  0
ENDBLK
  5
15944
330
15937
100
AcDbEntity
  8
0
100
AcDbBlockEnd
  0
BLOCK
  5
1594F
330
15945
100
AcDbEntity
  8
0
100
AcDbBlockBegin
  2
*D43
 70
     1
 10
0.0
 20
0.0
 30
0.0
  3
*D43
  1

  0
LINE
  5
1775B
330
15945
100
AcDbEntity
  8
SUNPOU
370
    -2
100
AcDbLine
 10
-19400.97766769209
 20
3566.427880578646
 30
0.0
 11
-20794.31100102543
 21
3566.427880578647
 31
0.0
  0
LINE
  5
1775C
330
15945
100
AcDbEntity
  8
SUNPOU
370
    -2
100
AcDbLine
 10
-20400.97766769209
 20
3226.427880578646
 30
0.0
 11
-20794.31100102543
 21
3226.427880578646
 31
0.0
  0
LINE
  5
1775D
330
15945
100
AcDbEntity
  8
SUNPOU
 62
     0
370
    -2
100
AcDbLine
 10
-20754.31100102543
 20
3486.427880578647
 30
0.0
 11
-20754.31100102543
 21
3306.427880578646
 31
0.0
  0
SOLID
  5
1775E
330
15945
100
AcDbEntity
  8
SUNPOU
 62
     0
100
AcDbTrace
 10
-20767.64433435877
 20
3486.427880578647
 30
0.0
 11
-20740.9776676921
 21
3486.427880578647
 31
0.0
 12
-20754.31100102543
 22
3566.427880578647
 32
0.0
 13
-20754.31100102543
 23
3566.427880578647
 33
0.0
  0
SOLID
  5
1775F
330
15945
100
AcDbEntity
  8
SUNPOU
 62
     0
100
AcDbTrace
 10
-20767.64433435877
 20
3306.427880578646
 30
0.0
 11
-20740.9776676921
 21
3306.427880578646
 31
0.0
 12
-20754.31100102543
 22
3226.427880578646
 32
0.0
 13
-20754.31100102543
 23
3226.427880578646
 33
0.0
  0
MTEXT
  5
17760
330
15945
100
AcDbEntity
  8
SUNPOU
 62
     0
100
AcDbMText
 10
-20846.31100102543
 20
3396.427880578643
 30
0.0
 40
120.0
 41
0.0
 71
     5
 72
     1
  1
\A1;85
 11
6.123031769111886E-17
 21
1.0
 31
0.0
 73
     1
 44
1.0
  0
POINT
  5
17761
330
15945
100
AcDbEntity
  8
DEFPOINTS
 62
     0
100
AcDbPoint
 10
-19320.97766769209
 20
3566.427880578646
 30
0.0
  0
POINT
  5
17762
330
15945
100
AcDbEntity
  8
DEFPOINTS
 62
     0
100
AcDbPoint
 10
-20320.97766769209
 20
3226.427880578646
 30
0.0
  0
POINT
  5
17763
330
15945
100
AcDbEntity
  8
DEFPOINTS
 62
     0
100
AcDbPoint
 10
-20754.31100102543
 20
3226.427880578646
 30
0.0
  0
ENDBLK
  5
15950
330
15945
100
AcDbEntity
  8
0
100
AcDbBlockEnd
  0
BLOCK
  5
1595B
330
15951
100
AcDbEntity
  8
0
100
AcDbBlockBegin
  2
*D44
 70
     1
 10
0.0
 20
0.0
 30
0.0
  3
*D44
  1

  0
LINE
  5
17764
330
15951
100
AcDbEntity
  8
SUNPOU
370
    -2
100
AcDbLine
 10
-20400.9776676921
 20
4026.427880578646
 30
0.0
 11
-20794.31100102543
 21
4026.427880578646
 31
0.0
  0
LINE
  5
17765
330
15951
100
AcDbEntity
  8
SUNPOU
370
    -2
100
AcDbLine
 10
-19720.97766769209
 20
3646.427880578646
 30
0.0
 11
-20794.31100102543
 21
3646.427880578646
 31
0.0
  0
LINE
  5
17766
330
15951
100
AcDbEntity
  8
SUNPOU
 62
     0
370
    -2
100
AcDbLine
 10
-20754.31100102543
 20
3946.427880578646
 30
0.0
 11
-20754.31100102543
 21
3726.427880578646
 31
0.0
  0
SOLID
  5
17767
330
15951
100
AcDbEntity
  8
SUNPOU
 62
     0
100
AcDbTrace
 10
-20767.64433435877
 20
3946.427880578646
 30
0.0
 11
-20740.9776676921
 21
3946.427880578646
 31
0.0
 12
-20754.31100102543
 22
4026.427880578646
 32
0.0
 13
-20754.31100102543
 23
4026.427880578646
 33
0.0
  0
SOLID
  5
17768
330
15951
100
AcDbEntity
  8
SUNPOU
 62
     0
100
AcDbTrace
 10
-20767.64433435877
 20
3726.427880578646
 30
0.0
 11
-20740.9776676921
 21
3726.427880578646
 31
0.0
 12
-20754.31100102543
 22
3646.427880578646
 32
0.0
 13
-20754.31100102543
 23
3646.427880578646
 33
0.0
  0
MTEXT
  5
17769
330
15951
100
AcDbEntity
  8
SUNPOU
 62
     0
100
AcDbMText
 10
-20846.31100102543
 20
3836.427880578643
 30
0.0
 40
120.0
 41
0.0
 71
     5
 72
     1
  1
\A1;95
 11
6.123031769111886E-17
 21
1.0
 31
0.0
 73
     1
 44
1.0
  0
POINT
  5
1776A
330
15951
100
AcDbEntity
  8
DEFPOINTS
 62
     0
100
AcDbPoint
 10
-20320.9776676921
 20
4026.427880578646
 30
0.0
  0
POINT
  5
1776B
330
15951
100
AcDbEntity
  8
DEFPOINTS
 62
     0
100
AcDbPoint
 10
-19640.97766769209
 20
3646.427880578646
 30
0.0
  0
POINT
  5
1776C
330
15951
100
AcDbEntity
  8
DEFPOINTS
 62
     0
100
AcDbPoint
 10
-20754.31100102543
 20
3646.427880578646
 30
0.0
  0
ENDBLK
  5
1595C
330
15951
100
AcDbEntity
  8
0
100
AcDbBlockEnd
  0
BLOCK
  5
15967
330
1595D
100
AcDbEntity
  8
0
100
AcDbBlockBegin
  2
*D45
 70
     1
 10
0.0
 20
0.0
 30
0.0
  3
*D45
  1

  0
LINE
  5
1776D
330
1595D
100
AcDbEntity
  8
SUNPOU
370
    -2
100
AcDbLine
 10
-20400.9776676921
 20
4026.427880578646
 30
0.0
 11
-21074.31100102543
 21
4026.427880578646
 31
0.0
  0
LINE
  5
1776E
330
1595D
100
AcDbEntity
  8
SUNPOU
370
    -2
100
AcDbLine
 10
-20400.9776676921
 20
3226.427880578646
 30
0.0
 11
-21074.31100102543
 21
3226.427880578646
 31
0.0
  0
LINE
  5
1776F
330
1595D
100
AcDbEntity
  8
SUNPOU
 62
     0
370
    -2
100
AcDbLine
 10
-21034.31100102543
 20
3946.427880578646
 30
0.0
 11
-21034.31100102543
 21
3306.427880578646
 31
0.0
  0
SOLID
  5
17770
330
1595D
100
AcDbEntity
  8
SUNPOU
 62
     0
100
AcDbTrace
 10
-21047.64433435877
 20
3946.427880578646
 30
0.0
 11
-21020.9776676921
 21
3946.427880578646
 31
0.0
 12
-21034.31100102543
 22
4026.427880578646
 32
0.0
 13
-21034.31100102543
 23
4026.427880578646
 33
0.0
  0
SOLID
  5
17771
330
1595D
100
AcDbEntity
  8
SUNPOU
 62
     0
100
AcDbTrace
 10
-21047.64433435877
 20
3306.427880578646
 30
0.0
 11
-21020.9776676921
 21
3306.427880578646
 31
0.0
 12
-21034.31100102543
 22
3226.427880578646
 32
0.0
 13
-21034.31100102543
 23
3226.427880578646
 33
0.0
  0
MTEXT
  5
17772
330
1595D
100
AcDbEntity
  8
SUNPOU
 62
     0
100
AcDbMText
 10
-21126.31100102543
 20
3626.427880578643
 30
0.0
 40
120.0
 41
0.0
 71
     5
 72
     1
  1
\A1;200
 11
6.123031769111886E-17
 21
1.0
 31
0.0
 73
     1
 44
1.0
  0
POINT
  5
17773
330
1595D
100
AcDbEntity
  8
DEFPOINTS
 62
     0
100
AcDbPoint
 10
-20320.9776676921
 20
4026.427880578646
 30
0.0
  0
POINT
  5
17774
330
1595D
100
AcDbEntity
  8
DEFPOINTS
 62
     0
100
AcDbPoint
 10
-20320.9776676921
 20
3226.427880578646
 30
0.0
  0
POINT
  5
17775
330
1595D
100
AcDbEntity
  8
DEFPOINTS
 62
     0
100
AcDbPoint
 10
-21034.31100102543
 20
3226.427880578646
 30
0.0
  0
ENDBLK
  5
15968
330
1595D
100
AcDbEntity
  8
0
100
AcDbBlockEnd
  0
BLOCK
  5
15973
330
15969
100
AcDbEntity
  8
0
100
AcDbBlockBegin
  2
*D46
 70
     1
 10
0.0
 20
0.0
 30
0.0
  3
*D46
  1

  0
LINE
  5
15A10
330
15969
100
AcDbEntity
  8
SUNPOU
370
    -2
100
AcDbLine
 10
-19005.20633963065
 20
3686.427880578646
 30
0.0
 11
-19005.20633963065
 21
4400.277386115494
 31
0.0
  0
LINE
  5
15A11
330
15969
100
AcDbEntity
  8
SUNPOU
370
    -2
100
AcDbLine
 10
-19325.20633963065
 20
4106.427880578646
 30
0.0
 11
-19325.20633963065
 21
4400.277386115494
 31
0.0
  0
LINE
  5
15A12
330
15969
100
AcDbEntity
  8
SUNPOU
 62
     0
370
    -2
100
AcDbLine
 10
-19085.20633963065
 20
4360.277386115494
 30
0.0
 11
-19245.20633963065
 21
4360.277386115494
 31
0.0
  0
SOLID
  5
15A13
330
15969
100
AcDbEntity
  8
SUNPOU
 62
     0
100
AcDbTrace
 10
-19085.20633963065
 20
4373.610719448827
 30
0.0
 11
-19085.20633963065
 21
4346.944052782161
 31
0.0
 12
-19005.20633963065
 22
4360.277386115494
 32
0.0
 13
-19005.20633963065
 23
4360.277386115494
 33
0.0
  0
SOLID
  5
15A14
330
15969
100
AcDbEntity
  8
SUNPOU
 62
     0
100
AcDbTrace
 10
-19245.20633963065
 20
4373.610719448827
 30
0.0
 11
-19245.20633963065
 21
4346.944052782161
 31
0.0
 12
-19325.20633963065
 22
4360.277386115494
 32
0.0
 13
-19325.20633963065
 23
4360.277386115494
 33
0.0
  0
MTEXT
  5
15A15
330
15969
100
AcDbEntity
  8
SUNPOU
 62
     0
100
AcDbMText
 10
-19165.20633963065
 20
4452.277386115494
 30
0.0
 40
120.0
 41
0.0
 71
     5
 72
     1
  1
\A1;80
 73
     1
 44
1.0
  0
POINT
  5
15A16
330
15969
100
AcDbEntity
  8
DEFPOINTS
 62
     0
100
AcDbPoint
 10
-19005.20633963065
 20
3606.427880578646
 30
0.0
  0
POINT
  5
15A17
330
15969
100
AcDbEntity
  8
DEFPOINTS
 62
     0
100
AcDbPoint
 10
-19325.20633963065
 20
4026.427880578646
 30
0.0
  0
POINT
  5
15A18
330
15969
100
AcDbEntity
  8
DEFPOINTS
 62
     0
100
AcDbPoint
 10
-19325.20633963065
 20
4360.277386115494
 30
0.0
  0
ENDBLK
  5
15974
330
15969
100
AcDbEntity
  8
0
100
AcDbBlockEnd
  0
BLOCK
  5
15981
330
15975
100
AcDbEntity
  8
0
100
AcDbBlockBegin
  2
*D47
 70
     1
 10
0.0
 20
0.0
 30
0.0
  3
*D47
  1

  0
LINE
  5
17777
330
15975
100
AcDbEntity
  8
SUNPOU
370
    -2
100
AcDbLine
 10
-18925.20633963065
 20
3606.427880578646
 30
0.0
 11
-17800.97766769208
 21
3606.427880578646
 31
0.0
  0
LINE
  5
17778
330
15975
100
AcDbEntity
  8
SUNPOU
370
    -2
100
AcDbLine
 10
-19245.20633963065
 20
3686.427880578646
 30
0.0
 11
-17800.97766769208
 21
3686.427880578646
 31
0.0
  0
LINE
  5
17779
330
15975
100
AcDbEntity
  8
SUNPOU
 62
     0
370
    -2
100
AcDbLine
 10
-17840.97766769208
 20
3526.427880578646
 30
0.0
 11
-17840.97766769208
 21
3446.427880578646
 31
0.0
  0
LINE
  5
1777A
330
15975
100
AcDbEntity
  8
SUNPOU
 62
     0
370
    -2
100
AcDbLine
 10
-17840.97766769208
 20
3766.427880578646
 30
0.0
 11
-17840.97766769208
 21
3846.427880578646
 31
0.0
  0
LINE
  5
1777B
330
15975
100
AcDbEntity
  8
SUNPOU
 62
     0
370
    -2
100
AcDbLine
 10
-17840.97766769208
 20
3606.427880578646
 30
0.0
 11
-17840.97766769208
 21
3686.427880578646
 31
0.0
  0
SOLID
  5
1777C
330
15975
100
AcDbEntity
  8
SUNPOU
 62
     0
100
AcDbTrace
 10
-17854.31100102542
 20
3526.427880578646
 30
0.0
 11
-17827.64433435875
 21
3526.427880578646
 31
0.0
 12
-17840.97766769208
 22
3606.427880578646
 32
0.0
 13
-17840.97766769208
 23
3606.427880578646
 33
0.0
  0
SOLID
  5
1777D
330
15975
100
AcDbEntity
  8
SUNPOU
 62
     0
100
AcDbTrace
 10
-17854.31100102542
 20
3766.427880578646
 30
0.0
 11
-17827.64433435875
 21
3766.427880578646
 31
0.0
 12
-17840.97766769208
 22
3686.427880578646
 32
0.0
 13
-17840.97766769208
 23
3686.427880578646
 33
0.0
  0
MTEXT
  5
1777E
330
15975
100
AcDbEntity
  8
SUNPOU
 62
     0
100
AcDbMText
 10
-17932.97766769208
 20
3646.427880578643
 30
0.0
 40
120.0
 41
0.0
 71
     5
 72
     1
  1
\A1;20
 11
6.123031769111886E-17
 21
1.0
 31
0.0
 73
     1
 44
1.0
  0
POINT
  5
1777F
330
15975
100
AcDbEntity
  8
DEFPOINTS
 62
     0
100
AcDbPoint
 10
-19005.20633963065
 20
3606.427880578646
 30
0.0
  0
POINT
  5
17780
330
15975
100
AcDbEntity
  8
DEFPOINTS
 62
     0
100
AcDbPoint
 10
-19325.20633963065
 20
3686.427880578646
 30
0.0
  0
POINT
  5
17781
330
15975
100
AcDbEntity
  8
DEFPOINTS
 62
     0
100
AcDbPoint
 10
-17840.97766769208
 20
3686.427880578646
 30
0.0
  0
ENDBLK
  5
15982
330
15975
100
AcDbEntity
  8
0
100
AcDbBlockEnd
  0
BLOCK
  5
1598D
330
15983
100
AcDbEntity
  8
0
100
AcDbBlockBegin
  2
*D48
 70
     1
 10
0.0
 20
0.0
 30
0.0
  3
*D48
  1

  0
LINE
  5
1778B
330
15983
100
AcDbEntity
  8
SUNPOU
370
    -2
100
AcDbLine
 10
-19245.20633963065
 20
3686.427880578646
 30
0.0
 11
-17800.97766769208
 21
3686.427880578646
 31
0.0
  0
LINE
  5
1778C
330
15983
100
AcDbEntity
  8
SUNPOU
370
    -2
100
AcDbLine
 10
-18240.97766769208
 20
4026.427880578645
 30
0.0
 11
-17800.97766769208
 21
4026.427880578645
 31
0.0
  0
LINE
  5
1778D
330
15983
100
AcDbEntity
  8
SUNPOU
 62
     0
370
    -2
100
AcDbLine
 10
-17840.97766769208
 20
3766.427880578646
 30
0.0
 11
-17840.97766769208
 21
3946.427880578645
 31
0.0
  0
SOLID
  5
1778E
330
15983
100
AcDbEntity
  8
SUNPOU
 62
     0
100
AcDbTrace
 10
-17854.31100102542
 20
3766.427880578646
 30
0.0
 11
-17827.64433435875
 21
3766.427880578646
 31
0.0
 12
-17840.97766769208
 22
3686.427880578646
 32
0.0
 13
-17840.97766769208
 23
3686.427880578646
 33
0.0
  0
SOLID
  5
1778F
330
15983
100
AcDbEntity
  8
SUNPOU
 62
     0
100
AcDbTrace
 10
-17854.31100102542
 20
3946.427880578645
 30
0.0
 11
-17827.64433435875
 21
3946.427880578645
 31
0.0
 12
-17840.97766769208
 22
4026.427880578645
 32
0.0
 13
-17840.97766769208
 23
4026.427880578645
 33
0.0
  0
MTEXT
  5
17790
330
15983
100
AcDbEntity
  8
SUNPOU
 62
     0
100
AcDbMText
 10
-17932.97766769208
 20
3856.427880578643
 30
0.0
 40
120.0
 41
0.0
 71
     5
 72
     1
  1
\A1;85
 11
6.123031769111886E-17
 21
1.0
 31
0.0
 73
     1
 44
1.0
  0
POINT
  5
17791
330
15983
100
AcDbEntity
  8
DEFPOINTS
 62
     0
100
AcDbPoint
 10
-19325.20633963065
 20
3686.427880578646
 30
0.0
  0
POINT
  5
17792
330
15983
100
AcDbEntity
  8
DEFPOINTS
 62
     0
100
AcDbPoint
 10
-18320.97766769208
 20
4026.427880578645
 30
0.0
  0
POINT
  5
17793
330
15983
100
AcDbEntity
  8
DEFPOINTS
 62
     0
100
AcDbPoint
 10
-17840.97766769208
 20
4026.427880578645
 30
0.0
  0
ENDBLK
  5
1598E
330
15983
100
AcDbEntity
  8
0
100
AcDbBlockEnd
  0
BLOCK
  5
15999
330
1598F
100
AcDbEntity
  8
0
100
AcDbBlockBegin
  2
*D49
 70
     1
 10
0.0
 20
0.0
 30
0.0
  3
*D49
  1

  0
LINE
  5
17782
330
1598F
100
AcDbEntity
  8
SUNPOU
370
    -2
100
AcDbLine
 10
-18925.20633963065
 20
3606.427880578646
 30
0.0
 11
-17800.97766769208
 21
3606.427880578646
 31
0.0
  0
LINE
  5
17783
330
1598F
100
AcDbEntity
  8
SUNPOU
370
    -2
100
AcDbLine
 10
-18240.97766769208
 20
3226.427880578645
 30
0.0
 11
-17800.97766769208
 21
3226.427880578645
 31
0.0
  0
LINE
  5
17784
330
1598F
100
AcDbEntity
  8
SUNPOU
 62
     0
370
    -2
100
AcDbLine
 10
-17840.97766769208
 20
3526.427880578646
 30
0.0
 11
-17840.97766769208
 21
3306.427880578645
 31
0.0
  0
SOLID
  5
17785
330
1598F
100
AcDbEntity
  8
SUNPOU
 62
     0
100
AcDbTrace
 10
-17854.31100102542
 20
3526.427880578646
 30
0.0
 11
-17827.64433435875
 21
3526.427880578646
 31
0.0
 12
-17840.97766769208
 22
3606.427880578646
 32
0.0
 13
-17840.97766769208
 23
3606.427880578646
 33
0.0
  0
SOLID
  5
17786
330
1598F
100
AcDbEntity
  8
SUNPOU
 62
     0
100
AcDbTrace
 10
-17854.31100102542
 20
3306.427880578645
 30
0.0
 11
-17827.64433435875
 21
3306.427880578645
 31
0.0
 12
-17840.97766769208
 22
3226.427880578645
 32
0.0
 13
-17840.97766769208
 23
3226.427880578645
 33
0.0
  0
MTEXT
  5
17787
330
1598F
100
AcDbEntity
  8
SUNPOU
 62
     0
100
AcDbMText
 10
-17932.97766769208
 20
3416.427880578643
 30
0.0
 40
120.0
 41
0.0
 71
     5
 72
     1
  1
\A1;95
 11
6.123031769111886E-17
 21
1.0
 31
0.0
 73
     1
 44
1.0
  0
POINT
  5
17788
330
1598F
100
AcDbEntity
  8
DEFPOINTS
 62
     0
100
AcDbPoint
 10
-19005.20633963065
 20
3606.427880578646
 30
0.0
  0
POINT
  5
17789
330
1598F
100
AcDbEntity
  8
DEFPOINTS
 62
     0
100
AcDbPoint
 10
-18320.97766769208
 20
3226.427880578645
 30
0.0
  0
POINT
  5
1778A
330
1598F
100
AcDbEntity
  8
DEFPOINTS
 62
     0
100
AcDbPoint
 10
-17840.97766769208
 20
3226.427880578645
 30
0.0
  0
ENDBLK
  5
1599A
330
1598F
100
AcDbEntity
  8
0
100
AcDbBlockEnd
  0
BLOCK
  5
159A7
330
1599B
100
AcDbEntity
  8
0
100
AcDbBlockBegin
  2
*D50
 70
     1
 10
0.0
 20
0.0
 30
0.0
  3
*D50
  1

  0
LINE
  5
15A36
330
1599B
100
AcDbEntity
  8
SUNPOU
370
    -2
100
AcDbLine
 10
-19005.20633963065
 20
3206.427880578646
 30
0.0
 11
-19005.20633963065
 21
2493.26014802261
 31
0.0
  0
LINE
  5
15A37
330
1599B
100
AcDbEntity
  8
SUNPOU
370
    -2
100
AcDbLine
 10
-18957.20633963065
 20
3186.427880578646
 30
0.0
 11
-18957.20633963065
 21
2493.26014802261
 31
0.0
  0
LINE
  5
15A38
330
1599B
100
AcDbEntity
  8
SUNPOU
 62
     0
370
    -2
100
AcDbLine
 10
-19085.20633963065
 20
2533.26014802261
 30
0.0
 11
-19165.20633963065
 21
2533.26014802261
 31
0.0
  0
LINE
  5
15A39
330
1599B
100
AcDbEntity
  8
SUNPOU
 62
     0
370
    -2
100
AcDbLine
 10
-18877.20633963065
 20
2533.26014802261
 30
0.0
 11
-18605.20633963065
 21
2533.26014802261
 31
0.0
  0
LINE
  5
15A3A
330
1599B
100
AcDbEntity
  8
SUNPOU
 62
     0
370
    -2
100
AcDbLine
 10
-19005.20633963065
 20
2533.26014802261
 30
0.0
 11
-18957.20633963065
 21
2533.26014802261
 31
0.0
  0
SOLID
  5
15A3B
330
1599B
100
AcDbEntity
  8
SUNPOU
 62
     0
100
AcDbTrace
 10
-19085.20633963065
 20
2546.593481355944
 30
0.0
 11
-19085.20633963065
 21
2519.926814689277
 31
0.0
 12
-19005.20633963065
 22
2533.26014802261
 32
0.0
 13
-19005.20633963065
 23
2533.26014802261
 33
0.0
  0
SOLID
  5
15A3C
330
1599B
100
AcDbEntity
  8
SUNPOU
 62
     0
100
AcDbTrace
 10
-18877.20633963065
 20
2546.593481355944
 30
0.0
 11
-18877.20633963065
 21
2519.926814689277
 31
0.0
 12
-18957.20633963065
 22
2533.26014802261
 32
0.0
 13
-18957.20633963065
 23
2533.26014802261
 33
0.0
  0
MTEXT
  5
15A3D
330
1599B
100
AcDbEntity
  8
SUNPOU
 62
     0
100
AcDbMText
 10
-18701.20633963065
 20
2625.26014802261
 30
0.0
 40
120.0
 41
0.0
 71
     5
 72
     1
  1
\A1;12
 73
     1
 44
1.0
  0
POINT
  5
15A3E
330
1599B
100
AcDbEntity
  8
DEFPOINTS
 62
     0
100
AcDbPoint
 10
-19005.20633963065
 20
3286.427880578646
 30
0.0
  0
POINT
  5
15A3F
330
1599B
100
AcDbEntity
  8
DEFPOINTS
 62
     0
100
AcDbPoint
 10
-18957.20633963065
 20
3266.427880578646
 30
0.0
  0
POINT
  5
15A40
330
1599B
100
AcDbEntity
  8
DEFPOINTS
 62
     0
100
AcDbPoint
 10
-18957.20633963065
 20
2533.26014802261
 30
0.0
  0
ENDBLK
  5
159A8
330
1599B
100
AcDbEntity
  8
0
100
AcDbBlockEnd
  0
BLOCK
  5
159B5
330
159A9
100
AcDbEntity
  8
0
100
AcDbBlockBegin
  2
*D51
 70
     1
 10
0.0
 20
0.0
 30
0.0
  3
*D51
  1

  0
LINE
  5
177EA
330
159A9
100
AcDbEntity
  8
SUNPOU
370
    -2
100
AcDbLine
 10
-18925.20633963065
 20
3286.427880578646
 30
0.0
 11
-18553.20633963065
 21
3286.427880578646
 31
0.0
  0
LINE
  5
177EB
330
159A9
100
AcDbEntity
  8
SUNPOU
370
    -2
100
AcDbLine
 10
-18885.20633963065
 20
3226.427880578646
 30
0.0
 11
-18553.20633963065
 21
3226.427880578646
 31
0.0
  0
LINE
  5
177EC
330
159A9
100
AcDbEntity
  8
SUNPOU
 62
     0
370
    -2
100
AcDbLine
 10
-18593.20633963065
 20
3286.427880578646
 30
0.0
 11
-18593.20633963065
 21
3366.427880578646
 31
0.0
  0
LINE
  5
177ED
330
159A9
100
AcDbEntity
  8
SUNPOU
 62
     0
370
    -2
100
AcDbLine
 10
-18593.20633963065
 20
3226.427880578646
 30
0.0
 11
-18593.20633963065
 21
2874.427880578646
 31
0.0
  0
LINE
  5
177EE
330
159A9
100
AcDbEntity
  8
SUNPOU
 62
     0
370
    -2
100
AcDbLine
 10
-18593.20633963065
 20
3286.427880578646
 30
0.0
 11
-18593.20633963065
 21
3226.427880578646
 31
0.0
  0
INSERT
  5
177EF
330
159A9
100
AcDbEntity
  8
SUNPOU
 62
     0
370
    -2
100
AcDbBlockReference
  2
_DotSmall
 10
-18593.20633963065
 20
3286.427880578646
 30
0.0
 41
80.0
 42
80.0
 43
80.0
 50
270.0
  0
INSERT
  5
177F0
330
159A9
100
AcDbEntity
  8
SUNPOU
 62
     0
370
    -2
100
AcDbBlockReference
  2
_DotSmall
 10
-18593.20633963065
 20
3226.427880578646
 30
0.0
 41
80.0
 42
80.0
 43
80.0
 50
90.0
  0
MTEXT
  5
177F1
330
159A9
100
AcDbEntity
  8
SUNPOU
 62
     0
100
AcDbMText
 10
-18685.20633963065
 20
2970.427880578643
 30
0.0
 40
120.0
 41
0.0
 71
     5
 72
     1
  1
\A1;15
 11
6.123031769111886E-17
 21
1.0
 31
0.0
 73
     1
 44
1.0
  0
POINT
  5
177F2
330
159A9
100
AcDbEntity
  8
DEFPOINTS
 62
     0
100
AcDbPoint
 10
-19005.20633963065
 20
3286.427880578646
 30
0.0
  0
POINT
  5
177F3
330
159A9
100
AcDbEntity
  8
DEFPOINTS
 62
     0
100
AcDbPoint
 10
-18965.20633963065
 20
3226.427880578646
 30
0.0
  0
POINT
  5
177F4
330
159A9
100
AcDbEntity
  8
DEFPOINTS
 62
     0
100
AcDbPoint
 10
-18593.20633963065
 20
3226.427880578646
 30
0.0
  0
ENDBLK
  5
159B6
330
159A9
100
AcDbEntity
  8
0
100
AcDbBlockEnd
  0
BLOCK
  5
159C3
330
159B7
100
AcDbEntity
  8
0
100
AcDbBlockBegin
  2
*D52
 70
     1
 10
0.0
 20
0.0
 30
0.0
  3
*D52
  1

  0
LINE
  5
177D4
330
159B7
100
AcDbEntity
  8
SUNPOU
370
    -2
100
AcDbLine
 10
-18925.20633963065
 20
3286.427880578646
 30
0.0
 11
-18553.20633963065
 21
3286.427880578646
 31
0.0
  0
LINE
  5
177D5
330
159B7
100
AcDbEntity
  8
SUNPOU
370
    -2
100
AcDbLine
 10
-18913.20633963065
 20
3394.427880578646
 30
0.0
 11
-18553.20633963065
 21
3394.427880578646
 31
0.0
  0
LINE
  5
177D6
330
159B7
100
AcDbEntity
  8
SUNPOU
 62
     0
370
    -2
100
AcDbLine
 10
-18593.20633963065
 20
3286.427880578646
 30
0.0
 11
-18593.20633963065
 21
3206.427880578646
 31
0.0
  0
LINE
  5
177D7
330
159B7
100
AcDbEntity
  8
SUNPOU
 62
     0
370
    -2
100
AcDbLine
 10
-18593.20633963065
 20
3394.427880578646
 30
0.0
 11
-18593.20633963065
 21
3474.427880578646
 31
0.0
  0
LINE
  5
177D8
330
159B7
100
AcDbEntity
  8
SUNPOU
 62
     0
370
    -2
100
AcDbLine
 10
-18593.20633963065
 20
3286.427880578646
 30
0.0
 11
-18593.20633963065
 21
3394.427880578646
 31
0.0
  0
INSERT
  5
177D9
330
159B7
100
AcDbEntity
  8
SUNPOU
 62
     0
370
    -2
100
AcDbBlockReference
  2
_DotSmall
 10
-18593.20633963065
 20
3286.427880578646
 30
0.0
 41
80.0
 42
80.0
 43
80.0
 50
90.0
  0
INSERT
  5
177DA
330
159B7
100
AcDbEntity
  8
SUNPOU
 62
     0
370
    -2
100
AcDbBlockReference
  2
_DotSmall
 10
-18593.20633963065
 20
3394.427880578646
 30
0.0
 41
80.0
 42
80.0
 43
80.0
 50
270.0
  0
MTEXT
  5
177DB
330
159B7
100
AcDbEntity
  8
SUNPOU
 62
     0
100
AcDbMText
 10
-18685.20633963065
 20
3340.427880578643
 30
0.0
 40
120.0
 41
0.0
 71
     5
 72
     1
  1
\A1;27
 11
6.123031769111886E-17
 21
1.0
 31
0.0
 73
     1
 44
1.0
  0
POINT
  5
177DC
330
159B7
100
AcDbEntity
  8
DEFPOINTS
 62
     0
100
AcDbPoint
 10
-19005.20633963065
 20
3286.427880578646
 30
0.0
  0
POINT
  5
177DD
330
159B7
100
AcDbEntity
  8
DEFPOINTS
 62
     0
100
AcDbPoint
 10
-18993.20633963065
 20
3394.427880578646
 30
0.0
  0
POINT
  5
177DE
330
159B7
100
AcDbEntity
  8
DEFPOINTS
 62
     0
100
AcDbPoint
 10
-18593.20633963065
 20
3394.427880578646
 30
0.0
  0
ENDBLK
  5
159C4
330
159B7
100
AcDbEntity
  8
0
100
AcDbBlockEnd
  0
BLOCK
  5
159D1
330
159C5
100
AcDbEntity
  8
0
100
AcDbBlockBegin
  2
*D53
 70
     1
 10
0.0
 20
0.0
 30
0.0
  3
*D53
  1

  0
LINE
  5
177DF
330
159C5
100
AcDbEntity
  8
SUNPOU
370
    -2
100
AcDbLine
 10
-18913.20633963065
 20
3394.427880578646
 30
0.0
 11
-18553.20633963065
 21
3394.427880578646
 31
0.0
  0
LINE
  5
177E0
330
159C5
100
AcDbEntity
  8
SUNPOU
370
    -2
100
AcDbLine
 10
-18913.20633963065
 20
3482.427880578646
 30
0.0
 11
-18553.20633963065
 21
3482.427880578646
 31
0.0
  0
LINE
  5
177E1
330
159C5
100
AcDbEntity
  8
SUNPOU
 62
     0
370
    -2
100
AcDbLine
 10
-18593.20633963065
 20
3394.427880578646
 30
0.0
 11
-18593.20633963065
 21
3314.427880578646
 31
0.0
  0
LINE
  5
177E2
330
159C5
100
AcDbEntity
  8
SUNPOU
 62
     0
370
    -2
100
AcDbLine
 10
-18593.20633963065
 20
3482.427880578646
 30
0.0
 11
-18593.20633963065
 21
3866.427880578646
 31
0.0
  0
LINE
  5
177E3
330
159C5
100
AcDbEntity
  8
SUNPOU
 62
     0
370
    -2
100
AcDbLine
 10
-18593.20633963065
 20
3394.427880578646
 30
0.0
 11
-18593.20633963065
 21
3482.427880578646
 31
0.0
  0
INSERT
  5
177E4
330
159C5
100
AcDbEntity
  8
SUNPOU
 62
     0
370
    -2
100
AcDbBlockReference
  2
_DotSmall
 10
-18593.20633963065
 20
3394.427880578646
 30
0.0
 41
80.0
 42
80.0
 43
80.0
 50
90.0
  0
INSERT
  5
177E5
330
159C5
100
AcDbEntity
  8
SUNPOU
 62
     0
370
    -2
100
AcDbBlockReference
  2
_DotSmall
 10
-18593.20633963065
 20
3482.427880578646
 30
0.0
 41
80.0
 42
80.0
 43
80.0
 50
270.0
  0
MTEXT
  5
177E6
330
159C5
100
AcDbEntity
  8
SUNPOU
 62
     0
100
AcDbMText
 10
-18685.20633963065
 20
3754.427880578643
 30
0.0
 40
120.0
 41
0.0
 71
     5
 72
     1
  1
\A1;22
 11
6.123031769111886E-17
 21
1.0
 31
0.0
 73
     1
 44
1.0
  0
POINT
  5
177E7
330
159C5
100
AcDbEntity
  8
DEFPOINTS
 62
     0
100
AcDbPoint
 10
-18993.20633963065
 20
3394.427880578646
 30
0.0
  0
POINT
  5
177E8
330
159C5
100
AcDbEntity
  8
DEFPOINTS
 62
     0
100
AcDbPoint
 10
-18993.20633963065
 20
3482.427880578646
 30
0.0
  0
POINT
  5
177E9
330
159C5
100
AcDbEntity
  8
DEFPOINTS
 62
     0
100
AcDbPoint
 10
-18593.20633963065
 20
3482.427880578646
 30
0.0
  0
ENDBLK
  5
159D2
330
159C5
100
AcDbEntity
  8
0
100
AcDbBlockEnd
  0
BLOCK
  5
159DF
330
159D3
100
AcDbEntity
  8
0
100
AcDbBlockBegin
  2
*D54
 70
     1
 10
0.0
 20
0.0
 30
0.0
  3
*D54
  1

  0
LINE
  5
15A62
330
159D3
100
AcDbEntity
  8
SUNPOU
370
    -2
100
AcDbLine
 10
-19005.20633963065
 20
3686.427880578646
 30
0.0
 11
-19005.20633963065
 21
4159.76121391198
 31
0.0
  0
LINE
  5
15A63
330
159D3
100
AcDbEntity
  8
SUNPOU
370
    -2
100
AcDbLine
 10
-18993.20633963065
 20
3562.427880578646
 30
0.0
 11
-18993.20633963065
 21
4159.76121391198
 31
0.0
  0
LINE
  5
15A64
330
159D3
100
AcDbEntity
  8
SUNPOU
 62
     0
370
    -2
100
AcDbLine
 10
-19085.20633963065
 20
4119.76121391198
 30
0.0
 11
-19165.20633963065
 21
4119.76121391198
 31
0.0
  0
LINE
  5
15A65
330
159D3
100
AcDbEntity
  8
SUNPOU
 62
     0
370
    -2
100
AcDbLine
 10
-18913.20633963065
 20
4119.76121391198
 30
0.0
 11
-18833.20633963065
 21
4119.76121391198
 31
0.0
  0
MTEXT
  5
15A66
330
159D3
100
AcDbEntity
  8
SUNPOU
 62
     0
100
AcDbMText
 10
-18903.6102479525
 20
4201.76121391198
 30
0.0
 40
120.0
 41
0.0
 71
     5
 72
     1
  1
\A1;3
 73
     1
 44
1.0
  0
LINE
  5
15A67
330
159D3
100
AcDbEntity
  8
SUNPOU
 62
     0
370
    -2
100
AcDbLine
 10
-19005.20633963065
 20
4119.76121391198
 30
0.0
 11
-18993.20633963065
 21
4119.76121391198
 31
0.0
  0
SOLID
  5
15A68
330
159D3
100
AcDbEntity
  8
SUNPOU
 62
     0
100
AcDbTrace
 10
-19085.20633963065
 20
4133.094547245313
 30
0.0
 11
-19085.20633963065
 21
4106.427880578647
 31
0.0
 12
-19005.20633963065
 22
4119.76121391198
 32
0.0
 13
-19005.20633963065
 23
4119.76121391198
 33
0.0
  0
SOLID
  5
15A69
330
159D3
100
AcDbEntity
  8
SUNPOU
 62
     0
100
AcDbTrace
 10
-18913.20633963065
 20
4133.094547245313
 30
0.0
 11
-18913.20633963065
 21
4106.427880578647
 31
0.0
 12
-18993.20633963065
 22
4119.76121391198
 32
0.0
 13
-18993.20633963065
 23
4119.76121391198
 33
0.0
  0
POINT
  5
15A6A
330
159D3
100
AcDbEntity
  8
DEFPOINTS
 62
     0
100
AcDbPoint
 10
-19005.20633963065
 20
3606.427880578646
 30
0.0
  0
POINT
  5
15A6B
330
159D3
100
AcDbEntity
  8
DEFPOINTS
 62
     0
100
AcDbPoint
 10
-18993.20633963065
 20
3482.427880578646
 30
0.0
  0
POINT
  5
15A6C
330
159D3
100
AcDbEntity
  8
DEFPOINTS
 62
     0
100
AcDbPoint
 10
-18993.20633963065
 20
4119.76121391198
 30
0.0
  0
ENDBLK
  5
159E0
330
159D3
100
AcDbEntity
  8
0
100
AcDbBlockEnd
  0
BLOCK
  5
17416
330
17414
100
AcDbEntity
  8
0
100
AcDbBlockBegin
  2
_DotSmall
 70
     0
 10
0.0
 20
0.0
 30
0.0
  3
_DotSmall
  1

  0
LWPOLYLINE
  5
17415
330
17414
100
AcDbEntity
  8
SUNPOU
 62
     0
100
AcDbPolyline
 90
        2
 70
     1
 43
0.5
 10
-0.0625
 20
0.0
 42
1.0
 10
0.0625
 20
0.0
 42
1.0
  0
ENDBLK
  5
17417
330
17414
100
AcDbEntity
  8
0
100
AcDbBlockEnd
  0
BLOCK
  5
17575
330
17569
100
AcDbEntity
  8
0
100
AcDbBlockBegin
  2
*D56
 70
     1
 10
0.0
 20
0.0
 30
0.0
  3
*D56
  1

  0
LINE
  5
17842
330
17569
100
AcDbEntity
  8
SUNPOU
370
    -2
100
AcDbLine
 10
-27592.5044262067
 20
5624.049253714657
 30
0.0
 11
-27592.5044262067
 21
5236.185798430655
 31
0.0
  0
LINE
  5
17843
330
17569
100
AcDbEntity
  8
SUNPOU
370
    -2
100
AcDbLine
 10
-27392.51160208318
 20
5424.310706202337
 30
0.0
 11
-27392.51160208318
 21
5236.185798430655
 31
0.0
  0
LINE
  5
17844
330
17569
100
AcDbEntity
  8
SUNPOU
 62
     0
370
    -2
100
AcDbLine
 10
-27672.5044262067
 20
5276.185798430655
 30
0.0
 11
-27752.5044262067
 21
5276.185798430655
 31
0.0
  0
LINE
  5
17845
330
17569
100
AcDbEntity
  8
SUNPOU
 62
     0
370
    -2
100
AcDbLine
 10
-27312.51160208318
 20
5276.185798430655
 30
0.0
 11
-27232.51160208318
 21
5276.185798430655
 31
0.0
  0
LINE
  5
17846
330
17569
100
AcDbEntity
  8
SUNPOU
 62
     0
370
    -2
100
AcDbLine
 10
-27592.5044262067
 20
5276.185798430655
 30
0.0
 11
-27392.51160208318
 21
5276.185798430655
 31
0.0
  0
SOLID
  5
17847
330
17569
100
AcDbEntity
  8
SUNPOU
 62
     0
100
AcDbTrace
 10
-27672.5044262067
 20
5289.519131763988
 30
0.0
 11
-27672.5044262067
 21
5262.852465097322
 31
0.0
 12
-27592.5044262067
 22
5276.185798430655
 32
0.0
 13
-27592.5044262067
 23
5276.185798430655
 33
0.0
  0
SOLID
  5
17848
330
17569
100
AcDbEntity
  8
SUNPOU
 62
     0
100
AcDbTrace
 10
-27312.51160208318
 20
5289.519131763988
 30
0.0
 11
-27312.51160208318
 21
5262.852465097322
 31
0.0
 12
-27392.51160208318
 22
5276.185798430655
 32
0.0
 13
-27392.51160208318
 23
5276.185798430655
 33
0.0
  0
MTEXT
  5
17849
330
17569
100
AcDbEntity
  8
SUNPOU
 62
     0
100
AcDbMText
 10
-27492.50801414494
 20
5368.185798430655
 30
0.0
 40
120.0
 41
0.0
 71
     5
 72
     1
  1
\A1;200
 73
     1
 44
1.0
  0
POINT
  5
1784A
330
17569
100
AcDbEntity
  8
DEFPOINTS
 62
     0
100
AcDbPoint
 10
-27592.5044262067
 20
5704.049253714657
 30
0.0
  0
POINT
  5
1784B
330
17569
100
AcDbEntity
  8
DEFPOINTS
 62
     0
100
AcDbPoint
 10
-27392.51160208318
 20
5504.310706202337
 30
0.0
  0
POINT
  5
1784C
330
17569
100
AcDbEntity
  8
DEFPOINTS
 62
     0
100
AcDbPoint
 10
-27392.51160208318
 20
5276.185798430655
 30
0.0
  0
ENDBLK
  5
17576
330
17569
100
AcDbEntity
  8
0
100
AcDbBlockEnd
  0
BLOCK
  5
17583
330
17577
100
AcDbEntity
  8
0
100
AcDbBlockBegin
  2
*D57
 70
     1
 10
0.0
 20
0.0
 30
0.0
  3
*D57
  1

  0
LINE
  5
17837
330
17577
100
AcDbEntity
  8
SUNPOU
370
    -2
100
AcDbLine
 10
-27472.51160208318
 20
5504.310706202337
 30
0.0
 11
-27846.09828250237
 21
5504.310706202337
 31
0.0
  0
LINE
  5
17838
330
17577
100
AcDbEntity
  8
SUNPOU
370
    -2
100
AcDbLine
 10
-27672.5044262067
 20
5704.049253714657
 30
0.0
 11
-27846.09828250237
 21
5704.049253714657
 31
0.0
  0
LINE
  5
17839
330
17577
100
AcDbEntity
  8
SUNPOU
 62
     0
370
    -2
100
AcDbLine
 10
-27806.09828250237
 20
5424.310706202337
 30
0.0
 11
-27806.09828250237
 21
5344.310706202337
 31
0.0
  0
LINE
  5
1783A
330
17577
100
AcDbEntity
  8
SUNPOU
 62
     0
370
    -2
100
AcDbLine
 10
-27806.09828250237
 20
5784.049253714657
 30
0.0
 11
-27806.09828250237
 21
5864.049253714657
 31
0.0
  0
LINE
  5
1783B
330
17577
100
AcDbEntity
  8
SUNPOU
 62
     0
370
    -2
100
AcDbLine
 10
-27806.09828250237
 20
5504.310706202337
 30
0.0
 11
-27806.09828250237
 21
5704.049253714657
 31
0.0
  0
SOLID
  5
1783C
330
17577
100
AcDbEntity
  8
SUNPOU
 62
     0
100
AcDbTrace
 10
-27819.4316158357
 20
5424.310706202337
 30
0.0
 11
-27792.76494916904
 21
5424.310706202337
 31
0.0
 12
-27806.09828250237
 22
5504.310706202337
 32
0.0
 13
-27806.09828250237
 23
5504.310706202337
 33
0.0
  0
SOLID
  5
1783D
330
17577
100
AcDbEntity
  8
SUNPOU
 62
     0
100
AcDbTrace
 10
-27819.4316158357
 20
5784.049253714657
 30
0.0
 11
-27792.76494916904
 21
5784.049253714657
 31
0.0
 12
-27806.09828250237
 22
5704.049253714657
 32
0.0
 13
-27806.09828250237
 23
5704.049253714657
 33
0.0
  0
MTEXT
  5
1783E
330
17577
100
AcDbEntity
  8
SUNPOU
 62
     0
100
AcDbMText
 10
-27898.09828250237
 20
5604.179979958492
 30
0.0
 40
120.0
 41
0.0
 71
     5
 72
     1
  1
\A1;200
 11
6.123031769111886E-17
 21
1.0
 31
0.0
 73
     1
 44
1.0
  0
POINT
  5
1783F
330
17577
100
AcDbEntity
  8
DEFPOINTS
 62
     0
100
AcDbPoint
 10
-27392.51160208318
 20
5504.310706202337
 30
0.0
  0
POINT
  5
17840
330
17577
100
AcDbEntity
  8
DEFPOINTS
 62
     0
100
AcDbPoint
 10
-27592.5044262067
 20
5704.049253714657
 30
0.0
  0
POINT
  5
17841
330
17577
100
AcDbEntity
  8
DEFPOINTS
 62
     0
100
AcDbPoint
 10
-27806.09828250237
 20
5704.049253714657
 30
0.0
  0
ENDBLK
  5
17584
330
17577
100
AcDbEntity
  8
0
100
AcDbBlockEnd
  0
BLOCK
  5
17979
330
1796F
100
AcDbEntity
  8
0
100
AcDbBlockBegin
  2
*D58
 70
     1
 10
0.0
 20
0.0
 30
0.0
  3
*D58
  1

  0
LINE
  5
17A57
330
1796F
100
AcDbEntity
  8
吊り金具
370
    -2
100
AcDbLine
 10
-30472.51160208319
 20
7920.115717752415
 30
0.0
 11
-30957.69809893632
 21
7920.115717752416
 31
0.0
  0
LINE
  5
17A58
330
1796F
100
AcDbEntity
  8
吊り金具
370
    -2
100
AcDbLine
 10
-30472.51160208319
 20
8540.115717752415
 30
0.0
 11
-30957.69809893631
 21
8540.115717752415
 31
0.0
  0
LINE
  5
17A59
330
1796F
100
AcDbEntity
  8
吊り金具
 62
     0
370
    -2
100
AcDbLine
 10
-30917.69809893632
 20
8000.115717752416
 30
0.0
 11
-30917.69809893631
 21
8460.115717752415
 31
0.0
  0
SOLID
  5
17A5A
330
1796F
100
AcDbEntity
  8
吊り金具
 62
     0
100
AcDbTrace
 10
-30931.03143226965
 20
8000.115717752416
 30
0.0
 11
-30904.36476560299
 21
8000.115717752416
 31
0.0
 12
-30917.69809893632
 22
7920.115717752416
 32
0.0
 13
-30917.69809893632
 23
7920.115717752416
 33
0.0
  0
SOLID
  5
17A5B
330
1796F
100
AcDbEntity
  8
吊り金具
 62
     0
100
AcDbTrace
 10
-30931.03143226965
 20
8460.115717752415
 30
0.0
 11
-30904.36476560298
 21
8460.115717752415
 31
0.0
 12
-30917.69809893631
 22
8540.115717752415
 32
0.0
 13
-30917.69809893631
 23
8540.115717752415
 33
0.0
  0
MTEXT
  5
17A5C
330
1796F
100
AcDbEntity
  8
吊り金具
 62
     0
100
AcDbMText
 10
-31009.69809893632
 20
8230.11571775241
 30
0.0
 40
120.0
 41
0.0
 71
     5
 72
     1
  1
\A1;620
 11
6.123031769111886E-17
 21
1.0
 31
0.0
 73
     1
 44
1.0
  0
POINT
  5
17A5D
330
1796F
100
AcDbEntity
  8
DEFPOINTS
 62
     0
100
AcDbPoint
 10
-30392.51160208319
 20
7920.115717752415
 30
0.0
  0
POINT
  5
17A5E
330
1796F
100
AcDbEntity
  8
DEFPOINTS
 62
     0
100
AcDbPoint
 10
-30392.51160208319
 20
8540.115717752415
 30
0.0
  0
POINT
  5
17A5F
330
1796F
100
AcDbEntity
  8
DEFPOINTS
 62
     0
100
AcDbPoint
 10
-30917.69809893631
 20
8540.115717752415
 30
0.0
  0
ENDBLK
  5
1797A
330
1796F
100
AcDbEntity
  8
0
100
AcDbBlockEnd
  0
BLOCK
  5
17986
330
1797C
100
AcDbEntity
  8
0
100
AcDbBlockBegin
  2
*D59
 70
     1
 10
0.0
 20
0.0
 30
0.0
  3
*D59
  1

  0
LINE
  5
17A4E
330
1797C
100
AcDbEntity
  8
吊り金具
370
    -2
100
AcDbLine
 10
-30472.51160208319
 20
9920.115717752415
 30
0.0
 11
-30957.69809893631
 21
9920.115717752415
 31
0.0
  0
LINE
  5
17A4F
330
1797C
100
AcDbEntity
  8
吊り金具
370
    -2
100
AcDbLine
 10
-30472.51160208319
 20
9120.115717752415
 30
0.0
 11
-30957.69809893631
 21
9120.115717752415
 31
0.0
  0
LINE
  5
17A50
330
1797C
100
AcDbEntity
  8
吊り金具
 62
     0
370
    -2
100
AcDbLine
 10
-30917.69809893631
 20
9840.115717752415
 30
0.0
 11
-30917.69809893631
 21
9200.115717752415
 31
0.0
  0
SOLID
  5
17A51
330
1797C
100
AcDbEntity
  8
吊り金具
 62
     0
100
AcDbTrace
 10
-30931.03143226965
 20
9840.115717752415
 30
0.0
 11
-30904.36476560298
 21
9840.115717752415
 31
0.0
 12
-30917.69809893631
 22
9920.115717752415
 32
0.0
 13
-30917.69809893631
 23
9920.115717752415
 33
0.0
  0
SOLID
  5
17A52
330
1797C
100
AcDbEntity
  8
吊り金具
 62
     0
100
AcDbTrace
 10
-30931.03143226965
 20
9200.115717752415
 30
0.0
 11
-30904.36476560298
 21
9200.115717752415
 31
0.0
 12
-30917.69809893631
 22
9120.115717752415
 32
0.0
 13
-30917.69809893631
 23
9120.115717752415
 33
0.0
  0
MTEXT
  5
17A53
330
1797C
100
AcDbEntity
  8
吊り金具
 62
     0
100
AcDbMText
 10
-31009.69809893632
 20
9520.11571775241
 30
0.0
 40
120.0
 41
0.0
 71
     5
 72
     1
  1
\A1;800
 11
6.123031769111886E-17
 21
1.0
 31
0.0
 73
     1
 44
1.0
  0
POINT
  5
17A54
330
1797C
100
AcDbEntity
  8
DEFPOINTS
 62
     0
100
AcDbPoint
 10
-30392.51160208319
 20
9920.115717752415
 30
0.0
  0
POINT
  5
17A55
330
1797C
100
AcDbEntity
  8
DEFPOINTS
 62
     0
100
AcDbPoint
 10
-30392.51160208319
 20
9120.115717752415
 30
0.0
  0
POINT
  5
17A56
330
1797C
100
AcDbEntity
  8
DEFPOINTS
 62
     0
100
AcDbPoint
 10
-30917.69809893631
 20
9120.115717752415
 30
0.0
  0
ENDBLK
  5
17987
330
1797C
100
AcDbEntity
  8
0
100
AcDbBlockEnd
  0
BLOCK
  5
17993
330
17989
100
AcDbEntity
  8
0
100
AcDbBlockBegin
  2
*D60
 70
     1
 10
0.0
 20
0.0
 30
0.0
  3
*D60
  1

  0
LINE
  5
17A45
330
17989
100
AcDbEntity
  8
吊り金具
370
    -2
100
AcDbLine
 10
-30472.51160208319
 20
9120.115717752415
 30
0.0
 11
-30957.69809893631
 21
9120.115717752415
 31
0.0
  0
LINE
  5
17A46
330
17989
100
AcDbEntity
  8
吊り金具
370
    -2
100
AcDbLine
 10
-30472.51160208319
 20
8540.115717752415
 30
0.0
 11
-30957.69809893631
 21
8540.115717752415
 31
0.0
  0
LINE
  5
17A47
330
17989
100
AcDbEntity
  8
吊り金具
 62
     0
370
    -2
100
AcDbLine
 10
-30917.69809893631
 20
9040.115717752415
 30
0.0
 11
-30917.69809893631
 21
8620.115717752415
 31
0.0
  0
SOLID
  5
17A48
330
17989
100
AcDbEntity
  8
吊り金具
 62
     0
100
AcDbTrace
 10
-30931.03143226965
 20
9040.115717752415
 30
0.0
 11
-30904.36476560298
 21
9040.115717752415
 31
0.0
 12
-30917.69809893631
 22
9120.115717752415
 32
0.0
 13
-30917.69809893631
 23
9120.115717752415
 33
0.0
  0
SOLID
  5
17A49
330
17989
100
AcDbEntity
  8
吊り金具
 62
     0
100
AcDbTrace
 10
-30931.03143226965
 20
8620.115717752415
 30
0.0
 11
-30904.36476560298
 21
8620.115717752415
 31
0.0
 12
-30917.69809893631
 22
8540.115717752415
 32
0.0
 13
-30917.69809893631
 23
8540.115717752415
 33
0.0
  0
MTEXT
  5
17A4A
330
17989
100
AcDbEntity
  8
吊り金具
 62
     0
100
AcDbMText
 10
-31009.69809893632
 20
8830.11571775241
 30
0.0
 40
120.0
 41
0.0
 71
     5
 72
     1
  1
\A1;580
 11
6.123031769111886E-17
 21
1.0
 31
0.0
 73
     1
 44
1.0
  0
POINT
  5
17A4B
330
17989
100
AcDbEntity
  8
DEFPOINTS
 62
     0
100
AcDbPoint
 10
-30392.51160208319
 20
9120.115717752415
 30
0.0
  0
POINT
  5
17A4C
330
17989
100
AcDbEntity
  8
DEFPOINTS
 62
     0
100
AcDbPoint
 10
-30392.51160208319
 20
8540.115717752415
 30
0.0
  0
POINT
  5
17A4D
330
17989
100
AcDbEntity
  8
DEFPOINTS
 62
     0
100
AcDbPoint
 10
-30917.69809893631
 20
8540.115717752415
 30
0.0
  0
ENDBLK
  5
17994
330
17989
100
AcDbEntity
  8
0
100
AcDbBlockEnd
  0
BLOCK
  5
179A7
330
1799D
100
AcDbEntity
  8
0
100
AcDbBlockBegin
  2
*D61
 70
     1
 10
0.0
 20
0.0
 30
0.0
  3
*D61
  1

  0
LINE
  5
17A72
330
1799D
100
AcDbEntity
  8
吊り金具
370
    -2
100
AcDbLine
 10
-30392.51160208319
 20
7840.115717752415
 30
0.0
 11
-30392.51160208319
 21
7463.94546279166
 31
0.0
  0
LINE
  5
17A73
330
1799D
100
AcDbEntity
  8
吊り金具
370
    -2
100
AcDbLine
 10
-29942.51160208319
 20
7760.115717752411
 30
0.0
 11
-29942.51160208319
 21
7463.94546279166
 31
0.0
  0
LINE
  5
17A74
330
1799D
100
AcDbEntity
  8
吊り金具
 62
     0
370
    -2
100
AcDbLine
 10
-30312.51160208319
 20
7503.94546279166
 30
0.0
 11
-30022.51160208319
 21
7503.94546279166
 31
0.0
  0
SOLID
  5
17A75
330
1799D
100
AcDbEntity
  8
吊り金具
 62
     0
100
AcDbTrace
 10
-30312.51160208319
 20
7517.278796124993
 30
0.0
 11
-30312.51160208319
 21
7490.612129458327
 31
0.0
 12
-30392.51160208319
 22
7503.94546279166
 32
0.0
 13
-30392.51160208319
 23
7503.94546279166
 33
0.0
  0
SOLID
  5
17A76
330
1799D
100
AcDbEntity
  8
吊り金具
 62
     0
100
AcDbTrace
 10
-30022.51160208319
 20
7517.278796124993
 30
0.0
 11
-30022.51160208319
 21
7490.612129458327
 31
0.0
 12
-29942.51160208319
 22
7503.94546279166
 32
0.0
 13
-29942.51160208319
 23
7503.94546279166
 33
0.0
  0
MTEXT
  5
17A77
330
1799D
100
AcDbEntity
  8
吊り金具
 62
     0
100
AcDbMText
 10
-30167.51160208319
 20
7595.94546279166
 30
0.0
 40
120.0
 41
0.0
 71
     5
 72
     1
  1
\A1;450
 73
     1
 44
1.0
  0
POINT
  5
17A78
330
1799D
100
AcDbEntity
  8
DEFPOINTS
 62
     0
100
AcDbPoint
 10
-30392.51160208319
 20
7920.115717752415
 30
0.0
  0
POINT
  5
17A79
330
1799D
100
AcDbEntity
  8
DEFPOINTS
 62
     0
100
AcDbPoint
 10
-29942.51160208319
 20
7840.115717752411
 30
0.0
  0
POINT
  5
17A7A
330
1799D
100
AcDbEntity
  8
DEFPOINTS
 62
     0
100
AcDbPoint
 10
-29942.51160208319
 20
7503.94546279166
 30
0.0
  0
ENDBLK
  5
179A8
330
1799D
100
AcDbEntity
  8
0
100
AcDbBlockEnd
  0
BLOCK
  5
179B4
330
179AA
100
AcDbEntity
  8
0
100
AcDbBlockBegin
  2
*D62
 70
     1
 10
0.0
 20
0.0
 30
0.0
  3
*D62
  1

  0
LINE
  5
17A69
330
179AA
100
AcDbEntity
  8
吊り金具
370
    -2
100
AcDbLine
 10
-27192.51160208319
 20
7840.115717752415
 30
0.0
 11
-27192.51160208319
 21
7463.94546279166
 31
0.0
  0
LINE
  5
17A6A
330
179AA
100
AcDbEntity
  8
吊り金具
370
    -2
100
AcDbLine
 10
-27642.5116020832
 20
7760.115717752411
 30
0.0
 11
-27642.5116020832
 21
7463.94546279166
 31
0.0
  0
LINE
  5
17A6B
330
179AA
100
AcDbEntity
  8
吊り金具
 62
     0
370
    -2
100
AcDbLine
 10
-27272.51160208319
 20
7503.94546279166
 30
0.0
 11
-27562.5116020832
 21
7503.94546279166
 31
0.0
  0
SOLID
  5
17A6C
330
179AA
100
AcDbEntity
  8
吊り金具
 62
     0
100
AcDbTrace
 10
-27272.51160208319
 20
7517.278796124993
 30
0.0
 11
-27272.51160208319
 21
7490.612129458327
 31
0.0
 12
-27192.51160208319
 22
7503.94546279166
 32
0.0
 13
-27192.51160208319
 23
7503.94546279166
 33
0.0
  0
SOLID
  5
17A6D
330
179AA
100
AcDbEntity
  8
吊り金具
 62
     0
100
AcDbTrace
 10
-27562.5116020832
 20
7517.278796124993
 30
0.0
 11
-27562.5116020832
 21
7490.612129458327
 31
0.0
 12
-27642.5116020832
 22
7503.94546279166
 32
0.0
 13
-27642.5116020832
 23
7503.94546279166
 33
0.0
  0
MTEXT
  5
17A6E
330
179AA
100
AcDbEntity
  8
吊り金具
 62
     0
100
AcDbMText
 10
-27417.51160208319
 20
7595.94546279166
 30
0.0
 40
120.0
 41
0.0
 71
     5
 72
     1
  1
\A1;450
 73
     1
 44
1.0
  0
POINT
  5
17A6F
330
179AA
100
AcDbEntity
  8
DEFPOINTS
 62
     0
100
AcDbPoint
 10
-27192.51160208319
 20
7920.115717752415
 30
0.0
  0
POINT
  5
17A70
330
179AA
100
AcDbEntity
  8
DEFPOINTS
 62
     0
100
AcDbPoint
 10
-27642.5116020832
 20
7840.115717752411
 30
0.0
  0
POINT
  5
17A71
330
179AA
100
AcDbEntity
  8
DEFPOINTS
 62
     0
100
AcDbPoint
 10
-27642.5116020832
 20
7503.94546279166
 30
0.0
  0
ENDBLK
  5
179B5
330
179AA
100
AcDbEntity
  8
0
100
AcDbBlockEnd
  0
BLOCK
  5
179CA
330
179C0
100
AcDbEntity
  8
0
100
AcDbBlockBegin
  2
*D63
 70
     1
 10
0.0
 20
0.0
 30
0.0
  3
*D63
  1

  0
LINE
  5
17A60
330
179C0
100
AcDbEntity
  8
吊り金具
370
    -2
100
AcDbLine
 10
-29942.51160208319
 20
7760.115717752411
 30
0.0
 11
-29942.51160208319
 21
7463.94546279166
 31
0.0
  0
LINE
  5
17A61
330
179C0
100
AcDbEntity
  8
吊り金具
370
    -2
100
AcDbLine
 10
-27642.5116020832
 20
7760.115717752411
 30
0.0
 11
-27642.5116020832
 21
7463.94546279166
 31
0.0
  0
LINE
  5
17A62
330
179C0
100
AcDbEntity
  8
吊り金具
 62
     0
370
    -2
100
AcDbLine
 10
-29862.51160208319
 20
7503.94546279166
 30
0.0
 11
-27722.5116020832
 21
7503.94546279166
 31
0.0
  0
SOLID
  5
17A63
330
179C0
100
AcDbEntity
  8
吊り金具
 62
     0
100
AcDbTrace
 10
-29862.51160208319
 20
7517.278796124993
 30
0.0
 11
-29862.51160208319
 21
7490.612129458327
 31
0.0
 12
-29942.51160208319
 22
7503.94546279166
 32
0.0
 13
-29942.51160208319
 23
7503.94546279166
 33
0.0
  0
SOLID
  5
17A64
330
179C0
100
AcDbEntity
  8
吊り金具
 62
     0
100
AcDbTrace
 10
-27722.5116020832
 20
7517.278796124993
 30
0.0
 11
-27722.5116020832
 21
7490.612129458327
 31
0.0
 12
-27642.5116020832
 22
7503.94546279166
 32
0.0
 13
-27642.5116020832
 23
7503.94546279166
 33
0.0
  0
MTEXT
  5
17A65
330
179C0
100
AcDbEntity
  8
吊り金具
 62
     0
100
AcDbMText
 10
-28792.51160208319
 20
7595.94546279166
 30
0.0
 40
120.0
 41
0.0
 71
     5
 72
     1
  1
\A1;2300
 73
     1
 44
1.0
  0
POINT
  5
17A66
330
179C0
100
AcDbEntity
  8
DEFPOINTS
 62
     0
100
AcDbPoint
 10
-29942.51160208319
 20
7840.115717752411
 30
0.0
  0
POINT
  5
17A67
330
179C0
100
AcDbEntity
  8
DEFPOINTS
 62
     0
100
AcDbPoint
 10
-27642.5116020832
 20
7840.115717752411
 30
0.0
  0
POINT
  5
17A68
330
179C0
100
AcDbEntity
  8
DEFPOINTS
 62
     0
100
AcDbPoint
 10
-27642.5116020832
 20
7503.94546279166
 30
0.0
  0
ENDBLK
  5
179CB
330
179C0
100
AcDbEntity
  8
0
100
AcDbBlockEnd
  0
ENDSEC
  0
SECTION
  2
ENTITIES
  0
LINE
  5
CB
330
17
100
AcDbEntity
  8
1HASEN
 48
0.5
100
AcDbLine
 10
-28792.51160208319
 20
6483.890719373616
 30
0.0
 11
-28792.51160208319
 21
3639.922788559081
 31
0.0
  0
TEXT
  5
40D
330
17
100
AcDbEntity
  8
SUNPOU
100
AcDbText
 10
-29189.71264184612
 20
6513.890719373616
 30
0.0
 40
160.0
  1
受口
 72
     1
 11
-29024.37930851278
 21
6513.890719373616
 31
0.0
100
AcDbText
  0
TEXT
  5
40E
330
17
100
AcDbEntity
  8
SUNPOU
100
AcDbText
 10
-28738.94410382513
 20
6513.890719373616
 30
0.0
 40
160.0
  1
差口
 72
     1
 11
-28573.6107704918
 21
6513.890719373616
 31
0.0
100
AcDbText
  0
LINE
  5
40F
330
17
100
AcDbEntity
  8
SUNPOU
100
AcDbLine
 10
-29269.99386404634
 20
6483.890719373616
 30
0.0
 11
-28329.11618381692
 21
6483.890719373616
 31
0.0
  0
TEXT
  5
410
330
17
100
AcDbEntity
  8
SUNPOU
100
AcDbText
 10
-30329.43233290575
 20
6880.039683381539
 30
0.0
 40
200.0
  1
正　面　図
 72
     1
 11
-29762.76566623908
 21
6880.039683381539
 31
0.0
100
AcDbText
  0
TEXT
  5
416
330
17
100
AcDbEntity
  8
SUNPOU
100
AcDbText
 10
-24446.97911854888
 20
6880.039683381539
 30
0.0
 40
200.0
  1
側　面　図
 72
     1
 11
-23880.31245188222
 21
6880.039683381539
 31
0.0
100
AcDbText
  0
TEXT
  5
418
330
17
100
AcDbEntity
  8
SUNPOU
100
AcDbText
 10
-30329.43233290575
 20
10345.94749276002
 30
0.0
 40
200.0
  1
平　面　図
 72
     1
 11
-29762.76566623908
 21
10345.94749276002
 31
0.0
100
AcDbText
  0
LINE
  5
419
330
17
100
AcDbEntity
  8
SUNPOU
100
AcDbLine
 10
-30392.51160208319
 20
10315.94749276002
 30
0.0
 11
-29126.43216112679
 21
10315.94749276002
 31
0.0
  0
TEXT
  5
41A
330
17
100
AcDbEntity
  8
SUNPOU
100
AcDbText
 10
-30463.91142838196
 20
1074.680751051019
 30
0.0
 40
120.0
  1
（備考） 寸法や強度に影響を及ぼさない範囲で、端面の面取り、
100
AcDbText
  0
TEXT
  5
41B
330
17
100
AcDbEntity
  8
SUNPOU
100
AcDbText
 10
-29819.37972244113
 20
890.1486161320281
 30
0.0
 40
120.0
  1
パッキン溝及び吊り孔等の加工を行なってもよい。
100
AcDbText
  0
TEXT
  5
839
330
17
100
AcDbEntity
  8
SUNPOU
100
AcDbText
 10
-20054.86922625629
 20
7612.949624819819
 30
0.0
 40
200.0
  1
継手詳細図
 72
     1
 11
-19488.20255958963
 21
7612.949624819819
 31
0.0
100
AcDbText
  0
LINE
  5
83A
330
17
100
AcDbEntity
  8
SUNPOU
100
AcDbLine
 10
-20107.19815871026
 20
7583.877047528164
 30
0.0
 11
-18050.31667357649
 21
7583.877047528164
 31
0.0
  0
LINE
  5
847
330
17
100
AcDbEntity
  8
SUNPOU
100
AcDbLine
 10
-19917.21080078868
 20
7330.817835597621
 30
0.0
 11
-19155.72789830846
 21
7330.817835597619
 31
0.0
  0
TEXT
  5
848
330
17
100
AcDbEntity
  8
SUNPOU
100
AcDbText
 10
-19898.28901852997
 20
7365.810669656646
 30
0.0
 40
160.0
  1
頂・底版
 72
     1
 11
-19535.62235186331
 21
7365.810669656646
 31
0.0
100
AcDbText
  0
TEXT
  5
858
330
17
100
AcDbEntity
  8
SUNPOU
100
AcDbText
 10
-19809.6256543137
 20
4687.308057682312
 30
0.0
 40
160.0
  1
側　壁
 72
     1
 11
-19542.95898764703
 21
4687.308057682312
 31
0.0
100
AcDbText
  0
LINE
  5
859
330
17
100
AcDbEntity
  8
SUNPOU
100
AcDbLine
 10
-19812.61313064383
 20
4668.558057682315
 30
0.0
 11
-19260.32556845331
 21
4668.558057682311
 31
0.0
  0
TEXT
  5
10B9
330
17
100
AcDbEntity
  8
SUNPOU
100
AcDbText
 10
-18711.25212209399
 20
7616.698618584312
 30
0.0
 40
160.0
  1
S=1/10
 41
0.8
 72
     1
 11
-18401.91878876065
 21
7616.698618584312
 31
0.0
100
AcDbText
  0
DIMENSION
  5
183F
330
17
100
AcDbEntity
  8
SUNPOU
100
AcDbDimension
  2
*D0
 10
-26634.51160208319
 20
7840.115717752413
 30
0.0
 11
-26634.51160208319
 21
7576.115717752408
 31
0.0
 70
   160
 71
     5
 42
79.99999999999818
  3
STANDARD
100
AcDbAlignedDimension
 13
-27192.51160208319
 23
7920.115717752411
 33
0.0
 14
-27307.51160208319
 24
7840.115717752413
 34
0.0
 50
90.0
100
AcDbRotatedDimension
1001
ACAD
1000
DSTYLE
1002
{
1070
    40
1040
40.0
1070
    41
1040
2.0
1070
    42
1040
2.0
1070
    43
1040
7.0
1070
    44
1040
1.0
1070
    73
1070
     0
1070
    74
1070
     0
1070
    77
1070
     1
1070
    78
1070
     8
1070
   140
1040
3.0
1070
   141
1040
0.0
1070
   145
1040
1.0
1070
   147
1040
0.8
1070
   172
1070
     1
1070
   174
1070
     1
1070
   177
1070
   256
1070
   271
1070
     0
1070
   272
1070
     0
1070
   275
1070
     1
1070
   284
1070
     8
1070
   285
1070
     8
1070
   286
1070
     8
1070
   289
1070
     0
1002
}
  0
DIMENSION
  5
184F
330
17
100
AcDbEntity
  8
SUNPOU
100
AcDbDimension
  2
*D1
 10
-26354.51160208319
 20
9840.115717752411
 30
0.0
 11
-26446.51160208319
 21
8840.115717752407
 31
0.0
 70
    32
 71
     5
 42
1999.999999999999
  3
STANDARD
100
AcDbAlignedDimension
 13
-27307.51160208319
 23
7840.115717752413
 33
0.0
 14
-27192.51160208319
 24
9840.115717752411
 34
0.0
 50
90.0
100
AcDbRotatedDimension
1001
ACAD
1000
DSTYLE
1002
{
1070
    40
1040
40.0
1070
    41
1040
2.0
1070
    42
1040
2.0
1070
    43
1040
7.0
1070
    44
1040
1.0
1070
    73
1070
     0
1070
    74
1070
     0
1070
    77
1070
     1
1070
    78
1070
     8
1070
   140
1040
3.0
1070
   141
1040
0.0
1070
   145
1040
1.0
1070
   147
1040
0.8
1070
   172
1070
     1
1070
   174
1070
     1
1070
   177
1070
   256
1070
   271
1070
     0
1070
   272
1070
     0
1070
   275
1070
     1
1070
   279
1070
     2
1070
   284
1070
     8
1070
   285
1070
     8
1070
   286
1070
     8
1070
   289
1070
     0
1002
}
  0
DIMENSION
  5
185C
330
17
100
AcDbEntity
  8
SUNPOU
100
AcDbDimension
  2
*D2
 10
-26354.51160208319
 20
9840.115717752411
 30
0.0
 11
-26354.51160208319
 21
10184.11571775241
 31
0.0
 70
   160
 71
     5
 42
80.0
  3
STANDARD
100
AcDbAlignedDimension
 13
-27192.51160208319
 23
9920.115717752411
 33
0.0
 14
-27192.51160208319
 24
9840.115717752411
 34
0.0
 50
90.0
100
AcDbRotatedDimension
1001
ACAD
1000
DSTYLE
1002
{
1070
    40
1040
40.0
1070
    41
1040
2.0
1070
    42
1040
2.0
1070
    43
1040
7.0
1070
    44
1040
1.0
1070
    73
1070
     0
1070
    74
1070
     0
1070
    77
1070
     1
1070
    78
1070
     8
1070
   140
1040
3.0
1070
   141
1040
0.0
1070
   145
1040
1.0
1070
   147
1040
0.8
1070
   172
1070
     1
1070
   174
1070
     1
1070
   177
1070
   256
1070
   271
1070
     0
1070
   272
1070
     0
1070
   275
1070
     1
1070
   284
1070
     8
1070
   285
1070
     8
1070
   286
1070
     8
1070
   289
1070
     0
1002
}
  0
DIMENSION
  5
18AF
330
17
100
AcDbEntity
  8
SUNPOU
100
AcDbDimension
  2
*D3
 10
-26634.51160208319
 20
3804.049253714657
 30
0.0
 11
-26726.51160208319
 21
3904.049253714653
 31
0.0
 70
    32
 71
     5
 42
199.9999999999991
  3
STANDARD
100
AcDbAlignedDimension
 13
-27192.51160208319
 23
4004.049253714657
 33
0.0
 14
-27192.51160208319
 24
3804.049253714657
 34
0.0
 50
90.0
100
AcDbRotatedDimension
1001
ACAD
1000
DSTYLE
1002
{
1070
    40
1040
40.0
1070
    41
1040
2.0
1070
    42
1040
2.0
1070
    43
1040
7.0
1070
    44
1040
1.0
1070
    73
1070
     0
1070
    74
1070
     0
1070
    77
1070
     1
1070
    78
1070
     8
1070
   140
1040
3.0
1070
   141
1040
0.0
1070
   145
1040
1.0
1070
   147
1040
0.8
1070
   172
1070
     1
1070
   174
1070
     1
1070
   177
1070
   256
1070
   271
1070
     0
1070
   272
1070
     0
1070
   275
1070
     1
1070
   279
1070
     2
1070
   284
1070
     8
1070
   285
1070
     8
1070
   286
1070
     8
1070
   289
1070
     0
1002
}
  0
DIMENSION
  5
18BC
330
17
100
AcDbEntity
  8
SUNPOU
100
AcDbDimension
  2
*D4
 10
-26634.51160208319
 20
5904.049253714657
 30
0.0
 11
-26726.51160208319
 21
5804.049253714652
 31
0.0
 70
    32
 71
     5
 42
200.0
  3
STANDARD
100
AcDbAlignedDimension
 13
-27192.51160208319
 23
5704.049253714657
 33
0.0
 14
-27192.51160208319
 24
5904.049253714657
 34
0.0
 50
90.0
100
AcDbRotatedDimension
1001
ACAD
1000
DSTYLE
1002
{
1070
    40
1040
40.0
1070
    41
1040
2.0
1070
    42
1040
2.0
1070
    43
1040
7.0
1070
    44
1040
1.0
1070
    73
1070
     0
1070
    74
1070
     0
1070
    77
1070
     1
1070
    78
1070
     8
1070
   140
1040
3.0
1070
   141
1040
0.0
1070
   145
1040
1.0
1070
   147
1040
0.8
1070
   172
1070
     1
1070
   174
1070
     1
1070
   177
1070
   256
1070
   271
1070
     0
1070
   272
1070
     0
1070
   275
1070
     1
1070
   279
1070
     2
1070
   284
1070
     8
1070
   285
1070
     8
1070
   286
1070
     8
1070
   289
1070
     0
1002
}
  0
DIMENSION
  5
194F
330
17
100
AcDbEntity
  8
SUNPOU
100
AcDbDimension
  2
*D5
 10
-26634.51160208319
 20
5704.049253714657
 30
0.0
 11
-26726.51160208319
 21
4854.049253714652
 31
0.0
 70
    32
 71
     5
 42
1700.0
  3
STANDARD
100
AcDbAlignedDimension
 13
-27192.51160208319
 23
4004.049253714657
 33
0.0
 14
-27192.51160208319
 24
5704.049253714657
 34
0.0
 50
90.0
100
AcDbRotatedDimension
1001
ACAD
1000
DSTYLE
1002
{
1070
    40
1040
40.0
1070
    41
1040
2.0
1070
    42
1040
2.0
1070
    43
1040
7.0
1070
    44
1040
1.0
1070
    73
1070
     0
1070
    74
1070
     0
1070
    77
1070
     1
1070
    78
1070
     8
1070
   140
1040
3.0
1070
   141
1040
0.0
1070
   145
1040
1.0
1070
   147
1040
0.8
1070
   172
1070
     1
1070
   174
1070
     1
1070
   177
1070
   256
1070
   271
1070
     0
1070
   272
1070
     0
1070
   275
1070
     1
1070
   279
1070
     2
1070
   284
1070
     8
1070
   285
1070
     8
1070
   286
1070
     8
1070
   289
1070
     0
1002
}
  0
DIMENSION
  5
195C
330
17
100
AcDbEntity
  8
SUNPOU
100
AcDbDimension
  2
*D6
 10
-26354.5116020832
 20
3804.049253714657
 30
0.0
 11
-26446.5116020832
 21
4854.049253714653
 31
0.0
 70
    32
 71
     5
 42
2099.999999999999
  3
STANDARD
100
AcDbAlignedDimension
 13
-27192.51160208319
 23
5904.049253714657
 33
0.0
 14
-27192.51160208319
 24
3804.049253714657
 34
0.0
 50
90.0
100
AcDbRotatedDimension
1001
ACAD
1000
DSTYLE
1002
{
1070
    40
1040
40.0
1070
    41
1040
2.0
1070
    42
1040
2.0
1070
    43
1040
7.0
1070
    44
1040
1.0
1070
    73
1070
     0
1070
    74
1070
     0
1070
    77
1070
     1
1070
    78
1070
     8
1070
   140
1040
3.0
1070
   141
1040
0.0
1070
   145
1040
1.0
1070
   147
1040
0.8
1070
   172
1070
     1
1070
   174
1070
     1
1070
   177
1070
   256
1070
   271
1070
     0
1070
   272
1070
     0
1070
   275
1070
     1
1070
   279
1070
     2
1070
   284
1070
     8
1070
   285
1070
     8
1070
   286
1070
     8
1070
   289
1070
     0
1002
}
  0
TEXT
  5
6C01
330
17
100
AcDbEntity
  8
SUNPOU
100
AcDbText
 10
-22240.49146395282
 20
5490.086862234291
 30
0.0
 40
120.0
  1
PC鋼棒φ23mm(C種)
100
AcDbText
  0
LINE
  5
6C02
330
17
100
AcDbEntity
  8
SUNPOU
100
AcDbLine
 10
-20740.97859710352
 20
5452.481733584829
 30
0.0
 11
-22256.50885303185
 21
5452.481733584829
 31
0.0
1001
ACAD
1000
DSTYLE
1002
{
1070
    78
1070
     8
1070
   284
1070
     8
1070
   140
1040
2.5
1070
   145
1040
1.0
1070
    74
1070
     0
1070
    73
1070
     0
1070
    40
1040
30.0
1070
   287
1070
     5
1070
    42
1040
2.0
1070
    44
1040
1.0
1070
    43
1040
7.0
1070
   141
1040
0.0
1070
   275
1070
     1
1070
    41
1040
2.0
1070
   285
1070
     8
1070
   286
1070
     8
1002
}
  0
LEADER
  5
6C06
330
17
100
AcDbEntity
  8
SUNPOU
100
AcDbLeader
  3
STANDARD
 76
     2
 10
-22575.43870646079
 20
3955.390428083199
 30
0.0
 10
-22298.39625607252
 20
4286.915119669284
 30
0.0
210
0.0
220
0.0
230
-1.0
1001
ACAD
1000
DSTYLE
1002
{
1070
    40
1040
40.0
1070
    41
1040
2.0
1070
    42
1040
2.0
1070
    43
1040
7.0
1070
    44
1040
1.0
1070
    73
1070
     0
1070
    74
1070
     0
1070
    78
1070
     8
1070
   140
1040
2.5
1070
   141
1040
0.0
1070
   145
1040
1.0
1070
   147
1040
0.8
1070
   172
1070
     1
1070
   174
1070
     1
1070
   177
1070
   256
1070
   271
1070
     0
1070
   272
1070
     0
1070
   275
1070
     1
1070
   279
1070
     2
1070
   284
1070
     8
1070
   285
1070
     8
1070
   286
1070
     8
1070
   289
1070
     0
1002
}
  0
TEXT
  5
6C07
330
17
100
AcDbEntity
  8
SUNPOU
100
AcDbText
 10
-22189.54488278219
 20
4313.912140292538
 30
0.0
 40
120.0
  1
PC鋼棒φ23mm(C種)
100
AcDbText
  0
DIMENSION
  5
6C08
330
17
100
AcDbEntity
  8
SUNPOU
100
AcDbDimension
  2
*D7
 10
-24218.92327040973
 20
6341.450375298221
 30
0.0
 11
-24338.92327040974
 21
6433.450375298221
 31
0.0
 70
    32
 71
     5
 42
240.0000000000036
  3
STANDARD
100
AcDbAlignedDimension
 13
-24458.92327040974
 23
5904.049253714657
 33
0.0
 14
-24218.92327040973
 24
5904.049253714657
 34
0.0
100
AcDbRotatedDimension
1001
ACAD
1000
DSTYLE
1002
{
1070
    40
1040
40.0
1070
    41
1040
2.0
1070
    42
1040
2.0
1070
    43
1040
7.0
1070
    44
1040
1.0
1070
    73
1070
     0
1070
    74
1070
     0
1070
    77
1070
     1
1070
    78
1070
     8
1070
   140
1040
3.0
1070
   141
1040
0.0
1070
   145
1040
1.0
1070
   147
1040
0.8
1070
   172
1070
     1
1070
   174
1070
     1
1070
   177
1070
   256
1070
   271
1070
     0
1070
   272
1070
     0
1070
   275
1070
     1
1070
   279
1070
     2
1070
   284
1070
     8
1070
   285
1070
     8
1070
   286
1070
     8
1070
   289
1070
     0
1002
}
  0
DIMENSION
  5
6C15
330
17
100
AcDbEntity
  8
SUNPOU
100
AcDbDimension
  2
*D8
 10
-22618.92327040973
 20
6341.450375298221
 30
0.0
 11
-23418.92327040973
 21
6433.450375298221
 31
0.0
 70
    32
  1
4@400=<>
 71
     5
 42
1600.0
  3
STANDARD
100
AcDbAlignedDimension
 13
-24218.92327040973
 23
5904.049253714657
 33
0.0
 14
-22618.92327040973
 24
5904.049253714657
 34
0.0
100
AcDbRotatedDimension
1001
ACAD
1000
DSTYLE
1002
{
1070
    40
1040
40.0
1070
    41
1040
2.0
1070
    42
1040
2.0
1070
    43
1040
7.0
1070
    44
1040
1.0
1070
    73
1070
     0
1070
    74
1070
     0
1070
    77
1070
     1
1070
    78
1070
     8
1070
   140
1040
3.0
1070
   141
1040
0.0
1070
   145
1040
1.0
1070
   147
1040
0.8
1070
   172
1070
     1
1070
   174
1070
     1
1070
   177
1070
   256
1070
   271
1070
     0
1070
   272
1070
     0
1070
   275
1070
     1
1070
   279
1070
     2
1070
   284
1070
     8
1070
   285
1070
     8
1070
   286
1070
     8
1070
   289
1070
     0
1002
}
  0
DIMENSION
  5
6C22
330
17
100
AcDbEntity
  8
SUNPOU
100
AcDbDimension
  2
*D9
 10
-22378.92327040974
 20
6341.450375298221
 30
0.0
 11
-22498.92327040974
 21
6433.450375298221
 31
0.0
 70
    32
 71
     5
 42
239.9999999999964
  3
STANDARD
100
AcDbAlignedDimension
 13
-22618.92327040973
 23
5904.049253714657
 33
0.0
 14
-22378.92327040974
 24
5904.049253714657
 34
0.0
100
AcDbRotatedDimension
1001
ACAD
1000
DSTYLE
1002
{
1070
    40
1040
40.0
1070
    41
1040
2.0
1070
    42
1040
2.0
1070
    43
1040
7.0
1070
    44
1040
1.0
1070
    73
1070
     0
1070
    74
1070
     0
1070
    77
1070
     1
1070
    78
1070
     8
1070
   140
1040
3.0
1070
   141
1040
0.0
1070
   145
1040
1.0
1070
   147
1040
0.8
1070
   172
1070
     1
1070
   174
1070
     1
1070
   177
1070
   256
1070
   271
1070
     0
1070
   272
1070
     0
1070
   275
1070
     1
1070
   279
1070
     2
1070
   284
1070
     8
1070
   285
1070
     8
1070
   286
1070
     8
1070
   289
1070
     0
1002
}
  0
DIMENSION
  5
6CA0
330
17
100
AcDbEntity
  8
SUNPOU
100
AcDbDimension
  2
*D10
 10
-26914.51160208319
 20
7840.115717752413
 30
0.0
 11
-27006.51160208319
 21
7960.115717752406
 31
0.0
 70
    32
 71
     5
 42
239.9999999999955
  3
STANDARD
100
AcDbAlignedDimension
 13
-27192.51160208319
 23
8080.115717752408
 33
0.0
 14
-27307.51160208319
 24
7840.115717752413
 34
0.0
 50
90.0
100
AcDbRotatedDimension
1001
ACAD
1000
DSTYLE
1002
{
1070
    40
1040
40.0
1070
    41
1040
2.0
1070
    42
1040
2.0
1070
    43
1040
7.0
1070
    44
1040
1.0
1070
    73
1070
     0
1070
    74
1070
     0
1070
    77
1070
     1
1070
    78
1070
     8
1070
   140
1040
3.0
1070
   141
1040
0.0
1070
   145
1040
1.0
1070
   147
1040
0.8
1070
   172
1070
     1
1070
   174
1070
     1
1070
   177
1070
   256
1070
   271
1070
     0
1070
   272
1070
     0
1070
   275
1070
     1
1070
   279
1070
     2
1070
   284
1070
     8
1070
   285
1070
     8
1070
   286
1070
     8
1070
   289
1070
     0
1002
}
  0
DIMENSION
  5
6CD5
330
17
100
AcDbEntity
  8
SUNPOU
100
AcDbDimension
  2
*D11
 10
-26914.51160208319
 20
9680.11571775241
 30
0.0
 11
-27006.51160208319
 21
8880.115717752406
 31
0.0
 70
    32
  1
4@400=<>
 71
     5
 42
1600.000000000002
  3
STANDARD
100
AcDbAlignedDimension
 13
-27192.51160208319
 23
8080.115717752408
 33
0.0
 14
-27192.51160208319
 24
9680.11571775241
 34
0.0
 50
90.0
100
AcDbRotatedDimension
1001
ACAD
1000
DSTYLE
1002
{
1070
    40
1040
40.0
1070
    41
1040
2.0
1070
    42
1040
2.0
1070
    43
1040
7.0
1070
    44
1040
1.0
1070
    73
1070
     0
1070
    74
1070
     0
1070
    77
1070
     1
1070
    78
1070
     8
1070
   140
1040
3.0
1070
   141
1040
0.0
1070
   145
1040
1.0
1070
   147
1040
0.8
1070
   172
1070
     1
1070
   174
1070
     1
1070
   177
1070
   256
1070
   271
1070
     0
1070
   272
1070
     0
1070
   275
1070
     1
1070
   279
1070
     2
1070
   284
1070
     8
1070
   285
1070
     8
1070
   286
1070
     8
1070
   289
1070
     0
1002
}
  0
TEXT
  5
6D79
330
17
100
AcDbEntity
  8
SUNPOU
100
AcDbText
 10
16032.94782817519
 20
4057.622502763472
 30
0.0
 40
90.0
  1

 72
     1
 11
16032.94782817519
 21
4057.622502763472
 31
0.0
100
AcDbText
  0
INSERT
  5
8E4C
330
17
100
AcDbEntity
  8
ASHADE
 62
     1
100
AcDbBlockReference
  2
AVE_RENDER
 10
0.0
 20
0.0
 30
0.0
1001
AVE_RENDER
1002
{
1070
     7
1000
Pref
1070
    50
1070
    20
1070
     1
1070
     0
1000

1070
    10
1070
     1
1070
    10
1040
1.0
1070
     1
1040
0.7
1040
1.0
1040
0.0
1040
10.0
1010
-1.0
1020
-1.0
1030
-1.0
1040
0.3
1070
    49
1070
     0
1070
     0
1010
1.0
1020
1.0
1030
1.0
1040
45.0
1070
     1
1070
     0
1000
WCS
1040
0.0
1070
     0
1040
10.0
1002
}
  0
INSERT
  5
8E4D
330
17
100
AcDbEntity
  8
ASHADE
 62
     3
100
AcDbBlockReference
  2
AVE_RENDER
 10
0.0
 20
0.0
 30
0.0
1001
AVE_RENDER
1002
{
1070
     0
1000
Full Opt
1070
     0
1070
     1
1070
     1
1070
     1
1070
     0
1070
     0
1070
     0
1070
     1
1070
     1
1040
0.0001
1040
0.0001
1002
}
  0
INSERT
  5
8E4E
330
17
100
AcDbEntity
  8
ASHADE
 62
     4
100
AcDbBlockReference
  2
AVE_RENDER
 10
0.0
 20
0.0
 30
0.0
1001
AVE_RENDER
1002
{
1070
     0
1000
Quick Opt
1070
     0
1070
     1
1070
     1
1070
     1
1070
     0
1070
     0
1070
     1
1002
}
  0
INSERT
  5
8E4F
330
17
100
AcDbEntity
  8
ASHADE
 62
     5
100
AcDbBlockReference
  2
AVE_RENDER
 10
0.0
 20
0.0
 30
0.0
1001
AVE_RENDER
1002
{
1070
     1
1000
Scanl Opt
1070
     2
1070
     0
1070
     2
1040
2.0
1040
4.0
1070
     0
1070
     1
1070
     0
1040
0.03
1002
}
  0
INSERT
  5
8E50
330
17
100
AcDbEntity
  8
ASHADE
 62
     6
100
AcDbBlockReference
  2
AVE_RENDER
 10
0.0
 20
0.0
 30
0.0
1001
AVE_RENDER
1002
{
1070
     2
1000
Raytr Opt
1070
     2
1070
     0
1070
     2
1040
2.0
1040
4.0
1070
     0
1070
     1
1070
     1
1040
0.03
1070
     3
1040
0.03
1002
}
  0
INSERT
  5
8E51
330
17
100
AcDbEntity
  8
ASHADE
 62
     7
100
AcDbBlockReference
  2
AVE_RENDER
 10
0.0
 20
0.0
 30
0.0
1001
AVE_RENDER
1002
{
1070
     0
1000
RFile Opt
1070
     1
1070
   640
1070
   480
1070
 10000
1070
     1
1070
     8
1070
     8
1070
     0
1070
     0
1070
     0
1070
     0
1070
     0
1070
     0
1070
     0
1002
}
  0
INSERT
  5
8E52
330
17
100
AcDbEntity
  8
ASHADE
 62
     8
100
AcDbBlockReference
  2
AVE_RENDER
 10
0.0
 20
0.0
 30
0.0
1001
AVE_RENDER
1002
{
1070
     0
1000
Fog Opt
1070
     0
1070
     0
1040
0.0
1040
1.0
1040
0.0
1040
1.0
1010
0.5
1020
0.5
1030
0.5
1002
}
  0
INSERT
  5
8E53
330
17
100
AcDbEntity
  8
ASHADE
 62
     9
100
AcDbBlockReference
  2
AVE_RENDER
 10
0.0
 20
0.0
 30
0.0
1001
AVE_RENDER
1002
{
1070
     0
1000
BG Opt
1070
     0
1070
     1
1010
0.0
1020
0.0
1030
0.0
1010
1.0
1020
0.0
1030
0.0
1010
0.0
1020
1.0
1030
0.0
1010
0.0
1020
0.0
1030
1.0
1040
0.5
1040
0.33
1040
0.0
1000

1070
     1
1000

1070
     1
1070
     1
1040
1.0
1040
1.0
1040
0.0
1040
0.0
1070
     0
1002
}
  0
INSERT
  5
8E5A
330
17
100
AcDbEntity
  8
ASHADE
 62
     1
100
AcDbBlockReference
  2
AVE_GLOBAL
 10
0.0
 20
0.0
 30
0.0
1001
AVE_MATERIAL
1002
{
1000
*GLOBAL*
1000
2
1000
Global finish.
1002
{
1002
}
1002
{
1070
    63
1002
{
1002
{
1010
-1.0
1020
-1.0
1030
-1.0
1002
}
1040
0.699999988079071
1000

1040
0.0
1002
{
1002
}
1040
0.0
1002
{
1002
}
1040
0.0
1002
}
1002
{
1002
{
1010
-1.0
1020
-1.0
1030
-1.0
1002
}
1040
1.0
1000

1040
0.0
1002
{
1002
}
1040
0.0
1002
{
1002
}
1040
0.0
1002
}
1002
{
1002
{
1010
-1.0
1020
-1.0
1030
-1.0
1002
}
1040
0.2000000029802322
1000

1040
0.0
1002
{
1002
}
1040
0.0
1002
{
1002
}
1040
0.0
1002
}
1002
{
1070
     0
1002
{
1070
     1
1002
{
1040
1.0
1040
1.0
1000

1040
0.0
1002
{
1002
}
1040
0.0
1002
{
1002
}
1040
0.0
1002
}
1002
}
1040
1.0
1040
0.0
1040
0.0
1002
}
1002
{
1040
1.0
1040
1.0
1000

1040
0.0
1002
{
1002
}
1040
0.0
1002
{
1002
}
1040
0.0
1002
}
1002
{
1040
0.5
1040
1.0
1000

1040
0.0
1002
{
1002
}
1040
0.0
1002
{
1002
}
1040
0.0
1002
}
1002
{
1070
     0
1040
0.0
1002
{
1002
}
1040
1.0
1002
{
1002
}
1040
0.0
1002
}
1002
{
1040
0.0
1002
{
1002
{
1010
0.0
1020
0.0
1030
0.0
1002
}
1040
1.0
1000

1040
0.0
1002
{
1002
}
1040
0.0
1002
{
1002
}
1040
0.0
1002
}
1002
}
1002
{
1002
{
1070
     1
1002
{
1040
0.0
1040
1.0
1000

1040
0.0
1002
{
1002
}
1040
0.0
1002
{
1002
}
1040
0.0
1002
}
1002
}
1040
0.0
1002
{
1002
}
1010
1.0
1020
0.0
1030
0.0
1010
0.0
1020
1.0
1030
0.0
1010
0.0
1020
0.0
1030
1.0
1070
     0
1002
}
1002
{
1002
{
1040
1.0
1040
1.0
1002
{
1070
     1
1002
{
1040
1.0
1040
1.0
1000

1040
0.0
1002
{
1002
}
1040
0.0
1002
{
1002
}
1040
0.0
1002
}
1002
}
1002
}
1070
     0
1040
0.0
1002
{
1002
}
1002
}
1002
{
1002
}
1002
}
1002
{
1071
        3
1070
     3
1070
     0
1002
{
1070
     2
1070
     0
1070
     0
1040
0.0
1002
}
1070
     0
1070
     2
1002
{
1002
}
1002
}
1002
{
1040
8030.0
1040
190.3000030517578
1040
0.3050000071525574
1040
228.0
1040
545.0
1040
14.0
1040
17.39999961853027
1040
0.4560000002384186
1002
}
1000

1002
}
  0
DIMENSION
  5
9285
330
17
100
AcDbEntity
  8
SUNPOU
100
AcDbDimension
  2
*D14
 10
-24963.67431908198
 20
3804.049253714659
 30
0.0
 11
-24963.67431908198
 21
3508.049253714655
 31
0.0
 70
   160
 71
     5
 42
109.9999999999995
  3
STANDARD
100
AcDbAlignedDimension
 13
-24458.92327040974
 23
3914.049253714659
 33
0.0
 14
-24378.92327040974
 24
3804.049253714659
 34
0.0
 50
90.0
100
AcDbRotatedDimension
1001
ACAD
1000
DSTYLE
1002
{
1070
   343
1005
17414
1070
   173
1070
     1
1070
   344
1005
0
1070
    40
1040
40.0
1070
    41
1040
2.0
1070
    42
1040
2.0
1070
    43
1040
7.0
1070
    44
1040
1.0
1070
    73
1070
     0
1070
    74
1070
     0
1070
    77
1070
     1
1070
    78
1070
     8
1070
   140
1040
3.0
1070
   141
1040
0.0
1070
   145
1040
1.0
1070
   147
1040
0.8
1070
   172
1070
     1
1070
   174
1070
     1
1070
   177
1070
   256
1070
   271
1070
     0
1070
   272
1070
     0
1070
   275
1070
     1
1070
   284
1070
     8
1070
   285
1070
     8
1070
   286
1070
     8
1070
   289
1070
     0
1002
}
  0
DIMENSION
  5
9309
330
17
100
AcDbEntity
  8
SUNPOU
100
AcDbDimension
  2
*D15
 10
-24963.67431908198
 20
4004.049253714657
 30
0.0
 11
-24963.67431908198
 21
4276.049253714653
 31
0.0
 70
   160
 71
     5
 42
89.99999999999773
  3
STANDARD
100
AcDbAlignedDimension
 13
-24458.92327040974
 23
3914.049253714659
 33
0.0
 14
-24458.92327040974
 24
4004.049253714657
 34
0.0
 50
90.0
100
AcDbRotatedDimension
1001
ACAD
1000
DSTYLE
1002
{
1070
   344
1005
0
1070
   173
1070
     1
1070
   343
1005
17414
1070
    40
1040
40.0
1070
    41
1040
2.0
1070
    42
1040
2.0
1070
    43
1040
7.0
1070
    44
1040
1.0
1070
    73
1070
     0
1070
    74
1070
     0
1070
    77
1070
     1
1070
    78
1070
     8
1070
   140
1040
3.0
1070
   141
1040
0.0
1070
   145
1040
1.0
1070
   147
1040
0.8
1070
   172
1070
     1
1070
   174
1070
     1
1070
   177
1070
   256
1070
   271
1070
     0
1070
   272
1070
     0
1070
   275
1070
     1
1070
   284
1070
     8
1070
   285
1070
     8
1070
   286
1070
     8
1070
   289
1070
     0
1002
}
  0
DIMENSION
  5
9721
330
17
100
AcDbEntity
  8
SUNPOU
100
AcDbDimension
  2
*D17
 10
-24963.67431908198
 20
5704.049253714658
 30
0.0
 11
-24963.67431908198
 21
5432.049253714655
 31
0.0
 70
   160
 71
     5
 42
89.99999999999818
  3
STANDARD
100
AcDbAlignedDimension
 13
-24458.92327040974
 23
5794.049253714657
 33
0.0
 14
-24458.92327040974
 24
5704.049253714658
 34
0.0
 50
270.0
100
AcDbRotatedDimension
1001
ACAD
1000
DSTYLE
1002
{
1070
   344
1005
0
1070
   173
1070
     1
1070
   343
1005
17414
1070
    40
1040
40.0
1070
    41
1040
2.0
1070
    42
1040
2.0
1070
    43
1040
7.0
1070
    44
1040
1.0
1070
    73
1070
     0
1070
    74
1070
     0
1070
    77
1070
     1
1070
    78
1070
     8
1070
   140
1040
3.0
1070
   141
1040
0.0
1070
   145
1040
1.0
1070
   147
1040
0.8
1070
   172
1070
     1
1070
   174
1070
     1
1070
   177
1070
   256
1070
   271
1070
     0
1070
   272
1070
     0
1070
   275
1070
     1
1070
   284
1070
     8
1070
   285
1070
     8
1070
   286
1070
     8
1070
   289
1070
     0
1002
}
  0
DIMENSION
  5
9723
330
17
100
AcDbEntity
  8
SUNPOU
100
AcDbDimension
  2
*D16
 10
-24963.67431908198
 20
5904.049253714657
 30
0.0
 11
-24963.67431908198
 21
6200.049253714653
 31
0.0
 70
   160
 71
     5
 42
110.0
  3
STANDARD
100
AcDbAlignedDimension
 13
-24458.92327040974
 23
5794.049253714657
 33
0.0
 14
-24378.92327040974
 24
5904.049253714657
 34
0.0
 50
270.0
100
AcDbRotatedDimension
1001
ACAD
1000
DSTYLE
1002
{
1070
   344
1005
0
1070
   173
1070
     1
1070
   343
1005
17414
1070
    40
1040
40.0
1070
    41
1040
2.0
1070
    42
1040
2.0
1070
    43
1040
7.0
1070
    44
1040
1.0
1070
    73
1070
     0
1070
    74
1070
     0
1070
    77
1070
     1
1070
    78
1070
     8
1070
   140
1040
3.0
1070
   141
1040
0.0
1070
   145
1040
1.0
1070
   147
1040
0.8
1070
   172
1070
     1
1070
   174
1070
     1
1070
   177
1070
   256
1070
   271
1070
     0
1070
   272
1070
     0
1070
   275
1070
     1
1070
   284
1070
     8
1070
   285
1070
     8
1070
   286
1070
     8
1070
   289
1070
     0
1002
}
  0
LINE
  5
9C96
330
17
100
AcDbEntity
  8
SUNPOU
100
AcDbLine
 10
-30392.51160208319
 20
6850.039683381539
 30
0.0
 11
-29150.15371252883
 21
6850.039683381539
 31
0.0
  0
LINE
  5
9DD4
330
17
100
AcDbEntity
  8
HAIKIN
100
AcDbLine
 10
-16392.5116020832
 20
11300.0
 30
0.0
 11
-16392.5116020832
 21
300.0
 31
0.0
  0
LINE
  5
9DD5
330
17
100
AcDbEntity
  8
HAIKIN
100
AcDbLine
 10
-31992.51160208319
 20
11300.0
 30
0.0
 11
-16392.5116020832
 21
11300.0
 31
0.0
  0
LINE
  5
9DD6
330
17
100
AcDbEntity
  8
HAIKIN
100
AcDbLine
 10
-31992.51160208319
 20
300.0
 30
0.0
 11
-31992.51160208319
 21
11300.0
 31
0.0
  0
LINE
  5
9DD7
330
17
100
AcDbEntity
  8
HAIKIN
100
AcDbLine
 10
-31992.51160208319
 20
300.0
 30
0.0
 11
-16392.5116020832
 21
300.0
 31
0.0
  0
TEXT
  5
9DD8
330
17
100
AcDbEntity
  8
SUNPOU
100
AcDbText
 10
-21052.76343437154
 20
656.6666666666665
 30
0.0
 40
140.0
  1
全国ボックスカルバート協会
 11
-21052.76343437154
 21
726.6666666666665
 31
0.0
100
AcDbText
 73
     2
  0
TEXT
  5
9DDA
330
17
100
AcDbEntity
  8
SUNPOU
100
AcDbText
 10
-19712.51160208319
 20
1693.333333333333
 30
0.0
 40
120.0
  1
2800x1700x2000
 41
0.8
 11
-19712.51160208319
 21
1753.333333333333
 31
0.0
100
AcDbText
 73
     2
  0
TEXT
  5
9DDB
330
17
100
AcDbEntity
  8
SUNPOU
100
AcDbText
 10
-19592.5116020832
 20
360.0
 30
0.0
 40
120.0
  1
新和コンクリ－ト工業株式会社
 11
-19592.5116020832
 21
420.0
 31
0.0
100
AcDbText
 73
     2
  0
LINE
  5
9DDC
330
17
100
AcDbEntity
  8
SUNPOU
100
AcDbLine
 10
-19992.51160208319
 20
540.0
 30
0.0
 11
-19992.51160208319
 21
300.0
 31
0.0
  0
TEXT
  5
9DDD
330
17
100
AcDbEntity
  8
SUNPOU
100
AcDbText
 10
-17310.47953928033
 20
1440.344988257124
 30
0.0
 40
120.0
  1
S = 1/40
 41
0.8
 72
     4
 11
-17004.87953928033
 21
1500.344988257124
 31
0.0
100
AcDbText
  0
TEXT
  5
9DDE
330
17
100
AcDbEntity
  8
SUNPOU
100
AcDbText
 10
-18194.80983144101
 20
1430.344988257124
 30
0.0
 40
140.0
  1
縮 尺
 72
     4
 11
-18003.47649810768
 21
1500.344988257124
 31
0.0
100
AcDbText
  0
TEXT
  5
9DE0
330
17
100
AcDbEntity
  8
SUNPOU
100
AcDbText
 10
-19712.51160208319
 20
1933.333333333333
 30
0.0
 40
120.0
  1
PCボックスカルバート 構造図  (150型)
 11
-19712.51160208319
 21
1993.333333333333
 31
0.0
100
AcDbText
 73
     2
  0
TEXT
  5
9DE1
330
17
100
AcDbEntity
  8
SUNPOU
100
AcDbText
 10
-21031.17826874986
 20
350.0
 30
0.0
 40
140.0
  1
社　   　名
 72
     4
 11
-20592.51160208319
 21
420.0
 31
0.0
100
AcDbText
  0
TEXT
  5
9DE2
330
17
100
AcDbEntity
  8
SUNPOU
100
AcDbText
 10
-21040.51160208319
 20
1203.333333333333
 30
0.0
 40
140.0
  1
図　   　番
 72
     4
 11
-20592.51160208319
 21
1273.333333333333
 31
0.0
100
AcDbText
  0
TEXT
  5
9DE3
330
17
100
AcDbEntity
  8
SUNPOU
100
AcDbText
 10
-21026.51160208319
 20
1443.333333333333
 30
0.0
 40
140.0
  1
発 行 年 月
 72
     4
 11
-20592.51160208319
 21
1513.333333333333
 31
0.0
100
AcDbText
  0
TEXT
  5
9DE4
330
17
100
AcDbEntity
  8
SUNPOU
100
AcDbText
 10
-21035.84493541652
 20
1683.333333333333
 30
0.0
 40
140.0
  1
呼 び 寸 法
 72
     4
 11
-20592.51160208319
 21
1753.333333333333
 31
0.0
100
AcDbText
  0
LINE
  5
9DE5
330
17
100
AcDbEntity
  8
SUNPOU
100
AcDbLine
 10
-17592.5116020832
 20
1633.333333333333
 30
0.0
 11
-17592.5116020832
 21
1393.333333333333
 31
0.0
  0
LINE
  5
9DE6
330
17
100
AcDbEntity
  8
SUNPOU
100
AcDbLine
 10
-18392.5116020832
 20
1633.333333333333
 30
0.0
 11
-18392.5116020832
 21
1393.333333333333
 31
0.0
  0
LINE
  5
9DE7
330
17
100
AcDbEntity
  8
SUNPOU
100
AcDbLine
 10
-19992.51160208319
 20
2113.333333333333
 30
0.0
 11
-19992.51160208319
 21
1153.333333333333
 31
0.0
  0
LINE
  5
9DE8
330
17
100
AcDbEntity
  8
SUNPOU
100
AcDbLine
 10
-21192.51160208319
 20
540.0
 30
0.0
 11
-16392.5116020832
 21
540.0
 31
0.0
  0
LINE
  5
9DE9
330
17
100
AcDbEntity
  8
SUNPOU
100
AcDbLine
 10
-21192.51160208319
 20
846.6666666666665
 30
0.0
 11
-16392.5116020832
 21
846.6666666666665
 31
0.0
  0
LINE
  5
9DEA
330
17
100
AcDbEntity
  8
SUNPOU
100
AcDbLine
 10
-21192.51160208319
 20
1153.333333333333
 30
0.0
 11
-16392.5116020832
 21
1153.333333333333
 31
0.0
  0
LINE
  5
9DEB
330
17
100
AcDbEntity
  8
SUNPOU
100
AcDbLine
 10
-21192.51160208319
 20
1393.333333333333
 30
0.0
 11
-16392.5116020832
 21
1393.333333333333
 31
0.0
  0
LINE
  5
9DEC
330
17
100
AcDbEntity
  8
SUNPOU
100
AcDbLine
 10
-21192.51160208319
 20
1633.333333333333
 30
0.0
 11
-16392.5116020832
 21
1633.333333333333
 31
0.0
  0
LINE
  5
9DED
330
17
100
AcDbEntity
  8
SUNPOU
100
AcDbLine
 10
-21192.51160208319
 20
1873.333333333333
 30
0.0
 11
-16392.5116020832
 21
1873.333333333333
 31
0.0
  0
LINE
  5
9DEE
330
17
100
AcDbEntity
  8
HAIKIN
100
AcDbLine
 10
-21192.51160208319
 20
2113.333333333333
 30
0.0
 11
-16392.5116020832
 21
2113.333333333333
 31
0.0
  0
LINE
  5
9DEF
330
17
100
AcDbEntity
  8
HAIKIN
100
AcDbLine
 10
-21192.51160208319
 20
2113.333333333333
 30
0.0
 11
-21192.51160208319
 21
300.0
 31
0.0
  0
TEXT
  5
9DF0
330
17
100
AcDbEntity
  8
SUNPOU
100
AcDbText
 10
-21035.84493541652
 20
1923.333333333333
 30
0.0
 40
140.0
  1
名　   　称
 72
     4
 11
-20592.51160208319
 21
1993.333333333333
 31
0.0
100
AcDbText
  0
DIMENSION
  5
9F65
330
17
100
AcDbEntity
  8
SUNPOU
100
AcDbDimension
  2
*D18
 10
-26914.51160208319
 20
9920.115717752411
 30
0.0
 11
-27006.51160208319
 21
9800.115717752406
 31
0.0
 70
    32
 71
     5
 42
240.0000000000018
  3
STANDARD
100
AcDbAlignedDimension
 13
-27192.51160208319
 23
9680.11571775241
 33
0.0
 14
-27192.51160208319
 24
9920.115717752411
 34
0.0
 50
90.0
100
AcDbRotatedDimension
1001
ACAD
1000
DSTYLE
1002
{
1070
    40
1040
40.0
1070
    41
1040
2.0
1070
    42
1040
2.0
1070
    43
1040
7.0
1070
    44
1040
1.0
1070
    73
1070
     0
1070
    74
1070
     0
1070
    77
1070
     1
1070
    78
1070
     8
1070
   140
1040
3.0
1070
   141
1040
0.0
1070
   145
1040
1.0
1070
   147
1040
0.8
1070
   172
1070
     1
1070
   174
1070
     1
1070
   177
1070
   256
1070
   271
1070
     0
1070
   272
1070
     0
1070
   275
1070
     1
1070
   279
1070
     2
1070
   284
1070
     8
1070
   285
1070
     8
1070
   286
1070
     8
1070
   289
1070
     0
1002
}
  0
LINE
  5
A4D3
330
17
100
AcDbEntity
  8
SUNPOU
100
AcDbLine
 10
-24510.05838772633
 20
6850.039683381539
 30
0.0
 11
-23250.5665160381
 21
6850.039683381539
 31
0.0
  0
TEXT
  5
E09D
330
17
100
AcDbEntity
  8
SUNPOU
100
AcDbText
 10
-19769.89313571263
 20
5150.482227911436
 30
0.0
 40
120.0
  1
目地溝
100
AcDbText
  0
TEXT
  5
E09E
330
17
100
AcDbEntity
  8
SUNPOU
100
AcDbText
 10
-20074.77330269105
 20
5359.227749092458
 30
0.0
 40
120.0
  1
パッキン溝
100
AcDbText
  0
LINE
  5
E09F
330
17
100
AcDbEntity
  8
SUNPOU
100
AcDbLine
 10
-19356.38631903843
 20
5332.230728469205
 30
0.0
 11
-20077.00760080517
 21
5332.230728469205
 31
0.0
1001
ACAD
1000
DSTYLE
1002
{
1070
    78
1070
     8
1070
   284
1070
     8
1070
   140
1040
2.5
1070
   145
1040
1.0
1070
    74
1070
     0
1070
    73
1070
     0
1070
    40
1040
30.0
1070
   287
1070
     5
1070
    42
1040
2.0
1070
    44
1040
1.0
1070
    43
1040
7.0
1070
   141
1040
0.0
1070
   275
1070
     1
1070
    41
1040
2.0
1070
   285
1070
     8
1070
   286
1070
     8
1002
}
  0
LEADER
  5
E0A1
330
17
100
AcDbEntity
  8
SUNPOU
100
AcDbLeader
  3
STANDARD
 76
     2
 10
-18961.20633963065
 20
5908.687658493953
 30
0.0
 10
-19330.38337204356
 20
5114.57129304503
 30
0.0
1001
ACAD
1000
DSTYLE
1002
{
1070
    40
1040
40.0
1070
    41
1040
2.0
1070
    42
1040
2.0
1070
    43
1040
7.0
1070
    44
1040
1.0
1070
    73
1070
     0
1070
    74
1070
     0
1070
    78
1070
     8
1070
   140
1040
2.5
1070
   141
1040
0.0
1070
   145
1040
1.0
1070
   147
1040
0.8
1070
   172
1070
     1
1070
   174
1070
     1
1070
   177
1070
   256
1070
   271
1070
     0
1070
   272
1070
     0
1070
   275
1070
     1
1070
   279
1070
     2
1070
   284
1070
     8
1070
   285
1070
     8
1070
   286
1070
     8
1070
   289
1070
     0
1002
}
  0
LEADER
  5
E0AD
330
17
100
AcDbEntity
  8
SUNPOU
100
AcDbLeader
  3
STANDARD
 76
     2
 10
-18993.20633963065
 20
6100.687658493953
 30
0.0
 10
-19356.38631903843
 20
5332.230728469205
 30
0.0
1001
ACAD
1000
DSTYLE
1002
{
1070
    40
1040
40.0
1070
    41
1040
2.0
1070
    42
1040
2.0
1070
    43
1040
7.0
1070
    44
1040
1.0
1070
    73
1070
     0
1070
    74
1070
     0
1070
    78
1070
     8
1070
   140
1040
2.5
1070
   141
1040
0.0
1070
   145
1040
1.0
1070
   147
1040
0.8
1070
   172
1070
     1
1070
   174
1070
     1
1070
   177
1070
   256
1070
   271
1070
     0
1070
   272
1070
     0
1070
   275
1070
     1
1070
   279
1070
     2
1070
   284
1070
     8
1070
   285
1070
     8
1070
   286
1070
     8
1070
   289
1070
     0
1002
}
  0
LINE
  5
E0AE
330
17
100
AcDbEntity
  8
SUNPOU
100
AcDbLine
 10
-19330.38337204356
 20
5114.57129304503
 30
0.0
 11
-19810.08740272223
 21
5114.57129304503
 31
0.0
1001
ACAD
1000
DSTYLE
1002
{
1070
    78
1070
     8
1070
   284
1070
     8
1070
   140
1040
2.5
1070
   145
1040
1.0
1070
    74
1070
     0
1070
    73
1070
     0
1070
    40
1040
30.0
1070
   287
1070
     5
1070
    42
1040
2.0
1070
    44
1040
1.0
1070
    43
1040
7.0
1070
   141
1040
0.0
1070
   275
1070
     1
1070
    41
1040
2.0
1070
   285
1070
     8
1070
   286
1070
     8
1002
}
  0
LINE
  5
E75E
330
17
100
AcDbEntity
  8
SUNPOU
100
AcDbLine
 10
-22298.39625607252
 20
4286.915119669284
 30
0.0
 11
-20652.70424380761
 21
4286.915119669284
 31
0.0
  0
DIMENSION
  5
118DB
330
17
100
AcDbEntity
  8
SUNPOU
100
AcDbDimension
  2
*D26
 10
-19320.97766769209
 20
5548.687658493953
 30
0.0
 11
-19480.97766769209
 21
5640.687658493953
 31
0.0
 70
    32
 71
     5
 42
80.0
  3
STANDARD
100
AcDbAlignedDimension
 13
-19640.97766769209
 23
6308.687658493953
 33
0.0
 14
-19320.97766769209
 24
5888.687658493953
 34
0.0
100
AcDbRotatedDimension
1001
ACAD
1000
DSTYLE
1002
{
1070
    40
1040
40.0
1070
    41
1040
2.0
1070
    42
1040
2.0
1070
    43
1040
7.0
1070
    44
1040
1.0
1070
    73
1070
     0
1070
    74
1070
     0
1070
    77
1070
     1
1070
    78
1070
     8
1070
   140
1040
3.0
1070
   141
1040
0.0
1070
   144
1040
0.25
1070
   145
1040
1.0
1070
   147
1040
0.8
1070
   172
1070
     1
1070
   174
1070
     1
1070
   177
1070
   256
1070
   271
1070
     0
1070
   272
1070
     0
1070
   275
1070
     1
1070
   279
1070
     2
1070
   284
1070
     8
1070
   285
1070
     8
1070
   286
1070
     8
1070
   289
1070
     0
1002
}
  0
DIMENSION
  5
118DC
330
17
100
AcDbEntity
  8
SUNPOU
100
AcDbDimension
  2
*D20
 10
-20754.31100102543
 20
6228.687658493953
 30
0.0
 11
-20846.31100102543
 21
6268.687658493949
 31
0.0
 70
    32
 71
     5
 42
20.0
  3
STANDARD
100
AcDbAlignedDimension
 13
-19640.97766769209
 23
6308.687658493953
 33
0.0
 14
-19320.97766769209
 24
6228.687658493953
 34
0.0
 50
90.0
100
AcDbRotatedDimension
1001
ACAD
1000
DSTYLE
1002
{
1070
    40
1040
40.0
1070
    41
1040
2.0
1070
    42
1040
2.0
1070
    43
1040
7.0
1070
    44
1040
1.0
1070
    73
1070
     0
1070
    74
1070
     0
1070
    77
1070
     1
1070
    78
1070
     8
1070
   140
1040
3.0
1070
   141
1040
0.0
1070
   144
1040
0.25
1070
   145
1040
1.0
1070
   147
1040
0.8
1070
   172
1070
     1
1070
   174
1070
     1
1070
   177
1070
   256
1070
   271
1070
     0
1070
   272
1070
     0
1070
   275
1070
     1
1070
   279
1070
     2
1070
   284
1070
     8
1070
   285
1070
     8
1070
   286
1070
     8
1070
   289
1070
     0
1002
}
  0
DIMENSION
  5
118DD
330
17
100
AcDbEntity
  8
SUNPOU
100
AcDbDimension
  2
*D19
 10
-20754.31100102543
 20
5888.687658493953
 30
0.0
 11
-20846.31100102543
 21
6058.687658493949
 31
0.0
 70
    32
 71
     5
 42
85.0
  3
STANDARD
100
AcDbAlignedDimension
 13
-19320.97766769209
 23
6228.687658493953
 33
0.0
 14
-20320.97766769209
 24
5888.687658493953
 34
0.0
 50
90.0
100
AcDbRotatedDimension
1001
ACAD
1000
DSTYLE
1002
{
1070
    40
1040
40.0
1070
    41
1040
2.0
1070
    42
1040
2.0
1070
    43
1040
7.0
1070
    44
1040
1.0
1070
    73
1070
     0
1070
    74
1070
     0
1070
    77
1070
     1
1070
    78
1070
     8
1070
   140
1040
3.0
1070
   141
1040
0.0
1070
   144
1040
0.25
1070
   145
1040
1.0
1070
   147
1040
0.8
1070
   172
1070
     1
1070
   174
1070
     1
1070
   177
1070
   256
1070
   271
1070
     0
1070
   272
1070
     0
1070
   275
1070
     1
1070
   279
1070
     2
1070
   284
1070
     8
1070
   285
1070
     8
1070
   286
1070
     8
1070
   289
1070
     0
1002
}
  0
LINE
  5
118DE
330
17
100
AcDbEntity
  8
SEIHIN
100
AcDbLine
 10
-19320.97766769209
 20
5888.687658493953
 30
0.0
 11
-20320.97766769209
 21
5888.687658493953
 31
0.0
  0
LINE
  5
118DF
330
17
100
AcDbEntity
  8
SEIHIN
100
AcDbLine
 10
-19640.97766769209
 20
6308.687658493953
 30
0.0
 11
-19320.97766769209
 21
6228.687658493953
 31
0.0
  0
DIMENSION
  5
118E0
330
17
100
AcDbEntity
  8
SUNPOU
100
AcDbDimension
  2
*D21
 10
-20754.31100102543
 20
6308.687658493953
 30
0.0
 11
-20846.31100102543
 21
6498.687658493949
 31
0.0
 70
    32
 71
     5
 42
95.0
  3
STANDARD
100
AcDbAlignedDimension
 13
-20320.9776676921
 23
6688.687658493953
 33
0.0
 14
-19640.97766769209
 24
6308.687658493953
 34
0.0
 50
90.0
100
AcDbRotatedDimension
1001
ACAD
1000
DSTYLE
1002
{
1070
    40
1040
40.0
1070
    41
1040
2.0
1070
    42
1040
2.0
1070
    43
1040
7.0
1070
    44
1040
1.0
1070
    73
1070
     0
1070
    74
1070
     0
1070
    77
1070
     1
1070
    78
1070
     8
1070
   140
1040
3.0
1070
   141
1040
0.0
1070
   144
1040
0.25
1070
   145
1040
1.0
1070
   147
1040
0.8
1070
   172
1070
     1
1070
   174
1070
     1
1070
   177
1070
   256
1070
   271
1070
     0
1070
   272
1070
     0
1070
   275
1070
     1
1070
   279
1070
     2
1070
   284
1070
     8
1070
   285
1070
     8
1070
   286
1070
     8
1070
   289
1070
     0
1002
}
  0
DIMENSION
  5
118E1
330
17
100
AcDbEntity
  8
SUNPOU
100
AcDbDimension
  2
*D22
 10
-21034.31100102543
 20
5888.687658493953
 30
0.0
 11
-21126.31100102543
 21
6288.687658493949
 31
0.0
 70
    32
 71
     5
 42
200.0
  3
STANDARD
100
AcDbAlignedDimension
 13
-20320.9776676921
 23
6688.687658493953
 33
0.0
 14
-20320.9776676921
 24
5888.687658493953
 34
0.0
 50
90.0
100
AcDbRotatedDimension
1001
ACAD
1000
DSTYLE
1002
{
1070
    40
1040
40.0
1070
    41
1040
2.0
1070
    42
1040
2.0
1070
    43
1040
7.0
1070
    44
1040
1.0
1070
    73
1070
     0
1070
    74
1070
     0
1070
    77
1070
     1
1070
    78
1070
     8
1070
   140
1040
3.0
1070
   141
1040
0.0
1070
   144
1040
0.25
1070
   145
1040
1.0
1070
   147
1040
0.8
1070
   172
1070
     1
1070
   174
1070
     1
1070
   177
1070
   256
1070
   271
1070
     0
1070
   272
1070
     0
1070
   275
1070
     1
1070
   279
1070
     2
1070
   284
1070
     8
1070
   285
1070
     8
1070
   286
1070
     8
1070
   289
1070
     0
1002
}
  0
LINE
  5
118E2
330
17
100
AcDbEntity
  8
SUNPOU
100
AcDbLine
 10
-20320.97766769209
 20
6788.687658493953
 30
0.0
 11
-20320.97766769209
 21
6388.687658493949
 31
0.0
  0
LINE
  5
118E3
330
17
100
AcDbEntity
  8
SEIHIN
100
AcDbLine
 10
-19640.97766769209
 20
6688.687658493953
 30
0.0
 11
-19640.97766769209
 21
6308.687658493953
 31
0.0
  0
LINE
  5
118E4
330
17
100
AcDbEntity
  8
SUNPOU
100
AcDbLine
 10
-20280.97766769209
 20
6368.687658493953
 30
0.0
 11
-20320.97766769209
 21
6388.687658493953
 31
0.0
  0
LINE
  5
118E5
330
17
100
AcDbEntity
  8
SUNPOU
100
AcDbLine
 10
-20320.97766769209
 20
6228.687658493949
 30
0.0
 11
-20320.97766769208
 21
5788.687658493953
 31
0.0
  0
LINE
  5
118E6
330
17
100
AcDbEntity
  8
SUNPOU
100
AcDbLine
 10
-20320.97766769209
 20
6228.687658493953
 30
0.0
 11
-20360.97766769209
 21
6248.687658493953
 31
0.0
  0
LINE
  5
118E7
330
17
100
AcDbEntity
  8
SUNPOU
100
AcDbLine
 10
-20360.97766769209
 20
6248.687658493953
 30
0.0
 11
-20280.97766769209
 21
6368.687658493953
 31
0.0
  0
LINE
  5
118E8
330
17
100
AcDbEntity
  8
SEIHIN
100
AcDbLine
 10
-20320.97766769208
 20
6688.687658493953
 30
0.0
 11
-19640.97766769209
 21
6688.687658493953
 31
0.0
  0
DIMENSION
  5
118E9
330
17
100
AcDbEntity
  8
SUNPOU
100
AcDbDimension
  2
*D32
 10
-19325.20633963065
 20
7022.5371640308
 30
0.0
 11
-19165.20633963065
 21
7114.5371640308
 31
0.0
 70
    32
 71
     5
 42
80.0
  3
STANDARD
100
AcDbAlignedDimension
 13
-19005.20633963065
 23
6268.687658493953
 33
0.0
 14
-19325.20633963065
 24
6688.687658493953
 34
0.0
100
AcDbRotatedDimension
1001
ACAD
1000
DSTYLE
1002
{
1070
    40
1040
40.0
1070
    41
1040
2.0
1070
    42
1040
2.0
1070
    43
1040
7.0
1070
    44
1040
1.0
1070
    73
1070
     0
1070
    74
1070
     0
1070
    77
1070
     1
1070
    78
1070
     8
1070
   140
1040
3.0
1070
   141
1040
0.0
1070
   144
1040
0.25
1070
   145
1040
1.0
1070
   147
1040
0.8
1070
   172
1070
     1
1070
   174
1070
     1
1070
   177
1070
   256
1070
   271
1070
     0
1070
   272
1070
     0
1070
   275
1070
     1
1070
   279
1070
     2
1070
   284
1070
     8
1070
   285
1070
     8
1070
   286
1070
     8
1070
   289
1070
     0
1002
}
  0
DIMENSION
  5
118EA
330
17
100
AcDbEntity
  8
SUNPOU
100
AcDbDimension
  2
*D25
 10
-17840.97766769208
 20
6348.687658493952
 30
0.0
 11
-17932.97766769208
 21
6308.687658493949
 31
0.0
 70
    32
 71
     5
 42
20.0
  3
STANDARD
100
AcDbAlignedDimension
 13
-19005.20633963065
 23
6268.687658493953
 33
0.0
 14
-19325.20633963065
 24
6348.687658493953
 34
0.0
 50
90.0
100
AcDbRotatedDimension
1001
ACAD
1000
DSTYLE
1002
{
1070
    40
1040
40.0
1070
    41
1040
2.0
1070
    42
1040
2.0
1070
    43
1040
7.0
1070
    44
1040
1.0
1070
    73
1070
     0
1070
    74
1070
     0
1070
    77
1070
     1
1070
    78
1070
     8
1070
   140
1040
3.0
1070
   141
1040
0.0
1070
   144
1040
0.25
1070
   145
1040
1.0
1070
   147
1040
0.8
1070
   172
1070
     1
1070
   174
1070
     1
1070
   177
1070
   256
1070
   271
1070
     0
1070
   272
1070
     0
1070
   275
1070
     1
1070
   279
1070
     2
1070
   284
1070
     8
1070
   285
1070
     8
1070
   286
1070
     8
1070
   289
1070
     0
1002
}
  0
DIMENSION
  5
118EB
330
17
100
AcDbEntity
  8
SUNPOU
100
AcDbDimension
  2
*D24
 10
-17840.97766769208
 20
6688.687658493951
 30
0.0
 11
-17932.97766769208
 21
6518.687658493948
 31
0.0
 70
    32
 71
     5
 42
84.99999999999977
  3
STANDARD
100
AcDbAlignedDimension
 13
-19325.20633963065
 23
6348.687658493953
 33
0.0
 14
-18320.97766769208
 24
6688.687658493951
 34
0.0
 50
90.0
100
AcDbRotatedDimension
1001
ACAD
1000
DSTYLE
1002
{
1070
    40
1040
40.0
1070
    41
1040
2.0
1070
    42
1040
2.0
1070
    43
1040
7.0
1070
    44
1040
1.0
1070
    73
1070
     0
1070
    74
1070
     0
1070
    77
1070
     1
1070
    78
1070
     8
1070
   140
1040
3.0
1070
   141
1040
0.0
1070
   144
1040
0.25
1070
   145
1040
1.0
1070
   147
1040
0.8
1070
   172
1070
     1
1070
   174
1070
     1
1070
   177
1070
   256
1070
   271
1070
     0
1070
   272
1070
     0
1070
   275
1070
     1
1070
   279
1070
     2
1070
   284
1070
     8
1070
   285
1070
     8
1070
   286
1070
     8
1070
   289
1070
     0
1002
}
  0
DIMENSION
  5
118EC
330
17
100
AcDbEntity
  8
SUNPOU
100
AcDbDimension
  2
*D23
 10
-17840.97766769208
 20
5888.687658493951
 30
0.0
 11
-17932.97766769208
 21
6078.687658493948
 31
0.0
 70
    32
 71
     5
 42
95.00000000000023
  3
STANDARD
100
AcDbAlignedDimension
 13
-19005.20633963065
 23
6268.687658493953
 33
0.0
 14
-18320.97766769208
 24
5888.687658493951
 34
0.0
 50
90.0
100
AcDbRotatedDimension
1001
ACAD
1000
DSTYLE
1002
{
1070
    40
1040
40.0
1070
    41
1040
2.0
1070
    42
1040
2.0
1070
    43
1040
7.0
1070
    44
1040
1.0
1070
    73
1070
     0
1070
    74
1070
     0
1070
    77
1070
     1
1070
    78
1070
     8
1070
   140
1040
3.0
1070
   141
1040
0.0
1070
   144
1040
0.25
1070
   145
1040
1.0
1070
   147
1040
0.8
1070
   172
1070
     1
1070
   174
1070
     1
1070
   177
1070
   256
1070
   271
1070
     0
1070
   272
1070
     0
1070
   275
1070
     1
1070
   279
1070
     2
1070
   284
1070
     8
1070
   285
1070
     8
1070
   286
1070
     8
1070
   289
1070
     0
1002
}
  0
DIMENSION
  5
118ED
330
17
100
AcDbEntity
  8
SUNPOU
100
AcDbDimension
  2
*D31
 10
-18957.20633963065
 20
5195.519925937917
 30
0.0
 11
-18701.20633963065
 21
5195.519925937917
 31
0.0
 70
   160
 71
     5
 42
12.0
  3
STANDARD
100
AcDbAlignedDimension
 13
-19005.20633963065
 23
5948.687658493953
 33
0.0
 14
-18957.20633963065
 24
5928.687658493953
 34
0.0
100
AcDbRotatedDimension
1001
ACAD
1000
DSTYLE
1002
{
1070
    40
1040
40.0
1070
    41
1040
2.0
1070
    42
1040
2.0
1070
    43
1040
7.0
1070
    44
1040
1.0
1070
    73
1070
     0
1070
    74
1070
     0
1070
    77
1070
     1
1070
    78
1070
     8
1070
   140
1040
3.0
1070
   141
1040
0.0
1070
   144
1040
0.25
1070
   145
1040
1.0
1070
   147
1040
0.8
1070
   172
1070
     1
1070
   174
1070
     1
1070
   177
1070
   256
1070
   271
1070
     0
1070
   272
1070
     0
1070
   275
1070
     1
1070
   279
1070
     0
1070
   284
1070
     8
1070
   285
1070
     8
1070
   286
1070
     8
1070
   289
1070
     0
1002
}
  0
DIMENSION
  5
118EE
330
17
100
AcDbEntity
  8
SUNPOU
100
AcDbDimension
  2
*D29
 10
-18593.20633963065
 20
5888.687658493953
 30
0.0
 11
-18593.20633963065
 21
5632.687658493949
 31
0.0
 70
   160
 71
     5
 42
15.0
  3
STANDARD
100
AcDbAlignedDimension
 13
-19005.20633963065
 23
5948.687658493953
 33
0.0
 14
-18965.20633963065
 24
5888.687658493953
 34
0.0
 50
90.0
100
AcDbRotatedDimension
1001
ACAD
1000
DSTYLE
1002
{
1070
   343
1005
17414
1070
   173
1070
     1
1070
   344
1005
17414
1070
    40
1040
40.0
1070
    41
1040
2.0
1070
    42
1040
2.0
1070
    43
1040
7.0
1070
    44
1040
1.0
1070
    73
1070
     0
1070
    74
1070
     0
1070
    77
1070
     1
1070
    78
1070
     8
1070
   140
1040
3.0
1070
   141
1040
0.0
1070
   144
1040
0.25
1070
   145
1040
1.0
1070
   147
1040
0.8
1070
   172
1070
     1
1070
   174
1070
     1
1070
   177
1070
   256
1070
   271
1070
     0
1070
   272
1070
     0
1070
   275
1070
     1
1070
   284
1070
     8
1070
   285
1070
     8
1070
   286
1070
     8
1070
   289
1070
     0
1002
}
  0
DIMENSION
  5
118EF
330
17
100
AcDbEntity
  8
SUNPOU
100
AcDbDimension
  2
*D30
 10
-18593.20633963065
 20
6056.687658493953
 30
0.0
 11
-18685.20633963065
 21
6002.687658493949
 31
0.0
 70
    32
 71
     5
 42
27.0
  3
STANDARD
100
AcDbAlignedDimension
 13
-19005.20633963065
 23
5948.687658493953
 33
0.0
 14
-18993.20633963065
 24
6056.687658493953
 34
0.0
 50
90.0
100
AcDbRotatedDimension
1001
ACAD
1000
DSTYLE
1002
{
1070
    40
1040
40.0
1070
    41
1040
2.0
1070
    42
1040
2.0
1070
    43
1040
7.0
1070
    44
1040
1.0
1070
    73
1070
     0
1070
    74
1070
     0
1070
    77
1070
     1
1070
    78
1070
     8
1070
   140
1040
3.0
1070
   141
1040
0.0
1070
   144
1040
0.25
1070
   145
1040
1.0
1070
   147
1040
0.8
1070
   172
1070
     1
1070
   173
1070
     1
1070
   174
1070
     1
1070
   177
1070
   256
1070
   271
1070
     0
1070
   272
1070
     0
1070
   275
1070
     1
1070
   284
1070
     8
1070
   285
1070
     8
1070
   286
1070
     8
1070
   289
1070
     0
1070
   343
1005
17414
1070
   344
1005
17414
1002
}
  0
DIMENSION
  5
118F0
330
17
100
AcDbEntity
  8
SUNPOU
100
AcDbDimension
  2
*D27
 10
-18593.20633963065
 20
6144.687658493953
 30
0.0
 11
-18593.20633963065
 21
6416.687658493949
 31
0.0
 70
   160
  1
<>
 71
     5
 42
22.0
  3
STANDARD
100
AcDbAlignedDimension
 13
-18993.20633963065
 23
6056.687658493953
 33
0.0
 14
-18993.20633963065
 24
6144.687658493953
 34
0.0
 50
90.0
100
AcDbRotatedDimension
1001
ACAD
1000
DSTYLE
1002
{
1070
    40
1040
40.0
1070
    41
1040
2.0
1070
    42
1040
2.0
1070
    43
1040
7.0
1070
    44
1040
1.0
1070
    73
1070
     0
1070
    74
1070
     0
1070
    77
1070
     1
1070
    78
1070
     8
1070
   140
1040
3.0
1070
   141
1040
0.0
1070
   144
1040
0.25
1070
   145
1040
1.0
1070
   147
1040
0.8
1070
   172
1070
     1
1070
   173
1070
     1
1070
   174
1070
     1
1070
   177
1070
   256
1070
   271
1070
     0
1070
   272
1070
     0
1070
   275
1070
     1
1070
   284
1070
     8
1070
   285
1070
     8
1070
   286
1070
     8
1070
   289
1070
     0
1070
   343
1005
17414
1070
   344
1005
17414
1002
}
  0
LINE
  5
118F1
330
17
100
AcDbEntity
  8
SEIHIN
100
AcDbLine
 10
-18965.20633963065
 20
5888.687658493953
 30
0.0
 11
-18320.97766769208
 21
5888.687658493951
 31
0.0
  0
LINE
  5
118F2
330
17
100
AcDbEntity
  8
SEIHIN
100
AcDbLine
 10
-19325.20633963065
 20
6688.687658493953
 30
0.0
 11
-18320.97766769208
 21
6688.687658493951
 31
0.0
  0
DIMENSION
  5
118F3
330
17
100
AcDbEntity
  8
SUNPOU
100
AcDbDimension
  2
*D28
 10
-18993.20633963065
 20
6782.020991827287
 30
0.0
 11
-18903.6102479525
 21
6864.020991827287
 31
0.0
 70
   160
 71
     5
 42
3.0
  3
STANDARD
100
AcDbAlignedDimension
 13
-19005.20633963065
 23
6268.687658493953
 33
0.0
 14
-18993.20633963065
 24
6144.687658493953
 34
0.0
100
AcDbRotatedDimension
1001
ACAD
1000
DSTYLE
1002
{
1070
    40
1040
40.0
1070
    41
1040
2.0
1070
    42
1040
2.0
1070
    43
1040
7.0
1070
    44
1040
1.0
1070
    73
1070
     0
1070
    74
1070
     0
1070
    77
1070
     1
1070
    78
1070
     8
1070
   140
1040
3.0
1070
   141
1040
0.0
1070
   144
1040
0.25
1070
   145
1040
1.0
1070
   147
1040
0.8
1070
   172
1070
     1
1070
   174
1070
     1
1070
   177
1070
   256
1070
   271
1070
     0
1070
   272
1070
     0
1070
   275
1070
     1
1070
   279
1070
     2
1070
   284
1070
     8
1070
   285
1070
     8
1070
   286
1070
     8
1070
   289
1070
     0
1002
}
  0
LINE
  5
118F4
330
17
100
AcDbEntity
  8
SEIHIN
100
AcDbLine
 10
-19325.20633963065
 20
6688.687658493953
 30
0.0
 11
-19325.20633963065
 21
6348.687658493953
 31
0.0
  0
LINE
  5
118F5
330
17
100
AcDbEntity
  8
SEIHIN
100
AcDbLine
 10
-19325.20633963065
 20
6348.687658493953
 30
0.0
 11
-19005.20633963065
 21
6268.687658493953
 31
0.0
  0
LINE
  5
118F6
330
17
100
AcDbEntity
  8
SEIHIN
100
AcDbLine
 10
-19320.97766769209
 20
6228.687658493953
 30
0.0
 11
-19320.97766769209
 21
5888.687658493953
 31
0.0
  0
LINE
  5
118F7
330
17
100
AcDbEntity
  8
SEIHIN
100
AcDbLine
 10
-18957.20633963065
 20
5928.687658493953
 30
0.0
 11
-18965.20633963065
 21
5888.687658493953
 31
0.0
  0
LINE
  5
118F8
330
17
100
AcDbEntity
  8
SEIHIN
100
AcDbLine
 10
-18993.20633963065
 20
6144.687658493953
 30
0.0
 11
-18993.20633963065
 21
6056.687658493953
 31
0.0
  0
LINE
  5
118F9
330
17
100
AcDbEntity
  8
SEIHIN
100
AcDbLine
 10
-19005.20633963065
 20
6044.687658493953
 30
0.0
 11
-19005.20633963065
 21
5948.687658493953
 31
0.0
  0
LINE
  5
118FA
330
17
100
AcDbEntity
  8
SEIHIN
100
AcDbLine
 10
-19005.20633963065
 20
6268.687658493953
 30
0.0
 11
-19005.20633963065
 21
6156.687658493953
 31
0.0
  0
LINE
  5
118FB
330
17
100
AcDbEntity
  8
SEIHIN
100
AcDbLine
 10
-19005.20633963065
 20
5948.687658493953
 30
0.0
 11
-18957.20633963065
 21
5928.687658493953
 31
0.0
  0
LINE
  5
118FC
330
17
100
AcDbEntity
  8
SEIHIN
100
AcDbLine
 10
-18993.20633963065
 20
6056.687658493953
 30
0.0
 11
-19005.20633963065
 21
6044.687658493953
 31
0.0
  0
LINE
  5
118FD
330
17
100
AcDbEntity
  8
SEIHIN
100
AcDbLine
 10
-19005.20633963065
 20
6156.687658493953
 30
0.0
 11
-18993.20633963065
 21
6144.687658493953
 31
0.0
  0
LINE
  5
118FE
330
17
100
AcDbEntity
  8
SUNPOU
100
AcDbLine
 10
-18320.97766769208
 20
6788.687658493951
 30
0.0
 11
-18320.97766769208
 21
6388.687658493947
 31
0.0
  0
LINE
  5
118FF
330
17
100
AcDbEntity
  8
SUNPOU
100
AcDbLine
 10
-18280.97766769208
 20
6368.687658493951
 30
0.0
 11
-18320.97766769208
 21
6388.687658493951
 31
0.0
  0
LINE
  5
11900
330
17
100
AcDbEntity
  8
SUNPOU
100
AcDbLine
 10
-18320.97766769208
 20
6228.687658493947
 30
0.0
 11
-18320.97766769208
 21
5788.687658493951
 31
0.0
  0
LINE
  5
11901
330
17
100
AcDbEntity
  8
SUNPOU
100
AcDbLine
 10
-18320.97766769208
 20
6228.687658493951
 30
0.0
 11
-18360.97766769208
 21
6248.687658493951
 31
0.0
  0
LINE
  5
11902
330
17
100
AcDbEntity
  8
SUNPOU
100
AcDbLine
 10
-18360.97766769208
 20
6248.687658493951
 30
0.0
 11
-18280.97766769208
 21
6368.687658493951
 31
0.0
  0
DIMENSION
  5
1234A
330
17
100
AcDbEntity
  8
SUNPOU
100
AcDbDimension
  2
*D38
 10
-22458.92327040974
 20
3263.040342463102
 30
0.0
 11
-23458.92327040974
 21
3355.040342463102
 31
0.0
 70
    32
 71
     5
 42
2000.0
  3
STANDARD
100
AcDbAlignedDimension
 13
-24458.92327040974
 23
3804.04925371466
 33
0.0
 14
-22458.92327040974
 24
3804.04925371466
 34
0.0
100
AcDbRotatedDimension
1001
ACAD
1000
DSTYLE
1002
{
1070
    40
1040
40.0
1070
    41
1040
2.0
1070
    42
1040
2.0
1070
    43
1040
7.0
1070
    44
1040
1.0
1070
    73
1070
     0
1070
    74
1070
     0
1070
    77
1070
     1
1070
    78
1070
     8
1070
   140
1040
3.0
1070
   141
1040
0.0
1070
   145
1040
1.0
1070
   147
1040
0.8
1070
   172
1070
     1
1070
   174
1070
     1
1070
   177
1070
   256
1070
   271
1070
     0
1070
   272
1070
     0
1070
   275
1070
     1
1070
   279
1070
     2
1070
   284
1070
     8
1070
   285
1070
     8
1070
   286
1070
     8
1070
   289
1070
     0
1002
}
  0
DIMENSION
  5
1234B
330
17
100
AcDbEntity
  8
SUNPOU
100
AcDbDimension
  2
*D37
 10
-22378.92327040974
 20
2985.202504625264
 30
0.0
 11
-23418.92327040974
 21
3077.202504625264
 31
0.0
 70
    32
 71
     5
 42
2080.0
  3
STANDARD
100
AcDbAlignedDimension
 13
-24458.92327040974
 23
3804.049253714657
 33
0.0
 14
-22378.92327040974
 24
3804.04925371466
 34
0.0
100
AcDbRotatedDimension
1001
ACAD
1000
DSTYLE
1002
{
1070
    40
1040
40.0
1070
    41
1040
2.0
1070
    42
1040
2.0
1070
    43
1040
7.0
1070
    44
1040
1.0
1070
    73
1070
     0
1070
    74
1070
     0
1070
    77
1070
     1
1070
    78
1070
     8
1070
   140
1040
3.0
1070
   141
1040
0.0
1070
   145
1040
1.0
1070
   147
1040
0.8
1070
   172
1070
     1
1070
   174
1070
     1
1070
   177
1070
   256
1070
   271
1070
     0
1070
   272
1070
     0
1070
   275
1070
     1
1070
   279
1070
     2
1070
   284
1070
     8
1070
   285
1070
     8
1070
   286
1070
     8
1070
   289
1070
     0
1002
}
  0
DIMENSION
  5
1234C
330
17
100
AcDbEntity
  8
SUNPOU
100
AcDbDimension
  2
*D39
 10
-24378.92327040974
 20
3543.040342463102
 30
0.0
 11
-24114.92327040974
 21
3543.040342463102
 31
0.0
 70
   160
 71
     5
 42
80.0
  3
STANDARD
100
AcDbAlignedDimension
 13
-24458.92327040974
 23
3804.049253714657
 33
0.0
 14
-24378.92327040974
 24
3804.04925371466
 34
0.0
100
AcDbRotatedDimension
1001
ACAD
1000
DSTYLE
1002
{
1070
    40
1040
40.0
1070
    41
1040
2.0
1070
    42
1040
2.0
1070
    43
1040
7.0
1070
    44
1040
1.0
1070
    73
1070
     0
1070
    74
1070
     0
1070
    77
1070
     1
1070
    78
1070
     8
1070
   140
1040
3.0
1070
   141
1040
0.0
1070
   145
1040
1.0
1070
   147
1040
0.8
1070
   172
1070
     1
1070
   174
1070
     1
1070
   177
1070
   256
1070
   271
1070
     0
1070
   272
1070
     0
1070
   275
1070
     1
1070
   284
1070
     8
1070
   285
1070
     8
1070
   286
1070
     8
1070
   289
1070
     0
1002
}
  0
DIMENSION
  5
1234D
330
17
100
AcDbEntity
  8
SUNPOU
100
AcDbDimension
  2
*D40
 10
-22378.92327040974
 20
3263.040342463102
 30
0.0
 11
-22101.62597311244
 21
3263.040342463102
 31
0.0
 70
   160
 71
     5
 42
80.0
  3
STANDARD
100
AcDbAlignedDimension
 13
-22458.92327040974
 23
3804.04925371466
 33
0.0
 14
-22378.92327040974
 24
3804.04925371466
 34
0.0
100
AcDbRotatedDimension
1001
ACAD
1000
DSTYLE
1002
{
1070
    40
1040
40.0
1070
    41
1040
2.0
1070
    42
1040
2.0
1070
    43
1040
7.0
1070
    44
1040
1.0
1070
    73
1070
     0
1070
    74
1070
     0
1070
    77
1070
     1
1070
    78
1070
     8
1070
   140
1040
3.0
1070
   141
1040
0.0
1070
   145
1040
1.0
1070
   147
1040
0.8
1070
   172
1070
     1
1070
   174
1070
     1
1070
   177
1070
   256
1070
   271
1070
     0
1070
   272
1070
     0
1070
   275
1070
     1
1070
   284
1070
     8
1070
   285
1070
     8
1070
   286
1070
     8
1070
   289
1070
     0
1002
}
  0
DIMENSION
  5
1234E
330
17
100
AcDbEntity
  8
SUNPOU
100
AcDbDimension
  2
*D33
 10
-27192.51160208319
 20
3263.040342463102
 30
0.0
 11
-27292.51160208319
 21
3355.040342463102
 31
0.0
 70
    32
 71
     5
 42
200.0
  3
STANDARD
100
AcDbAlignedDimension
 13
-27392.51160208319
 23
3804.049253714657
 33
0.0
 14
-27192.51160208319
 24
3804.049253714657
 34
0.0
100
AcDbRotatedDimension
1001
ACAD
1000
DSTYLE
1002
{
1070
    40
1040
40.0
1070
    41
1040
2.0
1070
    42
1040
2.0
1070
    43
1040
7.0
1070
    44
1040
1.0
1070
    73
1070
     0
1070
    74
1070
     0
1070
    77
1070
     1
1070
    78
1070
     8
1070
   140
1040
3.0
1070
   141
1040
0.0
1070
   145
1040
1.0
1070
   147
1040
0.8
1070
   172
1070
     1
1070
   174
1070
     1
1070
   177
1070
   256
1070
   271
1070
     0
1070
   272
1070
     0
1070
   275
1070
     1
1070
   279
1070
     2
1070
   284
1070
     8
1070
   285
1070
     8
1070
   286
1070
     8
1070
   289
1070
     0
1002
}
  0
DIMENSION
  5
1234F
330
17
100
AcDbEntity
  8
SUNPOU
100
AcDbDimension
  2
*D35
 10
-27192.51160208319
 20
2985.202504625264
 30
0.0
 11
-28792.51160208319
 21
3077.202504625264
 31
0.0
 70
    32
 71
     5
 42
3200.0
  3
STANDARD
100
AcDbAlignedDimension
 13
-30392.51160208319
 23
3804.049253714657
 33
0.0
 14
-27192.51160208319
 24
3804.049253714657
 34
0.0
100
AcDbRotatedDimension
1001
ACAD
1000
DSTYLE
1002
{
1070
    40
1040
40.0
1070
    41
1040
2.0
1070
    42
1040
2.0
1070
    43
1040
7.0
1070
    44
1040
1.0
1070
    73
1070
     0
1070
    74
1070
     0
1070
    77
1070
     1
1070
    78
1070
     8
1070
   140
1040
3.0
1070
   141
1040
0.0
1070
   145
1040
1.0
1070
   147
1040
0.8
1070
   172
1070
     1
1070
   174
1070
     1
1070
   177
1070
   256
1070
   271
1070
     0
1070
   272
1070
     0
1070
   275
1070
     1
1070
   279
1070
     2
1070
   284
1070
     8
1070
   285
1070
     8
1070
   286
1070
     8
1070
   289
1070
     0
1002
}
  0
DIMENSION
  5
12350
330
17
100
AcDbEntity
  8
SUNPOU
100
AcDbDimension
  2
*D34
 10
-30192.51160208317
 20
3265.202504625264
 30
0.0
 11
-28792.51160208318
 21
3357.202504625264
 31
0.0
 70
    32
  1
<>
 71
     5
 42
2799.999999999982
  3
STANDARD
100
AcDbAlignedDimension
 13
-27392.51160208319
 23
3804.049253714657
 33
0.0
 14
-30192.51160208317
 24
3804.049253714657
 34
0.0
100
AcDbRotatedDimension
1001
ACAD
1000
DSTYLE
1002
{
1070
    40
1040
40.0
1070
    41
1040
2.0
1070
    42
1040
2.0
1070
    43
1040
7.0
1070
    44
1040
1.0
1070
    73
1070
     0
1070
    74
1070
     0
1070
    77
1070
     1
1070
    78
1070
     8
1070
   140
1040
3.0
1070
   141
1040
0.0
1070
   145
1040
1.0
1070
   147
1040
0.8
1070
   172
1070
     1
1070
   174
1070
     1
1070
   177
1070
   256
1070
   271
1070
     0
1070
   272
1070
     0
1070
   275
1070
     1
1070
   279
1070
     2
1070
   284
1070
     8
1070
   285
1070
     8
1070
   286
1070
     8
1070
   289
1070
     0
1002
}
  0
DIMENSION
  5
12351
330
17
100
AcDbEntity
  8
SUNPOU
100
AcDbDimension
  2
*D36
 10
-30192.51160208317
 20
3265.202504625264
 30
0.0
 11
-30292.51160208318
 21
3357.202504625264
 31
0.0
 70
    32
 71
     5
 42
200.0000000000182
  3
STANDARD
100
AcDbAlignedDimension
 13
-30392.51160208319
 23
3804.049253714657
 33
0.0
 14
-30192.51160208317
 24
3804.049253714657
 34
0.0
100
AcDbRotatedDimension
1001
ACAD
1000
DSTYLE
1002
{
1070
    40
1040
40.0
1070
    41
1040
2.0
1070
    42
1040
2.0
1070
    43
1040
7.0
1070
    44
1040
1.0
1070
    73
1070
     0
1070
    74
1070
     0
1070
    77
1070
     1
1070
    78
1070
     8
1070
   140
1040
3.0
1070
   141
1040
0.0
1070
   145
1040
1.0
1070
   147
1040
0.8
1070
   172
1070
     1
1070
   174
1070
     1
1070
   177
1070
   256
1070
   271
1070
     0
1070
   272
1070
     0
1070
   275
1070
     1
1070
   279
1070
     2
1070
   284
1070
     8
1070
   285
1070
     8
1070
   286
1070
     8
1070
   289
1070
     0
1002
}
  0
DIMENSION
  5
158F6
330
17
100
AcDbEntity
  8
SUNPOU
100
AcDbDimension
  2
*D51
 10
-18593.20633963065
 20
3226.427880578646
 30
0.0
 11
-18593.20633963065
 21
2970.427880578643
 31
0.0
 70
   160
 71
     5
 42
15.0
  3
STANDARD
100
AcDbAlignedDimension
 13
-19005.20633963065
 23
3286.427880578646
 33
0.0
 14
-18965.20633963065
 24
3226.427880578646
 34
0.0
 50
90.0
100
AcDbRotatedDimension
1001
ACAD
1000
DSTYLE
1002
{
1070
   343
1005
17414
1070
   173
1070
     1
1070
   344
1005
17414
1070
    40
1040
40.0
1070
    41
1040
2.0
1070
    42
1040
2.0
1070
    43
1040
7.0
1070
    44
1040
1.0
1070
    73
1070
     0
1070
    74
1070
     0
1070
    77
1070
     1
1070
    78
1070
     8
1070
   140
1040
3.0
1070
   141
1040
0.0
1070
   144
1040
0.25
1070
   145
1040
1.0
1070
   147
1040
0.8
1070
   172
1070
     1
1070
   174
1070
     1
1070
   177
1070
   256
1070
   271
1070
     0
1070
   272
1070
     0
1070
   275
1070
     1
1070
   284
1070
     8
1070
   285
1070
     8
1070
   286
1070
     8
1070
   289
1070
     0
1002
}
  0
DIMENSION
  5
158F7
330
17
100
AcDbEntity
  8
SUNPOU
100
AcDbDimension
  2
*D50
 10
-18957.20633963065
 20
2533.26014802261
 30
0.0
 11
-18701.20633963065
 21
2533.26014802261
 31
0.0
 70
   160
 71
     5
 42
12.0
  3
STANDARD
100
AcDbAlignedDimension
 13
-19005.20633963065
 23
3286.427880578646
 33
0.0
 14
-18957.20633963065
 24
3266.427880578646
 34
0.0
100
AcDbRotatedDimension
1001
ACAD
1000
DSTYLE
1002
{
1070
    40
1040
40.0
1070
    41
1040
2.0
1070
    42
1040
2.0
1070
    43
1040
7.0
1070
    44
1040
1.0
1070
    73
1070
     0
1070
    74
1070
     0
1070
    77
1070
     1
1070
    78
1070
     8
1070
   140
1040
3.0
1070
   141
1040
0.0
1070
   144
1040
0.25
1070
   145
1040
1.0
1070
   147
1040
0.8
1070
   172
1070
     1
1070
   174
1070
     1
1070
   177
1070
   256
1070
   271
1070
     0
1070
   272
1070
     0
1070
   275
1070
     1
1070
   279
1070
     0
1070
   284
1070
     8
1070
   285
1070
     8
1070
   286
1070
     8
1070
   289
1070
     0
1002
}
  0
DIMENSION
  5
158F8
330
17
100
AcDbEntity
  8
SUNPOU
100
AcDbDimension
  2
*D41
 10
-19320.97766769209
 20
2886.427880578646
 30
0.0
 11
-19480.97766769209
 21
2978.427880578646
 31
0.0
 70
    32
 71
     5
 42
80.0
  3
STANDARD
100
AcDbAlignedDimension
 13
-19640.97766769209
 23
3646.427880578646
 33
0.0
 14
-19320.97766769209
 24
3226.427880578646
 34
0.0
100
AcDbRotatedDimension
1001
ACAD
1000
DSTYLE
1002
{
1070
    40
1040
40.0
1070
    41
1040
2.0
1070
    42
1040
2.0
1070
    43
1040
7.0
1070
    44
1040
1.0
1070
    73
1070
     0
1070
    74
1070
     0
1070
    77
1070
     1
1070
    78
1070
     8
1070
   140
1040
3.0
1070
   141
1040
0.0
1070
   144
1040
0.25
1070
   145
1040
1.0
1070
   147
1040
0.8
1070
   172
1070
     1
1070
   174
1070
     1
1070
   177
1070
   256
1070
   271
1070
     0
1070
   272
1070
     0
1070
   275
1070
     1
1070
   279
1070
     2
1070
   284
1070
     8
1070
   285
1070
     8
1070
   286
1070
     8
1070
   289
1070
     0
1002
}
  0
LEADER
  5
158F9
330
17
100
AcDbEntity
  8
SUNPOU
100
AcDbLeader
  3
STANDARD
 76
     2
 10
-18993.20633963065
 20
3438.427880578646
 30
0.0
 10
-19356.38631903843
 20
2669.970950553899
 30
0.0
1001
ACAD
1000
DSTYLE
1002
{
1070
    40
1040
40.0
1070
    41
1040
2.0
1070
    42
1040
2.0
1070
    43
1040
7.0
1070
    44
1040
1.0
1070
    73
1070
     0
1070
    74
1070
     0
1070
    78
1070
     8
1070
   140
1040
2.5
1070
   141
1040
0.0
1070
   145
1040
1.0
1070
   147
1040
0.8
1070
   172
1070
     1
1070
   174
1070
     1
1070
   177
1070
   256
1070
   271
1070
     0
1070
   272
1070
     0
1070
   275
1070
     1
1070
   279
1070
     2
1070
   284
1070
     8
1070
   285
1070
     8
1070
   286
1070
     8
1070
   289
1070
     0
1002
}
  0
LEADER
  5
158FA
330
17
100
AcDbEntity
  8
SUNPOU
100
AcDbLeader
  3
STANDARD
 76
     2
 10
-18961.20633963065
 20
3246.427880578646
 30
0.0
 10
-19330.38337204356
 20
2452.311515129723
 30
0.0
1001
ACAD
1000
DSTYLE
1002
{
1070
    40
1040
40.0
1070
    41
1040
2.0
1070
    42
1040
2.0
1070
    43
1040
7.0
1070
    44
1040
1.0
1070
    73
1070
     0
1070
    74
1070
     0
1070
    78
1070
     8
1070
   140
1040
2.5
1070
   141
1040
0.0
1070
   145
1040
1.0
1070
   147
1040
0.8
1070
   172
1070
     1
1070
   174
1070
     1
1070
   177
1070
   256
1070
   271
1070
     0
1070
   272
1070
     0
1070
   275
1070
     1
1070
   279
1070
     2
1070
   284
1070
     8
1070
   285
1070
     8
1070
   286
1070
     8
1070
   289
1070
     0
1002
}
  0
LINE
  5
158FB
330
17
100
AcDbEntity
  8
SUNPOU
100
AcDbLine
 10
-19330.38337204356
 20
2452.311515129723
 30
0.0
 11
-19810.08740272223
 21
2452.311515129723
 31
0.0
1001
ACAD
1000
DSTYLE
1002
{
1070
    78
1070
     8
1070
   284
1070
     8
1070
   140
1040
2.5
1070
   145
1040
1.0
1070
    74
1070
     0
1070
    73
1070
     0
1070
    40
1040
30.0
1070
   287
1070
     5
1070
    42
1040
2.0
1070
    44
1040
1.0
1070
    43
1040
7.0
1070
   141
1040
0.0
1070
   275
1070
     1
1070
    41
1040
2.0
1070
   285
1070
     8
1070
   286
1070
     8
1002
}
  0
TEXT
  5
158FC
330
17
100
AcDbEntity
  8
SUNPOU
100
AcDbText
 10
-19769.89313571263
 20
2488.222449996129
 30
0.0
 40
120.0
  1
目地溝
100
AcDbText
  0
LINE
  5
158FD
330
17
100
AcDbEntity
  8
SUNPOU
100
AcDbLine
 10
-19356.38631903843
 20
2669.970950553899
 30
0.0
 11
-20077.00760080517
 21
2669.970950553899
 31
0.0
1001
ACAD
1000
DSTYLE
1002
{
1070
    78
1070
     8
1070
   284
1070
     8
1070
   140
1040
2.5
1070
   145
1040
1.0
1070
    74
1070
     0
1070
    73
1070
     0
1070
    40
1040
30.0
1070
   287
1070
     5
1070
    42
1040
2.0
1070
    44
1040
1.0
1070
    43
1040
7.0
1070
   141
1040
0.0
1070
   275
1070
     1
1070
    41
1040
2.0
1070
   285
1070
     8
1070
   286
1070
     8
1002
}
  0
TEXT
  5
158FE
330
17
100
AcDbEntity
  8
SUNPOU
100
AcDbText
 10
-20074.77330269105
 20
2696.967971177151
 30
0.0
 40
120.0
  1
パッキン溝
100
AcDbText
  0
LINE
  5
15902
330
17
100
AcDbEntity
  8
SUNPOU
100
AcDbLine
 10
-20360.97766769209
 20
3586.427880578646
 30
0.0
 11
-20280.97766769209
 21
3706.427880578646
 31
0.0
  0
LINE
  5
15903
330
17
100
AcDbEntity
  8
SUNPOU
100
AcDbLine
 10
-20320.97766769209
 20
3566.427880578646
 30
0.0
 11
-20360.97766769209
 21
3586.427880578646
 31
0.0
  0
DIMENSION
  5
15904
330
17
100
AcDbEntity
  8
SUNPOU
100
AcDbDimension
  2
*D45
 10
-21034.31100102543
 20
3226.427880578646
 30
0.0
 11
-21126.31100102543
 21
3626.427880578643
 31
0.0
 70
    32
 71
     5
 42
200.0
  3
STANDARD
100
AcDbAlignedDimension
 13
-20320.9776676921
 23
4026.427880578646
 33
0.0
 14
-20320.9776676921
 24
3226.427880578646
 34
0.0
 50
90.0
100
AcDbRotatedDimension
1001
ACAD
1000
DSTYLE
1002
{
1070
    40
1040
40.0
1070
    41
1040
2.0
1070
    42
1040
2.0
1070
    43
1040
7.0
1070
    44
1040
1.0
1070
    73
1070
     0
1070
    74
1070
     0
1070
    77
1070
     1
1070
    78
1070
     8
1070
   140
1040
3.0
1070
   141
1040
0.0
1070
   144
1040
0.25
1070
   145
1040
1.0
1070
   147
1040
0.8
1070
   172
1070
     1
1070
   174
1070
     1
1070
   177
1070
   256
1070
   271
1070
     0
1070
   272
1070
     0
1070
   275
1070
     1
1070
   279
1070
     2
1070
   284
1070
     8
1070
   285
1070
     8
1070
   286
1070
     8
1070
   289
1070
     0
1002
}
  0
DIMENSION
  5
15905
330
17
100
AcDbEntity
  8
SUNPOU
100
AcDbDimension
  2
*D44
 10
-20754.31100102543
 20
3646.427880578646
 30
0.0
 11
-20846.31100102543
 21
3836.427880578643
 31
0.0
 70
    32
 71
     5
 42
95.0
  3
STANDARD
100
AcDbAlignedDimension
 13
-20320.9776676921
 23
4026.427880578646
 33
0.0
 14
-19640.97766769209
 24
3646.427880578646
 34
0.0
 50
90.0
100
AcDbRotatedDimension
1001
ACAD
1000
DSTYLE
1002
{
1070
    40
1040
40.0
1070
    41
1040
2.0
1070
    42
1040
2.0
1070
    43
1040
7.0
1070
    44
1040
1.0
1070
    73
1070
     0
1070
    74
1070
     0
1070
    77
1070
     1
1070
    78
1070
     8
1070
   140
1040
3.0
1070
   141
1040
0.0
1070
   144
1040
0.25
1070
   145
1040
1.0
1070
   147
1040
0.8
1070
   172
1070
     1
1070
   174
1070
     1
1070
   177
1070
   256
1070
   271
1070
     0
1070
   272
1070
     0
1070
   275
1070
     1
1070
   279
1070
     2
1070
   284
1070
     8
1070
   285
1070
     8
1070
   286
1070
     8
1070
   289
1070
     0
1002
}
  0
DIMENSION
  5
15906
330
17
100
AcDbEntity
  8
SUNPOU
100
AcDbDimension
  2
*D43
 10
-20754.31100102543
 20
3226.427880578646
 30
0.0
 11
-20846.31100102543
 21
3396.427880578643
 31
0.0
 70
    32
 71
     5
 42
85.00000000000011
  3
STANDARD
100
AcDbAlignedDimension
 13
-19320.97766769209
 23
3566.427880578646
 33
0.0
 14
-20320.97766769209
 24
3226.427880578646
 34
0.0
 50
90.0
100
AcDbRotatedDimension
1001
ACAD
1000
DSTYLE
1002
{
1070
    40
1040
40.0
1070
    41
1040
2.0
1070
    42
1040
2.0
1070
    43
1040
7.0
1070
    44
1040
1.0
1070
    73
1070
     0
1070
    74
1070
     0
1070
    77
1070
     1
1070
    78
1070
     8
1070
   140
1040
3.0
1070
   141
1040
0.0
1070
   144
1040
0.25
1070
   145
1040
1.0
1070
   147
1040
0.8
1070
   172
1070
     1
1070
   174
1070
     1
1070
   177
1070
   256
1070
   271
1070
     0
1070
   272
1070
     0
1070
   275
1070
     1
1070
   279
1070
     2
1070
   284
1070
     8
1070
   285
1070
     8
1070
   286
1070
     8
1070
   289
1070
     0
1002
}
  0
DIMENSION
  5
15907
330
17
100
AcDbEntity
  8
SUNPOU
100
AcDbDimension
  2
*D42
 10
-20754.31100102543
 20
3566.427880578647
 30
0.0
 11
-20846.31100102543
 21
3606.427880578643
 31
0.0
 70
    32
 71
     5
 42
19.99999999999989
  3
STANDARD
100
AcDbAlignedDimension
 13
-19640.97766769209
 23
3646.427880578646
 33
0.0
 14
-19320.97766769209
 24
3566.427880578646
 34
0.0
 50
90.0
100
AcDbRotatedDimension
1001
ACAD
1000
DSTYLE
1002
{
1070
    40
1040
40.0
1070
    41
1040
2.0
1070
    42
1040
2.0
1070
    43
1040
7.0
1070
    44
1040
1.0
1070
    73
1070
     0
1070
    74
1070
     0
1070
    77
1070
     1
1070
    78
1070
     8
1070
   140
1040
3.0
1070
   141
1040
0.0
1070
   144
1040
0.25
1070
   145
1040
1.0
1070
   147
1040
0.8
1070
   172
1070
     1
1070
   174
1070
     1
1070
   177
1070
   256
1070
   271
1070
     0
1070
   272
1070
     0
1070
   275
1070
     1
1070
   279
1070
     2
1070
   284
1070
     8
1070
   285
1070
     8
1070
   286
1070
     8
1070
   289
1070
     0
1002
}
  0
LINE
  5
15908
330
17
100
AcDbEntity
  8
SUNPOU
100
AcDbLine
 10
-18320.97766769208
 20
4126.427880578645
 30
0.0
 11
-18320.97766769208
 21
3726.427880578641
 31
0.0
  0
LINE
  5
15909
330
17
100
AcDbEntity
  8
SEIHIN
100
AcDbLine
 10
-19325.20633963065
 20
4026.427880578646
 30
0.0
 11
-19325.20633963065
 21
3686.427880578646
 31
0.0
  0
DIMENSION
  5
1590A
330
17
100
AcDbEntity
  8
SUNPOU
100
AcDbDimension
  2
*D54
 10
-18993.20633963065
 20
4119.76121391198
 30
0.0
 11
-18903.6102479525
 21
4201.76121391198
 31
0.0
 70
   160
 71
     5
 42
3.0
  3
STANDARD
100
AcDbAlignedDimension
 13
-19005.20633963065
 23
3606.427880578646
 33
0.0
 14
-18993.20633963065
 24
3482.427880578646
 34
0.0
100
AcDbRotatedDimension
1001
ACAD
1000
DSTYLE
1002
{
1070
    40
1040
40.0
1070
    41
1040
2.0
1070
    42
1040
2.0
1070
    43
1040
7.0
1070
    44
1040
1.0
1070
    73
1070
     0
1070
    74
1070
     0
1070
    77
1070
     1
1070
    78
1070
     8
1070
   140
1040
3.0
1070
   141
1040
0.0
1070
   144
1040
0.25
1070
   145
1040
1.0
1070
   147
1040
0.8
1070
   172
1070
     1
1070
   174
1070
     1
1070
   177
1070
   256
1070
   271
1070
     0
1070
   272
1070
     0
1070
   275
1070
     1
1070
   279
1070
     2
1070
   284
1070
     8
1070
   285
1070
     8
1070
   286
1070
     8
1070
   289
1070
     0
1002
}
  0
DIMENSION
  5
1590B
330
17
100
AcDbEntity
  8
SUNPOU
100
AcDbDimension
  2
*D48
 10
-17840.97766769208
 20
4026.427880578645
 30
0.0
 11
-17932.97766769208
 21
3856.427880578643
 31
0.0
 70
    32
 71
     5
 42
84.99999999999966
  3
STANDARD
100
AcDbAlignedDimension
 13
-19325.20633963065
 23
3686.427880578646
 33
0.0
 14
-18320.97766769208
 24
4026.427880578645
 34
0.0
 50
90.0
100
AcDbRotatedDimension
1001
ACAD
1000
DSTYLE
1002
{
1070
    40
1040
40.0
1070
    41
1040
2.0
1070
    42
1040
2.0
1070
    43
1040
7.0
1070
    44
1040
1.0
1070
    73
1070
     0
1070
    74
1070
     0
1070
    77
1070
     1
1070
    78
1070
     8
1070
   140
1040
3.0
1070
   141
1040
0.0
1070
   144
1040
0.25
1070
   145
1040
1.0
1070
   147
1040
0.8
1070
   172
1070
     1
1070
   174
1070
     1
1070
   177
1070
   256
1070
   271
1070
     0
1070
   272
1070
     0
1070
   275
1070
     1
1070
   279
1070
     2
1070
   284
1070
     8
1070
   285
1070
     8
1070
   286
1070
     8
1070
   289
1070
     0
1002
}
  0
DIMENSION
  5
1590C
330
17
100
AcDbEntity
  8
SUNPOU
100
AcDbDimension
  2
*D46
 10
-19325.20633963065
 20
4360.277386115494
 30
0.0
 11
-19165.20633963065
 21
4452.277386115494
 31
0.0
 70
    32
 71
     5
 42
80.0
  3
STANDARD
100
AcDbAlignedDimension
 13
-19005.20633963065
 23
3606.427880578646
 33
0.0
 14
-19325.20633963065
 24
4026.427880578646
 34
0.0
100
AcDbRotatedDimension
1001
ACAD
1000
DSTYLE
1002
{
1070
    40
1040
40.0
1070
    41
1040
2.0
1070
    42
1040
2.0
1070
    43
1040
7.0
1070
    44
1040
1.0
1070
    73
1070
     0
1070
    74
1070
     0
1070
    77
1070
     1
1070
    78
1070
     8
1070
   140
1040
3.0
1070
   141
1040
0.0
1070
   144
1040
0.25
1070
   145
1040
1.0
1070
   147
1040
0.8
1070
   172
1070
     1
1070
   174
1070
     1
1070
   177
1070
   256
1070
   271
1070
     0
1070
   272
1070
     0
1070
   275
1070
     1
1070
   279
1070
     2
1070
   284
1070
     8
1070
   285
1070
     8
1070
   286
1070
     8
1070
   289
1070
     0
1002
}
  0
LINE
  5
1590D
330
17
100
AcDbEntity
  8
SEIHIN
100
AcDbLine
 10
-19640.97766769209
 20
4026.427880578646
 30
0.0
 11
-19640.97766769209
 21
3646.427880578646
 31
0.0
  0
LINE
  5
1590E
330
17
100
AcDbEntity
  8
SUNPOU
100
AcDbLine
 10
-20320.97766769209
 20
4126.427880578646
 30
0.0
 11
-20320.97766769209
 21
3726.427880578643
 31
0.0
  0
LINE
  5
1590F
330
17
100
AcDbEntity
  8
SEIHIN
100
AcDbLine
 10
-18965.20633963065
 20
3226.427880578646
 30
0.0
 11
-18320.97766769208
 21
3226.427880578645
 31
0.0
  0
DIMENSION
  5
15910
330
17
100
AcDbEntity
  8
SUNPOU
100
AcDbDimension
  2
*D49
 10
-17840.97766769208
 20
3226.427880578645
 30
0.0
 11
-17932.97766769208
 21
3416.427880578643
 31
0.0
 70
    32
 71
     5
 42
95.00000000000034
  3
STANDARD
100
AcDbAlignedDimension
 13
-19005.20633963065
 23
3606.427880578646
 33
0.0
 14
-18320.97766769208
 24
3226.427880578645
 34
0.0
 50
90.0
100
AcDbRotatedDimension
1001
ACAD
1000
DSTYLE
1002
{
1070
    40
1040
40.0
1070
    41
1040
2.0
1070
    42
1040
2.0
1070
    43
1040
7.0
1070
    44
1040
1.0
1070
    73
1070
     0
1070
    74
1070
     0
1070
    77
1070
     1
1070
    78
1070
     8
1070
   140
1040
3.0
1070
   141
1040
0.0
1070
   144
1040
0.25
1070
   145
1040
1.0
1070
   147
1040
0.8
1070
   172
1070
     1
1070
   174
1070
     1
1070
   177
1070
   256
1070
   271
1070
     0
1070
   272
1070
     0
1070
   275
1070
     1
1070
   279
1070
     2
1070
   284
1070
     8
1070
   285
1070
     8
1070
   286
1070
     8
1070
   289
1070
     0
1002
}
  0
DIMENSION
  5
15911
330
17
100
AcDbEntity
  8
SUNPOU
100
AcDbDimension
  2
*D47
 10
-17840.97766769208
 20
3686.427880578646
 30
0.0
 11
-17932.97766769208
 21
3646.427880578643
 31
0.0
 70
    32
 71
     5
 42
20.0
  3
STANDARD
100
AcDbAlignedDimension
 13
-19005.20633963065
 23
3606.427880578646
 33
0.0
 14
-19325.20633963065
 24
3686.427880578646
 34
0.0
 50
90.0
100
AcDbRotatedDimension
1001
ACAD
1000
DSTYLE
1002
{
1070
    40
1040
40.0
1070
    41
1040
2.0
1070
    42
1040
2.0
1070
    43
1040
7.0
1070
    44
1040
1.0
1070
    73
1070
     0
1070
    74
1070
     0
1070
    77
1070
     1
1070
    78
1070
     8
1070
   140
1040
3.0
1070
   141
1040
0.0
1070
   144
1040
0.25
1070
   145
1040
1.0
1070
   147
1040
0.8
1070
   172
1070
     1
1070
   174
1070
     1
1070
   177
1070
   256
1070
   271
1070
     0
1070
   272
1070
     0
1070
   275
1070
     1
1070
   279
1070
     2
1070
   284
1070
     8
1070
   285
1070
     8
1070
   286
1070
     8
1070
   289
1070
     0
1002
}
  0
LINE
  5
15912
330
17
100
AcDbEntity
  8
SEIHIN
100
AcDbLine
 10
-19005.20633963065
 20
3494.427880578646
 30
0.0
 11
-18993.20633963065
 21
3482.427880578646
 31
0.0
  0
LINE
  5
15913
330
17
100
AcDbEntity
  8
SEIHIN
100
AcDbLine
 10
-19320.97766769209
 20
3566.427880578646
 30
0.0
 11
-19320.97766769209
 21
3226.427880578646
 31
0.0
  0
DIMENSION
  5
15914
330
17
100
AcDbEntity
  8
SUNPOU
100
AcDbDimension
  2
*D53
 10
-18593.20633963065
 20
3482.427880578646
 30
0.0
 11
-18593.20633963065
 21
3754.427880578643
 31
0.0
 70
   160
  1
<>
 71
     5
 42
22.0
  3
STANDARD
100
AcDbAlignedDimension
 13
-18993.20633963065
 23
3394.427880578646
 33
0.0
 14
-18993.20633963065
 24
3482.427880578646
 34
0.0
 50
90.0
100
AcDbRotatedDimension
1001
ACAD
1000
DSTYLE
1002
{
1070
    40
1040
40.0
1070
    41
1040
2.0
1070
    42
1040
2.0
1070
    43
1040
7.0
1070
    44
1040
1.0
1070
    73
1070
     0
1070
    74
1070
     0
1070
    77
1070
     1
1070
    78
1070
     8
1070
   140
1040
3.0
1070
   141
1040
0.0
1070
   144
1040
0.25
1070
   145
1040
1.0
1070
   147
1040
0.8
1070
   172
1070
     1
1070
   173
1070
     1
1070
   174
1070
     1
1070
   177
1070
   256
1070
   271
1070
     0
1070
   272
1070
     0
1070
   275
1070
     1
1070
   284
1070
     8
1070
   285
1070
     8
1070
   286
1070
     8
1070
   289
1070
     0
1070
   343
1005
17414
1070
   344
1005
17414
1002
}
  0
LINE
  5
15915
330
17
100
AcDbEntity
  8
SUNPOU
100
AcDbLine
 10
-20320.97766769209
 20
3566.427880578643
 30
0.0
 11
-20320.97766769208
 21
3126.427880578646
 31
0.0
  0
LINE
  5
15916
330
17
100
AcDbEntity
  8
SEIHIN
100
AcDbLine
 10
-19320.97766769209
 20
3226.427880578646
 30
0.0
 11
-20320.97766769209
 21
3226.427880578646
 31
0.0
  0
LINE
  5
15917
330
17
100
AcDbEntity
  8
SEIHIN
100
AcDbLine
 10
-19005.20633963065
 20
3286.427880578646
 30
0.0
 11
-18957.20633963065
 21
3266.427880578646
 31
0.0
  0
DIMENSION
  5
15918
330
17
100
AcDbEntity
  8
SUNPOU
100
AcDbDimension
  2
*D52
 10
-18593.20633963065
 20
3394.427880578646
 30
0.0
 11
-18685.20633963065
 21
3340.427880578643
 31
0.0
 70
    32
 71
     5
 42
27.0
  3
STANDARD
100
AcDbAlignedDimension
 13
-19005.20633963065
 23
3286.427880578646
 33
0.0
 14
-18993.20633963065
 24
3394.427880578646
 34
0.0
 50
90.0
100
AcDbRotatedDimension
1001
ACAD
1000
DSTYLE
1002
{
1070
    40
1040
40.0
1070
    41
1040
2.0
1070
    42
1040
2.0
1070
    43
1040
7.0
1070
    44
1040
1.0
1070
    73
1070
     0
1070
    74
1070
     0
1070
    77
1070
     1
1070
    78
1070
     8
1070
   140
1040
3.0
1070
   141
1040
0.0
1070
   144
1040
0.25
1070
   145
1040
1.0
1070
   147
1040
0.8
1070
   172
1070
     1
1070
   173
1070
     1
1070
   174
1070
     1
1070
   177
1070
   256
1070
   271
1070
     0
1070
   272
1070
     0
1070
   275
1070
     1
1070
   284
1070
     8
1070
   285
1070
     8
1070
   286
1070
     8
1070
   289
1070
     0
1070
   343
1005
17414
1070
   344
1005
17414
1002
}
  0
LINE
  5
15919
330
17
100
AcDbEntity
  8
SEIHIN
100
AcDbLine
 10
-18957.20633963065
 20
3266.427880578646
 30
0.0
 11
-18965.20633963065
 21
3226.427880578646
 31
0.0
  0
LINE
  5
1591A
330
17
100
AcDbEntity
  8
SEIHIN
100
AcDbLine
 10
-18993.20633963065
 20
3394.427880578646
 30
0.0
 11
-19005.20633963065
 21
3382.427880578646
 31
0.0
  0
LINE
  5
1591B
330
17
100
AcDbEntity
  8
SEIHIN
100
AcDbLine
 10
-19005.20633963065
 20
3382.427880578646
 30
0.0
 11
-19005.20633963065
 21
3286.427880578646
 31
0.0
  0
LINE
  5
1591C
330
17
100
AcDbEntity
  8
SEIHIN
100
AcDbLine
 10
-18993.20633963065
 20
3482.427880578646
 30
0.0
 11
-18993.20633963065
 21
3394.427880578646
 31
0.0
  0
LINE
  5
1591D
330
17
100
AcDbEntity
  8
SEIHIN
100
AcDbLine
 10
-19325.20633963065
 20
3686.427880578646
 30
0.0
 11
-19005.20633963065
 21
3606.427880578646
 31
0.0
  0
LINE
  5
1591E
330
17
100
AcDbEntity
  8
SEIHIN
100
AcDbLine
 10
-19640.97766769209
 20
3646.427880578646
 30
0.0
 11
-19320.97766769209
 21
3566.427880578646
 31
0.0
  0
LINE
  5
1591F
330
17
100
AcDbEntity
  8
SUNPOU
100
AcDbLine
 10
-20280.97766769209
 20
3706.427880578646
 30
0.0
 11
-20320.97766769209
 21
3726.427880578646
 31
0.0
  0
LINE
  5
15920
330
17
100
AcDbEntity
  8
SEIHIN
100
AcDbLine
 10
-19005.20633963065
 20
3606.427880578646
 30
0.0
 11
-19005.20633963065
 21
3494.427880578646
 31
0.0
  0
LINE
  5
15921
330
17
100
AcDbEntity
  8
SUNPOU
100
AcDbLine
 10
-18320.97766769208
 20
3566.427880578641
 30
0.0
 11
-18320.97766769208
 21
3126.427880578645
 31
0.0
  0
LINE
  5
15922
330
17
100
AcDbEntity
  8
SUNPOU
100
AcDbLine
 10
-18360.97766769208
 20
3586.427880578645
 30
0.0
 11
-18280.97766769208
 21
3706.427880578645
 31
0.0
  0
LINE
  5
15923
330
17
100
AcDbEntity
  8
SUNPOU
100
AcDbLine
 10
-18320.97766769208
 20
3566.427880578645
 30
0.0
 11
-18360.97766769208
 21
3586.427880578645
 31
0.0
  0
LINE
  5
15924
330
17
100
AcDbEntity
  8
SUNPOU
100
AcDbLine
 10
-18280.97766769208
 20
3706.427880578645
 30
0.0
 11
-18320.97766769208
 21
3726.427880578645
 31
0.0
  0
LINE
  5
15925
330
17
100
AcDbEntity
  8
SEIHIN
100
AcDbLine
 10
-19325.20633963065
 20
4026.427880578646
 30
0.0
 11
-18320.97766769208
 21
4026.427880578645
 31
0.0
  0
LINE
  5
15926
330
17
100
AcDbEntity
  8
SEIHIN
100
AcDbLine
 10
-20320.97766769208
 20
4026.427880578646
 30
0.0
 11
-19640.97766769209
 21
4026.427880578646
 31
0.0
  0
TEXT
  5
15B71
330
17
100
AcDbEntity
  8
SUNPOU
100
AcDbText
 10
-19736.157342577
 20
1449.648862297297
 30
0.0
 40
120.0
  1
平成    年   月版
 72
     4
 11
-19140.157342577
 21
1509.648862297297
 31
0.0
100
AcDbText
  0
TEXT
  5
15B72
330
17
100
AcDbEntity
  8
SUNPOU
100
AcDbText
 10
-18943.38630883181
 20
1459.891840454213
 30
0.0
 40
120.0
  1
6
 41
0.8
 72
     4
 11
-18911.38630883181
 21
1519.891840454213
 31
0.0
100
AcDbText
  0
TEXT
  5
15B73
330
17
100
AcDbEntity
  8
SUNPOU
100
AcDbText
 10
-19391.7662023777
 20
1459.891840454213
 30
0.0
 40
120.0
  1
12
 41
0.8
 72
     4
 11
-19327.7662023777
 21
1519.891840454213
 31
0.0
100
AcDbText
  0
LEADER
  5
16868
330
17
100
AcDbEntity
  8
SUNPOU
100
AcDbLeader
  3
STANDARD
 76
     2
 10
-22572.80235428498
 20
5755.671381238275
 30
0.0
 10
-22256.50885303185
 20
5452.481733584829
 30
0.0
210
0.0
220
0.0
230
-1.0
1001
ACAD
1000
DSTYLE
1002
{
1070
    40
1040
40.0
1070
    41
1040
2.0
1070
    42
1040
2.0
1070
    43
1040
7.0
1070
    44
1040
1.0
1070
    73
1070
     0
1070
    74
1070
     0
1070
    78
1070
     8
1070
   140
1040
2.5
1070
   141
1040
0.0
1070
   145
1040
1.0
1070
   147
1040
0.8
1070
   172
1070
     1
1070
   174
1070
     1
1070
   177
1070
   256
1070
   271
1070
     0
1070
   272
1070
     0
1070
   275
1070
     1
1070
   279
1070
     2
1070
   284
1070
     8
1070
   285
1070
     8
1070
   286
1070
     8
1070
   289
1070
     0
1002
}
  0
TEXT
  5
16869
330
17
100
AcDbEntity
  8
SUNPOU
100
AcDbText
 10
-18314.54853960933
 20
9260.612254794556
 30
0.0
 40
120.0
  1
T - 25
 41
0.8
100
AcDbText
  0
LINE
  5
1686A
330
17
100
AcDbEntity
  8
SUNPOU
100
AcDbLine
 10
-18472.5116020832
 20
8166.547408933037
 30
0.0
 11
-18472.5116020832
 21
10673.33333333333
 31
0.0
  0
LINE
  5
1686B
330
17
100
AcDbEntity
  8
SUNPOU
100
AcDbLine
 10
-16792.5116020832
 20
8166.547408933037
 30
0.0
 11
-16792.5116020832
 21
10673.33333333333
 31
0.0
  0
TEXT
  5
1686C
330
17
100
AcDbEntity
  8
SUNPOU
100
AcDbText
 10
-20696.55263962134
 20
9273.214075599702
 30
0.0
 40
120.0
  1
活荷重
100
AcDbText
  0
LINE
  5
1686D
330
17
100
AcDbEntity
  8
SUNPOU
100
AcDbLine
 10
-20792.5116020832
 20
8166.547408933037
 30
0.0
 11
-20792.5116020832
 21
10673.33333333333
 31
0.0
  0
TEXT
  5
1686E
330
17
100
AcDbEntity
  8
SUNPOU
100
AcDbText
 10
-17849.97130159162
 20
8860.612254794558
 30
0.0
 40
120.0
  1
24.5
 41
0.8
100
AcDbText
  0
TEXT
  5
1686F
330
17
100
AcDbEntity
  8
SUNPOU
100
AcDbText
 10
-18314.54853960933
 20
9060.612254794556
 30
0.0
 40
120.0
  1
H = 0.5～1.5  m
 41
0.8
100
AcDbText
  0
TEXT
  5
16870
330
17
100
AcDbEntity
  8
SUNPOU
100
AcDbText
 10
-17814.37299425658
 20
8469.282639990653
 30
0.0
 40
120.0
  1
0.50
 41
0.8
100
AcDbText
  0
TEXT
  5
16871
330
17
100
AcDbEntity
  8
SUNPOU
100
AcDbText
 10
-17844.20706481128
 20
8260.104262201925
 30
0.0
 40
120.0
  1
10200
 41
0.8
100
AcDbText
  0
TEXT
  5
16872
330
17
100
AcDbEntity
  8
SUNPOU
100
AcDbText
 10
-17814.37299425658
 20
8664.947447392606
 30
0.0
 40
120.0
  1
18.0
 41
0.8
100
AcDbText
  0
LINE
  5
16873
330
17
100
AcDbEntity
  8
SUNPOU
100
AcDbLine
 10
-20792.5116020832
 20
8166.547408933037
 30
0.0
 11
-16792.5116020832
 21
8166.547408933037
 31
0.0
  0
TEXT
  5
16874
330
17
100
AcDbEntity
  8
SUNPOU
100
AcDbText
 10
-20696.55263962134
 20
8273.214075599704
 30
0.0
 40
120.0
  1
製品参考質量
100
AcDbText
  0
TEXT
  5
16875
330
17
100
AcDbEntity
  8
SUNPOU
100
AcDbText
 10
-18330.54853960933
 20
8261.759343104148
 30
0.0
 40
120.0
  1
W  =
 41
0.8
100
AcDbText
  0
TEXT
  5
16876
330
17
100
AcDbEntity
  8
SUNPOU
100
AcDbText
 10
-20696.55263962134
 20
8873.214075599704
 30
0.0
 40
120.0
  1
鉄筋コンクリートの単位体積重量
100
AcDbText
  0
TEXT
  5
16877
330
17
100
AcDbEntity
  8
SUNPOU
100
AcDbText
 10
-20696.55263962134
 20
8473.214075599704
 30
0.0
 40
120.0
  1
土圧係数
100
AcDbText
  0
TEXT
  5
16878
330
17
100
AcDbEntity
  8
SUNPOU
100
AcDbText
 10
-20696.55263962134
 20
8673.214075599704
 30
0.0
 40
120.0
  1
土の単位体積重量
100
AcDbText
  0
TEXT
  5
16879
330
17
100
AcDbEntity
  8
SUNPOU
100
AcDbText
 10
-20696.55263962134
 20
9073.214075599702
 30
0.0
 40
120.0
  1
土被り
100
AcDbText
  0
TEXT
  5
1687A
330
17
100
AcDbEntity
  8
SUNPOU
100
AcDbText
 10
-18218.08831699434
 20
8862.906459739355
 30
0.0
 40
66.66666666666666
  1
c
 41
0.8
100
AcDbText
  0
TEXT
  5
1687B
330
17
100
AcDbEntity
  8
SUNPOU
100
AcDbText
 10
-18330.54853960933
 20
8860.612254794558
 30
0.0
 40
120.0
  1
γ  =
 41
0.8
100
AcDbText
  0
TEXT
  5
1687C
330
17
100
AcDbEntity
  8
SUNPOU
100
AcDbText
 10
-18218.08831699434
 20
8663.333103764602
 30
0.0
 40
66.66666666666666
  1
t 
 41
0.8
100
AcDbText
  0
TEXT
  5
1687D
330
17
100
AcDbEntity
  8
SUNPOU
100
AcDbText
 10
-18330.54853960933
 20
8664.947447392606
 30
0.0
 40
120.0
  1
γ  =
 41
0.8
100
AcDbText
  0
TEXT
  5
1687E
330
17
100
AcDbEntity
  8
SUNPOU
100
AcDbText
 10
-18312.74938594181
 20
8469.282639990653
 30
0.0
 40
120.0
  1
K  =
 41
0.8
100
AcDbText
  0
TEXT
  5
1687F
330
17
100
AcDbEntity
  8
SUNPOU
100
AcDbText
 10
-18200.28916332682
 20
8471.576844935453
 30
0.0
 40
66.66666666666666
  1
0
 41
0.8
100
AcDbText
  0
TEXT
  5
16880
330
17
100
AcDbEntity
  8
SUNPOU
100
AcDbText
 10
-17381.26003252694
 20
8261.759343104148
 30
0.0
 40
120.0
  1
kg
 41
0.8
100
AcDbText
  0
TEXT
  5
16881
330
17
100
AcDbEntity
  8
SUNPOU
100
AcDbText
 10
-17381.26003252694
 20
8860.612254794558
 30
0.0
 40
120.0
  1
kN/m
 41
0.8
100
AcDbText
  0
TEXT
  5
16882
330
17
100
AcDbEntity
  8
SUNPOU
100
AcDbText
 10
-17381.26003252694
 20
8664.947447392606
 30
0.0
 40
120.0
  1
kN/m
 41
0.8
100
AcDbText
  0
TEXT
  5
16883
330
17
100
AcDbEntity
  8
SUNPOU
100
AcDbText
 10
-16948.94177876965
 20
8728.109148639352
 30
0.0
 40
47.99999999999999
  1
3
 41
0.8
 72
     2
 11
-16923.34177876965
 21
8752.109148639352
 31
0.0
100
AcDbText
 73
     2
  0
TEXT
  5
16884
330
17
100
AcDbEntity
  8
SUNPOU
100
AcDbText
 10
-16948.94177876965
 20
8923.773956041303
 30
0.0
 40
47.99999999999999
  1
3
 41
0.8
 72
     2
 11
-16923.34177876965
 21
8947.773956041303
 31
0.0
100
AcDbText
 73
     2
  0
TEXT
  5
16885
330
17
100
AcDbEntity
  8
SUNPOU
100
AcDbText
 10
-17784.97544425935
 20
10287.39817919485
 30
0.0
 40
120.0
  1
40
 41
0.8
100
AcDbText
  0
TEXT
  5
16886
330
17
100
AcDbEntity
  8
SUNPOU
100
AcDbText
 10
-17814.64070037189
 20
9455.830112524676
 30
0.0
 40
120.0
  1
160
 41
0.8
100
AcDbText
  0
LINE
  5
16887
330
17
100
AcDbEntity
  8
SUNPOU
100
AcDbLine
 10
-20792.5116020832
 20
10673.33333333333
 30
0.0
 11
-16792.5116020832
 21
10673.33333333333
 31
0.0
  0
TEXT
  5
16888
330
17
100
AcDbEntity
  8
SUNPOU
100
AcDbText
 10
-20555.88319634374
 20
10100.0
 30
0.0
 40
120.0
  1
PC鋼棒(C種1号)
100
AcDbText
  0
TEXT
  5
16889
330
17
100
AcDbEntity
  8
SUNPOU
100
AcDbText
 10
-19932.68311265025
 20
9899.340227701947
 30
0.0
 40
120.0
  1
SBPR 1080/1230
 41
0.8
100
AcDbText
  0
TEXT
  5
1688A
330
17
100
AcDbEntity
  8
SUNPOU
100
AcDbText
 10
-20696.55263962134
 20
9673.214075599702
 30
0.0
 40
120.0
  1
鉄　　筋
100
AcDbText
  0
TEXT
  5
1688B
330
17
100
AcDbEntity
  8
SUNPOU
100
AcDbText
 10
-20555.88319634374
 20
9473.214075599702
 30
0.0
 40
120.0
  1
許容引張応力度
100
AcDbText
  0
TEXT
  5
1688C
330
17
100
AcDbEntity
  8
SUNPOU
100
AcDbText
 10
-18354.54853960933
 20
9455.830112524676
 30
0.0
 40
120.0
  1
σ   = 
 41
0.8
100
AcDbText
  0
TEXT
  5
1688D
330
17
100
AcDbEntity
  8
SUNPOU
100
AcDbText
 10
-18241.82052188437
 20
9455.830112524676
 30
0.0
 40
66.66666666666666
  1
sa
 41
0.8
100
AcDbText
  0
TEXT
  5
1688E
330
17
100
AcDbEntity
  8
SUNPOU
100
AcDbText
 10
-20555.88319634374
 20
10300.0
 30
0.0
 40
120.0
  1
設計基準強度
100
AcDbText
  0
TEXT
  5
1688F
330
17
100
AcDbEntity
  8
SUNPOU
100
AcDbText
 10
-20696.55263962134
 20
10500.0
 30
0.0
 40
120.0
  1
コンクリート
100
AcDbText
  0
TEXT
  5
16890
330
17
100
AcDbEntity
  8
SUNPOU
100
AcDbText
 10
-20697.58278100296
 20
10799.79886911761
 30
0.0
 40
160.0
  1
設計条件
 11
-20697.58278100296
 21
10778.46553578427
 31
0.0
100
AcDbText
 73
     1
  0
TEXT
  5
16891
330
17
100
AcDbEntity
  8
SUNPOU
100
AcDbText
 10
-18354.54853960933
 20
10287.39817919485
 30
0.0
 40
120.0
  1
σ   = 
 41
0.8
100
AcDbText
  0
TEXT
  5
16892
330
17
100
AcDbEntity
  8
SUNPOU
100
AcDbText
 10
-18241.82052188437
 20
10287.39817919485
 30
0.0
 40
66.66666666666666
  1
ck
 41
0.8
100
AcDbText
  0
TEXT
  5
16893
330
17
100
AcDbEntity
  8
SUNPOU
100
AcDbText
 10
-16985.19829383461
 20
9520.585851752845
 30
0.0
 40
47.99999999999999
  1
2
 41
0.8
 72
     2
 11
-16959.59829383461
 21
9544.585851752845
 31
0.0
100
AcDbText
 73
     2
  0
TEXT
  5
16894
330
17
100
AcDbEntity
  8
SUNPOU
100
AcDbText
 10
-17428.99223741696
 20
9455.830112524676
 30
0.0
 40
120.0
  1
N/mm
 41
0.8
100
AcDbText
  0
TEXT
  5
16895
330
17
100
AcDbEntity
  8
SUNPOU
100
AcDbText
 10
-17428.99223741696
 20
10287.39817919485
 30
0.0
 40
120.0
  1
N/mm
 41
0.8
100
AcDbText
  0
TEXT
  5
16896
330
17
100
AcDbEntity
  8
SUNPOU
100
AcDbText
 10
-16994.45824389675
 20
10350.5598804416
 30
0.0
 40
47.99999999999999
  1
2
 41
0.8
 72
     2
 11
-16968.85824389675
 21
10374.5598804416
 31
0.0
100
AcDbText
 73
     2
  0
LINE
  5
174C9
330
17
100
AcDbEntity
  8
HASEN
100
AcDbLine
 10
-27277.51160208319
 20
9920.115717752411
 30
0.0
 11
-27297.51160208319
 21
9840.115717752407
 31
0.0
  0
LINE
  5
174CA
330
17
100
AcDbEntity
  8
SEIHIN
100
AcDbLine
 10
-27192.51160208319
 20
9920.115717752411
 30
0.0
 11
-27192.51160208319
 21
7920.115717752411
 31
0.0
  0
LINE
  5
174CB
330
17
100
AcDbEntity
  8
HASEN
100
AcDbLine
 10
-30307.51160208319
 20
9920.115717752415
 30
0.0
 11
-30287.51160208319
 21
9840.115717752415
 31
0.0
  0
LINE
  5
174CC
330
17
100
AcDbEntity
  8
SEIHIN
100
AcDbLine
 10
-30392.51160208319
 20
9920.115717752415
 30
0.0
 11
-30392.51160208319
 21
7920.115717752415
 31
0.0
  0
LINE
  5
174CD
330
17
100
AcDbEntity
  8
HASEN
100
AcDbLine
 10
-27592.50442620671
 20
9828.115717752407
 30
0.0
 11
-27592.50442620671
 21
7840.115717752415
 31
0.0
  0
LINE
  5
174CE
330
17
100
AcDbEntity
  8
HASEN
100
AcDbLine
 10
-27392.51160208318
 20
9828.115717752404
 30
0.0
 11
-27392.51160208318
 21
7840.115717752415
 31
0.0
  0
LINE
  5
174CF
330
17
100
AcDbEntity
  8
HASEN
100
AcDbLine
 10
-30192.51160208318
 20
9828.115717752396
 30
0.0
 11
-30192.51160208318
 21
7840.115717752415
 31
0.0
  0
LINE
  5
174D0
330
17
100
AcDbEntity
  8
HASEN
100
AcDbLine
 10
-29992.51160208317
 20
9828.115717752415
 30
0.0
 11
-29992.51160208318
 21
7840.115717752415
 31
0.0
  0
LINE
  5
174D1
330
17
100
AcDbEntity
  8
SEIHIN
100
AcDbLine
 10
-27192.51160208319
 20
7920.115717752411
 30
0.0
 11
-30392.51160208319
 21
7920.115717752415
 31
0.0
  0
LINE
  5
174D2
330
17
100
AcDbEntity
  8
SEIHIN
100
AcDbLine
 10
-29542.51160208319
 20
7840.115717752415
 30
0.0
 11
-27307.51160208319
 21
7840.115717752415
 31
0.0
  0
LINE
  5
174D3
330
17
100
AcDbEntity
  8
PC
  6
CENTER
 48
0.5
100
AcDbLine
 10
-30372.51160208319
 20
8080.115717752411
 30
0.0
 11
-27212.51160208319
 21
8080.115717752407
 31
0.0
  0
LINE
  5
174D4
330
17
100
AcDbEntity
  8
PC
  6
CENTER
 48
0.5
100
AcDbLine
 10
-30372.51160208319
 20
8080.115717752411
 30
0.0
 11
-27212.51160208319
 21
8080.115717752407
 31
0.0
  0
LINE
  5
174D5
330
17
100
AcDbEntity
  8
PC
  6
CENTER
 48
0.5
100
AcDbLine
 10
-30372.51160208319
 20
8080.115717752411
 30
0.0
 11
-27212.51160208319
 21
8080.115717752407
 31
0.0
  0
LINE
  5
174D6
330
17
100
AcDbEntity
  8
SEIHIN
100
AcDbLine
 10
-29542.51160208319
 20
7840.115717752415
 30
0.0
 11
-30277.51160208319
 21
7840.115717752407
 31
0.0
  0
LINE
  5
174D7
330
17
100
AcDbEntity
  8
SEIHIN
100
AcDbLine
 10
-30297.5116020832
 20
7920.115717752411
 30
0.0
 11
-30277.51160208319
 21
7840.115717752407
 31
0.0
  0
LINE
  5
174D8
330
17
100
AcDbEntity
  8
PC
100
AcDbLine
 10
-30342.51160208319
 20
8070.115717752411
 30
0.0
 11
-30392.51160208319
 21
8065.115717752411
 31
0.0
  0
LINE
  5
174D9
330
17
100
AcDbEntity
  8
PC
100
AcDbLine
 10
-30342.51160208319
 20
8090.115717752411
 30
0.0
 11
-30392.51160208319
 21
8095.115717752411
 31
0.0
  0
LINE
  5
174DA
330
17
100
AcDbEntity
  8
PC
100
AcDbLine
 10
-30342.51160208319
 20
8070.115717752411
 30
0.0
 11
-30392.51160208319
 21
8065.115717752411
 31
0.0
  0
LINE
  5
174DB
330
17
100
AcDbEntity
  8
PC
100
AcDbLine
 10
-30342.51160208319
 20
8090.115717752411
 30
0.0
 11
-30392.51160208319
 21
8095.115717752411
 31
0.0
  0
LINE
  5
174DC
330
17
100
AcDbEntity
  8
PC
100
AcDbLine
 10
-30342.51160208319
 20
8070.115717752411
 30
0.0
 11
-30392.51160208319
 21
8065.115717752411
 31
0.0
  0
LINE
  5
174DD
330
17
100
AcDbEntity
  8
PC
100
AcDbLine
 10
-30342.51160208319
 20
8090.115717752411
 30
0.0
 11
-30392.51160208319
 21
8095.115717752411
 31
0.0
  0
LINE
  5
174DE
330
17
100
AcDbEntity
  8
PC
100
AcDbLine
 10
-30342.51160208319
 20
8090.115717752411
 30
0.0
 11
-30342.51160208319
 21
8070.115717752411
 31
0.0
  0
LINE
  5
174DF
330
17
100
AcDbEntity
  8
PC
100
AcDbLine
 10
-30342.51160208319
 20
8090.115717752411
 30
0.0
 11
-30342.51160208319
 21
8070.115717752411
 31
0.0
  0
LINE
  5
174E0
330
17
100
AcDbEntity
  8
PC
100
AcDbLine
 10
-30342.51160208319
 20
8090.115717752411
 30
0.0
 11
-30342.51160208319
 21
8070.115717752411
 31
0.0
  0
LINE
  5
174E1
330
17
100
AcDbEntity
  8
SEIHIN
100
AcDbLine
 10
-27287.51160208318
 20
7920.115717752411
 30
0.0
 11
-27307.51160208319
 21
7840.115717752415
 31
0.0
  0
LINE
  5
174E2
330
17
100
AcDbEntity
  8
PC
  6
HIDDEN
 48
0.4
100
AcDbLine
 10
-27307.51160208319
 20
8115.115717752407
 30
0.0
 11
-27307.51160208319
 21
8045.115717752407
 31
0.0
  0
LINE
  5
174E3
330
17
100
AcDbEntity
  8
PC
  6
HIDDEN
 48
0.4
100
AcDbLine
 10
-27307.51160208319
 20
8115.115717752407
 30
0.0
 11
-27307.51160208319
 21
8045.115717752407
 31
0.0
  0
LINE
  5
174E4
330
17
100
AcDbEntity
  8
PC
  6
HIDDEN
 48
0.4
100
AcDbLine
 10
-27307.51160208319
 20
8132.615717752407
 30
0.0
 11
-27307.5116020832
 21
8027.615717752411
 31
0.0
  0
LINE
  5
174E5
330
17
100
AcDbEntity
  8
PC
  6
HIDDEN
 48
0.4
100
AcDbLine
 10
-27307.5116020832
 20
8027.615717752411
 30
0.0
 11
-27192.51160208319
 21
8020.115717752407
 31
0.0
  0
LINE
  5
174E6
330
17
100
AcDbEntity
  8
PC
  6
HIDDEN
 48
0.4
100
AcDbLine
 10
-27307.51160208319
 20
8132.615717752407
 30
0.0
 11
-27192.51160208319
 21
8140.115717752407
 31
0.0
  0
LINE
  5
174E7
330
17
100
AcDbEntity
  8
PC
  6
HIDDEN
 48
0.4
100
AcDbLine
 10
-27307.51160208319
 20
8132.615717752407
 30
0.0
 11
-27192.51160208319
 21
8140.115717752407
 31
0.0
  0
LINE
  5
174E8
330
17
100
AcDbEntity
  8
PC
  6
HIDDEN
 48
0.4
100
AcDbLine
 10
-27307.51160208319
 20
8132.615717752407
 30
0.0
 11
-27192.51160208319
 21
8140.115717752407
 31
0.0
  0
LINE
  5
174E9
330
17
100
AcDbEntity
  8
HASEN
100
AcDbLine
 10
-30287.51160208319
 20
9840.115717752415
 30
0.0
 11
-27297.51160208319
 21
9840.115717752407
 31
0.0
  0
LINE
  5
174EA
330
17
100
AcDbEntity
  8
PC
  6
CENTER
 48
0.5
100
AcDbLine
 10
-30372.51160208319
 20
8480.115717752411
 30
0.0
 11
-27212.51160208319
 21
8480.115717752407
 31
0.0
  0
LINE
  5
174EB
330
17
100
AcDbEntity
  8
PC
  6
CENTER
 48
0.5
100
AcDbLine
 10
-30372.51160208319
 20
8480.115717752411
 30
0.0
 11
-27212.51160208319
 21
8480.115717752407
 31
0.0
  0
LINE
  5
174EC
330
17
100
AcDbEntity
  8
PC
  6
CENTER
 48
0.5
100
AcDbLine
 10
-30372.51160208319
 20
8480.115717752411
 30
0.0
 11
-27212.51160208319
 21
8480.115717752407
 31
0.0
  0
LINE
  5
174ED
330
17
100
AcDbEntity
  8
PC
  6
CENTER
 48
0.5
100
AcDbLine
 10
-30372.51160208319
 20
8880.115717752411
 30
0.0
 11
-27212.51160208319
 21
8880.115717752407
 31
0.0
  0
LINE
  5
174EE
330
17
100
AcDbEntity
  8
PC
  6
CENTER
 48
0.5
100
AcDbLine
 10
-30372.51160208319
 20
8880.115717752411
 30
0.0
 11
-27212.51160208319
 21
8880.115717752407
 31
0.0
  0
LINE
  5
174EF
330
17
100
AcDbEntity
  8
PC
  6
CENTER
 48
0.5
100
AcDbLine
 10
-30372.51160208319
 20
8880.115717752411
 30
0.0
 11
-27212.51160208319
 21
8880.115717752407
 31
0.0
  0
LINE
  5
174F0
330
17
100
AcDbEntity
  8
PC
  6
CENTER
 48
0.5
100
AcDbLine
 10
-30372.51160208319
 20
9280.115717752411
 30
0.0
 11
-27212.51160208319
 21
9280.115717752407
 31
0.0
  0
LINE
  5
174F1
330
17
100
AcDbEntity
  8
PC
  6
CENTER
 48
0.5
100
AcDbLine
 10
-30372.51160208319
 20
9280.115717752411
 30
0.0
 11
-27212.51160208319
 21
9280.115717752407
 31
0.0
  0
LINE
  5
174F2
330
17
100
AcDbEntity
  8
PC
  6
CENTER
 48
0.5
100
AcDbLine
 10
-30372.51160208319
 20
9280.115717752411
 30
0.0
 11
-27212.51160208319
 21
9280.115717752407
 31
0.0
  0
LINE
  5
174F3
330
17
100
AcDbEntity
  8
PC
  6
CENTER
 48
0.5
100
AcDbLine
 10
-30372.51160208319
 20
9680.115717752411
 30
0.0
 11
-27212.51160208319
 21
9680.115717752407
 31
0.0
  0
LINE
  5
174F4
330
17
100
AcDbEntity
  8
PC
  6
CENTER
 48
0.5
100
AcDbLine
 10
-30372.51160208319
 20
9680.115717752411
 30
0.0
 11
-27212.51160208319
 21
9680.115717752407
 31
0.0
  0
LINE
  5
174F5
330
17
100
AcDbEntity
  8
PC
  6
CENTER
 48
0.5
100
AcDbLine
 10
-30372.51160208319
 20
9680.115717752411
 30
0.0
 11
-27212.51160208319
 21
9680.115717752407
 31
0.0
  0
LINE
  5
174F6
330
17
100
AcDbEntity
  8
PC
100
AcDbLine
 10
-30342.51160208319
 20
8490.115717752411
 30
0.0
 11
-30392.51160208319
 21
8495.115717752411
 31
0.0
  0
LINE
  5
174F7
330
17
100
AcDbEntity
  8
PC
100
AcDbLine
 10
-30342.51160208319
 20
8470.115717752411
 30
0.0
 11
-30392.51160208319
 21
8465.115717752411
 31
0.0
  0
LINE
  5
174F8
330
17
100
AcDbEntity
  8
PC
100
AcDbLine
 10
-30342.51160208319
 20
8490.115717752411
 30
0.0
 11
-30392.51160208319
 21
8495.115717752411
 31
0.0
  0
LINE
  5
174F9
330
17
100
AcDbEntity
  8
PC
100
AcDbLine
 10
-30342.51160208319
 20
8470.115717752411
 30
0.0
 11
-30392.51160208319
 21
8465.115717752411
 31
0.0
  0
LINE
  5
174FA
330
17
100
AcDbEntity
  8
PC
100
AcDbLine
 10
-30342.51160208319
 20
8490.115717752411
 30
0.0
 11
-30392.51160208319
 21
8495.115717752411
 31
0.0
  0
LINE
  5
174FB
330
17
100
AcDbEntity
  8
PC
100
AcDbLine
 10
-30342.51160208319
 20
8470.115717752411
 30
0.0
 11
-30392.51160208319
 21
8465.115717752411
 31
0.0
  0
LINE
  5
174FC
330
17
100
AcDbEntity
  8
PC
100
AcDbLine
 10
-30342.51160208319
 20
8490.115717752411
 30
0.0
 11
-30342.51160208319
 21
8470.115717752411
 31
0.0
  0
LINE
  5
174FD
330
17
100
AcDbEntity
  8
PC
100
AcDbLine
 10
-30342.51160208319
 20
8490.115717752411
 30
0.0
 11
-30342.51160208319
 21
8470.115717752411
 31
0.0
  0
LINE
  5
174FE
330
17
100
AcDbEntity
  8
PC
100
AcDbLine
 10
-30342.51160208319
 20
8490.115717752411
 30
0.0
 11
-30342.51160208319
 21
8470.115717752411
 31
0.0
  0
LINE
  5
174FF
330
17
100
AcDbEntity
  8
PC
100
AcDbLine
 10
-30342.51160208319
 20
8890.115717752411
 30
0.0
 11
-30392.51160208319
 21
8895.115717752411
 31
0.0
  0
LINE
  5
17500
330
17
100
AcDbEntity
  8
PC
100
AcDbLine
 10
-30342.51160208319
 20
8870.115717752411
 30
0.0
 11
-30392.51160208319
 21
8865.115717752411
 31
0.0
  0
LINE
  5
17501
330
17
100
AcDbEntity
  8
PC
100
AcDbLine
 10
-30342.51160208319
 20
8890.115717752411
 30
0.0
 11
-30392.51160208319
 21
8895.115717752411
 31
0.0
  0
LINE
  5
17502
330
17
100
AcDbEntity
  8
PC
100
AcDbLine
 10
-30342.51160208319
 20
8870.115717752411
 30
0.0
 11
-30392.51160208319
 21
8865.115717752411
 31
0.0
  0
LINE
  5
17503
330
17
100
AcDbEntity
  8
PC
100
AcDbLine
 10
-30342.51160208319
 20
8890.115717752411
 30
0.0
 11
-30392.51160208319
 21
8895.115717752411
 31
0.0
  0
LINE
  5
17504
330
17
100
AcDbEntity
  8
PC
100
AcDbLine
 10
-30342.51160208319
 20
8870.115717752411
 30
0.0
 11
-30392.51160208319
 21
8865.115717752411
 31
0.0
  0
LINE
  5
17505
330
17
100
AcDbEntity
  8
PC
100
AcDbLine
 10
-30342.51160208319
 20
8890.115717752411
 30
0.0
 11
-30342.51160208319
 21
8870.115717752411
 31
0.0
  0
LINE
  5
17506
330
17
100
AcDbEntity
  8
PC
100
AcDbLine
 10
-30342.51160208319
 20
8890.115717752411
 30
0.0
 11
-30342.51160208319
 21
8870.115717752411
 31
0.0
  0
LINE
  5
17507
330
17
100
AcDbEntity
  8
PC
100
AcDbLine
 10
-30342.51160208319
 20
8890.115717752411
 30
0.0
 11
-30342.51160208319
 21
8870.115717752411
 31
0.0
  0
LINE
  5
17508
330
17
100
AcDbEntity
  8
HASEN
100
AcDbLine
 10
-27392.51160208318
 20
9828.115717752407
 30
0.0
 11
-29542.51160208319
 21
9828.115717752415
 31
0.0
  0
LINE
  5
17509
330
17
100
AcDbEntity
  8
PC
100
AcDbLine
 10
-30342.51160208319
 20
9290.115717752411
 30
0.0
 11
-30392.51160208319
 21
9295.115717752411
 31
0.0
  0
LINE
  5
1750A
330
17
100
AcDbEntity
  8
PC
100
AcDbLine
 10
-30342.51160208319
 20
9270.115717752411
 30
0.0
 11
-30392.51160208319
 21
9265.115717752411
 31
0.0
  0
LINE
  5
1750B
330
17
100
AcDbEntity
  8
PC
100
AcDbLine
 10
-30342.51160208319
 20
9290.115717752411
 30
0.0
 11
-30392.51160208319
 21
9295.115717752411
 31
0.0
  0
LINE
  5
1750C
330
17
100
AcDbEntity
  8
PC
100
AcDbLine
 10
-30342.51160208319
 20
9270.115717752411
 30
0.0
 11
-30392.51160208319
 21
9265.115717752411
 31
0.0
  0
LINE
  5
1750D
330
17
100
AcDbEntity
  8
PC
100
AcDbLine
 10
-30342.51160208319
 20
9290.115717752411
 30
0.0
 11
-30392.51160208319
 21
9295.115717752411
 31
0.0
  0
LINE
  5
1750E
330
17
100
AcDbEntity
  8
PC
100
AcDbLine
 10
-30342.51160208319
 20
9270.115717752411
 30
0.0
 11
-30392.51160208319
 21
9265.115717752411
 31
0.0
  0
LINE
  5
1750F
330
17
100
AcDbEntity
  8
PC
100
AcDbLine
 10
-30342.51160208319
 20
9290.115717752411
 30
0.0
 11
-30342.51160208319
 21
9270.115717752411
 31
0.0
  0
LINE
  5
17510
330
17
100
AcDbEntity
  8
PC
100
AcDbLine
 10
-30342.51160208319
 20
9290.115717752411
 30
0.0
 11
-30342.51160208319
 21
9270.115717752411
 31
0.0
  0
LINE
  5
17511
330
17
100
AcDbEntity
  8
PC
100
AcDbLine
 10
-30342.51160208319
 20
9290.115717752411
 30
0.0
 11
-30342.51160208319
 21
9270.115717752411
 31
0.0
  0
LINE
  5
17512
330
17
100
AcDbEntity
  8
HASEN
100
AcDbLine
 10
-30192.51160208321
 20
9828.115717752415
 30
0.0
 11
-29542.51160208319
 21
9828.115717752415
 31
0.0
  0
LINE
  5
17513
330
17
100
AcDbEntity
  8
PC
100
AcDbLine
 10
-30342.51160208319
 20
9690.115717752411
 30
0.0
 11
-30342.51160208319
 21
9670.115717752411
 31
0.0
  0
LINE
  5
17514
330
17
100
AcDbEntity
  8
PC
100
AcDbLine
 10
-30342.51160208319
 20
9690.115717752411
 30
0.0
 11
-30342.51160208319
 21
9670.115717752411
 31
0.0
  0
LINE
  5
17515
330
17
100
AcDbEntity
  8
PC
100
AcDbLine
 10
-30342.51160208319
 20
9690.115717752411
 30
0.0
 11
-30342.51160208319
 21
9670.115717752411
 31
0.0
  0
LINE
  5
17516
330
17
100
AcDbEntity
  8
PC
100
AcDbLine
 10
-30342.51160208319
 20
9670.115717752411
 30
0.0
 11
-30392.51160208319
 21
9665.115717752411
 31
0.0
  0
LINE
  5
17517
330
17
100
AcDbEntity
  8
PC
100
AcDbLine
 10
-30342.51160208319
 20
9670.115717752411
 30
0.0
 11
-30392.51160208319
 21
9665.115717752411
 31
0.0
  0
LINE
  5
17518
330
17
100
AcDbEntity
  8
PC
100
AcDbLine
 10
-30342.51160208319
 20
9670.115717752411
 30
0.0
 11
-30392.51160208319
 21
9665.115717752411
 31
0.0
  0
LINE
  5
17519
330
17
100
AcDbEntity
  8
PC
100
AcDbLine
 10
-30342.51160208319
 20
9690.115717752411
 30
0.0
 11
-30392.51160208319
 21
9695.115717752411
 31
0.0
  0
LINE
  5
1751A
330
17
100
AcDbEntity
  8
PC
100
AcDbLine
 10
-30342.51160208319
 20
9690.115717752411
 30
0.0
 11
-30392.51160208319
 21
9695.115717752411
 31
0.0
  0
LINE
  5
1751B
330
17
100
AcDbEntity
  8
PC
100
AcDbLine
 10
-30342.51160208319
 20
9690.115717752411
 30
0.0
 11
-30392.51160208319
 21
9695.115717752411
 31
0.0
  0
LINE
  5
1751C
330
17
100
AcDbEntity
  8
HASEN
100
AcDbLine
 10
-30207.51160208318
 20
9840.115717752411
 30
0.0
 11
-30192.51160208321
 21
9828.115717752415
 31
0.0
  0
LINE
  5
1751D
330
17
100
AcDbEntity
  8
HASEN
100
AcDbLine
 10
-27377.51160208318
 20
9840.115717752418
 30
0.0
 11
-27392.51160208318
 21
9828.115717752407
 31
0.0
  0
LINE
  5
1751E
330
17
100
AcDbEntity
  8
PC
  6
HIDDEN
 48
0.4
100
AcDbLine
 10
-27307.51160208319
 20
8532.615717752407
 30
0.0
 11
-27192.51160208319
 21
8540.115717752407
 31
0.0
  0
LINE
  5
1751F
330
17
100
AcDbEntity
  8
PC
  6
HIDDEN
 48
0.4
100
AcDbLine
 10
-27307.51160208319
 20
8532.615717752407
 30
0.0
 11
-27192.51160208319
 21
8540.115717752407
 31
0.0
  0
LINE
  5
17520
330
17
100
AcDbEntity
  8
PC
  6
HIDDEN
 48
0.4
100
AcDbLine
 10
-27307.51160208319
 20
8532.615717752407
 30
0.0
 11
-27192.51160208319
 21
8540.115717752407
 31
0.0
  0
LINE
  5
17521
330
17
100
AcDbEntity
  8
PC
  6
HIDDEN
 48
0.4
100
AcDbLine
 10
-27307.5116020832
 20
8427.615717752411
 30
0.0
 11
-27192.51160208319
 21
8420.115717752407
 31
0.0
  0
LINE
  5
17522
330
17
100
AcDbEntity
  8
PC
  6
HIDDEN
 48
0.4
100
AcDbLine
 10
-27307.51160208319
 20
8532.615717752407
 30
0.0
 11
-27307.5116020832
 21
8427.615717752411
 31
0.0
  0
LINE
  5
17523
330
17
100
AcDbEntity
  8
PC
  6
HIDDEN
 48
0.4
100
AcDbLine
 10
-27307.51160208319
 20
8515.115717752407
 30
0.0
 11
-27307.51160208319
 21
8445.115717752407
 31
0.0
  0
LINE
  5
17524
330
17
100
AcDbEntity
  8
PC
  6
HIDDEN
 48
0.4
100
AcDbLine
 10
-27307.51160208319
 20
8515.115717752407
 30
0.0
 11
-27307.51160208319
 21
8445.115717752407
 31
0.0
  0
LINE
  5
17525
330
17
100
AcDbEntity
  8
PC
  6
HIDDEN
 48
0.4
100
AcDbLine
 10
-27307.51160208319
 20
8932.615717752407
 30
0.0
 11
-27192.51160208319
 21
8940.115717752407
 31
0.0
  0
LINE
  5
17526
330
17
100
AcDbEntity
  8
PC
  6
HIDDEN
 48
0.4
100
AcDbLine
 10
-27307.51160208319
 20
8932.615717752407
 30
0.0
 11
-27192.51160208319
 21
8940.115717752407
 31
0.0
  0
LINE
  5
17527
330
17
100
AcDbEntity
  8
PC
  6
HIDDEN
 48
0.4
100
AcDbLine
 10
-27307.51160208319
 20
8932.615717752407
 30
0.0
 11
-27192.51160208319
 21
8940.115717752407
 31
0.0
  0
LINE
  5
17528
330
17
100
AcDbEntity
  8
PC
  6
HIDDEN
 48
0.4
100
AcDbLine
 10
-27307.5116020832
 20
8827.615717752411
 30
0.0
 11
-27192.51160208319
 21
8820.115717752407
 31
0.0
  0
LINE
  5
17529
330
17
100
AcDbEntity
  8
PC
  6
HIDDEN
 48
0.4
100
AcDbLine
 10
-27307.51160208319
 20
8932.615717752407
 30
0.0
 11
-27307.5116020832
 21
8827.615717752411
 31
0.0
  0
LINE
  5
1752A
330
17
100
AcDbEntity
  8
PC
  6
HIDDEN
 48
0.4
100
AcDbLine
 10
-27307.51160208319
 20
8915.115717752407
 30
0.0
 11
-27307.51160208319
 21
8845.115717752407
 31
0.0
  0
LINE
  5
1752B
330
17
100
AcDbEntity
  8
PC
  6
HIDDEN
 48
0.4
100
AcDbLine
 10
-27307.51160208319
 20
8915.115717752407
 30
0.0
 11
-27307.51160208319
 21
8845.115717752407
 31
0.0
  0
LINE
  5
1752C
330
17
100
AcDbEntity
  8
PC
  6
HIDDEN
 48
0.4
100
AcDbLine
 10
-27307.51160208319
 20
9332.615717752407
 30
0.0
 11
-27307.5116020832
 21
9227.615717752411
 31
0.0
  0
LINE
  5
1752D
330
17
100
AcDbEntity
  8
PC
  6
HIDDEN
 48
0.4
100
AcDbLine
 10
-27307.51160208319
 20
9315.115717752407
 30
0.0
 11
-27307.51160208319
 21
9245.115717752407
 31
0.0
  0
LINE
  5
1752E
330
17
100
AcDbEntity
  8
PC
  6
HIDDEN
 48
0.4
100
AcDbLine
 10
-27307.51160208319
 20
9315.115717752407
 30
0.0
 11
-27307.51160208319
 21
9245.115717752407
 31
0.0
  0
LINE
  5
1752F
330
17
100
AcDbEntity
  8
PC
  6
HIDDEN
 48
0.4
100
AcDbLine
 10
-27307.5116020832
 20
9227.615717752411
 30
0.0
 11
-27192.51160208319
 21
9220.115717752407
 31
0.0
  0
LINE
  5
17530
330
17
100
AcDbEntity
  8
PC
  6
HIDDEN
 48
0.4
100
AcDbLine
 10
-27307.51160208319
 20
9332.615717752407
 30
0.0
 11
-27192.51160208319
 21
9340.115717752407
 31
0.0
  0
LINE
  5
17531
330
17
100
AcDbEntity
  8
PC
  6
HIDDEN
 48
0.4
100
AcDbLine
 10
-27307.51160208319
 20
9332.615717752407
 30
0.0
 11
-27192.51160208319
 21
9340.115717752407
 31
0.0
  0
LINE
  5
17532
330
17
100
AcDbEntity
  8
PC
  6
HIDDEN
 48
0.4
100
AcDbLine
 10
-27307.51160208319
 20
9332.615717752407
 30
0.0
 11
-27192.51160208319
 21
9340.115717752407
 31
0.0
  0
LINE
  5
17533
330
17
100
AcDbEntity
  8
PC
  6
HIDDEN
 48
0.4
100
AcDbLine
 10
-27307.51160208319
 20
9715.115717752407
 30
0.0
 11
-27307.51160208319
 21
9645.115717752407
 31
0.0
  0
LINE
  5
17534
330
17
100
AcDbEntity
  8
PC
  6
HIDDEN
 48
0.4
100
AcDbLine
 10
-27307.51160208319
 20
9715.115717752407
 30
0.0
 11
-27307.51160208319
 21
9645.115717752407
 31
0.0
  0
LINE
  5
17535
330
17
100
AcDbEntity
  8
PC
  6
HIDDEN
 48
0.4
100
AcDbLine
 10
-27307.51160208319
 20
9732.615717752407
 30
0.0
 11
-27307.5116020832
 21
9627.615717752411
 31
0.0
  0
LINE
  5
17536
330
17
100
AcDbEntity
  8
PC
  6
HIDDEN
 48
0.4
100
AcDbLine
 10
-27307.5116020832
 20
9627.615717752411
 30
0.0
 11
-27192.51160208319
 21
9620.115717752407
 31
0.0
  0
LINE
  5
17537
330
17
100
AcDbEntity
  8
PC
  6
HIDDEN
 48
0.4
100
AcDbLine
 10
-27307.51160208319
 20
9732.615717752407
 30
0.0
 11
-27192.51160208319
 21
9740.115717752407
 31
0.0
  0
LINE
  5
17538
330
17
100
AcDbEntity
  8
PC
  6
HIDDEN
 48
0.4
100
AcDbLine
 10
-27307.51160208319
 20
9732.615717752407
 30
0.0
 11
-27192.51160208319
 21
9740.115717752407
 31
0.0
  0
LINE
  5
17539
330
17
100
AcDbEntity
  8
PC
  6
HIDDEN
 48
0.4
100
AcDbLine
 10
-27307.51160208319
 20
9732.615717752407
 30
0.0
 11
-27192.51160208319
 21
9740.115717752407
 31
0.0
  0
LINE
  5
1753A
330
17
100
AcDbEntity
  8
SEIHIN
100
AcDbLine
 10
-27192.51160208319
 20
9920.115717752411
 30
0.0
 11
-30392.51160208319
 21
9920.115717752415
 31
0.0
  0
LINE
  5
1753C
330
17
100
AcDbEntity
  8
SEIHIN
100
AcDbLine
 10
-27192.51160208319
 20
5904.049253714657
 30
0.0
 11
-27192.51160208319
 21
3804.049253714657
 31
0.0
  0
LINE
  5
1753D
330
17
100
AcDbEntity
  8
SEIHIN
100
AcDbLine
 10
-30392.51160208319
 20
3804.049253714657
 30
0.0
 11
-30392.51160208319
 21
5904.049253714657
 31
0.0
  0
LINE
  5
1753E
330
17
100
AcDbEntity
  8
SEIHIN
100
AcDbLine
 10
-30192.51160208317
 20
5504.049253714653
 30
0.0
 11
-30192.51160208318
 21
4204.049253714657
 31
0.0
  0
LINE
  5
1753F
330
17
100
AcDbEntity
  8
SUNPOU
100
AcDbLine
 10
-27307.51160208318
 20
5789.049253714657
 30
0.0
 11
-27307.5116020832
 21
3919.049253714657
 31
0.0
  0
LINE
  5
17540
330
17
100
AcDbEntity
  8
SUNPOU
100
AcDbLine
 10
-27287.51160208318
 20
5809.049253714657
 30
0.0
 11
-27287.5116020832
 21
3899.049253714657
 31
0.0
  0
LINE
  5
17541
330
17
100
AcDbEntity
  8
SUNPOU
100
AcDbLine
 10
-30207.51160208317
 20
5510.262457150246
 30
0.0
 11
-30207.51160208318
 21
4197.836050279071
 31
0.0
  0
LINE
  5
17542
330
17
100
AcDbEntity
  8
SUNPOU
100
AcDbLine
 10
-30234.51160208317
 20
5651.049253714657
 30
0.0
 11
-30234.51160208319
 21
4057.049253714657
 31
0.0
  0
LINE
  5
17543
330
17
100
AcDbEntity
  8
SUNPOU
100
AcDbLine
 10
-30256.51160208317
 20
5653.049253714657
 30
0.0
 11
-30256.51160208317
 21
4055.049253714657
 31
0.0
  0
LINE
  5
17544
330
17
100
AcDbEntity
  8
SUNPOU
100
AcDbLine
 10
-30287.51160208318
 20
5799.049253714657
 30
0.0
 11
-30287.51160208319
 21
3909.049253714657
 31
0.0
  0
LINE
  5
17545
330
17
100
AcDbEntity
  8
SUNPOU
100
AcDbLine
 10
-30307.51160208317
 20
5819.049253714657
 30
0.0
 11
-30307.51160208318
 21
3889.049253714657
 31
0.0
  0
LINE
  5
17546
330
17
100
AcDbEntity
  8
SEIHIN
100
AcDbLine
 10
-27392.51160208318
 20
5504.049253714657
 30
0.0
 11
-27392.51160208319
 21
4204.049253714657
 31
0.0
  0
LINE
  5
17547
330
17
100
AcDbEntity
  8
SUNPOU
100
AcDbLine
 10
-28792.5116020832
 20
3919.049253714657
 30
0.0
 11
-27307.5116020832
 21
3919.049253714657
 31
0.0
  0
LINE
  5
17548
330
17
100
AcDbEntity
  8
SUNPOU
100
AcDbLine
 10
-28792.5116020832
 20
3899.049253714657
 30
0.0
 11
-27287.5116020832
 21
3899.049253714657
 31
0.0
  0
LINE
  5
17549
330
17
100
AcDbEntity
  8
SEIHIN
100
AcDbLine
 10
-27192.51160208319
 20
3804.049253714657
 30
0.0
 11
-30392.51160208319
 21
3804.049253714657
 31
0.0
  0
LINE
  5
1754A
330
17
100
AcDbEntity
  8
SUNPOU
100
AcDbLine
 10
-30287.51160208319
 20
3909.049253714657
 30
0.0
 11
-28792.5116020832
 21
3909.049253714657
 31
0.0
  0
LINE
  5
1754B
330
17
100
AcDbEntity
  8
SUNPOU
100
AcDbLine
 10
-30307.51160208318
 20
3889.049253714657
 30
0.0
 11
-28792.5116020832
 21
3889.049253714657
 31
0.0
  0
LINE
  5
1754C
330
17
100
AcDbEntity
  8
SEIHIN
100
AcDbLine
 10
-27592.51160208319
 20
4004.049253714657
 30
0.0
 11
-29992.51160208318
 21
4004.049253714657
 31
0.0
  0
LINE
  5
1754D
330
17
100
AcDbEntity
  8
SUNPOU
100
AcDbLine
 10
-30141.51160208317
 20
3940.049253714657
 30
0.0
 11
-28792.5116020832
 21
3940.049253714657
 31
0.0
  0
LINE
  5
1754E
330
17
100
AcDbEntity
  8
SUNPOU
100
AcDbLine
 10
-30139.51160208319
 20
3962.049253714657
 30
0.0
 11
-28792.5116020832
 21
3962.049253714657
 31
0.0
  0
LINE
  5
1754F
330
17
100
AcDbEntity
  8
SUNPOU
100
AcDbLine
 10
-29998.72480551878
 20
3989.049253714657
 30
0.0
 11
-28792.5116020832
 21
3989.049253714657
 31
0.0
  0
LINE
  5
17550
330
17
100
AcDbEntity
  8
SEIHIN
100
AcDbLine
 10
-29992.51160208318
 20
4004.049253714657
 30
0.0
 11
-30192.51160208318
 21
4204.049253714657
 31
0.0
  0
LINE
  5
17551
330
17
100
AcDbEntity
  8
SUNPOU
100
AcDbLine
 10
-29998.72480551878
 20
3989.049253714657
 30
0.0
 11
-30207.51160208318
 21
4197.836050279071
 31
0.0
  0
LINE
  5
17552
330
17
100
AcDbEntity
  8
SUNPOU
100
AcDbLine
 10
-30307.51160208318
 20
3889.049253714657
 30
0.0
 11
-30287.51160208319
 21
3909.049253714657
 31
0.0
  0
ARC
  5
17553
330
17
100
AcDbEntity
  8
SUNPOU
100
AcDbCircle
 10
-30139.51160208319
 20
4057.049253714657
 30
0.0
 40
95.0
100
AcDbArc
 50
180.0
 51
270.0
  0
ARC
  5
17554
330
17
100
AcDbEntity
  8
SUNPOU
100
AcDbCircle
 10
-30141.51160208317
 20
4055.049253714657
 30
0.0
 40
115.0
100
AcDbArc
 50
180.0
 51
270.0
  0
LINE
  5
17555
330
17
100
AcDbEntity
  8
SEIHIN
100
AcDbLine
 10
-27392.51160208319
 20
4204.049253714657
 30
0.0
 11
-27592.51160208319
 21
4004.049253714657
 31
0.0
  0
LINE
  5
17556
330
17
100
AcDbEntity
  8
SUNPOU
100
AcDbLine
 10
-27307.5116020832
 20
3919.049253714657
 30
0.0
 11
-27287.5116020832
 21
3899.049253714657
 31
0.0
  0
DIMENSION
  5
17557
330
17
100
AcDbEntity
  8
SUNPOU
100
AcDbDimension
  2
*D56
 10
-27392.51160208318
 20
5276.185798430655
 30
0.0
 11
-27492.50801414494
 21
5368.185798430655
 31
0.0
 70
    32
  1
<>
 71
     5
 42
199.9928241235175
  3
STANDARD
100
AcDbAlignedDimension
 13
-27592.5044262067
 23
5704.049253714657
 33
0.0
 14
-27392.51160208318
 24
5504.310706202337
 34
0.0
100
AcDbRotatedDimension
1001
ACAD
1000
DSTYLE
1002
{
1070
    40
1040
40.0
1070
    41
1040
2.0
1070
    42
1040
2.0
1070
    43
1040
7.0
1070
    44
1040
1.0
1070
    73
1070
     0
1070
    74
1070
     0
1070
    77
1070
     1
1070
    78
1070
     8
1070
   140
1040
3.0
1070
   141
1040
0.0
1070
   145
1040
1.0
1070
   147
1040
0.8
1070
   172
1070
     1
1070
   174
1070
     1
1070
   177
1070
   256
1070
   271
1070
     0
1070
   272
1070
     0
1070
   275
1070
     1
1070
   279
1070
     2
1070
   284
1070
     8
1070
   285
1070
     8
1070
   286
1070
     8
1070
   289
1070
     0
1002
}
  0
LINE
  5
17558
330
17
100
AcDbEntity
  8
SUNPOU
100
AcDbLine
 10
-28792.5116020832
 20
5809.049253714657
 30
0.0
 11
-27287.51160208318
 21
5809.049253714657
 31
0.0
  0
LINE
  5
17559
330
17
100
AcDbEntity
  8
SUNPOU
100
AcDbLine
 10
-28792.5116020832
 20
5789.049253714657
 30
0.0
 11
-27307.51160208318
 21
5789.049253714657
 31
0.0
  0
LINE
  5
1755A
330
17
100
AcDbEntity
  8
SEIHIN
100
AcDbLine
 10
-30392.51160208319
 20
5904.049253714657
 30
0.0
 11
-27192.51160208319
 21
5904.049253714657
 31
0.0
  0
DIMENSION
  5
1755B
330
17
100
AcDbEntity
  8
SUNPOU
100
AcDbDimension
  2
*D57
 10
-27806.09828250237
 20
5704.049253714657
 30
0.0
 11
-27898.09828250237
 21
5604.179979958492
 31
0.0
 70
    32
 71
     5
 42
199.7385475123192
  3
STANDARD
100
AcDbAlignedDimension
 13
-27392.51160208318
 23
5504.310706202337
 33
0.0
 14
-27592.5044262067
 24
5704.049253714657
 34
0.0
 50
90.0
100
AcDbRotatedDimension
1001
ACAD
1000
DSTYLE
1002
{
1070
    40
1040
40.0
1070
    41
1040
2.0
1070
    42
1040
2.0
1070
    43
1040
7.0
1070
    44
1040
1.0
1070
    73
1070
     0
1070
    74
1070
     0
1070
    77
1070
     1
1070
    78
1070
     8
1070
   140
1040
3.0
1070
   141
1040
0.0
1070
   145
1040
1.0
1070
   147
1040
0.8
1070
   172
1070
     1
1070
   174
1070
     1
1070
   177
1070
   256
1070
   271
1070
     0
1070
   272
1070
     0
1070
   275
1070
     1
1070
   279
1070
     2
1070
   284
1070
     8
1070
   285
1070
     8
1070
   286
1070
     8
1070
   289
1070
     0
1002
}
  0
LINE
  5
1755C
330
17
100
AcDbEntity
  8
SEIHIN
100
AcDbLine
 10
-27392.51160208318
 20
5504.049253714657
 30
0.0
 11
-27592.51160208318
 21
5704.049253714657
 31
0.0
  0
LINE
  5
1755D
330
17
100
AcDbEntity
  8
SEIHIN
100
AcDbLine
 10
-29992.51160208317
 20
5704.049253714657
 30
0.0
 11
-30192.51160208317
 21
5504.049253714653
 31
0.0
  0
LINE
  5
1755E
330
17
100
AcDbEntity
  8
SUNPOU
100
AcDbLine
 10
-29998.72480551877
 20
5719.049253714657
 30
0.0
 11
-30207.51160208317
 21
5510.262457150246
 31
0.0
  0
LINE
  5
1755F
330
17
100
AcDbEntity
  8
SEIHIN
100
AcDbLine
 10
-29992.51160208317
 20
5704.049253714657
 30
0.0
 11
-27592.51160208318
 21
5704.049253714657
 31
0.0
  0
LINE
  5
17560
330
17
100
AcDbEntity
  8
SUNPOU
100
AcDbLine
 10
-29998.72480551877
 20
5719.049253714657
 30
0.0
 11
-28792.5116020832
 21
5719.049253714657
 31
0.0
  0
LINE
  5
17561
330
17
100
AcDbEntity
  8
SUNPOU
100
AcDbLine
 10
-30139.51160208317
 20
5746.049253714657
 30
0.0
 11
-28792.5116020832
 21
5746.049253714657
 31
0.0
  0
LINE
  5
17562
330
17
100
AcDbEntity
  8
SUNPOU
100
AcDbLine
 10
-30141.51160208317
 20
5768.049253714657
 30
0.0
 11
-28792.5116020832
 21
5768.049253714657
 31
0.0
  0
LINE
  5
17563
330
17
100
AcDbEntity
  8
SUNPOU
100
AcDbLine
 10
-30287.51160208318
 20
5799.049253714657
 30
0.0
 11
-28792.5116020832
 21
5799.049253714657
 31
0.0
  0
LINE
  5
17564
330
17
100
AcDbEntity
  8
SUNPOU
100
AcDbLine
 10
-30307.51160208317
 20
5819.049253714657
 30
0.0
 11
-28792.5116020832
 21
5819.049253714657
 31
0.0
  0
ARC
  5
17565
330
17
100
AcDbEntity
  8
SUNPOU
100
AcDbCircle
 10
-30139.51160208317
 20
5651.049253714657
 30
0.0
 40
95.0
100
AcDbArc
 50
90.0
 51
180.0
  0
ARC
  5
17566
330
17
100
AcDbEntity
  8
SUNPOU
100
AcDbCircle
 10
-30141.51160208317
 20
5653.049253714657
 30
0.0
 40
115.0
100
AcDbArc
 50
90.0
 51
180.0
  0
LINE
  5
17567
330
17
100
AcDbEntity
  8
SUNPOU
100
AcDbLine
 10
-30307.51160208317
 20
5819.049253714657
 30
0.0
 11
-30287.51160208318
 21
5799.049253714657
 31
0.0
  0
LINE
  5
17568
330
17
100
AcDbEntity
  8
SUNPOU
100
AcDbLine
 10
-27307.51160208318
 20
5789.049253714657
 30
0.0
 11
-27287.51160208318
 21
5809.049253714657
 31
0.0
  0
CIRCLE
  5
175E1
330
17
100
AcDbEntity
  8
PC
100
AcDbCircle
 10
-23818.92327040974
 20
5794.049253714657
 30
0.0
 40
60.0
  0
LINE
  5
175E2
330
17
100
AcDbEntity
  8
PC
100
AcDbLine
 10
-23878.92327040974
 20
5794.049253714657
 30
0.0
 11
-23758.92327040974
 21
5794.049253714657
 31
0.0
  0
CIRCLE
  5
175E3
330
17
100
AcDbEntity
  8
PC
100
AcDbCircle
 10
-23818.92327040973
 20
3914.04925371466
 30
0.0
 40
60.0
  0
LINE
  5
175E4
330
17
100
AcDbEntity
  8
PC
100
AcDbLine
 10
-23878.92327040973
 20
3914.04925371466
 30
0.0
 11
-23758.92327040973
 21
3914.04925371466
 31
0.0
  0
LINE
  5
175E5
330
17
100
AcDbEntity
  8
SEIHIN
100
AcDbLine
 10
-24378.92327040974
 20
3804.04925371466
 30
0.0
 11
-22378.92327040974
 21
3804.04925371466
 31
0.0
  0
LINE
  5
175E6
330
17
100
AcDbEntity
  8
HASEN
100
AcDbLine
 10
-24458.92327040974
 20
4004.049253714657
 30
0.0
 11
-22470.92327040974
 21
4004.049253714657
 31
0.0
  0
LINE
  5
175E7
330
17
100
AcDbEntity
  8
HASEN
100
AcDbLine
 10
-24458.92327040974
 20
4204.049253714657
 30
0.0
 11
-22470.92327040974
 21
4204.049253714657
 31
0.0
  0
LINE
  5
175E8
330
17
100
AcDbEntity
  8
SEIHIN
100
AcDbLine
 10
-24378.92327040974
 20
5904.049253714657
 30
0.0
 11
-22378.92327040974
 21
5904.049253714657
 31
0.0
  0
LINE
  5
175E9
330
17
100
AcDbEntity
  8
HASEN
100
AcDbLine
 10
-24458.92327040974
 20
5704.049253714657
 30
0.0
 11
-22470.92327040974
 21
5704.049253714657
 31
0.0
  0
LINE
  5
175EA
330
17
100
AcDbEntity
  8
HASEN
100
AcDbLine
 10
-24458.92327040974
 20
5504.049253714649
 30
0.0
 11
-22470.92327040974
 21
5504.049253714649
 31
0.0
  0
LINE
  5
175EB
330
17
100
AcDbEntity
  8
SEIHIN
100
AcDbLine
 10
-24458.92327040974
 20
3919.04925371466
 30
0.0
 11
-24458.92327040973
 21
5789.049253714657
 31
0.0
  0
LINE
  5
175EC
330
17
100
AcDbEntity
  8
SEIHIN
100
AcDbLine
 10
-24378.92327040974
 20
3804.04925371466
 30
0.0
 11
-24378.92327040974
 21
5904.049253714657
 31
0.0
  0
LINE
  5
175ED
330
17
100
AcDbEntity
  8
SEIHIN
100
AcDbLine
 10
-24378.92327040974
 20
4869.049253714657
 30
0.0
 11
-24378.92327040974
 21
4224.049253714657
 31
0.0
  0
CIRCLE
  5
175EE
330
17
100
AcDbEntity
  8
PC
100
AcDbCircle
 10
-24218.92327040973
 20
3914.04925371466
 30
0.0
 40
60.0
  0
LINE
  5
175EF
330
17
100
AcDbEntity
  8
PC
100
AcDbLine
 10
-24278.92327040973
 20
3914.04925371466
 30
0.0
 11
-24158.92327040973
 21
3914.04925371466
 31
0.0
  0
LINE
  5
175F0
330
17
100
AcDbEntity
  8
SEIHIN
100
AcDbLine
 10
-24378.92327040974
 20
3899.04925371466
 30
0.0
 11
-24458.92327040974
 21
3919.04925371466
 31
0.0
  0
LINE
  5
175F1
330
17
100
AcDbEntity
  8
PC
100
AcDbLine
 10
-24218.92327040974
 20
3974.04925371466
 30
0.0
 11
-24218.92327040974
 21
3854.04925371466
 31
0.0
  0
CIRCLE
  5
175F2
330
17
100
AcDbEntity
  8
PC
100
AcDbCircle
 10
-24218.92327040974
 20
5794.049253714657
 30
0.0
 40
60.0
  0
LINE
  5
175F3
330
17
100
AcDbEntity
  8
PC
100
AcDbLine
 10
-24218.92327040974
 20
5854.049253714657
 30
0.0
 11
-24218.92327040974
 21
5734.049253714657
 31
0.0
  0
LINE
  5
175F4
330
17
100
AcDbEntity
  8
SEIHIN
100
AcDbLine
 10
-24378.92327040974
 20
5809.049253714657
 30
0.0
 11
-24458.92327040973
 21
5789.049253714657
 31
0.0
  0
LINE
  5
175F5
330
17
100
AcDbEntity
  8
PC
100
AcDbLine
 10
-24278.92327040974
 20
5794.049253714657
 30
0.0
 11
-24158.92327040974
 21
5794.049253714657
 31
0.0
  0
LINE
  5
175F6
330
17
100
AcDbEntity
  8
SEIHIN
100
AcDbLine
 10
-22378.92327040974
 20
3804.04925371466
 30
0.0
 11
-22378.92327040974
 21
5784.049253714657
 31
0.0
  0
LINE
  5
175F7
330
17
100
AcDbEntity
  8
HASEN
100
AcDbLine
 10
-22458.92327040975
 20
5799.049253714657
 30
0.0
 11
-22458.92327040973
 21
3909.049253714657
 31
0.0
  0
LINE
  5
175F8
330
17
100
AcDbEntity
  8
HASEN
100
AcDbLine
 10
-22470.92327040974
 20
5704.049253714657
 30
0.0
 11
-22470.92327040974
 21
4004.049253714657
 31
0.0
  0
CIRCLE
  5
175F9
330
17
100
AcDbEntity
  8
PC
100
AcDbCircle
 10
-23018.92327040973
 20
3914.04925371466
 30
0.0
 40
60.0
  0
LINE
  5
175FA
330
17
100
AcDbEntity
  8
PC
100
AcDbLine
 10
-23078.92327040973
 20
3914.04925371466
 30
0.0
 11
-22958.92327040973
 21
3914.04925371466
 31
0.0
  0
CIRCLE
  5
175FB
330
17
100
AcDbEntity
  8
PC
100
AcDbCircle
 10
-23418.92327040973
 20
3914.04925371466
 30
0.0
 40
60.0
  0
LINE
  5
175FC
330
17
100
AcDbEntity
  8
PC
100
AcDbLine
 10
-23478.92327040973
 20
3914.04925371466
 30
0.0
 11
-23358.92327040973
 21
3914.04925371466
 31
0.0
  0
LINE
  5
175FD
330
17
100
AcDbEntity
  8
PC
100
AcDbLine
 10
-23418.92327040974
 20
3974.04925371466
 30
0.0
 11
-23418.92327040974
 21
3854.04925371466
 31
0.0
  0
LINE
  5
175FE
330
17
100
AcDbEntity
  8
PC
100
AcDbLine
 10
-23818.92327040974
 20
3974.04925371466
 30
0.0
 11
-23818.92327040974
 21
3854.04925371466
 31
0.0
  0
LINE
  5
175FF
330
17
100
AcDbEntity
  8
PC
100
AcDbLine
 10
-23018.92327040974
 20
3974.04925371466
 30
0.0
 11
-23018.92327040974
 21
3854.04925371466
 31
0.0
  0
LINE
  5
17600
330
17
100
AcDbEntity
  8
SEIHIN
100
AcDbLine
 10
-22378.92327040974
 20
3804.04925371466
 30
0.0
 11
-22378.92327040974
 21
3889.049253714657
 31
0.0
  0
CIRCLE
  5
17601
330
17
100
AcDbEntity
  8
PC
100
AcDbCircle
 10
-22618.92327040973
 20
3914.04925371466
 30
0.0
 40
60.0
  0
LINE
  5
17602
330
17
100
AcDbEntity
  8
PC
100
AcDbLine
 10
-22618.92327040974
 20
3974.04925371466
 30
0.0
 11
-22618.92327040974
 21
3854.04925371466
 31
0.0
  0
LINE
  5
17603
330
17
100
AcDbEntity
  8
PC
100
AcDbLine
 10
-22678.92327040973
 20
3914.04925371466
 30
0.0
 11
-22558.92327040973
 21
3914.04925371466
 31
0.0
  0
LINE
  5
17604
330
17
100
AcDbEntity
  8
HASEN
100
AcDbLine
 10
-22378.92327040974
 20
3889.04925371466
 30
0.0
 11
-22458.92327040973
 21
3909.049253714657
 31
0.0
  0
LINE
  5
17605
330
17
100
AcDbEntity
  8
HASEN
100
AcDbLine
 10
-22458.92327040973
 20
3989.049253714657
 30
0.0
 11
-22470.92327040974
 21
4004.049253714657
 31
0.0
  0
CIRCLE
  5
17606
330
17
100
AcDbEntity
  8
PC
100
AcDbCircle
 10
-23018.92327040974
 20
5794.049253714657
 30
0.0
 40
60.0
  0
LINE
  5
17607
330
17
100
AcDbEntity
  8
PC
100
AcDbLine
 10
-23078.92327040974
 20
5794.049253714657
 30
0.0
 11
-22958.92327040974
 21
5794.049253714657
 31
0.0
  0
LINE
  5
17608
330
17
100
AcDbEntity
  8
PC
100
AcDbLine
 10
-23018.92327040974
 20
5854.049253714657
 30
0.0
 11
-23018.92327040974
 21
5734.049253714657
 31
0.0
  0
LINE
  5
17609
330
17
100
AcDbEntity
  8
PC
100
AcDbLine
 10
-23418.92327040974
 20
5854.049253714657
 30
0.0
 11
-23418.92327040974
 21
5734.049253714657
 31
0.0
  0
CIRCLE
  5
1760A
330
17
100
AcDbEntity
  8
PC
100
AcDbCircle
 10
-23418.92327040974
 20
5794.049253714657
 30
0.0
 40
60.0
  0
LINE
  5
1760B
330
17
100
AcDbEntity
  8
PC
100
AcDbLine
 10
-23818.92327040974
 20
5854.049253714657
 30
0.0
 11
-23818.92327040974
 21
5734.049253714657
 31
0.0
  0
LINE
  5
1760C
330
17
100
AcDbEntity
  8
PC
100
AcDbLine
 10
-23478.92327040974
 20
5794.049253714657
 30
0.0
 11
-23358.92327040974
 21
5794.049253714657
 31
0.0
  0
CIRCLE
  5
1760D
330
17
100
AcDbEntity
  8
PC
100
AcDbCircle
 10
-22618.92327040974
 20
5794.049253714657
 30
0.0
 40
60.0
  0
LINE
  5
1760E
330
17
100
AcDbEntity
  8
PC
100
AcDbLine
 10
-22618.92327040974
 20
5854.049253714657
 30
0.0
 11
-22618.92327040974
 21
5734.049253714657
 31
0.0
  0
LINE
  5
1760F
330
17
100
AcDbEntity
  8
SEIHIN
100
AcDbLine
 10
-22378.92327040974
 20
5904.049253714657
 30
0.0
 11
-22378.92327040974
 21
5784.049253714657
 31
0.0
  0
LINE
  5
17610
330
17
100
AcDbEntity
  8
PC
100
AcDbLine
 10
-22678.92327040974
 20
5794.049253714657
 30
0.0
 11
-22558.92327040974
 21
5794.049253714657
 31
0.0
  0
LINE
  5
17611
330
17
100
AcDbEntity
  8
HASEN
100
AcDbLine
 10
-22458.92327040974
 20
5719.049253714657
 30
0.0
 11
-22470.92327040974
 21
5704.049253714657
 31
0.0
  0
LINE
  5
17612
330
17
100
AcDbEntity
  8
HASEN
100
AcDbLine
 10
-22378.92327040974
 20
5819.049253714657
 30
0.0
 11
-22458.92327040975
 21
5799.049253714657
 31
0.0
  0
LINE
  5
1780E
330
17
100
AcDbEntity
  8
SUNPOU
100
AcDbLine
 10
-20463.40825809901
 20
7055.803714635876
 30
0.0
 11
-20113.40825809901
 21
7055.803714635876
 31
0.0
  0
TEXT
  5
1780F
330
17
100
AcDbEntity
  8
SUNPOU
100
AcDbText
 10
-20433.07492476568
 20
7090.803714635876
 30
0.0
 40
140.0
  1
差口
 72
     1
 11
-20288.40825809901
 21
7090.803714635876
 31
0.0
100
AcDbText
  0
TEXT
  5
17810
330
17
100
AcDbEntity
  8
SUNPOU
100
AcDbText
 10
-18441.41671768694
 20
7090.803714635877
 30
0.0
 40
140.0
  1
受口
 72
     1
 11
-18296.75005102027
 21
7090.803714635877
 31
0.0
100
AcDbText
  0
LINE
  5
17811
330
17
100
AcDbEntity
  8
SUNPOU
100
AcDbLine
 10
-18471.75005102027
 20
7055.803714635877
 30
0.0
 11
-18121.75005102027
 21
7055.803714635877
 31
0.0
  0
TEXT
  5
17812
330
17
100
AcDbEntity
  8
SUNPOU
100
AcDbText
 10
-18110.78959238978
 20
6861.984668701679
 30
0.0
 40
140.0
  1
外側
 72
     1
 11
-17961.45625905645
 21
6861.984668701679
 31
0.0
100
AcDbText
  0
LINE
  5
17813
330
17
100
AcDbEntity
  8
SUNPOU
100
AcDbLine
 10
-18120.12292572311
 20
6826.984668701679
 30
0.0
 11
-17793.45625905645
 21
6826.984668701679
 31
0.0
  0
LINE
  5
17814
330
17
100
AcDbEntity
  8
SUNPOU
100
AcDbLine
 10
-18134.12292572311
 20
5551.810743005454
 30
0.0
 11
-17807.45625905645
 21
5551.810743005454
 31
0.0
  0
TEXT
  5
17815
330
17
100
AcDbEntity
  8
SUNPOU
100
AcDbText
 10
-18124.78959238978
 20
5586.810743005454
 30
0.0
 40
140.0
  1
内側
 72
     1
 11
-17970.78959238978
 21
5586.810743005454
 31
0.0
100
AcDbText
  0
LINE
  5
17823
330
17
100
AcDbEntity
  8
SUNPOU
100
AcDbLine
 10
-20463.40825809901
 20
4393.543936720569
 30
0.0
 11
-20113.40825809901
 21
4393.543936720569
 31
0.0
  0
TEXT
  5
17824
330
17
100
AcDbEntity
  8
SUNPOU
100
AcDbText
 10
-20433.07492476568
 20
4428.543936720569
 30
0.0
 40
140.0
  1
差口
 72
     1
 11
-20288.40825809901
 21
4428.543936720569
 31
0.0
100
AcDbText
  0
TEXT
  5
17825
330
17
100
AcDbEntity
  8
SUNPOU
100
AcDbText
 10
-18441.41671768694
 20
4428.54393672057
 30
0.0
 40
140.0
  1
受口
 72
     1
 11
-18296.75005102027
 21
4428.54393672057
 31
0.0
100
AcDbText
  0
LINE
  5
17826
330
17
100
AcDbEntity
  8
SUNPOU
100
AcDbLine
 10
-18471.75005102027
 20
4393.54393672057
 30
0.0
 11
-18121.75005102027
 21
4393.54393672057
 31
0.0
  0
TEXT
  5
17827
330
17
100
AcDbEntity
  8
SUNPOU
100
AcDbText
 10
-18110.78959238978
 20
4199.724890786372
 30
0.0
 40
140.0
  1
外側
 72
     1
 11
-17961.45625905645
 21
4199.724890786372
 31
0.0
100
AcDbText
  0
LINE
  5
17828
330
17
100
AcDbEntity
  8
SUNPOU
100
AcDbLine
 10
-18120.12292572311
 20
4164.724890786372
 30
0.0
 11
-17793.45625905645
 21
4164.724890786372
 31
0.0
  0
LINE
  5
17829
330
17
100
AcDbEntity
  8
SUNPOU
100
AcDbLine
 10
-18134.12292572311
 20
2889.550965090148
 30
0.0
 11
-17807.45625905645
 21
2889.550965090148
 31
0.0
  0
TEXT
  5
1782A
330
17
100
AcDbEntity
  8
SUNPOU
100
AcDbText
 10
-18124.78959238978
 20
2924.550965090148
 30
0.0
 40
140.0
  1
内側
 72
     1
 11
-17970.78959238978
 21
2924.550965090148
 31
0.0
100
AcDbText
  0
CIRCLE
  5
178CC
330
17
100
AcDbEntity
  8
吊り金具
100
AcDbCircle
 10
-29942.51160208319
 20
8540.115717752415
 30
0.0
 40
64.0
  0
TEXT
  5
178CD
330
17
100
AcDbEntity
  8
吊り金具
100
AcDbText
 10
-29493.36815491307
 20
9504.437416529177
 30
0.0
 40
100.0
  1
デーハーアンカー
 41
0.8
100
AcDbText
  0
CIRCLE
  5
178CE
330
17
100
AcDbEntity
  8
吊り金具
100
AcDbCircle
 10
-29942.51160208319
 20
8540.115717752415
 30
0.0
 40
14.0
  0
CIRCLE
  5
178DE
330
17
100
AcDbEntity
  8
吊り金具
100
AcDbCircle
 10
-29942.51160208319
 20
9120.115717752416
 30
0.0
 40
64.0
  0
CIRCLE
  5
178DF
330
17
100
AcDbEntity
  8
吊り金具
100
AcDbCircle
 10
-29942.51160208319
 20
9120.115717752416
 30
0.0
 40
14.0
  0
CIRCLE
  5
17964
330
17
100
AcDbEntity
  8
吊り金具
100
AcDbCircle
 10
-27642.51160208319
 20
8540.115717752415
 30
0.0
 40
64.00000000000003
  0
CIRCLE
  5
17965
330
17
100
AcDbEntity
  8
吊り金具
100
AcDbCircle
 10
-27642.51160208319
 20
8540.115717752415
 30
0.0
 40
14.00000000000001
  0
CIRCLE
  5
17966
330
17
100
AcDbEntity
  8
吊り金具
100
AcDbCircle
 10
-27642.51160208319
 20
9120.115717752416
 30
0.0
 40
64.00000000000003
  0
CIRCLE
  5
17967
330
17
100
AcDbEntity
  8
吊り金具
100
AcDbCircle
 10
-27642.51160208319
 20
9120.115717752416
 30
0.0
 40
14.00000000000001
  0
DIMENSION
  5
1796E
330
17
100
AcDbEntity
  8
吊り金具
100
AcDbDimension
  2
*D58
 10
-30917.69809893631
 20
8540.115717752415
 30
0.0
 11
-31009.69809893632
 21
8230.11571775241
 31
0.0
 70
    32
 71
     5
 42
619.9999999999991
  3
STANDARD
100
AcDbAlignedDimension
 13
-30392.51160208319
 23
7920.115717752415
 33
0.0
 14
-30392.51160208319
 24
8540.115717752415
 34
0.0
 50
90.0
100
AcDbRotatedDimension
1001
ACAD
1000
DSTYLE
1002
{
1070
    40
1040
40.0
1070
    41
1040
2.0
1070
    42
1040
2.0
1070
    43
1040
7.0
1070
    44
1040
1.0
1070
    73
1070
     0
1070
    74
1070
     0
1070
    77
1070
     1
1070
    78
1070
     8
1070
   140
1040
3.0
1070
   141
1040
0.0
1070
   145
1040
1.0
1070
   147
1040
0.8
1070
   172
1070
     1
1070
   174
1070
     1
1070
   177
1070
   256
1070
   271
1070
     0
1070
   272
1070
     0
1070
   275
1070
     1
1070
   284
1070
     8
1070
   285
1070
     8
1070
   286
1070
     8
1070
   289
1070
     0
1002
}
  0
DIMENSION
  5
1797B
330
17
100
AcDbEntity
  8
吊り金具
100
AcDbDimension
  2
*D59
 10
-30917.69809893631
 20
9120.115717752415
 30
0.0
 11
-31009.69809893632
 21
9520.11571775241
 31
0.0
 70
    32
 71
     5
 42
800.0
  3
STANDARD
100
AcDbAlignedDimension
 13
-30392.51160208319
 23
9920.115717752415
 33
0.0
 14
-30392.51160208319
 24
9120.115717752415
 34
0.0
 50
90.0
100
AcDbRotatedDimension
1001
ACAD
1000
DSTYLE
1002
{
1070
    40
1040
40.0
1070
    41
1040
2.0
1070
    42
1040
2.0
1070
    43
1040
7.0
1070
    44
1040
1.0
1070
    73
1070
     0
1070
    74
1070
     0
1070
    77
1070
     1
1070
    78
1070
     8
1070
   140
1040
3.0
1070
   141
1040
0.0
1070
   145
1040
1.0
1070
   147
1040
0.8
1070
   172
1070
     1
1070
   174
1070
     1
1070
   177
1070
   256
1070
   271
1070
     0
1070
   272
1070
     0
1070
   275
1070
     1
1070
   284
1070
     8
1070
   285
1070
     8
1070
   286
1070
     8
1070
   289
1070
     0
1002
}
  0
DIMENSION
  5
17988
330
17
100
AcDbEntity
  8
吊り金具
100
AcDbDimension
  2
*D60
 10
-30917.69809893631
 20
8540.115717752415
 30
0.0
 11
-31009.69809893632
 21
8830.11571775241
 31
0.0
 70
    32
 71
     5
 42
580.0
  3
STANDARD
100
AcDbAlignedDimension
 13
-30392.51160208319
 23
9120.115717752415
 33
0.0
 14
-30392.51160208319
 24
8540.115717752415
 34
0.0
 50
90.0
100
AcDbRotatedDimension
1001
ACAD
1000
DSTYLE
1002
{
1070
    40
1040
40.0
1070
    41
1040
2.0
1070
    42
1040
2.0
1070
    43
1040
7.0
1070
    44
1040
1.0
1070
    73
1070
     0
1070
    74
1070
     0
1070
    77
1070
     1
1070
    78
1070
     8
1070
   140
1040
3.0
1070
   141
1040
0.0
1070
   145
1040
1.0
1070
   147
1040
0.8
1070
   172
1070
     1
1070
   174
1070
     1
1070
   177
1070
   256
1070
   271
1070
     0
1070
   272
1070
     0
1070
   275
1070
     1
1070
   284
1070
     8
1070
   285
1070
     8
1070
   286
1070
     8
1070
   289
1070
     0
1002
}
  0
TEXT
  5
17995
330
17
100
AcDbEntity
  8
吊り金具
100
AcDbText
 10
-29493.36815491307
 20
9354.9125462068
 30
0.0
 40
100.0
  1
10t-120
 41
0.8
100
AcDbText
  0
LINE
  5
17996
330
17
100
AcDbEntity
  8
吊り金具
100
AcDbLine
 10
-29549.67916877237
 20
9489.47432137586
 30
0.0
 11
-28690.26911277929
 21
9489.47432137586
 31
0.0
  0
LEADER
  5
17999
330
17
100
AcDbEntity
  8
吊り金具
100
AcDbLeader
  3
STANDARD
 76
     2
 10
-29942.51160208319
 20
9120.115717752416
 30
0.0
 10
-29549.67916877237
 20
9489.47432137586
 30
0.0
1001
ACAD
1000
DSTYLE
1002
{
1070
    40
1040
40.0
1070
    41
1040
2.0
1070
    42
1040
2.0
1070
    43
1040
7.0
1070
    44
1040
1.0
1070
    73
1070
     0
1070
    74
1070
     0
1070
    77
1070
     0
1070
    78
1070
     8
1070
   140
1040
3.0
1070
   141
1040
0.0
1070
   145
1040
1.0
1070
   147
1040
0.8
1070
   172
1070
     1
1070
   174
1070
     1
1070
   177
1070
   256
1070
   271
1070
     0
1070
   272
1070
     0
1070
   275
1070
     1
1070
   284
1070
     8
1070
   285
1070
     8
1070
   286
1070
     8
1070
   289
1070
     0
1002
}
  0
LEADER
  5
1799A
330
17
100
AcDbEntity
  8
吊り金具
100
AcDbLeader
  3
STANDARD
 76
     2
 10
-29942.51160208319
 20
8540.115717752415
 30
0.0
 10
-29549.67916877237
 20
9489.47432137586
 30
0.0
1001
ACAD
1000
DSTYLE
1002
{
1070
    40
1040
40.0
1070
    41
1040
2.0
1070
    42
1040
2.0
1070
    43
1040
7.0
1070
    44
1040
1.0
1070
    73
1070
     0
1070
    74
1070
     0
1070
    77
1070
     0
1070
    78
1070
     8
1070
   140
1040
3.0
1070
   141
1040
0.0
1070
   145
1040
1.0
1070
   147
1040
0.8
1070
   172
1070
     1
1070
   174
1070
     1
1070
   177
1070
   256
1070
   271
1070
     0
1070
   272
1070
     0
1070
   275
1070
     1
1070
   284
1070
     8
1070
   285
1070
     8
1070
   286
1070
     8
1070
   289
1070
     0
1002
}
  0
DIMENSION
  5
1799C
330
17
100
AcDbEntity
  8
吊り金具
100
AcDbDimension
  2
*D61
 10
-29942.51160208319
 20
7503.94546279166
 30
0.0
 11
-30167.51160208319
 21
7595.94546279166
 31
0.0
 70
    32
 71
     5
 42
450.0000000000036
  3
STANDARD
100
AcDbAlignedDimension
 13
-30392.51160208319
 23
7920.115717752415
 33
0.0
 14
-29942.51160208319
 24
7840.115717752411
 34
0.0
100
AcDbRotatedDimension
1001
ACAD
1000
DSTYLE
1002
{
1070
    40
1040
40.0
1070
    41
1040
2.0
1070
    42
1040
2.0
1070
    43
1040
7.0
1070
    44
1040
1.0
1070
    73
1070
     0
1070
    74
1070
     0
1070
    77
1070
     1
1070
    78
1070
     8
1070
   140
1040
3.0
1070
   141
1040
0.0
1070
   145
1040
1.0
1070
   147
1040
0.8
1070
   172
1070
     1
1070
   174
1070
     1
1070
   177
1070
   256
1070
   271
1070
     0
1070
   272
1070
     0
1070
   275
1070
     1
1070
   284
1070
     8
1070
   285
1070
     8
1070
   286
1070
     8
1070
   289
1070
     0
1002
}
  0
DIMENSION
  5
179A9
330
17
100
AcDbEntity
  8
吊り金具
100
AcDbDimension
  2
*D62
 10
-27642.5116020832
 20
7503.94546279166
 30
0.0
 11
-27417.51160208319
 21
7595.94546279166
 31
0.0
 70
    32
 71
     5
 42
450.0000000000036
  3
STANDARD
100
AcDbAlignedDimension
 13
-27192.51160208319
 23
7920.115717752415
 33
0.0
 14
-27642.5116020832
 24
7840.115717752411
 34
0.0
 50
180.0
100
AcDbRotatedDimension
1001
ACAD
1000
DSTYLE
1002
{
1070
    40
1040
40.0
1070
    41
1040
2.0
1070
    42
1040
2.0
1070
    43
1040
7.0
1070
    44
1040
1.0
1070
    73
1070
     0
1070
    74
1070
     0
1070
    77
1070
     1
1070
    78
1070
     8
1070
   140
1040
3.0
1070
   141
1040
0.0
1070
   145
1040
1.0
1070
   147
1040
0.8
1070
   172
1070
     1
1070
   174
1070
     1
1070
   177
1070
   256
1070
   271
1070
     0
1070
   272
1070
     0
1070
   275
1070
     1
1070
   284
1070
     8
1070
   285
1070
     8
1070
   286
1070
     8
1070
   289
1070
     0
1002
}
  0
DIMENSION
  5
179BF
330
17
100
AcDbEntity
  8
吊り金具
100
AcDbDimension
  2
*D63
 10
-27642.5116020832
 20
7503.94546279166
 30
0.0
 11
-28792.51160208319
 21
7595.94546279166
 31
0.0
 70
    32
 71
     5
 42
2299.999999999993
  3
STANDARD
100
AcDbAlignedDimension
 13
-29942.51160208319
 23
7840.115717752411
 33
0.0
 14
-27642.5116020832
 24
7840.115717752411
 34
0.0
100
AcDbRotatedDimension
1001
ACAD
1000
DSTYLE
1002
{
1070
    40
1040
40.0
1070
    41
1040
2.0
1070
    42
1040
2.0
1070
    43
1040
7.0
1070
    44
1040
1.0
1070
    73
1070
     0
1070
    74
1070
     0
1070
    77
1070
     1
1070
    78
1070
     8
1070
   140
1040
3.0
1070
   141
1040
0.0
1070
   145
1040
1.0
1070
   147
1040
0.8
1070
   172
1070
     1
1070
   174
1070
     1
1070
   177
1070
   256
1070
   271
1070
     0
1070
   272
1070
     0
1070
   275
1070
     1
1070
   284
1070
     8
1070
   285
1070
     8
1070
   286
1070
     8
1070
   289
1070
     0
1002
}
  0
ARC
  5
17A40
330
17
100
AcDbEntity
  8
吊り金具
  6
HIDDEN
 48
0.75
100
AcDbCircle
 10
-29942.51160208319
 20
5904.049253714657
 30
0.0
 40
64.0
100
AcDbArc
 50
180.0
 51
0.0
  0
LINE
  5
17A44
330
17
100
AcDbEntity
  8
吊り金具
  6
HIDDEN
100
AcDbLine
 10
-29942.51160208319
 20
5893.549253714657
 30
0.0
 11
-29942.51160208319
 21
5723.549253714657
 31
0.0
  0
ARC
  5
17A7B
330
17
100
AcDbEntity
  8
吊り金具
  6
HIDDEN
 48
0.75
100
AcDbCircle
 10
-27642.51160208319
 20
5904.049253714657
 30
0.0
 40
64.0
100
AcDbArc
 50
180.0
 51
0.0
  0
LINE
  5
17A7C
330
17
100
AcDbEntity
  8
吊り金具
  6
HIDDEN
100
AcDbLine
 10
-27642.51160208319
 20
5893.549253714657
 30
0.0
 11
-27642.51160208319
 21
5723.549253714657
 31
0.0
  0
ARC
  5
17A7D
330
17
100
AcDbEntity
  8
吊り金具
  6
HIDDEN
 48
0.75
100
AcDbCircle
 10
-23758.92327040974
 20
5904.049253714657
 30
0.0
 40
64.0
100
AcDbArc
 50
180.0
 51
0.0
  0
LINE
  5
17A7E
330
17
100
AcDbEntity
  8
吊り金具
  6
HIDDEN
100
AcDbLine
 10
-23758.92327040974
 20
5893.549253714657
 30
0.0
 11
-23758.92327040974
 21
5723.549253714657
 31
0.0
  0
ARC
  5
17A7F
330
17
100
AcDbEntity
  8
吊り金具
  6
HIDDEN
 48
0.75
100
AcDbCircle
 10
-23178.92327040974
 20
5904.049253714657
 30
0.0
 40
64.0
100
AcDbArc
 50
180.0
 51
0.0
  0
LINE
  5
17A80
330
17
100
AcDbEntity
  8
吊り金具
  6
HIDDEN
100
AcDbLine
 10
-23178.92327040974
 20
5893.549253714657
 30
0.0
 11
-23178.92327040974
 21
5723.549253714657
 31
0.0
  0
ENDSEC
  0
SECTION
  2
OBJECTS
  0
DICTIONARY
  5
C
330
0
100
AcDbDictionary
281
     1
  3
ACAD_COLOR
350
853B
  3
ACAD_GROUP
350
D
  3
ACAD_LAYOUT
350
12F3
  3
ACAD_MATERIAL
350
853A
  3
ACAD_MLEADERSTYLE
350
17A9B
  3
ACAD_MLINESTYLE
350
1A
  3
ACAD_PLOTSETTINGS
350
12F4
  3
ACAD_PLOTSTYLENAME
350
12F1
  3
ACAD_TABLESTYLE
350
178A8
  3
AcadDim
350
168C7
  3
ACDBHEADERROUNDTRIPXREC
350
17A9C
  3
AcDbVariableDictionary
350
182D
  0
DICTIONARY
  5
1796B
330
2
100
AcDbDictionary
280
     1
281
     1
  3
ACAD_LAYERFILTERS
360
1796D
  3
ACLYDICTIONARY
360
1796C
  0
DICTIONARY
  5
1653
330
17
100
AcDbDictionary
280
     1
281
     1
  3
ACAD_SORTENTS
360
1790B
  0
DICTIONARY
  5
853B
102
{ACAD_REACTORS
330
C
102
}
330
C
100
AcDbDictionary
281
     1
  0
DICTIONARY
  5
D
102
{ACAD_REACTORS
330
C
102
}
330
C
100
AcDbDictionary
281
     1
  0
DICTIONARY
  5
12F3
102
{ACAD_REACTORS
330
C
102
}
330
C
100
AcDbDictionary
281
     1
  3
Model
350
12F5
  3
ﾚｲｱｳﾄ1
350
12F6
  0
DICTIONARY
  5
853A
102
{ACAD_REACTORS
330
C
102
}
330
C
100
AcDbDictionary
281
     1
  0
DICTIONARY
  5
17A9B
102
{ACAD_REACTORS
330
C
102
}
330
C
100
AcDbDictionary
281
     1
  0
DICTIONARY
  5
1A
102
{ACAD_REACTORS
330
C
102
}
330
C
100
AcDbDictionary
281
     1
  3
STANDARD
350
1B
  0
DICTIONARY
  5
12F4
102
{ACAD_REACTORS
330
C
102
}
330
C
100
AcDbDictionary
281
     1
  0
ACDBDICTIONARYWDFLT
  5
12F1
102
{ACAD_REACTORS
330
C
102
}
330
C
100
AcDbDictionary
281
     1
  3
Normal
350
12F2
100
AcDbDictionaryWithDefault
340
12F2
  0
DICTIONARY
  5
178A8
102
{ACAD_REACTORS
330
C
102
}
330
C
100
AcDbDictionary
281
     1
  0
XRECORD
  5
168C7
102
{ACAD_REACTORS
330
C
102
}
330
C
100
AcDbXrecord
280
     1
 90
   990106
  3

 60
     0
 61
     0
 62
     1
 63
     3
 64
     0
 65
     0
 66
     0
 67
     3
 68
     1
 69
     0
 70
     0
 71
     0
 72
     0
 40
0.0
170
     0
  0
DICTIONARY
  5
17A9C
102
{ACAD_REACTORS
330
C
102
}
330
C
100
AcDbDictionary
281
     1
  3
COLORDICT
350
17A9D
  3
MATERIALDICT
350
17A9E
  0
DICTIONARY
  5
182D
102
{ACAD_REACTORS
330
C
102
}
330
C
100
AcDbDictionary
281
     1
  3
CTABLESTYLE
350
178CB
  3
DIMASSOC
350
182E
  3
PROJECTNAME
350
B5AC
  0
DICTIONARY
  5
1796D
102
{ACAD_REACTORS
330
1796B
102
}
330
1796B
100
AcDbDictionary
281
     1
  0
DICTIONARY
  5
1796C
102
{ACAD_REACTORS
330
1796B
102
}
330
1796B
100
AcDbDictionary
281
     1
1001
ACAD
1000
<All
  0
SORTENTSTABLE
  5
1790B
102
{ACAD_REACTORS
330
1653
102
}
330
1653
100
AcDbSortentsTable
330
17
331
CB
  5
CB
331
40D
  5
40D
331
40E
  5
40E
331
40F
  5
40F
331
410
  5
410
331
416
  5
416
331
418
  5
418
331
419
  5
419
331
41A
  5
41A
331
41B
  5
41B
331
839
  5
839
331
83A
  5
83A
331
847
  5
847
331
848
  5
848
331
858
  5
858
331
859
  5
859
331
10B9
  5
10B9
331
183F
  5
183F
331
184F
  5
184F
331
185C
  5
185C
331
18AF
  5
18AF
331
18BC
  5
18BC
331
194F
  5
194F
331
195C
  5
195C
331
6C01
  5
6C01
331
6C02
  5
6C02
331
6C06
  5
6C06
331
6C07
  5
6C07
331
6C08
  5
6C08
331
6C15
  5
6C15
331
6C22
  5
6C22
331
6CA0
  5
6CA0
331
6CD5
  5
6CD5
331
6D79
  5
6D79
331
8E4C
  5
8E4C
331
8E4D
  5
8E4D
331
8E4E
  5
8E4E
331
8E4F
  5
8E4F
331
8E50
  5
8E50
331
8E51
  5
8E51
331
8E52
  5
8E52
331
8E53
  5
8E53
331
8E5A
  5
8E5A
331
9285
  5
9285
331
9309
  5
9309
331
9721
  5
9721
331
9723
  5
9723
331
9C96
  5
9C96
331
9DD4
  5
9DD4
331
9DD5
  5
9DD5
331
9DD6
  5
9DD6
331
9DD7
  5
9DD7
331
9DD8
  5
9DD8
331
9DDA
  5
9DDA
331
9DDB
  5
9DDB
331
9DDC
  5
9DDC
331
9DDD
  5
9DDD
331
9DDE
  5
9DDE
331
9DE0
  5
9DE0
331
9DE1
  5
9DE1
331
9DE2
  5
9DE2
331
9DE3
  5
9DE3
331
9DE4
  5
9DE4
331
9DE5
  5
9DE5
331
9DE6
  5
9DE6
331
9DE7
  5
9DE7
331
9DE8
  5
9DE8
331
9DE9
  5
9DE9
331
9DEA
  5
9DEA
331
9DEB
  5
9DEB
331
9DEC
  5
9DEC
331
9DED
  5
9DED
331
9DEE
  5
9DEE
331
9DEF
  5
9DEF
331
9DF0
  5
9DF0
331
9F65
  5
9F65
331
A4D3
  5
A4D3
331
E09D
  5
E09D
331
E09E
  5
E09E
331
E09F
  5
E09F
331
E0A1
  5
E0A1
331
E0AD
  5
E0AD
331
E0AE
  5
E0AE
331
E75E
  5
E75E
331
118DB
  5
118DB
331
118DC
  5
118DC
331
118DD
  5
118DD
331
118DE
  5
118DE
331
118DF
  5
118DF
331
118E0
  5
118E0
331
118E1
  5
118E1
331
118E2
  5
118E2
331
118E3
  5
118E3
331
118E4
  5
118E4
331
118E5
  5
118E5
331
118E6
  5
118E6
331
118E7
  5
118E7
331
118E8
  5
118E8
331
118E9
  5
118E9
331
118EA
  5
118EA
331
118EB
  5
118EB
331
118EC
  5
118EC
331
118ED
  5
118ED
331
118EE
  5
118EE
331
118EF
  5
118EF
331
118F0
  5
118F0
331
118F1
  5
118F1
331
118F2
  5
118F2
331
118F3
  5
118F3
331
118F4
  5
118F4
331
118F5
  5
118F5
331
118F6
  5
118F6
331
118F7
  5
118F7
331
118F8
  5
118F8
331
118F9
  5
118F9
331
118FA
  5
118FA
331
118FB
  5
118FB
331
118FC
  5
118FC
331
118FD
  5
118FD
331
118FE
  5
118FE
331
118FF
  5
118FF
331
11900
  5
11900
331
11901
  5
11901
331
11902
  5
11902
331
1234A
  5
1234A
331
1234B
  5
1234B
331
1234C
  5
1234C
331
1234D
  5
1234D
331
1234E
  5
1234E
331
1234F
  5
1234F
331
12350
  5
12350
331
12351
  5
12351
331
158F6
  5
158F6
331
158F7
  5
158F7
331
158F8
  5
158F8
331
158F9
  5
158F9
331
158FA
  5
158FA
331
158FB
  5
158FB
331
158FC
  5
158FC
331
158FD
  5
158FD
331
158FE
  5
158FE
331
15902
  5
15902
331
15903
  5
15903
331
15904
  5
15904
331
15905
  5
15905
331
15906
  5
15906
331
15907
  5
15907
331
15908
  5
15908
331
15909
  5
15909
331
1590A
  5
1590A
331
1590B
  5
1590B
331
1590C
  5
1590C
331
1590D
  5
1590D
331
1590E
  5
1590E
331
1590F
  5
1590F
331
15910
  5
15910
331
15911
  5
15911
331
15912
  5
15912
331
15913
  5
15913
331
15914
  5
15914
331
15915
  5
15915
331
15916
  5
15916
331
15917
  5
15917
331
15918
  5
15918
331
15919
  5
15919
331
1591A
  5
1591A
331
1591B
  5
1591B
331
1591C
  5
1591C
331
1591D
  5
1591D
331
1591E
  5
1591E
331
1591F
  5
1591F
331
15920
  5
15920
331
15921
  5
15921
331
15922
  5
15922
331
15923
  5
15923
331
15924
  5
15924
331
15925
  5
15925
331
15926
  5
15926
331
15B71
  5
15B71
331
15B72
  5
15B72
331
15B73
  5
15B73
331
16868
  5
16868
331
16869
  5
16869
331
1686A
  5
1686A
331
1686B
  5
1686B
331
1686C
  5
1686C
331
1686D
  5
1686D
331
1686E
  5
1686E
331
1686F
  5
1686F
331
16870
  5
16870
331
16871
  5
16871
331
16872
  5
16872
331
16873
  5
16873
331
16874
  5
16874
331
16875
  5
16875
331
16876
  5
16876
331
16877
  5
16877
331
16878
  5
16878
331
16879
  5
16879
331
1687A
  5
1687A
331
1687B
  5
1687B
331
1687C
  5
1687C
331
1687D
  5
1687D
331
1687E
  5
1687E
331
1687F
  5
1687F
331
16880
  5
16880
331
16881
  5
16881
331
16882
  5
16882
331
16883
  5
16883
331
16884
  5
16884
331
16885
  5
16885
331
16886
  5
16886
331
16887
  5
16887
331
16888
  5
16888
331
16889
  5
16889
331
1688A
  5
1688A
331
1688B
  5
1688B
331
1688C
  5
1688C
331
1688D
  5
1688D
331
1688E
  5
1688E
331
1688F
  5
1688F
331
16890
  5
16890
331
16891
  5
16891
331
16892
  5
16892
331
16893
  5
16893
331
16894
  5
16894
331
16895
  5
16895
331
16896
  5
16896
331
174C9
  5
174C9
331
174CA
  5
174CA
331
174CB
  5
174CB
331
174CC
  5
174CC
331
174CD
  5
174CD
331
174CE
  5
174CE
331
174CF
  5
174CF
331
174D0
  5
174D0
331
174D1
  5
174D1
331
174D2
  5
174D2
331
174D3
  5
174D3
331
174D4
  5
174D4
331
174D5
  5
174D5
331
174D6
  5
174D6
331
174D7
  5
174D7
331
174D8
  5
174D8
331
174D9
  5
174D9
331
174DA
  5
174DA
331
174DB
  5
174DB
331
174DC
  5
174DC
331
174DD
  5
174DD
331
174DE
  5
174DE
331
174DF
  5
174DF
331
174E0
  5
174E0
331
174E1
  5
174E1
331
174E2
  5
174E2
331
174E3
  5
174E3
331
174E4
  5
174E4
331
174E5
  5
174E5
331
174E6
  5
174E6
331
174E7
  5
174E7
331
174E8
  5
174E8
331
174E9
  5
174E9
331
174EA
  5
174EA
331
174EB
  5
174EB
331
174EC
  5
174EC
331
174ED
  5
174ED
331
174EE
  5
174EE
331
174EF
  5
174EF
331
174F0
  5
174F0
331
174F1
  5
174F1
331
174F2
  5
174F2
331
174F3
  5
174F3
331
174F4
  5
174F4
331
174F5
  5
174F5
331
174F6
  5
174F6
331
174F7
  5
174F7
331
174F8
  5
174F8
331
174F9
  5
174F9
331
174FA
  5
174FA
331
174FB
  5
174FB
331
174FC
  5
174FC
331
174FD
  5
174FD
331
174FE
  5
174FE
331
174FF
  5
174FF
331
17500
  5
17500
331
17501
  5
17501
331
17502
  5
17502
331
17503
  5
17503
331
17504
  5
17504
331
17505
  5
17505
331
17506
  5
17506
331
17507
  5
17507
331
17508
  5
17508
331
17509
  5
17509
331
1750A
  5
1750A
331
1750B
  5
1750B
331
1750C
  5
1750C
331
1750D
  5
1750D
331
1750E
  5
1750E
331
1750F
  5
1750F
331
17510
  5
17510
331
17511
  5
17511
331
17512
  5
17512
331
17513
  5
17513
331
17514
  5
17514
331
17515
  5
17515
331
17516
  5
17516
331
17517
  5
17517
331
17518
  5
17518
331
17519
  5
17519
331
1751A
  5
1751A
331
1751B
  5
1751B
331
1751C
  5
1751C
331
1751D
  5
1751D
331
1751E
  5
1751E
331
1751F
  5
1751F
331
17520
  5
17520
331
17521
  5
17521
331
17522
  5
17522
331
17523
  5
17523
331
17524
  5
17524
331
17525
  5
17525
331
17526
  5
17526
331
17527
  5
17527
331
17528
  5
17528
331
17529
  5
17529
331
1752A
  5
1752A
331
1752B
  5
1752B
331
1752C
  5
1752C
331
1752D
  5
1752D
331
1752E
  5
1752E
331
1752F
  5
1752F
331
17530
  5
17530
331
17531
  5
17531
331
17532
  5
17532
331
17533
  5
17533
331
17534
  5
17534
331
17535
  5
17535
331
17536
  5
17536
331
17537
  5
17537
331
17538
  5
17538
331
17539
  5
17539
331
1753A
  5
1753A
331
1753C
  5
1753C
331
1753D
  5
1753D
331
1753E
  5
1753E
331
1753F
  5
1753F
331
17540
  5
17540
331
17541
  5
17541
331
17542
  5
17542
331
17543
  5
17543
331
17544
  5
17544
331
17545
  5
17545
331
17546
  5
17546
331
17547
  5
17547
331
17548
  5
17548
331
17549
  5
17549
331
1754A
  5
1754A
331
1754B
  5
1754B
331
1754C
  5
1754C
331
1754D
  5
1754D
331
1754E
  5
1754E
331
1754F
  5
1754F
331
17550
  5
17550
331
17551
  5
17551
331
17552
  5
17552
331
17553
  5
17553
331
17554
  5
17554
331
17555
  5
17555
331
17556
  5
17556
331
17557
  5
17557
331
17558
  5
17558
331
17559
  5
17559
331
1755A
  5
1755A
331
1755B
  5
1755B
331
1755C
  5
1755C
331
1755D
  5
1755D
331
1755E
  5
1755E
331
1755F
  5
1755F
331
17560
  5
17560
331
17561
  5
17561
331
17562
  5
17562
331
17563
  5
17563
331
17564
  5
17564
331
17565
  5
17565
331
17566
  5
17566
331
17567
  5
17567
331
17568
  5
17568
331
175E1
  5
175E1
331
175E2
  5
175E2
331
175E3
  5
175E3
331
175E4
  5
175E4
331
175E5
  5
175E5
331
175E6
  5
175E6
331
175E7
  5
175E7
331
175E8
  5
175E8
331
175E9
  5
175E9
331
175EA
  5
175EA
331
175EB
  5
175EB
331
175EC
  5
175EC
331
175ED
  5
175ED
331
175EE
  5
175EE
331
175EF
  5
175EF
331
175F0
  5
175F0
331
175F1
  5
175F1
331
175F2
  5
175F2
331
175F3
  5
175F3
331
175F4
  5
175F4
331
175F5
  5
175F5
331
175F6
  5
175F6
331
175F7
  5
175F7
331
175F8
  5
175F8
331
175F9
  5
175F9
331
175FA
  5
175FA
331
175FB
  5
175FB
331
175FC
  5
175FC
331
175FD
  5
175FD
331
175FE
  5
175FE
331
175FF
  5
175FF
331
17600
  5
17600
331
17601
  5
17601
331
17602
  5
17602
331
17603
  5
17603
331
17604
  5
17604
331
17605
  5
17605
331
17606
  5
17606
331
17607
  5
17607
331
17608
  5
17608
331
17609
  5
17609
331
1760A
  5
1760A
331
1760B
  5
1760B
331
1760C
  5
1760C
331
1760D
  5
1760D
331
1760E
  5
1760E
331
1760F
  5
1760F
331
17610
  5
17610
331
17611
  5
17611
331
17612
  5
17612
331
1780E
  5
1780E
331
1780F
  5
1780F
331
17810
  5
17810
331
17811
  5
17811
331
17812
  5
17812
331
17813
  5
17813
331
17814
  5
17814
331
17815
  5
17815
331
17823
  5
17823
331
17824
  5
17824
331
17825
  5
17825
331
17826
  5
17826
331
17827
  5
17827
331
17828
  5
17828
331
17829
  5
17829
331
1782A
  5
1782A
331
178CC
  5
178CC
331
178CD
  5
178CD
331
178CE
  5
178CE
331
178DE
  5
178DE
331
178DF
  5
178DF
  0
LAYOUT
  5
12F5
102
{ACAD_REACTORS
330
12F3
102
}
330
12F3
100
AcDbPlotSettings
  1

  2
\\Print\EPSON EPL-1220 Advanced
  4
A4
  6

 40
5.87375
 41
5.873748
 42
5.873749
 43
5.873749
 44
209.973328
 45
297.010651
 46
0.0
 47
0.0
 48
-31992.51160208319
 49
300.0
140
-16392.5116020832
141
11300.0
142
1.0
143
55.49226382602237
 70
 11952
 72
     1
 73
     1
 74
     4
  7
aclt.ctb
 75
     0
147
0.0180205299090909
148
31992.51160208319
149
-300.0
100
AcDbLayout
  1
Model
 70
     1
 71
     0
 10
0.0
 20
0.0
 11
12.0
 21
9.0
 12
0.0
 22
0.0
 32
0.0
 14
0.0
 24
0.0
 34
0.0
 15
0.0
 25
0.0
 35
0.0
146
0.0
 13
0.0
 23
0.0
 33
0.0
 16
1.0
 26
0.0
 36
0.0
 17
0.0
 27
1.0
 37
0.0
 76
     0
330
17
331
17A95
  0
LAYOUT
  5
12F6
102
{ACAD_REACTORS
330
12F3
102
}
330
12F3
100
AcDbPlotSettings
  1

  2
C:\PROGRAM FILES\MDT6\plotters\RICOH SP9II RPDL.pc3
  4

  6

 40
0.0
 41
0.0
 42
0.0
 43
0.0
 44
0.0
 45
0.0
 46
0.0
 47
0.0
 48
0.0
 49
0.0
140
0.0
141
0.0
142
1.0
143
1.0
 70
   688
 72
     0
 73
     0
 74
     5
  7
acad.ctb
 75
    16
147
1.0
148
0.0
149
0.0
100
AcDbLayout
  1
ﾚｲｱｳﾄ1
 70
     0
 71
     1
 10
0.0
 20
0.0
 11
12.0
 21
9.0
 12
0.0
 22
0.0
 32
0.0
 14
1.000000000000000E+20
 24
1.000000000000000E+20
 34
1.000000000000000E+20
 15
-1.000000000000000E+20
 25
-1.000000000000000E+20
 35
-1.000000000000000E+20
146
0.0
 13
0.0
 23
0.0
 33
0.0
 16
1.0
 26
0.0
 36
0.0
 17
0.0
 27
1.0
 37
0.0
 76
     0
330
14
  0
MLINESTYLE
  5
1B
102
{ACAD_REACTORS
330
1A
102
}
330
1A
100
AcDbMlineStyle
  2
STANDARD
 70
     0
  3

 62
   256
 51
90.0
 52
90.0
 71
     2
 49
0.5
 62
   256
  6
BYLAYER
 49
-0.5
 62
   256
  6
BYLAYER
  0
ACDBPLACEHOLDER
  5
12F2
102
{ACAD_REACTORS
330
12F1
102
}
330
12F1
  0
XRECORD
  5
17A9D
102
{ACAD_REACTORS
330
17A9C
102
}
330
17A9C
100
AcDbXrecord
280
     1
340
853B
  0
XRECORD
  5
17A9E
102
{ACAD_REACTORS
330
17A9C
102
}
330
17A9C
100
AcDbXrecord
280
     1
340
853A
  0
DICTIONARYVAR
  5
178CB
102
{ACAD_REACTORS
330
182D
102
}
330
182D
100
DictionaryVariables
280
     0
  1
Standard
  0
DICTIONARYVAR
  5
182E
102
{ACAD_REACTORS
330
182D
102
}
330
182D
100
DictionaryVariables
280
     0
  1
1
  0
DICTIONARYVAR
  5
B5AC
102
{ACAD_REACTORS
330
182D
102
}
330
182D
100
DictionaryVariables
280
     0
  1

  0
ENDSEC
  0
EOF
