  0
SECTION
  2
HEADER
  9
$ACADVER
  1
AC1015
  9
$ACADMAINTVER
 70
     6
  9
$DWGCODEPAGE
  3
ANSI_932
  9
$INSBASE
 10
0.0
 20
0.0
 30
0.0
  9
$EXTMIN
 10
-13473.90502749439
 20
5630.383341911234
 30
-0.0015258207003583
  9
$EXTMAX
 10
-1772.723768001422
 20
13732.21667756119
 30
0.0000000349246037
  9
$LIMMIN
 10
0.0
 20
0.0
  9
$LIMMAX
 10
21000.0
 20
14850.0
  9
$ORTHOMODE
 70
     1
  9
$REGENMODE
 70
     1
  9
$FILLMODE
 70
     1
  9
$QTEXTMODE
 70
     0
  9
$MIRRTEXT
 70
     1
  9
$LTSCALE
 40
500.0
  9
$ATTMODE
 70
     1
  9
$TEXTSIZE
 40
120.0
  9
$TRACEWID
 40
0.05
  9
$TEXTSTYLE
  7
STANDARD
  9
$CLAYER
  8
SUNPOU
  9
$CELTYPE
  6
BYLAYER
  9
$CECOLOR
 62
   256
  9
$CELTSCALE
 40
1.0
  9
$DISPSILH
 70
     0
  9
$DIMSCALE
 40
50.0
  9
$DIMASZ
 40
1.5
  9
$DIMEXO
 40
2.0
  9
$DIMDLI
 40
7.0
  9
$DIMRND
 40
0.0
  9
$DIMDLE
 40
0.0
  9
$DIMEXE
 40
1.0
  9
$DIMTP
 40
0.0
  9
$DIMTM
 40
0.0
  9
$DIMTXT
 40
2.5
  9
$DIMCEN
 40
0.0
  9
$DIMTSZ
 40
0.0
  9
$DIMTOL
 70
     0
  9
$DIMLIM
 70
     0
  9
$DIMTIH
 70
     0
  9
$DIMTOH
 70
     0
  9
$DIMSE1
 70
     0
  9
$DIMSE2
 70
     0
  9
$DIMTAD
 70
     1
  9
$DIMZIN
 70
     8
  9
$DIMBLK
  1

  9
$DIMASO
 70
     1
  9
$DIMSHO
 70
     1
  9
$DIMPOST
  1

  9
$DIMAPOST
  1

  9
$DIMALT
 70
     0
  9
$DIMALTD
 70
     2
  9
$DIMALTF
 40
25.4
  9
$DIMLFAC
 40
1.0
  9
$DIMTOFL
 70
     0
  9
$DIMTVP
 40
1.0
  9
$DIMTIX
 70
     0
  9
$DIMSOXD
 70
     0
  9
$DIMSAH
 70
     0
  9
$DIMBLK1
  1

  9
$DIMBLK2
  1

  9
$DIMSTYLE
  2
STANDARD
  9
$DIMCLRD
 70
     0
  9
$DIMCLRE
 70
     0
  9
$DIMCLRT
 70
     0
  9
$DIMTFAC
 40
1.0
  9
$DIMGAP
 40
1.0
  9
$DIMJUST
 70
     0
  9
$DIMSD1
 70
     0
  9
$DIMSD2
 70
     0
  9
$DIMTOLJ
 70
     1
  9
$DIMTZIN
 70
     8
  9
$DIMALTZ
 70
     8
  9
$DIMALTTZ
 70
     8
  9
$DIMUPT
 70
     0
  9
$DIMDEC
 70
     4
  9
$DIMTDEC
 70
     4
  9
$DIMALTU
 70
     2
  9
$DIMALTTD
 70
     2
  9
$DIMTXSTY
  7
STANDARD
  9
$DIMAUNIT
 70
     1
  9
$DIMADEC
 70
     0
  9
$DIMALTRND
 40
0.0
  9
$DIMAZIN
 70
     0
  9
$DIMDSEP
 70
    46
  9
$DIMATFIT
 70
     3
  9
$DIMFRAC
 70
     0
  9
$DIMLDRBLK
  1

  9
$DIMLUNIT
 70
     2
  9
$DIMLWD
 70
    -2
  9
$DIMLWE
 70
    -2
  9
$DIMTMOVE
 70
     2
  9
$LUNITS
 70
     2
  9
$LUPREC
 70
     4
  9
$SKETCHINC
 40
0.1
  9
$FILLETRAD
 40
200.0
  9
$AUNITS
 70
     1
  9
$AUPREC
 70
     4
  9
$MENU
  1
acad
  9
$ELEVATION
 40
0.0
  9
$PELEVATION
 40
0.0
  9
$THICKNESS
 40
0.0
  9
$LIMCHECK
 70
     0
  9
$CHAMFERA
 40
50.0
  9
$CHAMFERB
 40
50.0
  9
$CHAMFERC
 40
0.0
  9
$CHAMFERD
 40
0.0
  9
$SKPOLY
 70
     0
  9
$TDCREATE
 40
2450014.658171296
  9
$TDUCREATE
 40
2450014.283171296
  9
$TDUPDATE
 40
2455019.609126875
  9
$TDUUPDATE
 40
2455019.234126875
  9
$TDINDWG
 40
1.6771747569
  9
$TDUSRTIMER
 40
1.6771747569
  9
$USRTIMER
 70
     1
  9
$ANGBASE
 50
0.0
  9
$ANGDIR
 70
     0
  9
$PDMODE
 70
     0
  9
$PDSIZE
 40
100.0
  9
$PLINEWID
 40
0.0
  9
$SPLFRAME
 70
     0
  9
$SPLINETYPE
 70
     6
  9
$SPLINESEGS
 70
     8
  9
$HANDSEED
  5
5DD9
  9
$SURFTAB1
 70
     6
  9
$SURFTAB2
 70
     6
  9
$SURFTYPE
 70
     6
  9
$SURFU
 70
     6
  9
$SURFV
 70
     6
  9
$UCSBASE
  2

  9
$UCSNAME
  2

  9
$UCSORG
 10
0.0
 20
0.0
 30
0.0
  9
$UCSXDIR
 10
1.0
 20
0.0
 30
0.0
  9
$UCSYDIR
 10
0.0
 20
1.0
 30
0.0
  9
$UCSORTHOREF
  2

  9
$UCSORTHOVIEW
 70
     0
  9
$UCSORGTOP
 10
0.0
 20
0.0
 30
0.0
  9
$UCSORGBOTTOM
 10
0.0
 20
0.0
 30
0.0
  9
$UCSORGLEFT
 10
0.0
 20
0.0
 30
0.0
  9
$UCSORGRIGHT
 10
0.0
 20
0.0
 30
0.0
  9
$UCSORGFRONT
 10
0.0
 20
0.0
 30
0.0
  9
$UCSORGBACK
 10
0.0
 20
0.0
 30
0.0
  9
$PUCSBASE
  2

  9
$PUCSNAME
  2

  9
$PUCSORG
 10
0.0
 20
0.0
 30
0.0
  9
$PUCSXDIR
 10
1.0
 20
0.0
 30
0.0
  9
$PUCSYDIR
 10
0.0
 20
1.0
 30
0.0
  9
$PUCSORTHOREF
  2

  9
$PUCSORTHOVIEW
 70
     0
  9
$PUCSORGTOP
 10
0.0
 20
0.0
 30
0.0
  9
$PUCSORGBOTTOM
 10
0.0
 20
0.0
 30
0.0
  9
$PUCSORGLEFT
 10
0.0
 20
0.0
 30
0.0
  9
$PUCSORGRIGHT
 10
0.0
 20
0.0
 30
0.0
  9
$PUCSORGFRONT
 10
0.0
 20
0.0
 30
0.0
  9
$PUCSORGBACK
 10
0.0
 20
0.0
 30
0.0
  9
$USERI1
 70
     0
  9
$USERI2
 70
     0
  9
$USERI3
 70
     0
  9
$USERI4
 70
     0
  9
$USERI5
 70
     0
  9
$USERR1
 40
0.0
  9
$USERR2
 40
0.0
  9
$USERR3
 40
0.0
  9
$USERR4
 40
0.0
  9
$USERR5
 40
0.0
  9
$WORLDVIEW
 70
     1
  9
$SHADEDGE
 70
     3
  9
$SHADEDIF
 70
    70
  9
$TILEMODE
 70
     1
  9
$MAXACTVP
 70
    48
  9
$PINSBASE
 10
0.0
 20
0.0
 30
0.0
  9
$PLIMCHECK
 70
     0
  9
$PEXTMIN
 10
1.000000000000000E+20
 20
1.000000000000000E+20
 30
1.000000000000000E+20
  9
$PEXTMAX
 10
-1.000000000000000E+20
 20
-1.000000000000000E+20
 30
-1.000000000000000E+20
  9
$PLIMMIN
 10
0.0
 20
0.0
  9
$PLIMMAX
 10
12.0
 20
9.0
  9
$UNITMODE
 70
     0
  9
$VISRETAIN
 70
     0
  9
$PLINEGEN
 70
     0
  9
$PSLTSCALE
 70
     0
  9
$TREEDEPTH
 70
  3020
  9
$CMLSTYLE
  2
STANDARD
  9
$CMLJUST
 70
     0
  9
$CMLSCALE
 40
1.0
  9
$PROXYGRAPHICS
 70
     1
  9
$MEASUREMENT
 70
     0
  9
$CELWEIGHT
370
    -1
  9
$ENDCAPS
280
     0
  9
$JOINSTYLE
280
     0
  9
$LWDISPLAY
290
     0
  9
$INSUNITS
 70
     0
  9
$HYPERLINKBASE
  1

  9
$STYLESHEET
  1
monochrome.ctb
  9
$XEDIT
290
     1
  9
$CEPSNTYPE
380
     0
  9
$PSTYLEMODE
290
     1
  9
$FINGERPRINTGUID
  2
{31D32302-2A71-11D6-9351-0080AD72C8A3}
  9
$VERSIONGUID
  2
{93A3F792-0600-4EEF-B6CA-E58ED1F8C45B}
  9
$EXTNAMES
290
     1
  9
$PSVPSCALE
 40
0.0
  9
$OLESTARTUP
290
     0
  0
ENDSEC
  0
SECTION
  2
CLASSES
  0
CLASS
  1
LWPOLYLINE
  2
AcDbPolyline
  3
AutoCAD 2000
 90
        0
280
     0
281
     1
  0
CLASS
  1
ACDBDICTIONARYWDFLT
  2
AcDbDictionaryWithDefault
  3
ObjectDBX Classes
 90
        0
280
     0
281
     0
  0
CLASS
  1
ACDBPLACEHOLDER
  2
AcDbPlaceHolder
  3
ObjectDBX Classes
 90
        0
280
     0
281
     0
  0
CLASS
  1
LAYOUT
  2
AcDbLayout
  3
ObjectDBX Classes
 90
        0
280
     0
281
     0
  0
CLASS
  1
DICTIONARYVAR
  2
AcDbDictionaryVar
  3
ObjectDBX Classes
 90
        0
280
     0
281
     0
  0
CLASS
  1
DUMMY
  2
AcDbLongTransaction
  3
DUMMY
 90
        0
280
     0
281
     0
  0
CLASS
  1
LWPOLYLINE
  2
AcDbPolyline
  3
AutoCAD 2000
 90
        0
280
     0
281
     1
  0
CLASS
  1
HATCH
  2
AcDbHatch
  3
AutoCAD 2000
 90
        0
280
     0
281
     1
  0
CLASS
  1
XRECORD
  2
AcDbXrecord
  3
AutoCAD 2000
 90
        0
280
     0
281
     0
  0
CLASS
  1
DUMMY
  2
AcDbLongTransaction
  3
DUMMY
 90
        0
280
     0
281
     0
  0
CLASS
  1
LWPOLYLINE
  2
AcDbPolyline
  3
AutoCAD 2000
 90
        0
280
     0
281
     1
  0
CLASS
  1
HATCH
  2
AcDbHatch
  3
AutoCAD 2000
 90
        0
280
     0
281
     1
  0
CLASS
  1
XRECORD
  2
AcDbXrecord
  3
AutoCAD 2000
 90
        0
280
     0
281
     0
  0
CLASS
  1
DUMMY
  2
AcDbLongTransaction
  3
DUMMY
 90
        0
280
     0
281
     0
  0
CLASS
  1
LWPOLYLINE
  2
AcDbPolyline
  3
AutoCAD 2000
 90
        0
280
     0
281
     1
  0
CLASS
  1
HATCH
  2
AcDbHatch
  3
AutoCAD 2000
 90
        0
280
     0
281
     1
  0
CLASS
  1
XRECORD
  2
AcDbXrecord
  3
AutoCAD 2000
 90
        0
280
     0
281
     0
  0
CLASS
  1
DUMMY
  2
AcDbLongTransaction
  3
DUMMY
 90
        0
280
     0
281
     0
  0
CLASS
  1
LWPOLYLINE
  2
AcDbPolyline
  3
AutoCAD 2000
 90
        0
280
     0
281
     1
  0
CLASS
  1
HATCH
  2
AcDbHatch
  3
AutoCAD 2000
 90
        0
280
     0
281
     1
  0
CLASS
  1
XRECORD
  2
AcDbXrecord
  3
AutoCAD 2000
 90
        0
280
     0
281
     0
  0
CLASS
  1
DUMMY
  2
AcDbLongTransaction
  3
DUMMY
 90
        0
280
     0
281
     0
  0
CLASS
  1
LWPOLYLINE
  2
AcDbPolyline
  3
AutoCAD 2000
 90
        0
280
     0
281
     1
  0
CLASS
  1
HATCH
  2
AcDbHatch
  3
AutoCAD 2000
 90
        0
280
     0
281
     1
  0
CLASS
  1
XRECORD
  2
AcDbXrecord
  3
AutoCAD 2000
 90
        0
280
     0
281
     0
  0
CLASS
  1
DUMMY
  2
AcDbLongTransaction
  3
DUMMY
 90
        0
280
     0
281
     0
  0
CLASS
  1
LWPOLYLINE
  2
AcDbPolyline
  3
AutoCAD 2000
 90
        0
280
     0
281
     1
  0
CLASS
  1
HATCH
  2
AcDbHatch
  3
AutoCAD 2000
 90
        0
280
     0
281
     1
  0
CLASS
  1
XRECORD
  2
AcDbXrecord
  3
AutoCAD 2000
 90
        0
280
     0
281
     0
  0
CLASS
  1
TABLESTYLE
  2
AcDbTableStyle
  3
ObjectDBX Classes
 90
     4095
280
     0
281
     0
  0
ENDSEC
  0
SECTION
  2
TABLES
  0
TABLE
  2
VPORT
  5
8
330
0
100
AcDbSymbolTable
 70
     2
  0
VPORT
  5
5DCF
330
8
100
AcDbSymbolTableRecord
100
AcDbViewportTableRecord
  2
*Active
 70
     0
 10
0.0
 20
0.0
 11
1.0
 21
1.0
 12
-7804.850028040792
 22
9634.57231585636
 13
0.0
 23
0.0
 14
50.0
 24
50.0
 15
500.0
 25
500.0
 16
0.0
 26
0.0
 36
1.0
 17
0.0
 27
0.0
 37
0.0
 40
9873.366776163304
 41
1.507024265644955
 42
50.0
 43
0.0
 44
0.0
 50
0.0
 51
0.0
 71
     0
 72
   100
 73
     1
 74
     0
 75
     0
 76
     0
 77
     0
 78
     0
281
     0
 65
     1
110
0.0
120
0.0
130
0.0
111
1.0
121
0.0
131
0.0
112
0.0
122
1.0
132
0.0
 79
     0
146
0.0
  0
ENDTAB
  0
TABLE
  2
LTYPE
  5
5
330
0
100
AcDbSymbolTable
 70
     4
  0
LTYPE
  5
11
330
5
100
AcDbSymbolTableRecord
100
AcDbLinetypeTableRecord
  2
BYBLOCK
 70
     0
  3

 72
    65
 73
     0
 40
0.0
  0
LTYPE
  5
12
330
5
100
AcDbSymbolTableRecord
100
AcDbLinetypeTableRecord
  2
BYLAYER
 70
     0
  3

 72
    65
 73
     0
 40
0.0
  0
LTYPE
  5
13
330
5
100
AcDbSymbolTableRecord
100
AcDbLinetypeTableRecord
  2
CONTINUOUS
 70
     0
  3
Solid line
 72
    65
 73
     0
 40
0.0
  0
LTYPE
  5
1E
330
5
100
AcDbSymbolTableRecord
100
AcDbLinetypeTableRecord
  2
HIDDEN
 70
     0
  3
_ _ _ _ _ _ _ _ _ _ _ _ _ _ _ _ _ _ _ _ _ _ _
 72
    65
 73
     2
 40
0.375
 49
0.25
 74
     0
 49
-0.125
 74
     0
  0
LTYPE
  5
1F
330
5
100
AcDbSymbolTableRecord
100
AcDbLinetypeTableRecord
  2
CENTER
 70
     0
  3
____ _ ____ _ ____ _ ____ _ ____ _ ____ _ ____
 72
    65
 73
     4
 40
2.0
 49
1.25
 74
     0
 49
-0.25
 74
     0
 49
0.25
 74
     0
 49
-0.25
 74
     0
  0
LTYPE
  5
20
330
5
100
AcDbSymbolTableRecord
100
AcDbLinetypeTableRecord
  2
PHANTOM
 70
     0
  3
_____ _ _ _____ _ _ _____ _ _ _____ _ _ ____
 72
    65
 73
     6
 40
2.5
 49
1.25
 74
     0
 49
-0.25
 74
     0
 49
0.25
 74
     0
 49
-0.25
 74
     0
 49
0.25
 74
     0
 49
-0.25
 74
     0
  0
ENDTAB
  0
TABLE
  2
LAYER
  5
2
330
0
100
AcDbSymbolTable
 70
    10
  0
LAYER
  5
E
330
2
100
AcDbSymbolTableRecord
100
AcDbLayerTableRecord
  2
0
 70
     0
 62
     7
  6
CONTINUOUS
370
    -3
390
2639
  0
LAYER
  5
23
330
2
100
AcDbSymbolTableRecord
100
AcDbLayerTableRecord
  2
SUNPOU
 70
     0
 62
     1
  6
CONTINUOUS
370
    -3
390
2639
  0
LAYER
  5
24
330
2
100
AcDbSymbolTableRecord
100
AcDbLayerTableRecord
  2
HAIKIN
 70
     0
 62
     2
  6
CONTINUOUS
370
    -3
390
2639
  0
LAYER
  5
25
330
2
100
AcDbSymbolTableRecord
100
AcDbLayerTableRecord
  2
SEIHIN
 70
     0
 62
     3
  6
CONTINUOUS
370
    -3
390
2639
  0
LAYER
  5
26
330
2
100
AcDbSymbolTableRecord
100
AcDbLayerTableRecord
  2
HASEN
 70
     0
 62
     4
  6
HIDDEN
370
    -3
390
2639
  0
LAYER
  5
27
330
2
100
AcDbSymbolTableRecord
100
AcDbLayerTableRecord
  2
1HASEN
 70
     0
 62
     5
  6
CENTER
370
    -3
390
2639
  0
LAYER
  5
28
330
2
100
AcDbSymbolTableRecord
100
AcDbLayerTableRecord
  2
2HASEN
 70
     0
 62
     6
  6
PHANTOM
370
    -3
390
2639
  0
LAYER
  5
29
330
2
100
AcDbSymbolTableRecord
100
AcDbLayerTableRecord
  2
HOJO
 70
     0
 62
     7
  6
CONTINUOUS
370
    -3
390
2639
  0
LAYER
  5
2A
330
2
100
AcDbSymbolTableRecord
100
AcDbLayerTableRecord
  2
TEN
 70
     0
 62
     7
  6
CONTINUOUS
370
    -3
390
2639
  0
LAYER
  5
7A
330
2
100
AcDbSymbolTableRecord
100
AcDbLayerTableRecord
  2
DEFPOINTS
 70
     0
 62
     7
  6
CONTINUOUS
290
     0
370
    -3
390
2639
  0
ENDTAB
  0
TABLE
  2
STYLE
  5
3
330
0
100
AcDbSymbolTable
 70
     3
  0
STYLE
  5
F
330
3
100
AcDbSymbolTableRecord
100
AcDbTextStyleTableRecord
  2
STANDARD
 70
     0
 40
0.0
 41
0.8
 50
0.0
 71
     0
 42
120.0
  3
TXT.shx
  4
BIGFONT.shx
  0
STYLE
  5
B52
330
3
100
AcDbSymbolTableRecord
100
AcDbTextStyleTableRecord
  2
STYLE1
 70
     0
 40
0.0
 41
1.0
 50
0.0
 71
     0
 42
250.0
  3
MS Mincho.ttf
  4

1001
ACAD
1000
MS Mincho
1071
    32785
  0
STYLE
  5
1FDD
330
3
100
AcDbSymbolTableRecord
100
AcDbTextStyleTableRecord
  2
NIHONGO
 70
     0
 40
0.0
 41
1.0
 50
0.0
 71
     0
 42
80.0
  3
MS Mincho.ttf
  4

1001
ACAD
1000
MS Mincho
1071
    32785
  0
ENDTAB
  0
TABLE
  2
VIEW
  5
6
330
0
100
AcDbSymbolTable
 70
     0
  0
ENDTAB
  0
TABLE
  2
UCS
  5
7
330
0
100
AcDbSymbolTable
 70
     0
  0
ENDTAB
  0
TABLE
  2
APPID
  5
9
330
0
100
AcDbSymbolTable
 70
     2
  0
APPID
  5
10
330
9
100
AcDbSymbolTableRecord
100
AcDbRegAppTableRecord
  2
ACAD
 70
     0
  0
APPID
  5
53BE
330
9
100
AcDbSymbolTableRecord
100
AcDbRegAppTableRecord
  2
ACAD_PSEXT
 70
     0
  0
ENDTAB
  0
TABLE
  2
DIMSTYLE
  5
A
330
0
100
AcDbSymbolTable
 70
     1
100
AcDbDimStyleTable
  0
DIMSTYLE
105
62
102
{ACAD_REACTORS
330
230B
330
230C
330
230D
330
230E
330
230F
330
2310
330
2311
330
2312
330
2313
330
2314
330
2315
330
2317
330
2318
330
2319
330
231A
330
231B
330
231C
330
231D
330
231E
330
231F
330
56F8
330
56F9
330
570A
330
570B
330
5717
330
572E
330
572F
330
5731
330
5733
330
5734
330
5739
330
574F
330
5750
330
5753
330
575C
330
575D
330
575E
330
575F
330
5760
330
5761
330
5762
330
5763
330
5769
330
576B
330
576C
330
576D
330
576E
330
5786
330
578B
330
578C
330
578D
330
578E
330
5791
330
5799
330
57B8
330
57C5
330
57C6
330
57D0
330
57D7
330
5812
330
5813
102
}
330
A
100
AcDbSymbolTableRecord
100
AcDbDimStyleTableRecord
  2
STANDARD
 70
     0
340
F
  0
ENDTAB
  0
TABLE
  2
BLOCK_RECORD
  5
1
330
0
100
AcDbSymbolTable
 70
    94
  0
BLOCK_RECORD
  5
17
330
1
100
AcDbSymbolTableRecord
100
AcDbBlockTableRecord
  2
*MODEL_SPACE
340
263C
  0
BLOCK_RECORD
  5
14
330
1
100
AcDbSymbolTableRecord
100
AcDbBlockTableRecord
  2
*PAPER_SPACE
340
263D
  0
BLOCK_RECORD
  5
1C
330
1
100
AcDbSymbolTableRecord
100
AcDbBlockTableRecord
  2
BORDER
340
0
  0
BLOCK_RECORD
  5
21EA
330
1
100
AcDbSymbolTableRecord
100
AcDbBlockTableRecord
  2
*D12
340
0
  0
BLOCK_RECORD
  5
21F6
330
1
100
AcDbSymbolTableRecord
100
AcDbBlockTableRecord
  2
*D13
340
0
  0
BLOCK_RECORD
  5
2205
330
1
100
AcDbSymbolTableRecord
100
AcDbBlockTableRecord
  2
*D14
340
0
  0
BLOCK_RECORD
  5
2214
330
1
100
AcDbSymbolTableRecord
100
AcDbBlockTableRecord
  2
*D15
340
0
  0
BLOCK_RECORD
  5
2220
330
1
100
AcDbSymbolTableRecord
100
AcDbBlockTableRecord
  2
*D16
340
0
  0
BLOCK_RECORD
  5
222F
330
1
100
AcDbSymbolTableRecord
100
AcDbBlockTableRecord
  2
*D17
340
0
  0
BLOCK_RECORD
  5
223E
330
1
100
AcDbSymbolTableRecord
100
AcDbBlockTableRecord
  2
*D18
340
0
  0
BLOCK_RECORD
  5
224D
330
1
100
AcDbSymbolTableRecord
100
AcDbBlockTableRecord
  2
*D19
340
0
  0
BLOCK_RECORD
  5
225C
330
1
100
AcDbSymbolTableRecord
100
AcDbBlockTableRecord
  2
*D20
340
0
  0
BLOCK_RECORD
  5
226B
330
1
100
AcDbSymbolTableRecord
100
AcDbBlockTableRecord
  2
*D21
340
0
  0
BLOCK_RECORD
  5
227A
330
1
100
AcDbSymbolTableRecord
100
AcDbBlockTableRecord
  2
*D22
340
0
  0
BLOCK_RECORD
  5
2286
330
1
100
AcDbSymbolTableRecord
100
AcDbBlockTableRecord
  2
*D23
340
0
  0
BLOCK_RECORD
  5
2295
330
1
100
AcDbSymbolTableRecord
100
AcDbBlockTableRecord
  2
*D24
340
0
  0
BLOCK_RECORD
  5
22A4
330
1
100
AcDbSymbolTableRecord
100
AcDbBlockTableRecord
  2
*D25
340
0
  0
BLOCK_RECORD
  5
22B0
330
1
100
AcDbSymbolTableRecord
100
AcDbBlockTableRecord
  2
*D26
340
0
  0
BLOCK_RECORD
  5
22BF
330
1
100
AcDbSymbolTableRecord
100
AcDbBlockTableRecord
  2
*D27
340
0
  0
BLOCK_RECORD
  5
22CE
330
1
100
AcDbSymbolTableRecord
100
AcDbBlockTableRecord
  2
*D28
340
0
  0
BLOCK_RECORD
  5
22DD
330
1
100
AcDbSymbolTableRecord
100
AcDbBlockTableRecord
  2
*D29
340
0
  0
BLOCK_RECORD
  5
22EC
330
1
100
AcDbSymbolTableRecord
100
AcDbBlockTableRecord
  2
*D30
340
0
  0
BLOCK_RECORD
  5
22FB
330
1
100
AcDbSymbolTableRecord
100
AcDbBlockTableRecord
  2
*D31
340
0
  0
BLOCK_RECORD
  5
230A
330
1
100
AcDbSymbolTableRecord
100
AcDbBlockTableRecord
  2
A$C21F533B3
340
0
  0
BLOCK_RECORD
  5
5819
330
1
100
AcDbSymbolTableRecord
100
AcDbBlockTableRecord
  2
*D53
340
0
  0
BLOCK_RECORD
  5
5825
330
1
100
AcDbSymbolTableRecord
100
AcDbBlockTableRecord
  2
*D54
340
0
  0
BLOCK_RECORD
  5
5831
330
1
100
AcDbSymbolTableRecord
100
AcDbBlockTableRecord
  2
*D55
340
0
  0
BLOCK_RECORD
  5
583D
330
1
100
AcDbSymbolTableRecord
100
AcDbBlockTableRecord
  2
*D56
340
0
  0
BLOCK_RECORD
  5
5849
330
1
100
AcDbSymbolTableRecord
100
AcDbBlockTableRecord
  2
*D57
340
0
  0
BLOCK_RECORD
  5
5855
330
1
100
AcDbSymbolTableRecord
100
AcDbBlockTableRecord
  2
*D58
340
0
  0
BLOCK_RECORD
  5
5861
330
1
100
AcDbSymbolTableRecord
100
AcDbBlockTableRecord
  2
*D59
340
0
  0
BLOCK_RECORD
  5
586D
330
1
100
AcDbSymbolTableRecord
100
AcDbBlockTableRecord
  2
*D60
340
0
  0
BLOCK_RECORD
  5
5879
330
1
100
AcDbSymbolTableRecord
100
AcDbBlockTableRecord
  2
*D61
340
0
  0
BLOCK_RECORD
  5
5885
330
1
100
AcDbSymbolTableRecord
100
AcDbBlockTableRecord
  2
*D62
340
0
  0
BLOCK_RECORD
  5
5891
330
1
100
AcDbSymbolTableRecord
100
AcDbBlockTableRecord
  2
*D63
340
0
  0
BLOCK_RECORD
  5
589F
330
1
100
AcDbSymbolTableRecord
100
AcDbBlockTableRecord
  2
*D64
340
0
  0
BLOCK_RECORD
  5
58AD
330
1
100
AcDbSymbolTableRecord
100
AcDbBlockTableRecord
  2
*D65
340
0
  0
BLOCK_RECORD
  5
58B9
330
1
100
AcDbSymbolTableRecord
100
AcDbBlockTableRecord
  2
*D66
340
0
  0
BLOCK_RECORD
  5
58C7
330
1
100
AcDbSymbolTableRecord
100
AcDbBlockTableRecord
  2
*D67
340
0
  0
BLOCK_RECORD
  5
58D5
330
1
100
AcDbSymbolTableRecord
100
AcDbBlockTableRecord
  2
*D68
340
0
  0
BLOCK_RECORD
  5
58E1
330
1
100
AcDbSymbolTableRecord
100
AcDbBlockTableRecord
  2
*D69
340
0
  0
BLOCK_RECORD
  5
58EF
330
1
100
AcDbSymbolTableRecord
100
AcDbBlockTableRecord
  2
*D70
340
0
  0
BLOCK_RECORD
  5
58FB
330
1
100
AcDbSymbolTableRecord
100
AcDbBlockTableRecord
  2
*D71
340
0
  0
BLOCK_RECORD
  5
5907
330
1
100
AcDbSymbolTableRecord
100
AcDbBlockTableRecord
  2
*D72
340
0
  0
BLOCK_RECORD
  5
5913
330
1
100
AcDbSymbolTableRecord
100
AcDbBlockTableRecord
  2
*D73
340
0
  0
BLOCK_RECORD
  5
5921
330
1
100
AcDbSymbolTableRecord
100
AcDbBlockTableRecord
  2
*D74
340
0
  0
BLOCK_RECORD
  5
592F
330
1
100
AcDbSymbolTableRecord
100
AcDbBlockTableRecord
  2
*D75
340
0
  0
BLOCK_RECORD
  5
593D
330
1
100
AcDbSymbolTableRecord
100
AcDbBlockTableRecord
  2
*D76
340
0
  0
BLOCK_RECORD
  5
594B
330
1
100
AcDbSymbolTableRecord
100
AcDbBlockTableRecord
  2
*D77
340
0
  0
BLOCK_RECORD
  5
5959
330
1
100
AcDbSymbolTableRecord
100
AcDbBlockTableRecord
  2
*D78
340
0
  0
BLOCK_RECORD
  5
5965
330
1
100
AcDbSymbolTableRecord
100
AcDbBlockTableRecord
  2
*D79
340
0
  0
BLOCK_RECORD
  5
5973
330
1
100
AcDbSymbolTableRecord
100
AcDbBlockTableRecord
  2
*D80
340
0
  0
BLOCK_RECORD
  5
5981
330
1
100
AcDbSymbolTableRecord
100
AcDbBlockTableRecord
  2
*D81
340
0
  0
BLOCK_RECORD
  5
598D
330
1
100
AcDbSymbolTableRecord
100
AcDbBlockTableRecord
  2
*D82
340
0
  0
BLOCK_RECORD
  5
5999
330
1
100
AcDbSymbolTableRecord
100
AcDbBlockTableRecord
  2
*D83
340
0
  0
BLOCK_RECORD
  5
59A7
330
1
100
AcDbSymbolTableRecord
100
AcDbBlockTableRecord
  2
*D84
340
0
  0
BLOCK_RECORD
  5
59B3
330
1
100
AcDbSymbolTableRecord
100
AcDbBlockTableRecord
  2
*D85
340
0
  0
BLOCK_RECORD
  5
59BF
330
1
100
AcDbSymbolTableRecord
100
AcDbBlockTableRecord
  2
*D86
340
0
  0
BLOCK_RECORD
  5
59CB
330
1
100
AcDbSymbolTableRecord
100
AcDbBlockTableRecord
  2
*D87
340
0
  0
BLOCK_RECORD
  5
59D7
330
1
100
AcDbSymbolTableRecord
100
AcDbBlockTableRecord
  2
*D88
340
0
  0
BLOCK_RECORD
  5
59E5
330
1
100
AcDbSymbolTableRecord
100
AcDbBlockTableRecord
  2
*D89
340
0
  0
BLOCK_RECORD
  5
59F1
330
1
100
AcDbSymbolTableRecord
100
AcDbBlockTableRecord
  2
*D90
340
0
  0
BLOCK_RECORD
  5
59FD
330
1
100
AcDbSymbolTableRecord
100
AcDbBlockTableRecord
  2
*D91
340
0
  0
BLOCK_RECORD
  5
5A09
330
1
100
AcDbSymbolTableRecord
100
AcDbBlockTableRecord
  2
*D92
340
0
  0
BLOCK_RECORD
  5
5A17
330
1
100
AcDbSymbolTableRecord
100
AcDbBlockTableRecord
  2
*D93
340
0
  0
ENDTAB
  0
ENDSEC
  0
SECTION
  2
BLOCKS
  0
BLOCK
  5
2D
330
17
100
AcDbEntity
  8
0
100
AcDbBlockBegin
  2
*MODEL_SPACE
 70
     0
 10
0.0
 20
0.0
 30
0.0
  3
*MODEL_SPACE
  1

  0
ENDBLK
  5
2E
330
17
100
AcDbEntity
  8
0
100
AcDbBlockEnd
  0
BLOCK
  5
2B
330
14
100
AcDbEntity
 67
     1
  8
0
100
AcDbBlockBegin
  2
*PAPER_SPACE
 70
     0
 10
0.0
 20
0.0
 30
0.0
  3
*PAPER_SPACE
  1

  0
ENDBLK
  5
2C
330
14
100
AcDbEntity
 67
     1
  8
0
100
AcDbBlockEnd
  0
BLOCK
  5
2F
330
1C
100
AcDbEntity
  8
0
100
AcDbBlockBegin
  2
BORDER
 70
     0
 10
0.0
 20
0.0
 30
0.0
  3
BORDER
  1

  0
LINE
  5
30
330
1C
100
AcDbEntity
  8
0
100
AcDbLine
 10
0.0
 20
0.0
 30
0.0
 11
1.00000000000004
 21
0.0
 31
0.0
  0
LINE
  5
31
330
1C
100
AcDbEntity
  8
0
100
AcDbLine
 10
1.00000000000004
 20
0.0
 30
0.0
 11
1.00000000000004
 21
1.00000000000004
 31
0.0
  0
LINE
  5
32
330
1C
100
AcDbEntity
  8
0
100
AcDbLine
 10
1.00000000000004
 20
1.00000000000004
 30
0.0
 11
0.0
 21
1.00000000000004
 31
0.0
  0
LINE
  5
33
330
1C
100
AcDbEntity
  8
0
100
AcDbLine
 10
0.0
 20
1.00000000000004
 30
0.0
 11
0.0
 21
0.0
 31
0.0
  0
ENDBLK
  5
34
330
1C
100
AcDbEntity
  8
0
100
AcDbBlockEnd
  0
BLOCK
  5
21F4
330
21EA
100
AcDbEntity
  8
0
100
AcDbBlockBegin
  2
*D12
 70
     1
 10
0.0
 20
0.0
 30
0.0
  3
*D12
  1

  0
LINE
  5
21EB
330
21EA
100
AcDbEntity
  8
0
  6
ByBlock
 62
     0
100
AcDbLine
 10
6564.192391743127
 20
7615.900034397575
 30
0.0
 11
6564.192391743127
 21
7965.900034397575
 31
0.0
  0
LINE
  5
21EC
330
21EA
100
AcDbEntity
  8
0
  6
ByBlock
 62
     0
100
AcDbLine
 10
6864.192391743127
 20
7615.900034397575
 30
0.0
 11
6864.192391743127
 21
7965.900034397575
 31
0.0
  0
LINE
  5
21ED
330
21EA
100
AcDbEntity
  8
0
  6
ByBlock
 62
     0
100
AcDbLine
 10
6639.192391743127
 20
7915.900034397575
 30
0.0
 11
6789.192391743127
 21
7915.900034397575
 31
0.0
  0
MTEXT
  5
21EE
330
21EA
100
AcDbEntity
  8
0
  6
ByBlock
 62
     0
100
AcDbMText
 10
6724.562080681775
 20
8029.906098701125
 30
0.0
 40
125.0
 41
0.0
 71
     5
 72
     1
  1
\A1;300
 73
     1
 44
1.0
  0
SOLID
  5
21EF
330
21EA
100
AcDbEntity
  8
0
  6
ByBlock
 62
     0
100
AcDbTrace
 10
6639.192391743127
 20
7928.400034397575
 30
0.0
 11
6639.192391743127
 21
7903.400034397575
 31
0.0
 12
6564.192391743127
 22
7915.900034397575
 32
0.0
 13
6564.192391743127
 23
7915.900034397575
 33
0.0
  0
SOLID
  5
21F0
330
21EA
100
AcDbEntity
  8
0
  6
ByBlock
 62
     0
100
AcDbTrace
 10
6789.192391743127
 20
7928.400034397575
 30
0.0
 11
6789.192391743127
 21
7903.400034397575
 31
0.0
 12
6864.192391743127
 22
7915.900034397575
 32
0.0
 13
6864.192391743127
 23
7915.900034397575
 33
0.0
  0
POINT
  5
21F1
330
21EA
100
AcDbEntity
  8
DEFPOINTS
  6
ByBlock
 62
     0
100
AcDbPoint
 10
6564.192391743127
 20
7515.900034397575
 30
0.0
  0
POINT
  5
21F2
330
21EA
100
AcDbEntity
  8
DEFPOINTS
  6
ByBlock
 62
     0
100
AcDbPoint
 10
6864.192391743127
 20
7515.900034397575
 30
0.0
  0
POINT
  5
21F3
330
21EA
100
AcDbEntity
  8
DEFPOINTS
  6
ByBlock
 62
     0
100
AcDbPoint
 10
6864.192391743127
 20
7915.900034397575
 30
0.0
  0
ENDBLK
  5
21F5
330
21EA
100
AcDbEntity
  8
0
100
AcDbBlockEnd
  0
BLOCK
  5
2203
330
21F6
100
AcDbEntity
  8
0
100
AcDbBlockBegin
  2
*D13
 70
     1
 10
0.0
 20
0.0
 30
0.0
  3
*D13
  1

  0
LINE
  5
21F7
330
21F6
100
AcDbEntity
  8
0
  6
ByBlock
 62
     0
100
AcDbLine
 10
6864.192391743127
 20
7615.900034397575
 30
0.0
 11
6864.192391743127
 21
7965.900034397575
 31
0.0
  0
LINE
  5
21F8
330
21F6
100
AcDbEntity
  8
0
  6
ByBlock
 62
     0
100
AcDbLine
 10
6999.192391743127
 20
7615.900034397575
 30
0.0
 11
6999.192391743127
 21
7965.900034397575
 31
0.0
  0
LINE
  5
21F9
330
21F6
100
AcDbEntity
  8
0
  6
ByBlock
 62
     0
100
AcDbLine
 10
6789.192391743127
 20
7915.900034397575
 30
0.0
 11
6714.192391743127
 21
7915.900034397575
 31
0.0
  0
LINE
  5
21FA
330
21F6
100
AcDbEntity
  8
0
  6
ByBlock
 62
     0
100
AcDbLine
 10
7074.192391743127
 20
7915.900034397575
 30
0.0
 11
7149.192391743127
 21
7915.900034397575
 31
0.0
  0
MTEXT
  5
21FB
330
21F6
100
AcDbEntity
  8
0
  6
ByBlock
 62
     0
100
AcDbMText
 10
7178.861076415109
 20
8022.921399947962
 30
0.0
 40
125.0
 41
0.0
 71
     5
 72
     1
  1
\A1;135
 73
     1
 44
1.0
  0
LINE
  5
21FC
330
21F6
100
AcDbEntity
  8
0
  6
ByBlock
 62
     0
100
AcDbLine
 10
6864.192391743127
 20
7915.900034397575
 30
0.0
 11
6999.192391743127
 21
7915.900034397575
 31
0.0
  0
LINE
  5
21FD
330
21F6
100
AcDbEntity
  8
0
  6
ByBlock
 62
     0
100
AcDbLine
 10
6864.192391743127
 20
7915.900034397575
 30
0.0
 11
6999.192391743127
 21
7915.900034397575
 31
0.0
  0
SOLID
  5
21FE
330
21F6
100
AcDbEntity
  8
0
  6
ByBlock
 62
     0
100
AcDbTrace
 10
6789.192391743127
 20
7928.400034397575
 30
0.0
 11
6789.192391743127
 21
7903.400034397575
 31
0.0
 12
6864.192391743127
 22
7915.900034397575
 32
0.0
 13
6864.192391743127
 23
7915.900034397575
 33
0.0
  0
SOLID
  5
21FF
330
21F6
100
AcDbEntity
  8
0
  6
ByBlock
 62
     0
100
AcDbTrace
 10
7074.192391743127
 20
7928.400034397575
 30
0.0
 11
7074.192391743127
 21
7903.400034397575
 31
0.0
 12
6999.192391743127
 22
7915.900034397575
 32
0.0
 13
6999.192391743127
 23
7915.900034397575
 33
0.0
  0
POINT
  5
2200
330
21F6
100
AcDbEntity
  8
DEFPOINTS
  6
ByBlock
 62
     0
100
AcDbPoint
 10
6864.192391743127
 20
7515.900034397575
 30
0.0
  0
POINT
  5
2201
330
21F6
100
AcDbEntity
  8
DEFPOINTS
  6
ByBlock
 62
     0
100
AcDbPoint
 10
6999.192391743127
 20
7515.900034397575
 30
0.0
  0
POINT
  5
2202
330
21F6
100
AcDbEntity
  8
DEFPOINTS
  6
ByBlock
 62
     0
100
AcDbPoint
 10
6999.192391743127
 20
7915.900034397575
 30
0.0
  0
ENDBLK
  5
2204
330
21F6
100
AcDbEntity
  8
0
100
AcDbBlockEnd
  0
BLOCK
  5
2212
330
2205
100
AcDbEntity
  8
0
100
AcDbBlockBegin
  2
*D14
 70
     1
 10
0.0
 20
0.0
 30
0.0
  3
*D14
  1

  0
LINE
  5
2206
330
2205
100
AcDbEntity
  8
0
  6
ByBlock
 62
     0
100
AcDbLine
 10
6429.192391743127
 20
7615.900034397575
 30
0.0
 11
6429.192391743127
 21
7965.900034397575
 31
0.0
  0
LINE
  5
2207
330
2205
100
AcDbEntity
  8
0
  6
ByBlock
 62
     0
100
AcDbLine
 10
6564.192391743127
 20
7615.900034397575
 30
0.0
 11
6564.192391743127
 21
7965.900034397575
 31
0.0
  0
LINE
  5
2208
330
2205
100
AcDbEntity
  8
0
  6
ByBlock
 62
     0
100
AcDbLine
 10
6354.192391743127
 20
7915.900034397575
 30
0.0
 11
6279.192391743127
 21
7915.900034397575
 31
0.0
  0
LINE
  5
2209
330
2205
100
AcDbEntity
  8
0
  6
ByBlock
 62
     0
100
AcDbLine
 10
6639.192391743127
 20
7915.900034397575
 30
0.0
 11
6714.192391743127
 21
7915.900034397575
 31
0.0
  0
MTEXT
  5
220A
330
2205
100
AcDbEntity
  8
0
  6
ByBlock
 62
     0
100
AcDbMText
 10
6256.284603211898
 20
8029.906098701125
 30
0.0
 40
125.0
 41
0.0
 71
     5
 72
     1
  1
\A1;135
 73
     1
 44
1.0
  0
LINE
  5
220B
330
2205
100
AcDbEntity
  8
0
  6
ByBlock
 62
     0
100
AcDbLine
 10
6429.192391743127
 20
7915.900034397575
 30
0.0
 11
6564.192391743127
 21
7915.900034397575
 31
0.0
  0
LINE
  5
220C
330
2205
100
AcDbEntity
  8
0
  6
ByBlock
 62
     0
100
AcDbLine
 10
6429.192391743127
 20
7915.900034397575
 30
0.0
 11
6564.192391743127
 21
7915.900034397575
 31
0.0
  0
SOLID
  5
220D
330
2205
100
AcDbEntity
  8
0
  6
ByBlock
 62
     0
100
AcDbTrace
 10
6354.192391743127
 20
7928.400034397575
 30
0.0
 11
6354.192391743127
 21
7903.400034397575
 31
0.0
 12
6429.192391743127
 22
7915.900034397575
 32
0.0
 13
6429.192391743127
 23
7915.900034397575
 33
0.0
  0
SOLID
  5
220E
330
2205
100
AcDbEntity
  8
0
  6
ByBlock
 62
     0
100
AcDbTrace
 10
6639.192391743127
 20
7928.400034397575
 30
0.0
 11
6639.192391743127
 21
7903.400034397575
 31
0.0
 12
6564.192391743127
 22
7915.900034397575
 32
0.0
 13
6564.192391743127
 23
7915.900034397575
 33
0.0
  0
POINT
  5
220F
330
2205
100
AcDbEntity
  8
DEFPOINTS
  6
ByBlock
 62
     0
100
AcDbPoint
 10
6429.192391743127
 20
7515.900034397575
 30
0.0
  0
POINT
  5
2210
330
2205
100
AcDbEntity
  8
DEFPOINTS
  6
ByBlock
 62
     0
100
AcDbPoint
 10
6564.192391743127
 20
7515.900034397575
 30
0.0
  0
POINT
  5
2211
330
2205
100
AcDbEntity
  8
DEFPOINTS
  6
ByBlock
 62
     0
100
AcDbPoint
 10
6564.192391743127
 20
7915.900034397575
 30
0.0
  0
ENDBLK
  5
2213
330
2205
100
AcDbEntity
  8
0
100
AcDbBlockEnd
  0
BLOCK
  5
221E
330
2214
100
AcDbEntity
  8
0
100
AcDbBlockBegin
  2
*D15
 70
     1
 10
0.0
 20
0.0
 30
0.0
  3
*D15
  1

  0
LINE
  5
2215
330
2214
100
AcDbEntity
  8
0
  6
ByBlock
 62
     0
100
AcDbLine
 10
6184.192391743127
 20
7235.900034397575
 30
0.0
 11
5734.192391743127
 21
7235.900034397575
 31
0.0
  0
LINE
  5
2216
330
2214
100
AcDbEntity
  8
0
  6
ByBlock
 62
     0
100
AcDbLine
 10
6184.192391743127
 20
6935.900034397575
 30
0.0
 11
5734.192391743127
 21
6935.900034397575
 31
0.0
  0
LINE
  5
2217
330
2214
100
AcDbEntity
  8
0
  6
ByBlock
 62
     0
100
AcDbLine
 10
5784.192391743127
 20
7160.900034397575
 30
0.0
 11
5784.192391743127
 21
7010.900034397575
 31
0.0
  0
MTEXT
  5
2218
330
2214
100
AcDbEntity
  8
0
  6
ByBlock
 62
     0
100
AcDbMText
 10
5676.179746336624
 20
7090.632783653491
 30
0.0
 40
125.0
 41
0.0
 71
     5
 72
     1
  1
\A1;300
 11
6.123031769111886E-17
 21
1.0
 31
0.0
 73
     1
 44
1.0
  0
SOLID
  5
2219
330
2214
100
AcDbEntity
  8
0
  6
ByBlock
 62
     0
100
AcDbTrace
 10
5771.692391743127
 20
7160.900034397575
 30
0.0
 11
5796.692391743127
 21
7160.900034397575
 31
0.0
 12
5784.192391743127
 22
7235.900034397575
 32
0.0
 13
5784.192391743127
 23
7235.900034397575
 33
0.0
  0
SOLID
  5
221A
330
2214
100
AcDbEntity
  8
0
  6
ByBlock
 62
     0
100
AcDbTrace
 10
5771.692391743127
 20
7010.900034397575
 30
0.0
 11
5796.692391743127
 21
7010.900034397575
 31
0.0
 12
5784.192391743127
 22
6935.900034397575
 32
0.0
 13
5784.192391743127
 23
6935.900034397575
 33
0.0
  0
POINT
  5
221B
330
2214
100
AcDbEntity
  8
DEFPOINTS
  6
ByBlock
 62
     0
100
AcDbPoint
 10
6284.192391743127
 20
7235.900034397575
 30
0.0
  0
POINT
  5
221C
330
2214
100
AcDbEntity
  8
DEFPOINTS
  6
ByBlock
 62
     0
100
AcDbPoint
 10
6284.192391743127
 20
6935.900034397575
 30
0.0
  0
POINT
  5
221D
330
2214
100
AcDbEntity
  8
DEFPOINTS
  6
ByBlock
 62
     0
100
AcDbPoint
 10
5784.192391743127
 20
6935.900034397575
 30
0.0
  0
ENDBLK
  5
221F
330
2214
100
AcDbEntity
  8
0
100
AcDbBlockEnd
  0
BLOCK
  5
222D
330
2220
100
AcDbEntity
  8
0
100
AcDbBlockBegin
  2
*D16
 70
     1
 10
0.0
 20
0.0
 30
0.0
  3
*D16
  1

  0
LINE
  5
2221
330
2220
100
AcDbEntity
  8
0
  6
ByBlock
 62
     0
100
AcDbLine
 10
6184.192391743128
 20
7370.900034397575
 30
0.0
 11
5734.192391743128
 21
7370.900034397575
 31
0.0
  0
LINE
  5
2222
330
2220
100
AcDbEntity
  8
0
  6
ByBlock
 62
     0
100
AcDbLine
 10
6184.192391743128
 20
7235.900034397574
 30
0.0
 11
5734.192391743128
 21
7235.900034397574
 31
0.0
  0
LINE
  5
2223
330
2220
100
AcDbEntity
  8
0
  6
ByBlock
 62
     0
100
AcDbLine
 10
5784.192391743129
 20
7445.900034397575
 30
0.0
 11
5784.192391743129
 21
7520.900034397575
 31
0.0
  0
LINE
  5
2224
330
2220
100
AcDbEntity
  8
0
  6
ByBlock
 62
     0
100
AcDbLine
 10
5784.192391743128
 20
7160.900034397574
 30
0.0
 11
5784.192391743128
 21
7085.900034397574
 31
0.0
  0
MTEXT
  5
2225
330
2220
100
AcDbEntity
  8
0
  6
ByBlock
 62
     0
100
AcDbMText
 10
5676.179746336624
 20
7544.639531601002
 30
0.0
 40
125.0
 41
0.0
 71
     5
 72
     1
  1
\A1;135
 11
6.123031769111886E-17
 21
1.0
 31
0.0
 73
     1
 44
1.0
  0
LINE
  5
2226
330
2220
100
AcDbEntity
  8
0
  6
ByBlock
 62
     0
100
AcDbLine
 10
5784.192391743128
 20
7370.900034397575
 30
0.0
 11
5784.192391743128
 21
7235.900034397574
 31
0.0
  0
LINE
  5
2227
330
2220
100
AcDbEntity
  8
0
  6
ByBlock
 62
     0
100
AcDbLine
 10
5784.192391743128
 20
7370.900034397575
 30
0.0
 11
5784.192391743128
 21
7235.900034397574
 31
0.0
  0
SOLID
  5
2228
330
2220
100
AcDbEntity
  8
0
  6
ByBlock
 62
     0
100
AcDbTrace
 10
5771.692391743128
 20
7445.900034397575
 30
0.0
 11
5796.692391743128
 21
7445.900034397575
 31
0.0
 12
5784.192391743128
 22
7370.900034397575
 32
0.0
 13
5784.192391743128
 23
7370.900034397575
 33
0.0
  0
SOLID
  5
2229
330
2220
100
AcDbEntity
  8
0
  6
ByBlock
 62
     0
100
AcDbTrace
 10
5771.692391743128
 20
7160.900034397574
 30
0.0
 11
5796.692391743128
 21
7160.900034397574
 31
0.0
 12
5784.192391743128
 22
7235.900034397574
 32
0.0
 13
5784.192391743128
 23
7235.900034397574
 33
0.0
  0
POINT
  5
222A
330
2220
100
AcDbEntity
  8
DEFPOINTS
  6
ByBlock
 62
     0
100
AcDbPoint
 10
6284.192391743128
 20
7370.900034397575
 30
0.0
  0
POINT
  5
222B
330
2220
100
AcDbEntity
  8
DEFPOINTS
  6
ByBlock
 62
     0
100
AcDbPoint
 10
6284.192391743128
 20
7235.900034397574
 30
0.0
  0
POINT
  5
222C
330
2220
100
AcDbEntity
  8
DEFPOINTS
  6
ByBlock
 62
     0
100
AcDbPoint
 10
5784.192391743128
 20
7235.900034397574
 30
0.0
  0
ENDBLK
  5
222E
330
2220
100
AcDbEntity
  8
0
100
AcDbBlockEnd
  0
BLOCK
  5
223C
330
222F
100
AcDbEntity
  8
0
100
AcDbBlockBegin
  2
*D17
 70
     1
 10
0.0
 20
0.0
 30
0.0
  3
*D17
  1

  0
LINE
  5
2230
330
222F
100
AcDbEntity
  8
0
  6
ByBlock
 62
     0
100
AcDbLine
 10
6184.192391743127
 20
6935.900034397574
 30
0.0
 11
5734.192391743127
 21
6935.900034397574
 31
0.0
  0
LINE
  5
2231
330
222F
100
AcDbEntity
  8
0
  6
ByBlock
 62
     0
100
AcDbLine
 10
6184.192391743127
 20
6800.900034397575
 30
0.0
 11
5734.192391743127
 21
6800.900034397575
 31
0.0
  0
LINE
  5
2232
330
222F
100
AcDbEntity
  8
0
  6
ByBlock
 62
     0
100
AcDbLine
 10
5784.192391743127
 20
7010.900034397574
 30
0.0
 11
5784.192391743127
 21
7085.900034397574
 31
0.0
  0
LINE
  5
2233
330
222F
100
AcDbEntity
  8
0
  6
ByBlock
 62
     0
100
AcDbLine
 10
5784.192391743127
 20
6725.900034397575
 30
0.0
 11
5784.192391743127
 21
6650.900034397575
 31
0.0
  0
MTEXT
  5
2234
330
222F
100
AcDbEntity
  8
0
  6
ByBlock
 62
     0
100
AcDbMText
 10
5690.158228073167
 20
6643.610734459151
 30
0.0
 40
125.0
 41
0.0
 71
     5
 72
     1
  1
\A1;135
 11
6.123031769111886E-17
 21
1.0
 31
0.0
 73
     1
 44
1.0
  0
LINE
  5
2235
330
222F
100
AcDbEntity
  8
0
  6
ByBlock
 62
     0
100
AcDbLine
 10
5784.192391743127
 20
6935.900034397574
 30
0.0
 11
5784.192391743127
 21
6800.900034397575
 31
0.0
  0
LINE
  5
2236
330
222F
100
AcDbEntity
  8
0
  6
ByBlock
 62
     0
100
AcDbLine
 10
5784.192391743127
 20
6935.900034397574
 30
0.0
 11
5784.192391743127
 21
6800.900034397575
 31
0.0
  0
SOLID
  5
2237
330
222F
100
AcDbEntity
  8
0
  6
ByBlock
 62
     0
100
AcDbTrace
 10
5771.692391743127
 20
7010.900034397574
 30
0.0
 11
5796.692391743127
 21
7010.900034397574
 31
0.0
 12
5784.192391743127
 22
6935.900034397574
 32
0.0
 13
5784.192391743127
 23
6935.900034397574
 33
0.0
  0
SOLID
  5
2238
330
222F
100
AcDbEntity
  8
0
  6
ByBlock
 62
     0
100
AcDbTrace
 10
5771.692391743127
 20
6725.900034397575
 30
0.0
 11
5796.692391743127
 21
6725.900034397575
 31
0.0
 12
5784.192391743127
 22
6800.900034397575
 32
0.0
 13
5784.192391743127
 23
6800.900034397575
 33
0.0
  0
POINT
  5
2239
330
222F
100
AcDbEntity
  8
DEFPOINTS
  6
ByBlock
 62
     0
100
AcDbPoint
 10
6284.192391743127
 20
6935.900034397574
 30
0.0
  0
POINT
  5
223A
330
222F
100
AcDbEntity
  8
DEFPOINTS
  6
ByBlock
 62
     0
100
AcDbPoint
 10
6284.192391743127
 20
6800.900034397575
 30
0.0
  0
POINT
  5
223B
330
222F
100
AcDbEntity
  8
DEFPOINTS
  6
ByBlock
 62
     0
100
AcDbPoint
 10
5784.192391743127
 20
6800.900034397575
 30
0.0
  0
ENDBLK
  5
223D
330
222F
100
AcDbEntity
  8
0
100
AcDbBlockEnd
  0
BLOCK
  5
224B
330
223E
100
AcDbEntity
  8
0
100
AcDbBlockBegin
  2
*D18
 70
     1
 10
0.0
 20
0.0
 30
0.0
  3
*D18
  1

  0
LINE
  5
223F
330
223E
100
AcDbEntity
  8
0
  6
ByBlock
 62
     0
100
AcDbLine
 10
6319.192391743127
 20
6555.900034397575
 30
0.0
 11
6319.192391743127
 21
5855.900034397575
 31
0.0
  0
LINE
  5
2240
330
223E
100
AcDbEntity
  8
0
  6
ByBlock
 62
     0
100
AcDbLine
 10
6379.192391743127
 20
6555.900034397575
 30
0.0
 11
6379.192391743127
 21
5855.900034397575
 31
0.0
  0
LINE
  5
2241
330
223E
100
AcDbEntity
  8
0
  6
ByBlock
 62
     0
100
AcDbLine
 10
6244.192391743127
 20
5905.900034397575
 30
0.0
 11
6169.192391743127
 21
5905.900034397575
 31
0.0
  0
LINE
  5
2242
330
223E
100
AcDbEntity
  8
0
  6
ByBlock
 62
     0
100
AcDbLine
 10
6454.192391743127
 20
5905.900034397575
 30
0.0
 11
6529.192391743127
 21
5905.900034397575
 31
0.0
  0
MTEXT
  5
2243
330
223E
100
AcDbEntity
  8
0
  6
ByBlock
 62
     0
100
AcDbMText
 10
6344.161966909945
 20
6012.867741960712
 30
0.0
 40
125.0
 41
0.0
 71
     5
 72
     1
  1
\A1;60
 73
     1
 44
1.0
  0
LINE
  5
2244
330
223E
100
AcDbEntity
  8
0
  6
ByBlock
 62
     0
100
AcDbLine
 10
6319.192391743127
 20
5905.900034397575
 30
0.0
 11
6379.192391743127
 21
5905.900034397575
 31
0.0
  0
LINE
  5
2245
330
223E
100
AcDbEntity
  8
0
  6
ByBlock
 62
     0
100
AcDbLine
 10
6319.192391743127
 20
5905.900034397575
 30
0.0
 11
6379.192391743127
 21
5905.900034397575
 31
0.0
  0
SOLID
  5
2246
330
223E
100
AcDbEntity
  8
0
  6
ByBlock
 62
     0
100
AcDbTrace
 10
6244.192391743127
 20
5918.400034397575
 30
0.0
 11
6244.192391743127
 21
5893.400034397575
 31
0.0
 12
6319.192391743127
 22
5905.900034397575
 32
0.0
 13
6319.192391743127
 23
5905.900034397575
 33
0.0
  0
SOLID
  5
2247
330
223E
100
AcDbEntity
  8
0
  6
ByBlock
 62
     0
100
AcDbTrace
 10
6454.192391743127
 20
5918.400034397575
 30
0.0
 11
6454.192391743127
 21
5893.400034397575
 31
0.0
 12
6379.192391743127
 22
5905.900034397575
 32
0.0
 13
6379.192391743127
 23
5905.900034397575
 33
0.0
  0
POINT
  5
2248
330
223E
100
AcDbEntity
  8
DEFPOINTS
  6
ByBlock
 62
     0
100
AcDbPoint
 10
6319.192391743127
 20
6655.900034397575
 30
0.0
  0
POINT
  5
2249
330
223E
100
AcDbEntity
  8
DEFPOINTS
  6
ByBlock
 62
     0
100
AcDbPoint
 10
6379.192391743127
 20
6655.900034397575
 30
0.0
  0
POINT
  5
224A
330
223E
100
AcDbEntity
  8
DEFPOINTS
  6
ByBlock
 62
     0
100
AcDbPoint
 10
6379.192391743127
 20
5905.900034397575
 30
0.0
  0
ENDBLK
  5
224C
330
223E
100
AcDbEntity
  8
0
100
AcDbBlockEnd
  0
BLOCK
  5
225A
330
224D
100
AcDbEntity
  8
0
100
AcDbBlockBegin
  2
*D19
 70
     1
 10
0.0
 20
0.0
 30
0.0
  3
*D19
  1

  0
LINE
  5
224E
330
224D
100
AcDbEntity
  8
0
  6
ByBlock
 62
     0
100
AcDbLine
 10
7049.192391743127
 20
6555.900034397575
 30
0.0
 11
7049.192391743127
 21
5855.900034397575
 31
0.0
  0
LINE
  5
224F
330
224D
100
AcDbEntity
  8
0
  6
ByBlock
 62
     0
100
AcDbLine
 10
7109.192391743127
 20
6555.900034397575
 30
0.0
 11
7109.192391743127
 21
5855.900034397575
 31
0.0
  0
LINE
  5
2250
330
224D
100
AcDbEntity
  8
0
  6
ByBlock
 62
     0
100
AcDbLine
 10
6974.192391743127
 20
5905.900034397575
 30
0.0
 11
6899.192391743127
 21
5905.900034397575
 31
0.0
  0
LINE
  5
2251
330
224D
100
AcDbEntity
  8
0
  6
ByBlock
 62
     0
100
AcDbLine
 10
7184.192391743127
 20
5905.900034397575
 30
0.0
 11
7259.192391743127
 21
5905.900034397575
 31
0.0
  0
MTEXT
  5
2252
330
224D
100
AcDbEntity
  8
0
  6
ByBlock
 62
     0
100
AcDbMText
 10
7083.67927013876
 20
6008.190233751724
 30
0.0
 40
125.0
 41
0.0
 71
     5
 72
     1
  1
\A1;60
 73
     1
 44
1.0
  0
LINE
  5
2253
330
224D
100
AcDbEntity
  8
0
  6
ByBlock
 62
     0
100
AcDbLine
 10
7049.192391743127
 20
5905.900034397575
 30
0.0
 11
7109.192391743127
 21
5905.900034397575
 31
0.0
  0
LINE
  5
2254
330
224D
100
AcDbEntity
  8
0
  6
ByBlock
 62
     0
100
AcDbLine
 10
7049.192391743127
 20
5905.900034397575
 30
0.0
 11
7109.192391743127
 21
5905.900034397575
 31
0.0
  0
SOLID
  5
2255
330
224D
100
AcDbEntity
  8
0
  6
ByBlock
 62
     0
100
AcDbTrace
 10
6974.192391743127
 20
5918.400034397575
 30
0.0
 11
6974.192391743127
 21
5893.400034397575
 31
0.0
 12
7049.192391743127
 22
5905.900034397575
 32
0.0
 13
7049.192391743127
 23
5905.900034397575
 33
0.0
  0
SOLID
  5
2256
330
224D
100
AcDbEntity
  8
0
  6
ByBlock
 62
     0
100
AcDbTrace
 10
7184.192391743127
 20
5918.400034397575
 30
0.0
 11
7184.192391743127
 21
5893.400034397575
 31
0.0
 12
7109.192391743127
 22
5905.900034397575
 32
0.0
 13
7109.192391743127
 23
5905.900034397575
 33
0.0
  0
POINT
  5
2257
330
224D
100
AcDbEntity
  8
DEFPOINTS
  6
ByBlock
 62
     0
100
AcDbPoint
 10
7049.192391743127
 20
6655.900034397575
 30
0.0
  0
POINT
  5
2258
330
224D
100
AcDbEntity
  8
DEFPOINTS
  6
ByBlock
 62
     0
100
AcDbPoint
 10
7109.192391743127
 20
6655.900034397575
 30
0.0
  0
POINT
  5
2259
330
224D
100
AcDbEntity
  8
DEFPOINTS
  6
ByBlock
 62
     0
100
AcDbPoint
 10
7109.192391743127
 20
5905.900034397575
 30
0.0
  0
ENDBLK
  5
225B
330
224D
100
AcDbEntity
  8
0
100
AcDbBlockEnd
  0
BLOCK
  5
2269
330
225C
100
AcDbEntity
  8
0
100
AcDbBlockBegin
  2
*D20
 70
     1
 10
0.0
 20
0.0
 30
0.0
  3
*D20
  1

  0
LINE
  5
225D
330
225C
100
AcDbEntity
  8
0
  6
ByBlock
 62
     0
100
AcDbLine
 10
7109.192391743127
 20
6555.900034397575
 30
0.0
 11
7109.192391743127
 21
5855.900034397575
 31
0.0
  0
LINE
  5
225E
330
225C
100
AcDbEntity
  8
0
  6
ByBlock
 62
     0
100
AcDbLine
 10
7144.192391743127
 20
6555.900034397575
 30
0.0
 11
7144.192391743127
 21
5855.900034397575
 31
0.0
  0
LINE
  5
225F
330
225C
100
AcDbEntity
  8
0
  6
ByBlock
 62
     0
100
AcDbLine
 10
7034.192391743127
 20
5905.900034397575
 30
0.0
 11
6959.192391743127
 21
5905.900034397575
 31
0.0
  0
LINE
  5
2260
330
225C
100
AcDbEntity
  8
0
  6
ByBlock
 62
     0
100
AcDbLine
 10
7219.192391743127
 20
5905.900034397575
 30
0.0
 11
7294.192391743127
 21
5905.900034397575
 31
0.0
  0
MTEXT
  5
2261
330
225C
100
AcDbEntity
  8
0
  6
ByBlock
 62
     0
100
AcDbMText
 10
7348.127004375361
 20
6008.190233751724
 30
0.0
 40
125.0
 41
0.0
 71
     5
 72
     1
  1
\A1;35
 73
     1
 44
1.0
  0
LINE
  5
2262
330
225C
100
AcDbEntity
  8
0
  6
ByBlock
 62
     0
100
AcDbLine
 10
7109.192391743127
 20
5905.900034397575
 30
0.0
 11
7144.192391743127
 21
5905.900034397575
 31
0.0
  0
LINE
  5
2263
330
225C
100
AcDbEntity
  8
0
  6
ByBlock
 62
     0
100
AcDbLine
 10
7109.192391743127
 20
5905.900034397575
 30
0.0
 11
7144.192391743127
 21
5905.900034397575
 31
0.0
  0
SOLID
  5
2264
330
225C
100
AcDbEntity
  8
0
  6
ByBlock
 62
     0
100
AcDbTrace
 10
7034.192391743127
 20
5918.400034397575
 30
0.0
 11
7034.192391743127
 21
5893.400034397575
 31
0.0
 12
7109.192391743127
 22
5905.900034397575
 32
0.0
 13
7109.192391743127
 23
5905.900034397575
 33
0.0
  0
SOLID
  5
2265
330
225C
100
AcDbEntity
  8
0
  6
ByBlock
 62
     0
100
AcDbTrace
 10
7219.192391743127
 20
5918.400034397575
 30
0.0
 11
7219.192391743127
 21
5893.400034397575
 31
0.0
 12
7144.192391743127
 22
5905.900034397575
 32
0.0
 13
7144.192391743127
 23
5905.900034397575
 33
0.0
  0
POINT
  5
2266
330
225C
100
AcDbEntity
  8
DEFPOINTS
  6
ByBlock
 62
     0
100
AcDbPoint
 10
7109.192391743127
 20
6655.900034397575
 30
0.0
  0
POINT
  5
2267
330
225C
100
AcDbEntity
  8
DEFPOINTS
  6
ByBlock
 62
     0
100
AcDbPoint
 10
7144.192391743127
 20
6655.900034397575
 30
0.0
  0
POINT
  5
2268
330
225C
100
AcDbEntity
  8
DEFPOINTS
  6
ByBlock
 62
     0
100
AcDbPoint
 10
7144.192391743127
 20
5905.900034397575
 30
0.0
  0
ENDBLK
  5
226A
330
225C
100
AcDbEntity
  8
0
100
AcDbBlockEnd
  0
BLOCK
  5
2278
330
226B
100
AcDbEntity
  8
0
100
AcDbBlockBegin
  2
*D21
 70
     1
 10
0.0
 20
0.0
 30
0.0
  3
*D21
  1

  0
LINE
  5
226C
330
226B
100
AcDbEntity
  8
0
  6
ByBlock
 62
     0
100
AcDbLine
 10
6284.192391743127
 20
6555.900034397575
 30
0.0
 11
6284.192391743127
 21
5855.900034397575
 31
0.0
  0
LINE
  5
226D
330
226B
100
AcDbEntity
  8
0
  6
ByBlock
 62
     0
100
AcDbLine
 10
6319.192391743127
 20
6555.900034397575
 30
0.0
 11
6319.192391743127
 21
5855.900034397575
 31
0.0
  0
LINE
  5
226E
330
226B
100
AcDbEntity
  8
0
  6
ByBlock
 62
     0
100
AcDbLine
 10
6209.192391743127
 20
5905.900034397575
 30
0.0
 11
6134.192391743127
 21
5905.900034397575
 31
0.0
  0
LINE
  5
226F
330
226B
100
AcDbEntity
  8
0
  6
ByBlock
 62
     0
100
AcDbLine
 10
6394.192391743127
 20
5905.900034397575
 30
0.0
 11
6469.192391743127
 21
5905.900034397575
 31
0.0
  0
MTEXT
  5
2270
330
226B
100
AcDbEntity
  8
0
  6
ByBlock
 62
     0
100
AcDbMText
 10
6091.415556428954
 20
6010.528957651855
 30
0.0
 40
125.0
 41
0.0
 71
     5
 72
     1
  1
\A1;35
 73
     1
 44
1.0
  0
LINE
  5
2271
330
226B
100
AcDbEntity
  8
0
  6
ByBlock
 62
     0
100
AcDbLine
 10
6284.192391743127
 20
5905.900034397575
 30
0.0
 11
6319.192391743127
 21
5905.900034397575
 31
0.0
  0
LINE
  5
2272
330
226B
100
AcDbEntity
  8
0
  6
ByBlock
 62
     0
100
AcDbLine
 10
6284.192391743127
 20
5905.900034397575
 30
0.0
 11
6319.192391743127
 21
5905.900034397575
 31
0.0
  0
SOLID
  5
2273
330
226B
100
AcDbEntity
  8
0
  6
ByBlock
 62
     0
100
AcDbTrace
 10
6209.192391743127
 20
5918.400034397575
 30
0.0
 11
6209.192391743127
 21
5893.400034397575
 31
0.0
 12
6284.192391743127
 22
5905.900034397575
 32
0.0
 13
6284.192391743127
 23
5905.900034397575
 33
0.0
  0
SOLID
  5
2274
330
226B
100
AcDbEntity
  8
0
  6
ByBlock
 62
     0
100
AcDbTrace
 10
6394.192391743127
 20
5918.400034397575
 30
0.0
 11
6394.192391743127
 21
5893.400034397575
 31
0.0
 12
6319.192391743127
 22
5905.900034397575
 32
0.0
 13
6319.192391743127
 23
5905.900034397575
 33
0.0
  0
POINT
  5
2275
330
226B
100
AcDbEntity
  8
DEFPOINTS
  6
ByBlock
 62
     0
100
AcDbPoint
 10
6284.192391743127
 20
6655.900034397575
 30
0.0
  0
POINT
  5
2276
330
226B
100
AcDbEntity
  8
DEFPOINTS
  6
ByBlock
 62
     0
100
AcDbPoint
 10
6319.192391743127
 20
6655.900034397575
 30
0.0
  0
POINT
  5
2277
330
226B
100
AcDbEntity
  8
DEFPOINTS
  6
ByBlock
 62
     0
100
AcDbPoint
 10
6319.192391743127
 20
5905.900034397575
 30
0.0
  0
ENDBLK
  5
2279
330
226B
100
AcDbEntity
  8
0
100
AcDbBlockEnd
  0
BLOCK
  5
2284
330
227A
100
AcDbEntity
  8
0
100
AcDbBlockBegin
  2
*D22
 70
     1
 10
0.0
 20
0.0
 30
0.0
  3
*D22
  1

  0
LINE
  5
227B
330
227A
100
AcDbEntity
  8
0
  6
ByBlock
 62
     0
100
AcDbLine
 10
7144.192391743127
 20
6555.900034397575
 30
0.0
 11
7144.192391743127
 21
5555.900034397575
 31
0.0
  0
LINE
  5
227C
330
227A
100
AcDbEntity
  8
0
  6
ByBlock
 62
     0
100
AcDbLine
 10
6284.192391743127
 20
6555.900034397575
 30
0.0
 11
6284.192391743127
 21
5555.900034397575
 31
0.0
  0
LINE
  5
227D
330
227A
100
AcDbEntity
  8
0
  6
ByBlock
 62
     0
100
AcDbLine
 10
7069.192391743127
 20
5605.900034397575
 30
0.0
 11
6359.192391743127
 21
5605.900034397575
 31
0.0
  0
SOLID
  5
227E
330
227A
100
AcDbEntity
  8
0
  6
ByBlock
 62
     0
100
AcDbTrace
 10
7069.192391743127
 20
5618.400034397575
 30
0.0
 11
7069.192391743127
 21
5593.400034397575
 31
0.0
 12
7144.192391743127
 22
5605.900034397575
 32
0.0
 13
7144.192391743127
 23
5605.900034397575
 33
0.0
  0
SOLID
  5
227F
330
227A
100
AcDbEntity
  8
0
  6
ByBlock
 62
     0
100
AcDbTrace
 10
6359.192391743127
 20
5618.400034397575
 30
0.0
 11
6359.192391743127
 21
5593.400034397575
 31
0.0
 12
6284.192391743127
 22
5605.900034397575
 32
0.0
 13
6284.192391743127
 23
5605.900034397575
 33
0.0
  0
MTEXT
  5
2280
330
227A
100
AcDbEntity
  8
0
  6
ByBlock
 62
     0
100
AcDbMText
 10
6714.192391743127
 20
5718.400034397575
 30
0.0
 40
125.0
 41
0.0
 71
     5
 72
     1
  1
\A1;860
 73
     1
 44
1.0
  0
POINT
  5
2281
330
227A
100
AcDbEntity
  8
DEFPOINTS
  6
ByBlock
 62
     0
100
AcDbPoint
 10
7144.192391743127
 20
6655.900034397575
 30
0.0
  0
POINT
  5
2282
330
227A
100
AcDbEntity
  8
DEFPOINTS
  6
ByBlock
 62
     0
100
AcDbPoint
 10
6284.192391743127
 20
6655.900034397575
 30
0.0
  0
POINT
  5
2283
330
227A
100
AcDbEntity
  8
DEFPOINTS
  6
ByBlock
 62
     0
100
AcDbPoint
 10
6284.192391743127
 20
5605.900034397575
 30
0.0
  0
ENDBLK
  5
2285
330
227A
100
AcDbEntity
  8
0
100
AcDbBlockEnd
  0
BLOCK
  5
2293
330
2286
100
AcDbEntity
  8
0
100
AcDbBlockBegin
  2
*D23
 70
     1
 10
0.0
 20
0.0
 30
0.0
  3
*D23
  1

  0
LINE
  5
2287
330
2286
100
AcDbEntity
  8
0
  6
ByBlock
 62
     0
100
AcDbLine
 10
6379.192391743127
 20
6555.900034397575
 30
0.0
 11
6379.192391743127
 21
5855.900034397575
 31
0.0
  0
LINE
  5
2288
330
2286
100
AcDbEntity
  8
0
  6
ByBlock
 62
     0
100
AcDbLine
 10
6414.192391743127
 20
6555.900034397575
 30
0.0
 11
6414.192391743127
 21
5855.900034397575
 31
0.0
  0
LINE
  5
2289
330
2286
100
AcDbEntity
  8
0
  6
ByBlock
 62
     0
100
AcDbLine
 10
6304.192391743127
 20
5905.900034397575
 30
0.0
 11
6229.192391743127
 21
5905.900034397575
 31
0.0
  0
LINE
  5
228A
330
2286
100
AcDbEntity
  8
0
  6
ByBlock
 62
     0
100
AcDbLine
 10
6489.192391743127
 20
5905.900034397575
 30
0.0
 11
6564.192391743127
 21
5905.900034397575
 31
0.0
  0
MTEXT
  5
228B
330
2286
100
AcDbEntity
  8
0
  6
ByBlock
 62
     0
100
AcDbMText
 10
6594.031448239853
 20
6009.180804246527
 30
0.0
 40
125.0
 41
0.0
 71
     5
 72
     1
  1
\A1;35
 73
     1
 44
1.0
  0
LINE
  5
228C
330
2286
100
AcDbEntity
  8
0
  6
ByBlock
 62
     0
100
AcDbLine
 10
6379.192391743127
 20
5905.900034397575
 30
0.0
 11
6414.192391743127
 21
5905.900034397575
 31
0.0
  0
LINE
  5
228D
330
2286
100
AcDbEntity
  8
0
  6
ByBlock
 62
     0
100
AcDbLine
 10
6379.192391743127
 20
5905.900034397575
 30
0.0
 11
6414.192391743127
 21
5905.900034397575
 31
0.0
  0
SOLID
  5
228E
330
2286
100
AcDbEntity
  8
0
  6
ByBlock
 62
     0
100
AcDbTrace
 10
6304.192391743127
 20
5918.400034397575
 30
0.0
 11
6304.192391743127
 21
5893.400034397575
 31
0.0
 12
6379.192391743127
 22
5905.900034397575
 32
0.0
 13
6379.192391743127
 23
5905.900034397575
 33
0.0
  0
SOLID
  5
228F
330
2286
100
AcDbEntity
  8
0
  6
ByBlock
 62
     0
100
AcDbTrace
 10
6489.192391743127
 20
5918.400034397575
 30
0.0
 11
6489.192391743127
 21
5893.400034397575
 31
0.0
 12
6414.192391743127
 22
5905.900034397575
 32
0.0
 13
6414.192391743127
 23
5905.900034397575
 33
0.0
  0
POINT
  5
2290
330
2286
100
AcDbEntity
  8
DEFPOINTS
  6
ByBlock
 62
     0
100
AcDbPoint
 10
6379.192391743127
 20
6655.900034397575
 30
0.0
  0
POINT
  5
2291
330
2286
100
AcDbEntity
  8
DEFPOINTS
  6
ByBlock
 62
     0
100
AcDbPoint
 10
6414.192391743127
 20
6655.900034397575
 30
0.0
  0
POINT
  5
2292
330
2286
100
AcDbEntity
  8
DEFPOINTS
  6
ByBlock
 62
     0
100
AcDbPoint
 10
6414.192391743127
 20
5905.900034397575
 30
0.0
  0
ENDBLK
  5
2294
330
2286
100
AcDbEntity
  8
0
100
AcDbBlockEnd
  0
BLOCK
  5
22A2
330
2295
100
AcDbEntity
  8
0
100
AcDbBlockBegin
  2
*D24
 70
     1
 10
0.0
 20
0.0
 30
0.0
  3
*D24
  1

  0
LINE
  5
2296
330
2295
100
AcDbEntity
  8
0
  6
ByBlock
 62
     0
100
AcDbLine
 10
7014.192391743127
 20
6555.900034397575
 30
0.0
 11
7014.192391743127
 21
5855.900034397575
 31
0.0
  0
LINE
  5
2297
330
2295
100
AcDbEntity
  8
0
  6
ByBlock
 62
     0
100
AcDbLine
 10
7049.192391743127
 20
6555.900034397575
 30
0.0
 11
7049.192391743127
 21
5855.900034397575
 31
0.0
  0
LINE
  5
2298
330
2295
100
AcDbEntity
  8
0
  6
ByBlock
 62
     0
100
AcDbLine
 10
6939.192391743127
 20
5905.900034397575
 30
0.0
 11
6864.192391743127
 21
5905.900034397575
 31
0.0
  0
LINE
  5
2299
330
2295
100
AcDbEntity
  8
0
  6
ByBlock
 62
     0
100
AcDbLine
 10
7124.192391743127
 20
5905.900034397575
 30
0.0
 11
7199.192391743127
 21
5905.900034397575
 31
0.0
  0
MTEXT
  5
229A
330
2295
100
AcDbEntity
  8
0
  6
ByBlock
 62
     0
100
AcDbMText
 10
6867.722636270002
 20
6009.180804246527
 30
0.0
 40
125.0
 41
0.0
 71
     5
 72
     1
  1
\A1;35
 73
     1
 44
1.0
  0
LINE
  5
229B
330
2295
100
AcDbEntity
  8
0
  6
ByBlock
 62
     0
100
AcDbLine
 10
7014.192391743127
 20
5905.900034397575
 30
0.0
 11
7049.192391743127
 21
5905.900034397575
 31
0.0
  0
LINE
  5
229C
330
2295
100
AcDbEntity
  8
0
  6
ByBlock
 62
     0
100
AcDbLine
 10
7014.192391743127
 20
5905.900034397575
 30
0.0
 11
7049.192391743127
 21
5905.900034397575
 31
0.0
  0
SOLID
  5
229D
330
2295
100
AcDbEntity
  8
0
  6
ByBlock
 62
     0
100
AcDbTrace
 10
6939.192391743127
 20
5918.400034397575
 30
0.0
 11
6939.192391743127
 21
5893.400034397575
 31
0.0
 12
7014.192391743127
 22
5905.900034397575
 32
0.0
 13
7014.192391743127
 23
5905.900034397575
 33
0.0
  0
SOLID
  5
229E
330
2295
100
AcDbEntity
  8
0
  6
ByBlock
 62
     0
100
AcDbTrace
 10
7124.192391743127
 20
5918.400034397575
 30
0.0
 11
7124.192391743127
 21
5893.400034397575
 31
0.0
 12
7049.192391743127
 22
5905.900034397575
 32
0.0
 13
7049.192391743127
 23
5905.900034397575
 33
0.0
  0
POINT
  5
229F
330
2295
100
AcDbEntity
  8
DEFPOINTS
  6
ByBlock
 62
     0
100
AcDbPoint
 10
7014.192391743127
 20
6655.900034397575
 30
0.0
  0
POINT
  5
22A0
330
2295
100
AcDbEntity
  8
DEFPOINTS
  6
ByBlock
 62
     0
100
AcDbPoint
 10
7049.192391743127
 20
6655.900034397575
 30
0.0
  0
POINT
  5
22A1
330
2295
100
AcDbEntity
  8
DEFPOINTS
  6
ByBlock
 62
     0
100
AcDbPoint
 10
7049.192391743127
 20
5905.900034397575
 30
0.0
  0
ENDBLK
  5
22A3
330
2295
100
AcDbEntity
  8
0
100
AcDbBlockEnd
  0
BLOCK
  5
22AE
330
22A4
100
AcDbEntity
  8
0
100
AcDbBlockBegin
  2
*D25
 70
     1
 10
0.0
 20
0.0
 30
0.0
  3
*D25
  1

  0
LINE
  5
22A5
330
22A4
100
AcDbEntity
  8
0
  6
ByBlock
 62
     0
100
AcDbLine
 10
7244.192391743127
 20
7515.900034397575
 30
0.0
 11
8244.192391743127
 21
7515.900034397574
 31
0.0
  0
LINE
  5
22A6
330
22A4
100
AcDbEntity
  8
0
  6
ByBlock
 62
     0
100
AcDbLine
 10
7244.192391743127
 20
6655.900034397575
 30
0.0
 11
8244.192391743127
 21
6655.900034397574
 31
0.0
  0
LINE
  5
22A7
330
22A4
100
AcDbEntity
  8
0
  6
ByBlock
 62
     0
100
AcDbLine
 10
8194.192391743127
 20
7440.900034397574
 30
0.0
 11
8194.192391743127
 21
6730.900034397574
 31
0.0
  0
SOLID
  5
22A8
330
22A4
100
AcDbEntity
  8
0
  6
ByBlock
 62
     0
100
AcDbTrace
 10
8181.692391743127
 20
7440.900034397574
 30
0.0
 11
8206.692391743127
 21
7440.900034397574
 31
0.0
 12
8194.192391743127
 22
7515.900034397574
 32
0.0
 13
8194.192391743127
 23
7515.900034397574
 33
0.0
  0
SOLID
  5
22A9
330
22A4
100
AcDbEntity
  8
0
  6
ByBlock
 62
     0
100
AcDbTrace
 10
8181.692391743127
 20
6730.900034397574
 30
0.0
 11
8206.692391743127
 21
6730.900034397574
 31
0.0
 12
8194.192391743127
 22
6655.900034397574
 32
0.0
 13
8194.192391743127
 23
6655.900034397574
 33
0.0
  0
MTEXT
  5
22AA
330
22A4
100
AcDbEntity
  8
0
  6
ByBlock
 62
     0
100
AcDbMText
 10
8081.692391743127
 20
7085.900034397574
 30
0.0
 40
125.0
 41
0.0
 71
     5
 72
     1
  1
\A1;860
 11
6.123031769111886E-17
 21
1.0
 31
0.0
 73
     1
 44
1.0
  0
POINT
  5
22AB
330
22A4
100
AcDbEntity
  8
DEFPOINTS
  6
ByBlock
 62
     0
100
AcDbPoint
 10
7144.192391743127
 20
7515.900034397575
 30
0.0
  0
POINT
  5
22AC
330
22A4
100
AcDbEntity
  8
DEFPOINTS
  6
ByBlock
 62
     0
100
AcDbPoint
 10
7144.192391743127
 20
6655.900034397575
 30
0.0
  0
POINT
  5
22AD
330
22A4
100
AcDbEntity
  8
DEFPOINTS
  6
ByBlock
 62
     0
100
AcDbPoint
 10
8194.192391743127
 20
6655.900034397574
 30
0.0
  0
ENDBLK
  5
22AF
330
22A4
100
AcDbEntity
  8
0
100
AcDbBlockEnd
  0
BLOCK
  5
22BD
330
22B0
100
AcDbEntity
  8
0
100
AcDbBlockBegin
  2
*D26
 70
     1
 10
0.0
 20
0.0
 30
0.0
  3
*D26
  1

  0
LINE
  5
22B1
330
22B0
100
AcDbEntity
  8
0
  6
ByBlock
 62
     0
100
AcDbLine
 10
7244.192391743127
 20
7480.900034397575
 30
0.0
 11
7944.192391743128
 21
7480.900034397574
 31
0.0
  0
LINE
  5
22B2
330
22B0
100
AcDbEntity
  8
0
  6
ByBlock
 62
     0
100
AcDbLine
 10
7244.192391743127
 20
7420.900034397575
 30
0.0
 11
7944.192391743127
 21
7420.900034397574
 31
0.0
  0
LINE
  5
22B3
330
22B0
100
AcDbEntity
  8
0
  6
ByBlock
 62
     0
100
AcDbLine
 10
7894.192391743128
 20
7555.900034397574
 30
0.0
 11
7894.192391743128
 21
7630.900034397574
 31
0.0
  0
LINE
  5
22B4
330
22B0
100
AcDbEntity
  8
0
  6
ByBlock
 62
     0
100
AcDbLine
 10
7894.192391743127
 20
7345.900034397574
 30
0.0
 11
7894.192391743127
 21
7270.900034397574
 31
0.0
  0
MTEXT
  5
22B5
330
22B0
100
AcDbEntity
  8
0
  6
ByBlock
 62
     0
100
AcDbMText
 10
7786.922801866065
 20
7439.868748259942
 30
0.0
 40
125.0
 41
0.0
 71
     5
 72
     1
  1
\A1;60
 11
6.123031769111886E-17
 21
1.0
 31
0.0
 73
     1
 44
1.0
  0
LINE
  5
22B6
330
22B0
100
AcDbEntity
  8
0
  6
ByBlock
 62
     0
100
AcDbLine
 10
7894.192391743128
 20
7480.900034397574
 30
0.0
 11
7894.192391743127
 21
7420.900034397574
 31
0.0
  0
LINE
  5
22B7
330
22B0
100
AcDbEntity
  8
0
  6
ByBlock
 62
     0
100
AcDbLine
 10
7894.192391743128
 20
7480.900034397574
 30
0.0
 11
7894.192391743127
 21
7420.900034397574
 31
0.0
  0
SOLID
  5
22B8
330
22B0
100
AcDbEntity
  8
0
  6
ByBlock
 62
     0
100
AcDbTrace
 10
7881.692391743128
 20
7555.900034397574
 30
0.0
 11
7906.692391743128
 21
7555.900034397574
 31
0.0
 12
7894.192391743128
 22
7480.900034397574
 32
0.0
 13
7894.192391743128
 23
7480.900034397574
 33
0.0
  0
SOLID
  5
22B9
330
22B0
100
AcDbEntity
  8
0
  6
ByBlock
 62
     0
100
AcDbTrace
 10
7881.692391743127
 20
7345.900034397574
 30
0.0
 11
7906.692391743127
 21
7345.900034397574
 31
0.0
 12
7894.192391743127
 22
7420.900034397574
 32
0.0
 13
7894.192391743127
 23
7420.900034397574
 33
0.0
  0
POINT
  5
22BA
330
22B0
100
AcDbEntity
  8
DEFPOINTS
  6
ByBlock
 62
     0
100
AcDbPoint
 10
7144.192391743127
 20
7480.900034397575
 30
0.0
  0
POINT
  5
22BB
330
22B0
100
AcDbEntity
  8
DEFPOINTS
  6
ByBlock
 62
     0
100
AcDbPoint
 10
7144.192391743127
 20
7420.900034397575
 30
0.0
  0
POINT
  5
22BC
330
22B0
100
AcDbEntity
  8
DEFPOINTS
  6
ByBlock
 62
     0
100
AcDbPoint
 10
7894.192391743127
 20
7420.900034397574
 30
0.0
  0
ENDBLK
  5
22BE
330
22B0
100
AcDbEntity
  8
0
100
AcDbBlockEnd
  0
BLOCK
  5
22CC
330
22BF
100
AcDbEntity
  8
0
100
AcDbBlockBegin
  2
*D27
 70
     1
 10
0.0
 20
0.0
 30
0.0
  3
*D27
  1

  0
LINE
  5
22C0
330
22BF
100
AcDbEntity
  8
0
  6
ByBlock
 62
     0
100
AcDbLine
 10
7244.192391743127
 20
7515.900034397575
 30
0.0
 11
7944.192391743127
 21
7515.900034397574
 31
0.0
  0
LINE
  5
22C1
330
22BF
100
AcDbEntity
  8
0
  6
ByBlock
 62
     0
100
AcDbLine
 10
7244.192391743127
 20
7480.900034397575
 30
0.0
 11
7944.192391743127
 21
7480.900034397574
 31
0.0
  0
LINE
  5
22C2
330
22BF
100
AcDbEntity
  8
0
  6
ByBlock
 62
     0
100
AcDbLine
 10
7894.192391743127
 20
7590.900034397574
 30
0.0
 11
7894.192391743127
 21
7665.900034397574
 31
0.0
  0
LINE
  5
22C3
330
22BF
100
AcDbEntity
  8
0
  6
ByBlock
 62
     0
100
AcDbLine
 10
7894.192391743126
 20
7405.900034397574
 30
0.0
 11
7894.192391743126
 21
7330.900034397574
 31
0.0
  0
MTEXT
  5
22C4
330
22BF
100
AcDbEntity
  8
0
  6
ByBlock
 62
     0
100
AcDbMText
 10
7793.911995285642
 20
7691.318688687214
 30
0.0
 40
125.0
 41
0.0
 71
     5
 72
     1
  1
\A1;35
 11
6.123031769111886E-17
 21
1.0
 31
0.0
 73
     1
 44
1.0
  0
LINE
  5
22C5
330
22BF
100
AcDbEntity
  8
0
  6
ByBlock
 62
     0
100
AcDbLine
 10
7894.192391743127
 20
7515.900034397574
 30
0.0
 11
7894.192391743127
 21
7480.900034397574
 31
0.0
  0
LINE
  5
22C6
330
22BF
100
AcDbEntity
  8
0
  6
ByBlock
 62
     0
100
AcDbLine
 10
7894.192391743127
 20
7515.900034397574
 30
0.0
 11
7894.192391743127
 21
7480.900034397574
 31
0.0
  0
SOLID
  5
22C7
330
22BF
100
AcDbEntity
  8
0
  6
ByBlock
 62
     0
100
AcDbTrace
 10
7881.692391743127
 20
7590.900034397574
 30
0.0
 11
7906.692391743127
 21
7590.900034397574
 31
0.0
 12
7894.192391743127
 22
7515.900034397574
 32
0.0
 13
7894.192391743127
 23
7515.900034397574
 33
0.0
  0
SOLID
  5
22C8
330
22BF
100
AcDbEntity
  8
0
  6
ByBlock
 62
     0
100
AcDbTrace
 10
7881.692391743127
 20
7405.900034397574
 30
0.0
 11
7906.692391743127
 21
7405.900034397574
 31
0.0
 12
7894.192391743127
 22
7480.900034397574
 32
0.0
 13
7894.192391743127
 23
7480.900034397574
 33
0.0
  0
POINT
  5
22C9
330
22BF
100
AcDbEntity
  8
DEFPOINTS
  6
ByBlock
 62
     0
100
AcDbPoint
 10
7144.192391743127
 20
7515.900034397575
 30
0.0
  0
POINT
  5
22CA
330
22BF
100
AcDbEntity
  8
DEFPOINTS
  6
ByBlock
 62
     0
100
AcDbPoint
 10
7144.192391743127
 20
7480.900034397575
 30
0.0
  0
POINT
  5
22CB
330
22BF
100
AcDbEntity
  8
DEFPOINTS
  6
ByBlock
 62
     0
100
AcDbPoint
 10
7894.192391743127
 20
7480.900034397574
 30
0.0
  0
ENDBLK
  5
22CD
330
22BF
100
AcDbEntity
  8
0
100
AcDbBlockEnd
  0
BLOCK
  5
22DB
330
22CE
100
AcDbEntity
  8
0
100
AcDbBlockBegin
  2
*D28
 70
     1
 10
0.0
 20
0.0
 30
0.0
  3
*D28
  1

  0
LINE
  5
22CF
330
22CE
100
AcDbEntity
  8
0
  6
ByBlock
 62
     0
100
AcDbLine
 10
7244.192391743127
 20
7420.900034397575
 30
0.0
 11
7944.192391743127
 21
7420.900034397574
 31
0.0
  0
LINE
  5
22D0
330
22CE
100
AcDbEntity
  8
0
  6
ByBlock
 62
     0
100
AcDbLine
 10
7244.192391743127
 20
7385.900034397575
 30
0.0
 11
7944.192391743127
 21
7385.900034397574
 31
0.0
  0
LINE
  5
22D1
330
22CE
100
AcDbEntity
  8
0
  6
ByBlock
 62
     0
100
AcDbLine
 10
7894.192391743128
 20
7495.900034397574
 30
0.0
 11
7894.192391743128
 21
7570.900034397574
 31
0.0
  0
LINE
  5
22D2
330
22CE
100
AcDbEntity
  8
0
  6
ByBlock
 62
     0
100
AcDbLine
 10
7894.192391743127
 20
7310.900034397574
 30
0.0
 11
7894.192391743127
 21
7235.900034397574
 31
0.0
  0
MTEXT
  5
22D3
330
22CE
100
AcDbEntity
  8
0
  6
ByBlock
 62
     0
100
AcDbMText
 10
7793.911995285642
 20
7209.373024909604
 30
0.0
 40
125.0
 41
0.0
 71
     5
 72
     1
  1
\A1;35
 11
6.123031769111886E-17
 21
1.0
 31
0.0
 73
     1
 44
1.0
  0
LINE
  5
22D4
330
22CE
100
AcDbEntity
  8
0
  6
ByBlock
 62
     0
100
AcDbLine
 10
7894.192391743127
 20
7420.900034397574
 30
0.0
 11
7894.192391743127
 21
7385.900034397574
 31
0.0
  0
LINE
  5
22D5
330
22CE
100
AcDbEntity
  8
0
  6
ByBlock
 62
     0
100
AcDbLine
 10
7894.192391743127
 20
7420.900034397574
 30
0.0
 11
7894.192391743127
 21
7385.900034397574
 31
0.0
  0
SOLID
  5
22D6
330
22CE
100
AcDbEntity
  8
0
  6
ByBlock
 62
     0
100
AcDbTrace
 10
7881.692391743127
 20
7495.900034397574
 30
0.0
 11
7906.692391743127
 21
7495.900034397574
 31
0.0
 12
7894.192391743127
 22
7420.900034397574
 32
0.0
 13
7894.192391743127
 23
7420.900034397574
 33
0.0
  0
SOLID
  5
22D7
330
22CE
100
AcDbEntity
  8
0
  6
ByBlock
 62
     0
100
AcDbTrace
 10
7881.692391743127
 20
7310.900034397574
 30
0.0
 11
7906.692391743127
 21
7310.900034397574
 31
0.0
 12
7894.192391743127
 22
7385.900034397574
 32
0.0
 13
7894.192391743127
 23
7385.900034397574
 33
0.0
  0
POINT
  5
22D8
330
22CE
100
AcDbEntity
  8
DEFPOINTS
  6
ByBlock
 62
     0
100
AcDbPoint
 10
7144.192391743127
 20
7420.900034397575
 30
0.0
  0
POINT
  5
22D9
330
22CE
100
AcDbEntity
  8
DEFPOINTS
  6
ByBlock
 62
     0
100
AcDbPoint
 10
7144.192391743127
 20
7385.900034397575
 30
0.0
  0
POINT
  5
22DA
330
22CE
100
AcDbEntity
  8
DEFPOINTS
  6
ByBlock
 62
     0
100
AcDbPoint
 10
7894.192391743127
 20
7385.900034397574
 30
0.0
  0
ENDBLK
  5
22DC
330
22CE
100
AcDbEntity
  8
0
100
AcDbBlockEnd
  0
BLOCK
  5
22EA
330
22DD
100
AcDbEntity
  8
0
100
AcDbBlockBegin
  2
*D29
 70
     1
 10
0.0
 20
0.0
 30
0.0
  3
*D29
  1

  0
LINE
  5
22DE
330
22DD
100
AcDbEntity
  8
0
  6
ByBlock
 62
     0
100
AcDbLine
 10
7244.192391743127
 20
6785.900034397575
 30
0.0
 11
7944.192391743127
 21
6785.900034397574
 31
0.0
  0
LINE
  5
22DF
330
22DD
100
AcDbEntity
  8
0
  6
ByBlock
 62
     0
100
AcDbLine
 10
7244.192391743127
 20
6750.900034397575
 30
0.0
 11
7944.192391743127
 21
6750.900034397574
 31
0.0
  0
LINE
  5
22E0
330
22DD
100
AcDbEntity
  8
0
  6
ByBlock
 62
     0
100
AcDbLine
 10
7894.192391743127
 20
6860.900034397574
 30
0.0
 11
7894.192391743127
 21
6935.900034397574
 31
0.0
  0
LINE
  5
22E1
330
22DD
100
AcDbEntity
  8
0
  6
ByBlock
 62
     0
100
AcDbLine
 10
7894.192391743127
 20
6675.900034397574
 30
0.0
 11
7894.192391743127
 21
6600.900034397574
 31
0.0
  0
MTEXT
  5
22E2
330
22DD
100
AcDbEntity
  8
0
  6
ByBlock
 62
     0
100
AcDbMText
 10
7793.911995285642
 20
6957.923144891058
 30
0.0
 40
125.0
 41
0.0
 71
     5
 72
     1
  1
\A1;35
 11
6.123031769111886E-17
 21
1.0
 31
0.0
 73
     1
 44
1.0
  0
LINE
  5
22E3
330
22DD
100
AcDbEntity
  8
0
  6
ByBlock
 62
     0
100
AcDbLine
 10
7894.192391743127
 20
6785.900034397574
 30
0.0
 11
7894.192391743127
 21
6750.900034397574
 31
0.0
  0
LINE
  5
22E4
330
22DD
100
AcDbEntity
  8
0
  6
ByBlock
 62
     0
100
AcDbLine
 10
7894.192391743127
 20
6785.900034397574
 30
0.0
 11
7894.192391743127
 21
6750.900034397574
 31
0.0
  0
SOLID
  5
22E5
330
22DD
100
AcDbEntity
  8
0
  6
ByBlock
 62
     0
100
AcDbTrace
 10
7881.692391743127
 20
6860.900034397574
 30
0.0
 11
7906.692391743127
 21
6860.900034397574
 31
0.0
 12
7894.192391743127
 22
6785.900034397574
 32
0.0
 13
7894.192391743127
 23
6785.900034397574
 33
0.0
  0
SOLID
  5
22E6
330
22DD
100
AcDbEntity
  8
0
  6
ByBlock
 62
     0
100
AcDbTrace
 10
7881.692391743127
 20
6675.900034397574
 30
0.0
 11
7906.692391743127
 21
6675.900034397574
 31
0.0
 12
7894.192391743127
 22
6750.900034397574
 32
0.0
 13
7894.192391743127
 23
6750.900034397574
 33
0.0
  0
POINT
  5
22E7
330
22DD
100
AcDbEntity
  8
DEFPOINTS
  6
ByBlock
 62
     0
100
AcDbPoint
 10
7144.192391743127
 20
6785.900034397575
 30
0.0
  0
POINT
  5
22E8
330
22DD
100
AcDbEntity
  8
DEFPOINTS
  6
ByBlock
 62
     0
100
AcDbPoint
 10
7144.192391743127
 20
6750.900034397575
 30
0.0
  0
POINT
  5
22E9
330
22DD
100
AcDbEntity
  8
DEFPOINTS
  6
ByBlock
 62
     0
100
AcDbPoint
 10
7894.192391743127
 20
6750.900034397574
 30
0.0
  0
ENDBLK
  5
22EB
330
22DD
100
AcDbEntity
  8
0
100
AcDbBlockEnd
  0
BLOCK
  5
22F9
330
22EC
100
AcDbEntity
  8
0
100
AcDbBlockBegin
  2
*D30
 70
     1
 10
0.0
 20
0.0
 30
0.0
  3
*D30
  1

  0
LINE
  5
22ED
330
22EC
100
AcDbEntity
  8
0
  6
ByBlock
 62
     0
100
AcDbLine
 10
7244.192391743127
 20
6750.900034397575
 30
0.0
 11
7944.192391743127
 21
6750.900034397574
 31
0.0
  0
LINE
  5
22EE
330
22EC
100
AcDbEntity
  8
0
  6
ByBlock
 62
     0
100
AcDbLine
 10
7244.192391743127
 20
6690.900034397577
 30
0.0
 11
7944.192391743127
 21
6690.900034397576
 31
0.0
  0
LINE
  5
22EF
330
22EC
100
AcDbEntity
  8
0
  6
ByBlock
 62
     0
100
AcDbLine
 10
7894.192391743127
 20
6825.900034397574
 30
0.0
 11
7894.192391743127
 21
6900.900034397574
 31
0.0
  0
LINE
  5
22F0
330
22EC
100
AcDbEntity
  8
0
  6
ByBlock
 62
     0
100
AcDbLine
 10
7894.192391743127
 20
6615.900034397576
 30
0.0
 11
7894.192391743127
 21
6540.900034397576
 31
0.0
  0
MTEXT
  5
22F1
330
22EC
100
AcDbEntity
  8
0
  6
ByBlock
 62
     0
100
AcDbMText
 10
7793.911995285642
 20
6706.473204463786
 30
0.0
 40
125.0
 41
0.0
 71
     5
 72
     1
  1
\A1;60
 11
6.123031769111886E-17
 21
1.0
 31
0.0
 73
     1
 44
1.0
  0
LINE
  5
22F2
330
22EC
100
AcDbEntity
  8
0
  6
ByBlock
 62
     0
100
AcDbLine
 10
7894.192391743127
 20
6750.900034397574
 30
0.0
 11
7894.192391743127
 21
6690.900034397576
 31
0.0
  0
LINE
  5
22F3
330
22EC
100
AcDbEntity
  8
0
  6
ByBlock
 62
     0
100
AcDbLine
 10
7894.192391743127
 20
6750.900034397574
 30
0.0
 11
7894.192391743127
 21
6690.900034397576
 31
0.0
  0
SOLID
  5
22F4
330
22EC
100
AcDbEntity
  8
0
  6
ByBlock
 62
     0
100
AcDbTrace
 10
7881.692391743127
 20
6825.900034397574
 30
0.0
 11
7906.692391743127
 21
6825.900034397574
 31
0.0
 12
7894.192391743127
 22
6750.900034397574
 32
0.0
 13
7894.192391743127
 23
6750.900034397574
 33
0.0
  0
SOLID
  5
22F5
330
22EC
100
AcDbEntity
  8
0
  6
ByBlock
 62
     0
100
AcDbTrace
 10
7881.692391743127
 20
6615.900034397576
 30
0.0
 11
7906.692391743127
 21
6615.900034397576
 31
0.0
 12
7894.192391743127
 22
6690.900034397576
 32
0.0
 13
7894.192391743127
 23
6690.900034397576
 33
0.0
  0
POINT
  5
22F6
330
22EC
100
AcDbEntity
  8
DEFPOINTS
  6
ByBlock
 62
     0
100
AcDbPoint
 10
7144.192391743127
 20
6750.900034397575
 30
0.0
  0
POINT
  5
22F7
330
22EC
100
AcDbEntity
  8
DEFPOINTS
  6
ByBlock
 62
     0
100
AcDbPoint
 10
7144.192391743127
 20
6690.900034397577
 30
0.0
  0
POINT
  5
22F8
330
22EC
100
AcDbEntity
  8
DEFPOINTS
  6
ByBlock
 62
     0
100
AcDbPoint
 10
7894.192391743127
 20
6690.900034397576
 30
0.0
  0
ENDBLK
  5
22FA
330
22EC
100
AcDbEntity
  8
0
100
AcDbBlockEnd
  0
BLOCK
  5
2308
330
22FB
100
AcDbEntity
  8
0
100
AcDbBlockBegin
  2
*D31
 70
     1
 10
0.0
 20
0.0
 30
0.0
  3
*D31
  1

  0
LINE
  5
22FC
330
22FB
100
AcDbEntity
  8
0
  6
ByBlock
 62
     0
100
AcDbLine
 10
7244.192391743127
 20
6690.900034397577
 30
0.0
 11
7944.192391743127
 21
6690.900034397576
 31
0.0
  0
LINE
  5
22FD
330
22FB
100
AcDbEntity
  8
0
  6
ByBlock
 62
     0
100
AcDbLine
 10
7244.192391743127
 20
6655.900034397575
 30
0.0
 11
7944.192391743127
 21
6655.900034397574
 31
0.0
  0
LINE
  5
22FE
330
22FB
100
AcDbEntity
  8
0
  6
ByBlock
 62
     0
100
AcDbLine
 10
7894.192391743127
 20
6765.900034397576
 30
0.0
 11
7894.192391743127
 21
6840.900034397576
 31
0.0
  0
LINE
  5
22FF
330
22FB
100
AcDbEntity
  8
0
  6
ByBlock
 62
     0
100
AcDbLine
 10
7894.192391743127
 20
6580.900034397574
 30
0.0
 11
7894.192391743127
 21
6505.900034397574
 31
0.0
  0
MTEXT
  5
2300
330
22FB
100
AcDbEntity
  8
0
  6
ByBlock
 62
     0
100
AcDbMText
 10
7807.890382124795
 20
6455.023324445239
 30
0.0
 40
125.0
 41
0.0
 71
     5
 72
     1
  1
\A1;35
 11
6.123031769111886E-17
 21
1.0
 31
0.0
 73
     1
 44
1.0
  0
LINE
  5
2301
330
22FB
100
AcDbEntity
  8
0
  6
ByBlock
 62
     0
100
AcDbLine
 10
7894.192391743127
 20
6690.900034397576
 30
0.0
 11
7894.192391743127
 21
6655.900034397574
 31
0.0
  0
LINE
  5
2302
330
22FB
100
AcDbEntity
  8
0
  6
ByBlock
 62
     0
100
AcDbLine
 10
7894.192391743127
 20
6690.900034397576
 30
0.0
 11
7894.192391743127
 21
6655.900034397574
 31
0.0
  0
SOLID
  5
2303
330
22FB
100
AcDbEntity
  8
0
  6
ByBlock
 62
     0
100
AcDbTrace
 10
7881.692391743127
 20
6765.900034397576
 30
0.0
 11
7906.692391743127
 21
6765.900034397576
 31
0.0
 12
7894.192391743127
 22
6690.900034397576
 32
0.0
 13
7894.192391743127
 23
6690.900034397576
 33
0.0
  0
SOLID
  5
2304
330
22FB
100
AcDbEntity
  8
0
  6
ByBlock
 62
     0
100
AcDbTrace
 10
7881.692391743127
 20
6580.900034397574
 30
0.0
 11
7906.692391743127
 21
6580.900034397574
 31
0.0
 12
7894.192391743127
 22
6655.900034397574
 32
0.0
 13
7894.192391743127
 23
6655.900034397574
 33
0.0
  0
POINT
  5
2305
330
22FB
100
AcDbEntity
  8
DEFPOINTS
  6
ByBlock
 62
     0
100
AcDbPoint
 10
7144.192391743127
 20
6690.900034397577
 30
0.0
  0
POINT
  5
2306
330
22FB
100
AcDbEntity
  8
DEFPOINTS
  6
ByBlock
 62
     0
100
AcDbPoint
 10
7144.192391743127
 20
6655.900034397575
 30
0.0
  0
POINT
  5
2307
330
22FB
100
AcDbEntity
  8
DEFPOINTS
  6
ByBlock
 62
     0
100
AcDbPoint
 10
7894.192391743127
 20
6655.900034397574
 30
0.0
  0
ENDBLK
  5
2309
330
22FB
100
AcDbEntity
  8
0
100
AcDbBlockEnd
  0
BLOCK
  5
235C
330
230A
100
AcDbEntity
  8
0
100
AcDbBlockBegin
  2
A$C21F533B3
 70
     0
 10
0.0
 20
0.0
 30
0.0
  3
A$C21F533B3
  1

  0
DIMENSION
  5
230B
330
230A
100
AcDbEntity
  8
SUNPOU
100
AcDbDimension
  2
*D17
 10
170.5126956328313
 20
1244.999986378385
 30
0.0
 11
76.47853196287178
 21
1087.710686439961
 31
0.0
 12
-5613.679696110295
 22
-5555.90004801919
 32
0.0
 70
   128
 71
     5
 42
-1.0
  3
STANDARD
100
AcDbAlignedDimension
 13
670.5126956328313
 23
1379.999986378384
 33
0.0
 14
670.5126956328313
 24
1244.999986378385
 34
0.0
 50
90.0
100
AcDbRotatedDimension
1001
ACAD
1000
DSTYLE
1002
{
1070
   287
1070
     5
1070
   287
1070
     5
1070
   287
1070
     5
1070
   287
1070
     5
1070
   287
1070
     5
1070
   287
1070
     5
1070
    40
1040
50.0
1070
    41
1040
1.5
1070
    42
1040
2.0
1070
    43
1040
7.0
1070
    44
1040
1.0
1070
    73
1070
     0
1070
    74
1070
     0
1070
    77
1070
     1
1070
    78
1070
     8
1070
   140
1040
2.5
1070
   141
1040
0.0
1070
   145
1040
1.0
1070
   147
1040
1.0
1070
   172
1070
     1
1070
   271
1070
     0
1070
   275
1070
     1
1070
   279
1070
     2
1070
   284
1070
     8
1070
   285
1070
     8
1070
   286
1070
     8
1002
}
  0
DIMENSION
  5
230C
330
230A
100
AcDbEntity
  8
SUNPOU
100
AcDbDimension
  2
*D16
 10
170.5126956328322
 20
1679.999986378384
 30
0.0
 11
62.50005022632831
 21
1988.739483581812
 31
0.0
 12
-5613.679696110295
 22
-5555.90004801919
 32
0.0
 70
   128
 71
     5
 42
-1.0
  3
STANDARD
100
AcDbAlignedDimension
 13
670.5126956328322
 23
1814.999986378385
 33
0.0
 14
670.5126956328322
 24
1679.999986378384
 34
0.0
 50
90.0
100
AcDbRotatedDimension
1001
ACAD
1000
DSTYLE
1002
{
1070
   287
1070
     5
1070
   287
1070
     5
1070
   287
1070
     5
1070
   287
1070
     5
1070
   287
1070
     5
1070
   287
1070
     5
1070
    40
1040
50.0
1070
    41
1040
1.5
1070
    42
1040
2.0
1070
    43
1040
7.0
1070
    44
1040
1.0
1070
    73
1070
     0
1070
    74
1070
     0
1070
    77
1070
     1
1070
    78
1070
     8
1070
   140
1040
2.5
1070
   141
1040
0.0
1070
   145
1040
1.0
1070
   147
1040
1.0
1070
   172
1070
     1
1070
   271
1070
     0
1070
   275
1070
     1
1070
   279
1070
     2
1070
   284
1070
     8
1070
   285
1070
     8
1070
   286
1070
     8
1002
}
  0
DIMENSION
  5
230D
330
230A
100
AcDbEntity
  8
SUNPOU
100
AcDbDimension
  2
*D15
 10
170.5126956328313
 20
1379.999986378385
 30
0.0
 11
62.50005022632831
 21
1534.732735634301
 31
0.0
 12
-5613.679696110295
 22
-5555.90004801919
 32
0.0
 70
   128
 71
     5
 42
-1.0
  3
STANDARD
100
AcDbAlignedDimension
 13
670.5126956328313
 23
1679.999986378385
 33
0.0
 14
670.5126956328313
 24
1379.999986378385
 34
0.0
 50
90.0
100
AcDbRotatedDimension
1001
ACAD
1000
DSTYLE
1002
{
1070
   287
1070
     5
1070
   287
1070
     5
1070
   287
1070
     5
1070
   287
1070
     5
1070
   287
1070
     5
1070
   287
1070
     5
1070
    40
1040
50.0
1070
    41
1040
1.5
1070
    42
1040
2.0
1070
    43
1040
7.0
1070
    44
1040
1.0
1070
    73
1070
     0
1070
    74
1070
     0
1070
    77
1070
     1
1070
    78
1070
     8
1070
   140
1040
2.5
1070
   141
1040
0.0
1070
   145
1040
1.0
1070
   147
1040
1.0
1070
   172
1070
     1
1070
   271
1070
     0
1070
   275
1070
     1
1070
   279
1070
     2
1070
   284
1070
     8
1070
   285
1070
     8
1070
   286
1070
     8
1002
}
  0
DIMENSION
  5
230E
330
230A
100
AcDbEntity
  8
SUNPOU
100
AcDbDimension
  2
*D31
 10
2280.512695632831
 20
1099.999986378384
 30
0.0
 11
2194.2106860145
 21
899.1232764260494
 31
0.0
 12
-5613.679696110295
 22
-5555.90004801919
 32
0.0
 70
   128
 71
     5
 42
-1.0
  3
STANDARD
100
AcDbAlignedDimension
 13
1530.512695632831
 23
1134.999986378387
 33
0.0
 14
1530.512695632831
 24
1099.999986378385
 34
0.0
 50
90.0
100
AcDbRotatedDimension
1001
ACAD
1000
DSTYLE
1002
{
1070
   287
1070
     5
1070
   287
1070
     5
1070
   287
1070
     5
1070
   287
1070
     5
1070
   287
1070
     5
1070
   287
1070
     5
1070
    40
1040
50.0
1070
    41
1040
1.5
1070
    42
1040
2.0
1070
    43
1040
7.0
1070
    44
1040
1.0
1070
    73
1070
     0
1070
    74
1070
     0
1070
    77
1070
     1
1070
    78
1070
     8
1070
   140
1040
2.5
1070
   141
1040
0.0
1070
   145
1040
1.0
1070
   147
1040
1.0
1070
   172
1070
     1
1070
   271
1070
     0
1070
   275
1070
     1
1070
   279
1070
     2
1070
   284
1070
     8
1070
   285
1070
     8
1070
   286
1070
     8
1002
}
  0
DIMENSION
  5
230F
330
230A
100
AcDbEntity
  8
SUNPOU
100
AcDbDimension
  2
*D24
 10
1435.512695632831
 20
349.9999863783851
 30
0.0
 11
1254.042940159707
 21
453.2807562273374
 31
0.0
 12
-5613.679696110295
 22
-5555.90004801919
 32
0.0
 70
   128
 71
     5
 42
-1.0
  3
STANDARD
100
AcDbAlignedDimension
 13
1400.512695632831
 23
1099.999986378385
 33
0.0
 14
1435.512695632831
 24
1099.999986378385
 34
0.0
100
AcDbRotatedDimension
1001
ACAD
1000
DSTYLE
1002
{
1070
   287
1070
     5
1070
   287
1070
     5
1070
   287
1070
     5
1070
   287
1070
     5
1070
   287
1070
     5
1070
   287
1070
     5
1070
    40
1040
50.0
1070
    41
1040
1.5
1070
    42
1040
2.0
1070
    43
1040
7.0
1070
    44
1040
1.0
1070
    73
1070
     0
1070
    74
1070
     0
1070
    77
1070
     1
1070
    78
1070
     8
1070
   140
1040
2.5
1070
   141
1040
0.0
1070
   145
1040
1.0
1070
   147
1040
1.0
1070
   172
1070
     1
1070
   271
1070
     0
1070
   275
1070
     1
1070
   279
1070
     2
1070
   284
1070
     8
1070
   285
1070
     8
1070
   286
1070
     8
1002
}
  0
DIMENSION
  5
2310
330
230A
100
AcDbEntity
  8
SUNPOU
100
AcDbDimension
  2
*D23
 10
800.5126956328313
 20
349.9999863783851
 30
0.0
 11
980.351752129558
 21
453.2807562273374
 31
0.0
 12
-5613.679696110295
 22
-5555.90004801919
 32
0.0
 70
   128
 71
     5
 42
-1.0
  3
STANDARD
100
AcDbAlignedDimension
 13
765.5126956328313
 23
1099.999986378385
 33
0.0
 14
800.5126956328313
 24
1099.999986378385
 34
0.0
100
AcDbRotatedDimension
1001
ACAD
1000
DSTYLE
1002
{
1070
   287
1070
     5
1070
   287
1070
     5
1070
   287
1070
     5
1070
   287
1070
     5
1070
   287
1070
     5
1070
   287
1070
     5
1070
    40
1040
50.0
1070
    41
1040
1.5
1070
    42
1040
2.0
1070
    43
1040
7.0
1070
    44
1040
1.0
1070
    73
1070
     0
1070
    74
1070
     0
1070
    77
1070
     1
1070
    78
1070
     8
1070
   140
1040
2.5
1070
   141
1040
0.0
1070
   145
1040
1.0
1070
   147
1040
1.0
1070
   172
1070
     1
1070
   271
1070
     0
1070
   275
1070
     1
1070
   279
1070
     2
1070
   284
1070
     8
1070
   285
1070
     8
1070
   286
1070
     8
1002
}
  0
DIMENSION
  5
2311
330
230A
100
AcDbEntity
  8
SUNPOU
100
AcDbDimension
  2
*D22
 10
670.5126956328313
 20
49.99998637838507
 30
0.0
 11
1100.512695632831
 21
162.4999863783851
 31
0.0
 12
-5613.679696110295
 22
-5555.90004801919
 32
0.0
 71
     5
 42
-1.0
  3
STANDARD
100
AcDbAlignedDimension
 13
1530.512695632831
 23
1099.999986378385
 33
0.0
 14
670.5126956328313
 24
1099.999986378385
 34
0.0
100
AcDbRotatedDimension
1001
ACAD
1000
DSTYLE
1002
{
1070
   287
1070
     5
1070
   287
1070
     5
1070
   287
1070
     5
1070
   287
1070
     5
1070
   287
1070
     5
1070
   287
1070
     5
1070
    40
1040
50.0
1070
    41
1040
1.5
1070
    42
1040
2.0
1070
    43
1040
7.0
1070
    44
1040
1.0
1070
    73
1070
     0
1070
    74
1070
     0
1070
    77
1070
     1
1070
    78
1070
     8
1070
   140
1040
2.5
1070
   141
1040
0.0
1070
   145
1040
1.0
1070
   147
1040
1.0
1070
   172
1070
     1
1070
   271
1070
     0
1070
   275
1070
     1
1070
   279
1070
     2
1070
   284
1070
     8
1070
   285
1070
     8
1070
   286
1070
     8
1002
}
  0
DIMENSION
  5
2312
330
230A
100
AcDbEntity
  8
SUNPOU
100
AcDbDimension
  2
*D21
 10
705.5126956328313
 20
349.9999863783851
 30
0.0
 11
477.7358603186585
 21
454.6289096326655
 31
0.0
 12
-5613.679696110295
 22
-5555.90004801919
 32
0.0
 70
   128
 71
     5
 42
-1.0
  3
STANDARD
100
AcDbAlignedDimension
 13
670.5126956328313
 23
1099.999986378385
 33
0.0
 14
705.5126956328313
 24
1099.999986378385
 34
0.0
100
AcDbRotatedDimension
1001
ACAD
1000
DSTYLE
1002
{
1070
   287
1070
     5
1070
   287
1070
     5
1070
   287
1070
     5
1070
   287
1070
     5
1070
   287
1070
     5
1070
   287
1070
     5
1070
    40
1040
50.0
1070
    41
1040
1.5
1070
    42
1040
2.0
1070
    43
1040
7.0
1070
    44
1040
1.0
1070
    73
1070
     0
1070
    74
1070
     0
1070
    77
1070
     1
1070
    78
1070
     8
1070
   140
1040
2.5
1070
   141
1040
0.0
1070
   145
1040
1.0
1070
   147
1040
1.0
1070
   172
1070
     1
1070
   271
1070
     0
1070
   275
1070
     1
1070
   279
1070
     2
1070
   284
1070
     8
1070
   285
1070
     8
1070
   286
1070
     8
1002
}
  0
DIMENSION
  5
2313
330
230A
100
AcDbEntity
  8
SUNPOU
100
AcDbDimension
  2
*D20
 10
1530.512695632831
 20
349.9999863783851
 30
0.0
 11
1734.447308265066
 21
452.2901857325342
 31
0.0
 12
-5613.679696110295
 22
-5555.90004801919
 32
0.0
 70
   128
 71
     5
 42
-1.0
  3
STANDARD
100
AcDbAlignedDimension
 13
1495.512695632831
 23
1099.999986378385
 33
0.0
 14
1530.512695632831
 24
1099.999986378385
 34
0.0
100
AcDbRotatedDimension
1001
ACAD
1000
DSTYLE
1002
{
1070
   287
1070
     5
1070
   287
1070
     5
1070
   287
1070
     5
1070
   287
1070
     5
1070
   287
1070
     5
1070
   287
1070
     5
1070
    40
1040
50.0
1070
    41
1040
1.5
1070
    42
1040
2.0
1070
    43
1040
7.0
1070
    44
1040
1.0
1070
    73
1070
     0
1070
    74
1070
     0
1070
    77
1070
     1
1070
    78
1070
     8
1070
   140
1040
2.5
1070
   141
1040
0.0
1070
   145
1040
1.0
1070
   147
1040
1.0
1070
   172
1070
     1
1070
   271
1070
     0
1070
   275
1070
     1
1070
   279
1070
     2
1070
   284
1070
     8
1070
   285
1070
     8
1070
   286
1070
     8
1002
}
  0
DIMENSION
  5
2314
330
230A
100
AcDbEntity
  8
SUNPOU
100
AcDbDimension
  2
*D19
 10
1495.512695632831
 20
349.9999863783851
 30
0.0
 11
1469.999574028465
 21
452.2901857325342
 31
0.0
 12
-5613.679696110295
 22
-5555.90004801919
 32
0.0
 70
   128
 71
     5
 42
-1.0
  3
STANDARD
100
AcDbAlignedDimension
 13
1435.512695632831
 23
1099.999986378385
 33
0.0
 14
1495.512695632831
 24
1099.999986378385
 34
0.0
100
AcDbRotatedDimension
1001
ACAD
1000
DSTYLE
1002
{
1070
   287
1070
     5
1070
   287
1070
     5
1070
   287
1070
     5
1070
   287
1070
     5
1070
   287
1070
     5
1070
   287
1070
     5
1070
    40
1040
50.0
1070
    41
1040
1.5
1070
    42
1040
2.0
1070
    43
1040
7.0
1070
    44
1040
1.0
1070
    73
1070
     0
1070
    74
1070
     0
1070
    77
1070
     1
1070
    78
1070
     8
1070
   140
1040
2.5
1070
   141
1040
0.0
1070
   145
1040
1.0
1070
   147
1040
1.0
1070
   172
1070
     1
1070
   271
1070
     0
1070
   275
1070
     1
1070
   279
1070
     2
1070
   284
1070
     8
1070
   285
1070
     8
1070
   286
1070
     8
1002
}
  0
DIMENSION
  5
2315
330
230A
100
AcDbEntity
  8
SUNPOU
100
AcDbDimension
  2
*D18
 10
765.5126956328313
 20
349.9999863783851
 30
0.0
 11
730.48227079965
 21
456.9676939415222
 31
0.0
 12
-5613.679696110295
 22
-5555.90004801919
 32
0.0
 70
   128
 71
     5
 42
-1.0
  3
STANDARD
100
AcDbAlignedDimension
 13
705.5126956328313
 23
1099.999986378385
 33
0.0
 14
765.5126956328313
 24
1099.999986378385
 34
0.0
100
AcDbRotatedDimension
1001
ACAD
1000
DSTYLE
1002
{
1070
   287
1070
     5
1070
   287
1070
     5
1070
   287
1070
     5
1070
   287
1070
     5
1070
   287
1070
     5
1070
   287
1070
     5
1070
    40
1040
50.0
1070
    41
1040
1.5
1070
    42
1040
2.0
1070
    43
1040
7.0
1070
    44
1040
1.0
1070
    73
1070
     0
1070
    74
1070
     0
1070
    77
1070
     1
1070
    78
1070
     8
1070
   140
1040
2.5
1070
   141
1040
0.0
1070
   145
1040
1.0
1070
   147
1040
1.0
1070
   172
1070
     1
1070
   271
1070
     0
1070
   275
1070
     1
1070
   279
1070
     2
1070
   284
1070
     8
1070
   285
1070
     8
1070
   286
1070
     8
1002
}
  0
LINE
  5
2316
330
230A
100
AcDbEntity
  8
1HASEN
100
AcDbLine
 10
1100.512695632831
 20
3014.429891380412
 30
0.0
 11
1100.512695632831
 21
499.9999863783814
 31
0.0
  0
DIMENSION
  5
2317
330
230A
100
AcDbEntity
  8
SUNPOU
100
AcDbDimension
  2
*D30
 10
2280.512695632831
 20
1134.999986378386
 30
0.0
 11
2180.232299175346
 21
1150.573156444596
 31
0.0
 12
-5613.679696110295
 22
-5555.90004801919
 32
0.0
 70
   128
 71
     5
 42
-1.0
  3
STANDARD
100
AcDbAlignedDimension
 13
1530.512695632831
 23
1194.999986378385
 33
0.0
 14
1530.512695632831
 24
1134.999986378387
 34
0.0
 50
90.0
100
AcDbRotatedDimension
1001
ACAD
1000
DSTYLE
1002
{
1070
   287
1070
     5
1070
   287
1070
     5
1070
   287
1070
     5
1070
   287
1070
     5
1070
   287
1070
     5
1070
   287
1070
     5
1070
    40
1040
50.0
1070
    41
1040
1.5
1070
    42
1040
2.0
1070
    43
1040
7.0
1070
    44
1040
1.0
1070
    73
1070
     0
1070
    74
1070
     0
1070
    77
1070
     1
1070
    78
1070
     8
1070
   140
1040
2.5
1070
   141
1040
0.0
1070
   145
1040
1.0
1070
   147
1040
1.0
1070
   172
1070
     1
1070
   271
1070
     0
1070
   275
1070
     1
1070
   279
1070
     2
1070
   284
1070
     8
1070
   285
1070
     8
1070
   286
1070
     8
1002
}
  0
DIMENSION
  5
2318
330
230A
100
AcDbEntity
  8
SUNPOU
100
AcDbDimension
  2
*D29
 10
2280.512695632831
 20
1194.999986378384
 30
0.0
 11
2180.232299175346
 21
1402.023096871868
 31
0.0
 12
-5613.679696110295
 22
-5555.90004801919
 32
0.0
 70
   128
 71
     5
 42
-1.0
  3
STANDARD
100
AcDbAlignedDimension
 13
1530.512695632831
 23
1229.999986378385
 33
0.0
 14
1530.512695632831
 24
1194.999986378385
 34
0.0
 50
90.0
100
AcDbRotatedDimension
1001
ACAD
1000
DSTYLE
1002
{
1070
   287
1070
     5
1070
   287
1070
     5
1070
   287
1070
     5
1070
   287
1070
     5
1070
   287
1070
     5
1070
   287
1070
     5
1070
    40
1040
50.0
1070
    41
1040
1.5
1070
    42
1040
2.0
1070
    43
1040
7.0
1070
    44
1040
1.0
1070
    73
1070
     0
1070
    74
1070
     0
1070
    77
1070
     1
1070
    78
1070
     8
1070
   140
1040
2.5
1070
   141
1040
0.0
1070
   145
1040
1.0
1070
   147
1040
1.0
1070
   172
1070
     1
1070
   271
1070
     0
1070
   275
1070
     1
1070
   279
1070
     2
1070
   284
1070
     8
1070
   285
1070
     8
1070
   286
1070
     8
1002
}
  0
DIMENSION
  5
2319
330
230A
100
AcDbEntity
  8
SUNPOU
100
AcDbDimension
  2
*D28
 10
2280.512695632831
 20
1829.999986378384
 30
0.0
 11
2180.232299175346
 21
1653.472976890414
 31
0.0
 12
-5613.679696110295
 22
-5555.90004801919
 32
0.0
 70
   128
 71
     5
 42
-1.0
  3
STANDARD
100
AcDbAlignedDimension
 13
1530.512695632831
 23
1864.999986378385
 33
0.0
 14
1530.512695632831
 24
1829.999986378385
 34
0.0
 50
90.0
100
AcDbRotatedDimension
1001
ACAD
1000
DSTYLE
1002
{
1070
   287
1070
     5
1070
   287
1070
     5
1070
   287
1070
     5
1070
   287
1070
     5
1070
   287
1070
     5
1070
   287
1070
     5
1070
    40
1040
50.0
1070
    41
1040
1.5
1070
    42
1040
2.0
1070
    43
1040
7.0
1070
    44
1040
1.0
1070
    73
1070
     0
1070
    74
1070
     0
1070
    77
1070
     1
1070
    78
1070
     8
1070
   140
1040
2.5
1070
   141
1040
0.0
1070
   145
1040
1.0
1070
   147
1040
1.0
1070
   172
1070
     1
1070
   271
1070
     0
1070
   275
1070
     1
1070
   279
1070
     2
1070
   284
1070
     8
1070
   285
1070
     8
1070
   286
1070
     8
1002
}
  0
DIMENSION
  5
231A
330
230A
100
AcDbEntity
  8
SUNPOU
100
AcDbDimension
  2
*D27
 10
2280.512695632831
 20
1924.999986378384
 30
0.0
 11
2180.232299175346
 21
2135.418640668024
 31
0.0
 12
-5613.679696110295
 22
-5555.90004801919
 32
0.0
 70
   128
 71
     5
 42
-1.0
  3
STANDARD
100
AcDbAlignedDimension
 13
1530.512695632831
 23
1959.999986378385
 33
0.0
 14
1530.512695632831
 24
1924.999986378385
 34
0.0
 50
90.0
100
AcDbRotatedDimension
1001
ACAD
1000
DSTYLE
1002
{
1070
   287
1070
     5
1070
   287
1070
     5
1070
   287
1070
     5
1070
   287
1070
     5
1070
   287
1070
     5
1070
   287
1070
     5
1070
    40
1040
50.0
1070
    41
1040
1.5
1070
    42
1040
2.0
1070
    43
1040
7.0
1070
    44
1040
1.0
1070
    73
1070
     0
1070
    74
1070
     0
1070
    77
1070
     1
1070
    78
1070
     8
1070
   140
1040
2.5
1070
   141
1040
0.0
1070
   145
1040
1.0
1070
   147
1040
1.0
1070
   172
1070
     1
1070
   271
1070
     0
1070
   275
1070
     1
1070
   279
1070
     2
1070
   284
1070
     8
1070
   285
1070
     8
1070
   286
1070
     8
1002
}
  0
DIMENSION
  5
231B
330
230A
100
AcDbEntity
  8
SUNPOU
100
AcDbDimension
  2
*D26
 10
2280.512695632831
 20
1864.999986378384
 30
0.0
 11
2173.24310575577
 21
1883.968700240752
 31
0.0
 12
-5613.679696110295
 22
-5555.90004801919
 32
0.0
 70
   128
 71
     5
 42
-1.0
  3
STANDARD
100
AcDbAlignedDimension
 13
1530.512695632831
 23
1924.999986378385
 33
0.0
 14
1530.512695632831
 24
1864.999986378385
 34
0.0
 50
90.0
100
AcDbRotatedDimension
1001
ACAD
1000
DSTYLE
1002
{
1070
   287
1070
     5
1070
   287
1070
     5
1070
   287
1070
     5
1070
   287
1070
     5
1070
   287
1070
     5
1070
   287
1070
     5
1070
    40
1040
50.0
1070
    41
1040
1.5
1070
    42
1040
2.0
1070
    43
1040
7.0
1070
    44
1040
1.0
1070
    73
1070
     0
1070
    74
1070
     0
1070
    77
1070
     1
1070
    78
1070
     8
1070
   140
1040
2.5
1070
   141
1040
0.0
1070
   145
1040
1.0
1070
   147
1040
1.0
1070
   172
1070
     1
1070
   271
1070
     0
1070
   275
1070
     1
1070
   279
1070
     2
1070
   284
1070
     8
1070
   285
1070
     8
1070
   286
1070
     8
1002
}
  0
DIMENSION
  5
231C
330
230A
100
AcDbEntity
  8
SUNPOU
100
AcDbDimension
  2
*D25
 10
2580.512695632831
 20
1099.999986378384
 30
0.0
 11
2468.012695632831
 21
1529.999986378384
 31
0.0
 12
-5613.679696110295
 22
-5555.90004801919
 32
0.0
 71
     5
 42
-1.0
  3
STANDARD
100
AcDbAlignedDimension
 13
1530.512695632831
 23
1959.999986378385
 33
0.0
 14
1530.512695632831
 24
1099.999986378385
 34
0.0
 50
90.0
100
AcDbRotatedDimension
1001
ACAD
1000
DSTYLE
1002
{
1070
   287
1070
     5
1070
   287
1070
     5
1070
   287
1070
     5
1070
   287
1070
     5
1070
   287
1070
     5
1070
   287
1070
     5
1070
    40
1040
50.0
1070
    41
1040
1.5
1070
    42
1040
2.0
1070
    43
1040
7.0
1070
    44
1040
1.0
1070
    73
1070
     0
1070
    74
1070
     0
1070
    77
1070
     1
1070
    78
1070
     8
1070
   140
1040
2.5
1070
   141
1040
0.0
1070
   145
1040
1.0
1070
   147
1040
1.0
1070
   172
1070
     1
1070
   271
1070
     0
1070
   275
1070
     1
1070
   279
1070
     2
1070
   284
1070
     8
1070
   285
1070
     8
1070
   286
1070
     8
1002
}
  0
DIMENSION
  5
231D
330
230A
100
AcDbEntity
  8
SUNPOU
100
AcDbDimension
  2
*D14
 10
950.5126956328313
 20
2359.999986378385
 30
0.0
 11
642.6049071016023
 21
2474.006050681935
 31
0.0
 12
-5613.679696110295
 22
-5555.90004801919
 32
0.0
 70
   128
 71
     5
 42
-1.0
  3
STANDARD
100
AcDbAlignedDimension
 13
815.5126956328313
 23
1959.999986378385
 33
0.0
 14
950.5126956328313
 24
1959.999986378385
 34
0.0
100
AcDbRotatedDimension
1001
ACAD
1000
DSTYLE
1002
{
1070
   287
1070
     5
1070
   287
1070
     5
1070
   287
1070
     5
1070
   287
1070
     5
1070
   287
1070
     5
1070
   287
1070
     5
1070
    40
1040
50.0
1070
    41
1040
1.5
1070
    42
1040
2.0
1070
    43
1040
7.0
1070
    44
1040
1.0
1070
    73
1070
     0
1070
    74
1070
     0
1070
    77
1070
     1
1070
    78
1070
     8
1070
   140
1040
2.5
1070
   141
1040
0.0
1070
   145
1040
1.0
1070
   147
1040
1.0
1070
   172
1070
     1
1070
   271
1070
     0
1070
   275
1070
     1
1070
   279
1070
     2
1070
   284
1070
     8
1070
   285
1070
     8
1070
   286
1070
     8
1002
}
  0
DIMENSION
  5
231E
330
230A
100
AcDbEntity
  8
SUNPOU
100
AcDbDimension
  2
*D13
 10
1385.512695632831
 20
2359.999986378385
 30
0.0
 11
1565.181380304814
 21
2467.021351928772
 31
0.0
 12
-5613.679696110295
 22
-5555.90004801919
 32
0.0
 70
   128
 71
     5
 42
-1.0
  3
STANDARD
100
AcDbAlignedDimension
 13
1250.512695632831
 23
1959.999986378385
 33
0.0
 14
1385.512695632831
 24
1959.999986378385
 34
0.0
100
AcDbRotatedDimension
1001
ACAD
1000
DSTYLE
1002
{
1070
   287
1070
     5
1070
   287
1070
     5
1070
   287
1070
     5
1070
   287
1070
     5
1070
   287
1070
     5
1070
   287
1070
     5
1070
    40
1040
50.0
1070
    41
1040
1.5
1070
    42
1040
2.0
1070
    43
1040
7.0
1070
    44
1040
1.0
1070
    73
1070
     0
1070
    74
1070
     0
1070
    77
1070
     1
1070
    78
1070
     8
1070
   140
1040
2.5
1070
   141
1040
0.0
1070
   145
1040
1.0
1070
   147
1040
1.0
1070
   172
1070
     1
1070
   271
1070
     0
1070
   275
1070
     1
1070
   279
1070
     2
1070
   284
1070
     8
1070
   285
1070
     8
1070
   286
1070
     8
1002
}
  0
DIMENSION
  5
231F
330
230A
100
AcDbEntity
  8
SUNPOU
100
AcDbDimension
  2
*D12
 10
1250.512695632831
 20
2359.999986378385
 30
0.0
 11
1110.88238457148
 21
2474.006050681935
 31
0.0
 12
-5613.679696110295
 22
-5555.90004801919
 32
0.0
 70
   128
 71
     5
 42
-1.0
  3
STANDARD
100
AcDbAlignedDimension
 13
950.5126956328313
 23
1959.999986378385
 33
0.0
 14
1250.512695632831
 24
1959.999986378385
 34
0.0
100
AcDbRotatedDimension
1001
ACAD
1000
DSTYLE
1002
{
1070
   287
1070
     5
1070
   287
1070
     5
1070
   287
1070
     5
1070
   287
1070
     5
1070
   287
1070
     5
1070
   287
1070
     5
1070
    40
1040
50.0
1070
    41
1040
1.5
1070
    42
1040
2.0
1070
    43
1040
7.0
1070
    44
1040
1.0
1070
    73
1070
     0
1070
    74
1070
     0
1070
    77
1070
     1
1070
    78
1070
     8
1070
   140
1040
2.5
1070
   141
1040
0.0
1070
   145
1040
1.0
1070
   147
1040
1.0
1070
   172
1070
     1
1070
   271
1070
     0
1070
   275
1070
     1
1070
   279
1070
     2
1070
   284
1070
     8
1070
   285
1070
     8
1070
   286
1070
     8
1002
}
  0
LINE
  5
2320
330
230A
100
AcDbEntity
  8
1HASEN
100
AcDbLine
 10
1780.512695632835
 20
1529.999986378385
 30
0.0
 11
420.5126956328313
 21
1529.999986378381
 31
0.0
  0
LINE
  5
2321
330
230A
100
AcDbEntity
  8
HAIKIN
100
AcDbLine
 10
805.5126956328313
 20
1924.999986378385
 30
0.0
 11
1395.512695632831
 21
1924.999986378385
 31
0.0
  0
LINE
  5
2322
330
230A
100
AcDbEntity
  8
HAIKIN
100
AcDbLine
 10
705.5126956328313
 20
1864.999986378385
 30
0.0
 11
1495.512695632831
 21
1864.999986378385
 31
0.0
  0
LINE
  5
2323
330
230A
100
AcDbEntity
  8
SUNPOU
100
AcDbLine
 10
900.5126956328313
 20
1829.999986378387
 30
0.0
 11
1300.512695632831
 21
1829.999986378385
 31
0.0
  0
LINE
  5
2324
330
230A
100
AcDbEntity
  8
SUNPOU
100
AcDbLine
 10
670.5126956328313
 20
1959.999986378385
 30
0.0
 11
1530.512695632831
 21
1959.999986378385
 31
0.0
  0
LINE
  5
2325
330
230A
100
AcDbEntity
  8
HAIKIN
100
AcDbLine
 10
1100.512695632831
 20
1134.999986378385
 30
0.0
 11
1395.512695632831
 21
1134.999986378385
 31
0.0
  0
LINE
  5
2326
330
230A
100
AcDbEntity
  8
SUNPOU
100
AcDbLine
 10
1100.512695632831
 20
1229.999986378385
 30
0.0
 11
1300.512695632831
 21
1229.999986378385
 31
0.0
  0
LINE
  5
2327
330
230A
100
AcDbEntity
  8
SUNPOU
100
AcDbLine
 10
1530.512695632831
 20
1099.999986378385
 30
0.0
 11
1100.512695632831
 21
1099.999986378385
 31
0.0
  0
LWPOLYLINE
  5
2328
330
230A
100
AcDbEntity
  8
HAIKIN
100
AcDbPolyline
 90
        2
 70
     0
 43
0.0
 10
1100.512695632833
 20
1194.999986378386
 10
1495.512695632833
 20
1194.999986378386
  0
LINE
  5
2329
330
230A
100
AcDbEntity
  8
SUNPOU
100
AcDbLine
 10
800.5126956328313
 20
1329.999986378385
 30
0.0
 11
800.5126956328313
 21
1729.999986378384
 31
0.0
  0
LINE
  5
232A
330
230A
100
AcDbEntity
  8
HAIKIN
100
AcDbLine
 10
705.5126956328313
 20
1234.999986378385
 30
0.0
 11
705.5126956328313
 21
1824.999986378385
 31
0.0
  0
LINE
  5
232B
330
230A
100
AcDbEntity
  8
SUNPOU
100
AcDbLine
 10
670.5126956328313
 20
1959.999986378385
 30
0.0
 11
670.5126956328313
 21
1099.999986378385
 31
0.0
  0
LINE
  5
232C
330
230A
100
AcDbEntity
  8
SUNPOU
100
AcDbLine
 10
670.5126956328313
 20
1959.999986378385
 30
0.0
 11
670.5126956328313
 21
1099.999986378385
 31
0.0
  0
LINE
  5
232D
330
230A
100
AcDbEntity
  8
SUNPOU
100
AcDbLine
 10
800.5126956328313
 20
1329.999986378385
 30
0.0
 11
800.5126956328313
 21
1729.999986378384
 31
0.0
  0
LINE
  5
232E
330
230A
100
AcDbEntity
  8
HAIKIN
100
AcDbLine
 10
765.5126956328313
 20
1134.999986378385
 30
0.0
 11
765.5126956328313
 21
1924.999986378385
 31
0.0
  0
LWPOLYLINE
  5
232F
330
230A
100
AcDbEntity
  8
HAIKIN
100
AcDbPolyline
 90
        2
 70
     1
 43
12.5
 10
746.7626956328313
 20
1379.999986378383
 42
1.0
 10
759.2626956328313
 20
1379.999986378383
 42
1.0
  0
ARC
  5
2330
330
230A
100
AcDbEntity
  8
HAIKIN
100
AcDbCircle
 10
805.5126956328313
 20
1234.999986378385
 30
0.0
 40
100.0
100
AcDbArc
 50
180.0
 51
270.0
  0
LINE
  5
2331
330
230A
100
AcDbEntity
  8
SUNPOU
100
AcDbLine
 10
670.5126956328313
 20
1099.999986378385
 30
0.0
 11
1100.512695632831
 21
1099.999986378385
 31
0.0
  0
LINE
  5
2332
330
230A
100
AcDbEntity
  8
SUNPOU
100
AcDbLine
 10
670.5126956328313
 20
1099.999986378385
 30
0.0
 11
1100.512695632831
 21
1099.999986378385
 31
0.0
  0
LWPOLYLINE
  5
2333
330
230A
100
AcDbEntity
  8
HAIKIN
100
AcDbPolyline
 90
        2
 70
     0
 43
0.0
 10
1100.512695632833
 20
1194.999986378386
 10
705.5126956328331
 20
1194.999986378386
  0
LWPOLYLINE
  5
2334
330
230A
100
AcDbEntity
  8
HAIKIN
100
AcDbPolyline
 90
        2
 70
     1
 43
12.5
 10
711.7626956328313
 20
1244.999986378382
 42
1.0
 10
724.2626956328313
 20
1244.999986378382
 42
1.0
  0
LWPOLYLINE
  5
2335
330
230A
100
AcDbEntity
  8
HAIKIN
100
AcDbPolyline
 90
        2
 70
     1
 43
12.5
 10
711.7626956328313
 20
1379.999986378383
 42
1.0
 10
724.2626956328313
 20
1379.999986378383
 42
1.0
  0
LWPOLYLINE
  5
2336
330
230A
100
AcDbEntity
  8
HAIKIN
100
AcDbPolyline
 90
        2
 70
     1
 43
12.5
 10
944.2626956328313
 20
1182.499986378386
 42
1.0
 10
956.7626956328313
 20
1182.499986378386
 42
1.0
  0
LWPOLYLINE
  5
2337
330
230A
100
AcDbEntity
  8
HAIKIN
100
AcDbPolyline
 90
        2
 70
     1
 43
12.5
 10
944.2626956328313
 20
1147.499986378385
 42
1.0
 10
956.7626956328313
 20
1147.499986378385
 42
1.0
  0
LWPOLYLINE
  5
2338
330
230A
100
AcDbEntity
  8
HAIKIN
100
AcDbPolyline
 90
        2
 70
     1
 43
12.5
 10
809.2626956328313
 20
1147.499986378385
 42
1.0
 10
821.7626956328313
 20
1147.499986378385
 42
1.0
  0
LINE
  5
2339
330
230A
100
AcDbEntity
  8
SUNPOU
100
AcDbLine
 10
900.5126956328313
 20
1229.999986378385
 30
0.0
 11
800.5126956328313
 21
1329.999986378385
 31
0.0
  0
LINE
  5
233A
330
230A
100
AcDbEntity
  8
SUNPOU
100
AcDbLine
 10
1100.512695632831
 20
1229.999986378385
 30
0.0
 11
900.5126956328313
 21
1229.999986378385
 31
0.0
  0
LINE
  5
233B
330
230A
100
AcDbEntity
  8
HAIKIN
100
AcDbLine
 10
1100.512695632831
 20
1134.999986378385
 30
0.0
 11
805.5126956328313
 21
1134.999986378385
 31
0.0
  0
LINE
  5
233C
330
230A
100
AcDbEntity
  8
SUNPOU
100
AcDbLine
 10
900.5126956328313
 20
1229.999986378385
 30
0.0
 11
800.5126956328313
 21
1329.999986378385
 31
0.0
  0
LINE
  5
233D
330
230A
100
AcDbEntity
  8
SUNPOU
100
AcDbLine
 10
1100.512695632831
 20
1229.999986378385
 30
0.0
 11
900.5126956328313
 21
1229.999986378385
 31
0.0
  0
LWPOLYLINE
  5
233E
330
230A
100
AcDbEntity
  8
HAIKIN
100
AcDbPolyline
 90
        2
 70
     1
 43
12.5
 10
746.7626956328313
 20
1679.999986378382
 42
1.0
 10
759.2626956328313
 20
1679.999986378382
 42
1.0
  0
ARC
  5
233F
330
230A
100
AcDbEntity
  8
HAIKIN
100
AcDbCircle
 10
805.5126956328313
 20
1824.999986378385
 30
0.0
 40
100.0
100
AcDbArc
 50
90.0
 51
180.0
  0
LWPOLYLINE
  5
2340
330
230A
100
AcDbEntity
  8
HAIKIN
100
AcDbPolyline
 90
        2
 70
     1
 43
12.5
 10
711.7626956328313
 20
1679.999986378382
 42
1.0
 10
724.2626956328313
 20
1679.999986378382
 42
1.0
  0
LWPOLYLINE
  5
2341
330
230A
100
AcDbEntity
  8
HAIKIN
100
AcDbPolyline
 90
        2
 70
     1
 43
12.5
 10
711.7626956328313
 20
1814.999986378382
 42
1.0
 10
724.2626956328313
 20
1814.999986378382
 42
1.0
  0
LWPOLYLINE
  5
2342
330
230A
100
AcDbEntity
  8
HAIKIN
100
AcDbPolyline
 90
        2
 70
     1
 43
12.5
 10
944.2626956328313
 20
1877.499986378385
 42
1.0
 10
956.7626956328313
 20
1877.499986378385
 42
1.0
  0
LWPOLYLINE
  5
2343
330
230A
100
AcDbEntity
  8
HAIKIN
100
AcDbPolyline
 90
        2
 70
     1
 43
12.5
 10
809.2626956328313
 20
1912.499986378385
 42
1.0
 10
821.7626956328313
 20
1912.499986378385
 42
1.0
  0
LWPOLYLINE
  5
2344
330
230A
100
AcDbEntity
  8
HAIKIN
100
AcDbPolyline
 90
        2
 70
     1
 43
12.5
 10
944.2626956328313
 20
1912.499986378385
 42
1.0
 10
956.7626956328313
 20
1912.499986378385
 42
1.0
  0
LINE
  5
2345
330
230A
100
AcDbEntity
  8
SUNPOU
100
AcDbLine
 10
800.5126956328313
 20
1729.999986378385
 30
0.0
 11
900.5126956328313
 21
1829.999986378385
 31
0.0
  0
LINE
  5
2346
330
230A
100
AcDbEntity
  8
HAIKIN
100
AcDbLine
 10
1495.512695632831
 20
1234.999986378385
 30
0.0
 11
1495.512695632831
 21
1824.999986378385
 31
0.0
  0
LINE
  5
2347
330
230A
100
AcDbEntity
  8
SUNPOU
100
AcDbLine
 10
1400.512695632831
 20
1329.999986378385
 30
0.0
 11
1400.512695632831
 21
1729.999986378384
 31
0.0
  0
LINE
  5
2348
330
230A
100
AcDbEntity
  8
SUNPOU
100
AcDbLine
 10
1530.512695632831
 20
1959.999986378385
 30
0.0
 11
1530.512695632831
 21
1099.999986378385
 31
0.0
  0
LINE
  5
2349
330
230A
100
AcDbEntity
  8
HAIKIN
100
AcDbLine
 10
1435.512695632831
 20
1134.999986378385
 30
0.0
 11
1435.512695632831
 21
1924.999986378385
 31
0.0
  0
LWPOLYLINE
  5
234A
330
230A
100
AcDbEntity
  8
HAIKIN
100
AcDbPolyline
 90
        2
 70
     1
 43
12.5
 10
1441.762695632831
 20
1379.999986378382
 42
1.0
 10
1454.262695632831
 20
1379.999986378382
 42
1.0
  0
LWPOLYLINE
  5
234B
330
230A
100
AcDbEntity
  8
HAIKIN
100
AcDbPolyline
 90
        2
 70
     1
 43
12.5
 10
1476.762695632831
 20
1379.999986378382
 42
1.0
 10
1489.262695632831
 20
1379.999986378382
 42
1.0
  0
LWPOLYLINE
  5
234C
330
230A
100
AcDbEntity
  8
HAIKIN
100
AcDbPolyline
 90
        2
 70
     1
 43
12.5
 10
1476.762695632831
 20
1244.999986378382
 42
1.0
 10
1489.262695632831
 20
1244.999986378382
 42
1.0
  0
LWPOLYLINE
  5
234D
330
230A
100
AcDbEntity
  8
HAIKIN
100
AcDbPolyline
 90
        2
 70
     1
 43
12.5
 10
1379.262695632831
 20
1147.499986378385
 42
1.0
 10
1391.762695632831
 20
1147.499986378385
 42
1.0
  0
LWPOLYLINE
  5
234E
330
230A
100
AcDbEntity
  8
HAIKIN
100
AcDbPolyline
 90
        2
 70
     1
 43
12.5
 10
1241.762695632831
 20
1147.499986378385
 42
1.0
 10
1254.262695632831
 20
1147.499986378385
 42
1.0
  0
LWPOLYLINE
  5
234F
330
230A
100
AcDbEntity
  8
HAIKIN
100
AcDbPolyline
 90
        2
 70
     1
 43
12.5
 10
1244.262695632831
 20
1182.499986378386
 42
1.0
 10
1256.762695632831
 20
1182.499986378386
 42
1.0
  0
ARC
  5
2350
330
230A
100
AcDbEntity
  8
HAIKIN
100
AcDbCircle
 10
1395.512695632831
 20
1234.999986378385
 30
0.0
 40
100.0
100
AcDbArc
 50
270.0
 51
0.0
  0
LINE
  5
2351
330
230A
100
AcDbEntity
  8
SUNPOU
100
AcDbLine
 10
1300.512695632831
 20
1229.999986378385
 30
0.0
 11
1400.512695632831
 21
1329.999986378385
 31
0.0
  0
LINE
  5
2352
330
230A
100
AcDbEntity
  8
HAIKIN
100
AcDbLine
 10
1255.010170315891
 20
1134.999986378387
 30
0.0
 11
1495.512695632831
 21
1375.502511695329
 31
0.0
  0
LWPOLYLINE
  5
2353
330
230A
100
AcDbEntity
  8
HAIKIN
100
AcDbPolyline
 90
        2
 70
     1
 43
12.5
 10
1244.262695632831
 20
1877.499986378385
 42
1.0
 10
1256.762695632831
 20
1877.499986378385
 42
1.0
  0
LWPOLYLINE
  5
2354
330
230A
100
AcDbEntity
  8
HAIKIN
100
AcDbPolyline
 90
        2
 70
     1
 43
12.5
 10
1244.262695632831
 20
1912.499986378385
 42
1.0
 10
1256.762695632831
 20
1912.499986378385
 42
1.0
  0
LWPOLYLINE
  5
2355
330
230A
100
AcDbEntity
  8
HAIKIN
100
AcDbPolyline
 90
        2
 70
     1
 43
12.5
 10
1379.262695632831
 20
1912.499986378385
 42
1.0
 10
1391.762695632831
 20
1912.499986378385
 42
1.0
  0
LWPOLYLINE
  5
2356
330
230A
100
AcDbEntity
  8
HAIKIN
100
AcDbPolyline
 90
        2
 70
     1
 43
12.5
 10
1471.762695632831
 20
1814.999986378382
 42
1.0
 10
1484.262695632831
 20
1814.999986378382
 42
1.0
  0
LWPOLYLINE
  5
2357
330
230A
100
AcDbEntity
  8
HAIKIN
100
AcDbPolyline
 90
        2
 70
     1
 43
12.5
 10
1476.762695632831
 20
1679.999986378382
 42
1.0
 10
1489.262695632831
 20
1679.999986378382
 42
1.0
  0
LWPOLYLINE
  5
2358
330
230A
100
AcDbEntity
  8
HAIKIN
100
AcDbPolyline
 90
        2
 70
     1
 43
12.5
 10
1441.762695632831
 20
1679.999986378382
 42
1.0
 10
1454.262695632831
 20
1679.999986378382
 42
1.0
  0
LINE
  5
2359
330
230A
100
AcDbEntity
  8
HAIKIN
100
AcDbLine
 10
1255.010170315891
 20
1924.999986378385
 30
0.0
 11
1495.512695632831
 21
1684.497461061444
 31
0.0
  0
ARC
  5
235A
330
230A
100
AcDbEntity
  8
HAIKIN
100
AcDbCircle
 10
1395.512695632831
 20
1824.999986378385
 30
0.0
 40
100.0
100
AcDbArc
 50
0.0
 51
90.0
  0
LINE
  5
235B
330
230A
100
AcDbEntity
  8
SUNPOU
100
AcDbLine
 10
1300.512695632831
 20
1829.999986378385
 30
0.0
 11
1400.512695632831
 21
1729.999986378385
 31
0.0
  0
ENDBLK
  5
235D
330
230A
100
AcDbEntity
  8
0
100
AcDbBlockEnd
  0
BLOCK
  5
5823
330
5819
100
AcDbEntity
  8
0
100
AcDbBlockBegin
  2
*D53
 70
     1
 10
0.0
 20
0.0
 30
0.0
  3
*D53
  1

  0
LINE
  5
5A25
330
5819
100
AcDbEntity
  8
SUNPOU
 62
     0
370
    -2
100
AcDbLine
 10
-6505.161373363786
 20
7874.441621595689
 30
0.0
 11
-6505.161373363786
 21
7432.09162159569
 31
0.0
  0
LINE
  5
5A26
330
5819
100
AcDbEntity
  8
SUNPOU
 62
     0
370
    -2
100
AcDbLine
 10
-8505.161373363786
 20
7939.441621595689
 30
0.0
 11
-8505.161373363786
 21
7432.09162159569
 31
0.0
  0
LINE
  5
5A27
330
5819
100
AcDbEntity
  8
SUNPOU
 62
     0
370
    -2
100
AcDbLine
 10
-6559.161373363786
 20
7450.09162159569
 30
0.0
 11
-8451.161373363786
 21
7450.09162159569
 31
0.0
  0
SOLID
  5
5A28
330
5819
100
AcDbEntity
  8
SUNPOU
 62
     0
100
AcDbTrace
 10
-6559.161373363786
 20
7459.09162159569
 30
0.0
 11
-6559.161373363786
 21
7441.09162159569
 31
0.0
 12
-6505.161373363786
 22
7450.09162159569
 32
0.0
 13
-6505.161373363786
 23
7450.09162159569
 33
0.0
  0
SOLID
  5
5A29
330
5819
100
AcDbEntity
  8
SUNPOU
 62
     0
100
AcDbTrace
 10
-8451.161373363786
 20
7459.09162159569
 30
0.0
 11
-8451.161373363786
 21
7441.09162159569
 31
0.0
 12
-8505.161373363786
 22
7450.09162159569
 32
0.0
 13
-8505.161373363786
 23
7450.09162159569
 33
0.0
  0
MTEXT
  5
5A2A
330
5819
100
AcDbEntity
  8
SUNPOU
 62
     0
100
AcDbMText
 10
-7505.161373363786
 20
7513.09162159569
 30
0.0
 40
90.0
 41
0.0
 71
     5
 72
     1
  1
\A1;2000
 73
     1
 44
1.0
  0
POINT
  5
5A2B
330
5819
100
AcDbEntity
  8
DEFPOINTS
 62
     0
100
AcDbPoint
 10
-6505.161373363786
 20
7919.441621595689
 30
0.0
  0
POINT
  5
5A2C
330
5819
100
AcDbEntity
  8
DEFPOINTS
 62
     0
100
AcDbPoint
 10
-8505.161373363786
 20
7984.441621595689
 30
0.0
  0
POINT
  5
5A2D
330
5819
100
AcDbEntity
  8
DEFPOINTS
 62
     0
100
AcDbPoint
 10
-8505.161373363786
 20
7450.09162159569
 30
0.0
  0
ENDBLK
  5
5824
330
5819
100
AcDbEntity
  8
0
100
AcDbBlockEnd
  0
BLOCK
  5
582F
330
5825
100
AcDbEntity
  8
0
100
AcDbBlockBegin
  2
*D54
 70
     1
 10
0.0
 20
0.0
 30
0.0
  3
*D54
  1

  0
LINE
  5
5A2E
330
5825
100
AcDbEntity
  8
SUNPOU
 62
     0
370
    -2
100
AcDbLine
 10
-8505.161373363786
 20
7939.460553634524
 30
0.0
 11
-8505.161373363786
 21
7242.09162159569
 31
0.0
  0
LINE
  5
5A2F
330
5825
100
AcDbEntity
  8
SUNPOU
 62
     0
370
    -2
100
AcDbLine
 10
-6465.161373363786
 20
7875.09162159569
 30
0.0
 11
-6465.161373363786
 21
7242.09162159569
 31
0.0
  0
LINE
  5
5A30
330
5825
100
AcDbEntity
  8
SUNPOU
 62
     0
370
    -2
100
AcDbLine
 10
-8451.161373363786
 20
7260.09162159569
 30
0.0
 11
-6519.161373363786
 21
7260.09162159569
 31
0.0
  0
SOLID
  5
5A31
330
5825
100
AcDbEntity
  8
SUNPOU
 62
     0
100
AcDbTrace
 10
-8451.161373363786
 20
7269.09162159569
 30
0.0
 11
-8451.161373363786
 21
7251.09162159569
 31
0.0
 12
-8505.161373363786
 22
7260.09162159569
 32
0.0
 13
-8505.161373363786
 23
7260.09162159569
 33
0.0
  0
SOLID
  5
5A32
330
5825
100
AcDbEntity
  8
SUNPOU
 62
     0
100
AcDbTrace
 10
-6519.161373363786
 20
7269.09162159569
 30
0.0
 11
-6519.161373363786
 21
7251.09162159569
 31
0.0
 12
-6465.161373363786
 22
7260.09162159569
 32
0.0
 13
-6465.161373363786
 23
7260.09162159569
 33
0.0
  0
MTEXT
  5
5A33
330
5825
100
AcDbEntity
  8
SUNPOU
 62
     0
100
AcDbMText
 10
-7485.161373363786
 20
7323.09162159569
 30
0.0
 40
90.0
 41
0.0
 71
     5
 72
     1
  1
\A1;2040
 73
     1
 44
1.0
  0
POINT
  5
5A34
330
5825
100
AcDbEntity
  8
DEFPOINTS
 62
     0
100
AcDbPoint
 10
-8505.161373363786
 20
7984.460553634524
 30
0.0
  0
POINT
  5
5A35
330
5825
100
AcDbEntity
  8
DEFPOINTS
 62
     0
100
AcDbPoint
 10
-6465.161373363786
 20
7920.09162159569
 30
0.0
  0
POINT
  5
5A36
330
5825
100
AcDbEntity
  8
DEFPOINTS
 62
     0
100
AcDbPoint
 10
-6465.161373363786
 20
7260.09162159569
 30
0.0
  0
ENDBLK
  5
5830
330
5825
100
AcDbEntity
  8
0
100
AcDbBlockEnd
  0
BLOCK
  5
583B
330
5831
100
AcDbEntity
  8
0
100
AcDbBlockBegin
  2
*D55
 70
     1
 10
0.0
 20
0.0
 30
0.0
  3
*D55
  1

  0
LINE
  5
5A37
330
5831
100
AcDbEntity
  8
SUNPOU
 62
     0
370
    -2
100
AcDbLine
 10
-10937.61998367644
 20
7875.09162159569
 30
0.0
 11
-10937.61998367644
 21
7452.09162159569
 31
0.0
  0
LINE
  5
5A38
330
5831
100
AcDbEntity
  8
SUNPOU
 62
     0
370
    -2
100
AcDbLine
 10
-11737.61998367644
 20
7875.09162159569
 30
0.0
 11
-11737.61998367644
 21
7452.09162159569
 31
0.0
  0
LINE
  5
5A39
330
5831
100
AcDbEntity
  8
SUNPOU
 62
     0
370
    -2
100
AcDbLine
 10
-10982.61998367644
 20
7470.09162159569
 30
0.0
 11
-11692.61998367644
 21
7470.09162159569
 31
0.0
  0
SOLID
  5
5A3A
330
5831
100
AcDbEntity
  8
SUNPOU
 62
     0
100
AcDbTrace
 10
-10982.61998367644
 20
7477.59162159569
 30
0.0
 11
-10982.61998367644
 21
7462.59162159569
 31
0.0
 12
-10937.61998367644
 22
7470.09162159569
 32
0.0
 13
-10937.61998367644
 23
7470.09162159569
 33
0.0
  0
SOLID
  5
5A3B
330
5831
100
AcDbEntity
  8
SUNPOU
 62
     0
100
AcDbTrace
 10
-11692.61998367644
 20
7477.59162159569
 30
0.0
 11
-11692.61998367644
 21
7462.59162159569
 31
0.0
 12
-11737.61998367644
 22
7470.09162159569
 32
0.0
 13
-11737.61998367644
 23
7470.09162159569
 33
0.0
  0
MTEXT
  5
5A3C
330
5831
100
AcDbEntity
  8
SUNPOU
 62
     0
100
AcDbMText
 10
-11337.61998367644
 20
7533.09162159569
 30
0.0
 40
90.0
 41
0.0
 71
     5
 72
     1
  1
\A1;800
 73
     1
 44
1.0
  0
POINT
  5
5A3D
330
5831
100
AcDbEntity
  8
DEFPOINTS
 62
     0
100
AcDbPoint
 10
-10937.61998367644
 20
7920.09162159569
 30
0.0
  0
POINT
  5
5A3E
330
5831
100
AcDbEntity
  8
DEFPOINTS
 62
     0
100
AcDbPoint
 10
-11737.61998367644
 20
7920.09162159569
 30
0.0
  0
POINT
  5
5A3F
330
5831
100
AcDbEntity
  8
DEFPOINTS
 62
     0
100
AcDbPoint
 10
-11737.61998367644
 20
7470.09162159569
 30
0.0
  0
ENDBLK
  5
583C
330
5831
100
AcDbEntity
  8
0
100
AcDbBlockEnd
  0
BLOCK
  5
5847
330
583D
100
AcDbEntity
  8
0
100
AcDbBlockBegin
  2
*D56
 70
     1
 10
0.0
 20
0.0
 30
0.0
  3
*D56
  1

  0
LINE
  5
5A40
330
583D
100
AcDbEntity
  8
SUNPOU
 62
     0
370
    -2
100
AcDbLine
 10
-11867.61998367644
 20
7875.09162159569
 30
0.0
 11
-11867.61998367644
 21
7272.09162159569
 31
0.0
  0
LINE
  5
5A41
330
583D
100
AcDbEntity
  8
SUNPOU
 62
     0
370
    -2
100
AcDbLine
 10
-10807.61998367644
 20
7875.09162159569
 30
0.0
 11
-10807.61998367644
 21
7272.09162159569
 31
0.0
  0
LINE
  5
5A42
330
583D
100
AcDbEntity
  8
SUNPOU
 62
     0
370
    -2
100
AcDbLine
 10
-11822.61998367644
 20
7290.09162159569
 30
0.0
 11
-10852.61998367644
 21
7290.09162159569
 31
0.0
  0
SOLID
  5
5A43
330
583D
100
AcDbEntity
  8
SUNPOU
 62
     0
100
AcDbTrace
 10
-11822.61998367644
 20
7297.59162159569
 30
0.0
 11
-11822.61998367644
 21
7282.59162159569
 31
0.0
 12
-11867.61998367644
 22
7290.09162159569
 32
0.0
 13
-11867.61998367644
 23
7290.09162159569
 33
0.0
  0
SOLID
  5
5A44
330
583D
100
AcDbEntity
  8
SUNPOU
 62
     0
100
AcDbTrace
 10
-10852.61998367644
 20
7297.59162159569
 30
0.0
 11
-10852.61998367644
 21
7282.59162159569
 31
0.0
 12
-10807.61998367644
 22
7290.09162159569
 32
0.0
 13
-10807.61998367644
 23
7290.09162159569
 33
0.0
  0
MTEXT
  5
5A45
330
583D
100
AcDbEntity
  8
SUNPOU
 62
     0
100
AcDbMText
 10
-11337.61998367644
 20
7353.09162159569
 30
0.0
 40
90.0
 41
0.0
 71
     5
 72
     1
  1
\A1;1060
 73
     1
 44
1.0
  0
POINT
  5
5A46
330
583D
100
AcDbEntity
  8
DEFPOINTS
 62
     0
100
AcDbPoint
 10
-11867.61998367644
 20
7920.09162159569
 30
0.0
  0
POINT
  5
5A47
330
583D
100
AcDbEntity
  8
DEFPOINTS
 62
     0
100
AcDbPoint
 10
-10807.61998367644
 20
7920.09162159569
 30
0.0
  0
POINT
  5
5A48
330
583D
100
AcDbEntity
  8
DEFPOINTS
 62
     0
100
AcDbPoint
 10
-10807.61998367644
 20
7290.09162159569
 30
0.0
  0
ENDBLK
  5
5848
330
583D
100
AcDbEntity
  8
0
100
AcDbBlockEnd
  0
BLOCK
  5
5853
330
5849
100
AcDbEntity
  8
0
100
AcDbBlockBegin
  2
*D57
 70
     1
 10
0.0
 20
0.0
 30
0.0
  3
*D57
  1

  0
LINE
  5
5A49
330
5849
100
AcDbEntity
  8
SUNPOU
 62
     0
370
    -2
100
AcDbLine
 10
-11867.61998367644
 20
7875.09162159569
 30
0.0
 11
-11867.61998367644
 21
7452.09162159569
 31
0.0
  0
LINE
  5
5A4A
330
5849
100
AcDbEntity
  8
SUNPOU
 62
     0
370
    -2
100
AcDbLine
 10
-11737.61998367644
 20
7875.09162159569
 30
0.0
 11
-11737.61998367644
 21
7452.09162159569
 31
0.0
  0
LINE
  5
5A4B
330
5849
100
AcDbEntity
  8
SUNPOU
 62
     0
370
    -2
100
AcDbLine
 10
-11822.61998367644
 20
7470.09162159569
 30
0.0
 11
-11782.61998367644
 21
7470.09162159569
 31
0.0
  0
MTEXT
  5
5A4C
330
5849
100
AcDbEntity
  8
SUNPOU
 62
     0
100
AcDbMText
 10
-11769.22582095972
 20
7543.183543546016
 30
0.0
 40
90.0
 41
0.0
 71
     5
 72
     1
  1
\A1;130
 73
     1
 44
1.0
  0
SOLID
  5
5A4D
330
5849
100
AcDbEntity
  8
SUNPOU
 62
     0
100
AcDbTrace
 10
-11822.61998367644
 20
7477.59162159569
 30
0.0
 11
-11822.61998367644
 21
7462.59162159569
 31
0.0
 12
-11867.61998367644
 22
7470.09162159569
 32
0.0
 13
-11867.61998367644
 23
7470.09162159569
 33
0.0
  0
SOLID
  5
5A4E
330
5849
100
AcDbEntity
  8
SUNPOU
 62
     0
100
AcDbTrace
 10
-11782.61998367644
 20
7477.59162159569
 30
0.0
 11
-11782.61998367644
 21
7462.59162159569
 31
0.0
 12
-11737.61998367644
 22
7470.09162159569
 32
0.0
 13
-11737.61998367644
 23
7470.09162159569
 33
0.0
  0
POINT
  5
5A4F
330
5849
100
AcDbEntity
  8
DEFPOINTS
 62
     0
100
AcDbPoint
 10
-11867.61998367644
 20
7920.09162159569
 30
0.0
  0
POINT
  5
5A50
330
5849
100
AcDbEntity
  8
DEFPOINTS
 62
     0
100
AcDbPoint
 10
-11737.61998367644
 20
7920.09162159569
 30
0.0
  0
POINT
  5
5A51
330
5849
100
AcDbEntity
  8
DEFPOINTS
 62
     0
100
AcDbPoint
 10
-11737.61998367644
 20
7470.09162159569
 30
0.0
  0
ENDBLK
  5
5854
330
5849
100
AcDbEntity
  8
0
100
AcDbBlockEnd
  0
BLOCK
  5
585F
330
5855
100
AcDbEntity
  8
0
100
AcDbBlockBegin
  2
*D58
 70
     1
 10
0.0
 20
0.0
 30
0.0
  3
*D58
  1

  0
LINE
  5
5A52
330
5855
100
AcDbEntity
  8
SUNPOU
 62
     0
370
    -2
100
AcDbLine
 10
-10762.61998367644
 20
9480.09162159569
 30
0.0
 11
-10159.61998367644
 21
9480.09162159569
 31
0.0
  0
LINE
  5
5A53
330
5855
100
AcDbEntity
  8
SUNPOU
 62
     0
370
    -2
100
AcDbLine
 10
-10762.61998367644
 20
7920.09162159569
 30
0.0
 11
-10159.61998367644
 21
7920.091621595689
 31
0.0
  0
LINE
  5
5A54
330
5855
100
AcDbEntity
  8
SUNPOU
 62
     0
370
    -2
100
AcDbLine
 10
-10177.61998367644
 20
9435.09162159569
 30
0.0
 11
-10177.61998367644
 21
7965.091621595689
 31
0.0
  0
SOLID
  5
5A55
330
5855
100
AcDbEntity
  8
SUNPOU
 62
     0
100
AcDbTrace
 10
-10185.11998367644
 20
9435.09162159569
 30
0.0
 11
-10170.11998367644
 21
9435.09162159569
 31
0.0
 12
-10177.61998367644
 22
9480.09162159569
 32
0.0
 13
-10177.61998367644
 23
9480.09162159569
 33
0.0
  0
SOLID
  5
5A56
330
5855
100
AcDbEntity
  8
SUNPOU
 62
     0
100
AcDbTrace
 10
-10185.11998367644
 20
7965.091621595689
 30
0.0
 11
-10170.11998367644
 21
7965.091621595689
 31
0.0
 12
-10177.61998367644
 22
7920.091621595689
 32
0.0
 13
-10177.61998367644
 23
7920.091621595689
 33
0.0
  0
MTEXT
  5
5A57
330
5855
100
AcDbEntity
  8
SUNPOU
 62
     0
100
AcDbMText
 10
-10240.61998367644
 20
8700.091621595688
 30
0.0
 40
90.0
 41
0.0
 71
     5
 72
     1
  1
\A1;1560
 11
6.123031769111886E-17
 21
1.0
 31
0.0
 73
     1
 44
1.0
  0
POINT
  5
5A58
330
5855
100
AcDbEntity
  8
DEFPOINTS
 62
     0
100
AcDbPoint
 10
-10807.61998367644
 20
9480.09162159569
 30
0.0
  0
POINT
  5
5A59
330
5855
100
AcDbEntity
  8
DEFPOINTS
 62
     0
100
AcDbPoint
 10
-10807.61998367644
 20
7920.09162159569
 30
0.0
  0
POINT
  5
5A5A
330
5855
100
AcDbEntity
  8
DEFPOINTS
 62
     0
100
AcDbPoint
 10
-10177.61998367644
 20
7920.091621595689
 30
0.0
  0
ENDBLK
  5
5860
330
5855
100
AcDbEntity
  8
0
100
AcDbBlockEnd
  0
BLOCK
  5
586B
330
5861
100
AcDbEntity
  8
0
100
AcDbBlockBegin
  2
*D59
 70
     1
 10
0.0
 20
0.0
 30
0.0
  3
*D59
  1

  0
LINE
  5
5A5B
330
5861
100
AcDbEntity
  8
SUNPOU
 62
     0
370
    -2
100
AcDbLine
 10
-10762.61998367644
 20
7920.09162159569
 30
0.0
 11
-10339.61998367644
 21
7920.09162159569
 31
0.0
  0
LINE
  5
5A5C
330
5861
100
AcDbEntity
  8
SUNPOU
 62
     0
370
    -2
100
AcDbLine
 10
-10762.61998367644
 20
8050.09162159569
 30
0.0
 11
-10339.61998367644
 21
8050.09162159569
 31
0.0
  0
LINE
  5
5A5D
330
5861
100
AcDbEntity
  8
SUNPOU
 62
     0
370
    -2
100
AcDbLine
 10
-10357.61998367644
 20
7965.09162159569
 30
0.0
 11
-10357.61998367644
 21
8005.09162159569
 31
0.0
  0
MTEXT
  5
5A5E
330
5861
100
AcDbEntity
  8
SUNPOU
 62
     0
100
AcDbMText
 10
-10427.89151702425
 20
8018.282212525293
 30
0.0
 40
90.0
 41
0.0
 71
     5
 72
     1
  1
\A1;130
 11
6.123031769111886E-17
 21
1.0
 31
0.0
 73
     1
 44
1.0
  0
SOLID
  5
5A5F
330
5861
100
AcDbEntity
  8
SUNPOU
 62
     0
100
AcDbTrace
 10
-10365.11998367644
 20
7965.09162159569
 30
0.0
 11
-10350.11998367644
 21
7965.09162159569
 31
0.0
 12
-10357.61998367644
 22
7920.09162159569
 32
0.0
 13
-10357.61998367644
 23
7920.09162159569
 33
0.0
  0
SOLID
  5
5A60
330
5861
100
AcDbEntity
  8
SUNPOU
 62
     0
100
AcDbTrace
 10
-10365.11998367644
 20
8005.09162159569
 30
0.0
 11
-10350.11998367644
 21
8005.09162159569
 31
0.0
 12
-10357.61998367644
 22
8050.09162159569
 32
0.0
 13
-10357.61998367644
 23
8050.09162159569
 33
0.0
  0
POINT
  5
5A61
330
5861
100
AcDbEntity
  8
DEFPOINTS
 62
     0
100
AcDbPoint
 10
-10807.61998367644
 20
7920.09162159569
 30
0.0
  0
POINT
  5
5A62
330
5861
100
AcDbEntity
  8
DEFPOINTS
 62
     0
100
AcDbPoint
 10
-10807.61998367644
 20
8050.09162159569
 30
0.0
  0
POINT
  5
5A63
330
5861
100
AcDbEntity
  8
DEFPOINTS
 62
     0
100
AcDbPoint
 10
-10357.61998367644
 20
8050.09162159569
 30
0.0
  0
ENDBLK
  5
586C
330
5861
100
AcDbEntity
  8
0
100
AcDbBlockEnd
  0
BLOCK
  5
5877
330
586D
100
AcDbEntity
  8
0
100
AcDbBlockBegin
  2
*D60
 70
     1
 10
0.0
 20
0.0
 30
0.0
  3
*D60
  1

  0
LINE
  5
5A64
330
586D
100
AcDbEntity
  8
SUNPOU
 62
     0
370
    -2
100
AcDbLine
 10
-10807.61998367644
 20
7875.09162159569
 30
0.0
 11
-10807.61998367644
 21
7452.09162159569
 31
0.0
  0
LINE
  5
5A65
330
586D
100
AcDbEntity
  8
SUNPOU
 62
     0
370
    -2
100
AcDbLine
 10
-10937.61998367644
 20
7875.09162159569
 30
0.0
 11
-10937.61998367644
 21
7452.09162159569
 31
0.0
  0
LINE
  5
5A66
330
586D
100
AcDbEntity
  8
SUNPOU
 62
     0
370
    -2
100
AcDbLine
 10
-10852.61998367644
 20
7470.09162159569
 30
0.0
 11
-10892.61998367644
 21
7470.09162159569
 31
0.0
  0
MTEXT
  5
5A67
330
586D
100
AcDbEntity
  8
SUNPOU
 62
     0
100
AcDbMText
 10
-10834.20326926299
 20
7540.719437786898
 30
0.0
 40
90.0
 41
0.0
 71
     5
 72
     1
  1
\A1;130
 73
     1
 44
1.0
  0
SOLID
  5
5A68
330
586D
100
AcDbEntity
  8
SUNPOU
 62
     0
100
AcDbTrace
 10
-10852.61998367644
 20
7477.59162159569
 30
0.0
 11
-10852.61998367644
 21
7462.59162159569
 31
0.0
 12
-10807.61998367644
 22
7470.09162159569
 32
0.0
 13
-10807.61998367644
 23
7470.09162159569
 33
0.0
  0
SOLID
  5
5A69
330
586D
100
AcDbEntity
  8
SUNPOU
 62
     0
100
AcDbTrace
 10
-10892.61998367644
 20
7477.59162159569
 30
0.0
 11
-10892.61998367644
 21
7462.59162159569
 31
0.0
 12
-10937.61998367644
 22
7470.09162159569
 32
0.0
 13
-10937.61998367644
 23
7470.09162159569
 33
0.0
  0
POINT
  5
5A6A
330
586D
100
AcDbEntity
  8
DEFPOINTS
 62
     0
100
AcDbPoint
 10
-10807.61998367644
 20
7920.09162159569
 30
0.0
  0
POINT
  5
5A6B
330
586D
100
AcDbEntity
  8
DEFPOINTS
 62
     0
100
AcDbPoint
 10
-10937.61998367644
 20
7920.09162159569
 30
0.0
  0
POINT
  5
5A6C
330
586D
100
AcDbEntity
  8
DEFPOINTS
 62
     0
100
AcDbPoint
 10
-10937.61998367644
 20
7470.09162159569
 30
0.0
  0
ENDBLK
  5
5878
330
586D
100
AcDbEntity
  8
0
100
AcDbBlockEnd
  0
BLOCK
  5
5883
330
5879
100
AcDbEntity
  8
0
100
AcDbBlockBegin
  2
*D61
 70
     1
 10
0.0
 20
0.0
 30
0.0
  3
*D61
  1

  0
LINE
  5
5A6D
330
5879
100
AcDbEntity
  8
SUNPOU
 62
     0
370
    -2
100
AcDbLine
 10
-10763.04998367644
 20
9480.09162159569
 30
0.0
 11
-10340.04998367644
 21
9480.09162159569
 31
0.0
  0
LINE
  5
5A6E
330
5879
100
AcDbEntity
  8
SUNPOU
 62
     0
370
    -2
100
AcDbLine
 10
-10763.04998367644
 20
9350.09162159569
 30
0.0
 11
-10340.04998367644
 21
9350.09162159569
 31
0.0
  0
LINE
  5
5A6F
330
5879
100
AcDbEntity
  8
SUNPOU
 62
     0
370
    -2
100
AcDbLine
 10
-10358.04998367644
 20
9435.09162159569
 30
0.0
 11
-10358.04998367644
 21
9395.09162159569
 31
0.0
  0
MTEXT
  5
5A70
330
5879
100
AcDbEntity
  8
SUNPOU
 62
     0
100
AcDbMText
 10
-10428.32151702425
 20
9448.059159161014
 30
0.0
 40
90.0
 41
0.0
 71
     5
 72
     1
  1
\A1;130
 11
6.123031769111886E-17
 21
1.0
 31
0.0
 73
     1
 44
1.0
  0
SOLID
  5
5A71
330
5879
100
AcDbEntity
  8
SUNPOU
 62
     0
100
AcDbTrace
 10
-10365.54998367644
 20
9435.09162159569
 30
0.0
 11
-10350.54998367644
 21
9435.09162159569
 31
0.0
 12
-10358.04998367644
 22
9480.09162159569
 32
0.0
 13
-10358.04998367644
 23
9480.09162159569
 33
0.0
  0
SOLID
  5
5A72
330
5879
100
AcDbEntity
  8
SUNPOU
 62
     0
100
AcDbTrace
 10
-10365.54998367644
 20
9395.09162159569
 30
0.0
 11
-10350.54998367644
 21
9395.09162159569
 31
0.0
 12
-10358.04998367644
 22
9350.09162159569
 32
0.0
 13
-10358.04998367644
 23
9350.09162159569
 33
0.0
  0
POINT
  5
5A73
330
5879
100
AcDbEntity
  8
DEFPOINTS
 62
     0
100
AcDbPoint
 10
-10808.04998367644
 20
9480.09162159569
 30
0.0
  0
POINT
  5
5A74
330
5879
100
AcDbEntity
  8
DEFPOINTS
 62
     0
100
AcDbPoint
 10
-10808.04998367644
 20
9350.09162159569
 30
0.0
  0
POINT
  5
5A75
330
5879
100
AcDbEntity
  8
DEFPOINTS
 62
     0
100
AcDbPoint
 10
-10358.04998367644
 20
9350.09162159569
 30
0.0
  0
ENDBLK
  5
5884
330
5879
100
AcDbEntity
  8
0
100
AcDbBlockEnd
  0
BLOCK
  5
588F
330
5885
100
AcDbEntity
  8
0
100
AcDbBlockBegin
  2
*D62
 70
     1
 10
0.0
 20
0.0
 30
0.0
  3
*D62
  1

  0
LINE
  5
5A76
330
5885
100
AcDbEntity
  8
SUNPOU
 62
     0
370
    -2
100
AcDbLine
 10
-10762.61998367644
 20
9350.09162159569
 30
0.0
 11
-10339.61998367644
 21
9350.09162159569
 31
0.0
  0
LINE
  5
5A77
330
5885
100
AcDbEntity
  8
SUNPOU
 62
     0
370
    -2
100
AcDbLine
 10
-10762.61998367644
 20
8050.09162159569
 30
0.0
 11
-10339.61998367644
 21
8050.09162159569
 31
0.0
  0
LINE
  5
5A78
330
5885
100
AcDbEntity
  8
SUNPOU
 62
     0
370
    -2
100
AcDbLine
 10
-10357.61998367644
 20
9305.09162159569
 30
0.0
 11
-10357.61998367644
 21
8095.09162159569
 31
0.0
  0
SOLID
  5
5A79
330
5885
100
AcDbEntity
  8
SUNPOU
 62
     0
100
AcDbTrace
 10
-10365.11998367644
 20
9305.09162159569
 30
0.0
 11
-10350.11998367644
 21
9305.09162159569
 31
0.0
 12
-10357.61998367644
 22
9350.09162159569
 32
0.0
 13
-10357.61998367644
 23
9350.09162159569
 33
0.0
  0
SOLID
  5
5A7A
330
5885
100
AcDbEntity
  8
SUNPOU
 62
     0
100
AcDbTrace
 10
-10365.11998367644
 20
8095.09162159569
 30
0.0
 11
-10350.11998367644
 21
8095.09162159569
 31
0.0
 12
-10357.61998367644
 22
8050.09162159569
 32
0.0
 13
-10357.61998367644
 23
8050.09162159569
 33
0.0
  0
MTEXT
  5
5A7B
330
5885
100
AcDbEntity
  8
SUNPOU
 62
     0
100
AcDbMText
 10
-10420.61998367644
 20
8700.091621595688
 30
0.0
 40
90.0
 41
0.0
 71
     5
 72
     1
  1
\A1;1300
 11
6.123031769111886E-17
 21
1.0
 31
0.0
 73
     1
 44
1.0
  0
POINT
  5
5A7C
330
5885
100
AcDbEntity
  8
DEFPOINTS
 62
     0
100
AcDbPoint
 10
-10807.61998367644
 20
9350.09162159569
 30
0.0
  0
POINT
  5
5A7D
330
5885
100
AcDbEntity
  8
DEFPOINTS
 62
     0
100
AcDbPoint
 10
-10807.61998367644
 20
8050.09162159569
 30
0.0
  0
POINT
  5
5A7E
330
5885
100
AcDbEntity
  8
DEFPOINTS
 62
     0
100
AcDbPoint
 10
-10357.61998367644
 20
8050.09162159569
 30
0.0
  0
ENDBLK
  5
5890
330
5885
100
AcDbEntity
  8
0
100
AcDbBlockEnd
  0
BLOCK
  5
589D
330
5891
100
AcDbEntity
  8
0
100
AcDbBlockBegin
  2
*D63
 70
     1
 10
0.0
 20
0.0
 30
0.0
  3
*D63
  1

  0
LINE
  5
5A7F
330
5891
100
AcDbEntity
  8
SUNPOU
 62
     0
370
    -2
100
AcDbLine
 10
-8505.161373363786
 20
7940.09162159569
 30
0.0
 11
-8505.161373363786
 21
7602.09162159569
 31
0.0
  0
LINE
  5
5A80
330
5891
100
AcDbEntity
  8
SUNPOU
 62
     0
370
    -2
100
AcDbLine
 10
-8445.161373363786
 20
7875.09162159569
 30
0.0
 11
-8445.161373363786
 21
7602.09162159569
 31
0.0
  0
LINE
  5
5A81
330
5891
100
AcDbEntity
  8
SUNPOU
 62
     0
370
    -2
100
AcDbLine
 10
-8559.161373363786
 20
7620.09162159569
 30
0.0
 11
-8613.161373363786
 21
7620.09162159569
 31
0.0
  0
LINE
  5
5A82
330
5891
100
AcDbEntity
  8
SUNPOU
 62
     0
370
    -2
100
AcDbLine
 10
-8391.161373363786
 20
7620.09162159569
 30
0.0
 11
-8337.161373363786
 21
7620.09162159569
 31
0.0
  0
MTEXT
  5
5A83
330
5891
100
AcDbEntity
  8
SUNPOU
 62
     0
100
AcDbMText
 10
-8354.452690137608
 20
7693.217125006122
 30
0.0
 40
90.0
 41
0.0
 71
     5
 72
     1
  1
\A1;60
 73
     1
 44
1.0
  0
LINE
  5
5A84
330
5891
100
AcDbEntity
  8
SUNPOU
 62
     0
370
    -2
100
AcDbLine
 10
-8505.161373363786
 20
7620.09162159569
 30
0.0
 11
-8445.161373363786
 21
7620.09162159569
 31
0.0
  0
SOLID
  5
5A85
330
5891
100
AcDbEntity
  8
SUNPOU
 62
     0
100
AcDbTrace
 10
-8559.161373363786
 20
7629.09162159569
 30
0.0
 11
-8559.161373363786
 21
7611.09162159569
 31
0.0
 12
-8505.161373363786
 22
7620.09162159569
 32
0.0
 13
-8505.161373363786
 23
7620.09162159569
 33
0.0
  0
SOLID
  5
5A86
330
5891
100
AcDbEntity
  8
SUNPOU
 62
     0
100
AcDbTrace
 10
-8391.161373363786
 20
7629.09162159569
 30
0.0
 11
-8391.161373363786
 21
7611.09162159569
 31
0.0
 12
-8445.161373363786
 22
7620.09162159569
 32
0.0
 13
-8445.161373363786
 23
7620.09162159569
 33
0.0
  0
POINT
  5
5A87
330
5891
100
AcDbEntity
  8
DEFPOINTS
 62
     0
100
AcDbPoint
 10
-8505.161373363786
 20
7985.09162159569
 30
0.0
  0
POINT
  5
5A88
330
5891
100
AcDbEntity
  8
DEFPOINTS
 62
     0
100
AcDbPoint
 10
-8445.161373363786
 20
7920.09162159569
 30
0.0
  0
POINT
  5
5A89
330
5891
100
AcDbEntity
  8
DEFPOINTS
 62
     0
100
AcDbPoint
 10
-8445.161373363786
 20
7620.09162159569
 30
0.0
  0
ENDBLK
  5
589E
330
5891
100
AcDbEntity
  8
0
100
AcDbBlockEnd
  0
BLOCK
  5
58AB
330
589F
100
AcDbEntity
  8
0
100
AcDbBlockBegin
  2
*D64
 70
     1
 10
0.0
 20
0.0
 30
0.0
  3
*D64
  1

  0
LINE
  5
5A8A
330
589F
100
AcDbEntity
  8
SUNPOU
 62
     0
370
    -2
100
AcDbLine
 10
-10762.61998367644
 20
12805.5549217521
 30
0.0
 11
-10129.61998367644
 21
12805.5549217521
 31
0.0
  0
LINE
  5
5A8B
330
589F
100
AcDbEntity
  8
SUNPOU
 62
     0
370
    -2
100
AcDbLine
 10
-10762.61998367644
 20
12765.5549217521
 30
0.0
 11
-10129.61998367644
 21
12765.5549217521
 31
0.0
  0
LINE
  5
5A8C
330
589F
100
AcDbEntity
  8
SUNPOU
 62
     0
370
    -2
100
AcDbLine
 10
-10147.61998367644
 20
12859.5549217521
 30
0.0
 11
-10147.61998367644
 21
12913.5549217521
 31
0.0
  0
LINE
  5
5A8D
330
589F
100
AcDbEntity
  8
SUNPOU
 62
     0
370
    -2
100
AcDbLine
 10
-10147.61998367644
 20
12711.5549217521
 30
0.0
 11
-10147.61998367644
 21
12657.5549217521
 31
0.0
  0
MTEXT
  5
5A8E
330
589F
100
AcDbEntity
  8
SUNPOU
 62
     0
100
AcDbMText
 10
-10221.06998367644
 20
12902.05414232215
 30
0.0
 40
90.0
 41
0.0
 71
     5
 72
     1
  1
\A1;40
 11
6.123031769111886E-17
 21
1.0
 31
0.0
 73
     1
 44
1.0
  0
LINE
  5
5A8F
330
589F
100
AcDbEntity
  8
SUNPOU
 62
     0
370
    -2
100
AcDbLine
 10
-10147.61998367644
 20
12805.5549217521
 30
0.0
 11
-10147.61998367644
 21
12765.5549217521
 31
0.0
  0
SOLID
  5
5A90
330
589F
100
AcDbEntity
  8
SUNPOU
 62
     0
100
AcDbTrace
 10
-10156.61998367644
 20
12859.5549217521
 30
0.0
 11
-10138.61998367644
 21
12859.5549217521
 31
0.0
 12
-10147.61998367644
 22
12805.5549217521
 32
0.0
 13
-10147.61998367644
 23
12805.5549217521
 33
0.0
  0
SOLID
  5
5A91
330
589F
100
AcDbEntity
  8
SUNPOU
 62
     0
100
AcDbTrace
 10
-10156.61998367644
 20
12711.5549217521
 30
0.0
 11
-10138.61998367644
 21
12711.5549217521
 31
0.0
 12
-10147.61998367644
 22
12765.5549217521
 32
0.0
 13
-10147.61998367644
 23
12765.5549217521
 33
0.0
  0
POINT
  5
5A92
330
589F
100
AcDbEntity
  8
DEFPOINTS
 62
     0
100
AcDbPoint
 10
-10807.61998367644
 20
12805.5549217521
 30
0.0
  0
POINT
  5
5A93
330
589F
100
AcDbEntity
  8
DEFPOINTS
 62
     0
100
AcDbPoint
 10
-10807.61998367644
 20
12765.5549217521
 30
0.0
  0
POINT
  5
5A94
330
589F
100
AcDbEntity
  8
DEFPOINTS
 62
     0
100
AcDbPoint
 10
-10147.61998367644
 20
12765.5549217521
 30
0.0
  0
ENDBLK
  5
58AC
330
589F
100
AcDbEntity
  8
0
100
AcDbBlockEnd
  0
BLOCK
  5
58B7
330
58AD
100
AcDbEntity
  8
0
100
AcDbBlockBegin
  2
*D65
 70
     1
 10
0.0
 20
0.0
 30
0.0
  3
*D65
  1

  0
LINE
  5
5A95
330
58AD
100
AcDbEntity
  8
SUNPOU
 62
     0
370
    -2
100
AcDbLine
 10
-10761.86998367644
 20
12765.5549217521
 30
0.0
 11
-10129.61998367644
 21
12765.5549217521
 31
0.0
  0
LINE
  5
5A96
330
58AD
100
AcDbEntity
  8
SUNPOU
 62
     0
370
    -2
100
AcDbLine
 10
-10836.86998367644
 20
10765.5549217521
 30
0.0
 11
-10129.61998367644
 21
10765.5549217521
 31
0.0
  0
LINE
  5
5A97
330
58AD
100
AcDbEntity
  8
SUNPOU
 62
     0
370
    -2
100
AcDbLine
 10
-10147.61998367644
 20
12711.5549217521
 30
0.0
 11
-10147.61998367644
 21
10819.5549217521
 31
0.0
  0
SOLID
  5
5A98
330
58AD
100
AcDbEntity
  8
SUNPOU
 62
     0
100
AcDbTrace
 10
-10156.61998367644
 20
12711.5549217521
 30
0.0
 11
-10138.61998367644
 21
12711.5549217521
 31
0.0
 12
-10147.61998367644
 22
12765.5549217521
 32
0.0
 13
-10147.61998367644
 23
12765.5549217521
 33
0.0
  0
SOLID
  5
5A99
330
58AD
100
AcDbEntity
  8
SUNPOU
 62
     0
100
AcDbTrace
 10
-10156.61998367644
 20
10819.5549217521
 30
0.0
 11
-10138.61998367644
 21
10819.5549217521
 31
0.0
 12
-10147.61998367644
 22
10765.5549217521
 32
0.0
 13
-10147.61998367644
 23
10765.5549217521
 33
0.0
  0
MTEXT
  5
5A9A
330
58AD
100
AcDbEntity
  8
SUNPOU
 62
     0
100
AcDbMText
 10
-10210.61998367644
 20
11765.5549217521
 30
0.0
 40
90.0
 41
0.0
 71
     5
 72
     1
  1
\A1;2000
 11
6.123031769111886E-17
 21
1.0
 31
0.0
 73
     1
 44
1.0
  0
POINT
  5
5A9B
330
58AD
100
AcDbEntity
  8
DEFPOINTS
 62
     0
100
AcDbPoint
 10
-10806.86998367644
 20
12765.5549217521
 30
0.0
  0
POINT
  5
5A9C
330
58AD
100
AcDbEntity
  8
DEFPOINTS
 62
     0
100
AcDbPoint
 10
-10881.86998367644
 20
10765.5549217521
 30
0.0
  0
POINT
  5
5A9D
330
58AD
100
AcDbEntity
  8
DEFPOINTS
 62
     0
100
AcDbPoint
 10
-10147.61998367644
 20
10765.5549217521
 30
0.0
  0
ENDBLK
  5
58B8
330
58AD
100
AcDbEntity
  8
0
100
AcDbBlockEnd
  0
BLOCK
  5
58C5
330
58B9
100
AcDbEntity
  8
0
100
AcDbBlockBegin
  2
*D66
 70
     1
 10
0.0
 20
0.0
 30
0.0
  3
*D66
  1

  0
LINE
  5
5A9E
330
58B9
100
AcDbEntity
  8
SUNPOU
 62
     0
370
    -2
100
AcDbLine
 10
-10837.61998367644
 20
10765.5549217521
 30
0.0
 11
-10309.61998367644
 21
10765.5549217521
 31
0.0
  0
LINE
  5
5A9F
330
58B9
100
AcDbEntity
  8
SUNPOU
 62
     0
370
    -2
100
AcDbLine
 10
-10762.61998367644
 20
10825.5549217521
 30
0.0
 11
-10309.61998367644
 21
10825.5549217521
 31
0.0
  0
LINE
  5
5AA0
330
58B9
100
AcDbEntity
  8
SUNPOU
 62
     0
370
    -2
100
AcDbLine
 10
-10327.61998367644
 20
10711.5549217521
 30
0.0
 11
-10327.61998367644
 21
10657.5549217521
 31
0.0
  0
LINE
  5
5AA1
330
58B9
100
AcDbEntity
  8
SUNPOU
 62
     0
370
    -2
100
AcDbLine
 10
-10327.61998367644
 20
10879.5549217521
 30
0.0
 11
-10327.61998367644
 21
10933.5549217521
 31
0.0
  0
MTEXT
  5
5AA2
330
58B9
100
AcDbEntity
  8
SUNPOU
 62
     0
100
AcDbMText
 10
-10401.06998367644
 20
10922.57688294773
 30
0.0
 40
90.0
 41
0.0
 71
     5
 72
     1
  1
\A1;60
 11
6.123031769111886E-17
 21
1.0
 31
0.0
 73
     1
 44
1.0
  0
LINE
  5
5AA3
330
58B9
100
AcDbEntity
  8
SUNPOU
 62
     0
370
    -2
100
AcDbLine
 10
-10327.61998367644
 20
10765.5549217521
 30
0.0
 11
-10327.61998367644
 21
10825.5549217521
 31
0.0
  0
SOLID
  5
5AA4
330
58B9
100
AcDbEntity
  8
SUNPOU
 62
     0
100
AcDbTrace
 10
-10336.61998367644
 20
10711.5549217521
 30
0.0
 11
-10318.61998367644
 21
10711.5549217521
 31
0.0
 12
-10327.61998367644
 22
10765.5549217521
 32
0.0
 13
-10327.61998367644
 23
10765.5549217521
 33
0.0
  0
SOLID
  5
5AA5
330
58B9
100
AcDbEntity
  8
SUNPOU
 62
     0
100
AcDbTrace
 10
-10336.61998367644
 20
10879.5549217521
 30
0.0
 11
-10318.61998367644
 21
10879.5549217521
 31
0.0
 12
-10327.61998367644
 22
10825.5549217521
 32
0.0
 13
-10327.61998367644
 23
10825.5549217521
 33
0.0
  0
POINT
  5
5AA6
330
58B9
100
AcDbEntity
  8
DEFPOINTS
 62
     0
100
AcDbPoint
 10
-10882.61998367644
 20
10765.5549217521
 30
0.0
  0
POINT
  5
5AA7
330
58B9
100
AcDbEntity
  8
DEFPOINTS
 62
     0
100
AcDbPoint
 10
-10807.61998367644
 20
10825.5549217521
 30
0.0
  0
POINT
  5
5AA8
330
58B9
100
AcDbEntity
  8
DEFPOINTS
 62
     0
100
AcDbPoint
 10
-10327.61998367644
 20
10825.5549217521
 30
0.0
  0
ENDBLK
  5
58C6
330
58B9
100
AcDbEntity
  8
0
100
AcDbBlockEnd
  0
BLOCK
  5
58D3
330
58C7
100
AcDbEntity
  8
0
100
AcDbBlockBegin
  2
*D67
 70
     1
 10
0.0
 20
0.0
 30
0.0
  3
*D67
  1

  0
LINE
  5
5AA9
330
58C7
100
AcDbEntity
  8
SUNPOU
 62
     0
370
    -2
100
AcDbLine
 10
-3527.853079769469
 20
9881.242521144959
 30
0.0
 11
-2289.853079769469
 21
9881.242521144959
 31
0.0
  0
LINE
  5
5AAA
330
58C7
100
AcDbEntity
  8
SUNPOU
 62
     0
370
    -2
100
AcDbLine
 10
-3327.853079769469
 20
9831.242521144959
 30
0.0
 11
-2289.853079769469
 21
9831.242521144959
 31
0.0
  0
LINE
  5
5AAB
330
58C7
100
AcDbEntity
  8
SUNPOU
 62
     0
370
    -2
100
AcDbLine
 10
-2307.853079769469
 20
9935.242521144959
 30
0.0
 11
-2307.853079769469
 21
9989.242521144959
 31
0.0
  0
LINE
  5
5AAC
330
58C7
100
AcDbEntity
  8
SUNPOU
 62
     0
370
    -2
100
AcDbLine
 10
-2307.853079769469
 20
9777.242521144959
 30
0.0
 11
-2307.853079769469
 21
9723.242521144959
 31
0.0
  0
MTEXT
  5
5AAD
330
58C7
100
AcDbEntity
  8
SUNPOU
 62
     0
100
AcDbMText
 10
-2227.53616039567
 20
9868.182684491232
 30
0.0
 40
75.0
 41
0.0
 71
     5
 72
     1
  1
\A1;10
 11
6.123031769111886E-17
 21
1.0
 31
0.0
 73
     1
 44
1.0
  0
LINE
  5
5AAE
330
58C7
100
AcDbEntity
  8
SUNPOU
 62
     0
370
    -2
100
AcDbLine
 10
-2307.853079769469
 20
9881.242521144959
 30
0.0
 11
-2307.853079769469
 21
9831.242521144959
 31
0.0
  0
SOLID
  5
5AAF
330
58C7
100
AcDbEntity
  8
SUNPOU
 62
     0
100
AcDbTrace
 10
-2316.853079769469
 20
9935.242521144959
 30
0.0
 11
-2298.853079769469
 21
9935.242521144959
 31
0.0
 12
-2307.853079769469
 22
9881.242521144959
 32
0.0
 13
-2307.853079769469
 23
9881.242521144959
 33
0.0
  0
SOLID
  5
5AB0
330
58C7
100
AcDbEntity
  8
SUNPOU
 62
     0
100
AcDbTrace
 10
-2316.853079769469
 20
9777.242521144959
 30
0.0
 11
-2298.853079769469
 21
9777.242521144959
 31
0.0
 12
-2307.853079769469
 22
9831.242521144959
 32
0.0
 13
-2307.853079769469
 23
9831.242521144959
 33
0.0
  0
POINT
  5
5AB1
330
58C7
100
AcDbEntity
  8
DEFPOINTS
 62
     0
100
AcDbPoint
 10
-3572.853079769469
 20
9881.242521144959
 30
0.0
  0
POINT
  5
5AB2
330
58C7
100
AcDbEntity
  8
DEFPOINTS
 62
     0
100
AcDbPoint
 10
-3372.853079769469
 20
9831.242521144959
 30
0.0
  0
POINT
  5
5AB3
330
58C7
100
AcDbEntity
  8
DEFPOINTS
 62
     0
100
AcDbPoint
 10
-2307.853079769469
 20
9831.242521144959
 30
0.0
  0
ENDBLK
  5
58D4
330
58C7
100
AcDbEntity
  8
0
100
AcDbBlockEnd
  0
BLOCK
  5
58DF
330
58D5
100
AcDbEntity
  8
0
100
AcDbBlockBegin
  2
*D68
 70
     1
 10
0.0
 20
0.0
 30
0.0
  3
*D68
  1

  0
LINE
  5
5AB4
330
58D5
100
AcDbEntity
  8
SUNPOU
 62
     0
370
    -2
100
AcDbLine
 10
-3972.853079769469
 20
9811.242521144959
 30
0.0
 11
-3972.853079769469
 21
9213.242521144959
 31
0.0
  0
LINE
  5
5AB5
330
58D5
100
AcDbEntity
  8
SUNPOU
 62
     0
370
    -2
100
AcDbLine
 10
-3672.853079769469
 20
9486.242521144959
 30
0.0
 11
-3672.853079769469
 21
9213.242521144959
 31
0.0
  0
LINE
  5
5AB6
330
58D5
100
AcDbEntity
  8
SUNPOU
 62
     0
370
    -2
100
AcDbLine
 10
-3918.853079769469
 20
9231.242521144959
 30
0.0
 11
-3726.853079769469
 21
9231.242521144959
 31
0.0
  0
SOLID
  5
5AB7
330
58D5
100
AcDbEntity
  8
SUNPOU
 62
     0
100
AcDbTrace
 10
-3918.853079769469
 20
9240.242521144959
 30
0.0
 11
-3918.853079769469
 21
9222.242521144959
 31
0.0
 12
-3972.853079769469
 22
9231.242521144959
 32
0.0
 13
-3972.853079769469
 23
9231.242521144959
 33
0.0
  0
SOLID
  5
5AB8
330
58D5
100
AcDbEntity
  8
SUNPOU
 62
     0
100
AcDbTrace
 10
-3726.853079769469
 20
9240.242521144959
 30
0.0
 11
-3726.853079769469
 21
9222.242521144959
 31
0.0
 12
-3672.853079769469
 22
9231.242521144959
 32
0.0
 13
-3672.853079769469
 23
9231.242521144959
 33
0.0
  0
MTEXT
  5
5AB9
330
58D5
100
AcDbEntity
  8
SUNPOU
 62
     0
100
AcDbMText
 10
-3822.853079769469
 20
9286.742521144959
 30
0.0
 40
75.0
 41
0.0
 71
     5
 72
     1
  1
\A1;60
 73
     1
 44
1.0
  0
POINT
  5
5ABA
330
58D5
100
AcDbEntity
  8
DEFPOINTS
 62
     0
100
AcDbPoint
 10
-3972.853079769469
 20
9856.242521144959
 30
0.0
  0
POINT
  5
5ABB
330
58D5
100
AcDbEntity
  8
DEFPOINTS
 62
     0
100
AcDbPoint
 10
-3672.853079769469
 20
9531.242521144959
 30
0.0
  0
POINT
  5
5ABC
330
58D5
100
AcDbEntity
  8
DEFPOINTS
 62
     0
100
AcDbPoint
 10
-3672.853079769469
 20
9231.242521144959
 30
0.0
  0
ENDBLK
  5
58E0
330
58D5
100
AcDbEntity
  8
0
100
AcDbBlockEnd
  0
BLOCK
  5
58ED
330
58E1
100
AcDbEntity
  8
0
100
AcDbBlockBegin
  2
*D69
 70
     1
 10
0.0
 20
0.0
 30
0.0
  3
*D69
  1

  0
LINE
  5
5ABD
330
58E1
100
AcDbEntity
  8
SUNPOU
 62
     0
370
    -2
100
AcDbLine
 10
-3717.853079769469
 20
9781.242521144959
 30
0.0
 11
-4790.853079769469
 21
9781.24252114496
 31
0.0
  0
LINE
  5
5ABE
330
58E1
100
AcDbEntity
  8
SUNPOU
 62
     0
370
    -2
100
AcDbLine
 10
-4017.853079769469
 20
9856.242521144959
 30
0.0
 11
-4790.853079769469
 21
9856.24252114496
 31
0.0
  0
LINE
  5
5ABF
330
58E1
100
AcDbEntity
  8
SUNPOU
 62
     0
370
    -2
100
AcDbLine
 10
-4772.853079769469
 20
9727.24252114496
 30
0.0
 11
-4772.853079769469
 21
9673.24252114496
 31
0.0
  0
LINE
  5
5AC0
330
58E1
100
AcDbEntity
  8
SUNPOU
 62
     0
370
    -2
100
AcDbLine
 10
-4772.853079769469
 20
9910.24252114496
 30
0.0
 11
-4772.853079769469
 21
9964.24252114496
 31
0.0
  0
MTEXT
  5
5AC1
330
58E1
100
AcDbEntity
  8
SUNPOU
 62
     0
100
AcDbMText
 10
-4834.76273673377
 20
9818.742521144959
 30
0.0
 40
75.0
 41
0.0
 71
     5
 72
     1
  1
\A1;15
 11
6.123031769111886E-17
 21
1.0
 31
0.0
 73
     1
 44
1.0
  0
LINE
  5
5AC2
330
58E1
100
AcDbEntity
  8
SUNPOU
 62
     0
370
    -2
100
AcDbLine
 10
-4772.853079769469
 20
9781.24252114496
 30
0.0
 11
-4772.853079769469
 21
9856.24252114496
 31
0.0
  0
SOLID
  5
5AC3
330
58E1
100
AcDbEntity
  8
SUNPOU
 62
     0
100
AcDbTrace
 10
-4781.853079769469
 20
9727.24252114496
 30
0.0
 11
-4763.853079769469
 21
9727.24252114496
 31
0.0
 12
-4772.853079769469
 22
9781.24252114496
 32
0.0
 13
-4772.853079769469
 23
9781.24252114496
 33
0.0
  0
SOLID
  5
5AC4
330
58E1
100
AcDbEntity
  8
SUNPOU
 62
     0
100
AcDbTrace
 10
-4781.853079769469
 20
9910.24252114496
 30
0.0
 11
-4763.853079769469
 21
9910.24252114496
 31
0.0
 12
-4772.853079769469
 22
9856.24252114496
 32
0.0
 13
-4772.853079769469
 23
9856.24252114496
 33
0.0
  0
POINT
  5
5AC5
330
58E1
100
AcDbEntity
  8
DEFPOINTS
 62
     0
100
AcDbPoint
 10
-3672.853079769469
 20
9781.242521144959
 30
0.0
  0
POINT
  5
5AC6
330
58E1
100
AcDbEntity
  8
DEFPOINTS
 62
     0
100
AcDbPoint
 10
-3972.853079769469
 20
9856.242521144959
 30
0.0
  0
POINT
  5
5AC7
330
58E1
100
AcDbEntity
  8
DEFPOINTS
 62
     0
100
AcDbPoint
 10
-4772.853079769469
 20
9856.24252114496
 30
0.0
  0
ENDBLK
  5
58EE
330
58E1
100
AcDbEntity
  8
0
100
AcDbBlockEnd
  0
BLOCK
  5
58F9
330
58EF
100
AcDbEntity
  8
0
100
AcDbBlockBegin
  2
*D70
 70
     1
 10
0.0
 20
0.0
 30
0.0
  3
*D70
  1

  0
LINE
  5
5AC8
330
58EF
100
AcDbEntity
  8
SUNPOU
 62
     0
370
    -2
100
AcDbLine
 10
-4492.85307976946
 20
9531.242521144959
 30
0.0
 11
-4790.853079769469
 21
9531.242521144959
 31
0.0
  0
LINE
  5
5AC9
330
58EF
100
AcDbEntity
  8
SUNPOU
 62
     0
370
    -2
100
AcDbLine
 10
-3717.853079769469
 20
9781.242521144959
 30
0.0
 11
-4790.853079769469
 21
9781.24252114496
 31
0.0
  0
LINE
  5
5ACA
330
58EF
100
AcDbEntity
  8
SUNPOU
 62
     0
370
    -2
100
AcDbLine
 10
-4772.853079769469
 20
9585.242521144959
 30
0.0
 11
-4772.853079769469
 21
9727.24252114496
 31
0.0
  0
SOLID
  5
5ACB
330
58EF
100
AcDbEntity
  8
SUNPOU
 62
     0
100
AcDbTrace
 10
-4781.853079769469
 20
9585.242521144959
 30
0.0
 11
-4763.853079769469
 21
9585.242521144959
 31
0.0
 12
-4772.853079769469
 22
9531.242521144959
 32
0.0
 13
-4772.853079769469
 23
9531.242521144959
 33
0.0
  0
SOLID
  5
5ACC
330
58EF
100
AcDbEntity
  8
SUNPOU
 62
     0
100
AcDbTrace
 10
-4781.853079769469
 20
9727.24252114496
 30
0.0
 11
-4763.853079769469
 21
9727.24252114496
 31
0.0
 12
-4772.853079769469
 22
9781.24252114496
 32
0.0
 13
-4772.853079769469
 23
9781.24252114496
 33
0.0
  0
MTEXT
  5
5ACD
330
58EF
100
AcDbEntity
  8
SUNPOU
 62
     0
100
AcDbMText
 10
-4828.35307976947
 20
9656.242521144959
 30
0.0
 40
75.0
 41
0.0
 71
     5
 72
     1
  1
\A1;50
 11
6.123031769111886E-17
 21
1.0
 31
0.0
 73
     1
 44
1.0
  0
POINT
  5
5ACE
330
58EF
100
AcDbEntity
  8
DEFPOINTS
 62
     0
100
AcDbPoint
 10
-4447.85307976946
 20
9531.242521144959
 30
0.0
  0
POINT
  5
5ACF
330
58EF
100
AcDbEntity
  8
DEFPOINTS
 62
     0
100
AcDbPoint
 10
-3672.853079769469
 20
9781.242521144959
 30
0.0
  0
POINT
  5
5AD0
330
58EF
100
AcDbEntity
  8
DEFPOINTS
 62
     0
100
AcDbPoint
 10
-4772.853079769469
 20
9781.24252114496
 30
0.0
  0
ENDBLK
  5
58FA
330
58EF
100
AcDbEntity
  8
0
100
AcDbBlockEnd
  0
BLOCK
  5
5905
330
58FB
100
AcDbEntity
  8
0
100
AcDbBlockBegin
  2
*D71
 70
     1
 10
0.0
 20
0.0
 30
0.0
  3
*D71
  1

  0
LINE
  5
5AD1
330
58FB
100
AcDbEntity
  8
SUNPOU
 62
     0
370
    -2
100
AcDbLine
 10
-4492.853079769469
 20
9531.242521144959
 30
0.0
 11
-4970.853079769469
 21
9531.242521144959
 31
0.0
  0
LINE
  5
5AD2
330
58FB
100
AcDbEntity
  8
SUNPOU
 62
     0
370
    -2
100
AcDbLine
 10
-4492.85307976946
 20
10181.24252114496
 30
0.0
 11
-4970.853079769469
 21
10181.24252114496
 31
0.0
  0
LINE
  5
5AD3
330
58FB
100
AcDbEntity
  8
SUNPOU
 62
     0
370
    -2
100
AcDbLine
 10
-4952.853079769469
 20
9585.242521144959
 30
0.0
 11
-4952.853079769469
 21
10127.24252114496
 31
0.0
  0
SOLID
  5
5AD4
330
58FB
100
AcDbEntity
  8
SUNPOU
 62
     0
100
AcDbTrace
 10
-4961.853079769469
 20
9585.242521144959
 30
0.0
 11
-4943.853079769469
 21
9585.242521144959
 31
0.0
 12
-4952.853079769469
 22
9531.242521144959
 32
0.0
 13
-4952.853079769469
 23
9531.242521144959
 33
0.0
  0
SOLID
  5
5AD5
330
58FB
100
AcDbEntity
  8
SUNPOU
 62
     0
100
AcDbTrace
 10
-4961.853079769469
 20
10127.24252114496
 30
0.0
 11
-4943.853079769469
 21
10127.24252114496
 31
0.0
 12
-4952.853079769469
 22
10181.24252114496
 32
0.0
 13
-4952.853079769469
 23
10181.24252114496
 33
0.0
  0
MTEXT
  5
5AD6
330
58FB
100
AcDbEntity
  8
SUNPOU
 62
     0
100
AcDbMText
 10
-5008.35307976947
 20
9856.242521144957
 30
0.0
 40
75.0
 41
0.0
 71
     5
 72
     1
  1
\A1;130
 11
6.123031769111886E-17
 21
1.0
 31
0.0
 73
     1
 44
1.0
  0
POINT
  5
5AD7
330
58FB
100
AcDbEntity
  8
DEFPOINTS
 62
     0
100
AcDbPoint
 10
-4447.853079769469
 20
9531.242521144959
 30
0.0
  0
POINT
  5
5AD8
330
58FB
100
AcDbEntity
  8
DEFPOINTS
 62
     0
100
AcDbPoint
 10
-4447.85307976946
 20
10181.24252114496
 30
0.0
  0
POINT
  5
5AD9
330
58FB
100
AcDbEntity
  8
DEFPOINTS
 62
     0
100
AcDbPoint
 10
-4952.853079769469
 20
10181.24252114496
 30
0.0
  0
ENDBLK
  5
5906
330
58FB
100
AcDbEntity
  8
0
100
AcDbBlockEnd
  0
BLOCK
  5
5911
330
5907
100
AcDbEntity
  8
0
100
AcDbBlockBegin
  2
*D72
 70
     1
 10
0.0
 20
0.0
 30
0.0
  3
*D72
  1

  0
LINE
  5
5ADA
330
5907
100
AcDbEntity
  8
SUNPOU
 62
     0
370
    -2
100
AcDbLine
 10
-2612.853079769469
 20
9531.242521144959
 30
0.0
 11
-2289.853079769469
 21
9531.242521144959
 31
0.0
  0
LINE
  5
5ADB
330
5907
100
AcDbEntity
  8
SUNPOU
 62
     0
370
    -2
100
AcDbLine
 10
-3227.853079769469
 20
9831.242521144959
 30
0.0
 11
-2289.853079769469
 21
9831.242521144959
 31
0.0
  0
LINE
  5
5ADC
330
5907
100
AcDbEntity
  8
SUNPOU
 62
     0
370
    -2
100
AcDbLine
 10
-2307.853079769469
 20
9585.242521144959
 30
0.0
 11
-2307.853079769469
 21
9777.242521144959
 31
0.0
  0
SOLID
  5
5ADD
330
5907
100
AcDbEntity
  8
SUNPOU
 62
     0
100
AcDbTrace
 10
-2316.853079769469
 20
9585.242521144959
 30
0.0
 11
-2298.853079769469
 21
9585.242521144959
 31
0.0
 12
-2307.853079769469
 22
9531.242521144959
 32
0.0
 13
-2307.853079769469
 23
9531.242521144959
 33
0.0
  0
SOLID
  5
5ADE
330
5907
100
AcDbEntity
  8
SUNPOU
 62
     0
100
AcDbTrace
 10
-2316.853079769469
 20
9777.242521144959
 30
0.0
 11
-2298.853079769469
 21
9777.242521144959
 31
0.0
 12
-2307.853079769469
 22
9831.242521144959
 32
0.0
 13
-2307.853079769469
 23
9831.242521144959
 33
0.0
  0
MTEXT
  5
5ADF
330
5907
100
AcDbEntity
  8
SUNPOU
 62
     0
100
AcDbMText
 10
-2363.353079769471
 20
9681.242521144959
 30
0.0
 40
75.0
 41
0.0
 71
     5
 72
     1
  1
\A1;60
 11
6.123031769111886E-17
 21
1.0
 31
0.0
 73
     1
 44
1.0
  0
POINT
  5
5AE0
330
5907
100
AcDbEntity
  8
DEFPOINTS
 62
     0
100
AcDbPoint
 10
-2657.853079769469
 20
9531.242521144959
 30
0.0
  0
POINT
  5
5AE1
330
5907
100
AcDbEntity
  8
DEFPOINTS
 62
     0
100
AcDbPoint
 10
-3272.853079769469
 20
9831.242521144959
 30
0.0
  0
POINT
  5
5AE2
330
5907
100
AcDbEntity
  8
DEFPOINTS
 62
     0
100
AcDbPoint
 10
-2307.853079769469
 20
9831.242521144959
 30
0.0
  0
ENDBLK
  5
5912
330
5907
100
AcDbEntity
  8
0
100
AcDbBlockEnd
  0
BLOCK
  5
591F
330
5913
100
AcDbEntity
  8
0
100
AcDbBlockBegin
  2
*D73
 70
     1
 10
0.0
 20
0.0
 30
0.0
  3
*D73
  1

  0
LINE
  5
5AE3
330
5913
100
AcDbEntity
  8
SUNPOU
 62
     0
370
    -2
100
AcDbLine
 10
-3327.853079769469
 20
9751.242521144959
 30
0.0
 11
-3024.853079769469
 21
9751.242521144959
 31
0.0
  0
LINE
  5
5AE4
330
5913
100
AcDbEntity
  8
SUNPOU
 62
     0
370
    -2
100
AcDbLine
 10
-3327.853079769469
 20
9641.242521144959
 30
0.0
 11
-3024.853079769469
 21
9641.242521144959
 31
0.0
  0
LINE
  5
5AE5
330
5913
100
AcDbEntity
  8
SUNPOU
 62
     0
370
    -2
100
AcDbLine
 10
-3042.853079769469
 20
9805.242521144959
 30
0.0
 11
-3042.853079769469
 21
9859.242521144959
 31
0.0
  0
LINE
  5
5AE6
330
5913
100
AcDbEntity
  8
SUNPOU
 62
     0
370
    -2
100
AcDbLine
 10
-3042.853079769469
 20
9587.242521144959
 30
0.0
 11
-3042.853079769469
 21
9533.242521144959
 31
0.0
  0
MTEXT
  5
5AE7
330
5913
100
AcDbEntity
  8
SUNPOU
 62
     0
100
AcDbMText
 10
-2959.784535187524
 20
9762.894091604829
 30
0.0
 40
75.0
 41
0.0
 71
     5
 72
     1
  1
\A1;22
 11
6.123031769111886E-17
 21
1.0
 31
0.0
 73
     1
 44
1.0
  0
LINE
  5
5AE8
330
5913
100
AcDbEntity
  8
SUNPOU
 62
     0
370
    -2
100
AcDbLine
 10
-3042.853079769469
 20
9751.242521144959
 30
0.0
 11
-3042.853079769469
 21
9641.242521144959
 31
0.0
  0
SOLID
  5
5AE9
330
5913
100
AcDbEntity
  8
SUNPOU
 62
     0
100
AcDbTrace
 10
-3051.853079769469
 20
9805.242521144959
 30
0.0
 11
-3033.853079769469
 21
9805.242521144959
 31
0.0
 12
-3042.853079769469
 22
9751.242521144959
 32
0.0
 13
-3042.853079769469
 23
9751.242521144959
 33
0.0
  0
SOLID
  5
5AEA
330
5913
100
AcDbEntity
  8
SUNPOU
 62
     0
100
AcDbTrace
 10
-3051.853079769469
 20
9587.242521144959
 30
0.0
 11
-3033.853079769469
 21
9587.242521144959
 31
0.0
 12
-3042.853079769469
 22
9641.242521144959
 32
0.0
 13
-3042.853079769469
 23
9641.242521144959
 33
0.0
  0
POINT
  5
5AEB
330
5913
100
AcDbEntity
  8
DEFPOINTS
 62
     0
100
AcDbPoint
 10
-3372.853079769469
 20
9751.242521144959
 30
0.0
  0
POINT
  5
5AEC
330
5913
100
AcDbEntity
  8
DEFPOINTS
 62
     0
100
AcDbPoint
 10
-3372.853079769469
 20
9641.242521144959
 30
0.0
  0
POINT
  5
5AED
330
5913
100
AcDbEntity
  8
DEFPOINTS
 62
     0
100
AcDbPoint
 10
-3042.853079769469
 20
9641.242521144959
 30
0.0
  0
ENDBLK
  5
5920
330
5913
100
AcDbEntity
  8
0
100
AcDbBlockEnd
  0
BLOCK
  5
592D
330
5921
100
AcDbEntity
  8
0
100
AcDbBlockBegin
  2
*D74
 70
     1
 10
0.0
 20
0.0
 30
0.0
  3
*D74
  1

  0
LINE
  5
5AEE
330
5921
100
AcDbEntity
  8
SUNPOU
 62
     0
370
    -2
100
AcDbLine
 10
-3327.853079769469
 20
9641.242521144959
 30
0.0
 11
-3024.853079769469
 21
9641.242521144959
 31
0.0
  0
LINE
  5
5AEF
330
5921
100
AcDbEntity
  8
SUNPOU
 62
     0
370
    -2
100
AcDbLine
 10
-3327.853079769469
 20
9531.242521144959
 30
0.0
 11
-3024.853079769469
 21
9531.242521144959
 31
0.0
  0
LINE
  5
5AF0
330
5921
100
AcDbEntity
  8
SUNPOU
 62
     0
370
    -2
100
AcDbLine
 10
-3042.853079769469
 20
9695.242521144959
 30
0.0
 11
-3042.853079769469
 21
9749.242521144959
 31
0.0
  0
LINE
  5
5AF1
330
5921
100
AcDbEntity
  8
SUNPOU
 62
     0
370
    -2
100
AcDbLine
 10
-3042.853079769469
 20
9477.242521144959
 30
0.0
 11
-3042.853079769469
 21
9423.242521144959
 31
0.0
  0
MTEXT
  5
5AF2
330
5921
100
AcDbEntity
  8
SUNPOU
 62
     0
100
AcDbMText
 10
-2957.065218887279
 20
9613.473032167896
 30
0.0
 40
75.0
 41
0.0
 71
     5
 72
     1
  1
\A1;22
 11
6.123031769111886E-17
 21
1.0
 31
0.0
 73
     1
 44
1.0
  0
LINE
  5
5AF3
330
5921
100
AcDbEntity
  8
SUNPOU
 62
     0
370
    -2
100
AcDbLine
 10
-3042.853079769469
 20
9641.242521144959
 30
0.0
 11
-3042.853079769469
 21
9531.242521144959
 31
0.0
  0
SOLID
  5
5AF4
330
5921
100
AcDbEntity
  8
SUNPOU
 62
     0
100
AcDbTrace
 10
-3051.853079769469
 20
9695.242521144959
 30
0.0
 11
-3033.853079769469
 21
9695.242521144959
 31
0.0
 12
-3042.853079769469
 22
9641.242521144959
 32
0.0
 13
-3042.853079769469
 23
9641.242521144959
 33
0.0
  0
SOLID
  5
5AF5
330
5921
100
AcDbEntity
  8
SUNPOU
 62
     0
100
AcDbTrace
 10
-3051.853079769469
 20
9477.242521144959
 30
0.0
 11
-3033.853079769469
 21
9477.242521144959
 31
0.0
 12
-3042.853079769469
 22
9531.242521144959
 32
0.0
 13
-3042.853079769469
 23
9531.242521144959
 33
0.0
  0
POINT
  5
5AF6
330
5921
100
AcDbEntity
  8
DEFPOINTS
 62
     0
100
AcDbPoint
 10
-3372.853079769469
 20
9641.242521144959
 30
0.0
  0
POINT
  5
5AF7
330
5921
100
AcDbEntity
  8
DEFPOINTS
 62
     0
100
AcDbPoint
 10
-3372.853079769469
 20
9531.242521144959
 30
0.0
  0
POINT
  5
5AF8
330
5921
100
AcDbEntity
  8
DEFPOINTS
 62
     0
100
AcDbPoint
 10
-3042.853079769469
 20
9531.242521144959
 30
0.0
  0
ENDBLK
  5
592E
330
5921
100
AcDbEntity
  8
0
100
AcDbBlockEnd
  0
BLOCK
  5
593B
330
592F
100
AcDbEntity
  8
0
100
AcDbBlockBegin
  2
*D75
 70
     1
 10
0.0
 20
0.0
 30
0.0
  3
*D75
  1

  0
LINE
  5
5AF9
330
592F
100
AcDbEntity
  8
SUNPOU
 62
     0
370
    -2
100
AcDbLine
 10
-3327.853079769469
 20
7917.183352930968
 30
0.0
 11
-3024.853079769469
 21
7917.183352930968
 31
0.0
  0
LINE
  5
5AFA
330
592F
100
AcDbEntity
  8
SUNPOU
 62
     0
370
    -2
100
AcDbLine
 10
-3327.853079769469
 20
7807.183352930968
 30
0.0
 11
-3024.853079769469
 21
7807.183352930968
 31
0.0
  0
LINE
  5
5AFB
330
592F
100
AcDbEntity
  8
SUNPOU
 62
     0
370
    -2
100
AcDbLine
 10
-3042.853079769469
 20
7971.183352930968
 30
0.0
 11
-3042.853079769469
 21
8025.183352930968
 31
0.0
  0
LINE
  5
5AFC
330
592F
100
AcDbEntity
  8
SUNPOU
 62
     0
370
    -2
100
AcDbLine
 10
-3042.853079769469
 20
7753.183352930968
 30
0.0
 11
-3042.853079769469
 21
7699.183352930968
 31
0.0
  0
MTEXT
  5
5AFD
330
592F
100
AcDbEntity
  8
SUNPOU
 62
     0
100
AcDbMText
 10
-2954.345902587034
 20
7901.014836412223
 30
0.0
 40
75.0
 41
0.0
 71
     5
 72
     1
  1
\A1;22
 11
6.123031769111886E-17
 21
1.0
 31
0.0
 73
     1
 44
1.0
  0
LINE
  5
5AFE
330
592F
100
AcDbEntity
  8
SUNPOU
 62
     0
370
    -2
100
AcDbLine
 10
-3042.853079769469
 20
7917.183352930968
 30
0.0
 11
-3042.853079769469
 21
7807.183352930968
 31
0.0
  0
SOLID
  5
5AFF
330
592F
100
AcDbEntity
  8
SUNPOU
 62
     0
100
AcDbTrace
 10
-3051.853079769469
 20
7971.183352930968
 30
0.0
 11
-3033.853079769469
 21
7971.183352930968
 31
0.0
 12
-3042.853079769469
 22
7917.183352930968
 32
0.0
 13
-3042.853079769469
 23
7917.183352930968
 33
0.0
  0
SOLID
  5
5B00
330
592F
100
AcDbEntity
  8
SUNPOU
 62
     0
100
AcDbTrace
 10
-3051.853079769469
 20
7753.183352930968
 30
0.0
 11
-3033.853079769469
 21
7753.183352930968
 31
0.0
 12
-3042.853079769469
 22
7807.183352930968
 32
0.0
 13
-3042.853079769469
 23
7807.183352930968
 33
0.0
  0
POINT
  5
5B01
330
592F
100
AcDbEntity
  8
DEFPOINTS
 62
     0
100
AcDbPoint
 10
-3372.853079769469
 20
7917.183352930968
 30
0.0
  0
POINT
  5
5B02
330
592F
100
AcDbEntity
  8
DEFPOINTS
 62
     0
100
AcDbPoint
 10
-3372.853079769469
 20
7807.183352930968
 30
0.0
  0
POINT
  5
5B03
330
592F
100
AcDbEntity
  8
DEFPOINTS
 62
     0
100
AcDbPoint
 10
-3042.853079769469
 20
7807.183352930968
 30
0.0
  0
ENDBLK
  5
593C
330
592F
100
AcDbEntity
  8
0
100
AcDbBlockEnd
  0
BLOCK
  5
5949
330
593D
100
AcDbEntity
  8
0
100
AcDbBlockBegin
  2
*D76
 70
     1
 10
0.0
 20
0.0
 30
0.0
  3
*D76
  1

  0
LINE
  5
5B04
330
593D
100
AcDbEntity
  8
SUNPOU
 62
     0
370
    -2
100
AcDbLine
 10
-3327.853079769469
 20
7807.183352930968
 30
0.0
 11
-3024.853079769469
 21
7807.183352930968
 31
0.0
  0
LINE
  5
5B05
330
593D
100
AcDbEntity
  8
SUNPOU
 62
     0
370
    -2
100
AcDbLine
 10
-3327.853079769469
 20
7697.183352930968
 30
0.0
 11
-3024.853079769469
 21
7697.183352930968
 31
0.0
  0
LINE
  5
5B06
330
593D
100
AcDbEntity
  8
SUNPOU
 62
     0
370
    -2
100
AcDbLine
 10
-3042.853079769469
 20
7861.183352930968
 30
0.0
 11
-3042.853079769469
 21
7915.183352930968
 31
0.0
  0
LINE
  5
5B07
330
593D
100
AcDbEntity
  8
SUNPOU
 62
     0
370
    -2
100
AcDbLine
 10
-3042.853079769469
 20
7643.183352930968
 30
0.0
 11
-3042.853079769469
 21
7589.183352930968
 31
0.0
  0
MTEXT
  5
5B08
330
593D
100
AcDbEntity
  8
SUNPOU
 62
     0
100
AcDbMText
 10
-2954.345902587034
 20
7767.894268146427
 30
0.0
 40
75.0
 41
0.0
 71
     5
 72
     1
  1
\A1;22
 11
6.123031769111886E-17
 21
1.0
 31
0.0
 73
     1
 44
1.0
  0
LINE
  5
5B09
330
593D
100
AcDbEntity
  8
SUNPOU
 62
     0
370
    -2
100
AcDbLine
 10
-3042.853079769469
 20
7807.183352930968
 30
0.0
 11
-3042.853079769469
 21
7697.183352930968
 31
0.0
  0
SOLID
  5
5B0A
330
593D
100
AcDbEntity
  8
SUNPOU
 62
     0
100
AcDbTrace
 10
-3051.853079769469
 20
7861.183352930968
 30
0.0
 11
-3033.853079769469
 21
7861.183352930968
 31
0.0
 12
-3042.853079769469
 22
7807.183352930968
 32
0.0
 13
-3042.853079769469
 23
7807.183352930968
 33
0.0
  0
SOLID
  5
5B0B
330
593D
100
AcDbEntity
  8
SUNPOU
 62
     0
100
AcDbTrace
 10
-3051.853079769469
 20
7643.183352930968
 30
0.0
 11
-3033.853079769469
 21
7643.183352930968
 31
0.0
 12
-3042.853079769469
 22
7697.183352930968
 32
0.0
 13
-3042.853079769469
 23
7697.183352930968
 33
0.0
  0
POINT
  5
5B0C
330
593D
100
AcDbEntity
  8
DEFPOINTS
 62
     0
100
AcDbPoint
 10
-3372.853079769469
 20
7807.183352930968
 30
0.0
  0
POINT
  5
5B0D
330
593D
100
AcDbEntity
  8
DEFPOINTS
 62
     0
100
AcDbPoint
 10
-3372.853079769469
 20
7697.183352930968
 30
0.0
  0
POINT
  5
5B0E
330
593D
100
AcDbEntity
  8
DEFPOINTS
 62
     0
100
AcDbPoint
 10
-3042.853079769469
 20
7697.183352930968
 30
0.0
  0
ENDBLK
  5
594A
330
593D
100
AcDbEntity
  8
0
100
AcDbBlockEnd
  0
BLOCK
  5
5957
330
594B
100
AcDbEntity
  8
0
100
AcDbBlockBegin
  2
*D77
 70
     1
 10
0.0
 20
0.0
 30
0.0
  3
*D77
  1

  0
LINE
  5
5B0F
330
594B
100
AcDbEntity
  8
SUNPOU
 62
     0
370
    -2
100
AcDbLine
 10
-3372.853079769469
 20
8042.183352930968
 30
0.0
 11
-3372.853079769469
 21
8435.183352930968
 31
0.0
  0
LINE
  5
5B10
330
594B
100
AcDbEntity
  8
SUNPOU
 62
     0
370
    -2
100
AcDbLine
 10
-3357.853079769469
 20
7972.183352930968
 30
0.0
 11
-3357.853079769469
 21
8435.183352930968
 31
0.0
  0
LINE
  5
5B11
330
594B
100
AcDbEntity
  8
SUNPOU
 62
     0
370
    -2
100
AcDbLine
 10
-3426.853079769469
 20
8417.183352930968
 30
0.0
 11
-3480.853079769469
 21
8417.183352930968
 31
0.0
  0
LINE
  5
5B12
330
594B
100
AcDbEntity
  8
SUNPOU
 62
     0
370
    -2
100
AcDbLine
 10
-3303.853079769469
 20
8417.183352930968
 30
0.0
 11
-3249.853079769469
 21
8417.183352930968
 31
0.0
  0
MTEXT
  5
5B13
330
594B
100
AcDbEntity
  8
SUNPOU
 62
     0
100
AcDbMText
 10
-3278.614229227918
 20
8488.733352930969
 30
0.0
 40
75.0
 41
0.0
 71
     5
 72
     1
  1
\A1;3
 73
     1
 44
1.0
  0
LINE
  5
5B14
330
594B
100
AcDbEntity
  8
SUNPOU
 62
     0
370
    -2
100
AcDbLine
 10
-3372.853079769469
 20
8417.183352930968
 30
0.0
 11
-3357.853079769469
 21
8417.183352930968
 31
0.0
  0
SOLID
  5
5B15
330
594B
100
AcDbEntity
  8
SUNPOU
 62
     0
100
AcDbTrace
 10
-3426.853079769469
 20
8426.183352930968
 30
0.0
 11
-3426.853079769469
 21
8408.183352930968
 31
0.0
 12
-3372.853079769469
 22
8417.183352930968
 32
0.0
 13
-3372.853079769469
 23
8417.183352930968
 33
0.0
  0
SOLID
  5
5B16
330
594B
100
AcDbEntity
  8
SUNPOU
 62
     0
100
AcDbTrace
 10
-3303.853079769469
 20
8426.183352930968
 30
0.0
 11
-3303.853079769469
 21
8408.183352930968
 31
0.0
 12
-3357.853079769469
 22
8417.183352930968
 32
0.0
 13
-3357.853079769469
 23
8417.183352930968
 33
0.0
  0
POINT
  5
5B17
330
594B
100
AcDbEntity
  8
DEFPOINTS
 62
     0
100
AcDbPoint
 10
-3372.853079769469
 20
7997.183352930968
 30
0.0
  0
POINT
  5
5B18
330
594B
100
AcDbEntity
  8
DEFPOINTS
 62
     0
100
AcDbPoint
 10
-3357.853079769469
 20
7927.183352930968
 30
0.0
  0
POINT
  5
5B19
330
594B
100
AcDbEntity
  8
DEFPOINTS
 62
     0
100
AcDbPoint
 10
-3357.853079769469
 20
8417.183352930968
 30
0.0
  0
ENDBLK
  5
5958
330
594B
100
AcDbEntity
  8
0
100
AcDbBlockEnd
  0
BLOCK
  5
5963
330
5959
100
AcDbEntity
  8
0
100
AcDbBlockBegin
  2
*D78
 70
     1
 10
0.0
 20
0.0
 30
0.0
  3
*D78
  1

  0
LINE
  5
5B1A
330
5959
100
AcDbEntity
  8
SUNPOU
 62
     0
370
    -2
100
AcDbLine
 10
-2612.853079769478
 20
8347.183352930968
 30
0.0
 11
-2289.853079769478
 21
8347.183352930968
 31
0.0
  0
LINE
  5
5B1B
330
5959
100
AcDbEntity
  8
SUNPOU
 62
     0
370
    -2
100
AcDbLine
 10
-3527.853079769469
 20
8047.183352930968
 30
0.0
 11
-2289.853079769478
 21
8047.183352930968
 31
0.0
  0
LINE
  5
5B1C
330
5959
100
AcDbEntity
  8
SUNPOU
 62
     0
370
    -2
100
AcDbLine
 10
-2307.853079769478
 20
8293.183352930968
 30
0.0
 11
-2307.853079769478
 21
8101.183352930968
 31
0.0
  0
SOLID
  5
5B1D
330
5959
100
AcDbEntity
  8
SUNPOU
 62
     0
100
AcDbTrace
 10
-2316.853079769478
 20
8293.183352930968
 30
0.0
 11
-2298.853079769478
 21
8293.183352930968
 31
0.0
 12
-2307.853079769478
 22
8347.183352930968
 32
0.0
 13
-2307.853079769478
 23
8347.183352930968
 33
0.0
  0
SOLID
  5
5B1E
330
5959
100
AcDbEntity
  8
SUNPOU
 62
     0
100
AcDbTrace
 10
-2316.853079769478
 20
8101.183352930968
 30
0.0
 11
-2298.853079769478
 21
8101.183352930968
 31
0.0
 12
-2307.853079769478
 22
8047.183352930968
 32
0.0
 13
-2307.853079769478
 23
8047.183352930968
 33
0.0
  0
MTEXT
  5
5B1F
330
5959
100
AcDbEntity
  8
SUNPOU
 62
     0
100
AcDbMText
 10
-2363.35307976948
 20
8197.183352930968
 30
0.0
 40
75.0
 41
0.0
 71
     5
 72
     1
  1
\A1;60
 11
6.123031769111886E-17
 21
1.0
 31
0.0
 73
     1
 44
1.0
  0
POINT
  5
5B20
330
5959
100
AcDbEntity
  8
DEFPOINTS
 62
     0
100
AcDbPoint
 10
-2657.853079769478
 20
8347.183352930968
 30
0.0
  0
POINT
  5
5B21
330
5959
100
AcDbEntity
  8
DEFPOINTS
 62
     0
100
AcDbPoint
 10
-3572.853079769469
 20
8047.183352930968
 30
0.0
  0
POINT
  5
5B22
330
5959
100
AcDbEntity
  8
DEFPOINTS
 62
     0
100
AcDbPoint
 10
-2307.853079769478
 20
8047.183352930968
 30
0.0
  0
ENDBLK
  5
5964
330
5959
100
AcDbEntity
  8
0
100
AcDbBlockEnd
  0
BLOCK
  5
5971
330
5965
100
AcDbEntity
  8
0
100
AcDbBlockBegin
  2
*D79
 70
     1
 10
0.0
 20
0.0
 30
0.0
  3
*D79
  1

  0
LINE
  5
5B23
330
5965
100
AcDbEntity
  8
SUNPOU
 62
     0
370
    -2
100
AcDbLine
 10
-3527.853079769469
 20
8047.183352930968
 30
0.0
 11
-2289.853079769478
 21
8047.183352930968
 31
0.0
  0
LINE
  5
5B24
330
5965
100
AcDbEntity
  8
SUNPOU
 62
     0
370
    -2
100
AcDbLine
 10
-3327.853079769469
 20
7997.183352930968
 30
0.0
 11
-2289.853079769478
 21
7997.183352930968
 31
0.0
  0
LINE
  5
5B25
330
5965
100
AcDbEntity
  8
SUNPOU
 62
     0
370
    -2
100
AcDbLine
 10
-2307.853079769478
 20
8101.183352930968
 30
0.0
 11
-2307.853079769478
 21
8155.183352930968
 31
0.0
  0
LINE
  5
5B26
330
5965
100
AcDbEntity
  8
SUNPOU
 62
     0
370
    -2
100
AcDbLine
 10
-2307.853079769478
 20
7943.183352930968
 30
0.0
 11
-2307.853079769478
 21
7889.183352930968
 31
0.0
  0
MTEXT
  5
5B27
330
5965
100
AcDbEntity
  8
SUNPOU
 62
     0
100
AcDbMText
 10
-2227.53616039567
 20
8020.560995173204
 30
0.0
 40
75.0
 41
0.0
 71
     5
 72
     1
  1
\A1;10
 11
6.123031769111886E-17
 21
1.0
 31
0.0
 73
     1
 44
1.0
  0
LINE
  5
5B28
330
5965
100
AcDbEntity
  8
SUNPOU
 62
     0
370
    -2
100
AcDbLine
 10
-2307.853079769478
 20
8047.183352930968
 30
0.0
 11
-2307.853079769478
 21
7997.183352930968
 31
0.0
  0
SOLID
  5
5B29
330
5965
100
AcDbEntity
  8
SUNPOU
 62
     0
100
AcDbTrace
 10
-2316.853079769478
 20
8101.183352930968
 30
0.0
 11
-2298.853079769478
 21
8101.183352930968
 31
0.0
 12
-2307.853079769478
 22
8047.183352930968
 32
0.0
 13
-2307.853079769478
 23
8047.183352930968
 33
0.0
  0
SOLID
  5
5B2A
330
5965
100
AcDbEntity
  8
SUNPOU
 62
     0
100
AcDbTrace
 10
-2316.853079769478
 20
7943.183352930968
 30
0.0
 11
-2298.853079769478
 21
7943.183352930968
 31
0.0
 12
-2307.853079769478
 22
7997.183352930968
 32
0.0
 13
-2307.853079769478
 23
7997.183352930968
 33
0.0
  0
POINT
  5
5B2B
330
5965
100
AcDbEntity
  8
DEFPOINTS
 62
     0
100
AcDbPoint
 10
-3572.853079769469
 20
8047.183352930968
 30
0.0
  0
POINT
  5
5B2C
330
5965
100
AcDbEntity
  8
DEFPOINTS
 62
     0
100
AcDbPoint
 10
-3372.853079769469
 20
7997.183352930968
 30
0.0
  0
POINT
  5
5B2D
330
5965
100
AcDbEntity
  8
DEFPOINTS
 62
     0
100
AcDbPoint
 10
-2307.853079769478
 20
7997.183352930968
 30
0.0
  0
ENDBLK
  5
5972
330
5965
100
AcDbEntity
  8
0
100
AcDbBlockEnd
  0
BLOCK
  5
597F
330
5973
100
AcDbEntity
  8
0
100
AcDbBlockBegin
  2
*D80
 70
     1
 10
0.0
 20
0.0
 30
0.0
  3
*D80
  1

  0
LINE
  5
5B2E
330
5973
100
AcDbEntity
  8
SUNPOU
 62
     0
370
    -2
100
AcDbLine
 10
-6465.161373363786
 20
7875.09162159569
 30
0.0
 11
-6465.161373363786
 21
7432.09162159569
 31
0.0
  0
LINE
  5
5B2F
330
5973
100
AcDbEntity
  8
SUNPOU
 62
     0
370
    -2
100
AcDbLine
 10
-6505.161373363786
 20
7875.09162159569
 30
0.0
 11
-6505.161373363786
 21
7432.09162159569
 31
0.0
  0
LINE
  5
5B30
330
5973
100
AcDbEntity
  8
SUNPOU
 62
     0
370
    -2
100
AcDbLine
 10
-6411.161373363786
 20
7450.09162159569
 30
0.0
 11
-6357.161373363786
 21
7450.09162159569
 31
0.0
  0
LINE
  5
5B31
330
5973
100
AcDbEntity
  8
SUNPOU
 62
     0
370
    -2
100
AcDbLine
 10
-6559.161373363786
 20
7450.09162159569
 30
0.0
 11
-6613.161373363786
 21
7450.09162159569
 31
0.0
  0
MTEXT
  5
5B32
330
5973
100
AcDbEntity
  8
SUNPOU
 62
     0
100
AcDbMText
 10
-6372.057036513026
 20
7516.375061642349
 30
0.0
 40
90.0
 41
0.0
 71
     5
 72
     1
  1
\A1;40
 73
     1
 44
1.0
  0
LINE
  5
5B33
330
5973
100
AcDbEntity
  8
SUNPOU
 62
     0
370
    -2
100
AcDbLine
 10
-6465.161373363786
 20
7450.09162159569
 30
0.0
 11
-6505.161373363786
 21
7450.09162159569
 31
0.0
  0
SOLID
  5
5B34
330
5973
100
AcDbEntity
  8
SUNPOU
 62
     0
100
AcDbTrace
 10
-6411.161373363786
 20
7459.09162159569
 30
0.0
 11
-6411.161373363786
 21
7441.09162159569
 31
0.0
 12
-6465.161373363786
 22
7450.09162159569
 32
0.0
 13
-6465.161373363786
 23
7450.09162159569
 33
0.0
  0
SOLID
  5
5B35
330
5973
100
AcDbEntity
  8
SUNPOU
 62
     0
100
AcDbTrace
 10
-6559.161373363786
 20
7459.09162159569
 30
0.0
 11
-6559.161373363786
 21
7441.09162159569
 31
0.0
 12
-6505.161373363786
 22
7450.09162159569
 32
0.0
 13
-6505.161373363786
 23
7450.09162159569
 33
0.0
  0
POINT
  5
5B36
330
5973
100
AcDbEntity
  8
DEFPOINTS
 62
     0
100
AcDbPoint
 10
-6465.161373363786
 20
7920.09162159569
 30
0.0
  0
POINT
  5
5B37
330
5973
100
AcDbEntity
  8
DEFPOINTS
 62
     0
100
AcDbPoint
 10
-6505.161373363786
 20
7920.09162159569
 30
0.0
  0
POINT
  5
5B38
330
5973
100
AcDbEntity
  8
DEFPOINTS
 62
     0
100
AcDbPoint
 10
-6505.161373363786
 20
7450.09162159569
 30
0.0
  0
ENDBLK
  5
5980
330
5973
100
AcDbEntity
  8
0
100
AcDbBlockEnd
  0
BLOCK
  5
598B
330
5981
100
AcDbEntity
  8
0
100
AcDbBlockBegin
  2
*D81
 70
     1
 10
0.0
 20
0.0
 30
0.0
  3
*D81
  1

  0
LINE
  5
5B39
330
5981
100
AcDbEntity
  8
SUNPOU
 62
     0
370
    -2
100
AcDbLine
 10
-3572.853079769469
 20
8392.183352930968
 30
0.0
 11
-3572.853079769469
 21
8615.183352930968
 31
0.0
  0
LINE
  5
5B3A
330
5981
100
AcDbEntity
  8
SUNPOU
 62
     0
370
    -2
100
AcDbLine
 10
-3372.853079769469
 20
8042.183352930968
 30
0.0
 11
-3372.853079769469
 21
8615.183352930968
 31
0.0
  0
LINE
  5
5B3B
330
5981
100
AcDbEntity
  8
SUNPOU
 62
     0
370
    -2
100
AcDbLine
 10
-3518.853079769469
 20
8597.183352930968
 30
0.0
 11
-3426.853079769469
 21
8597.183352930968
 31
0.0
  0
SOLID
  5
5B3C
330
5981
100
AcDbEntity
  8
SUNPOU
 62
     0
100
AcDbTrace
 10
-3518.853079769469
 20
8606.183352930968
 30
0.0
 11
-3518.853079769469
 21
8588.183352930968
 31
0.0
 12
-3572.853079769469
 22
8597.183352930968
 32
0.0
 13
-3572.853079769469
 23
8597.183352930968
 33
0.0
  0
SOLID
  5
5B3D
330
5981
100
AcDbEntity
  8
SUNPOU
 62
     0
100
AcDbTrace
 10
-3426.853079769469
 20
8606.183352930968
 30
0.0
 11
-3426.853079769469
 21
8588.183352930968
 31
0.0
 12
-3372.853079769469
 22
8597.183352930968
 32
0.0
 13
-3372.853079769469
 23
8597.183352930968
 33
0.0
  0
MTEXT
  5
5B3E
330
5981
100
AcDbEntity
  8
SUNPOU
 62
     0
100
AcDbMText
 10
-3472.853079769469
 20
8652.683352930968
 30
0.0
 40
75.0
 41
0.0
 71
     5
 72
     1
  1
\A1;40
 73
     1
 44
1.0
  0
POINT
  5
5B3F
330
5981
100
AcDbEntity
  8
DEFPOINTS
 62
     0
100
AcDbPoint
 10
-3572.853079769469
 20
8347.183352930968
 30
0.0
  0
POINT
  5
5B40
330
5981
100
AcDbEntity
  8
DEFPOINTS
 62
     0
100
AcDbPoint
 10
-3372.853079769469
 20
7997.183352930968
 30
0.0
  0
POINT
  5
5B41
330
5981
100
AcDbEntity
  8
DEFPOINTS
 62
     0
100
AcDbPoint
 10
-3372.853079769469
 20
8597.183352930968
 30
0.0
  0
ENDBLK
  5
598C
330
5981
100
AcDbEntity
  8
0
100
AcDbBlockEnd
  0
BLOCK
  5
5997
330
598D
100
AcDbEntity
  8
0
100
AcDbBlockBegin
  2
*D82
 70
     1
 10
0.0
 20
0.0
 30
0.0
  3
*D82
  1

  0
LINE
  5
5B42
330
598D
100
AcDbEntity
  8
SUNPOU
 62
     0
370
    -2
100
AcDbLine
 10
-4492.85307976946
 20
7697.183352930963
 30
0.0
 11
-4790.853079769469
 21
7697.183352930963
 31
0.0
  0
LINE
  5
5B43
330
598D
100
AcDbEntity
  8
SUNPOU
 62
     0
370
    -2
100
AcDbLine
 10
-3717.853079769469
 20
7947.183352930963
 30
0.0
 11
-4790.853079769469
 21
7947.183352930963
 31
0.0
  0
LINE
  5
5B44
330
598D
100
AcDbEntity
  8
SUNPOU
 62
     0
370
    -2
100
AcDbLine
 10
-4772.853079769469
 20
7751.183352930963
 30
0.0
 11
-4772.853079769469
 21
7893.183352930963
 31
0.0
  0
SOLID
  5
5B45
330
598D
100
AcDbEntity
  8
SUNPOU
 62
     0
100
AcDbTrace
 10
-4781.853079769469
 20
7751.183352930963
 30
0.0
 11
-4763.853079769469
 21
7751.183352930963
 31
0.0
 12
-4772.853079769469
 22
7697.183352930963
 32
0.0
 13
-4772.853079769469
 23
7697.183352930963
 33
0.0
  0
SOLID
  5
5B46
330
598D
100
AcDbEntity
  8
SUNPOU
 62
     0
100
AcDbTrace
 10
-4781.853079769469
 20
7893.183352930963
 30
0.0
 11
-4763.853079769469
 21
7893.183352930963
 31
0.0
 12
-4772.853079769469
 22
7947.183352930963
 32
0.0
 13
-4772.853079769469
 23
7947.183352930963
 33
0.0
  0
MTEXT
  5
5B47
330
598D
100
AcDbEntity
  8
SUNPOU
 62
     0
100
AcDbMText
 10
-4828.35307976947
 20
7822.183352930962
 30
0.0
 40
75.0
 41
0.0
 71
     5
 72
     1
  1
\A1;50
 11
6.123031769111886E-17
 21
1.0
 31
0.0
 73
     1
 44
1.0
  0
POINT
  5
5B48
330
598D
100
AcDbEntity
  8
DEFPOINTS
 62
     0
100
AcDbPoint
 10
-4447.85307976946
 20
7697.183352930963
 30
0.0
  0
POINT
  5
5B49
330
598D
100
AcDbEntity
  8
DEFPOINTS
 62
     0
100
AcDbPoint
 10
-3672.853079769469
 20
7947.183352930963
 30
0.0
  0
POINT
  5
5B4A
330
598D
100
AcDbEntity
  8
DEFPOINTS
 62
     0
100
AcDbPoint
 10
-4772.853079769469
 20
7947.183352930963
 30
0.0
  0
ENDBLK
  5
5998
330
598D
100
AcDbEntity
  8
0
100
AcDbBlockEnd
  0
BLOCK
  5
59A5
330
5999
100
AcDbEntity
  8
0
100
AcDbBlockBegin
  2
*D83
 70
     1
 10
0.0
 20
0.0
 30
0.0
  3
*D83
  1

  0
LINE
  5
5B4B
330
5999
100
AcDbEntity
  8
SUNPOU
 62
     0
370
    -2
100
AcDbLine
 10
-3717.853079769469
 20
7947.183352930963
 30
0.0
 11
-4790.853079769469
 21
7947.183352930963
 31
0.0
  0
LINE
  5
5B4C
330
5999
100
AcDbEntity
  8
SUNPOU
 62
     0
370
    -2
100
AcDbLine
 10
-4017.853079769469
 20
8022.183352930963
 30
0.0
 11
-4790.853079769469
 21
8022.183352930963
 31
0.0
  0
LINE
  5
5B4D
330
5999
100
AcDbEntity
  8
SUNPOU
 62
     0
370
    -2
100
AcDbLine
 10
-4772.853079769469
 20
7893.183352930963
 30
0.0
 11
-4772.853079769469
 21
7839.183352930963
 31
0.0
  0
LINE
  5
5B4E
330
5999
100
AcDbEntity
  8
SUNPOU
 62
     0
370
    -2
100
AcDbLine
 10
-4772.853079769469
 20
8076.183352930963
 30
0.0
 11
-4772.853079769469
 21
8130.183352930963
 31
0.0
  0
MTEXT
  5
5B4F
330
5999
100
AcDbEntity
  8
SUNPOU
 62
     0
100
AcDbMText
 10
-4834.76273673377
 20
7984.683352930963
 30
0.0
 40
75.0
 41
0.0
 71
     5
 72
     1
  1
\A1;15
 11
6.123031769111886E-17
 21
1.0
 31
0.0
 73
     1
 44
1.0
  0
LINE
  5
5B50
330
5999
100
AcDbEntity
  8
SUNPOU
 62
     0
370
    -2
100
AcDbLine
 10
-4772.853079769469
 20
7947.183352930963
 30
0.0
 11
-4772.853079769469
 21
8022.183352930963
 31
0.0
  0
SOLID
  5
5B51
330
5999
100
AcDbEntity
  8
SUNPOU
 62
     0
100
AcDbTrace
 10
-4781.853079769469
 20
7893.183352930963
 30
0.0
 11
-4763.853079769469
 21
7893.183352930963
 31
0.0
 12
-4772.853079769469
 22
7947.183352930963
 32
0.0
 13
-4772.853079769469
 23
7947.183352930963
 33
0.0
  0
SOLID
  5
5B52
330
5999
100
AcDbEntity
  8
SUNPOU
 62
     0
100
AcDbTrace
 10
-4781.853079769469
 20
8076.183352930963
 30
0.0
 11
-4763.853079769469
 21
8076.183352930963
 31
0.0
 12
-4772.853079769469
 22
8022.183352930963
 32
0.0
 13
-4772.853079769469
 23
8022.183352930963
 33
0.0
  0
POINT
  5
5B53
330
5999
100
AcDbEntity
  8
DEFPOINTS
 62
     0
100
AcDbPoint
 10
-3672.853079769469
 20
7947.183352930963
 30
0.0
  0
POINT
  5
5B54
330
5999
100
AcDbEntity
  8
DEFPOINTS
 62
     0
100
AcDbPoint
 10
-3972.853079769469
 20
8022.183352930963
 30
0.0
  0
POINT
  5
5B55
330
5999
100
AcDbEntity
  8
DEFPOINTS
 62
     0
100
AcDbPoint
 10
-4772.853079769469
 20
8022.183352930963
 30
0.0
  0
ENDBLK
  5
59A6
330
5999
100
AcDbEntity
  8
0
100
AcDbBlockEnd
  0
BLOCK
  5
59B1
330
59A7
100
AcDbEntity
  8
0
100
AcDbBlockBegin
  2
*D84
 70
     1
 10
0.0
 20
0.0
 30
0.0
  3
*D84
  1

  0
LINE
  5
5B56
330
59A7
100
AcDbEntity
  8
SUNPOU
 62
     0
370
    -2
100
AcDbLine
 10
-4017.853079769469
 20
8022.183352930963
 30
0.0
 11
-4790.853079769469
 21
8022.183352930963
 31
0.0
  0
LINE
  5
5B57
330
59A7
100
AcDbEntity
  8
SUNPOU
 62
     0
370
    -2
100
AcDbLine
 10
-4492.85307976946
 20
8347.183352930962
 30
0.0
 11
-4790.853079769469
 21
8347.183352930962
 31
0.0
  0
LINE
  5
5B58
330
59A7
100
AcDbEntity
  8
SUNPOU
 62
     0
370
    -2
100
AcDbLine
 10
-4772.853079769469
 20
8076.183352930963
 30
0.0
 11
-4772.853079769469
 21
8293.183352930962
 31
0.0
  0
SOLID
  5
5B59
330
59A7
100
AcDbEntity
  8
SUNPOU
 62
     0
100
AcDbTrace
 10
-4781.853079769469
 20
8076.183352930963
 30
0.0
 11
-4763.853079769469
 21
8076.183352930963
 31
0.0
 12
-4772.853079769469
 22
8022.183352930963
 32
0.0
 13
-4772.853079769469
 23
8022.183352930963
 33
0.0
  0
SOLID
  5
5B5A
330
59A7
100
AcDbEntity
  8
SUNPOU
 62
     0
100
AcDbTrace
 10
-4781.853079769469
 20
8293.183352930962
 30
0.0
 11
-4763.853079769469
 21
8293.183352930962
 31
0.0
 12
-4772.853079769469
 22
8347.183352930962
 32
0.0
 13
-4772.853079769469
 23
8347.183352930962
 33
0.0
  0
MTEXT
  5
5B5B
330
59A7
100
AcDbEntity
  8
SUNPOU
 62
     0
100
AcDbMText
 10
-4828.35307976947
 20
8184.683352930962
 30
0.0
 40
75.0
 41
0.0
 71
     5
 72
     1
  1
\A1;65
 11
6.123031769111886E-17
 21
1.0
 31
0.0
 73
     1
 44
1.0
  0
POINT
  5
5B5C
330
59A7
100
AcDbEntity
  8
DEFPOINTS
 62
     0
100
AcDbPoint
 10
-3972.853079769469
 20
8022.183352930963
 30
0.0
  0
POINT
  5
5B5D
330
59A7
100
AcDbEntity
  8
DEFPOINTS
 62
     0
100
AcDbPoint
 10
-4447.85307976946
 20
8347.183352930962
 30
0.0
  0
POINT
  5
5B5E
330
59A7
100
AcDbEntity
  8
DEFPOINTS
 62
     0
100
AcDbPoint
 10
-4772.853079769469
 20
8347.183352930962
 30
0.0
  0
ENDBLK
  5
59B2
330
59A7
100
AcDbEntity
  8
0
100
AcDbBlockEnd
  0
BLOCK
  5
59BD
330
59B3
100
AcDbEntity
  8
0
100
AcDbBlockBegin
  2
*D85
 70
     1
 10
0.0
 20
0.0
 30
0.0
  3
*D85
  1

  0
LINE
  5
5B5F
330
59B3
100
AcDbEntity
  8
SUNPOU
 62
     0
370
    -2
100
AcDbLine
 10
-4495.252052942875
 20
7697.183352930963
 30
0.0
 11
-4973.252052942875
 21
7697.183352930963
 31
0.0
  0
LINE
  5
5B60
330
59B3
100
AcDbEntity
  8
SUNPOU
 62
     0
370
    -2
100
AcDbLine
 10
-4495.252052942866
 20
8347.183352930962
 30
0.0
 11
-4973.252052942875
 21
8347.183352930962
 31
0.0
  0
LINE
  5
5B61
330
59B3
100
AcDbEntity
  8
SUNPOU
 62
     0
370
    -2
100
AcDbLine
 10
-4955.252052942875
 20
7751.183352930963
 30
0.0
 11
-4955.252052942875
 21
8293.183352930962
 31
0.0
  0
SOLID
  5
5B62
330
59B3
100
AcDbEntity
  8
SUNPOU
 62
     0
100
AcDbTrace
 10
-4964.252052942875
 20
7751.183352930963
 30
0.0
 11
-4946.252052942875
 21
7751.183352930963
 31
0.0
 12
-4955.252052942875
 22
7697.183352930963
 32
0.0
 13
-4955.252052942875
 23
7697.183352930963
 33
0.0
  0
SOLID
  5
5B63
330
59B3
100
AcDbEntity
  8
SUNPOU
 62
     0
100
AcDbTrace
 10
-4964.252052942875
 20
8293.183352930962
 30
0.0
 11
-4946.252052942875
 21
8293.183352930962
 31
0.0
 12
-4955.252052942875
 22
8347.183352930962
 32
0.0
 13
-4955.252052942875
 23
8347.183352930962
 33
0.0
  0
MTEXT
  5
5B64
330
59B3
100
AcDbEntity
  8
SUNPOU
 62
     0
100
AcDbMText
 10
-5010.752052942876
 20
8022.183352930962
 30
0.0
 40
75.0
 41
0.0
 71
     5
 72
     1
  1
\A1;130
 11
6.123031769111886E-17
 21
1.0
 31
0.0
 73
     1
 44
1.0
  0
POINT
  5
5B65
330
59B3
100
AcDbEntity
  8
DEFPOINTS
 62
     0
100
AcDbPoint
 10
-4450.252052942875
 20
7697.183352930963
 30
0.0
  0
POINT
  5
5B66
330
59B3
100
AcDbEntity
  8
DEFPOINTS
 62
     0
100
AcDbPoint
 10
-4450.252052942866
 20
8347.183352930962
 30
0.0
  0
POINT
  5
5B67
330
59B3
100
AcDbEntity
  8
DEFPOINTS
 62
     0
100
AcDbPoint
 10
-4955.252052942875
 20
8347.183352930962
 30
0.0
  0
ENDBLK
  5
59BE
330
59B3
100
AcDbEntity
  8
0
100
AcDbBlockEnd
  0
BLOCK
  5
59C9
330
59BF
100
AcDbEntity
  8
0
100
AcDbBlockBegin
  2
*D86
 70
     1
 10
0.0
 20
0.0
 30
0.0
  3
*D86
  1

  0
LINE
  5
5B68
330
59BF
100
AcDbEntity
  8
SUNPOU
 62
     0
370
    -2
100
AcDbLine
 10
-3972.853079769469
 20
7977.183352930963
 30
0.0
 11
-3972.853079769469
 21
7379.183352930963
 31
0.0
  0
LINE
  5
5B69
330
59BF
100
AcDbEntity
  8
SUNPOU
 62
     0
370
    -2
100
AcDbLine
 10
-3672.853079769469
 20
7652.183352930963
 30
0.0
 11
-3672.853079769469
 21
7379.183352930963
 31
0.0
  0
LINE
  5
5B6A
330
59BF
100
AcDbEntity
  8
SUNPOU
 62
     0
370
    -2
100
AcDbLine
 10
-3918.853079769469
 20
7397.183352930963
 30
0.0
 11
-3726.853079769469
 21
7397.183352930963
 31
0.0
  0
SOLID
  5
5B6B
330
59BF
100
AcDbEntity
  8
SUNPOU
 62
     0
100
AcDbTrace
 10
-3918.853079769469
 20
7406.183352930963
 30
0.0
 11
-3918.853079769469
 21
7388.183352930963
 31
0.0
 12
-3972.853079769469
 22
7397.183352930963
 32
0.0
 13
-3972.853079769469
 23
7397.183352930963
 33
0.0
  0
SOLID
  5
5B6C
330
59BF
100
AcDbEntity
  8
SUNPOU
 62
     0
100
AcDbTrace
 10
-3726.853079769469
 20
7406.183352930963
 30
0.0
 11
-3726.853079769469
 21
7388.183352930963
 31
0.0
 12
-3672.853079769469
 22
7397.183352930963
 32
0.0
 13
-3672.853079769469
 23
7397.183352930963
 33
0.0
  0
MTEXT
  5
5B6D
330
59BF
100
AcDbEntity
  8
SUNPOU
 62
     0
100
AcDbMText
 10
-3822.853079769469
 20
7452.683352930963
 30
0.0
 40
75.0
 41
0.0
 71
     5
 72
     1
  1
\A1;60
 73
     1
 44
1.0
  0
POINT
  5
5B6E
330
59BF
100
AcDbEntity
  8
DEFPOINTS
 62
     0
100
AcDbPoint
 10
-3972.853079769469
 20
8022.183352930963
 30
0.0
  0
POINT
  5
5B6F
330
59BF
100
AcDbEntity
  8
DEFPOINTS
 62
     0
100
AcDbPoint
 10
-3672.853079769469
 20
7697.183352930963
 30
0.0
  0
POINT
  5
5B70
330
59BF
100
AcDbEntity
  8
DEFPOINTS
 62
     0
100
AcDbPoint
 10
-3672.853079769469
 20
7397.183352930963
 30
0.0
  0
ENDBLK
  5
59CA
330
59BF
100
AcDbEntity
  8
0
100
AcDbBlockEnd
  0
BLOCK
  5
59D5
330
59CB
100
AcDbEntity
  8
0
100
AcDbBlockBegin
  2
*D87
 70
     1
 10
0.0
 20
0.0
 30
0.0
  3
*D87
  1

  0
LINE
  5
5B71
330
59CB
100
AcDbEntity
  8
SUNPOU
 62
     0
370
    -2
100
AcDbLine
 10
-2612.853079769478
 20
7697.183352930968
 30
0.0
 11
-2289.853079769478
 21
7697.183352930968
 31
0.0
  0
LINE
  5
5B72
330
59CB
100
AcDbEntity
  8
SUNPOU
 62
     0
370
    -2
100
AcDbLine
 10
-3227.853079769478
 20
7997.183352930968
 30
0.0
 11
-2289.853079769478
 21
7997.183352930968
 31
0.0
  0
LINE
  5
5B73
330
59CB
100
AcDbEntity
  8
SUNPOU
 62
     0
370
    -2
100
AcDbLine
 10
-2307.853079769478
 20
7751.183352930968
 30
0.0
 11
-2307.853079769478
 21
7943.183352930968
 31
0.0
  0
SOLID
  5
5B74
330
59CB
100
AcDbEntity
  8
SUNPOU
 62
     0
100
AcDbTrace
 10
-2316.853079769478
 20
7751.183352930968
 30
0.0
 11
-2298.853079769478
 21
7751.183352930968
 31
0.0
 12
-2307.853079769478
 22
7697.183352930968
 32
0.0
 13
-2307.853079769478
 23
7697.183352930968
 33
0.0
  0
SOLID
  5
5B75
330
59CB
100
AcDbEntity
  8
SUNPOU
 62
     0
100
AcDbTrace
 10
-2316.853079769478
 20
7943.183352930968
 30
0.0
 11
-2298.853079769478
 21
7943.183352930968
 31
0.0
 12
-2307.853079769478
 22
7997.183352930968
 32
0.0
 13
-2307.853079769478
 23
7997.183352930968
 33
0.0
  0
MTEXT
  5
5B76
330
59CB
100
AcDbEntity
  8
SUNPOU
 62
     0
100
AcDbMText
 10
-2363.35307976948
 20
7847.183352930967
 30
0.0
 40
75.0
 41
0.0
 71
     5
 72
     1
  1
\A1;60
 11
6.123031769111886E-17
 21
1.0
 31
0.0
 73
     1
 44
1.0
  0
POINT
  5
5B77
330
59CB
100
AcDbEntity
  8
DEFPOINTS
 62
     0
100
AcDbPoint
 10
-2657.853079769478
 20
7697.183352930968
 30
0.0
  0
POINT
  5
5B78
330
59CB
100
AcDbEntity
  8
DEFPOINTS
 62
     0
100
AcDbPoint
 10
-3272.853079769478
 20
7997.183352930968
 30
0.0
  0
POINT
  5
5B79
330
59CB
100
AcDbEntity
  8
DEFPOINTS
 62
     0
100
AcDbPoint
 10
-2307.853079769478
 20
7997.183352930968
 30
0.0
  0
ENDBLK
  5
59D6
330
59CB
100
AcDbEntity
  8
0
100
AcDbBlockEnd
  0
BLOCK
  5
59E3
330
59D7
100
AcDbEntity
  8
0
100
AcDbBlockBegin
  2
*D88
 70
     1
 10
0.0
 20
0.0
 30
0.0
  3
*D88
  1

  0
LINE
  5
5B7A
330
59D7
100
AcDbEntity
  8
SUNPOU
 62
     0
370
    -2
100
AcDbLine
 10
-3372.853079769469
 20
9876.242521144959
 30
0.0
 11
-3372.853079769469
 21
10269.24252114496
 31
0.0
  0
LINE
  5
5B7B
330
59D7
100
AcDbEntity
  8
SUNPOU
 62
     0
370
    -2
100
AcDbLine
 10
-3357.853079769469
 20
9806.242521144959
 30
0.0
 11
-3357.853079769469
 21
10269.24252114496
 31
0.0
  0
LINE
  5
5B7C
330
59D7
100
AcDbEntity
  8
SUNPOU
 62
     0
370
    -2
100
AcDbLine
 10
-3426.853079769469
 20
10251.24252114496
 30
0.0
 11
-3480.853079769469
 21
10251.24252114496
 31
0.0
  0
LINE
  5
5B7D
330
59D7
100
AcDbEntity
  8
SUNPOU
 62
     0
370
    -2
100
AcDbLine
 10
-3303.853079769469
 20
10251.24252114496
 30
0.0
 11
-3249.853079769469
 21
10251.24252114496
 31
0.0
  0
MTEXT
  5
5B7E
330
59D7
100
AcDbEntity
  8
SUNPOU
 62
     0
100
AcDbMText
 10
-3278.614229227918
 20
10322.79252114496
 30
0.0
 40
75.0
 41
0.0
 71
     5
 72
     1
  1
\A1;3
 73
     1
 44
1.0
  0
LINE
  5
5B7F
330
59D7
100
AcDbEntity
  8
SUNPOU
 62
     0
370
    -2
100
AcDbLine
 10
-3372.853079769469
 20
10251.24252114496
 30
0.0
 11
-3357.853079769469
 21
10251.24252114496
 31
0.0
  0
SOLID
  5
5B80
330
59D7
100
AcDbEntity
  8
SUNPOU
 62
     0
100
AcDbTrace
 10
-3426.853079769469
 20
10260.24252114496
 30
0.0
 11
-3426.853079769469
 21
10242.24252114496
 31
0.0
 12
-3372.853079769469
 22
10251.24252114496
 32
0.0
 13
-3372.853079769469
 23
10251.24252114496
 33
0.0
  0
SOLID
  5
5B81
330
59D7
100
AcDbEntity
  8
SUNPOU
 62
     0
100
AcDbTrace
 10
-3303.853079769469
 20
10260.24252114496
 30
0.0
 11
-3303.853079769469
 21
10242.24252114496
 31
0.0
 12
-3357.853079769469
 22
10251.24252114496
 32
0.0
 13
-3357.853079769469
 23
10251.24252114496
 33
0.0
  0
POINT
  5
5B82
330
59D7
100
AcDbEntity
  8
DEFPOINTS
 62
     0
100
AcDbPoint
 10
-3372.853079769469
 20
9831.242521144959
 30
0.0
  0
POINT
  5
5B83
330
59D7
100
AcDbEntity
  8
DEFPOINTS
 62
     0
100
AcDbPoint
 10
-3357.853079769469
 20
9761.242521144959
 30
0.0
  0
POINT
  5
5B84
330
59D7
100
AcDbEntity
  8
DEFPOINTS
 62
     0
100
AcDbPoint
 10
-3357.853079769469
 20
10251.24252114496
 30
0.0
  0
ENDBLK
  5
59E4
330
59D7
100
AcDbEntity
  8
0
100
AcDbBlockEnd
  0
BLOCK
  5
59EF
330
59E5
100
AcDbEntity
  8
0
100
AcDbBlockBegin
  2
*D89
 70
     1
 10
0.0
 20
0.0
 30
0.0
  3
*D89
  1

  0
LINE
  5
5B85
330
59E5
100
AcDbEntity
  8
SUNPOU
 62
     0
370
    -2
100
AcDbLine
 10
-2612.853079769469
 20
10181.24252114496
 30
0.0
 11
-2289.853079769469
 21
10181.24252114496
 31
0.0
  0
LINE
  5
5B86
330
59E5
100
AcDbEntity
  8
SUNPOU
 62
     0
370
    -2
100
AcDbLine
 10
-3527.853079769469
 20
9881.242521144959
 30
0.0
 11
-2289.853079769469
 21
9881.242521144959
 31
0.0
  0
LINE
  5
5B87
330
59E5
100
AcDbEntity
  8
SUNPOU
 62
     0
370
    -2
100
AcDbLine
 10
-2307.853079769469
 20
10127.24252114496
 30
0.0
 11
-2307.853079769469
 21
9935.242521144959
 31
0.0
  0
SOLID
  5
5B88
330
59E5
100
AcDbEntity
  8
SUNPOU
 62
     0
100
AcDbTrace
 10
-2316.853079769469
 20
10127.24252114496
 30
0.0
 11
-2298.853079769469
 21
10127.24252114496
 31
0.0
 12
-2307.853079769469
 22
10181.24252114496
 32
0.0
 13
-2307.853079769469
 23
10181.24252114496
 33
0.0
  0
SOLID
  5
5B89
330
59E5
100
AcDbEntity
  8
SUNPOU
 62
     0
100
AcDbTrace
 10
-2316.853079769469
 20
9935.242521144959
 30
0.0
 11
-2298.853079769469
 21
9935.242521144959
 31
0.0
 12
-2307.853079769469
 22
9881.242521144959
 32
0.0
 13
-2307.853079769469
 23
9881.242521144959
 33
0.0
  0
MTEXT
  5
5B8A
330
59E5
100
AcDbEntity
  8
SUNPOU
 62
     0
100
AcDbMText
 10
-2363.353079769471
 20
10031.24252114496
 30
0.0
 40
75.0
 41
0.0
 71
     5
 72
     1
  1
\A1;60
 11
6.123031769111886E-17
 21
1.0
 31
0.0
 73
     1
 44
1.0
  0
POINT
  5
5B8B
330
59E5
100
AcDbEntity
  8
DEFPOINTS
 62
     0
100
AcDbPoint
 10
-2657.853079769469
 20
10181.24252114496
 30
0.0
  0
POINT
  5
5B8C
330
59E5
100
AcDbEntity
  8
DEFPOINTS
 62
     0
100
AcDbPoint
 10
-3572.853079769469
 20
9881.242521144959
 30
0.0
  0
POINT
  5
5B8D
330
59E5
100
AcDbEntity
  8
DEFPOINTS
 62
     0
100
AcDbPoint
 10
-2307.853079769469
 20
9881.242521144959
 30
0.0
  0
ENDBLK
  5
59F0
330
59E5
100
AcDbEntity
  8
0
100
AcDbBlockEnd
  0
BLOCK
  5
59FB
330
59F1
100
AcDbEntity
  8
0
100
AcDbBlockBegin
  2
*D90
 70
     1
 10
0.0
 20
0.0
 30
0.0
  3
*D90
  1

  0
LINE
  5
5B8E
330
59F1
100
AcDbEntity
  8
SUNPOU
 62
     0
370
    -2
100
AcDbLine
 10
-4017.853079769469
 20
9856.242521144959
 30
0.0
 11
-4790.853079769469
 21
9856.24252114496
 31
0.0
  0
LINE
  5
5B8F
330
59F1
100
AcDbEntity
  8
SUNPOU
 62
     0
370
    -2
100
AcDbLine
 10
-4492.85307976946
 20
10181.24252114496
 30
0.0
 11
-4790.853079769469
 21
10181.24252114496
 31
0.0
  0
LINE
  5
5B90
330
59F1
100
AcDbEntity
  8
SUNPOU
 62
     0
370
    -2
100
AcDbLine
 10
-4772.853079769469
 20
9910.24252114496
 30
0.0
 11
-4772.853079769469
 21
10127.24252114496
 31
0.0
  0
SOLID
  5
5B91
330
59F1
100
AcDbEntity
  8
SUNPOU
 62
     0
100
AcDbTrace
 10
-4781.853079769469
 20
9910.24252114496
 30
0.0
 11
-4763.853079769469
 21
9910.24252114496
 31
0.0
 12
-4772.853079769469
 22
9856.24252114496
 32
0.0
 13
-4772.853079769469
 23
9856.24252114496
 33
0.0
  0
SOLID
  5
5B92
330
59F1
100
AcDbEntity
  8
SUNPOU
 62
     0
100
AcDbTrace
 10
-4781.853079769469
 20
10127.24252114496
 30
0.0
 11
-4763.853079769469
 21
10127.24252114496
 31
0.0
 12
-4772.853079769469
 22
10181.24252114496
 32
0.0
 13
-4772.853079769469
 23
10181.24252114496
 33
0.0
  0
MTEXT
  5
5B93
330
59F1
100
AcDbEntity
  8
SUNPOU
 62
     0
100
AcDbMText
 10
-4828.35307976947
 20
10018.74252114496
 30
0.0
 40
75.0
 41
0.0
 71
     5
 72
     1
  1
\A1;65
 11
6.123031769111886E-17
 21
1.0
 31
0.0
 73
     1
 44
1.0
  0
POINT
  5
5B94
330
59F1
100
AcDbEntity
  8
DEFPOINTS
 62
     0
100
AcDbPoint
 10
-3972.853079769469
 20
9856.242521144959
 30
0.0
  0
POINT
  5
5B95
330
59F1
100
AcDbEntity
  8
DEFPOINTS
 62
     0
100
AcDbPoint
 10
-4447.85307976946
 20
10181.24252114496
 30
0.0
  0
POINT
  5
5B96
330
59F1
100
AcDbEntity
  8
DEFPOINTS
 62
     0
100
AcDbPoint
 10
-4772.853079769469
 20
10181.24252114496
 30
0.0
  0
ENDBLK
  5
59FC
330
59F1
100
AcDbEntity
  8
0
100
AcDbBlockEnd
  0
BLOCK
  5
5A07
330
59FD
100
AcDbEntity
  8
0
100
AcDbBlockBegin
  2
*D91
 70
     1
 10
0.0
 20
0.0
 30
0.0
  3
*D91
  1

  0
LINE
  5
5B97
330
59FD
100
AcDbEntity
  8
SUNPOU
 62
     0
370
    -2
100
AcDbLine
 10
-3572.853079769469
 20
10226.24252114496
 30
0.0
 11
-3572.853079769469
 21
10449.24252114496
 31
0.0
  0
LINE
  5
5B98
330
59FD
100
AcDbEntity
  8
SUNPOU
 62
     0
370
    -2
100
AcDbLine
 10
-3372.853079769469
 20
9876.242521144959
 30
0.0
 11
-3372.853079769469
 21
10449.24252114496
 31
0.0
  0
LINE
  5
5B99
330
59FD
100
AcDbEntity
  8
SUNPOU
 62
     0
370
    -2
100
AcDbLine
 10
-3518.853079769469
 20
10431.24252114496
 30
0.0
 11
-3426.853079769469
 21
10431.24252114496
 31
0.0
  0
SOLID
  5
5B9A
330
59FD
100
AcDbEntity
  8
SUNPOU
 62
     0
100
AcDbTrace
 10
-3518.853079769469
 20
10440.24252114496
 30
0.0
 11
-3518.853079769469
 21
10422.24252114496
 31
0.0
 12
-3572.853079769469
 22
10431.24252114496
 32
0.0
 13
-3572.853079769469
 23
10431.24252114496
 33
0.0
  0
SOLID
  5
5B9B
330
59FD
100
AcDbEntity
  8
SUNPOU
 62
     0
100
AcDbTrace
 10
-3426.853079769469
 20
10440.24252114496
 30
0.0
 11
-3426.853079769469
 21
10422.24252114496
 31
0.0
 12
-3372.853079769469
 22
10431.24252114496
 32
0.0
 13
-3372.853079769469
 23
10431.24252114496
 33
0.0
  0
MTEXT
  5
5B9C
330
59FD
100
AcDbEntity
  8
SUNPOU
 62
     0
100
AcDbMText
 10
-3472.853079769469
 20
10486.74252114496
 30
0.0
 40
75.0
 41
0.0
 71
     5
 72
     1
  1
\A1;40
 73
     1
 44
1.0
  0
POINT
  5
5B9D
330
59FD
100
AcDbEntity
  8
DEFPOINTS
 62
     0
100
AcDbPoint
 10
-3572.853079769469
 20
10181.24252114496
 30
0.0
  0
POINT
  5
5B9E
330
59FD
100
AcDbEntity
  8
DEFPOINTS
 62
     0
100
AcDbPoint
 10
-3372.853079769469
 20
9831.242521144959
 30
0.0
  0
POINT
  5
5B9F
330
59FD
100
AcDbEntity
  8
DEFPOINTS
 62
     0
100
AcDbPoint
 10
-3372.853079769469
 20
10431.24252114496
 30
0.0
  0
ENDBLK
  5
5A08
330
59FD
100
AcDbEntity
  8
0
100
AcDbBlockEnd
  0
BLOCK
  5
5A15
330
5A09
100
AcDbEntity
  8
0
100
AcDbBlockBegin
  2
*D92
 70
     1
 10
0.0
 20
0.0
 30
0.0
  3
*D92
  1

  0
LINE
  5
5BA0
330
5A09
100
AcDbEntity
  8
SUNPOU
 62
     0
370
    -2
100
AcDbLine
 10
-11082.61998367644
 20
9350.09162159569
 30
0.0
 11
-11155.61998367644
 21
9350.09162159569
 31
0.0
  0
LINE
  5
5BA1
330
5A09
100
AcDbEntity
  8
SUNPOU
 62
     0
370
    -2
100
AcDbLine
 10
-10982.61998367644
 20
9250.09162159569
 30
0.0
 11
-11155.61998367644
 21
9250.09162159569
 31
0.0
  0
LINE
  5
5BA2
330
5A09
100
AcDbEntity
  8
SUNPOU
 62
     0
370
    -2
100
AcDbLine
 10
-11137.61998367644
 20
9395.09162159569
 30
0.0
 11
-11137.61998367644
 21
9440.09162159569
 31
0.0
  0
LINE
  5
5BA3
330
5A09
100
AcDbEntity
  8
SUNPOU
 62
     0
370
    -2
100
AcDbLine
 10
-11137.61998367644
 20
9205.09162159569
 30
0.0
 11
-11137.61998367644
 21
9160.09162159569
 31
0.0
  0
MTEXT
  5
5BA4
330
5A09
100
AcDbEntity
  8
SUNPOU
 62
     0
100
AcDbMText
 10
-11236.82927889071
 20
9244.2884419859
 30
0.0
 40
90.0
 41
0.0
 71
     5
 72
     1
  1
\A1;100
 11
6.123031769111886E-17
 21
1.0
 31
0.0
 73
     1
 44
1.0
  0
LINE
  5
5BA5
330
5A09
100
AcDbEntity
  8
SUNPOU
 62
     0
370
    -2
100
AcDbLine
 10
-11137.61998367644
 20
9350.09162159569
 30
0.0
 11
-11137.61998367644
 21
9250.09162159569
 31
0.0
  0
SOLID
  5
5BA6
330
5A09
100
AcDbEntity
  8
SUNPOU
 62
     0
100
AcDbTrace
 10
-11145.11998367644
 20
9395.09162159569
 30
0.0
 11
-11130.11998367644
 21
9395.09162159569
 31
0.0
 12
-11137.61998367644
 22
9350.09162159569
 32
0.0
 13
-11137.61998367644
 23
9350.09162159569
 33
0.0
  0
SOLID
  5
5BA7
330
5A09
100
AcDbEntity
  8
SUNPOU
 62
     0
100
AcDbTrace
 10
-11145.11998367644
 20
9205.09162159569
 30
0.0
 11
-11130.11998367644
 21
9205.09162159569
 31
0.0
 12
-11137.61998367644
 22
9250.09162159569
 32
0.0
 13
-11137.61998367644
 23
9250.09162159569
 33
0.0
  0
POINT
  5
5BA8
330
5A09
100
AcDbEntity
  8
DEFPOINTS
 62
     0
100
AcDbPoint
 10
-11037.61998367644
 20
9350.09162159569
 30
0.0
  0
POINT
  5
5BA9
330
5A09
100
AcDbEntity
  8
DEFPOINTS
 62
     0
100
AcDbPoint
 10
-10937.61998367644
 20
9250.09162159569
 30
0.0
  0
POINT
  5
5BAA
330
5A09
100
AcDbEntity
  8
DEFPOINTS
 62
     0
100
AcDbPoint
 10
-11137.61998367644
 20
9250.09162159569
 30
0.0
  0
ENDBLK
  5
5A16
330
5A09
100
AcDbEntity
  8
0
100
AcDbBlockEnd
  0
BLOCK
  5
5A23
330
5A17
100
AcDbEntity
  8
0
100
AcDbBlockBegin
  2
*D93
 70
     1
 10
0.0
 20
0.0
 30
0.0
  3
*D93
  1

  0
LINE
  5
5BAB
330
5A17
100
AcDbEntity
  8
SUNPOU
 62
     0
370
    -2
100
AcDbLine
 10
-11037.61998367644
 20
9305.09162159569
 30
0.0
 11
-11037.61998367644
 21
9132.09162159569
 31
0.0
  0
LINE
  5
5BAC
330
5A17
100
AcDbEntity
  8
SUNPOU
 62
     0
370
    -2
100
AcDbLine
 10
-10937.61998367644
 20
9205.09162159569
 30
0.0
 11
-10937.61998367644
 21
9132.09162159569
 31
0.0
  0
LINE
  5
5BAD
330
5A17
100
AcDbEntity
  8
SUNPOU
 62
     0
370
    -2
100
AcDbLine
 10
-11082.61998367644
 20
9150.09162159569
 30
0.0
 11
-11127.61998367644
 21
9150.09162159569
 31
0.0
  0
LINE
  5
5BAE
330
5A17
100
AcDbEntity
  8
SUNPOU
 62
     0
370
    -2
100
AcDbLine
 10
-10892.61998367644
 20
9150.09162159569
 30
0.0
 11
-10847.61998367644
 21
9150.09162159569
 31
0.0
  0
MTEXT
  5
5BAF
330
5A17
100
AcDbEntity
  8
SUNPOU
 62
     0
100
AcDbMText
 10
-11030.39019067802
 20
9038.044323273632
 30
0.0
 40
90.0
 41
0.0
 71
     5
 72
     1
  1
\A1;100
 73
     1
 44
1.0
  0
LINE
  5
5BB0
330
5A17
100
AcDbEntity
  8
SUNPOU
 62
     0
370
    -2
100
AcDbLine
 10
-11037.61998367644
 20
9150.09162159569
 30
0.0
 11
-10937.61998367644
 21
9150.09162159569
 31
0.0
  0
SOLID
  5
5BB1
330
5A17
100
AcDbEntity
  8
SUNPOU
 62
     0
100
AcDbTrace
 10
-11082.61998367644
 20
9157.59162159569
 30
0.0
 11
-11082.61998367644
 21
9142.59162159569
 31
0.0
 12
-11037.61998367644
 22
9150.09162159569
 32
0.0
 13
-11037.61998367644
 23
9150.09162159569
 33
0.0
  0
SOLID
  5
5BB2
330
5A17
100
AcDbEntity
  8
SUNPOU
 62
     0
100
AcDbTrace
 10
-10892.61998367644
 20
9157.59162159569
 30
0.0
 11
-10892.61998367644
 21
9142.59162159569
 31
0.0
 12
-10937.61998367644
 22
9150.09162159569
 32
0.0
 13
-10937.61998367644
 23
9150.09162159569
 33
0.0
  0
POINT
  5
5BB3
330
5A17
100
AcDbEntity
  8
DEFPOINTS
 62
     0
100
AcDbPoint
 10
-11037.61998367644
 20
9350.09162159569
 30
0.0
  0
POINT
  5
5BB4
330
5A17
100
AcDbEntity
  8
DEFPOINTS
 62
     0
100
AcDbPoint
 10
-10937.61998367644
 20
9250.09162159569
 30
0.0
  0
POINT
  5
5BB5
330
5A17
100
AcDbEntity
  8
DEFPOINTS
 62
     0
100
AcDbPoint
 10
-10937.61998367644
 20
9150.09162159569
 30
0.0
  0
ENDBLK
  5
5A24
330
5A17
100
AcDbEntity
  8
0
100
AcDbBlockEnd
  0
ENDSEC
  0
SECTION
  2
ENTITIES
  0
MTEXT
  5
1F3
330
17
100
AcDbEntity
  8
SUNPOU
100
AcDbMText
 10
13223.7359685666
 20
11420.36433867959
 30
0.0
 40
125.0
 41
0.0
 71
     4
 72
     1
  1
\A1;  
 73
     1
 44
1.0
  0
MTEXT
  5
436
330
17
100
AcDbEntity
  8
SUNPOU
100
AcDbMText
 10
4929.769361675484
 20
7558.217079863927
 30
0.0
 40
125.0
 41
0.0
 71
     4
 72
     1
  1
\A1;  
 73
     1
 44
1.0
  0
MTEXT
  5
43F
330
17
100
AcDbEntity
  8
SUNPOU
100
AcDbMText
 10
4929.769361675484
 20
6870.944095853476
 30
0.0
 40
125.0
 41
0.0
 71
     4
 72
     1
  1
\A1;  
 73
     1
 44
1.0
  0
MTEXT
  5
62D
330
17
100
AcDbEntity
  8
SUNPOU
100
AcDbMText
 10
4565.373316510239
 20
9094.370103727342
 30
0.0
 40
125.0
 41
0.0
 71
     4
 72
     1
  1
\A1;  
 73
     1
 44
1.0
  0
MTEXT
  5
636
330
17
100
AcDbEntity
  8
SUNPOU
100
AcDbMText
 10
4268.558745342489
 20
12369.75976331887
 30
0.0
 40
125.0
 41
0.0
 71
     4
 72
     1
  1
\A1;  
 73
     1
 44
1.0
  0
MTEXT
  5
63B
330
17
100
AcDbEntity
  8
SUNPOU
100
AcDbMText
 10
3242.589696559124
 20
12369.75976331887
 30
0.0
 40
125.0
 41
0.0
 71
     6
 72
     1
  1
\A1;  
 73
     1
 44
1.0
  0
MTEXT
  5
63F
330
17
100
AcDbEntity
  8
SUNPOU
100
AcDbMText
 10
2616.198869440967
 20
11288.11303479701
 30
0.0
 40
125.0
 41
0.0
 71
     6
 72
     1
  1
\A1;  
 73
     1
 44
1.0
  0
MTEXT
  5
644
330
17
100
AcDbEntity
  8
SUNPOU
100
AcDbMText
 10
3017.906045475451
 20
12138.46425581864
 30
0.0
 40
125.0
 41
0.0
 71
     6
 72
     1
  1
\A1;  
 73
     1
 44
1.0
  0
MTEXT
  5
10EC
330
17
100
AcDbEntity
  8
SUNPOU
100
AcDbMText
 10
2059.852276494952
 20
7887.741942501411
 30
0.0
 40
125.0
 41
0.0
 71
     4
 72
     1
  1
\A1;  
 73
     1
 44
1.0
  0
MTEXT
  5
1173
330
17
100
AcDbEntity
  8
SUNPOU
100
AcDbMText
 10
4594.235440546887
 20
10517.05407451929
 30
0.0
 40
125.0
 41
0.0
 71
     4
 72
     1
  1
\A1;  
 73
     1
 44
1.0
  0
MTEXT
  5
1178
330
17
100
AcDbEntity
  8
SUNPOU
100
AcDbMText
 10
4301.866805112251
 20
12084.60464534443
 30
0.0
 40
125.0
 41
0.0
 71
     4
 72
     1
  1
\A1;  
 73
     1
 44
1.0
  0
MTEXT
  5
117D
330
17
100
AcDbEntity
  8
SUNPOU
100
AcDbMText
 10
3195.079811667158
 20
12084.60464534443
 30
0.0
 40
125.0
 41
0.0
 71
     6
 72
     1
  1
\A1;  
 73
     1
 44
1.0
  0
MTEXT
  5
118D
330
17
100
AcDbEntity
  8
SUNPOU
100
AcDbMText
 10
4089.608186322984
 20
9250.842241705835
 30
0.0
 40
125.0
 41
0.0
 71
     4
 72
     1
  1
\A1;  
 73
     1
 44
1.0
  0
MTEXT
  5
120A
330
17
100
AcDbEntity
  8
SUNPOU
100
AcDbMText
 10
1611.302624513271
 20
9364.760286959481
 30
0.0
 40
125.0
 41
0.0
 71
     6
 72
     1
  1
\A1;  
 73
     1
 44
1.0
  0
MTEXT
  5
125C
330
17
100
AcDbEntity
  8
SUNPOU
100
AcDbMText
 10
148.1211174677301
 20
8069.977868021433
 30
0.0
 40
125.0
 41
0.0
 71
     6
 72
     1
  1
\A1;  
 73
     1
 44
1.0
  0
MTEXT
  5
1263
330
17
100
AcDbEntity
  8
SUNPOU
100
AcDbMText
 10
339.9258406547674
 20
5704.727908752076
 30
0.0
 40
125.0
 41
0.0
 71
     6
 72
     1
  1
\A1;  
 73
     1
 44
1.0
  0
MTEXT
  5
13AD
330
17
100
AcDbEntity
  8
SUNPOU
100
AcDbMText
 10
7282.116817500675
 20
7954.430307034138
 30
0.0
 40
125.0
 41
0.0
 71
     6
 72
     1
  1
\A1;  
 73
     1
 44
1.0
  0
MTEXT
  5
13B1
330
17
100
AcDbEntity
  8
SUNPOU
100
AcDbMText
 10
9289.795500538086
 20
7204.585389589269
 30
0.0
 40
125.0
 41
0.0
 71
     4
 72
     1
  1
\A1;  
 73
     1
 44
1.0
  0
DIMENSION
  5
56F8
330
17
100
AcDbEntity
  8
SUNPOU
100
AcDbDimension
  2
*D53
 10
-8505.161373363786
 20
7450.09162159569
 30
0.0
 11
-7505.161373363786
 21
7513.09162159569
 31
0.0
 70
    32
 71
     5
 42
2000.0
  3
STANDARD
100
AcDbAlignedDimension
 13
-6505.161373363786
 23
7919.441621595689
 33
0.0
 14
-8505.161373363786
 24
7984.441621595689
 34
0.0
100
AcDbRotatedDimension
1001
ACAD
1000
DSTYLE
1002
{
1070
   287
1070
     5
1070
   287
1070
     5
1070
   287
1070
     5
1070
   287
1070
     5
1070
   287
1070
     5
1070
   287
1070
     5
1070
   287
1070
     5
1070
    40
1040
30.0
1070
    41
1040
1.8
1070
    42
1040
1.5
1070
    43
1040
7.0
1070
    44
1040
0.6
1070
    73
1070
     0
1070
    74
1070
     0
1070
    77
1070
     1
1070
    78
1070
     8
1070
   140
1040
3.0
1070
   141
1040
0.0
1070
   145
1040
1.0
1070
   147
1040
0.6
1070
   172
1070
     1
1070
   271
1070
     0
1070
   275
1070
     1
1070
   279
1070
     2
1070
   284
1070
     8
1070
   285
1070
     8
1070
   286
1070
     8
1002
}
  0
DIMENSION
  5
56F9
330
17
100
AcDbEntity
  8
SUNPOU
100
AcDbDimension
  2
*D54
 10
-6465.161373363786
 20
7260.09162159569
 30
0.0
 11
-7485.161373363786
 21
7323.09162159569
 31
0.0
 70
    32
 71
     5
 42
2040.0
  3
STANDARD
100
AcDbAlignedDimension
 13
-8505.161373363786
 23
7984.460553634524
 33
0.0
 14
-6465.161373363786
 24
7920.09162159569
 34
0.0
100
AcDbRotatedDimension
1001
ACAD
1000
DSTYLE
1002
{
1070
   287
1070
     5
1070
   287
1070
     5
1070
   287
1070
     5
1070
   287
1070
     5
1070
   287
1070
     5
1070
   287
1070
     5
1070
   287
1070
     5
1070
    40
1040
30.0
1070
    41
1040
1.8
1070
    42
1040
1.5
1070
    43
1040
7.0
1070
    44
1040
0.6
1070
    73
1070
     0
1070
    74
1070
     0
1070
    77
1070
     1
1070
    78
1070
     8
1070
   140
1040
3.0
1070
   141
1040
0.0
1070
   145
1040
1.0
1070
   147
1040
0.6
1070
   172
1070
     1
1070
   271
1070
     0
1070
   275
1070
     1
1070
   279
1070
     2
1070
   284
1070
     8
1070
   285
1070
     8
1070
   286
1070
     8
1002
}
  0
LINE
  5
56FA
330
17
100
AcDbEntity
  8
HASEN
100
AcDbLine
 10
-8505.161373363786
 20
8050.09162159569
 30
0.0
 11
-6505.161373363786
 21
8050.09162159569
 31
0.0
  0
LINE
  5
56FB
330
17
100
AcDbEntity
  8
HASEN
100
AcDbLine
 10
-8505.161373363786
 20
8150.09162159569
 30
0.0
 11
-6505.161373363786
 21
8150.09162159569
 31
0.0
  0
LINE
  5
56FC
330
17
100
AcDbEntity
  8
HASEN
100
AcDbLine
 10
-8505.161373363786
 20
9250.09162159569
 30
0.0
 11
-6505.161373363786
 21
9250.09162159569
 31
0.0
  0
LINE
  5
56FD
330
17
100
AcDbEntity
  8
HASEN
100
AcDbLine
 10
-8505.161373363786
 20
9350.09162159569
 30
0.0
 11
-6505.161373363786
 21
9350.09162159569
 31
0.0
  0
LINE
  5
56FE
330
17
100
AcDbEntity
  8
SEIHIN
100
AcDbLine
 10
-8445.161373363786
 20
7920.091621595689
 30
0.0
 11
-6465.161373363786
 21
7920.09162159569
 31
0.0
  0
LINE
  5
56FF
330
17
100
AcDbEntity
  8
SEIHIN
100
AcDbLine
 10
-8445.161373363786
 20
9480.09162159569
 30
0.0
 11
-6465.161373363786
 21
9480.09162159569
 31
0.0
  0
LINE
  5
5700
330
17
100
AcDbEntity
  8
HAIKIN
100
AcDbLine
 10
-13472.85307976947
 20
13731.24252114496
 30
0.0
 11
-1772.853079769469
 21
13731.24252114496
 31
0.0
  0
LINE
  5
5701
330
17
100
AcDbEntity
  8
HAIKIN
100
AcDbLine
 10
-13472.85307976947
 20
5631.242521144959
 30
0.0
 11
-1772.853079769469
 21
5631.242521144959
 31
0.0
  0
LINE
  5
5702
330
17
100
AcDbEntity
  8
HAIKIN
100
AcDbLine
 10
-13472.85307976947
 20
5631.242521144959
 30
0.0
 11
-13472.85307976947
 21
13731.24252114496
 31
0.0
  0
TEXT
  5
5703
330
17
100
AcDbEntity
  8
SUNPOU
100
AcDbText
 10
-11265.76842547739
 20
9806.299131818647
 30
0.0
 40
105.0
  1
差 口
 72
     2
 11
-10985.76842547739
 21
9792.299131818647
 31
0.0
100
AcDbText
 73
     1
  0
LINE
  5
5704
330
17
100
AcDbEntity
  8
SUNPOU
100
AcDbLine
 10
-11337.61998367644
 20
9400.09162159569
 30
0.0
 11
-10887.61998367644
 21
9400.09162159569
 31
0.0
  0
LINE
  5
5705
330
17
100
AcDbEntity
  8
SUNPOU
100
AcDbLine
 10
-11337.61998367644
 20
9415.09162159569
 30
0.0
 11
-10872.61998367644
 21
9415.09162159569
 31
0.0
  0
LINE
  5
5706
330
17
100
AcDbEntity
  8
SEIHIN
100
AcDbLine
 10
-11037.61998367644
 20
9350.09162159569
 30
0.0
 11
-10937.61998367644
 21
9250.09162159569
 31
0.0
  0
LINE
  5
5707
330
17
100
AcDbEntity
  8
SEIHIN
100
AcDbLine
 10
-10937.61998367644
 20
8150.09162159569
 30
0.0
 11
-11037.61998367644
 21
8050.09162159569
 31
0.0
  0
LINE
  5
5708
330
17
100
AcDbEntity
  8
SUNPOU
100
AcDbLine
 10
-10887.61998367644
 20
8000.09162159569
 30
0.0
 11
-11337.61998367644
 21
8000.09162159569
 31
0.0
  0
LINE
  5
5709
330
17
100
AcDbEntity
  8
SUNPOU
100
AcDbLine
 10
-10872.61998367644
 20
7985.091621595689
 30
0.0
 11
-11337.61998367644
 21
7985.09162159569
 31
0.0
  0
DIMENSION
  5
570A
330
17
100
AcDbEntity
  8
SUNPOU
100
AcDbDimension
  2
*D55
 10
-11737.61998367644
 20
7470.09162159569
 30
0.0
 11
-11337.61998367644
 21
7533.09162159569
 31
0.0
 70
    32
 71
     5
 42
800.0
  3
STANDARD
100
AcDbAlignedDimension
 13
-10937.61998367644
 23
7920.09162159569
 33
0.0
 14
-11737.61998367644
 24
7920.09162159569
 34
0.0
100
AcDbRotatedDimension
1001
ACAD
1000
DSTYLE
1002
{
1070
   287
1070
     5
1070
   287
1070
     5
1070
   287
1070
     5
1070
   287
1070
     5
1070
   287
1070
     5
1070
   287
1070
     5
1070
   287
1070
     5
1070
    40
1040
30.0
1070
    41
1040
1.5
1070
    42
1040
1.5
1070
    43
1040
7.0
1070
    44
1040
0.6
1070
    73
1070
     0
1070
    74
1070
     0
1070
    77
1070
     1
1070
    78
1070
     8
1070
   140
1040
3.0
1070
   141
1040
0.0
1070
   145
1040
1.0
1070
   147
1040
0.6
1070
   172
1070
     1
1070
   271
1070
     0
1070
   275
1070
     1
1070
   279
1070
     2
1070
   284
1070
     8
1070
   285
1070
     8
1070
   286
1070
     8
1002
}
  0
DIMENSION
  5
570B
330
17
100
AcDbEntity
  8
SUNPOU
100
AcDbDimension
  2
*D56
 10
-10807.61998367644
 20
7290.09162159569
 30
0.0
 11
-11337.61998367644
 21
7353.09162159569
 31
0.0
 70
    32
 71
     5
 42
1060.0
  3
STANDARD
100
AcDbAlignedDimension
 13
-11867.61998367644
 23
7920.09162159569
 33
0.0
 14
-10807.61998367644
 24
7920.09162159569
 34
0.0
100
AcDbRotatedDimension
1001
ACAD
1000
DSTYLE
1002
{
1070
   287
1070
     5
1070
   287
1070
     5
1070
   287
1070
     5
1070
   287
1070
     5
1070
   287
1070
     5
1070
   287
1070
     5
1070
   287
1070
     5
1070
    40
1040
30.0
1070
    41
1040
1.5
1070
    42
1040
1.5
1070
    43
1040
7.0
1070
    44
1040
0.6
1070
    73
1070
     0
1070
    74
1070
     0
1070
    77
1070
     1
1070
    78
1070
     8
1070
   140
1040
3.0
1070
   141
1040
0.0
1070
   145
1040
1.0
1070
   147
1040
0.6
1070
   172
1070
     1
1070
   271
1070
     0
1070
   275
1070
     1
1070
   279
1070
     2
1070
   284
1070
     8
1070
   285
1070
     8
1070
   286
1070
     8
1002
}
  0
LINE
  5
570C
330
17
100
AcDbEntity
  8
SUNPOU
100
AcDbLine
 10
-11729.32774809017
 20
9780.09162159569
 30
0.0
 11
-10944.80299494204
 21
9780.09162159569
 31
0.0
  0
TEXT
  5
570D
330
17
100
AcDbEntity
  8
SUNPOU
100
AcDbText
 10
-12154.62831387802
 20
6413.199899073108
 30
0.0
 40
90.0
  1
パッキン溝及び吊り孔等の加工を行ってもよい。
100
AcDbText
  0
TEXT
  5
570E
330
17
100
AcDbEntity
  8
SUNPOU
100
AcDbText
 10
-12638.58980997521
 20
6576.846227797658
 30
0.0
 40
90.0
  1
（備考） 寸法や強度に影響を及ぼさない範囲で、端面の面取り、
100
AcDbText
  0
LINE
  5
570F
330
17
100
AcDbEntity
  8
SEIHIN
100
AcDbLine
 10
-10807.61998367644
 20
7920.09162159569
 30
0.0
 11
-11867.61998367644
 21
7920.09162159569
 31
0.0
  0
LINE
  5
5710
330
17
100
AcDbEntity
  8
SEIHIN
100
AcDbLine
 10
-11867.61998367644
 20
9480.09162159569
 30
0.0
 11
-10807.61998367644
 21
9480.09162159569
 31
0.0
  0
LINE
  5
5711
330
17
100
AcDbEntity
  8
1HASEN
100
AcDbLine
 10
-11337.61998367644
 20
9780.09162159569
 30
0.0
 11
-11337.61998367644
 21
7870.09162159569
 31
0.0
  0
ARC
  5
5712
330
17
100
AcDbEntity
  8
SUNPOU
100
AcDbCircle
 10
-11670.04998367644
 20
8118.09162159569
 30
0.0
 40
95.0
100
AcDbArc
 50
180.0
 51
270.0
  0
ARC
  5
5713
330
17
100
AcDbEntity
  8
SUNPOU
100
AcDbCircle
 10
-11677.04998367644
 20
8111.09162159569
 30
0.0
 40
110.0
100
AcDbArc
 50
180.0
 51
270.0
  0
LINE
  5
5714
330
17
100
AcDbEntity
  8
SUNPOU
100
AcDbLine
 10
-11797.61998367644
 20
7990.09162159569
 30
0.0
 11
-11797.61998367644
 21
9410.09162159569
 31
0.0
  0
LINE
  5
5715
330
17
100
AcDbEntity
  8
SUNPOU
100
AcDbLine
 10
-11812.61998367644
 20
7975.09162159569
 30
0.0
 11
-11812.61998367644
 21
9425.09162159569
 31
0.0
  0
LINE
  5
5716
330
17
100
AcDbEntity
  8
SEIHIN
100
AcDbLine
 10
-11867.61998367644
 20
7920.09162159569
 30
0.0
 11
-11867.61998367644
 21
9480.09162159569
 31
0.0
  0
DIMENSION
  5
5717
330
17
100
AcDbEntity
  8
SUNPOU
100
AcDbDimension
  2
*D57
 10
-11737.61998367644
 20
7470.09162159569
 30
0.0
 11
-11769.22582095972
 21
7543.183543546016
 31
0.0
 70
   160
 71
     5
 42
130.0
  3
STANDARD
100
AcDbAlignedDimension
 13
-11867.61998367644
 23
7920.09162159569
 33
0.0
 14
-11737.61998367644
 24
7920.09162159569
 34
0.0
100
AcDbRotatedDimension
1001
ACAD
1000
DSTYLE
1002
{
1070
   287
1070
     5
1070
   287
1070
     5
1070
   287
1070
     5
1070
   287
1070
     5
1070
   287
1070
     5
1070
   287
1070
     5
1070
   287
1070
     5
1070
    40
1040
30.0
1070
    41
1040
1.5
1070
    42
1040
1.5
1070
    43
1040
7.0
1070
    44
1040
0.6
1070
    73
1070
     0
1070
    74
1070
     0
1070
    77
1070
     1
1070
    78
1070
     8
1070
   140
1040
3.0
1070
   141
1040
0.0
1070
   145
1040
1.0
1070
   147
1040
0.6
1070
   172
1070
     1
1070
   271
1070
     0
1070
   275
1070
     1
1070
   279
1070
     2
1070
   284
1070
     8
1070
   285
1070
     8
1070
   286
1070
     8
1002
}
  0
LINE
  5
5718
330
17
100
AcDbEntity
  8
SUNPOU
100
AcDbLine
 10
-11337.61998367644
 20
7990.09162159569
 30
0.0
 11
-11797.61998367644
 21
7990.09162159569
 31
0.0
  0
LINE
  5
5719
330
17
100
AcDbEntity
  8
SUNPOU
100
AcDbLine
 10
-11337.61998367644
 20
7975.09162159569
 30
0.0
 11
-11812.61998367644
 21
7975.09162159569
 31
0.0
  0
LINE
  5
571A
330
17
100
AcDbEntity
  8
SUNPOU
100
AcDbLine
 10
-11798.04998367644
 20
7990.09162159569
 30
0.0
 11
-11813.04998367644
 21
7975.09162159569
 31
0.0
  0
LINE
  5
571B
330
17
100
AcDbEntity
  8
SUNPOU
100
AcDbLine
 10
-11337.61998367644
 20
8001.09162159569
 30
0.0
 11
-11677.04998367644
 21
8001.09162159569
 31
0.0
  0
LINE
  5
571C
330
17
100
AcDbEntity
  8
SUNPOU
100
AcDbLine
 10
-11337.61998367644
 20
8023.09162159569
 30
0.0
 11
-11670.04998367644
 21
8023.09162159569
 31
0.0
  0
LINE
  5
571D
330
17
100
AcDbEntity
  8
SEIHIN
100
AcDbLine
 10
-11737.61998367644
 20
9250.09162159569
 30
0.0
 11
-11637.61998367644
 21
9350.09162159569
 31
0.0
  0
LINE
  5
571E
330
17
100
AcDbEntity
  8
SEIHIN
100
AcDbLine
 10
-11637.61998367644
 20
8050.09162159569
 30
0.0
 11
-11737.61998367644
 21
8150.09162159569
 31
0.0
  0
ARC
  5
571F
330
17
100
AcDbEntity
  8
SUNPOU
100
AcDbCircle
 10
-11677.04998367644
 20
9289.09162159569
 30
0.0
 40
110.0
100
AcDbArc
 50
90.0
 51
180.0
  0
ARC
  5
5720
330
17
100
AcDbEntity
  8
SUNPOU
100
AcDbCircle
 10
-11670.04998367644
 20
9282.09162159569
 30
0.0
 40
95.0
100
AcDbArc
 50
90.0
 51
180.0
  0
LINE
  5
5721
330
17
100
AcDbEntity
  8
SUNPOU
100
AcDbLine
 10
-11797.61998367644
 20
9410.09162159569
 30
0.0
 11
-11337.61998367644
 21
9410.09162159569
 31
0.0
  0
LINE
  5
5722
330
17
100
AcDbEntity
  8
SUNPOU
100
AcDbLine
 10
-11812.61998367644
 20
9425.09162159569
 30
0.0
 11
-11337.61998367644
 21
9425.09162159569
 31
0.0
  0
LINE
  5
5723
330
17
100
AcDbEntity
  8
SEIHIN
100
AcDbLine
 10
-11737.61998367644
 20
8150.09162159569
 30
0.0
 11
-11737.61998367644
 21
9250.09162159569
 31
0.0
  0
LINE
  5
5724
330
17
100
AcDbEntity
  8
SUNPOU
100
AcDbLine
 10
-11786.61998367644
 20
8101.374878314114
 30
0.0
 11
-11786.61998367644
 21
9298.808364877266
 31
0.0
  0
LINE
  5
5725
330
17
100
AcDbEntity
  8
SUNPOU
100
AcDbLine
 10
-11764.61998367644
 20
8109.063050280132
 30
0.0
 11
-11764.61998367644
 21
9291.120192911245
 31
0.0
  0
LINE
  5
5726
330
17
100
AcDbEntity
  8
SUNPOU
100
AcDbLine
 10
-11798.04998367644
 20
9410.09162159569
 30
0.0
 11
-11813.04998367644
 21
9425.09162159569
 31
0.0
  0
LINE
  5
5727
330
17
100
AcDbEntity
  8
SEIHIN
100
AcDbLine
 10
-11037.61998367644
 20
8050.09162159569
 30
0.0
 11
-11637.61998367644
 21
8050.09162159569
 31
0.0
  0
LINE
  5
5728
330
17
100
AcDbEntity
  8
SUNPOU
100
AcDbLine
 10
-11677.04998367644
 20
9399.09162159569
 30
0.0
 11
-11337.61998367644
 21
9399.09162159569
 31
0.0
  0
LINE
  5
5729
330
17
100
AcDbEntity
  8
SUNPOU
100
AcDbLine
 10
-11670.04998367644
 20
9377.09162159569
 30
0.0
 11
-11337.61998367644
 21
9377.09162159569
 31
0.0
  0
LINE
  5
572A
330
17
100
AcDbEntity
  8
SEIHIN
100
AcDbLine
 10
-11637.61998367644
 20
9350.09162159569
 30
0.0
 11
-11037.61998367644
 21
9350.09162159569
 31
0.0
  0
TEXT
  5
572B
330
17
100
AcDbEntity
  8
SUNPOU
100
AcDbText
 10
-11702.01748154974
 20
9806.299131818647
 30
0.0
 40
105.0
  1
受 口
 11
-11702.01748154974
 21
9792.299131818647
 31
0.0
100
AcDbText
 73
     1
  0
LINE
  5
572C
330
17
100
AcDbEntity
  8
SUNPOU
100
AcDbLine
 10
-10887.61998367644
 20
9400.09162159569
 30
0.0
 11
-10887.61998367644
 21
8000.09162159569
 31
0.0
  0
LINE
  5
572D
330
17
100
AcDbEntity
  8
SUNPOU
100
AcDbLine
 10
-10872.61998367644
 20
9415.09162159569
 30
0.0
 11
-10872.61998367644
 21
7985.091621595689
 31
0.0
  0
DIMENSION
  5
572E
330
17
100
AcDbEntity
  8
SUNPOU
100
AcDbDimension
  2
*D58
 10
-10177.61998367644
 20
7920.091621595689
 30
0.0
 11
-10240.61998367644
 21
8700.091621595688
 31
0.0
 70
    32
 71
     5
 42
1560.000000000001
  3
STANDARD
100
AcDbAlignedDimension
 13
-10807.61998367644
 23
9480.09162159569
 33
0.0
 14
-10807.61998367644
 24
7920.09162159569
 34
0.0
 50
90.0
100
AcDbRotatedDimension
1001
ACAD
1000
DSTYLE
1002
{
1070
   287
1070
     5
1070
   287
1070
     5
1070
   287
1070
     5
1070
   287
1070
     5
1070
   287
1070
     5
1070
   287
1070
     5
1070
   287
1070
     5
1070
    40
1040
30.0
1070
    41
1040
1.5
1070
    42
1040
1.5
1070
    43
1040
7.0
1070
    44
1040
0.6
1070
    73
1070
     0
1070
    74
1070
     0
1070
    77
1070
     1
1070
    78
1070
     8
1070
   140
1040
3.0
1070
   141
1040
0.0
1070
   145
1040
1.0
1070
   147
1040
0.6
1070
   172
1070
     1
1070
   271
1070
     0
1070
   275
1070
     1
1070
   279
1070
     2
1070
   284
1070
     8
1070
   285
1070
     8
1070
   286
1070
     8
1002
}
  0
DIMENSION
  5
572F
330
17
100
AcDbEntity
  8
SUNPOU
100
AcDbDimension
  2
*D59
 10
-10357.61998367644
 20
8050.09162159569
 30
0.0
 11
-10427.89151702425
 21
8018.282212525293
 31
0.0
 70
   160
 71
     5
 42
130.0
  3
STANDARD
100
AcDbAlignedDimension
 13
-10807.61998367644
 23
7920.09162159569
 33
0.0
 14
-10807.61998367644
 24
8050.09162159569
 34
0.0
 50
90.0
100
AcDbRotatedDimension
1001
ACAD
1000
DSTYLE
1002
{
1070
   287
1070
     5
1070
   287
1070
     5
1070
   287
1070
     5
1070
   287
1070
     5
1070
   287
1070
     5
1070
   287
1070
     5
1070
   287
1070
     5
1070
    40
1040
30.0
1070
    41
1040
1.5
1070
    42
1040
1.5
1070
    43
1040
7.0
1070
    44
1040
0.6
1070
    73
1070
     0
1070
    74
1070
     0
1070
    77
1070
     1
1070
    78
1070
     8
1070
   140
1040
3.0
1070
   141
1040
0.0
1070
   145
1040
1.0
1070
   147
1040
0.6
1070
   172
1070
     1
1070
   271
1070
     0
1070
   275
1070
     1
1070
   279
1070
     2
1070
   284
1070
     8
1070
   285
1070
     8
1070
   286
1070
     8
1002
}
  0
LINE
  5
5730
330
17
100
AcDbEntity
  8
SEIHIN
100
AcDbLine
 10
-10807.61998367644
 20
9480.09162159569
 30
0.0
 11
-10807.61998367644
 21
7920.09162159569
 31
0.0
  0
DIMENSION
  5
5731
330
17
100
AcDbEntity
  8
SUNPOU
100
AcDbDimension
  2
*D60
 10
-10937.61998367644
 20
7470.09162159569
 30
0.0
 11
-10834.20326926299
 21
7540.719437786898
 31
0.0
 70
   160
 71
     5
 42
130.0
  3
STANDARD
100
AcDbAlignedDimension
 13
-10807.61998367644
 23
7920.09162159569
 33
0.0
 14
-10937.61998367644
 24
7920.09162159569
 34
0.0
100
AcDbRotatedDimension
1001
ACAD
1000
DSTYLE
1002
{
1070
   287
1070
     5
1070
   287
1070
     5
1070
   287
1070
     5
1070
   287
1070
     5
1070
   287
1070
     5
1070
   287
1070
     5
1070
   287
1070
     5
1070
    40
1040
30.0
1070
    41
1040
1.5
1070
    42
1040
1.5
1070
    43
1040
7.0
1070
    44
1040
0.6
1070
    73
1070
     0
1070
    74
1070
     0
1070
    77
1070
     1
1070
    78
1070
     8
1070
   140
1040
3.0
1070
   141
1040
0.0
1070
   145
1040
1.0
1070
   147
1040
0.6
1070
   172
1070
     1
1070
   271
1070
     0
1070
   275
1070
     1
1070
   279
1070
     2
1070
   284
1070
     8
1070
   285
1070
     8
1070
   286
1070
     8
1002
}
  0
LINE
  5
5732
330
17
100
AcDbEntity
  8
SUNPOU
100
AcDbLine
 10
-10888.04998367644
 20
8000.09162159569
 30
0.0
 11
-10873.04998367644
 21
7985.09162159569
 31
0.0
  0
DIMENSION
  5
5733
330
17
100
AcDbEntity
  8
SUNPOU
100
AcDbDimension
  2
*D61
 10
-10358.04998367644
 20
9350.09162159569
 30
0.0
 11
-10428.32151702425
 21
9448.059159161014
 31
0.0
 70
   160
 71
     5
 42
130.0
  3
STANDARD
100
AcDbAlignedDimension
 13
-10808.04998367644
 23
9480.09162159569
 33
0.0
 14
-10808.04998367644
 24
9350.09162159569
 34
0.0
 50
90.0
100
AcDbRotatedDimension
1001
ACAD
1000
DSTYLE
1002
{
1070
   287
1070
     5
1070
   287
1070
     5
1070
   287
1070
     5
1070
   287
1070
     5
1070
   287
1070
     5
1070
   287
1070
     5
1070
   287
1070
     5
1070
    40
1040
30.0
1070
    41
1040
1.5
1070
    42
1040
1.5
1070
    43
1040
7.0
1070
    44
1040
0.6
1070
    73
1070
     0
1070
    74
1070
     0
1070
    77
1070
     1
1070
    78
1070
     8
1070
   140
1040
3.0
1070
   141
1040
0.0
1070
   145
1040
1.0
1070
   147
1040
0.6
1070
   172
1070
     1
1070
   271
1070
     0
1070
   275
1070
     1
1070
   279
1070
     2
1070
   284
1070
     8
1070
   285
1070
     8
1070
   286
1070
     8
1002
}
  0
DIMENSION
  5
5734
330
17
100
AcDbEntity
  8
SUNPOU
100
AcDbDimension
  2
*D62
 10
-10357.61998367644
 20
8050.09162159569
 30
0.0
 11
-10420.61998367644
 21
8700.091621595688
 31
0.0
 70
    32
 71
     5
 42
1300.000000000001
  3
STANDARD
100
AcDbAlignedDimension
 13
-10807.61998367644
 23
9350.09162159569
 33
0.0
 14
-10807.61998367644
 24
8050.09162159569
 34
0.0
 50
90.0
100
AcDbRotatedDimension
1001
ACAD
1000
DSTYLE
1002
{
1070
   287
1070
     5
1070
   287
1070
     5
1070
   287
1070
     5
1070
   287
1070
     5
1070
   287
1070
     5
1070
   287
1070
     5
1070
   287
1070
     5
1070
    40
1040
30.0
1070
    41
1040
1.5
1070
    42
1040
1.5
1070
    43
1040
7.0
1070
    44
1040
0.6
1070
    73
1070
     0
1070
    74
1070
     0
1070
    77
1070
     1
1070
    78
1070
     8
1070
   140
1040
3.0
1070
   141
1040
0.0
1070
   145
1040
1.0
1070
   147
1040
0.6
1070
   172
1070
     1
1070
   271
1070
     0
1070
   275
1070
     1
1070
   279
1070
     2
1070
   284
1070
     8
1070
   285
1070
     8
1070
   286
1070
     8
1002
}
  0
LINE
  5
5735
330
17
100
AcDbEntity
  8
SEIHIN
100
AcDbLine
 10
-10937.61998367644
 20
9250.09162159569
 30
0.0
 11
-10937.61998367644
 21
8150.09162159569
 31
0.0
  0
LINE
  5
5736
330
17
100
AcDbEntity
  8
SUNPOU
100
AcDbLine
 10
-10873.04998367644
 20
9415.09162159569
 30
0.0
 11
-10888.04998367644
 21
9400.09162159569
 31
0.0
  0
LINE
  5
5737
330
17
100
AcDbEntity
  8
SEIHIN
100
AcDbLine
 10
-8505.161373363786
 20
8000.09162159569
 30
0.0
 11
-8505.161373363786
 21
8650.09162159569
 31
0.0
  0
LINE
  5
5738
330
17
100
AcDbEntity
  8
SEIHIN
100
AcDbLine
 10
-8445.161373363786
 20
9480.09162159569
 30
0.0
 11
-8445.161373363788
 21
7920.09162159569
 31
0.0
  0
DIMENSION
  5
5739
330
17
100
AcDbEntity
  8
SUNPOU
100
AcDbDimension
  2
*D63
 10
-8445.161373363786
 20
7620.09162159569
 30
0.0
 11
-8354.452690137608
 21
7693.217125006122
 31
0.0
 70
   160
 71
     5
 42
60.0
  3
STANDARD
100
AcDbAlignedDimension
 13
-8505.161373363786
 23
7985.09162159569
 33
0.0
 14
-8445.161373363786
 24
7920.09162159569
 34
0.0
100
AcDbRotatedDimension
1001
ACAD
1000
DSTYLE
1002
{
1070
   287
1070
     5
1070
   287
1070
     5
1070
   287
1070
     5
1070
   287
1070
     5
1070
   287
1070
     5
1070
   287
1070
     5
1070
   287
1070
     5
1070
    40
1040
30.0
1070
    41
1040
1.8
1070
    42
1040
1.5
1070
    43
1040
7.0
1070
    44
1040
0.6
1070
    73
1070
     0
1070
    74
1070
     0
1070
    77
1070
     1
1070
    78
1070
     8
1070
   140
1040
3.0
1070
   141
1040
0.0
1070
   145
1040
1.0
1070
   147
1040
0.6
1070
   172
1070
     1
1070
   271
1070
     0
1070
   275
1070
     1
1070
   279
1070
     2
1070
   284
1070
     8
1070
   285
1070
     8
1070
   286
1070
     8
1002
}
  0
LINE
  5
573A
330
17
100
AcDbEntity
  8
SEIHIN
100
AcDbLine
 10
-8445.161373363786
 20
7985.09162159569
 30
0.0
 11
-8505.161373363786
 21
8000.09162159569
 31
0.0
  0
LINE
  5
573B
330
17
100
AcDbEntity
  8
SEIHIN
100
AcDbLine
 10
-8505.161373363786
 20
9400.09162159569
 30
0.0
 11
-8505.161373363786
 21
8650.09162159569
 31
0.0
  0
LINE
  5
573C
330
17
100
AcDbEntity
  8
SEIHIN
100
AcDbLine
 10
-8445.161373363786
 20
9415.09162159569
 30
0.0
 11
-8505.161373363786
 21
9400.09162159569
 31
0.0
  0
LINE
  5
573D
330
17
100
AcDbEntity
  8
HASEN
100
AcDbLine
 10
-10877.61998367644
 20
12765.55492175211
 30
0.0
 11
-11337.61998367644
 21
12765.5549217521
 31
0.0
  0
LINE
  5
573E
330
17
100
AcDbEntity
  8
SEIHIN
100
AcDbLine
 10
-10887.61998367644
 20
10765.5549217521
 30
0.0
 11
-11337.18998367644
 21
10765.5549217521
 31
0.0
  0
LINE
  5
573F
330
17
100
AcDbEntity
  8
SEIHIN
100
AcDbLine
 10
-10872.61998367644
 20
10825.5549217521
 30
0.0
 11
-11802.61998367644
 21
10825.5549217521
 31
0.0
  0
LINE
  5
5740
330
17
100
AcDbEntity
  8
SEIHIN
100
AcDbLine
 10
-11807.61998367644
 20
12805.5549217521
 30
0.0
 11
-10867.61998367644
 21
12805.5549217521
 31
0.0
  0
LINE
  5
5741
330
17
100
AcDbEntity
  8
HASEN
100
AcDbLine
 10
-11037.61998367644
 20
10765.5549217521
 30
0.0
 11
-11037.61998367644
 21
12765.5549217521
 31
0.0
  0
LINE
  5
5742
330
17
100
AcDbEntity
  8
HASEN
100
AcDbLine
 10
-11637.61998367644
 20
10765.5549217521
 30
0.0
 11
-11637.61998367644
 21
12765.5549217521
 31
0.0
  0
LINE
  5
5743
330
17
100
AcDbEntity
  8
HASEN
100
AcDbLine
 10
-11737.61998367644
 20
10765.5549217521
 30
0.0
 11
-11737.61998367644
 21
12733.5549217521
 31
0.0
  0
LINE
  5
5744
330
17
100
AcDbEntity
  8
SEIHIN
100
AcDbLine
 10
-11867.61998367644
 20
10825.5549217521
 30
0.0
 11
-11867.61998367644
 21
12805.5549217521
 31
0.0
  0
LINE
  5
5745
330
17
100
AcDbEntity
  8
SUNPOU
100
AcDbLine
 10
-12122.73682355703
 20
10125.79767480202
 30
0.0
 11
-11412.50314379585
 21
10125.79767480202
 31
0.0
  0
TEXT
  5
5746
330
17
100
AcDbEntity
  8
SUNPOU
100
AcDbText
 10
-12108.23596349765
 20
10155.79767480202
 30
0.0
 40
120.0
  1
正　面　図
 72
     1
 11
-11768.23596349765
 21
10155.79767480202
 31
0.0
100
AcDbText
  0
LINE
  5
5747
330
17
100
AcDbEntity
  8
SEIHIN
100
AcDbLine
 10
-11787.61998367644
 20
10765.5549217521
 30
0.0
 11
-11337.61998367644
 21
10765.5549217521
 31
0.0
  0
LINE
  5
5748
330
17
100
AcDbEntity
  8
SEIHIN
100
AcDbLine
 10
-11867.61998367644
 20
10825.5549217521
 30
0.0
 11
-11802.61998367644
 21
10825.5549217521
 31
0.0
  0
LINE
  5
5749
330
17
100
AcDbEntity
  8
SEIHIN
100
AcDbLine
 10
-11802.61998367644
 20
10825.5549217521
 30
0.0
 11
-11787.61998367644
 21
10765.5549217521
 31
0.0
  0
LINE
  5
574A
330
17
100
AcDbEntity
  8
HASEN
100
AcDbLine
 10
-11793.04998367644
 20
12765.5549217521
 30
0.0
 11
-11337.61998367644
 21
12765.5549217521
 31
0.0
  0
LINE
  5
574B
330
17
100
AcDbEntity
  8
SEIHIN
100
AcDbLine
 10
-11867.61998367644
 20
12805.5549217521
 30
0.0
 11
-11812.61998367644
 21
12805.5549217521
 31
0.0
  0
LINE
  5
574C
330
17
100
AcDbEntity
  8
HASEN
100
AcDbLine
 10
-11797.61998367644
 20
12765.5549217521
 30
0.0
 11
-11807.61998367644
 21
12805.5549217521
 31
0.0
  0
LINE
  5
574D
330
17
100
AcDbEntity
  8
SUNPOU
100
AcDbLine
 10
-12122.73682355703
 20
13211.26097495843
 30
0.0
 11
-11412.50314379585
 21
13211.26097495843
 31
0.0
  0
TEXT
  5
574E
330
17
100
AcDbEntity
  8
SUNPOU
100
AcDbText
 10
-12108.23596349765
 20
13241.26097495843
 30
0.0
 40
120.0
  1
平　面　図
 72
     1
 11
-11768.23596349765
 21
13241.26097495843
 31
0.0
100
AcDbText
  0
DIMENSION
  5
574F
330
17
100
AcDbEntity
  8
SUNPOU
100
AcDbDimension
  2
*D64
 10
-10147.61998367644
 20
12765.5549217521
 30
0.0
 11
-10221.06998367644
 21
12902.05414232215
 31
0.0
 70
   160
 71
     5
 42
40.0
  3
STANDARD
100
AcDbAlignedDimension
 13
-10807.61998367644
 23
12805.5549217521
 33
0.0
 14
-10807.61998367644
 24
12765.5549217521
 34
0.0
 50
90.0
100
AcDbRotatedDimension
1001
ACAD
1000
DSTYLE
1002
{
1070
   287
1070
     5
1070
   287
1070
     5
1070
   287
1070
     5
1070
   287
1070
     5
1070
   287
1070
     5
1070
   287
1070
     5
1070
   287
1070
     5
1070
    40
1040
30.0
1070
    41
1040
1.8
1070
    42
1040
1.5
1070
    43
1040
7.0
1070
    44
1040
0.6
1070
    73
1070
     0
1070
    74
1070
     0
1070
    77
1070
     1
1070
    78
1070
     8
1070
   140
1040
3.0
1070
   141
1040
0.0
1070
   145
1040
1.0
1070
   147
1040
0.6
1070
   172
1070
     1
1070
   271
1070
     0
1070
   275
1070
     1
1070
   279
1070
     2
1070
   284
1070
     8
1070
   285
1070
     8
1070
   286
1070
     8
1002
}
  0
DIMENSION
  5
5750
330
17
100
AcDbEntity
  8
SUNPOU
100
AcDbDimension
  2
*D65
 10
-10147.61998367644
 20
10765.5549217521
 30
0.0
 11
-10210.61998367644
 21
11765.5549217521
 31
0.0
 70
    32
 71
     5
 42
2000.0
  3
STANDARD
100
AcDbAlignedDimension
 13
-10806.86998367644
 23
12765.5549217521
 33
0.0
 14
-10881.86998367644
 24
10765.5549217521
 34
0.0
 50
90.0
100
AcDbRotatedDimension
1001
ACAD
1000
DSTYLE
1002
{
1070
   287
1070
     5
1070
   287
1070
     5
1070
   287
1070
     5
1070
   287
1070
     5
1070
   287
1070
     5
1070
   287
1070
     5
1070
   287
1070
     5
1070
    40
1040
30.0
1070
    41
1040
1.8
1070
    42
1040
1.5
1070
    43
1040
7.0
1070
    44
1040
0.6
1070
    73
1070
     0
1070
    74
1070
     0
1070
    77
1070
     1
1070
    78
1070
     8
1070
   140
1040
3.0
1070
   141
1040
0.0
1070
   145
1040
1.0
1070
   147
1040
0.6
1070
   172
1070
     1
1070
   271
1070
     0
1070
   275
1070
     1
1070
   279
1070
     2
1070
   284
1070
     8
1070
   285
1070
     8
1070
   286
1070
     8
1002
}
  0
LINE
  5
5751
330
17
100
AcDbEntity
  8
HASEN
100
AcDbLine
 10
-10937.61998367644
 20
10765.5549217521
 30
0.0
 11
-10937.61998367644
 21
12733.5549217521
 31
0.0
  0
LINE
  5
5752
330
17
100
AcDbEntity
  8
SEIHIN
100
AcDbLine
 10
-10807.61998367644
 20
12805.5549217521
 30
0.0
 11
-10807.61998367644
 21
10825.5549217521
 31
0.0
  0
DIMENSION
  5
5753
330
17
100
AcDbEntity
  8
SUNPOU
100
AcDbDimension
  2
*D66
 10
-10327.61998367644
 20
10825.5549217521
 30
0.0
 11
-10401.06998367644
 21
10922.57688294773
 31
0.0
 70
   160
 71
     5
 42
60.0
  3
STANDARD
100
AcDbAlignedDimension
 13
-10882.61998367644
 23
10765.5549217521
 33
0.0
 14
-10807.61998367644
 24
10825.5549217521
 34
0.0
 50
90.0
100
AcDbRotatedDimension
1001
ACAD
1000
DSTYLE
1002
{
1070
   287
1070
     5
1070
   287
1070
     5
1070
   287
1070
     5
1070
   287
1070
     5
1070
   287
1070
     5
1070
   287
1070
     5
1070
   287
1070
     5
1070
    40
1040
30.0
1070
    41
1040
1.8
1070
    42
1040
1.5
1070
    43
1040
7.0
1070
    44
1040
0.6
1070
    73
1070
     0
1070
    74
1070
     0
1070
    77
1070
     1
1070
    78
1070
     8
1070
   140
1040
3.0
1070
   141
1040
0.0
1070
   145
1040
1.0
1070
   147
1040
0.6
1070
   172
1070
     1
1070
   271
1070
     0
1070
   275
1070
     1
1070
   279
1070
     2
1070
   284
1070
     8
1070
   285
1070
     8
1070
   286
1070
     8
1002
}
  0
LINE
  5
5754
330
17
100
AcDbEntity
  8
SEIHIN
100
AcDbLine
 10
-10872.61998367644
 20
10825.5549217521
 30
0.0
 11
-10887.61998367644
 21
10765.5549217521
 31
0.0
  0
LINE
  5
5755
330
17
100
AcDbEntity
  8
SEIHIN
100
AcDbLine
 10
-10807.61998367644
 20
10825.5549217521
 30
0.0
 11
-10872.61998367644
 21
10825.5549217521
 31
0.0
  0
LINE
  5
5756
330
17
100
AcDbEntity
  8
SEIHIN
100
AcDbLine
 10
-10807.61998367644
 20
10825.5549217521
 30
0.0
 11
-10872.61998367644
 21
10825.5549217521
 31
0.0
  0
LINE
  5
5757
330
17
100
AcDbEntity
  8
HASEN
100
AcDbLine
 10
-10877.61998367644
 20
12765.55492175211
 30
0.0
 11
-10867.61998367644
 21
12805.5549217521
 31
0.0
  0
LINE
  5
5758
330
17
100
AcDbEntity
  8
SEIHIN
100
AcDbLine
 10
-10807.61998367644
 20
12805.5549217521
 30
0.0
 11
-10862.61998367644
 21
12805.5549217521
 31
0.0
  0
LINE
  5
5759
330
17
100
AcDbEntity
  8
SUNPOU
100
AcDbLine
 10
-8860.278213244375
 20
10125.79767480202
 30
0.0
 11
-8150.044533483197
 21
10125.79767480202
 31
0.0
  0
TEXT
  5
575A
330
17
100
AcDbEntity
  8
SUNPOU
100
AcDbText
 10
-8845.777353184996
 20
10155.79767480202
 30
0.0
 40
120.0
  1
側　面　図
 72
     1
 11
-8505.777353184996
 21
10155.79767480202
 31
0.0
100
AcDbText
  0
LINE
  5
575B
330
17
100
AcDbEntity
  8
SEIHIN
100
AcDbLine
 10
-3372.853079769471
 20
9751.242521144959
 30
0.0
 11
-3357.853079769469
 21
9736.242521144959
 31
0.0
  0
DIMENSION
  5
575C
330
17
100
AcDbEntity
  8
SUNPOU
100
AcDbDimension
  2
*D67
 10
-2307.853079769469
 20
9831.242521144959
 30
0.0
 11
-2227.53616039567
 21
9868.182684491232
 31
0.0
 70
   160
 71
     5
 42
10.0
  3
STANDARD
100
AcDbAlignedDimension
 13
-3572.853079769469
 23
9881.242521144959
 33
0.0
 14
-3372.853079769469
 24
9831.242521144959
 34
0.0
 50
90.0
100
AcDbRotatedDimension
1001
ACAD
1000
DSTYLE
1002
{
1070
   287
1070
     5
1070
   287
1070
     5
1070
   287
1070
     5
1070
   287
1070
     5
1070
   287
1070
     5
1070
   287
1070
     5
1070
   287
1070
     5
1070
    40
1040
30.0
1070
    41
1040
1.8
1070
    42
1040
1.5
1070
    43
1040
7.0
1070
    44
1040
0.6
1070
    73
1070
     0
1070
    74
1070
     0
1070
    77
1070
     1
1070
    78
1070
     8
1070
   140
1040
2.5
1070
   141
1040
0.0
1070
   144
1040
0.2
1070
   145
1040
1.0
1070
   147
1040
0.6
1070
   172
1070
     1
1070
   271
1070
     0
1070
   275
1070
     1
1070
   279
1070
     2
1070
   284
1070
     8
1070
   285
1070
     8
1070
   286
1070
     8
1002
}
  0
DIMENSION
  5
575D
330
17
100
AcDbEntity
  8
SUNPOU
100
AcDbDimension
  2
*D68
 10
-3672.853079769469
 20
9231.242521144959
 30
0.0
 11
-3822.853079769469
 21
9286.742521144959
 31
0.0
 70
    32
 71
     5
 42
60.0
  3
STANDARD
100
AcDbAlignedDimension
 13
-3972.853079769469
 23
9856.242521144959
 33
0.0
 14
-3672.853079769469
 24
9531.242521144959
 34
0.0
100
AcDbRotatedDimension
1001
ACAD
1000
DSTYLE
1002
{
1070
   287
1070
     5
1070
   287
1070
     5
1070
   287
1070
     5
1070
   287
1070
     5
1070
   287
1070
     5
1070
   287
1070
     5
1070
   287
1070
     5
1070
    40
1040
30.0
1070
    41
1040
1.8
1070
    42
1040
1.5
1070
    43
1040
7.0
1070
    44
1040
0.6
1070
    73
1070
     0
1070
    74
1070
     0
1070
    77
1070
     1
1070
    78
1070
     8
1070
   140
1040
2.5
1070
   141
1040
0.0
1070
   144
1040
0.2
1070
   145
1040
1.0
1070
   147
1040
0.6
1070
   172
1070
     1
1070
   271
1070
     0
1070
   275
1070
     1
1070
   279
1070
     2
1070
   284
1070
     8
1070
   285
1070
     8
1070
   286
1070
     8
1002
}
  0
DIMENSION
  5
575E
330
17
100
AcDbEntity
  8
SUNPOU
100
AcDbDimension
  2
*D69
 10
-4772.853079769469
 20
9856.24252114496
 30
0.0
 11
-4834.76273673377
 21
9818.742521144959
 31
0.0
 70
   160
 71
     5
 42
15.0
  3
STANDARD
100
AcDbAlignedDimension
 13
-3672.853079769469
 23
9781.242521144959
 33
0.0
 14
-3972.853079769469
 24
9856.242521144959
 34
0.0
 50
90.0
100
AcDbRotatedDimension
1001
ACAD
1000
DSTYLE
1002
{
1070
   287
1070
     5
1070
   287
1070
     5
1070
   287
1070
     5
1070
   287
1070
     5
1070
   287
1070
     5
1070
   287
1070
     5
1070
   287
1070
     5
1070
    40
1040
30.0
1070
    41
1040
1.8
1070
    42
1040
1.5
1070
    43
1040
7.0
1070
    44
1040
0.6
1070
    73
1070
     0
1070
    74
1070
     0
1070
    77
1070
     1
1070
    78
1070
     8
1070
   140
1040
2.5
1070
   141
1040
0.0
1070
   144
1040
0.2
1070
   145
1040
1.0
1070
   147
1040
0.6
1070
   172
1070
     1
1070
   271
1070
     0
1070
   275
1070
     1
1070
   279
1070
     2
1070
   284
1070
     8
1070
   285
1070
     8
1070
   286
1070
     8
1002
}
  0
DIMENSION
  5
575F
330
17
100
AcDbEntity
  8
SUNPOU
100
AcDbDimension
  2
*D70
 10
-4772.853079769469
 20
9781.24252114496
 30
0.0
 11
-4828.35307976947
 21
9656.242521144959
 31
0.0
 70
    32
 71
     5
 42
50.00000000000037
  3
STANDARD
100
AcDbAlignedDimension
 13
-4447.85307976946
 23
9531.242521144959
 33
0.0
 14
-3672.853079769469
 24
9781.242521144959
 34
0.0
 50
90.0
100
AcDbRotatedDimension
1001
ACAD
1000
DSTYLE
1002
{
1070
   287
1070
     5
1070
   287
1070
     5
1070
   287
1070
     5
1070
   287
1070
     5
1070
   287
1070
     5
1070
   287
1070
     5
1070
   287
1070
     5
1070
    40
1040
30.0
1070
    41
1040
1.8
1070
    42
1040
1.5
1070
    43
1040
7.0
1070
    44
1040
0.6
1070
    73
1070
     0
1070
    74
1070
     0
1070
    77
1070
     1
1070
    78
1070
     8
1070
   140
1040
2.5
1070
   141
1040
0.0
1070
   144
1040
0.2
1070
   145
1040
1.0
1070
   147
1040
0.6
1070
   172
1070
     1
1070
   271
1070
     0
1070
   275
1070
     1
1070
   279
1070
     2
1070
   284
1070
     8
1070
   285
1070
     8
1070
   286
1070
     8
1002
}
  0
DIMENSION
  5
5760
330
17
100
AcDbEntity
  8
SUNPOU
100
AcDbDimension
  2
*D71
 10
-4952.853079769469
 20
10181.24252114496
 30
0.0
 11
-5008.35307976947
 21
9856.242521144957
 31
0.0
 70
    32
 71
     5
 42
130.0
  3
STANDARD
100
AcDbAlignedDimension
 13
-4447.853079769469
 23
9531.242521144959
 33
0.0
 14
-4447.85307976946
 24
10181.24252114496
 34
0.0
 50
90.0
100
AcDbRotatedDimension
1001
ACAD
1000
DSTYLE
1002
{
1070
   287
1070
     5
1070
   287
1070
     5
1070
   287
1070
     5
1070
   287
1070
     5
1070
   287
1070
     5
1070
   287
1070
     5
1070
   287
1070
     5
1070
    40
1040
30.0
1070
    41
1040
1.8
1070
    42
1040
1.5
1070
    43
1040
7.0
1070
    44
1040
0.6
1070
    73
1070
     0
1070
    74
1070
     0
1070
    77
1070
     1
1070
    78
1070
     8
1070
   140
1040
2.5
1070
   141
1040
0.0
1070
   144
1040
0.2
1070
   145
1040
1.0
1070
   147
1040
0.6
1070
   172
1070
     1
1070
   271
1070
     0
1070
   275
1070
     1
1070
   279
1070
     2
1070
   284
1070
     8
1070
   285
1070
     8
1070
   286
1070
     8
1002
}
  0
DIMENSION
  5
5761
330
17
100
AcDbEntity
  8
SUNPOU
100
AcDbDimension
  2
*D72
 10
-2307.853079769469
 20
9831.242521144959
 30
0.0
 11
-2363.353079769471
 21
9681.242521144959
 31
0.0
 70
    32
 71
     5
 42
60.0
  3
STANDARD
100
AcDbAlignedDimension
 13
-2657.853079769469
 23
9531.242521144959
 33
0.0
 14
-3272.853079769469
 24
9831.242521144959
 34
0.0
 50
90.0
100
AcDbRotatedDimension
1001
ACAD
1000
DSTYLE
1002
{
1070
   287
1070
     5
1070
   287
1070
     5
1070
   287
1070
     5
1070
   287
1070
     5
1070
   287
1070
     5
1070
   287
1070
     5
1070
   287
1070
     5
1070
    40
1040
30.0
1070
    41
1040
1.8
1070
    42
1040
1.5
1070
    43
1040
7.0
1070
    44
1040
0.6
1070
    73
1070
     0
1070
    74
1070
     0
1070
    77
1070
     1
1070
    78
1070
     8
1070
   140
1040
2.5
1070
   141
1040
0.0
1070
   144
1040
0.2
1070
   145
1040
1.0
1070
   147
1040
0.6
1070
   172
1070
     1
1070
   271
1070
     0
1070
   275
1070
     1
1070
   279
1070
     2
1070
   284
1070
     8
1070
   285
1070
     8
1070
   286
1070
     8
1002
}
  0
DIMENSION
  5
5762
330
17
100
AcDbEntity
  8
SUNPOU
100
AcDbDimension
  2
*D73
 10
-3042.853079769469
 20
9641.242521144959
 30
0.0
 11
-2959.784535187524
 21
9762.894091604829
 31
0.0
 70
   160
 71
     5
 42
22.0
  3
STANDARD
100
AcDbAlignedDimension
 13
-3372.853079769469
 23
9751.242521144959
 33
0.0
 14
-3372.853079769469
 24
9641.242521144959
 34
0.0
 50
90.0
100
AcDbRotatedDimension
1001
ACAD
1000
DSTYLE
1002
{
1070
   287
1070
     5
1070
   287
1070
     5
1070
   287
1070
     5
1070
   287
1070
     5
1070
   287
1070
     5
1070
   287
1070
     5
1070
   287
1070
     5
1070
    40
1040
30.0
1070
    41
1040
1.8
1070
    42
1040
1.5
1070
    43
1040
7.0
1070
    44
1040
0.6
1070
    73
1070
     0
1070
    74
1070
     0
1070
    77
1070
     1
1070
    78
1070
     8
1070
   140
1040
2.5
1070
   141
1040
0.0
1070
   144
1040
0.2
1070
   145
1040
1.0
1070
   147
1040
0.6
1070
   172
1070
     1
1070
   271
1070
     0
1070
   275
1070
     1
1070
   279
1070
     2
1070
   284
1070
     8
1070
   285
1070
     8
1070
   286
1070
     8
1002
}
  0
DIMENSION
  5
5763
330
17
100
AcDbEntity
  8
SUNPOU
100
AcDbDimension
  2
*D74
 10
-3042.853079769469
 20
9531.242521144959
 30
0.0
 11
-2957.065218887279
 21
9613.473032167896
 31
0.0
 70
   160
 71
     5
 42
22.0
  3
STANDARD
100
AcDbAlignedDimension
 13
-3372.853079769469
 23
9641.242521144959
 33
0.0
 14
-3372.853079769469
 24
9531.242521144959
 34
0.0
 50
90.0
100
AcDbRotatedDimension
1001
ACAD
1000
DSTYLE
1002
{
1070
   287
1070
     5
1070
   287
1070
     5
1070
   287
1070
     5
1070
   287
1070
     5
1070
   287
1070
     5
1070
   287
1070
     5
1070
   287
1070
     5
1070
    40
1040
30.0
1070
    41
1040
1.8
1070
    42
1040
1.5
1070
    43
1040
7.0
1070
    44
1040
0.6
1070
    73
1070
     0
1070
    74
1070
     0
1070
    77
1070
     1
1070
    78
1070
     8
1070
   140
1040
2.5
1070
   141
1040
0.0
1070
   144
1040
0.2
1070
   145
1040
1.0
1070
   147
1040
0.6
1070
   172
1070
     1
1070
   271
1070
     0
1070
   275
1070
     1
1070
   279
1070
     2
1070
   284
1070
     8
1070
   285
1070
     8
1070
   286
1070
     8
1002
}
  0
LINE
  5
5764
330
17
100
AcDbEntity
  8
SUNPOU
100
AcDbLine
 10
-2657.853079769469
 20
9781.242521144955
 30
0.0
 11
-2657.853079769469
 21
9406.242521144959
 31
0.0
  0
LINE
  5
5765
330
17
100
AcDbEntity
  8
SEIHIN
100
AcDbLine
 10
-3672.853079769469
 20
9781.242521144959
 30
0.0
 11
-3672.853079769469
 21
9531.242521144959
 31
0.0
  0
LINE
  5
5766
330
17
100
AcDbEntity
  8
SUNPOU
100
AcDbLine
 10
-4447.85307976946
 20
9781.242521144955
 30
0.0
 11
-4447.85307976946
 21
9406.242521144959
 31
0.0
  0
LINE
  5
5767
330
17
100
AcDbEntity
  8
HAIKIN
100
AcDbLine
 10
-1772.853079769469
 20
13731.24252114496
 30
0.0
 11
-1772.853079769469
 21
5631.242521144959
 31
0.0
  0
LINE
  5
5768
330
17
100
AcDbEntity
  8
SEIHIN
100
AcDbLine
 10
-3372.853079769469
 20
9531.242521144959
 30
0.0
 11
-2657.853079769469
 21
9531.242521144959
 31
0.0
  0
DIMENSION
  5
5769
330
17
100
AcDbEntity
  8
SUNPOU
100
AcDbDimension
  2
*D75
 10
-3042.853079769469
 20
7807.183352930968
 30
0.0
 11
-2954.345902587034
 21
7901.014836412223
 31
0.0
 70
   160
 71
     5
 42
22.0
  3
STANDARD
100
AcDbAlignedDimension
 13
-3372.853079769469
 23
7917.183352930968
 33
0.0
 14
-3372.853079769469
 24
7807.183352930968
 34
0.0
 50
90.0
100
AcDbRotatedDimension
1001
ACAD
1000
DSTYLE
1002
{
1070
   287
1070
     5
1070
   287
1070
     5
1070
   287
1070
     5
1070
   287
1070
     5
1070
   287
1070
     5
1070
   287
1070
     5
1070
   287
1070
     5
1070
    40
1040
30.0
1070
    41
1040
1.8
1070
    42
1040
1.5
1070
    43
1040
7.0
1070
    44
1040
0.6
1070
    73
1070
     0
1070
    74
1070
     0
1070
    77
1070
     1
1070
    78
1070
     8
1070
   140
1040
2.5
1070
   141
1040
0.0
1070
   144
1040
0.2
1070
   145
1040
1.0
1070
   147
1040
0.6
1070
   172
1070
     1
1070
   271
1070
     0
1070
   275
1070
     1
1070
   279
1070
     2
1070
   284
1070
     8
1070
   285
1070
     8
1070
   286
1070
     8
1002
}
  0
LINE
  5
576A
330
17
100
AcDbEntity
  8
SEIHIN
100
AcDbLine
 10
-3372.853079769469
 20
7697.183352930968
 30
0.0
 11
-2657.853079769478
 21
7697.183352930968
 31
0.0
  0
DIMENSION
  5
576B
330
17
100
AcDbEntity
  8
SUNPOU
100
AcDbDimension
  2
*D76
 10
-3042.853079769469
 20
7697.183352930968
 30
0.0
 11
-2954.345902587034
 21
7767.894268146427
 31
0.0
 70
   160
 71
     5
 42
22.0
  3
STANDARD
100
AcDbAlignedDimension
 13
-3372.853079769469
 23
7807.183352930968
 33
0.0
 14
-3372.853079769469
 24
7697.183352930968
 34
0.0
 50
90.0
100
AcDbRotatedDimension
1001
ACAD
1000
DSTYLE
1002
{
1070
   287
1070
     5
1070
   287
1070
     5
1070
   287
1070
     5
1070
   287
1070
     5
1070
   287
1070
     5
1070
   287
1070
     5
1070
   287
1070
     5
1070
    40
1040
30.0
1070
    41
1040
1.8
1070
    42
1040
1.5
1070
    43
1040
7.0
1070
    44
1040
0.6
1070
    73
1070
     0
1070
    74
1070
     0
1070
    77
1070
     1
1070
    78
1070
     8
1070
   140
1040
2.5
1070
   141
1040
0.0
1070
   144
1040
0.2
1070
   145
1040
1.0
1070
   147
1040
0.6
1070
   172
1070
     1
1070
   271
1070
     0
1070
   275
1070
     1
1070
   279
1070
     2
1070
   284
1070
     8
1070
   285
1070
     8
1070
   286
1070
     8
1002
}
  0
DIMENSION
  5
576C
330
17
100
AcDbEntity
  8
SUNPOU
100
AcDbDimension
  2
*D77
 10
-3357.853079769469
 20
8417.183352930968
 30
0.0
 11
-3278.614229227918
 21
8488.733352930969
 31
0.0
 70
   160
  1
3
 71
     5
 42
3.0
  3
STANDARD
100
AcDbAlignedDimension
 13
-3372.853079769469
 23
7997.183352930968
 33
0.0
 14
-3357.853079769469
 24
7927.183352930968
 34
0.0
100
AcDbRotatedDimension
1001
ACAD
1000
DSTYLE
1002
{
1070
   287
1070
     5
1070
   287
1070
     5
1070
   287
1070
     5
1070
   287
1070
     5
1070
   287
1070
     5
1070
   287
1070
     5
1070
   287
1070
     5
1070
    40
1040
30.0
1070
    41
1040
1.8
1070
    42
1040
1.5
1070
    43
1040
7.0
1070
    44
1040
0.6
1070
    73
1070
     0
1070
    74
1070
     0
1070
    77
1070
     1
1070
    78
1070
     8
1070
   140
1040
2.5
1070
   141
1040
0.0
1070
   144
1040
0.2
1070
   145
1040
1.0
1070
   147
1040
0.6
1070
   172
1070
     1
1070
   271
1070
     0
1070
   275
1070
     1
1070
   279
1070
     2
1070
   284
1070
     8
1070
   285
1070
     8
1070
   286
1070
     8
1002
}
  0
DIMENSION
  5
576D
330
17
100
AcDbEntity
  8
SUNPOU
100
AcDbDimension
  2
*D78
 10
-2307.853079769478
 20
8047.183352930968
 30
0.0
 11
-2363.35307976948
 21
8197.183352930968
 31
0.0
 70
    32
 71
     5
 42
60.00000000000018
  3
STANDARD
100
AcDbAlignedDimension
 13
-2657.853079769478
 23
8347.183352930968
 33
0.0
 14
-3572.853079769469
 24
8047.183352930968
 34
0.0
 50
90.0
100
AcDbRotatedDimension
1001
ACAD
1000
DSTYLE
1002
{
1070
   287
1070
     5
1070
   287
1070
     5
1070
   287
1070
     5
1070
   287
1070
     5
1070
   287
1070
     5
1070
   287
1070
     5
1070
   287
1070
     5
1070
    40
1040
30.0
1070
    41
1040
1.8
1070
    42
1040
1.5
1070
    43
1040
7.0
1070
    44
1040
0.6
1070
    73
1070
     0
1070
    74
1070
     0
1070
    77
1070
     1
1070
    78
1070
     8
1070
   140
1040
2.5
1070
   141
1040
0.0
1070
   144
1040
0.2
1070
   145
1040
1.0
1070
   147
1040
0.6
1070
   172
1070
     1
1070
   271
1070
     0
1070
   275
1070
     1
1070
   279
1070
     2
1070
   284
1070
     8
1070
   285
1070
     8
1070
   286
1070
     8
1002
}
  0
DIMENSION
  5
576E
330
17
100
AcDbEntity
  8
SUNPOU
100
AcDbDimension
  2
*D79
 10
-2307.853079769478
 20
7997.183352930968
 30
0.0
 11
-2227.53616039567
 21
8020.560995173204
 31
0.0
 70
   160
 71
     5
 42
10.0
  3
STANDARD
100
AcDbAlignedDimension
 13
-3572.853079769469
 23
8047.183352930968
 33
0.0
 14
-3372.853079769469
 24
7997.183352930968
 34
0.0
 50
90.0
100
AcDbRotatedDimension
1001
ACAD
1000
DSTYLE
1002
{
1070
   287
1070
     5
1070
   287
1070
     5
1070
   287
1070
     5
1070
   287
1070
     5
1070
   287
1070
     5
1070
   287
1070
     5
1070
   287
1070
     5
1070
    40
1040
30.0
1070
    41
1040
1.8
1070
    42
1040
1.5
1070
    43
1040
7.0
1070
    44
1040
0.6
1070
    73
1070
     0
1070
    74
1070
     0
1070
    77
1070
     1
1070
    78
1070
     8
1070
   140
1040
2.5
1070
   141
1040
0.0
1070
   144
1040
0.2
1070
   145
1040
1.0
1070
   147
1040
0.6
1070
   172
1070
     1
1070
   271
1070
     0
1070
   275
1070
     1
1070
   279
1070
     2
1070
   284
1070
     8
1070
   285
1070
     8
1070
   286
1070
     8
1002
}
  0
TEXT
  5
576F
330
17
100
AcDbEntity
  8
SUNPOU
100
AcDbText
 10
-4322.853079769469
 20
5668.742521144959
 30
0.0
 40
105.0
  1
新和コンクリ－ト工業株式会社
 11
-4322.853079769469
 21
5721.242521144959
 31
0.0
100
AcDbText
 73
     2
  0
TEXT
  5
5770
330
17
100
AcDbEntity
  8
SUNPOU
100
AcDbText
 10
-4322.853079769469
 20
6843.742521144959
 30
0.0
 40
105.0
  1
ボックスカルバート 構造図
 11
-4322.853079769469
 21
6896.242521144959
 31
0.0
100
AcDbText
 73
     2
  0
LINE
  5
5771
330
17
100
AcDbEntity
  8
SUNPOU
100
AcDbLine
 10
-5372.853079769469
 20
5811.242521144959
 30
0.0
 11
-1772.853079769469
 21
5811.242521144959
 31
0.0
  0
LINE
  5
5772
330
17
100
AcDbEntity
  8
SUNPOU
100
AcDbLine
 10
-5372.853079769469
 20
6041.242521144959
 30
0.0
 11
-1772.853079769469
 21
6041.242521144959
 31
0.0
  0
LINE
  5
5773
330
17
100
AcDbEntity
  8
SUNPOU
100
AcDbLine
 10
-5372.853079769469
 20
6271.242521144959
 30
0.0
 11
-1772.853079769469
 21
6271.242521144959
 31
0.0
  0
LINE
  5
5774
330
17
100
AcDbEntity
  8
SUNPOU
100
AcDbLine
 10
-5372.853079769469
 20
6451.242521144959
 30
0.0
 11
-1772.853079769469
 21
6451.242521144959
 31
0.0
  0
LINE
  5
5775
330
17
100
AcDbEntity
  8
SUNPOU
100
AcDbLine
 10
-5372.853079769469
 20
6631.242521144959
 30
0.0
 11
-1772.853079769469
 21
6631.242521144959
 31
0.0
  0
LINE
  5
5776
330
17
100
AcDbEntity
  8
SUNPOU
100
AcDbLine
 10
-5372.853079769469
 20
6811.242521144959
 30
0.0
 11
-1772.853079769469
 21
6811.242521144959
 31
0.0
  0
LINE
  5
5777
330
17
100
AcDbEntity
  8
SEIHIN
100
AcDbLine
 10
-5372.853079769469
 20
6991.242521144959
 30
0.0
 11
-1772.853079769469
 21
6991.242521144959
 31
0.0
  0
LINE
  5
5778
330
17
100
AcDbEntity
  8
SEIHIN
100
AcDbLine
 10
-3572.853079769478
 20
8347.183352930968
 30
0.0
 11
-2657.853079769478
 21
8347.183352930968
 31
0.0
  0
TEXT
  5
5779
330
17
100
AcDbEntity
  8
SUNPOU
100
AcDbText
 10
-5248.353079769469
 20
6488.742521144959
 30
0.0
 40
105.0
  1
発 行 年 月
 72
     4
 11
-4922.853079769469
 21
6541.242521144959
 31
0.0
100
AcDbText
  0
TEXT
  5
577A
330
17
100
AcDbEntity
  8
SUNPOU
100
AcDbText
 10
-5255.353079769469
 20
6668.742521144959
 30
0.0
 40
105.0
  1
呼 び 寸 法
 72
     4
 11
-4922.853079769469
 21
6721.242521144959
 31
0.0
100
AcDbText
  0
TEXT
  5
577B
330
17
100
AcDbEntity
  8
SUNPOU
100
AcDbText
 10
-5255.353079769469
 20
6848.742521144959
 30
0.0
 40
105.0
  1
名　   　称
 72
     4
 11
-4922.853079769469
 21
6901.242521144959
 31
0.0
100
AcDbText
  0
TEXT
  5
577C
330
17
100
AcDbEntity
  8
SUNPOU
100
AcDbText
 10
-5251.853079769469
 20
5668.742521144959
 30
0.0
 40
105.0
  1
社　   　名
 72
     4
 11
-4922.853079769469
 21
5721.242521144959
 31
0.0
100
AcDbText
  0
TEXT
  5
577D
330
17
100
AcDbEntity
  8
SUNPOU
100
AcDbText
 10
-5258.853079769469
 20
6308.742521144959
 30
0.0
 40
105.0
  1
図　   　番
 72
     4
 11
-4922.853079769469
 21
6361.242521144959
 31
0.0
100
AcDbText
  0
LINE
  5
577E
330
17
100
AcDbEntity
  8
SEIHIN
100
AcDbLine
 10
-5372.853079769469
 20
6991.242521144959
 30
0.0
 11
-5372.853079769469
 21
5631.242521144959
 31
0.0
  0
LINE
  5
577F
330
17
100
AcDbEntity
  8
SUNPOU
100
AcDbLine
 10
-4472.853079769469
 20
5811.242521144959
 30
0.0
 11
-4472.853079769469
 21
5631.242521144959
 31
0.0
  0
TEXT
  5
5780
330
17
100
AcDbEntity
  8
SUNPOU
100
AcDbText
 10
-4408.936904500159
 20
6479.001262337802
 30
0.0
 40
105.0
  1
平成    年   月版
 72
     4
 11
-3887.436904500159
 21
6531.501262337802
 31
0.0
100
AcDbText
  0
LINE
  5
5781
330
17
100
AcDbEntity
  8
SUNPOU
100
AcDbLine
 10
-4472.853079769469
 20
6991.242521144959
 30
0.0
 11
-4472.853079769469
 21
6271.242521144959
 31
0.0
  0
TEXT
  5
5782
330
17
100
AcDbEntity
  8
SUNPOU
100
AcDbText
 10
-4105.205196401883
 20
6479.001262337802
 30
0.0
 40
105.0
  1
12
 72
     4
 11
-4035.205196401883
 21
6531.501262337802
 31
0.0
100
AcDbText
  0
TEXT
  5
5783
330
17
100
AcDbEntity
  8
SUNPOU
100
AcDbText
 10
-3721.307993070244
 20
6479.001262337802
 30
0.0
 40
105.0
  1
6
 72
     4
 11
-3686.307993070244
 21
6531.501262337802
 31
0.0
100
AcDbText
  0
LINE
  5
5784
330
17
100
AcDbEntity
  8
HASEN
100
AcDbLine
 10
-6505.161373363786
 20
9410.09162159569
 30
0.0
 11
-6505.161373363786
 21
7990.09162159569
 31
0.0
  0
LINE
  5
5785
330
17
100
AcDbEntity
  8
SEIHIN
100
AcDbLine
 10
-6465.161373363786
 20
7920.09162159569
 30
0.0
 11
-6465.161373363786
 21
9480.09162159569
 31
0.0
  0
DIMENSION
  5
5786
330
17
100
AcDbEntity
  8
SUNPOU
100
AcDbDimension
  2
*D80
 10
-6505.161373363786
 20
7450.09162159569
 30
0.0
 11
-6372.057036513026
 21
7516.375061642349
 31
0.0
 70
   160
 71
     5
 42
40.0
  3
STANDARD
100
AcDbAlignedDimension
 13
-6465.161373363786
 23
7920.09162159569
 33
0.0
 14
-6505.161373363786
 24
7920.09162159569
 34
0.0
100
AcDbRotatedDimension
1001
ACAD
1000
DSTYLE
1002
{
1070
   287
1070
     5
1070
   287
1070
     5
1070
   287
1070
     5
1070
   287
1070
     5
1070
   287
1070
     5
1070
   287
1070
     5
1070
   287
1070
     5
1070
    40
1040
30.0
1070
    41
1040
1.8
1070
    42
1040
1.5
1070
    43
1040
7.0
1070
    44
1040
0.6
1070
    73
1070
     0
1070
    74
1070
     0
1070
    77
1070
     1
1070
    78
1070
     8
1070
   140
1040
3.0
1070
   141
1040
0.0
1070
   145
1040
1.0
1070
   147
1040
0.6
1070
   172
1070
     1
1070
   271
1070
     0
1070
   275
1070
     1
1070
   279
1070
     2
1070
   284
1070
     8
1070
   285
1070
     8
1070
   286
1070
     8
1002
}
  0
LINE
  5
5787
330
17
100
AcDbEntity
  8
HASEN
100
AcDbLine
 10
-6505.161373363786
 20
7990.09162159569
 30
0.0
 11
-6465.161373363786
 21
7980.09162159569
 31
0.0
  0
LINE
  5
5788
330
17
100
AcDbEntity
  8
HASEN
100
AcDbLine
 10
-6465.161373363786
 20
7920.09162159569
 30
0.0
 11
-6465.161373363786
 21
7975.09162159569
 31
0.0
  0
LINE
  5
5789
330
17
100
AcDbEntity
  8
HASEN
100
AcDbLine
 10
-6465.161373363786
 20
9480.09162159569
 30
0.0
 11
-6465.161373363786
 21
9425.09162159569
 31
0.0
  0
LINE
  5
578A
330
17
100
AcDbEntity
  8
HASEN
100
AcDbLine
 10
-6465.161373363786
 20
9425.09162159569
 30
0.0
 11
-6505.161373363786
 21
9410.09162159569
 31
0.0
  0
DIMENSION
  5
578B
330
17
100
AcDbEntity
  8
SUNPOU
100
AcDbDimension
  2
*D81
 10
-3372.853079769469
 20
8597.183352930968
 30
0.0
 11
-3472.853079769469
 21
8652.683352930968
 31
0.0
 70
    32
 71
     5
 42
40.0
  3
STANDARD
100
AcDbAlignedDimension
 13
-3572.853079769469
 23
8347.183352930968
 33
0.0
 14
-3372.853079769469
 24
7997.183352930968
 34
0.0
100
AcDbRotatedDimension
1001
ACAD
1000
DSTYLE
1002
{
1070
   287
1070
     5
1070
   287
1070
     5
1070
   287
1070
     5
1070
   287
1070
     5
1070
   287
1070
     5
1070
   287
1070
     5
1070
   287
1070
     5
1070
    40
1040
30.0
1070
    41
1040
1.8
1070
    42
1040
1.5
1070
    43
1040
7.0
1070
    44
1040
0.6
1070
    73
1070
     0
1070
    74
1070
     0
1070
    77
1070
     1
1070
    78
1070
     8
1070
   140
1040
2.5
1070
   141
1040
0.0
1070
   144
1040
0.2
1070
   145
1040
1.0
1070
   147
1040
0.6
1070
   172
1070
     1
1070
   271
1070
     0
1070
   275
1070
     1
1070
   279
1070
     2
1070
   284
1070
     8
1070
   285
1070
     8
1070
   286
1070
     8
1002
}
  0
DIMENSION
  5
578C
330
17
100
AcDbEntity
  8
SUNPOU
100
AcDbDimension
  2
*D82
 10
-4772.853079769469
 20
7947.183352930963
 30
0.0
 11
-4828.35307976947
 21
7822.183352930962
 31
0.0
 70
    32
 71
     5
 42
50.0
  3
STANDARD
100
AcDbAlignedDimension
 13
-4447.85307976946
 23
7697.183352930963
 33
0.0
 14
-3672.853079769469
 24
7947.183352930963
 34
0.0
 50
90.0
100
AcDbRotatedDimension
1001
ACAD
1000
DSTYLE
1002
{
1070
   287
1070
     5
1070
   287
1070
     5
1070
   287
1070
     5
1070
   287
1070
     5
1070
   287
1070
     5
1070
   287
1070
     5
1070
   287
1070
     5
1070
    40
1040
30.0
1070
    41
1040
1.8
1070
    42
1040
1.5
1070
    43
1040
7.0
1070
    44
1040
0.6
1070
    73
1070
     0
1070
    74
1070
     0
1070
    77
1070
     1
1070
    78
1070
     8
1070
   140
1040
2.5
1070
   141
1040
0.0
1070
   144
1040
0.2
1070
   145
1040
1.0
1070
   147
1040
0.6
1070
   172
1070
     1
1070
   271
1070
     0
1070
   275
1070
     1
1070
   279
1070
     2
1070
   284
1070
     8
1070
   285
1070
     8
1070
   286
1070
     8
1002
}
  0
DIMENSION
  5
578D
330
17
100
AcDbEntity
  8
SUNPOU
100
AcDbDimension
  2
*D83
 10
-4772.853079769469
 20
8022.183352930963
 30
0.0
 11
-4834.76273673377
 21
7984.683352930963
 31
0.0
 70
   160
 71
     5
 42
15.0
  3
STANDARD
100
AcDbAlignedDimension
 13
-3672.853079769469
 23
7947.183352930963
 33
0.0
 14
-3972.853079769469
 24
8022.183352930963
 34
0.0
 50
90.0
100
AcDbRotatedDimension
1001
ACAD
1000
DSTYLE
1002
{
1070
   287
1070
     5
1070
   287
1070
     5
1070
   287
1070
     5
1070
   287
1070
     5
1070
   287
1070
     5
1070
   287
1070
     5
1070
   287
1070
     5
1070
    40
1040
30.0
1070
    41
1040
1.8
1070
    42
1040
1.5
1070
    43
1040
7.0
1070
    44
1040
0.6
1070
    73
1070
     0
1070
    74
1070
     0
1070
    77
1070
     1
1070
    78
1070
     8
1070
   140
1040
2.5
1070
   141
1040
0.0
1070
   144
1040
0.2
1070
   145
1040
1.0
1070
   147
1040
0.6
1070
   172
1070
     1
1070
   271
1070
     0
1070
   275
1070
     1
1070
   279
1070
     2
1070
   284
1070
     8
1070
   285
1070
     8
1070
   286
1070
     8
1002
}
  0
DIMENSION
  5
578E
330
17
100
AcDbEntity
  8
SUNPOU
100
AcDbDimension
  2
*D84
 10
-4772.853079769469
 20
8347.183352930962
 30
0.0
 11
-4828.35307976947
 21
8184.683352930962
 31
0.0
 70
    32
 71
     5
 42
64.99999999999964
  3
STANDARD
100
AcDbAlignedDimension
 13
-3972.853079769469
 23
8022.183352930963
 33
0.0
 14
-4447.85307976946
 24
8347.183352930962
 34
0.0
 50
90.0
100
AcDbRotatedDimension
1001
ACAD
1000
DSTYLE
1002
{
1070
   287
1070
     5
1070
   287
1070
     5
1070
   287
1070
     5
1070
   287
1070
     5
1070
   287
1070
     5
1070
   287
1070
     5
1070
   287
1070
     5
1070
    40
1040
30.0
1070
    41
1040
1.8
1070
    42
1040
1.5
1070
    43
1040
7.0
1070
    44
1040
0.6
1070
    73
1070
     0
1070
    74
1070
     0
1070
    77
1070
     1
1070
    78
1070
     8
1070
   140
1040
2.5
1070
   141
1040
0.0
1070
   144
1040
0.2
1070
   145
1040
1.0
1070
   147
1040
0.6
1070
   172
1070
     1
1070
   271
1070
     0
1070
   275
1070
     1
1070
   279
1070
     2
1070
   284
1070
     8
1070
   285
1070
     8
1070
   286
1070
     8
1002
}
  0
LINE
  5
578F
330
17
100
AcDbEntity
  8
SEIHIN
100
AcDbLine
 10
-4447.85307976946
 20
8347.183352930962
 30
0.0
 11
-3972.853079769469
 21
8347.183352930962
 31
0.0
  0
LINE
  5
5790
330
17
100
AcDbEntity
  8
SEIHIN
100
AcDbLine
 10
-3672.853079769469
 20
7697.183352930963
 30
0.0
 11
-4447.853079769469
 21
7697.183352930963
 31
0.0
  0
DIMENSION
  5
5791
330
17
100
AcDbEntity
  8
SUNPOU
100
AcDbDimension
  2
*D85
 10
-4955.252052942875
 20
8347.183352930962
 30
0.0
 11
-5010.752052942876
 21
8022.183352930962
 31
0.0
 70
    32
 71
     5
 42
129.9999999999996
  3
STANDARD
100
AcDbAlignedDimension
 13
-4450.252052942875
 23
7697.183352930963
 33
0.0
 14
-4450.252052942866
 24
8347.183352930962
 34
0.0
 50
90.0
100
AcDbRotatedDimension
1001
ACAD
1000
DSTYLE
1002
{
1070
   287
1070
     5
1070
   287
1070
     5
1070
   287
1070
     5
1070
   287
1070
     5
1070
   287
1070
     5
1070
   287
1070
     5
1070
   287
1070
     5
1070
    40
1040
30.0
1070
    41
1040
1.8
1070
    42
1040
1.5
1070
    43
1040
7.0
1070
    44
1040
0.6
1070
    73
1070
     0
1070
    74
1070
     0
1070
    77
1070
     1
1070
    78
1070
     8
1070
   140
1040
2.5
1070
   141
1040
0.0
1070
   144
1040
0.2
1070
   145
1040
1.0
1070
   147
1040
0.6
1070
   172
1070
     1
1070
   271
1070
     0
1070
   275
1070
     1
1070
   279
1070
     2
1070
   284
1070
     8
1070
   285
1070
     8
1070
   286
1070
     8
1002
}
  0
LINE
  5
5792
330
17
100
AcDbEntity
  8
SUNPOU
100
AcDbLine
 10
-4447.85307976946
 20
7947.183352930959
 30
0.0
 11
-4447.85307976946
 21
7572.183352930963
 31
0.0
  0
LINE
  5
5793
330
17
100
AcDbEntity
  8
SUNPOU
100
AcDbLine
 10
-4447.853079769469
 20
8472.183352930962
 30
0.0
 11
-4447.853079769469
 21
8122.183352930968
 31
0.0
  0
LINE
  5
5794
330
17
100
AcDbEntity
  8
SUNPOU
100
AcDbLine
 10
-4447.853079769469
 20
7947.183352930963
 30
0.0
 11
-4497.853079769469
 21
7972.183352930963
 31
0.0
  0
LINE
  5
5795
330
17
100
AcDbEntity
  8
SUNPOU
100
AcDbLine
 10
-4397.853079769469
 20
8097.183352930963
 30
0.0
 11
-4447.853079769469
 21
8122.183352930963
 31
0.0
  0
LINE
  5
5796
330
17
100
AcDbEntity
  8
SUNPOU
100
AcDbLine
 10
-4497.853079769469
 20
7972.183352930963
 30
0.0
 11
-4397.853079769469
 21
8097.183352930963
 31
0.0
  0
LINE
  5
5797
330
17
100
AcDbEntity
  8
SEIHIN
100
AcDbLine
 10
-3372.853079769469
 20
7807.183352930968
 30
0.0
 11
-3372.853079769469
 21
7697.183352930968
 31
0.0
  0
LINE
  5
5798
330
17
100
AcDbEntity
  8
SEIHIN
100
AcDbLine
 10
-3672.853079769469
 20
7947.183352930963
 30
0.0
 11
-3672.853079769469
 21
7697.183352930963
 31
0.0
  0
DIMENSION
  5
5799
330
17
100
AcDbEntity
  8
SUNPOU
100
AcDbDimension
  2
*D86
 10
-3672.853079769469
 20
7397.183352930963
 30
0.0
 11
-3822.853079769469
 21
7452.683352930963
 31
0.0
 70
    32
 71
     5
 42
60.0
  3
STANDARD
100
AcDbAlignedDimension
 13
-3972.853079769469
 23
8022.183352930963
 33
0.0
 14
-3672.853079769469
 24
7697.183352930963
 34
0.0
100
AcDbRotatedDimension
1001
ACAD
1000
DSTYLE
1002
{
1070
   287
1070
     5
1070
   287
1070
     5
1070
   287
1070
     5
1070
   287
1070
     5
1070
   287
1070
     5
1070
   287
1070
     5
1070
   287
1070
     5
1070
    40
1040
30.0
1070
    41
1040
1.8
1070
    42
1040
1.5
1070
    43
1040
7.0
1070
    44
1040
0.6
1070
    73
1070
     0
1070
    74
1070
     0
1070
    77
1070
     1
1070
    78
1070
     8
1070
   140
1040
2.5
1070
   141
1040
0.0
1070
   144
1040
0.2
1070
   145
1040
1.0
1070
   147
1040
0.6
1070
   172
1070
     1
1070
   271
1070
     0
1070
   275
1070
     1
1070
   279
1070
     2
1070
   284
1070
     8
1070
   285
1070
     8
1070
   286
1070
     8
1002
}
  0
LINE
  5
579A
330
17
100
AcDbEntity
  8
SUNPOU
100
AcDbLine
 10
-3384.685895499466
 20
7833.517721470974
 30
0.0
 11
-3691.577735685734
 21
7219.734041098436
 31
0.0
1001
ACAD
1000
DSTYLE
1002
{
1070
    78
1070
     8
1070
   284
1070
     8
1070
   140
1040
2.5
1070
   145
1040
1.0
1070
    74
1070
     0
1070
    73
1070
     0
1070
    40
1040
30.0
1070
   287
1070
     5
1070
    42
1040
2.0
1070
    44
1040
1.0
1070
    43
1040
7.0
1070
   141
1040
0.0
1070
   275
1070
     1
1070
    41
1040
2.0
1070
   285
1070
     8
1070
   286
1070
     8
1002
}
  0
TEXT
  5
579B
330
17
100
AcDbEntity
  8
SUNPOU
100
AcDbText
 10
-4227.282985995775
 20
7246.731061721689
 30
0.0
 40
90.0
  1
パッキン溝
100
AcDbText
  0
LINE
  5
579C
330
17
100
AcDbEntity
  8
SUNPOU
100
AcDbLine
 10
-3691.577735685734
 20
7219.734041098436
 30
0.0
 11
-4229.51728410989
 21
7219.734041098435
 31
0.0
1001
ACAD
1000
DSTYLE
1002
{
1070
    78
1070
     8
1070
   284
1070
     8
1070
   140
1040
2.5
1070
   145
1040
1.0
1070
    74
1070
     0
1070
    73
1070
     0
1070
    40
1040
30.0
1070
   287
1070
     5
1070
    42
1040
2.0
1070
    44
1040
1.0
1070
    43
1040
7.0
1070
   141
1040
0.0
1070
   275
1070
     1
1070
    41
1040
2.0
1070
   285
1070
     8
1070
   286
1070
     8
1002
}
  0
LINE
  5
579D
330
17
100
AcDbEntity
  8
SEIHIN
100
AcDbLine
 10
-3972.853079769469
 20
8022.183352930963
 30
0.0
 11
-3672.853079769469
 21
7947.183352930963
 31
0.0
  0
LINE
  5
579E
330
17
100
AcDbEntity
  8
SEIHIN
100
AcDbLine
 10
-3972.853079769469
 20
8347.183352930962
 30
0.0
 11
-3972.853079769469
 21
8022.183352930963
 31
0.0
  0
LINE
  5
579F
330
17
100
AcDbEntity
  8
SEIHIN
100
AcDbLine
 10
-3572.853079769478
 20
8347.183352930962
 30
0.0
 11
-3572.853079769478
 21
8047.18335293097
 31
0.0
  0
LINE
  5
57A0
330
17
100
AcDbEntity
  8
SEIHIN
100
AcDbLine
 10
-3572.853079769478
 20
8047.18335293097
 30
0.0
 11
-3372.853079769469
 21
7997.183352930968
 31
0.0
  0
LINE
  5
57A1
330
17
100
AcDbEntity
  8
SEIHIN
100
AcDbLine
 10
-3372.853079769469
 20
7997.183352930968
 30
0.0
 11
-3372.853079769471
 21
7917.183352930968
 31
0.0
  0
LINE
  5
57A2
330
17
100
AcDbEntity
  8
SEIHIN
100
AcDbLine
 10
-3372.853079769471
 20
7917.183352930968
 30
0.0
 11
-3357.853079769469
 21
7902.183352930968
 31
0.0
  0
LINE
  5
57A3
330
17
100
AcDbEntity
  8
SEIHIN
100
AcDbLine
 10
-3357.853079769469
 20
7822.183352930968
 30
0.0
 11
-3372.853079769469
 21
7807.183352930968
 31
0.0
  0
LINE
  5
57A4
330
17
100
AcDbEntity
  8
SEIHIN
100
AcDbLine
 10
-3357.853079769469
 20
7902.183352930968
 30
0.0
 11
-3357.853079769469
 21
7822.183352930968
 31
0.0
  0
SOLID
  5
57A5
330
17
100
AcDbEntity
  8
SUNPOU
100
AcDbTrace
 10
-3393.630167409467
 20
7837.989857425973
 30
0.0
 11
-3357.853079769469
 21
7887.183352930969
 31
0.0
 12
-3375.741623589467
 22
7829.045585515974
 32
0.0
 13
-3375.741623589467
 23
7829.045585515974
 33
0.0
1001
ACAD
1000
DSTYLE
1002
{
1070
    78
1070
     8
1070
   284
1070
     8
1070
   140
1040
2.5
1070
   145
1040
1.0
1070
    74
1070
     0
1070
    73
1070
     0
1070
    40
1040
30.0
1070
   287
1070
     5
1070
    42
1040
2.0
1070
    44
1040
1.0
1070
    43
1040
7.0
1070
   141
1040
0.0
1070
   275
1070
     1
1070
    41
1040
2.0
1070
   285
1070
     8
1070
   286
1070
     8
1002
}
  0
TEXT
  5
57A6
330
17
100
AcDbEntity
  8
SUNPOU
100
AcDbText
 10
-4290.853079769469
 20
8477.183352930962
 30
0.0
 40
90.0
  1
差口
 72
     1
 11
-4197.853079769469
 21
8477.183352930962
 31
0.0
100
AcDbText
  0
LINE
  5
57A7
330
17
100
AcDbEntity
  8
SEIHIN
100
AcDbLine
 10
-3672.853079769469
 20
9531.242521144959
 30
0.0
 11
-4447.853079769469
 21
9531.242521144959
 31
0.0
  0
LINE
  5
57A8
330
17
100
AcDbEntity
  8
SUNPOU
100
AcDbLine
 10
-4322.853079769469
 20
8447.183352930962
 30
0.0
 11
-4072.853079769469
 21
8447.183352930962
 31
0.0
  0
LINE
  5
57A9
330
17
100
AcDbEntity
  8
SUNPOU
100
AcDbLine
 10
-3984.356401913357
 20
8771.390355473693
 30
0.0
 11
-3532.127086318575
 21
8771.39035547369
 31
0.0
  0
TEXT
  5
57AA
330
17
100
AcDbEntity
  8
SUNPOU
100
AcDbText
 10
-3937.556167029326
 20
8790.14035547369
 30
0.0
 40
105.0
  1
側　壁
 72
     1
 11
-3762.556167029326
 21
8790.14035547369
 31
0.0
100
AcDbText
  0
LINE
  5
57AB
330
17
100
AcDbEntity
  8
SUNPOU
100
AcDbLine
 10
-3691.577735685734
 20
9053.793209312427
 30
0.0
 11
-4229.51728410989
 21
9053.793209312425
 31
0.0
1001
ACAD
1000
DSTYLE
1002
{
1070
    78
1070
     8
1070
   284
1070
     8
1070
   140
1040
2.5
1070
   145
1040
1.0
1070
    74
1070
     0
1070
    73
1070
     0
1070
    40
1040
30.0
1070
   287
1070
     5
1070
    42
1040
2.0
1070
    44
1040
1.0
1070
    43
1040
7.0
1070
   141
1040
0.0
1070
   275
1070
     1
1070
    41
1040
2.0
1070
   285
1070
     8
1070
   286
1070
     8
1002
}
  0
TEXT
  5
57AC
330
17
100
AcDbEntity
  8
SUNPOU
100
AcDbText
 10
-4227.282985995775
 20
9080.79022993568
 30
0.0
 40
90.0
  1
パッキン溝
100
AcDbText
  0
LINE
  5
57AD
330
17
100
AcDbEntity
  8
SUNPOU
100
AcDbLine
 10
-3384.685895499466
 20
9667.576889684966
 30
0.0
 11
-3691.577735685734
 21
9053.793209312427
 31
0.0
1001
ACAD
1000
DSTYLE
1002
{
1070
    78
1070
     8
1070
   284
1070
     8
1070
   140
1040
2.5
1070
   145
1040
1.0
1070
    74
1070
     0
1070
    73
1070
     0
1070
    40
1040
30.0
1070
   287
1070
     5
1070
    42
1040
2.0
1070
    44
1040
1.0
1070
    43
1040
7.0
1070
   141
1040
0.0
1070
   275
1070
     1
1070
    41
1040
2.0
1070
   285
1070
     8
1070
   286
1070
     8
1002
}
  0
LINE
  5
57AE
330
17
100
AcDbEntity
  8
SEIHIN
100
AcDbLine
 10
-3372.853079769469
 20
9641.242521144959
 30
0.0
 11
-3372.853079769469
 21
9531.242521144959
 31
0.0
  0
LINE
  5
57AF
330
17
100
AcDbEntity
  8
SEIHIN
100
AcDbLine
 10
-3357.853079769469
 20
9656.242521144959
 30
0.0
 11
-3372.853079769469
 21
9641.242521144959
 31
0.0
  0
LINE
  5
57B0
330
17
100
AcDbEntity
  8
SEIHIN
100
AcDbLine
 10
-3357.853079769469
 20
9736.242521144959
 30
0.0
 11
-3357.853079769469
 21
9656.242521144959
 31
0.0
  0
SOLID
  5
57B1
330
17
100
AcDbEntity
  8
SUNPOU
100
AcDbTrace
 10
-3393.630167409467
 20
9672.049025639964
 30
0.0
 11
-3357.853079769469
 21
9721.242521144959
 31
0.0
 12
-3375.741623589467
 22
9663.104753729966
 32
0.0
 13
-3375.741623589467
 23
9663.104753729966
 33
0.0
1001
ACAD
1000
DSTYLE
1002
{
1070
    78
1070
     8
1070
   284
1070
     8
1070
   140
1040
2.5
1070
   145
1040
1.0
1070
    74
1070
     0
1070
    73
1070
     0
1070
    40
1040
30.0
1070
   287
1070
     5
1070
    42
1040
2.0
1070
    44
1040
1.0
1070
    43
1040
7.0
1070
   141
1040
0.0
1070
   275
1070
     1
1070
    41
1040
2.0
1070
   285
1070
     8
1070
   286
1070
     8
1002
}
  0
TEXT
  5
57B2
330
17
100
AcDbEntity
  8
SUNPOU
100
AcDbText
 10
-2499.529032667319
 20
6479.001262337802
 30
0.0
 40
105.0
  1
S = 1/30
 41
0.8
 72
     4
 11
-2232.129032667319
 21
6531.501262337802
 31
0.0
100
AcDbText
  0
LINE
  5
57B3
330
17
100
AcDbEntity
  8
SUNPOU
100
AcDbLine
 10
-2672.853079769469
 20
6631.242521144959
 30
0.0
 11
-2672.853079769469
 21
6451.242521144959
 31
0.0
  0
LINE
  5
57B4
330
17
100
AcDbEntity
  8
SUNPOU
100
AcDbLine
 10
-3272.853079769469
 20
6631.242521144959
 30
0.0
 11
-3272.853079769469
 21
6451.242521144959
 31
0.0
  0
TEXT
  5
57B5
330
17
100
AcDbEntity
  8
SUNPOU
100
AcDbText
 10
-3124.576751787834
 20
6479.001262337802
 30
0.0
 40
105.0
  1
縮 尺
 72
     4
 11
-2981.076751787834
 21
6531.501262337802
 31
0.0
100
AcDbText
  0
TEXT
  5
57B6
330
17
100
AcDbEntity
  8
SUNPOU
100
AcDbText
 10
-2902.458775813271
 20
8735.303820564914
 30
0.0
 40
90.0
  1
外側
 72
     1
 11
-2806.458775813271
 21
8735.303820564914
 31
0.0
100
AcDbText
  0
LINE
  5
57B7
330
17
100
AcDbEntity
  8
SUNPOU
100
AcDbLine
 10
-2657.853079769478
 20
8472.183352930968
 30
0.0
 11
-2657.853079769478
 21
8122.183352930963
 31
0.0
  0
DIMENSION
  5
57B8
330
17
100
AcDbEntity
  8
SUNPOU
100
AcDbDimension
  2
*D87
 10
-2307.853079769478
 20
7997.183352930968
 30
0.0
 11
-2363.35307976948
 21
7847.183352930967
 31
0.0
 70
    32
 71
     5
 42
60.0
  3
STANDARD
100
AcDbAlignedDimension
 13
-2657.853079769478
 23
7697.183352930968
 33
0.0
 14
-3272.853079769478
 24
7997.183352930968
 34
0.0
 50
90.0
100
AcDbRotatedDimension
1001
ACAD
1000
DSTYLE
1002
{
1070
   287
1070
     5
1070
   287
1070
     5
1070
   287
1070
     5
1070
   287
1070
     5
1070
   287
1070
     5
1070
   287
1070
     5
1070
   287
1070
     5
1070
    40
1040
30.0
1070
    41
1040
1.8
1070
    42
1040
1.5
1070
    43
1040
7.0
1070
    44
1040
0.6
1070
    73
1070
     0
1070
    74
1070
     0
1070
    77
1070
     1
1070
    78
1070
     8
1070
   140
1040
2.5
1070
   141
1040
0.0
1070
   144
1040
0.2
1070
   145
1040
1.0
1070
   147
1040
0.6
1070
   172
1070
     1
1070
   271
1070
     0
1070
   275
1070
     1
1070
   279
1070
     2
1070
   284
1070
     8
1070
   285
1070
     8
1070
   286
1070
     8
1002
}
  0
LINE
  5
57B9
330
17
100
AcDbEntity
  8
SUNPOU
100
AcDbLine
 10
-2657.853079769478
 20
7947.183352930963
 30
0.0
 11
-2657.853079769478
 21
7572.183352930968
 31
0.0
  0
LINE
  5
57BA
330
17
100
AcDbEntity
  8
SUNPOU
100
AcDbLine
 10
-2934.521966025104
 20
7394.80585569444
 30
0.0
 11
-2694.155852213271
 21
7394.80585569444
 31
0.0
  0
TEXT
  5
57BB
330
17
100
AcDbEntity
  8
SUNPOU
100
AcDbText
 10
-2905.458775813271
 20
7413.555855694439
 30
0.0
 40
90.0
  1
内側
 72
     1
 11
-2806.458775813271
 21
7413.555855694439
 31
0.0
100
AcDbText
  0
LINE
  5
57BC
330
17
100
AcDbEntity
  8
SUNPOU
100
AcDbLine
 10
-2934.521966025111
 20
8716.553820564915
 30
0.0
 11
-2688.38329172836
 21
8716.553820564915
 31
0.0
  0
LINE
  5
57BD
330
17
100
AcDbEntity
  8
SUNPOU
100
AcDbLine
 10
-2607.853079769478
 20
8097.183352930968
 30
0.0
 11
-2657.853079769478
 21
8122.183352930968
 31
0.0
  0
LINE
  5
57BE
330
17
100
AcDbEntity
  8
SUNPOU
100
AcDbLine
 10
-2657.853079769478
 20
7947.183352930968
 30
0.0
 11
-2707.853079769478
 21
7972.183352930968
 31
0.0
  0
LINE
  5
57BF
330
17
100
AcDbEntity
  8
SUNPOU
100
AcDbLine
 10
-2707.853079769478
 20
7972.183352930968
 30
0.0
 11
-2607.853079769478
 21
8097.183352930968
 31
0.0
  0
LINE
  5
57C0
330
17
100
AcDbEntity
  8
SUNPOU
100
AcDbLine
 10
-3007.853079769478
 20
8447.183352930962
 30
0.0
 11
-2757.853079769478
 21
8447.183352930962
 31
0.0
  0
TEXT
  5
57C1
330
17
100
AcDbEntity
  8
SUNPOU
100
AcDbText
 10
-2975.853079769478
 20
8477.183352930962
 30
0.0
 40
90.0
  1
受口
 72
     1
 11
-2882.853079769478
 21
8477.183352930962
 31
0.0
100
AcDbText
  0
TEXT
  5
57C2
330
17
100
AcDbEntity
  8
SUNPOU
100
AcDbText
 10
-2905.458775813262
 20
9247.61502390843
 30
0.0
 40
90.0
  1
内側
 72
     1
 11
-2806.458775813262
 21
9247.61502390843
 31
0.0
100
AcDbText
  0
LINE
  5
57C3
330
17
100
AcDbEntity
  8
SUNPOU
100
AcDbLine
 10
-2934.521966025095
 20
9228.86502390843
 30
0.0
 11
-2694.155852213262
 21
9228.86502390843
 31
0.0
  0
TEXT
  5
57C4
330
17
100
AcDbEntity
  8
SUNPOU
100
AcDbText
 10
-3387.312325163526
 20
10951.41277791233
 30
0.0
 40
100.0
  1
S=1/6
 41
0.8
 72
     1
 11
-3213.978991830192
 21
10951.41277791233
 31
0.0
100
AcDbText
  0
DIMENSION
  5
57C5
330
17
100
AcDbEntity
  8
SUNPOU
100
AcDbDimension
  2
*D88
 10
-3357.853079769469
 20
10251.24252114496
 30
0.0
 11
-3278.614229227918
 21
10322.79252114496
 31
0.0
 70
   160
  1
3
 71
     5
 42
3.0
  3
STANDARD
100
AcDbAlignedDimension
 13
-3372.853079769469
 23
9831.242521144959
 33
0.0
 14
-3357.853079769469
 24
9761.242521144959
 34
0.0
100
AcDbRotatedDimension
1001
ACAD
1000
DSTYLE
1002
{
1070
   287
1070
     5
1070
   287
1070
     5
1070
   287
1070
     5
1070
   287
1070
     5
1070
   287
1070
     5
1070
   287
1070
     5
1070
   287
1070
     5
1070
    40
1040
30.0
1070
    41
1040
1.8
1070
    42
1040
1.5
1070
    43
1040
7.0
1070
    44
1040
0.6
1070
    73
1070
     0
1070
    74
1070
     0
1070
    77
1070
     1
1070
    78
1070
     8
1070
   140
1040
2.5
1070
   141
1040
0.0
1070
   144
1040
0.2
1070
   145
1040
1.0
1070
   147
1040
0.6
1070
   172
1070
     1
1070
   271
1070
     0
1070
   275
1070
     1
1070
   279
1070
     2
1070
   284
1070
     8
1070
   285
1070
     8
1070
   286
1070
     8
1002
}
  0
DIMENSION
  5
57C6
330
17
100
AcDbEntity
  8
SUNPOU
100
AcDbDimension
  2
*D89
 10
-2307.853079769469
 20
9881.242521144959
 30
0.0
 11
-2363.353079769471
 21
10031.24252114496
 31
0.0
 70
    32
 71
     5
 42
60.0
  3
STANDARD
100
AcDbAlignedDimension
 13
-2657.853079769469
 23
10181.24252114496
 33
0.0
 14
-3572.853079769469
 24
9881.242521144959
 34
0.0
 50
90.0
100
AcDbRotatedDimension
1001
ACAD
1000
DSTYLE
1002
{
1070
   287
1070
     5
1070
   287
1070
     5
1070
   287
1070
     5
1070
   287
1070
     5
1070
   287
1070
     5
1070
   287
1070
     5
1070
   287
1070
     5
1070
    40
1040
30.0
1070
    41
1040
1.8
1070
    42
1040
1.5
1070
    43
1040
7.0
1070
    44
1040
0.6
1070
    73
1070
     0
1070
    74
1070
     0
1070
    77
1070
     1
1070
    78
1070
     8
1070
   140
1040
2.5
1070
   141
1040
0.0
1070
   144
1040
0.2
1070
   145
1040
1.0
1070
   147
1040
0.6
1070
   172
1070
     1
1070
   271
1070
     0
1070
   275
1070
     1
1070
   279
1070
     2
1070
   284
1070
     8
1070
   285
1070
     8
1070
   286
1070
     8
1002
}
  0
LINE
  5
57C7
330
17
100
AcDbEntity
  8
SEIHIN
100
AcDbLine
 10
-3572.853079769469
 20
10181.24252114496
 30
0.0
 11
-2657.853079769469
 21
10181.24252114496
 31
0.0
  0
LINE
  5
57C8
330
17
100
AcDbEntity
  8
SUNPOU
100
AcDbLine
 10
-5072.853079769469
 20
11551.24252114496
 30
0.0
 11
-2072.853079769469
 21
11551.24252114496
 31
0.0
  0
LINE
  5
57C9
330
17
100
AcDbEntity
  8
SUNPOU
100
AcDbLine
 10
-4583.582064836222
 20
10921.41277791233
 30
0.0
 11
-2881.458294814469
 21
10921.41277791233
 31
0.0
  0
LINE
  5
57CA
330
17
100
AcDbEntity
  8
SUNPOU
100
AcDbLine
 10
-5072.853079769469
 20
13261.24252114496
 30
0.0
 11
-2072.853079769469
 21
13261.24252114496
 31
0.0
  0
LINE
  5
57CB
330
17
100
AcDbEntity
  8
SUNPOU
100
AcDbLine
 10
-3332.853079769469
 20
11551.24252114496
 30
0.0
 11
-3332.853079769469
 21
13261.24252114496
 31
0.0
  0
TEXT
  5
57CC
330
17
100
AcDbEntity
  8
SUNPOU
100
AcDbText
 10
-4817.350997311267
 20
12831.24252114496
 30
0.0
 40
90.0
  1
許容曲げ圧縮応力度
 41
0.9
100
AcDbText
  0
LINE
  5
57CD
330
17
100
AcDbEntity
  8
SUNPOU
100
AcDbLine
 10
-5072.853079769469
 20
11551.24252114496
 30
0.0
 11
-5072.853079769469
 21
13261.24252114496
 31
0.0
  0
TEXT
  5
57CE
330
17
100
AcDbEntity
  8
SUNPOU
100
AcDbText
 10
-4388.559777029258
 20
10951.41277791233
 30
0.0
 40
120.0
  1
継手部詳細図
 41
0.9
 72
     1
 11
-4017.759777029258
 21
10951.41277791233
 31
0.0
100
AcDbText
  0
TEXT
  5
57CF
330
17
100
AcDbEntity
  8
SUNPOU
100
AcDbText
 10
-4290.853079769469
 20
10311.24252114496
 30
0.0
 40
90.0
  1
差口
 72
     1
 11
-4197.853079769469
 21
10311.24252114496
 31
0.0
100
AcDbText
  0
DIMENSION
  5
57D0
330
17
100
AcDbEntity
  8
SUNPOU
100
AcDbDimension
  2
*D90
 10
-4772.853079769469
 20
10181.24252114496
 30
0.0
 11
-4828.35307976947
 21
10018.74252114496
 31
0.0
 70
    32
 71
     5
 42
64.99999999999964
  3
STANDARD
100
AcDbAlignedDimension
 13
-3972.853079769469
 23
9856.242521144959
 33
0.0
 14
-4447.85307976946
 24
10181.24252114496
 34
0.0
 50
90.0
100
AcDbRotatedDimension
1001
ACAD
1000
DSTYLE
1002
{
1070
   287
1070
     5
1070
   287
1070
     5
1070
   287
1070
     5
1070
   287
1070
     5
1070
   287
1070
     5
1070
   287
1070
     5
1070
   287
1070
     5
1070
    40
1040
30.0
1070
    41
1040
1.8
1070
    42
1040
1.5
1070
    43
1040
7.0
1070
    44
1040
0.6
1070
    73
1070
     0
1070
    74
1070
     0
1070
    77
1070
     1
1070
    78
1070
     8
1070
   140
1040
2.5
1070
   141
1040
0.0
1070
   144
1040
0.2
1070
   145
1040
1.0
1070
   147
1040
0.6
1070
   172
1070
     1
1070
   271
1070
     0
1070
   275
1070
     1
1070
   279
1070
     2
1070
   284
1070
     8
1070
   285
1070
     8
1070
   286
1070
     8
1002
}
  0
LINE
  5
57D1
330
17
100
AcDbEntity
  8
SEIHIN
100
AcDbLine
 10
-4447.85307976946
 20
10181.24252114496
 30
0.0
 11
-3972.853079769469
 21
10181.24252114496
 31
0.0
  0
LINE
  5
57D2
330
17
100
AcDbEntity
  8
SUNPOU
100
AcDbLine
 10
-4322.853079769469
 20
10281.24252114496
 30
0.0
 11
-4072.853079769469
 21
10281.24252114496
 31
0.0
  0
LINE
  5
57D3
330
17
100
AcDbEntity
  8
SUNPOU
100
AcDbLine
 10
-4447.853079769469
 20
10306.24252114496
 30
0.0
 11
-4447.853079769469
 21
9956.242521144963
 31
0.0
  0
LINE
  5
57D4
330
17
100
AcDbEntity
  8
SUNPOU
100
AcDbLine
 10
-4497.853079769469
 20
9806.242521144959
 30
0.0
 11
-4397.853079769469
 21
9931.242521144959
 31
0.0
  0
LINE
  5
57D5
330
17
100
AcDbEntity
  8
SUNPOU
100
AcDbLine
 10
-4447.853079769469
 20
9781.242521144959
 30
0.0
 11
-4497.853079769469
 21
9806.242521144959
 31
0.0
  0
LINE
  5
57D6
330
17
100
AcDbEntity
  8
SUNPOU
100
AcDbLine
 10
-4397.853079769469
 20
9931.242521144959
 30
0.0
 11
-4447.853079769469
 21
9956.242521144959
 31
0.0
  0
DIMENSION
  5
57D7
330
17
100
AcDbEntity
  8
SUNPOU
100
AcDbDimension
  2
*D91
 10
-3372.853079769469
 20
10431.24252114496
 30
0.0
 11
-3472.853079769469
 21
10486.74252114496
 31
0.0
 70
    32
 71
     5
 42
40.0
  3
STANDARD
100
AcDbAlignedDimension
 13
-3572.853079769469
 23
10181.24252114496
 33
0.0
 14
-3372.853079769469
 24
9831.242521144959
 34
0.0
100
AcDbRotatedDimension
1001
ACAD
1000
DSTYLE
1002
{
1070
   287
1070
     5
1070
   287
1070
     5
1070
   287
1070
     5
1070
   287
1070
     5
1070
   287
1070
     5
1070
   287
1070
     5
1070
   287
1070
     5
1070
    40
1040
30.0
1070
    41
1040
1.8
1070
    42
1040
1.5
1070
    43
1040
7.0
1070
    44
1040
0.6
1070
    73
1070
     0
1070
    74
1070
     0
1070
    77
1070
     1
1070
    78
1070
     8
1070
   140
1040
2.5
1070
   141
1040
0.0
1070
   144
1040
0.2
1070
   145
1040
1.0
1070
   147
1040
0.6
1070
   172
1070
     1
1070
   271
1070
     0
1070
   275
1070
     1
1070
   279
1070
     2
1070
   284
1070
     8
1070
   285
1070
     8
1070
   286
1070
     8
1002
}
  0
LINE
  5
57D8
330
17
100
AcDbEntity
  8
SEIHIN
100
AcDbLine
 10
-3972.853079769469
 20
9856.242521144959
 30
0.0
 11
-3672.853079769469
 21
9781.242521144959
 31
0.0
  0
LINE
  5
57D9
330
17
100
AcDbEntity
  8
SEIHIN
100
AcDbLine
 10
-3972.853079769469
 20
10181.24252114496
 30
0.0
 11
-3972.853079769469
 21
9856.242521144959
 31
0.0
  0
LINE
  5
57DA
330
17
100
AcDbEntity
  8
SEIHIN
100
AcDbLine
 10
-3572.853079769469
 20
10181.24252114496
 30
0.0
 11
-3572.853079769469
 21
9881.242521144959
 31
0.0
  0
LINE
  5
57DB
330
17
100
AcDbEntity
  8
SEIHIN
100
AcDbLine
 10
-3372.853079769469
 20
9831.242521144959
 30
0.0
 11
-3572.853079769469
 21
9881.242521144959
 31
0.0
  0
LINE
  5
57DC
330
17
100
AcDbEntity
  8
SEIHIN
100
AcDbLine
 10
-3372.853079769469
 20
9831.242521144959
 30
0.0
 11
-3372.853079769471
 21
9751.242521144959
 31
0.0
  0
TEXT
  5
57DD
330
17
100
AcDbEntity
  8
SUNPOU
100
AcDbText
 10
-4000.556167029326
 20
10640.44235774671
 30
0.0
 40
105.0
  1
頂・底版
 72
     1
 11
-3762.556167029326
 21
10640.44235774671
 31
0.0
100
AcDbText
  0
LINE
  5
57DE
330
17
100
AcDbEntity
  8
SUNPOU
100
AcDbLine
 10
-4033.998516625994
 20
10605.44952368768
 30
0.0
 11
-3495.784673017808
 21
10605.44952368768
 31
0.0
  0
TEXT
  5
57DF
330
17
100
AcDbEntity
  8
SUNPOU
100
AcDbText
 10
-4922.853079769469
 20
11931.24252114496
 30
0.0
 40
90.0
  1
土の単位体積重量
 41
0.9
100
AcDbText
  0
TEXT
  5
57E0
330
17
100
AcDbEntity
  8
SUNPOU
100
AcDbText
 10
-4922.853079769469
 20
12081.24252114496
 30
0.0
 40
90.0
  1
鉄筋コンクリートの単位体積重量
 41
0.9
100
AcDbText
  0
TEXT
  5
57E1
330
17
100
AcDbEntity
  8
SUNPOU
100
AcDbText
 10
-4817.350997311267
 20
12531.24252114496
 30
0.0
 40
90.0
  1
許容引張応力度
 41
0.9
100
AcDbText
  0
TEXT
  5
57E2
330
17
100
AcDbEntity
  8
SUNPOU
100
AcDbText
 10
-4922.853079769469
 20
11781.24252114496
 30
0.0
 40
90.0
  1
土圧係数
 41
0.9
100
AcDbText
  0
TEXT
  5
57E3
330
17
100
AcDbEntity
  8
SUNPOU
100
AcDbText
 10
-4922.853079769469
 20
11631.24252114496
 30
0.0
 40
90.0
  1
製品参考質量
 41
0.9
100
AcDbText
  0
TEXT
  5
57E4
330
17
100
AcDbEntity
  8
SUNPOU
100
AcDbText
 10
-4922.853079769469
 20
12231.24252114496
 30
0.0
 40
90.0
  1
土被り
 41
0.9
100
AcDbText
  0
TEXT
  5
57E5
330
17
100
AcDbEntity
  8
SUNPOU
100
AcDbText
 10
-4922.853079769469
 20
12381.24252114496
 30
0.0
 40
90.0
  1
活荷重
 41
0.9
100
AcDbText
  0
TEXT
  5
57E6
330
17
100
AcDbEntity
  8
SUNPOU
100
AcDbText
 10
-4922.853079769469
 20
12681.24252114496
 30
0.0
 40
90.0
  1
鉄　　筋
 41
0.9
100
AcDbText
  0
TEXT
  5
57E7
330
17
100
AcDbEntity
  8
SUNPOU
100
AcDbText
 10
-4817.350997311267
 20
12981.24252114496
 30
0.0
 40
90.0
  1
設計基準強度
 41
0.9
100
AcDbText
  0
TEXT
  5
57E8
330
17
100
AcDbEntity
  8
SUNPOU
100
AcDbText
 10
-4922.853079769469
 20
13131.24252114496
 30
0.0
 40
90.0
  1
コンクリート
 41
0.9
100
AcDbText
  0
TEXT
  5
57E9
330
17
100
AcDbEntity
  8
SUNPOU
100
AcDbText
 10
-5001.656463959291
 20
13356.09167298317
 30
0.0
 40
120.0
  1
設計条件
 41
0.9
 11
-5001.656463959291
 21
13340.09167298317
 31
0.0
100
AcDbText
 73
     1
  0
TEXT
  5
57EA
330
17
100
AcDbEntity
  8
SUNPOU
100
AcDbText
 10
-2550.213556269791
 20
12820.59562705503
 30
0.0
 40
90.0
  1
N/mm
 41
0.9
100
AcDbText
  0
TEXT
  5
57EB
330
17
100
AcDbEntity
  8
SUNPOU
100
AcDbText
 10
-2799.40180773407
 20
12820.59562705503
 30
0.0
 40
90.0
  1
12
 41
0.9
100
AcDbText
  0
TEXT
  5
57EC
330
17
100
AcDbEntity
  8
SUNPOU
100
AcDbText
 10
-2222.16809858303
 20
12869.16243147616
 30
0.0
 40
36.0
  1
2
 72
     2
 11
-2198.16809858303
 21
12887.16243147616
 31
0.0
100
AcDbText
 73
     2
  0
LINE
  5
57ED
330
17
100
AcDbEntity
  8
SUNPOU
100
AcDbLine
 10
-2072.853079769469
 20
11551.24252114496
 30
0.0
 11
-2072.853079769469
 21
13261.24252114496
 31
0.0
  0
TEXT
  5
57EE
330
17
100
AcDbEntity
  8
SUNPOU
100
AcDbText
 10
-2975.853079769469
 20
10311.24252114496
 30
0.0
 40
90.0
  1
受口
 72
     1
 11
-2882.853079769469
 21
10311.24252114496
 31
0.0
100
AcDbText
  0
TEXT
  5
57EF
330
17
100
AcDbEntity
  8
SUNPOU
100
AcDbText
 10
-2902.458775813262
 20
10569.36298877891
 30
0.0
 40
90.0
  1
外側
 72
     1
 11
-2806.458775813262
 21
10569.36298877891
 31
0.0
100
AcDbText
  0
LINE
  5
57F0
330
17
100
AcDbEntity
  8
SUNPOU
100
AcDbLine
 10
-2934.521966025102
 20
10550.61298877891
 30
0.0
 11
-2688.383291728351
 21
10550.61298877891
 31
0.0
  0
LINE
  5
57F1
330
17
100
AcDbEntity
  8
SUNPOU
100
AcDbLine
 10
-3007.853079769469
 20
10281.24252114496
 30
0.0
 11
-2757.853079769469
 21
10281.24252114496
 31
0.0
  0
LINE
  5
57F2
330
17
100
AcDbEntity
  8
SUNPOU
100
AcDbLine
 10
-2657.853079769469
 20
10306.24252114496
 30
0.0
 11
-2657.853079769469
 21
9956.242521144955
 31
0.0
  0
LINE
  5
57F3
330
17
100
AcDbEntity
  8
SUNPOU
100
AcDbLine
 10
-2707.853079769469
 20
9806.242521144959
 30
0.0
 11
-2607.853079769469
 21
9931.242521144959
 31
0.0
  0
LINE
  5
57F4
330
17
100
AcDbEntity
  8
SUNPOU
100
AcDbLine
 10
-2657.853079769469
 20
9781.242521144959
 30
0.0
 11
-2707.853079769469
 21
9806.242521144959
 31
0.0
  0
LINE
  5
57F5
330
17
100
AcDbEntity
  8
SUNPOU
100
AcDbLine
 10
-2607.853079769469
 20
9931.242521144959
 30
0.0
 11
-2657.853079769469
 21
9956.242521144959
 31
0.0
  0
TEXT
  5
57F6
330
17
100
AcDbEntity
  8
SUNPOU
100
AcDbText
 10
-2514.41440260228
 20
11925.04254998963
 30
0.0
 40
90.0
  1
KN/m
 41
0.9
100
AcDbText
  0
TEXT
  5
57F7
330
17
100
AcDbEntity
  8
SUNPOU
100
AcDbText
 10
-2514.41440260228
 20
12071.7911555411
 30
0.0
 40
90.0
  1
KN/m
 41
0.9
100
AcDbText
  0
TEXT
  5
57F8
330
17
100
AcDbEntity
  8
SUNPOU
100
AcDbText
 10
-2550.213556269791
 20
12518.20454883869
 30
0.0
 40
90.0
  1
N/mm
 41
0.9
100
AcDbText
  0
TEXT
  5
57F9
330
17
100
AcDbEntity
  8
SUNPOU
100
AcDbText
 10
-2839.24912389951
 20
11925.04254998963
 30
0.0
 40
90.0
  1
18.0
 41
0.9
100
AcDbText
  0
TEXT
  5
57FA
330
17
100
AcDbEntity
  8
SUNPOU
100
AcDbText
 10
-2839.24912389951
 20
11778.29394443817
 30
0.0
 40
90.0
  1
0.50
 41
0.9
100
AcDbText
  0
TEXT
  5
57FB
330
17
100
AcDbEntity
  8
SUNPOU
100
AcDbText
 10
-2865.947854400791
 20
12071.7911555411
 30
0.0
 40
90.0
  1
24.5
 41
0.9
100
AcDbText
  0
TEXT
  5
57FC
330
17
100
AcDbEntity
  8
SUNPOU
100
AcDbText
 10
-3128.686250702191
 20
11780.01459814677
 30
0.0
 40
50.0
  1
0
 41
0.9
100
AcDbText
  0
TEXT
  5
57FD
330
17
100
AcDbEntity
  8
SUNPOU
100
AcDbText
 10
-3213.031417663431
 20
11778.29394443817
 30
0.0
 40
90.0
  1
K  =
 41
0.9
100
AcDbText
  0
TEXT
  5
57FE
330
17
100
AcDbEntity
  8
SUNPOU
100
AcDbText
 10
-3226.380782914068
 20
11622.65147177329
 30
0.0
 40
90.0
  1
W  =
 41
0.9
100
AcDbText
  0
TEXT
  5
57FF
330
17
100
AcDbEntity
  8
SUNPOU
100
AcDbText
 10
-3226.380782914068
 20
11925.04254998963
 30
0.0
 40
90.0
  1
γ  =
 41
0.9
100
AcDbText
  0
TEXT
  5
5800
330
17
100
AcDbEntity
  8
SUNPOU
100
AcDbText
 10
-3226.380782914068
 20
12071.7911555411
 30
0.0
 40
90.0
  1
γ  =
 41
0.9
100
AcDbText
  0
TEXT
  5
5801
330
17
100
AcDbEntity
  8
SUNPOU
100
AcDbText
 10
-3142.035615952827
 20
12073.5118092497
 30
0.0
 40
50.0
  1
c
 41
0.9
100
AcDbText
  0
TEXT
  5
5802
330
17
100
AcDbEntity
  8
SUNPOU
100
AcDbText
 10
-2514.41440260228
 20
11622.65147177329
 30
0.0
 40
90.0
  1
Kg
 41
0.9
100
AcDbText
  0
TEXT
  5
5803
330
17
100
AcDbEntity
  8
SUNPOU
100
AcDbText
 10
-2839.449903485987
 20
12518.20454883869
 30
0.0
 40
90.0
  1
160
 41
0.9
100
AcDbText
  0
TEXT
  5
5804
330
17
100
AcDbEntity
  8
SUNPOU
100
AcDbText
 10
-3214.380782914068
 20
12221.7911555411
 30
0.0
 40
90.0
  1
H =  0.2～3.0  m
 41
0.9
100
AcDbText
  0
TEXT
  5
5805
330
17
100
AcDbEntity
  8
SUNPOU
100
AcDbText
 10
-3244.380782914068
 20
12518.20454883869
 30
0.0
 40
90.0
  1
σ   = 
 41
0.9
100
AcDbText
  0
TEXT
  5
5806
330
17
100
AcDbEntity
  8
SUNPOU
100
AcDbText
 10
-3159.834769620345
 20
12518.20454883869
 30
0.0
 40
50.0
  1
sa
 41
0.9
100
AcDbText
  0
TEXT
  5
5807
330
17
100
AcDbEntity
  8
SUNPOU
100
AcDbText
 10
-3214.380782914068
 20
12371.7911555411
 30
0.0
 40
90.0
  1
T - 25
 41
0.9
100
AcDbText
  0
TEXT
  5
5808
330
17
100
AcDbEntity
  8
SUNPOU
100
AcDbText
 10
-3244.380782914068
 20
12820.59562705503
 30
0.0
 40
90.0
  1
σ   = 
 41
0.9
100
AcDbText
  0
TEXT
  5
5809
330
17
100
AcDbEntity
  8
SUNPOU
100
AcDbText
 10
-3159.834769620345
 20
12820.59562705503
 30
0.0
 40
50.0
  1
ca
 41
0.9
100
AcDbText
  0
TEXT
  5
580A
330
17
100
AcDbEntity
  8
SUNPOU
100
AcDbText
 10
-2194.975712284313
 20
11972.4138259247
 30
0.0
 40
36.0
  1
3
 72
     2
 11
-2170.975712284313
 21
11990.4138259247
 31
0.0
100
AcDbText
 73
     2
  0
TEXT
  5
580B
330
17
100
AcDbEntity
  8
SUNPOU
100
AcDbText
 10
-2194.975712284313
 20
12119.16243147616
 30
0.0
 40
36.0
  1
3
 72
     2
 11
-2170.975712284313
 21
12137.16243147616
 31
0.0
100
AcDbText
 73
     2
  0
TEXT
  5
580C
330
17
100
AcDbEntity
  8
SUNPOU
100
AcDbText
 10
-2222.16809858303
 20
12566.77135325982
 30
0.0
 40
36.0
  1
2
 72
     2
 11
-2198.16809858303
 21
12584.77135325982
 31
0.0
100
AcDbText
 73
     2
  0
TEXT
  5
580D
330
17
100
AcDbEntity
  8
SUNPOU
100
AcDbText
 10
-2550.213556269791
 20
12971.7911555411
 30
0.0
 40
90.0
  1
N/mm
 41
0.9
100
AcDbText
  0
TEXT
  5
580E
330
17
100
AcDbEntity
  8
SUNPOU
100
AcDbText
 10
-2817.200961401588
 20
12971.7911555411
 30
0.0
 40
90.0
  1
35
 41
0.9
100
AcDbText
  0
TEXT
  5
580F
330
17
100
AcDbEntity
  8
SUNPOU
100
AcDbText
 10
-3244.380782914068
 20
12971.7911555411
 30
0.0
 40
90.0
  1
σ   = 
 41
0.9
100
AcDbText
  0
TEXT
  5
5810
330
17
100
AcDbEntity
  8
SUNPOU
100
AcDbText
 10
-3159.834769620345
 20
12971.7911555411
 30
0.0
 40
50.0
  1
ck
 41
0.9
100
AcDbText
  0
TEXT
  5
5811
330
17
100
AcDbEntity
  8
SUNPOU
100
AcDbText
 10
-2229.113061129638
 20
13019.16243147616
 30
0.0
 40
36.0
  1
2
 72
     2
 11
-2205.113061129638
 21
13037.16243147616
 31
0.0
100
AcDbText
 73
     2
  0
DIMENSION
  5
5812
330
17
100
AcDbEntity
  8
SUNPOU
100
AcDbDimension
  2
*D92
 10
-11137.61998367644
 20
9250.09162159569
 30
0.0
 11
-11236.82927889071
 21
9244.2884419859
 31
0.0
 70
   160
 71
     5
 42
100.0
  3
STANDARD
100
AcDbAlignedDimension
 13
-11037.61998367644
 23
9350.09162159569
 33
0.0
 14
-10937.61998367644
 24
9250.09162159569
 34
0.0
 50
90.0
100
AcDbRotatedDimension
1001
ACAD
1000
DSTYLE
1002
{
1070
   287
1070
     5
1070
   287
1070
     5
1070
   287
1070
     5
1070
   287
1070
     5
1070
   287
1070
     5
1070
   287
1070
     5
1070
    40
1040
30.0
1070
    41
1040
1.5
1070
    42
1040
1.5
1070
    43
1040
7.0
1070
    44
1040
0.6
1070
    73
1070
     0
1070
    74
1070
     0
1070
    77
1070
     1
1070
    78
1070
     8
1070
   140
1040
3.0
1070
   141
1040
0.0
1070
   145
1040
1.0
1070
   147
1040
0.6
1070
   172
1070
     1
1070
   271
1070
     0
1070
   275
1070
     1
1070
   279
1070
     2
1070
   284
1070
     8
1070
   285
1070
     8
1070
   286
1070
     8
1002
}
  0
DIMENSION
  5
5813
330
17
100
AcDbEntity
  8
SUNPOU
100
AcDbDimension
  2
*D93
 10
-10937.61998367644
 20
9150.09162159569
 30
0.0
 11
-11030.39019067802
 21
9038.044323273632
 31
0.0
 70
   160
 71
     5
 42
100.0
  3
STANDARD
100
AcDbAlignedDimension
 13
-11037.61998367644
 23
9350.09162159569
 33
0.0
 14
-10937.61998367644
 24
9250.09162159569
 34
0.0
100
AcDbRotatedDimension
1001
ACAD
1000
DSTYLE
1002
{
1070
   287
1070
     5
1070
   287
1070
     5
1070
   287
1070
     5
1070
   287
1070
     5
1070
   287
1070
     5
1070
   287
1070
     5
1070
    40
1040
30.0
1070
    41
1040
1.5
1070
    42
1040
1.5
1070
    43
1040
7.0
1070
    44
1040
0.6
1070
    73
1070
     0
1070
    74
1070
     0
1070
    77
1070
     1
1070
    78
1070
     8
1070
   140
1040
3.0
1070
   141
1040
0.0
1070
   145
1040
1.0
1070
   147
1040
0.6
1070
   172
1070
     1
1070
   271
1070
     0
1070
   275
1070
     1
1070
   279
1070
     2
1070
   284
1070
     8
1070
   285
1070
     8
1070
   286
1070
     8
1002
}
  0
TEXT
  5
5814
330
17
100
AcDbEntity
  8
SUNPOU
100
AcDbText
 10
-4326.056412860707
 20
6662.244552531196
 30
0.0
 40
105.0
  1
800X1300X2000
100
AcDbText
  0
TEXT
  5
5815
330
17
100
AcDbEntity
  8
SUNPOU
100
AcDbText
 10
-2872.54337697351
 20
11623.34707164437
 30
0.0
 40
90.0
  1
3170
 41
0.9
100
AcDbText
  0
ENDSEC
  0
SECTION
  2
OBJECTS
  0
DICTIONARY
  5
C
330
0
100
AcDbDictionary
281
     1
  3
ACAD_COLOR
350
53AD
  3
ACAD_GROUP
350
D
  3
ACAD_LAYOUT
350
263A
  3
ACAD_MATERIAL
350
53AC
  3
ACAD_MLEADERSTYLE
350
5DD5
  3
ACAD_MLINESTYLE
350
1A
  3
ACAD_PLOTSETTINGS
350
263B
  3
ACAD_PLOTSTYLENAME
350
2638
  3
ACAD_TABLESTYLE
350
53AE
  3
ACDBHEADERROUNDTRIPXREC
350
5DD6
  3
AcDbVariableDictionary
350
2916
  0
DICTIONARY
  5
53AD
102
{ACAD_REACTORS
330
C
102
}
330
C
100
AcDbDictionary
281
     1
  0
DICTIONARY
  5
D
102
{ACAD_REACTORS
330
C
102
}
330
C
100
AcDbDictionary
281
     1
  0
DICTIONARY
  5
263A
102
{ACAD_REACTORS
330
C
102
}
330
C
100
AcDbDictionary
281
     1
  3
Model
350
263C
  3
ﾚｲｱｳﾄ1
350
263D
  0
DICTIONARY
  5
53AC
102
{ACAD_REACTORS
330
C
102
}
330
C
100
AcDbDictionary
281
     1
  0
DICTIONARY
  5
5DD5
102
{ACAD_REACTORS
330
C
102
}
330
C
100
AcDbDictionary
281
     1
  0
DICTIONARY
  5
1A
102
{ACAD_REACTORS
330
C
102
}
330
C
100
AcDbDictionary
281
     1
  3
STANDARD
350
1B
  0
DICTIONARY
  5
263B
102
{ACAD_REACTORS
330
C
102
}
330
C
100
AcDbDictionary
281
     1
  0
ACDBDICTIONARYWDFLT
  5
2638
102
{ACAD_REACTORS
330
C
102
}
330
C
100
AcDbDictionary
281
     1
  3
Normal
350
2639
100
AcDbDictionaryWithDefault
340
2639
  0
DICTIONARY
  5
53AE
102
{ACAD_REACTORS
330
C
102
}
330
C
100
AcDbDictionary
281
     1
  0
DICTIONARY
  5
5DD6
102
{ACAD_REACTORS
330
C
102
}
330
C
100
AcDbDictionary
281
     1
  3
COLORDICT
350
5DD7
  3
MATERIALDICT
350
5DD8
  0
DICTIONARY
  5
2916
102
{ACAD_REACTORS
330
C
102
}
330
C
100
AcDbDictionary
281
     1
  3
CTABLESTYLE
350
53B5
  3
DIMASSOC
350
2917
  3
PROJECTNAME
350
5DBE
  0
LAYOUT
  5
263C
102
{ACAD_REACTORS
330
263A
102
}
330
263A
100
AcDbPlotSettings
  1

  2
DocuWorks Printer
  4
A4
  6

 40
5.408083438873291
 41
5.408078670501709
 42
5.408096313476562
 43
5.4080810546875
 44
210.0156707763672
 45
297.0106506347656
 46
0.0
 47
1.954812030034702
 48
534.2764991126896
 49
233.8914078735543
140
20126.68307712402
141
14059.63226969646
142
1.0
143
69.4065069682128
 70
 11956
 72
     1
 73
     1
 74
     4
  7
monochrome.ctb
 75
     0
147
0.0144078710150042
148
-534.2764991126896
149
-233.8914078735543
100
AcDbLayout
  1
Model
 70
     1
 71
     0
 10
0.0
 20
0.0
 11
12.0
 21
9.0
 12
0.0
 22
0.0
 32
0.0
 14
0.0
 24
0.0
 34
0.0
 15
0.0
 25
0.0
 35
0.0
146
0.0
 13
0.0
 23
0.0
 33
0.0
 16
1.0
 26
0.0
 36
0.0
 17
0.0
 27
1.0
 37
0.0
 76
     0
330
17
331
5DCF
1001
ACAD_PSEXT
1000
DocuWorks Printer
1000
DocuWorks Printer Driver
1000
DocuWorks Port
1000

1070
     0
  0
LAYOUT
  5
263D
102
{ACAD_REACTORS
330
263A
102
}
330
263A
100
AcDbPlotSettings
  1

  2
C:\PROGRAM FILES\MDT6\plotters\RICOH SP9II RPDL.pc3
  4

  6

 40
0.0
 41
0.0
 42
0.0
 43
0.0
 44
0.0
 45
0.0
 46
0.0
 47
0.0
 48
0.0
 49
0.0
140
0.0
141
0.0
142
1.0
143
1.0
 70
   688
 72
     0
 73
     0
 74
     5
  7
monochrome.ctb
 75
    16
147
1.0
148
0.0
149
0.0
100
AcDbLayout
  1
ﾚｲｱｳﾄ1
 70
     0
 71
     1
 10
0.0
 20
0.0
 11
12.0
 21
9.0
 12
0.0
 22
0.0
 32
0.0
 14
1.000000000000000E+20
 24
1.000000000000000E+20
 34
1.000000000000000E+20
 15
-1.000000000000000E+20
 25
-1.000000000000000E+20
 35
-1.000000000000000E+20
146
0.0
 13
0.0
 23
0.0
 33
0.0
 16
1.0
 26
0.0
 36
0.0
 17
0.0
 27
1.0
 37
0.0
 76
     0
330
14
  0
MLINESTYLE
  5
1B
102
{ACAD_REACTORS
330
1A
102
}
330
1A
100
AcDbMlineStyle
  2
STANDARD
 70
     0
  3

 62
   256
 51
90.0
 52
90.0
 71
     2
 49
0.5
 62
   256
  6
BYLAYER
 49
-0.5
 62
   256
  6
BYLAYER
  0
ACDBPLACEHOLDER
  5
2639
102
{ACAD_REACTORS
330
2638
102
}
330
2638
  0
XRECORD
  5
5DD7
102
{ACAD_REACTORS
330
5DD6
102
}
330
5DD6
100
AcDbXrecord
280
     1
340
53AD
  0
XRECORD
  5
5DD8
102
{ACAD_REACTORS
330
5DD6
102
}
330
5DD6
100
AcDbXrecord
280
     1
340
53AC
  0
DICTIONARYVAR
  5
53B5
102
{ACAD_REACTORS
330
2916
102
}
330
2916
100
DictionaryVariables
280
     0
  1
Standard
  0
DICTIONARYVAR
  5
2917
102
{ACAD_REACTORS
330
2916
102
}
330
2916
100
DictionaryVariables
280
     0
  1
1
  0
DICTIONARYVAR
  5
5DBE
102
{ACAD_REACTORS
330
2916
102
}
330
2916
100
DictionaryVariables
280
     0
  1

  0
ENDSEC
  0
EOF
