  0
SECTION
  2
HEADER
  9
$ACADVER
  1
AC1018
  9
$ACADMAINTVER
 70
     0
  9
$DWGCODEPAGE
  3
ANSI_932
  9
$LASTSAVEDBY
  1
shinwa
  9
$INSBASE
 10
0.0
 20
0.0
 30
0.0
  9
$EXTMIN
 10
-273.8087537577521
 20
-9720.578310558561
 30
0.0
  9
$EXTMAX
 10
14560.34559644691
 20
5113.423155149834
 30
0.0
  9
$LIMMIN
 10
0.0
 20
0.0
  9
$LIMMAX
 10
6300.0
 20
4455.0
  9
$ORTHOMODE
 70
     1
  9
$REGENMODE
 70
     1
  9
$FILLMODE
 70
     1
  9
$QTEXTMODE
 70
     0
  9
$MIRRTEXT
 70
     1
  9
$LTSCALE
 40
150.0
  9
$ATTMODE
 70
     1
  9
$TEXTSIZE
 40
45.0
  9
$TRACEWID
 40
0.05
  9
$TEXTSTYLE
  7
STANDARD
  9
$CLAYER
  8
HOJO
  9
$CELTYPE
  6
BYLAYER
  9
$CECOLOR
 62
   256
  9
$CELTSCALE
 40
1.0
  9
$DISPSILH
 70
     0
  9
$DIMSCALE
 40
15.0
  9
$DIMASZ
 40
2.0
  9
$DIMEXO
 40
2.0
  9
$DIMDLI
 40
7.0
  9
$DIMRND
 40
0.0
  9
$DIMDLE
 40
0.0
  9
$DIMEXE
 40
1.0
  9
$DIMTP
 40
0.0
  9
$DIMTM
 40
0.0
  9
$DIMTXT
 40
3.0
  9
$DIMCEN
 40
0.0
  9
$DIMTSZ
 40
0.0
  9
$DIMTOL
 70
     0
  9
$DIMLIM
 70
     0
  9
$DIMTIH
 70
     0
  9
$DIMTOH
 70
     0
  9
$DIMSE1
 70
     0
  9
$DIMSE2
 70
     0
  9
$DIMTAD
 70
     1
  9
$DIMZIN
 70
     8
  9
$DIMBLK
  1

  9
$DIMASO
 70
     1
  9
$DIMSHO
 70
     1
  9
$DIMPOST
  1

  9
$DIMAPOST
  1

  9
$DIMALT
 70
     0
  9
$DIMALTD
 70
     2
  9
$DIMALTF
 40
25.4
  9
$DIMLFAC
 40
1.0
  9
$DIMTOFL
 70
     0
  9
$DIMTVP
 40
1.0
  9
$DIMTIX
 70
     0
  9
$DIMSOXD
 70
     0
  9
$DIMSAH
 70
     0
  9
$DIMBLK1
  1

  9
$DIMBLK2
  1

  9
$DIMSTYLE
  2
STANDARD
  9
$DIMCLRD
 70
     0
  9
$DIMCLRE
 70
     0
  9
$DIMCLRT
 70
     0
  9
$DIMTFAC
 40
1.0
  9
$DIMGAP
 40
0.8
  9
$DIMJUST
 70
     0
  9
$DIMSD1
 70
     0
  9
$DIMSD2
 70
     0
  9
$DIMTOLJ
 70
     1
  9
$DIMTZIN
 70
     8
  9
$DIMALTZ
 70
     8
  9
$DIMALTTZ
 70
     8
  9
$DIMUPT
 70
     0
  9
$DIMDEC
 70
     0
  9
$DIMTDEC
 70
     0
  9
$DIMALTU
 70
     2
  9
$DIMALTTD
 70
     2
  9
$DIMTXSTY
  7
STANDARD
  9
$DIMAUNIT
 70
     0
  9
$DIMADEC
 70
     4
  9
$DIMALTRND
 40
0.0
  9
$DIMAZIN
 70
     0
  9
$DIMDSEP
 70
    46
  9
$DIMATFIT
 70
     3
  9
$DIMFRAC
 70
     0
  9
$DIMLDRBLK
  1

  9
$DIMLUNIT
 70
     2
  9
$DIMLWD
 70
    -2
  9
$DIMLWE
 70
    -2
  9
$DIMTMOVE
 70
     2
  9
$LUNITS
 70
     2
  9
$LUPREC
 70
     3
  9
$SKETCHINC
 40
0.1
  9
$FILLETRAD
 40
0.0
  9
$AUNITS
 70
     0
  9
$AUPREC
 70
     5
  9
$MENU
  1
acad
  9
$ELEVATION
 40
0.0
  9
$PELEVATION
 40
0.0
  9
$THICKNESS
 40
0.0
  9
$LIMCHECK
 70
     0
  9
$CHAMFERA
 40
0.0
  9
$CHAMFERB
 40
0.0
  9
$CHAMFERC
 40
0.0
  9
$CHAMFERD
 40
0.0
  9
$SKPOLY
 70
     0
  9
$TDCREATE
 40
2450014.655173611
  9
$TDUCREATE
 40
2450014.280173611
  9
$TDUPDATE
 40
2458085.699381308
  9
$TDUUPDATE
 40
2458085.324381308
  9
$TDINDWG
 40
0.5277447801
  9
$TDUSRTIMER
 40
0.5277447801
  9
$USRTIMER
 70
     1
  9
$ANGBASE
 50
0.0
  9
$ANGDIR
 70
     0
  9
$PDMODE
 70
     0
  9
$PDSIZE
 40
0.0
  9
$PLINEWID
 40
0.0
  9
$SPLFRAME
 70
     0
  9
$SPLINETYPE
 70
     6
  9
$SPLINESEGS
 70
     8
  9
$HANDSEED
  5
8402
  9
$SURFTAB1
 70
     6
  9
$SURFTAB2
 70
     6
  9
$SURFTYPE
 70
     6
  9
$SURFU
 70
     6
  9
$SURFV
 70
     6
  9
$UCSBASE
  2

  9
$UCSNAME
  2

  9
$UCSORG
 10
0.0
 20
0.0
 30
0.0
  9
$UCSXDIR
 10
1.0
 20
0.0
 30
0.0
  9
$UCSYDIR
 10
0.0
 20
1.0
 30
0.0
  9
$UCSORTHOREF
  2

  9
$UCSORTHOVIEW
 70
     0
  9
$UCSORGTOP
 10
0.0
 20
0.0
 30
0.0
  9
$UCSORGBOTTOM
 10
0.0
 20
0.0
 30
0.0
  9
$UCSORGLEFT
 10
0.0
 20
0.0
 30
0.0
  9
$UCSORGRIGHT
 10
0.0
 20
0.0
 30
0.0
  9
$UCSORGFRONT
 10
0.0
 20
0.0
 30
0.0
  9
$UCSORGBACK
 10
0.0
 20
0.0
 30
0.0
  9
$PUCSBASE
  2

  9
$PUCSNAME
  2

  9
$PUCSORG
 10
0.0
 20
0.0
 30
0.0
  9
$PUCSXDIR
 10
1.0
 20
0.0
 30
0.0
  9
$PUCSYDIR
 10
0.0
 20
1.0
 30
0.0
  9
$PUCSORTHOREF
  2

  9
$PUCSORTHOVIEW
 70
     0
  9
$PUCSORGTOP
 10
0.0
 20
0.0
 30
0.0
  9
$PUCSORGBOTTOM
 10
0.0
 20
0.0
 30
0.0
  9
$PUCSORGLEFT
 10
0.0
 20
0.0
 30
0.0
  9
$PUCSORGRIGHT
 10
0.0
 20
0.0
 30
0.0
  9
$PUCSORGFRONT
 10
0.0
 20
0.0
 30
0.0
  9
$PUCSORGBACK
 10
0.0
 20
0.0
 30
0.0
  9
$USERI1
 70
     0
  9
$USERI2
 70
     0
  9
$USERI3
 70
     0
  9
$USERI4
 70
     0
  9
$USERI5
 70
     0
  9
$USERR1
 40
0.0
  9
$USERR2
 40
0.0
  9
$USERR3
 40
0.0
  9
$USERR4
 40
0.0
  9
$USERR5
 40
0.0
  9
$WORLDVIEW
 70
     1
  9
$SHADEDGE
 70
     3
  9
$SHADEDIF
 70
    70
  9
$TILEMODE
 70
     1
  9
$MAXACTVP
 70
    48
  9
$PINSBASE
 10
0.0
 20
0.0
 30
0.0
  9
$PLIMCHECK
 70
     0
  9
$PEXTMIN
 10
1.000000000000000E+20
 20
1.000000000000000E+20
 30
1.000000000000000E+20
  9
$PEXTMAX
 10
-1.000000000000000E+20
 20
-1.000000000000000E+20
 30
-1.000000000000000E+20
  9
$PLIMMIN
 10
0.0
 20
0.0
  9
$PLIMMAX
 10
12.0
 20
9.0
  9
$UNITMODE
 70
     0
  9
$VISRETAIN
 70
     0
  9
$PLINEGEN
 70
     0
  9
$PSLTSCALE
 70
     0
  9
$TREEDEPTH
 70
  3020
  9
$CMLSTYLE
  2
STANDARD
  9
$CMLJUST
 70
     0
  9
$CMLSCALE
 40
1.0
  9
$PROXYGRAPHICS
 70
     1
  9
$MEASUREMENT
 70
     0
  9
$CELWEIGHT
370
    -1
  9
$ENDCAPS
280
     0
  9
$JOINSTYLE
280
     0
  9
$LWDISPLAY
290
     0
  9
$INSUNITS
 70
     0
  9
$HYPERLINKBASE
  1

  9
$STYLESHEET
  1
acad.ctb
  9
$XEDIT
290
     1
  9
$CEPSNTYPE
380
     0
  9
$PSTYLEMODE
290
     1
  9
$FINGERPRINTGUID
  2
{5CE31C3E-7111-11D8-A1CD-0050FC45377D}
  9
$VERSIONGUID
  2
{148C5BA0-F69B-4C6C-858B-51ED20DFBFF0}
  9
$EXTNAMES
290
     1
  9
$PSVPSCALE
 40
0.0
  9
$OLESTARTUP
290
     0
  9
$SORTENTS
280
   127
  9
$INDEXCTL
280
     0
  9
$HIDETEXT
280
     0
  9
$XCLIPFRAME
290
     0
  9
$HALOGAP
280
     0
  9
$OBSCOLOR
 70
   257
  9
$OBSLTYPE
280
     0
  9
$INTERSECTIONDISPLAY
280
     0
  9
$INTERSECTIONCOLOR
 70
   257
  9
$DIMASSOC
280
     1
  9
$PROJECTNAME
  1

  0
ENDSEC
  0
SECTION
  2
CLASSES
  0
CLASS
  1
ACDBDICTIONARYWDFLT
  2
AcDbDictionaryWithDefault
  3
ObjectDBX Classes
 90
        0
 91
        4
280
     0
281
     0
  0
CLASS
  1
ACDBPLACEHOLDER
  2
AcDbPlaceHolder
  3
ObjectDBX Classes
 90
        0
 91
        1
280
     0
281
     0
  0
CLASS
  1
LAYOUT
  2
AcDbLayout
  3
ObjectDBX Classes
 90
        0
 91
        1
280
     0
281
     0
  0
CLASS
  1
DICTIONARYVAR
  2
AcDbDictionaryVar
  3
ObjectDBX Classes
 90
        0
 91
        4
280
     0
281
     0
  0
CLASS
  1
DUMMY
  2
AcDbLongTransaction
  3
DUMMY
 90
        0
 91
        1
280
     0
281
     0
  0
CLASS
  1
LWPOLYLINE
  2
AcDbPolyline
  3
AutoCAD 2000
 90
        0
 91
        1
280
     0
281
     1
  0
CLASS
  1
HATCH
  2
AcDbHatch
  3
AutoCAD 2000
 90
        0
 91
        1
280
     0
281
     1
  0
CLASS
  1
XRECORD
  2
AcDbXrecord
  3
AutoCAD 2000
 90
        0
 91
        1
280
     0
281
     0
  0
CLASS
  1
DUMMY
  2
AcDbLongTransaction
  3
DUMMY
 90
        0
 91
        1
280
     0
281
     0
  0
CLASS
  1
LWPOLYLINE
  2
AcDbPolyline
  3
AutoCAD 2000
 90
        0
 91
        1
280
     0
281
     1
  0
CLASS
  1
HATCH
  2
AcDbHatch
  3
AutoCAD 2000
 90
        0
 91
        1
280
     0
281
     1
  0
CLASS
  1
XRECORD
  2
AcDbXrecord
  3
AutoCAD 2000
 90
        0
 91
        1
280
     0
281
     0
  0
CLASS
  1
DUMMY
  2
AcDbLongTransaction
  3
DUMMY
 90
        0
 91
        1
280
     0
281
     0
  0
CLASS
  1
LWPOLYLINE
  2
AcDbPolyline
  3
AutoCAD 2000
 90
        0
 91
        1
280
     0
281
     1
  0
CLASS
  1
HATCH
  2
AcDbHatch
  3
AutoCAD 2000
 90
        0
 91
        1
280
     0
281
     1
  0
CLASS
  1
XRECORD
  2
AcDbXrecord
  3
AutoCAD 2000
 90
        0
 91
        1
280
     0
281
     0
  0
CLASS
  1
DUMMY
  2
AcDbLongTransaction
  3
DUMMY
 90
        0
 91
        1
280
     0
281
     0
  0
CLASS
  1
LWPOLYLINE
  2
AcDbPolyline
  3
AutoCAD 2000
 90
        0
 91
        1
280
     0
281
     1
  0
CLASS
  1
HATCH
  2
AcDbHatch
  3
AutoCAD 2000
 90
        0
 91
        1
280
     0
281
     1
  0
CLASS
  1
XRECORD
  2
AcDbXrecord
  3
AutoCAD 2000
 90
        0
 91
        1
280
     0
281
     0
  0
CLASS
  1
DUMMY
  2
AcDbLongTransaction
  3
DUMMY
 90
        0
 91
        1
280
     0
281
     0
  0
CLASS
  1
LWPOLYLINE
  2
AcDbPolyline
  3
AutoCAD 2000
 90
        0
 91
        1
280
     0
281
     1
  0
CLASS
  1
HATCH
  2
AcDbHatch
  3
AutoCAD 2000
 90
        0
 91
        1
280
     0
281
     1
  0
CLASS
  1
XRECORD
  2
AcDbXrecord
  3
AutoCAD 2000
 90
        0
 91
        1
280
     0
281
     0
  0
CLASS
  1
TABLESTYLE
  2
AcDbTableStyle
  3
ObjectDBX Classes
 90
     4095
 91
        4
280
     0
281
     0
  0
CLASS
  1
SORTENTSTABLE
  2
AcDbSortentsTable
  3
ObjectDBX Classes
 90
        0
 91
        4
280
     0
281
     0
  0
CLASS
  1
MATERIAL
  2
AcDbMaterial
  3
ObjectDBX Classes
 90
     1153
 91
        4
280
     0
281
     0
  0
CLASS
  1
VISUALSTYLE
  2
AcDbVisualStyle
  3
ObjectDBX Classes
 90
     4095
 91
        4
280
     0
281
     0
  0
CLASS
  1
SCALE
  2
AcDbScale
  3
ObjectDBX Classes
 90
     1153
 91
        4
280
     0
281
     0
  0
CLASS
  1
MLEADERSTYLE
  2
AcDbMLeaderStyle
  3
ACDB_MLEADERSTYLE_CLASS
 90
     4095
 91
        4
280
     0
281
     0
  0
CLASS
  1
ACDBSECTIONVIEWSTYLE
  2
AcDbSectionViewStyle
  3
ObjectDBX Classes
 90
     1025
 91
        2
280
     1
281
     0
  0
CLASS
  1
ACDBDETAILVIEWSTYLE
  2
AcDbDetailViewStyle
  3
ObjectDBX Classes
 90
     1025
 91
        2
280
     1
281
     0
  0
CLASS
  1
CELLSTYLEMAP
  2
AcDbCellStyleMap
  3
ObjectDBX Classes
 90
     1152
 91
        4
280
     0
281
     0
  0
ENDSEC
  0
SECTION
  2
TABLES
  0
TABLE
  2
VPORT
  5
8
102
{ACAD_XDICTIONARY
360
82FE
102
}
330
0
100
AcDbSymbolTable
 70
     1
  0
VPORT
  5
7599
330
8
100
AcDbSymbolTableRecord
100
AcDbViewportTableRecord
  2
*Active
 70
     0
 10
0.0
 20
0.0
 11
1.0
 21
1.0
 12
3299.57253196966
 22
2664.881273520659
 13
0.0
 23
0.0
 14
15.0
 24
15.0
 15
150.0
 25
150.0
 16
0.0
 26
0.0
 36
1.0
 17
0.0
 27
0.0
 37
0.0
 40
6715.785207999113
 41
1.560747663551402
 42
50.0
 43
0.0
 44
0.0
 50
0.0
 51
0.0
 71
     0
 72
   100
 73
     1
 74
     1
 75
     0
 76
     0
 77
     0
 78
     0
281
     0
 65
     1
110
0.0
120
0.0
130
0.0
111
1.0
121
0.0
131
0.0
112
0.0
122
1.0
132
0.0
 79
     0
146
0.0
1001
ACAD_NAV_VCDISPLAY
1070
     3
  0
ENDTAB
  0
TABLE
  2
LTYPE
  5
5
330
0
100
AcDbSymbolTable
 70
     5
  0
LTYPE
  5
11
330
5
100
AcDbSymbolTableRecord
100
AcDbLinetypeTableRecord
  2
BYBLOCK
 70
     0
  3

 72
    65
 73
     0
 40
0.0
  0
LTYPE
  5
12
330
5
100
AcDbSymbolTableRecord
100
AcDbLinetypeTableRecord
  2
BYLAYER
 70
     0
  3

 72
    65
 73
     0
 40
0.0
  0
LTYPE
  5
13
330
5
100
AcDbSymbolTableRecord
100
AcDbLinetypeTableRecord
  2
CONTINUOUS
 70
     0
  3
Solid line
 72
    65
 73
     0
 40
0.0
  0
LTYPE
  5
1E
330
5
100
AcDbSymbolTableRecord
100
AcDbLinetypeTableRecord
  2
HIDDEN
 70
     0
  3
_ _ _ _ _ _ _ _ _ _ _ _ _ _ _ _ _ _ _ _ _ _ _
 72
    65
 73
     2
 40
0.375
 49
0.25
 74
     0
 49
-0.125
 74
     0
  0
LTYPE
  5
1F
330
5
100
AcDbSymbolTableRecord
100
AcDbLinetypeTableRecord
  2
CENTER
 70
     0
  3
____ _ ____ _ ____ _ ____ _ ____ _ ____ _ ____
 72
    65
 73
     4
 40
2.0
 49
1.25
 74
     0
 49
-0.25
 74
     0
 49
0.25
 74
     0
 49
-0.25
 74
     0
  0
LTYPE
  5
20
330
5
100
AcDbSymbolTableRecord
100
AcDbLinetypeTableRecord
  2
PHANTOM
 70
     0
  3
_____ _ _ _____ _ _ _____ _ _ _____ _ _ ____
 72
    65
 73
     6
 40
2.5
 49
1.25
 74
     0
 49
-0.25
 74
     0
 49
0.25
 74
     0
 49
-0.25
 74
     0
 49
0.25
 74
     0
 49
-0.25
 74
     0
  0
LTYPE
  5
1FF6
330
5
100
AcDbSymbolTableRecord
100
AcDbLinetypeTableRecord
  2
DASHED
 70
     0
  3
Dashed __ __ __ __ __ __ __ __ __ __ __ __ __ _
 72
    65
 73
     2
 40
0.75
 49
0.5
 74
     0
 49
-0.25
 74
     0
  0
ENDTAB
  0
TABLE
  2
LAYER
  5
2
102
{ACAD_XDICTIONARY
360
764C
102
}
330
0
100
AcDbSymbolTable
 70
    10
  0
LAYER
  5
E
102
{ACAD_XDICTIONARY
360
75FB
102
}
330
2
100
AcDbSymbolTableRecord
100
AcDbLayerTableRecord
  2
0
 70
     0
 62
     7
  6
CONTINUOUS
370
    -3
390
67
  0
LAYER
  5
23
102
{ACAD_XDICTIONARY
360
75FD
102
}
330
2
100
AcDbSymbolTableRecord
100
AcDbLayerTableRecord
  2
SUNPOU
 70
     0
 62
     1
  6
CONTINUOUS
370
    -3
390
67
  0
LAYER
  5
24
102
{ACAD_XDICTIONARY
360
75FF
102
}
330
2
100
AcDbSymbolTableRecord
100
AcDbLayerTableRecord
  2
HAIKIN
 70
     0
 62
     2
  6
CONTINUOUS
370
    -3
390
67
  0
LAYER
  5
25
102
{ACAD_XDICTIONARY
360
7601
102
}
330
2
100
AcDbSymbolTableRecord
100
AcDbLayerTableRecord
  2
SEIHIN
 70
     0
 62
     3
  6
CONTINUOUS
370
    -3
390
67
  0
LAYER
  5
26
102
{ACAD_XDICTIONARY
360
7603
102
}
330
2
100
AcDbSymbolTableRecord
100
AcDbLayerTableRecord
  2
HASEN
 70
     0
 62
     4
  6
HIDDEN
370
    -3
390
67
  0
LAYER
  5
27
102
{ACAD_XDICTIONARY
360
7605
102
}
330
2
100
AcDbSymbolTableRecord
100
AcDbLayerTableRecord
  2
1HASEN
 70
     0
 62
     5
  6
CENTER
370
    -3
390
67
  0
LAYER
  5
28
102
{ACAD_XDICTIONARY
360
7607
102
}
330
2
100
AcDbSymbolTableRecord
100
AcDbLayerTableRecord
  2
2HASEN
 70
     0
 62
     6
  6
PHANTOM
370
    -3
390
67
  0
LAYER
  5
29
102
{ACAD_XDICTIONARY
360
7609
102
}
330
2
100
AcDbSymbolTableRecord
100
AcDbLayerTableRecord
  2
HOJO
 70
     0
 62
     7
  6
CONTINUOUS
370
    -3
390
67
  0
LAYER
  5
2A
102
{ACAD_XDICTIONARY
360
760B
102
}
330
2
100
AcDbSymbolTableRecord
100
AcDbLayerTableRecord
  2
TEN
 70
     0
 62
     7
  6
CONTINUOUS
370
    -3
390
67
  0
LAYER
  5
363
330
2
100
AcDbSymbolTableRecord
100
AcDbLayerTableRecord
  2
DEFPOINTS
 70
     0
 62
    -7
  6
CONTINUOUS
290
     0
370
    -3
390
67
  0
ENDTAB
  0
TABLE
  2
STYLE
  5
3
330
0
100
AcDbSymbolTable
 70
     2
  0
STYLE
  5
F
330
3
100
AcDbSymbolTableRecord
100
AcDbTextStyleTableRecord
  2
STANDARD
 70
     0
 40
0.0
 41
0.8
 50
0.0
 71
     0
 42
45.0
  3
TXT.shx
  4
BIGFONT.shx
  0
STYLE
  5
364
330
3
100
AcDbSymbolTableRecord
100
AcDbTextStyleTableRecord
  2
NIHONGO
 70
     0
 40
0.0
 41
1.0
 50
0.0
 71
     0
 42
30.0
  3
txt.shx
  4
BIGFONT
  0
ENDTAB
  0
TABLE
  2
VIEW
  5
6
330
0
100
AcDbSymbolTable
 70
     0
  0
ENDTAB
  0
TABLE
  2
UCS
  5
7
330
0
100
AcDbSymbolTable
 70
     0
  0
ENDTAB
  0
TABLE
  2
APPID
  5
9
330
0
100
AcDbSymbolTable
 70
     6
  0
APPID
  5
10
330
9
100
AcDbSymbolTableRecord
100
AcDbRegAppTableRecord
  2
ACAD
 70
     0
  0
APPID
  5
65B7
330
9
100
AcDbSymbolTableRecord
100
AcDbRegAppTableRecord
  2
DCO15
 70
     0
  0
APPID
  5
7218
330
9
100
AcDbSymbolTableRecord
100
AcDbRegAppTableRecord
  2
ACAD_PSEXT
 70
     0
  0
APPID
  5
75ED
330
9
100
AcDbSymbolTableRecord
100
AcDbRegAppTableRecord
  2
ACAD_NAV_VCDISPLAY
 70
     0
  0
APPID
  5
7C49
330
9
100
AcDbSymbolTableRecord
100
AcDbRegAppTableRecord
  2
ACAD_EXEMPT_FROM_CAD_STANDARDS
 70
     0
  0
APPID
  5
833C
330
9
100
AcDbSymbolTableRecord
100
AcDbRegAppTableRecord
  2
ACAD_MLEADERVER
 70
     0
  0
ENDTAB
  0
TABLE
  2
DIMSTYLE
  5
A
330
0
100
AcDbSymbolTable
 70
     1
100
AcDbDimStyleTable
  0
DIMSTYLE
105
61
102
{ACAD_REACTORS
330
1062
330
106F
330
107C
330
1089
330
10AB
330
10D9
330
10F8
330
11B0
330
1208
330
123E
330
12A5
330
12DB
330
2011
330
2013
330
2012
330
27C0
330
27CD
330
27DA
330
27F3
330
2800
330
280D
330
35FD
330
360A
330
3620
330
6091
102
}
330
A
100
AcDbSymbolTableRecord
100
AcDbDimStyleTableRecord
  2
STANDARD
 70
     0
178
     0
340
F
  0
ENDTAB
  0
TABLE
  2
BLOCK_RECORD
  5
1
330
0
100
AcDbSymbolTable
 70
   222
  0
BLOCK_RECORD
  5
17
102
{ACAD_XDICTIONARY
360
95
102
}
330
1
100
AcDbSymbolTableRecord
100
AcDbBlockTableRecord
  2
*MODEL_SPACE
340
6A
  0
BLOCK_RECORD
  5
14
330
1
100
AcDbSymbolTableRecord
100
AcDbBlockTableRecord
  2
*PAPER_SPACE
340
6B
  0
BLOCK_RECORD
  5
1C
330
1
100
AcDbSymbolTableRecord
100
AcDbBlockTableRecord
  2
BORDER
340
0
  0
BLOCK_RECORD
  5
1D
330
1
100
AcDbSymbolTableRecord
100
AcDbBlockTableRecord
  2
SA3
340
0
102
{BLKREFS
331
60
102
}
  0
BLOCK_RECORD
  5
1063
330
1
100
AcDbSymbolTableRecord
100
AcDbBlockTableRecord
  2
*D2
340
0
  0
BLOCK_RECORD
  5
1070
330
1
100
AcDbSymbolTableRecord
100
AcDbBlockTableRecord
  2
*D3
340
0
  0
BLOCK_RECORD
  5
107D
330
1
100
AcDbSymbolTableRecord
100
AcDbBlockTableRecord
  2
*D4
340
0
  0
BLOCK_RECORD
  5
108A
330
1
100
AcDbSymbolTableRecord
100
AcDbBlockTableRecord
  2
*D5
340
0
  0
BLOCK_RECORD
  5
10B9
330
1
100
AcDbSymbolTableRecord
100
AcDbBlockTableRecord
  2
*D6
340
0
  0
BLOCK_RECORD
  5
10DA
330
1
100
AcDbSymbolTableRecord
100
AcDbBlockTableRecord
  2
*D7
340
0
  0
BLOCK_RECORD
  5
10F9
330
1
100
AcDbSymbolTableRecord
100
AcDbBlockTableRecord
  2
*D8
340
0
  0
BLOCK_RECORD
  5
11D8
330
1
100
AcDbSymbolTableRecord
100
AcDbBlockTableRecord
  2
*D9
340
0
  0
BLOCK_RECORD
  5
1209
330
1
100
AcDbSymbolTableRecord
100
AcDbBlockTableRecord
  2
*D10
340
0
  0
BLOCK_RECORD
  5
123F
330
1
100
AcDbSymbolTableRecord
100
AcDbBlockTableRecord
  2
*D11
340
0
  0
BLOCK_RECORD
  5
12A6
330
1
100
AcDbSymbolTableRecord
100
AcDbBlockTableRecord
  2
*D12
340
0
  0
BLOCK_RECORD
  5
12DC
330
1
100
AcDbSymbolTableRecord
100
AcDbBlockTableRecord
  2
*D13
340
0
  0
BLOCK_RECORD
  5
2014
330
1
100
AcDbSymbolTableRecord
100
AcDbBlockTableRecord
  2
*D37
340
0
  0
BLOCK_RECORD
  5
2020
330
1
100
AcDbSymbolTableRecord
100
AcDbBlockTableRecord
  2
*D38
340
0
  0
BLOCK_RECORD
  5
202C
330
1
100
AcDbSymbolTableRecord
100
AcDbBlockTableRecord
  2
*D39
340
0
  0
BLOCK_RECORD
  5
27C1
330
1
100
AcDbSymbolTableRecord
100
AcDbBlockTableRecord
  2
*D48
340
0
  0
BLOCK_RECORD
  5
27CE
330
1
100
AcDbSymbolTableRecord
100
AcDbBlockTableRecord
  2
*D49
340
0
  0
BLOCK_RECORD
  5
27DB
330
1
100
AcDbSymbolTableRecord
100
AcDbBlockTableRecord
  2
*D50
340
0
  0
BLOCK_RECORD
  5
27F4
330
1
100
AcDbSymbolTableRecord
100
AcDbBlockTableRecord
  2
*D51
340
0
  0
BLOCK_RECORD
  5
2801
330
1
100
AcDbSymbolTableRecord
100
AcDbBlockTableRecord
  2
*D52
340
0
  0
BLOCK_RECORD
  5
280E
330
1
100
AcDbSymbolTableRecord
100
AcDbBlockTableRecord
  2
*D53
340
0
  0
BLOCK_RECORD
  5
35FE
330
1
100
AcDbSymbolTableRecord
100
AcDbBlockTableRecord
  2
*D54
340
0
  0
BLOCK_RECORD
  5
360B
330
1
100
AcDbSymbolTableRecord
100
AcDbBlockTableRecord
  2
*D55
340
0
  0
BLOCK_RECORD
  5
3621
330
1
100
AcDbSymbolTableRecord
100
AcDbBlockTableRecord
  2
*D56
340
0
  0
BLOCK_RECORD
  5
6092
330
1
100
AcDbSymbolTableRecord
100
AcDbBlockTableRecord
  2
*D67
340
0
  0
ENDTAB
  0
ENDSEC
  0
SECTION
  2
BLOCKS
  0
BLOCK
  5
2D
330
17
100
AcDbEntity
  8
0
100
AcDbBlockBegin
  2
*MODEL_SPACE
 70
     0
 10
0.0
 20
0.0
 30
0.0
  3
*MODEL_SPACE
  1

  0
ENDBLK
  5
2E
330
17
100
AcDbEntity
  8
0
100
AcDbBlockEnd
  0
BLOCK
  5
2B
330
14
100
AcDbEntity
 67
     1
  8
0
100
AcDbBlockBegin
  2
*PAPER_SPACE
 70
     0
 10
0.0
 20
0.0
 30
0.0
  3
*PAPER_SPACE
  1

  0
ENDBLK
  5
2C
330
14
100
AcDbEntity
 67
     1
  8
0
100
AcDbBlockEnd
  0
BLOCK
  5
2F
330
1C
100
AcDbEntity
  8
0
100
AcDbBlockBegin
  2
BORDER
 70
     0
 10
0.0
 20
0.0
 30
0.0
  3
BORDER
  1

  0
LINE
  5
30
330
1C
100
AcDbEntity
  8
0
100
AcDbLine
 10
0.0
 20
0.0
 30
0.0
 11
1.00000000000004
 21
0.0
 31
0.0
  0
LINE
  5
31
330
1C
100
AcDbEntity
  8
0
100
AcDbLine
 10
1.00000000000004
 20
0.0
 30
0.0
 11
1.00000000000004
 21
1.00000000000004
 31
0.0
  0
LINE
  5
32
330
1C
100
AcDbEntity
  8
0
100
AcDbLine
 10
1.00000000000004
 20
1.00000000000004
 30
0.0
 11
0.0
 21
1.00000000000004
 31
0.0
  0
LINE
  5
33
330
1C
100
AcDbEntity
  8
0
100
AcDbLine
 10
0.0
 20
1.00000000000004
 30
0.0
 11
0.0
 21
0.0
 31
0.0
  0
ENDBLK
  5
34
330
1C
100
AcDbEntity
  8
0
100
AcDbBlockEnd
  0
BLOCK
  5
35
330
1D
100
AcDbEntity
  8
HAIKIN
100
AcDbBlockBegin
  2
SA3
 70
     0
 10
0.0
 20
0.0
 30
0.0
  3
SA3
  1

  0
TEXT
  5
36
330
1D
100
AcDbEntity
  8
SUNPOU
100
AcDbText
 10
340.0
 20
0.0
 30
0.0
 40
2.5
  1
新和コンクリート工業株式会社
100
AcDbText
  0
TEXT
  5
39
330
1D
100
AcDbEntity
  8
SUNPOU
100
AcDbText
 10
361.4166666666667
 20
6.25
 30
0.0
 40
2.5
  1
製図
 72
     4
 11
364.0
 21
7.5
 31
0.0
100
AcDbText
  0
TEXT
  5
3A
330
1D
100
AcDbEntity
  8
SUNPOU
100
AcDbText
 10
361.3333333333333
 20
11.25
 30
0.0
 40
2.5
  1
設計
 72
     4
 11
364.0
 21
12.5
 31
0.0
100
AcDbText
  0
TEXT
  5
3B
330
1D
100
AcDbEntity
  8
SUNPOU
100
AcDbText
 10
339.0833333333333
 20
6.250000000000014
 30
0.0
 40
2.5
  1
認
 72
     4
 11
340.25
 21
7.500000000000014
 31
0.0
100
AcDbText
  0
TEXT
  5
3C
330
1D
100
AcDbEntity
  8
SUNPOU
100
AcDbText
 10
339.0833333333333
 20
11.33333333333336
 30
0.0
 40
2.5
  1
承
 72
     4
 11
340.25
 21
12.50000000000003
 31
0.0
100
AcDbText
  0
TEXT
  5
3D
330
1D
100
AcDbEntity
  8
SUNPOU
100
AcDbText
 10
312.75
 20
11.75000000000001
 30
0.0
 40
2.5
  1
図　面　番　号
 72
     4
 11
323.0
 21
13.00000000000001
 31
0.0
100
AcDbText
  0
TEXT
  5
3E
330
1D
100
AcDbEntity
  8
SUNPOU
100
AcDbText
 10
362.0
 20
17.0
 30
0.0
 40
2.5
  1
１／
100
AcDbText
  0
TEXT
  5
3F
330
1D
100
AcDbEntity
  8
SUNPOU
100
AcDbText
 10
347.3333333333333
 20
16.25000000000001
 30
0.0
 40
2.5
  1
縮　　尺
 72
     4
 11
353.0
 21
17.50000000000001
 31
0.0
100
AcDbText
  0
TEXT
  5
40
330
1D
100
AcDbEntity
  8
SUNPOU
100
AcDbText
 10
347.3333333333333
 20
21.25
 30
0.0
 40
2.5
  1
鉄 筋 量
 72
     4
 11
353.0
 21
22.5
 31
0.0
100
AcDbText
  0
TEXT
  5
41
330
1D
100
AcDbEntity
  8
SUNPOU
100
AcDbText
 10
347.3333333333333
 20
26.25
 30
0.0
 40
2.5
  1
製 造 数
 72
     4
 11
353.0
 21
27.5
 31
0.0
100
AcDbText
  0
TEXT
  5
42
330
1D
100
AcDbEntity
  8
SUNPOU
100
AcDbText
 10
377.0
 20
21.0
 30
0.0
 40
2.5
  1
ｋｇ
 72
     2
 11
382.0
 21
21.0
 31
0.0
100
AcDbText
  0
TEXT
  5
43
330
1D
100
AcDbEntity
  8
SUNPOU
100
AcDbText
 10
339.5
 20
21.0
 30
0.0
 40
2.5
  1
ｋｇ
 72
     2
 11
344.5
 21
21.0
 31
0.0
100
AcDbText
  0
TEXT
  5
44
330
1D
100
AcDbEntity
  8
SUNPOU
100
AcDbText
 10
310.0
 20
16.25000000000001
 30
0.0
 40
2.5
  1
年 月 日
 72
     4
 11
315.5
 21
17.50000000000001
 31
0.0
100
AcDbText
  0
TEXT
  5
45
330
1D
100
AcDbEntity
  8
SUNPOU
100
AcDbText
 10
309.8333333333333
 20
21.25
 30
0.0
 40
2.5
  1
製品質量
 72
     4
 11
315.5
 21
22.5
 31
0.0
100
AcDbText
  0
TEXT
  5
46
330
1D
100
AcDbEntity
  8
SUNPOU
100
AcDbText
 10
309.9166666666667
 20
26.25
 30
0.0
 40
2.5
  1
業 者 名
 72
     4
 11
315.5
 21
27.5
 31
0.0
100
AcDbText
  0
TEXT
  5
47
330
1D
100
AcDbEntity
  8
SUNPOU
100
AcDbText
 10
309.8333333333333
 20
32.5
 30
0.0
 40
2.5
  1
名　　称
 72
     4
 11
315.5
 21
33.75
 31
0.0
100
AcDbText
  0
LINE
  5
48
330
1D
100
AcDbEntity
  8
SUNPOU
100
AcDbLine
 10
338.0
 20
11.00000000000001
 30
0.0
 11
308.0
 21
11.00000000000001
 31
0.0
  0
LINE
  5
49
330
1D
100
AcDbEntity
  8
SUNPOU
100
AcDbLine
 10
367.5
 20
4.999999999999986
 30
0.0
 11
367.5
 21
14.99999999999999
 31
0.0
  0
LINE
  5
4A
330
1D
100
AcDbEntity
  8
SUNPOU
100
AcDbLine
 10
360.5
 20
4.999999999999986
 30
0.0
 11
360.5
 21
14.99999999999999
 31
0.0
  0
LINE
  5
4B
330
1D
100
AcDbEntity
  8
SUNPOU
100
AcDbLine
 10
342.5
 20
4.999999999999995
 30
0.0
 11
342.5
 21
15.0
 31
0.0
  0
LINE
  5
4C
330
1D
100
AcDbEntity
  8
SUNPOU
100
AcDbLine
 10
338.0
 20
4.999999999999995
 30
0.0
 11
338.0
 21
15.0
 31
0.0
  0
LINE
  5
4D
330
1D
100
AcDbEntity
  8
SUNPOU
100
AcDbLine
 10
323.0
 20
15.00000000000001
 30
0.0
 11
323.0
 21
37.5
 31
0.0
  0
LINE
  5
4E
330
1D
100
AcDbEntity
  8
SUNPOU
100
AcDbLine
 10
360.5
 20
15.00000000000001
 30
0.0
 11
360.5
 21
30.0
 31
0.0
  0
LINE
  5
4F
330
1D
100
AcDbEntity
  8
SUNPOU
100
AcDbLine
 10
345.5
 20
15.00000000000001
 30
0.0
 11
345.5
 21
30.0
 31
0.0
  0
LINE
  5
50
330
1D
100
AcDbEntity
  8
SUNPOU
100
AcDbLine
 10
383.0
 20
30.0
 30
0.0
 11
308.0
 21
30.0
 31
0.0
  0
LINE
  5
51
330
1D
100
AcDbEntity
  8
SUNPOU
100
AcDbLine
 10
383.0
 20
25.0
 30
0.0
 11
308.0
 21
25.0
 31
0.0
  0
LINE
  5
52
330
1D
100
AcDbEntity
  8
SUNPOU
100
AcDbLine
 10
383.0
 20
20.0
 30
0.0
 11
308.0
 21
20.0
 31
0.0
  0
LINE
  5
53
330
1D
100
AcDbEntity
  8
SUNPOU
100
AcDbLine
 10
383.0
 20
14.99999999999999
 30
0.0
 11
308.0
 21
15.00000000000004
 31
0.0
  0
LINE
  5
54
330
1D
100
AcDbEntity
  8
HAIKIN
100
AcDbLine
 10
308.0
 20
37.5
 30
0.0
 11
383.0
 21
37.5
 31
0.0
  0
LINE
  5
55
330
1D
100
AcDbEntity
  8
HAIKIN
100
AcDbLine
 10
308.0
 20
5.000000000000009
 30
0.0
 11
308.0
 21
37.5
 31
0.0
  0
LINE
  5
56
330
1D
100
AcDbEntity
  8
SUNPOU
100
AcDbLine
 10
0.000000000000016
 20
277.0
 30
0.0
 11
0.000000000000016
 21
272.0
 31
0.0
  0
LINE
  5
57
330
1D
100
AcDbEntity
  8
SUNPOU
100
AcDbLine
 10
25.00000000000001
 20
277.0
 30
0.0
 11
0.000000000000016
 21
277.0
 31
0.0
  0
LINE
  5
58
330
1D
100
AcDbEntity
  8
SUNPOU
100
AcDbLine
 10
25.00000000000001
 20
272.0
 30
0.0
 11
25.00000000000001
 21
277.0
 31
0.0
  0
LINE
  5
59
330
1D
100
AcDbEntity
  8
HAIKIN
100
AcDbLine
 10
0.0000000000000004
 20
5.0
 30
0.0
 11
383.0
 21
5.0
 31
0.0
  0
LINE
  5
5A
330
1D
100
AcDbEntity
  8
HAIKIN
100
AcDbLine
 10
0.0000000000000158
 20
272.0
 30
0.0
 11
383.0
 21
272.0
 31
0.0
  0
LINE
  5
5B
330
1D
100
AcDbEntity
  8
HAIKIN
100
AcDbLine
 10
383.0
 20
272.0
 30
0.0
 11
383.0
 21
5.0
 31
0.0
  0
TEXT
  5
5C
330
1D
100
AcDbEntity
  8
SUNPOU
100
AcDbText
 10
3.700000000000017
 20
273.0
 30
0.0
 40
3.0
  1
Ｈ－２－共
 72
     4
 11
12.50000000000002
 21
274.5
 31
0.0
100
AcDbText
  0
LINE
  5
5D
330
1D
100
AcDbEntity
  8
HAIKIN
100
AcDbLine
 10
0.0000000000000004
 20
5.0
 30
0.0
 11
0.0000000000000158
 21
272.0
 31
0.0
  0
ENDBLK
  5
5E
330
1D
100
AcDbEntity
  8
HAIKIN
100
AcDbBlockEnd
  0
BLOCK
  5
106D
330
1063
100
AcDbEntity
  8
0
100
AcDbBlockBegin
  2
*D2
 70
     1
 10
0.0
 20
0.0
 30
0.0
  3
*D2
  1

  0
LINE
  5
62FB
330
1063
100
AcDbEntity
  8
SUNPOU
 62
     0
440
 16777216
370
    -2
100
AcDbLine
 10
784.0060371024192
 20
3633.421980013623
 30
0.0
 11
784.0060371024192
 21
3849.249574708339
 31
0.0
  0
LINE
  5
62FC
330
1063
100
AcDbEntity
  8
SUNPOU
 62
     0
440
 16777216
370
    -2
100
AcDbLine
 10
3784.006037102419
 20
3633.421980013623
 30
0.0
 11
3784.006037102419
 21
3849.249574708339
 31
0.0
  0
LINE
  5
62FD
330
1063
100
AcDbEntity
  8
SUNPOU
 62
     0
440
 16777216
370
    -2
100
AcDbLine
 10
814.0060371024192
 20
3834.249574708339
 30
0.0
 11
3754.006037102419
 21
3834.249574708339
 31
0.0
  0
SOLID
  5
62FE
330
1063
100
AcDbEntity
  8
SUNPOU
 62
     0
440
 16777216
100
AcDbTrace
 10
814.0060371024192
 20
3839.249574708339
 30
0.0
 11
814.0060371024192
 21
3829.249574708339
 31
0.0
 12
784.0060371024192
 22
3834.249574708339
 32
0.0
 13
784.0060371024192
 23
3834.249574708339
 33
0.0
  0
SOLID
  5
62FF
330
1063
100
AcDbEntity
  8
SUNPOU
 62
     0
440
 16777216
100
AcDbTrace
 10
3754.006037102419
 20
3839.249574708339
 30
0.0
 11
3754.006037102419
 21
3829.249574708339
 31
0.0
 12
3784.006037102419
 22
3834.249574708339
 32
0.0
 13
3784.006037102419
 23
3834.249574708339
 33
0.0
  0
MTEXT
  5
6300
330
1063
100
AcDbEntity
  8
SUNPOU
 62
     0
440
 16777216
100
AcDbMText
 10
2284.006037102419
 20
3868.749574708339
 30
0.0
 40
45.0
 41
0.0
 71
     5
 72
     1
  1
\A1;3000
 73
     1
 44
1.0
  0
POINT
  5
6301
330
1063
100
AcDbEntity
  8
DEFPOINTS
 62
     0
440
 16777216
100
AcDbPoint
 10
784.0060371024192
 20
3603.421980013623
 30
0.0
  0
POINT
  5
6302
330
1063
100
AcDbEntity
  8
DEFPOINTS
 62
     0
440
 16777216
100
AcDbPoint
 10
3784.006037102419
 20
3603.421980013623
 30
0.0
  0
POINT
  5
6303
330
1063
100
AcDbEntity
  8
DEFPOINTS
 62
     0
440
 16777216
100
AcDbPoint
 10
3784.006037102419
 20
3834.249574708339
 30
0.0
  0
ENDBLK
  5
106E
330
1063
100
AcDbEntity
  8
0
100
AcDbBlockEnd
  0
BLOCK
  5
107A
330
1070
100
AcDbEntity
  8
0
100
AcDbBlockBegin
  2
*D3
 70
     1
 10
0.0
 20
0.0
 30
0.0
  3
*D3
  1

  0
LINE
  5
6304
330
1070
100
AcDbEntity
  8
SUNPOU
 62
     0
440
 16777216
370
    -2
100
AcDbLine
 10
854.0060371024192
 20
3503.421980013623
 30
0.0
 11
612.581231706281
 21
3503.421980013623
 31
0.0
  0
LINE
  5
6305
330
1070
100
AcDbEntity
  8
SUNPOU
 62
     0
440
 16777216
370
    -2
100
AcDbLine
 10
854.0060371024192
 20
3403.421980013623
 30
0.0
 11
612.581231706281
 21
3403.421980013623
 31
0.0
  0
LINE
  5
6306
330
1070
100
AcDbEntity
  8
SUNPOU
 62
     0
440
 16777216
370
    -2
100
AcDbLine
 10
627.581231706281
 20
3473.421980013623
 30
0.0
 11
627.581231706281
 21
3433.421980013623
 31
0.0
  0
SOLID
  5
6307
330
1070
100
AcDbEntity
  8
SUNPOU
 62
     0
440
 16777216
100
AcDbTrace
 10
622.581231706281
 20
3473.421980013623
 30
0.0
 11
632.581231706281
 21
3473.421980013623
 31
0.0
 12
627.581231706281
 22
3503.421980013623
 32
0.0
 13
627.581231706281
 23
3503.421980013623
 33
0.0
  0
SOLID
  5
6308
330
1070
100
AcDbEntity
  8
SUNPOU
 62
     0
440
 16777216
100
AcDbTrace
 10
622.581231706281
 20
3433.421980013623
 30
0.0
 11
632.581231706281
 21
3433.421980013623
 31
0.0
 12
627.581231706281
 22
3403.421980013623
 32
0.0
 13
627.581231706281
 23
3403.421980013623
 33
0.0
  0
MTEXT
  5
6309
330
1070
100
AcDbEntity
  8
SUNPOU
 62
     0
440
 16777216
100
AcDbMText
 10
593.0812317062804
 20
3453.421980013623
 30
0.0
 40
45.0
 41
0.0
 71
     5
 72
     1
  1
\A1;100
 11
6.123031769111886E-17
 21
1.0
 31
0.0
 73
     1
 44
1.0
  0
POINT
  5
630A
330
1070
100
AcDbEntity
  8
DEFPOINTS
 62
     0
440
 16777216
100
AcDbPoint
 10
884.0060371024192
 20
3503.421980013623
 30
0.0
  0
POINT
  5
630B
330
1070
100
AcDbEntity
  8
DEFPOINTS
 62
     0
440
 16777216
100
AcDbPoint
 10
884.0060371024192
 20
3403.421980013623
 30
0.0
  0
POINT
  5
630C
330
1070
100
AcDbEntity
  8
DEFPOINTS
 62
     0
440
 16777216
100
AcDbPoint
 10
627.581231706281
 20
3403.421980013623
 30
0.0
  0
ENDBLK
  5
107B
330
1070
100
AcDbEntity
  8
0
100
AcDbBlockEnd
  0
BLOCK
  5
1087
330
107D
100
AcDbEntity
  8
0
100
AcDbBlockBegin
  2
*D4
 70
     1
 10
0.0
 20
0.0
 30
0.0
  3
*D4
  1

  0
LINE
  5
630D
330
107D
100
AcDbEntity
  8
SUNPOU
 62
     0
440
 16777216
370
    -2
100
AcDbLine
 10
754.0060371024192
 20
3523.421980013623
 30
0.0
 11
612.581231706281
 21
3523.421980013623
 31
0.0
  0
LINE
  5
630E
330
107D
100
AcDbEntity
  8
SUNPOU
 62
     0
440
 16777216
370
    -2
100
AcDbLine
 10
754.0060371024192
 20
3603.421980013623
 30
0.0
 11
612.581231706281
 21
3603.421980013623
 31
0.0
  0
LINE
  5
630F
330
107D
100
AcDbEntity
  8
SUNPOU
 62
     0
440
 16777216
370
    -2
100
AcDbLine
 10
627.581231706281
 20
3493.421980013623
 30
0.0
 11
627.581231706281
 21
3463.421980013623
 31
0.0
  0
LINE
  5
6310
330
107D
100
AcDbEntity
  8
SUNPOU
 62
     0
440
 16777216
370
    -2
100
AcDbLine
 10
627.581231706281
 20
3633.421980013623
 30
0.0
 11
627.581231706281
 21
3663.421980013623
 31
0.0
  0
MTEXT
  5
6311
330
107D
100
AcDbEntity
  8
SUNPOU
 62
     0
440
 16777216
100
AcDbMText
 10
592.6779363391433
 20
3644.00739289915
 30
0.0
 40
45.0
 41
0.0
 71
     5
 72
     1
  1
\A1;80
 11
6.123031769111886E-17
 21
1.0
 31
0.0
 73
     1
 44
1.0
  0
SOLID
  5
6312
330
107D
100
AcDbEntity
  8
SUNPOU
 62
     0
440
 16777216
100
AcDbTrace
 10
622.581231706281
 20
3493.421980013623
 30
0.0
 11
632.581231706281
 21
3493.421980013623
 31
0.0
 12
627.581231706281
 22
3523.421980013623
 32
0.0
 13
627.581231706281
 23
3523.421980013623
 33
0.0
  0
SOLID
  5
6313
330
107D
100
AcDbEntity
  8
SUNPOU
 62
     0
440
 16777216
100
AcDbTrace
 10
622.581231706281
 20
3633.421980013623
 30
0.0
 11
632.581231706281
 21
3633.421980013623
 31
0.0
 12
627.581231706281
 22
3603.421980013623
 32
0.0
 13
627.581231706281
 23
3603.421980013623
 33
0.0
  0
POINT
  5
6314
330
107D
100
AcDbEntity
  8
DEFPOINTS
 62
     0
440
 16777216
100
AcDbPoint
 10
784.0060371024192
 20
3523.421980013623
 30
0.0
  0
POINT
  5
6315
330
107D
100
AcDbEntity
  8
DEFPOINTS
 62
     0
440
 16777216
100
AcDbPoint
 10
784.0060371024192
 20
3603.421980013623
 30
0.0
  0
POINT
  5
6316
330
107D
100
AcDbEntity
  8
DEFPOINTS
 62
     0
440
 16777216
100
AcDbPoint
 10
627.581231706281
 20
3603.421980013623
 30
0.0
  0
ENDBLK
  5
1088
330
107D
100
AcDbEntity
  8
0
100
AcDbBlockEnd
  0
BLOCK
  5
1095
330
108A
100
AcDbEntity
  8
0
100
AcDbBlockBegin
  2
*D5
 70
     1
 10
0.0
 20
0.0
 30
0.0
  3
*D5
  1

  0
LINE
  5
6317
330
108A
100
AcDbEntity
  8
SUNPOU
 62
     0
440
 16777216
370
    -2
100
AcDbLine
 10
854.0060371024192
 20
3503.421980013623
 30
0.0
 11
612.581231706281
 21
3503.421980013623
 31
0.0
  0
LINE
  5
6318
330
108A
100
AcDbEntity
  8
SUNPOU
 62
     0
440
 16777216
370
    -2
100
AcDbLine
 10
754.0060371024192
 20
3523.421980013623
 30
0.0
 11
612.581231706281
 21
3523.421980013623
 31
0.0
  0
LINE
  5
6319
330
108A
100
AcDbEntity
  8
SUNPOU
 62
     0
440
 16777216
370
    -2
100
AcDbLine
 10
627.581231706281
 20
3473.421980013623
 30
0.0
 11
627.581231706281
 21
3443.421980013623
 31
0.0
  0
LINE
  5
631A
330
108A
100
AcDbEntity
  8
SUNPOU
 62
     0
440
 16777216
370
    -2
100
AcDbLine
 10
627.581231706281
 20
3553.421980013623
 30
0.0
 11
627.581231706281
 21
3583.421980013623
 31
0.0
  0
MTEXT
  5
631B
330
108A
100
AcDbEntity
  8
SUNPOU
 62
     0
440
 16777216
100
AcDbMText
 10
591.5414435234015
 20
3552.384122109195
 30
0.0
 40
45.0
 41
0.0
 71
     5
 72
     1
  1
\A1;20
 11
6.123031769111886E-17
 21
1.0
 31
0.0
 73
     1
 44
1.0
  0
SOLID
  5
631C
330
108A
100
AcDbEntity
  8
SUNPOU
 62
     0
440
 16777216
100
AcDbTrace
 10
622.581231706281
 20
3473.421980013623
 30
0.0
 11
632.581231706281
 21
3473.421980013623
 31
0.0
 12
627.581231706281
 22
3503.421980013623
 32
0.0
 13
627.581231706281
 23
3503.421980013623
 33
0.0
  0
SOLID
  5
631D
330
108A
100
AcDbEntity
  8
SUNPOU
 62
     0
440
 16777216
100
AcDbTrace
 10
622.581231706281
 20
3553.421980013623
 30
0.0
 11
632.581231706281
 21
3553.421980013623
 31
0.0
 12
627.581231706281
 22
3523.421980013623
 32
0.0
 13
627.581231706281
 23
3523.421980013623
 33
0.0
  0
POINT
  5
631E
330
108A
100
AcDbEntity
  8
DEFPOINTS
 62
     0
440
 16777216
100
AcDbPoint
 10
884.0060371024192
 20
3503.421980013623
 30
0.0
  0
POINT
  5
631F
330
108A
100
AcDbEntity
  8
DEFPOINTS
 62
     0
440
 16777216
100
AcDbPoint
 10
784.0060371024192
 20
3523.421980013623
 30
0.0
  0
POINT
  5
6320
330
108A
100
AcDbEntity
  8
DEFPOINTS
 62
     0
440
 16777216
100
AcDbPoint
 10
627.581231706281
 20
3523.421980013623
 30
0.0
  0
ENDBLK
  5
1096
330
108A
100
AcDbEntity
  8
0
100
AcDbBlockEnd
  0
BLOCK
  5
10C4
330
10B9
100
AcDbEntity
  8
0
100
AcDbBlockBegin
  2
*D6
 70
     1
 10
0.0
 20
0.0
 30
0.0
  3
*D6
  1

  0
LINE
  5
6321
330
10B9
100
AcDbEntity
  8
SUNPOU
 62
     0
440
 16777216
370
    -2
100
AcDbLine
 10
854.0060371024192
 20
3403.421980013623
 30
0.0
 11
612.581231706281
 21
3403.421980013623
 31
0.0
  0
LINE
  5
6322
330
10B9
100
AcDbEntity
  8
SUNPOU
 62
     0
440
 16777216
370
    -2
100
AcDbLine
 10
754.0060371024192
 20
3383.421980013623
 30
0.0
 11
612.581231706281
 21
3383.421980013623
 31
0.0
  0
LINE
  5
6323
330
10B9
100
AcDbEntity
  8
SUNPOU
 62
     0
440
 16777216
370
    -2
100
AcDbLine
 10
627.581231706281
 20
3433.421980013623
 30
0.0
 11
627.581231706281
 21
3463.421980013623
 31
0.0
  0
LINE
  5
6324
330
10B9
100
AcDbEntity
  8
SUNPOU
 62
     0
440
 16777216
370
    -2
100
AcDbLine
 10
627.581231706281
 20
3353.421980013623
 30
0.0
 11
627.5812317062808
 21
3323.421980013623
 31
0.0
  0
MTEXT
  5
6325
330
10B9
100
AcDbEntity
  8
SUNPOU
 62
     0
440
 16777216
100
AcDbMText
 10
591.5414435234015
 20
3365.599359896898
 30
0.0
 40
45.0
 41
0.0
 71
     5
 72
     1
  1
\A1;20
 11
6.123031769111886E-17
 21
1.0
 31
0.0
 73
     1
 44
1.0
  0
SOLID
  5
6326
330
10B9
100
AcDbEntity
  8
SUNPOU
 62
     0
440
 16777216
100
AcDbTrace
 10
622.581231706281
 20
3433.421980013623
 30
0.0
 11
632.581231706281
 21
3433.421980013623
 31
0.0
 12
627.581231706281
 22
3403.421980013623
 32
0.0
 13
627.581231706281
 23
3403.421980013623
 33
0.0
  0
SOLID
  5
6327
330
10B9
100
AcDbEntity
  8
SUNPOU
 62
     0
440
 16777216
100
AcDbTrace
 10
622.581231706281
 20
3353.421980013623
 30
0.0
 11
632.581231706281
 21
3353.421980013623
 31
0.0
 12
627.581231706281
 22
3383.421980013623
 32
0.0
 13
627.581231706281
 23
3383.421980013623
 33
0.0
  0
POINT
  5
6328
330
10B9
100
AcDbEntity
  8
DEFPOINTS
 62
     0
440
 16777216
100
AcDbPoint
 10
884.0060371024192
 20
3403.421980013623
 30
0.0
  0
POINT
  5
6329
330
10B9
100
AcDbEntity
  8
DEFPOINTS
 62
     0
440
 16777216
100
AcDbPoint
 10
784.0060371024192
 20
3383.421980013623
 30
0.0
  0
POINT
  5
632A
330
10B9
100
AcDbEntity
  8
DEFPOINTS
 62
     0
440
 16777216
100
AcDbPoint
 10
627.581231706281
 20
3383.421980013623
 30
0.0
  0
ENDBLK
  5
10C5
330
10B9
100
AcDbEntity
  8
0
100
AcDbBlockEnd
  0
BLOCK
  5
10E4
330
10DA
100
AcDbEntity
  8
0
100
AcDbBlockBegin
  2
*D7
 70
     1
 10
0.0
 20
0.0
 30
0.0
  3
*D7
  1

  0
LINE
  5
632B
330
10DA
100
AcDbEntity
  8
SUNPOU
 62
     0
440
 16777216
370
    -2
100
AcDbLine
 10
754.0060371024192
 20
3303.421980013623
 30
0.0
 11
512.7590913448838
 21
3303.421980013623
 31
0.0
  0
LINE
  5
632C
330
10DA
100
AcDbEntity
  8
SUNPOU
 62
     0
440
 16777216
370
    -2
100
AcDbLine
 10
754.0060371024192
 20
3603.421980013623
 30
0.0
 11
512.7590913448839
 21
3603.421980013623
 31
0.0
  0
LINE
  5
632D
330
10DA
100
AcDbEntity
  8
SUNPOU
 62
     0
440
 16777216
370
    -2
100
AcDbLine
 10
527.7590913448839
 20
3333.421980013623
 30
0.0
 11
527.7590913448839
 21
3573.421980013623
 31
0.0
  0
SOLID
  5
632E
330
10DA
100
AcDbEntity
  8
SUNPOU
 62
     0
440
 16777216
100
AcDbTrace
 10
522.7590913448839
 20
3333.421980013623
 30
0.0
 11
532.7590913448839
 21
3333.421980013623
 31
0.0
 12
527.7590913448838
 22
3303.421980013623
 32
0.0
 13
527.7590913448838
 23
3303.421980013623
 33
0.0
  0
SOLID
  5
632F
330
10DA
100
AcDbEntity
  8
SUNPOU
 62
     0
440
 16777216
100
AcDbTrace
 10
522.7590913448839
 20
3573.421980013623
 30
0.0
 11
532.7590913448839
 21
3573.421980013623
 31
0.0
 12
527.7590913448839
 22
3603.421980013623
 32
0.0
 13
527.7590913448839
 23
3603.421980013623
 33
0.0
  0
MTEXT
  5
6330
330
10DA
100
AcDbEntity
  8
SUNPOU
 62
     0
440
 16777216
100
AcDbMText
 10
493.2590913448834
 20
3453.421980013623
 30
0.0
 40
45.0
 41
0.0
 71
     5
 72
     1
  1
\A1;300
 11
6.123031769111886E-17
 21
1.0
 31
0.0
 73
     1
 44
1.0
  0
POINT
  5
6331
330
10DA
100
AcDbEntity
  8
DEFPOINTS
 62
     0
440
 16777216
100
AcDbPoint
 10
784.0060371024192
 20
3303.421980013623
 30
0.0
  0
POINT
  5
6332
330
10DA
100
AcDbEntity
  8
DEFPOINTS
 62
     0
440
 16777216
100
AcDbPoint
 10
784.0060371024192
 20
3603.421980013623
 30
0.0
  0
POINT
  5
6333
330
10DA
100
AcDbEntity
  8
DEFPOINTS
 62
     0
440
 16777216
100
AcDbPoint
 10
527.7590913448839
 20
3603.421980013623
 30
0.0
  0
ENDBLK
  5
10E5
330
10DA
100
AcDbEntity
  8
0
100
AcDbBlockEnd
  0
BLOCK
  5
1103
330
10F9
100
AcDbEntity
  8
0
100
AcDbBlockBegin
  2
*D8
 70
     1
 10
0.0
 20
0.0
 30
0.0
  3
*D8
  1

  0
LINE
  5
6334
330
10F9
100
AcDbEntity
  8
SUNPOU
 62
     0
440
 16777216
370
    -2
100
AcDbLine
 10
754.0060371024192
 20
3383.421980013623
 30
0.0
 11
612.5812317062811
 21
3383.421980013623
 31
0.0
  0
LINE
  5
6335
330
10F9
100
AcDbEntity
  8
SUNPOU
 62
     0
440
 16777216
370
    -2
100
AcDbLine
 10
754.0060371024192
 20
3303.421980013623
 30
0.0
 11
612.581231706281
 21
3303.421980013623
 31
0.0
  0
LINE
  5
6336
330
10F9
100
AcDbEntity
  8
SUNPOU
 62
     0
440
 16777216
370
    -2
100
AcDbLine
 10
627.5812317062811
 20
3413.421980013623
 30
0.0
 11
627.5812317062811
 21
3443.421980013623
 31
0.0
  0
LINE
  5
6337
330
10F9
100
AcDbEntity
  8
SUNPOU
 62
     0
440
 16777216
370
    -2
100
AcDbLine
 10
627.581231706281
 20
3273.421980013623
 30
0.0
 11
627.581231706281
 21
3243.421980013623
 31
0.0
  0
MTEXT
  5
6338
330
10F9
100
AcDbEntity
  8
SUNPOU
 62
     0
440
 16777216
100
AcDbMText
 10
592.6779363391433
 20
3262.836567128094
 30
0.0
 40
45.0
 41
0.0
 71
     5
 72
     1
  1
\A1;80
 11
6.123031769111886E-17
 21
1.0
 31
0.0
 73
     1
 44
1.0
  0
SOLID
  5
6339
330
10F9
100
AcDbEntity
  8
SUNPOU
 62
     0
440
 16777216
100
AcDbTrace
 10
622.5812317062811
 20
3413.421980013623
 30
0.0
 11
632.5812317062811
 21
3413.421980013623
 31
0.0
 12
627.5812317062811
 22
3383.421980013623
 32
0.0
 13
627.5812317062811
 23
3383.421980013623
 33
0.0
  0
SOLID
  5
633A
330
10F9
100
AcDbEntity
  8
SUNPOU
 62
     0
440
 16777216
100
AcDbTrace
 10
622.581231706281
 20
3273.421980013623
 30
0.0
 11
632.581231706281
 21
3273.421980013623
 31
0.0
 12
627.581231706281
 22
3303.421980013623
 32
0.0
 13
627.581231706281
 23
3303.421980013623
 33
0.0
  0
POINT
  5
633B
330
10F9
100
AcDbEntity
  8
DEFPOINTS
 62
     0
440
 16777216
100
AcDbPoint
 10
784.0060371024192
 20
3383.421980013623
 30
0.0
  0
POINT
  5
633C
330
10F9
100
AcDbEntity
  8
DEFPOINTS
 62
     0
440
 16777216
100
AcDbPoint
 10
784.0060371024192
 20
3303.421980013623
 30
0.0
  0
POINT
  5
633D
330
10F9
100
AcDbEntity
  8
DEFPOINTS
 62
     0
440
 16777216
100
AcDbPoint
 10
627.581231706281
 20
3303.421980013623
 30
0.0
  0
ENDBLK
  5
1104
330
10F9
100
AcDbEntity
  8
0
100
AcDbBlockEnd
  0
BLOCK
  5
11E2
330
11D8
100
AcDbEntity
  8
0
100
AcDbBlockBegin
  2
*D9
 70
     1
 10
0.0
 20
0.0
 30
0.0
  3
*D9
  1

  0
LINE
  5
633E
330
11D8
100
AcDbEntity
  8
SUNPOU
 62
     0
440
 16777216
370
    -2
100
AcDbLine
 10
784.0060371024192
 20
2013.632072876459
 30
0.0
 11
784.0060371024192
 21
2347.977300175009
 31
0.0
  0
LINE
  5
633F
330
11D8
100
AcDbEntity
  8
SUNPOU
 62
     0
440
 16777216
370
    -2
100
AcDbLine
 10
3784.006037102419
 20
2013.632072876459
 30
0.0
 11
3784.006037102419
 21
2347.977300175009
 31
0.0
  0
LINE
  5
6340
330
11D8
100
AcDbEntity
  8
SUNPOU
 62
     0
440
 16777216
370
    -2
100
AcDbLine
 10
814.0060371024192
 20
2332.977300175009
 30
0.0
 11
3754.006037102419
 21
2332.977300175009
 31
0.0
  0
SOLID
  5
6341
330
11D8
100
AcDbEntity
  8
SUNPOU
 62
     0
440
 16777216
100
AcDbTrace
 10
814.0060371024192
 20
2337.977300175009
 30
0.0
 11
814.0060371024192
 21
2327.977300175009
 31
0.0
 12
784.0060371024192
 22
2332.977300175009
 32
0.0
 13
784.0060371024192
 23
2332.977300175009
 33
0.0
  0
SOLID
  5
6342
330
11D8
100
AcDbEntity
  8
SUNPOU
 62
     0
440
 16777216
100
AcDbTrace
 10
3754.006037102419
 20
2337.977300175009
 30
0.0
 11
3754.006037102419
 21
2327.977300175009
 31
0.0
 12
3784.006037102419
 22
2332.977300175009
 32
0.0
 13
3784.006037102419
 23
2332.977300175009
 33
0.0
  0
MTEXT
  5
6343
330
11D8
100
AcDbEntity
  8
SUNPOU
 62
     0
440
 16777216
100
AcDbMText
 10
2284.006037102419
 20
2367.477300175009
 30
0.0
 40
45.0
 41
0.0
 71
     5
 72
     1
  1
\A1;3000
 73
     1
 44
1.0
  0
POINT
  5
6344
330
11D8
100
AcDbEntity
  8
DEFPOINTS
 62
     0
440
 16777216
100
AcDbPoint
 10
784.0060371024192
 20
1983.632072876459
 30
0.0
  0
POINT
  5
6345
330
11D8
100
AcDbEntity
  8
DEFPOINTS
 62
     0
440
 16777216
100
AcDbPoint
 10
3784.006037102419
 20
1983.632072876459
 30
0.0
  0
POINT
  5
6346
330
11D8
100
AcDbEntity
  8
DEFPOINTS
 62
     0
440
 16777216
100
AcDbPoint
 10
3784.006037102419
 20
2332.977300175009
 30
0.0
  0
ENDBLK
  5
11E3
330
11D8
100
AcDbEntity
  8
0
100
AcDbBlockEnd
  0
BLOCK
  5
1213
330
1209
100
AcDbEntity
  8
0
100
AcDbBlockBegin
  2
*D10
 70
     1
 10
0.0
 20
0.0
 30
0.0
  3
*D10
  1

  0
LINE
  5
6347
330
1209
100
AcDbEntity
  8
SUNPOU
 62
     0
440
 16777216
370
    -2
100
AcDbLine
 10
1314.006037102419
 20
1983.632072876459
 30
0.0
 11
1580.441083322279
 21
1983.632072876458
 31
0.0
  0
LINE
  5
6348
330
1209
100
AcDbEntity
  8
SUNPOU
 62
     0
440
 16777216
370
    -2
100
AcDbLine
 10
1414.006037102419
 20
1683.632072876459
 30
0.0
 11
1580.441083322279
 21
1683.632072876458
 31
0.0
  0
LINE
  5
6349
330
1209
100
AcDbEntity
  8
SUNPOU
 62
     0
440
 16777216
370
    -2
100
AcDbLine
 10
1565.441083322279
 20
1953.632072876458
 30
0.0
 11
1565.441083322279
 21
1713.632072876458
 31
0.0
  0
SOLID
  5
634A
330
1209
100
AcDbEntity
  8
SUNPOU
 62
     0
440
 16777216
100
AcDbTrace
 10
1560.441083322279
 20
1953.632072876458
 30
0.0
 11
1570.441083322279
 21
1953.632072876458
 31
0.0
 12
1565.441083322279
 22
1983.632072876458
 32
0.0
 13
1565.441083322279
 23
1983.632072876458
 33
0.0
  0
SOLID
  5
634B
330
1209
100
AcDbEntity
  8
SUNPOU
 62
     0
440
 16777216
100
AcDbTrace
 10
1560.441083322279
 20
1713.632072876458
 30
0.0
 11
1570.441083322279
 21
1713.632072876458
 31
0.0
 12
1565.441083322279
 22
1683.632072876458
 32
0.0
 13
1565.441083322279
 23
1683.632072876458
 33
0.0
  0
MTEXT
  5
634C
330
1209
100
AcDbEntity
  8
SUNPOU
 62
     0
440
 16777216
100
AcDbMText
 10
1530.941083322279
 20
1833.632072876459
 30
0.0
 40
45.0
 41
0.0
 71
     5
 72
     1
  1
\A1;300
 11
6.123031769111886E-17
 21
1.0
 31
0.0
 73
     1
 44
1.0
  0
POINT
  5
634D
330
1209
100
AcDbEntity
  8
DEFPOINTS
 62
     0
440
 16777216
100
AcDbPoint
 10
1284.006037102419
 20
1983.632072876459
 30
0.0
  0
POINT
  5
634E
330
1209
100
AcDbEntity
  8
DEFPOINTS
 62
     0
440
 16777216
100
AcDbPoint
 10
1384.006037102419
 20
1683.632072876459
 30
0.0
  0
POINT
  5
634F
330
1209
100
AcDbEntity
  8
DEFPOINTS
 62
     0
440
 16777216
100
AcDbPoint
 10
1565.441083322279
 20
1683.632072876458
 30
0.0
  0
ENDBLK
  5
1214
330
1209
100
AcDbEntity
  8
0
100
AcDbBlockEnd
  0
BLOCK
  5
1249
330
123F
100
AcDbEntity
  8
0
100
AcDbBlockBegin
  2
*D11
 70
     1
 10
0.0
 20
0.0
 30
0.0
  3
*D11
  1

  0
LINE
  5
6350
330
123F
100
AcDbEntity
  8
SUNPOU
 62
     0
440
 16777216
370
    -2
100
AcDbLine
 10
754.0060371024192
 20
983.6320728764587
 30
0.0
 11
408.712236571904
 21
983.6320728764587
 31
0.0
  0
LINE
  5
6351
330
123F
100
AcDbEntity
  8
SUNPOU
 62
     0
440
 16777216
370
    -2
100
AcDbLine
 10
754.0060371024192
 20
1983.632072876459
 30
0.0
 11
408.7122365719042
 21
1983.632072876459
 31
0.0
  0
LINE
  5
6352
330
123F
100
AcDbEntity
  8
SUNPOU
 62
     0
440
 16777216
370
    -2
100
AcDbLine
 10
423.712236571904
 20
1013.632072876459
 30
0.0
 11
423.7122365719042
 21
1953.632072876459
 31
0.0
  0
SOLID
  5
6353
330
123F
100
AcDbEntity
  8
SUNPOU
 62
     0
440
 16777216
100
AcDbTrace
 10
418.712236571904
 20
1013.632072876459
 30
0.0
 11
428.712236571904
 21
1013.632072876459
 31
0.0
 12
423.712236571904
 22
983.6320728764587
 32
0.0
 13
423.712236571904
 23
983.6320728764587
 33
0.0
  0
SOLID
  5
6354
330
123F
100
AcDbEntity
  8
SUNPOU
 62
     0
440
 16777216
100
AcDbTrace
 10
418.7122365719042
 20
1953.632072876459
 30
0.0
 11
428.7122365719042
 21
1953.632072876459
 31
0.0
 12
423.7122365719042
 22
1983.632072876459
 32
0.0
 13
423.7122365719042
 23
1983.632072876459
 33
0.0
  0
MTEXT
  5
6355
330
123F
100
AcDbEntity
  8
SUNPOU
 62
     0
440
 16777216
100
AcDbMText
 10
389.2122365719039
 20
1483.632072876459
 30
0.0
 40
45.0
 41
0.0
 71
     5
 72
     1
  1
\A1;1000
 11
6.123031769111886E-17
 21
1.0
 31
0.0
 73
     1
 44
1.0
  0
POINT
  5
6356
330
123F
100
AcDbEntity
  8
DEFPOINTS
 62
     0
440
 16777216
100
AcDbPoint
 10
784.0060371024192
 20
983.6320728764586
 30
0.0
  0
POINT
  5
6357
330
123F
100
AcDbEntity
  8
DEFPOINTS
 62
     0
440
 16777216
100
AcDbPoint
 10
784.0060371024192
 20
1983.632072876459
 30
0.0
  0
POINT
  5
6358
330
123F
100
AcDbEntity
  8
DEFPOINTS
 62
     0
440
 16777216
100
AcDbPoint
 10
423.7122365719042
 20
1983.632072876459
 30
0.0
  0
ENDBLK
  5
124A
330
123F
100
AcDbEntity
  8
0
100
AcDbBlockEnd
  0
BLOCK
  5
12B0
330
12A6
100
AcDbEntity
  8
0
100
AcDbBlockBegin
  2
*D12
 70
     1
 10
0.0
 20
0.0
 30
0.0
  3
*D12
  1

  0
LINE
  5
6359
330
12A6
100
AcDbEntity
  8
SUNPOU
 62
     0
440
 16777216
370
    -2
100
AcDbLine
 10
4516.081044831939
 20
2003.632072876459
 30
0.0
 11
4516.081044831939
 21
2347.217653592577
 31
0.0
  0
LINE
  5
635A
330
12A6
100
AcDbEntity
  8
SUNPOU
 62
     0
440
 16777216
370
    -2
100
AcDbLine
 10
4816.081044831939
 20
2003.632072876459
 30
0.0
 11
4816.081044831939
 21
2347.217653592577
 31
0.0
  0
LINE
  5
635B
330
12A6
100
AcDbEntity
  8
SUNPOU
 62
     0
440
 16777216
370
    -2
100
AcDbLine
 10
4546.081044831939
 20
2332.217653592577
 30
0.0
 11
4786.081044831939
 21
2332.217653592577
 31
0.0
  0
SOLID
  5
635C
330
12A6
100
AcDbEntity
  8
SUNPOU
 62
     0
440
 16777216
100
AcDbTrace
 10
4546.081044831939
 20
2337.217653592577
 30
0.0
 11
4546.081044831939
 21
2327.217653592577
 31
0.0
 12
4516.081044831939
 22
2332.217653592577
 32
0.0
 13
4516.081044831939
 23
2332.217653592577
 33
0.0
  0
SOLID
  5
635D
330
12A6
100
AcDbEntity
  8
SUNPOU
 62
     0
440
 16777216
100
AcDbTrace
 10
4786.081044831939
 20
2337.217653592577
 30
0.0
 11
4786.081044831939
 21
2327.217653592577
 31
0.0
 12
4816.081044831939
 22
2332.217653592577
 32
0.0
 13
4816.081044831939
 23
2332.217653592577
 33
0.0
  0
MTEXT
  5
635E
330
12A6
100
AcDbEntity
  8
SUNPOU
 62
     0
440
 16777216
100
AcDbMText
 10
4666.081044831939
 20
2366.717653592577
 30
0.0
 40
45.0
 41
0.0
 71
     5
 72
     1
  1
\A1;300
 73
     1
 44
1.0
  0
POINT
  5
635F
330
12A6
100
AcDbEntity
  8
DEFPOINTS
 62
     0
440
 16777216
100
AcDbPoint
 10
4516.081044831939
 20
1973.632072876459
 30
0.0
  0
POINT
  5
6360
330
12A6
100
AcDbEntity
  8
DEFPOINTS
 62
     0
440
 16777216
100
AcDbPoint
 10
4816.081044831939
 20
1973.632072876459
 30
0.0
  0
POINT
  5
6361
330
12A6
100
AcDbEntity
  8
DEFPOINTS
 62
     0
440
 16777216
100
AcDbPoint
 10
4816.081044831939
 20
2332.217653592577
 30
0.0
  0
ENDBLK
  5
12B1
330
12A6
100
AcDbEntity
  8
0
100
AcDbBlockEnd
  0
BLOCK
  5
12E6
330
12DC
100
AcDbEntity
  8
0
100
AcDbBlockBegin
  2
*D13
 70
     1
 10
0.0
 20
0.0
 30
0.0
  3
*D13
  1

  0
LINE
  5
6362
330
12DC
100
AcDbEntity
  8
SUNPOU
 62
     0
440
 16777216
370
    -2
100
AcDbLine
 10
4846.081044831939
 20
983.6320728764586
 30
0.0
 11
5246.495054076609
 21
983.6320728764584
 31
0.0
  0
LINE
  5
6363
330
12DC
100
AcDbEntity
  8
SUNPOU
 62
     0
440
 16777216
370
    -2
100
AcDbLine
 10
4836.081044831939
 20
1983.632072876459
 30
0.0
 11
5246.495054076609
 21
1983.632072876459
 31
0.0
  0
LINE
  5
6364
330
12DC
100
AcDbEntity
  8
SUNPOU
 62
     0
440
 16777216
370
    -2
100
AcDbLine
 10
5231.495054076609
 20
1013.632072876458
 30
0.0
 11
5231.495054076609
 21
1953.632072876459
 31
0.0
  0
SOLID
  5
6365
330
12DC
100
AcDbEntity
  8
SUNPOU
 62
     0
440
 16777216
100
AcDbTrace
 10
5226.495054076609
 20
1013.632072876458
 30
0.0
 11
5236.495054076609
 21
1013.632072876458
 31
0.0
 12
5231.495054076609
 22
983.6320728764584
 32
0.0
 13
5231.495054076609
 23
983.6320728764584
 33
0.0
  0
SOLID
  5
6366
330
12DC
100
AcDbEntity
  8
SUNPOU
 62
     0
440
 16777216
100
AcDbTrace
 10
5226.495054076609
 20
1953.632072876459
 30
0.0
 11
5236.495054076609
 21
1953.632072876459
 31
0.0
 12
5231.495054076609
 22
1983.632072876459
 32
0.0
 13
5231.495054076609
 23
1983.632072876459
 33
0.0
  0
MTEXT
  5
6367
330
12DC
100
AcDbEntity
  8
SUNPOU
 62
     0
440
 16777216
100
AcDbMText
 10
5196.995054076609
 20
1483.632072876459
 30
0.0
 40
45.0
 41
0.0
 71
     5
 72
     1
  1
\A1;1000
 11
6.123031769111886E-17
 21
1.0
 31
0.0
 73
     1
 44
1.0
  0
POINT
  5
6368
330
12DC
100
AcDbEntity
  8
DEFPOINTS
 62
     0
440
 16777216
100
AcDbPoint
 10
4816.081044831939
 20
983.6320728764586
 30
0.0
  0
POINT
  5
6369
330
12DC
100
AcDbEntity
  8
DEFPOINTS
 62
     0
440
 16777216
100
AcDbPoint
 10
4806.081044831939
 20
1983.632072876459
 30
0.0
  0
POINT
  5
636A
330
12DC
100
AcDbEntity
  8
DEFPOINTS
 62
     0
440
 16777216
100
AcDbPoint
 10
5231.495054076609
 20
1983.632072876459
 30
0.0
  0
ENDBLK
  5
12E7
330
12DC
100
AcDbEntity
  8
0
100
AcDbBlockEnd
  0
BLOCK
  5
201E
330
2014
100
AcDbEntity
  8
0
100
AcDbBlockBegin
  2
*D37
 70
     1
 10
0.0
 20
0.0
 30
0.0
  3
*D37
  1

  0
LINE
  5
6441
330
2014
100
AcDbEntity
  8
SUNPOU
 62
     0
440
 16777216
370
    -2
100
AcDbLine
 10
784.0060371024192
 20
3273.421980013623
 30
0.0
 11
784.0060371024192
 21
3018.21457717705
 31
0.0
  0
LINE
  5
6442
330
2014
100
AcDbEntity
  8
SUNPOU
 62
     0
440
 16777216
370
    -2
100
AcDbLine
 10
1284.006037102419
 20
3273.421980013623
 30
0.0
 11
1284.006037102419
 21
3018.21457717705
 31
0.0
  0
LINE
  5
6443
330
2014
100
AcDbEntity
  8
SUNPOU
 62
     0
440
 16777216
370
    -2
100
AcDbLine
 10
814.0060371024192
 20
3033.21457717705
 30
0.0
 11
1254.006037102419
 21
3033.21457717705
 31
0.0
  0
SOLID
  5
6444
330
2014
100
AcDbEntity
  8
SUNPOU
 62
     0
440
 16777216
100
AcDbTrace
 10
814.0060371024192
 20
3038.21457717705
 30
0.0
 11
814.0060371024192
 21
3028.21457717705
 31
0.0
 12
784.0060371024192
 22
3033.21457717705
 32
0.0
 13
784.0060371024192
 23
3033.21457717705
 33
0.0
  0
SOLID
  5
6445
330
2014
100
AcDbEntity
  8
SUNPOU
 62
     0
440
 16777216
100
AcDbTrace
 10
1254.006037102419
 20
3038.21457717705
 30
0.0
 11
1254.006037102419
 21
3028.21457717705
 31
0.0
 12
1284.006037102419
 22
3033.21457717705
 32
0.0
 13
1284.006037102419
 23
3033.21457717705
 33
0.0
  0
MTEXT
  5
6446
330
2014
100
AcDbEntity
  8
SUNPOU
 62
     0
440
 16777216
100
AcDbMText
 10
1034.006037102419
 20
3067.71457717705
 30
0.0
 40
45.0
 41
0.0
 71
     5
 72
     1
  1
\A1;500
 73
     1
 44
1.0
  0
POINT
  5
6447
330
2014
100
AcDbEntity
  8
DEFPOINTS
 62
     0
440
 16777216
100
AcDbPoint
 10
784.0060371024192
 20
3303.421980013623
 30
0.0
  0
POINT
  5
6448
330
2014
100
AcDbEntity
  8
DEFPOINTS
 62
     0
440
 16777216
100
AcDbPoint
 10
1284.006037102419
 20
3303.421980013623
 30
0.0
  0
POINT
  5
6449
330
2014
100
AcDbEntity
  8
DEFPOINTS
 62
     0
440
 16777216
100
AcDbPoint
 10
1284.006037102419
 20
3033.21457717705
 30
0.0
  0
ENDBLK
  5
201F
330
2014
100
AcDbEntity
  8
0
100
AcDbBlockEnd
  0
BLOCK
  5
202A
330
2020
100
AcDbEntity
  8
0
100
AcDbBlockBegin
  2
*D38
 70
     1
 10
0.0
 20
0.0
 30
0.0
  3
*D38
  1

  0
LINE
  5
6453
330
2020
100
AcDbEntity
  8
SUNPOU
 62
     0
440
 16777216
370
    -2
100
AcDbLine
 10
3784.006037102419
 20
3273.421980013623
 30
0.0
 11
3784.006037102419
 21
3018.21457717705
 31
0.0
  0
LINE
  5
6454
330
2020
100
AcDbEntity
  8
SUNPOU
 62
     0
440
 16777216
370
    -2
100
AcDbLine
 10
3284.006037102419
 20
3273.421980013623
 30
0.0
 11
3284.006037102419
 21
3018.21457717705
 31
0.0
  0
LINE
  5
6455
330
2020
100
AcDbEntity
  8
SUNPOU
 62
     0
440
 16777216
370
    -2
100
AcDbLine
 10
3754.006037102419
 20
3033.21457717705
 30
0.0
 11
3314.006037102419
 21
3033.21457717705
 31
0.0
  0
SOLID
  5
6456
330
2020
100
AcDbEntity
  8
SUNPOU
 62
     0
440
 16777216
100
AcDbTrace
 10
3754.006037102419
 20
3038.21457717705
 30
0.0
 11
3754.006037102419
 21
3028.21457717705
 31
0.0
 12
3784.006037102419
 22
3033.21457717705
 32
0.0
 13
3784.006037102419
 23
3033.21457717705
 33
0.0
  0
SOLID
  5
6457
330
2020
100
AcDbEntity
  8
SUNPOU
 62
     0
440
 16777216
100
AcDbTrace
 10
3314.006037102419
 20
3038.21457717705
 30
0.0
 11
3314.006037102419
 21
3028.21457717705
 31
0.0
 12
3284.006037102419
 22
3033.21457717705
 32
0.0
 13
3284.006037102419
 23
3033.21457717705
 33
0.0
  0
MTEXT
  5
6458
330
2020
100
AcDbEntity
  8
SUNPOU
 62
     0
440
 16777216
100
AcDbMText
 10
3534.006037102419
 20
3067.71457717705
 30
0.0
 40
45.0
 41
0.0
 71
     5
 72
     1
  1
\A1;500
 73
     1
 44
1.0
  0
POINT
  5
6459
330
2020
100
AcDbEntity
  8
DEFPOINTS
 62
     0
440
 16777216
100
AcDbPoint
 10
3784.006037102419
 20
3303.421980013623
 30
0.0
  0
POINT
  5
645A
330
2020
100
AcDbEntity
  8
DEFPOINTS
 62
     0
440
 16777216
100
AcDbPoint
 10
3284.006037102419
 20
3303.421980013623
 30
0.0
  0
POINT
  5
645B
330
2020
100
AcDbEntity
  8
DEFPOINTS
 62
     0
440
 16777216
100
AcDbPoint
 10
3284.006037102419
 20
3033.21457717705
 30
0.0
  0
ENDBLK
  5
202B
330
2020
100
AcDbEntity
  8
0
100
AcDbBlockEnd
  0
BLOCK
  5
2036
330
202C
100
AcDbEntity
  8
0
100
AcDbBlockBegin
  2
*D39
 70
     1
 10
0.0
 20
0.0
 30
0.0
  3
*D39
  1

  0
LINE
  5
644A
330
202C
100
AcDbEntity
  8
SUNPOU
 62
     0
440
 16777216
370
    -2
100
AcDbLine
 10
1284.006037102419
 20
3273.421980013623
 30
0.0
 11
1284.006037102419
 21
3018.21457717705
 31
0.0
  0
LINE
  5
644B
330
202C
100
AcDbEntity
  8
SUNPOU
 62
     0
440
 16777216
370
    -2
100
AcDbLine
 10
3284.006037102419
 20
3273.421980013623
 30
0.0
 11
3284.006037102419
 21
3018.21457717705
 31
0.0
  0
LINE
  5
644C
330
202C
100
AcDbEntity
  8
SUNPOU
 62
     0
440
 16777216
370
    -2
100
AcDbLine
 10
1314.006037102419
 20
3033.21457717705
 30
0.0
 11
3254.006037102419
 21
3033.21457717705
 31
0.0
  0
SOLID
  5
644D
330
202C
100
AcDbEntity
  8
SUNPOU
 62
     0
440
 16777216
100
AcDbTrace
 10
1314.006037102419
 20
3038.21457717705
 30
0.0
 11
1314.006037102419
 21
3028.21457717705
 31
0.0
 12
1284.006037102419
 22
3033.21457717705
 32
0.0
 13
1284.006037102419
 23
3033.21457717705
 33
0.0
  0
SOLID
  5
644E
330
202C
100
AcDbEntity
  8
SUNPOU
 62
     0
440
 16777216
100
AcDbTrace
 10
3254.006037102419
 20
3038.21457717705
 30
0.0
 11
3254.006037102419
 21
3028.21457717705
 31
0.0
 12
3284.006037102419
 22
3033.21457717705
 32
0.0
 13
3284.006037102419
 23
3033.21457717705
 33
0.0
  0
MTEXT
  5
644F
330
202C
100
AcDbEntity
  8
SUNPOU
 62
     0
440
 16777216
100
AcDbMText
 10
2284.006037102419
 20
3067.71457717705
 30
0.0
 40
45.0
 41
0.0
 71
     5
 72
     1
  1
\A1;2000
 73
     1
 44
1.0
  0
POINT
  5
6450
330
202C
100
AcDbEntity
  8
DEFPOINTS
 62
     0
440
 16777216
100
AcDbPoint
 10
1284.006037102419
 20
3303.421980013623
 30
0.0
  0
POINT
  5
6451
330
202C
100
AcDbEntity
  8
DEFPOINTS
 62
     0
440
 16777216
100
AcDbPoint
 10
3284.006037102419
 20
3303.421980013623
 30
0.0
  0
POINT
  5
6452
330
202C
100
AcDbEntity
  8
DEFPOINTS
 62
     0
440
 16777216
100
AcDbPoint
 10
3284.006037102419
 20
3033.21457717705
 30
0.0
  0
ENDBLK
  5
2037
330
202C
100
AcDbEntity
  8
0
100
AcDbBlockEnd
  0
BLOCK
  5
27CB
330
27C1
100
AcDbEntity
  8
0
100
AcDbBlockBegin
  2
*D48
 70
     1
 10
0.0
 20
0.0
 30
0.0
  3
*D48
  1

  0
LINE
  5
64B5
330
27C1
100
AcDbEntity
  8
SUNPOU
 62
     0
440
 16777216
370
    -2
100
AcDbLine
 10
654.0060371024192
 20
1833.632072876459
 30
0.0
 11
508.8266225482548
 21
1833.632072876459
 31
0.0
  0
LINE
  5
64B6
330
27C1
100
AcDbEntity
  8
SUNPOU
 62
     0
440
 16777216
370
    -2
100
AcDbLine
 10
754.0060371024192
 20
1983.632072876459
 30
0.0
 11
508.8266225482548
 21
1983.632072876459
 31
0.0
  0
LINE
  5
64B7
330
27C1
100
AcDbEntity
  8
SUNPOU
 62
     0
440
 16777216
370
    -2
100
AcDbLine
 10
523.8266225482548
 20
1863.632072876459
 30
0.0
 11
523.8266225482548
 21
1953.632072876459
 31
0.0
  0
SOLID
  5
64B8
330
27C1
100
AcDbEntity
  8
SUNPOU
 62
     0
440
 16777216
100
AcDbTrace
 10
518.8266225482548
 20
1863.632072876459
 30
0.0
 11
528.8266225482548
 21
1863.632072876459
 31
0.0
 12
523.8266225482548
 22
1833.632072876459
 32
0.0
 13
523.8266225482548
 23
1833.632072876459
 33
0.0
  0
SOLID
  5
64B9
330
27C1
100
AcDbEntity
  8
SUNPOU
 62
     0
440
 16777216
100
AcDbTrace
 10
518.8266225482548
 20
1953.632072876459
 30
0.0
 11
528.8266225482548
 21
1953.632072876459
 31
0.0
 12
523.8266225482548
 22
1983.632072876459
 32
0.0
 13
523.8266225482548
 23
1983.632072876459
 33
0.0
  0
MTEXT
  5
64BA
330
27C1
100
AcDbEntity
  8
SUNPOU
 62
     0
440
 16777216
100
AcDbMText
 10
489.3266225482545
 20
1908.632072876459
 30
0.0
 40
45.0
 41
0.0
 71
     5
 72
     1
  1
\A1;150
 11
6.123031769111886E-17
 21
1.0
 31
0.0
 73
     1
 44
1.0
  0
POINT
  5
64BB
330
27C1
100
AcDbEntity
  8
DEFPOINTS
 62
     0
440
 16777216
100
AcDbPoint
 10
684.0060371024192
 20
1833.632072876459
 30
0.0
  0
POINT
  5
64BC
330
27C1
100
AcDbEntity
  8
DEFPOINTS
 62
     0
440
 16777216
100
AcDbPoint
 10
784.0060371024192
 20
1983.632072876459
 30
0.0
  0
POINT
  5
64BD
330
27C1
100
AcDbEntity
  8
DEFPOINTS
 62
     0
440
 16777216
100
AcDbPoint
 10
523.8266225482548
 20
1983.632072876459
 30
0.0
  0
ENDBLK
  5
27CC
330
27C1
100
AcDbEntity
  8
0
100
AcDbBlockEnd
  0
BLOCK
  5
27D8
330
27CE
100
AcDbEntity
  8
0
100
AcDbBlockBegin
  2
*D49
 70
     1
 10
0.0
 20
0.0
 30
0.0
  3
*D49
  1

  0
LINE
  5
64BE
330
27CE
100
AcDbEntity
  8
SUNPOU
 62
     0
440
 16777216
370
    -2
100
AcDbLine
 10
654.0060371024192
 20
1833.632072876459
 30
0.0
 11
508.8266225482549
 21
1833.632072876459
 31
0.0
  0
LINE
  5
64BF
330
27CE
100
AcDbEntity
  8
SUNPOU
 62
     0
440
 16777216
370
    -2
100
AcDbLine
 10
654.0060371024192
 20
1633.632072876459
 30
0.0
 11
508.8266225482548
 21
1633.632072876459
 31
0.0
  0
LINE
  5
64C0
330
27CE
100
AcDbEntity
  8
SUNPOU
 62
     0
440
 16777216
370
    -2
100
AcDbLine
 10
523.8266225482549
 20
1803.632072876459
 30
0.0
 11
523.8266225482548
 21
1663.632072876459
 31
0.0
  0
SOLID
  5
64C1
330
27CE
100
AcDbEntity
  8
SUNPOU
 62
     0
440
 16777216
100
AcDbTrace
 10
518.8266225482549
 20
1803.632072876459
 30
0.0
 11
528.8266225482549
 21
1803.632072876459
 31
0.0
 12
523.8266225482549
 22
1833.632072876459
 32
0.0
 13
523.8266225482549
 23
1833.632072876459
 33
0.0
  0
SOLID
  5
64C2
330
27CE
100
AcDbEntity
  8
SUNPOU
 62
     0
440
 16777216
100
AcDbTrace
 10
518.8266225482548
 20
1663.632072876459
 30
0.0
 11
528.8266225482548
 21
1663.632072876459
 31
0.0
 12
523.8266225482548
 22
1633.632072876459
 32
0.0
 13
523.8266225482548
 23
1633.632072876459
 33
0.0
  0
MTEXT
  5
64C3
330
27CE
100
AcDbEntity
  8
SUNPOU
 62
     0
440
 16777216
100
AcDbMText
 10
489.3266225482546
 20
1733.632072876459
 30
0.0
 40
45.0
 41
0.0
 71
     5
 72
     1
  1
\A1;200
 11
6.123031769111886E-17
 21
1.0
 31
0.0
 73
     1
 44
1.0
  0
POINT
  5
64C4
330
27CE
100
AcDbEntity
  8
DEFPOINTS
 62
     0
440
 16777216
100
AcDbPoint
 10
684.0060371024192
 20
1833.632072876459
 30
0.0
  0
POINT
  5
64C5
330
27CE
100
AcDbEntity
  8
DEFPOINTS
 62
     0
440
 16777216
100
AcDbPoint
 10
684.0060371024192
 20
1633.632072876459
 30
0.0
  0
POINT
  5
64C6
330
27CE
100
AcDbEntity
  8
DEFPOINTS
 62
     0
440
 16777216
100
AcDbPoint
 10
523.8266225482548
 20
1633.632072876459
 30
0.0
  0
ENDBLK
  5
27D9
330
27CE
100
AcDbEntity
  8
0
100
AcDbBlockEnd
  0
BLOCK
  5
27E5
330
27DB
100
AcDbEntity
  8
0
100
AcDbBlockBegin
  2
*D50
 70
     1
 10
0.0
 20
0.0
 30
0.0
  3
*D50
  1

  0
LINE
  5
64C7
330
27DB
100
AcDbEntity
  8
SUNPOU
 62
     0
440
 16777216
370
    -2
100
AcDbLine
 10
654.0060371024192
 20
1633.632072876459
 30
0.0
 11
508.8266225482549
 21
1633.632072876459
 31
0.0
  0
LINE
  5
64C8
330
27DB
100
AcDbEntity
  8
SUNPOU
 62
     0
440
 16777216
370
    -2
100
AcDbLine
 10
754.0060371024192
 20
983.6320728764587
 30
0.0
 11
508.8266225482548
 21
983.6320728764587
 31
0.0
  0
LINE
  5
64C9
330
27DB
100
AcDbEntity
  8
SUNPOU
 62
     0
440
 16777216
370
    -2
100
AcDbLine
 10
523.8266225482549
 20
1603.632072876459
 30
0.0
 11
523.8266225482548
 21
1013.632072876459
 31
0.0
  0
SOLID
  5
64CA
330
27DB
100
AcDbEntity
  8
SUNPOU
 62
     0
440
 16777216
100
AcDbTrace
 10
518.8266225482549
 20
1603.632072876459
 30
0.0
 11
528.8266225482549
 21
1603.632072876459
 31
0.0
 12
523.8266225482549
 22
1633.632072876459
 32
0.0
 13
523.8266225482549
 23
1633.632072876459
 33
0.0
  0
SOLID
  5
64CB
330
27DB
100
AcDbEntity
  8
SUNPOU
 62
     0
440
 16777216
100
AcDbTrace
 10
518.8266225482548
 20
1013.632072876459
 30
0.0
 11
528.8266225482548
 21
1013.632072876459
 31
0.0
 12
523.8266225482548
 22
983.6320728764587
 32
0.0
 13
523.8266225482548
 23
983.6320728764587
 33
0.0
  0
MTEXT
  5
64CC
330
27DB
100
AcDbEntity
  8
SUNPOU
 62
     0
440
 16777216
100
AcDbMText
 10
489.3266225482546
 20
1308.632072876459
 30
0.0
 40
45.0
 41
0.0
 71
     5
 72
     1
  1
\A1;650
 11
6.123031769111886E-17
 21
1.0
 31
0.0
 73
     1
 44
1.0
  0
POINT
  5
64CD
330
27DB
100
AcDbEntity
  8
DEFPOINTS
 62
     0
440
 16777216
100
AcDbPoint
 10
684.0060371024192
 20
1633.632072876459
 30
0.0
  0
POINT
  5
64CE
330
27DB
100
AcDbEntity
  8
DEFPOINTS
 62
     0
440
 16777216
100
AcDbPoint
 10
784.0060371024192
 20
983.6320728764586
 30
0.0
  0
POINT
  5
64CF
330
27DB
100
AcDbEntity
  8
DEFPOINTS
 62
     0
440
 16777216
100
AcDbPoint
 10
523.8266225482548
 20
983.6320728764587
 30
0.0
  0
ENDBLK
  5
27E6
330
27DB
100
AcDbEntity
  8
0
100
AcDbBlockEnd
  0
BLOCK
  5
27FE
330
27F4
100
AcDbEntity
  8
0
100
AcDbBlockBegin
  2
*D51
 70
     1
 10
0.0
 20
0.0
 30
0.0
  3
*D51
  1

  0
LINE
  5
64D0
330
27F4
100
AcDbEntity
  8
SUNPOU
 62
     0
440
 16777216
370
    -2
100
AcDbLine
 10
4836.081044831939
 20
1983.632072876459
 30
0.0
 11
5138.543272539754
 21
1983.632072876459
 31
0.0
  0
LINE
  5
64D1
330
27F4
100
AcDbEntity
  8
SUNPOU
 62
     0
440
 16777216
370
    -2
100
AcDbLine
 10
4846.081044831939
 20
1833.632072876459
 30
0.0
 11
5138.543272539754
 21
1833.632072876459
 31
0.0
  0
LINE
  5
64D2
330
27F4
100
AcDbEntity
  8
SUNPOU
 62
     0
440
 16777216
370
    -2
100
AcDbLine
 10
5123.543272539754
 20
1953.632072876459
 30
0.0
 11
5123.543272539754
 21
1863.632072876459
 31
0.0
  0
SOLID
  5
64D3
330
27F4
100
AcDbEntity
  8
SUNPOU
 62
     0
440
 16777216
100
AcDbTrace
 10
5118.543272539754
 20
1953.632072876459
 30
0.0
 11
5128.543272539754
 21
1953.632072876459
 31
0.0
 12
5123.543272539754
 22
1983.632072876459
 32
0.0
 13
5123.543272539754
 23
1983.632072876459
 33
0.0
  0
SOLID
  5
64D4
330
27F4
100
AcDbEntity
  8
SUNPOU
 62
     0
440
 16777216
100
AcDbTrace
 10
5118.543272539754
 20
1863.632072876459
 30
0.0
 11
5128.543272539754
 21
1863.632072876459
 31
0.0
 12
5123.543272539754
 22
1833.632072876459
 32
0.0
 13
5123.543272539754
 23
1833.632072876459
 33
0.0
  0
MTEXT
  5
64D5
330
27F4
100
AcDbEntity
  8
SUNPOU
 62
     0
440
 16777216
100
AcDbMText
 10
5089.043272539754
 20
1908.632072876459
 30
0.0
 40
45.0
 41
0.0
 71
     5
 72
     1
  1
\A1;150
 11
6.123031769111886E-17
 21
1.0
 31
0.0
 73
     1
 44
1.0
  0
POINT
  5
64D6
330
27F4
100
AcDbEntity
  8
DEFPOINTS
 62
     0
440
 16777216
100
AcDbPoint
 10
4806.081044831939
 20
1983.632072876459
 30
0.0
  0
POINT
  5
64D7
330
27F4
100
AcDbEntity
  8
DEFPOINTS
 62
     0
440
 16777216
100
AcDbPoint
 10
4816.081044831939
 20
1833.632072876459
 30
0.0
  0
POINT
  5
64D8
330
27F4
100
AcDbEntity
  8
DEFPOINTS
 62
     0
440
 16777216
100
AcDbPoint
 10
5123.543272539754
 20
1833.632072876459
 30
0.0
  0
ENDBLK
  5
27FF
330
27F4
100
AcDbEntity
  8
0
100
AcDbBlockEnd
  0
BLOCK
  5
280B
330
2801
100
AcDbEntity
  8
0
100
AcDbBlockBegin
  2
*D52
 70
     1
 10
0.0
 20
0.0
 30
0.0
  3
*D52
  1

  0
LINE
  5
64D9
330
2801
100
AcDbEntity
  8
SUNPOU
 62
     0
440
 16777216
370
    -2
100
AcDbLine
 10
4846.081044831939
 20
1833.632072876459
 30
0.0
 11
5138.543272539754
 21
1833.632072876459
 31
0.0
  0
LINE
  5
64DA
330
2801
100
AcDbEntity
  8
SUNPOU
 62
     0
440
 16777216
370
    -2
100
AcDbLine
 10
4846.081044831939
 20
1633.632072876459
 30
0.0
 11
5138.543272539754
 21
1633.632072876459
 31
0.0
  0
LINE
  5
64DB
330
2801
100
AcDbEntity
  8
SUNPOU
 62
     0
440
 16777216
370
    -2
100
AcDbLine
 10
5123.543272539754
 20
1803.632072876459
 30
0.0
 11
5123.543272539754
 21
1663.632072876459
 31
0.0
  0
SOLID
  5
64DC
330
2801
100
AcDbEntity
  8
SUNPOU
 62
     0
440
 16777216
100
AcDbTrace
 10
5118.543272539754
 20
1803.632072876459
 30
0.0
 11
5128.543272539754
 21
1803.632072876459
 31
0.0
 12
5123.543272539754
 22
1833.632072876459
 32
0.0
 13
5123.543272539754
 23
1833.632072876459
 33
0.0
  0
SOLID
  5
64DD
330
2801
100
AcDbEntity
  8
SUNPOU
 62
     0
440
 16777216
100
AcDbTrace
 10
5118.543272539754
 20
1663.632072876459
 30
0.0
 11
5128.543272539754
 21
1663.632072876459
 31
0.0
 12
5123.543272539754
 22
1633.632072876459
 32
0.0
 13
5123.543272539754
 23
1633.632072876459
 33
0.0
  0
MTEXT
  5
64DE
330
2801
100
AcDbEntity
  8
SUNPOU
 62
     0
440
 16777216
100
AcDbMText
 10
5089.043272539754
 20
1733.632072876459
 30
0.0
 40
45.0
 41
0.0
 71
     5
 72
     1
  1
\A1;200
 11
6.123031769111886E-17
 21
1.0
 31
0.0
 73
     1
 44
1.0
  0
POINT
  5
64DF
330
2801
100
AcDbEntity
  8
DEFPOINTS
 62
     0
440
 16777216
100
AcDbPoint
 10
4816.081044831939
 20
1833.632072876459
 30
0.0
  0
POINT
  5
64E0
330
2801
100
AcDbEntity
  8
DEFPOINTS
 62
     0
440
 16777216
100
AcDbPoint
 10
4816.081044831939
 20
1633.632072876459
 30
0.0
  0
POINT
  5
64E1
330
2801
100
AcDbEntity
  8
DEFPOINTS
 62
     0
440
 16777216
100
AcDbPoint
 10
5123.543272539754
 20
1633.632072876459
 30
0.0
  0
ENDBLK
  5
280C
330
2801
100
AcDbEntity
  8
0
100
AcDbBlockEnd
  0
BLOCK
  5
2818
330
280E
100
AcDbEntity
  8
0
100
AcDbBlockBegin
  2
*D53
 70
     1
 10
0.0
 20
0.0
 30
0.0
  3
*D53
  1

  0
LINE
  5
64E2
330
280E
100
AcDbEntity
  8
SUNPOU
 62
     0
440
 16777216
370
    -2
100
AcDbLine
 10
4846.081044831939
 20
1633.632072876459
 30
0.0
 11
5138.543272539754
 21
1633.632072876459
 31
0.0
  0
LINE
  5
64E3
330
280E
100
AcDbEntity
  8
SUNPOU
 62
     0
440
 16777216
370
    -2
100
AcDbLine
 10
4846.081044831939
 20
983.6320728764586
 30
0.0
 11
5138.543272539754
 21
983.6320728764584
 31
0.0
  0
LINE
  5
64E4
330
280E
100
AcDbEntity
  8
SUNPOU
 62
     0
440
 16777216
370
    -2
100
AcDbLine
 10
5123.543272539754
 20
1603.632072876459
 30
0.0
 11
5123.543272539754
 21
1013.632072876458
 31
0.0
  0
SOLID
  5
64E5
330
280E
100
AcDbEntity
  8
SUNPOU
 62
     0
440
 16777216
100
AcDbTrace
 10
5118.543272539754
 20
1603.632072876459
 30
0.0
 11
5128.543272539754
 21
1603.632072876459
 31
0.0
 12
5123.543272539754
 22
1633.632072876459
 32
0.0
 13
5123.543272539754
 23
1633.632072876459
 33
0.0
  0
SOLID
  5
64E6
330
280E
100
AcDbEntity
  8
SUNPOU
 62
     0
440
 16777216
100
AcDbTrace
 10
5118.543272539754
 20
1013.632072876458
 30
0.0
 11
5128.543272539754
 21
1013.632072876458
 31
0.0
 12
5123.543272539754
 22
983.6320728764584
 32
0.0
 13
5123.543272539754
 23
983.6320728764584
 33
0.0
  0
MTEXT
  5
64E7
330
280E
100
AcDbEntity
  8
SUNPOU
 62
     0
440
 16777216
100
AcDbMText
 10
5089.043272539754
 20
1308.632072876459
 30
0.0
 40
45.0
 41
0.0
 71
     5
 72
     1
  1
\A1;650
 11
6.123031769111886E-17
 21
1.0
 31
0.0
 73
     1
 44
1.0
  0
POINT
  5
64E8
330
280E
100
AcDbEntity
  8
DEFPOINTS
 62
     0
440
 16777216
100
AcDbPoint
 10
4816.081044831939
 20
1633.632072876459
 30
0.0
  0
POINT
  5
64E9
330
280E
100
AcDbEntity
  8
DEFPOINTS
 62
     0
440
 16777216
100
AcDbPoint
 10
4816.081044831939
 20
983.6320728764586
 30
0.0
  0
POINT
  5
64EA
330
280E
100
AcDbEntity
  8
DEFPOINTS
 62
     0
440
 16777216
100
AcDbPoint
 10
5123.543272539754
 20
983.6320728764584
 30
0.0
  0
ENDBLK
  5
2819
330
280E
100
AcDbEntity
  8
0
100
AcDbBlockEnd
  0
BLOCK
  5
3608
330
35FE
100
AcDbEntity
  8
0
100
AcDbBlockBegin
  2
*D54
 70
     1
 10
0.0
 20
0.0
 30
0.0
  3
*D54
  1

  0
LINE
  5
64EB
330
35FE
100
AcDbEntity
  8
SUNPOU
 62
     0
440
 16777216
370
    -2
100
AcDbLine
 10
784.0060371024192
 20
2013.632072876459
 30
0.0
 11
784.0060371024192
 21
2264.488999641697
 31
0.0
  0
LINE
  5
64EC
330
35FE
100
AcDbEntity
  8
SUNPOU
 62
     0
440
 16777216
370
    -2
100
AcDbLine
 10
1284.006037102419
 20
2013.632072876459
 30
0.0
 11
1284.006037102419
 21
2264.488999641697
 31
0.0
  0
LINE
  5
64ED
330
35FE
100
AcDbEntity
  8
SUNPOU
 62
     0
440
 16777216
370
    -2
100
AcDbLine
 10
814.0060371024192
 20
2249.488999641697
 30
0.0
 11
1254.006037102419
 21
2249.488999641697
 31
0.0
  0
SOLID
  5
64EE
330
35FE
100
AcDbEntity
  8
SUNPOU
 62
     0
440
 16777216
100
AcDbTrace
 10
814.0060371024192
 20
2254.488999641697
 30
0.0
 11
814.0060371024192
 21
2244.488999641697
 31
0.0
 12
784.0060371024192
 22
2249.488999641697
 32
0.0
 13
784.0060371024192
 23
2249.488999641697
 33
0.0
  0
SOLID
  5
64EF
330
35FE
100
AcDbEntity
  8
SUNPOU
 62
     0
440
 16777216
100
AcDbTrace
 10
1254.006037102419
 20
2254.488999641697
 30
0.0
 11
1254.006037102419
 21
2244.488999641697
 31
0.0
 12
1284.006037102419
 22
2249.488999641697
 32
0.0
 13
1284.006037102419
 23
2249.488999641697
 33
0.0
  0
MTEXT
  5
64F0
330
35FE
100
AcDbEntity
  8
SUNPOU
 62
     0
440
 16777216
100
AcDbMText
 10
1034.006037102419
 20
2283.988999641697
 30
0.0
 40
45.0
 41
0.0
 71
     5
 72
     1
  1
\A1;500
 73
     1
 44
1.0
  0
POINT
  5
64F1
330
35FE
100
AcDbEntity
  8
DEFPOINTS
 62
     0
440
 16777216
100
AcDbPoint
 10
784.0060371024192
 20
1983.632072876459
 30
0.0
  0
POINT
  5
64F2
330
35FE
100
AcDbEntity
  8
DEFPOINTS
 62
     0
440
 16777216
100
AcDbPoint
 10
1284.006037102419
 20
1983.632072876459
 30
0.0
  0
POINT
  5
64F3
330
35FE
100
AcDbEntity
  8
DEFPOINTS
 62
     0
440
 16777216
100
AcDbPoint
 10
1284.006037102419
 20
2249.488999641697
 30
0.0
  0
ENDBLK
  5
3609
330
35FE
100
AcDbEntity
  8
0
100
AcDbBlockEnd
  0
BLOCK
  5
3615
330
360B
100
AcDbEntity
  8
0
100
AcDbBlockBegin
  2
*D55
 70
     1
 10
0.0
 20
0.0
 30
0.0
  3
*D55
  1

  0
LINE
  5
64F4
330
360B
100
AcDbEntity
  8
SUNPOU
 62
     0
440
 16777216
370
    -2
100
AcDbLine
 10
3784.006037102419
 20
2013.632072876459
 30
0.0
 11
3784.006037102419
 21
2264.488999641697
 31
0.0
  0
LINE
  5
64F5
330
360B
100
AcDbEntity
  8
SUNPOU
 62
     0
440
 16777216
370
    -2
100
AcDbLine
 10
3284.006037102419
 20
2013.632072876459
 30
0.0
 11
3284.006037102419
 21
2264.488999641697
 31
0.0
  0
LINE
  5
64F6
330
360B
100
AcDbEntity
  8
SUNPOU
 62
     0
440
 16777216
370
    -2
100
AcDbLine
 10
3754.006037102419
 20
2249.488999641697
 30
0.0
 11
3314.006037102419
 21
2249.488999641697
 31
0.0
  0
SOLID
  5
64F7
330
360B
100
AcDbEntity
  8
SUNPOU
 62
     0
440
 16777216
100
AcDbTrace
 10
3754.006037102419
 20
2254.488999641697
 30
0.0
 11
3754.006037102419
 21
2244.488999641697
 31
0.0
 12
3784.006037102419
 22
2249.488999641697
 32
0.0
 13
3784.006037102419
 23
2249.488999641697
 33
0.0
  0
SOLID
  5
64F8
330
360B
100
AcDbEntity
  8
SUNPOU
 62
     0
440
 16777216
100
AcDbTrace
 10
3314.006037102419
 20
2254.488999641697
 30
0.0
 11
3314.006037102419
 21
2244.488999641697
 31
0.0
 12
3284.006037102419
 22
2249.488999641697
 32
0.0
 13
3284.006037102419
 23
2249.488999641697
 33
0.0
  0
MTEXT
  5
64F9
330
360B
100
AcDbEntity
  8
SUNPOU
 62
     0
440
 16777216
100
AcDbMText
 10
3534.006037102419
 20
2283.988999641697
 30
0.0
 40
45.0
 41
0.0
 71
     5
 72
     1
  1
\A1;500
 73
     1
 44
1.0
  0
POINT
  5
64FA
330
360B
100
AcDbEntity
  8
DEFPOINTS
 62
     0
440
 16777216
100
AcDbPoint
 10
3784.006037102419
 20
1983.632072876459
 30
0.0
  0
POINT
  5
64FB
330
360B
100
AcDbEntity
  8
DEFPOINTS
 62
     0
440
 16777216
100
AcDbPoint
 10
3284.006037102419
 20
1983.632072876459
 30
0.0
  0
POINT
  5
64FC
330
360B
100
AcDbEntity
  8
DEFPOINTS
 62
     0
440
 16777216
100
AcDbPoint
 10
3284.006037102419
 20
2249.488999641697
 30
0.0
  0
ENDBLK
  5
3616
330
360B
100
AcDbEntity
  8
0
100
AcDbBlockEnd
  0
BLOCK
  5
362B
330
3621
100
AcDbEntity
  8
0
100
AcDbBlockBegin
  2
*D56
 70
     1
 10
0.0
 20
0.0
 30
0.0
  3
*D56
  1

  0
LINE
  5
64FD
330
3621
100
AcDbEntity
  8
SUNPOU
 62
     0
440
 16777216
370
    -2
100
AcDbLine
 10
1284.006037102419
 20
2013.632072876459
 30
0.0
 11
1284.006037102419
 21
2264.488999641697
 31
0.0
  0
LINE
  5
64FE
330
3621
100
AcDbEntity
  8
SUNPOU
 62
     0
440
 16777216
370
    -2
100
AcDbLine
 10
3284.006037102419
 20
2013.632072876459
 30
0.0
 11
3284.006037102419
 21
2264.488999641697
 31
0.0
  0
LINE
  5
64FF
330
3621
100
AcDbEntity
  8
SUNPOU
 62
     0
440
 16777216
370
    -2
100
AcDbLine
 10
1314.006037102419
 20
2249.488999641697
 30
0.0
 11
3254.006037102419
 21
2249.488999641697
 31
0.0
  0
SOLID
  5
6500
330
3621
100
AcDbEntity
  8
SUNPOU
 62
     0
440
 16777216
100
AcDbTrace
 10
1314.006037102419
 20
2254.488999641697
 30
0.0
 11
1314.006037102419
 21
2244.488999641697
 31
0.0
 12
1284.006037102419
 22
2249.488999641697
 32
0.0
 13
1284.006037102419
 23
2249.488999641697
 33
0.0
  0
SOLID
  5
6501
330
3621
100
AcDbEntity
  8
SUNPOU
 62
     0
440
 16777216
100
AcDbTrace
 10
3254.006037102419
 20
2254.488999641697
 30
0.0
 11
3254.006037102419
 21
2244.488999641697
 31
0.0
 12
3284.006037102419
 22
2249.488999641697
 32
0.0
 13
3284.006037102419
 23
2249.488999641697
 33
0.0
  0
MTEXT
  5
6502
330
3621
100
AcDbEntity
  8
SUNPOU
 62
     0
440
 16777216
100
AcDbMText
 10
2284.006037102419
 20
2283.988999641697
 30
0.0
 40
45.0
 41
0.0
 71
     5
 72
     1
  1
\A1;2000
 73
     1
 44
1.0
  0
POINT
  5
6503
330
3621
100
AcDbEntity
  8
DEFPOINTS
 62
     0
440
 16777216
100
AcDbPoint
 10
1284.006037102419
 20
1983.632072876459
 30
0.0
  0
POINT
  5
6504
330
3621
100
AcDbEntity
  8
DEFPOINTS
 62
     0
440
 16777216
100
AcDbPoint
 10
3284.006037102419
 20
1983.632072876459
 30
0.0
  0
POINT
  5
6505
330
3621
100
AcDbEntity
  8
DEFPOINTS
 62
     0
440
 16777216
100
AcDbPoint
 10
3284.006037102419
 20
2249.488999641697
 30
0.0
  0
ENDBLK
  5
362C
330
3621
100
AcDbEntity
  8
0
100
AcDbBlockEnd
  0
BLOCK
  5
609C
330
6092
100
AcDbEntity
  8
0
100
AcDbBlockBegin
  2
*D67
 70
     1
 10
0.0
 20
0.0
 30
0.0
  3
*D67
  1

  0
LINE
  5
657D
330
6092
100
AcDbEntity
  8
SUNPOU
 62
     0
440
 16777216
370
    -2
100
AcDbLine
 10
884.0060371024192
 20
3373.421980013623
 30
0.0
 11
884.0060371024192
 21
3123.894000089593
 31
0.0
  0
LINE
  5
657E
330
6092
100
AcDbEntity
  8
SUNPOU
 62
     0
440
 16777216
370
    -2
100
AcDbLine
 10
784.0060371024192
 20
3273.421980013623
 30
0.0
 11
784.0060371024192
 21
3123.894000089593
 31
0.0
  0
LINE
  5
657F
330
6092
100
AcDbEntity
  8
SUNPOU
 62
     0
440
 16777216
370
    -2
100
AcDbLine
 10
854.0060371024192
 20
3138.894000089593
 30
0.0
 11
814.0060371024192
 21
3138.894000089593
 31
0.0
  0
SOLID
  5
6580
330
6092
100
AcDbEntity
  8
SUNPOU
 62
     0
440
 16777216
100
AcDbTrace
 10
854.0060371024192
 20
3143.894000089593
 30
0.0
 11
854.0060371024192
 21
3133.894000089593
 31
0.0
 12
884.0060371024192
 22
3138.894000089593
 32
0.0
 13
884.0060371024192
 23
3138.894000089593
 33
0.0
  0
SOLID
  5
6581
330
6092
100
AcDbEntity
  8
SUNPOU
 62
     0
440
 16777216
100
AcDbTrace
 10
814.0060371024192
 20
3143.894000089593
 30
0.0
 11
814.0060371024192
 21
3133.894000089593
 31
0.0
 12
784.0060371024192
 22
3138.894000089593
 32
0.0
 13
784.0060371024192
 23
3138.894000089593
 33
0.0
  0
MTEXT
  5
6582
330
6092
100
AcDbEntity
  8
SUNPOU
 62
     0
440
 16777216
100
AcDbMText
 10
834.0060371024192
 20
3173.394000089593
 30
0.0
 40
45.0
 41
0.0
 71
     5
 72
     1
  1
\A1;100
 73
     1
 44
1.0
  0
POINT
  5
6583
330
6092
100
AcDbEntity
  8
DEFPOINTS
 62
     0
440
 16777216
100
AcDbPoint
 10
884.0060371024192
 20
3403.421980013623
 30
0.0
  0
POINT
  5
6584
330
6092
100
AcDbEntity
  8
DEFPOINTS
 62
     0
440
 16777216
100
AcDbPoint
 10
784.0060371024192
 20
3303.421980013623
 30
0.0
  0
POINT
  5
6585
330
6092
100
AcDbEntity
  8
DEFPOINTS
 62
     0
440
 16777216
100
AcDbPoint
 10
784.0060371024192
 20
3138.894000089593
 30
0.0
  0
ENDBLK
  5
609D
330
6092
100
AcDbEntity
  8
0
100
AcDbBlockEnd
  0
ENDSEC
  0
SECTION
  2
ENTITIES
  0
TEXT
  5
5F
330
17
100
AcDbEntity
  8
SUNPOU
100
AcDbText
 10
5669.231050175943
 20
421.7860144681363
 30
0.0
 40
45.0
  1
15
100
AcDbText
  0
INSERT
  5
60
330
17
100
AcDbEntity
  8
HAIKIN
100
AcDbBlockReference
  2
SA3
 10
149.2310501759457
 20
181.7860144681363
 30
0.0
 41
15.0
 42
15.0
 43
15.0
  0
LINE
  5
B65
330
17
100
AcDbEntity
  8
1HASEN
100
AcDbLine
 10
4546.081044831939
 20
1833.632072876459
 30
0.0
 11
4786.081044831939
 21
1833.632072876459
 31
0.0
  0
LINE
  5
B66
330
17
100
AcDbEntity
  8
SEIHIN
100
AcDbLine
 10
4526.081044831939
 20
1983.632072876459
 30
0.0
 11
4806.081044831939
 21
1983.632072876459
 31
0.0
  0
LINE
  5
B6A
330
17
100
AcDbEntity
  8
SEIHIN
100
AcDbLine
 10
784.0060371024192
 20
1983.632072876459
 30
0.0
 11
3784.006037102419
 21
1983.632072876459
 31
0.0
  0
LINE
  5
B6C
330
17
100
AcDbEntity
  8
SEIHIN
100
AcDbLine
 10
784.0060371024192
 20
3603.421980013623
 30
0.0
 11
3784.006037102419
 21
3603.421980013623
 31
0.0
  0
LINE
  5
B6E
330
17
100
AcDbEntity
  8
SEIHIN
100
AcDbLine
 10
3784.006037102419
 20
3303.421980013623
 30
0.0
 11
784.0060371024192
 21
3303.421980013623
 31
0.0
  0
LINE
  5
B75
330
17
100
AcDbEntity
  8
SEIHIN
100
AcDbLine
 10
784.0060371024192
 20
3383.421980013623
 30
0.0
 11
784.0060371024192
 21
3303.421980013623
 31
0.0
  0
LINE
  5
B76
330
17
100
AcDbEntity
  8
HASEN
100
AcDbLine
 10
1309.006037102419
 20
3603.421980013623
 30
0.0
 11
1309.006037102419
 21
3303.421980013623
 31
0.0
  0
LINE
  5
B77
330
17
100
AcDbEntity
  8
HASEN
100
AcDbLine
 10
1259.006037102419
 20
3603.421980013623
 30
0.0
 11
1259.006037102419
 21
3303.421980013623
 31
0.0
  0
LINE
  5
B7B
330
17
100
AcDbEntity
  8
2HASEN
100
AcDbLine
 10
884.0060371024192
 20
1823.632072876459
 30
0.0
 11
984.0060371024192
 21
1823.632072876459
 31
0.0
  0
LINE
  5
B7C
330
17
100
AcDbEntity
  8
2HASEN
100
AcDbLine
 10
884.0060371024192
 20
1843.632072876459
 30
0.0
 11
984.0060371024192
 21
1843.632072876459
 31
0.0
  0
LINE
  5
B7D
330
17
100
AcDbEntity
  8
1HASEN
100
AcDbLine
 10
684.0060371024192
 20
1833.632072876459
 30
0.0
 11
1084.006037102419
 21
1833.632072876459
 31
0.0
  0
LINE
  5
B82
330
17
100
AcDbEntity
  8
HASEN
100
AcDbLine
 10
884.0060371024192
 20
983.6320728764586
 30
0.0
 11
884.0060371024192
 21
1983.632072876459
 31
0.0
  0
LINE
  5
B83
330
17
100
AcDbEntity
  8
SEIHIN
100
AcDbLine
 10
784.0060371024192
 20
983.6320728764586
 30
0.0
 11
784.0060371024192
 21
1983.632072876459
 31
0.0
  0
TEXT
  5
B88
330
17
100
AcDbEntity
  8
HAIKIN
100
AcDbText
 10
584.0060371024192
 20
2490.567780075518
 30
0.0
 40
70.0
  1
正　面　図
  7
NIHONGO
100
AcDbText
  0
LINE
  5
B8A
330
17
100
AcDbEntity
  8
1HASEN
100
AcDbLine
 10
1384.006037102419
 20
1683.632072876459
 30
0.0
 11
1184.006037102419
 21
1683.632072876459
 31
0.0
  0
LINE
  5
B8C
330
17
100
AcDbEntity
  8
1HASEN
100
AcDbLine
 10
1284.006037102419
 20
1783.632072876459
 30
0.0
 11
1284.006037102419
 21
1583.632072876459
 31
0.0
  0
CIRCLE
  5
B8D
330
17
100
AcDbEntity
  8
SEIHIN
100
AcDbCircle
 10
1284.006037102419
 20
1683.632072876459
 30
0.0
 40
25.0
  0
LINE
  5
B8E
330
17
100
AcDbEntity
  8
2HASEN
100
AcDbLine
 10
984.0060371024192
 20
1843.632072876459
 30
0.0
 11
984.0060371024192
 21
1823.632072876459
 31
0.0
  0
LINE
  5
B8F
330
17
100
AcDbEntity
  8
2HASEN
100
AcDbLine
 10
884.0060371024192
 20
3443.421980013623
 30
0.0
 11
984.0060371024192
 21
3443.421980013623
 31
0.0
  0
LINE
  5
B90
330
17
100
AcDbEntity
  8
2HASEN
100
AcDbLine
 10
884.0060371024192
 20
3463.421980013623
 30
0.0
 11
984.0060371024192
 21
3463.421980013623
 31
0.0
  0
LINE
  5
B91
330
17
100
AcDbEntity
  8
1HASEN
100
AcDbLine
 10
684.0060371024192
 20
3453.421980013623
 30
0.0
 11
1084.006037102419
 21
3453.421980013623
 31
0.0
  0
LINE
  5
B93
330
17
100
AcDbEntity
  8
SEIHIN
100
AcDbLine
 10
784.0060371024192
 20
3603.421980013623
 30
0.0
 11
784.0060371024192
 21
3523.421980013623
 31
0.0
  0
LINE
  5
B98
330
17
100
AcDbEntity
  8
SEIHIN
100
AcDbLine
 10
884.0060371024192
 20
3503.421980013623
 30
0.0
 11
884.0060371024192
 21
3403.421980013623
 31
0.0
  0
LINE
  5
B99
330
17
100
AcDbEntity
  8
SEIHIN
100
AcDbLine
 10
884.0060371024192
 20
3403.421980013623
 30
0.0
 11
784.0060371024192
 21
3383.421980013623
 31
0.0
  0
LINE
  5
B9A
330
17
100
AcDbEntity
  8
SEIHIN
100
AcDbLine
 10
784.0060371024192
 20
3523.421980013623
 30
0.0
 11
884.0060371024192
 21
3503.421980013623
 31
0.0
  0
TEXT
  5
B9B
330
17
100
AcDbEntity
  8
HAIKIN
100
AcDbText
 10
584.0060371024192
 20
4015.663814039657
 30
0.0
 40
70.0
  1
平　面　図
  7
NIHONGO
100
AcDbText
  0
LINE
  5
B9C
330
17
100
AcDbEntity
  8
2HASEN
100
AcDbLine
 10
984.0060371024192
 20
3463.421980013623
 30
0.0
 11
984.0060371024192
 21
3443.421980013623
 31
0.0
  0
LINE
  5
B9D
330
17
100
AcDbEntity
  8
SEIHIN
100
AcDbLine
 10
3784.006037102419
 20
3383.421980013623
 30
0.0
 11
3784.006037102419
 21
3303.421980013623
 31
0.0
  0
LINE
  5
B9E
330
17
100
AcDbEntity
  8
HASEN
100
AcDbLine
 10
3259.006037102419
 20
3303.421980013623
 30
0.0
 11
3259.006037102419
 21
3603.421980013623
 31
0.0
  0
LINE
  5
B9F
330
17
100
AcDbEntity
  8
HASEN
100
AcDbLine
 10
3309.006037102419
 20
3303.421980013623
 30
0.0
 11
3309.006037102419
 21
3603.421980013623
 31
0.0
  0
CIRCLE
  5
BA1
330
17
100
AcDbEntity
  8
SEIHIN
100
AcDbCircle
 10
3284.006037102419
 20
1683.632072876459
 30
0.0
 40
25.0
  0
LINE
  5
BA2
330
17
100
AcDbEntity
  8
1HASEN
100
AcDbLine
 10
3184.006037102419
 20
1683.632072876459
 30
0.0
 11
3384.006037102419
 21
1683.632072876459
 31
0.0
  0
LINE
  5
BA3
330
17
100
AcDbEntity
  8
1HASEN
100
AcDbLine
 10
3284.006037102419
 20
1783.632072876459
 30
0.0
 11
3284.006037102419
 21
1583.632072876459
 31
0.0
  0
LINE
  5
BA4
330
17
100
AcDbEntity
  8
1HASEN
100
AcDbLine
 10
4666.081044831939
 20
922.85698543123
 30
0.0
 11
4666.081044831939
 21
2038.632072876459
 31
0.0
  0
LINE
  5
BA5
330
17
100
AcDbEntity
  8
HASEN
100
AcDbLine
 10
3684.006037102419
 20
1983.632072876459
 30
0.0
 11
3684.006037102419
 21
983.6320728764586
 31
0.0
  0
LINE
  5
BA6
330
17
100
AcDbEntity
  8
SEIHIN
100
AcDbLine
 10
3784.006037102419
 20
1983.632072876459
 30
0.0
 11
3784.006037102419
 21
983.6320728764586
 31
0.0
  0
LINE
  5
BA7
330
17
100
AcDbEntity
  8
SUNPOU
100
AcDbLine
 10
4736.081044831939
 20
1983.632072876459
 30
0.0
 11
4736.081044831939
 21
983.6320728764586
 31
0.0
  0
LINE
  5
BA8
330
17
100
AcDbEntity
  8
SUNPOU
100
AcDbLine
 10
4716.081044831939
 20
1983.632072876459
 30
0.0
 11
4716.081044831939
 21
983.6320728764586
 31
0.0
  0
LINE
  5
BA9
330
17
100
AcDbEntity
  8
SUNPOU
100
AcDbLine
 10
4616.081044831939
 20
983.6320728764586
 30
0.0
 11
4616.081044831939
 21
1983.632072876459
 31
0.0
  0
LINE
  5
BAA
330
17
100
AcDbEntity
  8
SUNPOU
100
AcDbLine
 10
4596.081044831939
 20
983.6320728764586
 30
0.0
 11
4596.081044831939
 21
1983.632072876459
 31
0.0
  0
LINE
  5
BAB
330
17
100
AcDbEntity
  8
SEIHIN
100
AcDbLine
 10
4516.081044831939
 20
983.6320728764586
 30
0.0
 11
4516.081044831939
 21
1973.632072876459
 31
0.0
  0
LINE
  5
BB5
330
17
100
AcDbEntity
  8
SEIHIN
100
AcDbLine
 10
4516.081044831939
 20
1973.632072876459
 30
0.0
 11
4526.081044831939
 21
1983.632072876459
 31
0.0
  0
CIRCLE
  5
BB6
330
17
100
AcDbEntity
  8
SEIHIN
100
AcDbCircle
 10
4666.081044831939
 20
1833.632072876459
 30
0.0
 40
10.0
  0
TEXT
  5
BB7
330
17
100
AcDbEntity
  8
HAIKIN
100
AcDbText
 10
4416.081044831939
 20
2495.435298578035
 30
0.0
 40
70.0
  1
側　面　図
  7
NIHONGO
100
AcDbText
  0
LINE
  5
BBA
330
17
100
AcDbEntity
  8
SEIHIN
100
AcDbLine
 10
3784.006037102419
 20
3603.421980013623
 30
0.0
 11
3784.006037102419
 21
3523.421980013623
 31
0.0
  0
LINE
  5
BBB
330
17
100
AcDbEntity
  8
2HASEN
100
AcDbLine
 10
3684.006037102419
 20
3463.421980013623
 30
0.0
 11
3584.006037102419
 21
3463.421980013623
 31
0.0
  0
LINE
  5
BBC
330
17
100
AcDbEntity
  8
2HASEN
100
AcDbLine
 10
3684.006037102419
 20
3443.421980013623
 30
0.0
 11
3584.006037102419
 21
3443.421980013623
 31
0.0
  0
LINE
  5
BBD
330
17
100
AcDbEntity
  8
1HASEN
100
AcDbLine
 10
3884.006037102419
 20
3453.421980013623
 30
0.0
 11
3484.006037102419
 21
3453.421980013623
 31
0.0
  0
LINE
  5
BBE
330
17
100
AcDbEntity
  8
2HASEN
100
AcDbLine
 10
3584.006037102419
 20
3463.421980013623
 30
0.0
 11
3584.006037102419
 21
3443.421980013623
 31
0.0
  0
LINE
  5
BBF
330
17
100
AcDbEntity
  8
SEIHIN
100
AcDbLine
 10
3684.006037102419
 20
3503.421980013623
 30
0.0
 11
3684.006037102419
 21
3403.421980013623
 31
0.0
  0
LINE
  5
BC0
330
17
100
AcDbEntity
  8
SEIHIN
100
AcDbLine
 10
3684.006037102419
 20
3403.421980013623
 30
0.0
 11
3784.006037102419
 21
3383.421980013623
 31
0.0
  0
LINE
  5
BC1
330
17
100
AcDbEntity
  8
SEIHIN
100
AcDbLine
 10
3784.006037102419
 20
3523.421980013623
 30
0.0
 11
3684.006037102419
 21
3503.421980013623
 31
0.0
  0
LINE
  5
BC6
330
17
100
AcDbEntity
  8
SEIHIN
100
AcDbLine
 10
4816.081044831939
 20
1973.632072876459
 30
0.0
 11
4816.081044831939
 21
983.6320728764586
 31
0.0
  0
LINE
  5
BCB
330
17
100
AcDbEntity
  8
SEIHIN
100
AcDbLine
 10
4816.081044831939
 20
1973.632072876459
 30
0.0
 11
4806.081044831939
 21
1983.632072876459
 31
0.0
  0
DIMENSION
  5
1062
330
17
100
AcDbEntity
  8
SUNPOU
100
AcDbDimension
  2
*D2
 10
3784.006037102419
 20
3834.249574708339
 30
0.0
 11
2284.006037102419
 21
3868.749574708339
 31
0.0
 70
    32
 71
     5
 42
3000.0
  3
STANDARD
100
AcDbAlignedDimension
 13
784.0060371024192
 23
3603.421980013623
 33
0.0
 14
3784.006037102419
 24
3603.421980013623
 34
0.0
100
AcDbRotatedDimension
1001
ACAD
1000
DSTYLE
1002
{
1070
   287
1070
     5
1070
   287
1070
     5
1070
   287
1070
     5
1070
   287
1070
     5
1070
    40
1040
15.0
1070
    41
1040
2.0
1070
    42
1040
2.0
1070
    43
1040
7.0
1070
    44
1040
1.0
1070
    73
1070
     0
1070
    74
1070
     0
1070
    77
1070
     1
1070
    78
1070
     8
1070
   140
1040
3.0
1070
   141
1040
0.0
1070
   145
1040
1.0
1070
   147
1040
0.8
1070
   179
1070
     4
1070
   271
1070
     0
1070
   272
1070
     0
1070
   279
1070
     2
1070
   284
1070
     8
1070
   285
1070
     8
1070
   286
1070
     8
1002
}
  0
DIMENSION
  5
106F
330
17
100
AcDbEntity
  8
SUNPOU
100
AcDbDimension
  2
*D3
 10
627.581231706281
 20
3403.421980013623
 30
0.0
 11
593.0812317062804
 21
3453.421980013623
 31
0.0
 70
    32
 71
     5
 42
100.0
  3
STANDARD
100
AcDbAlignedDimension
 13
884.0060371024192
 23
3503.421980013623
 33
0.0
 14
884.0060371024192
 24
3403.421980013623
 34
0.0
 50
90.0
100
AcDbRotatedDimension
1001
ACAD
1000
DSTYLE
1002
{
1070
   287
1070
     5
1070
   287
1070
     5
1070
   287
1070
     5
1070
   287
1070
     5
1070
    40
1040
15.0
1070
    41
1040
2.0
1070
    42
1040
2.0
1070
    43
1040
7.0
1070
    44
1040
1.0
1070
    73
1070
     0
1070
    74
1070
     0
1070
    77
1070
     1
1070
    78
1070
     8
1070
   140
1040
3.0
1070
   141
1040
0.0
1070
   145
1040
1.0
1070
   147
1040
0.8
1070
   179
1070
     4
1070
   271
1070
     0
1070
   272
1070
     0
1070
   279
1070
     2
1070
   284
1070
     8
1070
   285
1070
     8
1070
   286
1070
     8
1002
}
  0
DIMENSION
  5
107C
330
17
100
AcDbEntity
  8
SUNPOU
100
AcDbDimension
  2
*D4
 10
627.581231706281
 20
3603.421980013623
 30
0.0
 11
592.6779363391433
 21
3644.00739289915
 31
0.0
 70
   160
 71
     5
 42
80.0
  3
STANDARD
100
AcDbAlignedDimension
 13
784.0060371024192
 23
3523.421980013623
 33
0.0
 14
784.0060371024192
 24
3603.421980013623
 34
0.0
 50
90.0
100
AcDbRotatedDimension
1001
ACAD
1000
DSTYLE
1002
{
1070
   287
1070
     5
1070
   287
1070
     5
1070
   287
1070
     5
1070
   287
1070
     5
1070
    40
1040
15.0
1070
    41
1040
2.0
1070
    42
1040
2.0
1070
    43
1040
7.0
1070
    44
1040
1.0
1070
    73
1070
     0
1070
    74
1070
     0
1070
    77
1070
     1
1070
    78
1070
     8
1070
   140
1040
3.0
1070
   141
1040
0.0
1070
   145
1040
1.0
1070
   147
1040
0.8
1070
   179
1070
     4
1070
   271
1070
     0
1070
   272
1070
     0
1070
   279
1070
     2
1070
   284
1070
     8
1070
   285
1070
     8
1070
   286
1070
     8
1002
}
  0
DIMENSION
  5
1089
330
17
100
AcDbEntity
  8
SUNPOU
100
AcDbDimension
  2
*D5
 10
627.581231706281
 20
3523.421980013623
 30
0.0
 11
591.5414435234015
 21
3552.384122109195
 31
0.0
 70
   160
 71
     5
 42
20.0
  3
STANDARD
100
AcDbAlignedDimension
 13
884.0060371024192
 23
3503.421980013623
 33
0.0
 14
784.0060371024192
 24
3523.421980013623
 34
0.0
 50
90.0
100
AcDbRotatedDimension
1001
ACAD
1000
DSTYLE
1002
{
1070
   287
1070
     5
1070
   287
1070
     5
1070
   287
1070
     5
1070
   287
1070
     5
1070
    40
1040
15.0
1070
    41
1040
2.0
1070
    42
1040
2.0
1070
    43
1040
7.0
1070
    44
1040
1.0
1070
    73
1070
     0
1070
    74
1070
     0
1070
    77
1070
     1
1070
    78
1070
     8
1070
   140
1040
3.0
1070
   141
1040
0.0
1070
   145
1040
1.0
1070
   147
1040
0.8
1070
   179
1070
     4
1070
   271
1070
     0
1070
   272
1070
     0
1070
   279
1070
     2
1070
   284
1070
     8
1070
   285
1070
     8
1070
   286
1070
     8
1002
}
  0
DIMENSION
  5
10AB
330
17
100
AcDbEntity
  8
SUNPOU
100
AcDbDimension
  2
*D6
 10
627.581231706281
 20
3383.421980013623
 30
0.0
 11
591.5414435234015
 21
3365.599359896898
 31
0.0
 70
   160
 71
     5
 42
20.0
  3
STANDARD
100
AcDbAlignedDimension
 13
884.0060371024192
 23
3403.421980013623
 33
0.0
 14
784.0060371024192
 24
3383.421980013623
 34
0.0
 50
270.0
100
AcDbRotatedDimension
1001
ACAD
1000
DSTYLE
1002
{
1070
   287
1070
     5
1070
   287
1070
     5
1070
   287
1070
     5
1070
   287
1070
     5
1070
    40
1040
15.0
1070
    41
1040
2.0
1070
    42
1040
2.0
1070
    43
1040
7.0
1070
    44
1040
1.0
1070
    73
1070
     0
1070
    74
1070
     0
1070
    77
1070
     1
1070
    78
1070
     8
1070
   140
1040
3.0
1070
   141
1040
0.0
1070
   145
1040
1.0
1070
   147
1040
0.8
1070
   179
1070
     4
1070
   271
1070
     0
1070
   272
1070
     0
1070
   279
1070
     2
1070
   284
1070
     8
1070
   285
1070
     8
1070
   286
1070
     8
1002
}
  0
DIMENSION
  5
10D9
330
17
100
AcDbEntity
  8
SUNPOU
100
AcDbDimension
  2
*D7
 10
527.7590913448839
 20
3603.421980013623
 30
0.0
 11
493.2590913448834
 21
3453.421980013623
 31
0.0
 70
    32
 71
     5
 42
300.0
  3
STANDARD
100
AcDbAlignedDimension
 13
784.0060371024192
 23
3303.421980013623
 33
0.0
 14
784.0060371024192
 24
3603.421980013623
 34
0.0
 50
90.0
100
AcDbRotatedDimension
1001
ACAD
1000
DSTYLE
1002
{
1070
   287
1070
     5
1070
   287
1070
     5
1070
   287
1070
     5
1070
   287
1070
     5
1070
    40
1040
15.0
1070
    41
1040
2.0
1070
    42
1040
2.0
1070
    43
1040
7.0
1070
    44
1040
1.0
1070
    73
1070
     0
1070
    74
1070
     0
1070
    77
1070
     1
1070
    78
1070
     8
1070
   140
1040
3.0
1070
   141
1040
0.0
1070
   145
1040
1.0
1070
   147
1040
0.8
1070
   179
1070
     4
1070
   271
1070
     0
1070
   272
1070
     0
1070
   279
1070
     2
1070
   284
1070
     8
1070
   285
1070
     8
1070
   286
1070
     8
1002
}
  0
DIMENSION
  5
10F8
330
17
100
AcDbEntity
  8
SUNPOU
100
AcDbDimension
  2
*D8
 10
627.581231706281
 20
3303.421980013623
 30
0.0
 11
592.6779363391433
 21
3262.836567128094
 31
0.0
 70
   160
 71
     5
 42
80.0
  3
STANDARD
100
AcDbAlignedDimension
 13
784.0060371024192
 23
3383.421980013623
 33
0.0
 14
784.0060371024192
 24
3303.421980013623
 34
0.0
 50
270.0
100
AcDbRotatedDimension
1001
ACAD
1000
DSTYLE
1002
{
1070
   287
1070
     5
1070
   287
1070
     5
1070
   287
1070
     5
1070
   287
1070
     5
1070
    40
1040
15.0
1070
    41
1040
2.0
1070
    42
1040
2.0
1070
    43
1040
7.0
1070
    44
1040
1.0
1070
    73
1070
     0
1070
    74
1070
     0
1070
    77
1070
     1
1070
    78
1070
     8
1070
   140
1040
3.0
1070
   141
1040
0.0
1070
   145
1040
1.0
1070
   147
1040
0.8
1070
   179
1070
     4
1070
   271
1070
     0
1070
   272
1070
     0
1070
   279
1070
     2
1070
   284
1070
     8
1070
   285
1070
     8
1070
   286
1070
     8
1002
}
  0
DIMENSION
  5
11B0
330
17
100
AcDbEntity
  8
SUNPOU
100
AcDbDimension
  2
*D9
 10
3784.006037102419
 20
2332.977300175009
 30
0.0
 11
2284.006037102419
 21
2367.477300175009
 31
0.0
 70
    32
 71
     5
 42
3000.0
  3
STANDARD
100
AcDbAlignedDimension
 13
784.0060371024192
 23
1983.632072876459
 33
0.0
 14
3784.006037102419
 24
1983.632072876459
 34
0.0
100
AcDbRotatedDimension
1001
ACAD
1000
DSTYLE
1002
{
1070
   287
1070
     5
1070
   287
1070
     5
1070
   287
1070
     5
1070
   287
1070
     5
1070
    40
1040
15.0
1070
    41
1040
2.0
1070
    42
1040
2.0
1070
    43
1040
7.0
1070
    44
1040
1.0
1070
    73
1070
     0
1070
    74
1070
     0
1070
    77
1070
     1
1070
    78
1070
     8
1070
   140
1040
3.0
1070
   141
1040
0.0
1070
   145
1040
1.0
1070
   147
1040
0.8
1070
   179
1070
     4
1070
   271
1070
     0
1070
   272
1070
     0
1070
   279
1070
     2
1070
   284
1070
     8
1070
   285
1070
     8
1070
   286
1070
     8
1002
}
  0
DIMENSION
  5
1208
330
17
100
AcDbEntity
  8
SUNPOU
100
AcDbDimension
  2
*D10
 10
1565.441083322279
 20
1683.632072876458
 30
0.0
 11
1530.941083322279
 21
1833.632072876459
 31
0.0
 70
    32
 71
     5
 42
300.0
  3
STANDARD
100
AcDbAlignedDimension
 13
1284.006037102419
 23
1983.632072876459
 33
0.0
 14
1384.006037102419
 24
1683.632072876459
 34
0.0
 50
90.0
100
AcDbRotatedDimension
1001
ACAD
1000
DSTYLE
1002
{
1070
   287
1070
     5
1070
   287
1070
     5
1070
   287
1070
     5
1070
   287
1070
     5
1070
    40
1040
15.0
1070
    41
1040
2.0
1070
    42
1040
2.0
1070
    43
1040
7.0
1070
    44
1040
1.0
1070
    73
1070
     0
1070
    74
1070
     0
1070
    77
1070
     1
1070
    78
1070
     8
1070
   140
1040
3.0
1070
   141
1040
0.0
1070
   145
1040
1.0
1070
   147
1040
0.8
1070
   179
1070
     4
1070
   271
1070
     0
1070
   272
1070
     0
1070
   279
1070
     2
1070
   284
1070
     8
1070
   285
1070
     8
1070
   286
1070
     8
1002
}
  0
LINE
  5
1215
330
17
100
AcDbEntity
  8
SEIHIN
100
AcDbLine
 10
3784.006037102419
 20
983.6320728764586
 30
0.0
 11
784.0060371024192
 21
983.6320728764586
 31
0.0
  0
LINE
  5
1216
330
17
100
AcDbEntity
  8
SEIHIN
100
AcDbLine
 10
4516.081044831939
 20
983.6320728764586
 30
0.0
 11
4816.081044831939
 21
983.6320728764586
 31
0.0
  0
DIMENSION
  5
123E
330
17
100
AcDbEntity
  8
SUNPOU
100
AcDbDimension
  2
*D11
 10
423.7122365719042
 20
1983.632072876459
 30
0.0
 11
389.2122365719039
 21
1483.632072876459
 31
0.0
 70
    32
 71
     5
 42
1000.0
  3
STANDARD
100
AcDbAlignedDimension
 13
784.0060371024192
 23
983.6320728764586
 33
0.0
 14
784.0060371024192
 24
1983.632072876459
 34
0.0
 50
90.0
100
AcDbRotatedDimension
1001
ACAD
1000
DSTYLE
1002
{
1070
   287
1070
     5
1070
   287
1070
     5
1070
   287
1070
     5
1070
   287
1070
     5
1070
    40
1040
15.0
1070
    41
1040
2.0
1070
    42
1040
2.0
1070
    43
1040
7.0
1070
    44
1040
1.0
1070
    73
1070
     0
1070
    74
1070
     0
1070
    77
1070
     1
1070
    78
1070
     8
1070
   140
1040
3.0
1070
   141
1040
0.0
1070
   145
1040
1.0
1070
   147
1040
0.8
1070
   179
1070
     4
1070
   271
1070
     0
1070
   272
1070
     0
1070
   279
1070
     2
1070
   284
1070
     8
1070
   285
1070
     8
1070
   286
1070
     8
1002
}
  0
DIMENSION
  5
12A5
330
17
100
AcDbEntity
  8
SUNPOU
100
AcDbDimension
  2
*D12
 10
4816.081044831939
 20
2332.217653592577
 30
0.0
 11
4666.081044831939
 21
2366.717653592577
 31
0.0
 70
    32
 71
     5
 42
300.0
  3
STANDARD
100
AcDbAlignedDimension
 13
4516.081044831939
 23
1973.632072876459
 33
0.0
 14
4816.081044831939
 24
1973.632072876459
 34
0.0
100
AcDbRotatedDimension
1001
ACAD
1000
DSTYLE
1002
{
1070
   287
1070
     5
1070
   287
1070
     5
1070
   287
1070
     5
1070
   287
1070
     5
1070
    40
1040
15.0
1070
    41
1040
2.0
1070
    42
1040
2.0
1070
    43
1040
7.0
1070
    44
1040
1.0
1070
    73
1070
     0
1070
    74
1070
     0
1070
    77
1070
     1
1070
    78
1070
     8
1070
   140
1040
3.0
1070
   141
1040
0.0
1070
   145
1040
1.0
1070
   147
1040
0.8
1070
   179
1070
     4
1070
   271
1070
     0
1070
   272
1070
     0
1070
   279
1070
     2
1070
   284
1070
     8
1070
   285
1070
     8
1070
   286
1070
     8
1002
}
  0
DIMENSION
  5
12DB
330
17
100
AcDbEntity
  8
SUNPOU
100
AcDbDimension
  2
*D13
 10
5231.495054076609
 20
1983.632072876459
 30
0.0
 11
5196.995054076609
 21
1483.632072876459
 31
0.0
 70
    32
 71
     5
 42
1000.0
  3
STANDARD
100
AcDbAlignedDimension
 13
4816.081044831939
 23
983.6320728764586
 33
0.0
 14
4806.081044831939
 24
1983.632072876459
 34
0.0
 50
90.0
100
AcDbRotatedDimension
1001
ACAD
1000
DSTYLE
1002
{
1070
   287
1070
     5
1070
   287
1070
     5
1070
   287
1070
     5
1070
   287
1070
     5
1070
    40
1040
15.0
1070
    41
1040
2.0
1070
    42
1040
2.0
1070
    43
1040
7.0
1070
    44
1040
1.0
1070
    73
1070
     0
1070
    74
1070
     0
1070
    77
1070
     1
1070
    78
1070
     8
1070
   140
1040
3.0
1070
   141
1040
0.0
1070
   145
1040
1.0
1070
   147
1040
0.8
1070
   179
1070
     4
1070
   271
1070
     0
1070
   272
1070
     0
1070
   279
1070
     2
1070
   284
1070
     8
1070
   285
1070
     8
1070
   286
1070
     8
1002
}
  0
DIMENSION
  5
2011
330
17
100
AcDbEntity
  8
SUNPOU
100
AcDbDimension
  2
*D37
 10
1284.006037102419
 20
3033.21457717705
 30
0.0
 11
1034.006037102419
 21
3067.71457717705
 31
0.0
 70
    32
 71
     5
 42
500.0
  3
STANDARD
100
AcDbAlignedDimension
 13
784.0060371024192
 23
3303.421980013623
 33
0.0
 14
1284.006037102419
 24
3303.421980013623
 34
0.0
100
AcDbRotatedDimension
1001
ACAD
1000
DSTYLE
1002
{
1070
   287
1070
     5
1070
   287
1070
     5
1070
   287
1070
     5
1070
   287
1070
     5
1070
    40
1040
15.0
1070
    41
1040
2.0
1070
    42
1040
2.0
1070
    43
1040
7.0
1070
    44
1040
1.0
1070
    73
1070
     0
1070
    74
1070
     0
1070
    77
1070
     1
1070
    78
1070
     8
1070
   140
1040
3.0
1070
   141
1040
0.0
1070
   145
1040
1.0
1070
   147
1040
0.8
1070
   179
1070
     4
1070
   271
1070
     0
1070
   272
1070
     0
1070
   279
1070
     2
1070
   284
1070
     8
1070
   285
1070
     8
1070
   286
1070
     8
1002
}
  0
DIMENSION
  5
2012
330
17
100
AcDbEntity
  8
SUNPOU
100
AcDbDimension
  2
*D39
 10
3284.006037102419
 20
3033.21457717705
 30
0.0
 11
2284.006037102419
 21
3067.71457717705
 31
0.0
 70
    32
 71
     5
 42
2000.0
  3
STANDARD
100
AcDbAlignedDimension
 13
1284.006037102419
 23
3303.421980013623
 33
0.0
 14
3284.006037102419
 24
3303.421980013623
 34
0.0
100
AcDbRotatedDimension
1001
ACAD
1000
DSTYLE
1002
{
1070
   287
1070
     5
1070
   287
1070
     5
1070
   287
1070
     5
1070
   287
1070
     5
1070
    40
1040
15.0
1070
    41
1040
2.0
1070
    42
1040
2.0
1070
    43
1040
7.0
1070
    44
1040
1.0
1070
    73
1070
     0
1070
    74
1070
     0
1070
    77
1070
     1
1070
    78
1070
     8
1070
   140
1040
3.0
1070
   141
1040
0.0
1070
   145
1040
1.0
1070
   147
1040
0.8
1070
   179
1070
     4
1070
   271
1070
     0
1070
   272
1070
     0
1070
   279
1070
     2
1070
   284
1070
     8
1070
   285
1070
     8
1070
   286
1070
     8
1002
}
  0
DIMENSION
  5
2013
330
17
100
AcDbEntity
  8
SUNPOU
100
AcDbDimension
  2
*D38
 10
3284.006037102419
 20
3033.21457717705
 30
0.0
 11
3534.006037102419
 21
3067.71457717705
 31
0.0
 70
    32
 71
     5
 42
500.0
  3
STANDARD
100
AcDbAlignedDimension
 13
3784.006037102419
 23
3303.421980013623
 33
0.0
 14
3284.006037102419
 24
3303.421980013623
 34
0.0
 50
180.0
100
AcDbRotatedDimension
1001
ACAD
1000
DSTYLE
1002
{
1070
   287
1070
     5
1070
   287
1070
     5
1070
   287
1070
     5
1070
   287
1070
     5
1070
    40
1040
15.0
1070
    41
1040
2.0
1070
    42
1040
2.0
1070
    43
1040
7.0
1070
    44
1040
1.0
1070
    73
1070
     0
1070
    74
1070
     0
1070
    77
1070
     1
1070
    78
1070
     8
1070
   140
1040
3.0
1070
   141
1040
0.0
1070
   145
1040
1.0
1070
   147
1040
0.8
1070
   179
1070
     4
1070
   271
1070
     0
1070
   272
1070
     0
1070
   279
1070
     2
1070
   284
1070
     8
1070
   285
1070
     8
1070
   286
1070
     8
1002
}
  0
TEXT
  5
20A4
330
17
100
AcDbEntity
  8
SUNPOU
100
AcDbText
 10
1422.249820923764
 20
1558.890656869444
 30
0.0
 40
45.0
  1
吊り孔φ50
 41
0.8
100
AcDbText
  0
LINE
  5
20A5
330
17
100
AcDbEntity
  8
SUNPOU
100
AcDbLine
 10
1386.756833948933
 20
1547.825117440254
 30
0.0
 11
1675.499433136978
 21
1547.825117440254
 31
0.0
  0
LEADER
  5
20A8
330
17
100
AcDbEntity
  8
SUNPOU
100
AcDbLeader
  3
STANDARD
 76
     2
 10
1303.831066043721
 20
1668.401569684622
 30
0.0
 10
1386.756833948933
 20
1547.825117440254
 30
0.0
1001
ACAD
1000
DSTYLE
1002
{
1070
     5
1000

1070
    40
1040
15.0
1070
    41
1040
2.0
1070
    42
1040
2.0
1070
    43
1040
7.0
1070
    44
1040
1.0
1070
    73
1070
     0
1070
    74
1070
     0
1070
    77
1070
     0
1070
    78
1070
     8
1070
   140
1040
3.0
1070
   141
1040
0.0
1070
   145
1040
1.0
1070
   147
1040
0.8
1070
   179
1070
     4
1070
   271
1070
     0
1070
   272
1070
     0
1070
   279
1070
     2
1070
   284
1070
     8
1070
   285
1070
     8
1070
   286
1070
     8
1070
   342
1005
0
1002
}
  0
LINE
  5
22C3
330
17
100
AcDbEntity
  8
SUNPOU
100
AcDbLine
 10
3837.178279453667
 20
3362.228234458729
 30
0.0
 11
4187.061615957344
 21
3362.228234458729
 31
0.0
  0
TEXT
  5
22C4
330
17
100
AcDbEntity
  8
SUNPOU
100
AcDbText
 10
3865.56458900894
 20
3367.20557568052
 30
0.0
 40
45.0
  1
インサートM16
 41
0.8
100
AcDbText
  0
LEADER
  5
22C6
330
17
100
AcDbEntity
  8
SUNPOU
100
AcDbLeader
  3
STANDARD
 76
     2
 10
3684.006037102419
 20
3453.421980013623
 30
0.0
 10
3837.178279453667
 20
3362.228234458729
 30
0.0
1001
ACAD
1000
DSTYLE
1002
{
1070
     5
1000

1070
    40
1040
15.0
1070
    41
1040
2.0
1070
    42
1040
2.0
1070
    43
1040
7.0
1070
    44
1040
1.0
1070
    73
1070
     0
1070
    74
1070
     0
1070
    77
1070
     0
1070
    78
1070
     8
1070
   140
1040
3.0
1070
   141
1040
0.0
1070
   145
1040
1.0
1070
   147
1040
0.8
1070
   179
1070
     4
1070
   271
1070
     0
1070
   272
1070
     0
1070
   279
1070
     2
1070
   284
1070
     8
1070
   285
1070
     8
1070
   286
1070
     8
1070
   342
1005
0
1002
}
  0
LINE
  5
27BC
330
17
100
AcDbEntity
  8
1HASEN
100
AcDbLine
 10
684.0060371024192
 20
1633.632072876459
 30
0.0
 11
1084.006037102419
 21
1633.632072876459
 31
0.0
  0
LINE
  5
27BD
330
17
100
AcDbEntity
  8
2HASEN
100
AcDbLine
 10
884.0060371024192
 20
1643.632072876459
 30
0.0
 11
984.0060371024192
 21
1643.632072876459
 31
0.0
  0
LINE
  5
27BE
330
17
100
AcDbEntity
  8
2HASEN
100
AcDbLine
 10
884.0060371024192
 20
1623.632072876459
 30
0.0
 11
984.0060371024192
 21
1623.632072876459
 31
0.0
  0
LINE
  5
27BF
330
17
100
AcDbEntity
  8
2HASEN
100
AcDbLine
 10
984.0060371024192
 20
1643.632072876459
 30
0.0
 11
984.0060371024192
 21
1623.632072876459
 31
0.0
  0
DIMENSION
  5
27C0
330
17
100
AcDbEntity
  8
SUNPOU
100
AcDbDimension
  2
*D48
 10
523.8266225482548
 20
1983.632072876459
 30
0.0
 11
489.3266225482545
 21
1908.632072876459
 31
0.0
 70
    32
 71
     5
 42
150.0
  3
STANDARD
100
AcDbAlignedDimension
 13
684.0060371024192
 23
1833.632072876459
 33
0.0
 14
784.0060371024192
 24
1983.632072876459
 34
0.0
 50
90.0
100
AcDbRotatedDimension
1001
ACAD
1000
DSTYLE
1002
{
1070
   287
1070
     5
1070
   287
1070
     5
1070
   287
1070
     5
1070
    40
1040
15.0
1070
    41
1040
2.0
1070
    42
1040
2.0
1070
    43
1040
7.0
1070
    44
1040
1.0
1070
    73
1070
     0
1070
    74
1070
     0
1070
    77
1070
     1
1070
    78
1070
     8
1070
   140
1040
3.0
1070
   141
1040
0.0
1070
   145
1040
1.0
1070
   147
1040
0.8
1070
   179
1070
     4
1070
   271
1070
     0
1070
   272
1070
     0
1070
   279
1070
     2
1070
   284
1070
     8
1070
   285
1070
     8
1070
   286
1070
     8
1002
}
  0
DIMENSION
  5
27CD
330
17
100
AcDbEntity
  8
SUNPOU
100
AcDbDimension
  2
*D49
 10
523.8266225482548
 20
1633.632072876459
 30
0.0
 11
489.3266225482546
 21
1733.632072876459
 31
0.0
 70
    32
 71
     5
 42
200.0
  3
STANDARD
100
AcDbAlignedDimension
 13
684.0060371024192
 23
1833.632072876459
 33
0.0
 14
684.0060371024192
 24
1633.632072876459
 34
0.0
 50
90.0
100
AcDbRotatedDimension
1001
ACAD
1000
DSTYLE
1002
{
1070
   287
1070
     5
1070
   287
1070
     5
1070
   287
1070
     5
1070
    40
1040
15.0
1070
    41
1040
2.0
1070
    42
1040
2.0
1070
    43
1040
7.0
1070
    44
1040
1.0
1070
    73
1070
     0
1070
    74
1070
     0
1070
    77
1070
     1
1070
    78
1070
     8
1070
   140
1040
3.0
1070
   141
1040
0.0
1070
   145
1040
1.0
1070
   147
1040
0.8
1070
   179
1070
     4
1070
   271
1070
     0
1070
   272
1070
     0
1070
   279
1070
     2
1070
   284
1070
     8
1070
   285
1070
     8
1070
   286
1070
     8
1002
}
  0
DIMENSION
  5
27DA
330
17
100
AcDbEntity
  8
SUNPOU
100
AcDbDimension
  2
*D50
 10
523.8266225482548
 20
983.6320728764587
 30
0.0
 11
489.3266225482546
 21
1308.632072876459
 31
0.0
 70
    32
 71
     5
 42
650.0
  3
STANDARD
100
AcDbAlignedDimension
 13
684.0060371024192
 23
1633.632072876459
 33
0.0
 14
784.0060371024192
 24
983.6320728764586
 34
0.0
 50
90.0
100
AcDbRotatedDimension
1001
ACAD
1000
DSTYLE
1002
{
1070
   287
1070
     5
1070
   287
1070
     5
1070
   287
1070
     5
1070
    40
1040
15.0
1070
    41
1040
2.0
1070
    42
1040
2.0
1070
    43
1040
7.0
1070
    44
1040
1.0
1070
    73
1070
     0
1070
    74
1070
     0
1070
    77
1070
     1
1070
    78
1070
     8
1070
   140
1040
3.0
1070
   141
1040
0.0
1070
   145
1040
1.0
1070
   147
1040
0.8
1070
   179
1070
     4
1070
   271
1070
     0
1070
   272
1070
     0
1070
   279
1070
     2
1070
   284
1070
     8
1070
   285
1070
     8
1070
   286
1070
     8
1002
}
  0
LINE
  5
27E7
330
17
100
AcDbEntity
  8
2HASEN
100
AcDbLine
 10
3684.006037102419
 20
1623.632072876459
 30
0.0
 11
3584.006037102419
 21
1623.632072876459
 31
0.0
  0
LINE
  5
27E8
330
17
100
AcDbEntity
  8
2HASEN
100
AcDbLine
 10
3684.006037102419
 20
1643.632072876459
 30
0.0
 11
3584.006037102419
 21
1643.632072876459
 31
0.0
  0
LINE
  5
27E9
330
17
100
AcDbEntity
  8
1HASEN
100
AcDbLine
 10
3884.006037102419
 20
1633.632072876459
 30
0.0
 11
3484.006037102419
 21
1633.632072876459
 31
0.0
  0
LINE
  5
27EA
330
17
100
AcDbEntity
  8
2HASEN
100
AcDbLine
 10
3584.006037102419
 20
1643.632072876459
 30
0.0
 11
3584.006037102419
 21
1623.632072876459
 31
0.0
  0
LINE
  5
27EB
330
17
100
AcDbEntity
  8
1HASEN
100
AcDbLine
 10
3884.006037102419
 20
1833.632072876459
 30
0.0
 11
3484.006037102419
 21
1833.632072876459
 31
0.0
  0
LINE
  5
27EC
330
17
100
AcDbEntity
  8
2HASEN
100
AcDbLine
 10
3684.006037102419
 20
1843.632072876459
 30
0.0
 11
3584.006037102419
 21
1843.632072876459
 31
0.0
  0
LINE
  5
27ED
330
17
100
AcDbEntity
  8
2HASEN
100
AcDbLine
 10
3684.006037102419
 20
1823.632072876459
 30
0.0
 11
3584.006037102419
 21
1823.632072876459
 31
0.0
  0
LINE
  5
27EE
330
17
100
AcDbEntity
  8
2HASEN
100
AcDbLine
 10
3584.006037102419
 20
1843.632072876459
 30
0.0
 11
3584.006037102419
 21
1823.632072876459
 31
0.0
  0
CIRCLE
  5
27EF
330
17
100
AcDbEntity
  8
SEIHIN
100
AcDbCircle
 10
4666.081044831939
 20
1633.632072876459
 30
0.0
 40
10.0
  0
LINE
  5
27F0
330
17
100
AcDbEntity
  8
1HASEN
100
AcDbLine
 10
4546.081044831939
 20
1633.632072876459
 30
0.0
 11
4786.081044831939
 21
1633.632072876459
 31
0.0
  0
DIMENSION
  5
27F3
330
17
100
AcDbEntity
  8
SUNPOU
100
AcDbDimension
  2
*D51
 10
5123.543272539754
 20
1833.632072876459
 30
0.0
 11
5089.043272539754
 21
1908.632072876459
 31
0.0
 70
    32
 71
     5
 42
150.0
  3
STANDARD
100
AcDbAlignedDimension
 13
4806.081044831939
 23
1983.632072876459
 33
0.0
 14
4816.081044831939
 24
1833.632072876459
 34
0.0
 50
90.0
100
AcDbRotatedDimension
1001
ACAD
1000
DSTYLE
1002
{
1070
   287
1070
     5
1070
   287
1070
     5
1070
   287
1070
     5
1070
    40
1040
15.0
1070
    41
1040
2.0
1070
    42
1040
2.0
1070
    43
1040
7.0
1070
    44
1040
1.0
1070
    73
1070
     0
1070
    74
1070
     0
1070
    77
1070
     1
1070
    78
1070
     8
1070
   140
1040
3.0
1070
   141
1040
0.0
1070
   145
1040
1.0
1070
   147
1040
0.8
1070
   179
1070
     4
1070
   271
1070
     0
1070
   272
1070
     0
1070
   279
1070
     2
1070
   284
1070
     8
1070
   285
1070
     8
1070
   286
1070
     8
1002
}
  0
DIMENSION
  5
2800
330
17
100
AcDbEntity
  8
SUNPOU
100
AcDbDimension
  2
*D52
 10
5123.543272539754
 20
1633.632072876459
 30
0.0
 11
5089.043272539754
 21
1733.632072876459
 31
0.0
 70
    32
 71
     5
 42
200.0
  3
STANDARD
100
AcDbAlignedDimension
 13
4816.081044831939
 23
1833.632072876459
 33
0.0
 14
4816.081044831939
 24
1633.632072876459
 34
0.0
 50
90.0
100
AcDbRotatedDimension
1001
ACAD
1000
DSTYLE
1002
{
1070
   287
1070
     5
1070
   287
1070
     5
1070
   287
1070
     5
1070
    40
1040
15.0
1070
    41
1040
2.0
1070
    42
1040
2.0
1070
    43
1040
7.0
1070
    44
1040
1.0
1070
    73
1070
     0
1070
    74
1070
     0
1070
    77
1070
     1
1070
    78
1070
     8
1070
   140
1040
3.0
1070
   141
1040
0.0
1070
   145
1040
1.0
1070
   147
1040
0.8
1070
   179
1070
     4
1070
   271
1070
     0
1070
   272
1070
     0
1070
   279
1070
     2
1070
   284
1070
     8
1070
   285
1070
     8
1070
   286
1070
     8
1002
}
  0
DIMENSION
  5
280D
330
17
100
AcDbEntity
  8
SUNPOU
100
AcDbDimension
  2
*D53
 10
5123.543272539754
 20
983.6320728764584
 30
0.0
 11
5089.043272539754
 21
1308.632072876459
 31
0.0
 70
    32
 71
     5
 42
650.0000000000001
  3
STANDARD
100
AcDbAlignedDimension
 13
4816.081044831939
 23
1633.632072876459
 33
0.0
 14
4816.081044831939
 24
983.6320728764586
 34
0.0
 50
90.0
100
AcDbRotatedDimension
1001
ACAD
1000
DSTYLE
1002
{
1070
   287
1070
     5
1070
   287
1070
     5
1070
   287
1070
     5
1070
    40
1040
15.0
1070
    41
1040
2.0
1070
    42
1040
2.0
1070
    43
1040
7.0
1070
    44
1040
1.0
1070
    73
1070
     0
1070
    74
1070
     0
1070
    77
1070
     1
1070
    78
1070
     8
1070
   140
1040
3.0
1070
   141
1040
0.0
1070
   145
1040
1.0
1070
   147
1040
0.8
1070
   179
1070
     4
1070
   271
1070
     0
1070
   272
1070
     0
1070
   279
1070
     2
1070
   284
1070
     8
1070
   285
1070
     8
1070
   286
1070
     8
1002
}
  0
DIMENSION
  5
35FD
330
17
100
AcDbEntity
  8
SUNPOU
100
AcDbDimension
  2
*D54
 10
1284.006037102419
 20
2249.488999641697
 30
0.0
 11
1034.006037102419
 21
2283.988999641697
 31
0.0
 70
    32
 71
     5
 42
500.0
  3
STANDARD
100
AcDbAlignedDimension
 13
784.0060371024192
 23
1983.632072876459
 33
0.0
 14
1284.006037102419
 24
1983.632072876459
 34
0.0
100
AcDbRotatedDimension
1001
ACAD
1000
DSTYLE
1002
{
1070
   287
1070
     5
1070
    40
1040
15.0
1070
    41
1040
2.0
1070
    42
1040
2.0
1070
    43
1040
7.0
1070
    44
1040
1.0
1070
    73
1070
     0
1070
    74
1070
     0
1070
    77
1070
     1
1070
    78
1070
     8
1070
   140
1040
3.0
1070
   141
1040
0.0
1070
   145
1040
1.0
1070
   147
1040
0.8
1070
   179
1070
     4
1070
   271
1070
     0
1070
   272
1070
     0
1070
   279
1070
     2
1070
   284
1070
     8
1070
   285
1070
     8
1070
   286
1070
     8
1002
}
  0
DIMENSION
  5
360A
330
17
100
AcDbEntity
  8
SUNPOU
100
AcDbDimension
  2
*D55
 10
3284.006037102419
 20
2249.488999641697
 30
0.0
 11
3534.006037102419
 21
2283.988999641697
 31
0.0
 70
    32
 71
     5
 42
500.0
  3
STANDARD
100
AcDbAlignedDimension
 13
3784.006037102419
 23
1983.632072876459
 33
0.0
 14
3284.006037102419
 24
1983.632072876459
 34
0.0
 50
180.0
100
AcDbRotatedDimension
1001
ACAD
1000
DSTYLE
1002
{
1070
   287
1070
     5
1070
    40
1040
15.0
1070
    41
1040
2.0
1070
    42
1040
2.0
1070
    43
1040
7.0
1070
    44
1040
1.0
1070
    73
1070
     0
1070
    74
1070
     0
1070
    77
1070
     1
1070
    78
1070
     8
1070
   140
1040
3.0
1070
   141
1040
0.0
1070
   145
1040
1.0
1070
   147
1040
0.8
1070
   179
1070
     4
1070
   271
1070
     0
1070
   272
1070
     0
1070
   279
1070
     2
1070
   284
1070
     8
1070
   285
1070
     8
1070
   286
1070
     8
1002
}
  0
DIMENSION
  5
3620
330
17
100
AcDbEntity
  8
SUNPOU
100
AcDbDimension
  2
*D56
 10
3284.006037102419
 20
2249.488999641697
 30
0.0
 11
2284.006037102419
 21
2283.988999641697
 31
0.0
 70
    32
 71
     5
 42
2000.0
  3
STANDARD
100
AcDbAlignedDimension
 13
1284.006037102419
 23
1983.632072876459
 33
0.0
 14
3284.006037102419
 24
1983.632072876459
 34
0.0
100
AcDbRotatedDimension
1001
ACAD
1000
DSTYLE
1002
{
1070
   287
1070
     5
1070
    40
1040
15.0
1070
    41
1040
2.0
1070
    42
1040
2.0
1070
    43
1040
7.0
1070
    44
1040
1.0
1070
    73
1070
     0
1070
    74
1070
     0
1070
    77
1070
     1
1070
    78
1070
     8
1070
   140
1040
3.0
1070
   141
1040
0.0
1070
   145
1040
1.0
1070
   147
1040
0.8
1070
   179
1070
     4
1070
   271
1070
     0
1070
   272
1070
     0
1070
   279
1070
     2
1070
   284
1070
     8
1070
   285
1070
     8
1070
   286
1070
     8
1002
}
  0
MTEXT
  5
5AD2
330
17
100
AcDbEntity
  8
SUNPOU
100
AcDbMText
 10
5794.828255523324
 20
7358.934862314065
 30
0.0
 40
45.0
 41
0.0
 71
     7
 72
     1
  1
 
 73
     1
 44
1.0
  0
LINE
  5
5BED
330
17
100
AcDbEntity
  8
SUNPOU
100
AcDbLine
 10
4716.081044831939
 20
983.6320728764586
 30
0.0
 11
4716.081044831939
 21
1983.632072876459
 31
0.0
  0
LINE
  5
5BEE
330
17
100
AcDbEntity
  8
SUNPOU
100
AcDbLine
 10
4616.08104483194
 20
983.6320728764586
 30
0.0
 11
4616.081044831939
 21
1983.632072876459
 31
0.0
  0
DIMENSION
  5
6091
330
17
100
AcDbEntity
  8
SUNPOU
100
AcDbDimension
  2
*D67
 10
784.0060371024192
 20
3138.894000089593
 30
0.0
 11
834.0060371024192
 21
3173.394000089593
 31
0.0
 70
    32
 71
     5
 42
100.0
  3
STANDARD
100
AcDbAlignedDimension
 13
884.0060371024192
 23
3403.421980013623
 33
0.0
 14
784.0060371024192
 24
3303.421980013623
 34
0.0
100
AcDbRotatedDimension
1001
ACAD
1000
DSTYLE
1002
{
1070
    40
1040
15.0
1070
    41
1040
2.0
1070
    42
1040
2.0
1070
    43
1040
7.0
1070
    44
1040
1.0
1070
    73
1070
     0
1070
    74
1070
     0
1070
    77
1070
     1
1070
    78
1070
     8
1070
   140
1040
3.0
1070
   141
1040
0.0
1070
   145
1040
1.0
1070
   147
1040
0.8
1070
   179
1070
     4
1070
   271
1070
     0
1070
   272
1070
     0
1070
   279
1070
     2
1070
   284
1070
     8
1070
   285
1070
     8
1070
   286
1070
     8
1002
}
  0
TEXT
  5
62F7
330
17
100
AcDbEntity
  8
HAIKIN
100
AcDbText
 10
2362.207866075696
 20
4874.989121046838
 30
0.0
 40
202.5
  1
300X1000
 41
0.8
100
AcDbText
  0
TEXT
  5
62F8
330
17
100
AcDbEntity
  8
HAIKIN
100
AcDbText
 10
3772.694461983872
 20
4876.169450895726
 30
0.0
 40
202.5
  1
L=3000
 41
0.8
100
AcDbText
  0
TEXT
  5
62F9
330
17
100
AcDbEntity
  8
HAIKIN
100
AcDbText
 10
179.6987134896954
 20
4893.468112340892
 30
0.0
 40
213.75
  1
小口止・巻止
 41
0.8
100
AcDbText
  0
TEXT
  5
62FA
330
17
100
AcDbEntity
  8
HAIKIN
100
AcDbText
 10
1415.563574865479
 20
4888.423155149834
 30
0.0
 40
225.0
  1
ブロック
 41
0.8
100
AcDbText
  0
ENDSEC
  0
SECTION
  2
OBJECTS
  0
DICTIONARY
  5
C
330
0
100
AcDbDictionary
281
     1
  3
ACAD_CIP_PREVIOUS_PRODUCT_INFO
350
75EC
  3
ACAD_COLOR
350
3B0A
  3
ACAD_DETAILVIEWSTYLE
350
75E7
  3
ACAD_GROUP
350
D
  3
ACAD_LAYOUT
350
68
  3
ACAD_MATERIAL
350
3B09
  3
ACAD_MLEADERSTYLE
350
75E3
  3
ACAD_MLINESTYLE
350
1A
  3
ACAD_PLOTSETTINGS
350
69
  3
ACAD_PLOTSTYLENAME
350
66
  3
ACAD_SCALELIST
350
75D1
  3
ACAD_SECTIONVIEWSTYLE
350
75E5
  3
ACAD_TABLESTYLE
350
3B0B
  3
ACAD_VISUALSTYLE
350
75B8
  3
ACDB_RECOMPOSE_DATA
350
83D1
  3
AcDbVariableDictionary
350
99
  3
ASE_INDEX_DICTIONARY
350
65B6
  0
DICTIONARY
  5
82FE
330
8
100
AcDbDictionary
280
     1
281
     1
  3
ACAD_XREC_ROUNDTRIP
360
83C7
  0
DICTIONARY
  5
764C
330
2
100
AcDbDictionary
280
     1
281
     1
  3
ACAD_LAYERSTATES
360
764D
  0
DICTIONARY
  5
75FB
330
E
100
AcDbDictionary
280
     1
281
     1
  3
ADSK_XREC_LAYER_RECONCILED
360
75FC
  0
DICTIONARY
  5
75FD
330
23
100
AcDbDictionary
280
     1
281
     1
  3
ADSK_XREC_LAYER_RECONCILED
360
75FE
  0
DICTIONARY
  5
75FF
330
24
100
AcDbDictionary
280
     1
281
     1
  3
ADSK_XREC_LAYER_RECONCILED
360
7600
  0
DICTIONARY
  5
7601
330
25
100
AcDbDictionary
280
     1
281
     1
  3
ADSK_XREC_LAYER_RECONCILED
360
7602
  0
DICTIONARY
  5
7603
330
26
100
AcDbDictionary
280
     1
281
     1
  3
ADSK_XREC_LAYER_RECONCILED
360
7604
  0
DICTIONARY
  5
7605
330
27
100
AcDbDictionary
280
     1
281
     1
  3
ADSK_XREC_LAYER_RECONCILED
360
7606
  0
DICTIONARY
  5
7607
330
28
100
AcDbDictionary
280
     1
281
     1
  3
ADSK_XREC_LAYER_RECONCILED
360
7608
  0
DICTIONARY
  5
7609
330
29
100
AcDbDictionary
280
     1
281
     1
  3
ADSK_XREC_LAYER_RECONCILED
360
760A
  0
DICTIONARY
  5
760B
330
2A
100
AcDbDictionary
280
     1
281
     1
  3
ADSK_XREC_LAYER_RECONCILED
360
760C
  0
DICTIONARY
  5
95
330
17
100
AcDbDictionary
280
     1
281
     1
  3
ACAD_SORTENTS
360
58D7
  0
XRECORD
  5
75EC
102
{ACAD_REACTORS
330
C
102
}
330
C
100
AcDbXrecord
280
     1
300
ACD
300
2014
300
ACD_F_S
  0
DICTIONARY
  5
3B0A
102
{ACAD_REACTORS
330
C
102
}
330
C
100
AcDbDictionary
281
     1
  0
DICTIONARY
  5
75E7
102
{ACAD_REACTORS
330
C
102
}
330
C
100
AcDbDictionary
281
     1
  3
Imperial24
350
75E8
  0
DICTIONARY
  5
D
102
{ACAD_REACTORS
330
C
102
}
330
C
100
AcDbDictionary
281
     1
  0
DICTIONARY
  5
68
102
{ACAD_REACTORS
330
C
102
}
330
C
100
AcDbDictionary
281
     1
  3
Model
350
6A
  3
ﾚｲｱｳﾄ1
350
6B
  0
DICTIONARY
  5
3B09
102
{ACAD_REACTORS
330
C
102
}
330
C
100
AcDbDictionary
281
     1
  3
ByBlock
350
75A8
  3
ByLayer
350
75A0
  3
Global
350
75B0
  0
DICTIONARY
  5
75E3
102
{ACAD_REACTORS
330
C
102
}
330
C
100
AcDbDictionary
281
     1
  3
Standard
350
75E4
  0
DICTIONARY
  5
1A
102
{ACAD_REACTORS
330
C
102
}
330
C
100
AcDbDictionary
281
     1
  3
STANDARD
350
1B
  0
DICTIONARY
  5
69
102
{ACAD_REACTORS
330
C
102
}
330
C
100
AcDbDictionary
281
     1
  0
ACDBDICTIONARYWDFLT
  5
66
102
{ACAD_REACTORS
330
C
102
}
330
C
100
AcDbDictionary
281
     1
  3
Normal
350
67
100
AcDbDictionaryWithDefault
340
67
  0
DICTIONARY
  5
75D1
102
{ACAD_REACTORS
330
C
102
}
330
C
100
AcDbDictionary
281
     1
  3
A0
350
75D2
  3
A1
350
75D3
  3
A2
350
75D4
  3
A3
350
75D5
  3
A4
350
75D6
  3
A5
350
75D7
  3
A6
350
75D8
  3
A7
350
75D9
  3
A8
350
75DA
  3
A9
350
75DB
  3
B0
350
75DC
  3
B1
350
75DD
  3
B2
350
75DE
  3
B3
350
75DF
  3
B4
350
75E0
  3
B5
350
75E1
  3
B6
350
75E2
  0
DICTIONARY
  5
75E5
102
{ACAD_REACTORS
330
C
102
}
330
C
100
AcDbDictionary
281
     1
  3
Imperial24
350
75E6
  0
DICTIONARY
  5
3B0B
102
{ACAD_REACTORS
330
C
102
}
330
C
100
AcDbDictionary
281
     1
  3
Standard
350
3B0C
  0
DICTIONARY
  5
75B8
102
{ACAD_REACTORS
330
C
102
}
330
C
100
AcDbDictionary
281
     1
  3
2dWireframe
350
75BE
  3
Basic
350
75BD
  3
Brighten
350
75C4
  3
ColorChange
350
75C8
  3
Conceptual
350
75C1
  3
Dim
350
75C3
  3
EdgeColorOff
350
75D0
  3
Facepattern
350
75C7
  3
Flat
350
75B9
  3
FlatWithEdges
350
75BA
  3
Gouraud
350
75BB
  3
GouraudWithEdges
350
75BC
  3
Hidden
350
75C0
  3
JitterOff
350
75CE
  3
Linepattern
350
75C6
  3
OverhangOff
350
75CF
  3
Realistic
350
75C2
  3
Shaded
350
75CD
  3
Shaded with edges
350
75CC
  3
Shades of Gray
350
75C9
  3
Sketchy
350
75CA
  3
Thicken
350
75C5
  3
Wireframe
350
75BF
  3
X-Ray
350
75CB
  0
XRECORD
  5
83D1
102
{ACAD_REACTORS
330
C
102
}
330
C
100
AcDbXrecord
280
     1
 90
        1
330
3B0C
  0
DICTIONARY
  5
99
102
{ACAD_REACTORS
330
C
102
}
330
C
100
AcDbDictionary
281
     1
  3
CANNOSCALE
350
8346
  3
CMLEADERSTYLE
350
8343
  3
CTABLESTYLE
350
3B11
  3
CVIEWDETAILSTYLE
350
8344
  3
CVIEWSECTIONSTYLE
350
8345
  3
DIMASSOC
350
9A
  3
LAYEREVAL
350
83C4
  3
LAYERNOTIFY
350
83C5
  3
LIGHTINGUNITS
350
83C3
  3
MSLTSCALE
350
83C2
  3
PROJECTNAME
350
7231
  3
XCLIPFRAME
350
83C6
  0
DICTIONARY
  5
65B6
102
{ACAD_REACTORS
330
C
102
}
330
C
100
AcDbDictionary
281
     1
  3
ASEBlockHierarchyIndexRecord
350
65B8
1001
DCO15
1040
1596357063.375
  0
XRECORD
  5
83C7
102
{ACAD_REACTORS
330
82FE
102
}
330
82FE
100
AcDbXrecord
280
     1
102
VTR_0.000_0.000_1.000_1.000_VISUALSTYLE
340
75BE
102
VTR_0.000_0.000_1.000_1.000_GRIDDISPLAY
 70
     3
102
VTR_0.000_0.000_1.000_1.000_GRIDMAJOR
 70
     5
102
VTR_0.000_0.000_1.000_1.000_DEFAULTLIGHTING
280
     1
102
VTR_0.000_0.000_1.000_1.000_DEFAULTLIGHTINGTYPE
 70
     1
102
VTR_0.000_0.000_1.000_1.000_BRIGHTNESS
141
0.0
102
VTR_0.000_0.000_1.000_1.000_CONTRAST
142
0.0
  0
DICTIONARY
  5
764D
102
{ACAD_REACTORS
330
764C
102
}
330
764C
100
AcDbDictionary
281
     1
  0
XRECORD
  5
75FC
102
{ACAD_REACTORS
330
75FB
102
}
330
75FB
100
AcDbXrecord
280
     1
290
     1
  0
XRECORD
  5
75FE
102
{ACAD_REACTORS
330
75FD
102
}
330
75FD
100
AcDbXrecord
280
     1
290
     1
  0
XRECORD
  5
7600
102
{ACAD_REACTORS
330
75FF
102
}
330
75FF
100
AcDbXrecord
280
     1
290
     1
  0
XRECORD
  5
7602
102
{ACAD_REACTORS
330
7601
102
}
330
7601
100
AcDbXrecord
280
     1
290
     1
  0
XRECORD
  5
7604
102
{ACAD_REACTORS
330
7603
102
}
330
7603
100
AcDbXrecord
280
     1
290
     1
  0
XRECORD
  5
7606
102
{ACAD_REACTORS
330
7605
102
}
330
7605
100
AcDbXrecord
280
     1
290
     1
  0
XRECORD
  5
7608
102
{ACAD_REACTORS
330
7607
102
}
330
7607
100
AcDbXrecord
280
     1
290
     1
  0
XRECORD
  5
760A
102
{ACAD_REACTORS
330
7609
102
}
330
7609
100
AcDbXrecord
280
     1
290
     1
  0
XRECORD
  5
760C
102
{ACAD_REACTORS
330
760B
102
}
330
760B
100
AcDbXrecord
280
     1
290
     1
  0
SORTENTSTABLE
  5
58D7
102
{ACAD_REACTORS
330
95
102
}
330
95
100
AcDbSortentsTable
330
17
331
0
  5
17F4
331
5F
  5
5F
331
60
  5
60
331
B65
  5
B65
331
B66
  5
B66
331
B6A
  5
B6A
331
B6C
  5
B6C
331
B6E
  5
B6E
331
B75
  5
B75
331
B76
  5
B76
331
B77
  5
B77
331
B7B
  5
B7B
331
B7C
  5
B7C
331
B7D
  5
B7D
331
B82
  5
B82
331
B83
  5
B83
331
B88
  5
B88
331
B8A
  5
B8A
331
B8C
  5
B8C
331
B8D
  5
B8D
331
B8E
  5
B8E
331
B8F
  5
B8F
331
B90
  5
B90
331
B91
  5
B91
331
B93
  5
B93
331
B98
  5
B98
331
B99
  5
B99
331
B9A
  5
B9A
331
B9B
  5
B9B
331
B9C
  5
B9C
331
B9D
  5
B9D
331
B9E
  5
B9E
331
B9F
  5
B9F
331
BA1
  5
BA1
331
BA2
  5
BA2
331
BA3
  5
BA3
331
BA4
  5
BA4
331
BA5
  5
BA7
331
BA6
  5
BA8
331
BA7
  5
BA9
331
BA8
  5
BAA
331
BA9
  5
BAB
331
BAA
  5
BB5
331
BAB
  5
BB6
331
BB5
  5
BB7
331
BB6
  5
BBA
331
BB7
  5
BBB
331
BBA
  5
BBC
331
BBB
  5
BBD
331
BBC
  5
BBE
331
BBD
  5
BBF
331
BBE
  5
BC0
331
BBF
  5
BC1
331
BC0
  5
BC6
331
BC1
  5
BCB
331
BC6
  5
1062
331
BCB
  5
106F
331
1062
  5
107C
331
106F
  5
1089
331
107C
  5
10AB
331
1089
  5
10D9
331
10AB
  5
10F8
331
10D9
  5
11B0
331
10F8
  5
1208
331
11B0
  5
1215
331
1208
  5
1216
331
1215
  5
123E
331
1216
  5
12A5
331
123E
  5
12DB
331
12A5
  5
12E8
331
12DB
  5
12E9
331
2011
  5
2013
331
2012
  5
2053
331
2013
  5
20A4
331
20A4
  5
20A8
331
20A5
  5
20A9
331
20A8
  5
20AA
331
22C3
  5
22C6
331
22C4
  5
2442
331
22C6
  5
2443
331
27BC
  5
27BE
331
27BD
  5
27BF
331
27BE
  5
27C0
331
27BF
  5
27CD
331
27C0
  5
27DA
331
27CD
  5
27E7
331
27DA
  5
27E8
331
27E7
  5
27E9
331
27E8
  5
27EA
331
27E9
  5
27EB
331
27EA
  5
27EC
331
27EB
  5
27ED
331
27EC
  5
27EE
331
27ED
  5
27EF
331
27EE
  5
27F0
331
27EF
  5
27F3
331
27F0
  5
2800
331
27F3
  5
280D
331
2800
  5
2C65
331
280D
  5
2C67
331
35FD
  5
3620
331
360A
  5
362D
331
3620
  5
363A
331
5AD2
  5
5B19
331
5BED
  5
BA6
331
5BEE
  5
BA5
  0
ACAD_PROXY_OBJECT
  5
75E8
102
{ACAD_REACTORS
330
75E7
102
}
102
{ACAD_XDICTIONARY
360
83C0
102
}
330
75E7
100
AcDbProxyObject
 90
      499
 91
      531
 95
  3276827
 70
     0
 93
     2314
310
9207000000180005C0F42F5A8DC671F815AF46E07A15AE7E07000000180005C0F42F5A8DC671FA3300000018001000000180005C0F42F5A8DC671FA02000000000000741FA028CC00000060002330000001800000852480368038003280390034803080360019001A004AD12801E002E00208031802B003080390010002B00
310
348032803B802A003C803800328010002E0033001000110012803A003180188011001F001280100012801E002E00208031802B003080390010002B00348032803B80220032803A00308034803600248032001F0012802E00280029802180208026002280100012801E002E00208031802B003080390010002B00348032803B
310
802980318030803600328010002E0033001000110012803980370011001F0012802B0340
340
F
340
0
340
13
340
F
340
13
340
13
 94
        0
  0
LAYOUT
  5
6A
102
{ACAD_REACTORS
330
68
102
}
330
68
100
AcDbPlotSettings
  1

  2
DocuWorks Printer
  4
A4
  6

 40
5.408083438873291
 41
5.408078670501709
 42
5.408096313476562
 43
5.4080810546875
 44
210.0156707763672
 45
297.0106506347656
 46
0.0
 47
2.462895316228327
 48
6994.972874263301
 49
158.8221302313286
140
12941.2990051483
141
4370.115948448831
142
1.0
143
21.14108724158211
 70
 11956
 72
     1
 73
     1
 74
     4
  7
monochrome.ctb
 75
     0
 76
     0
 77
     2
 78
   300
147
0.0473012569586825
148
-6994.972874263301
149
-158.8221302313286
100
AcDbLayout
  1
Model
 70
     1
 71
     0
 10
0.0
 20
0.0
 11
12.0
 21
9.0
 12
0.0
 22
0.0
 32
0.0
 14
0.0
 24
0.0
 34
0.0
 15
0.0
 25
0.0
 35
0.0
146
0.0
 13
0.0
 23
0.0
 33
0.0
 16
1.0
 26
0.0
 36
0.0
 17
0.0
 27
1.0
 37
0.0
 76
     0
330
17
331
7599
1001
ACAD_PSEXT
1000
DocuWorks Printer
1000
DocuWorks Printer Driver
1000
DocuWorks Port
1000

1070
     0
  0
LAYOUT
  5
6B
102
{ACAD_REACTORS
330
68
102
}
330
68
100
AcDbPlotSettings
  1

  2
RICOH IPSiO NX850 RPCS
  4

  6

 40
0.0
 41
0.0
 42
0.0
 43
0.0
 44
0.0
 45
0.0
 46
0.0
 47
0.0
 48
0.0
 49
0.0
140
0.0
141
0.0
142
1.0
143
1.0
 70
   688
 72
     0
 73
     0
 74
     5
  7
monochrome.ctb
 75
    16
 76
     0
 77
     2
 78
   300
147
1.0
148
0.0
149
0.0
100
AcDbLayout
  1
ﾚｲｱｳﾄ1
 70
     0
 71
     1
 10
0.0
 20
0.0
 11
12.0
 21
9.0
 12
0.0
 22
0.0
 32
0.0
 14
1.000000000000000E+20
 24
1.000000000000000E+20
 34
1.000000000000000E+20
 15
-1.000000000000000E+20
 25
-1.000000000000000E+20
 35
-1.000000000000000E+20
146
0.0
 13
0.0
 23
0.0
 33
0.0
 16
1.0
 26
0.0
 36
0.0
 17
0.0
 27
1.0
 37
0.0
 76
     0
330
14
  0
MATERIAL
  5
75A8
102
{ACAD_REACTORS
330
3B09
102
}
102
{ACAD_XDICTIONARY
360
83C8
102
}
330
3B09
100
AcDbMaterial
  1
ByBlock
 72
     0
 73
     2
 43
0.0208333333333333
 43
0.0
 43
0.0
 43
0.0
 43
0.0
 43
0.0208333333333333
 43
0.0
 43
0.0
 43
0.0
 43
0.0
 43
1.0
 43
0.0
 43
0.0
 43
0.0
 43
0.0
 43
1.0
 77
     0
 78
     2
 47
0.0208333333333333
 47
0.0
 47
0.0
 47
0.0
 47
0.0
 47
0.0208333333333333
 47
0.0
 47
0.0
 47
0.0
 47
0.0
 47
1.0
 47
0.0
 47
0.0
 47
0.0
 47
0.0
 47
1.0
171
     0
172
     2
 49
0.0208333333333333
 49
0.0
 49
0.0
 49
0.0
 49
0.0
 49
0.0208333333333333
 49
0.0
 49
0.0
 49
0.0
 49
0.0
 49
1.0
 49
0.0
 49
0.0
 49
0.0
 49
0.0
 49
1.0
175
     0
176
     2
142
0.0208333333333333
142
0.0
142
0.0
142
0.0
142
0.0
142
0.0208333333333333
142
0.0
142
0.0
142
0.0
142
0.0
142
1.0
142
0.0
142
0.0
142
0.0
142
0.0
142
1.0
179
     0
270
     2
144
0.0208333333333333
144
0.0
144
0.0
144
0.0
144
0.0
144
0.0208333333333333
144
0.0
144
0.0
144
0.0
144
0.0
144
1.0
144
0.0
144
0.0
144
0.0
144
0.0
144
1.0
274
     2
147
0.0208333333333333
147
0.0
147
0.0
147
0.0
147
0.0
147
0.0208333333333333
147
0.0
147
0.0
147
0.0
147
0.0
147
1.0
147
0.0
147
0.0
147
0.0
147
0.0
147
1.0
  0
MATERIAL
  5
75A0
102
{ACAD_REACTORS
330
3B09
102
}
102
{ACAD_XDICTIONARY
360
83CA
102
}
330
3B09
100
AcDbMaterial
  1
ByLayer
 72
     0
 73
     2
 43
0.0208333333333333
 43
0.0
 43
0.0
 43
0.0
 43
0.0
 43
0.0208333333333333
 43
0.0
 43
0.0
 43
0.0
 43
0.0
 43
1.0
 43
0.0
 43
0.0
 43
0.0
 43
0.0
 43
1.0
 77
     0
 78
     2
 47
0.0208333333333333
 47
0.0
 47
0.0
 47
0.0
 47
0.0
 47
0.0208333333333333
 47
0.0
 47
0.0
 47
0.0
 47
0.0
 47
1.0
 47
0.0
 47
0.0
 47
0.0
 47
0.0
 47
1.0
171
     0
172
     2
 49
0.0208333333333333
 49
0.0
 49
0.0
 49
0.0
 49
0.0
 49
0.0208333333333333
 49
0.0
 49
0.0
 49
0.0
 49
0.0
 49
1.0
 49
0.0
 49
0.0
 49
0.0
 49
0.0
 49
1.0
175
     0
176
     2
142
0.0208333333333333
142
0.0
142
0.0
142
0.0
142
0.0
142
0.0208333333333333
142
0.0
142
0.0
142
0.0
142
0.0
142
1.0
142
0.0
142
0.0
142
0.0
142
0.0
142
1.0
179
     0
270
     2
144
0.0208333333333333
144
0.0
144
0.0
144
0.0
144
0.0
144
0.0208333333333333
144
0.0
144
0.0
144
0.0
144
0.0
144
1.0
144
0.0
144
0.0
144
0.0
144
0.0
144
1.0
274
     2
147
0.0208333333333333
147
0.0
147
0.0
147
0.0
147
0.0
147
0.0208333333333333
147
0.0
147
0.0
147
0.0
147
0.0
147
1.0
147
0.0
147
0.0
147
0.0
147
0.0
147
1.0
  0
MATERIAL
  5
75B0
102
{ACAD_REACTORS
330
3B09
102
}
102
{ACAD_XDICTIONARY
360
83CC
102
}
330
3B09
100
AcDbMaterial
  1
Global
 72
     0
 73
     2
 43
0.0208333333333333
 43
0.0
 43
0.0
 43
0.0
 43
0.0
 43
0.0208333333333333
 43
0.0
 43
0.0
 43
0.0
 43
0.0
 43
1.0
 43
0.0
 43
0.0
 43
0.0
 43
0.0
 43
1.0
 77
     0
 78
     2
 47
0.0208333333333333
 47
0.0
 47
0.0
 47
0.0
 47
0.0
 47
0.0208333333333333
 47
0.0
 47
0.0
 47
0.0
 47
0.0
 47
1.0
 47
0.0
 47
0.0
 47
0.0
 47
0.0
 47
1.0
171
     0
172
     2
 49
0.0208333333333333
 49
0.0
 49
0.0
 49
0.0
 49
0.0
 49
0.0208333333333333
 49
0.0
 49
0.0
 49
0.0
 49
0.0
 49
1.0
 49
0.0
 49
0.0
 49
0.0
 49
0.0
 49
1.0
175
     0
176
     2
142
0.0208333333333333
142
0.0
142
0.0
142
0.0
142
0.0
142
0.0208333333333333
142
0.0
142
0.0
142
0.0
142
0.0
142
1.0
142
0.0
142
0.0
142
0.0
142
0.0
142
1.0
179
     0
270
     2
144
0.0208333333333333
144
0.0
144
0.0
144
0.0
144
0.0
144
0.0208333333333333
144
0.0
144
0.0
144
0.0
144
0.0
144
1.0
144
0.0
144
0.0
144
0.0
144
0.0
144
1.0
274
     2
147
0.0208333333333333
147
0.0
147
0.0
147
0.0
147
0.0
147
0.0208333333333333
147
0.0
147
0.0
147
0.0
147
0.0
147
1.0
147
0.0
147
0.0
147
0.0
147
0.0
147
1.0
  0
MLEADERSTYLE
  5
75E4
102
{ACAD_REACTORS
330
75E3
102
}
330
75E3
100
AcDbMLeaderStyle
170
     2
171
     1
172
     0
 90
        2
 40
0.0
 41
0.0
173
     1
 91
-1056964608
340
11
 92
       -2
290
     1
 42
0.09
291
     1
 43
0.36
  3
Standard
341
0
 44
0.18
300

342
F
174
     1
178
     6
175
     1
176
     0
 93
-1056964608
 45
0.18
292
     0
297
     0
 46
0.18
343
0
 94
-1056964608
 47
1.0
 49
1.0
140
1.0
293
     1
141
0.0
294
     1
177
     0
142
1.0
295
     0
296
     0
143
0.125
1001
ACAD_MLEADERVER
1070
     2
  0
MLINESTYLE
  5
1B
102
{ACAD_REACTORS
330
1A
102
}
330
1A
100
AcDbMlineStyle
  2
STANDARD
 70
     0
  3

 62
   256
 51
90.0
 52
90.0
 71
     2
 49
0.5
 62
   256
  6
BYLAYER
 49
-0.5
 62
   256
  6
BYLAYER
  0
ACDBPLACEHOLDER
  5
67
102
{ACAD_REACTORS
330
66
102
}
330
66
  0
SCALE
  5
75D2
102
{ACAD_REACTORS
330
75D1
102
}
330
75D1
100
AcDbScale
 70
     0
300
1:1
140
1.0
141
1.0
290
     1
  0
SCALE
  5
75D3
102
{ACAD_REACTORS
330
75D1
102
}
330
75D1
100
AcDbScale
 70
     0
300
1/128" = 1'-0"
140
0.0078125
141
12.0
290
     0
  0
SCALE
  5
75D4
102
{ACAD_REACTORS
330
75D1
102
}
330
75D1
100
AcDbScale
 70
     0
300
1/64" = 1'-0"
140
0.015625
141
12.0
290
     0
  0
SCALE
  5
75D5
102
{ACAD_REACTORS
330
75D1
102
}
330
75D1
100
AcDbScale
 70
     0
300
1/32" = 1'-0"
140
0.03125
141
12.0
290
     0
  0
SCALE
  5
75D6
102
{ACAD_REACTORS
330
75D1
102
}
330
75D1
100
AcDbScale
 70
     0
300
1/16" = 1'-0"
140
0.0625
141
12.0
290
     0
  0
SCALE
  5
75D7
102
{ACAD_REACTORS
330
75D1
102
}
330
75D1
100
AcDbScale
 70
     0
300
3/32" = 1'-0"
140
0.09375
141
12.0
290
     0
  0
SCALE
  5
75D8
102
{ACAD_REACTORS
330
75D1
102
}
330
75D1
100
AcDbScale
 70
     0
300
1/8" = 1'-0"
140
0.125
141
12.0
290
     0
  0
SCALE
  5
75D9
102
{ACAD_REACTORS
330
75D1
102
}
330
75D1
100
AcDbScale
 70
     0
300
3/16" = 1'-0"
140
0.1875
141
12.0
290
     0
  0
SCALE
  5
75DA
102
{ACAD_REACTORS
330
75D1
102
}
330
75D1
100
AcDbScale
 70
     0
300
1/4" = 1'-0"
140
0.25
141
12.0
290
     0
  0
SCALE
  5
75DB
102
{ACAD_REACTORS
330
75D1
102
}
330
75D1
100
AcDbScale
 70
     0
300
3/8" = 1'-0"
140
0.375
141
12.0
290
     0
  0
SCALE
  5
75DC
102
{ACAD_REACTORS
330
75D1
102
}
330
75D1
100
AcDbScale
 70
     0
300
1/2" = 1'-0"
140
0.5
141
12.0
290
     0
  0
SCALE
  5
75DD
102
{ACAD_REACTORS
330
75D1
102
}
330
75D1
100
AcDbScale
 70
     0
300
3/4" = 1'-0"
140
0.75
141
12.0
290
     0
  0
SCALE
  5
75DE
102
{ACAD_REACTORS
330
75D1
102
}
330
75D1
100
AcDbScale
 70
     0
300
1" = 1'-0"
140
1.0
141
12.0
290
     0
  0
SCALE
  5
75DF
102
{ACAD_REACTORS
330
75D1
102
}
330
75D1
100
AcDbScale
 70
     0
300
1-1/2" = 1'-0"
140
1.5
141
12.0
290
     0
  0
SCALE
  5
75E0
102
{ACAD_REACTORS
330
75D1
102
}
330
75D1
100
AcDbScale
 70
     0
300
3" = 1'-0"
140
3.0
141
12.0
290
     0
  0
SCALE
  5
75E1
102
{ACAD_REACTORS
330
75D1
102
}
330
75D1
100
AcDbScale
 70
     0
300
6" = 1'-0"
140
6.0
141
12.0
290
     0
  0
SCALE
  5
75E2
102
{ACAD_REACTORS
330
75D1
102
}
330
75D1
100
AcDbScale
 70
     0
300
1'-0" = 1'-0"
140
12.0
141
12.0
290
     0
  0
ACAD_PROXY_OBJECT
  5
75E6
102
{ACAD_REACTORS
330
75E5
102
}
102
{ACAD_XDICTIONARY
360
83BE
102
}
330
75E5
100
AcDbProxyObject
 90
      499
 91
      530
 95
  3276827
 70
     0
 93
     3814
310
929D000000180005C0F42F5A8DC671FC00000060001703D0BD6A3719C7E5C0F42F5A8DC6F1FA330000001800099400000060001703D0BD6A3719C7E5C0F42F5A8DC671FC00000060001703D0BD6A3719C7E808000000000001D07E80C0000006000400000064003081815AF46E07A158E7E80C8340C16A22A7D90FC9F8CAE6
310
5A70A583A07E1FE81C635378FA1F8CAE65A70A583A17E7944A7F127A97E9FA149200DA00E000CA00E400D200C200D80064006800882480160010002780160010002880160010002980160010002C00160010002D002F84A007800B8008200C600AC00C200E4004000AC00D200CA00EE00A800F200E000CA004000B800CC004
310
00044004A00E800C600620044007C004A0040004A007800B8008200C600AC00C200E4004000AC00D200CA00EE00A600CA00C600E800D200DE00DC00A600E800C200E400E8009200C8007C004A005A004A007800B8008200C600AC00C200E4004000AC00D200CA00EE00A600CA00C600E800D200DE00DC008A00DC00C800920
310
0C8007C004A00B800A000A6008600820098008A0040004A007800B8008200C600AC00C200E4004000AC00D200CA00EE00A600C600C200D800CA004000B800CC00400044004A00E600DC0044007C004A00832080270029802480198018807404C
340
F
340
0
340
0
340
13
340
13
340
F
 94
        0
  0
TABLESTYLE
  5
3B0C
102
{ACAD_REACTORS
330
3B0B
102
}
102
{ACAD_XDICTIONARY
360
83CE
102
}
330
3B0B
100
AcDbTableStyle
  3
Standard
 70
     0
 71
     0
 40
0.06
 41
0.06
280
     0
281
     0
  7
STANDARD
140
0.18
170
     2
 62
     0
 63
   257
283
     0
274
    -2
284
     1
 64
     0
275
    -2
285
     1
 65
     0
276
    -2
286
     1
 66
     0
277
    -2
287
     1
 67
     0
278
    -2
288
     1
 68
     0
279
    -2
289
     1
 69
     0
  7
STANDARD
140
0.25
170
     5
 62
     0
 63
   257
283
     0
274
    -2
284
     1
 64
     0
275
    -2
285
     1
 65
     0
276
    -2
286
     1
 66
     0
277
    -2
287
     1
 67
     0
278
    -2
288
     1
 68
     0
279
    -2
289
     1
 69
     0
  7
STANDARD
140
0.18
170
     5
 62
     0
 63
   257
283
     0
274
    -2
284
     1
 64
     0
275
    -2
285
     1
 65
     0
276
    -2
286
     1
 66
     0
277
    -2
287
     1
 67
     0
278
    -2
288
     1
 68
     0
279
    -2
289
     1
 69
     0
  0
VISUALSTYLE
  5
75BE
102
{ACAD_REACTORS
330
75B8
102
}
102
{ACAD_XDICTIONARY
360
83D2
102
}
330
75B8
100
AcDbVisualStyle
  2
2dWireframe
 70
     4
 71
     0
 72
     2
 73
     0
 90
        0
 40
-0.6
 41
-30.0
 62
     5
 63
     7
421
 16777215
 74
     1
 91
        4
 64
     7
 65
   257
 75
     1
175
     1
 42
1.0
 92
        0
 66
   257
 43
1.0
 76
     1
 77
     6
 78
     2
 67
     7
 79
     5
170
     0
171
     0
290
     0
174
     0
 93
        1
 44
0.0
173
     0
291
     0
 45
0.0
1001
ACAD
1000
AcDbSavedByObjectVersion
1070
     0
  0
VISUALSTYLE
  5
75BD
102
{ACAD_REACTORS
330
75B8
102
}
102
{ACAD_XDICTIONARY
360
83D4
102
}
330
75B8
100
AcDbVisualStyle
  2
Basic
 70
     7
 71
     1
 72
     0
 73
     1
 90
        0
 40
-0.6
 41
-30.0
 62
     5
 63
     7
421
 16777215
 74
     0
 91
        4
 64
     7
 65
   257
 75
     1
175
     1
 42
1.0
 92
        8
 66
     7
 43
1.0
 76
     1
 77
     6
 78
     2
 67
     7
 79
     5
170
     0
171
     0
290
     0
174
     0
 93
        1
 44
0.0
173
     0
291
     1
 45
0.0
1001
ACAD
1000
AcDbSavedByObjectVersion
1070
     0
  0
VISUALSTYLE
  5
75C4
102
{ACAD_REACTORS
330
75B8
102
}
102
{ACAD_XDICTIONARY
360
83D6
102
}
330
75B8
100
AcDbVisualStyle
  2
Brighten
 70
    12
 71
     2
 72
     2
 73
     0
 90
        0
 40
-0.6
 41
-30.0
 62
     5
 63
     7
421
 16777215
 74
     1
 91
        4
 64
     7
 65
   257
 75
     1
175
     1
 42
1.0
 92
        8
 66
     7
 43
1.0
 76
     1
 77
     6
 78
     2
 67
     7
 79
     5
170
     0
171
     0
290
     0
174
     0
 93
        1
 44
50.0
173
     0
291
     1
 45
0.0
1001
ACAD
1000
AcDbSavedByObjectVersion
1070
     0
  0
VISUALSTYLE
  5
75C8
102
{ACAD_REACTORS
330
75B8
102
}
102
{ACAD_XDICTIONARY
360
83D8
102
}
330
75B8
100
AcDbVisualStyle
  2
ColorChange
 70
    16
 71
     2
 72
     2
 73
     3
 90
        0
 40
-0.6
 41
-30.0
 62
     5
 63
     8
421
  8421504
 74
     1
 91
        4
 64
     7
 65
   257
 75
     1
175
     1
 42
1.0
 92
        8
 66
     8
424
  8421504
 43
1.0
 76
     1
 77
     6
 78
     2
 67
     7
 79
     5
170
     0
171
     0
290
     0
174
     0
 93
        1
 44
0.0
173
     0
291
     1
 45
0.0
1001
ACAD
1000
AcDbSavedByObjectVersion
1070
     0
  0
VISUALSTYLE
  5
75C1
102
{ACAD_REACTORS
330
75B8
102
}
102
{ACAD_XDICTIONARY
360
83DA
102
}
330
75B8
100
AcDbVisualStyle
  2
Conceptual
 70
     9
 71
     3
 72
     2
 73
     0
 90
        0
 40
-0.6
 41
-30.0
 62
     5
 63
     7
421
 16777215
 74
     2
 91
        2
 64
     7
 65
   257
 75
     1
175
     1
 42
179.0
 92
        8
 66
     7
 43
1.0
 76
     1
 77
     6
 78
     2
 67
     7
 79
     3
170
     0
171
     0
290
     0
174
     0
 93
        1
 44
0.0
173
     0
291
     0
 45
0.0
1001
ACAD
1000
AcDbSavedByObjectVersion
1070
     0
  0
VISUALSTYLE
  5
75C3
102
{ACAD_REACTORS
330
75B8
102
}
102
{ACAD_XDICTIONARY
360
83DC
102
}
330
75B8
100
AcDbVisualStyle
  2
Dim
 70
    11
 71
     2
 72
     2
 73
     0
 90
        0
 40
-0.6
 41
-30.0
 62
     5
 63
     7
421
 16777215
 74
     1
 91
        4
 64
     7
 65
   257
 75
     1
175
     1
 42
1.0
 92
        8
 66
     7
 43
1.0
 76
     1
 77
     6
 78
     2
 67
     7
 79
     5
170
     0
171
     0
290
     0
174
     0
 93
        1
 44
-50.0
173
     0
291
     1
 45
0.0
1001
ACAD
1000
AcDbSavedByObjectVersion
1070
     0
  0
VISUALSTYLE
  5
75D0
102
{ACAD_REACTORS
330
75B8
102
}
102
{ACAD_XDICTIONARY
360
83DE
102
}
330
75B8
100
AcDbVisualStyle
  2
EdgeColorOff
 70
    22
 71
     2
 72
     2
 73
     0
 90
        0
 40
-0.6
 41
-30.0
 62
     5
 63
     7
421
 16777215
 74
     1
 91
        4
 64
     7
 65
   257
 75
     1
175
     1
 42
1.0
 92
        8
 66
     7
 43
1.0
 76
     1
 77
     6
 78
     2
 67
     7
 79
     5
170
     0
171
     0
290
     0
174
     0
 93
        1
 44
0.0
173
     0
291
     1
 45
0.0
1001
ACAD
1000
AcDbSavedByObjectVersion
1070
     0
  0
VISUALSTYLE
  5
75C7
102
{ACAD_REACTORS
330
75B8
102
}
102
{ACAD_XDICTIONARY
360
83E0
102
}
330
75B8
100
AcDbVisualStyle
  2
Facepattern
 70
    15
 71
     2
 72
     2
 73
     0
 90
        0
 40
-0.6
 41
-30.0
 62
     5
 63
     7
421
 16777215
 74
     1
 91
        4
 64
     7
 65
   257
 75
     1
175
     1
 42
1.0
 92
        8
 66
     7
 43
1.0
 76
     1
 77
     6
 78
     2
 67
     7
 79
     5
170
     0
171
     0
290
     0
174
     0
 93
        1
 44
0.0
173
     0
291
     1
 45
0.0
1001
ACAD
1000
AcDbSavedByObjectVersion
1070
     0
  0
VISUALSTYLE
  5
75B9
102
{ACAD_REACTORS
330
75B8
102
}
102
{ACAD_XDICTIONARY
360
83E2
102
}
330
75B8
100
AcDbVisualStyle
  2
Flat
 70
     0
 71
     2
 72
     1
 73
     1
 90
        2
 40
-0.6
 41
30.0
 62
     5
 63
     7
421
 16777215
 74
     0
 91
        0
 64
     7
 65
   257
 75
     1
175
     1
 42
1.0
 92
        8
 66
     7
 43
1.0
 76
     1
 77
     6
 78
     2
 67
     7
 79
     5
170
     0
171
     0
290
     0
174
     0
 93
       13
 44
0.0
173
     0
291
     1
 45
0.0
1001
ACAD
1000
AcDbSavedByObjectVersion
1070
     0
  0
VISUALSTYLE
  5
75BA
102
{ACAD_REACTORS
330
75B8
102
}
102
{ACAD_XDICTIONARY
360
83E4
102
}
330
75B8
100
AcDbVisualStyle
  2
FlatWithEdges
 70
     1
 71
     2
 72
     1
 73
     1
 90
        2
 40
-0.6
 41
30.0
 62
     5
 63
     7
421
 16777215
 74
     1
 91
        0
 64
     7
 65
   257
 75
     1
175
     1
 42
1.0
 92
        0
 66
   257
 43
1.0
 76
     1
 77
     6
 78
     2
 67
     7
 79
     5
170
     0
171
     0
290
     0
174
     0
 93
       13
 44
0.0
173
     0
291
     1
 45
0.0
1001
ACAD
1000
AcDbSavedByObjectVersion
1070
     0
  0
VISUALSTYLE
  5
75BB
102
{ACAD_REACTORS
330
75B8
102
}
102
{ACAD_XDICTIONARY
360
83E6
102
}
330
75B8
100
AcDbVisualStyle
  2
Gouraud
 70
     2
 71
     2
 72
     2
 73
     1
 90
        2
 40
-0.6
 41
30.0
 62
     5
 63
     7
421
 16777215
 74
     0
 91
        0
 64
     7
 65
   257
 75
     1
175
     1
 42
1.0
 92
        0
 66
     7
 43
1.0
 76
     1
 77
     6
 78
     2
 67
     7
 79
     5
170
     0
171
     0
290
     0
174
     0
 93
       13
 44
0.0
173
     0
291
     1
 45
0.0
1001
ACAD
1000
AcDbSavedByObjectVersion
1070
     0
  0
VISUALSTYLE
  5
75BC
102
{ACAD_REACTORS
330
75B8
102
}
102
{ACAD_XDICTIONARY
360
83E8
102
}
330
75B8
100
AcDbVisualStyle
  2
GouraudWithEdges
 70
     3
 71
     2
 72
     2
 73
     1
 90
        2
 40
-0.6
 41
30.0
 62
     5
 63
     7
421
 16777215
 74
     1
 91
        0
 64
     7
 65
   257
 75
     1
175
     1
 42
1.0
 92
        0
 66
   257
 43
1.0
 76
     1
 77
     6
 78
     2
 67
     7
 79
     5
170
     0
171
     0
290
     0
174
     0
 93
       13
 44
0.0
173
     0
291
     1
 45
0.0
1001
ACAD
1000
AcDbSavedByObjectVersion
1070
     0
  0
VISUALSTYLE
  5
75C0
102
{ACAD_REACTORS
330
75B8
102
}
102
{ACAD_XDICTIONARY
360
83EA
102
}
330
75B8
100
AcDbVisualStyle
  2
Hidden
 70
     6
 71
     1
 72
     2
 73
     2
 90
        0
 40
-0.6
 41
-30.0
 62
     5
 63
     7
421
 16777215
 74
     2
 91
        2
 64
     7
 65
   257
 75
     2
175
     1
 42
40.0
 92
        0
 66
   257
 43
1.0
 76
     1
 77
     6
 78
     2
 67
     7
 79
     3
170
     0
171
     0
290
     0
174
     0
 93
        1
 44
0.0
173
     0
291
     0
 45
0.0
1001
ACAD
1000
AcDbSavedByObjectVersion
1070
     0
  0
VISUALSTYLE
  5
75CE
102
{ACAD_REACTORS
330
75B8
102
}
102
{ACAD_XDICTIONARY
360
83EC
102
}
330
75B8
100
AcDbVisualStyle
  2
JitterOff
 70
    20
 71
     2
 72
     2
 73
     0
 90
        0
 40
-0.6
 41
-30.0
 62
     5
 63
     7
421
 16777215
 74
     1
 91
        4
 64
     7
 65
   257
 75
     1
175
     1
 42
1.0
 92
       10
 66
     7
 43
1.0
 76
     1
 77
     6
 78
     2
 67
     7
 79
     5
170
     0
171
     0
290
     0
174
     0
 93
        1
 44
0.0
173
     0
291
     1
 45
0.0
1001
ACAD
1000
AcDbSavedByObjectVersion
1070
     0
  0
VISUALSTYLE
  5
75C6
102
{ACAD_REACTORS
330
75B8
102
}
102
{ACAD_XDICTIONARY
360
83EE
102
}
330
75B8
100
AcDbVisualStyle
  2
Linepattern
 70
    14
 71
     2
 72
     2
 73
     0
 90
        0
 40
-0.6
 41
-30.0
 62
     5
 63
     7
421
 16777215
 74
     1
 91
        4
 64
     7
 65
   257
 75
     7
175
     7
 42
1.0
 92
        8
 66
     7
 43
1.0
 76
     1
 77
     6
 78
     2
 67
     7
 79
     5
170
     0
171
     0
290
     0
174
     0
 93
        1
 44
0.0
173
     0
291
     1
 45
0.0
1001
ACAD
1000
AcDbSavedByObjectVersion
1070
     0
  0
VISUALSTYLE
  5
75CF
102
{ACAD_REACTORS
330
75B8
102
}
102
{ACAD_XDICTIONARY
360
83F0
102
}
330
75B8
100
AcDbVisualStyle
  2
OverhangOff
 70
    21
 71
     2
 72
     2
 73
     0
 90
        0
 40
-0.6
 41
-30.0
 62
     5
 63
     7
421
 16777215
 74
     1
 91
        4
 64
     7
 65
   257
 75
     1
175
     1
 42
1.0
 92
        9
 66
     7
 43
1.0
 76
     1
 77
     6
 78
     2
 67
     7
 79
     5
170
     0
171
     0
290
     0
174
     0
 93
        1
 44
0.0
173
     0
291
     1
 45
0.0
1001
ACAD
1000
AcDbSavedByObjectVersion
1070
     0
  0
VISUALSTYLE
  5
75C2
102
{ACAD_REACTORS
330
75B8
102
}
102
{ACAD_XDICTIONARY
360
83F2
102
}
330
75B8
100
AcDbVisualStyle
  2
Realistic
 70
     8
 71
     2
 72
     2
 73
     0
 90
        2
 40
-0.6
 41
30.0
 62
     5
 63
     7
421
 16777215
 74
     0
 91
        0
 64
     7
 65
   257
 75
     1
175
     1
 42
1.0
 92
        8
 66
   257
 43
1.0
 76
     1
 77
     6
 78
     2
 67
     7
 79
     3
170
     0
171
     0
290
     0
174
     0
 93
       13
 44
0.0
173
     0
291
     0
 45
0.0
1001
ACAD
1000
AcDbSavedByObjectVersion
1070
     0
  0
VISUALSTYLE
  5
75CD
102
{ACAD_REACTORS
330
75B8
102
}
102
{ACAD_XDICTIONARY
360
83F4
102
}
330
75B8
100
AcDbVisualStyle
  2
Shaded
 70
    27
 71
     2
 72
     2
 73
     1
 90
        2
 40
-0.6
 41
30.0
 62
     5
 63
     7
421
 16777215
 74
     0
 91
        4
 64
     7
 65
   257
 75
     1
175
     1
 42
1.0
 92
        8
 66
   257
 43
1.0
 76
     1
 77
     6
 78
     2
 67
     8
425
  7895160
 79
     3
170
     0
171
     0
290
     0
174
     0
 93
        5
 44
0.0
173
     0
291
     0
 45
0.0
1001
ACAD
1000
AcDbSavedByObjectVersion
1070
     0
  0
VISUALSTYLE
  5
75CC
102
{ACAD_REACTORS
330
75B8
102
}
102
{ACAD_XDICTIONARY
360
83F6
102
}
330
75B8
100
AcDbVisualStyle
  2
Shaded with edges
 70
    26
 71
     2
 72
     2
 73
     1
 90
        2
 40
-0.6
 41
30.0
 62
     5
 63
     7
421
 16777215
 74
     1
 91
       10
 64
     7
 65
   257
 75
     2
175
     1
 42
1.0
 92
        8
 66
   257
 43
1.0
 76
     1
 77
     6
 78
     2
 67
     7
 79
     3
170
     0
171
     0
290
     0
174
     0
 93
        5
 44
0.0
173
     0
291
     0
 45
0.0
1001
ACAD
1000
AcDbSavedByObjectVersion
1070
     0
  0
VISUALSTYLE
  5
75C9
102
{ACAD_REACTORS
330
75B8
102
}
102
{ACAD_XDICTIONARY
360
83F8
102
}
330
75B8
100
AcDbVisualStyle
  2
Shades of Gray
 70
    23
 71
     2
 72
     2
 73
     3
 90
        0
 40
-0.6
 41
-30.0
 62
     5
 63
     7
421
 16777215
 74
     2
 91
        2
 64
     7
 65
     7
 75
     1
175
     1
 42
40.0
 92
        8
 66
     7
 43
1.0
 76
     1
 77
     6
 78
     2
 67
     7
 79
     3
170
     0
171
     0
290
     0
174
     0
 93
        1
 44
0.0
173
     0
291
     0
 45
0.0
1001
ACAD
1000
AcDbSavedByObjectVersion
1070
     0
  0
VISUALSTYLE
  5
75CA
102
{ACAD_REACTORS
330
75B8
102
}
102
{ACAD_XDICTIONARY
360
83FA
102
}
330
75B8
100
AcDbVisualStyle
  2
Sketchy
 70
    24
 71
     1
 72
     2
 73
     2
 90
        0
 40
-0.6
 41
-30.0
 62
     5
 63
     7
421
 16777215
 74
     2
 91
        2
 64
     7
 65
     7
 75
     1
175
     1
 42
40.0
 92
       11
 66
     7
 43
1.0
 76
     1
 77
     6
 78
     2
 67
     7
 79
     6
170
     0
171
     0
290
     0
174
     0
 93
        1
 44
0.0
173
     0
291
     0
 45
0.0
1001
ACAD
1000
AcDbSavedByObjectVersion
1070
     0
  0
VISUALSTYLE
  5
75C5
102
{ACAD_REACTORS
330
75B8
102
}
102
{ACAD_XDICTIONARY
360
83FC
102
}
330
75B8
100
AcDbVisualStyle
  2
Thicken
 70
    13
 71
     2
 72
     2
 73
     0
 90
        0
 40
-0.6
 41
-30.0
 62
     5
 63
     7
421
 16777215
 74
     1
 91
        4
 64
     7
 65
   257
 75
     1
175
     1
 42
1.0
 92
       12
 66
     7
 43
1.0
 76
     1
 77
     6
 78
     2
 67
     7
 79
     5
170
     0
171
     0
290
     0
174
     0
 93
        1
 44
0.0
173
     0
291
     1
 45
0.0
1001
ACAD
1000
AcDbSavedByObjectVersion
1070
     0
  0
VISUALSTYLE
  5
75BF
102
{ACAD_REACTORS
330
75B8
102
}
102
{ACAD_XDICTIONARY
360
83FE
102
}
330
75B8
100
AcDbVisualStyle
  2
Wireframe
 70
     5
 71
     0
 72
     2
 73
     0
 90
        0
 40
-0.6
 41
-30.0
 62
     5
 63
     7
421
 16777215
 74
     1
 91
        4
 64
     7
 65
   257
 75
     1
175
     1
 42
1.0
 92
        0
 66
   257
 43
1.0
 76
     1
 77
     6
 78
     2
 67
     7
 79
     3
170
     0
171
     0
290
     0
174
     0
 93
        1
 44
0.0
173
     0
291
     0
 45
0.0
1001
ACAD
1000
AcDbSavedByObjectVersion
1070
     0
  0
VISUALSTYLE
  5
75CB
102
{ACAD_REACTORS
330
75B8
102
}
102
{ACAD_XDICTIONARY
360
8400
102
}
330
75B8
100
AcDbVisualStyle
  2
X-Ray
 70
    25
 71
     2
 72
     2
 73
     1
 90
        1
 40
0.5
 41
-30.0
 62
     5
 63
     7
421
 16777215
 74
     1
 91
        0
 64
     7
 65
   257
 75
     1
175
     1
 42
1.0
 92
        8
 66
     7
 43
1.0
 76
     1
 77
     6
 78
     2
 67
     7
 79
     3
170
     0
171
     0
290
     0
174
     0
 93
       13
 44
0.0
173
     0
291
     0
 45
0.0
1001
ACAD
1000
AcDbSavedByObjectVersion
1070
     0
  0
DICTIONARYVAR
  5
8346
102
{ACAD_REACTORS
330
99
102
}
330
99
100
DictionaryVariables
280
     0
  1
1:1
  0
DICTIONARYVAR
  5
8343
102
{ACAD_REACTORS
330
99
102
}
330
99
100
DictionaryVariables
280
     0
  1
Standard
  0
DICTIONARYVAR
  5
3B11
102
{ACAD_REACTORS
330
99
102
}
330
99
100
DictionaryVariables
280
     0
  1
Standard
  0
DICTIONARYVAR
  5
8344
102
{ACAD_REACTORS
330
99
102
}
330
99
100
DictionaryVariables
280
     0
  1
Imperial24
  0
DICTIONARYVAR
  5
8345
102
{ACAD_REACTORS
330
99
102
}
330
99
100
DictionaryVariables
280
     0
  1
Imperial24
  0
DICTIONARYVAR
  5
9A
102
{ACAD_REACTORS
330
99
102
}
330
99
100
DictionaryVariables
280
     0
  1
1
  0
DICTIONARYVAR
  5
83C4
102
{ACAD_REACTORS
330
99
102
}
330
99
100
DictionaryVariables
280
     0
  1
1
  0
DICTIONARYVAR
  5
83C5
102
{ACAD_REACTORS
330
99
102
}
330
99
100
DictionaryVariables
280
     0
  1
15
  0
DICTIONARYVAR
  5
83C3
102
{ACAD_REACTORS
330
99
102
}
330
99
100
DictionaryVariables
280
     0
  1
0
  0
DICTIONARYVAR
  5
83C2
102
{ACAD_REACTORS
330
99
102
}
330
99
100
DictionaryVariables
280
     0
  1
0
  0
DICTIONARYVAR
  5
7231
102
{ACAD_REACTORS
330
99
102
}
330
99
100
DictionaryVariables
280
     0
  1

  0
DICTIONARYVAR
  5
83C6
102
{ACAD_REACTORS
330
99
102
}
330
99
100
DictionaryVariables
280
     0
  1
2
  0
XRECORD
  5
65B8
102
{ACAD_REACTORS
330
65B6
102
}
330
65B6
100
AcDbXrecord
280
     1
330
0
330
0
330
60
  0
DICTIONARY
  5
83C0
330
75E8
100
AcDbDictionary
280
     1
281
     1
  3
ACAD_XREC_ROUNDTRIP
360
83C1
  0
DICTIONARY
  5
83C8
330
75A8
100
AcDbDictionary
280
     1
281
     1
  3
ACAD_XREC_ROUNDTRIP
360
83C9
  0
DICTIONARY
  5
83CA
330
75A0
100
AcDbDictionary
280
     1
281
     1
  3
ACAD_XREC_ROUNDTRIP
360
83CB
  0
DICTIONARY
  5
83CC
330
75B0
100
AcDbDictionary
280
     1
281
     1
  3
ACAD_XREC_ROUNDTRIP
360
83CD
  0
DICTIONARY
  5
83BE
330
75E6
100
AcDbDictionary
280
     1
281
     1
  3
ACAD_XREC_ROUNDTRIP
360
83BF
  0
DICTIONARY
  5
83CE
330
3B0C
100
AcDbDictionary
280
     1
281
     1
  3
ACAD_ROUNDTRIP_2008_TABLESTYLE_CELLSTYLEMAP
360
83D0
  3
ACAD_XREC_ROUNDTRIP
360
83CF
  0
DICTIONARY
  5
83D2
330
75BE
100
AcDbDictionary
280
     1
281
     1
  3
ACAD_XREC_ROUNDTRIP
360
83D3
  0
DICTIONARY
  5
83D4
330
75BD
100
AcDbDictionary
280
     1
281
     1
  3
ACAD_XREC_ROUNDTRIP
360
83D5
  0
DICTIONARY
  5
83D6
330
75C4
100
AcDbDictionary
280
     1
281
     1
  3
ACAD_XREC_ROUNDTRIP
360
83D7
  0
DICTIONARY
  5
83D8
330
75C8
100
AcDbDictionary
280
     1
281
     1
  3
ACAD_XREC_ROUNDTRIP
360
83D9
  0
DICTIONARY
  5
83DA
330
75C1
100
AcDbDictionary
280
     1
281
     1
  3
ACAD_XREC_ROUNDTRIP
360
83DB
  0
DICTIONARY
  5
83DC
330
75C3
100
AcDbDictionary
280
     1
281
     1
  3
ACAD_XREC_ROUNDTRIP
360
83DD
  0
DICTIONARY
  5
83DE
330
75D0
100
AcDbDictionary
280
     1
281
     1
  3
ACAD_XREC_ROUNDTRIP
360
83DF
  0
DICTIONARY
  5
83E0
330
75C7
100
AcDbDictionary
280
     1
281
     1
  3
ACAD_XREC_ROUNDTRIP
360
83E1
  0
DICTIONARY
  5
83E2
330
75B9
100
AcDbDictionary
280
     1
281
     1
  3
ACAD_XREC_ROUNDTRIP
360
83E3
  0
DICTIONARY
  5
83E4
330
75BA
100
AcDbDictionary
280
     1
281
     1
  3
ACAD_XREC_ROUNDTRIP
360
83E5
  0
DICTIONARY
  5
83E6
330
75BB
100
AcDbDictionary
280
     1
281
     1
  3
ACAD_XREC_ROUNDTRIP
360
83E7
  0
DICTIONARY
  5
83E8
330
75BC
100
AcDbDictionary
280
     1
281
     1
  3
ACAD_XREC_ROUNDTRIP
360
83E9
  0
DICTIONARY
  5
83EA
330
75C0
100
AcDbDictionary
280
     1
281
     1
  3
ACAD_XREC_ROUNDTRIP
360
83EB
  0
DICTIONARY
  5
83EC
330
75CE
100
AcDbDictionary
280
     1
281
     1
  3
ACAD_XREC_ROUNDTRIP
360
83ED
  0
DICTIONARY
  5
83EE
330
75C6
100
AcDbDictionary
280
     1
281
     1
  3
ACAD_XREC_ROUNDTRIP
360
83EF
  0
DICTIONARY
  5
83F0
330
75CF
100
AcDbDictionary
280
     1
281
     1
  3
ACAD_XREC_ROUNDTRIP
360
83F1
  0
DICTIONARY
  5
83F2
330
75C2
100
AcDbDictionary
280
     1
281
     1
  3
ACAD_XREC_ROUNDTRIP
360
83F3
  0
DICTIONARY
  5
83F4
330
75CD
100
AcDbDictionary
280
     1
281
     1
  3
ACAD_XREC_ROUNDTRIP
360
83F5
  0
DICTIONARY
  5
83F6
330
75CC
100
AcDbDictionary
280
     1
281
     1
  3
ACAD_XREC_ROUNDTRIP
360
83F7
  0
DICTIONARY
  5
83F8
330
75C9
100
AcDbDictionary
280
     1
281
     1
  3
ACAD_XREC_ROUNDTRIP
360
83F9
  0
DICTIONARY
  5
83FA
330
75CA
100
AcDbDictionary
280
     1
281
     1
  3
ACAD_XREC_ROUNDTRIP
360
83FB
  0
DICTIONARY
  5
83FC
330
75C5
100
AcDbDictionary
280
     1
281
     1
  3
ACAD_XREC_ROUNDTRIP
360
83FD
  0
DICTIONARY
  5
83FE
330
75BF
100
AcDbDictionary
280
     1
281
     1
  3
ACAD_XREC_ROUNDTRIP
360
83FF
  0
DICTIONARY
  5
8400
330
75CB
100
AcDbDictionary
280
     1
281
     1
  3
ACAD_XREC_ROUNDTRIP
360
8401
  0
XRECORD
  5
83C1
102
{ACAD_REACTORS
330
83C0
102
}
330
83C0
100
AcDbXrecord
280
     1
102
DISPLAYNAME
  1
Imperial24
102
FLAGS
 90
        0
  0
XRECORD
  5
83C9
102
{ACAD_REACTORS
330
83C8
102
}
330
83C8
100
AcDbXrecord
280
     1
102
MATERIAL
148
0.0
149
0.0
149
0.0
 93
        0
 94
      127
282
     0
 72
     0
 77
     0
171
     0
175
     0
179
     0
273
     0
  0
XRECORD
  5
83CB
102
{ACAD_REACTORS
330
83CA
102
}
330
83CA
100
AcDbXrecord
280
     1
102
MATERIAL
148
0.0
149
0.0
149
0.0
 93
        0
 94
      127
282
     0
 72
     0
 77
     0
171
     0
175
     0
179
     0
273
     0
  0
XRECORD
  5
83CD
102
{ACAD_REACTORS
330
83CC
102
}
330
83CC
100
AcDbXrecord
280
     1
102
MATERIAL
148
0.0
149
0.0
149
0.0
 93
        0
 94
      127
282
     0
 72
     0
 77
     0
171
     0
175
     0
179
     0
273
     0
  0
XRECORD
  5
83BF
102
{ACAD_REACTORS
330
83BE
102
}
330
83BE
100
AcDbXrecord
280
     1
102
DISPLAYNAME
  1
Imperial24
102
FLAGS
 90
        0
  0
CELLSTYLEMAP
  5
83D0
102
{ACAD_REACTORS
330
83CE
102
}
330
83CE
100
AcDbCellStyleMap
 90
        3
300
CELLSTYLE
  1
TABLEFORMAT_BEGIN
 90
        5
170
     1
 91
        0
 92
    32768
 62
   257
 93
        1
300
CONTENTFORMAT
  1
CONTENTFORMAT_BEGIN
 90
        0
 91
        0
 92
        4
 93
        0
300

 40
0.0
140
1.0
 94
        5
 62
     0
340
F
144
0.25
309
CONTENTFORMAT_END
171
     0
 94
        6
 95
        1
302
GRIDFORMAT
  1
GRIDFORMAT_BEGIN
 90
        0
 91
        1
 62
     0
 92
       -2
340
0
 93
        0
 40
0.045
309
GRIDFORMAT_END
 95
        2
302
GRIDFORMAT
  1
GRIDFORMAT_BEGIN
 90
        0
 91
        1
 62
     0
 92
       -2
340
0
 93
        0
 40
0.045
309
GRIDFORMAT_END
 95
        4
302
GRIDFORMAT
  1
GRIDFORMAT_BEGIN
 90
        0
 91
        1
 62
     0
 92
       -2
340
0
 93
        0
 40
0.045
309
GRIDFORMAT_END
 95
        8
302
GRIDFORMAT
  1
GRIDFORMAT_BEGIN
 90
        0
 91
        1
 62
     0
 92
       -2
340
0
 93
        0
 40
0.045
309
GRIDFORMAT_END
 95
       16
302
GRIDFORMAT
  1
GRIDFORMAT_BEGIN
 90
        0
 91
        1
 62
     0
 92
       -2
340
0
 93
        0
 40
0.045
309
GRIDFORMAT_END
 95
       32
302
GRIDFORMAT
  1
GRIDFORMAT_BEGIN
 90
        0
 91
        1
 62
     0
 92
       -2
340
0
 93
        0
 40
0.045
309
GRIDFORMAT_END
309
TABLEFORMAT_END
  1
CELLSTYLE_BEGIN
 90
        1
 91
        1
300
_TITLE
309
CELLSTYLE_END
300
CELLSTYLE
  1
TABLEFORMAT_BEGIN
 90
        5
170
     1
 91
        0
 92
        0
 62
   257
 93
        1
300
CONTENTFORMAT
  1
CONTENTFORMAT_BEGIN
 90
        0
 91
        0
 92
        4
 93
        0
300

 40
0.0
140
1.0
 94
        5
 62
     0
340
F
144
0.18
309
CONTENTFORMAT_END
171
     0
 94
        6
 95
        1
302
GRIDFORMAT
  1
GRIDFORMAT_BEGIN
 90
        0
 91
        1
 62
     0
 92
       -2
340
0
 93
        0
 40
0.045
309
GRIDFORMAT_END
 95
        2
302
GRIDFORMAT
  1
GRIDFORMAT_BEGIN
 90
        0
 91
        1
 62
     0
 92
       -2
340
0
 93
        0
 40
0.045
309
GRIDFORMAT_END
 95
        4
302
GRIDFORMAT
  1
GRIDFORMAT_BEGIN
 90
        0
 91
        1
 62
     0
 92
       -2
340
0
 93
        0
 40
0.045
309
GRIDFORMAT_END
 95
        8
302
GRIDFORMAT
  1
GRIDFORMAT_BEGIN
 90
        0
 91
        1
 62
     0
 92
       -2
340
0
 93
        0
 40
0.045
309
GRIDFORMAT_END
 95
       16
302
GRIDFORMAT
  1
GRIDFORMAT_BEGIN
 90
        0
 91
        1
 62
     0
 92
       -2
340
0
 93
        0
 40
0.045
309
GRIDFORMAT_END
 95
       32
302
GRIDFORMAT
  1
GRIDFORMAT_BEGIN
 90
        0
 91
        1
 62
     0
 92
       -2
340
0
 93
        0
 40
0.045
309
GRIDFORMAT_END
309
TABLEFORMAT_END
  1
CELLSTYLE_BEGIN
 90
        2
 91
        1
300
_HEADER
309
CELLSTYLE_END
300
CELLSTYLE
  1
TABLEFORMAT_BEGIN
 90
        5
170
     1
 91
        0
 92
        0
 62
   257
 93
        1
300
CONTENTFORMAT
  1
CONTENTFORMAT_BEGIN
 90
        0
 91
        0
 92
        4
 93
        0
300

 40
0.0
140
1.0
 94
        2
 62
     0
340
F
144
0.18
309
CONTENTFORMAT_END
171
     0
 94
        6
 95
        1
302
GRIDFORMAT
  1
GRIDFORMAT_BEGIN
 90
        0
 91
        1
 62
     0
 92
       -2
340
0
 93
        0
 40
0.045
309
GRIDFORMAT_END
 95
        2
302
GRIDFORMAT
  1
GRIDFORMAT_BEGIN
 90
        0
 91
        1
 62
     0
 92
       -2
340
0
 93
        0
 40
0.045
309
GRIDFORMAT_END
 95
        4
302
GRIDFORMAT
  1
GRIDFORMAT_BEGIN
 90
        0
 91
        1
 62
     0
 92
       -2
340
0
 93
        0
 40
0.045
309
GRIDFORMAT_END
 95
        8
302
GRIDFORMAT
  1
GRIDFORMAT_BEGIN
 90
        0
 91
        1
 62
     0
 92
       -2
340
0
 93
        0
 40
0.045
309
GRIDFORMAT_END
 95
       16
302
GRIDFORMAT
  1
GRIDFORMAT_BEGIN
 90
        0
 91
        1
 62
     0
 92
       -2
340
0
 93
        0
 40
0.045
309
GRIDFORMAT_END
 95
       32
302
GRIDFORMAT
  1
GRIDFORMAT_BEGIN
 90
        0
 91
        1
 62
     0
 92
       -2
340
0
 93
        0
 40
0.045
309
GRIDFORMAT_END
309
TABLEFORMAT_END
  1
CELLSTYLE_BEGIN
 90
        3
 91
        2
300
_DATA
309
CELLSTYLE_END
  0
XRECORD
  5
83CF
102
{ACAD_REACTORS
330
83CE
102
}
330
83CE
100
AcDbXrecord
280
     1
102
ACAD_ROUNDTRIP_PRE2007_TABLESTYLE
 90
        4
 91
        0
  1

 92
        4
 93
        0
  2

 94
        4
 95
        0
  3

  0
XRECORD
  5
83D3
102
{ACAD_REACTORS
330
83D2
102
}
330
83D2
100
AcDbXrecord
280
     1
102
RTVSPropertyOp0
 70
     1
102
RTVSPropertyOp1
 70
     1
102
RTVSPropertyOp2
 70
     1
102
RTVSPropertyOp3
 70
     1
102
RTVSPropertyOp4
 70
     1
102
RTVSPropertyOp5
 70
     1
102
RTVSPropertyOp6
 70
     1
102
RTVSPropertyOp7
 70
     1
102
RTVSPropertyOp8
 70
     1
102
RTVSPropertyOp9
 70
     1
102
RTVSPropertyOp10
 70
     1
102
RTVSPropertyOp11
 70
     1
102
RTVSPropertyOp12
 70
     1
102
RTVSPropertyOp13
 70
     1
102
RTVSPropertyOp14
 70
     1
102
RTVSPropertyOp15
 70
     1
102
RTVSPropertyOp16
 70
     1
102
RTVSPropertyOp17
 70
     1
102
RTVSPropertyOp18
 70
     1
102
RTVSPropertyOp19
 70
     1
102
RTVSPropertyOp20
 70
     1
102
RTVSPropertyOp21
 70
     1
102
RTVSPropertyOp22
 70
     1
102
RTVSPropertyOp23
 70
     1
102
RTVSPropertyOp24
 70
     1
102
RTVSPropertyOp25
 70
     1
102
RTVSPropertyOp26
 70
     1
102
RTVSPropertyOp27
 70
     1
  0
XRECORD
  5
83D5
102
{ACAD_REACTORS
330
83D4
102
}
330
83D4
100
AcDbXrecord
280
     1
102
RTVSPropertyOp0
 70
     1
102
RTVSPropertyOp1
 70
     1
102
RTVSPropertyOp2
 70
     1
102
RTVSPropertyOp3
 70
     1
102
RTVSPropertyOp4
 70
     1
102
RTVSPropertyOp5
 70
     1
102
RTVSPropertyOp6
 70
     1
102
RTVSPropertyOp7
 70
     1
102
RTVSPropertyOp8
 70
     1
102
RTVSPropertyOp9
 70
     1
102
RTVSPropertyOp10
 70
     1
102
RTVSPropertyOp11
 70
     1
102
RTVSPropertyOp12
 70
     1
102
RTVSPropertyOp13
 70
     1
102
RTVSPropertyOp14
 70
     1
102
RTVSPropertyOp15
 70
     1
102
RTVSPropertyOp16
 70
     1
102
RTVSPropertyOp17
 70
     1
102
RTVSPropertyOp18
 70
     1
102
RTVSPropertyOp19
 70
     1
102
RTVSPropertyOp20
 70
     1
102
RTVSPropertyOp21
 70
     1
102
RTVSPropertyOp22
 70
     1
102
RTVSPropertyOp23
 70
     1
102
RTVSPropertyOp24
 70
     1
102
RTVSPropertyOp25
 70
     1
102
RTVSPropertyOp26
 70
     1
102
RTVSPropertyOp27
 70
     1
  0
XRECORD
  5
83D7
102
{ACAD_REACTORS
330
83D6
102
}
330
83D6
100
AcDbXrecord
280
     1
102
RTVSPropertyOp0
 70
     1
102
RTVSPropertyOp1
 70
     1
102
RTVSPropertyOp2
 70
     1
102
RTVSPropertyOp3
 70
     1
102
RTVSPropertyOp4
 70
     1
102
RTVSPropertyOp5
 70
     1
102
RTVSPropertyOp6
 70
     1
102
RTVSPropertyOp7
 70
     1
102
RTVSPropertyOp8
 70
     1
102
RTVSPropertyOp9
 70
     1
102
RTVSPropertyOp10
 70
     1
102
RTVSPropertyOp11
 70
     1
102
RTVSPropertyOp12
 70
     1
102
RTVSPropertyOp13
 70
     1
102
RTVSPropertyOp14
 70
     1
102
RTVSPropertyOp15
 70
     1
102
RTVSPropertyOp16
 70
     1
102
RTVSPropertyOp17
 70
     1
102
RTVSPropertyOp18
 70
     1
102
RTVSPropertyOp19
 70
     1
102
RTVSPropertyOp20
 70
     1
102
RTVSPropertyOp21
 70
     1
102
RTVSPropertyOp22
 70
     1
102
RTVSPropertyOp23
 70
     1
102
RTVSPropertyOp24
 70
     1
102
RTVSPropertyOp25
 70
     1
102
RTVSPropertyOp26
 70
     1
102
RTVSPropertyOp27
 70
     1
  0
XRECORD
  5
83D9
102
{ACAD_REACTORS
330
83D8
102
}
330
83D8
100
AcDbXrecord
280
     1
102
RTVSPropertyOp0
 70
     1
102
RTVSPropertyOp1
 70
     1
102
RTVSPropertyOp2
 70
     1
102
RTVSPropertyOp3
 70
     1
102
RTVSPropertyOp4
 70
     1
102
RTVSPropertyOp5
 70
     1
102
RTVSPropertyOp6
 70
     1
102
RTVSPropertyOp7
 70
     1
102
RTVSPropertyOp8
 70
     1
102
RTVSPropertyOp9
 70
     1
102
RTVSPropertyOp10
 70
     1
102
RTVSPropertyOp11
 70
     1
102
RTVSPropertyOp12
 70
     1
102
RTVSPropertyOp13
 70
     1
102
RTVSPropertyOp14
 70
     1
102
RTVSPropertyOp15
 70
     1
102
RTVSPropertyOp16
 70
     1
102
RTVSPropertyOp17
 70
     1
102
RTVSPropertyOp18
 70
     1
102
RTVSPropertyOp19
 70
     1
102
RTVSPropertyOp20
 70
     1
102
RTVSPropertyOp21
 70
     1
102
RTVSPropertyOp22
 70
     1
102
RTVSPropertyOp23
 70
     1
102
RTVSPropertyOp24
 70
     1
102
RTVSPropertyOp25
 70
     1
102
RTVSPropertyOp26
 70
     1
102
RTVSPropertyOp27
 70
     1
  0
XRECORD
  5
83DB
102
{ACAD_REACTORS
330
83DA
102
}
330
83DA
100
AcDbXrecord
280
     1
102
RTVSPropertyOp0
 70
     1
102
RTVSPropertyOp1
 70
     1
102
RTVSPropertyOp2
 70
     1
102
RTVSPropertyOp3
 70
     1
102
RTVSPropertyOp4
 70
     1
102
RTVSPropertyOp5
 70
     1
102
RTVSPropertyOp6
 70
     1
102
RTVSPropertyOp7
 70
     1
102
RTVSPropertyOp8
 70
     1
102
RTVSPropertyOp9
 70
     1
102
RTVSPropertyOp10
 70
     1
102
RTVSPropertyOp11
 70
     1
102
RTVSPropertyOp12
 70
     1
102
RTVSPropertyOp13
 70
     1
102
RTVSPropertyOp14
 70
     1
102
RTVSPropertyOp15
 70
     1
102
RTVSPropertyOp16
 70
     1
102
RTVSPropertyOp17
 70
     1
102
RTVSPropertyOp18
 70
     1
102
RTVSPropertyOp19
 70
     1
102
RTVSPropertyOp20
 70
     1
102
RTVSPropertyOp21
 70
     1
102
RTVSPropertyOp22
 70
     1
102
RTVSPropertyOp23
 70
     1
102
RTVSPropertyOp24
 70
     1
102
RTVSPropertyOp25
 70
     1
102
RTVSPropertyOp26
 70
     1
102
RTVSPropertyOp27
 70
     1
  0
XRECORD
  5
83DD
102
{ACAD_REACTORS
330
83DC
102
}
330
83DC
100
AcDbXrecord
280
     1
102
RTVSPropertyOp0
 70
     1
102
RTVSPropertyOp1
 70
     1
102
RTVSPropertyOp2
 70
     1
102
RTVSPropertyOp3
 70
     1
102
RTVSPropertyOp4
 70
     1
102
RTVSPropertyOp5
 70
     1
102
RTVSPropertyOp6
 70
     1
102
RTVSPropertyOp7
 70
     1
102
RTVSPropertyOp8
 70
     1
102
RTVSPropertyOp9
 70
     1
102
RTVSPropertyOp10
 70
     1
102
RTVSPropertyOp11
 70
     1
102
RTVSPropertyOp12
 70
     1
102
RTVSPropertyOp13
 70
     1
102
RTVSPropertyOp14
 70
     1
102
RTVSPropertyOp15
 70
     1
102
RTVSPropertyOp16
 70
     1
102
RTVSPropertyOp17
 70
     1
102
RTVSPropertyOp18
 70
     1
102
RTVSPropertyOp19
 70
     1
102
RTVSPropertyOp20
 70
     1
102
RTVSPropertyOp21
 70
     1
102
RTVSPropertyOp22
 70
     1
102
RTVSPropertyOp23
 70
     1
102
RTVSPropertyOp24
 70
     1
102
RTVSPropertyOp25
 70
     1
102
RTVSPropertyOp26
 70
     1
102
RTVSPropertyOp27
 70
     1
  0
XRECORD
  5
83DF
102
{ACAD_REACTORS
330
83DE
102
}
330
83DE
100
AcDbXrecord
280
     1
102
RTVSPropertyOp0
 70
     1
102
RTVSPropertyOp1
 70
     1
102
RTVSPropertyOp2
 70
     1
102
RTVSPropertyOp3
 70
     1
102
RTVSPropertyOp4
 70
     1
102
RTVSPropertyOp5
 70
     1
102
RTVSPropertyOp6
 70
     1
102
RTVSPropertyOp7
 70
     1
102
RTVSPropertyOp8
 70
     1
102
RTVSPropertyOp9
 70
     1
102
RTVSPropertyOp10
 70
     1
102
RTVSPropertyOp11
 70
     1
102
RTVSPropertyOp12
 70
     1
102
RTVSPropertyOp13
 70
     1
102
RTVSPropertyOp14
 70
     1
102
RTVSPropertyOp15
 70
     1
102
RTVSPropertyOp16
 70
     1
102
RTVSPropertyOp17
 70
     1
102
RTVSPropertyOp18
 70
     1
102
RTVSPropertyOp19
 70
     1
102
RTVSPropertyOp20
 70
     1
102
RTVSPropertyOp21
 70
     1
102
RTVSPropertyOp22
 70
     1
102
RTVSPropertyOp23
 70
     1
102
RTVSPropertyOp24
 70
     1
102
RTVSPropertyOp25
 70
     1
102
RTVSPropertyOp26
 70
     1
102
RTVSPropertyOp27
 70
     1
  0
XRECORD
  5
83E1
102
{ACAD_REACTORS
330
83E0
102
}
330
83E0
100
AcDbXrecord
280
     1
102
RTVSPropertyOp0
 70
     1
102
RTVSPropertyOp1
 70
     1
102
RTVSPropertyOp2
 70
     1
102
RTVSPropertyOp3
 70
     1
102
RTVSPropertyOp4
 70
     1
102
RTVSPropertyOp5
 70
     1
102
RTVSPropertyOp6
 70
     1
102
RTVSPropertyOp7
 70
     1
102
RTVSPropertyOp8
 70
     1
102
RTVSPropertyOp9
 70
     1
102
RTVSPropertyOp10
 70
     1
102
RTVSPropertyOp11
 70
     1
102
RTVSPropertyOp12
 70
     1
102
RTVSPropertyOp13
 70
     1
102
RTVSPropertyOp14
 70
     1
102
RTVSPropertyOp15
 70
     1
102
RTVSPropertyOp16
 70
     1
102
RTVSPropertyOp17
 70
     1
102
RTVSPropertyOp18
 70
     1
102
RTVSPropertyOp19
 70
     1
102
RTVSPropertyOp20
 70
     1
102
RTVSPropertyOp21
 70
     1
102
RTVSPropertyOp22
 70
     1
102
RTVSPropertyOp23
 70
     1
102
RTVSPropertyOp24
 70
     1
102
RTVSPropertyOp25
 70
     1
102
RTVSPropertyOp26
 70
     1
102
RTVSPropertyOp27
 70
     1
  0
XRECORD
  5
83E3
102
{ACAD_REACTORS
330
83E2
102
}
330
83E2
100
AcDbXrecord
280
     1
102
RTVSPropertyOp0
 70
     1
102
RTVSPropertyOp1
 70
     1
102
RTVSPropertyOp2
 70
     1
102
RTVSPropertyOp3
 70
     1
102
RTVSPropertyOp4
 70
     1
102
RTVSPropertyOp5
 70
     1
102
RTVSPropertyOp6
 70
     1
102
RTVSPropertyOp7
 70
     1
102
RTVSPropertyOp8
 70
     1
102
RTVSPropertyOp9
 70
     1
102
RTVSPropertyOp10
 70
     1
102
RTVSPropertyOp11
 70
     1
102
RTVSPropertyOp12
 70
     1
102
RTVSPropertyOp13
 70
     1
102
RTVSPropertyOp14
 70
     1
102
RTVSPropertyOp15
 70
     1
102
RTVSPropertyOp16
 70
     1
102
RTVSPropertyOp17
 70
     1
102
RTVSPropertyOp18
 70
     1
102
RTVSPropertyOp19
 70
     1
102
RTVSPropertyOp20
 70
     1
102
RTVSPropertyOp21
 70
     1
102
RTVSPropertyOp22
 70
     1
102
RTVSPropertyOp23
 70
     1
102
RTVSPropertyOp24
 70
     1
102
RTVSPropertyOp25
 70
     1
102
RTVSPropertyOp26
 70
     1
102
RTVSPropertyOp27
 70
     1
  0
XRECORD
  5
83E5
102
{ACAD_REACTORS
330
83E4
102
}
330
83E4
100
AcDbXrecord
280
     1
102
RTVSPropertyOp0
 70
     1
102
RTVSPropertyOp1
 70
     1
102
RTVSPropertyOp2
 70
     1
102
RTVSPropertyOp3
 70
     1
102
RTVSPropertyOp4
 70
     1
102
RTVSPropertyOp5
 70
     1
102
RTVSPropertyOp6
 70
     1
102
RTVSPropertyOp7
 70
     1
102
RTVSPropertyOp8
 70
     1
102
RTVSPropertyOp9
 70
     1
102
RTVSPropertyOp10
 70
     1
102
RTVSPropertyOp11
 70
     1
102
RTVSPropertyOp12
 70
     1
102
RTVSPropertyOp13
 70
     1
102
RTVSPropertyOp14
 70
     1
102
RTVSPropertyOp15
 70
     1
102
RTVSPropertyOp16
 70
     1
102
RTVSPropertyOp17
 70
     1
102
RTVSPropertyOp18
 70
     1
102
RTVSPropertyOp19
 70
     1
102
RTVSPropertyOp20
 70
     1
102
RTVSPropertyOp21
 70
     1
102
RTVSPropertyOp22
 70
     1
102
RTVSPropertyOp23
 70
     1
102
RTVSPropertyOp24
 70
     1
102
RTVSPropertyOp25
 70
     1
102
RTVSPropertyOp26
 70
     1
102
RTVSPropertyOp27
 70
     1
  0
XRECORD
  5
83E7
102
{ACAD_REACTORS
330
83E6
102
}
330
83E6
100
AcDbXrecord
280
     1
102
RTVSPropertyOp0
 70
     1
102
RTVSPropertyOp1
 70
     1
102
RTVSPropertyOp2
 70
     1
102
RTVSPropertyOp3
 70
     1
102
RTVSPropertyOp4
 70
     1
102
RTVSPropertyOp5
 70
     1
102
RTVSPropertyOp6
 70
     1
102
RTVSPropertyOp7
 70
     1
102
RTVSPropertyOp8
 70
     1
102
RTVSPropertyOp9
 70
     1
102
RTVSPropertyOp10
 70
     1
102
RTVSPropertyOp11
 70
     1
102
RTVSPropertyOp12
 70
     1
102
RTVSPropertyOp13
 70
     1
102
RTVSPropertyOp14
 70
     1
102
RTVSPropertyOp15
 70
     1
102
RTVSPropertyOp16
 70
     1
102
RTVSPropertyOp17
 70
     1
102
RTVSPropertyOp18
 70
     1
102
RTVSPropertyOp19
 70
     1
102
RTVSPropertyOp20
 70
     1
102
RTVSPropertyOp21
 70
     1
102
RTVSPropertyOp22
 70
     1
102
RTVSPropertyOp23
 70
     1
102
RTVSPropertyOp24
 70
     1
102
RTVSPropertyOp25
 70
     1
102
RTVSPropertyOp26
 70
     1
102
RTVSPropertyOp27
 70
     1
  0
XRECORD
  5
83E9
102
{ACAD_REACTORS
330
83E8
102
}
330
83E8
100
AcDbXrecord
280
     1
102
RTVSPropertyOp0
 70
     1
102
RTVSPropertyOp1
 70
     1
102
RTVSPropertyOp2
 70
     1
102
RTVSPropertyOp3
 70
     1
102
RTVSPropertyOp4
 70
     1
102
RTVSPropertyOp5
 70
     1
102
RTVSPropertyOp6
 70
     1
102
RTVSPropertyOp7
 70
     1
102
RTVSPropertyOp8
 70
     1
102
RTVSPropertyOp9
 70
     1
102
RTVSPropertyOp10
 70
     1
102
RTVSPropertyOp11
 70
     1
102
RTVSPropertyOp12
 70
     1
102
RTVSPropertyOp13
 70
     1
102
RTVSPropertyOp14
 70
     1
102
RTVSPropertyOp15
 70
     1
102
RTVSPropertyOp16
 70
     1
102
RTVSPropertyOp17
 70
     1
102
RTVSPropertyOp18
 70
     1
102
RTVSPropertyOp19
 70
     1
102
RTVSPropertyOp20
 70
     1
102
RTVSPropertyOp21
 70
     1
102
RTVSPropertyOp22
 70
     1
102
RTVSPropertyOp23
 70
     1
102
RTVSPropertyOp24
 70
     1
102
RTVSPropertyOp25
 70
     1
102
RTVSPropertyOp26
 70
     1
102
RTVSPropertyOp27
 70
     1
  0
XRECORD
  5
83EB
102
{ACAD_REACTORS
330
83EA
102
}
330
83EA
100
AcDbXrecord
280
     1
102
RTVSPropertyOp0
 70
     1
102
RTVSPropertyOp1
 70
     1
102
RTVSPropertyOp2
 70
     1
102
RTVSPropertyOp3
 70
     1
102
RTVSPropertyOp4
 70
     1
102
RTVSPropertyOp5
 70
     1
102
RTVSPropertyOp6
 70
     1
102
RTVSPropertyOp7
 70
     1
102
RTVSPropertyOp8
 70
     1
102
RTVSPropertyOp9
 70
     1
102
RTVSPropertyOp10
 70
     1
102
RTVSPropertyOp11
 70
     1
102
RTVSPropertyOp12
 70
     1
102
RTVSPropertyOp13
 70
     1
102
RTVSPropertyOp14
 70
     1
102
RTVSPropertyOp15
 70
     1
102
RTVSPropertyOp16
 70
     1
102
RTVSPropertyOp17
 70
     1
102
RTVSPropertyOp18
 70
     1
102
RTVSPropertyOp19
 70
     1
102
RTVSPropertyOp20
 70
     1
102
RTVSPropertyOp21
 70
     1
102
RTVSPropertyOp22
 70
     1
102
RTVSPropertyOp23
 70
     1
102
RTVSPropertyOp24
 70
     1
102
RTVSPropertyOp25
 70
     1
102
RTVSPropertyOp26
 70
     1
102
RTVSPropertyOp27
 70
     1
  0
XRECORD
  5
83ED
102
{ACAD_REACTORS
330
83EC
102
}
330
83EC
100
AcDbXrecord
280
     1
102
RTVSPropertyOp0
 70
     1
102
RTVSPropertyOp1
 70
     1
102
RTVSPropertyOp2
 70
     1
102
RTVSPropertyOp3
 70
     1
102
RTVSPropertyOp4
 70
     1
102
RTVSPropertyOp5
 70
     1
102
RTVSPropertyOp6
 70
     1
102
RTVSPropertyOp7
 70
     1
102
RTVSPropertyOp8
 70
     1
102
RTVSPropertyOp9
 70
     1
102
RTVSPropertyOp10
 70
     1
102
RTVSPropertyOp11
 70
     1
102
RTVSPropertyOp12
 70
     1
102
RTVSPropertyOp13
 70
     1
102
RTVSPropertyOp14
 70
     1
102
RTVSPropertyOp15
 70
     1
102
RTVSPropertyOp16
 70
     1
102
RTVSPropertyOp17
 70
     1
102
RTVSPropertyOp18
 70
     1
102
RTVSPropertyOp19
 70
     1
102
RTVSPropertyOp20
 70
     1
102
RTVSPropertyOp21
 70
     1
102
RTVSPropertyOp22
 70
     1
102
RTVSPropertyOp23
 70
     1
102
RTVSPropertyOp24
 70
     1
102
RTVSPropertyOp25
 70
     1
102
RTVSPropertyOp26
 70
     1
102
RTVSPropertyOp27
 70
     1
  0
XRECORD
  5
83EF
102
{ACAD_REACTORS
330
83EE
102
}
330
83EE
100
AcDbXrecord
280
     1
102
RTVSPropertyOp0
 70
     1
102
RTVSPropertyOp1
 70
     1
102
RTVSPropertyOp2
 70
     1
102
RTVSPropertyOp3
 70
     1
102
RTVSPropertyOp4
 70
     1
102
RTVSPropertyOp5
 70
     1
102
RTVSPropertyOp6
 70
     1
102
RTVSPropertyOp7
 70
     1
102
RTVSPropertyOp8
 70
     1
102
RTVSPropertyOp9
 70
     1
102
RTVSPropertyOp10
 70
     1
102
RTVSPropertyOp11
 70
     1
102
RTVSPropertyOp12
 70
     1
102
RTVSPropertyOp13
 70
     1
102
RTVSPropertyOp14
 70
     1
102
RTVSPropertyOp15
 70
     1
102
RTVSPropertyOp16
 70
     1
102
RTVSPropertyOp17
 70
     1
102
RTVSPropertyOp18
 70
     1
102
RTVSPropertyOp19
 70
     1
102
RTVSPropertyOp20
 70
     1
102
RTVSPropertyOp21
 70
     1
102
RTVSPropertyOp22
 70
     1
102
RTVSPropertyOp23
 70
     1
102
RTVSPropertyOp24
 70
     1
102
RTVSPropertyOp25
 70
     1
102
RTVSPropertyOp26
 70
     1
102
RTVSPropertyOp27
 70
     1
  0
XRECORD
  5
83F1
102
{ACAD_REACTORS
330
83F0
102
}
330
83F0
100
AcDbXrecord
280
     1
102
RTVSPropertyOp0
 70
     1
102
RTVSPropertyOp1
 70
     1
102
RTVSPropertyOp2
 70
     1
102
RTVSPropertyOp3
 70
     1
102
RTVSPropertyOp4
 70
     1
102
RTVSPropertyOp5
 70
     1
102
RTVSPropertyOp6
 70
     1
102
RTVSPropertyOp7
 70
     1
102
RTVSPropertyOp8
 70
     1
102
RTVSPropertyOp9
 70
     1
102
RTVSPropertyOp10
 70
     1
102
RTVSPropertyOp11
 70
     1
102
RTVSPropertyOp12
 70
     1
102
RTVSPropertyOp13
 70
     1
102
RTVSPropertyOp14
 70
     1
102
RTVSPropertyOp15
 70
     1
102
RTVSPropertyOp16
 70
     1
102
RTVSPropertyOp17
 70
     1
102
RTVSPropertyOp18
 70
     1
102
RTVSPropertyOp19
 70
     1
102
RTVSPropertyOp20
 70
     1
102
RTVSPropertyOp21
 70
     1
102
RTVSPropertyOp22
 70
     1
102
RTVSPropertyOp23
 70
     1
102
RTVSPropertyOp24
 70
     1
102
RTVSPropertyOp25
 70
     1
102
RTVSPropertyOp26
 70
     1
102
RTVSPropertyOp27
 70
     1
  0
XRECORD
  5
83F3
102
{ACAD_REACTORS
330
83F2
102
}
330
83F2
100
AcDbXrecord
280
     1
102
RTVSPropertyOp0
 70
     1
102
RTVSPropertyOp1
 70
     1
102
RTVSPropertyOp2
 70
     1
102
RTVSPropertyOp3
 70
     1
102
RTVSPropertyOp4
 70
     1
102
RTVSPropertyOp5
 70
     1
102
RTVSPropertyOp6
 70
     1
102
RTVSPropertyOp7
 70
     1
102
RTVSPropertyOp8
 70
     1
102
RTVSPropertyOp9
 70
     1
102
RTVSPropertyOp10
 70
     1
102
RTVSPropertyOp11
 70
     1
102
RTVSPropertyOp12
 70
     1
102
RTVSPropertyOp13
 70
     1
102
RTVSPropertyOp14
 70
     1
102
RTVSPropertyOp15
 70
     1
102
RTVSPropertyOp16
 70
     1
102
RTVSPropertyOp17
 70
     1
102
RTVSPropertyOp18
 70
     1
102
RTVSPropertyOp19
 70
     1
102
RTVSPropertyOp20
 70
     1
102
RTVSPropertyOp21
 70
     1
102
RTVSPropertyOp22
 70
     1
102
RTVSPropertyOp23
 70
     1
102
RTVSPropertyOp24
 70
     1
102
RTVSPropertyOp25
 70
     1
102
RTVSPropertyOp26
 70
     1
102
RTVSPropertyOp27
 70
     1
  0
XRECORD
  5
83F5
102
{ACAD_REACTORS
330
83F4
102
}
330
83F4
100
AcDbXrecord
280
     1
102
RTVSPropertyOp0
 70
     1
102
RTVSPropertyOp1
 70
     1
102
RTVSPropertyOp2
 70
     1
102
RTVSPropertyOp3
 70
     1
102
RTVSPropertyOp4
 70
     1
102
RTVSPropertyOp5
 70
     1
102
RTVSPropertyOp6
 70
     1
102
RTVSPropertyOp7
 70
     1
102
RTVSPropertyOp8
 70
     1
102
RTVSPropertyOp9
 70
     1
102
RTVSPropertyOp10
 70
     1
102
RTVSPropertyOp11
 70
     1
102
RTVSPropertyOp12
 70
     1
102
RTVSPropertyOp13
 70
     1
102
RTVSPropertyOp14
 70
     1
102
RTVSPropertyOp15
 70
     1
102
RTVSPropertyOp16
 70
     1
102
RTVSPropertyOp17
 70
     1
102
RTVSPropertyOp18
 70
     1
102
RTVSPropertyOp19
 70
     1
102
RTVSPropertyOp20
 70
     1
102
RTVSPropertyOp21
 70
     1
102
RTVSPropertyOp22
 70
     1
102
RTVSPropertyOp23
 70
     1
102
RTVSPropertyOp24
 70
     1
102
RTVSPropertyOp25
 70
     1
102
RTVSPropertyOp26
 70
     1
102
RTVSPropertyOp27
 70
     1
  0
XRECORD
  5
83F7
102
{ACAD_REACTORS
330
83F6
102
}
330
83F6
100
AcDbXrecord
280
     1
102
RTVSPropertyOp0
 70
     1
102
RTVSPropertyOp1
 70
     1
102
RTVSPropertyOp2
 70
     1
102
RTVSPropertyOp3
 70
     1
102
RTVSPropertyOp4
 70
     1
102
RTVSPropertyOp5
 70
     1
102
RTVSPropertyOp6
 70
     1
102
RTVSPropertyOp7
 70
     1
102
RTVSPropertyOp8
 70
     1
102
RTVSPropertyOp9
 70
     1
102
RTVSPropertyOp10
 70
     1
102
RTVSPropertyOp11
 70
     1
102
RTVSPropertyOp12
 70
     1
102
RTVSPropertyOp13
 70
     1
102
RTVSPropertyOp14
 70
     1
102
RTVSPropertyOp15
 70
     1
102
RTVSPropertyOp16
 70
     1
102
RTVSPropertyOp17
 70
     1
102
RTVSPropertyOp18
 70
     1
102
RTVSPropertyOp19
 70
     1
102
RTVSPropertyOp20
 70
     1
102
RTVSPropertyOp21
 70
     1
102
RTVSPropertyOp22
 70
     1
102
RTVSPropertyOp23
 70
     1
102
RTVSPropertyOp24
 70
     1
102
RTVSPropertyOp25
 70
     1
102
RTVSPropertyOp26
 70
     1
102
RTVSPropertyOp27
 70
     1
  0
XRECORD
  5
83F9
102
{ACAD_REACTORS
330
83F8
102
}
330
83F8
100
AcDbXrecord
280
     1
102
RTVSPropertyOp0
 70
     1
102
RTVSPropertyOp1
 70
     1
102
RTVSPropertyOp2
 70
     1
102
RTVSPropertyOp3
 70
     1
102
RTVSPropertyOp4
 70
     1
102
RTVSPropertyOp5
 70
     1
102
RTVSPropertyOp6
 70
     1
102
RTVSPropertyOp7
 70
     1
102
RTVSPropertyOp8
 70
     1
102
RTVSPropertyOp9
 70
     1
102
RTVSPropertyOp10
 70
     1
102
RTVSPropertyOp11
 70
     1
102
RTVSPropertyOp12
 70
     1
102
RTVSPropertyOp13
 70
     1
102
RTVSPropertyOp14
 70
     1
102
RTVSPropertyOp15
 70
     1
102
RTVSPropertyOp16
 70
     1
102
RTVSPropertyOp17
 70
     1
102
RTVSPropertyOp18
 70
     1
102
RTVSPropertyOp19
 70
     1
102
RTVSPropertyOp20
 70
     1
102
RTVSPropertyOp21
 70
     1
102
RTVSPropertyOp22
 70
     1
102
RTVSPropertyOp23
 70
     1
102
RTVSPropertyOp24
 70
     1
102
RTVSPropertyOp25
 70
     1
102
RTVSPropertyOp26
 70
     1
102
RTVSPropertyOp27
 70
     1
  0
XRECORD
  5
83FB
102
{ACAD_REACTORS
330
83FA
102
}
330
83FA
100
AcDbXrecord
280
     1
102
RTVSPropertyOp0
 70
     1
102
RTVSPropertyOp1
 70
     1
102
RTVSPropertyOp2
 70
     1
102
RTVSPropertyOp3
 70
     1
102
RTVSPropertyOp4
 70
     1
102
RTVSPropertyOp5
 70
     1
102
RTVSPropertyOp6
 70
     1
102
RTVSPropertyOp7
 70
     1
102
RTVSPropertyOp8
 70
     1
102
RTVSPropertyOp9
 70
     1
102
RTVSPropertyOp10
 70
     1
102
RTVSPropertyOp11
 70
     1
102
RTVSPropertyOp12
 70
     1
102
RTVSPropertyOp13
 70
     1
102
RTVSPropertyOp14
 70
     1
102
RTVSPropertyOp15
 70
     1
102
RTVSPropertyOp16
 70
     1
102
RTVSPropertyOp17
 70
     1
102
RTVSPropertyOp18
 70
     1
102
RTVSPropertyOp19
 70
     1
102
RTVSPropertyOp20
 70
     1
102
RTVSPropertyOp21
 70
     1
102
RTVSPropertyOp22
 70
     1
102
RTVSPropertyOp23
 70
     1
102
RTVSPropertyOp24
 70
     1
102
RTVSPropertyOp25
 70
     1
102
RTVSPropertyOp26
 70
     1
102
RTVSPropertyOp27
 70
     1
  0
XRECORD
  5
83FD
102
{ACAD_REACTORS
330
83FC
102
}
330
83FC
100
AcDbXrecord
280
     1
102
RTVSPropertyOp0
 70
     1
102
RTVSPropertyOp1
 70
     1
102
RTVSPropertyOp2
 70
     1
102
RTVSPropertyOp3
 70
     1
102
RTVSPropertyOp4
 70
     1
102
RTVSPropertyOp5
 70
     1
102
RTVSPropertyOp6
 70
     1
102
RTVSPropertyOp7
 70
     1
102
RTVSPropertyOp8
 70
     1
102
RTVSPropertyOp9
 70
     1
102
RTVSPropertyOp10
 70
     1
102
RTVSPropertyOp11
 70
     1
102
RTVSPropertyOp12
 70
     1
102
RTVSPropertyOp13
 70
     1
102
RTVSPropertyOp14
 70
     1
102
RTVSPropertyOp15
 70
     1
102
RTVSPropertyOp16
 70
     1
102
RTVSPropertyOp17
 70
     1
102
RTVSPropertyOp18
 70
     1
102
RTVSPropertyOp19
 70
     1
102
RTVSPropertyOp20
 70
     1
102
RTVSPropertyOp21
 70
     1
102
RTVSPropertyOp22
 70
     1
102
RTVSPropertyOp23
 70
     1
102
RTVSPropertyOp24
 70
     1
102
RTVSPropertyOp25
 70
     1
102
RTVSPropertyOp26
 70
     1
102
RTVSPropertyOp27
 70
     1
  0
XRECORD
  5
83FF
102
{ACAD_REACTORS
330
83FE
102
}
330
83FE
100
AcDbXrecord
280
     1
102
RTVSPropertyOp0
 70
     1
102
RTVSPropertyOp1
 70
     1
102
RTVSPropertyOp2
 70
     1
102
RTVSPropertyOp3
 70
     1
102
RTVSPropertyOp4
 70
     1
102
RTVSPropertyOp5
 70
     1
102
RTVSPropertyOp6
 70
     1
102
RTVSPropertyOp7
 70
     1
102
RTVSPropertyOp8
 70
     1
102
RTVSPropertyOp9
 70
     1
102
RTVSPropertyOp10
 70
     1
102
RTVSPropertyOp11
 70
     1
102
RTVSPropertyOp12
 70
     1
102
RTVSPropertyOp13
 70
     1
102
RTVSPropertyOp14
 70
     1
102
RTVSPropertyOp15
 70
     1
102
RTVSPropertyOp16
 70
     1
102
RTVSPropertyOp17
 70
     1
102
RTVSPropertyOp18
 70
     1
102
RTVSPropertyOp19
 70
     1
102
RTVSPropertyOp20
 70
     1
102
RTVSPropertyOp21
 70
     1
102
RTVSPropertyOp22
 70
     1
102
RTVSPropertyOp23
 70
     1
102
RTVSPropertyOp24
 70
     1
102
RTVSPropertyOp25
 70
     1
102
RTVSPropertyOp26
 70
     1
102
RTVSPropertyOp27
 70
     1
  0
XRECORD
  5
8401
102
{ACAD_REACTORS
330
8400
102
}
330
8400
100
AcDbXrecord
280
     1
102
RTVSPropertyOp0
 70
     1
102
RTVSPropertyOp1
 70
     1
102
RTVSPropertyOp2
 70
     1
102
RTVSPropertyOp3
 70
     1
102
RTVSPropertyOp4
 70
     1
102
RTVSPropertyOp5
 70
     1
102
RTVSPropertyOp6
 70
     1
102
RTVSPropertyOp7
 70
     1
102
RTVSPropertyOp8
 70
     1
102
RTVSPropertyOp9
 70
     1
102
RTVSPropertyOp10
 70
     1
102
RTVSPropertyOp11
 70
     1
102
RTVSPropertyOp12
 70
     1
102
RTVSPropertyOp13
 70
     1
102
RTVSPropertyOp14
 70
     1
102
RTVSPropertyOp15
 70
     1
102
RTVSPropertyOp16
 70
     1
102
RTVSPropertyOp17
 70
     1
102
RTVSPropertyOp18
 70
     1
102
RTVSPropertyOp19
 70
     1
102
RTVSPropertyOp20
 70
     1
102
RTVSPropertyOp21
 70
     1
102
RTVSPropertyOp22
 70
     1
102
RTVSPropertyOp23
 70
     1
102
RTVSPropertyOp24
 70
     1
102
RTVSPropertyOp25
 70
     1
102
RTVSPropertyOp26
 70
     1
102
RTVSPropertyOp27
 70
     1
  0
ENDSEC
  0
EOF
