  0
SECTION
  2
HEADER
  9
$ACADVER
  1
AC1018
  9
$ACADMAINTVER
 70
     0
  9
$DWGCODEPAGE
  3
ANSI_932
  9
$LASTSAVEDBY
  1
shinwa
  9
$INSBASE
 10
0.0
 20
0.0
 30
0.0
  9
$EXTMIN
 10
240.0
 20
0.0
 30
0.0
  9
$EXTMAX
 10
5985.0
 20
4737.740489612192
 30
0.0
  9
$LIMMIN
 10
0.0
 20
0.0
  9
$LIMMAX
 10
6300.0
 20
4455.0
  9
$ORTHOMODE
 70
     1
  9
$REGENMODE
 70
     1
  9
$FILLMODE
 70
     1
  9
$QTEXTMODE
 70
     0
  9
$MIRRTEXT
 70
     1
  9
$LTSCALE
 40
150.0
  9
$ATTMODE
 70
     1
  9
$TEXTSIZE
 40
45.0
  9
$TRACEWID
 40
0.05
  9
$TEXTSTYLE
  7
STANDARD
  9
$CLAYER
  8
SUNPOU
  9
$CELTYPE
  6
BYLAYER
  9
$CECOLOR
 62
   256
  9
$CELTSCALE
 40
1.0
  9
$DISPSILH
 70
     0
  9
$DIMSCALE
 40
15.0
  9
$DIMASZ
 40
2.0
  9
$DIMEXO
 40
2.0
  9
$DIMDLI
 40
7.0
  9
$DIMRND
 40
0.0
  9
$DIMDLE
 40
0.0
  9
$DIMEXE
 40
0.5
  9
$DIMTP
 40
0.0
  9
$DIMTM
 40
0.0
  9
$DIMTXT
 40
3.0
  9
$DIMCEN
 40
0.0
  9
$DIMTSZ
 40
0.0
  9
$DIMTOL
 70
     0
  9
$DIMLIM
 70
     0
  9
$DIMTIH
 70
     0
  9
$DIMTOH
 70
     0
  9
$DIMSE1
 70
     0
  9
$DIMSE2
 70
     0
  9
$DIMTAD
 70
     1
  9
$DIMZIN
 70
     8
  9
$DIMBLK
  1

  9
$DIMASO
 70
     1
  9
$DIMSHO
 70
     1
  9
$DIMPOST
  1

  9
$DIMAPOST
  1

  9
$DIMALT
 70
     0
  9
$DIMALTD
 70
     2
  9
$DIMALTF
 40
25.4
  9
$DIMLFAC
 40
1.0
  9
$DIMTOFL
 70
     0
  9
$DIMTVP
 40
1.0
  9
$DIMTIX
 70
     1
  9
$DIMSOXD
 70
     0
  9
$DIMSAH
 70
     0
  9
$DIMBLK1
  1

  9
$DIMBLK2
  1

  9
$DIMSTYLE
  2
S-15
  9
$DIMCLRD
 70
     0
  9
$DIMCLRE
 70
     0
  9
$DIMCLRT
 70
     0
  9
$DIMTFAC
 40
1.0
  9
$DIMGAP
 40
0.8
  9
$DIMJUST
 70
     0
  9
$DIMSD1
 70
     0
  9
$DIMSD2
 70
     0
  9
$DIMTOLJ
 70
     1
  9
$DIMTZIN
 70
     8
  9
$DIMALTZ
 70
     8
  9
$DIMALTTZ
 70
     8
  9
$DIMUPT
 70
     0
  9
$DIMDEC
 70
     0
  9
$DIMTDEC
 70
     0
  9
$DIMALTU
 70
     2
  9
$DIMALTTD
 70
     2
  9
$DIMTXSTY
  7
STANDARD
  9
$DIMAUNIT
 70
     0
  9
$DIMADEC
 70
     4
  9
$DIMALTRND
 40
0.0
  9
$DIMAZIN
 70
     0
  9
$DIMDSEP
 70
    46
  9
$DIMATFIT
 70
     3
  9
$DIMFRAC
 70
     0
  9
$DIMLDRBLK
  1

  9
$DIMLUNIT
 70
     2
  9
$DIMLWD
 70
    -2
  9
$DIMLWE
 70
    -2
  9
$DIMTMOVE
 70
     2
  9
$LUNITS
 70
     2
  9
$LUPREC
 70
     3
  9
$SKETCHINC
 40
0.1
  9
$FILLETRAD
 40
0.0
  9
$AUNITS
 70
     0
  9
$AUPREC
 70
     5
  9
$MENU
  1
acad
  9
$ELEVATION
 40
0.0
  9
$PELEVATION
 40
0.0
  9
$THICKNESS
 40
0.0
  9
$LIMCHECK
 70
     0
  9
$CHAMFERA
 40
0.0
  9
$CHAMFERB
 40
0.0
  9
$CHAMFERC
 40
0.0
  9
$CHAMFERD
 40
0.0
  9
$SKPOLY
 70
     0
  9
$TDCREATE
 40
2450014.655173611
  9
$TDUCREATE
 40
2450014.280173611
  9
$TDUPDATE
 40
2457794.766551227
  9
$TDUUPDATE
 40
2457794.391551227
  9
$TDINDWG
 40
0.0388249074
  9
$TDUSRTIMER
 40
0.0388249074
  9
$USRTIMER
 70
     1
  9
$ANGBASE
 50
0.0
  9
$ANGDIR
 70
     0
  9
$PDMODE
 70
     0
  9
$PDSIZE
 40
0.0
  9
$PLINEWID
 40
0.0
  9
$SPLFRAME
 70
     0
  9
$SPLINETYPE
 70
     6
  9
$SPLINESEGS
 70
     8
  9
$HANDSEED
  5
11BF
  9
$SURFTAB1
 70
     6
  9
$SURFTAB2
 70
     6
  9
$SURFTYPE
 70
     6
  9
$SURFU
 70
     6
  9
$SURFV
 70
     6
  9
$UCSBASE
  2

  9
$UCSNAME
  2

  9
$UCSORG
 10
0.0
 20
0.0
 30
0.0
  9
$UCSXDIR
 10
1.0
 20
0.0
 30
0.0
  9
$UCSYDIR
 10
0.0
 20
1.0
 30
0.0
  9
$UCSORTHOREF
  2

  9
$UCSORTHOVIEW
 70
     0
  9
$UCSORGTOP
 10
0.0
 20
0.0
 30
0.0
  9
$UCSORGBOTTOM
 10
0.0
 20
0.0
 30
0.0
  9
$UCSORGLEFT
 10
0.0
 20
0.0
 30
0.0
  9
$UCSORGRIGHT
 10
0.0
 20
0.0
 30
0.0
  9
$UCSORGFRONT
 10
0.0
 20
0.0
 30
0.0
  9
$UCSORGBACK
 10
0.0
 20
0.0
 30
0.0
  9
$PUCSBASE
  2

  9
$PUCSNAME
  2

  9
$PUCSORG
 10
0.0
 20
0.0
 30
0.0
  9
$PUCSXDIR
 10
1.0
 20
0.0
 30
0.0
  9
$PUCSYDIR
 10
0.0
 20
1.0
 30
0.0
  9
$PUCSORTHOREF
  2

  9
$PUCSORTHOVIEW
 70
     0
  9
$PUCSORGTOP
 10
0.0
 20
0.0
 30
0.0
  9
$PUCSORGBOTTOM
 10
0.0
 20
0.0
 30
0.0
  9
$PUCSORGLEFT
 10
0.0
 20
0.0
 30
0.0
  9
$PUCSORGRIGHT
 10
0.0
 20
0.0
 30
0.0
  9
$PUCSORGFRONT
 10
0.0
 20
0.0
 30
0.0
  9
$PUCSORGBACK
 10
0.0
 20
0.0
 30
0.0
  9
$USERI1
 70
     0
  9
$USERI2
 70
     0
  9
$USERI3
 70
     0
  9
$USERI4
 70
     0
  9
$USERI5
 70
     0
  9
$USERR1
 40
0.0
  9
$USERR2
 40
0.0
  9
$USERR3
 40
0.0
  9
$USERR4
 40
0.0
  9
$USERR5
 40
0.0
  9
$WORLDVIEW
 70
     1
  9
$SHADEDGE
 70
     3
  9
$SHADEDIF
 70
    70
  9
$TILEMODE
 70
     1
  9
$MAXACTVP
 70
    48
  9
$PINSBASE
 10
0.0
 20
0.0
 30
0.0
  9
$PLIMCHECK
 70
     0
  9
$PEXTMIN
 10
1.000000000000000E+20
 20
1.000000000000000E+20
 30
1.000000000000000E+20
  9
$PEXTMAX
 10
-1.000000000000000E+20
 20
-1.000000000000000E+20
 30
-1.000000000000000E+20
  9
$PLIMMIN
 10
0.0
 20
0.0
  9
$PLIMMAX
 10
12.0
 20
9.0
  9
$UNITMODE
 70
     0
  9
$VISRETAIN
 70
     0
  9
$PLINEGEN
 70
     0
  9
$PSLTSCALE
 70
     0
  9
$TREEDEPTH
 70
  3020
  9
$CMLSTYLE
  2
STANDARD
  9
$CMLJUST
 70
     0
  9
$CMLSCALE
 40
1.0
  9
$PROXYGRAPHICS
 70
     1
  9
$MEASUREMENT
 70
     0
  9
$CELWEIGHT
370
    -1
  9
$ENDCAPS
280
     0
  9
$JOINSTYLE
280
     0
  9
$LWDISPLAY
290
     0
  9
$INSUNITS
 70
     0
  9
$HYPERLINKBASE
  1

  9
$STYLESHEET
  1
aclt.ctb
  9
$XEDIT
290
     1
  9
$CEPSNTYPE
380
     0
  9
$PSTYLEMODE
290
     1
  9
$FINGERPRINTGUID
  2
{5CE31C3E-7111-11D8-A1CD-0050FC45377D}
  9
$VERSIONGUID
  2
{3C38EA7A-2AA5-47A4-83B9-69A87DBCEB2B}
  9
$EXTNAMES
290
     1
  9
$PSVPSCALE
 40
0.0
  9
$OLESTARTUP
290
     0
  9
$SORTENTS
280
   127
  9
$INDEXCTL
280
     0
  9
$HIDETEXT
280
     0
  9
$XCLIPFRAME
290
     0
  9
$HALOGAP
280
     0
  9
$OBSCOLOR
 70
   257
  9
$OBSLTYPE
280
     0
  9
$INTERSECTIONDISPLAY
280
     0
  9
$INTERSECTIONCOLOR
 70
   257
  9
$DIMASSOC
280
     1
  9
$PROJECTNAME
  1

  0
ENDSEC
  0
SECTION
  2
CLASSES
  0
CLASS
  1
ACDBDICTIONARYWDFLT
  2
AcDbDictionaryWithDefault
  3
ObjectDBX Classes
 90
        0
 91
        4
280
     0
281
     0
  0
CLASS
  1
ACDBPLACEHOLDER
  2
AcDbPlaceHolder
  3
ObjectDBX Classes
 90
        0
 91
        1
280
     0
281
     0
  0
CLASS
  1
LAYOUT
  2
AcDbLayout
  3
ObjectDBX Classes
 90
        0
 91
        1
280
     0
281
     0
  0
CLASS
  1
DICTIONARYVAR
  2
AcDbDictionaryVar
  3
ObjectDBX Classes
 90
        0
 91
        4
280
     0
281
     0
  0
CLASS
  1
DUMMY
  2
AcDbLongTransaction
  3
DUMMY
 90
        0
 91
        1
280
     0
281
     0
  0
CLASS
  1
LWPOLYLINE
  2
AcDbPolyline
  3
AutoCAD 2000
 90
        0
 91
        1
280
     0
281
     1
  0
CLASS
  1
HATCH
  2
AcDbHatch
  3
AutoCAD 2000
 90
        0
 91
        1
280
     0
281
     1
  0
CLASS
  1
XRECORD
  2
AcDbXrecord
  3
AutoCAD 2000
 90
        0
 91
        1
280
     0
281
     0
  0
CLASS
  1
TABLESTYLE
  2
AcDbTableStyle
  3
ObjectDBX Classes
 90
     4095
 91
        4
280
     0
281
     0
  0
CLASS
  1
SORTENTSTABLE
  2
AcDbSortentsTable
  3
ObjectDBX Classes
 90
        0
 91
        4
280
     0
281
     0
  0
CLASS
  1
MATERIAL
  2
AcDbMaterial
  3
ObjectDBX Classes
 90
     1153
 91
        4
280
     0
281
     0
  0
CLASS
  1
VISUALSTYLE
  2
AcDbVisualStyle
  3
ObjectDBX Classes
 90
     4095
 91
        4
280
     0
281
     0
  0
CLASS
  1
SCALE
  2
AcDbScale
  3
ObjectDBX Classes
 90
     1153
 91
        4
280
     0
281
     0
  0
CLASS
  1
MLEADERSTYLE
  2
AcDbMLeaderStyle
  3
ACDB_MLEADERSTYLE_CLASS
 90
     4095
 91
        4
280
     0
281
     0
  0
CLASS
  1
ACDBSECTIONVIEWSTYLE
  2
AcDbSectionViewStyle
  3
ObjectDBX Classes
 90
     1025
 91
        2
280
     1
281
     0
  0
CLASS
  1
ACDBDETAILVIEWSTYLE
  2
AcDbDetailViewStyle
  3
ObjectDBX Classes
 90
     1025
 91
        2
280
     1
281
     0
  0
CLASS
  1
CELLSTYLEMAP
  2
AcDbCellStyleMap
  3
ObjectDBX Classes
 90
     1152
 91
        4
280
     0
281
     0
  0
ENDSEC
  0
SECTION
  2
TABLES
  0
TABLE
  2
VPORT
  5
8
102
{ACAD_XDICTIONARY
360
1183
102
}
330
0
100
AcDbSymbolTable
 70
     1
  0
VPORT
  5
D3D
330
8
100
AcDbSymbolTableRecord
100
AcDbViewportTableRecord
  2
*Active
 70
     0
 10
0.0
 20
0.0
 11
1.0
 21
1.0
 12
2719.883071739983
 22
2264.125357854224
 13
0.0
 23
0.0
 14
15.0
 24
15.0
 15
150.0
 25
150.0
 16
0.0
 26
0.0
 36
1.0
 17
0.0
 27
0.0
 37
0.0
 40
4450.647927234117
 41
1.560747663551402
 42
50.0
 43
0.0
 44
0.0
 50
0.0
 51
0.0
 71
     0
 72
   100
 73
     1
 74
     1
 75
     0
 76
     0
 77
     0
 78
     0
281
     0
 65
     1
110
0.0
120
0.0
130
0.0
111
1.0
121
0.0
131
0.0
112
0.0
122
1.0
132
0.0
 79
     0
146
0.0
1001
ACAD_NAV_VCDISPLAY
1070
     3
  0
ENDTAB
  0
TABLE
  2
LTYPE
  5
5
330
0
100
AcDbSymbolTable
 70
     4
  0
LTYPE
  5
11
330
5
100
AcDbSymbolTableRecord
100
AcDbLinetypeTableRecord
  2
BYBLOCK
 70
     0
  3

 72
    65
 73
     0
 40
0.0
  0
LTYPE
  5
12
330
5
100
AcDbSymbolTableRecord
100
AcDbLinetypeTableRecord
  2
BYLAYER
 70
     0
  3

 72
    65
 73
     0
 40
0.0
  0
LTYPE
  5
13
330
5
100
AcDbSymbolTableRecord
100
AcDbLinetypeTableRecord
  2
CONTINUOUS
 70
     0
  3
Solid line
 72
    65
 73
     0
 40
0.0
  0
LTYPE
  5
1E
330
5
100
AcDbSymbolTableRecord
100
AcDbLinetypeTableRecord
  2
HIDDEN
 70
     0
  3
_ _ _ _ _ _ _ _ _ _ _ _ _ _ _ _ _ _ _ _ _ _ _
 72
    65
 73
     2
 40
0.375
 49
0.25
 74
     0
 49
-0.125
 74
     0
  0
LTYPE
  5
1F
330
5
100
AcDbSymbolTableRecord
100
AcDbLinetypeTableRecord
  2
CENTER
 70
     0
  3
____ _ ____ _ ____ _ ____ _ ____ _ ____ _ ____
 72
    65
 73
     4
 40
2.0
 49
1.25
 74
     0
 49
-0.25
 74
     0
 49
0.25
 74
     0
 49
-0.25
 74
     0
  0
LTYPE
  5
20
330
5
100
AcDbSymbolTableRecord
100
AcDbLinetypeTableRecord
  2
PHANTOM
 70
     0
  3
_____ _ _ _____ _ _ _____ _ _ _____ _ _ ____
 72
    65
 73
     6
 40
2.5
 49
1.25
 74
     0
 49
-0.25
 74
     0
 49
0.25
 74
     0
 49
-0.25
 74
     0
 49
0.25
 74
     0
 49
-0.25
 74
     0
  0
ENDTAB
  0
TABLE
  2
LAYER
  5
2
102
{ACAD_XDICTIONARY
360
3AF
102
}
330
0
100
AcDbSymbolTable
 70
    10
  0
LAYER
  5
E
102
{ACAD_XDICTIONARY
360
111D
102
}
330
2
100
AcDbSymbolTableRecord
100
AcDbLayerTableRecord
  2
0
 70
     0
 62
     7
  6
CONTINUOUS
370
    -3
390
67
  0
LAYER
  5
23
102
{ACAD_XDICTIONARY
360
111F
102
}
330
2
100
AcDbSymbolTableRecord
100
AcDbLayerTableRecord
  2
SUNPOU
 70
     0
 62
     1
  6
CONTINUOUS
370
    -3
390
67
  0
LAYER
  5
24
102
{ACAD_XDICTIONARY
360
1121
102
}
330
2
100
AcDbSymbolTableRecord
100
AcDbLayerTableRecord
  2
HAIKIN
 70
     0
 62
     2
  6
CONTINUOUS
370
    -3
390
67
  0
LAYER
  5
25
102
{ACAD_XDICTIONARY
360
1123
102
}
330
2
100
AcDbSymbolTableRecord
100
AcDbLayerTableRecord
  2
SEIHIN
 70
     0
 62
     3
  6
CONTINUOUS
370
    -3
390
67
  0
LAYER
  5
26
102
{ACAD_XDICTIONARY
360
1125
102
}
330
2
100
AcDbSymbolTableRecord
100
AcDbLayerTableRecord
  2
HASEN
 70
     0
 62
     4
  6
HIDDEN
370
    -3
390
67
  0
LAYER
  5
27
102
{ACAD_XDICTIONARY
360
1127
102
}
330
2
100
AcDbSymbolTableRecord
100
AcDbLayerTableRecord
  2
1HASEN
 70
     0
 62
     5
  6
CENTER
370
    -3
390
67
  0
LAYER
  5
28
102
{ACAD_XDICTIONARY
360
1129
102
}
330
2
100
AcDbSymbolTableRecord
100
AcDbLayerTableRecord
  2
2HASEN
 70
     0
 62
     6
  6
PHANTOM
370
    -3
390
67
  0
LAYER
  5
29
102
{ACAD_XDICTIONARY
360
112B
102
}
330
2
100
AcDbSymbolTableRecord
100
AcDbLayerTableRecord
  2
HOJO
 70
     0
 62
     7
  6
CONTINUOUS
370
    -3
390
67
  0
LAYER
  5
2A
102
{ACAD_XDICTIONARY
360
112D
102
}
330
2
100
AcDbSymbolTableRecord
100
AcDbLayerTableRecord
  2
TEN
 70
     0
 62
     7
  6
CONTINUOUS
370
    -3
390
67
  0
LAYER
  5
3C7
330
2
100
AcDbSymbolTableRecord
100
AcDbLayerTableRecord
  2
Defpoints
 70
     0
 62
     7
  6
CONTINUOUS
290
     0
370
    -3
390
67
  0
ENDTAB
  0
TABLE
  2
STYLE
  5
3
330
0
100
AcDbSymbolTable
 70
     1
  0
STYLE
  5
F
330
3
100
AcDbSymbolTableRecord
100
AcDbTextStyleTableRecord
  2
STANDARD
 70
     0
 40
0.0
 41
0.8
 50
0.0
 71
     0
 42
45.0
  3
TXT.shx
  4
BIGFONT.shx
  0
ENDTAB
  0
TABLE
  2
VIEW
  5
6
330
0
100
AcDbSymbolTable
 70
     0
  0
ENDTAB
  0
TABLE
  2
UCS
  5
7
330
0
100
AcDbSymbolTable
 70
     0
  0
ENDTAB
  0
TABLE
  2
APPID
  5
9
330
0
100
AcDbSymbolTable
 70
    12
  0
APPID
  5
10
330
9
100
AcDbSymbolTableRecord
100
AcDbRegAppTableRecord
  2
ACAD
 70
     0
  0
APPID
  5
A3
330
9
100
AcDbSymbolTableRecord
100
AcDbRegAppTableRecord
  2
ACAD_DSTYLE_DIMTEXT_FILL
 70
     0
  0
APPID
  5
A4
330
9
100
AcDbSymbolTableRecord
100
AcDbRegAppTableRecord
  2
ACAD_DSTYLE_DIMEXT_LENGTH
 70
     0
  0
APPID
  5
A5
330
9
100
AcDbSymbolTableRecord
100
AcDbRegAppTableRecord
  2
ACAD_DSTYLE_DIMEXT_ENABLED
 70
     0
  0
APPID
  5
A6
330
9
100
AcDbSymbolTableRecord
100
AcDbRegAppTableRecord
  2
ACAD_DSTYLE_DIM_LINETYPE
 70
     0
  0
APPID
  5
A7
330
9
100
AcDbSymbolTableRecord
100
AcDbRegAppTableRecord
  2
ACAD_DSTYLE_DIM_EXT1_LINETYPE
 70
     0
  0
APPID
  5
A8
330
9
100
AcDbSymbolTableRecord
100
AcDbRegAppTableRecord
  2
ACAD_DSTYLE_DIM_EXT2_LINETYPE
 70
     0
  0
APPID
  5
164
330
9
100
AcDbSymbolTableRecord
100
AcDbRegAppTableRecord
  2
ACAD_DSTYLE_DIMJOGGED_JOGANGLE_SYMBOL
 70
     0
  0
APPID
  5
348
330
9
100
AcDbSymbolTableRecord
100
AcDbRegAppTableRecord
  2
ACAD_DSTYLE_DIMARC_LENGTH_SYMBOL
 70
     0
  0
APPID
  5
428
330
9
100
AcDbSymbolTableRecord
100
AcDbRegAppTableRecord
  2
ACAD_EXEMPT_FROM_CAD_STANDARDS
 70
     0
  0
APPID
  5
D8C
330
9
100
AcDbSymbolTableRecord
100
AcDbRegAppTableRecord
  2
ACAD_NAV_VCDISPLAY
 70
     0
  0
APPID
  5
1173
330
9
100
AcDbSymbolTableRecord
100
AcDbRegAppTableRecord
  2
ACAD_MLEADERVER
 70
     0
  0
ENDTAB
  0
TABLE
  2
DIMSTYLE
  5
A
330
0
100
AcDbSymbolTable
 70
     3
100
AcDbDimStyleTable
  0
DIMSTYLE
105
61
330
A
100
AcDbSymbolTableRecord
100
AcDbDimStyleTableRecord
  2
STANDARD
 70
     0
178
     0
340
F
  0
DIMSTYLE
105
34D
102
{ACAD_REACTORS
330
3C6
330
3D4
330
411
330
42F
330
5C8
330
5D5
330
5E2
330
5F8
330
5F9
330
624
330
AC5
330
B1A
330
B29
330
B37
330
EFD
330
EFE
330
EFF
330
F00
330
F01
330
F06
330
F07
330
F08
330
F09
330
F3E
330
F3F
330
F40
330
F41
330
F42
330
F43
102
}
330
A
100
AcDbSymbolTableRecord
100
AcDbDimStyleTableRecord
  2
S-15
 70
     0
 40
15.0
 41
2.0
 42
2.0
 43
7.0
 44
0.5
 73
     0
 74
     0
 77
     1
 78
     8
140
3.0
141
0.0
145
1.0
147
0.8
174
     1
178
     0
179
     4
271
     0
272
     0
279
     2
284
     8
285
     8
286
     8
340
F
1001
ACAD_DSTYLE_DIMJOGGED_JOGANGLE_SYMBOL
1070
   384
1040
0.7853981633974483
  0
DIMSTYLE
105
3AE
330
A
100
AcDbSymbolTableRecord
100
AcDbDimStyleTableRecord
  2
S-20
 70
     0
 40
20.0
 41
2.0
 42
2.0
 44
0.5
 73
     0
 74
     0
 77
     1
140
3.0
147
0.8
174
     1
178
     0
179
     4
271
     0
272
     0
279
     2
340
F
1001
ACAD_DSTYLE_DIMJOGGED_JOGANGLE_SYMBOL
1070
   384
1040
0.7853981633974483
  0
ENDTAB
  0
TABLE
  2
BLOCK_RECORD
  5
1
330
0
100
AcDbSymbolTable
 70
    77
  0
BLOCK_RECORD
  5
17
102
{ACAD_XDICTIONARY
360
95
102
}
330
1
100
AcDbSymbolTableRecord
100
AcDbBlockTableRecord
  2
*MODEL_SPACE
340
6A
  0
BLOCK_RECORD
  5
14
330
1
100
AcDbSymbolTableRecord
100
AcDbBlockTableRecord
  2
*PAPER_SPACE
340
6B
  0
BLOCK_RECORD
  5
1C
330
1
100
AcDbSymbolTableRecord
100
AcDbBlockTableRecord
  2
BORDER
340
0
  0
BLOCK_RECORD
  5
1D
330
1
100
AcDbSymbolTableRecord
100
AcDbBlockTableRecord
  2
SA3
340
0
  0
BLOCK_RECORD
  5
3C8
330
1
100
AcDbSymbolTableRecord
100
AcDbBlockTableRecord
  2
*D2
340
0
  0
BLOCK_RECORD
  5
3D5
330
1
100
AcDbSymbolTableRecord
100
AcDbBlockTableRecord
  2
*D3
340
0
  0
BLOCK_RECORD
  5
412
330
1
100
AcDbSymbolTableRecord
100
AcDbBlockTableRecord
  2
*D4
340
0
  0
BLOCK_RECORD
  5
430
330
1
100
AcDbSymbolTableRecord
100
AcDbBlockTableRecord
  2
*D5
340
0
  0
BLOCK_RECORD
  5
5C9
330
1
100
AcDbSymbolTableRecord
100
AcDbBlockTableRecord
  2
*D6
340
0
  0
BLOCK_RECORD
  5
5D6
330
1
100
AcDbSymbolTableRecord
100
AcDbBlockTableRecord
  2
*D7
340
0
  0
BLOCK_RECORD
  5
5E3
330
1
100
AcDbSymbolTableRecord
100
AcDbBlockTableRecord
  2
*D8
340
0
  0
BLOCK_RECORD
  5
5FA
330
1
100
AcDbSymbolTableRecord
100
AcDbBlockTableRecord
  2
*D9
340
0
  0
BLOCK_RECORD
  5
606
330
1
100
AcDbSymbolTableRecord
100
AcDbBlockTableRecord
  2
*D10
340
0
  0
BLOCK_RECORD
  5
625
330
1
100
AcDbSymbolTableRecord
100
AcDbBlockTableRecord
  2
*D11
340
0
  0
BLOCK_RECORD
  5
AC6
330
1
100
AcDbSymbolTableRecord
100
AcDbBlockTableRecord
  2
*D20
340
0
  0
BLOCK_RECORD
  5
B1B
330
1
100
AcDbSymbolTableRecord
100
AcDbBlockTableRecord
  2
*D23
340
0
  0
BLOCK_RECORD
  5
B2A
330
1
100
AcDbSymbolTableRecord
100
AcDbBlockTableRecord
  2
*D24
340
0
  0
BLOCK_RECORD
  5
B38
330
1
100
AcDbSymbolTableRecord
100
AcDbBlockTableRecord
  2
*D25
340
0
  0
BLOCK_RECORD
  5
F55
330
1
100
AcDbSymbolTableRecord
100
AcDbBlockTableRecord
  2
*D56
340
0
  0
BLOCK_RECORD
  5
F61
330
1
100
AcDbSymbolTableRecord
100
AcDbBlockTableRecord
  2
*D57
340
0
  0
BLOCK_RECORD
  5
F6E
330
1
100
AcDbSymbolTableRecord
100
AcDbBlockTableRecord
  2
*D58
340
0
  0
BLOCK_RECORD
  5
F7B
330
1
100
AcDbSymbolTableRecord
100
AcDbBlockTableRecord
  2
*D59
340
0
  0
BLOCK_RECORD
  5
F87
330
1
100
AcDbSymbolTableRecord
100
AcDbBlockTableRecord
  2
*D60
340
0
  0
BLOCK_RECORD
  5
F93
330
1
100
AcDbSymbolTableRecord
100
AcDbBlockTableRecord
  2
*D61
340
0
  0
BLOCK_RECORD
  5
FA0
330
1
100
AcDbSymbolTableRecord
100
AcDbBlockTableRecord
  2
*D62
340
0
  0
BLOCK_RECORD
  5
FAC
330
1
100
AcDbSymbolTableRecord
100
AcDbBlockTableRecord
  2
*D63
340
0
  0
BLOCK_RECORD
  5
FB8
330
1
100
AcDbSymbolTableRecord
100
AcDbBlockTableRecord
  2
*D64
340
0
  0
BLOCK_RECORD
  5
FE8
330
1
100
AcDbSymbolTableRecord
100
AcDbBlockTableRecord
  2
*D68
340
0
  0
BLOCK_RECORD
  5
FF4
330
1
100
AcDbSymbolTableRecord
100
AcDbBlockTableRecord
  2
*D69
340
0
  0
BLOCK_RECORD
  5
1000
330
1
100
AcDbSymbolTableRecord
100
AcDbBlockTableRecord
  2
*D70
340
0
  0
BLOCK_RECORD
  5
100C
330
1
100
AcDbSymbolTableRecord
100
AcDbBlockTableRecord
  2
*D71
340
0
  0
BLOCK_RECORD
  5
1018
330
1
100
AcDbSymbolTableRecord
100
AcDbBlockTableRecord
  2
*D72
340
0
  0
BLOCK_RECORD
  5
1024
330
1
100
AcDbSymbolTableRecord
100
AcDbBlockTableRecord
  2
*D73
340
0
  0
ENDTAB
  0
ENDSEC
  0
SECTION
  2
BLOCKS
  0
BLOCK
  5
2D
330
17
100
AcDbEntity
  8
0
100
AcDbBlockBegin
  2
*MODEL_SPACE
 70
     0
 10
0.0
 20
0.0
 30
0.0
  3
*MODEL_SPACE
  1

  0
ENDBLK
  5
2E
330
17
100
AcDbEntity
  8
0
100
AcDbBlockEnd
  0
BLOCK
  5
2B
330
14
100
AcDbEntity
 67
     1
  8
0
100
AcDbBlockBegin
  2
*PAPER_SPACE
 70
     0
 10
0.0
 20
0.0
 30
0.0
  3
*PAPER_SPACE
  1

  0
ENDBLK
  5
2C
330
14
100
AcDbEntity
 67
     1
  8
0
100
AcDbBlockEnd
  0
BLOCK
  5
2F
330
1C
100
AcDbEntity
  8
0
100
AcDbBlockBegin
  2
BORDER
 70
     0
 10
0.0
 20
0.0
 30
0.0
  3
BORDER
  1

  0
LINE
  5
30
330
1C
100
AcDbEntity
  8
0
100
AcDbLine
 10
0.0
 20
0.0
 30
0.0
 11
1.00000000000004
 21
0.0
 31
0.0
  0
LINE
  5
31
330
1C
100
AcDbEntity
  8
0
100
AcDbLine
 10
1.00000000000004
 20
0.0
 30
0.0
 11
1.00000000000004
 21
1.00000000000004
 31
0.0
  0
LINE
  5
32
330
1C
100
AcDbEntity
  8
0
100
AcDbLine
 10
1.00000000000004
 20
1.00000000000004
 30
0.0
 11
0.0
 21
1.00000000000004
 31
0.0
  0
LINE
  5
33
330
1C
100
AcDbEntity
  8
0
100
AcDbLine
 10
0.0
 20
1.00000000000004
 30
0.0
 11
0.0
 21
0.0
 31
0.0
  0
ENDBLK
  5
34
330
1C
100
AcDbEntity
  8
0
100
AcDbBlockEnd
  0
BLOCK
  5
35
330
1D
100
AcDbEntity
  8
HAIKIN
100
AcDbBlockBegin
  2
SA3
 70
     0
 10
0.0
 20
0.0
 30
0.0
  3
SA3
  1

  0
TEXT
  5
36
330
1D
100
AcDbEntity
  8
SUNPOU
100
AcDbText
 10
340.0
 20
0.0
 30
0.0
 40
2.5
  1
新和コンクリート工業株式会社
100
AcDbText
  0
TEXT
  5
39
330
1D
100
AcDbEntity
  8
SUNPOU
100
AcDbText
 10
361.4166666666667
 20
6.25
 30
0.0
 40
2.5
  1
製図
 72
     4
 11
364.0
 21
7.5
 31
0.0
100
AcDbText
  0
TEXT
  5
3A
330
1D
100
AcDbEntity
  8
SUNPOU
100
AcDbText
 10
361.3333333333333
 20
11.25
 30
0.0
 40
2.5
  1
設計
 72
     4
 11
364.0
 21
12.5
 31
0.0
100
AcDbText
  0
TEXT
  5
3B
330
1D
100
AcDbEntity
  8
SUNPOU
100
AcDbText
 10
339.0833333333333
 20
6.250000000000014
 30
0.0
 40
2.5
  1
認
 72
     4
 11
340.25
 21
7.500000000000014
 31
0.0
100
AcDbText
  0
TEXT
  5
3C
330
1D
100
AcDbEntity
  8
SUNPOU
100
AcDbText
 10
339.0833333333333
 20
11.33333333333336
 30
0.0
 40
2.5
  1
承
 72
     4
 11
340.25
 21
12.50000000000003
 31
0.0
100
AcDbText
  0
TEXT
  5
3D
330
1D
100
AcDbEntity
  8
SUNPOU
100
AcDbText
 10
312.75
 20
11.75000000000001
 30
0.0
 40
2.5
  1
図　面　番　号
 72
     4
 11
323.0
 21
13.00000000000001
 31
0.0
100
AcDbText
  0
TEXT
  5
3E
330
1D
100
AcDbEntity
  8
SUNPOU
100
AcDbText
 10
362.0
 20
17.0
 30
0.0
 40
2.5
  1
１／
100
AcDbText
  0
TEXT
  5
3F
330
1D
100
AcDbEntity
  8
SUNPOU
100
AcDbText
 10
347.3333333333333
 20
16.25000000000001
 30
0.0
 40
2.5
  1
縮　　尺
 72
     4
 11
353.0
 21
17.50000000000001
 31
0.0
100
AcDbText
  0
TEXT
  5
40
330
1D
100
AcDbEntity
  8
SUNPOU
100
AcDbText
 10
347.3333333333333
 20
21.25
 30
0.0
 40
2.5
  1
鉄 筋 量
 72
     4
 11
353.0
 21
22.5
 31
0.0
100
AcDbText
  0
TEXT
  5
41
330
1D
100
AcDbEntity
  8
SUNPOU
100
AcDbText
 10
347.3333333333333
 20
26.25
 30
0.0
 40
2.5
  1
製 造 数
 72
     4
 11
353.0
 21
27.5
 31
0.0
100
AcDbText
  0
TEXT
  5
42
330
1D
100
AcDbEntity
  8
SUNPOU
100
AcDbText
 10
377.0
 20
21.0
 30
0.0
 40
2.5
  1
ｋｇ
 72
     2
 11
382.0
 21
21.0
 31
0.0
100
AcDbText
  0
TEXT
  5
43
330
1D
100
AcDbEntity
  8
SUNPOU
100
AcDbText
 10
339.5
 20
21.0
 30
0.0
 40
2.5
  1
ｋｇ
 72
     2
 11
344.5
 21
21.0
 31
0.0
100
AcDbText
  0
TEXT
  5
44
330
1D
100
AcDbEntity
  8
SUNPOU
100
AcDbText
 10
310.0
 20
16.25000000000001
 30
0.0
 40
2.5
  1
年 月 日
 72
     4
 11
315.5
 21
17.50000000000001
 31
0.0
100
AcDbText
  0
TEXT
  5
45
330
1D
100
AcDbEntity
  8
SUNPOU
100
AcDbText
 10
309.8333333333333
 20
21.25
 30
0.0
 40
2.5
  1
製品質量
 72
     4
 11
315.5
 21
22.5
 31
0.0
100
AcDbText
  0
TEXT
  5
46
330
1D
100
AcDbEntity
  8
SUNPOU
100
AcDbText
 10
309.9166666666667
 20
26.25
 30
0.0
 40
2.5
  1
業 者 名
 72
     4
 11
315.5
 21
27.5
 31
0.0
100
AcDbText
  0
TEXT
  5
47
330
1D
100
AcDbEntity
  8
SUNPOU
100
AcDbText
 10
309.8333333333333
 20
32.5
 30
0.0
 40
2.5
  1
名　　称
 72
     4
 11
315.5
 21
33.75
 31
0.0
100
AcDbText
  0
LINE
  5
48
330
1D
100
AcDbEntity
  8
SUNPOU
100
AcDbLine
 10
338.0
 20
11.00000000000001
 30
0.0
 11
308.0
 21
11.00000000000001
 31
0.0
  0
LINE
  5
49
330
1D
100
AcDbEntity
  8
SUNPOU
100
AcDbLine
 10
367.5
 20
4.999999999999986
 30
0.0
 11
367.5
 21
14.99999999999999
 31
0.0
  0
LINE
  5
4A
330
1D
100
AcDbEntity
  8
SUNPOU
100
AcDbLine
 10
360.5
 20
4.999999999999986
 30
0.0
 11
360.5
 21
14.99999999999999
 31
0.0
  0
LINE
  5
4B
330
1D
100
AcDbEntity
  8
SUNPOU
100
AcDbLine
 10
342.5
 20
4.999999999999995
 30
0.0
 11
342.5
 21
15.0
 31
0.0
  0
LINE
  5
4C
330
1D
100
AcDbEntity
  8
SUNPOU
100
AcDbLine
 10
338.0
 20
4.999999999999995
 30
0.0
 11
338.0
 21
15.0
 31
0.0
  0
LINE
  5
4D
330
1D
100
AcDbEntity
  8
SUNPOU
100
AcDbLine
 10
323.0
 20
15.00000000000001
 30
0.0
 11
323.0
 21
37.5
 31
0.0
  0
LINE
  5
4E
330
1D
100
AcDbEntity
  8
SUNPOU
100
AcDbLine
 10
360.5
 20
15.00000000000001
 30
0.0
 11
360.5
 21
30.0
 31
0.0
  0
LINE
  5
4F
330
1D
100
AcDbEntity
  8
SUNPOU
100
AcDbLine
 10
345.5
 20
15.00000000000001
 30
0.0
 11
345.5
 21
30.0
 31
0.0
  0
LINE
  5
50
330
1D
100
AcDbEntity
  8
SUNPOU
100
AcDbLine
 10
383.0
 20
30.0
 30
0.0
 11
308.0
 21
30.0
 31
0.0
  0
LINE
  5
51
330
1D
100
AcDbEntity
  8
SUNPOU
100
AcDbLine
 10
383.0
 20
25.0
 30
0.0
 11
308.0
 21
25.0
 31
0.0
  0
LINE
  5
52
330
1D
100
AcDbEntity
  8
SUNPOU
100
AcDbLine
 10
383.0
 20
20.0
 30
0.0
 11
308.0
 21
20.0
 31
0.0
  0
LINE
  5
53
330
1D
100
AcDbEntity
  8
SUNPOU
100
AcDbLine
 10
383.0
 20
14.99999999999999
 30
0.0
 11
308.0
 21
15.00000000000004
 31
0.0
  0
LINE
  5
54
330
1D
100
AcDbEntity
  8
HAIKIN
100
AcDbLine
 10
308.0
 20
37.5
 30
0.0
 11
383.0
 21
37.5
 31
0.0
  0
LINE
  5
55
330
1D
100
AcDbEntity
  8
HAIKIN
100
AcDbLine
 10
308.0
 20
5.000000000000009
 30
0.0
 11
308.0
 21
37.5
 31
0.0
  0
LINE
  5
56
330
1D
100
AcDbEntity
  8
SUNPOU
100
AcDbLine
 10
0.000000000000016
 20
277.0
 30
0.0
 11
0.000000000000016
 21
272.0
 31
0.0
  0
LINE
  5
57
330
1D
100
AcDbEntity
  8
SUNPOU
100
AcDbLine
 10
25.00000000000001
 20
277.0
 30
0.0
 11
0.000000000000016
 21
277.0
 31
0.0
  0
LINE
  5
58
330
1D
100
AcDbEntity
  8
SUNPOU
100
AcDbLine
 10
25.00000000000001
 20
272.0
 30
0.0
 11
25.00000000000001
 21
277.0
 31
0.0
  0
LINE
  5
59
330
1D
100
AcDbEntity
  8
HAIKIN
100
AcDbLine
 10
0.0000000000000004
 20
5.0
 30
0.0
 11
383.0
 21
5.0
 31
0.0
  0
LINE
  5
5A
330
1D
100
AcDbEntity
  8
HAIKIN
100
AcDbLine
 10
0.0000000000000158
 20
272.0
 30
0.0
 11
383.0
 21
272.0
 31
0.0
  0
LINE
  5
5B
330
1D
100
AcDbEntity
  8
HAIKIN
100
AcDbLine
 10
383.0
 20
272.0
 30
0.0
 11
383.0
 21
5.0
 31
0.0
  0
TEXT
  5
5C
330
1D
100
AcDbEntity
  8
SUNPOU
100
AcDbText
 10
3.700000000000017
 20
273.0
 30
0.0
 40
3.0
  1
Ｈ－２－共
 72
     4
 11
12.50000000000002
 21
274.5
 31
0.0
100
AcDbText
  0
LINE
  5
5D
330
1D
100
AcDbEntity
  8
HAIKIN
100
AcDbLine
 10
0.0000000000000004
 20
5.0
 30
0.0
 11
0.0000000000000158
 21
272.0
 31
0.0
  0
ENDBLK
  5
5E
330
1D
100
AcDbEntity
  8
HAIKIN
100
AcDbBlockEnd
  0
BLOCK
  5
3D2
330
3C8
100
AcDbEntity
  8
0
100
AcDbBlockBegin
  2
*D2
 70
     1
 10
0.0
 20
0.0
 30
0.0
  3
*D2
  1

  0
LINE
  5
ABC
330
3C8
100
AcDbEntity
  8
SUNPOU
 62
     0
440
 16777216
370
    -2
100
AcDbLine
 10
1259.640251731919
 20
3028.21106223061
 30
0.0
 11
918.5384600928269
 21
3028.21106223061
 31
0.0
  0
LINE
  5
ABD
330
3C8
100
AcDbEntity
  8
SUNPOU
 62
     0
440
 16777216
370
    -2
100
AcDbLine
 10
1409.640251731919
 20
3528.21106223061
 30
0.0
 11
918.538460092827
 21
3528.21106223061
 31
0.0
  0
LINE
  5
ABE
330
3C8
100
AcDbEntity
  8
SUNPOU
 62
     0
440
 16777216
370
    -2
100
AcDbLine
 10
926.0384600928269
 20
3058.21106223061
 30
0.0
 11
926.038460092827
 21
3498.21106223061
 31
0.0
  0
SOLID
  5
ABF
330
3C8
100
AcDbEntity
  8
SUNPOU
 62
     0
440
 16777216
100
AcDbTrace
 10
921.0384600928269
 20
3058.21106223061
 30
0.0
 11
931.0384600928269
 21
3058.21106223061
 31
0.0
 12
926.0384600928269
 22
3028.21106223061
 32
0.0
 13
926.0384600928269
 23
3028.21106223061
 33
0.0
  0
SOLID
  5
AC0
330
3C8
100
AcDbEntity
  8
SUNPOU
 62
     0
440
 16777216
100
AcDbTrace
 10
921.038460092827
 20
3498.21106223061
 30
0.0
 11
931.038460092827
 21
3498.21106223061
 31
0.0
 12
926.038460092827
 22
3528.21106223061
 32
0.0
 13
926.038460092827
 23
3528.21106223061
 33
0.0
  0
MTEXT
  5
AC1
330
3C8
100
AcDbEntity
  8
SUNPOU
 62
     0
440
 16777216
100
AcDbMText
 10
891.5384600928264
 20
3278.21106223061
 30
0.0
 40
45.0
 41
0.0
 71
     5
 72
     1
  1
\A1;500
 11
6.123031769111886E-17
 21
1.0
 31
0.0
 73
     1
 44
1.0
  0
POINT
  5
AC2
330
3C8
100
AcDbEntity
  8
Defpoints
 62
     0
440
 16777216
100
AcDbPoint
 10
1289.640251731919
 20
3028.21106223061
 30
0.0
  0
POINT
  5
AC3
330
3C8
100
AcDbEntity
  8
Defpoints
 62
     0
440
 16777216
100
AcDbPoint
 10
1439.640251731919
 20
3528.21106223061
 30
0.0
  0
POINT
  5
AC4
330
3C8
100
AcDbEntity
  8
Defpoints
 62
     0
440
 16777216
100
AcDbPoint
 10
926.038460092827
 20
3528.21106223061
 30
0.0
  0
ENDBLK
  5
3D3
330
3C8
100
AcDbEntity
  8
0
100
AcDbBlockEnd
  0
BLOCK
  5
3E0
330
3D5
100
AcDbEntity
  8
0
100
AcDbBlockBegin
  2
*D3
 70
     1
 10
0.0
 20
0.0
 30
0.0
  3
*D3
  1

  0
LINE
  5
B10
330
3D5
100
AcDbEntity
  8
SUNPOU
 62
     0
440
 16777216
370
    -2
100
AcDbLine
 10
1769.640251731919
 20
3028.21106223061
 30
0.0
 11
2037.892853106128
 21
3028.21106223061
 31
0.0
  0
LINE
  5
B11
330
3D5
100
AcDbEntity
  8
SUNPOU
 62
     0
440
 16777216
370
    -2
100
AcDbLine
 10
1769.640251731919
 20
3098.21106223061
 30
0.0
 11
2037.892853106128
 21
3098.21106223061
 31
0.0
  0
LINE
  5
B12
330
3D5
100
AcDbEntity
  8
SUNPOU
 62
     0
440
 16777216
370
    -2
100
AcDbLine
 10
2030.392853106128
 20
2998.21106223061
 30
0.0
 11
2030.392853106128
 21
2968.21106223061
 31
0.0
  0
LINE
  5
B13
330
3D5
100
AcDbEntity
  8
SUNPOU
 62
     0
440
 16777216
370
    -2
100
AcDbLine
 10
2030.392853106128
 20
3128.21106223061
 30
0.0
 11
2030.392853106128
 21
3158.21106223061
 31
0.0
  0
SOLID
  5
B14
330
3D5
100
AcDbEntity
  8
SUNPOU
 62
     0
440
 16777216
100
AcDbTrace
 10
2025.392853106128
 20
2998.21106223061
 30
0.0
 11
2035.392853106128
 21
2998.21106223061
 31
0.0
 12
2030.392853106128
 22
3028.21106223061
 32
0.0
 13
2030.392853106128
 23
3028.21106223061
 33
0.0
  0
SOLID
  5
B15
330
3D5
100
AcDbEntity
  8
SUNPOU
 62
     0
440
 16777216
100
AcDbTrace
 10
2025.392853106128
 20
3128.21106223061
 30
0.0
 11
2035.392853106128
 21
3128.21106223061
 31
0.0
 12
2030.392853106128
 22
3098.21106223061
 32
0.0
 13
2030.392853106128
 23
3098.21106223061
 33
0.0
  0
MTEXT
  5
B16
330
3D5
100
AcDbEntity
  8
SUNPOU
 62
     0
440
 16777216
100
AcDbMText
 10
1995.892853106128
 20
3063.21106223061
 30
0.0
 40
45.0
 41
0.0
 71
     5
 72
     1
  1
\A1;70
 11
6.123031769111886E-17
 21
1.0
 31
0.0
 73
     1
 44
1.0
  0
POINT
  5
B17
330
3D5
100
AcDbEntity
  8
Defpoints
 62
     0
440
 16777216
100
AcDbPoint
 10
1739.640251731919
 20
3028.21106223061
 30
0.0
  0
POINT
  5
B18
330
3D5
100
AcDbEntity
  8
Defpoints
 62
     0
440
 16777216
100
AcDbPoint
 10
1739.640251731919
 20
3098.21106223061
 30
0.0
  0
POINT
  5
B19
330
3D5
100
AcDbEntity
  8
Defpoints
 62
     0
440
 16777216
100
AcDbPoint
 10
2030.392853106128
 20
3098.21106223061
 30
0.0
  0
ENDBLK
  5
3E1
330
3D5
100
AcDbEntity
  8
0
100
AcDbBlockEnd
  0
BLOCK
  5
41C
330
412
100
AcDbEntity
  8
0
100
AcDbBlockBegin
  2
*D4
 70
     1
 10
0.0
 20
0.0
 30
0.0
  3
*D4
  1

  0
LINE
  5
AED
330
412
100
AcDbEntity
  8
SUNPOU
 62
     0
440
 16777216
370
    -2
100
AcDbLine
 10
1289.640251731919
 20
2998.21106223061
 30
0.0
 11
1289.640251731919
 21
2748.804397182546
 31
0.0
  0
LINE
  5
AEE
330
412
100
AcDbEntity
  8
SUNPOU
 62
     0
440
 16777216
370
    -2
100
AcDbLine
 10
1739.640251731919
 20
2998.21106223061
 30
0.0
 11
1739.640251731919
 21
2748.804397182546
 31
0.0
  0
LINE
  5
AEF
330
412
100
AcDbEntity
  8
SUNPOU
 62
     0
440
 16777216
370
    -2
100
AcDbLine
 10
1319.640251731919
 20
2756.304397182546
 30
0.0
 11
1709.640251731919
 21
2756.304397182546
 31
0.0
  0
SOLID
  5
AF0
330
412
100
AcDbEntity
  8
SUNPOU
 62
     0
440
 16777216
100
AcDbTrace
 10
1319.640251731919
 20
2761.304397182546
 30
0.0
 11
1319.640251731919
 21
2751.304397182546
 31
0.0
 12
1289.640251731919
 22
2756.304397182546
 32
0.0
 13
1289.640251731919
 23
2756.304397182546
 33
0.0
  0
SOLID
  5
AF1
330
412
100
AcDbEntity
  8
SUNPOU
 62
     0
440
 16777216
100
AcDbTrace
 10
1709.640251731919
 20
2761.304397182546
 30
0.0
 11
1709.640251731919
 21
2751.304397182546
 31
0.0
 12
1739.640251731919
 22
2756.304397182546
 32
0.0
 13
1739.640251731919
 23
2756.304397182546
 33
0.0
  0
MTEXT
  5
AF2
330
412
100
AcDbEntity
  8
SUNPOU
 62
     0
440
 16777216
100
AcDbMText
 10
1514.640251731919
 20
2790.804397182546
 30
0.0
 40
45.0
 41
0.0
 71
     5
 72
     1
  1
\A1;450
 73
     1
 44
1.0
  0
POINT
  5
AF3
330
412
100
AcDbEntity
  8
Defpoints
 62
     0
440
 16777216
100
AcDbPoint
 10
1289.640251731919
 20
3028.21106223061
 30
0.0
  0
POINT
  5
AF4
330
412
100
AcDbEntity
  8
Defpoints
 62
     0
440
 16777216
100
AcDbPoint
 10
1739.640251731919
 20
3028.21106223061
 30
0.0
  0
POINT
  5
AF5
330
412
100
AcDbEntity
  8
Defpoints
 62
     0
440
 16777216
100
AcDbPoint
 10
1739.640251731919
 20
2756.304397182546
 30
0.0
  0
ENDBLK
  5
41D
330
412
100
AcDbEntity
  8
0
100
AcDbBlockEnd
  0
BLOCK
  5
43B
330
430
100
AcDbEntity
  8
0
100
AcDbBlockBegin
  2
*D5
 70
     1
 10
0.0
 20
0.0
 30
0.0
  3
*D5
  1

  0
LINE
  5
660
330
430
100
AcDbEntity
  8
SUNPOU
 62
     0
440
 16777216
370
    -2
100
AcDbLine
 10
1439.640251731919
 20
3558.21106223061
 30
0.0
 11
1439.640251731919
 21
3754.92653525338
 31
0.0
  0
LINE
  5
661
330
430
100
AcDbEntity
  8
SUNPOU
 62
     0
440
 16777216
370
    -2
100
AcDbLine
 10
1509.640251731919
 20
3558.21106223061
 30
0.0
 11
1509.640251731919
 21
3754.92653525338
 31
0.0
  0
LINE
  5
662
330
430
100
AcDbEntity
  8
SUNPOU
 62
     0
440
 16777216
370
    -2
100
AcDbLine
 10
1409.640251731919
 20
3747.42653525338
 30
0.0
 11
1379.640251731919
 21
3747.42653525338
 31
0.0
  0
LINE
  5
663
330
430
100
AcDbEntity
  8
SUNPOU
 62
     0
440
 16777216
370
    -2
100
AcDbLine
 10
1539.640251731919
 20
3747.42653525338
 30
0.0
 11
1569.640251731919
 21
3747.42653525338
 31
0.0
  0
SOLID
  5
664
330
430
100
AcDbEntity
  8
SUNPOU
 62
     0
440
 16777216
100
AcDbTrace
 10
1409.640251731919
 20
3752.42653525338
 30
0.0
 11
1409.640251731919
 21
3742.42653525338
 31
0.0
 12
1439.640251731919
 22
3747.42653525338
 32
0.0
 13
1439.640251731919
 23
3747.42653525338
 33
0.0
  0
SOLID
  5
665
330
430
100
AcDbEntity
  8
SUNPOU
 62
     0
440
 16777216
100
AcDbTrace
 10
1539.640251731919
 20
3752.42653525338
 30
0.0
 11
1539.640251731919
 21
3742.42653525338
 31
0.0
 12
1509.640251731919
 22
3747.42653525338
 32
0.0
 13
1509.640251731919
 23
3747.42653525338
 33
0.0
  0
MTEXT
  5
666
330
430
100
AcDbEntity
  8
SUNPOU
 62
     0
440
 16777216
100
AcDbMText
 10
1474.640251731919
 20
3781.92653525338
 30
0.0
 40
45.0
 41
0.0
 71
     5
 72
     1
  1
\A1;70
 73
     1
 44
1.0
  0
POINT
  5
667
330
430
100
AcDbEntity
  8
Defpoints
 62
     0
440
 16777216
100
AcDbPoint
 10
1439.640251731919
 20
3528.21106223061
 30
0.0
  0
POINT
  5
668
330
430
100
AcDbEntity
  8
Defpoints
 62
     0
440
 16777216
100
AcDbPoint
 10
1509.640251731919
 20
3528.21106223061
 30
0.0
  0
POINT
  5
669
330
430
100
AcDbEntity
  8
Defpoints
 62
     0
440
 16777216
100
AcDbPoint
 10
1509.640251731919
 20
3747.42653525338
 30
0.0
  0
ENDBLK
  5
43C
330
430
100
AcDbEntity
  8
0
100
AcDbBlockEnd
  0
BLOCK
  5
5D3
330
5C9
100
AcDbEntity
  8
0
100
AcDbBlockBegin
  2
*D6
 70
     1
 10
0.0
 20
0.0
 30
0.0
  3
*D6
  1

  0
LINE
  5
6D6
330
5C9
100
AcDbEntity
  8
SUNPOU
 62
     0
440
 16777216
370
    -2
100
AcDbLine
 10
2849.63490311828
 20
3558.21106223061
 30
0.0
 11
2849.63490311828
 21
3685.89219725765
 31
0.0
  0
LINE
  5
6D7
330
5C9
100
AcDbEntity
  8
SUNPOU
 62
     0
440
 16777216
370
    -2
100
AcDbLine
 10
3099.63490311828
 20
3558.21106223061
 30
0.0
 11
3099.63490311828
 21
3685.89219725765
 31
0.0
  0
LINE
  5
6D8
330
5C9
100
AcDbEntity
  8
SUNPOU
 62
     0
440
 16777216
370
    -2
100
AcDbLine
 10
2879.63490311828
 20
3678.39219725765
 30
0.0
 11
3069.63490311828
 21
3678.39219725765
 31
0.0
  0
SOLID
  5
6D9
330
5C9
100
AcDbEntity
  8
SUNPOU
 62
     0
440
 16777216
100
AcDbTrace
 10
2879.63490311828
 20
3683.39219725765
 30
0.0
 11
2879.63490311828
 21
3673.39219725765
 31
0.0
 12
2849.63490311828
 22
3678.39219725765
 32
0.0
 13
2849.63490311828
 23
3678.39219725765
 33
0.0
  0
SOLID
  5
6DA
330
5C9
100
AcDbEntity
  8
SUNPOU
 62
     0
440
 16777216
100
AcDbTrace
 10
3069.63490311828
 20
3683.39219725765
 30
0.0
 11
3069.63490311828
 21
3673.39219725765
 31
0.0
 12
3099.63490311828
 22
3678.39219725765
 32
0.0
 13
3099.63490311828
 23
3678.39219725765
 33
0.0
  0
MTEXT
  5
6DB
330
5C9
100
AcDbEntity
  8
SUNPOU
 62
     0
440
 16777216
100
AcDbMText
 10
2974.63490311828
 20
3712.89219725765
 30
0.0
 40
45.0
 41
0.0
 71
     5
 72
     1
  1
\A1;250
 73
     1
 44
1.0
  0
POINT
  5
6DC
330
5C9
100
AcDbEntity
  8
Defpoints
 62
     0
440
 16777216
100
AcDbPoint
 10
2849.63490311828
 20
3528.21106223061
 30
0.0
  0
POINT
  5
6DD
330
5C9
100
AcDbEntity
  8
Defpoints
 62
     0
440
 16777216
100
AcDbPoint
 10
3099.63490311828
 20
3528.21106223061
 30
0.0
  0
POINT
  5
6DE
330
5C9
100
AcDbEntity
  8
Defpoints
 62
     0
440
 16777216
100
AcDbPoint
 10
3099.63490311828
 20
3678.39219725765
 30
0.0
  0
ENDBLK
  5
5D4
330
5C9
100
AcDbEntity
  8
0
100
AcDbBlockEnd
  0
BLOCK
  5
5E0
330
5D6
100
AcDbEntity
  8
0
100
AcDbBlockBegin
  2
*D7
 70
     1
 10
0.0
 20
0.0
 30
0.0
  3
*D7
  1

  0
LINE
  5
6DF
330
5D6
100
AcDbEntity
  8
SUNPOU
 62
     0
440
 16777216
370
    -2
100
AcDbLine
 10
3099.63490311828
 20
3558.21106223061
 30
0.0
 11
3099.63490311828
 21
3685.89219725765
 31
0.0
  0
LINE
  5
6E0
330
5D6
100
AcDbEntity
  8
SUNPOU
 62
     0
440
 16777216
370
    -2
100
AcDbLine
 10
3599.63490311828
 20
3558.21106223061
 30
0.0
 11
3599.63490311828
 21
3685.89219725765
 31
0.0
  0
LINE
  5
6E1
330
5D6
100
AcDbEntity
  8
SUNPOU
 62
     0
440
 16777216
370
    -2
100
AcDbLine
 10
3129.63490311828
 20
3678.39219725765
 30
0.0
 11
3569.63490311828
 21
3678.39219725765
 31
0.0
  0
SOLID
  5
6E2
330
5D6
100
AcDbEntity
  8
SUNPOU
 62
     0
440
 16777216
100
AcDbTrace
 10
3129.63490311828
 20
3683.39219725765
 30
0.0
 11
3129.63490311828
 21
3673.39219725765
 31
0.0
 12
3099.63490311828
 22
3678.39219725765
 32
0.0
 13
3099.63490311828
 23
3678.39219725765
 33
0.0
  0
SOLID
  5
6E3
330
5D6
100
AcDbEntity
  8
SUNPOU
 62
     0
440
 16777216
100
AcDbTrace
 10
3569.63490311828
 20
3683.39219725765
 30
0.0
 11
3569.63490311828
 21
3673.39219725765
 31
0.0
 12
3599.63490311828
 22
3678.39219725765
 32
0.0
 13
3599.63490311828
 23
3678.39219725765
 33
0.0
  0
MTEXT
  5
6E4
330
5D6
100
AcDbEntity
  8
SUNPOU
 62
     0
440
 16777216
100
AcDbMText
 10
3349.63490311828
 20
3712.89219725765
 30
0.0
 40
45.0
 41
0.0
 71
     5
 72
     1
  1
\A1;500
 73
     1
 44
1.0
  0
POINT
  5
6E5
330
5D6
100
AcDbEntity
  8
Defpoints
 62
     0
440
 16777216
100
AcDbPoint
 10
3099.63490311828
 20
3528.21106223061
 30
0.0
  0
POINT
  5
6E6
330
5D6
100
AcDbEntity
  8
Defpoints
 62
     0
440
 16777216
100
AcDbPoint
 10
3599.63490311828
 20
3528.21106223061
 30
0.0
  0
POINT
  5
6E7
330
5D6
100
AcDbEntity
  8
Defpoints
 62
     0
440
 16777216
100
AcDbPoint
 10
3599.63490311828
 20
3678.39219725765
 30
0.0
  0
ENDBLK
  5
5E1
330
5D6
100
AcDbEntity
  8
0
100
AcDbBlockEnd
  0
BLOCK
  5
5ED
330
5E3
100
AcDbEntity
  8
0
100
AcDbBlockBegin
  2
*D8
 70
     1
 10
0.0
 20
0.0
 30
0.0
  3
*D8
  1

  0
LINE
  5
6E8
330
5E3
100
AcDbEntity
  8
SUNPOU
 62
     0
440
 16777216
370
    -2
100
AcDbLine
 10
3599.63490311828
 20
3558.21106223061
 30
0.0
 11
3599.63490311828
 21
3685.89219725765
 31
0.0
  0
LINE
  5
6E9
330
5E3
100
AcDbEntity
  8
SUNPOU
 62
     0
440
 16777216
370
    -2
100
AcDbLine
 10
4099.63490311828
 20
3558.21106223061
 30
0.0
 11
4099.63490311828
 21
3685.89219725765
 31
0.0
  0
LINE
  5
6EA
330
5E3
100
AcDbEntity
  8
SUNPOU
 62
     0
440
 16777216
370
    -2
100
AcDbLine
 10
3629.63490311828
 20
3678.39219725765
 30
0.0
 11
4069.63490311828
 21
3678.39219725765
 31
0.0
  0
SOLID
  5
6EB
330
5E3
100
AcDbEntity
  8
SUNPOU
 62
     0
440
 16777216
100
AcDbTrace
 10
3629.63490311828
 20
3683.39219725765
 30
0.0
 11
3629.63490311828
 21
3673.39219725765
 31
0.0
 12
3599.63490311828
 22
3678.39219725765
 32
0.0
 13
3599.63490311828
 23
3678.39219725765
 33
0.0
  0
SOLID
  5
6EC
330
5E3
100
AcDbEntity
  8
SUNPOU
 62
     0
440
 16777216
100
AcDbTrace
 10
4069.63490311828
 20
3683.39219725765
 30
0.0
 11
4069.63490311828
 21
3673.39219725765
 31
0.0
 12
4099.63490311828
 22
3678.39219725765
 32
0.0
 13
4099.63490311828
 23
3678.39219725765
 33
0.0
  0
MTEXT
  5
6ED
330
5E3
100
AcDbEntity
  8
SUNPOU
 62
     0
440
 16777216
100
AcDbMText
 10
3849.63490311828
 20
3712.89219725765
 30
0.0
 40
45.0
 41
0.0
 71
     5
 72
     1
  1
\A1;500
 73
     1
 44
1.0
  0
POINT
  5
6EE
330
5E3
100
AcDbEntity
  8
Defpoints
 62
     0
440
 16777216
100
AcDbPoint
 10
3599.63490311828
 20
3528.21106223061
 30
0.0
  0
POINT
  5
6EF
330
5E3
100
AcDbEntity
  8
Defpoints
 62
     0
440
 16777216
100
AcDbPoint
 10
4099.63490311828
 20
3528.21106223061
 30
0.0
  0
POINT
  5
6F0
330
5E3
100
AcDbEntity
  8
Defpoints
 62
     0
440
 16777216
100
AcDbPoint
 10
4099.63490311828
 20
3678.39219725765
 30
0.0
  0
ENDBLK
  5
5EE
330
5E3
100
AcDbEntity
  8
0
100
AcDbBlockEnd
  0
BLOCK
  5
604
330
5FA
100
AcDbEntity
  8
0
100
AcDbBlockBegin
  2
*D9
 70
     1
 10
0.0
 20
0.0
 30
0.0
  3
*D9
  1

  0
LINE
  5
6F1
330
5FA
100
AcDbEntity
  8
SUNPOU
 62
     0
440
 16777216
370
    -2
100
AcDbLine
 10
4849.63490311828
 20
3558.21106223061
 30
0.0
 11
4849.63490311828
 21
3685.89219725765
 31
0.0
  0
LINE
  5
6F2
330
5FA
100
AcDbEntity
  8
SUNPOU
 62
     0
440
 16777216
370
    -2
100
AcDbLine
 10
4599.63490311828
 20
3558.21106223061
 30
0.0
 11
4599.63490311828
 21
3685.89219725765
 31
0.0
  0
LINE
  5
6F3
330
5FA
100
AcDbEntity
  8
SUNPOU
 62
     0
440
 16777216
370
    -2
100
AcDbLine
 10
4819.63490311828
 20
3678.39219725765
 30
0.0
 11
4629.63490311828
 21
3678.39219725765
 31
0.0
  0
SOLID
  5
6F4
330
5FA
100
AcDbEntity
  8
SUNPOU
 62
     0
440
 16777216
100
AcDbTrace
 10
4819.63490311828
 20
3683.39219725765
 30
0.0
 11
4819.63490311828
 21
3673.39219725765
 31
0.0
 12
4849.63490311828
 22
3678.39219725765
 32
0.0
 13
4849.63490311828
 23
3678.39219725765
 33
0.0
  0
SOLID
  5
6F5
330
5FA
100
AcDbEntity
  8
SUNPOU
 62
     0
440
 16777216
100
AcDbTrace
 10
4629.63490311828
 20
3683.39219725765
 30
0.0
 11
4629.63490311828
 21
3673.39219725765
 31
0.0
 12
4599.63490311828
 22
3678.39219725765
 32
0.0
 13
4599.63490311828
 23
3678.39219725765
 33
0.0
  0
MTEXT
  5
6F6
330
5FA
100
AcDbEntity
  8
SUNPOU
 62
     0
440
 16777216
100
AcDbMText
 10
4724.63490311828
 20
3712.89219725765
 30
0.0
 40
45.0
 41
0.0
 71
     5
 72
     1
  1
\A1;250
 73
     1
 44
1.0
  0
POINT
  5
6F7
330
5FA
100
AcDbEntity
  8
Defpoints
 62
     0
440
 16777216
100
AcDbPoint
 10
4849.63490311828
 20
3528.21106223061
 30
0.0
  0
POINT
  5
6F8
330
5FA
100
AcDbEntity
  8
Defpoints
 62
     0
440
 16777216
100
AcDbPoint
 10
4599.63490311828
 20
3528.21106223061
 30
0.0
  0
POINT
  5
6F9
330
5FA
100
AcDbEntity
  8
Defpoints
 62
     0
440
 16777216
100
AcDbPoint
 10
4599.63490311828
 20
3678.39219725765
 30
0.0
  0
ENDBLK
  5
605
330
5FA
100
AcDbEntity
  8
0
100
AcDbBlockEnd
  0
BLOCK
  5
610
330
606
100
AcDbEntity
  8
0
100
AcDbBlockBegin
  2
*D10
 70
     1
 10
0.0
 20
0.0
 30
0.0
  3
*D10
  1

  0
LINE
  5
6FA
330
606
100
AcDbEntity
  8
SUNPOU
 62
     0
440
 16777216
370
    -2
100
AcDbLine
 10
4599.63490311828
 20
3558.21106223061
 30
0.0
 11
4599.63490311828
 21
3685.89219725765
 31
0.0
  0
LINE
  5
6FB
330
606
100
AcDbEntity
  8
SUNPOU
 62
     0
440
 16777216
370
    -2
100
AcDbLine
 10
4099.63490311828
 20
3558.21106223061
 30
0.0
 11
4099.63490311828
 21
3685.89219725765
 31
0.0
  0
LINE
  5
6FC
330
606
100
AcDbEntity
  8
SUNPOU
 62
     0
440
 16777216
370
    -2
100
AcDbLine
 10
4569.63490311828
 20
3678.39219725765
 30
0.0
 11
4129.63490311828
 21
3678.39219725765
 31
0.0
  0
SOLID
  5
6FD
330
606
100
AcDbEntity
  8
SUNPOU
 62
     0
440
 16777216
100
AcDbTrace
 10
4569.63490311828
 20
3683.39219725765
 30
0.0
 11
4569.63490311828
 21
3673.39219725765
 31
0.0
 12
4599.63490311828
 22
3678.39219725765
 32
0.0
 13
4599.63490311828
 23
3678.39219725765
 33
0.0
  0
SOLID
  5
6FE
330
606
100
AcDbEntity
  8
SUNPOU
 62
     0
440
 16777216
100
AcDbTrace
 10
4129.63490311828
 20
3683.39219725765
 30
0.0
 11
4129.63490311828
 21
3673.39219725765
 31
0.0
 12
4099.63490311828
 22
3678.39219725765
 32
0.0
 13
4099.63490311828
 23
3678.39219725765
 33
0.0
  0
MTEXT
  5
6FF
330
606
100
AcDbEntity
  8
SUNPOU
 62
     0
440
 16777216
100
AcDbMText
 10
4349.63490311828
 20
3712.89219725765
 30
0.0
 40
45.0
 41
0.0
 71
     5
 72
     1
  1
\A1;500
 73
     1
 44
1.0
  0
POINT
  5
700
330
606
100
AcDbEntity
  8
Defpoints
 62
     0
440
 16777216
100
AcDbPoint
 10
4599.63490311828
 20
3528.21106223061
 30
0.0
  0
POINT
  5
701
330
606
100
AcDbEntity
  8
Defpoints
 62
     0
440
 16777216
100
AcDbPoint
 10
4099.63490311828
 20
3528.21106223061
 30
0.0
  0
POINT
  5
702
330
606
100
AcDbEntity
  8
Defpoints
 62
     0
440
 16777216
100
AcDbPoint
 10
4099.63490311828
 20
3678.39219725765
 30
0.0
  0
ENDBLK
  5
611
330
606
100
AcDbEntity
  8
0
100
AcDbBlockEnd
  0
BLOCK
  5
62F
330
625
100
AcDbEntity
  8
0
100
AcDbBlockBegin
  2
*D11
 70
     1
 10
0.0
 20
0.0
 30
0.0
  3
*D11
  1

  0
LINE
  5
703
330
625
100
AcDbEntity
  8
SUNPOU
 62
     0
440
 16777216
370
    -2
100
AcDbLine
 10
2849.63490311828
 20
3558.21106223061
 30
0.0
 11
2849.63490311828
 21
3779.065629558343
 31
0.0
  0
LINE
  5
704
330
625
100
AcDbEntity
  8
SUNPOU
 62
     0
440
 16777216
370
    -2
100
AcDbLine
 10
4849.63490311828
 20
3558.21106223061
 30
0.0
 11
4849.63490311828
 21
3779.065629558343
 31
0.0
  0
LINE
  5
705
330
625
100
AcDbEntity
  8
SUNPOU
 62
     0
440
 16777216
370
    -2
100
AcDbLine
 10
2879.63490311828
 20
3771.565629558343
 30
0.0
 11
4819.63490311828
 21
3771.565629558343
 31
0.0
  0
SOLID
  5
706
330
625
100
AcDbEntity
  8
SUNPOU
 62
     0
440
 16777216
100
AcDbTrace
 10
2879.63490311828
 20
3776.565629558343
 30
0.0
 11
2879.63490311828
 21
3766.565629558343
 31
0.0
 12
2849.63490311828
 22
3771.565629558343
 32
0.0
 13
2849.63490311828
 23
3771.565629558343
 33
0.0
  0
SOLID
  5
707
330
625
100
AcDbEntity
  8
SUNPOU
 62
     0
440
 16777216
100
AcDbTrace
 10
4819.63490311828
 20
3776.565629558343
 30
0.0
 11
4819.63490311828
 21
3766.565629558343
 31
0.0
 12
4849.63490311828
 22
3771.565629558343
 32
0.0
 13
4849.63490311828
 23
3771.565629558343
 33
0.0
  0
MTEXT
  5
708
330
625
100
AcDbEntity
  8
SUNPOU
 62
     0
440
 16777216
100
AcDbMText
 10
3849.63490311828
 20
3806.065629558343
 30
0.0
 40
45.0
 41
0.0
 71
     5
 72
     1
  1
\A1;2000
 73
     1
 44
1.0
  0
POINT
  5
709
330
625
100
AcDbEntity
  8
Defpoints
 62
     0
440
 16777216
100
AcDbPoint
 10
2849.63490311828
 20
3528.21106223061
 30
0.0
  0
POINT
  5
70A
330
625
100
AcDbEntity
  8
Defpoints
 62
     0
440
 16777216
100
AcDbPoint
 10
4849.63490311828
 20
3528.21106223061
 30
0.0
  0
POINT
  5
70B
330
625
100
AcDbEntity
  8
Defpoints
 62
     0
440
 16777216
100
AcDbPoint
 10
4849.63490311828
 20
3771.565629558343
 30
0.0
  0
ENDBLK
  5
630
330
625
100
AcDbEntity
  8
0
100
AcDbBlockEnd
  0
BLOCK
  5
AD0
330
AC6
100
AcDbEntity
  8
0
100
AcDbBlockBegin
  2
*D20
 70
     1
 10
0.0
 20
0.0
 30
0.0
  3
*D20
  1

  0
LINE
  5
AC7
330
AC6
100
AcDbEntity
  8
SUNPOU
 62
     0
440
 16777216
370
    -2
100
AcDbLine
 10
1259.640251731919
 20
3028.21106223061
 30
0.0
 11
1045.863694358814
 21
3028.21106223061
 31
0.0
  0
LINE
  5
AC8
330
AC6
100
AcDbEntity
  8
SUNPOU
 62
     0
440
 16777216
370
    -2
100
AcDbLine
 10
1278.352760651171
 20
3228.21106223061
 30
0.0
 11
1045.863694358814
 21
3228.21106223061
 31
0.0
  0
LINE
  5
AC9
330
AC6
100
AcDbEntity
  8
SUNPOU
 62
     0
440
 16777216
370
    -2
100
AcDbLine
 10
1053.363694358814
 20
3058.21106223061
 30
0.0
 11
1053.363694358814
 21
3198.21106223061
 31
0.0
  0
SOLID
  5
ACA
330
AC6
100
AcDbEntity
  8
SUNPOU
 62
     0
440
 16777216
100
AcDbTrace
 10
1048.363694358814
 20
3058.21106223061
 30
0.0
 11
1058.363694358814
 21
3058.21106223061
 31
0.0
 12
1053.363694358814
 22
3028.21106223061
 32
0.0
 13
1053.363694358814
 23
3028.21106223061
 33
0.0
  0
SOLID
  5
ACB
330
AC6
100
AcDbEntity
  8
SUNPOU
 62
     0
440
 16777216
100
AcDbTrace
 10
1048.363694358814
 20
3198.21106223061
 30
0.0
 11
1058.363694358814
 21
3198.21106223061
 31
0.0
 12
1053.363694358814
 22
3228.21106223061
 32
0.0
 13
1053.363694358814
 23
3228.21106223061
 33
0.0
  0
MTEXT
  5
ACC
330
AC6
100
AcDbEntity
  8
SUNPOU
 62
     0
440
 16777216
100
AcDbMText
 10
1018.863694358813
 20
3128.21106223061
 30
0.0
 40
45.0
 41
0.0
 71
     5
 72
     1
  1
\A1;200
 11
6.123031769111886E-17
 21
1.0
 31
0.0
 73
     1
 44
1.0
  0
POINT
  5
ACD
330
AC6
100
AcDbEntity
  8
Defpoints
 62
     0
440
 16777216
100
AcDbPoint
 10
1289.640251731919
 20
3028.21106223061
 30
0.0
  0
POINT
  5
ACE
330
AC6
100
AcDbEntity
  8
Defpoints
 62
     0
440
 16777216
100
AcDbPoint
 10
1308.352760651171
 20
3228.21106223061
 30
0.0
  0
POINT
  5
ACF
330
AC6
100
AcDbEntity
  8
Defpoints
 62
     0
440
 16777216
100
AcDbPoint
 10
1053.363694358814
 20
3228.21106223061
 30
0.0
  0
ENDBLK
  5
AD1
330
AC6
100
AcDbEntity
  8
0
100
AcDbBlockEnd
  0
BLOCK
  5
B26
330
B1B
100
AcDbEntity
  8
0
100
AcDbBlockBegin
  2
*D23
 70
     1
 10
0.0
 20
0.0
 30
0.0
  3
*D23
  1

  0
LINE
  5
B1C
330
B1B
100
AcDbEntity
  8
SUNPOU
 62
     0
440
 16777216
370
    -2
100
AcDbLine
 10
1769.640251731919
 20
3098.21106223061
 30
0.0
 11
2037.892853106128
 21
3098.21106223061
 31
0.0
  0
LINE
  5
B1D
330
B1B
100
AcDbEntity
  8
SUNPOU
 62
     0
440
 16777216
370
    -2
100
AcDbLine
 10
1431.640251731919
 20
3168.211062230609
 30
0.0
 11
2037.892853106128
 21
3168.211062230609
 31
0.0
  0
LINE
  5
B1E
330
B1B
100
AcDbEntity
  8
SUNPOU
 62
     0
440
 16777216
370
    -2
100
AcDbLine
 10
2030.392853106128
 20
3068.21106223061
 30
0.0
 11
2030.392853106128
 21
3038.21106223061
 31
0.0
  0
LINE
  5
B1F
330
B1B
100
AcDbEntity
  8
SUNPOU
 62
     0
440
 16777216
370
    -2
100
AcDbLine
 10
2030.392853106128
 20
3198.211062230609
 30
0.0
 11
2030.392853106128
 21
3228.211062230609
 31
0.0
  0
SOLID
  5
B20
330
B1B
100
AcDbEntity
  8
SUNPOU
 62
     0
440
 16777216
100
AcDbTrace
 10
2025.392853106128
 20
3068.21106223061
 30
0.0
 11
2035.392853106128
 21
3068.21106223061
 31
0.0
 12
2030.392853106128
 22
3098.21106223061
 32
0.0
 13
2030.392853106128
 23
3098.21106223061
 33
0.0
  0
SOLID
  5
B21
330
B1B
100
AcDbEntity
  8
SUNPOU
 62
     0
440
 16777216
100
AcDbTrace
 10
2025.392853106128
 20
3198.211062230609
 30
0.0
 11
2035.392853106128
 21
3198.211062230609
 31
0.0
 12
2030.392853106128
 22
3168.211062230609
 32
0.0
 13
2030.392853106128
 23
3168.211062230609
 33
0.0
  0
MTEXT
  5
B22
330
B1B
100
AcDbEntity
  8
SUNPOU
 62
     0
440
 16777216
100
AcDbMText
 10
1995.892853106128
 20
3133.21106223061
 30
0.0
 40
45.0
 41
0.0
 71
     5
 72
     1
  1
\A1;70
 11
6.123031769111886E-17
 21
1.0
 31
0.0
 73
     1
 44
1.0
  0
POINT
  5
B23
330
B1B
100
AcDbEntity
  8
Defpoints
 62
     0
440
 16777216
100
AcDbPoint
 10
1739.640251731919
 20
3098.21106223061
 30
0.0
  0
POINT
  5
B24
330
B1B
100
AcDbEntity
  8
Defpoints
 62
     0
440
 16777216
100
AcDbPoint
 10
1401.640251731919
 20
3168.211062230609
 30
0.0
  0
POINT
  5
B25
330
B1B
100
AcDbEntity
  8
Defpoints
 62
     0
440
 16777216
100
AcDbPoint
 10
2030.392853106128
 20
3168.211062230609
 30
0.0
  0
ENDBLK
  5
B27
330
B1B
100
AcDbEntity
  8
0
100
AcDbBlockEnd
  0
BLOCK
  5
B35
330
B2A
100
AcDbEntity
  8
0
100
AcDbBlockBegin
  2
*D24
 70
     1
 10
0.0
 20
0.0
 30
0.0
  3
*D24
  1

  0
LINE
  5
B2B
330
B2A
100
AcDbEntity
  8
SUNPOU
 62
     0
440
 16777216
370
    -2
100
AcDbLine
 10
1401.640251731919
 20
3198.211062230609
 30
0.0
 11
1401.640251731919
 21
3291.11408307782
 31
0.0
  0
LINE
  5
B2C
330
B2A
100
AcDbEntity
  8
SUNPOU
 62
     0
440
 16777216
370
    -2
100
AcDbLine
 10
1471.640251731919
 20
3128.21106223061
 30
0.0
 11
1471.640251731919
 21
3291.11408307782
 31
0.0
  0
LINE
  5
B2D
330
B2A
100
AcDbEntity
  8
SUNPOU
 62
     0
440
 16777216
370
    -2
100
AcDbLine
 10
1371.640251731919
 20
3283.61408307782
 30
0.0
 11
1341.640251731919
 21
3283.61408307782
 31
0.0
  0
LINE
  5
B2E
330
B2A
100
AcDbEntity
  8
SUNPOU
 62
     0
440
 16777216
370
    -2
100
AcDbLine
 10
1501.640251731919
 20
3283.61408307782
 30
0.0
 11
1531.640251731919
 21
3283.61408307782
 31
0.0
  0
SOLID
  5
B2F
330
B2A
100
AcDbEntity
  8
SUNPOU
 62
     0
440
 16777216
100
AcDbTrace
 10
1371.640251731919
 20
3288.61408307782
 30
0.0
 11
1371.640251731919
 21
3278.61408307782
 31
0.0
 12
1401.640251731919
 22
3283.61408307782
 32
0.0
 13
1401.640251731919
 23
3283.61408307782
 33
0.0
  0
SOLID
  5
B30
330
B2A
100
AcDbEntity
  8
SUNPOU
 62
     0
440
 16777216
100
AcDbTrace
 10
1501.640251731919
 20
3288.61408307782
 30
0.0
 11
1501.640251731919
 21
3278.61408307782
 31
0.0
 12
1471.640251731919
 22
3283.61408307782
 32
0.0
 13
1471.640251731919
 23
3283.61408307782
 33
0.0
  0
MTEXT
  5
B31
330
B2A
100
AcDbEntity
  8
SUNPOU
 62
     0
440
 16777216
100
AcDbMText
 10
1436.640251731919
 20
3318.11408307782
 30
0.0
 40
45.0
 41
0.0
 71
     5
 72
     1
  1
\A1;70
 73
     1
 44
1.0
  0
POINT
  5
B32
330
B2A
100
AcDbEntity
  8
Defpoints
 62
     0
440
 16777216
100
AcDbPoint
 10
1401.640251731919
 20
3168.211062230609
 30
0.0
  0
POINT
  5
B33
330
B2A
100
AcDbEntity
  8
Defpoints
 62
     0
440
 16777216
100
AcDbPoint
 10
1471.640251731919
 20
3098.21106223061
 30
0.0
  0
POINT
  5
B34
330
B2A
100
AcDbEntity
  8
Defpoints
 62
     0
440
 16777216
100
AcDbPoint
 10
1471.640251731919
 20
3283.61408307782
 30
0.0
  0
ENDBLK
  5
B36
330
B2A
100
AcDbEntity
  8
0
100
AcDbBlockEnd
  0
BLOCK
  5
B43
330
B38
100
AcDbEntity
  8
0
100
AcDbBlockBegin
  2
*D25
 70
     1
 10
0.0
 20
0.0
 30
0.0
  3
*D25
  1

  0
LINE
  5
B39
330
B38
100
AcDbEntity
  8
SUNPOU
 62
     0
440
 16777216
370
    -2
100
AcDbLine
 10
1401.640251731919
 20
3198.211062230609
 30
0.0
 11
1401.640251731919
 21
3291.11408307782
 31
0.0
  0
LINE
  5
B3A
330
B38
100
AcDbEntity
  8
SUNPOU
 62
     0
440
 16777216
370
    -2
100
AcDbLine
 10
1331.640251731919
 20
3198.211062230609
 30
0.0
 11
1331.640251731919
 21
3291.11408307782
 31
0.0
  0
LINE
  5
B3B
330
B38
100
AcDbEntity
  8
SUNPOU
 62
     0
440
 16777216
370
    -2
100
AcDbLine
 10
1431.640251731919
 20
3283.61408307782
 30
0.0
 11
1461.640251731919
 21
3283.61408307782
 31
0.0
  0
LINE
  5
B3C
330
B38
100
AcDbEntity
  8
SUNPOU
 62
     0
440
 16777216
370
    -2
100
AcDbLine
 10
1301.640251731919
 20
3283.61408307782
 30
0.0
 11
1271.640251731919
 21
3283.61408307782
 31
0.0
  0
SOLID
  5
B3D
330
B38
100
AcDbEntity
  8
SUNPOU
 62
     0
440
 16777216
100
AcDbTrace
 10
1431.640251731919
 20
3288.61408307782
 30
0.0
 11
1431.640251731919
 21
3278.61408307782
 31
0.0
 12
1401.640251731919
 22
3283.61408307782
 32
0.0
 13
1401.640251731919
 23
3283.61408307782
 33
0.0
  0
SOLID
  5
B3E
330
B38
100
AcDbEntity
  8
SUNPOU
 62
     0
440
 16777216
100
AcDbTrace
 10
1301.640251731919
 20
3288.61408307782
 30
0.0
 11
1301.640251731919
 21
3278.61408307782
 31
0.0
 12
1331.640251731919
 22
3283.61408307782
 32
0.0
 13
1331.640251731919
 23
3283.61408307782
 33
0.0
  0
MTEXT
  5
B3F
330
B38
100
AcDbEntity
  8
SUNPOU
 62
     0
440
 16777216
100
AcDbMText
 10
1366.640251731919
 20
3318.11408307782
 30
0.0
 40
45.0
 41
0.0
 71
     5
 72
     1
  1
\A1;70
 73
     1
 44
1.0
  0
POINT
  5
B40
330
B38
100
AcDbEntity
  8
Defpoints
 62
     0
440
 16777216
100
AcDbPoint
 10
1401.640251731919
 20
3168.211062230609
 30
0.0
  0
POINT
  5
B41
330
B38
100
AcDbEntity
  8
Defpoints
 62
     0
440
 16777216
100
AcDbPoint
 10
1331.640251731919
 20
3168.211062230609
 30
0.0
  0
POINT
  5
B42
330
B38
100
AcDbEntity
  8
Defpoints
 62
     0
440
 16777216
100
AcDbPoint
 10
1331.640251731919
 20
3283.61408307782
 30
0.0
  0
ENDBLK
  5
B44
330
B38
100
AcDbEntity
  8
0
100
AcDbBlockEnd
  0
BLOCK
  5
F56
330
F55
100
AcDbEntity
  8
0
100
AcDbBlockBegin
  2
*D56
 70
     1
 10
0.0
 20
0.0
 30
0.0
  3
*D56
  1

  0
LINE
  5
1057
330
F55
100
AcDbEntity
  8
SUNPOU
 62
     0
440
 16777216
370
    -2
100
AcDbLine
 10
1282.040349784716
 20
573.0315951273988
 30
0.0
 11
1015.938558145623
 21
573.0315951273989
 31
0.0
  0
LINE
  5
1058
330
F55
100
AcDbEntity
  8
SUNPOU
 62
     0
440
 16777216
370
    -2
100
AcDbLine
 10
1507.040349784716
 20
1323.031595127399
 30
0.0
 11
1015.938558145623
 21
1323.031595127399
 31
0.0
  0
LINE
  5
1059
330
F55
100
AcDbEntity
  8
SUNPOU
 62
     0
440
 16777216
370
    -2
100
AcDbLine
 10
1023.438558145623
 20
603.0315951273989
 30
0.0
 11
1023.438558145623
 21
1293.031595127399
 31
0.0
  0
SOLID
  5
105A
330
F55
100
AcDbEntity
  8
SUNPOU
 62
     0
440
 16777216
100
AcDbTrace
 10
1018.438558145623
 20
603.0315951273989
 30
0.0
 11
1028.438558145623
 21
603.0315951273989
 31
0.0
 12
1023.438558145623
 22
573.0315951273989
 32
0.0
 13
1023.438558145623
 23
573.0315951273989
 33
0.0
  0
SOLID
  5
105B
330
F55
100
AcDbEntity
  8
SUNPOU
 62
     0
440
 16777216
100
AcDbTrace
 10
1018.438558145623
 20
1293.031595127399
 30
0.0
 11
1028.438558145623
 21
1293.031595127399
 31
0.0
 12
1023.438558145623
 22
1323.031595127399
 32
0.0
 13
1023.438558145623
 23
1323.031595127399
 33
0.0
  0
MTEXT
  5
105C
330
F55
100
AcDbEntity
  8
SUNPOU
 62
     0
440
 16777216
100
AcDbMText
 10
988.938558145623
 20
948.0315951273991
 30
0.0
 40
45.0
 41
0.0
 71
     5
 72
     1
  1
\A1;750
 11
6.123031769111886E-17
 21
1.0
 31
0.0
 73
     1
 44
1.0
  0
POINT
  5
105D
330
F55
100
AcDbEntity
  8
Defpoints
 62
     0
440
 16777216
100
AcDbPoint
 10
1312.040349784716
 20
573.0315951273988
 30
0.0
  0
POINT
  5
105E
330
F55
100
AcDbEntity
  8
Defpoints
 62
     0
440
 16777216
100
AcDbPoint
 10
1537.040349784716
 20
1323.031595127399
 30
0.0
  0
POINT
  5
105F
330
F55
100
AcDbEntity
  8
Defpoints
 62
     0
440
 16777216
100
AcDbPoint
 10
1023.438558145623
 20
1323.031595127399
 30
0.0
  0
ENDBLK
  5
F57
330
F55
100
AcDbEntity
  8
0
100
AcDbBlockEnd
  0
BLOCK
  5
F62
330
F61
100
AcDbEntity
  8
0
100
AcDbBlockBegin
  2
*D57
 70
     1
 10
0.0
 20
0.0
 30
0.0
  3
*D57
  1

  0
LINE
  5
1060
330
F61
100
AcDbEntity
  8
SUNPOU
 62
     0
440
 16777216
370
    -2
100
AcDbLine
 10
1942.040349784716
 20
573.0315951273988
 30
0.0
 11
2210.292951158925
 21
573.0315951273988
 31
0.0
  0
LINE
  5
1061
330
F61
100
AcDbEntity
  8
SUNPOU
 62
     0
440
 16777216
370
    -2
100
AcDbLine
 10
1942.040349784716
 20
643.0315951273988
 30
0.0
 11
2210.292951158925
 21
643.0315951273988
 31
0.0
  0
LINE
  5
1062
330
F61
100
AcDbEntity
  8
SUNPOU
 62
     0
440
 16777216
370
    -2
100
AcDbLine
 10
2202.792951158925
 20
543.0315951273988
 30
0.0
 11
2202.792951158925
 21
513.0315951273988
 31
0.0
  0
LINE
  5
1063
330
F61
100
AcDbEntity
  8
SUNPOU
 62
     0
440
 16777216
370
    -2
100
AcDbLine
 10
2202.792951158925
 20
673.0315951273988
 30
0.0
 11
2202.792951158925
 21
703.0315951273988
 31
0.0
  0
SOLID
  5
1064
330
F61
100
AcDbEntity
  8
SUNPOU
 62
     0
440
 16777216
100
AcDbTrace
 10
2197.792951158925
 20
543.0315951273988
 30
0.0
 11
2207.792951158925
 21
543.0315951273988
 31
0.0
 12
2202.792951158925
 22
573.0315951273988
 32
0.0
 13
2202.792951158925
 23
573.0315951273988
 33
0.0
  0
SOLID
  5
1065
330
F61
100
AcDbEntity
  8
SUNPOU
 62
     0
440
 16777216
100
AcDbTrace
 10
2197.792951158925
 20
673.0315951273988
 30
0.0
 11
2207.792951158925
 21
673.0315951273988
 31
0.0
 12
2202.792951158925
 22
643.0315951273988
 32
0.0
 13
2202.792951158925
 23
643.0315951273988
 33
0.0
  0
MTEXT
  5
1066
330
F61
100
AcDbEntity
  8
SUNPOU
 62
     0
440
 16777216
100
AcDbMText
 10
2168.292951158925
 20
608.0315951273991
 30
0.0
 40
45.0
 41
0.0
 71
     5
 72
     1
  1
\A1;70
 11
6.123031769111886E-17
 21
1.0
 31
0.0
 73
     1
 44
1.0
  0
POINT
  5
1067
330
F61
100
AcDbEntity
  8
Defpoints
 62
     0
440
 16777216
100
AcDbPoint
 10
1912.040349784716
 20
573.0315951273988
 30
0.0
  0
POINT
  5
1068
330
F61
100
AcDbEntity
  8
Defpoints
 62
     0
440
 16777216
100
AcDbPoint
 10
1912.040349784716
 20
643.0315951273988
 30
0.0
  0
POINT
  5
1069
330
F61
100
AcDbEntity
  8
Defpoints
 62
     0
440
 16777216
100
AcDbPoint
 10
2202.792951158925
 20
643.0315951273988
 30
0.0
  0
ENDBLK
  5
F63
330
F61
100
AcDbEntity
  8
0
100
AcDbBlockEnd
  0
BLOCK
  5
F6F
330
F6E
100
AcDbEntity
  8
0
100
AcDbBlockBegin
  2
*D58
 70
     1
 10
0.0
 20
0.0
 30
0.0
  3
*D58
  1

  0
LINE
  5
106A
330
F6E
100
AcDbEntity
  8
SUNPOU
 62
     0
440
 16777216
370
    -2
100
AcDbLine
 10
1942.040349784716
 20
643.0315951273988
 30
0.0
 11
2210.292951158925
 21
643.0315951273988
 31
0.0
  0
LINE
  5
106B
330
F6E
100
AcDbEntity
  8
SUNPOU
 62
     0
440
 16777216
370
    -2
100
AcDbLine
 10
1602.040349784716
 20
673.0315951273988
 30
0.0
 11
2210.292951158925
 21
673.0315951273986
 31
0.0
  0
LINE
  5
106C
330
F6E
100
AcDbEntity
  8
SUNPOU
 62
     0
440
 16777216
370
    -2
100
AcDbLine
 10
2202.792951158925
 20
613.0315951273988
 30
0.0
 11
2202.792951158925
 21
583.0315951273988
 31
0.0
  0
LINE
  5
106D
330
F6E
100
AcDbEntity
  8
SUNPOU
 62
     0
440
 16777216
370
    -2
100
AcDbLine
 10
2202.792951158925
 20
703.0315951273986
 30
0.0
 11
2202.792951158925
 21
733.0315951273986
 31
0.0
  0
MTEXT
  5
106E
330
F6E
100
AcDbEntity
  8
SUNPOU
 62
     0
440
 16777216
100
AcDbMText
 10
2110.49620446056
 20
658.0662461712454
 30
0.0
 40
45.0
 41
0.0
 71
     5
 72
     1
  1
\A1;30
 11
6.123031769111886E-17
 21
1.0
 31
0.0
 73
     1
 44
1.0
  0
SOLID
  5
106F
330
F6E
100
AcDbEntity
  8
SUNPOU
 62
     0
440
 16777216
100
AcDbTrace
 10
2197.792951158925
 20
613.0315951273988
 30
0.0
 11
2207.792951158925
 21
613.0315951273988
 31
0.0
 12
2202.792951158925
 22
643.0315951273988
 32
0.0
 13
2202.792951158925
 23
643.0315951273988
 33
0.0
  0
SOLID
  5
1070
330
F6E
100
AcDbEntity
  8
SUNPOU
 62
     0
440
 16777216
100
AcDbTrace
 10
2197.792951158925
 20
703.0315951273986
 30
0.0
 11
2207.792951158925
 21
703.0315951273986
 31
0.0
 12
2202.792951158925
 22
673.0315951273986
 32
0.0
 13
2202.792951158925
 23
673.0315951273986
 33
0.0
  0
POINT
  5
1071
330
F6E
100
AcDbEntity
  8
Defpoints
 62
     0
440
 16777216
100
AcDbPoint
 10
1912.040349784716
 20
643.0315951273988
 30
0.0
  0
POINT
  5
1072
330
F6E
100
AcDbEntity
  8
Defpoints
 62
     0
440
 16777216
100
AcDbPoint
 10
1572.040349784716
 20
673.0315951273988
 30
0.0
  0
POINT
  5
1073
330
F6E
100
AcDbEntity
  8
Defpoints
 62
     0
440
 16777216
100
AcDbPoint
 10
2202.792951158925
 20
673.0315951273986
 30
0.0
  0
ENDBLK
  5
F70
330
F6E
100
AcDbEntity
  8
0
100
AcDbBlockEnd
  0
BLOCK
  5
F7C
330
F7B
100
AcDbEntity
  8
0
100
AcDbBlockBegin
  2
*D59
 70
     1
 10
0.0
 20
0.0
 30
0.0
  3
*D59
  1

  0
LINE
  5
1074
330
F7B
100
AcDbEntity
  8
SUNPOU
 62
     0
440
 16777216
370
    -2
100
AcDbLine
 10
1602.040349784716
 20
673.0315951273988
 30
0.0
 11
2210.292951158925
 21
673.0315951273986
 31
0.0
  0
LINE
  5
1075
330
F7B
100
AcDbEntity
  8
SUNPOU
 62
     0
440
 16777216
370
    -2
100
AcDbLine
 10
1502.040349784716
 20
773.0315951273988
 30
0.0
 11
2210.292951158925
 21
773.0315951273986
 31
0.0
  0
LINE
  5
1076
330
F7B
100
AcDbEntity
  8
SUNPOU
 62
     0
440
 16777216
370
    -2
100
AcDbLine
 10
2202.792951158925
 20
703.0315951273986
 30
0.0
 11
2202.792951158925
 21
743.0315951273986
 31
0.0
  0
SOLID
  5
1077
330
F7B
100
AcDbEntity
  8
SUNPOU
 62
     0
440
 16777216
100
AcDbTrace
 10
2197.792951158925
 20
703.0315951273986
 30
0.0
 11
2207.792951158925
 21
703.0315951273986
 31
0.0
 12
2202.792951158925
 22
673.0315951273986
 32
0.0
 13
2202.792951158925
 23
673.0315951273986
 33
0.0
  0
SOLID
  5
1078
330
F7B
100
AcDbEntity
  8
SUNPOU
 62
     0
440
 16777216
100
AcDbTrace
 10
2197.792951158925
 20
743.0315951273986
 30
0.0
 11
2207.792951158925
 21
743.0315951273986
 31
0.0
 12
2202.792951158925
 22
773.0315951273986
 32
0.0
 13
2202.792951158925
 23
773.0315951273986
 33
0.0
  0
MTEXT
  5
1079
330
F7B
100
AcDbEntity
  8
SUNPOU
 62
     0
440
 16777216
100
AcDbMText
 10
2168.292951158925
 20
723.031595127399
 30
0.0
 40
45.0
 41
0.0
 71
     5
 72
     1
  1
\A1;100
 11
6.123031769111886E-17
 21
1.0
 31
0.0
 73
     1
 44
1.0
  0
POINT
  5
107A
330
F7B
100
AcDbEntity
  8
Defpoints
 62
     0
440
 16777216
100
AcDbPoint
 10
1572.040349784716
 20
673.0315951273988
 30
0.0
  0
POINT
  5
107B
330
F7B
100
AcDbEntity
  8
Defpoints
 62
     0
440
 16777216
100
AcDbPoint
 10
1472.040349784716
 20
773.0315951273988
 30
0.0
  0
POINT
  5
107C
330
F7B
100
AcDbEntity
  8
Defpoints
 62
     0
440
 16777216
100
AcDbPoint
 10
2202.792951158925
 20
773.0315951273986
 30
0.0
  0
ENDBLK
  5
F7D
330
F7B
100
AcDbEntity
  8
0
100
AcDbBlockEnd
  0
BLOCK
  5
F88
330
F87
100
AcDbEntity
  8
0
100
AcDbBlockBegin
  2
*D60
 70
     1
 10
0.0
 20
0.0
 30
0.0
  3
*D60
  1

  0
LINE
  5
107D
330
F87
100
AcDbEntity
  8
SUNPOU
 62
     0
440
 16777216
370
    -2
100
AcDbLine
 10
1312.040349784716
 20
543.0315951273988
 30
0.0
 11
1312.040349784716
 21
293.6249300793352
 31
0.0
  0
LINE
  5
107E
330
F87
100
AcDbEntity
  8
SUNPOU
 62
     0
440
 16777216
370
    -2
100
AcDbLine
 10
1912.040349784716
 20
543.0315951273988
 30
0.0
 11
1912.040349784716
 21
293.6249300793352
 31
0.0
  0
LINE
  5
107F
330
F87
100
AcDbEntity
  8
SUNPOU
 62
     0
440
 16777216
370
    -2
100
AcDbLine
 10
1342.040349784716
 20
301.1249300793352
 30
0.0
 11
1882.040349784716
 21
301.1249300793352
 31
0.0
  0
SOLID
  5
1080
330
F87
100
AcDbEntity
  8
SUNPOU
 62
     0
440
 16777216
100
AcDbTrace
 10
1342.040349784716
 20
306.1249300793352
 30
0.0
 11
1342.040349784716
 21
296.1249300793352
 31
0.0
 12
1312.040349784716
 22
301.1249300793352
 32
0.0
 13
1312.040349784716
 23
301.1249300793352
 33
0.0
  0
SOLID
  5
1081
330
F87
100
AcDbEntity
  8
SUNPOU
 62
     0
440
 16777216
100
AcDbTrace
 10
1882.040349784716
 20
306.1249300793352
 30
0.0
 11
1882.040349784716
 21
296.1249300793352
 31
0.0
 12
1912.040349784716
 22
301.1249300793352
 32
0.0
 13
1912.040349784716
 23
301.1249300793352
 33
0.0
  0
MTEXT
  5
1082
330
F87
100
AcDbEntity
  8
SUNPOU
 62
     0
440
 16777216
100
AcDbMText
 10
1612.040349784716
 20
335.6249300793352
 30
0.0
 40
45.0
 41
0.0
 71
     5
 72
     1
  1
\A1;600
 73
     1
 44
1.0
  0
POINT
  5
1083
330
F87
100
AcDbEntity
  8
Defpoints
 62
     0
440
 16777216
100
AcDbPoint
 10
1312.040349784716
 20
573.0315951273988
 30
0.0
  0
POINT
  5
1084
330
F87
100
AcDbEntity
  8
Defpoints
 62
     0
440
 16777216
100
AcDbPoint
 10
1912.040349784716
 20
573.0315951273988
 30
0.0
  0
POINT
  5
1085
330
F87
100
AcDbEntity
  8
Defpoints
 62
     0
440
 16777216
100
AcDbPoint
 10
1912.040349784716
 20
301.1249300793352
 30
0.0
  0
ENDBLK
  5
F89
330
F87
100
AcDbEntity
  8
0
100
AcDbBlockEnd
  0
BLOCK
  5
F94
330
F93
100
AcDbEntity
  8
0
100
AcDbBlockBegin
  2
*D61
 70
     1
 10
0.0
 20
0.0
 30
0.0
  3
*D61
  1

  0
LINE
  5
1086
330
F93
100
AcDbEntity
  8
SUNPOU
 62
     0
440
 16777216
370
    -2
100
AcDbLine
 10
1537.040349784716
 20
1353.031595127399
 30
0.0
 11
1537.040349784716
 21
1549.747068150169
 31
0.0
  0
LINE
  5
1087
330
F93
100
AcDbEntity
  8
SUNPOU
 62
     0
440
 16777216
370
    -2
100
AcDbLine
 10
1607.040349784716
 20
1353.031595127399
 30
0.0
 11
1607.040349784716
 21
1549.747068150169
 31
0.0
  0
LINE
  5
1088
330
F93
100
AcDbEntity
  8
SUNPOU
 62
     0
440
 16777216
370
    -2
100
AcDbLine
 10
1507.040349784716
 20
1542.247068150169
 30
0.0
 11
1477.040349784716
 21
1542.247068150169
 31
0.0
  0
LINE
  5
1089
330
F93
100
AcDbEntity
  8
SUNPOU
 62
     0
440
 16777216
370
    -2
100
AcDbLine
 10
1637.040349784716
 20
1542.247068150169
 30
0.0
 11
1667.040349784716
 21
1542.247068150169
 31
0.0
  0
SOLID
  5
108A
330
F93
100
AcDbEntity
  8
SUNPOU
 62
     0
440
 16777216
100
AcDbTrace
 10
1507.040349784716
 20
1547.247068150169
 30
0.0
 11
1507.040349784716
 21
1537.247068150169
 31
0.0
 12
1537.040349784716
 22
1542.247068150169
 32
0.0
 13
1537.040349784716
 23
1542.247068150169
 33
0.0
  0
SOLID
  5
108B
330
F93
100
AcDbEntity
  8
SUNPOU
 62
     0
440
 16777216
100
AcDbTrace
 10
1637.040349784716
 20
1547.247068150169
 30
0.0
 11
1637.040349784716
 21
1537.247068150169
 31
0.0
 12
1607.040349784716
 22
1542.247068150169
 32
0.0
 13
1607.040349784716
 23
1542.247068150169
 33
0.0
  0
MTEXT
  5
108C
330
F93
100
AcDbEntity
  8
SUNPOU
 62
     0
440
 16777216
100
AcDbMText
 10
1572.040349784716
 20
1576.747068150169
 30
0.0
 40
45.0
 41
0.0
 71
     5
 72
     1
  1
\A1;70
 73
     1
 44
1.0
  0
POINT
  5
108D
330
F93
100
AcDbEntity
  8
Defpoints
 62
     0
440
 16777216
100
AcDbPoint
 10
1537.040349784716
 20
1323.031595127399
 30
0.0
  0
POINT
  5
108E
330
F93
100
AcDbEntity
  8
Defpoints
 62
     0
440
 16777216
100
AcDbPoint
 10
1607.040349784716
 20
1323.031595127399
 30
0.0
  0
POINT
  5
108F
330
F93
100
AcDbEntity
  8
Defpoints
 62
     0
440
 16777216
100
AcDbPoint
 10
1607.040349784716
 20
1542.247068150169
 30
0.0
  0
ENDBLK
  5
F95
330
F93
100
AcDbEntity
  8
0
100
AcDbBlockEnd
  0
BLOCK
  5
FA1
330
FA0
100
AcDbEntity
  8
0
100
AcDbBlockBegin
  2
*D62
 70
     1
 10
0.0
 20
0.0
 30
0.0
  3
*D62
  1

  0
LINE
  5
1090
330
FA0
100
AcDbEntity
  8
SUNPOU
 62
     0
440
 16777216
370
    -2
100
AcDbLine
 10
1282.040349784716
 20
573.0315951273988
 30
0.0
 11
1143.26379241161
 21
573.0315951273989
 31
0.0
  0
LINE
  5
1091
330
FA0
100
AcDbEntity
  8
SUNPOU
 62
     0
440
 16777216
370
    -2
100
AcDbLine
 10
1330.752858703967
 20
873.0315951273988
 30
0.0
 11
1143.26379241161
 21
873.0315951273989
 31
0.0
  0
LINE
  5
1092
330
FA0
100
AcDbEntity
  8
SUNPOU
 62
     0
440
 16777216
370
    -2
100
AcDbLine
 10
1150.76379241161
 20
603.0315951273989
 30
0.0
 11
1150.76379241161
 21
843.0315951273989
 31
0.0
  0
SOLID
  5
1093
330
FA0
100
AcDbEntity
  8
SUNPOU
 62
     0
440
 16777216
100
AcDbTrace
 10
1145.76379241161
 20
603.0315951273989
 30
0.0
 11
1155.76379241161
 21
603.0315951273989
 31
0.0
 12
1150.76379241161
 22
573.0315951273989
 32
0.0
 13
1150.76379241161
 23
573.0315951273989
 33
0.0
  0
SOLID
  5
1094
330
FA0
100
AcDbEntity
  8
SUNPOU
 62
     0
440
 16777216
100
AcDbTrace
 10
1145.76379241161
 20
843.0315951273989
 30
0.0
 11
1155.76379241161
 21
843.0315951273989
 31
0.0
 12
1150.76379241161
 22
873.0315951273989
 32
0.0
 13
1150.76379241161
 23
873.0315951273989
 33
0.0
  0
MTEXT
  5
1095
330
FA0
100
AcDbEntity
  8
SUNPOU
 62
     0
440
 16777216
100
AcDbMText
 10
1116.26379241161
 20
723.031595127399
 30
0.0
 40
45.0
 41
0.0
 71
     5
 72
     1
  1
\A1;300
 11
6.123031769111886E-17
 21
1.0
 31
0.0
 73
     1
 44
1.0
  0
POINT
  5
1096
330
FA0
100
AcDbEntity
  8
Defpoints
 62
     0
440
 16777216
100
AcDbPoint
 10
1312.040349784716
 20
573.0315951273988
 30
0.0
  0
POINT
  5
1097
330
FA0
100
AcDbEntity
  8
Defpoints
 62
     0
440
 16777216
100
AcDbPoint
 10
1360.752858703967
 20
873.0315951273988
 30
0.0
  0
POINT
  5
1098
330
FA0
100
AcDbEntity
  8
Defpoints
 62
     0
440
 16777216
100
AcDbPoint
 10
1150.76379241161
 20
873.0315951273989
 30
0.0
  0
ENDBLK
  5
FA2
330
FA0
100
AcDbEntity
  8
0
100
AcDbBlockEnd
  0
BLOCK
  5
FAD
330
FAC
100
AcDbEntity
  8
0
100
AcDbBlockBegin
  2
*D63
 70
     1
 10
0.0
 20
0.0
 30
0.0
  3
*D63
  1

  0
LINE
  5
1099
330
FAC
100
AcDbEntity
  8
SUNPOU
 62
     0
440
 16777216
370
    -2
100
AcDbLine
 10
1572.040349784716
 20
703.0315951273988
 30
0.0
 11
1572.040349784716
 21
965.5296543149307
 31
0.0
  0
LINE
  5
109A
330
FAC
100
AcDbEntity
  8
SUNPOU
 62
     0
440
 16777216
370
    -2
100
AcDbLine
 10
1472.040349784716
 20
803.0315951273988
 30
0.0
 11
1472.040349784716
 21
965.5296543149307
 31
0.0
  0
LINE
  5
109B
330
FAC
100
AcDbEntity
  8
SUNPOU
 62
     0
440
 16777216
370
    -2
100
AcDbLine
 10
1542.040349784716
 20
958.0296543149307
 30
0.0
 11
1502.040349784716
 21
958.0296543149307
 31
0.0
  0
SOLID
  5
109C
330
FAC
100
AcDbEntity
  8
SUNPOU
 62
     0
440
 16777216
100
AcDbTrace
 10
1542.040349784716
 20
963.0296543149307
 30
0.0
 11
1542.040349784716
 21
953.0296543149307
 31
0.0
 12
1572.040349784716
 22
958.0296543149307
 32
0.0
 13
1572.040349784716
 23
958.0296543149307
 33
0.0
  0
SOLID
  5
109D
330
FAC
100
AcDbEntity
  8
SUNPOU
 62
     0
440
 16777216
100
AcDbTrace
 10
1502.040349784716
 20
963.0296543149307
 30
0.0
 11
1502.040349784716
 21
953.0296543149307
 31
0.0
 12
1472.040349784716
 22
958.0296543149307
 32
0.0
 13
1472.040349784716
 23
958.0296543149307
 33
0.0
  0
MTEXT
  5
109E
330
FAC
100
AcDbEntity
  8
SUNPOU
 62
     0
440
 16777216
100
AcDbMText
 10
1522.040349784716
 20
992.5296543149307
 30
0.0
 40
45.0
 41
0.0
 71
     5
 72
     1
  1
\A1;100
 73
     1
 44
1.0
  0
POINT
  5
109F
330
FAC
100
AcDbEntity
  8
Defpoints
 62
     0
440
 16777216
100
AcDbPoint
 10
1572.040349784716
 20
673.0315951273988
 30
0.0
  0
POINT
  5
10A0
330
FAC
100
AcDbEntity
  8
Defpoints
 62
     0
440
 16777216
100
AcDbPoint
 10
1472.040349784716
 20
773.0315951273988
 30
0.0
  0
POINT
  5
10A1
330
FAC
100
AcDbEntity
  8
Defpoints
 62
     0
440
 16777216
100
AcDbPoint
 10
1472.040349784716
 20
958.0296543149307
 30
0.0
  0
ENDBLK
  5
FAE
330
FAC
100
AcDbEntity
  8
0
100
AcDbBlockEnd
  0
BLOCK
  5
FB9
330
FB8
100
AcDbEntity
  8
0
100
AcDbBlockBegin
  2
*D64
 70
     1
 10
0.0
 20
0.0
 30
0.0
  3
*D64
  1

  0
LINE
  5
10A2
330
FB8
100
AcDbEntity
  8
SUNPOU
 62
     0
440
 16777216
370
    -2
100
AcDbLine
 10
1472.040349784716
 20
803.0315951273988
 30
0.0
 11
1472.040349784716
 21
965.5296543149307
 31
0.0
  0
LINE
  5
10A3
330
FB8
100
AcDbEntity
  8
SUNPOU
 62
     0
440
 16777216
370
    -2
100
AcDbLine
 10
1372.040349784716
 20
803.0315951273988
 30
0.0
 11
1372.040349784716
 21
965.5296543149307
 31
0.0
  0
LINE
  5
10A4
330
FB8
100
AcDbEntity
  8
SUNPOU
 62
     0
440
 16777216
370
    -2
100
AcDbLine
 10
1442.040349784716
 20
958.0296543149307
 30
0.0
 11
1402.040349784716
 21
958.0296543149307
 31
0.0
  0
SOLID
  5
10A5
330
FB8
100
AcDbEntity
  8
SUNPOU
 62
     0
440
 16777216
100
AcDbTrace
 10
1442.040349784716
 20
963.0296543149307
 30
0.0
 11
1442.040349784716
 21
953.0296543149307
 31
0.0
 12
1472.040349784716
 22
958.0296543149307
 32
0.0
 13
1472.040349784716
 23
958.0296543149307
 33
0.0
  0
SOLID
  5
10A6
330
FB8
100
AcDbEntity
  8
SUNPOU
 62
     0
440
 16777216
100
AcDbTrace
 10
1402.040349784716
 20
963.0296543149307
 30
0.0
 11
1402.040349784716
 21
953.0296543149307
 31
0.0
 12
1372.040349784716
 22
958.0296543149307
 32
0.0
 13
1372.040349784716
 23
958.0296543149307
 33
0.0
  0
MTEXT
  5
10A7
330
FB8
100
AcDbEntity
  8
SUNPOU
 62
     0
440
 16777216
100
AcDbMText
 10
1422.040349784716
 20
992.5296543149307
 30
0.0
 40
45.0
 41
0.0
 71
     5
 72
     1
  1
\A1;100
 73
     1
 44
1.0
  0
POINT
  5
10A8
330
FB8
100
AcDbEntity
  8
Defpoints
 62
     0
440
 16777216
100
AcDbPoint
 10
1472.040349784716
 20
773.0315951273988
 30
0.0
  0
POINT
  5
10A9
330
FB8
100
AcDbEntity
  8
Defpoints
 62
     0
440
 16777216
100
AcDbPoint
 10
1372.040349784716
 20
773.0315951273988
 30
0.0
  0
POINT
  5
10AA
330
FB8
100
AcDbEntity
  8
Defpoints
 62
     0
440
 16777216
100
AcDbPoint
 10
1372.040349784716
 20
958.0296543149307
 30
0.0
  0
ENDBLK
  5
FBA
330
FB8
100
AcDbEntity
  8
0
100
AcDbBlockEnd
  0
BLOCK
  5
FE9
330
FE8
100
AcDbEntity
  8
0
100
AcDbBlockBegin
  2
*D68
 70
     1
 10
0.0
 20
0.0
 30
0.0
  3
*D68
  1

  0
LINE
  5
10C6
330
FE8
100
AcDbEntity
  8
SUNPOU
 62
     0
440
 16777216
370
    -2
100
AcDbLine
 10
2947.035001171076
 20
1353.031595127399
 30
0.0
 11
2947.035001171076
 21
1480.712730154439
 31
0.0
  0
LINE
  5
10C7
330
FE8
100
AcDbEntity
  8
SUNPOU
 62
     0
440
 16777216
370
    -2
100
AcDbLine
 10
3197.035001171076
 20
1353.031595127399
 30
0.0
 11
3197.035001171076
 21
1480.712730154439
 31
0.0
  0
LINE
  5
10C8
330
FE8
100
AcDbEntity
  8
SUNPOU
 62
     0
440
 16777216
370
    -2
100
AcDbLine
 10
2977.035001171076
 20
1473.212730154439
 30
0.0
 11
3167.035001171076
 21
1473.212730154439
 31
0.0
  0
SOLID
  5
10C9
330
FE8
100
AcDbEntity
  8
SUNPOU
 62
     0
440
 16777216
100
AcDbTrace
 10
2977.035001171076
 20
1478.212730154439
 30
0.0
 11
2977.035001171076
 21
1468.212730154439
 31
0.0
 12
2947.035001171076
 22
1473.212730154439
 32
0.0
 13
2947.035001171076
 23
1473.212730154439
 33
0.0
  0
SOLID
  5
10CA
330
FE8
100
AcDbEntity
  8
SUNPOU
 62
     0
440
 16777216
100
AcDbTrace
 10
3167.035001171076
 20
1478.212730154439
 30
0.0
 11
3167.035001171076
 21
1468.212730154439
 31
0.0
 12
3197.035001171076
 22
1473.212730154439
 32
0.0
 13
3197.035001171076
 23
1473.212730154439
 33
0.0
  0
MTEXT
  5
10CB
330
FE8
100
AcDbEntity
  8
SUNPOU
 62
     0
440
 16777216
100
AcDbMText
 10
3072.035001171076
 20
1507.712730154439
 30
0.0
 40
45.0
 41
0.0
 71
     5
 72
     1
  1
\A1;250
 73
     1
 44
1.0
  0
POINT
  5
10CC
330
FE8
100
AcDbEntity
  8
Defpoints
 62
     0
440
 16777216
100
AcDbPoint
 10
2947.035001171076
 20
1323.031595127399
 30
0.0
  0
POINT
  5
10CD
330
FE8
100
AcDbEntity
  8
Defpoints
 62
     0
440
 16777216
100
AcDbPoint
 10
3197.035001171076
 20
1323.031595127399
 30
0.0
  0
POINT
  5
10CE
330
FE8
100
AcDbEntity
  8
Defpoints
 62
     0
440
 16777216
100
AcDbPoint
 10
3197.035001171076
 20
1473.212730154439
 30
0.0
  0
ENDBLK
  5
FEA
330
FE8
100
AcDbEntity
  8
0
100
AcDbBlockEnd
  0
BLOCK
  5
FF5
330
FF4
100
AcDbEntity
  8
0
100
AcDbBlockBegin
  2
*D69
 70
     1
 10
0.0
 20
0.0
 30
0.0
  3
*D69
  1

  0
LINE
  5
10CF
330
FF4
100
AcDbEntity
  8
SUNPOU
 62
     0
440
 16777216
370
    -2
100
AcDbLine
 10
3197.035001171076
 20
1353.031595127399
 30
0.0
 11
3197.035001171076
 21
1480.712730154439
 31
0.0
  0
LINE
  5
10D0
330
FF4
100
AcDbEntity
  8
SUNPOU
 62
     0
440
 16777216
370
    -2
100
AcDbLine
 10
3697.035001171076
 20
1353.031595127399
 30
0.0
 11
3697.035001171076
 21
1480.712730154439
 31
0.0
  0
LINE
  5
10D1
330
FF4
100
AcDbEntity
  8
SUNPOU
 62
     0
440
 16777216
370
    -2
100
AcDbLine
 10
3227.035001171076
 20
1473.212730154439
 30
0.0
 11
3667.035001171076
 21
1473.212730154439
 31
0.0
  0
SOLID
  5
10D2
330
FF4
100
AcDbEntity
  8
SUNPOU
 62
     0
440
 16777216
100
AcDbTrace
 10
3227.035001171076
 20
1478.212730154439
 30
0.0
 11
3227.035001171076
 21
1468.212730154439
 31
0.0
 12
3197.035001171076
 22
1473.212730154439
 32
0.0
 13
3197.035001171076
 23
1473.212730154439
 33
0.0
  0
SOLID
  5
10D3
330
FF4
100
AcDbEntity
  8
SUNPOU
 62
     0
440
 16777216
100
AcDbTrace
 10
3667.035001171076
 20
1478.212730154439
 30
0.0
 11
3667.035001171076
 21
1468.212730154439
 31
0.0
 12
3697.035001171076
 22
1473.212730154439
 32
0.0
 13
3697.035001171076
 23
1473.212730154439
 33
0.0
  0
MTEXT
  5
10D4
330
FF4
100
AcDbEntity
  8
SUNPOU
 62
     0
440
 16777216
100
AcDbMText
 10
3447.035001171076
 20
1507.712730154439
 30
0.0
 40
45.0
 41
0.0
 71
     5
 72
     1
  1
\A1;500
 73
     1
 44
1.0
  0
POINT
  5
10D5
330
FF4
100
AcDbEntity
  8
Defpoints
 62
     0
440
 16777216
100
AcDbPoint
 10
3197.035001171076
 20
1323.031595127399
 30
0.0
  0
POINT
  5
10D6
330
FF4
100
AcDbEntity
  8
Defpoints
 62
     0
440
 16777216
100
AcDbPoint
 10
3697.035001171076
 20
1323.031595127399
 30
0.0
  0
POINT
  5
10D7
330
FF4
100
AcDbEntity
  8
Defpoints
 62
     0
440
 16777216
100
AcDbPoint
 10
3697.035001171076
 20
1473.212730154439
 30
0.0
  0
ENDBLK
  5
FF6
330
FF4
100
AcDbEntity
  8
0
100
AcDbBlockEnd
  0
BLOCK
  5
1001
330
1000
100
AcDbEntity
  8
0
100
AcDbBlockBegin
  2
*D70
 70
     1
 10
0.0
 20
0.0
 30
0.0
  3
*D70
  1

  0
LINE
  5
10D8
330
1000
100
AcDbEntity
  8
SUNPOU
 62
     0
440
 16777216
370
    -2
100
AcDbLine
 10
3697.035001171076
 20
1353.031595127399
 30
0.0
 11
3697.035001171076
 21
1480.712730154439
 31
0.0
  0
LINE
  5
10D9
330
1000
100
AcDbEntity
  8
SUNPOU
 62
     0
440
 16777216
370
    -2
100
AcDbLine
 10
4197.035001171076
 20
1353.031595127399
 30
0.0
 11
4197.035001171076
 21
1480.712730154439
 31
0.0
  0
LINE
  5
10DA
330
1000
100
AcDbEntity
  8
SUNPOU
 62
     0
440
 16777216
370
    -2
100
AcDbLine
 10
3727.035001171076
 20
1473.212730154439
 30
0.0
 11
4167.035001171076
 21
1473.212730154439
 31
0.0
  0
SOLID
  5
10DB
330
1000
100
AcDbEntity
  8
SUNPOU
 62
     0
440
 16777216
100
AcDbTrace
 10
3727.035001171076
 20
1478.212730154439
 30
0.0
 11
3727.035001171076
 21
1468.212730154439
 31
0.0
 12
3697.035001171076
 22
1473.212730154439
 32
0.0
 13
3697.035001171076
 23
1473.212730154439
 33
0.0
  0
SOLID
  5
10DC
330
1000
100
AcDbEntity
  8
SUNPOU
 62
     0
440
 16777216
100
AcDbTrace
 10
4167.035001171076
 20
1478.212730154439
 30
0.0
 11
4167.035001171076
 21
1468.212730154439
 31
0.0
 12
4197.035001171076
 22
1473.212730154439
 32
0.0
 13
4197.035001171076
 23
1473.212730154439
 33
0.0
  0
MTEXT
  5
10DD
330
1000
100
AcDbEntity
  8
SUNPOU
 62
     0
440
 16777216
100
AcDbMText
 10
3947.035001171076
 20
1507.712730154439
 30
0.0
 40
45.0
 41
0.0
 71
     5
 72
     1
  1
\A1;500
 73
     1
 44
1.0
  0
POINT
  5
10DE
330
1000
100
AcDbEntity
  8
Defpoints
 62
     0
440
 16777216
100
AcDbPoint
 10
3697.035001171076
 20
1323.031595127399
 30
0.0
  0
POINT
  5
10DF
330
1000
100
AcDbEntity
  8
Defpoints
 62
     0
440
 16777216
100
AcDbPoint
 10
4197.035001171076
 20
1323.031595127399
 30
0.0
  0
POINT
  5
10E0
330
1000
100
AcDbEntity
  8
Defpoints
 62
     0
440
 16777216
100
AcDbPoint
 10
4197.035001171076
 20
1473.212730154439
 30
0.0
  0
ENDBLK
  5
1002
330
1000
100
AcDbEntity
  8
0
100
AcDbBlockEnd
  0
BLOCK
  5
100D
330
100C
100
AcDbEntity
  8
0
100
AcDbBlockBegin
  2
*D71
 70
     1
 10
0.0
 20
0.0
 30
0.0
  3
*D71
  1

  0
LINE
  5
10E1
330
100C
100
AcDbEntity
  8
SUNPOU
 62
     0
440
 16777216
370
    -2
100
AcDbLine
 10
4947.035001171076
 20
1353.031595127399
 30
0.0
 11
4947.035001171076
 21
1480.712730154439
 31
0.0
  0
LINE
  5
10E2
330
100C
100
AcDbEntity
  8
SUNPOU
 62
     0
440
 16777216
370
    -2
100
AcDbLine
 10
4697.035001171076
 20
1353.031595127399
 30
0.0
 11
4697.035001171076
 21
1480.712730154439
 31
0.0
  0
LINE
  5
10E3
330
100C
100
AcDbEntity
  8
SUNPOU
 62
     0
440
 16777216
370
    -2
100
AcDbLine
 10
4917.035001171076
 20
1473.212730154439
 30
0.0
 11
4727.035001171076
 21
1473.212730154439
 31
0.0
  0
SOLID
  5
10E4
330
100C
100
AcDbEntity
  8
SUNPOU
 62
     0
440
 16777216
100
AcDbTrace
 10
4917.035001171076
 20
1478.212730154439
 30
0.0
 11
4917.035001171076
 21
1468.212730154439
 31
0.0
 12
4947.035001171076
 22
1473.212730154439
 32
0.0
 13
4947.035001171076
 23
1473.212730154439
 33
0.0
  0
SOLID
  5
10E5
330
100C
100
AcDbEntity
  8
SUNPOU
 62
     0
440
 16777216
100
AcDbTrace
 10
4727.035001171076
 20
1478.212730154439
 30
0.0
 11
4727.035001171076
 21
1468.212730154439
 31
0.0
 12
4697.035001171076
 22
1473.212730154439
 32
0.0
 13
4697.035001171076
 23
1473.212730154439
 33
0.0
  0
MTEXT
  5
10E6
330
100C
100
AcDbEntity
  8
SUNPOU
 62
     0
440
 16777216
100
AcDbMText
 10
4822.035001171076
 20
1507.712730154439
 30
0.0
 40
45.0
 41
0.0
 71
     5
 72
     1
  1
\A1;250
 73
     1
 44
1.0
  0
POINT
  5
10E7
330
100C
100
AcDbEntity
  8
Defpoints
 62
     0
440
 16777216
100
AcDbPoint
 10
4947.035001171076
 20
1323.031595127399
 30
0.0
  0
POINT
  5
10E8
330
100C
100
AcDbEntity
  8
Defpoints
 62
     0
440
 16777216
100
AcDbPoint
 10
4697.035001171076
 20
1323.031595127399
 30
0.0
  0
POINT
  5
10E9
330
100C
100
AcDbEntity
  8
Defpoints
 62
     0
440
 16777216
100
AcDbPoint
 10
4697.035001171076
 20
1473.212730154439
 30
0.0
  0
ENDBLK
  5
100E
330
100C
100
AcDbEntity
  8
0
100
AcDbBlockEnd
  0
BLOCK
  5
1019
330
1018
100
AcDbEntity
  8
0
100
AcDbBlockBegin
  2
*D72
 70
     1
 10
0.0
 20
0.0
 30
0.0
  3
*D72
  1

  0
LINE
  5
10EA
330
1018
100
AcDbEntity
  8
SUNPOU
 62
     0
440
 16777216
370
    -2
100
AcDbLine
 10
4697.035001171076
 20
1353.031595127399
 30
0.0
 11
4697.035001171076
 21
1480.712730154439
 31
0.0
  0
LINE
  5
10EB
330
1018
100
AcDbEntity
  8
SUNPOU
 62
     0
440
 16777216
370
    -2
100
AcDbLine
 10
4197.035001171076
 20
1353.031595127399
 30
0.0
 11
4197.035001171076
 21
1480.712730154439
 31
0.0
  0
LINE
  5
10EC
330
1018
100
AcDbEntity
  8
SUNPOU
 62
     0
440
 16777216
370
    -2
100
AcDbLine
 10
4667.035001171076
 20
1473.212730154439
 30
0.0
 11
4227.035001171076
 21
1473.212730154439
 31
0.0
  0
SOLID
  5
10ED
330
1018
100
AcDbEntity
  8
SUNPOU
 62
     0
440
 16777216
100
AcDbTrace
 10
4667.035001171076
 20
1478.212730154439
 30
0.0
 11
4667.035001171076
 21
1468.212730154439
 31
0.0
 12
4697.035001171076
 22
1473.212730154439
 32
0.0
 13
4697.035001171076
 23
1473.212730154439
 33
0.0
  0
SOLID
  5
10EE
330
1018
100
AcDbEntity
  8
SUNPOU
 62
     0
440
 16777216
100
AcDbTrace
 10
4227.035001171076
 20
1478.212730154439
 30
0.0
 11
4227.035001171076
 21
1468.212730154439
 31
0.0
 12
4197.035001171076
 22
1473.212730154439
 32
0.0
 13
4197.035001171076
 23
1473.212730154439
 33
0.0
  0
MTEXT
  5
10EF
330
1018
100
AcDbEntity
  8
SUNPOU
 62
     0
440
 16777216
100
AcDbMText
 10
4447.035001171076
 20
1507.712730154439
 30
0.0
 40
45.0
 41
0.0
 71
     5
 72
     1
  1
\A1;500
 73
     1
 44
1.0
  0
POINT
  5
10F0
330
1018
100
AcDbEntity
  8
Defpoints
 62
     0
440
 16777216
100
AcDbPoint
 10
4697.035001171076
 20
1323.031595127399
 30
0.0
  0
POINT
  5
10F1
330
1018
100
AcDbEntity
  8
Defpoints
 62
     0
440
 16777216
100
AcDbPoint
 10
4197.035001171076
 20
1323.031595127399
 30
0.0
  0
POINT
  5
10F2
330
1018
100
AcDbEntity
  8
Defpoints
 62
     0
440
 16777216
100
AcDbPoint
 10
4197.035001171076
 20
1473.212730154439
 30
0.0
  0
ENDBLK
  5
101A
330
1018
100
AcDbEntity
  8
0
100
AcDbBlockEnd
  0
BLOCK
  5
1025
330
1024
100
AcDbEntity
  8
0
100
AcDbBlockBegin
  2
*D73
 70
     1
 10
0.0
 20
0.0
 30
0.0
  3
*D73
  1

  0
LINE
  5
10F3
330
1024
100
AcDbEntity
  8
SUNPOU
 62
     0
440
 16777216
370
    -2
100
AcDbLine
 10
2947.035001171076
 20
1353.031595127399
 30
0.0
 11
2947.035001171076
 21
1573.886162455132
 31
0.0
  0
LINE
  5
10F4
330
1024
100
AcDbEntity
  8
SUNPOU
 62
     0
440
 16777216
370
    -2
100
AcDbLine
 10
4947.035001171076
 20
1353.031595127399
 30
0.0
 11
4947.035001171076
 21
1573.886162455132
 31
0.0
  0
LINE
  5
10F5
330
1024
100
AcDbEntity
  8
SUNPOU
 62
     0
440
 16777216
370
    -2
100
AcDbLine
 10
2977.035001171076
 20
1566.386162455132
 30
0.0
 11
4917.035001171076
 21
1566.386162455132
 31
0.0
  0
SOLID
  5
10F6
330
1024
100
AcDbEntity
  8
SUNPOU
 62
     0
440
 16777216
100
AcDbTrace
 10
2977.035001171076
 20
1571.386162455132
 30
0.0
 11
2977.035001171076
 21
1561.386162455132
 31
0.0
 12
2947.035001171076
 22
1566.386162455132
 32
0.0
 13
2947.035001171076
 23
1566.386162455132
 33
0.0
  0
SOLID
  5
10F7
330
1024
100
AcDbEntity
  8
SUNPOU
 62
     0
440
 16777216
100
AcDbTrace
 10
4917.035001171076
 20
1571.386162455132
 30
0.0
 11
4917.035001171076
 21
1561.386162455132
 31
0.0
 12
4947.035001171076
 22
1566.386162455132
 32
0.0
 13
4947.035001171076
 23
1566.386162455132
 33
0.0
  0
MTEXT
  5
10F8
330
1024
100
AcDbEntity
  8
SUNPOU
 62
     0
440
 16777216
100
AcDbMText
 10
3947.035001171076
 20
1600.886162455132
 30
0.0
 40
45.0
 41
0.0
 71
     5
 72
     1
  1
\A1;2000
 73
     1
 44
1.0
  0
POINT
  5
10F9
330
1024
100
AcDbEntity
  8
Defpoints
 62
     0
440
 16777216
100
AcDbPoint
 10
2947.035001171076
 20
1323.031595127399
 30
0.0
  0
POINT
  5
10FA
330
1024
100
AcDbEntity
  8
Defpoints
 62
     0
440
 16777216
100
AcDbPoint
 10
4947.035001171076
 20
1323.031595127399
 30
0.0
  0
POINT
  5
10FB
330
1024
100
AcDbEntity
  8
Defpoints
 62
     0
440
 16777216
100
AcDbPoint
 10
4947.035001171076
 20
1566.386162455132
 30
0.0
  0
ENDBLK
  5
1026
330
1024
100
AcDbEntity
  8
0
100
AcDbBlockEnd
  0
ENDSEC
  0
SECTION
  2
ENTITIES
  0
LINE
  5
3BE
330
17
100
AcDbEntity
  8
SEIHIN
100
AcDbLine
 10
1289.640251731919
 20
3028.21106223061
 30
0.0
 11
1739.640251731919
 21
3028.21106223061
 31
0.0
  0
LINE
  5
3C0
330
17
100
AcDbEntity
  8
SEIHIN
100
AcDbLine
 10
1509.640251731919
 20
3528.21106223061
 30
0.0
 11
1739.640251731919
 21
3098.21106223061
 31
0.0
  0
LINE
  5
3C1
330
17
100
AcDbEntity
  8
SEIHIN
100
AcDbLine
 10
1439.640251731919
 20
3528.21106223061
 30
0.0
 11
1289.640251731919
 21
3028.21106223061
 31
0.0
  0
LINE
  5
3C4
330
17
100
AcDbEntity
  8
SEIHIN
100
AcDbLine
 10
1439.640251731919
 20
3528.21106223061
 30
0.0
 11
1509.640251731919
 21
3528.21106223061
 31
0.0
  0
LINE
  5
3C5
330
17
100
AcDbEntity
  8
SEIHIN
100
AcDbLine
 10
1739.640251731919
 20
3028.21106223061
 30
0.0
 11
1739.640251731919
 21
3098.21106223061
 31
0.0
  0
DIMENSION
  5
3C6
330
17
100
AcDbEntity
  8
SUNPOU
100
AcDbDimension
  2
*D2
 10
926.038460092827
 20
3528.21106223061
 30
0.0
 11
891.5384600928264
 21
3278.21106223061
 31
0.0
 70
    32
 71
     5
 42
500.0
  3
S-15
100
AcDbAlignedDimension
 13
1289.640251731919
 23
3028.21106223061
 33
0.0
 14
1439.640251731919
 24
3528.21106223061
 34
0.0
 50
90.0
100
AcDbRotatedDimension
1001
ACAD
1000
DSTYLE
1002
{
1070
   279
1070
     0
1002
}
  0
DIMENSION
  5
3D4
330
17
100
AcDbEntity
  8
SUNPOU
100
AcDbDimension
  2
*D3
 10
2030.392853106128
 20
3098.21106223061
 30
0.0
 11
1995.892853106128
 21
3063.21106223061
 31
0.0
 70
    32
 71
     5
 42
70.0
  3
S-15
100
AcDbAlignedDimension
 13
1739.640251731919
 23
3028.21106223061
 33
0.0
 14
1739.640251731919
 24
3098.21106223061
 34
0.0
 50
90.0
100
AcDbRotatedDimension
  0
DIMENSION
  5
411
330
17
100
AcDbEntity
  8
SUNPOU
100
AcDbDimension
  2
*D4
 10
1739.640251731919
 20
2756.304397182546
 30
0.0
 11
1514.640251731919
 21
2790.804397182546
 31
0.0
 70
    32
 71
     5
 42
450.0
  3
S-15
100
AcDbAlignedDimension
 13
1289.640251731919
 23
3028.21106223061
 33
0.0
 14
1739.640251731919
 24
3028.21106223061
 34
0.0
100
AcDbRotatedDimension
1001
ACAD
1000
DSTYLE
1002
{
1070
   279
1070
     0
1002
}
  0
CIRCLE
  5
41E
330
17
100
AcDbEntity
  8
SEIHIN
100
AcDbCircle
 10
1509.640251731919
 20
3228.21106223061
 30
0.0
 40
17.5
  0
LINE
  5
41F
330
17
100
AcDbEntity
  8
1HASEN
 48
0.5
100
AcDbLine
 10
1308.352760651171
 20
3228.21106223061
 30
0.0
 11
1478.686224593628
 21
3228.21106223061
 31
0.0
  0
LINE
  5
425
330
17
100
AcDbEntity
  8
HASEN
100
AcDbLine
 10
1342.140251731919
 20
3203.21106223061
 30
0.0
 11
1415.890251731919
 21
3215.71106223061
 31
0.0
  0
LINE
  5
426
330
17
100
AcDbEntity
  8
HASEN
100
AcDbLine
 10
1357.140251731919
 20
3253.21106223061
 30
0.0
 11
1423.390251731919
 21
3240.71106223061
 31
0.0
  0
DIMENSION
  5
42F
330
17
100
AcDbEntity
  8
SUNPOU
100
AcDbDimension
  2
*D5
 10
1509.640251731919
 20
3747.42653525338
 30
0.0
 11
1474.640251731919
 21
3781.92653525338
 31
0.0
 70
    32
 71
     5
 42
70.0
  3
S-15
100
AcDbAlignedDimension
 13
1439.640251731919
 23
3528.21106223061
 33
0.0
 14
1509.640251731919
 24
3528.21106223061
 34
0.0
100
AcDbRotatedDimension
  0
TEXT
  5
521
330
17
100
AcDbEntity
  8
SUNPOU
100
AcDbText
 10
1376.175830639785
 20
3378.950328379236
 30
0.0
 40
45.0
  1
1:0.3
 50
73.30075576601013
 41
0.8
100
AcDbText
  0
LINE
  5
527
330
17
100
AcDbEntity
  8
SEIHIN
100
AcDbLine
 10
2849.63490311828
 20
3028.21106223061
 30
0.0
 11
2849.63490311828
 21
3528.21106223061
 31
0.0
  0
LINE
  5
528
330
17
100
AcDbEntity
  8
SEIHIN
100
AcDbLine
 10
2849.63490311828
 20
3528.21106223061
 30
0.0
 11
4849.63490311828
 21
3528.21106223061
 31
0.0
  0
LINE
  5
529
330
17
100
AcDbEntity
  8
SEIHIN
100
AcDbLine
 10
4849.63490311828
 20
3028.21106223061
 30
0.0
 11
4849.63490311828
 21
3528.21106223061
 31
0.0
  0
LINE
  5
52A
330
17
100
AcDbEntity
  8
SEIHIN
100
AcDbLine
 10
2849.63490311828
 20
3028.21106223061
 30
0.0
 11
4849.63490311828
 21
3028.21106223061
 31
0.0
  0
LINE
  5
52E
330
17
100
AcDbEntity
  8
SEIHIN
100
AcDbLine
 10
2849.63490311828
 20
3098.21106223061
 30
0.0
 11
4849.63490311828
 21
3098.21106223061
 31
0.0
  0
TEXT
  5
556
330
17
100
AcDbEntity
  8
SUNPOU
100
AcDbText
 10
934.9166295105642
 20
3836.987377803431
 30
0.0
 40
60.0
  1
断面図
 41
0.8
100
AcDbText
  0
TEXT
  5
558
330
17
100
AcDbEntity
  8
SUNPOU
100
AcDbText
 10
2541.057681238486
 20
3836.987377803431
 30
0.0
 40
60.0
  1
L=2000
 41
0.8
100
AcDbText
  0
DIMENSION
  5
5C8
330
17
100
AcDbEntity
  8
SUNPOU
100
AcDbDimension
  2
*D6
 10
3099.63490311828
 20
3678.39219725765
 30
0.0
 11
2974.63490311828
 21
3712.89219725765
 31
0.0
 70
    32
 71
     5
 42
250.0
  3
S-15
100
AcDbAlignedDimension
 13
2849.63490311828
 23
3528.21106223061
 33
0.0
 14
3099.63490311828
 24
3528.21106223061
 34
0.0
100
AcDbRotatedDimension
  0
DIMENSION
  5
5D5
330
17
100
AcDbEntity
  8
SUNPOU
100
AcDbDimension
  2
*D7
 10
3599.63490311828
 20
3678.39219725765
 30
0.0
 11
3349.63490311828
 21
3712.89219725765
 31
0.0
 70
    32
 71
     5
 42
500.0
  3
S-15
100
AcDbAlignedDimension
 13
3099.63490311828
 23
3528.21106223061
 33
0.0
 14
3599.63490311828
 24
3528.21106223061
 34
0.0
100
AcDbRotatedDimension
  0
DIMENSION
  5
5E2
330
17
100
AcDbEntity
  8
SUNPOU
100
AcDbDimension
  2
*D8
 10
4099.63490311828
 20
3678.39219725765
 30
0.0
 11
3849.63490311828
 21
3712.89219725765
 31
0.0
 70
    32
 71
     5
 42
500.0
  3
S-15
100
AcDbAlignedDimension
 13
3599.63490311828
 23
3528.21106223061
 33
0.0
 14
4099.63490311828
 24
3528.21106223061
 34
0.0
100
AcDbRotatedDimension
  0
DIMENSION
  5
5F8
330
17
100
AcDbEntity
  8
SUNPOU
100
AcDbDimension
  2
*D9
 10
4599.63490311828
 20
3678.39219725765
 30
0.0
 11
4724.63490311828
 21
3712.89219725765
 31
0.0
 70
    32
 71
     5
 42
250.0
  3
S-15
100
AcDbAlignedDimension
 13
4849.63490311828
 23
3528.21106223061
 33
0.0
 14
4599.63490311828
 24
3528.21106223061
 34
0.0
 50
180.0
100
AcDbRotatedDimension
  0
DIMENSION
  5
5F9
330
17
100
AcDbEntity
  8
SUNPOU
100
AcDbDimension
  2
*D10
 10
4099.63490311828
 20
3678.39219725765
 30
0.0
 11
4349.63490311828
 21
3712.89219725765
 31
0.0
 70
    32
 71
     5
 42
500.0
  3
S-15
100
AcDbAlignedDimension
 13
4599.63490311828
 23
3528.21106223061
 33
0.0
 14
4099.63490311828
 24
3528.21106223061
 34
0.0
 50
180.0
100
AcDbRotatedDimension
  0
DIMENSION
  5
624
330
17
100
AcDbEntity
  8
SUNPOU
100
AcDbDimension
  2
*D11
 10
4849.63490311828
 20
3771.565629558343
 30
0.0
 11
3849.63490311828
 21
3806.065629558343
 31
0.0
 70
    32
 71
     5
 42
2000.0
  3
S-15
100
AcDbAlignedDimension
 13
2849.63490311828
 23
3528.21106223061
 33
0.0
 14
4849.63490311828
 24
3528.21106223061
 34
0.0
100
AcDbRotatedDimension
  0
CIRCLE
  5
772
330
17
100
AcDbEntity
  8
SUNPOU
100
AcDbCircle
 10
3849.63490311828
 20
3228.21106223061
 30
0.0
 40
12.5
  0
CIRCLE
  5
773
330
17
100
AcDbEntity
  8
SUNPOU
100
AcDbCircle
 10
3849.63490311828
 20
3228.21106223061
 30
0.0
 40
25.0
  0
CIRCLE
  5
774
330
17
100
AcDbEntity
  8
SUNPOU
100
AcDbCircle
 10
4349.63490311828
 20
3228.21106223061
 30
0.0
 40
12.5
  0
CIRCLE
  5
775
330
17
100
AcDbEntity
  8
SUNPOU
100
AcDbCircle
 10
4349.63490311828
 20
3228.21106223061
 30
0.0
 40
25.0
  0
CIRCLE
  5
776
330
17
100
AcDbEntity
  8
SUNPOU
100
AcDbCircle
 10
3349.63490311828
 20
3228.21106223061
 30
0.0
 40
12.5
  0
CIRCLE
  5
777
330
17
100
AcDbEntity
  8
SUNPOU
100
AcDbCircle
 10
3349.63490311828
 20
3228.21106223061
 30
0.0
 40
25.0
  0
TEXT
  5
971
330
17
100
AcDbEntity
  8
0
100
AcDbText
 10
907.1495193276132
 20
4182.931291747409
 30
0.0
 40
135.0
  1
法先ブロック
 41
0.8
100
AcDbText
  0
TEXT
  5
973
330
17
100
AcDbEntity
  8
0
100
AcDbText
 10
1905.480411430315
 20
4182.931291747409
 30
0.0
 40
135.0
  1
H-500
 41
0.8
100
AcDbText
  0
LINE
  5
AB4
330
17
100
AcDbEntity
  8
SEIHIN
100
AcDbLine
 10
1471.640251731919
 20
3098.21106223061
 30
0.0
 11
1739.640251731919
 21
3098.21106223061
 31
0.0
  0
LINE
  5
AB5
330
17
100
AcDbEntity
  8
SEIHIN
100
AcDbLine
 10
1509.640251731919
 20
3528.21106223061
 30
0.0
 11
1401.640251731919
 21
3168.211062230609
 31
0.0
  0
LINE
  5
AB8
330
17
100
AcDbEntity
  8
SEIHIN
100
AcDbLine
 10
1471.640251731919
 20
3098.21106223061
 30
0.0
 11
1401.640251731919
 21
3168.21106223061
 31
0.0
  0
DIMENSION
  5
AC5
330
17
100
AcDbEntity
  8
SUNPOU
100
AcDbDimension
  2
*D20
 10
1053.363694358814
 20
3228.21106223061
 30
0.0
 11
1018.863694358813
 21
3128.21106223061
 31
0.0
 70
    32
 71
     5
 42
200.0
  3
S-15
100
AcDbAlignedDimension
 13
1289.640251731919
 23
3028.21106223061
 33
0.0
 14
1308.352760651171
 24
3228.21106223061
 34
0.0
 50
90.0
100
AcDbRotatedDimension
  0
DIMENSION
  5
B1A
330
17
100
AcDbEntity
  8
SUNPOU
100
AcDbDimension
  2
*D23
 10
2030.392853106128
 20
3168.211062230609
 30
0.0
 11
1995.892853106128
 21
3133.21106223061
 31
0.0
 70
    32
 71
     5
 42
69.99999999999909
  3
S-15
100
AcDbAlignedDimension
 13
1739.640251731919
 23
3098.21106223061
 33
0.0
 14
1401.640251731919
 24
3168.211062230609
 34
0.0
 50
90.0
100
AcDbRotatedDimension
  0
DIMENSION
  5
B29
330
17
100
AcDbEntity
  8
SUNPOU
100
AcDbDimension
  2
*D24
 10
1471.640251731919
 20
3283.61408307782
 30
0.0
 11
1436.640251731919
 21
3318.11408307782
 31
0.0
 70
    32
 71
     5
 42
69.99999999999977
  3
S-15
100
AcDbAlignedDimension
 13
1401.640251731919
 23
3168.211062230609
 33
0.0
 14
1471.640251731919
 24
3098.21106223061
 34
0.0
100
AcDbRotatedDimension
  0
DIMENSION
  5
B37
330
17
100
AcDbEntity
  8
SUNPOU
100
AcDbDimension
  2
*D25
 10
1331.640251731919
 20
3283.61408307782
 30
0.0
 11
1366.640251731919
 21
3318.11408307782
 31
0.0
 70
    32
 71
     5
 42
70.0
  3
S-15
100
AcDbAlignedDimension
 13
1401.640251731919
 23
3168.211062230609
 33
0.0
 14
1331.640251731919
 24
3168.211062230609
 34
0.0
100
AcDbRotatedDimension
  0
LINE
  5
B5D
330
17
100
AcDbEntity
  8
1HASEN
 48
0.5
100
AcDbLine
 10
3599.63490311828
 20
3528.21106223061
 30
0.0
 11
3599.63490311828
 21
3028.21106223061
 31
0.0
  0
LINE
  5
B5E
330
17
100
AcDbEntity
  8
SEIHIN
 48
0.5
100
AcDbLine
 10
3634.63490311828
 20
3528.21106223061
 30
0.0
 11
3634.63490311828
 21
3098.21106223061
 31
0.0
  0
LINE
  5
B5F
330
17
100
AcDbEntity
  8
SEIHIN
 48
0.5
100
AcDbLine
 10
3564.63490311828
 20
3528.21106223061
 30
0.0
 11
3564.63490311828
 21
3098.21106223061
 31
0.0
  0
LINE
  5
B63
330
17
100
AcDbEntity
  8
SEIHIN
100
AcDbLine
 10
2849.63490311828
 20
3168.21106223061
 30
0.0
 11
3054.63490311828
 21
3168.21106223061
 31
0.0
  0
LINE
  5
B64
330
17
100
AcDbEntity
  8
SEIHIN
100
AcDbLine
 10
3564.63490311828
 20
3098.21106223061
 30
0.0
 11
3554.63490311828
 21
3168.21106223061
 31
0.0
  0
LINE
  5
B65
330
17
100
AcDbEntity
  8
SEIHIN
100
AcDbLine
 10
3554.63490311828
 20
3168.21106223061
 30
0.0
 11
3564.63490311828
 21
3528.21106223061
 31
0.0
  0
LINE
  5
B66
330
17
100
AcDbEntity
  8
SEIHIN
100
AcDbLine
 10
3634.63490311828
 20
3098.21106223061
 30
0.0
 11
3644.63490311828
 21
3168.21106223061
 31
0.0
  0
LINE
  5
B67
330
17
100
AcDbEntity
  8
SEIHIN
100
AcDbLine
 10
3644.63490311828
 20
3168.21106223061
 30
0.0
 11
3634.63490311828
 21
3528.21106223061
 31
0.0
  0
LINE
  5
B68
330
17
100
AcDbEntity
  8
1HASEN
 48
0.5
100
AcDbLine
 10
3099.63490311828
 20
3528.21106223061
 30
0.0
 11
3099.63490311828
 21
3028.21106223061
 31
0.0
  0
LINE
  5
B69
330
17
100
AcDbEntity
  8
SEIHIN
 48
0.5
100
AcDbLine
 10
3064.63490311828
 20
3528.21106223061
 30
0.0
 11
3064.63490311828
 21
3098.21106223061
 31
0.0
  0
LINE
  5
B6A
330
17
100
AcDbEntity
  8
SEIHIN
 48
0.5
100
AcDbLine
 10
3134.63490311828
 20
3528.21106223061
 30
0.0
 11
3134.63490311828
 21
3098.21106223061
 31
0.0
  0
LINE
  5
B6B
330
17
100
AcDbEntity
  8
SEIHIN
100
AcDbLine
 10
3064.63490311828
 20
3098.21106223061
 30
0.0
 11
3054.63490311828
 21
3168.21106223061
 31
0.0
  0
LINE
  5
B6C
330
17
100
AcDbEntity
  8
SEIHIN
100
AcDbLine
 10
3054.63490311828
 20
3168.21106223061
 30
0.0
 11
3064.63490311828
 21
3528.21106223061
 31
0.0
  0
LINE
  5
B6D
330
17
100
AcDbEntity
  8
SEIHIN
100
AcDbLine
 10
3134.63490311828
 20
3098.21106223061
 30
0.0
 11
3144.63490311828
 21
3168.21106223061
 31
0.0
  0
LINE
  5
B6E
330
17
100
AcDbEntity
  8
SEIHIN
100
AcDbLine
 10
3144.63490311828
 20
3168.21106223061
 30
0.0
 11
3134.63490311828
 21
3528.21106223061
 31
0.0
  0
LINE
  5
B6F
330
17
100
AcDbEntity
  8
1HASEN
 48
0.5
100
AcDbLine
 10
4099.63490311828
 20
3528.21106223061
 30
0.0
 11
4099.63490311828
 21
3028.21106223061
 31
0.0
  0
LINE
  5
B70
330
17
100
AcDbEntity
  8
SEIHIN
 48
0.5
100
AcDbLine
 10
4134.63490311828
 20
3528.21106223061
 30
0.0
 11
4134.63490311828
 21
3098.21106223061
 31
0.0
  0
LINE
  5
B71
330
17
100
AcDbEntity
  8
SEIHIN
 48
0.5
100
AcDbLine
 10
4064.63490311828
 20
3528.21106223061
 30
0.0
 11
4064.63490311828
 21
3098.21106223061
 31
0.0
  0
LINE
  5
B72
330
17
100
AcDbEntity
  8
SEIHIN
100
AcDbLine
 10
4134.63490311828
 20
3098.21106223061
 30
0.0
 11
4144.63490311828
 21
3168.21106223061
 31
0.0
  0
LINE
  5
B73
330
17
100
AcDbEntity
  8
SEIHIN
100
AcDbLine
 10
4144.63490311828
 20
3168.21106223061
 30
0.0
 11
4134.63490311828
 21
3528.21106223061
 31
0.0
  0
LINE
  5
B74
330
17
100
AcDbEntity
  8
SEIHIN
100
AcDbLine
 10
4064.63490311828
 20
3098.21106223061
 30
0.0
 11
4054.63490311828
 21
3168.21106223061
 31
0.0
  0
LINE
  5
B75
330
17
100
AcDbEntity
  8
SEIHIN
100
AcDbLine
 10
4054.63490311828
 20
3168.21106223061
 30
0.0
 11
4064.63490311828
 21
3528.21106223061
 31
0.0
  0
LINE
  5
B76
330
17
100
AcDbEntity
  8
1HASEN
 48
0.5
100
AcDbLine
 10
4599.63490311828
 20
3528.21106223061
 30
0.0
 11
4599.63490311828
 21
3028.21106223061
 31
0.0
  0
LINE
  5
B77
330
17
100
AcDbEntity
  8
SEIHIN
 48
0.5
100
AcDbLine
 10
4634.63490311828
 20
3528.21106223061
 30
0.0
 11
4634.63490311828
 21
3098.21106223061
 31
0.0
  0
LINE
  5
B78
330
17
100
AcDbEntity
  8
SEIHIN
 48
0.5
100
AcDbLine
 10
4564.63490311828
 20
3528.21106223061
 30
0.0
 11
4564.63490311828
 21
3098.21106223061
 31
0.0
  0
LINE
  5
B79
330
17
100
AcDbEntity
  8
SEIHIN
100
AcDbLine
 10
4634.63490311828
 20
3098.21106223061
 30
0.0
 11
4644.63490311828
 21
3168.21106223061
 31
0.0
  0
LINE
  5
B7A
330
17
100
AcDbEntity
  8
SEIHIN
100
AcDbLine
 10
4644.63490311828
 20
3168.21106223061
 30
0.0
 11
4634.63490311828
 21
3528.21106223061
 31
0.0
  0
LINE
  5
B7B
330
17
100
AcDbEntity
  8
SEIHIN
100
AcDbLine
 10
4564.63490311828
 20
3098.21106223061
 30
0.0
 11
4554.63490311828
 21
3168.21106223061
 31
0.0
  0
LINE
  5
B7C
330
17
100
AcDbEntity
  8
SEIHIN
100
AcDbLine
 10
4554.63490311828
 20
3168.21106223061
 30
0.0
 11
4564.63490311828
 21
3528.21106223061
 31
0.0
  0
LINE
  5
B9B
330
17
100
AcDbEntity
  8
SEIHIN
100
AcDbLine
 10
3144.63490311828
 20
3168.21106223061
 30
0.0
 11
3554.634903118279
 21
3168.21106223061
 31
0.0
  0
LINE
  5
B9C
330
17
100
AcDbEntity
  8
SEIHIN
100
AcDbLine
 10
3644.63490311828
 20
3168.21106223061
 30
0.0
 11
4054.634903118279
 21
3168.21106223061
 31
0.0
  0
LINE
  5
B9D
330
17
100
AcDbEntity
  8
SEIHIN
100
AcDbLine
 10
4144.63490311828
 20
3168.21106223061
 30
0.0
 11
4554.63490311828
 21
3168.21106223061
 31
0.0
  0
LINE
  5
B9E
330
17
100
AcDbEntity
  8
SEIHIN
100
AcDbLine
 10
4644.63490311828
 20
3168.21106223061
 30
0.0
 11
4849.63490311828
 21
3168.21106223061
 31
0.0
  0
LINE
  5
D23
330
17
100
AcDbEntity
  8
HASEN
100
AcDbLine
 10
3064.63490311828
 20
3245.71106223061
 30
0.0
 11
3134.634903118279
 21
3245.71106223061
 31
0.0
  0
LINE
  5
D24
330
17
100
AcDbEntity
  8
HASEN
100
AcDbLine
 10
3064.63490311828
 20
3210.71106223061
 30
0.0
 11
3134.634903118279
 21
3210.71106223061
 31
0.0
  0
LINE
  5
D25
330
17
100
AcDbEntity
  8
HASEN
100
AcDbLine
 10
3564.63490311828
 20
3210.71106223061
 30
0.0
 11
3634.634903118279
 21
3210.71106223061
 31
0.0
  0
LINE
  5
D26
330
17
100
AcDbEntity
  8
HASEN
100
AcDbLine
 10
3564.63490311828
 20
3245.71106223061
 30
0.0
 11
3634.634903118279
 21
3245.71106223061
 31
0.0
  0
LINE
  5
D27
330
17
100
AcDbEntity
  8
HASEN
100
AcDbLine
 10
4064.63490311828
 20
3210.71106223061
 30
0.0
 11
4134.63490311828
 21
3210.71106223061
 31
0.0
  0
LINE
  5
D28
330
17
100
AcDbEntity
  8
HASEN
100
AcDbLine
 10
4064.63490311828
 20
3245.71106223061
 30
0.0
 11
4134.63490311828
 21
3245.71106223061
 31
0.0
  0
LINE
  5
D29
330
17
100
AcDbEntity
  8
HASEN
100
AcDbLine
 10
4564.63490311828
 20
3210.71106223061
 30
0.0
 11
4634.63490311828
 21
3210.71106223061
 31
0.0
  0
LINE
  5
D2A
330
17
100
AcDbEntity
  8
HASEN
100
AcDbLine
 10
4564.63490311828
 20
3245.71106223061
 30
0.0
 11
4634.63490311828
 21
3245.71106223061
 31
0.0
  0
LINE
  5
EF5
330
17
100
AcDbEntity
  8
SEIHIN
100
AcDbLine
 10
1312.040349784716
 20
573.0315951273988
 30
0.0
 11
1912.040349784716
 21
573.0315951273988
 31
0.0
  0
LINE
  5
EF6
330
17
100
AcDbEntity
  8
SEIHIN
100
AcDbLine
 10
1572.040349784716
 20
673.0315951273988
 30
0.0
 11
1912.040349784716
 21
643.0315951273988
 31
0.0
  0
LINE
  5
EF7
330
17
100
AcDbEntity
  8
SEIHIN
100
AcDbLine
 10
1607.040349784716
 20
1323.031595127399
 30
0.0
 11
1912.040349784716
 21
643.0315951273988
 31
0.0
  0
LINE
  5
EF8
330
17
100
AcDbEntity
  8
SEIHIN
100
AcDbLine
 10
1537.040349784716
 20
1323.031595127399
 30
0.0
 11
1312.040349784716
 21
573.0315951273988
 31
0.0
  0
LINE
  5
EF9
330
17
100
AcDbEntity
  8
SEIHIN
100
AcDbLine
 10
1472.040349784716
 20
773.0315951273988
 30
0.0
 11
1607.040349784716
 21
1323.031595127399
 31
0.0
  0
LINE
  5
EFA
330
17
100
AcDbEntity
  8
SEIHIN
100
AcDbLine
 10
1472.040349784716
 20
773.0315951273988
 30
0.0
 11
1572.040349784716
 21
673.0315951273988
 31
0.0
  0
LINE
  5
EFB
330
17
100
AcDbEntity
  8
SEIHIN
100
AcDbLine
 10
1537.040349784716
 20
1323.031595127399
 30
0.0
 11
1607.040349784716
 21
1323.031595127399
 31
0.0
  0
LINE
  5
EFC
330
17
100
AcDbEntity
  8
SEIHIN
100
AcDbLine
 10
1912.040349784716
 20
573.0315951273988
 30
0.0
 11
1912.040349784716
 21
643.0315951273988
 31
0.0
  0
DIMENSION
  5
EFD
330
17
100
AcDbEntity
  8
SUNPOU
100
AcDbDimension
  2
*D56
 10
1023.438558145623
 20
1323.031595127399
 30
0.0
 11
988.938558145623
 21
948.0315951273991
 31
0.0
 70
    32
 71
     5
 42
750.0000000000001
  3
S-15
100
AcDbAlignedDimension
 13
1312.040349784716
 23
573.0315951273988
 33
0.0
 14
1537.040349784716
 24
1323.031595127399
 34
0.0
 50
90.0
100
AcDbRotatedDimension
1001
ACAD
1000
DSTYLE
1002
{
1070
   279
1070
     0
1002
}
  0
DIMENSION
  5
EFE
330
17
100
AcDbEntity
  8
SUNPOU
100
AcDbDimension
  2
*D57
 10
2202.792951158925
 20
643.0315951273988
 30
0.0
 11
2168.292951158925
 21
608.0315951273991
 31
0.0
 70
    32
 71
     5
 42
70.0
  3
S-15
100
AcDbAlignedDimension
 13
1912.040349784716
 23
573.0315951273988
 33
0.0
 14
1912.040349784716
 24
643.0315951273988
 34
0.0
 50
90.0
100
AcDbRotatedDimension
  0
DIMENSION
  5
EFF
330
17
100
AcDbEntity
  8
SUNPOU
100
AcDbDimension
  2
*D58
 10
2202.792951158925
 20
673.0315951273986
 30
0.0
 11
2110.49620446056
 21
658.0662461712454
 31
0.0
 70
   160
 71
     5
 42
29.99999999999989
  3
S-15
100
AcDbAlignedDimension
 13
1912.040349784716
 23
643.0315951273988
 33
0.0
 14
1572.040349784716
 24
673.0315951273988
 34
0.0
 50
90.0
100
AcDbRotatedDimension
  0
DIMENSION
  5
F00
330
17
100
AcDbEntity
  8
SUNPOU
100
AcDbDimension
  2
*D59
 10
2202.792951158925
 20
773.0315951273986
 30
0.0
 11
2168.292951158925
 21
723.031595127399
 31
0.0
 70
    32
 71
     5
 42
100.0
  3
S-15
100
AcDbAlignedDimension
 13
1572.040349784716
 23
673.0315951273988
 33
0.0
 14
1472.040349784716
 24
773.0315951273988
 34
0.0
 50
90.0
100
AcDbRotatedDimension
  0
DIMENSION
  5
F01
330
17
100
AcDbEntity
  8
SUNPOU
100
AcDbDimension
  2
*D60
 10
1912.040349784716
 20
301.1249300793352
 30
0.0
 11
1612.040349784716
 21
335.6249300793352
 31
0.0
 70
    32
 71
     5
 42
600.0
  3
S-15
100
AcDbAlignedDimension
 13
1312.040349784716
 23
573.0315951273988
 33
0.0
 14
1912.040349784716
 24
573.0315951273988
 34
0.0
100
AcDbRotatedDimension
1001
ACAD
1000
DSTYLE
1002
{
1070
   279
1070
     0
1002
}
  0
CIRCLE
  5
F02
330
17
100
AcDbEntity
  8
SEIHIN
100
AcDbCircle
 10
1597.040349784716
 20
863.0315951273988
 30
0.0
 40
17.5
  0
LINE
  5
F03
330
17
100
AcDbEntity
  8
1HASEN
 48
0.5
100
AcDbLine
 10
1360.752858703967
 20
873.0315951273988
 30
0.0
 11
1531.086322646424
 21
873.0315951273988
 31
0.0
  0
LINE
  5
F04
330
17
100
AcDbEntity
  8
HASEN
100
AcDbLine
 10
1394.540349784716
 20
848.0315951273988
 30
0.0
 11
1493.517622511988
 21
860.5315951273988
 31
0.0
  0
LINE
  5
F05
330
17
100
AcDbEntity
  8
HASEN
100
AcDbLine
 10
1409.540349784716
 20
898.0315951273988
 30
0.0
 11
1499.653986148352
 21
885.5315951273988
 31
0.0
  0
DIMENSION
  5
F06
330
17
100
AcDbEntity
  8
SUNPOU
100
AcDbDimension
  2
*D61
 10
1607.040349784716
 20
1542.247068150169
 30
0.0
 11
1572.040349784716
 21
1576.747068150169
 31
0.0
 70
    32
 71
     5
 42
70.0
  3
S-15
100
AcDbAlignedDimension
 13
1537.040349784716
 23
1323.031595127399
 33
0.0
 14
1607.040349784716
 24
1323.031595127399
 34
0.0
100
AcDbRotatedDimension
  0
DIMENSION
  5
F07
330
17
100
AcDbEntity
  8
SUNPOU
100
AcDbDimension
  2
*D62
 10
1150.76379241161
 20
873.0315951273989
 30
0.0
 11
1116.26379241161
 21
723.031595127399
 31
0.0
 70
    32
 71
     5
 42
300.0
  3
S-15
100
AcDbAlignedDimension
 13
1312.040349784716
 23
573.0315951273988
 33
0.0
 14
1360.752858703967
 24
873.0315951273988
 34
0.0
 50
90.0
100
AcDbRotatedDimension
  0
DIMENSION
  5
F08
330
17
100
AcDbEntity
  8
SUNPOU
100
AcDbDimension
  2
*D63
 10
1472.040349784716
 20
958.0296543149307
 30
0.0
 11
1522.040349784716
 21
992.5296543149307
 31
0.0
 70
    32
 71
     5
 42
100.0
  3
S-15
100
AcDbAlignedDimension
 13
1572.040349784716
 23
673.0315951273988
 33
0.0
 14
1472.040349784716
 24
773.0315951273988
 34
0.0
100
AcDbRotatedDimension
  0
DIMENSION
  5
F09
330
17
100
AcDbEntity
  8
SUNPOU
100
AcDbDimension
  2
*D64
 10
1372.040349784716
 20
958.0296543149307
 30
0.0
 11
1422.040349784716
 21
992.5296543149307
 31
0.0
 70
    32
 71
     5
 42
100.0
  3
S-15
100
AcDbAlignedDimension
 13
1472.040349784716
 23
773.0315951273988
 33
0.0
 14
1372.040349784716
 24
773.0315951273988
 34
0.0
100
AcDbRotatedDimension
  0
TEXT
  5
F0E
330
17
100
AcDbEntity
  8
SUNPOU
100
AcDbText
 10
1445.781765515322
 20
1086.455290358916
 30
0.0
 40
45.0
  1
1:0.3
 50
73.30075576601013
 41
0.8
100
AcDbText
  0
LINE
  5
F11
330
17
100
AcDbEntity
  8
SEIHIN
100
AcDbLine
 10
2947.035001171076
 20
573.0315951273988
 30
0.0
 11
2947.035001171076
 21
1323.031595127399
 31
0.0
  0
LINE
  5
F12
330
17
100
AcDbEntity
  8
SEIHIN
100
AcDbLine
 10
2947.035001171076
 20
1323.031595127399
 30
0.0
 11
4947.035001171076
 21
1323.031595127399
 31
0.0
  0
LINE
  5
F13
330
17
100
AcDbEntity
  8
SEIHIN
100
AcDbLine
 10
4947.035001171076
 20
573.0315951273988
 30
0.0
 11
4947.035001171076
 21
1323.031595127399
 31
0.0
  0
LINE
  5
F14
330
17
100
AcDbEntity
  8
SEIHIN
100
AcDbLine
 10
2947.035001171076
 20
573.0315951273988
 30
0.0
 11
4947.035001171076
 21
573.0315951273988
 31
0.0
  0
LINE
  5
F15
330
17
100
AcDbEntity
  8
1HASEN
100
AcDbLine
 10
3697.035001171076
 20
1323.031595127399
 30
0.0
 11
3697.035001171076
 21
573.0315951273988
 31
0.0
  0
LINE
  5
F16
330
17
100
AcDbEntity
  8
SEIHIN
100
AcDbLine
 10
3732.035001171076
 20
1323.031595127399
 30
0.0
 11
3732.035001171077
 21
643.0315951273988
 31
0.0
  0
LINE
  5
F17
330
17
100
AcDbEntity
  8
SEIHIN
100
AcDbLine
 10
3662.035001171076
 20
1323.031595127399
 30
0.0
 11
3662.035001171077
 21
643.0315951273988
 31
0.0
  0
LINE
  5
F18
330
17
100
AcDbEntity
  8
SEIHIN
100
AcDbLine
 10
2947.035001171076
 20
643.0315951273988
 30
0.0
 11
4947.035001171076
 21
643.0315951273988
 31
0.0
  0
LINE
  5
F19
330
17
100
AcDbEntity
  8
SEIHIN
100
AcDbLine
 10
2947.035001171076
 20
673.0315951273988
 30
0.0
 11
3152.035001171077
 21
673.0315951273988
 31
0.0
  0
LINE
  5
F1A
330
17
100
AcDbEntity
  8
SEIHIN
100
AcDbLine
 10
3242.035001171075
 20
673.0315951273988
 30
0.0
 11
3652.035001171078
 21
673.0315951273983
 31
0.0
  0
LINE
  5
F1B
330
17
100
AcDbEntity
  8
SEIHIN
100
AcDbLine
 10
3742.035001171075
 20
673.0315951273983
 30
0.0
 11
4152.035001171077
 21
673.0315951273983
 31
0.0
  0
LINE
  5
F1C
330
17
100
AcDbEntity
  8
SEIHIN
100
AcDbLine
 10
4242.035001171075
 20
673.0315951273988
 30
0.0
 11
4652.035001171076
 21
673.0315951273988
 31
0.0
  0
LINE
  5
F1D
330
17
100
AcDbEntity
  8
SEIHIN
100
AcDbLine
 10
4742.035001171075
 20
673.0315951273988
 30
0.0
 11
4947.035001171076
 21
673.0315951273988
 31
0.0
  0
LINE
  5
F1E
330
17
100
AcDbEntity
  8
SEIHIN
100
AcDbLine
 10
2947.035001171076
 20
773.0315951273988
 30
0.0
 11
3153.573462709538
 21
773.0315951273988
 31
0.0
  0
LINE
  5
F1F
330
17
100
AcDbEntity
  8
SEIHIN
100
AcDbLine
 10
3240.496539632614
 20
773.0315951273988
 30
0.0
 11
3653.573462709538
 21
773.0315951273992
 31
0.0
  0
LINE
  5
F20
330
17
100
AcDbEntity
  8
SEIHIN
100
AcDbLine
 10
3740.496539632614
 20
773.0315951273992
 30
0.0
 11
4153.573462709538
 21
773.0315951273992
 31
0.0
  0
LINE
  5
F21
330
17
100
AcDbEntity
  8
SEIHIN
100
AcDbLine
 10
4240.496539632613
 20
773.0315951273992
 30
0.0
 11
4653.573462709538
 21
773.0315951273992
 31
0.0
  0
LINE
  5
F22
330
17
100
AcDbEntity
  8
SEIHIN
100
AcDbLine
 10
4740.496539632614
 20
773.0315951273992
 30
0.0
 11
4947.035001171076
 21
773.0315951273988
 31
0.0
  0
LINE
  5
F23
330
17
100
AcDbEntity
  8
SEIHIN
100
AcDbLine
 10
3662.035001171077
 20
643.0315951273988
 30
0.0
 11
3652.035001171077
 21
673.0315951273988
 31
0.0
  0
LINE
  5
F24
330
17
100
AcDbEntity
  8
SEIHIN
100
AcDbLine
 10
3652.035001171077
 20
673.0315951273988
 30
0.0
 11
3662.035001171076
 21
1323.031595127399
 31
0.0
  0
LINE
  5
F25
330
17
100
AcDbEntity
  8
SEIHIN
100
AcDbLine
 10
3732.035001171075
 20
643.0315951273988
 30
0.0
 11
3742.035001171075
 21
673.0315951273988
 31
0.0
  0
LINE
  5
F26
330
17
100
AcDbEntity
  8
SEIHIN
100
AcDbLine
 10
3742.035001171075
 20
673.0315951273988
 30
0.0
 11
3732.035001171076
 21
1323.031595127399
 31
0.0
  0
LINE
  5
F27
330
17
100
AcDbEntity
  8
1HASEN
100
AcDbLine
 10
3197.035001171076
 20
1323.031595127399
 30
0.0
 11
3197.035001171076
 21
573.0315951273988
 31
0.0
  0
LINE
  5
F28
330
17
100
AcDbEntity
  8
SEIHIN
100
AcDbLine
 10
3232.035001171076
 20
1323.031595127399
 30
0.0
 11
3232.035001171077
 21
643.0315951273988
 31
0.0
  0
LINE
  5
F29
330
17
100
AcDbEntity
  8
SEIHIN
100
AcDbLine
 10
3162.035001171076
 20
1323.031595127399
 30
0.0
 11
3162.035001171077
 21
643.0315951273988
 31
0.0
  0
LINE
  5
F2A
330
17
100
AcDbEntity
  8
SEIHIN
100
AcDbLine
 10
3162.035001171077
 20
643.0315951273988
 30
0.0
 11
3152.035001171077
 21
673.0315951273988
 31
0.0
  0
LINE
  5
F2B
330
17
100
AcDbEntity
  8
SEIHIN
100
AcDbLine
 10
3152.035001171077
 20
673.0315951273988
 30
0.0
 11
3162.035001171076
 21
1323.031595127399
 31
0.0
  0
LINE
  5
F2C
330
17
100
AcDbEntity
  8
SEIHIN
100
AcDbLine
 10
3232.035001171075
 20
643.0315951273988
 30
0.0
 11
3242.035001171075
 21
673.0315951273988
 31
0.0
  0
LINE
  5
F2D
330
17
100
AcDbEntity
  8
SEIHIN
100
AcDbLine
 10
3242.035001171075
 20
673.0315951273988
 30
0.0
 11
3232.035001171076
 21
1323.031595127399
 31
0.0
  0
LINE
  5
F2E
330
17
100
AcDbEntity
  8
1HASEN
100
AcDbLine
 10
4197.035001171076
 20
1323.031595127399
 30
0.0
 11
4197.035001171076
 21
573.0315951273988
 31
0.0
  0
LINE
  5
F2F
330
17
100
AcDbEntity
  8
SEIHIN
100
AcDbLine
 10
4162.035001171076
 20
1323.031595127399
 30
0.0
 11
4162.035001171075
 21
643.0315951273988
 31
0.0
  0
LINE
  5
F30
330
17
100
AcDbEntity
  8
SEIHIN
100
AcDbLine
 10
4232.035001171076
 20
1323.031595127399
 30
0.0
 11
4232.035001171075
 21
643.0315951273988
 31
0.0
  0
LINE
  5
F31
330
17
100
AcDbEntity
  8
SEIHIN
100
AcDbLine
 10
4232.035001171075
 20
643.0315951273988
 30
0.0
 11
4242.035001171075
 21
673.0315951273988
 31
0.0
  0
LINE
  5
F32
330
17
100
AcDbEntity
  8
SEIHIN
100
AcDbLine
 10
4242.035001171075
 20
673.0315951273988
 30
0.0
 11
4232.035001171076
 21
1323.031595127399
 31
0.0
  0
LINE
  5
F33
330
17
100
AcDbEntity
  8
SEIHIN
100
AcDbLine
 10
4162.035001171077
 20
643.0315951273988
 30
0.0
 11
4152.035001171077
 21
673.0315951273988
 31
0.0
  0
LINE
  5
F34
330
17
100
AcDbEntity
  8
SEIHIN
100
AcDbLine
 10
4152.035001171077
 20
673.0315951273988
 30
0.0
 11
4162.035001171076
 21
1323.031595127399
 31
0.0
  0
LINE
  5
F35
330
17
100
AcDbEntity
  8
1HASEN
100
AcDbLine
 10
4697.035001171076
 20
1323.031595127399
 30
0.0
 11
4697.035001171076
 21
573.0315951273988
 31
0.0
  0
LINE
  5
F36
330
17
100
AcDbEntity
  8
SEIHIN
100
AcDbLine
 10
4662.035001171076
 20
1323.031595127399
 30
0.0
 11
4662.035001171075
 21
643.0315951273988
 31
0.0
  0
LINE
  5
F37
330
17
100
AcDbEntity
  8
SEIHIN
100
AcDbLine
 10
4732.035001171076
 20
1323.031595127399
 30
0.0
 11
4732.035001171075
 21
643.0315951273988
 31
0.0
  0
LINE
  5
F38
330
17
100
AcDbEntity
  8
SEIHIN
100
AcDbLine
 10
4732.035001171075
 20
643.0315951273988
 30
0.0
 11
4742.035001171075
 21
673.0315951273988
 31
0.0
  0
LINE
  5
F39
330
17
100
AcDbEntity
  8
SEIHIN
100
AcDbLine
 10
4742.035001171075
 20
673.0315951273988
 30
0.0
 11
4732.035001171076
 21
1323.031595127399
 31
0.0
  0
LINE
  5
F3A
330
17
100
AcDbEntity
  8
SEIHIN
100
AcDbLine
 10
4662.035001171077
 20
643.0315951273988
 30
0.0
 11
4652.035001171077
 21
673.0315951273988
 31
0.0
  0
LINE
  5
F3B
330
17
100
AcDbEntity
  8
SEIHIN
100
AcDbLine
 10
4652.035001171077
 20
673.0315951273988
 30
0.0
 11
4662.035001171076
 21
1323.031595127399
 31
0.0
  0
TEXT
  5
F3C
330
17
100
AcDbEntity
  8
SUNPOU
100
AcDbText
 10
1032.31672756336
 20
1631.80791070022
 30
0.0
 40
60.0
  1
断面図
 41
0.8
100
AcDbText
  0
TEXT
  5
F3D
330
17
100
AcDbEntity
  8
SUNPOU
100
AcDbText
 10
2638.457779291282
 20
1631.80791070022
 30
0.0
 40
60.0
  1
L=2000
 41
0.8
100
AcDbText
  0
DIMENSION
  5
F3E
330
17
100
AcDbEntity
  8
SUNPOU
100
AcDbDimension
  2
*D68
 10
3197.035001171076
 20
1473.212730154439
 30
0.0
 11
3072.035001171076
 21
1507.712730154439
 31
0.0
 70
    32
 71
     5
 42
250.0
  3
S-15
100
AcDbAlignedDimension
 13
2947.035001171076
 23
1323.031595127399
 33
0.0
 14
3197.035001171076
 24
1323.031595127399
 34
0.0
100
AcDbRotatedDimension
  0
DIMENSION
  5
F3F
330
17
100
AcDbEntity
  8
SUNPOU
100
AcDbDimension
  2
*D69
 10
3697.035001171076
 20
1473.212730154439
 30
0.0
 11
3447.035001171076
 21
1507.712730154439
 31
0.0
 70
    32
 71
     5
 42
500.0
  3
S-15
100
AcDbAlignedDimension
 13
3197.035001171076
 23
1323.031595127399
 33
0.0
 14
3697.035001171076
 24
1323.031595127399
 34
0.0
100
AcDbRotatedDimension
  0
DIMENSION
  5
F40
330
17
100
AcDbEntity
  8
SUNPOU
100
AcDbDimension
  2
*D70
 10
4197.035001171076
 20
1473.212730154439
 30
0.0
 11
3947.035001171076
 21
1507.712730154439
 31
0.0
 70
    32
 71
     5
 42
500.0
  3
S-15
100
AcDbAlignedDimension
 13
3697.035001171076
 23
1323.031595127399
 33
0.0
 14
4197.035001171076
 24
1323.031595127399
 34
0.0
100
AcDbRotatedDimension
  0
DIMENSION
  5
F41
330
17
100
AcDbEntity
  8
SUNPOU
100
AcDbDimension
  2
*D71
 10
4697.035001171076
 20
1473.212730154439
 30
0.0
 11
4822.035001171076
 21
1507.712730154439
 31
0.0
 70
    32
 71
     5
 42
250.0
  3
S-15
100
AcDbAlignedDimension
 13
4947.035001171076
 23
1323.031595127399
 33
0.0
 14
4697.035001171076
 24
1323.031595127399
 34
0.0
 50
180.0
100
AcDbRotatedDimension
  0
DIMENSION
  5
F42
330
17
100
AcDbEntity
  8
SUNPOU
100
AcDbDimension
  2
*D72
 10
4197.035001171076
 20
1473.212730154439
 30
0.0
 11
4447.035001171076
 21
1507.712730154439
 31
0.0
 70
    32
 71
     5
 42
500.0
  3
S-15
100
AcDbAlignedDimension
 13
4697.035001171076
 23
1323.031595127399
 33
0.0
 14
4197.035001171076
 24
1323.031595127399
 34
0.0
 50
180.0
100
AcDbRotatedDimension
  0
DIMENSION
  5
F43
330
17
100
AcDbEntity
  8
SUNPOU
100
AcDbDimension
  2
*D73
 10
4947.035001171076
 20
1566.386162455132
 30
0.0
 11
3947.035001171076
 21
1600.886162455132
 31
0.0
 70
    32
 71
     5
 42
2000.0
  3
S-15
100
AcDbAlignedDimension
 13
2947.035001171076
 23
1323.031595127399
 33
0.0
 14
4947.035001171076
 24
1323.031595127399
 34
0.0
100
AcDbRotatedDimension
  0
CIRCLE
  5
F47
330
17
100
AcDbEntity
  8
SUNPOU
100
AcDbCircle
 10
3947.035001171076
 20
873.0315951273988
 30
0.0
 40
12.5
  0
CIRCLE
  5
F48
330
17
100
AcDbEntity
  8
SUNPOU
100
AcDbCircle
 10
3947.035001171076
 20
873.0315951273988
 30
0.0
 40
25.0
  0
CIRCLE
  5
F49
330
17
100
AcDbEntity
  8
SUNPOU
100
AcDbCircle
 10
4447.035001171076
 20
873.0315951273988
 30
0.0
 40
12.5
  0
CIRCLE
  5
F4A
330
17
100
AcDbEntity
  8
SUNPOU
100
AcDbCircle
 10
4447.035001171076
 20
873.0315951273988
 30
0.0
 40
25.0
  0
CIRCLE
  5
F4B
330
17
100
AcDbEntity
  8
SUNPOU
100
AcDbCircle
 10
3447.035001171076
 20
873.0315951273988
 30
0.0
 40
12.5
  0
CIRCLE
  5
F4C
330
17
100
AcDbEntity
  8
SUNPOU
100
AcDbCircle
 10
3447.035001171076
 20
873.0315951273988
 30
0.0
 40
25.0
  0
LINE
  5
F4D
330
17
100
AcDbEntity
  8
HASEN
 48
0.5
100
AcDbLine
 10
3162.035001171077
 20
845.5315951273983
 30
0.0
 11
3232.035001171077
 21
845.5315951273983
 31
0.0
  0
LINE
  5
F4E
330
17
100
AcDbEntity
  8
HASEN
 48
0.5
100
AcDbLine
 10
3162.035001171077
 20
880.5315951273988
 30
0.0
 11
3232.035001171077
 21
880.5315951273988
 31
0.0
  0
LINE
  5
F4F
330
17
100
AcDbEntity
  8
HASEN
 48
0.5
100
AcDbLine
 10
3662.035001171077
 20
845.5315951273983
 30
0.0
 11
3732.035001171077
 21
845.5315951273983
 31
0.0
  0
LINE
  5
F50
330
17
100
AcDbEntity
  8
HASEN
 48
0.5
100
AcDbLine
 10
3662.035001171077
 20
880.5315951273988
 30
0.0
 11
3732.035001171077
 21
880.5315951273988
 31
0.0
  0
LINE
  5
F51
330
17
100
AcDbEntity
  8
HASEN
 48
0.5
100
AcDbLine
 10
4162.035001171077
 20
845.5315951273983
 30
0.0
 11
4232.035001171077
 21
845.5315951273983
 31
0.0
  0
LINE
  5
F52
330
17
100
AcDbEntity
  8
HASEN
 48
0.5
100
AcDbLine
 10
4162.035001171076
 20
880.5315951273988
 30
0.0
 11
4232.035001171077
 21
880.5315951273988
 31
0.0
  0
LINE
  5
F53
330
17
100
AcDbEntity
  8
HASEN
 48
0.5
100
AcDbLine
 10
4662.035001171077
 20
845.5315951273983
 30
0.0
 11
4732.035001171077
 21
845.5315951273983
 31
0.0
  0
LINE
  5
F54
330
17
100
AcDbEntity
  8
HASEN
 48
0.5
100
AcDbLine
 10
4662.035001171076
 20
880.5315951273988
 30
0.0
 11
4732.035001171077
 21
880.5315951273988
 31
0.0
  0
TEXT
  5
111A
330
17
100
AcDbEntity
  8
0
100
AcDbText
 10
907.1495193276132
 20
1973.711099410375
 30
0.0
 40
135.0
  1
法先ブロック
 41
0.8
100
AcDbText
  0
TEXT
  5
111B
330
17
100
AcDbEntity
  8
0
100
AcDbText
 10
1905.480411430315
 20
1973.711099410375
 30
0.0
 40
135.0
  1
H-750
 41
0.8
100
AcDbText
  0
ENDSEC
  0
SECTION
  2
OBJECTS
  0
DICTIONARY
  5
C
330
0
100
AcDbDictionary
281
     1
  3
ACAD_CIP_PREVIOUS_PRODUCT_INFO
350
D8B
  3
ACAD_COLOR
350
9D
  3
ACAD_DETAILVIEWSTYLE
350
D86
  3
ACAD_GROUP
350
D
  3
ACAD_LAYOUT
350
68
  3
ACAD_MATERIAL
350
9C
  3
ACAD_MLEADERSTYLE
350
D82
  3
ACAD_MLINESTYLE
350
1A
  3
ACAD_PLOTSETTINGS
350
69
  3
ACAD_PLOTSTYLENAME
350
66
  3
ACAD_SCALELIST
350
D70
  3
ACAD_SECTIONVIEWSTYLE
350
D84
  3
ACAD_TABLESTYLE
350
9E
  3
ACAD_VISUALSTYLE
350
D57
  3
ACDB_RECOMPOSE_DATA
350
118E
  3
AcDbVariableDictionary
350
99
  3
AcDsDecomposeData
350
113E
  0
DICTIONARY
  5
1183
330
8
100
AcDbDictionary
280
     1
281
     1
  3
ACAD_XREC_ROUNDTRIP
360
1184
  0
DICTIONARY
  5
3AF
330
2
100
AcDbDictionary
280
     1
281
     1
  3
ACAD_LAYERSTATES
360
3B0
  0
DICTIONARY
  5
111D
330
E
100
AcDbDictionary
280
     1
281
     1
  3
ADSK_XREC_LAYER_RECONCILED
360
111E
  0
DICTIONARY
  5
111F
330
23
100
AcDbDictionary
280
     1
281
     1
  3
ADSK_XREC_LAYER_RECONCILED
360
1120
  0
DICTIONARY
  5
1121
330
24
100
AcDbDictionary
280
     1
281
     1
  3
ADSK_XREC_LAYER_RECONCILED
360
1122
  0
DICTIONARY
  5
1123
330
25
100
AcDbDictionary
280
     1
281
     1
  3
ADSK_XREC_LAYER_RECONCILED
360
1124
  0
DICTIONARY
  5
1125
330
26
100
AcDbDictionary
280
     1
281
     1
  3
ADSK_XREC_LAYER_RECONCILED
360
1126
  0
DICTIONARY
  5
1127
330
27
100
AcDbDictionary
280
     1
281
     1
  3
ADSK_XREC_LAYER_RECONCILED
360
1128
  0
DICTIONARY
  5
1129
330
28
100
AcDbDictionary
280
     1
281
     1
  3
ADSK_XREC_LAYER_RECONCILED
360
112A
  0
DICTIONARY
  5
112B
330
29
100
AcDbDictionary
280
     1
281
     1
  3
ADSK_XREC_LAYER_RECONCILED
360
112C
  0
DICTIONARY
  5
112D
330
2A
100
AcDbDictionary
280
     1
281
     1
  3
ADSK_XREC_LAYER_RECONCILED
360
112E
  0
DICTIONARY
  5
95
330
17
100
AcDbDictionary
280
     1
281
     1
  3
ACAD_SORTENTS
360
421
  0
XRECORD
  5
D8B
102
{ACAD_REACTORS
330
C
102
}
330
C
100
AcDbXrecord
280
     1
300
ACD
300
2014
300
ACD_F_S
  0
DICTIONARY
  5
9D
102
{ACAD_REACTORS
330
C
102
}
330
C
100
AcDbDictionary
281
     1
  0
DICTIONARY
  5
D86
102
{ACAD_REACTORS
330
C
102
}
330
C
100
AcDbDictionary
281
     1
  3
Imperial24
350
D87
  0
DICTIONARY
  5
D
102
{ACAD_REACTORS
330
C
102
}
330
C
100
AcDbDictionary
281
     1
  0
DICTIONARY
  5
68
102
{ACAD_REACTORS
330
C
102
}
330
C
100
AcDbDictionary
281
     1
  3
Model
350
6A
  3
ﾚｲｱｳﾄ1
350
6B
  0
DICTIONARY
  5
9C
102
{ACAD_REACTORS
330
C
102
}
330
C
100
AcDbDictionary
281
     1
  3
ByBlock
350
D47
  3
ByLayer
350
D3F
  3
Global
350
D4F
  0
DICTIONARY
  5
D82
102
{ACAD_REACTORS
330
C
102
}
330
C
100
AcDbDictionary
281
     1
  3
Standard
350
D83
  0
DICTIONARY
  5
1A
102
{ACAD_REACTORS
330
C
102
}
330
C
100
AcDbDictionary
281
     1
  3
STANDARD
350
1B
  0
DICTIONARY
  5
69
102
{ACAD_REACTORS
330
C
102
}
330
C
100
AcDbDictionary
281
     1
  0
ACDBDICTIONARYWDFLT
  5
66
102
{ACAD_REACTORS
330
C
102
}
330
C
100
AcDbDictionary
281
     1
  3
Normal
350
67
100
AcDbDictionaryWithDefault
340
67
  0
DICTIONARY
  5
D70
102
{ACAD_REACTORS
330
C
102
}
330
C
100
AcDbDictionary
281
     1
  3
A0
350
D71
  3
A1
350
D72
  3
A2
350
D73
  3
A3
350
D74
  3
A4
350
D75
  3
A5
350
D76
  3
A6
350
D77
  3
A7
350
D78
  3
A8
350
D79
  3
A9
350
D7A
  3
B0
350
D7B
  3
B1
350
D7C
  3
B2
350
D7D
  3
B3
350
D7E
  3
B4
350
D7F
  3
B5
350
D80
  3
B6
350
D81
  0
DICTIONARY
  5
D84
102
{ACAD_REACTORS
330
C
102
}
330
C
100
AcDbDictionary
281
     1
  3
Imperial24
350
D85
  0
DICTIONARY
  5
9E
102
{ACAD_REACTORS
330
C
102
}
330
C
100
AcDbDictionary
281
     1
  3
Standard
350
9F
  0
DICTIONARY
  5
D57
102
{ACAD_REACTORS
330
C
102
}
330
C
100
AcDbDictionary
281
     1
  3
2dWireframe
350
D5D
  3
Basic
350
D5C
  3
Brighten
350
D63
  3
ColorChange
350
D67
  3
Conceptual
350
D60
  3
Dim
350
D62
  3
EdgeColorOff
350
D6F
  3
Facepattern
350
D66
  3
Flat
350
D58
  3
FlatWithEdges
350
D59
  3
Gouraud
350
D5A
  3
GouraudWithEdges
350
D5B
  3
Hidden
350
D5F
  3
JitterOff
350
D6D
  3
Linepattern
350
D65
  3
OverhangOff
350
D6E
  3
Realistic
350
D61
  3
Shaded
350
D6C
  3
Shaded with edges
350
D6B
  3
Shades of Gray
350
D68
  3
Sketchy
350
D69
  3
Thicken
350
D64
  3
Wireframe
350
D5E
  3
X-Ray
350
D6A
  0
XRECORD
  5
118E
102
{ACAD_REACTORS
330
C
102
}
330
C
100
AcDbXrecord
280
     1
 90
        1
330
9F
  0
DICTIONARY
  5
99
102
{ACAD_REACTORS
330
C
102
}
330
C
100
AcDbDictionary
281
     1
  3
CANNOSCALE
350
117E
  3
CMLEADERSTYLE
350
117A
  3
CTABLESTYLE
350
538
  3
CVIEWDETAILSTYLE
350
117B
  3
CVIEWSECTIONSTYLE
350
117C
  3
DIMASSOC
350
9A
  3
LAYEREVAL
350
1180
  3
LAYERNOTIFY
350
1181
  3
LIGHTINGUNITS
350
117F
  3
MSLTSCALE
350
117D
  3
PROJECTNAME
350
AA8
  3
XCLIPFRAME
350
1182
  0
DICTIONARY
  5
113E
102
{ACAD_REACTORS
330
C
102
}
330
C
100
AcDbDictionary
281
     1
  3
AcDsRecords
350
1140
  3
AcDsSchemas
350
113F
1001
ACAD
1070
     2
  0
XRECORD
  5
1184
102
{ACAD_REACTORS
330
1183
102
}
330
1183
100
AcDbXrecord
280
     1
102
VTR_0.000_0.000_1.000_1.000_VISUALSTYLE
340
D5D
102
VTR_0.000_0.000_1.000_1.000_GRIDDISPLAY
 70
     3
102
VTR_0.000_0.000_1.000_1.000_GRIDMAJOR
 70
     5
102
VTR_0.000_0.000_1.000_1.000_DEFAULTLIGHTING
280
     1
102
VTR_0.000_0.000_1.000_1.000_DEFAULTLIGHTINGTYPE
 70
     1
102
VTR_0.000_0.000_1.000_1.000_BRIGHTNESS
141
0.0
102
VTR_0.000_0.000_1.000_1.000_CONTRAST
142
0.0
  0
DICTIONARY
  5
3B0
102
{ACAD_REACTORS
330
3AF
102
}
330
3AF
100
AcDbDictionary
281
     1
  0
XRECORD
  5
111E
102
{ACAD_REACTORS
330
111D
102
}
330
111D
100
AcDbXrecord
280
     1
290
     1
  0
XRECORD
  5
1120
102
{ACAD_REACTORS
330
111F
102
}
330
111F
100
AcDbXrecord
280
     1
290
     1
  0
XRECORD
  5
1122
102
{ACAD_REACTORS
330
1121
102
}
330
1121
100
AcDbXrecord
280
     1
290
     1
  0
XRECORD
  5
1124
102
{ACAD_REACTORS
330
1123
102
}
330
1123
100
AcDbXrecord
280
     1
290
     1
  0
XRECORD
  5
1126
102
{ACAD_REACTORS
330
1125
102
}
330
1125
100
AcDbXrecord
280
     1
290
     1
  0
XRECORD
  5
1128
102
{ACAD_REACTORS
330
1127
102
}
330
1127
100
AcDbXrecord
280
     1
290
     1
  0
XRECORD
  5
112A
102
{ACAD_REACTORS
330
1129
102
}
330
1129
100
AcDbXrecord
280
     1
290
     1
  0
XRECORD
  5
112C
102
{ACAD_REACTORS
330
112B
102
}
330
112B
100
AcDbXrecord
280
     1
290
     1
  0
XRECORD
  5
112E
102
{ACAD_REACTORS
330
112D
102
}
330
112D
100
AcDbXrecord
280
     1
290
     1
  0
SORTENTSTABLE
  5
421
102
{ACAD_REACTORS
330
95
102
}
330
95
100
AcDbSortentsTable
330
17
331
0
  5
9AF
331
3BE
  5
3BE
331
3C0
  5
3C0
331
3C1
  5
3C1
331
3C4
  5
3C4
331
3C5
  5
3C5
331
3C6
  5
3C6
331
3D4
  5
3D4
331
411
  5
411
331
41E
  5
41E
331
41F
  5
41F
331
425
  5
425
331
426
  5
426
331
42F
  5
42F
331
521
  5
521
331
527
  5
527
331
528
  5
528
331
529
  5
529
331
52A
  5
52A
331
52E
  5
530
331
556
  5
556
331
558
  5
558
331
5C8
  5
5C8
331
5D5
  5
5D5
331
5E2
  5
5E2
331
5F8
  5
5F8
331
5F9
  5
5F9
331
624
  5
624
331
772
  5
772
331
773
  5
773
331
774
  5
774
331
775
  5
775
331
776
  5
776
331
777
  5
777
331
971
  5
971
331
973
  5
973
331
AB4
  5
AB4
331
AB5
  5
AB5
331
AB8
  5
AB8
331
AC5
  5
AC5
331
B1A
  5
B1A
331
B29
  5
B29
331
B37
  5
B37
331
B5D
  5
B5D
331
B5E
  5
B61
331
B5F
  5
B5E
331
B63
  5
B63
331
B64
  5
B68
331
B65
  5
B69
331
B66
  5
B6A
331
B67
  5
B6B
331
B68
  5
B6C
331
B69
  5
B6D
331
B6A
  5
B6E
331
B6B
  5
B6F
331
B6C
  5
B70
331
B6D
  5
B71
331
B6E
  5
B72
331
B6F
  5
B73
331
B70
  5
B74
331
B71
  5
B75
331
B72
  5
B76
331
B73
  5
B77
331
B74
  5
B78
331
B75
  5
B79
331
B76
  5
B7A
331
B77
  5
B7B
331
B78
  5
B7C
331
B79
  5
B9B
331
B7A
  5
B9C
331
B7B
  5
B9D
331
B7C
  5
B9E
331
B9B
  5
B64
331
B9C
  5
B65
331
B9D
  5
B66
331
B9E
  5
B67
331
D23
  5
D24
331
D24
  5
D23
  0
ACAD_PROXY_OBJECT
  5
D87
102
{ACAD_REACTORS
330
D86
102
}
102
{ACAD_XDICTIONARY
360
1178
102
}
330
D86
100
AcDbProxyObject
 90
      499
 91
      515
 95
  3276827
 70
     0
 93
     2314
310
9207000000180005C0F42F5A8DC671F815AF46E07A15AE7E07000000180005C0F42F5A8DC671FA3300000018001000000180005C0F42F5A8DC671FA02000000000000741FA028CC00000060002330000001800000852480368038003280390034803080360019001A004AD12801E002E00208031802B003080390010002B00
310
348032803B802A003C803800328010002E0033001000110012803A003180188011001F001280100012801E002E00208031802B003080390010002B00348032803B80220032803A00308034803600248032001F0012802E00280029802180208026002280100012801E002E00208031802B003080390010002B00348032803B
310
802980318030803600328010002E0033001000110012803980370011001F0012802B0375
340
F
340
0
340
13
340
F
340
13
340
13
 94
        0
  0
LAYOUT
  5
6A
102
{ACAD_REACTORS
330
68
102
}
102
{ACAD_XDICTIONARY
360
1141
102
}
330
68
100
AcDbPlotSettings
  1

  2
RICOH IPSiO NX850 RPCS
  4

  6

 40
0.0
 41
0.0
 42
0.0
 43
0.0
 44
0.0
 45
0.0
 46
0.0
 47
0.0
 48
0.0
 49
0.0
140
0.0
141
0.0
142
1.0
143
1.0
 70
 11952
 72
     0
 73
     1
 74
     0
  7
acad.ctb
 75
     0
 76
     0
 77
     2
 78
   300
147
1.0
148
-36525.67764980121
149
20399.59755978563
100
AcDbLayout
  1
Model
 70
     1
 71
     0
 10
0.0
 20
0.0
 11
12.0
 21
9.0
 12
0.0
 22
0.0
 32
0.0
 14
0.0
 24
0.0
 34
0.0
 15
0.0
 25
0.0
 35
0.0
146
0.0
 13
0.0
 23
0.0
 33
0.0
 16
1.0
 26
0.0
 36
0.0
 17
0.0
 27
1.0
 37
0.0
 76
     0
330
17
331
D3D
  0
LAYOUT
  5
6B
102
{ACAD_REACTORS
330
68
102
}
330
68
100
AcDbPlotSettings
  1

  2
RICOH IPSiO NX850 RPCS
  4

  6

 40
0.0
 41
0.0
 42
0.0
 43
0.0
 44
0.0
 45
0.0
 46
0.0
 47
0.0
 48
0.0
 49
0.0
140
0.0
141
0.0
142
1.0
143
1.0
 70
   688
 72
     0
 73
     0
 74
     5
  7
aclt.ctb
 75
    16
 76
     0
 77
     2
 78
   300
147
1.0
148
0.0
149
0.0
100
AcDbLayout
  1
ﾚｲｱｳﾄ1
 70
     0
 71
     1
 10
0.0
 20
0.0
 11
12.0
 21
9.0
 12
0.0
 22
0.0
 32
0.0
 14
1.000000000000000E+20
 24
1.000000000000000E+20
 34
1.000000000000000E+20
 15
-1.000000000000000E+20
 25
-1.000000000000000E+20
 35
-1.000000000000000E+20
146
0.0
 13
0.0
 23
0.0
 33
0.0
 16
1.0
 26
0.0
 36
0.0
 17
0.0
 27
1.0
 37
0.0
 76
     0
330
14
  0
MATERIAL
  5
D47
102
{ACAD_REACTORS
330
9C
102
}
102
{ACAD_XDICTIONARY
360
1185
102
}
330
9C
100
AcDbMaterial
  1
ByBlock
 72
     0
 73
     2
 43
0.0208333333333333
 43
0.0
 43
0.0
 43
0.0
 43
0.0
 43
0.0208333333333333
 43
0.0
 43
0.0
 43
0.0
 43
0.0
 43
1.0
 43
0.0
 43
0.0
 43
0.0
 43
0.0
 43
1.0
 77
     0
 78
     2
 47
0.0208333333333333
 47
0.0
 47
0.0
 47
0.0
 47
0.0
 47
0.0208333333333333
 47
0.0
 47
0.0
 47
0.0
 47
0.0
 47
1.0
 47
0.0
 47
0.0
 47
0.0
 47
0.0
 47
1.0
171
     0
172
     2
 49
0.0208333333333333
 49
0.0
 49
0.0
 49
0.0
 49
0.0
 49
0.0208333333333333
 49
0.0
 49
0.0
 49
0.0
 49
0.0
 49
1.0
 49
0.0
 49
0.0
 49
0.0
 49
0.0
 49
1.0
175
     0
176
     2
142
0.0208333333333333
142
0.0
142
0.0
142
0.0
142
0.0
142
0.0208333333333333
142
0.0
142
0.0
142
0.0
142
0.0
142
1.0
142
0.0
142
0.0
142
0.0
142
0.0
142
1.0
179
     0
270
     2
144
0.0208333333333333
144
0.0
144
0.0
144
0.0
144
0.0
144
0.0208333333333333
144
0.0
144
0.0
144
0.0
144
0.0
144
1.0
144
0.0
144
0.0
144
0.0
144
0.0
144
1.0
274
     2
147
0.0208333333333333
147
0.0
147
0.0
147
0.0
147
0.0
147
0.0208333333333333
147
0.0
147
0.0
147
0.0
147
0.0
147
1.0
147
0.0
147
0.0
147
0.0
147
0.0
147
1.0
  0
MATERIAL
  5
D3F
102
{ACAD_REACTORS
330
9C
102
}
102
{ACAD_XDICTIONARY
360
1187
102
}
330
9C
100
AcDbMaterial
  1
ByLayer
 72
     0
 73
     2
 43
0.0208333333333333
 43
0.0
 43
0.0
 43
0.0
 43
0.0
 43
0.0208333333333333
 43
0.0
 43
0.0
 43
0.0
 43
0.0
 43
1.0
 43
0.0
 43
0.0
 43
0.0
 43
0.0
 43
1.0
 77
     0
 78
     2
 47
0.0208333333333333
 47
0.0
 47
0.0
 47
0.0
 47
0.0
 47
0.0208333333333333
 47
0.0
 47
0.0
 47
0.0
 47
0.0
 47
1.0
 47
0.0
 47
0.0
 47
0.0
 47
0.0
 47
1.0
171
     0
172
     2
 49
0.0208333333333333
 49
0.0
 49
0.0
 49
0.0
 49
0.0
 49
0.0208333333333333
 49
0.0
 49
0.0
 49
0.0
 49
0.0
 49
1.0
 49
0.0
 49
0.0
 49
0.0
 49
0.0
 49
1.0
175
     0
176
     2
142
0.0208333333333333
142
0.0
142
0.0
142
0.0
142
0.0
142
0.0208333333333333
142
0.0
142
0.0
142
0.0
142
0.0
142
1.0
142
0.0
142
0.0
142
0.0
142
0.0
142
1.0
179
     0
270
     2
144
0.0208333333333333
144
0.0
144
0.0
144
0.0
144
0.0
144
0.0208333333333333
144
0.0
144
0.0
144
0.0
144
0.0
144
1.0
144
0.0
144
0.0
144
0.0
144
0.0
144
1.0
274
     2
147
0.0208333333333333
147
0.0
147
0.0
147
0.0
147
0.0
147
0.0208333333333333
147
0.0
147
0.0
147
0.0
147
0.0
147
1.0
147
0.0
147
0.0
147
0.0
147
0.0
147
1.0
  0
MATERIAL
  5
D4F
102
{ACAD_REACTORS
330
9C
102
}
102
{ACAD_XDICTIONARY
360
1189
102
}
330
9C
100
AcDbMaterial
  1
Global
 72
     0
 73
     2
 43
0.0208333333333333
 43
0.0
 43
0.0
 43
0.0
 43
0.0
 43
0.0208333333333333
 43
0.0
 43
0.0
 43
0.0
 43
0.0
 43
1.0
 43
0.0
 43
0.0
 43
0.0
 43
0.0
 43
1.0
 77
     0
 78
     2
 47
0.0208333333333333
 47
0.0
 47
0.0
 47
0.0
 47
0.0
 47
0.0208333333333333
 47
0.0
 47
0.0
 47
0.0
 47
0.0
 47
1.0
 47
0.0
 47
0.0
 47
0.0
 47
0.0
 47
1.0
171
     0
172
     2
 49
0.0208333333333333
 49
0.0
 49
0.0
 49
0.0
 49
0.0
 49
0.0208333333333333
 49
0.0
 49
0.0
 49
0.0
 49
0.0
 49
1.0
 49
0.0
 49
0.0
 49
0.0
 49
0.0
 49
1.0
175
     0
176
     2
142
0.0208333333333333
142
0.0
142
0.0
142
0.0
142
0.0
142
0.0208333333333333
142
0.0
142
0.0
142
0.0
142
0.0
142
1.0
142
0.0
142
0.0
142
0.0
142
0.0
142
1.0
179
     0
270
     2
144
0.0208333333333333
144
0.0
144
0.0
144
0.0
144
0.0
144
0.0208333333333333
144
0.0
144
0.0
144
0.0
144
0.0
144
1.0
144
0.0
144
0.0
144
0.0
144
0.0
144
1.0
274
     2
147
0.0208333333333333
147
0.0
147
0.0
147
0.0
147
0.0
147
0.0208333333333333
147
0.0
147
0.0
147
0.0
147
0.0
147
1.0
147
0.0
147
0.0
147
0.0
147
0.0
147
1.0
  0
MLEADERSTYLE
  5
D83
102
{ACAD_REACTORS
330
D82
102
}
330
D82
100
AcDbMLeaderStyle
170
     2
171
     1
172
     0
 90
        2
 40
0.0
 41
0.0
173
     1
 91
-1056964608
340
11
 92
       -2
290
     1
 42
0.09
291
     1
 43
0.36
  3
Standard
341
0
 44
0.18
300

342
F
174
     1
178
     6
175
     1
176
     0
 93
-1056964608
 45
0.18
292
     0
297
     0
 46
0.18
343
0
 94
-1056964608
 47
1.0
 49
1.0
140
1.0
293
     1
141
0.0
294
     1
177
     0
142
1.0
295
     0
296
     0
143
0.125
1001
ACAD_MLEADERVER
1070
     2
  0
MLINESTYLE
  5
1B
102
{ACAD_REACTORS
330
1A
102
}
330
1A
100
AcDbMlineStyle
  2
STANDARD
 70
     0
  3

 62
   256
 51
90.0
 52
90.0
 71
     2
 49
0.5
 62
   256
  6
BYLAYER
 49
-0.5
 62
   256
  6
BYLAYER
  0
ACDBPLACEHOLDER
  5
67
102
{ACAD_REACTORS
330
66
102
}
330
66
  0
SCALE
  5
D71
102
{ACAD_REACTORS
330
D70
102
}
330
D70
100
AcDbScale
 70
     0
300
1:1
140
1.0
141
1.0
290
     1
  0
SCALE
  5
D72
102
{ACAD_REACTORS
330
D70
102
}
330
D70
100
AcDbScale
 70
     0
300
1/128" = 1'-0"
140
0.0078125
141
12.0
290
     0
  0
SCALE
  5
D73
102
{ACAD_REACTORS
330
D70
102
}
330
D70
100
AcDbScale
 70
     0
300
1/64" = 1'-0"
140
0.015625
141
12.0
290
     0
  0
SCALE
  5
D74
102
{ACAD_REACTORS
330
D70
102
}
330
D70
100
AcDbScale
 70
     0
300
1/32" = 1'-0"
140
0.03125
141
12.0
290
     0
  0
SCALE
  5
D75
102
{ACAD_REACTORS
330
D70
102
}
330
D70
100
AcDbScale
 70
     0
300
1/16" = 1'-0"
140
0.0625
141
12.0
290
     0
  0
SCALE
  5
D76
102
{ACAD_REACTORS
330
D70
102
}
330
D70
100
AcDbScale
 70
     0
300
3/32" = 1'-0"
140
0.09375
141
12.0
290
     0
  0
SCALE
  5
D77
102
{ACAD_REACTORS
330
D70
102
}
330
D70
100
AcDbScale
 70
     0
300
1/8" = 1'-0"
140
0.125
141
12.0
290
     0
  0
SCALE
  5
D78
102
{ACAD_REACTORS
330
D70
102
}
330
D70
100
AcDbScale
 70
     0
300
3/16" = 1'-0"
140
0.1875
141
12.0
290
     0
  0
SCALE
  5
D79
102
{ACAD_REACTORS
330
D70
102
}
330
D70
100
AcDbScale
 70
     0
300
1/4" = 1'-0"
140
0.25
141
12.0
290
     0
  0
SCALE
  5
D7A
102
{ACAD_REACTORS
330
D70
102
}
330
D70
100
AcDbScale
 70
     0
300
3/8" = 1'-0"
140
0.375
141
12.0
290
     0
  0
SCALE
  5
D7B
102
{ACAD_REACTORS
330
D70
102
}
330
D70
100
AcDbScale
 70
     0
300
1/2" = 1'-0"
140
0.5
141
12.0
290
     0
  0
SCALE
  5
D7C
102
{ACAD_REACTORS
330
D70
102
}
330
D70
100
AcDbScale
 70
     0
300
3/4" = 1'-0"
140
0.75
141
12.0
290
     0
  0
SCALE
  5
D7D
102
{ACAD_REACTORS
330
D70
102
}
330
D70
100
AcDbScale
 70
     0
300
1" = 1'-0"
140
1.0
141
12.0
290
     0
  0
SCALE
  5
D7E
102
{ACAD_REACTORS
330
D70
102
}
330
D70
100
AcDbScale
 70
     0
300
1-1/2" = 1'-0"
140
1.5
141
12.0
290
     0
  0
SCALE
  5
D7F
102
{ACAD_REACTORS
330
D70
102
}
330
D70
100
AcDbScale
 70
     0
300
3" = 1'-0"
140
3.0
141
12.0
290
     0
  0
SCALE
  5
D80
102
{ACAD_REACTORS
330
D70
102
}
330
D70
100
AcDbScale
 70
     0
300
6" = 1'-0"
140
6.0
141
12.0
290
     0
  0
SCALE
  5
D81
102
{ACAD_REACTORS
330
D70
102
}
330
D70
100
AcDbScale
 70
     0
300
1'-0" = 1'-0"
140
12.0
141
12.0
290
     0
  0
ACAD_PROXY_OBJECT
  5
D85
102
{ACAD_REACTORS
330
D84
102
}
102
{ACAD_XDICTIONARY
360
1176
102
}
330
D84
100
AcDbProxyObject
 90
      499
 91
      514
 95
  3276827
 70
     0
 93
     3814
310
929D000000180005C0F42F5A8DC671FC00000060001703D0BD6A3719C7E5C0F42F5A8DC6F1FA330000001800099400000060001703D0BD6A3719C7E5C0F42F5A8DC671FC00000060001703D0BD6A3719C7E808000000000001D07E80C0000006000400000064003081815AF46E07A158E7E80C8340C16A22A7D90FC9F8CAE6
310
5A70A583A07E1FE81C635378FA1F8CAE65A70A583A17E7944A7F127A97E9FA149200DA00E000CA00E400D200C200D80064006800882480160010002780160010002880160010002980160010002C00160010002D002F84A007800B8008200C600AC00C200E4004000AC00D200CA00EE00A800F200E000CA004000B800CC004
310
00044004A00E800C600620044007C004A0040004A007800B8008200C600AC00C200E4004000AC00D200CA00EE00A600CA00C600E800D200DE00DC00A600E800C200E400E8009200C8007C004A005A004A007800B8008200C600AC00C200E4004000AC00D200CA00EE00A600CA00C600E800D200DE00DC008A00DC00C800920
310
0C8007C004A00B800A000A6008600820098008A0040004A007800B8008200C600AC00C200E4004000AC00D200CA00EE00A600C600C200D800CA004000B800CC00400044004A00E600DC0044007C004A00832080270029802480198018807404C
340
F
340
0
340
0
340
13
340
13
340
F
 94
        0
  0
TABLESTYLE
  5
9F
102
{ACAD_REACTORS
330
9E
102
}
102
{ACAD_XDICTIONARY
360
118B
102
}
330
9E
100
AcDbTableStyle
  3
Standard
 70
     0
 71
     0
 40
0.06
 41
0.06
280
     0
281
     0
  7
STANDARD
140
0.18
170
     2
 62
     0
 63
   257
283
     0
274
    -2
284
     1
 64
     0
275
    -2
285
     1
 65
     0
276
    -2
286
     1
 66
     0
277
    -2
287
     1
 67
     0
278
    -2
288
     1
 68
     0
279
    -2
289
     1
 69
     0
  7
STANDARD
140
0.25
170
     5
 62
     0
 63
   257
283
     0
274
    -2
284
     1
 64
     0
275
    -2
285
     1
 65
     0
276
    -2
286
     1
 66
     0
277
    -2
287
     1
 67
     0
278
    -2
288
     1
 68
     0
279
    -2
289
     1
 69
     0
  7
STANDARD
140
0.18
170
     5
 62
     0
 63
   257
283
     0
274
    -2
284
     1
 64
     0
275
    -2
285
     1
 65
     0
276
    -2
286
     1
 66
     0
277
    -2
287
     1
 67
     0
278
    -2
288
     1
 68
     0
279
    -2
289
     1
 69
     0
  0
VISUALSTYLE
  5
D5D
102
{ACAD_REACTORS
330
D57
102
}
102
{ACAD_XDICTIONARY
360
118F
102
}
330
D57
100
AcDbVisualStyle
  2
2dWireframe
 70
     4
 71
     0
 72
     2
 73
     0
 90
        0
 40
-0.6
 41
-30.0
 62
     5
 63
     7
421
 16777215
 74
     1
 91
        4
 64
     7
 65
   257
 75
     1
175
     1
 42
1.0
 92
        0
 66
   257
 43
1.0
 76
     1
 77
     6
 78
     2
 67
     7
 79
     5
170
     0
171
     0
290
     0
174
     0
 93
        1
 44
0.0
173
     0
291
     0
 45
0.0
1001
ACAD
1000
AcDbSavedByObjectVersion
1070
     0
  0
VISUALSTYLE
  5
D5C
102
{ACAD_REACTORS
330
D57
102
}
102
{ACAD_XDICTIONARY
360
1191
102
}
330
D57
100
AcDbVisualStyle
  2
Basic
 70
     7
 71
     1
 72
     0
 73
     1
 90
        0
 40
-0.6
 41
-30.0
 62
     5
 63
     7
421
 16777215
 74
     0
 91
        4
 64
     7
 65
   257
 75
     1
175
     1
 42
1.0
 92
        8
 66
     7
 43
1.0
 76
     1
 77
     6
 78
     2
 67
     7
 79
     5
170
     0
171
     0
290
     0
174
     0
 93
        1
 44
0.0
173
     0
291
     1
 45
0.0
1001
ACAD
1000
AcDbSavedByObjectVersion
1070
     0
  0
VISUALSTYLE
  5
D63
102
{ACAD_REACTORS
330
D57
102
}
102
{ACAD_XDICTIONARY
360
1193
102
}
330
D57
100
AcDbVisualStyle
  2
Brighten
 70
    12
 71
     2
 72
     2
 73
     0
 90
        0
 40
-0.6
 41
-30.0
 62
     5
 63
     7
421
 16777215
 74
     1
 91
        4
 64
     7
 65
   257
 75
     1
175
     1
 42
1.0
 92
        8
 66
     7
 43
1.0
 76
     1
 77
     6
 78
     2
 67
     7
 79
     5
170
     0
171
     0
290
     0
174
     0
 93
        1
 44
50.0
173
     0
291
     1
 45
0.0
1001
ACAD
1000
AcDbSavedByObjectVersion
1070
     0
  0
VISUALSTYLE
  5
D67
102
{ACAD_REACTORS
330
D57
102
}
102
{ACAD_XDICTIONARY
360
1195
102
}
330
D57
100
AcDbVisualStyle
  2
ColorChange
 70
    16
 71
     2
 72
     2
 73
     3
 90
        0
 40
-0.6
 41
-30.0
 62
     5
 63
     8
421
  8421504
 74
     1
 91
        4
 64
     7
 65
   257
 75
     1
175
     1
 42
1.0
 92
        8
 66
     8
424
  8421504
 43
1.0
 76
     1
 77
     6
 78
     2
 67
     7
 79
     5
170
     0
171
     0
290
     0
174
     0
 93
        1
 44
0.0
173
     0
291
     1
 45
0.0
1001
ACAD
1000
AcDbSavedByObjectVersion
1070
     0
  0
VISUALSTYLE
  5
D60
102
{ACAD_REACTORS
330
D57
102
}
102
{ACAD_XDICTIONARY
360
1197
102
}
330
D57
100
AcDbVisualStyle
  2
Conceptual
 70
     9
 71
     3
 72
     2
 73
     0
 90
        0
 40
-0.6
 41
-30.0
 62
     5
 63
     7
421
 16777215
 74
     2
 91
        2
 64
     7
 65
   257
 75
     1
175
     1
 42
179.0
 92
        8
 66
     7
 43
1.0
 76
     1
 77
     6
 78
     2
 67
     7
 79
     3
170
     0
171
     0
290
     0
174
     0
 93
        1
 44
0.0
173
     0
291
     0
 45
0.0
1001
ACAD
1000
AcDbSavedByObjectVersion
1070
     0
  0
VISUALSTYLE
  5
D62
102
{ACAD_REACTORS
330
D57
102
}
102
{ACAD_XDICTIONARY
360
1199
102
}
330
D57
100
AcDbVisualStyle
  2
Dim
 70
    11
 71
     2
 72
     2
 73
     0
 90
        0
 40
-0.6
 41
-30.0
 62
     5
 63
     7
421
 16777215
 74
     1
 91
        4
 64
     7
 65
   257
 75
     1
175
     1
 42
1.0
 92
        8
 66
     7
 43
1.0
 76
     1
 77
     6
 78
     2
 67
     7
 79
     5
170
     0
171
     0
290
     0
174
     0
 93
        1
 44
-50.0
173
     0
291
     1
 45
0.0
1001
ACAD
1000
AcDbSavedByObjectVersion
1070
     0
  0
VISUALSTYLE
  5
D6F
102
{ACAD_REACTORS
330
D57
102
}
102
{ACAD_XDICTIONARY
360
119B
102
}
330
D57
100
AcDbVisualStyle
  2
EdgeColorOff
 70
    22
 71
     2
 72
     2
 73
     0
 90
        0
 40
-0.6
 41
-30.0
 62
     5
 63
     7
421
 16777215
 74
     1
 91
        4
 64
     7
 65
   257
 75
     1
175
     1
 42
1.0
 92
        8
 66
     7
 43
1.0
 76
     1
 77
     6
 78
     2
 67
     7
 79
     5
170
     0
171
     0
290
     0
174
     0
 93
        1
 44
0.0
173
     0
291
     1
 45
0.0
1001
ACAD
1000
AcDbSavedByObjectVersion
1070
     0
  0
VISUALSTYLE
  5
D66
102
{ACAD_REACTORS
330
D57
102
}
102
{ACAD_XDICTIONARY
360
119D
102
}
330
D57
100
AcDbVisualStyle
  2
Facepattern
 70
    15
 71
     2
 72
     2
 73
     0
 90
        0
 40
-0.6
 41
-30.0
 62
     5
 63
     7
421
 16777215
 74
     1
 91
        4
 64
     7
 65
   257
 75
     1
175
     1
 42
1.0
 92
        8
 66
     7
 43
1.0
 76
     1
 77
     6
 78
     2
 67
     7
 79
     5
170
     0
171
     0
290
     0
174
     0
 93
        1
 44
0.0
173
     0
291
     1
 45
0.0
1001
ACAD
1000
AcDbSavedByObjectVersion
1070
     0
  0
VISUALSTYLE
  5
D58
102
{ACAD_REACTORS
330
D57
102
}
102
{ACAD_XDICTIONARY
360
119F
102
}
330
D57
100
AcDbVisualStyle
  2
Flat
 70
     0
 71
     2
 72
     1
 73
     1
 90
        2
 40
-0.6
 41
30.0
 62
     5
 63
     7
421
 16777215
 74
     0
 91
        0
 64
     7
 65
   257
 75
     1
175
     1
 42
1.0
 92
        8
 66
     7
 43
1.0
 76
     1
 77
     6
 78
     2
 67
     7
 79
     5
170
     0
171
     0
290
     0
174
     0
 93
       13
 44
0.0
173
     0
291
     1
 45
0.0
1001
ACAD
1000
AcDbSavedByObjectVersion
1070
     0
  0
VISUALSTYLE
  5
D59
102
{ACAD_REACTORS
330
D57
102
}
102
{ACAD_XDICTIONARY
360
11A1
102
}
330
D57
100
AcDbVisualStyle
  2
FlatWithEdges
 70
     1
 71
     2
 72
     1
 73
     1
 90
        2
 40
-0.6
 41
30.0
 62
     5
 63
     7
421
 16777215
 74
     1
 91
        0
 64
     7
 65
   257
 75
     1
175
     1
 42
1.0
 92
        0
 66
   257
 43
1.0
 76
     1
 77
     6
 78
     2
 67
     7
 79
     5
170
     0
171
     0
290
     0
174
     0
 93
       13
 44
0.0
173
     0
291
     1
 45
0.0
1001
ACAD
1000
AcDbSavedByObjectVersion
1070
     0
  0
VISUALSTYLE
  5
D5A
102
{ACAD_REACTORS
330
D57
102
}
102
{ACAD_XDICTIONARY
360
11A3
102
}
330
D57
100
AcDbVisualStyle
  2
Gouraud
 70
     2
 71
     2
 72
     2
 73
     1
 90
        2
 40
-0.6
 41
30.0
 62
     5
 63
     7
421
 16777215
 74
     0
 91
        0
 64
     7
 65
   257
 75
     1
175
     1
 42
1.0
 92
        0
 66
     7
 43
1.0
 76
     1
 77
     6
 78
     2
 67
     7
 79
     5
170
     0
171
     0
290
     0
174
     0
 93
       13
 44
0.0
173
     0
291
     1
 45
0.0
1001
ACAD
1000
AcDbSavedByObjectVersion
1070
     0
  0
VISUALSTYLE
  5
D5B
102
{ACAD_REACTORS
330
D57
102
}
102
{ACAD_XDICTIONARY
360
11A5
102
}
330
D57
100
AcDbVisualStyle
  2
GouraudWithEdges
 70
     3
 71
     2
 72
     2
 73
     1
 90
        2
 40
-0.6
 41
30.0
 62
     5
 63
     7
421
 16777215
 74
     1
 91
        0
 64
     7
 65
   257
 75
     1
175
     1
 42
1.0
 92
        0
 66
   257
 43
1.0
 76
     1
 77
     6
 78
     2
 67
     7
 79
     5
170
     0
171
     0
290
     0
174
     0
 93
       13
 44
0.0
173
     0
291
     1
 45
0.0
1001
ACAD
1000
AcDbSavedByObjectVersion
1070
     0
  0
VISUALSTYLE
  5
D5F
102
{ACAD_REACTORS
330
D57
102
}
102
{ACAD_XDICTIONARY
360
11A7
102
}
330
D57
100
AcDbVisualStyle
  2
Hidden
 70
     6
 71
     1
 72
     2
 73
     2
 90
        0
 40
-0.6
 41
-30.0
 62
     5
 63
     7
421
 16777215
 74
     2
 91
        2
 64
     7
 65
   257
 75
     2
175
     1
 42
40.0
 92
        0
 66
   257
 43
1.0
 76
     1
 77
     6
 78
     2
 67
     7
 79
     3
170
     0
171
     0
290
     0
174
     0
 93
        1
 44
0.0
173
     0
291
     0
 45
0.0
1001
ACAD
1000
AcDbSavedByObjectVersion
1070
     0
  0
VISUALSTYLE
  5
D6D
102
{ACAD_REACTORS
330
D57
102
}
102
{ACAD_XDICTIONARY
360
11A9
102
}
330
D57
100
AcDbVisualStyle
  2
JitterOff
 70
    20
 71
     2
 72
     2
 73
     0
 90
        0
 40
-0.6
 41
-30.0
 62
     5
 63
     7
421
 16777215
 74
     1
 91
        4
 64
     7
 65
   257
 75
     1
175
     1
 42
1.0
 92
       10
 66
     7
 43
1.0
 76
     1
 77
     6
 78
     2
 67
     7
 79
     5
170
     0
171
     0
290
     0
174
     0
 93
        1
 44
0.0
173
     0
291
     1
 45
0.0
1001
ACAD
1000
AcDbSavedByObjectVersion
1070
     0
  0
VISUALSTYLE
  5
D65
102
{ACAD_REACTORS
330
D57
102
}
102
{ACAD_XDICTIONARY
360
11AB
102
}
330
D57
100
AcDbVisualStyle
  2
Linepattern
 70
    14
 71
     2
 72
     2
 73
     0
 90
        0
 40
-0.6
 41
-30.0
 62
     5
 63
     7
421
 16777215
 74
     1
 91
        4
 64
     7
 65
   257
 75
     7
175
     7
 42
1.0
 92
        8
 66
     7
 43
1.0
 76
     1
 77
     6
 78
     2
 67
     7
 79
     5
170
     0
171
     0
290
     0
174
     0
 93
        1
 44
0.0
173
     0
291
     1
 45
0.0
1001
ACAD
1000
AcDbSavedByObjectVersion
1070
     0
  0
VISUALSTYLE
  5
D6E
102
{ACAD_REACTORS
330
D57
102
}
102
{ACAD_XDICTIONARY
360
11AD
102
}
330
D57
100
AcDbVisualStyle
  2
OverhangOff
 70
    21
 71
     2
 72
     2
 73
     0
 90
        0
 40
-0.6
 41
-30.0
 62
     5
 63
     7
421
 16777215
 74
     1
 91
        4
 64
     7
 65
   257
 75
     1
175
     1
 42
1.0
 92
        9
 66
     7
 43
1.0
 76
     1
 77
     6
 78
     2
 67
     7
 79
     5
170
     0
171
     0
290
     0
174
     0
 93
        1
 44
0.0
173
     0
291
     1
 45
0.0
1001
ACAD
1000
AcDbSavedByObjectVersion
1070
     0
  0
VISUALSTYLE
  5
D61
102
{ACAD_REACTORS
330
D57
102
}
102
{ACAD_XDICTIONARY
360
11AF
102
}
330
D57
100
AcDbVisualStyle
  2
Realistic
 70
     8
 71
     2
 72
     2
 73
     0
 90
        2
 40
-0.6
 41
30.0
 62
     5
 63
     7
421
 16777215
 74
     0
 91
        0
 64
     7
 65
   257
 75
     1
175
     1
 42
1.0
 92
        8
 66
   257
 43
1.0
 76
     1
 77
     6
 78
     2
 67
     7
 79
     3
170
     0
171
     0
290
     0
174
     0
 93
       13
 44
0.0
173
     0
291
     0
 45
0.0
1001
ACAD
1000
AcDbSavedByObjectVersion
1070
     0
  0
VISUALSTYLE
  5
D6C
102
{ACAD_REACTORS
330
D57
102
}
102
{ACAD_XDICTIONARY
360
11B1
102
}
330
D57
100
AcDbVisualStyle
  2
Shaded
 70
    27
 71
     2
 72
     2
 73
     1
 90
        2
 40
-0.6
 41
30.0
 62
     5
 63
     7
421
 16777215
 74
     0
 91
        4
 64
     7
 65
   257
 75
     1
175
     1
 42
1.0
 92
        8
 66
   257
 43
1.0
 76
     1
 77
     6
 78
     2
 67
     8
425
  7895160
 79
     3
170
     0
171
     0
290
     0
174
     0
 93
        5
 44
0.0
173
     0
291
     0
 45
0.0
1001
ACAD
1000
AcDbSavedByObjectVersion
1070
     0
  0
VISUALSTYLE
  5
D6B
102
{ACAD_REACTORS
330
D57
102
}
102
{ACAD_XDICTIONARY
360
11B3
102
}
330
D57
100
AcDbVisualStyle
  2
Shaded with edges
 70
    26
 71
     2
 72
     2
 73
     1
 90
        2
 40
-0.6
 41
30.0
 62
     5
 63
     7
421
 16777215
 74
     1
 91
       10
 64
     7
 65
   257
 75
     2
175
     1
 42
1.0
 92
        8
 66
   257
 43
1.0
 76
     1
 77
     6
 78
     2
 67
     7
 79
     3
170
     0
171
     0
290
     0
174
     0
 93
        5
 44
0.0
173
     0
291
     0
 45
0.0
1001
ACAD
1000
AcDbSavedByObjectVersion
1070
     0
  0
VISUALSTYLE
  5
D68
102
{ACAD_REACTORS
330
D57
102
}
102
{ACAD_XDICTIONARY
360
11B5
102
}
330
D57
100
AcDbVisualStyle
  2
Shades of Gray
 70
    23
 71
     2
 72
     2
 73
     3
 90
        0
 40
-0.6
 41
-30.0
 62
     5
 63
     7
421
 16777215
 74
     2
 91
        2
 64
     7
 65
     7
 75
     1
175
     1
 42
40.0
 92
        8
 66
     7
 43
1.0
 76
     1
 77
     6
 78
     2
 67
     7
 79
     3
170
     0
171
     0
290
     0
174
     0
 93
        1
 44
0.0
173
     0
291
     0
 45
0.0
1001
ACAD
1000
AcDbSavedByObjectVersion
1070
     0
  0
VISUALSTYLE
  5
D69
102
{ACAD_REACTORS
330
D57
102
}
102
{ACAD_XDICTIONARY
360
11B7
102
}
330
D57
100
AcDbVisualStyle
  2
Sketchy
 70
    24
 71
     1
 72
     2
 73
     2
 90
        0
 40
-0.6
 41
-30.0
 62
     5
 63
     7
421
 16777215
 74
     2
 91
        2
 64
     7
 65
     7
 75
     1
175
     1
 42
40.0
 92
       11
 66
     7
 43
1.0
 76
     1
 77
     6
 78
     2
 67
     7
 79
     6
170
     0
171
     0
290
     0
174
     0
 93
        1
 44
0.0
173
     0
291
     0
 45
0.0
1001
ACAD
1000
AcDbSavedByObjectVersion
1070
     0
  0
VISUALSTYLE
  5
D64
102
{ACAD_REACTORS
330
D57
102
}
102
{ACAD_XDICTIONARY
360
11B9
102
}
330
D57
100
AcDbVisualStyle
  2
Thicken
 70
    13
 71
     2
 72
     2
 73
     0
 90
        0
 40
-0.6
 41
-30.0
 62
     5
 63
     7
421
 16777215
 74
     1
 91
        4
 64
     7
 65
   257
 75
     1
175
     1
 42
1.0
 92
       12
 66
     7
 43
1.0
 76
     1
 77
     6
 78
     2
 67
     7
 79
     5
170
     0
171
     0
290
     0
174
     0
 93
        1
 44
0.0
173
     0
291
     1
 45
0.0
1001
ACAD
1000
AcDbSavedByObjectVersion
1070
     0
  0
VISUALSTYLE
  5
D5E
102
{ACAD_REACTORS
330
D57
102
}
102
{ACAD_XDICTIONARY
360
11BB
102
}
330
D57
100
AcDbVisualStyle
  2
Wireframe
 70
     5
 71
     0
 72
     2
 73
     0
 90
        0
 40
-0.6
 41
-30.0
 62
     5
 63
     7
421
 16777215
 74
     1
 91
        4
 64
     7
 65
   257
 75
     1
175
     1
 42
1.0
 92
        0
 66
   257
 43
1.0
 76
     1
 77
     6
 78
     2
 67
     7
 79
     3
170
     0
171
     0
290
     0
174
     0
 93
        1
 44
0.0
173
     0
291
     0
 45
0.0
1001
ACAD
1000
AcDbSavedByObjectVersion
1070
     0
  0
VISUALSTYLE
  5
D6A
102
{ACAD_REACTORS
330
D57
102
}
102
{ACAD_XDICTIONARY
360
11BD
102
}
330
D57
100
AcDbVisualStyle
  2
X-Ray
 70
    25
 71
     2
 72
     2
 73
     1
 90
        1
 40
0.5
 41
-30.0
 62
     5
 63
     7
421
 16777215
 74
     1
 91
        0
 64
     7
 65
   257
 75
     1
175
     1
 42
1.0
 92
        8
 66
     7
 43
1.0
 76
     1
 77
     6
 78
     2
 67
     7
 79
     3
170
     0
171
     0
290
     0
174
     0
 93
       13
 44
0.0
173
     0
291
     0
 45
0.0
1001
ACAD
1000
AcDbSavedByObjectVersion
1070
     0
  0
DICTIONARYVAR
  5
117E
102
{ACAD_REACTORS
330
99
102
}
330
99
100
DictionaryVariables
280
     0
  1
1:1
  0
DICTIONARYVAR
  5
117A
102
{ACAD_REACTORS
330
99
102
}
330
99
100
DictionaryVariables
280
     0
  1
Standard
  0
DICTIONARYVAR
  5
538
102
{ACAD_REACTORS
330
99
102
}
330
99
100
DictionaryVariables
280
     0
  1
Standard
  0
DICTIONARYVAR
  5
117B
102
{ACAD_REACTORS
330
99
102
}
330
99
100
DictionaryVariables
280
     0
  1
Imperial24
  0
DICTIONARYVAR
  5
117C
102
{ACAD_REACTORS
330
99
102
}
330
99
100
DictionaryVariables
280
     0
  1
Imperial24
  0
DICTIONARYVAR
  5
9A
102
{ACAD_REACTORS
330
99
102
}
330
99
100
DictionaryVariables
280
     0
  1
1
  0
DICTIONARYVAR
  5
1180
102
{ACAD_REACTORS
330
99
102
}
330
99
100
DictionaryVariables
280
     0
  1
1
  0
DICTIONARYVAR
  5
1181
102
{ACAD_REACTORS
330
99
102
}
330
99
100
DictionaryVariables
280
     0
  1
15
  0
DICTIONARYVAR
  5
117F
102
{ACAD_REACTORS
330
99
102
}
330
99
100
DictionaryVariables
280
     0
  1
0
  0
DICTIONARYVAR
  5
117D
102
{ACAD_REACTORS
330
99
102
}
330
99
100
DictionaryVariables
280
     0
  1
0
  0
DICTIONARYVAR
  5
AA8
102
{ACAD_REACTORS
330
99
102
}
330
99
100
DictionaryVariables
280
     0
  1

  0
DICTIONARYVAR
  5
1182
102
{ACAD_REACTORS
330
99
102
}
330
99
100
DictionaryVariables
280
     0
  1
2
  0
DICTIONARY
  5
1140
102
{ACAD_REACTORS
330
113E
102
}
330
113E
100
AcDbDictionary
281
     1
  0
DICTIONARY
  5
113F
102
{ACAD_REACTORS
330
113E
102
}
330
113E
100
AcDbDictionary
281
     1
  3
2129839688
350
1139
  3
2129839696
350
113A
  3
2129839704
350
113B
  3
2129839712
350
113C
  3
2129839720
350
113D
  0
DICTIONARY
  5
1178
330
D87
100
AcDbDictionary
280
     1
281
     1
  3
ACAD_XREC_ROUNDTRIP
360
1179
  0
DICTIONARY
  5
1141
330
6A
100
AcDbDictionary
280
     1
281
     1
  3
ADSK_XREC_LAYOUTTHUMBNAIL
360
1142
  0
DICTIONARY
  5
1185
330
D47
100
AcDbDictionary
280
     1
281
     1
  3
ACAD_XREC_ROUNDTRIP
360
1186
  0
DICTIONARY
  5
1187
330
D3F
100
AcDbDictionary
280
     1
281
     1
  3
ACAD_XREC_ROUNDTRIP
360
1188
  0
DICTIONARY
  5
1189
330
D4F
100
AcDbDictionary
280
     1
281
     1
  3
ACAD_XREC_ROUNDTRIP
360
118A
  0
DICTIONARY
  5
1176
330
D85
100
AcDbDictionary
280
     1
281
     1
  3
ACAD_XREC_ROUNDTRIP
360
1177
  0
DICTIONARY
  5
118B
330
9F
100
AcDbDictionary
280
     1
281
     1
  3
ACAD_ROUNDTRIP_2008_TABLESTYLE_CELLSTYLEMAP
360
118D
  3
ACAD_XREC_ROUNDTRIP
360
118C
  0
DICTIONARY
  5
118F
330
D5D
100
AcDbDictionary
280
     1
281
     1
  3
ACAD_XREC_ROUNDTRIP
360
1190
  0
DICTIONARY
  5
1191
330
D5C
100
AcDbDictionary
280
     1
281
     1
  3
ACAD_XREC_ROUNDTRIP
360
1192
  0
DICTIONARY
  5
1193
330
D63
100
AcDbDictionary
280
     1
281
     1
  3
ACAD_XREC_ROUNDTRIP
360
1194
  0
DICTIONARY
  5
1195
330
D67
100
AcDbDictionary
280
     1
281
     1
  3
ACAD_XREC_ROUNDTRIP
360
1196
  0
DICTIONARY
  5
1197
330
D60
100
AcDbDictionary
280
     1
281
     1
  3
ACAD_XREC_ROUNDTRIP
360
1198
  0
DICTIONARY
  5
1199
330
D62
100
AcDbDictionary
280
     1
281
     1
  3
ACAD_XREC_ROUNDTRIP
360
119A
  0
DICTIONARY
  5
119B
330
D6F
100
AcDbDictionary
280
     1
281
     1
  3
ACAD_XREC_ROUNDTRIP
360
119C
  0
DICTIONARY
  5
119D
330
D66
100
AcDbDictionary
280
     1
281
     1
  3
ACAD_XREC_ROUNDTRIP
360
119E
  0
DICTIONARY
  5
119F
330
D58
100
AcDbDictionary
280
     1
281
     1
  3
ACAD_XREC_ROUNDTRIP
360
11A0
  0
DICTIONARY
  5
11A1
330
D59
100
AcDbDictionary
280
     1
281
     1
  3
ACAD_XREC_ROUNDTRIP
360
11A2
  0
DICTIONARY
  5
11A3
330
D5A
100
AcDbDictionary
280
     1
281
     1
  3
ACAD_XREC_ROUNDTRIP
360
11A4
  0
DICTIONARY
  5
11A5
330
D5B
100
AcDbDictionary
280
     1
281
     1
  3
ACAD_XREC_ROUNDTRIP
360
11A6
  0
DICTIONARY
  5
11A7
330
D5F
100
AcDbDictionary
280
     1
281
     1
  3
ACAD_XREC_ROUNDTRIP
360
11A8
  0
DICTIONARY
  5
11A9
330
D6D
100
AcDbDictionary
280
     1
281
     1
  3
ACAD_XREC_ROUNDTRIP
360
11AA
  0
DICTIONARY
  5
11AB
330
D65
100
AcDbDictionary
280
     1
281
     1
  3
ACAD_XREC_ROUNDTRIP
360
11AC
  0
DICTIONARY
  5
11AD
330
D6E
100
AcDbDictionary
280
     1
281
     1
  3
ACAD_XREC_ROUNDTRIP
360
11AE
  0
DICTIONARY
  5
11AF
330
D61
100
AcDbDictionary
280
     1
281
     1
  3
ACAD_XREC_ROUNDTRIP
360
11B0
  0
DICTIONARY
  5
11B1
330
D6C
100
AcDbDictionary
280
     1
281
     1
  3
ACAD_XREC_ROUNDTRIP
360
11B2
  0
DICTIONARY
  5
11B3
330
D6B
100
AcDbDictionary
280
     1
281
     1
  3
ACAD_XREC_ROUNDTRIP
360
11B4
  0
DICTIONARY
  5
11B5
330
D68
100
AcDbDictionary
280
     1
281
     1
  3
ACAD_XREC_ROUNDTRIP
360
11B6
  0
DICTIONARY
  5
11B7
330
D69
100
AcDbDictionary
280
     1
281
     1
  3
ACAD_XREC_ROUNDTRIP
360
11B8
  0
DICTIONARY
  5
11B9
330
D64
100
AcDbDictionary
280
     1
281
     1
  3
ACAD_XREC_ROUNDTRIP
360
11BA
  0
DICTIONARY
  5
11BB
330
D5E
100
AcDbDictionary
280
     1
281
     1
  3
ACAD_XREC_ROUNDTRIP
360
11BC
  0
DICTIONARY
  5
11BD
330
D6A
100
AcDbDictionary
280
     1
281
     1
  3
ACAD_XREC_ROUNDTRIP
360
11BE
  0
XRECORD
  5
1139
102
{ACAD_REACTORS
330
113F
102
}
330
113F
100
AcDbXrecord
280
     1
  1
AcDb_Thumbnail_Schema
102
{ATTRRECORD
341
113A
  2
AcDbDs::TreatedAsObjectData
280
     1
291
     1
102
ATTRRECORD}
102
{ATTRRECORD
341
113B
  2
AcDbDs::Legacy
280
     1
291
     1
102
ATTRRECORD}
  2
AcDbDs::ID
280
    10
 91
        8
102
{ATTRRECORD
341
113C
  2
AcDs:Indexable
280
     1
291
     1
102
ATTRRECORD}
102
{ATTRRECORD
341
113D
  2
AcDbDs::HandleAttribute
280
     7
282
     1
102
ATTRRECORD}
  2
Thumbnail_Data
280
    15
 91
        0
  0
XRECORD
  5
113A
102
{ACAD_REACTORS
330
113F
102
}
330
113F
100
AcDbXrecord
280
     1
  1
AcDbDs::TreatedAsObjectDataSchema
  2
AcDbDs::TreatedAsObjectData
280
     1
 91
        0
  0
XRECORD
  5
113B
102
{ACAD_REACTORS
330
113F
102
}
330
113F
100
AcDbXrecord
280
     1
  1
AcDbDs::LegacySchema
  2
AcDbDs::Legacy
280
     1
 91
        0
  0
XRECORD
  5
113C
102
{ACAD_REACTORS
330
113F
102
}
330
113F
100
AcDbXrecord
280
     1
  1
AcDbDs::IndexedPropertySchema
  2
AcDs:Indexable
280
     1
 91
        0
  0
XRECORD
  5
113D
102
{ACAD_REACTORS
330
113F
102
}
330
113F
100
AcDbXrecord
280
     1
  1
AcDbDs::HandleAttributeSchema
  2
AcDbDs::HandleAttribute
280
     7
 91
        1
284
     1
  0
XRECORD
  5
1179
102
{ACAD_REACTORS
330
1178
102
}
330
1178
100
AcDbXrecord
280
     1
102
DISPLAYNAME
  1
Imperial24
102
FLAGS
 90
        0
  0
XRECORD
  5
1142
102
{ACAD_REACTORS
330
1141
102
}
330
1141
100
AcDbXrecord
280
     1
310
2800000000010000A4000000010008000000000000A4000001000000010000000001000000000000292929FF000000FFC8C8C8FF000000FF000000FF000000FF000000FF000000FF000000FF000000FF000000FF330000FF660000FF990000FFCC0000FFFF0000FF003300FF333300FF663300FF993300FFCC3300FFFF3300
310
FF006600FF336600FF666600FF996600FFCC6600FFFF6600FF009900FF339900FF669900FF999900FFCC9900FFFF9900FF00CC00FF33CC00FF66CC00FF99CC00FFCCCC00FFFFCC00FF00FF00FF33FF00FF66FF00FF99FF00FFCCFF00FFFFFF00FF000033FF330033FF660033FF990033FFCC0033FFFF0033FF003333FF3333
310
33FF663333FF993333FFCC3333FFFF3333FF006633FF336633FF666633FF996633FFCC6633FFFF6633FF009933FF339933FF669933FF999933FFCC9933FFFF9933FF00CC33FF33CC33FF66CC33FF99CC33FFCCCC33FFFFCC33FF00FF33FF33FF33FF66FF33FF99FF33FFCCFF33FFFFFF33FF000066FF330066FF660066FF99
310
0066FFCC0066FFFF0066FF003366FF333366FF663366FF993366FFCC3366FFFF3366FF006666FF336666FF666666FF996666FFCC6666FFFF6666FF009966FF339966FF669966FF999966FFCC9966FFFF9966FF00CC66FF33CC66FF66CC66FF99CC66FFCCCC66FFFFCC66FF00FF66FF33FF66FF66FF66FF99FF66FFCCFF66FF
310
FFFF66FF000099FF330099FF660099FF990099FFCC0099FFFF0099FF003399FF333399FF663399FF993399FFCC3399FFFF3399FF006699FF336699FF666699FF996699FFCC6699FFFF6699FF009999FF339999FF669999FF999999FFCC9999FFFF9999FF00CC99FF33CC99FF66CC99FF99CC99FFCCCC99FFFFCC99FF00FF99
310
FF33FF99FF66FF99FF99FF99FFCCFF99FFFFFF99FF0000CCFF3300CCFF6600CCFF9900CCFFCC00CCFFFF00CCFF0033CCFF3333CCFF6633CCFF9933CCFFCC33CCFFFF33CCFF0066CCFF3366CCFF6666CCFF9966CCFFCC66CCFFFF66CCFF0099CCFF3399CCFF6699CCFF9999CCFFCC99CCFFFF99CCFF00CCCCFF33CCCCFF66CC
310
CCFF99CCCCFFCCCCCCFFFFCCCCFF00FFCCFF33FFCCFF66FFCCFF99FFCCFFCCFFCCFFFFFFCCFF0000FFFF3300FFFF6600FFFF9900FFFFCC00FFFFFF00FFFF0033FFFF3333FFFF6633FFFF9933FFFFCC33FFFFFF33FFFF0066FFFF3366FFFF6666FFFF9966FFFFCC66FFFFFF66FFFF0099FFFF3399FFFF6699FFFF9999FFFFCC
310
99FFFFFF99FFFF00CCFFFF33CCFFFF66CCFFFF99CCFFFFCCCCFFFFFFCCFFFF00FFFFFF33FFFFFF66FFFFFF99FFFFFFCCFFFFFFFFFFFFFF000000FF0D0D0DFF1A1A1AFF282828FF353535FF434343FF505050FF5D5D5DFF6B6B6BFF787878FF868686FF939393FFA1A1A1FFAEAEAEFFBBBBBBFFC9C9C9FFD6D6D6FFE4E4E4FF
310
F1F1F1FFFFFFFFFF000000FF000000FF000000FF000000FF000000FF000000FF000000FF000000FF000000FF0000000000000000000000000000000000000000000000000000000000000000000000000000000000000000000000000000000000000000000000000000000000000000000000000000000000000000000000
310
00000000000000000000000000000000000000000000000000000000000000000000000000000000000000000000000000000000000000000000000000000000000000000000000000000000000000000000000000000000000000000000000000000000000000000000000000000000000000000000000000000000000000
310
00000000000000000000000000000000000000000000000000000000000000000000000000000000000000000000000000000000000000000000000000000000000000000000000000000000000000000000000000000000000000000000000000000000000000000000000000000000000000000000000000000000000000
310
00000000000000000000000000000000000000000000000000000000000000000000000000000000000000000000000000000000000000000000000000000000000000000000000000000000000000000000000000000000000000000000000000000000000000000000000000000000000000000000000000000000000000
310
00000000000000000000000000000000000000000000000000000000000000000000000000000000000000000000000000000000000000000000000000000000000000000000000000000000000000000000000000000000000000000000000000000000000000000000000000000000000000000000000000000000000000
310
00000000000000000000000000000000000000000000000000000000000000000000000000000000000000000000000000000000000000000000000000000000000000000000000000000000000000000000000000000000000000000000000000000000000000000000000000000000000000000000000000000000000000
310
00000000000000000000000000000000000000000000000000000000000000000000000000000000000000000000000000000000000000000000000000000000000000000000000000000000000000000000000000000000000000000000000000000000000000000000000000000000000000000000000000000000000000
310
00000000000000000000000000000000000000000000000000000000000000000000000000000000000000000000000000000000000000000000000000000000000000000000000000000000000000000000000000000000000000000000000000000000000000000000000000000000000000000000000000000000000000
310
00000000000000000000000000000000000000000000000000000000000000000000000000000000000000000000000000000000000000000000000000000000000000000000000000000000000000000000000000000000000000000000000000000000000000000000000000000000000000000000000000000000000000
310
00000000000000000000000000000000000000000000000000000000000000000000000000000000000000000000000000000000000000000000000000000000000000000000000000000000000000000000000000000000000000000000000000000000000000000000000000000000000000000000000000000000000000
310
00000000000000000000000000000000000000000000000000000000000000000000000000000000000000000000000000000000000000000000000000000000000000000000000000000000000000000000000000000000000000000000000000000000000000000000000000000000000000000000000000000000000000
310
00000000000000000000000000000000000000000000000000000000000000000000000000000000000000000000000000000000000000000000000000000000000000000000000000000000000000000000000000000000000000000000000000000000000000000000000000000000000000000000000000000000000000
310
00000000000000000000000000000000000000000000000000000000000000000000000000000000000000000000000000000000000000000000000000000000000000000000000000000000000000000000000000000000000000000000000000000000000000000000000000000000000000000000000000000000000000
310
00000000000000000000000000000000000000000000000000000000000000000000000000000000000000000000000000000000000000000000000000000000000000000000000000000000000000000000000000000000000000000000000000000000000000000000000000000000000000000000000000000000000000
310
00000000000000000000000000000000000000000000000000000000000000000000000000000000000000000000000000000000000000000000000000000000000000000000000000000000000000000000000000000000000000000000000000000000000000000000000000000000000000000000000000000000000000
310
00000000000000000000000000000000000000000000000000000000000000000000000000000000000000000000000000000000000000000000000000000000000000000000000000000000000000000000000000000000000000000000000000000000000000000000000000000000000000000000000000000000000000
310
00000000000000000000000000000000000000000000000000000000000000000000000000000000000000000000000000000000000000000000000000000000000000000000000000000000000000000000000000000000000000000000000000000000000000000000000000000000000000000000000000000000000000
310
00000000000000000000000000000000000000000000000000000000000000000000000000000000000000000000000000000000000000000000000000000000000000000000000000000000000000000000000000000000000000000000000000000000000000000000000000000000000000000000000000000000000000
310
00000000000000000000000000000000000000000000000000000000000000000000000000000000000000000000000000000000000000000000000000000000000000000000000000000000000000000000000000000000000000000000000000000000000000000000000000000000000000000000000000000000000000
310
000000000000000000000000000000BEBE00000000000000000000000000000000000000BEBE0000000000000000000000000000000000000000000000000000000000000000000000000000000000000000000000000000000000000000000000000000000000000000000000000000000000000000000000000000000000
310
00000000000000000000000000000000000000000000000000000000000000000000000000000000000000000000000000000000000000000000000000000000000000000000000000000000000000000000000000000000000000000000000000000000000000000000000000000000000000000000000000000000000000
310
0000000000000000000000000000000000BEBEBEBEBEBEBEBEBEBEBEBEBEBEBEBEBEBEBEBEBEBEBE000000000000000000000000000000000000000000000000000000000000000000000000000000000000000000000000000000000000000000000000000000000000000000000000000000000000000000000000000000
310
00000000000000000000000000000000000000000000000000000000000000000000000000000000000000000000000000000000000000000000000000000000000000000000000000000000000000000000000000000000000000000000000000000000000000000000000000000000000000000000000000000000000000
310
00000000000000000000000000000000000000BE0000000000000000BEBEBEBE000000000000000000BE00000000000000000000000000000000000000000000000000000000000000000000000000000000000000000000000000000000000000000000000000000000000000000000000000000000000000000000000000
310
00000000000000000000000000000000000000000000000000000000000000000000000000000000000000000000000000000000000000000000000000000000000000000000000000000000000000000000000000000000000000000000000000000000000000000000000000000000000000000000000000000000000000
310
000000000000000000000000000000000000000000BE000000000000000000BEBEBE000000000000000000BE0000000000000000000000000000000000000000000000000000000000000000000000000000000000000000000000000000000000000000000000000000000000000000000000000000000000000000000000
310
00000000000000000000000000000000000000000000000000000000000000000000000000000000000000000000000000000000000000000000000000000000000000000000000000000000000000000000000000000000000000000000000000000000000000000000000000000000000000000000000000000000000000
310
0000000000000000000000000000000000000000000000BE000000000000000000000000000000000000000000BE000000000000000000000000000000000000000000000000000000000000000000000000000000000000000000000000000000000000000000000000000000000000000000000000000000000000000000
310
00000000000000000000000000000000000000000000000000000000000000000000000000000000000000000000000000000000000000000000000000000000000000000000000000000000000000000000000000000000000000000000000000000000000000000000000000000000000000000000000000000000000000
310
00000000000000000000000000000000000000000000000000BE000000000000000000000000000000000000000000BE00000000000000000000000000000000000000000000000000000000000000000000000000000000000000000000000000000000000000000000000000000000000000000000000000000000000000
310
00000000000000000000000000000000000000000000000000000000000000000000000000000000000000000000000000000000000000000000000000000000000000000000000000000000000000000000000000000000000000000000000000000000000000000000000000000000000000000000000000000000000000
310
000000000000000000000000000000000000000000000000000000BE000000000000000000000000000000000000000000BE0000000000000000000000000000000000000000000000000000000000000000000000000000000000000000000000000000000000000000000000000000000000000000000000000000000000
310
00000000000000000000000000000000000000000000000000000000000000000000000000000000000000000000000000000000000000000000000000000000000000000000000000000000000000000000000000000000000000000000000000000000000000000000000000000000000000000000000000000000000000
310
0000000000000000000000000000000000000000000000000000000000BE000000000000000000000000000000000000000000BE000000000000000000000000000000000000000000000000000000000000000000000000000000000000000000000000000000000000000000000000000000000000000000000000000000
310
00000000000000000000000000000000000000000000000000000000000000000000000000000000000000000000000000000000000000000000000000000000000000000000000000000000000000000000000000000000000000000000000000000000000000000000000000000000000000000000000000000000000000
310
00000000000000000000000000000000000000000000000000000000000000BE000000000000000000000000000000000000000000BE00000000000000000000BE0000000000000000000000000000000000000000000000000000000000000000000000000000000000000000000000000000000000000000000000000000
310
00000000000000000000000000000000000000000000000000000000000000000000000000000000000000000000000000000000000000000000000000000000000000000000000000000000000000000000000000000000000000000000000000000000000000000000000000000000000000000000000000000000000000
310
000000000000000000000000000000000000000000000000000000000000000000BE000000000000000000000000000000000000000000BE000000000000000000BEBE000000000000000000000000000000000000000000000000000000000000000000000000000000000000000000000000000000000000000000000000
310
00000000000000000000000000000000000000000000000000000000000000000000000000000000000000000000000000000000000000000000000000000000000000000000000000000000000000000000000000000000000000000000000000000000000000000000000000000000000000000000000000000000000000
310
0000000000000000000000000000000000000000000000000000000000000000000000000000000000000000000000000000000000000000000000000000000000000000BE00000000000000000000000000000000000000000000000000000000000000000000000000000000000000000000000000000000000000000000
310
00000000000000000000000000000000000000000000000000000000000000000000000000000000000000000000000000000000000000000000000000000000000000000000000000000000000000000000000000000000000000000000000000000000000000000000000000000000000000000000000000000000000000
310
0000000000000000000000000000000000000000000000000000BEBEBEBEBEBEBEBEBEBEBEBE282828282828282828282828282828282828282828BEBEBEBEBEBEBEBEBEBEBEBE00000000000000000000000000000000000000000000000000002828282828282828280F28282828282828282828282828282828280F2828
310
282828282828282828282828282828280F28282828282828282828282828282828280F2828282828282828280000000000000000000000000000000000000000000000000000000000000000000000000000000000000000000000000000000000000000000000000000000000000000000000000000000000000000000000
310
00000000000000000000000000000000000000000000000000000000BE00000000BE0000000000280000000000000000000000000000000000000000002800000000000000BEBEBEBE00000000000000000000000000000000000000000000000000002800000000000000000F00000000000000000000000000000000000F
310
0000000000000000000000000000000000000F00000000000000000000000000000000000F000000000000000028000000000000000000000000000000000000000000000000000000000000000000000000000000000000000000000000000000000000000000000000000000000000000000000000000000000000000000
310
000000000000000000000000000000000000000000000000000000000000BE00000000BE000000000000280000000000000000000000000000282828282828BEBEBEBEBEBEBEBEBEBEBEBE00000000000000000000000000000000000000000000000000002828282828282828280F28282828282828282828282828282828
310
28282828282828282828282828282828282828280F28282828282828282828282828282828280F28282828282828282800000000000000000000000000000000000000000000000000000000000000000000000000000000000000000000000000000000000000000000000000000000000000000000000000000000000000
310
0000000000000000000000000000000000000000000000000000000000000000BE00000000BE0000000000002800000000000000BEBEBEBEBEBEBEBEBEBEBEBEBEBEBEBEBEBEBEBEBEBEBEBEBE00000000000000000000000000000000000000000000000000002828282828282828280F2828282828282828282828282828
310
2828280F0028282828282828282828282828282828000F28282828282828282828282828282828280F2828282828282828280000000000000000000000000000000000000000000000000000000000000000000000000000000000000000000000000000000000000000000000000000000000000000000000000000000000
310
00000000000000000000000000000000000000000000000000000000000000000000BE0000BEBEBE0000000000002800000000000028BE00000000000000000000002800000000000000BEBEBEBEBE00000000000000000000000000000000000000000000000000002800000000000028280F282800000000000000000000
310
00000000280F0028000000000000000000000000000028000F28000000000000000000000000000028280F282800000000000028000000000000000000000000000000000000000000000000000000000000000000000000000000000000000000000000000000000000000000000000000000000000000000000000000000
310
000000000000000000000000000000000000000000000000000000000000000000000000BE0000BEBEBE0000000000002800000000000028BE0000000000000000000000280000000000000000BEBEBEBE00000000000000000000000000000000000000000000000000002800000000000028280F28280000000000000000
310
000000000000280F0028000000000000000000000000000028000F28000000000000000000000000000028280F28280000000000002800000000000000000000000000000000000000000000000000000000000000000000000000000000000000000000000000000000000000000000000000000000000000000000000000
310
0000000000000000000000000000000000000000000000000000000000000000000000000000BE0000BEBEBE0000000000000028000000002800BE0000000000000000000028000000000000000000BEBEBEBE00000000000000000000000000000000000000000000000000002800000000000028280F2828000000000000
310
0000000000000000280F0028000000000000000000000000000028000F28000000000000000000000000000028280F2828000000000000280000000000000000000000000000000000000000000000000000000000000000000000000000000000000000000000000000000000000000000000000000000000000000000000
310
00000000000000000000000000000000000000000000000000000000000000000000000000000000BE0000BEBEBE00000000000000BE000000BEBEBEBEBEBEBEBEBEBEBEBEBEBEBEBEBEBEBEBEBEBEBEBEBEBEBEBE00000000000000000000000000000000000000000000000000002828282828282828280F282828282828
310
28282828282828282828280F0028282828282828282828282828282828000F28282828282828282828282828282828280F282828282828282828000000000000000000000000000000000000000000000000000000000000000000000000000000000000000000000000000000000000000000000000000000000000000000
310
000000000000000000000000000000000000000000000000000000000000000000000000000000000000BE00000000BE00000000000000BE000000BE0000BE00000000000000000028000000000000000000000000000000000000000000000000000000000000000000000000000000002800000000000028280F28280000
310
000000000000000000000000280F0028000000000000000000000000000028000F28000000000000000000000000000028280F28280000000000002800000000000000000000000000000000000000000000000000000000000000000000000000000000000000000000000000000000000000000000000000000000000000
310
0000000000000000000000000000000000000000000000000000000000000000000000000000000000000000BE00000000BE00000000000000BE280000BE2800BE0000000000000000002800000000000000000000000000000000000000000000000000000000000000000000000000000000280000000000002828002828
310
00000000000000000000000000002800002800000000000000000000000000002800002800000000000000000000000000002828002828000000000000280000000000000000000000000000000000000000000000000000000000000000000000000000000000000000000000000000000000000000000000000000000000
310
00000000000000000000000000000000000000000000000000000000000000000000000000000000000000000000BE00000000BE00000000000000BE2D2D2DBE2800BE282800000000000028000000000000000000000000000000000000000000000000000000000000000000000000000000000028000000000000282D2D
310
2D28000000000000BEBE0000000000002D2D2D2D000000000000BEBE0000000000002D2D2D2D000000000000BEBEBE0000000000282D2D2D2800000000000028000000000000000000000000000000000000000000000000000000000000000000000000000000000000000000000000000000000000000000000000000000
310
000000000000000000000000000000000000000000000000000000000000000000000000000000000000000000000000BE00000000BEBEBEBEBEBEBEBEBE2D2D2DBE2D0FBE28280000000000002800000000000000000000000000000000000000000000000000000000000000000000000000000000002800000000000028
310
2D2D2D280000000000BEBEBE0000000000002D2D2D2D000000000000BEBE0000000000002D2D2D2D000000000000BEBEBE0000000000282D2D2D280000000000002800000000000000000000000000000000000000000000000000000000000000000000000000000000000000000000000000000000000000000000000000
310
000000000000000000000000000000000000000000000000000000000000000000000000000000000000000000000000BE00BE000000000000000000000000BE002800BE2800BE0000000000000000280000000000000000000000000000000000000000000000000000000000000000000000000000000000280000000000
310
0028280F28280000000000000000000000000000280F0028000000000000000000000000000028000F28000000000000000000000000000028280F2828000000000000280000000000000000000000000000000000000000000000000000000000000000000000000000000000000000000000000000000000000000000000
310
0000000000000000000000000000000000000000000000000000000000000000000000000000000000000000000000000000BEBEBE000000000000000000000000BEBE28BEBEBEBEBE000000000000002800000000000000000000000000000000000000000000000000000000000000000000000000000000000028000000
310
00000028280F28280000000000000000000000000000280F0028000000000000000000000000000028000F28000000000000000000000000000028280F282800000000000028000000000000000000000000000000000000000000000000000000000000000000000000000000000000000000000000000000000000000000
310
00000000000000000000000000000000000000000000000000000000000000000000000000000000000000000000000000000000BEBEBE000000000000000000000000BEBEBEBEBEBEBEBE00000000000000280000000000000000000000000000000000000000000000000000000000000000000000000000000000002800
310
000000000028280F28280000000000000000000000000000280F0028000000000000000000000000000028000F28000000000000000000000000000028280F28280000000000002800000000000000000000000000000000000000000000000000000000000000000000000000000000000000000000000000000000000000
310
000000000000000000000000000000000000000000000000000000000000000000000000000000000000000000000000000000000000BEBEBE00000000000000000000000000BEBEBEBEBEBEBE0000000000002800000000000000000000000000000000000000000000000000000000000000000000000000000000000000
310
2800000000000028280F28280000000000000000000000000000280F0028000000000000000000000000000028000F28000000000000000000000000000028280F2828000000000000280000000000000000000000000000000000000000000000000000000000000000000000000000000000000000000000000000000000
310
00000000000000000000000000000000000000000000000000000000000000000000000000000000000000000000000000000000000000000000BE00000000000000000000000000BEBEBEBEBEBEBE000000000000280000000000000000000000000000000000000000000000000000000000000000000000000000000000
310
00002800000000000000280F28000000000000000000000000000000280F0028000000000000000000000000000028000F28000000000000000000000000000000280F280000000000000028000000000000000000000000000000000000000000000000000000000000000000000000000000000000000000000000000000
310
000000000000000000000000000000000000000000000000000000000000000000000000000000000000000000000000000000000000000000000000BE000000000000000000000000000000280000002800000000002800000000000000000000000000000000000000000000000000000000000000000000000000000000
310
000000002800000000000000280F28000000000000000000000000000000280F0028000000000000000000000000000028000F28000000000000000000000000000000280F28000000000000002800000000000000000000000000000000000000000000000000000000000000000000000000000000000000000000000000
310
0000000000000000000000000000000000000000000000000000000000000000000000000000000000000000000000000000000000000000000000000000BE000000000000000000000000000000BE000000280000000000280000000000000000000000000000000000000000000000000000000000000000000000000000
310
0000000000002800000000000000280F28000000000000000000000000000000280F0028000000000000000000000000000028000F28000000000000000000000000000000280F2800000000000000280000000000000000000000000000000000000000000000000000000000000000000000000000000000000000000000
310
00000000000000000000000000000000000000000000000000000000000000000000000000000000000000000000000000000000000000000000000000000000BE00000000000000000000000000BEBEBE28000028000000000028000000000000000000000000000000000000000000000000000000000000000000000000
310
00000000000000002800000000000000280F28000000000000000000000000000000280F0028000000000000000000000000000028000F28000000000000000000000000000000280F280000000000000028000000000000000000000000000000000000000000000000000000000000000000000000000000000000000000
310
000000000000000000000000000000000000000000000000000000000000000000000000000000000000000000000000000000000000000000000000000000000000BE0000000000000000000000000000BEBE2800002800000000280000000000000000000000000000000000000000000000000000000000000000000000
310
00000000000000000000280000000000000028002800000000000000000000000000000028000028000000000000000000000000000028000028000000000000000000000000000000280028000000000000002800000000000000000000000000000000000000000000000000000000000000000000000000000000000000
310
0000000000000000000000000000000000000000000000000000000000000000000000000000000000000000000000000000000000000000000000000000000000000000BE0000000000000000000000000000BEBEBE0000002800000028000000000000000000000000000000000000000000000000000000000000000000
310
0000000000000000000000002800000000000000280F28000000000000000000000000000000280F0028000000000000000000000000000028000F28000000000000000000000000000000280F2800000000000000280000000000000000000000000000000000000000000000000000000000000000000000000000000000
310
00000000000000000000000000000000000000000000000000000000000000000000000000000000000000000000000000000000000000000000000000000000000000000000BE0000000000000000000000000000BEBEBE280000280000280000000000000000000000000000000000000000000000000000000000000000
310
00000000000000000000000000002800000000000000280F28000000000000000000000000000000280F0028000000000000000000000000000028000F28000000000000000000000000000000280F280000000000000028000000000000000000000000000000000000000000000000000000000000000000000000000000
310
000000000000000000000000000000000000000000000000000000000000000000000000000000000000000000000000000000000000000000000000000000000000000000000000BE000000000000000000000000000000000028000028000028000000000000000000000000000000000000000000000000000000000000
310
000000000000000000000000000000002800000000000000280F28000000000000000000000000000000280F0028000000000000000000000000000028000F28000000000000000000000000000000280F28000000000000002800000000000000000000000000000000000000000000000000000000000000000000000000
310
0000000000000000000000000000000000000000000000000000000000000000000000000000000000000000000000000000000000000000000000000000000000000000000000000000BE00000000000000000000000000000000002800002800280000000000000000000000000000000000000000000000000000000000
310
0000000000000000000000000000000000002800000000000000280F28000000000000000000000000000000280F0028000000000000000000000000000028000F28000000000000000000000000000000280F2800000000000000280000000000000000000000000000000000000000000000000000000000000000000000
310
00000000000000000000000000000000000000000000000000000000000000000000000000000000000000000000000000000000000000000000000000000000000000000000000000000000BE0000000000000000000000000000000000280000002828000000000000000000000000000000000000000000000000000000
310
00000000000000000000000000000000000000002800000000000000280F28000000000000000000000000000000280F0028000000000000000000000000000028000F28000000000000000000000000000000280F280000000000000028000000000000000000000000000000000000000000000000000000000000000000
310
000000000000000000000000000000000000000000000000000000000000000000000000000000000000000000000000000000000000000000000000000000000000000000000000000000000000BE000000000000000000000000000000000000280000280000000000000000000000000000000000000000000000000000
310
000000000000000000000000000000000000000000002800000000000000280F28000000000000000000000000000000280F0028000000000000000000000000000028000F28000000000000000000000000000000280F28000000000000002800000000000000000000000000000000000000000000000000000000000000
310
0000000000000000000000000000000000000000000000000000000000000000000000000000000000000000000000000000000000000000000000000000000000000000000000000000000000000000BEBEBEBEBEBEBEBEBEBEBEBEBEBEBEBEBEBEBEBE2828BE000000000000000000000000000000000000000000000000
310
000000000000000000000000000000000000000000000000BE2828282828282828BE2828282828282828282828282828282828BE282828282828282828282828282828282828BE2828282828282828282828282828282828BE2828282828282828BE0000000000000000000000000000000000000000000000000000000000
310
0000000000000000000000000000000000000000000000000000000000000000000000000000000000000000000000000000000000000000000000000000000000000000000000000000000000000000000000000000000000000000000000000000000000BE0000BE00000000000000000000000000000000000000000000
310
0000000000000000000000000000000000000000000000000000BE0000000000000000BE0000000000000000000000000000000000BE000000000000000000000000000000000000BE0000000000000000000000000000000000BE0000000000000000BE000000000000000000000000000000000000000000000000000000
310
00000000000000000000000000000000000000000000000000000000000000000000000000000000000000000000000000000000000000000000000000000000000000000000000000000000000000000000000000000000000000000000000000000000000000BE0000BE0000000000000000000000000000000000000000
310
00000000000000000000000000000000000000000000000000000000BE0000000000000000BE0000000000000000000000000000000000BE000000000000000000000000000000000000BE0000000000000000000000000000000000BE0000000000000000BE00000000000000000000000000000000000000000000000000
310
000000000000000000000000000000000000000000000000000000000000000000000000000000000000000000000000000000000000000000000000000000000000000000000000000000000000000000000000000000000000000000000000000000000000000000BE0000BE000000000000000000000000000000000000
310
000000000000000000000000000000000000000000000000000000000000BE0000000000000000BE0000000000000000000000000000000000BE000000000000000000000000000000000000BE0000000000000000000000000000000000BE0000000000000000BE0000000000000000000000000000000000000000000000
310
0000000000000000000000000000000000000000000000000000000000000000000000000000000000000000000000000000000000000000000000000000000000000000000000000000000000000000000000000000000000000000000000000000000000000000000000BE0000BE00000000000000000000000000000000
310
0000000000000000000000000000000000000000000000000000000000000000BE0000000000000000BE0000000000000000000000000000000000BE000000000000000000000000000000000000BE0000000000000000000000000000000000BE0000000000000000BE000000000000000000000000000000000000000000
310
00000000000000000000000000000000000000000000000000000000000000000000000000000000000000000000000000000000000000000000000000000000000000000000000000000000000000000000000000000000000000000000000000000000000000000000000000BE0000BE0000000000000000000000000000
310
00000000000000000000000000000000000000000000000000000000000000000000BEBE000000000000BEBEBE000000000000000000000000000000BEBEBE00000000000000000000000000000000BEBEBE000000000000000000000000000000BEBEBE000000000000BEBE00000000000000000000000000000000000000
310
000000000000000000000000000000000000000000000000000000000000000000000000000000000000000000000000000000000000000000000000000000000000000000000000000000000000000000000000000000000000000000000000000000000000000000000000000000BE0000BE000000000000000000000000
310
000000000000000000000000000000000000000000000000000000000000000000000000BEBEBEBEBEBEBEBEBEBEBEBEBEBEBEBEBEBEBEBEBEBEBEBEBEBEBEBEBEBEBEBEBEBEBEBEBEBEBEBEBEBEBEBEBEBEBEBEBEBEBEBEBEBEBEBEBEBEBEBEBEBEBEBEBEBEBEBEBEBEBEBEBEBE0000000000000000000000000000000000
310
0000000000000000000000000000000000000000000000000000000000000000000000000000000000000000000000000000000000000000000000000000000000000000000000000000000000000000000000000000000000000000000000000000000000000000000000000000000000BE0000BE00000000000000000000
310
0000000000000000000000000000000000000000000000000000000000000000000000000000BE0000BEBEBEBE00000000000000000000BEBEBEBE0000000000000000000000000000BEBEBEBE0000000000000000000000000000BEBEBEBE00000000000000000000BEBEBEBE0000BE000000000000000000000000000000
310
0000000000000000000000000000000000000000000000000000000000000000000000000000000000000000000000000000000000000000000000000000000000000000000000000000000000000000000000000000000000000000000000000000000000000000000000000000000000BEBEBE0000BEBEBE000000000000
310
00000000000000000000000000000000000000000000000000000000000000000000000000000000BE0000BEBEBEBE00000000000000000000BEBEBEBE0000000000000000000000000000BEBEBEBE0000000000000000000000000000BEBEBEBE00000000000000000000BEBEBEBE0000BE00000000000000000000000000
310
00000000000000000000000000000000000000000000000000000000000000000000000000000000000000000000000000000000000000000000000000000000000000000000000000000000000000000000000000000000000000000000000000000000000000000000000000000000000000000000BEBE00000000000000
310
000000000000000000000000000000000000000000000000000000000000000000000000000000000000BEBEBEBEBEBEBEBEBEBEBEBEBEBEBEBEBEBEBEBEBEBEBEBEBEBEBEBEBEBEBEBEBEBEBEBEBEBEBEBEBEBEBEBEBEBEBEBEBEBEBEBEBEBEBEBEBEBEBEBEBEBEBEBEBEBEBEBEBEBEBEBEBEBE0000000000000000000000
310
0000000000000000000000000000000000000000000000000000000000000000000000000000000000000000000000000000000000000000000000000000000000000000000000000000000000000000000000000000000000000000000000000000000000000000000000000000000000000000000000BEBEBE0000000000
310
000000000000000000000000000000000000000000000000000000000000000000000000000000000000000000000000000000000000000000000000000000000000000000000000000000000000BEBEBEBEBEBE00000000000000000000000000000000000000000000000000000000000000000000000000000000000000
310
00000000000000000000000000000000000000000000000000000000000000000000000000000000000000000000000000000000000000000000000000000000000000000000000000000000000000000000000000000000000000000000000000000000000000BEBEBEBEBEBE000000000000000000000000000000000000
310
0000000000000000000000000000000000000000000000000000000000000000000000BEBE00BEBEBE00BEBE000000000000000000000000000000000000000000000000000000000000000000000000BEBEBEBEBEBE0000000000000000000000000000000000000000000000000000000000000000000000000000000000
310
000000000000000000000000000000000000000000000000000000000000000000000000000000000000000000000000000000000000000000000000000000000000000000000000000000000000000000000000000000000000000000000000000000000000000000BEBEBEBEBEBE00000000000000000000000000000000
310
00000000000000000000000000000000000000000000000000000000000000000000000000BEBEBEBEBEBEBEBEBEBE0000000000000000000000000000000000000000000000000000000000000000000000000000000000000000000000000000000000000000000000000000000000000000000000000000000000000000
310
0000000000000000000000000000000000000000000000000000000000000000000000000000000000000000000000000000000000000000000000000000000000000000000000000000000000000000000000000000000000000000000000000000000000000000000000BEBEBEBEBEBE0000000000000000000000000000
310
000000000000000000000000000000000000000000000000000000000000000000000000000000BEBEBEBEBEBEBEBEBEBE000000000000000000000000000000000000000000000000000000000000000000000000000000000000000000000000000000000000000000000000000000000000000000000000000000000000
310
0000000000000000000000000000000000000000000000000000000000000000000000000000000000000000000000000000000000000000000000000000000000000000000000000000000000000000000000000000000000000000000000000000000000000000000000000000BE00000000000000000000000000000000
310
0000000000000000000000000000000000000000000000000000000000000000000000000000000000BE0000BEBEBE00BEBE0000000000000000000000000000000000000000000000000000000000000000000000000000000000000000000000000000000000000000000000000000000000000000000000000000000000
310
00000000000000000000000000000000000000000000000000000000000000000000000000000000000000000000000000000000000000000000000000000000000000000000000000000000000000000000000000000000000000000000000000000000000000000000000000000000000000000000000000000000000000
310
00000000000000000000000000000000000000000000000000000000000000000000000000000000000000000000000000000000000000000000000000000000000000000000000000000000000000000000000000000000000000000000000000000000000000000000000000000000000000000000000000000000000000
310
00000000000000000000000000000000000000000000000000000000000000000000000000000000000000000000000000000000000000000000000000000000000000000000000000000000000000000000000000000000000000000000000000000000000000000000000000000000000000000000000000000000000000
310
00000000000000000000000000000000000000000000000000000000000000000000000000000000000000000000000000000000000000000000000000000000000000000000000000000000000000000000000000000000000000000000000000000000000000000000000000000000000000000000000000000000000000
310
00000000000000000000000000000000000000000000000000000000000000000000000000000000000000000000000000000000000000000000000000000000000000000000000000000000000000000000000000000000000000000000000000000000000000000000000000000000000000000000000000000000000000
310
00000000000000000000000000000000000000000000000000000000000000000000000000000000000000000000000000000000000000000000000000000000000000000000000000000000000000000000000000000000000000000000000000000000000000000000000000000000000000000000000000000000000000
310
00000000000000000000000000000000000000000000000000000000000000000000000000000000000000000000000000000000000000000000000000000000000000000000000000000000000000000000000000000000000000000000000000000000000000000000000000000000000000000000000000000000000000
310
00000000000000000000000000000000000000000000000000000000000000000000000000000000000000000000000000000000000000000000000000000000000000000000000000000000000000000000000000000000000000000000000000000000000000000000000000000000000000000000000000000000000000
310
00000000000000000000000000000000000000000000000000000000000000000000000000000000000000000000000000000000000000000000000000000000000000000000000000000000000000000000000000000000000000000000000000000000000000000000000000000000000000000000000000000000000000
310
00000000000000000000000000000000000000000000000000000000000000000000000000000000000000000000000000000000000000000000000000000000000000000000000000000000000000000000000000000000000000000000000000000000000000000000000000000000000000000000000000000000000000
310
00000000000000000000000000000000000000000000000000000000000000000000000000000000000000000000000000000000000000000000000000000000000000000000000000000000000000000000000000000000000000000000000000000000000000000000000000000000000000000000000000000000000000
310
00000000000000000000000000000000000000000000000000000000000000000000000000000000000000000000000000000000000000000000000000000000000000000000000000000000000000000000000000000000000000000000000000000000000000000000000000000000000000000000000000000000000000
310
00000000000000000000000000000000000000000000000000000000000000000000000000000000000000000000000000000000000000000000000000000000000000000000000000000000000000000000000000000000000000000000000000000000000000000000000000000000000000000000000000000000000000
310
00000000000000000000000000000000000000000000000000000000000000000000000000000000000000000000000000000000000000000000000000000000000000000000000000000000000000000000000000000000000000000000000000000000000000000000000000000000000000000000000000000000000000
310
00000000000000000000000000000000000000000000000000000000000000000000000000000000000000000000000000000000000000000000000000000000000000000000000000000000000000000000000000000000000000000000000000000000000000000000000000000000000000000000000000000000000000
310
00000000000000000000000000000000000000000000000000000000000000000000000000000000000000000000000000000000000000000000000000000000000000000000000000000000000000000000000000000000000000000000000000000000000000000000000000000000000000000000000000000000000000
310
00000000000000000000000000000000000000000000000000000000000000000000000000000000000000000000000000000000000000000000000000000000000000000000000000000000000000000000000000000000000000000000000000000000000000000000000000000000000000000000000000000000000000
310
00000000000000000000000000000000000000000000000000000000000000000000000000000000000000000000000000000000000000000000000000000000000000000000000000000000000000000000000000000000000000000000000000000000000000000000000000000000000000000000000000000000000000
310
00000000000000000000000000000000000000000000000000000000000000000000000000000000000000000000000000000000000000000000000000000000000000000000000000000000000000000000000000000000000000000000000000000000000000000000000000000000000000000000000000000000F5F5F5
310
00F5F500F5F500F5F50000000000000000F500000000F50000000000000000000000F500F50000000000F5000000F5F50000F5F5000000000000000000000000000000000000000000000000000000000000000000000000000000000000000000000000000000000000000000000000000000000000000000000000000000
310
000000000000000000000000000000000000000000000000000000000000000000000000000000000000000000000000000000000000000000000000000000000000000000000000000000000000000000000000000000000000000000000000000000000000000000000000000000000000000000000000000000000000F5
310
00F5F5F500F5F5F50000F5F50000F5F5F5000000F500000000F500000000000000000000F500F50000000000F50000F50000F5F500F500000000000000000000000000000000000000000000000000000000000000000000000000000000000000000000000000000000000000000000000000000000000000000000000000
310
00000000000000000000000000000000000000000000000000000000000000000000000000000000000000000000000000000000000000000000000000000000000000000000000000000000000000000000000000000000000000000000000000000000000000000000000000000000000000000000000000000000000000
310
0000F5F50000F5F5F5F5000000F50000F500F50000F500F5000000F500000000000000000000F5F5F500F5F5F50000F500000000F5F500F50000000000000000000000000000000000000000000000000000000000000000000000000000000000000000000000000000000000000000000000000000000000000000000000
310
00000000000000000000000000000000000000000000000000000000000000000000000000000000000000000000000000000000000000000000000000000000000000000000000000000000000000000000000000000000000000000000000000000000000000000000000000000000000000000000000000000000000000
310
000000F5F5F5F5F5F500F50000000000F500F500F500F5F500F500F5F500F5000000000000000000F500F5000000000000F500F5F5F500F500F5000000000000000000000000000000000000000000000000000000000000000000000000000000000000000000000000000000000000000000000000000000000000000000
310
00000000000000000000000000000000000000000000000000000000000000000000000000000000000000000000000000000000000000000000000000000000000000000000000000000000000000000000000000000000000000000000000000000000000000000000000000000000000000000000000000000000000000
310
000000000000F5F5F500F5F5F5F500F5F5F5F500F5F5F500000000000000F5F5F5000000000000000000F500F500000000000000F5F5000000F500F500000000000000000000000000000000000000000000000000000000000000000000000000000000000000000000000000000000000000000000000000000000000000
310
00000000000000000000000000000000000000000000000000000000000000000000000000000000000000000000000000000000000000000000000000000000000000000000000000000000000000000000000000000000000000000000000000000000000000000000000000000000000000000000000000000000000000
310
00000000000000F500F5000000F5F500000000F5F50000000000000000000000000000000000000000000000F500F50000000000F5F5F5F5F5F5F500F5F50000000000000000000000000000000000000000000000000000000000000000000000000000000000000000000000000000000000000000000000000000000000
310
00000000000000000000000000000000000000000000000000000000000000000000000000000000000000000000000000000000000000000000000000000000000000000000000000000000000000000000000000000000000000000000000000000000000000000000000000000000000000000000000000000000000000
310
00000000000000000000000000000000000000000000000000000000000000000000000000000000000000000000000000000000000000000000000000000000000000000000000000000000000000000000000000000000000000000000000000000000000000000000000000000000000000000000000000000000000000
310
00000000000000000000000000000000000000000000000000000000000000000000000000000000000000000000000000000000000000000000000000000000000000000000000000000000000000000000000000000000000000000000000000000000000000000000000000000000000000000000000000000000000000
310
00000000000000000000000000000000000000000000000000000000000000000000000000000000000000000000000000000000000000000000000000000000000000000000000000000000000000000000000000000000000000000000000000000000000000000000000000000000000000000000000000000000000000
310
00000000000000000000000000000000000000000000000000000000000000000000000000000000000000000000000000000000000000000000000000000000000000000000000000000000000000000000000000000000000000000000000000000000000000000000000000000000000000000000000000000000000000
310
00000000000000000000000000000000000000000000000000000000000000000000000000000000000000000000000000000000000000000000000000000000000000000000000000000000000000000000000000000000000000000000000000000000000000000000000000000000000000000000000000000000000000
310
00000000000000000000000000000000000000000000000000000000000000000000000000000000000000000000000000000000000000000000000000000000000000000000000000000000000000000000000000000000000000000000000000000000000000000000000000000000000000000000000000000000000000
310
00000000000000000000000000000000000000000000000000000000000000000000000000000000000000000000000000000000000000000000000000000000000000000000000000000000000000000000000000000000000000000000000000000000000000000000000000000000000000000000000000000000000000
310
00000000000000000000000000000000000000000000000000000000000000000000000000000000000000000000000000000000000000000000000000000000000000000000000000000000000000000000000000000000000000000000000000000000000000000000000000000000000000000000000000000000000000
310
00000000000000000000000000000000000000000000000000000000000000000000000000000000000000000000000000000000000000000000000000000000000000000000000000000000000000000000000000000000000000000000000000000000000000000000000000000000000000000000000000000000000000
310
00000000000000000000000000000000000000000000000000000000000000000000000000000000000000000000000000000000000000000000000000000000000000000000000000000000000000000000000000000000000000000000000000000000000000000000000000000000000000000000000000000000000000
310
00000000000000000000000000000000000000000000000000000000000000000000000000000000000000000000000000000000000000000000000000000000000000000000000000000000000000000000000000000000000000000000000000000000000000000000000000000000000000000000000000000000000000
310
00000000000000000000000000000000000000000000000000000000000000000000000000000000000000000000000000000000000000000000000000000000000000000000000000000000000000000000000000000000000000000000000000000000000000000000000000000000000000000000000000000000000000
310
00000000000000000000000000000000000000000000000000000000000000000000000000000000000000000000000000000000000000000000000000000000000000000000000000000000000000000000000000000000000000000000000000000000000000000000000000000000000000000000000000000000000000
310
00000000000000000000000000000000000000000000000000000000000000000000000000000000000000000000000000000000000000000000000000000000000000000000000000000000000000000000000000000000000000000000000000000000000000000000000000000000000000000000000000000000000000
310
00000000000000000000000000000000000000000000000000000000000000000000000000000000000000000000000000000000000000000000000000000000000000000000000000000000000000000000000000000000000000000000000000000000000000000000000000000000000000000000000000000000000000
310
00000000000000000000000000000000000000000000000000000000000000000000000000000000000000000000000000000000000000000000000000000000000000000000000000000000000000000000000000000000000000000000000000000000000000000000000000000000000000000000000000000000000000
310
00000000000000000000000000000000000000000000000000000000000000000000000000000000000000000000000000000000000000000000000000000000000000000000000000000000000000000000000000000000000000000000000000000000000000000000000000000000000000000000000000000000000000
310
00000000000000000000000000000000000000000000000000000000000000000000000000000000000000000000000000000000000000000000000000000000000000000000000000000000000000000000000000000000000000000000000000000000000000000000000000000000000000000000000000000000000000
310
00000000000000000000000000000000000000000000000000000000000000000000000000000000000000000000000000000000000000000000000000000000000000000000000000000000000000000000000000000000000000000000000000000000000000000000000000000000000000000000000000000000000000
310
00000000000000000000000000000000000000000000000000000000000000000000000000000000000000000000000000000000000000000000000000000000000000000000000000000000000000000000000000000000000000000000000000000000000000000000000000000000000000000000000000000000000000
310
00000000000000000000000000000000000000000000000000000000000000000000000000000000000000000000000000000000000000000000000000000000000000000000000000000000000000000000000000000000000000000000000000000000000000000000000000000000000000000000000000000000000000
310
00000000000000000000000000000000000000000000000000000000000000000000000000000000000000000000000000000000000000000000000000000000000000000000000000000000000000000000000000000000000000000000000000000000000000000000000000000000000000000000000000000000000000
310
00000000000000000000000000000000000000000000000000000000000000000000000000000000000000000000000000000000000000000000000000000000000000000000000000000000000000000000000000000000000000000000000000000000000000000000000000000000000000000000000000000000000000
310
00000000000000000000000000000000000000000000000000000000000000000000000000000000000000000000000000000000000000000000000000000000000000000000000000000000000000000000000000000000000000000000000000000000000000000000000000000000000000000000000000000000000000
310
00000000000000000000000000000000000000000000000000000000000000000000000000000000000000000000000000000000000000000000000000000000000000000000000000000000000000000000000000000000000000000000000000000000000000000000000000000000000000000000000000000000000000
310
00000000000000000000000000000000000000000000000000000000000000000000000000000000000000000000000000000000000000000000000000000000000000000000000000000000000000000000000000000000000000000000000000000000000000000000000000000000000000000000000000000000000000
310
00000000000000000000000000000000000000000000000000000000000000000000000000000000000000000000000000000000000000000000000000000000000000000000000000000000000000000000000000000000000000000000000000000000000000000000000000000000000000000000000000000000000000
310
00000000000000000000000000000000000000000000000000000000000000000000000000000000000000000000000000000000000000000000000000000000000000000000000000000000000000000000000000000000000000000000000000000000000000000000000000000000000000000000000000000000000000
310
00000000000000000000000000000000000000000000000000000000000000000000000000000000000000000000000000000000000000000000000000000000000000000000000000000000000000000000000000000000000000000000000000000000000000000000000000000000000000000000000000000000000000
310
00000000000000000000000000000000000000000000000000000000000000000000000000000000000000000000000000000000000000000000000000000000000000000000000000000000000000000000000000000000000000000000000000000000000000000000000000000000000000000000000000000000000000
310
00000000000000000000000000000000000000000000000000000000000000000000000000000000000000000000000000000000000000000000000000000000000000000000000000000000000000000000000000000000000000000000000000000000000000000000000000000000000000000000000000000000000000
310
00000000000000000000000000000000000000000000000000000000000000000000000000000000000000000000000000000000000000000000000000000000000000000000000000000000000000000000000000000000000000000000000000000000000000000000000000000000000000000000000000000000000000
310
00000000000000000000000000000000000000000000000000000000000000000000000000000000000000000000000000000000000000000000000000000000000000000000000000000000000000000000000000000000000000000000000000000000000000000000000000000000000000000000000000000000000000
310
00000000000000000000000000000000000000000000000000000000000000000000000000000000000000000000000000000000000000000000000000000000000000000000000000000000000000000000000000000000000000000000000000000000000000000000000000000000000000000000000000000000000000
310
00000000000000000000000000000000000000000000000000000000000000000000000000000000000000000000000000000000000000000000000000000000000000000000000000000000000000000000000000000000000000000000000000000000000000000000000000000000000000000000000000000000000000
310
00000000000000000000000000000000000000000000000000000000000000000000000000000000000000000000000000000000000000000000000000000000000000000000000000000000000000000000000000000000000000000000000000000000000000000000000000000000000000000000000000000000000000
310
00000000000000000000000000000000000000000000000000000000000000000000000000000000000000000000000000000000000000000000000000000000000000000000000000000000000000000000000000000000000000000000000000000000000000000000000000000000000000000000000000000000000000
310
00000000000000000000000000000000000000000000000000000000000000000000000000000000000000000000000000000000000000000000000000000000000000000000000000000000000000000000000000000000000000000000000000000000000000000000000000000000000000000000000000000000000000
310
00000000000000000000000000000000000000000000000000000000000000000000000000000000000000000000000000000000000000000000000000000000000000000000000000000000000000000000000000000000000000000000000000000000000000000000000000000000000000000000000000000000000000
310
00000000000000000000000000000000000000000000000000000000000000000000000000000000000000000000000000000000000000000000000000000000000000000000000000000000000000000000000000000000000000000000000000000000000000000000000000000000000000000000000000000000000000
310
00000000000000000000000000000000000000000000000000000000000000000000000000000000000000000000000000000000000000000000000000000000000000000000000000000000000000000000000000000000000000000000000000000000000000000000000000000000000000000000000000000000000000
310
00000000000000000000000000000000000000000000000000000000000000000000000000000000000000000000000000000000000000000000000000000000000000000000000000000000000000000000000000000000000000000000000000000000000000000000000000000000000000000000000000000000000000
310
00000000000000000000000000000000000000000000000000000000000000000000000000000000000000000000000000000000000000000000000000000000000000000000000000000000000000000000000000000000000000000000000000000000000000000000000000000000000000000000000000000000000000
310
00000000000000000000000000000000000000000000000000000000000000000000000000000000000000000000000000000000000000000000000000000000000000000000000000000000000000000000000000000000000000000000000000000000000000000000000000000000000000000000000000000000000000
310
00000000000000000000000000000000000000000000000000000000000000000000000000000000000000000000000000000000000000000000000000000000000000BEBE00000000000000000000000000BE00BE000000000000000000000000000000000000000000000000000000000000000000000000000000000000
310
00000000000000000000000000000000000000000000000000000000000000000000000000000000000000000000000000000000000000000000000000000000000000000000000000000000000000000000000000000000000000000000000000000000000000000000000000000000000000000000000000000000000000
310
000000000000000000000000000000000000000000000000000000000000000000000000000000000000000000000000000000000000000000000000000000000000000000BEBEBEBEBEBEBEBEBEBEBEBEBEBEBEBEBEBE00000000000000000000000000000000000000000000000000000000000000000000000000000000
310
00000000000000000000000000000000000000000000000000000000000000000000000000000000000000000000000000000000000000000000000000000000000000000000000000000000000000000000000000000000000000000000000000000000000000000000000000000000000000000000000000000000000000
310
0000000000000000000000000000000000000000000000000000000000000000000000000000000000000000000000000000000000000000000000000000000000000000000000BE000000000000BEBEBEBE000000000000BE0000000000000000000000000000000000000000000000000000000000000000000000000000
310
00000000000000000000000000000000000000000000000000000000000000000000000000000000000000000000000000000000000000000000000000000000000000000000000000000000000000000000000000000000000000000000000000000000000000000000000000000000000000000000000000000000000000
310
00000000000000000000000000000000000000000000000000000000000000000000000000000000000000000000000000000000000000000000000000000000000000000000000000BE000000000000BEBEBEBE000000000000BE000000000000000000000000000000000000000000000000000000000000000000000000
310
00000000000000000000000000000000000000000000000000000000000000000000000000000000000000000000000000000000000000000000000000000000000000000000000000000000000000000000000000000000000000000000000000000000000000000000000000000000000000000000000000000000000000
310
000000000000000000000000000000000000000000000000000000000000000000000000000000000000000000000000000000000000000000000000000000000000000000000000000000BE00000000000000000000000000000000BE00000000000000000000000000000000000000000000000000000000000000000000
310
00000000000000000000000000000000000000000000000000000000000000000000000000000000000000000000000000000000000000000000000000000000000000000000000000000000000000000000000000000000000000000000000000000000000000000000000000000000000000000000000000000000000000
310
0000000000000000000000000000000000000000000000000000000000000000000000000000000000000000000000000000000000000000000000000000000000000000000000000000000000BE00000000000000000000000000000000BE0000000000000000000000000000000000000000000000000000000000000000
310
00000000000000000000000000000000000000000000000000000000000000000000000000000000000000000000000000000000000000000000000000000000000000000000000000000000000000000000000000000000000000000000000000000000000000000000000000000000000000000000000000000000000000
310
00000000000000000000000000000000000000000000000000000000000000000000000000000000000000000000000000000000000000000000000000000000000000000000000000000000000000BE00000000000000000000000000000000BE000000000000000000000000000000000000000000000000000000000000
310
00000000000000000000000000000000000000000000000000000000000000000000000000000000000000000000000000000000000000000000000000000000000000000000000000000000000000000000000000000000000000000000000000000000000000000000000000000000000000000000000000000000000000
310
000000000000000000000000000000000000000000000000000000000000000000000000000000000000000000000000000000000000000000000000000000000000000000000000000000000000000000BE00000000000000000000000000000000BE00000000000000000000000000000000000000000000000000000000
310
00000000000000000000000000000000000000000000000000000000000000000000000000000000000000000000000000000000000000000000000000000000000000000000000000000000000000000000000000000000000000000000000000000000000000000000000000000000000000000000000000000000000000
310
0000000000000000000000000000000000000000000000000000000000000000000000000000000000000000000000000000000000000000000000000000000000000000000000000000000000000000000000BE00000000000000000000000000000000BE000000000000000000BE00000000000000000000000000000000
310
00000000000000000000000000000000000000000000000000000000000000000000000000000000000000000000000000000000000000000000000000000000000000000000000000000000000000000000000000000000000000000000000000000000000000000000000000000000000000000000000000000000000000
310
00000000000000000000000000000000000000000000000000000000000000000000000000000000000000000000000000000000000000000000000000000000000000000000000000000000000000000000000000BE00000000000000000000000000000000BE000000000000000000BE0000000000000000000000000000
310
00000000000000000000000000000000000000000000000000000000000000000000000000000000000000000000000000000000000000000000000000000000000000000000000000000000000000000000000000000000000000000000000000000000000000000000000000000000000000000000000000000000000000
310
00000000000000000000000000000000000000000000000000000000000000000000000000000000000000000000000000000000000000000000000000000000000000000000000000BEBEBEBEBEBEBEBEBEBEBEBEBEBEBE28282828282828282828282828282828BEBEBEBEBEBEBEBEBEBEBE000000000000000000000000
310
00000000000000000000000000000000002828282828282828280F2828282828282828282828282828282828280F28282828282828282828282828282828280F2828282828282828282828282828282828280F2828282828282828280000000000000000000000000000000000000000000000000000000000000000000000
310
00000000000000000000000000000000000000000000000000000000000000000000000000000000000000000000000000000000000000000000000000000000000000000000000000000000BE000000BEBE0000000000000028000000000000000000000000000000002800000000000000BE00BE00000000000000000000
310
000000000000000000000000000000000000002800000000000000000F0000000000000000000000000000000000000F00000000000000000000000000000000000F0000000000000000000000000000000000000F000000000000000028000000000000000000000000000000000000000000000000000000000000000000
310
0000000000000000000000000000000000000000000000000000000000000000000000000000000000000000000000000000000000000000000000000000000000000000000000000000000000BEBE000000BEBE0000000000000000280000000000000000000000000000002800000000000000BEBEBE0000000000000000
310
0000000000000000000000000000000000000000002800000000000000000F0000000000000000000000000000000000000F00000000000000000000000000000000000F0000000000000000000000000000000000000F00000000000000002800000000000000000000000000000000000000000000000000000000000000
310
0000000000000000000000000000000000000000000000000000000000000000000000000000000000000000000000000000000000000000000000000000000000000000000000000000000000000000BE00BEBEBE000000000000000000280000000000BE282828282828282828BEBEBEBEBEBEBEBEBEBEBE000000000000
310
00000000000000000000000000000000000000000000002828282828282828280F2828282828282828282828282828282828280F28282828282828282828282828282828280F2828282828282828282828282828282828280F2828282828282828280000000000000000000000000000000000000000000000000000000000
310
00000000000000000000000000000000000000000000000000000000000000000000000000000000000000000000000000000000000000000000000000000000000000000000000000000000000000000000BE00BEBEBE000000000000000000280000000028BE0000000000000000280000000000000000BEBEBE00000000
310
000000000000000000000000000000000000000000000000002800000000000000280F0028000000000000000000000000000000280F28000000000000000000000000000000280F2800000000000000000000000000000028000F280000000000000028000000000000000000000000000000000000000000000000000000
310
000000000000000000000000000000000000000000000000000000000000000000000000000000000000000000000000000000000000000000000000000000000000000000000000000000000000000000000000BE00BEBEBE000000000000000000002800002800BE0000000000000000280000000000000000BEBEBE0000
310
0000000000000000000000000000000000000000000000000000002800000000000000280F0028000000000000000000000000000028280F28000000000000000000000000000028280F2828000000000000000000000000000028000F28000000000000002800000000000000000000000000000000000000000000000000
310
0000000000000000000000000000000000000000000000000000000000000000000000000000000000000000000000000000000000000000000000000000000000000000000000000000000000000000000000000000BE0000BEBE00000000000000000000BE00BEBEBEBEBEBEBEBEBEBEBEBEBEBEBEBEBEBEBEBEBEBEBEBE
310
00000000000000000000000000000000000000000000000000000000002828282828282828280F0028282828282828282828282828282828280F28282828282828282828282828282828280F2828282828282828282828282828282828000F2828282828282828280000000000000000000000000000000000000000000000
310
00000000000000000000000000000000000000000000000000000000000000000000000000000000000000000000000000000000000000000000000000000000000000000000000000000000000000000000000000000000BE000000BEBE000000000000000000BE2DBE2D00BE282800000000002800000000000000000000
310
00BE000000000000000000000000000000000000000000000000000000000028000000000000002D2D2D2D000000000000BEBE000000000000282D2D2D000000000000BEBEBE0000000000282D2D2D28000000000000BEBE0000000000002D2D2D2D0000000000000028000000000000000000000000000000000000000000
310
00000000000000000000000000000000000000000000000000000000000000000000000000000000000000000000000000000000000000000000000000000000000000000000000000000000000000000000000000000000BEBEBE000000BEBEBEBEBEBEBEBEBEBEBEBE0FBE280FBE28280000000028000000000000000000
310
000000BE000000000000000000000000000000000000000000000000000000000028000000000000002D2D2D2D000000000000BEBEBE0000000000282D2D2D000000000000BEBEBE0000000000282D2D2D280000000000BEBEBE0000000000002D2D2D2D000000000000002800000000000000000000000000000000000000
310
000000000000000000000000000000000000000000000000000000000000000000000000000000000000000000000000000000000000000000000000000000000000000000000000000000000000000000000000000000000000BEBEBE0000000000000000000000000000BE2DBE2800BE0000000000002800000000000000
310
00000000000000000000000000000000000000000000000000000000000000000000002800000000000000280F002800000000000000BE00000000000028280F2800000000000000BE00000000000028280F2828000000000000BE0000000000000028000F2800000000000000280000000000000000000000000000000000
310
0000000000000000000000000000000000000000000000000000000000000000000000000000000000000000000000000000000000000000000000000000000000000000000000000000000000000000000000000000000000000000BEBEBE0000000000000000000000BEBEBEBEBEBEBEBEBEBEBE00000028000000000000
310
000000000000000000000000000000000000000000000000000000000000000000000000002800000000000000280F0028000000000000000000000000000028280F28000000000000000000000000000028280F2828000000000000000000000000000028000F280000000000000028000000000000000000000000000000
310
00000000000000000000000000000000000000000000000000000000000000000000000000000000000000000000000000000000000000000000000000000000000000000000000000000000000000000000000000000000000000000000BEBEBE000000000000000000000000000000BEBEBEBE0000000000002800000000
310
0000000000000000000000000000000000000000000000000000000000000000000000000000002800000000000000280F0028000000000000000000000000000028280F28000000000000000000000000000028280F2828000000000000000000000000000028000F28000000000000002800000000000000000000000000
310
0000000000000000000000000000000000000000000000000000000000000000000000000000000000000000000000000000000000000000000000000000000000000000000000000000000000000000000000000000000000000000000000000000BE0000000000000000000000000000BEBEBEBEBE000000000028000000
310
00000000000000000000000000000000000000000000000000000000000000000000000000000000002800000000000000280F0028000000000000000000000000000028280F28000000000000000000000000000028280F2828000000000000000000000000000028000F2800000000000000280000000000000000000000
310
00000000000000000000000000000000000000000000000000000000000000000000000000000000000000000000000000000000000000000000000000000000000000000000000000000000000000000000000000000000000000000000000000000000BE000000000000000000000000000000BE28002800000000280000
310
000000000000000000000000000000000000000000000000000000000000000000000000000000000000002800000000000000280F0028000000000000000000000000000000280F28000000000000000000000000000000280F2800000000000000000000000000000028000F280000000000000028000000000000000000
310
000000000000000000000000000000000000000000000000000000000000000000000000000000000000000000000000000000000000000000000000000000000000000000000000000000000000000000000000000000000000000000000000000000000000BE0000000000000000000000000000BEBE2800280000000028
310
0000000000000000000000000000000000000000000000000000000000000000000000000000000000000000002800000000000000280F0028000000000000000000000000000000280F28000000000000000000000000000000280F2800000000000000000000000000000028000F28000000000000002800000000000000
310
0000000000000000000000000000000000000000000000000000000000000000000000000000000000000000000000000000000000000000000000000000000000000000000000000000000000000000000000000000000000000000000000000000000000000000BE0000000000000000000000000000BEBEBE2800280000
310
28000000000000000000000000000000000000000000000000000000000000000000000000000000000000000000002800000000000000280F0028000000000000000000000000000000280F28000000000000000000000000000000280F2800000000000000000000000000000028000F2800000000000000280000000000
310
00000000000000000000000000000000000000000000000000000000000000000000000000000000000000000000000000000000000000000000000000000000000000000000000000000000000000000000000000000000000000000000000000000000000000000000BE0000000000000000000000000000BEBEBE280028
310
000028000000000000000000000000000000000000000000000000000000000000000000000000000000000000000000002800000000000000280F0028000000000000000000000000000000280F28000000000000000000000000000000280F2800000000000000000000000000000028000F280000000000000028000000
310
000000000000000000000000000000000000000000000000000000000000000000000000000000000000000000000000000000000000000000000000000000000000000000000000000000000000000000000000000000000000000000000000000000000000000000000000BE0000000000000000000000000000BEBEBE28
310
0028002800000000000000000000000000000000000000000000000000000000000000000000000000000000000000000000002800000000000000280F0028000000000000000000000000000000280F28000000000000000000000000000000280F2800000000000000000000000000000028000F28000000000000002800
310
00000000000000000000000000000000000000000000000000000000000000000000000000000000000000000000000000000000000000000000000000000000000000000000000000000000000000000000000000000000000000000000000000000000000000000000000000BEBE00000000000000000000000000000000
310
00002800282800000000000000000000000000000000000000000000000000000000000000000000000000000000000000000000002800000000000000280F0028000000000000000000000000000000280F28000000000000000000000000000000280F2800000000000000000000000000000028000F2800000000000000
310
280000000000000000000000000000000000000000000000000000000000000000000000000000000000000000000000000000000000000000000000000000000000000000000000000000000000000000000000000000000000000000000000000000000000000000000000000000BEBEBEBEBEBEBEBEBEBEBEBEBEBEBEBE
310
BEBEBE00BE2828000000000000000000000000000000000000000000000000000000000000000000000000000000000000000000000000BE28282828282828280F2828282828282828282828282828282828280F28282828282828282828282828282828280F2828282828282828282828282828282828280F282828282828
310
2828BE00000000000000000000000000000000000000000000000000000000000000000000000000000000000000000000000000000000000000000000000000000000000000000000000000000000000000000000000000000000000000000000000000000000000000000000000000000000000000000000000000000000
310
000000000000BE00BE000000000000000000000000000000000000000000000000000000000000000000000000000000000000000000000000BE0000000000000000BE000000000000000000000000000000000000BE0000000000000000000000000000000000BE000000000000000000000000000000000000BE00000000
310
00000000BE0000000000000000000000000000000000000000000000000000000000000000000000000000000000000000000000000000000000000000000000000000000000000000000000000000000000000000000000000000000000000000000000000000000000000000000000000000000000000000000000000000
310
0000000000000000BE00BE000000000000000000000000000000000000000000000000000000000000000000000000000000000000000000000000BE0000000000000000BE000000000000000000000000000000000000BE0000000000000000000000000000000000BE000000000000000000000000000000000000BE0000
310
000000000000BE000000000000000000000000000000000000000000000000000000000000000000000000000000000000000000000000000000000000000000000000000000000000000000000000000000000000000000000000000000000000000000000000000000000000000000000000000000000000000000000000
310
00000000000000000000BE00BE000000000000000000000000000000000000000000000000000000000000000000000000000000000000000000000000BE0000000000000000BE000000000000000000000000000000000000BE0000000000000000000000000000000000BE000000000000000000000000000000000000BE
310
0000000000000000BE00000000000000000000000000000000000000000000000000000000000000000000000000000000000000000000000000000000000000000000000000000000000000000000000000000000000000000000000000000000000000000000000000000000000000000000000000000000000000000000
310
000000000000000000000000BE00BE000000000000000000000000000000000000000000000000000000000000000000000000000000000000000000000000BE0000000000000000BE000000000000000000000000000000000000BE0000000000000000000000000000000000BE0000000000000000000000000000000000
310
00BE0000000000000000BE0000000000000000000000000000000000000000000000000000000000000000000000000000000000000000000000000000000000000000000000000000000000000000000000000000000000000000000000000000000000000000000000000000000000000000000000000000000000000000
310
0000000000000000000000000000BE00BE000000000000000000000000000000000000000000000000000000000000000000000000000000000000000000000000BEBEBEBEBEBEBEBEBEBEBEBEBEBEBEBEBEBEBEBEBEBEBEBEBEBEBEBEBEBEBEBEBEBEBEBEBEBEBEBEBEBEBEBEBEBEBEBEBEBEBEBEBEBEBEBEBEBEBEBEBEBE
310
BEBEBEBEBEBEBEBEBEBEBEBEBE000000000000000000000000000000000000000000000000000000000000000000000000000000000000000000000000000000000000000000000000000000000000000000000000000000000000000000000000000000000000000000000000000000000000000000000000000000000000
310
00000000000000000000000000000000BE00BE000000000000000000000000000000000000000000000000000000000000000000000000000000000000000000000000BE0000BEBEBEBEBE00BE00000000000000BEBEBEBE00000000000000BE000000000000BEBEBEBEBE000000000000BE00000000000000BEBEBEBE0000
310
0000000000BE00BEBEBEBEBE0000BE00000000000000000000000000000000000000000000000000000000000000000000000000000000000000000000000000000000000000000000000000000000000000000000000000000000000000000000000000000000000000000000000000000000000000000000000000000000
310
000000000000000000000000000000000000BE00BE000000000000000000000000000000000000000000000000000000000000000000000000000000000000000000000000BE0000BEBEBEBEBE000000000000000000BEBEBEBE0000000000000000000000000000BEBEBEBEBE0000000000000000000000000000BEBEBEBE
310
000000000000000000BEBEBEBEBE0000BE0000000000000000000000000000000000000000000000000000000000000000000000000000000000000000000000000000000000000000000000000000000000000000000000000000000000000000000000000000000000000000000000000000000000000000000000000000
310
0000000000000000000000000000000000BEBEBEBEBEBEBEBE00000000000000000000000000000000000000000000000000000000000000000000000000000000000000000000BE00000000000000000000000000000000000000000000000000000000000000000000000000000000000000000000000000000000000000
310
000000000000000000000000000000000000BE000000000000000000000000000000000000000000000000000000000000000000000000000000000000000000000000000000000000000000000000000000000000000000000000000000000000000000000000000000000000000000000000000000000000000000000000
310
0000000000000000000000000000000000000000000000BEBE000000000000000000000000000000000000000000000000000000000000000000000000000000000000000000000000BEBEBEBEBEBEBEBEBEBEBEBEBEBEBEBEBEBEBEBEBEBEBEBEBEBEBEBEBEBEBEBEBEBEBEBEBEBEBEBEBEBEBEBEBEBEBEBEBEBEBEBEBEBE
310
BEBEBEBEBEBEBEBEBEBEBEBEBEBEBEBEBEBEBEBEBE00000000000000000000000000000000000000000000000000000000000000000000000000000000000000000000000000000000000000000000000000000000000000000000000000000000000000000000000000000000000000000000000000000000000000000000
310
000000000000000000000000000000000000000000000000BEBEBE0000000000000000000000000000000000000000000000000000000000000000000000000000000000000000000000000000000000000000000000000000000000000000000000000000000000000000000000BEBEBEBEBE000000000000000000000000
310
00000000000000000000000000000000000000000000000000000000000000000000000000000000000000000000000000000000000000000000000000000000000000000000000000000000000000000000000000000000000000000000000000000000000000000000000000000000000000000000000000000000000000
310
00000000000000BEBEBEBEBEBEBE00000000000000000000000000000000000000000000000000000000000000000000000000000000000000000000000000000000BEBE00BEBEBEBEBEBEBE000000000000000000000000000000000000000000000000000000000000000000000000BEBEBEBEBE00000000000000000000
310
00000000000000000000000000000000000000000000000000000000000000000000000000000000000000000000000000000000000000000000000000000000000000000000000000000000000000000000000000000000000000000000000000000000000000000000000000000000000000000000000000000000000000
310
000000000000000000BEBEBEBEBEBEBE00000000000000000000000000000000000000000000000000000000000000000000000000000000000000000000000000000000BE00BEBEBEBEBEBEBEBE00000000000000000000000000000000000000000000000000000000000000000000000000000000000000000000000000
310
00000000000000000000000000000000000000000000000000000000000000000000000000000000000000000000000000000000000000000000000000000000000000000000000000000000000000000000000000000000000000000000000000000000000000000000000000000000000000000000000000000000000000
310
0000000000000000000000BEBEBEBEBEBEBE00000000000000000000000000000000000000000000000000000000000000000000000000000000000000000000000000000000BE00BEBEBEBEBEBEBEBE0000000000000000000000000000000000000000000000000000000000000000000000000000000000000000000000
310
00000000000000000000000000000000000000000000000000000000000000000000000000000000000000000000000000000000000000000000000000000000000000000000000000000000000000000000000000000000000000000000000000000000000000000000000000000000000000000000000000000000000000
310
00000000000000000000000000000000000000000000000000000000000000000000000000000000000000000000000000000000000000000000000000000000000000000000000000000000000000000000000000000000000000000000000000000000000000000000000000000000000000000000000000000000000000
310
00000000000000000000000000000000000000000000000000000000000000000000000000000000000000000000000000000000000000000000000000000000000000000000000000000000000000000000000000000000000000000000000000000000000000000000000000000000000000000000000000000000000000
310
00000000000000000000000000000000000000000000000000000000000000000000000000000000000000000000000000000000000000000000000000000000000000000000000000000000000000000000000000000000000000000000000000000000000000000000000000000000000000000000000000000000000000
310
00000000000000000000000000000000000000000000000000000000000000000000000000000000000000000000000000000000000000000000000000000000000000000000000000000000000000000000000000000000000000000000000000000000000000000000000000000000000000000000000000000000000000
310
00000000000000000000000000000000000000000000000000000000000000000000000000000000000000000000000000000000000000000000000000000000000000000000000000000000000000000000000000000000000000000000000000000000000000000000000000000000000000000000000000000000000000
310
00000000000000000000000000000000000000000000000000000000000000000000000000000000000000000000000000000000000000000000000000000000000000000000000000000000000000000000000000000000000000000000000000000000000000000000000000000000000000000000000000000000000000
310
00000000000000000000000000000000000000000000000000000000000000000000000000000000000000000000000000000000000000000000000000000000000000000000000000000000000000000000000000000000000000000000000000000000000000000000000000000000000000000000000000000000000000
310
00000000000000000000000000000000000000000000000000000000000000000000000000000000000000000000000000000000000000000000000000000000000000000000000000000000000000000000000000000000000000000000000000000000000000000000000000000000000000000000000000000000000000
310
00000000000000000000000000000000000000000000000000000000000000000000000000000000000000000000000000000000000000000000000000000000000000000000000000000000000000000000000000000000000000000000000000000000000000000000000000000000000000000000000000000000000000
310
00000000000000000000000000000000000000000000000000000000000000000000000000000000000000000000000000000000000000000000000000000000000000000000000000000000000000000000000000000000000000000000000000000000000000000000000000000000000000000000000000000000000000
310
00000000000000000000000000000000000000000000000000000000000000000000000000000000000000000000000000000000000000000000000000000000000000000000000000000000000000000000000000000000000000000000000000000000000000000000000000000000000000000000000000000000000000
310
00000000000000000000000000000000000000000000000000000000000000000000000000000000000000000000000000000000000000000000000000000000000000000000000000000000000000000000000000000000000000000000000000000000000000000000000000000000000000000000000000000000000000
310
00000000000000000000000000000000000000000000000000000000000000000000000000000000000000000000000000000000000000000000000000000000000000000000000000000000000000000000000000000000000000000000000000000000000000000000000000000000000000000000000000000000000000
310
00000000000000000000000000000000000000000000000000000000000000000000000000000000000000000000000000000000000000000000000000000000000000000000000000000000000000000000000000000000000000000000000000000000000000000000000000000000000000000000000000000000000000
310
00000000000000000000000000000000000000000000000000000000000000000000000000000000000000000000000000000000000000000000000000000000000000000000000000000000000000000000000000000000000000000000000000000000000000000000000000000000000000000000000000000000000000
310
00000000000000000000000000000000000000000000000000000000000000000000000000000000000000000000000000000000000000000000000000000000000000000000000000000000000000000000000000000000000000000000000000000000000000000000000000000000000000000000000000000000000000
310
00000000000000000000000000000000000000000000000000000000000000000000000000000000000000000000000000000000000000000000000000000000000000000000000000000000000000000000000000000000000000000000000000000000000000000000000000000000000000000000000000000000000000
310
00000000000000000000000000000000000000000000000000000000000000000000000000000000000000000000000000000000000000000000000000000000000000000000000000000000000000000000000000000000000000000000000000000000000000000000000000000000000000000000000000000000000000
310
00000000000000000000000000000000000000000000000000000000000000000000000000000000000000000000000000000000000000000000000000000000000000000000000000000000000000000000000000000000000000000000000000000000000000000000000000000000000000000000000000000000000000
310
00000000000000000000000000000000000000000000000000000000000000000000000000000000000000000000000000000000000000000000000000000000000000000000000000000000000000000000000000000000000000000000000000000000000000000000000000000000000000000000000000000000000000
310
0000000000000000000000000000000000000000000000000000000000000000F5F5F500F5F5F5F5F500F5F5000000F5F5F50000F5F5000000F5F500000000000000000000F500F50000000000F5F5F500F5F500F5F50000000000000000000000000000000000000000000000000000000000000000000000000000000000
310
00000000000000000000000000000000000000000000000000000000000000000000000000000000000000000000000000000000000000000000000000000000000000000000000000000000000000000000000000000000000000000000000000000000000000000000000000000000000000000000000000000000000000
310
00000000000000000000000000000000000000000000000000000000000000000000F500F5F50000F5F5F5000000F50000F500F5000000F500000000F500000000000000000000F500F50000000000F500F5F500F500F500F50000000000000000000000000000000000000000000000000000000000000000000000000000
310
00000000000000000000000000000000000000000000000000000000000000000000000000000000000000000000000000000000000000000000000000000000000000000000000000000000000000000000000000000000000000000000000000000000000000000000000000000000000000000000000000000000000000
310
00000000000000000000000000000000000000000000000000000000000000000000000000F5F5F5F5F5F5F5F500000000F500F500F50000F500F500F5F500F5000000000000000000F5F5F500F5F5F5000000F5F500F500F500F5000000000000000000000000000000000000000000000000000000000000000000000000
310
00000000000000000000000000000000000000000000000000000000000000000000000000000000000000000000000000000000000000000000000000000000000000000000000000000000000000000000000000000000000000000000000000000000000000000000000000000000000000000000000000000000000000
310
0000000000000000000000000000000000000000000000000000000000000000000000000000F500F50000F500F50000000000F500F500F500F5F500F50000F500F5000000000000000000F500F50000000000F5F5F5F500F500F500F500000000000000000000000000000000000000000000000000000000000000000000
310
00000000000000000000000000000000000000000000000000000000000000000000000000000000000000000000000000000000000000000000000000000000000000000000000000000000000000000000000000000000000000000000000000000000000000000000000000000000000000000000000000000000000000
310
0000000000000000000000000000000000000000000000000000000000000000000000000000000000F5F5F500F5F5F5F500F5F5F5F500F5F5F500000000000000F5F5F5000000000000000000F500F50000000000F50000F500F500F500F50000000000000000000000000000000000000000000000000000000000000000
310
00000000000000000000000000000000000000000000000000000000000000000000000000000000000000000000000000000000000000000000000000000000000000000000000000000000000000000000000000000000000000000000000000000000000000000000000000000000000000000000000000000000000000
310
000000000000000000000000000000000000000000000000000000000000000000000000000000000000F500F5000000F5F500000000F5F50000000000000000000000000000000000000000000000F500F50000000000F5F5F500F5F500F5F500000000000000000000000000000000000000000000000000000000000000
310
00000000000000000000000000000000000000000000000000000000000000000000000000000000000000000000000000000000000000000000000000000000000000000000000000000000000000000000000000000000000000000000000000000000000000000000000000000000000000000000000000000000000000
310
00000000000000000000000000000000000000000000000000000000000000000000000000000000000000000000000000000000000000000000000000000000000000000000000000000000000000000000000000000000000000000000000000000000000000000000000000000000000000000000000000000000000000
310
00000000000000000000000000000000000000000000000000000000000000000000000000000000000000000000000000000000000000000000000000000000000000000000000000000000000000000000000000000000000000000000000000000000000000000000000000000000000000000000000000000000000000
310
00000000000000000000000000000000000000000000000000000000000000000000000000000000000000000000000000000000000000000000000000000000000000000000000000000000000000000000000000000000000000000000000000000000000000000000000000000000000000000000000000000000000000
310
00000000000000000000000000000000000000000000000000000000000000000000000000000000000000000000000000000000000000000000000000000000000000000000000000000000000000000000000000000000000000000000000000000000000000000000000000000000000000000000000000000000000000
310
00000000000000000000000000000000000000000000000000000000000000000000000000000000000000000000000000000000000000000000000000000000000000000000000000000000000000000000000000000000000000000000000000000000000000000000000000000000000000000000000000000000000000
310
00000000000000000000000000000000000000000000000000000000000000000000000000000000000000000000000000000000000000000000000000000000000000000000000000000000000000000000000000000000000000000000000000000000000000000000000000000000000000000000000000000000000000
310
00000000000000000000000000000000000000000000000000000000000000000000000000000000000000000000000000000000000000000000000000000000000000000000000000000000000000000000000000000000000000000000000000000000000000000000000000000000000000000000000000000000000000
310
00000000000000000000000000000000000000000000000000000000000000000000000000000000000000000000000000000000000000000000000000000000000000000000000000000000000000000000000000000000000000000000000000000000000000000000000000000000000000000000000000000000000000
310
00000000000000000000000000000000000000000000000000000000000000000000000000000000000000000000000000000000000000000000000000000000000000000000000000000000000000000000000000000000000000000000000000000000000000000000000000000000000000000000000000000000000000
310
00000000000000000000000000000000000000000000000000000000000000000000000000000000000000000000000000000000000000000000000000000000000000000000000000000000000000000000000000000000000000000000000000000000000000000000000000000000000000000000000000000000000000
310
00000000000000000000000000000000000000000000000000000000000000000000000000000000000000000000000000000000000000000000000000000000000000000000000000000000000000000000000000000000000000000000000000000000000000000000000000000000000000000000000000000000000000
310
0000000000000000000000000000000000000000000000000000000000000000000000000000000000000000000000000000000000000000000000000000000000000000000000000000000000000000000000000000000000000000000000000000000000000000000000000000000000000000000000000000
  0
XRECORD
  5
1186
102
{ACAD_REACTORS
330
1185
102
}
330
1185
100
AcDbXrecord
280
     1
102
MATERIAL
148
0.0
149
0.0
149
0.0
 93
        0
 94
      127
282
     0
 72
     0
 77
     0
171
     0
175
     0
179
     0
273
     0
  0
XRECORD
  5
1188
102
{ACAD_REACTORS
330
1187
102
}
330
1187
100
AcDbXrecord
280
     1
102
MATERIAL
148
0.0
149
0.0
149
0.0
 93
        0
 94
      127
282
     0
 72
     0
 77
     0
171
     0
175
     0
179
     0
273
     0
  0
XRECORD
  5
118A
102
{ACAD_REACTORS
330
1189
102
}
330
1189
100
AcDbXrecord
280
     1
102
MATERIAL
148
0.0
149
0.0
149
0.0
 93
        0
 94
      127
282
     0
 72
     0
 77
     0
171
     0
175
     0
179
     0
273
     0
  0
XRECORD
  5
1177
102
{ACAD_REACTORS
330
1176
102
}
330
1176
100
AcDbXrecord
280
     1
102
DISPLAYNAME
  1
Imperial24
102
FLAGS
 90
        0
  0
CELLSTYLEMAP
  5
118D
102
{ACAD_REACTORS
330
118B
102
}
330
118B
100
AcDbCellStyleMap
 90
        3
300
CELLSTYLE
  1
TABLEFORMAT_BEGIN
 90
        5
170
     1
 91
        0
 92
    32768
 62
   257
 93
        1
300
CONTENTFORMAT
  1
CONTENTFORMAT_BEGIN
 90
        0
 91
        0
 92
        4
 93
        0
300

 40
0.0
140
1.0
 94
        5
 62
     0
340
F
144
0.25
309
CONTENTFORMAT_END
171
     0
 94
        6
 95
        1
302
GRIDFORMAT
  1
GRIDFORMAT_BEGIN
 90
        0
 91
        1
 62
     0
 92
       -2
340
0
 93
        0
 40
0.045
309
GRIDFORMAT_END
 95
        2
302
GRIDFORMAT
  1
GRIDFORMAT_BEGIN
 90
        0
 91
        1
 62
     0
 92
       -2
340
0
 93
        0
 40
0.045
309
GRIDFORMAT_END
 95
        4
302
GRIDFORMAT
  1
GRIDFORMAT_BEGIN
 90
        0
 91
        1
 62
     0
 92
       -2
340
0
 93
        0
 40
0.045
309
GRIDFORMAT_END
 95
        8
302
GRIDFORMAT
  1
GRIDFORMAT_BEGIN
 90
        0
 91
        1
 62
     0
 92
       -2
340
0
 93
        0
 40
0.045
309
GRIDFORMAT_END
 95
       16
302
GRIDFORMAT
  1
GRIDFORMAT_BEGIN
 90
        0
 91
        1
 62
     0
 92
       -2
340
0
 93
        0
 40
0.045
309
GRIDFORMAT_END
 95
       32
302
GRIDFORMAT
  1
GRIDFORMAT_BEGIN
 90
        0
 91
        1
 62
     0
 92
       -2
340
0
 93
        0
 40
0.045
309
GRIDFORMAT_END
309
TABLEFORMAT_END
  1
CELLSTYLE_BEGIN
 90
        1
 91
        1
300
_TITLE
309
CELLSTYLE_END
300
CELLSTYLE
  1
TABLEFORMAT_BEGIN
 90
        5
170
     1
 91
        0
 92
        0
 62
   257
 93
        1
300
CONTENTFORMAT
  1
CONTENTFORMAT_BEGIN
 90
        0
 91
        0
 92
        4
 93
        0
300

 40
0.0
140
1.0
 94
        5
 62
     0
340
F
144
0.18
309
CONTENTFORMAT_END
171
     0
 94
        6
 95
        1
302
GRIDFORMAT
  1
GRIDFORMAT_BEGIN
 90
        0
 91
        1
 62
     0
 92
       -2
340
0
 93
        0
 40
0.045
309
GRIDFORMAT_END
 95
        2
302
GRIDFORMAT
  1
GRIDFORMAT_BEGIN
 90
        0
 91
        1
 62
     0
 92
       -2
340
0
 93
        0
 40
0.045
309
GRIDFORMAT_END
 95
        4
302
GRIDFORMAT
  1
GRIDFORMAT_BEGIN
 90
        0
 91
        1
 62
     0
 92
       -2
340
0
 93
        0
 40
0.045
309
GRIDFORMAT_END
 95
        8
302
GRIDFORMAT
  1
GRIDFORMAT_BEGIN
 90
        0
 91
        1
 62
     0
 92
       -2
340
0
 93
        0
 40
0.045
309
GRIDFORMAT_END
 95
       16
302
GRIDFORMAT
  1
GRIDFORMAT_BEGIN
 90
        0
 91
        1
 62
     0
 92
       -2
340
0
 93
        0
 40
0.045
309
GRIDFORMAT_END
 95
       32
302
GRIDFORMAT
  1
GRIDFORMAT_BEGIN
 90
        0
 91
        1
 62
     0
 92
       -2
340
0
 93
        0
 40
0.045
309
GRIDFORMAT_END
309
TABLEFORMAT_END
  1
CELLSTYLE_BEGIN
 90
        2
 91
        1
300
_HEADER
309
CELLSTYLE_END
300
CELLSTYLE
  1
TABLEFORMAT_BEGIN
 90
        5
170
     1
 91
        0
 92
        0
 62
   257
 93
        1
300
CONTENTFORMAT
  1
CONTENTFORMAT_BEGIN
 90
        0
 91
        0
 92
        4
 93
        0
300

 40
0.0
140
1.0
 94
        2
 62
     0
340
F
144
0.18
309
CONTENTFORMAT_END
171
     0
 94
        6
 95
        1
302
GRIDFORMAT
  1
GRIDFORMAT_BEGIN
 90
        0
 91
        1
 62
     0
 92
       -2
340
0
 93
        0
 40
0.045
309
GRIDFORMAT_END
 95
        2
302
GRIDFORMAT
  1
GRIDFORMAT_BEGIN
 90
        0
 91
        1
 62
     0
 92
       -2
340
0
 93
        0
 40
0.045
309
GRIDFORMAT_END
 95
        4
302
GRIDFORMAT
  1
GRIDFORMAT_BEGIN
 90
        0
 91
        1
 62
     0
 92
       -2
340
0
 93
        0
 40
0.045
309
GRIDFORMAT_END
 95
        8
302
GRIDFORMAT
  1
GRIDFORMAT_BEGIN
 90
        0
 91
        1
 62
     0
 92
       -2
340
0
 93
        0
 40
0.045
309
GRIDFORMAT_END
 95
       16
302
GRIDFORMAT
  1
GRIDFORMAT_BEGIN
 90
        0
 91
        1
 62
     0
 92
       -2
340
0
 93
        0
 40
0.045
309
GRIDFORMAT_END
 95
       32
302
GRIDFORMAT
  1
GRIDFORMAT_BEGIN
 90
        0
 91
        1
 62
     0
 92
       -2
340
0
 93
        0
 40
0.045
309
GRIDFORMAT_END
309
TABLEFORMAT_END
  1
CELLSTYLE_BEGIN
 90
        3
 91
        2
300
_DATA
309
CELLSTYLE_END
  0
XRECORD
  5
118C
102
{ACAD_REACTORS
330
118B
102
}
330
118B
100
AcDbXrecord
280
     1
102
ACAD_ROUNDTRIP_PRE2007_TABLESTYLE
 90
        4
 91
        0
  1

 92
        4
 93
        0
  2

 94
        4
 95
        0
  3

  0
XRECORD
  5
1190
102
{ACAD_REACTORS
330
118F
102
}
330
118F
100
AcDbXrecord
280
     1
102
RTVSPropertyOp0
 70
     1
102
RTVSPropertyOp1
 70
     1
102
RTVSPropertyOp2
 70
     1
102
RTVSPropertyOp3
 70
     1
102
RTVSPropertyOp4
 70
     1
102
RTVSPropertyOp5
 70
     1
102
RTVSPropertyOp6
 70
     1
102
RTVSPropertyOp7
 70
     1
102
RTVSPropertyOp8
 70
     1
102
RTVSPropertyOp9
 70
     1
102
RTVSPropertyOp10
 70
     1
102
RTVSPropertyOp11
 70
     1
102
RTVSPropertyOp12
 70
     1
102
RTVSPropertyOp13
 70
     1
102
RTVSPropertyOp14
 70
     1
102
RTVSPropertyOp15
 70
     1
102
RTVSPropertyOp16
 70
     1
102
RTVSPropertyOp17
 70
     1
102
RTVSPropertyOp18
 70
     1
102
RTVSPropertyOp19
 70
     1
102
RTVSPropertyOp20
 70
     1
102
RTVSPropertyOp21
 70
     1
102
RTVSPropertyOp22
 70
     1
102
RTVSPropertyOp23
 70
     1
102
RTVSPropertyOp24
 70
     1
102
RTVSPropertyOp25
 70
     1
102
RTVSPropertyOp26
 70
     1
102
RTVSPropertyOp27
 70
     1
  0
XRECORD
  5
1192
102
{ACAD_REACTORS
330
1191
102
}
330
1191
100
AcDbXrecord
280
     1
102
RTVSPropertyOp0
 70
     1
102
RTVSPropertyOp1
 70
     1
102
RTVSPropertyOp2
 70
     1
102
RTVSPropertyOp3
 70
     1
102
RTVSPropertyOp4
 70
     1
102
RTVSPropertyOp5
 70
     1
102
RTVSPropertyOp6
 70
     1
102
RTVSPropertyOp7
 70
     1
102
RTVSPropertyOp8
 70
     1
102
RTVSPropertyOp9
 70
     1
102
RTVSPropertyOp10
 70
     1
102
RTVSPropertyOp11
 70
     1
102
RTVSPropertyOp12
 70
     1
102
RTVSPropertyOp13
 70
     1
102
RTVSPropertyOp14
 70
     1
102
RTVSPropertyOp15
 70
     1
102
RTVSPropertyOp16
 70
     1
102
RTVSPropertyOp17
 70
     1
102
RTVSPropertyOp18
 70
     1
102
RTVSPropertyOp19
 70
     1
102
RTVSPropertyOp20
 70
     1
102
RTVSPropertyOp21
 70
     1
102
RTVSPropertyOp22
 70
     1
102
RTVSPropertyOp23
 70
     1
102
RTVSPropertyOp24
 70
     1
102
RTVSPropertyOp25
 70
     1
102
RTVSPropertyOp26
 70
     1
102
RTVSPropertyOp27
 70
     1
  0
XRECORD
  5
1194
102
{ACAD_REACTORS
330
1193
102
}
330
1193
100
AcDbXrecord
280
     1
102
RTVSPropertyOp0
 70
     1
102
RTVSPropertyOp1
 70
     1
102
RTVSPropertyOp2
 70
     1
102
RTVSPropertyOp3
 70
     1
102
RTVSPropertyOp4
 70
     1
102
RTVSPropertyOp5
 70
     1
102
RTVSPropertyOp6
 70
     1
102
RTVSPropertyOp7
 70
     1
102
RTVSPropertyOp8
 70
     1
102
RTVSPropertyOp9
 70
     1
102
RTVSPropertyOp10
 70
     1
102
RTVSPropertyOp11
 70
     1
102
RTVSPropertyOp12
 70
     1
102
RTVSPropertyOp13
 70
     1
102
RTVSPropertyOp14
 70
     1
102
RTVSPropertyOp15
 70
     1
102
RTVSPropertyOp16
 70
     1
102
RTVSPropertyOp17
 70
     1
102
RTVSPropertyOp18
 70
     1
102
RTVSPropertyOp19
 70
     1
102
RTVSPropertyOp20
 70
     1
102
RTVSPropertyOp21
 70
     1
102
RTVSPropertyOp22
 70
     1
102
RTVSPropertyOp23
 70
     1
102
RTVSPropertyOp24
 70
     1
102
RTVSPropertyOp25
 70
     1
102
RTVSPropertyOp26
 70
     1
102
RTVSPropertyOp27
 70
     1
  0
XRECORD
  5
1196
102
{ACAD_REACTORS
330
1195
102
}
330
1195
100
AcDbXrecord
280
     1
102
RTVSPropertyOp0
 70
     1
102
RTVSPropertyOp1
 70
     1
102
RTVSPropertyOp2
 70
     1
102
RTVSPropertyOp3
 70
     1
102
RTVSPropertyOp4
 70
     1
102
RTVSPropertyOp5
 70
     1
102
RTVSPropertyOp6
 70
     1
102
RTVSPropertyOp7
 70
     1
102
RTVSPropertyOp8
 70
     1
102
RTVSPropertyOp9
 70
     1
102
RTVSPropertyOp10
 70
     1
102
RTVSPropertyOp11
 70
     1
102
RTVSPropertyOp12
 70
     1
102
RTVSPropertyOp13
 70
     1
102
RTVSPropertyOp14
 70
     1
102
RTVSPropertyOp15
 70
     1
102
RTVSPropertyOp16
 70
     1
102
RTVSPropertyOp17
 70
     1
102
RTVSPropertyOp18
 70
     1
102
RTVSPropertyOp19
 70
     1
102
RTVSPropertyOp20
 70
     1
102
RTVSPropertyOp21
 70
     1
102
RTVSPropertyOp22
 70
     1
102
RTVSPropertyOp23
 70
     1
102
RTVSPropertyOp24
 70
     1
102
RTVSPropertyOp25
 70
     1
102
RTVSPropertyOp26
 70
     1
102
RTVSPropertyOp27
 70
     1
  0
XRECORD
  5
1198
102
{ACAD_REACTORS
330
1197
102
}
330
1197
100
AcDbXrecord
280
     1
102
RTVSPropertyOp0
 70
     1
102
RTVSPropertyOp1
 70
     1
102
RTVSPropertyOp2
 70
     1
102
RTVSPropertyOp3
 70
     1
102
RTVSPropertyOp4
 70
     1
102
RTVSPropertyOp5
 70
     1
102
RTVSPropertyOp6
 70
     1
102
RTVSPropertyOp7
 70
     1
102
RTVSPropertyOp8
 70
     1
102
RTVSPropertyOp9
 70
     1
102
RTVSPropertyOp10
 70
     1
102
RTVSPropertyOp11
 70
     1
102
RTVSPropertyOp12
 70
     1
102
RTVSPropertyOp13
 70
     1
102
RTVSPropertyOp14
 70
     1
102
RTVSPropertyOp15
 70
     1
102
RTVSPropertyOp16
 70
     1
102
RTVSPropertyOp17
 70
     1
102
RTVSPropertyOp18
 70
     1
102
RTVSPropertyOp19
 70
     1
102
RTVSPropertyOp20
 70
     1
102
RTVSPropertyOp21
 70
     1
102
RTVSPropertyOp22
 70
     1
102
RTVSPropertyOp23
 70
     1
102
RTVSPropertyOp24
 70
     1
102
RTVSPropertyOp25
 70
     1
102
RTVSPropertyOp26
 70
     1
102
RTVSPropertyOp27
 70
     1
  0
XRECORD
  5
119A
102
{ACAD_REACTORS
330
1199
102
}
330
1199
100
AcDbXrecord
280
     1
102
RTVSPropertyOp0
 70
     1
102
RTVSPropertyOp1
 70
     1
102
RTVSPropertyOp2
 70
     1
102
RTVSPropertyOp3
 70
     1
102
RTVSPropertyOp4
 70
     1
102
RTVSPropertyOp5
 70
     1
102
RTVSPropertyOp6
 70
     1
102
RTVSPropertyOp7
 70
     1
102
RTVSPropertyOp8
 70
     1
102
RTVSPropertyOp9
 70
     1
102
RTVSPropertyOp10
 70
     1
102
RTVSPropertyOp11
 70
     1
102
RTVSPropertyOp12
 70
     1
102
RTVSPropertyOp13
 70
     1
102
RTVSPropertyOp14
 70
     1
102
RTVSPropertyOp15
 70
     1
102
RTVSPropertyOp16
 70
     1
102
RTVSPropertyOp17
 70
     1
102
RTVSPropertyOp18
 70
     1
102
RTVSPropertyOp19
 70
     1
102
RTVSPropertyOp20
 70
     1
102
RTVSPropertyOp21
 70
     1
102
RTVSPropertyOp22
 70
     1
102
RTVSPropertyOp23
 70
     1
102
RTVSPropertyOp24
 70
     1
102
RTVSPropertyOp25
 70
     1
102
RTVSPropertyOp26
 70
     1
102
RTVSPropertyOp27
 70
     1
  0
XRECORD
  5
119C
102
{ACAD_REACTORS
330
119B
102
}
330
119B
100
AcDbXrecord
280
     1
102
RTVSPropertyOp0
 70
     1
102
RTVSPropertyOp1
 70
     1
102
RTVSPropertyOp2
 70
     1
102
RTVSPropertyOp3
 70
     1
102
RTVSPropertyOp4
 70
     1
102
RTVSPropertyOp5
 70
     1
102
RTVSPropertyOp6
 70
     1
102
RTVSPropertyOp7
 70
     1
102
RTVSPropertyOp8
 70
     1
102
RTVSPropertyOp9
 70
     1
102
RTVSPropertyOp10
 70
     1
102
RTVSPropertyOp11
 70
     1
102
RTVSPropertyOp12
 70
     1
102
RTVSPropertyOp13
 70
     1
102
RTVSPropertyOp14
 70
     1
102
RTVSPropertyOp15
 70
     1
102
RTVSPropertyOp16
 70
     1
102
RTVSPropertyOp17
 70
     1
102
RTVSPropertyOp18
 70
     1
102
RTVSPropertyOp19
 70
     1
102
RTVSPropertyOp20
 70
     1
102
RTVSPropertyOp21
 70
     1
102
RTVSPropertyOp22
 70
     1
102
RTVSPropertyOp23
 70
     1
102
RTVSPropertyOp24
 70
     1
102
RTVSPropertyOp25
 70
     1
102
RTVSPropertyOp26
 70
     1
102
RTVSPropertyOp27
 70
     1
  0
XRECORD
  5
119E
102
{ACAD_REACTORS
330
119D
102
}
330
119D
100
AcDbXrecord
280
     1
102
RTVSPropertyOp0
 70
     1
102
RTVSPropertyOp1
 70
     1
102
RTVSPropertyOp2
 70
     1
102
RTVSPropertyOp3
 70
     1
102
RTVSPropertyOp4
 70
     1
102
RTVSPropertyOp5
 70
     1
102
RTVSPropertyOp6
 70
     1
102
RTVSPropertyOp7
 70
     1
102
RTVSPropertyOp8
 70
     1
102
RTVSPropertyOp9
 70
     1
102
RTVSPropertyOp10
 70
     1
102
RTVSPropertyOp11
 70
     1
102
RTVSPropertyOp12
 70
     1
102
RTVSPropertyOp13
 70
     1
102
RTVSPropertyOp14
 70
     1
102
RTVSPropertyOp15
 70
     1
102
RTVSPropertyOp16
 70
     1
102
RTVSPropertyOp17
 70
     1
102
RTVSPropertyOp18
 70
     1
102
RTVSPropertyOp19
 70
     1
102
RTVSPropertyOp20
 70
     1
102
RTVSPropertyOp21
 70
     1
102
RTVSPropertyOp22
 70
     1
102
RTVSPropertyOp23
 70
     1
102
RTVSPropertyOp24
 70
     1
102
RTVSPropertyOp25
 70
     1
102
RTVSPropertyOp26
 70
     1
102
RTVSPropertyOp27
 70
     1
  0
XRECORD
  5
11A0
102
{ACAD_REACTORS
330
119F
102
}
330
119F
100
AcDbXrecord
280
     1
102
RTVSPropertyOp0
 70
     1
102
RTVSPropertyOp1
 70
     1
102
RTVSPropertyOp2
 70
     1
102
RTVSPropertyOp3
 70
     1
102
RTVSPropertyOp4
 70
     1
102
RTVSPropertyOp5
 70
     1
102
RTVSPropertyOp6
 70
     1
102
RTVSPropertyOp7
 70
     1
102
RTVSPropertyOp8
 70
     1
102
RTVSPropertyOp9
 70
     1
102
RTVSPropertyOp10
 70
     1
102
RTVSPropertyOp11
 70
     1
102
RTVSPropertyOp12
 70
     1
102
RTVSPropertyOp13
 70
     1
102
RTVSPropertyOp14
 70
     1
102
RTVSPropertyOp15
 70
     1
102
RTVSPropertyOp16
 70
     1
102
RTVSPropertyOp17
 70
     1
102
RTVSPropertyOp18
 70
     1
102
RTVSPropertyOp19
 70
     1
102
RTVSPropertyOp20
 70
     1
102
RTVSPropertyOp21
 70
     1
102
RTVSPropertyOp22
 70
     1
102
RTVSPropertyOp23
 70
     1
102
RTVSPropertyOp24
 70
     1
102
RTVSPropertyOp25
 70
     1
102
RTVSPropertyOp26
 70
     1
102
RTVSPropertyOp27
 70
     1
  0
XRECORD
  5
11A2
102
{ACAD_REACTORS
330
11A1
102
}
330
11A1
100
AcDbXrecord
280
     1
102
RTVSPropertyOp0
 70
     1
102
RTVSPropertyOp1
 70
     1
102
RTVSPropertyOp2
 70
     1
102
RTVSPropertyOp3
 70
     1
102
RTVSPropertyOp4
 70
     1
102
RTVSPropertyOp5
 70
     1
102
RTVSPropertyOp6
 70
     1
102
RTVSPropertyOp7
 70
     1
102
RTVSPropertyOp8
 70
     1
102
RTVSPropertyOp9
 70
     1
102
RTVSPropertyOp10
 70
     1
102
RTVSPropertyOp11
 70
     1
102
RTVSPropertyOp12
 70
     1
102
RTVSPropertyOp13
 70
     1
102
RTVSPropertyOp14
 70
     1
102
RTVSPropertyOp15
 70
     1
102
RTVSPropertyOp16
 70
     1
102
RTVSPropertyOp17
 70
     1
102
RTVSPropertyOp18
 70
     1
102
RTVSPropertyOp19
 70
     1
102
RTVSPropertyOp20
 70
     1
102
RTVSPropertyOp21
 70
     1
102
RTVSPropertyOp22
 70
     1
102
RTVSPropertyOp23
 70
     1
102
RTVSPropertyOp24
 70
     1
102
RTVSPropertyOp25
 70
     1
102
RTVSPropertyOp26
 70
     1
102
RTVSPropertyOp27
 70
     1
  0
XRECORD
  5
11A4
102
{ACAD_REACTORS
330
11A3
102
}
330
11A3
100
AcDbXrecord
280
     1
102
RTVSPropertyOp0
 70
     1
102
RTVSPropertyOp1
 70
     1
102
RTVSPropertyOp2
 70
     1
102
RTVSPropertyOp3
 70
     1
102
RTVSPropertyOp4
 70
     1
102
RTVSPropertyOp5
 70
     1
102
RTVSPropertyOp6
 70
     1
102
RTVSPropertyOp7
 70
     1
102
RTVSPropertyOp8
 70
     1
102
RTVSPropertyOp9
 70
     1
102
RTVSPropertyOp10
 70
     1
102
RTVSPropertyOp11
 70
     1
102
RTVSPropertyOp12
 70
     1
102
RTVSPropertyOp13
 70
     1
102
RTVSPropertyOp14
 70
     1
102
RTVSPropertyOp15
 70
     1
102
RTVSPropertyOp16
 70
     1
102
RTVSPropertyOp17
 70
     1
102
RTVSPropertyOp18
 70
     1
102
RTVSPropertyOp19
 70
     1
102
RTVSPropertyOp20
 70
     1
102
RTVSPropertyOp21
 70
     1
102
RTVSPropertyOp22
 70
     1
102
RTVSPropertyOp23
 70
     1
102
RTVSPropertyOp24
 70
     1
102
RTVSPropertyOp25
 70
     1
102
RTVSPropertyOp26
 70
     1
102
RTVSPropertyOp27
 70
     1
  0
XRECORD
  5
11A6
102
{ACAD_REACTORS
330
11A5
102
}
330
11A5
100
AcDbXrecord
280
     1
102
RTVSPropertyOp0
 70
     1
102
RTVSPropertyOp1
 70
     1
102
RTVSPropertyOp2
 70
     1
102
RTVSPropertyOp3
 70
     1
102
RTVSPropertyOp4
 70
     1
102
RTVSPropertyOp5
 70
     1
102
RTVSPropertyOp6
 70
     1
102
RTVSPropertyOp7
 70
     1
102
RTVSPropertyOp8
 70
     1
102
RTVSPropertyOp9
 70
     1
102
RTVSPropertyOp10
 70
     1
102
RTVSPropertyOp11
 70
     1
102
RTVSPropertyOp12
 70
     1
102
RTVSPropertyOp13
 70
     1
102
RTVSPropertyOp14
 70
     1
102
RTVSPropertyOp15
 70
     1
102
RTVSPropertyOp16
 70
     1
102
RTVSPropertyOp17
 70
     1
102
RTVSPropertyOp18
 70
     1
102
RTVSPropertyOp19
 70
     1
102
RTVSPropertyOp20
 70
     1
102
RTVSPropertyOp21
 70
     1
102
RTVSPropertyOp22
 70
     1
102
RTVSPropertyOp23
 70
     1
102
RTVSPropertyOp24
 70
     1
102
RTVSPropertyOp25
 70
     1
102
RTVSPropertyOp26
 70
     1
102
RTVSPropertyOp27
 70
     1
  0
XRECORD
  5
11A8
102
{ACAD_REACTORS
330
11A7
102
}
330
11A7
100
AcDbXrecord
280
     1
102
RTVSPropertyOp0
 70
     1
102
RTVSPropertyOp1
 70
     1
102
RTVSPropertyOp2
 70
     1
102
RTVSPropertyOp3
 70
     1
102
RTVSPropertyOp4
 70
     1
102
RTVSPropertyOp5
 70
     1
102
RTVSPropertyOp6
 70
     1
102
RTVSPropertyOp7
 70
     1
102
RTVSPropertyOp8
 70
     1
102
RTVSPropertyOp9
 70
     1
102
RTVSPropertyOp10
 70
     1
102
RTVSPropertyOp11
 70
     1
102
RTVSPropertyOp12
 70
     1
102
RTVSPropertyOp13
 70
     1
102
RTVSPropertyOp14
 70
     1
102
RTVSPropertyOp15
 70
     1
102
RTVSPropertyOp16
 70
     1
102
RTVSPropertyOp17
 70
     1
102
RTVSPropertyOp18
 70
     1
102
RTVSPropertyOp19
 70
     1
102
RTVSPropertyOp20
 70
     1
102
RTVSPropertyOp21
 70
     1
102
RTVSPropertyOp22
 70
     1
102
RTVSPropertyOp23
 70
     1
102
RTVSPropertyOp24
 70
     1
102
RTVSPropertyOp25
 70
     1
102
RTVSPropertyOp26
 70
     1
102
RTVSPropertyOp27
 70
     1
  0
XRECORD
  5
11AA
102
{ACAD_REACTORS
330
11A9
102
}
330
11A9
100
AcDbXrecord
280
     1
102
RTVSPropertyOp0
 70
     1
102
RTVSPropertyOp1
 70
     1
102
RTVSPropertyOp2
 70
     1
102
RTVSPropertyOp3
 70
     1
102
RTVSPropertyOp4
 70
     1
102
RTVSPropertyOp5
 70
     1
102
RTVSPropertyOp6
 70
     1
102
RTVSPropertyOp7
 70
     1
102
RTVSPropertyOp8
 70
     1
102
RTVSPropertyOp9
 70
     1
102
RTVSPropertyOp10
 70
     1
102
RTVSPropertyOp11
 70
     1
102
RTVSPropertyOp12
 70
     1
102
RTVSPropertyOp13
 70
     1
102
RTVSPropertyOp14
 70
     1
102
RTVSPropertyOp15
 70
     1
102
RTVSPropertyOp16
 70
     1
102
RTVSPropertyOp17
 70
     1
102
RTVSPropertyOp18
 70
     1
102
RTVSPropertyOp19
 70
     1
102
RTVSPropertyOp20
 70
     1
102
RTVSPropertyOp21
 70
     1
102
RTVSPropertyOp22
 70
     1
102
RTVSPropertyOp23
 70
     1
102
RTVSPropertyOp24
 70
     1
102
RTVSPropertyOp25
 70
     1
102
RTVSPropertyOp26
 70
     1
102
RTVSPropertyOp27
 70
     1
  0
XRECORD
  5
11AC
102
{ACAD_REACTORS
330
11AB
102
}
330
11AB
100
AcDbXrecord
280
     1
102
RTVSPropertyOp0
 70
     1
102
RTVSPropertyOp1
 70
     1
102
RTVSPropertyOp2
 70
     1
102
RTVSPropertyOp3
 70
     1
102
RTVSPropertyOp4
 70
     1
102
RTVSPropertyOp5
 70
     1
102
RTVSPropertyOp6
 70
     1
102
RTVSPropertyOp7
 70
     1
102
RTVSPropertyOp8
 70
     1
102
RTVSPropertyOp9
 70
     1
102
RTVSPropertyOp10
 70
     1
102
RTVSPropertyOp11
 70
     1
102
RTVSPropertyOp12
 70
     1
102
RTVSPropertyOp13
 70
     1
102
RTVSPropertyOp14
 70
     1
102
RTVSPropertyOp15
 70
     1
102
RTVSPropertyOp16
 70
     1
102
RTVSPropertyOp17
 70
     1
102
RTVSPropertyOp18
 70
     1
102
RTVSPropertyOp19
 70
     1
102
RTVSPropertyOp20
 70
     1
102
RTVSPropertyOp21
 70
     1
102
RTVSPropertyOp22
 70
     1
102
RTVSPropertyOp23
 70
     1
102
RTVSPropertyOp24
 70
     1
102
RTVSPropertyOp25
 70
     1
102
RTVSPropertyOp26
 70
     1
102
RTVSPropertyOp27
 70
     1
  0
XRECORD
  5
11AE
102
{ACAD_REACTORS
330
11AD
102
}
330
11AD
100
AcDbXrecord
280
     1
102
RTVSPropertyOp0
 70
     1
102
RTVSPropertyOp1
 70
     1
102
RTVSPropertyOp2
 70
     1
102
RTVSPropertyOp3
 70
     1
102
RTVSPropertyOp4
 70
     1
102
RTVSPropertyOp5
 70
     1
102
RTVSPropertyOp6
 70
     1
102
RTVSPropertyOp7
 70
     1
102
RTVSPropertyOp8
 70
     1
102
RTVSPropertyOp9
 70
     1
102
RTVSPropertyOp10
 70
     1
102
RTVSPropertyOp11
 70
     1
102
RTVSPropertyOp12
 70
     1
102
RTVSPropertyOp13
 70
     1
102
RTVSPropertyOp14
 70
     1
102
RTVSPropertyOp15
 70
     1
102
RTVSPropertyOp16
 70
     1
102
RTVSPropertyOp17
 70
     1
102
RTVSPropertyOp18
 70
     1
102
RTVSPropertyOp19
 70
     1
102
RTVSPropertyOp20
 70
     1
102
RTVSPropertyOp21
 70
     1
102
RTVSPropertyOp22
 70
     1
102
RTVSPropertyOp23
 70
     1
102
RTVSPropertyOp24
 70
     1
102
RTVSPropertyOp25
 70
     1
102
RTVSPropertyOp26
 70
     1
102
RTVSPropertyOp27
 70
     1
  0
XRECORD
  5
11B0
102
{ACAD_REACTORS
330
11AF
102
}
330
11AF
100
AcDbXrecord
280
     1
102
RTVSPropertyOp0
 70
     1
102
RTVSPropertyOp1
 70
     1
102
RTVSPropertyOp2
 70
     1
102
RTVSPropertyOp3
 70
     1
102
RTVSPropertyOp4
 70
     1
102
RTVSPropertyOp5
 70
     1
102
RTVSPropertyOp6
 70
     1
102
RTVSPropertyOp7
 70
     1
102
RTVSPropertyOp8
 70
     1
102
RTVSPropertyOp9
 70
     1
102
RTVSPropertyOp10
 70
     1
102
RTVSPropertyOp11
 70
     1
102
RTVSPropertyOp12
 70
     1
102
RTVSPropertyOp13
 70
     1
102
RTVSPropertyOp14
 70
     1
102
RTVSPropertyOp15
 70
     1
102
RTVSPropertyOp16
 70
     1
102
RTVSPropertyOp17
 70
     1
102
RTVSPropertyOp18
 70
     1
102
RTVSPropertyOp19
 70
     1
102
RTVSPropertyOp20
 70
     1
102
RTVSPropertyOp21
 70
     1
102
RTVSPropertyOp22
 70
     1
102
RTVSPropertyOp23
 70
     1
102
RTVSPropertyOp24
 70
     1
102
RTVSPropertyOp25
 70
     1
102
RTVSPropertyOp26
 70
     1
102
RTVSPropertyOp27
 70
     1
  0
XRECORD
  5
11B2
102
{ACAD_REACTORS
330
11B1
102
}
330
11B1
100
AcDbXrecord
280
     1
102
RTVSPropertyOp0
 70
     1
102
RTVSPropertyOp1
 70
     1
102
RTVSPropertyOp2
 70
     1
102
RTVSPropertyOp3
 70
     1
102
RTVSPropertyOp4
 70
     1
102
RTVSPropertyOp5
 70
     1
102
RTVSPropertyOp6
 70
     1
102
RTVSPropertyOp7
 70
     1
102
RTVSPropertyOp8
 70
     1
102
RTVSPropertyOp9
 70
     1
102
RTVSPropertyOp10
 70
     1
102
RTVSPropertyOp11
 70
     1
102
RTVSPropertyOp12
 70
     1
102
RTVSPropertyOp13
 70
     1
102
RTVSPropertyOp14
 70
     1
102
RTVSPropertyOp15
 70
     1
102
RTVSPropertyOp16
 70
     1
102
RTVSPropertyOp17
 70
     1
102
RTVSPropertyOp18
 70
     1
102
RTVSPropertyOp19
 70
     1
102
RTVSPropertyOp20
 70
     1
102
RTVSPropertyOp21
 70
     1
102
RTVSPropertyOp22
 70
     1
102
RTVSPropertyOp23
 70
     1
102
RTVSPropertyOp24
 70
     1
102
RTVSPropertyOp25
 70
     1
102
RTVSPropertyOp26
 70
     1
102
RTVSPropertyOp27
 70
     1
  0
XRECORD
  5
11B4
102
{ACAD_REACTORS
330
11B3
102
}
330
11B3
100
AcDbXrecord
280
     1
102
RTVSPropertyOp0
 70
     1
102
RTVSPropertyOp1
 70
     1
102
RTVSPropertyOp2
 70
     1
102
RTVSPropertyOp3
 70
     1
102
RTVSPropertyOp4
 70
     1
102
RTVSPropertyOp5
 70
     1
102
RTVSPropertyOp6
 70
     1
102
RTVSPropertyOp7
 70
     1
102
RTVSPropertyOp8
 70
     1
102
RTVSPropertyOp9
 70
     1
102
RTVSPropertyOp10
 70
     1
102
RTVSPropertyOp11
 70
     1
102
RTVSPropertyOp12
 70
     1
102
RTVSPropertyOp13
 70
     1
102
RTVSPropertyOp14
 70
     1
102
RTVSPropertyOp15
 70
     1
102
RTVSPropertyOp16
 70
     1
102
RTVSPropertyOp17
 70
     1
102
RTVSPropertyOp18
 70
     1
102
RTVSPropertyOp19
 70
     1
102
RTVSPropertyOp20
 70
     1
102
RTVSPropertyOp21
 70
     1
102
RTVSPropertyOp22
 70
     1
102
RTVSPropertyOp23
 70
     1
102
RTVSPropertyOp24
 70
     1
102
RTVSPropertyOp25
 70
     1
102
RTVSPropertyOp26
 70
     1
102
RTVSPropertyOp27
 70
     1
  0
XRECORD
  5
11B6
102
{ACAD_REACTORS
330
11B5
102
}
330
11B5
100
AcDbXrecord
280
     1
102
RTVSPropertyOp0
 70
     1
102
RTVSPropertyOp1
 70
     1
102
RTVSPropertyOp2
 70
     1
102
RTVSPropertyOp3
 70
     1
102
RTVSPropertyOp4
 70
     1
102
RTVSPropertyOp5
 70
     1
102
RTVSPropertyOp6
 70
     1
102
RTVSPropertyOp7
 70
     1
102
RTVSPropertyOp8
 70
     1
102
RTVSPropertyOp9
 70
     1
102
RTVSPropertyOp10
 70
     1
102
RTVSPropertyOp11
 70
     1
102
RTVSPropertyOp12
 70
     1
102
RTVSPropertyOp13
 70
     1
102
RTVSPropertyOp14
 70
     1
102
RTVSPropertyOp15
 70
     1
102
RTVSPropertyOp16
 70
     1
102
RTVSPropertyOp17
 70
     1
102
RTVSPropertyOp18
 70
     1
102
RTVSPropertyOp19
 70
     1
102
RTVSPropertyOp20
 70
     1
102
RTVSPropertyOp21
 70
     1
102
RTVSPropertyOp22
 70
     1
102
RTVSPropertyOp23
 70
     1
102
RTVSPropertyOp24
 70
     1
102
RTVSPropertyOp25
 70
     1
102
RTVSPropertyOp26
 70
     1
102
RTVSPropertyOp27
 70
     1
  0
XRECORD
  5
11B8
102
{ACAD_REACTORS
330
11B7
102
}
330
11B7
100
AcDbXrecord
280
     1
102
RTVSPropertyOp0
 70
     1
102
RTVSPropertyOp1
 70
     1
102
RTVSPropertyOp2
 70
     1
102
RTVSPropertyOp3
 70
     1
102
RTVSPropertyOp4
 70
     1
102
RTVSPropertyOp5
 70
     1
102
RTVSPropertyOp6
 70
     1
102
RTVSPropertyOp7
 70
     1
102
RTVSPropertyOp8
 70
     1
102
RTVSPropertyOp9
 70
     1
102
RTVSPropertyOp10
 70
     1
102
RTVSPropertyOp11
 70
     1
102
RTVSPropertyOp12
 70
     1
102
RTVSPropertyOp13
 70
     1
102
RTVSPropertyOp14
 70
     1
102
RTVSPropertyOp15
 70
     1
102
RTVSPropertyOp16
 70
     1
102
RTVSPropertyOp17
 70
     1
102
RTVSPropertyOp18
 70
     1
102
RTVSPropertyOp19
 70
     1
102
RTVSPropertyOp20
 70
     1
102
RTVSPropertyOp21
 70
     1
102
RTVSPropertyOp22
 70
     1
102
RTVSPropertyOp23
 70
     1
102
RTVSPropertyOp24
 70
     1
102
RTVSPropertyOp25
 70
     1
102
RTVSPropertyOp26
 70
     1
102
RTVSPropertyOp27
 70
     1
  0
XRECORD
  5
11BA
102
{ACAD_REACTORS
330
11B9
102
}
330
11B9
100
AcDbXrecord
280
     1
102
RTVSPropertyOp0
 70
     1
102
RTVSPropertyOp1
 70
     1
102
RTVSPropertyOp2
 70
     1
102
RTVSPropertyOp3
 70
     1
102
RTVSPropertyOp4
 70
     1
102
RTVSPropertyOp5
 70
     1
102
RTVSPropertyOp6
 70
     1
102
RTVSPropertyOp7
 70
     1
102
RTVSPropertyOp8
 70
     1
102
RTVSPropertyOp9
 70
     1
102
RTVSPropertyOp10
 70
     1
102
RTVSPropertyOp11
 70
     1
102
RTVSPropertyOp12
 70
     1
102
RTVSPropertyOp13
 70
     1
102
RTVSPropertyOp14
 70
     1
102
RTVSPropertyOp15
 70
     1
102
RTVSPropertyOp16
 70
     1
102
RTVSPropertyOp17
 70
     1
102
RTVSPropertyOp18
 70
     1
102
RTVSPropertyOp19
 70
     1
102
RTVSPropertyOp20
 70
     1
102
RTVSPropertyOp21
 70
     1
102
RTVSPropertyOp22
 70
     1
102
RTVSPropertyOp23
 70
     1
102
RTVSPropertyOp24
 70
     1
102
RTVSPropertyOp25
 70
     1
102
RTVSPropertyOp26
 70
     1
102
RTVSPropertyOp27
 70
     1
  0
XRECORD
  5
11BC
102
{ACAD_REACTORS
330
11BB
102
}
330
11BB
100
AcDbXrecord
280
     1
102
RTVSPropertyOp0
 70
     1
102
RTVSPropertyOp1
 70
     1
102
RTVSPropertyOp2
 70
     1
102
RTVSPropertyOp3
 70
     1
102
RTVSPropertyOp4
 70
     1
102
RTVSPropertyOp5
 70
     1
102
RTVSPropertyOp6
 70
     1
102
RTVSPropertyOp7
 70
     1
102
RTVSPropertyOp8
 70
     1
102
RTVSPropertyOp9
 70
     1
102
RTVSPropertyOp10
 70
     1
102
RTVSPropertyOp11
 70
     1
102
RTVSPropertyOp12
 70
     1
102
RTVSPropertyOp13
 70
     1
102
RTVSPropertyOp14
 70
     1
102
RTVSPropertyOp15
 70
     1
102
RTVSPropertyOp16
 70
     1
102
RTVSPropertyOp17
 70
     1
102
RTVSPropertyOp18
 70
     1
102
RTVSPropertyOp19
 70
     1
102
RTVSPropertyOp20
 70
     1
102
RTVSPropertyOp21
 70
     1
102
RTVSPropertyOp22
 70
     1
102
RTVSPropertyOp23
 70
     1
102
RTVSPropertyOp24
 70
     1
102
RTVSPropertyOp25
 70
     1
102
RTVSPropertyOp26
 70
     1
102
RTVSPropertyOp27
 70
     1
  0
XRECORD
  5
11BE
102
{ACAD_REACTORS
330
11BD
102
}
330
11BD
100
AcDbXrecord
280
     1
102
RTVSPropertyOp0
 70
     1
102
RTVSPropertyOp1
 70
     1
102
RTVSPropertyOp2
 70
     1
102
RTVSPropertyOp3
 70
     1
102
RTVSPropertyOp4
 70
     1
102
RTVSPropertyOp5
 70
     1
102
RTVSPropertyOp6
 70
     1
102
RTVSPropertyOp7
 70
     1
102
RTVSPropertyOp8
 70
     1
102
RTVSPropertyOp9
 70
     1
102
RTVSPropertyOp10
 70
     1
102
RTVSPropertyOp11
 70
     1
102
RTVSPropertyOp12
 70
     1
102
RTVSPropertyOp13
 70
     1
102
RTVSPropertyOp14
 70
     1
102
RTVSPropertyOp15
 70
     1
102
RTVSPropertyOp16
 70
     1
102
RTVSPropertyOp17
 70
     1
102
RTVSPropertyOp18
 70
     1
102
RTVSPropertyOp19
 70
     1
102
RTVSPropertyOp20
 70
     1
102
RTVSPropertyOp21
 70
     1
102
RTVSPropertyOp22
 70
     1
102
RTVSPropertyOp23
 70
     1
102
RTVSPropertyOp24
 70
     1
102
RTVSPropertyOp25
 70
     1
102
RTVSPropertyOp26
 70
     1
102
RTVSPropertyOp27
 70
     1
  0
ENDSEC
  0
EOF
