  0
SECTION
  2
HEADER
  9
$ACADVER
  1
AC1018
  9
$ACADMAINTVER
 70
     0
  9
$DWGCODEPAGE
  3
ANSI_932
  9
$LASTSAVEDBY
  1
imai
  9
$INSBASE
 10
0.0
 20
0.0
 30
0.0
  9
$EXTMIN
 10
21620.43479129259
 20
19551.37345225245
 30
-0.0015258207003583
  9
$EXTMAX
 10
40773.15230601604
 20
33407.86067334452
 30
0.0000000349246037
  9
$LIMMIN
 10
0.0
 20
0.0
  9
$LIMMAX
 10
84100.0
 20
59400.0
  9
$ORTHOMODE
 70
     1
  9
$REGENMODE
 70
     1
  9
$FILLMODE
 70
     1
  9
$QTEXTMODE
 70
     0
  9
$MIRRTEXT
 70
     1
  9
$LTSCALE
 40
1000.0
  9
$ATTMODE
 70
     1
  9
$TEXTSIZE
 40
150.0
  9
$TRACEWID
 40
0.05
  9
$TEXTSTYLE
  7
ＭＳ ゴシック
  9
$CLAYER
  8
D-STR-DIM
  9
$CELTYPE
  6
BYLAYER
  9
$CECOLOR
 62
   256
  9
$CELTSCALE
 40
1.0
  9
$DISPSILH
 70
     0
  9
$DIMSCALE
 40
50.0
  9
$DIMASZ
 40
1.7
  9
$DIMEXO
 40
1.5
  9
$DIMDLI
 40
0.38
  9
$DIMRND
 40
0.0
  9
$DIMDLE
 40
0.0
  9
$DIMEXE
 40
0.5
  9
$DIMTP
 40
0.0
  9
$DIMTM
 40
0.0
  9
$DIMTXT
 40
3.0
  9
$DIMCEN
 40
0.09
  9
$DIMTSZ
 40
0.0
  9
$DIMTOL
 70
     0
  9
$DIMLIM
 70
     0
  9
$DIMTIH
 70
     0
  9
$DIMTOH
 70
     0
  9
$DIMSE1
 70
     0
  9
$DIMSE2
 70
     0
  9
$DIMTAD
 70
     1
  9
$DIMZIN
 70
     0
  9
$DIMBLK
  1
Open30
  9
$DIMASO
 70
     1
  9
$DIMSHO
 70
     1
  9
$DIMPOST
  1

  9
$DIMAPOST
  1

  9
$DIMALT
 70
     0
  9
$DIMALTD
 70
     2
  9
$DIMALTF
 40
25.4
  9
$DIMLFAC
 40
1.0
  9
$DIMTOFL
 70
     0
  9
$DIMTVP
 40
0.0
  9
$DIMTIX
 70
     1
  9
$DIMSOXD
 70
     0
  9
$DIMSAH
 70
     0
  9
$DIMBLK1
  1

  9
$DIMBLK2
  1

  9
$DIMSTYLE
  2
S-50
  9
$DIMCLRD
 70
     0
  9
$DIMCLRE
 70
     0
  9
$DIMCLRT
 70
     0
  9
$DIMTFAC
 40
1.0
  9
$DIMGAP
 40
0.8
  9
$DIMJUST
 70
     0
  9
$DIMSD1
 70
     0
  9
$DIMSD2
 70
     0
  9
$DIMTOLJ
 70
     1
  9
$DIMTZIN
 70
     0
  9
$DIMALTZ
 70
     0
  9
$DIMALTTZ
 70
     0
  9
$DIMUPT
 70
     0
  9
$DIMDEC
 70
     0
  9
$DIMTDEC
 70
     0
  9
$DIMALTU
 70
     2
  9
$DIMALTTD
 70
     2
  9
$DIMTXSTY
  7
ＭＳ ゴシック
  9
$DIMAUNIT
 70
     0
  9
$DIMADEC
 70
     4
  9
$DIMALTRND
 40
0.0
  9
$DIMAZIN
 70
     0
  9
$DIMDSEP
 70
    46
  9
$DIMATFIT
 70
     3
  9
$DIMFRAC
 70
     0
  9
$DIMLDRBLK
  1
Open30
  9
$DIMLUNIT
 70
     2
  9
$DIMLWD
 70
    -2
  9
$DIMLWE
 70
    -2
  9
$DIMTMOVE
 70
     2
  9
$LUNITS
 70
     2
  9
$LUPREC
 70
     3
  9
$SKETCHINC
 40
0.1
  9
$FILLETRAD
 40
0.0
  9
$AUNITS
 70
     0
  9
$AUPREC
 70
     5
  9
$MENU
  1
acad
  9
$ELEVATION
 40
0.0
  9
$PELEVATION
 40
0.0
  9
$THICKNESS
 40
0.0
  9
$LIMCHECK
 70
     0
  9
$CHAMFERA
 40
0.0
  9
$CHAMFERB
 40
0.0
  9
$CHAMFERC
 40
0.0
  9
$CHAMFERD
 40
0.0
  9
$SKPOLY
 70
     0
  9
$TDCREATE
 40
2450010.607337963
  9
$TDUCREATE
 40
2450010.232337963
  9
$TDUPDATE
 40
2455836.475216829
  9
$TDUUPDATE
 40
2455836.100216829
  9
$TDINDWG
 40
0.4707029514
  9
$TDUSRTIMER
 40
0.4707029514
  9
$USRTIMER
 70
     1
  9
$ANGBASE
 50
0.0
  9
$ANGDIR
 70
     0
  9
$PDMODE
 70
     0
  9
$PDSIZE
 40
100.0
  9
$PLINEWID
 40
0.0
  9
$SPLFRAME
 70
     0
  9
$SPLINETYPE
 70
     6
  9
$SPLINESEGS
 70
     8
  9
$HANDSEED
  5
7F06
  9
$SURFTAB1
 70
     6
  9
$SURFTAB2
 70
     6
  9
$SURFTYPE
 70
     6
  9
$SURFU
 70
     6
  9
$SURFV
 70
     6
  9
$UCSBASE
  2

  9
$UCSNAME
  2

  9
$UCSORG
 10
0.0
 20
0.0
 30
0.0
  9
$UCSXDIR
 10
1.0
 20
0.0
 30
0.0
  9
$UCSYDIR
 10
0.0
 20
1.0
 30
0.0
  9
$UCSORTHOREF
  2

  9
$UCSORTHOVIEW
 70
     0
  9
$UCSORGTOP
 10
0.0
 20
0.0
 30
0.0
  9
$UCSORGBOTTOM
 10
0.0
 20
0.0
 30
0.0
  9
$UCSORGLEFT
 10
0.0
 20
0.0
 30
0.0
  9
$UCSORGRIGHT
 10
0.0
 20
0.0
 30
0.0
  9
$UCSORGFRONT
 10
0.0
 20
0.0
 30
0.0
  9
$UCSORGBACK
 10
0.0
 20
0.0
 30
0.0
  9
$PUCSBASE
  2

  9
$PUCSNAME
  2

  9
$PUCSORG
 10
0.0
 20
0.0
 30
0.0
  9
$PUCSXDIR
 10
1.0
 20
0.0
 30
0.0
  9
$PUCSYDIR
 10
0.0
 20
1.0
 30
0.0
  9
$PUCSORTHOREF
  2

  9
$PUCSORTHOVIEW
 70
     0
  9
$PUCSORGTOP
 10
0.0
 20
0.0
 30
0.0
  9
$PUCSORGBOTTOM
 10
0.0
 20
0.0
 30
0.0
  9
$PUCSORGLEFT
 10
0.0
 20
0.0
 30
0.0
  9
$PUCSORGRIGHT
 10
0.0
 20
0.0
 30
0.0
  9
$PUCSORGFRONT
 10
0.0
 20
0.0
 30
0.0
  9
$PUCSORGBACK
 10
0.0
 20
0.0
 30
0.0
  9
$USERI1
 70
     0
  9
$USERI2
 70
     0
  9
$USERI3
 70
     0
  9
$USERI4
 70
     0
  9
$USERI5
 70
     0
  9
$USERR1
 40
0.0
  9
$USERR2
 40
0.0
  9
$USERR3
 40
0.0
  9
$USERR4
 40
0.0
  9
$USERR5
 40
0.0
  9
$WORLDVIEW
 70
     1
  9
$SHADEDGE
 70
     3
  9
$SHADEDIF
 70
    70
  9
$TILEMODE
 70
     1
  9
$MAXACTVP
 70
    48
  9
$PINSBASE
 10
0.0
 20
0.0
 30
0.0
  9
$PLIMCHECK
 70
     0
  9
$PEXTMIN
 10
1.000000000000000E+20
 20
1.000000000000000E+20
 30
1.000000000000000E+20
  9
$PEXTMAX
 10
-1.000000000000000E+20
 20
-1.000000000000000E+20
 30
-1.000000000000000E+20
  9
$PLIMMIN
 10
0.0
 20
0.0
  9
$PLIMMAX
 10
12.0
 20
9.0
  9
$UNITMODE
 70
     0
  9
$VISRETAIN
 70
     0
  9
$PLINEGEN
 70
     0
  9
$PSLTSCALE
 70
     0
  9
$TREEDEPTH
 70
  3020
  9
$CMLSTYLE
  2
STANDARD
  9
$CMLJUST
 70
     0
  9
$CMLSCALE
 40
1.0
  9
$PROXYGRAPHICS
 70
     1
  9
$MEASUREMENT
 70
     0
  9
$CELWEIGHT
370
    -1
  9
$ENDCAPS
280
     0
  9
$JOINSTYLE
280
     0
  9
$LWDISPLAY
290
     0
  9
$INSUNITS
 70
     0
  9
$HYPERLINKBASE
  1

  9
$STYLESHEET
  1
acad.ctb
  9
$XEDIT
290
     1
  9
$CEPSNTYPE
380
     0
  9
$PSTYLEMODE
290
     1
  9
$FINGERPRINTGUID
  2
{D393076B-73A3-11D6-A1CB-0050FC45377D}
  9
$VERSIONGUID
  2
{0EB7C975-30AB-414D-99AD-6E2F1C859AAA}
  9
$EXTNAMES
290
     1
  9
$PSVPSCALE
 40
0.0
  9
$OLESTARTUP
290
     0
  9
$SORTENTS
280
   127
  9
$INDEXCTL
280
     0
  9
$HIDETEXT
280
     1
  9
$XCLIPFRAME
290
     0
  9
$HALOGAP
280
     0
  9
$OBSCOLOR
 70
   257
  9
$OBSLTYPE
280
     0
  9
$INTERSECTIONDISPLAY
280
     0
  9
$INTERSECTIONCOLOR
 70
   257
  9
$DIMASSOC
280
     1
  9
$PROJECTNAME
  1

  0
ENDSEC
  0
SECTION
  2
CLASSES
  0
CLASS
  1
LWPOLYLINE
  2
AcDbPolyline
  3
AutoCAD 2000
 90
        0
 91
        1
280
     0
281
     1
  0
CLASS
  1
ACDBDICTIONARYWDFLT
  2
AcDbDictionaryWithDefault
  3
ObjectDBX Classes
 90
        0
 91
        4
280
     0
281
     0
  0
CLASS
  1
ACDBPLACEHOLDER
  2
AcDbPlaceHolder
  3
ObjectDBX Classes
 90
        0
 91
        1
280
     0
281
     0
  0
CLASS
  1
LAYOUT
  2
AcDbLayout
  3
ObjectDBX Classes
 90
        0
 91
        1
280
     0
281
     0
  0
CLASS
  1
DICTIONARYVAR
  2
AcDbDictionaryVar
  3
ObjectDBX Classes
 90
        0
 91
        4
280
     0
281
     0
  0
CLASS
  1
DUMMY
  2
AcDbLongTransaction
  3
DUMMY
 90
        0
 91
        1
280
     0
281
     0
  0
CLASS
  1
LWPOLYLINE
  2
AcDbPolyline
  3
AutoCAD 2000
 90
        0
 91
        1
280
     0
281
     1
  0
CLASS
  1
HATCH
  2
AcDbHatch
  3
AutoCAD 2000
 90
        0
 91
        1
280
     0
281
     1
  0
CLASS
  1
XRECORD
  2
AcDbXrecord
  3
AutoCAD 2000
 90
        0
 91
        1
280
     0
281
     0
  0
CLASS
  1
DUMMY
  2
AcDbLongTransaction
  3
DUMMY
 90
        0
 91
        1
280
     0
281
     0
  0
CLASS
  1
LWPOLYLINE
  2
AcDbPolyline
  3
AutoCAD 2000
 90
        0
 91
        1
280
     0
281
     1
  0
CLASS
  1
HATCH
  2
AcDbHatch
  3
AutoCAD 2000
 90
        0
 91
        1
280
     0
281
     1
  0
CLASS
  1
XRECORD
  2
AcDbXrecord
  3
AutoCAD 2000
 90
        0
 91
        1
280
     0
281
     0
  0
CLASS
  1
DUMMY
  2
AcDbLongTransaction
  3
DUMMY
 90
        0
 91
        1
280
     0
281
     0
  0
CLASS
  1
LWPOLYLINE
  2
AcDbPolyline
  3
AutoCAD 2000
 90
        0
 91
        1
280
     0
281
     1
  0
CLASS
  1
HATCH
  2
AcDbHatch
  3
AutoCAD 2000
 90
        0
 91
        1
280
     0
281
     1
  0
CLASS
  1
XRECORD
  2
AcDbXrecord
  3
AutoCAD 2000
 90
        0
 91
        1
280
     0
281
     0
  0
CLASS
  1
DUMMY
  2
AcDbLongTransaction
  3
DUMMY
 90
        0
 91
        1
280
     0
281
     0
  0
CLASS
  1
LWPOLYLINE
  2
AcDbPolyline
  3
AutoCAD 2000
 90
        0
 91
        1
280
     0
281
     1
  0
CLASS
  1
HATCH
  2
AcDbHatch
  3
AutoCAD 2000
 90
        0
 91
        1
280
     0
281
     1
  0
CLASS
  1
XRECORD
  2
AcDbXrecord
  3
AutoCAD 2000
 90
        0
 91
        1
280
     0
281
     0
  0
CLASS
  1
DUMMY
  2
AcDbLongTransaction
  3
DUMMY
 90
        0
 91
        1
280
     0
281
     0
  0
CLASS
  1
LWPOLYLINE
  2
AcDbPolyline
  3
AutoCAD 2000
 90
        0
 91
        1
280
     0
281
     1
  0
CLASS
  1
HATCH
  2
AcDbHatch
  3
AutoCAD 2000
 90
        0
 91
        1
280
     0
281
     1
  0
CLASS
  1
XRECORD
  2
AcDbXrecord
  3
AutoCAD 2000
 90
        0
 91
        1
280
     0
281
     0
  0
CLASS
  1
DUMMY
  2
AcDbLongTransaction
  3
DUMMY
 90
        0
 91
        1
280
     0
281
     0
  0
CLASS
  1
LWPOLYLINE
  2
AcDbPolyline
  3
AutoCAD 2000
 90
        0
 91
        1
280
     0
281
     1
  0
CLASS
  1
HATCH
  2
AcDbHatch
  3
AutoCAD 2000
 90
        0
 91
        1
280
     0
281
     1
  0
CLASS
  1
XRECORD
  2
AcDbXrecord
  3
AutoCAD 2000
 90
        0
 91
        1
280
     0
281
     0
  0
CLASS
  1
DUMMY
  2
AcDbLongTransaction
  3
DUMMY
 90
        0
 91
        1
280
     0
281
     0
  0
CLASS
  1
LWPOLYLINE
  2
AcDbPolyline
  3
AutoCAD 2000
 90
        0
 91
        1
280
     0
281
     1
  0
CLASS
  1
HATCH
  2
AcDbHatch
  3
AutoCAD 2000
 90
        0
 91
        1
280
     0
281
     1
  0
CLASS
  1
XRECORD
  2
AcDbXrecord
  3
AutoCAD 2000
 90
        0
 91
        1
280
     0
281
     0
  0
CLASS
  1
DUMMY
  2
AcDbLongTransaction
  3
DUMMY
 90
        0
 91
        1
280
     0
281
     0
  0
CLASS
  1
LWPOLYLINE
  2
AcDbPolyline
  3
AutoCAD 2000
 90
        0
 91
        1
280
     0
281
     1
  0
CLASS
  1
HATCH
  2
AcDbHatch
  3
AutoCAD 2000
 90
        0
 91
        1
280
     0
281
     1
  0
CLASS
  1
XRECORD
  2
AcDbXrecord
  3
AutoCAD 2000
 90
        0
 91
        1
280
     0
281
     0
  0
CLASS
  1
DUMMY
  2
AcDbLongTransaction
  3
DUMMY
 90
        0
 91
        1
280
     0
281
     0
  0
CLASS
  1
LWPOLYLINE
  2
AcDbPolyline
  3
AutoCAD 2000
 90
        0
 91
        1
280
     0
281
     1
  0
CLASS
  1
HATCH
  2
AcDbHatch
  3
AutoCAD 2000
 90
        0
 91
        1
280
     0
281
     1
  0
CLASS
  1
XRECORD
  2
AcDbXrecord
  3
AutoCAD 2000
 90
        0
 91
        1
280
     0
281
     0
  0
CLASS
  1
SORTENTSTABLE
  2
AcDbSortentsTable
  3
ObjectDBX Classes
 90
        0
 91
        4
280
     0
281
     0
  0
CLASS
  1
DUMMY
  2
AcDbLongTransaction
  3
DUMMY
 90
        0
 91
        1
280
     0
281
     0
  0
CLASS
  1
LWPOLYLINE
  2
AcDbPolyline
  3
AutoCAD 2000
 90
        0
 91
        1
280
     0
281
     1
  0
CLASS
  1
HATCH
  2
AcDbHatch
  3
AutoCAD 2000
 90
        0
 91
        1
280
     0
281
     1
  0
CLASS
  1
XRECORD
  2
AcDbXrecord
  3
AutoCAD 2000
 90
        0
 91
        1
280
     0
281
     0
  0
CLASS
  1
DUMMY
  2
AcDbLongTransaction
  3
DUMMY
 90
        0
 91
        1
280
     0
281
     0
  0
CLASS
  1
LWPOLYLINE
  2
AcDbPolyline
  3
AutoCAD 2000
 90
        0
 91
        1
280
     0
281
     1
  0
CLASS
  1
HATCH
  2
AcDbHatch
  3
AutoCAD 2000
 90
        0
 91
        1
280
     0
281
     1
  0
CLASS
  1
XRECORD
  2
AcDbXrecord
  3
AutoCAD 2000
 90
        0
 91
        1
280
     0
281
     0
  0
CLASS
  1
TABLESTYLE
  2
AcDbTableStyle
  3
ObjectDBX Classes
 90
     4095
 91
        4
280
     0
281
     0
  0
CLASS
  1
ACAD_EVALUATION_GRAPH
  2
AcDbEvalGraph
  3
ObjectDBX Classes
 90
     1153
 91
        1
280
     1
281
     0
  0
CLASS
  1
ACAECUSTOBJ
  2
AcAeEditorObj
  3
AcAeEditorObj
 90
     1024
 91
        1
280
     1
281
     0
  0
CLASS
  1
ACDB_DYNAMICBLOCKPURGEPREVENTER_VERSION
  2
AcDbDynamicBlockPurgePreventer
  3
ObjectDBX Classes
 90
     1153
 91
        1
280
     1
281
     0
  0
CLASS
  1
SCALE
  2
AcDbScale
  3
ObjectDBX Classes
 90
     1153
 91
        4
280
     0
281
     0
  0
CLASS
  1
CELLSTYLEMAP
  2
AcDbCellStyleMap
  3
ObjectDBX Classes
 90
     1152
 91
        4
280
     0
281
     0
  0
ENDSEC
  0
SECTION
  2
TABLES
  0
TABLE
  2
VPORT
  5
8
330
0
100
AcDbSymbolTable
 70
    28
  0
VPORT
  5
7ED7
330
8
100
AcDbSymbolTableRecord
100
AcDbViewportTableRecord
  2
*Active
 70
     0
 10
0.0
 20
0.0
 11
1.0
 21
1.0
 12
30207.36750876006
 22
26715.17964408633
 13
0.0
 23
0.0
 14
1.0
 24
1.0
 15
1000.0
 25
1000.0
 16
0.0
 26
0.0
 36
1.0
 17
0.0
 27
0.0
 37
0.0
 40
16228.20058639922
 41
1.507024265644955
 42
50.0
 43
0.0
 44
0.0
 50
0.0
 51
0.0
 71
     0
 72
   100
 73
     1
 74
     1
 75
     0
 76
     0
 77
     0
 78
     0
281
     0
 65
     1
110
0.0
120
0.0
130
0.0
111
1.0
121
0.0
131
0.0
112
0.0
122
1.0
132
0.0
 79
     0
146
0.0
  0
ENDTAB
  0
TABLE
  2
LTYPE
  5
5
330
0
100
AcDbSymbolTable
 70
     9
  0
LTYPE
  5
11
330
5
100
AcDbSymbolTableRecord
100
AcDbLinetypeTableRecord
  2
BYBLOCK
 70
     0
  3

 72
    65
 73
     0
 40
0.0
  0
LTYPE
  5
12
330
5
100
AcDbSymbolTableRecord
100
AcDbLinetypeTableRecord
  2
BYLAYER
 70
     0
  3

 72
    65
 73
     0
 40
0.0
  0
LTYPE
  5
13
330
5
100
AcDbSymbolTableRecord
100
AcDbLinetypeTableRecord
  2
CONTINUOUS
 70
     0
  3
実線
 72
    65
 73
     0
 40
0.0
  0
LTYPE
  5
1E
330
5
100
AcDbSymbolTableRecord
100
AcDbLinetypeTableRecord
  2
HIDDEN
 70
     0
  3
_ _ _ _ _ _ _ _ _ _ _ _ _ _ _ _ _ _ _ _ _ _ _
 72
    65
 73
     2
 40
0.375
 49
0.25
 74
     0
 49
-0.125
 74
     0
  0
LTYPE
  5
1F
330
5
100
AcDbSymbolTableRecord
100
AcDbLinetypeTableRecord
  2
CENTER
 70
     0
  3
____ _ ____ _ ____ _ ____ _ ____ _ ____ _ ____
 72
    65
 73
     4
 40
2.0
 49
1.25
 74
     0
 49
-0.25
 74
     0
 49
0.25
 74
     0
 49
-0.25
 74
     0
  0
LTYPE
  5
20
330
5
100
AcDbSymbolTableRecord
100
AcDbLinetypeTableRecord
  2
PHANTOM
 70
     0
  3
_____ _ _ _____ _ _ _____ _ _ _____ _ _ ____
 72
    65
 73
     6
 40
2.5
 49
1.25
 74
     0
 49
-0.25
 74
     0
 49
0.25
 74
     0
 49
-0.25
 74
     0
 49
0.25
 74
     0
 49
-0.25
 74
     0
  0
LTYPE
  5
B5C
330
5
100
AcDbSymbolTableRecord
100
AcDbLinetypeTableRecord
  2
HASEN1
 70
     0
  3
破線
 72
    65
 73
     2
 40
2.0
 49
1.0
 74
     0
 49
-1.0
 74
     0
  0
LTYPE
  5
B5D
330
5
100
AcDbSymbolTableRecord
100
AcDbLinetypeTableRecord
  2
TENSEN1
 70
     0
  3
点線
 72
    65
 73
     2
 40
1.0
 49
0.5
 74
     0
 49
-0.5
 74
     0
  0
LTYPE
  5
B5E
330
5
100
AcDbSymbolTableRecord
100
AcDbLinetypeTableRecord
  2
TEN1SEN1
 70
     0
  3
一点鎖線
 72
    65
 73
     4
 40
18.0
 49
15.0
 74
     0
 49
-1.0
 74
     0
 49
1.0
 74
     0
 49
-1.0
 74
     0
  0
LTYPE
  5
3A3D
330
5
100
AcDbSymbolTableRecord
100
AcDbLinetypeTableRecord
  2
ACAD_ISO07W100
 70
     0
  3
ISO dot . . . . . . . . . . . . . . . . . . . .
 72
    65
 73
     2
 40
3.0
 49
0.0
 74
     0
 49
-3.0
 74
     0
  0
LTYPE
  5
3A3E
330
5
100
AcDbSymbolTableRecord
100
AcDbLinetypeTableRecord
  2
DOT2
 70
     0
  3
Dot (.5x) .....................................
 72
    65
 73
     2
 40
0.125
 49
0.0
 74
     0
 49
-0.125
 74
     0
  0
ENDTAB
  0
TABLE
  2
LAYER
  5
2
102
{ACAD_XDICTIONARY
360
3B1C
102
}
330
0
100
AcDbSymbolTable
 70
    18
  0
LAYER
  5
E
330
2
100
AcDbSymbolTableRecord
100
AcDbLayerTableRecord
  2
0
 70
     0
 62
     7
  6
CONTINUOUS
370
    -3
390
3A32
  0
LAYER
  5
23
330
2
100
AcDbSymbolTableRecord
100
AcDbLayerTableRecord
  2
D-TTL
 70
     0
 62
     2
  6
CONTINUOUS
370
    50
390
3A32
1001
AcAecLayerStandard
1000

1000
外枠
  0
LAYER
  5
25
330
2
100
AcDbSymbolTableRecord
100
AcDbLayerTableRecord
  2
D-STR
 70
     0
 62
     1
  6
CONTINUOUS
370
    25
390
3A32
1001
AcAecLayerStandard
1000

1000
構造物外形線
  0
LAYER
  5
A9
330
2
100
AcDbSymbolTableRecord
100
AcDbLayerTableRecord
  2
DEFPOINTS
 70
     0
 62
     7
  6
CONTINUOUS
290
     0
370
    -3
390
3A32
  0
LAYER
  5
67C7
330
2
100
AcDbSymbolTableRecord
100
AcDbLayerTableRecord
  2
D-TTL-TXT
 70
     0
 62
     7
  6
CONTINUOUS
370
    13
390
3A32
1001
AcAecLayerStandard
1000

1000
枠タイトル
  0
LAYER
  5
67C9
330
2
100
AcDbSymbolTableRecord
100
AcDbLayerTableRecord
  2
D-BGD
 70
     0
 62
     7
  6
CONTINUOUS
370
    13
390
3A32
1001
AcAecLayerStandard
1000

1000
既設構造物等(基礎材)
  0
LAYER
  5
67CA
330
2
100
AcDbSymbolTableRecord
100
AcDbLayerTableRecord
  2
D-BGD-DIM
 70
     0
 62
     7
  6
CONTINUOUS
370
    13
390
3A32
1001
AcAecLayerStandard
1000

1000
既-寸法線
  0
LAYER
  5
67CB
330
2
100
AcDbSymbolTableRecord
100
AcDbLayerTableRecord
  2
D-BGD-TXT
 70
     0
 62
     7
  6
CONTINUOUS
370
    13
390
3A32
1001
AcAecLayerStandard
1000

1000
既-文字
  0
LAYER
  5
67CC
330
2
100
AcDbSymbolTableRecord
100
AcDbLayerTableRecord
  2
D-BGD-HTXT
 70
     0
 62
     7
  6
CONTINUOUS
370
    13
390
3A32
1001
AcAecLayerStandard
1000

1000
既-旗上げ
  0
LAYER
  5
69E8
330
2
100
AcDbSymbolTableRecord
100
AcDbLayerTableRecord
  2
D-BMK
 70
     0
 62
     2
  6
CENTER
370
    13
390
3A32
1001
AcAecLayerStandard
1000

1000
構造物中心線
  0
LAYER
  5
69E9
330
2
100
AcDbSymbolTableRecord
100
AcDbLayerTableRecord
  2
D-BMK-HTXT
 70
     0
 62
     7
  6
CONTINUOUS
370
    13
390
3A32
1001
AcAecLayerStandard
1000

1000
旗上げ
  0
LAYER
  5
69EA
330
2
100
AcDbSymbolTableRecord
100
AcDbLayerTableRecord
  2
D-STR-DIM
 70
     0
 62
     7
  6
CONTINUOUS
370
    13
390
3A32
1001
AcAecLayerStandard
1000

1000
構-寸法線
  0
LAYER
  5
69EB
330
2
100
AcDbSymbolTableRecord
100
AcDbLayerTableRecord
  2
D-STR-TXT
 70
     0
 62
     7
  6
CONTINUOUS
370
    13
390
3A32
1001
AcAecLayerStandard
1000

1000
構-文字
  0
LAYER
  5
69EC
330
2
100
AcDbSymbolTableRecord
100
AcDbLayerTableRecord
  2
D-STR-HTXT
 70
     0
 62
     7
  6
CONTINUOUS
370
    13
390
3A32
1001
AcAecLayerStandard
1000

1000
構-旗上げ
  0
LAYER
  5
69ED
330
2
100
AcDbSymbolTableRecord
100
AcDbLayerTableRecord
  2
D-MTR
 70
     0
 62
     7
  6
CONTINUOUS
370
    13
390
3A32
1001
AcAecLayerStandard
1000

1000
材料表
  0
LAYER
  5
69EE
330
2
100
AcDbSymbolTableRecord
100
AcDbLayerTableRecord
  2
D-MTR-TXT
 70
     0
 62
     7
  6
CONTINUOUS
370
    13
390
3A32
1001
AcAecLayerStandard
1000

1000
材-文字
  0
LAYER
  5
6BF9
330
2
100
AcDbSymbolTableRecord
100
AcDbLayerTableRecord
  2
SUNPOU
 70
     0
 62
     1
  6
CONTINUOUS
370
    -3
390
3A32
  0
LAYER
  5
7496
330
2
100
AcDbSymbolTableRecord
100
AcDbLayerTableRecord
  2
D-STR-STR1
 70
     0
 62
     4
  6
CONTINUOUS
370
    13
390
3A32
1001
AcAecLayerStandard
1000

1000

  0
ENDTAB
  0
TABLE
  2
STYLE
  5
3
330
0
100
AcDbSymbolTable
 70
     4
  0
STYLE
  5
F
330
3
100
AcDbSymbolTableRecord
100
AcDbTextStyleTableRecord
  2
STANDARD
 70
     0
 40
0.0
 41
0.8
 50
0.0
 71
     0
 42
800.0
  3
TXT.shx
  4
BIGFONT.shx
  0
STYLE
  5
3A3C
330
3
100
AcDbSymbolTableRecord
100
AcDbTextStyleTableRecord
  2

 70
     1
 40
0.0
 41
1.0
 50
0.0
 71
     0
 42
300.0
  3
ltypeshp.shx
  4

  0
STYLE
  5
3B35
330
3
100
AcDbSymbolTableRecord
100
AcDbTextStyleTableRecord
  2
STANDARD-FC
 70
     0
 40
0.0
 41
1.0
 50
0.0
 71
     0
 42
0.0
  3
txt
  4
bigfont
  0
STYLE
  5
3B36
330
3
100
AcDbSymbolTableRecord
100
AcDbTextStyleTableRecord
  2
ＭＳ ゴシック
 70
     0
 40
0.0
 41
1.0
 50
0.0
 71
     0
 42
150.0
  3
MS Gothic.ttf
  4

1001
ACAD
1000
MS Gothic
1071
    32817
  0
ENDTAB
  0
TABLE
  2
VIEW
  5
6
330
0
100
AcDbSymbolTable
 70
     0
  0
ENDTAB
  0
TABLE
  2
UCS
  5
7
330
0
100
AcDbSymbolTable
 70
     0
  0
ENDTAB
  0
TABLE
  2
APPID
  5
9
330
0
100
AcDbSymbolTable
 70
    15
  0
APPID
  5
10
330
9
100
AcDbSymbolTableRecord
100
AcDbRegAppTableRecord
  2
ACAD
 70
     0
  0
APPID
  5
5FF5
330
9
100
AcDbSymbolTableRecord
100
AcDbRegAppTableRecord
  2
ACAD_DSTYLE_DIMTEXT_FILL
 70
     0
  0
APPID
  5
5FF6
330
9
100
AcDbSymbolTableRecord
100
AcDbRegAppTableRecord
  2
ACAD_DSTYLE_DIMEXT_LENGTH
 70
     0
  0
APPID
  5
5FF7
330
9
100
AcDbSymbolTableRecord
100
AcDbRegAppTableRecord
  2
ACAD_DSTYLE_DIMEXT_ENABLED
 70
     0
  0
APPID
  5
5FF8
330
9
100
AcDbSymbolTableRecord
100
AcDbRegAppTableRecord
  2
ACAD_DSTYLE_DIM_LINETYPE
 70
     0
  0
APPID
  5
5FF9
330
9
100
AcDbSymbolTableRecord
100
AcDbRegAppTableRecord
  2
ACAD_DSTYLE_DIM_EXT1_LINETYPE
 70
     0
  0
APPID
  5
5FFA
330
9
100
AcDbSymbolTableRecord
100
AcDbRegAppTableRecord
  2
ACAD_DSTYLE_DIM_EXT2_LINETYPE
 70
     0
  0
APPID
  5
6146
330
9
100
AcDbSymbolTableRecord
100
AcDbRegAppTableRecord
  2
ACAD_DSTYLE_DIMJOGGED_JOGANGLE_SYMBOL
 70
     0
  0
APPID
  5
6727
330
9
100
AcDbSymbolTableRecord
100
AcDbRegAppTableRecord
  2
ACAD_DSTYLE_DIMARC_LENGTH_SYMBOL
 70
     0
  0
APPID
  5
67C8
330
9
100
AcDbSymbolTableRecord
100
AcDbRegAppTableRecord
  2
AcAecLayerStandard
 70
     0
  0
APPID
  5
7498
330
9
100
AcDbSymbolTableRecord
100
AcDbRegAppTableRecord
  2
AcDbDynamicBlockGUID
 70
     0
  0
APPID
  5
7499
330
9
100
AcDbSymbolTableRecord
100
AcDbRegAppTableRecord
  2
AcDbBlockRepETag
 70
     0
  0
APPID
  5
78AB
330
9
100
AcDbSymbolTableRecord
100
AcDbRegAppTableRecord
  2
ACAUTHENVIRON
 70
     0
  0
APPID
  5
78AF
330
9
100
AcDbSymbolTableRecord
100
AcDbRegAppTableRecord
  2
AcDbDynamicBlockTrueName
 70
     0
  0
APPID
  5
78B3
330
9
100
AcDbSymbolTableRecord
100
AcDbRegAppTableRecord
  2
ACAD_EXEMPT_FROM_CAD_STANDARDS
 70
     0
  0
ENDTAB
  0
TABLE
  2
DIMSTYLE
  5
A
330
0
100
AcDbSymbolTable
 70
     5
100
AcDbDimStyleTable
  0
DIMSTYLE
105
75
330
A
100
AcDbSymbolTableRecord
100
AcDbDimStyleTableRecord
  2
STANDARD
 70
     0
178
     0
340
F
  0
DIMSTYLE
105
6F2C
102
{ACAD_REACTORS
330
756D
330
756E
330
756F
330
7570
330
7571
330
7572
330
75DD
330
75DE
330
75DF
330
75E0
330
75E1
330
75E2
330
7751
330
775F
330
7883
330
78E7
330
78E8
330
78E9
330
78EA
330
78EB
330
78F9
330
78FA
330
7AA0
330
7AB8
330
7AC6
330
7B01
330
7B3A
330
7C92
330
7C93
330
7C94
330
7C95
330
7C96
330
7CA3
330
7CA4
330
7CA9
330
7CAA
330
7CAB
330
7CAF
102
}
330
A
100
AcDbSymbolTableRecord
100
AcDbDimStyleTableRecord
  2
S-50
 70
     0
 40
50.0
 41
1.7
 42
1.5
 44
0.5
 73
     0
 74
     0
 77
     1
140
3.0
147
0.8
174
     1
178
     0
179
     4
271
     0
272
     0
279
     2
340
3B36
341
62FD
342
62FD
  0
DIMSTYLE
105
7497
330
A
100
AcDbSymbolTableRecord
100
AcDbDimStyleTableRecord
  2
S-100
 70
     0
 40
100.0
 41
2.0
 42
2.0
 44
0.5
 73
     0
 74
     0
 77
     1
140
3.5
147
0.8
174
     1
178
     0
179
     4
271
     0
272
     0
279
     2
340
3B36
342
62FD
  0
DIMSTYLE
105
7A69
330
A
100
AcDbSymbolTableRecord
100
AcDbDimStyleTableRecord
  2
S-20
 70
     0
 40
20.0
 41
1.7
 42
1.5
 44
0.5
 73
     0
 74
     0
 77
     1
140
3.0
147
0.8
174
     1
178
     0
179
     4
271
     0
272
     0
279
     2
340
3B36
341
62FD
342
62FD
  0
ENDTAB
  0
TABLE
  2
BLOCK_RECORD
  5
1
330
0
100
AcDbSymbolTable
 70
    64
  0
BLOCK_RECORD
  5
17
102
{ACAD_XDICTIONARY
360
3A7C
102
}
330
1
100
AcDbSymbolTableRecord
100
AcDbBlockTableRecord
  2
*MODEL_SPACE
340
3A35
  0
BLOCK_RECORD
  5
14
330
1
100
AcDbSymbolTableRecord
100
AcDbBlockTableRecord
  2
*PAPER_SPACE
340
3A36
  0
BLOCK_RECORD
  5
6297
330
1
100
AcDbSymbolTableRecord
100
AcDbBlockTableRecord
  2
_Open
340
0
  0
BLOCK_RECORD
  5
62FD
330
1
100
AcDbSymbolTableRecord
100
AcDbBlockTableRecord
  2
_Open30
340
0
102
{BLKREFS
331
740A
331
740B
331
7416
331
7417
331
7422
331
7423
331
742E
331
742F
331
743B
331
743C
331
7448
331
7449
331
7453
331
7454
331
745F
331
7460
331
746B
331
746C
331
7477
331
7478
331
7483
331
7484
331
748F
331
7490
331
77A7
331
77A8
331
77B0
331
77B1
331
77B9
331
77BA
331
77C2
331
77C3
331
77CB
331
77CC
331
77D4
331
77D5
331
799F
331
79A0
331
7A8A
331
7A8B
331
7A98
331
7A99
331
7BA7
331
7BA8
331
7BB0
331
7BB1
331
7BB9
331
7BBA
331
7BC2
331
7BC3
331
7BCC
331
7BCD
331
7BD6
331
7BD7
331
7BDF
331
7BE0
331
7BE7
331
7BE8
331
7BF1
331
7BF2
331
7BF9
331
7BFA
331
7C02
331
7C03
331
7C0B
331
7C0C
331
7C14
331
7C15
331
7C1E
331
7C1F
331
7C28
331
7C29
331
7C30
331
7C31
331
7C3A
331
7C3B
331
7C4D
331
7C4E
331
7C56
331
7C57
331
7C60
331
7C61
331
7DA1
331
7DA2
331
7DAA
331
7DAB
331
7DB3
331
7DB4
331
7DFE
331
7DFF
331
7E09
331
7E0A
331
7E26
331
7E27
331
7E6A
331
7E6B
331
7E7E
331
7E7F
331
7E92
331
7E93
331
7E9A
331
7E9B
331
7EBD
331
7EBE
331
7ECE
331
7ECF
102
}
  0
BLOCK_RECORD
  5
73DE
330
1
100
AcDbSymbolTableRecord
100
AcDbBlockTableRecord
  2
エスコン
340
0
310
2800000020000000200000000100080000000000000400000000000000000000000000000000000000000000000080000080000000808000800000008000800080800000C0C0C000C0DCC000F0CAA6000020400000206000002080000020A0000020C0000020E00000400000004020000040400000406000004080000040A0
310
000040C0000040E00000600000006020000060400000606000006080000060A0000060C0000060E00000800000008020000080400000806000008080000080A0000080C0000080E00000A0000000A0200000A0400000A0600000A0800000A0A00000A0C00000A0E00000C0000000C0200000C0400000C0600000C0800000C0
310
A00000C0C00000C0E00000E0000000E0200000E0400000E0600000E0800000E0A00000E0C00000E0E00040000000400020004000400040006000400080004000A0004000C0004000E00040200000402020004020400040206000402080004020A0004020C0004020E000404000004040200040404000404060004040800040
310
40A0004040C0004040E00040600000406020004060400040606000406080004060A0004060C0004060E00040800000408020004080400040806000408080004080A0004080C0004080E00040A0000040A0200040A0400040A0600040A0800040A0A00040A0C00040A0E00040C0000040C0200040C0400040C0600040C08000
310
40C0A00040C0C00040C0E00040E0000040E0200040E0400040E0600040E0800040E0A00040E0C00040E0E00080000000800020008000400080006000800080008000A0008000C0008000E00080200000802020008020400080206000802080008020A0008020C0008020E00080400000804020008040400080406000804080
310
008040A0008040C0008040E00080600000806020008060400080606000806080008060A0008060C0008060E00080800000808020008080400080806000808080008080A0008080C0008080E00080A0000080A0200080A0400080A0600080A0800080A0A00080A0C00080A0E00080C0000080C0200080C0400080C0600080C0
310
800080C0A00080C0C00080C0E00080E0000080E0200080E0400080E0600080E0800080E0A00080E0C00080E0E000C0000000C0002000C0004000C0006000C0008000C000A000C000C000C000E000C0200000C0202000C0204000C0206000C0208000C020A000C020C000C020E000C0400000C0402000C0404000C0406000C0
310
408000C040A000C040C000C040E000C0600000C0602000C0604000C0606000C0608000C060A000C060C000C060E000C0800000C0802000C0804000C0806000C0808000C080A000C080C000C080E000C0A00000C0A02000C0A04000C0A06000C0A08000C0A0A000C0A0C000C0A0E000C0C00000C0C02000C0C04000C0C06000
310
C0C08000C0C0A000F0FBFF00A4A0A000808080000000FF0000FF000000FFFF00FF000000FF00FF00FFFF0000FFFFFF0000000000000000000000000000000000000000000000000000000000000000000000000000000000000000000000000000000000000000000000000000000000000000000000000000000000000000
310
00000000000000000000000000000000000000000000000000000000000000000000000000000000000000000000000000000000000000000000F9F9F90000000000000000F90000000000000000000000000000000000000000F90000F9000000000000F900F9000000000000000000000000F9F9F9F9F9F9F9F9F9F9F9F9
310
F9F9F9F9F90000F9000000000000000000000000FD0000000000F9000000000000000000F9000000F90000000000000000000000FDF900000000F900000000000000000000F90000F90000000000000000000000FDF90000000000F9000000000000000000F9000000F90000000000000000000000FDF900000000F9000000
310
00000000000000F90000F90000000000000000000000FDFD0000000000F9000000000000000000F9000000F90000000000000000000000FDF900000000F900000000000000000000F90000F9000000000000000000000000FD0000000000F9000000000000000000F9000000F90000000000000000000000FDF900000000F9
310
00000000000000000000F90000F90000000000000000000000FDF90000000000F9000000000000000000F9000000F90000000000000000000000FDF900000000F900000000000000000000F90000F90000000000000000000000FDFDFD00000000F9000000000000000000F9000000F90000000000000000000000FDFD0000
310
0000F900000000000000000000F90000F90000000000000000000000FDF90000000000F9000000000000000000F9000000F90000000000000000000000FDF900000000F900000000000000000000F90000F90000000000000000000000FDFD0000000000F9000000000000000000F9000000F90000000000000000000000FD
310
F900000000F900000000000000000000F90000F90000000000000000000000FDF90000000000F9000000000000000000F9000000F900000000000000000000FD00F900000000F900000000000000000000F90000F90000000000000000000000FDF90000000000F900F9F9F90000000000F9F9F90000000000000000000000
310
0000FDFD00000000F900F90000F9000000F9F900000000000000000000000000000000F9F9F9F9F9F9F9F9000000F9F9F9000000000000000000000000000000000000000000000000000000000000000000000000000000000000000000000000000000000000000000000000000000000000000000000000000000000000
310
0000000000000000000000000000000000000000000000000000000000000000000000000000000000000000000000000000000000000000
102
{BLKREFS
331
7542
331
7544
331
7545
331
7546
331
7547
331
7548
331
78BC
331
78BE
331
78BF
331
78C0
331
78C1
331
78C2
331
78C3
331
7C67
331
7C68
331
7C69
331
7C6A
331
7C6B
331
7C6C
331
7C6D
331
7E04
102
}
1001
AcDbDynamicBlockGUID
1000
{90D04C12-5814-4525-9724-FFD329911578}
1001
AcDbBlockRepETag
1070
     1
1071
       18
  0
BLOCK_RECORD
  5
73F4
330
1
100
AcDbSymbolTableRecord
100
AcDbBlockTableRecord
  2
エスコン基礎35
340
0
310
2800000020000000200000000100080000000000000400000000000000000000000000000000000000000000000080000080000000808000800000008000800080800000C0C0C000C0DCC000F0CAA6000020400000206000002080000020A0000020C0000020E00000400000004020000040400000406000004080000040A0
310
000040C0000040E00000600000006020000060400000606000006080000060A0000060C0000060E00000800000008020000080400000806000008080000080A0000080C0000080E00000A0000000A0200000A0400000A0600000A0800000A0A00000A0C00000A0E00000C0000000C0200000C0400000C0600000C0800000C0
310
A00000C0C00000C0E00000E0000000E0200000E0400000E0600000E0800000E0A00000E0C00000E0E00040000000400020004000400040006000400080004000A0004000C0004000E00040200000402020004020400040206000402080004020A0004020C0004020E000404000004040200040404000404060004040800040
310
40A0004040C0004040E00040600000406020004060400040606000406080004060A0004060C0004060E00040800000408020004080400040806000408080004080A0004080C0004080E00040A0000040A0200040A0400040A0600040A0800040A0A00040A0C00040A0E00040C0000040C0200040C0400040C0600040C08000
310
40C0A00040C0C00040C0E00040E0000040E0200040E0400040E0600040E0800040E0A00040E0C00040E0E00080000000800020008000400080006000800080008000A0008000C0008000E00080200000802020008020400080206000802080008020A0008020C0008020E00080400000804020008040400080406000804080
310
008040A0008040C0008040E00080600000806020008060400080606000806080008060A0008060C0008060E00080800000808020008080400080806000808080008080A0008080C0008080E00080A0000080A0200080A0400080A0600080A0800080A0A00080A0C00080A0E00080C0000080C0200080C0400080C0600080C0
310
800080C0A00080C0C00080C0E00080E0000080E0200080E0400080E0600080E0800080E0A00080E0C00080E0E000C0000000C0002000C0004000C0006000C0008000C000A000C000C000C000E000C0200000C0202000C0204000C0206000C0208000C020A000C020C000C020E000C0400000C0402000C0404000C0406000C0
310
408000C040A000C040C000C040E000C0600000C0602000C0604000C0606000C0608000C060A000C060C000C060E000C0800000C0802000C0804000C0806000C0808000C080A000C080C000C080E000C0A00000C0A02000C0A04000C0A06000C0A08000C0A0A000C0A0C000C0A0E000C0C00000C0C02000C0C04000C0C06000
310
C0C08000C0C0A000F0FBFF00A4A0A000808080000000FF0000FF000000FFFF00FF000000FF00FF00FFFF0000FFFFFF0000000000000000000000000000000000000000000000000000000000000000000000000000000000000000000000000000000000000000000000000000000000000000000000000000000000000000
310
00000000000000000000000000000000000000000000000000000000000000000000000000000000000000000000000000000000000000000000000000000000000000000000000000000000000000000000000000000000000000000000000000000000000000000000000000000000000000000000000000000000000000
310
00000000000000000000000000000000000000F9F9F9F9F9F9F9F9F9F9F9F9F9F9F9F9F9F9F9F9F9F9F9F9F9F9F9F9F9F90000F9000000000000000000000000F9F90000000000F9F900000000000000F90000F9000000000000000000000000F9F90000000000F9F900000000000000F90000F90000000000000000000000
310
00F9F90000000000F9F900000000000000F90000F9000000000000000000000000F9F90000000000F9F900000000000000F90000F9000000000000000000000000F9F90000000000F9F900000000000000F90000F9000000000000000000000000F9F90000000000F9F900000000000000F90000F900000000000000000000
310
0000F9F90000000000F9F900000000000000F90000F9000000000000000000000000F9F90000000000F9F900000000000000F90000F9000000000000000000000000F9F90000000000F9F900000000000000F90000F9000000000000000000000000F9F90000000000F9F900000000000000F90000F9000000000000000000
310
000000F9F90000000000F9F900000000000000F90000F9000000000000000000000000F9F90000000000F9F900000000000000F90000F9000000000000000000000000F9F90000000000F9F900000000000000F90000F9000000000000000000000000F9F90000000000F9F900000000000000F90000F90000000000000000
310
00000000F9F90000000000F9F900000000000000F90000F9000000000000000000000000F9F9F9F9F9F9F9F9F9F9F9F9F9F9F9F9F90000F9F9F9F9F9F9F9F9F9F9F9F9F9F900000000F9F9F9F9F9F9F9F9F9000000000000000000000000000000000000000000000000000000000000000000000000000000000000000000
310
00000000000000000000000000000000000000000000000000000000000000000000000000000000000000000000000000000000000000000000000000000000000000000000000000000000000000000000000000000000000000000000000000000000000000000000000000000000000000000000000000000000000000
310
0000000000000000000000000000000000000000000000000000000000000000000000000000000000000000000000000000000000000000
102
{BLKREFS
331
7543
102
}
1001
AcDbDynamicBlockGUID
1000
{8C372DC8-0B26-4711-9A69-2BEFD223297C}
1001
AcDbBlockRepETag
1070
     1
1071
       14
  0
BLOCK_RECORD
  5
75E3
330
1
100
AcDbSymbolTableRecord
100
AcDbBlockTableRecord
  2
*D17
340
0
  0
BLOCK_RECORD
  5
75EF
330
1
100
AcDbSymbolTableRecord
100
AcDbBlockTableRecord
  2
*D18
340
0
  0
BLOCK_RECORD
  5
75FB
330
1
100
AcDbSymbolTableRecord
100
AcDbBlockTableRecord
  2
*D19
340
0
  0
BLOCK_RECORD
  5
7607
330
1
100
AcDbSymbolTableRecord
100
AcDbBlockTableRecord
  2
*D20
340
0
  0
BLOCK_RECORD
  5
7613
330
1
100
AcDbSymbolTableRecord
100
AcDbBlockTableRecord
  2
*D21
340
0
  0
BLOCK_RECORD
  5
7620
330
1
100
AcDbSymbolTableRecord
100
AcDbBlockTableRecord
  2
*D22
340
0
  0
BLOCK_RECORD
  5
762C
330
1
100
AcDbSymbolTableRecord
100
AcDbBlockTableRecord
  2
*D23
340
0
  0
BLOCK_RECORD
  5
7638
330
1
100
AcDbSymbolTableRecord
100
AcDbBlockTableRecord
  2
*D24
340
0
  0
BLOCK_RECORD
  5
7644
330
1
100
AcDbSymbolTableRecord
100
AcDbBlockTableRecord
  2
*D25
340
0
  0
BLOCK_RECORD
  5
7650
330
1
100
AcDbSymbolTableRecord
100
AcDbBlockTableRecord
  2
*D26
340
0
  0
BLOCK_RECORD
  5
765C
330
1
100
AcDbSymbolTableRecord
100
AcDbBlockTableRecord
  2
*D27
340
0
  0
BLOCK_RECORD
  5
7668
330
1
100
AcDbSymbolTableRecord
100
AcDbBlockTableRecord
  2
*D28
340
0
  0
BLOCK_RECORD
  5
7752
330
1
100
AcDbSymbolTableRecord
100
AcDbBlockTableRecord
  2
*D29
340
0
  0
BLOCK_RECORD
  5
7760
330
1
100
AcDbSymbolTableRecord
100
AcDbBlockTableRecord
  2
*D30
340
0
  0
BLOCK_RECORD
  5
7884
330
1
100
AcDbSymbolTableRecord
100
AcDbBlockTableRecord
  2
*D31
340
0
  0
BLOCK_RECORD
  5
78FF
330
1
100
AcDbSymbolTableRecord
100
AcDbBlockTableRecord
  2
*D34
340
0
  0
BLOCK_RECORD
  5
790B
330
1
100
AcDbSymbolTableRecord
100
AcDbBlockTableRecord
  2
*D35
340
0
  0
BLOCK_RECORD
  5
7917
330
1
100
AcDbSymbolTableRecord
100
AcDbBlockTableRecord
  2
*D36
340
0
  0
BLOCK_RECORD
  5
7923
330
1
100
AcDbSymbolTableRecord
100
AcDbBlockTableRecord
  2
*D37
340
0
  0
BLOCK_RECORD
  5
792F
330
1
100
AcDbSymbolTableRecord
100
AcDbBlockTableRecord
  2
*D38
340
0
  0
BLOCK_RECORD
  5
7948
330
1
100
AcDbSymbolTableRecord
100
AcDbBlockTableRecord
  2
*D40
340
0
  0
BLOCK_RECORD
  5
7955
330
1
100
AcDbSymbolTableRecord
100
AcDbBlockTableRecord
  2
*D41
340
0
  0
BLOCK_RECORD
  5
7A46
330
1
100
AcDbSymbolTableRecord
100
AcDbBlockTableRecord
  2
エスコン基礎45
340
0
310
2800000020000000200000000100080000000000000400000000000000000000000000000000000000000000000080000080000000808000800000008000800080800000C0C0C000C0DCC000F0CAA6000020400000206000002080000020A0000020C0000020E00000400000004020000040400000406000004080000040A0
310
000040C0000040E00000600000006020000060400000606000006080000060A0000060C0000060E00000800000008020000080400000806000008080000080A0000080C0000080E00000A0000000A0200000A0400000A0600000A0800000A0A00000A0C00000A0E00000C0000000C0200000C0400000C0600000C0800000C0
310
A00000C0C00000C0E00000E0000000E0200000E0400000E0600000E0800000E0A00000E0C00000E0E00040000000400020004000400040006000400080004000A0004000C0004000E00040200000402020004020400040206000402080004020A0004020C0004020E000404000004040200040404000404060004040800040
310
40A0004040C0004040E00040600000406020004060400040606000406080004060A0004060C0004060E00040800000408020004080400040806000408080004080A0004080C0004080E00040A0000040A0200040A0400040A0600040A0800040A0A00040A0C00040A0E00040C0000040C0200040C0400040C0600040C08000
310
40C0A00040C0C00040C0E00040E0000040E0200040E0400040E0600040E0800040E0A00040E0C00040E0E00080000000800020008000400080006000800080008000A0008000C0008000E00080200000802020008020400080206000802080008020A0008020C0008020E00080400000804020008040400080406000804080
310
008040A0008040C0008040E00080600000806020008060400080606000806080008060A0008060C0008060E00080800000808020008080400080806000808080008080A0008080C0008080E00080A0000080A0200080A0400080A0600080A0800080A0A00080A0C00080A0E00080C0000080C0200080C0400080C0600080C0
310
800080C0A00080C0C00080C0E00080E0000080E0200080E0400080E0600080E0800080E0A00080E0C00080E0E000C0000000C0002000C0004000C0006000C0008000C000A000C000C000C000E000C0200000C0202000C0204000C0206000C0208000C020A000C020C000C020E000C0400000C0402000C0404000C0406000C0
310
408000C040A000C040C000C040E000C0600000C0602000C0604000C0606000C0608000C060A000C060C000C060E000C0800000C0802000C0804000C0806000C0808000C080A000C080C000C080E000C0A00000C0A02000C0A04000C0A06000C0A08000C0A0A000C0A0C000C0A0E000C0C00000C0C02000C0C04000C0C06000
310
C0C08000C0C0A000F0FBFF00A4A0A000808080000000FF0000FF000000FFFF00FF000000FF00FF00FFFF0000FFFFFF0000000000000000000000000000000000000000000000000000000000000000000000000000000000000000000000000000000000000000000000000000000000000000000000000000000000000000
310
00000000000000000000000000000000000000000000000000000000000000000000000000000000000000000000000000000000000000000000000000000000000000000000000000000000000000000000000000000000000000000000000000000000000000000000000000000000000000000000000000000000000000
310
000000000000000000000000000000000000000000000000000000000000000000000000000000000000000000000000000000F9F9F9F9F9F9F9F9F9F9F9F9F9F9F9F9F9F9F9F9F9F9F9F9F9F9F9F9F9F90000F900000000000000000000F9F9000000F9F90000000000000000000000F90000F900000000000000000000F9
310
F9000000F9F90000000000000000000000F90000F900000000000000000000F9F9000000F9F90000000000000000000000F90000F900000000000000000000F9F9000000F9F90000000000000000000000F90000F900000000000000000000F9F9000000F9F90000000000000000000000F90000F900000000000000000000
310
F9F9000000F9F90000000000000000000000F90000F900000000000000000000F9F9000000F9F90000000000000000000000F90000F900000000000000000000F9F9000000F9F90000000000000000000000F90000F900000000000000000000F9F9000000F9F90000000000000000000000F90000F9000000000000000000
310
00F9F9000000F9F90000000000000000000000F90000F900000000000000000000F9F9000000F9F90000000000000000000000F90000F900000000000000000000F9F9000000F9F90000000000000000000000F90000F900000000000000000000F9F9F9F9F9F9F9F9F9F9F9F9F9F9F9F9F9F9F90000F90000000000000000
310
0000F900000000F90000000000F9000000000000000000F9F9F9F9F9F9F9F9F9F9F9F900000000F9F9F9F9F9F900000000000000000000000000000000000000000000000000000000000000000000000000000000000000000000000000000000000000000000000000000000000000000000000000000000000000000000
310
00000000000000000000000000000000000000000000000000000000000000000000000000000000000000000000000000000000000000000000000000000000000000000000000000000000000000000000000000000000000000000000000000000000000000000000000000000000000000000000000000000000000000
310
0000000000000000000000000000000000000000000000000000000000000000000000000000000000000000000000000000000000000000
102
{BLKREFS
331
7A72
102
}
1001
AcDbDynamicBlockGUID
1000
{60905D2B-592E-4B79-94C9-BE21D86708AF}
1001
AcDbBlockRepETag
1070
     1
1071
       14
  0
BLOCK_RECORD
  5
7A57
330
1
100
AcDbSymbolTableRecord
100
AcDbBlockTableRecord
  2
エスコン基礎50
340
0
310
2800000020000000200000000100080000000000000400000000000000000000000000000000000000000000000080000080000000808000800000008000800080800000C0C0C000C0DCC000F0CAA6000020400000206000002080000020A0000020C0000020E00000400000004020000040400000406000004080000040A0
310
000040C0000040E00000600000006020000060400000606000006080000060A0000060C0000060E00000800000008020000080400000806000008080000080A0000080C0000080E00000A0000000A0200000A0400000A0600000A0800000A0A00000A0C00000A0E00000C0000000C0200000C0400000C0600000C0800000C0
310
A00000C0C00000C0E00000E0000000E0200000E0400000E0600000E0800000E0A00000E0C00000E0E00040000000400020004000400040006000400080004000A0004000C0004000E00040200000402020004020400040206000402080004020A0004020C0004020E000404000004040200040404000404060004040800040
310
40A0004040C0004040E00040600000406020004060400040606000406080004060A0004060C0004060E00040800000408020004080400040806000408080004080A0004080C0004080E00040A0000040A0200040A0400040A0600040A0800040A0A00040A0C00040A0E00040C0000040C0200040C0400040C0600040C08000
310
40C0A00040C0C00040C0E00040E0000040E0200040E0400040E0600040E0800040E0A00040E0C00040E0E00080000000800020008000400080006000800080008000A0008000C0008000E00080200000802020008020400080206000802080008020A0008020C0008020E00080400000804020008040400080406000804080
310
008040A0008040C0008040E00080600000806020008060400080606000806080008060A0008060C0008060E00080800000808020008080400080806000808080008080A0008080C0008080E00080A0000080A0200080A0400080A0600080A0800080A0A00080A0C00080A0E00080C0000080C0200080C0400080C0600080C0
310
800080C0A00080C0C00080C0E00080E0000080E0200080E0400080E0600080E0800080E0A00080E0C00080E0E000C0000000C0002000C0004000C0006000C0008000C000A000C000C000C000E000C0200000C0202000C0204000C0206000C0208000C020A000C020C000C020E000C0400000C0402000C0404000C0406000C0
310
408000C040A000C040C000C040E000C0600000C0602000C0604000C0606000C0608000C060A000C060C000C060E000C0800000C0802000C0804000C0806000C0808000C080A000C080C000C080E000C0A00000C0A02000C0A04000C0A06000C0A08000C0A0A000C0A0C000C0A0E000C0C00000C0C02000C0C04000C0C06000
310
C0C08000C0C0A000F0FBFF00A4A0A000808080000000FF0000FF000000FFFF00FF000000FF00FF00FFFF0000FFFFFF0000000000000000000000000000000000000000000000000000000000000000000000000000000000000000000000000000000000000000000000000000000000000000000000000000000000000000
310
00000000000000000000000000000000000000000000000000000000000000000000000000000000000000000000000000000000000000000000000000000000000000000000000000000000000000000000000000000000000000000000000000000000000000000000000000000000000000000000000000000000000000
310
0000000000000000000000000000000000000000000000000000000000000000000000000000000000000000000000000000000000000000000000000000000000000000000000000000000000000000000000F9F9F9F9F9F9F9F9F9F9F9F9F9F9F9F9F9F9F9F9F9F9F9F9F9F9F9F9F9F90000F9000000000000000000F9F9
310
000000F9F9000000000000000000000000F90000F9000000000000000000F9F9000000F9F9000000000000000000000000F90000F9000000000000000000F9F9000000F9F9000000000000000000000000F90000F9000000000000000000F9F9000000F9F9000000000000000000000000F90000F9000000000000000000F9
310
F9000000F9F9000000000000000000000000F90000F9000000000000000000F9F9000000F9F9000000000000000000000000F90000F9000000000000000000F9F9000000F9F9000000000000000000000000F90000F9000000000000000000F9F9000000F9F9000000000000000000000000F90000F9000000000000000000
310
F9F9000000F9F9000000000000000000000000F90000F9000000000000000000F9F9000000F9F9000000000000000000000000F90000F9000000000000000000F9F9000000F9F9000000000000000000000000F90000F9000000000000000000F9F9F9F9F9F9F9F9F9F9F9F9F9F9F9F9F9F9F9F90000F9F9F9F9F9F9F9F9F9
310
F9F9000000F9F9F9F9F9F9F900000000000000000000000000000000000000000000000000000000000000000000000000000000000000000000000000000000000000000000000000000000000000000000000000000000000000000000000000000000000000000000000000000000000000000000000000000000000000
310
00000000000000000000000000000000000000000000000000000000000000000000000000000000000000000000000000000000000000000000000000000000000000000000000000000000000000000000000000000000000000000000000000000000000000000000000000000000000000000000000000000000000000
310
0000000000000000000000000000000000000000000000000000000000000000000000000000000000000000000000000000000000000000
102
{BLKREFS
331
7A73
102
}
1001
AcDbDynamicBlockGUID
1000
{706A22C8-A263-41B6-A4D3-16667B1EA190}
1001
AcDbBlockRepETag
1070
     1
1071
       14
  0
BLOCK_RECORD
  5
7AA1
330
1
100
AcDbSymbolTableRecord
100
AcDbBlockTableRecord
  2
*D47
340
0
  0
BLOCK_RECORD
  5
7AB9
330
1
100
AcDbSymbolTableRecord
100
AcDbBlockTableRecord
  2
*D48
340
0
  0
BLOCK_RECORD
  5
7AC7
330
1
100
AcDbSymbolTableRecord
100
AcDbBlockTableRecord
  2
*D49
340
0
  0
BLOCK_RECORD
  5
7B02
330
1
100
AcDbSymbolTableRecord
100
AcDbBlockTableRecord
  2
*D50
340
0
  0
BLOCK_RECORD
  5
7B3B
330
1
100
AcDbSymbolTableRecord
100
AcDbBlockTableRecord
  2
*D52
340
0
  0
BLOCK_RECORD
  5
7CB0
330
1
100
AcDbSymbolTableRecord
100
AcDbBlockTableRecord
  2
*D53
340
0
  0
BLOCK_RECORD
  5
7CBC
330
1
100
AcDbSymbolTableRecord
100
AcDbBlockTableRecord
  2
*D54
340
0
  0
BLOCK_RECORD
  5
7CC8
330
1
100
AcDbSymbolTableRecord
100
AcDbBlockTableRecord
  2
*D55
340
0
  0
BLOCK_RECORD
  5
7CD4
330
1
100
AcDbSymbolTableRecord
100
AcDbBlockTableRecord
  2
*D56
340
0
  0
BLOCK_RECORD
  5
7CE0
330
1
100
AcDbSymbolTableRecord
100
AcDbBlockTableRecord
  2
*D57
340
0
  0
BLOCK_RECORD
  5
7CED
330
1
100
AcDbSymbolTableRecord
100
AcDbBlockTableRecord
  2
*D58
340
0
  0
BLOCK_RECORD
  5
7CF9
330
1
100
AcDbSymbolTableRecord
100
AcDbBlockTableRecord
  2
*D59
340
0
  0
BLOCK_RECORD
  5
7D05
330
1
100
AcDbSymbolTableRecord
100
AcDbBlockTableRecord
  2
*D60
340
0
  0
BLOCK_RECORD
  5
7D11
330
1
100
AcDbSymbolTableRecord
100
AcDbBlockTableRecord
  2
*D61
340
0
  0
BLOCK_RECORD
  5
7D1E
330
1
100
AcDbSymbolTableRecord
100
AcDbBlockTableRecord
  2
*D62
340
0
  0
BLOCK_RECORD
  5
7D2A
330
1
100
AcDbSymbolTableRecord
100
AcDbBlockTableRecord
  2
*D63
340
0
  0
ENDTAB
  0
ENDSEC
  0
SECTION
  2
BLOCKS
  0
BLOCK
  5
2D
330
17
100
AcDbEntity
  8
0
100
AcDbBlockBegin
  2
*MODEL_SPACE
 70
     0
 10
0.0
 20
0.0
 30
0.0
  3
*MODEL_SPACE
  1

  0
ENDBLK
  5
2E
330
17
100
AcDbEntity
  8
0
100
AcDbBlockEnd
  0
BLOCK
  5
2B
330
14
100
AcDbEntity
 67
     1
  8
0
100
AcDbBlockBegin
  2
*PAPER_SPACE
 70
     0
 10
0.0
 20
0.0
 30
0.0
  3
*PAPER_SPACE
  1

  0
ENDBLK
  5
2C
330
14
100
AcDbEntity
 67
     1
  8
0
100
AcDbBlockEnd
  0
BLOCK
  5
629B
330
6297
100
AcDbEntity
  8
0
100
AcDbBlockBegin
  2
_Open
 70
     0
 10
0.0
 20
0.0
 30
0.0
  3
_Open
  1

  0
LINE
  5
6298
330
6297
100
AcDbEntity
  8
0
  6
ByBlock
 62
     0
370
    -2
100
AcDbLine
 10
-1.0
 20
0.1666666666666667
 30
0.0
 11
0.0
 21
0.0
 31
0.0
  0
LINE
  5
6299
330
6297
100
AcDbEntity
  8
0
  6
ByBlock
 62
     0
370
    -2
100
AcDbLine
 10
-1.0
 20
-0.1666666666666667
 30
0.0
 11
0.0
 21
0.0
 31
0.0
  0
LINE
  5
629A
330
6297
100
AcDbEntity
  8
0
  6
ByBlock
 62
     0
370
    -2
100
AcDbLine
 10
0.0
 20
0.0
 30
0.0
 11
-1.0
 21
0.0
 31
0.0
  0
ENDBLK
  5
629C
330
6297
100
AcDbEntity
  8
0
100
AcDbBlockEnd
  0
BLOCK
  5
6301
330
62FD
100
AcDbEntity
  8
0
100
AcDbBlockBegin
  2
_Open30
 70
     0
 10
0.0
 20
0.0
 30
0.0
  3
_Open30
  1

  0
LINE
  5
62FE
330
62FD
100
AcDbEntity
  8
0
  6
ByBlock
 62
     0
370
    -2
100
AcDbLine
 10
-1.0
 20
0.26794919
 30
0.0
 11
0.0
 21
0.0
 31
0.0
  0
LINE
  5
62FF
330
62FD
100
AcDbEntity
  8
0
  6
ByBlock
 62
     0
370
    -2
100
AcDbLine
 10
0.0
 20
0.0
 30
0.0
 11
-1.0
 21
-0.26794919
 31
0.0
  0
LINE
  5
6300
330
62FD
100
AcDbEntity
  8
0
  6
ByBlock
 62
     0
370
    -2
100
AcDbLine
 10
0.0
 20
0.0
 30
0.0
 11
-1.0
 21
0.0
 31
0.0
  0
ENDBLK
  5
6302
330
62FD
100
AcDbEntity
  8
0
100
AcDbBlockEnd
  0
BLOCK
  5
73E0
330
73DE
100
AcDbEntity
  8
0
100
AcDbBlockBegin
  2
エスコン
 70
     0
 10
0.0
 20
0.0
 30
0.0
  3
エスコン
  1

  0
LINE
  5
73E1
330
73DE
100
AcDbEntity
  8
D-STR
100
AcDbLine
 10
0.0
 20
0.0
 30
0.0
 11
335.4101966249873
 21
0.0
 31
0.0
1001
AcDbBlockRepETag
1070
     1
1071
        0
1005
73E1
  0
LINE
  5
73E2
330
73DE
100
AcDbEntity
  8
D-STR
100
AcDbLine
 10
380.1315561749798
 20
-22.36067977501079
 30
0.0
 11
603.7383539249596
 21
424.852915724949
 31
0.0
1001
AcDbBlockRepETag
1070
     1
1071
        1
1005
73E2
  0
LINE
  5
73E3
330
73DE
100
AcDbEntity
  8
D-STR
100
AcDbLine
 10
559.0169943749788
 20
447.213595499954
 30
0.0
 11
451.6857314549852
 21
447.213595499954
 31
0.0
1001
AcDbBlockRepETag
1070
     1
1071
        2
1005
73E3
  0
LINE
  5
73E4
330
73DE
100
AcDbEntity
  8
D-STR
100
AcDbLine
 10
0.0000000000291038
 20
0.0
 30
0.0
 11
223.6067977499915
 21
447.213595499954
 31
0.0
1001
AcDbBlockRepETag
1070
     1
1071
        3
1005
73E4
  0
LINE
  5
73E5
330
73DE
100
AcDbEntity
  8
D-STR
100
AcDbLine
 10
324.8200266812346
 20
437.213595499954
 30
0.0
 11
106.2132289312722
 21
0.0
 31
0.0
1001
AcDbBlockRepETag
1070
     1
1071
        4
1005
73E5
  0
LINE
  5
73E6
330
73DE
100
AcDbEntity
  8
D-STR
100
AcDbLine
 10
559.0169943749794
 20
447.2135954999536
 30
0.0
 11
335.4101966249873
 21
0.0
 31
0.0
1001
AcDbBlockRepETag
1070
     1
1071
        5
1005
73E6
  0
LINE
  5
73E7
330
73DE
100
AcDbEntity
  8
D-STR
100
AcDbLine
 10
335.4101966249873
 20
0.0
 30
0.0
 11
380.1315561749798
 21
-22.36067977501079
 31
0.0
1001
AcDbBlockRepETag
1070
     1
1071
        6
1005
73E7
  0
LINE
  5
73E8
330
73DE
100
AcDbEntity
  8
D-STR
100
AcDbLine
 10
318.6396867937292
 20
447.213595499954
 30
0.0
 11
324.8200266812346
 21
437.213595499954
 31
0.0
1001
AcDbBlockRepETag
1070
     1
1071
        7
1005
73E8
  0
LINE
  5
73E9
330
73DE
100
AcDbEntity
  8
D-STR
100
AcDbLine
 10
365.5971143212519
 20
447.213595499954
 30
0.0
 11
223.6067977499915
 21
447.213595499954
 31
0.0
1001
AcDbBlockRepETag
1070
     1
1071
        8
1005
73E9
  0
LINE
  5
73EA
330
73DE
100
AcDbEntity
  8
D-STR
100
AcDbLine
 10
365.5971143212519
 20
447.213595499954
 30
0.0
 11
365.5971143212228
 21
418.1447117924545
 31
0.0
1001
AcDbBlockRepETag
1070
     1
1071
        9
1005
73EA
  0
LINE
  5
73EB
330
73DE
100
AcDbEntity
  8
D-STR
100
AcDbLine
 10
365.5971143212228
 20
418.1447117924545
 30
0.0
 11
415.908643814997
 21
418.1447117924545
 31
0.0
1001
AcDbBlockRepETag
1070
     1
1071
       10
1005
73EB
  0
LINE
  5
73EC
330
73DE
100
AcDbEntity
  8
D-STR
100
AcDbLine
 10
415.908643814997
 20
418.1447117924545
 30
0.0
 11
451.6857314549852
 21
447.213595499954
 31
0.0
1001
AcDbBlockRepETag
1070
     1
1071
       11
1005
73EC
  0
LINE
  5
73ED
330
73DE
100
AcDbEntity
  8
D-STR
100
AcDbLine
 10
145.9034355318872
 20
0.0
 30
0.0
 11
152.6116394643905
 21
-22.36067977501079
 31
0.0
1001
AcDbBlockRepETag
1070
     1
1071
       12
1005
73ED
  0
LINE
  5
73EE
330
73DE
100
AcDbEntity
  8
D-STR
100
AcDbLine
 10
152.6116394643905
 20
-22.36067977501079
 30
0.0
 11
196.2149650256324
 21
-22.36067977501079
 31
0.0
1001
AcDbBlockRepETag
1070
     1
1071
       13
1005
73EE
  0
LINE
  5
73EF
330
73DE
100
AcDbEntity
  8
D-STR
100
AcDbLine
 10
196.2149650256324
 20
-22.36067977501079
 30
0.0
 11
224.1658147443668
 21
0.0
 31
0.0
1001
AcDbBlockRepETag
1070
     1
1071
       14
1005
73EF
  0
LWPOLYLINE
  5
73F0
330
73DE
100
AcDbEntity
  8
D-STR
 62
     6
100
AcDbPolyline
 90
       19
 70
     0
 43
0.0
 10
14.53444185375702
 20
29.06888370748493
 10
-2.105299234157428
 20
43.47255681789829
 42
-0.3228228060551107
 10
-5.851707430410897
 20
66.55896435162867
 10
16.45581672852859
 20
111.1740126695076
 42
-0.2507648909333106
 10
31.86366585674114
 20
122.0752982937847
 10
39.13118960626889
 20
122.9837387624866
 10
54.90827724625706
 20
143.3575741549721
 42
-0.1164338214658533
 10
60.79682106623659
 20
150.4133022449823
 10
62.18691769626457
 20
151.4558747174742
 42
0.1164338214658574
 10
68.07546151627321
 20
158.5116028074845
 10
73.43950649310136
 20
169.2396927611262
 42
0.198912367379658
 10
74.52462863409892
 20
184.5085199914611
 10
73.05585788091412
 20
188.9148322510009
 42
-0.1989123673796564
 10
74.14098002194078
 20
204.1836594813212
 10
91.3280503130809
 20
238.5578000636306
 42
-0.198912367379658
 10
102.8920388127444
 20
248.5871941146324
 10
103.9702219595783
 20
248.9465884969104
 42
-0.1164338214658533
 10
113.1232044046628
 20
249.7719124091236
 10
124.1017727512517
 20
248.2035455024743
1001
AcDbBlockRepETag
1070
     1
1071
       15
1005
73F0
  0
LWPOLYLINE
  5
73F1
330
73DE
100
AcDbEntity
  8
D-STR
 62
     6
100
AcDbPolyline
 90
       16
 70
     0
 43
0.0
 10
128.5739087062539
 20
257.1478174124786
 10
123.813036695763
 20
263.4956467597804
 42
-0.0806115716705355
 10
120.8393707347568
 20
269.1710914394353
 10
120.0132854084077
 20
271.6493474184826
 42
-0.198912367379658
 10
121.0984075494343
 20
286.9181746488175
 10
135.4067244362668
 20
315.5348084224679
 42
-0.1164338214658533
 10
141.2952682562463
 20
322.5905365124636
 10
142.6853648862452
 20
323.63310898497
 42
0.1164338214658594
 10
148.5739087062539
 20
330.6888370749657
 10
155.1653725165525
 20
343.8717646955338
 42
0.1359329595457259
 10
157.2179184065608
 20
354.3499665832496
 10
151.3594624884427
 20
374.6081940816948
 42
-0.1359329595457255
 10
153.412008378451
 20
385.0863959693816
 10
173.5568057429336
 20
425.3759906983178
 42
-0.3228228060551107
 10
194.2737766876817
 20
436.2307086615474
 10
215.7805598287378
 20
431.5611196574464
1001
AcDbBlockRepETag
1070
     1
1071
       16
1005
73F1
  0
LINE
  5
73F2
330
73DE
100
AcDbEntity
  8
D-STR
100
AcDbLine
 10
559.0169943749788
 20
447.213595499954
 30
0.0
 11
603.7383539249713
 21
424.8529157249432
 31
0.0
1001
AcDbBlockRepETag
1070
     1
1071
       17
1005
73F2
  0
ENDBLK
  5
73F3
330
73DE
100
AcDbEntity
  8
0
100
AcDbBlockEnd
  0
BLOCK
  5
73F5
330
73F4
100
AcDbEntity
  8
0
100
AcDbBlockBegin
  2
エスコン基礎35
 70
     0
 10
0.0
 20
0.0
 30
0.0
  3
エスコン基礎35
  1

  0
LINE
  5
789D
330
73F4
100
AcDbEntity
  8
D-STR
100
AcDbLine
 10
0.0
 20
300.0
 30
0.0
 11
0.0
 21
0.0
 31
0.0
1001
AcDbBlockRepETag
1070
     1
1071
        0
1005
789D
  0
LINE
  5
789E
330
73F4
100
AcDbEntity
  8
D-STR
100
AcDbLine
 10
0.0
 20
0.0
 30
0.0
 11
500.0
 21
0.0
 31
0.0
1001
AcDbBlockRepETag
1070
     1
1071
        1
1005
789E
  0
LINE
  5
789F
330
73F4
100
AcDbEntity
  8
D-STR
100
AcDbLine
 10
500.0
 20
0.0
 30
0.0
 11
499.9999999999854
 21
277.5
 31
0.0
1001
AcDbBlockRepETag
1070
     1
1071
        2
1005
789F
  0
LINE
  5
78A0
330
73F4
100
AcDbEntity
  8
D-STR
100
AcDbLine
 10
477.0
 20
277.5
 30
0.0
 11
432.5
 21
300.0
 31
0.0
1001
AcDbBlockRepETag
1070
     1
1071
        3
1005
78A0
  0
LINE
  5
78A1
330
73F4
100
AcDbEntity
  8
D-STR
100
AcDbLine
 10
432.5
 20
300.0
 30
0.0
 11
327.5
 21
300.0
 31
0.0
1001
AcDbBlockRepETag
1070
     1
1071
        4
1005
78A1
  0
LINE
  5
78A2
330
73F4
100
AcDbEntity
  8
D-STR
100
AcDbLine
 10
327.5
 20
300.0
 30
0.0
 11
300.0
 21
277.5
 31
0.0
1001
AcDbBlockRepETag
1070
     1
1071
        5
1005
78A2
  0
LINE
  5
78A3
330
73F4
100
AcDbEntity
  8
D-STR
100
AcDbLine
 10
300.0
 20
277.5
 30
0.0
 11
220.0
 21
277.5
 31
0.0
1001
AcDbBlockRepETag
1070
     1
1071
        6
1005
78A3
  0
LINE
  5
78A4
330
73F4
100
AcDbEntity
  8
D-STR
100
AcDbLine
 10
220.0
 20
277.5
 30
0.0
 11
220.0
 21
300.0
 31
0.0
1001
AcDbBlockRepETag
1070
     1
1071
        7
1005
78A4
  0
LINE
  5
78A5
330
73F4
100
AcDbEntity
  8
D-STR
100
AcDbLine
 10
220.0
 20
300.0
 30
0.0
 11
0.0
 21
300.0
 31
0.0
1001
AcDbBlockRepETag
1070
     1
1071
        8
1005
78A5
  0
LINE
  5
78A6
330
73F4
100
AcDbEntity
  8
D-STR
  6
HIDDEN
 62
     4
 48
0.2
100
AcDbLine
 10
220.0
 20
0.0
 30
0.0
 11
220.0
 21
300.0
 31
0.0
1001
AcDbBlockRepETag
1070
     1
1071
        9
1005
78A6
  0
LINE
  5
78A7
330
73F4
100
AcDbEntity
  8
D-STR
  6
HIDDEN
 62
     4
 48
0.2
100
AcDbLine
 10
240.0
 20
0.0
 30
0.0
 11
240.0
 21
277.5
 31
0.0
1001
AcDbBlockRepETag
1070
     1
1071
       10
1005
78A7
  0
LINE
  5
78A8
330
73F4
100
AcDbEntity
  8
D-STR
  6
HIDDEN
 62
     4
 48
0.2
100
AcDbLine
 10
340.0
 20
0.0
 30
0.0
 11
340.0
 21
277.5
 31
0.0
1001
AcDbBlockRepETag
1070
     1
1071
       11
1005
78A8
  0
LINE
  5
78A9
330
73F4
100
AcDbEntity
  8
D-STR
  6
HIDDEN
 62
     4
 48
0.2
100
AcDbLine
 10
360.0
 20
0.0
 30
0.0
 11
360.0
 21
277.5
 31
0.0
1001
AcDbBlockRepETag
1070
     1
1071
       12
1005
78A9
  0
LINE
  5
78AA
330
73F4
100
AcDbEntity
  8
D-STR
100
AcDbLine
 10
300.0
 20
277.5
 30
0.0
 11
499.9999999999854
 21
277.5
 31
0.0
1001
AcDbBlockRepETag
1070
     1
1071
       13
1005
78AA
  0
ENDBLK
  5
7404
330
73F4
100
AcDbEntity
  8
0
100
AcDbBlockEnd
  0
BLOCK
  5
75ED
330
75E3
100
AcDbEntity
  8
0
100
AcDbBlockBegin
  2
*D17
 70
     1
 10
0.0
 20
0.0
 30
0.0
  3
*D17
  1

  0
LINE
  5
7BA4
330
75E3
100
AcDbEntity
  8
D-STR-DIM
 62
     0
370
    -2
100
AcDbLine
 10
29312.48424642789
 20
28915.38056714649
 30
0.0
 11
28875.07788086609
 21
29134.08374992739
 31
0.0
  0
LINE
  5
7BA5
330
75E3
100
AcDbEntity
  8
D-STR-DIM
 62
     0
370
    -2
100
AcDbLine
 10
29536.09104417787
 20
29362.59416264644
 30
0.0
 11
29098.68467861606
 21
29581.29734542734
 31
0.0
  0
LINE
  5
7BA6
330
75E3
100
AcDbEntity
  8
D-STR-DIM
 62
     0
370
    -2
100
AcDbLine
 10
28935.45171625858
 20
29198.92972127488
 30
0.0
 11
29083.03220277357
 21
29494.09069430485
 31
0.0
  0
INSERT
  5
7BA7
330
75E3
100
AcDbEntity
  8
D-STR-DIM
 62
     0
370
    -2
100
AcDbBlockReference
  2
_Open30
 10
28897.43856064109
 20
29122.90341003989
 30
0.0
 41
85.0
 42
85.0
 43
85.0
 50
243.4349488229224
  0
INSERT
  5
7BA8
330
75E3
100
AcDbEntity
  8
D-STR-DIM
 62
     0
370
    -2
100
AcDbBlockReference
  2
_Open30
 10
29121.04535839106
 20
29570.11700553984
 30
0.0
 41
85.0
 42
85.0
 43
85.0
 50
63.43494882292239
  0
MTEXT
  5
7BA9
330
75E3
100
AcDbEntity
  8
D-STR-DIM
 62
     0
100
AcDbMText
 10
28906.38283255108
 20
29397.93977127237
 30
0.0
 40
150.0
 41
0.0
 71
     5
 72
     1
  1
\A1;500
  7
ＭＳ ゴシック
 11
0.447213595499952
 21
0.8944271909999189
 31
0.0
 73
     1
 44
1.0
  0
POINT
  5
7BAA
330
75E3
100
AcDbEntity
  8
DEFPOINTS
 62
     0
100
AcDbPoint
 10
29379.56628575289
 20
28881.83954748399
 30
0.0
  0
POINT
  5
7BAB
330
75E3
100
AcDbEntity
  8
DEFPOINTS
 62
     0
100
AcDbPoint
 10
29603.17308350286
 20
29329.05314298395
 30
0.0
  0
POINT
  5
7BAC
330
75E3
100
AcDbEntity
  8
DEFPOINTS
 62
     0
100
AcDbPoint
 10
29121.04535839106
 20
29570.11700553984
 30
0.0
  0
ENDBLK
  5
75EE
330
75E3
100
AcDbEntity
  8
0
100
AcDbBlockEnd
  0
BLOCK
  5
75F9
330
75EF
100
AcDbEntity
  8
0
100
AcDbBlockBegin
  2
*D18
 70
     1
 10
0.0
 20
0.0
 30
0.0
  3
*D18
  1

  0
LINE
  5
7BAD
330
75EF
100
AcDbEntity
  8
D-STR-DIM
 62
     0
370
    -2
100
AcDbLine
 10
29536.09104417787
 20
29362.59416264646
 30
0.0
 11
29098.68467861607
 21
29581.29734542735
 31
0.0
  0
LINE
  5
7BAE
330
75EF
100
AcDbEntity
  8
D-STR-DIM
 62
     0
370
    -2
100
AcDbLine
 10
29759.69784192785
 20
29809.80775814642
 30
0.0
 11
29322.29147636605
 21
30028.51094092731
 31
0.0
  0
LINE
  5
7BAF
330
75EF
100
AcDbEntity
  8
D-STR-DIM
 62
     0
370
    -2
100
AcDbLine
 10
29159.05851400857
 20
29646.14331677485
 30
0.0
 11
29306.63900052356
 21
29941.30428980482
 31
0.0
  0
INSERT
  5
7BB0
330
75EF
100
AcDbEntity
  8
D-STR-DIM
 62
     0
370
    -2
100
AcDbBlockReference
  2
_Open30
 10
29121.04535839107
 20
29570.11700553985
 30
0.0
 41
85.0
 42
85.0
 43
85.0
 50
243.4349488229224
  0
INSERT
  5
7BB1
330
75EF
100
AcDbEntity
  8
D-STR-DIM
 62
     0
370
    -2
100
AcDbBlockReference
  2
_Open30
 10
29344.65215614105
 20
30017.33060103982
 30
0.0
 41
85.0
 42
85.0
 43
85.0
 50
63.43494882292239
  0
MTEXT
  5
7BB2
330
75EF
100
AcDbEntity
  8
D-STR-DIM
 62
     0
100
AcDbMText
 10
29129.98963030107
 20
29845.15336677233
 30
0.0
 40
150.0
 41
0.0
 71
     5
 72
     1
  1
\A1;500
  7
ＭＳ ゴシック
 11
0.447213595499952
 21
0.8944271909999189
 31
0.0
 73
     1
 44
1.0
  0
POINT
  5
7BB3
330
75EF
100
AcDbEntity
  8
DEFPOINTS
 62
     0
100
AcDbPoint
 10
29603.17308350286
 20
29329.05314298396
 30
0.0
  0
POINT
  5
7BB4
330
75EF
100
AcDbEntity
  8
DEFPOINTS
 62
     0
100
AcDbPoint
 10
29826.77988125284
 20
29776.26673848393
 30
0.0
  0
POINT
  5
7BB5
330
75EF
100
AcDbEntity
  8
DEFPOINTS
 62
     0
100
AcDbPoint
 10
29344.65215614105
 20
30017.33060103982
 30
0.0
  0
ENDBLK
  5
75FA
330
75EF
100
AcDbEntity
  8
0
100
AcDbBlockEnd
  0
BLOCK
  5
7605
330
75FB
100
AcDbEntity
  8
0
100
AcDbBlockBegin
  2
*D19
 70
     1
 10
0.0
 20
0.0
 30
0.0
  3
*D19
  1

  0
LINE
  5
7BB6
330
75FB
100
AcDbEntity
  8
D-STR-DIM
 62
     0
370
    -2
100
AcDbLine
 10
29759.69784192784
 20
29809.80775814642
 30
0.0
 11
29322.29147636604
 21
30028.51094092732
 31
0.0
  0
LINE
  5
7BB7
330
75FB
100
AcDbEntity
  8
D-STR-DIM
 62
     0
370
    -2
100
AcDbLine
 10
29983.30463967782
 20
30257.02135364639
 30
0.0
 11
29545.89827411601
 21
30475.72453642728
 31
0.0
  0
LINE
  5
7BB8
330
75FB
100
AcDbEntity
  8
D-STR-DIM
 62
     0
370
    -2
100
AcDbLine
 10
29382.66531175853
 20
30093.35691227482
 30
0.0
 11
29530.24579827352
 21
30388.51788530479
 31
0.0
  0
INSERT
  5
7BB9
330
75FB
100
AcDbEntity
  8
D-STR-DIM
 62
     0
370
    -2
100
AcDbBlockReference
  2
_Open30
 10
29344.65215614104
 20
30017.33060103982
 30
0.0
 41
85.0
 42
85.0
 43
85.0
 50
243.4349488229224
  0
INSERT
  5
7BBA
330
75FB
100
AcDbEntity
  8
D-STR-DIM
 62
     0
370
    -2
100
AcDbBlockReference
  2
_Open30
 10
29568.25895389101
 20
30464.54419653978
 30
0.0
 41
85.0
 42
85.0
 43
85.0
 50
63.43494882292239
  0
MTEXT
  5
7BBB
330
75FB
100
AcDbEntity
  8
D-STR-DIM
 62
     0
100
AcDbMText
 10
29353.59642805103
 20
30292.3669622723
 30
0.0
 40
150.0
 41
0.0
 71
     5
 72
     1
  1
\A1;500
  7
ＭＳ ゴシック
 11
0.447213595499952
 21
0.8944271909999189
 31
0.0
 73
     1
 44
1.0
  0
POINT
  5
7BBC
330
75FB
100
AcDbEntity
  8
DEFPOINTS
 62
     0
100
AcDbPoint
 10
29826.77988125283
 20
29776.26673848393
 30
0.0
  0
POINT
  5
7BBD
330
75FB
100
AcDbEntity
  8
DEFPOINTS
 62
     0
100
AcDbPoint
 10
30050.38667900281
 20
30223.48033398389
 30
0.0
  0
POINT
  5
7BBE
330
75FB
100
AcDbEntity
  8
DEFPOINTS
 62
     0
100
AcDbPoint
 10
29568.25895389101
 20
30464.54419653978
 30
0.0
  0
ENDBLK
  5
7606
330
75FB
100
AcDbEntity
  8
0
100
AcDbBlockEnd
  0
BLOCK
  5
7611
330
7607
100
AcDbEntity
  8
0
100
AcDbBlockBegin
  2
*D20
 70
     1
 10
0.0
 20
0.0
 30
0.0
  3
*D20
  1

  0
LINE
  5
7BBF
330
7607
100
AcDbEntity
  8
D-STR-DIM
 62
     0
370
    -2
100
AcDbLine
 10
28980.95948800291
 20
28434.62595198402
 30
0.0
 11
28447.76628356904
 21
28434.62595198402
 31
0.0
  0
LINE
  5
7BC0
330
7607
100
AcDbEntity
  8
D-STR-DIM
 62
     0
370
    -2
100
AcDbLine
 10
30472.60027450269
 20
31217.90752498374
 30
0.0
 11
28447.76628356904
 21
31217.90752498374
 31
0.0
  0
LINE
  5
7BC1
330
7607
100
AcDbEntity
  8
D-STR-DIM
 62
     0
370
    -2
100
AcDbLine
 10
28472.76628356904
 20
28519.62595198402
 30
0.0
 11
28472.76628356904
 21
31132.90752498374
 31
0.0
  0
INSERT
  5
7BC2
330
7607
100
AcDbEntity
  8
D-STR-DIM
 62
     0
370
    -2
100
AcDbBlockReference
  2
_Open30
 10
28472.76628356904
 20
28434.62595198402
 30
0.0
 41
85.0
 42
85.0
 43
85.0
 50
270.0
  0
INSERT
  5
7BC3
330
7607
100
AcDbEntity
  8
D-STR-DIM
 62
     0
370
    -2
100
AcDbBlockReference
  2
_Open30
 10
28472.76628356904
 20
31217.90752498374
 30
0.0
 41
85.0
 42
85.0
 43
85.0
 50
90.0
  0
MTEXT
  5
7BC4
330
7607
100
AcDbEntity
  8
D-STR-DIM
 62
     0
100
AcDbMText
 10
28357.76628356903
 20
29826.26673848389
 30
0.0
 40
150.0
 41
0.0
 71
     5
 72
     1
  1
\A1;H
  7
ＭＳ ゴシック
 11
6.123031769111886E-17
 21
1.0
 31
0.0
 73
     1
 44
1.0
  0
POINT
  5
7BC5
330
7607
100
AcDbEntity
  8
DEFPOINTS
 62
     0
100
AcDbPoint
 10
29055.95948800291
 20
28434.62595198402
 30
0.0
  0
POINT
  5
7BC6
330
7607
100
AcDbEntity
  8
DEFPOINTS
 62
     0
100
AcDbPoint
 10
30547.60027450269
 20
31217.90752498374
 30
0.0
  0
POINT
  5
7BC7
330
7607
100
AcDbEntity
  8
DEFPOINTS
 62
     0
100
AcDbPoint
 10
28472.76628356904
 20
31217.90752498374
 30
0.0
  0
ENDBLK
  5
7612
330
7607
100
AcDbEntity
  8
0
100
AcDbBlockEnd
  0
BLOCK
  5
761E
330
7613
100
AcDbEntity
  8
0
100
AcDbBlockBegin
  2
*D21
 70
     1
 10
0.0
 20
0.0
 30
0.0
  3
*D21
  1

  0
LINE
  5
7BC8
330
7613
100
AcDbEntity
  8
D-STR-DIM
 62
     0
370
    -2
100
AcDbLine
 10
30472.60027450269
 20
31217.90752498374
 30
0.0
 11
29770.48822352622
 21
31217.90752498374
 31
0.0
  0
LINE
  5
7BC9
330
7613
100
AcDbEntity
  8
D-STR-DIM
 62
     0
370
    -2
100
AcDbLine
 10
30422.60027450269
 20
31117.90752498374
 30
0.0
 11
29770.48822352622
 21
31117.90752498374
 31
0.0
  0
LINE
  5
7BCA
330
7613
100
AcDbEntity
  8
D-STR-DIM
 62
     0
370
    -2
100
AcDbLine
 10
29795.48822352622
 20
31302.90752498374
 30
0.0
 11
29795.48822352622
 21
31387.90752498374
 31
0.0
  0
LINE
  5
7BCB
330
7613
100
AcDbEntity
  8
D-STR-DIM
 62
     0
370
    -2
100
AcDbLine
 10
29795.48822352622
 20
31032.90752498374
 30
0.0
 11
29795.48822352622
 21
30947.90752498374
 31
0.0
  0
INSERT
  5
7BCC
330
7613
100
AcDbEntity
  8
D-STR-DIM
 62
     0
370
    -2
100
AcDbBlockReference
  2
_Open30
 10
29795.48822352622
 20
31217.90752498374
 30
0.0
 41
85.0
 42
85.0
 43
85.0
 50
270.0
  0
INSERT
  5
7BCD
330
7613
100
AcDbEntity
  8
D-STR-DIM
 62
     0
370
    -2
100
AcDbBlockReference
  2
_Open30
 10
29795.48822352622
 20
31117.90752498374
 30
0.0
 41
85.0
 42
85.0
 43
85.0
 50
90.0
  0
MTEXT
  5
7BCE
330
7613
100
AcDbEntity
  8
D-STR-DIM
 62
     0
100
AcDbMText
 10
29680.48822352622
 20
31167.90752498375
 30
0.0
 40
150.0
 41
0.0
 71
     5
 72
     1
  1
\A1;100
  7
ＭＳ ゴシック
 11
6.123031769111886E-17
 21
1.0
 31
0.0
 73
     1
 44
1.0
  0
POINT
  5
7BCF
330
7613
100
AcDbEntity
  8
DEFPOINTS
 62
     0
100
AcDbPoint
 10
30547.60027450269
 20
31217.90752498374
 30
0.0
  0
POINT
  5
7BD0
330
7613
100
AcDbEntity
  8
DEFPOINTS
 62
     0
100
AcDbPoint
 10
30497.60027450269
 20
31117.90752498374
 30
0.0
  0
POINT
  5
7BD1
330
7613
100
AcDbEntity
  8
DEFPOINTS
 62
     0
100
AcDbPoint
 10
29795.48822352622
 20
31117.90752498374
 30
0.0
  0
ENDBLK
  5
761F
330
7613
100
AcDbEntity
  8
0
100
AcDbBlockEnd
  0
BLOCK
  5
762A
330
7620
100
AcDbEntity
  8
0
100
AcDbBlockBegin
  2
*D22
 70
     1
 10
0.0
 20
0.0
 30
0.0
  3
*D22
  1

  0
LINE
  5
7BD2
330
7620
100
AcDbEntity
  8
D-STR-DIM
 62
     0
370
    -2
100
AcDbLine
 10
30581.14129416518
 20
31284.98956430874
 30
0.0
 11
30837.94214617181
 21
31798.59126832202
 31
0.0
  0
LINE
  5
7BD3
330
7620
100
AcDbEntity
  8
D-STR-DIM
 62
     0
370
    -2
100
AcDbLine
 10
30894.19081101516
 20
31128.46480588376
 30
0.0
 11
31150.99166302178
 21
31642.06650989703
 31
0.0
  0
LINE
  5
7BD4
330
7620
100
AcDbEntity
  8
D-STR-DIM
 62
     0
370
    -2
100
AcDbLine
 10
30902.78811751931
 20
31738.21743292953
 30
0.0
 11
31063.78501189929
 21
31657.71898573954
 31
0.0
  0
MTEXT
  5
7BD5
330
7620
100
AcDbEntity
  8
D-STR-DIM
 62
     0
100
AcDbMText
 10
31040.30629813553
 20
31812.00767618699
 30
0.0
 40
150.0
 41
0.0
 71
     5
 72
     1
  1
\A1;350
  7
ＭＳ ゴシック
 11
0.8944271909999244
 21
-0.4472135954999414
 31
0.0
 73
     1
 44
1.0
  0
INSERT
  5
7BD6
330
7620
100
AcDbEntity
  8
D-STR-DIM
 62
     0
370
    -2
100
AcDbBlockReference
  2
_Open30
 10
30826.76180628431
 20
31776.23058854702
 30
0.0
 41
85.0
 42
85.0
 43
85.0
 50
153.4349488229231
  0
INSERT
  5
7BD7
330
7620
100
AcDbEntity
  8
D-STR-DIM
 62
     0
370
    -2
100
AcDbBlockReference
  2
_Open30
 10
31139.81132313429
 20
31619.70583012204
 30
0.0
 41
85.0
 42
85.0
 43
85.0
 50
333.4349488229231
  0
POINT
  5
7BD8
330
7620
100
AcDbEntity
  8
DEFPOINTS
 62
     0
100
AcDbPoint
 10
30547.60027450269
 20
31217.90752498374
 30
0.0
  0
POINT
  5
7BD9
330
7620
100
AcDbEntity
  8
DEFPOINTS
 62
     0
100
AcDbPoint
 10
30860.64979135266
 20
31061.38276655876
 30
0.0
  0
POINT
  5
7BDA
330
7620
100
AcDbEntity
  8
DEFPOINTS
 62
     0
100
AcDbPoint
 10
31139.81132313429
 20
31619.70583012204
 30
0.0
  0
ENDBLK
  5
762B
330
7620
100
AcDbEntity
  8
0
100
AcDbBlockEnd
  0
BLOCK
  5
7636
330
762C
100
AcDbEntity
  8
0
100
AcDbBlockBegin
  2
*D23
 70
     1
 10
0.0
 20
0.0
 30
0.0
  3
*D23
  1

  0
LINE
  5
77A4
330
762C
100
AcDbEntity
  8
D-STR-DIM
 62
     0
370
    -2
100
AcDbLine
 10
23243.7869703778
 20
29681.6317356732
 30
0.0
 11
23243.7869703778
 21
29257.36918365881
 31
0.0
  0
LINE
  5
77A5
330
762C
100
AcDbEntity
  8
D-STR-DIM
 62
     0
370
    -2
100
AcDbLine
 10
25239.7869703778
 20
29681.6317356732
 30
0.0
 11
25239.7869703778
 21
29257.36918365881
 31
0.0
  0
LINE
  5
77A6
330
762C
100
AcDbEntity
  8
D-STR-DIM
 62
     0
370
    -2
100
AcDbLine
 10
23328.7869703778
 20
29282.36918365881
 30
0.0
 11
25154.7869703778
 21
29282.36918365881
 31
0.0
  0
INSERT
  5
77A7
330
762C
100
AcDbEntity
  8
D-STR-DIM
 62
     0
370
    -2
100
AcDbBlockReference
  2
_Open30
 10
23243.7869703778
 20
29282.36918365881
 30
0.0
 41
85.0
 42
85.0
 43
85.0
 50
180.0
  0
INSERT
  5
77A8
330
762C
100
AcDbEntity
  8
D-STR-DIM
 62
     0
370
    -2
100
AcDbBlockReference
  2
_Open30
 10
25239.7869703778
 20
29282.36918365881
 30
0.0
 41
85.0
 42
85.0
 43
85.0
  0
MTEXT
  5
77A9
330
762C
100
AcDbEntity
  8
D-STR-DIM
 62
     0
100
AcDbMText
 10
24241.7869703778
 20
29397.36918365881
 30
0.0
 40
150.0
 41
0.0
 71
     5
 72
     1
  1
\A1;998
  7
ＭＳ ゴシック
 73
     1
 44
1.0
  0
POINT
  5
77AA
330
762C
100
AcDbEntity
  8
DEFPOINTS
 62
     0
100
AcDbPoint
 10
23243.7869703778
 20
29756.6317356732
 30
0.0
  0
POINT
  5
77AB
330
762C
100
AcDbEntity
  8
DEFPOINTS
 62
     0
100
AcDbPoint
 10
25239.7869703778
 20
29756.6317356732
 30
0.0
  0
POINT
  5
77AC
330
762C
100
AcDbEntity
  8
DEFPOINTS
 62
     0
100
AcDbPoint
 10
25239.7869703778
 20
29282.36918365881
 30
0.0
  0
ENDBLK
  5
7637
330
762C
100
AcDbEntity
  8
0
100
AcDbBlockEnd
  0
BLOCK
  5
7642
330
7638
100
AcDbEntity
  8
0
100
AcDbBlockBegin
  2
*D24
 70
     1
 10
0.0
 20
0.0
 30
0.0
  3
*D24
  1

  0
LINE
  5
77AD
330
7638
100
AcDbEntity
  8
D-STR-DIM
 62
     0
370
    -2
100
AcDbLine
 10
23198.7869703778
 20
29726.6317356732
 30
0.0
 11
22782.91087577639
 21
29726.6317356732
 31
0.0
  0
LINE
  5
77AE
330
7638
100
AcDbEntity
  8
D-STR-DIM
 62
     0
370
    -2
100
AcDbLine
 10
23456.7869703778
 20
30426.6317356732
 30
0.0
 11
22782.91087577639
 21
30426.6317356732
 31
0.0
  0
LINE
  5
77AF
330
7638
100
AcDbEntity
  8
D-STR-DIM
 62
     0
370
    -2
100
AcDbLine
 10
22807.91087577639
 20
29811.6317356732
 30
0.0
 11
22807.91087577639
 21
30341.6317356732
 31
0.0
  0
INSERT
  5
77B0
330
7638
100
AcDbEntity
  8
D-STR-DIM
 62
     0
370
    -2
100
AcDbBlockReference
  2
_Open30
 10
22807.91087577639
 20
29726.6317356732
 30
0.0
 41
85.0
 42
85.0
 43
85.0
 50
270.0
  0
INSERT
  5
77B1
330
7638
100
AcDbEntity
  8
D-STR-DIM
 62
     0
370
    -2
100
AcDbBlockReference
  2
_Open30
 10
22807.91087577639
 20
30426.6317356732
 30
0.0
 41
85.0
 42
85.0
 43
85.0
 50
90.0
  0
MTEXT
  5
77B2
330
7638
100
AcDbEntity
  8
D-STR-DIM
 62
     0
100
AcDbMText
 10
22692.91087577639
 20
30076.6317356732
 30
0.0
 40
150.0
 41
0.0
 71
     5
 72
     1
  1
\A1;350
  7
ＭＳ ゴシック
 11
6.123031769111886E-17
 21
1.0
 31
0.0
 73
     1
 44
1.0
  0
POINT
  5
77B3
330
7638
100
AcDbEntity
  8
DEFPOINTS
 62
     0
100
AcDbPoint
 10
23273.7869703778
 20
29726.6317356732
 30
0.0
  0
POINT
  5
77B4
330
7638
100
AcDbEntity
  8
DEFPOINTS
 62
     0
100
AcDbPoint
 10
23531.7869703778
 20
30426.6317356732
 30
0.0
  0
POINT
  5
77B5
330
7638
100
AcDbEntity
  8
DEFPOINTS
 62
     0
100
AcDbPoint
 10
22807.91087577639
 20
30426.6317356732
 30
0.0
  0
ENDBLK
  5
7643
330
7638
100
AcDbEntity
  8
0
100
AcDbBlockEnd
  0
BLOCK
  5
764E
330
7644
100
AcDbEntity
  8
0
100
AcDbBlockBegin
  2
*D25
 70
     1
 10
0.0
 20
0.0
 30
0.0
  3
*D25
  1

  0
LINE
  5
77B6
330
7644
100
AcDbEntity
  8
D-STR-DIM
 62
     0
370
    -2
100
AcDbLine
 10
23166.7869703778
 20
28522.47037243286
 30
0.0
 11
22782.91087577639
 21
28522.47037243286
 31
0.0
  0
LINE
  5
77B7
330
7644
100
AcDbEntity
  8
D-STR-DIM
 62
     0
370
    -2
100
AcDbLine
 10
23170.7869703778
 20
27522.47037243286
 30
0.0
 11
22782.91087577639
 21
27522.47037243286
 31
0.0
  0
LINE
  5
77B8
330
7644
100
AcDbEntity
  8
D-STR-DIM
 62
     0
370
    -2
100
AcDbLine
 10
22807.91087577639
 20
28437.47037243286
 30
0.0
 11
22807.91087577639
 21
27607.47037243286
 31
0.0
  0
INSERT
  5
77B9
330
7644
100
AcDbEntity
  8
D-STR-DIM
 62
     0
370
    -2
100
AcDbBlockReference
  2
_Open30
 10
22807.91087577639
 20
28522.47037243286
 30
0.0
 41
85.0
 42
85.0
 43
85.0
 50
90.0
  0
INSERT
  5
77BA
330
7644
100
AcDbEntity
  8
D-STR-DIM
 62
     0
370
    -2
100
AcDbBlockReference
  2
_Open30
 10
22807.91087577639
 20
27522.47037243286
 30
0.0
 41
85.0
 42
85.0
 43
85.0
 50
270.0
  0
MTEXT
  5
77BB
330
7644
100
AcDbEntity
  8
D-STR-DIM
 62
     0
100
AcDbMText
 10
22692.91087577638
 20
28022.47037243286
 30
0.0
 40
150.0
 41
0.0
 71
     5
 72
     1
  1
\A1;500
  7
ＭＳ ゴシック
 11
6.123031769111886E-17
 21
1.0
 31
0.0
 73
     1
 44
1.0
  0
POINT
  5
77BC
330
7644
100
AcDbEntity
  8
DEFPOINTS
 62
     0
100
AcDbPoint
 10
23241.7869703778
 20
28522.47037243286
 30
0.0
  0
POINT
  5
77BD
330
7644
100
AcDbEntity
  8
DEFPOINTS
 62
     0
100
AcDbPoint
 10
23245.7869703778
 20
27522.47037243286
 30
0.0
  0
POINT
  5
77BE
330
7644
100
AcDbEntity
  8
DEFPOINTS
 62
     0
100
AcDbPoint
 10
22807.91087577639
 20
27522.47037243286
 30
0.0
  0
ENDBLK
  5
764F
330
7644
100
AcDbEntity
  8
0
100
AcDbBlockEnd
  0
BLOCK
  5
765A
330
7650
100
AcDbEntity
  8
0
100
AcDbBlockBegin
  2
*D26
 70
     1
 10
0.0
 20
0.0
 30
0.0
  3
*D26
  1

  0
LINE
  5
77BF
330
7650
100
AcDbEntity
  8
D-STR-DIM
 62
     0
370
    -2
100
AcDbLine
 10
23245.7869703778
 20
27447.47037243286
 30
0.0
 11
23245.7869703778
 21
27065.31802028297
 31
0.0
  0
LINE
  5
77C0
330
7650
100
AcDbEntity
  8
D-STR-DIM
 62
     0
370
    -2
100
AcDbLine
 10
25241.7869703778
 20
27447.47037243286
 30
0.0
 11
25241.7869703778
 21
27065.31802028297
 31
0.0
  0
LINE
  5
77C1
330
7650
100
AcDbEntity
  8
D-STR-DIM
 62
     0
370
    -2
100
AcDbLine
 10
23330.7869703778
 20
27090.31802028297
 30
0.0
 11
25156.7869703778
 21
27090.31802028297
 31
0.0
  0
INSERT
  5
77C2
330
7650
100
AcDbEntity
  8
D-STR-DIM
 62
     0
370
    -2
100
AcDbBlockReference
  2
_Open30
 10
23245.7869703778
 20
27090.31802028297
 30
0.0
 41
85.0
 42
85.0
 43
85.0
 50
180.0
  0
INSERT
  5
77C3
330
7650
100
AcDbEntity
  8
D-STR-DIM
 62
     0
370
    -2
100
AcDbBlockReference
  2
_Open30
 10
25241.7869703778
 20
27090.31802028297
 30
0.0
 41
85.0
 42
85.0
 43
85.0
  0
MTEXT
  5
77C4
330
7650
100
AcDbEntity
  8
D-STR-DIM
 62
     0
100
AcDbMText
 10
24243.7869703778
 20
27205.31802028297
 30
0.0
 40
150.0
 41
0.0
 71
     5
 72
     1
  1
\A1;998
  7
ＭＳ ゴシック
 73
     1
 44
1.0
  0
POINT
  5
77C5
330
7650
100
AcDbEntity
  8
DEFPOINTS
 62
     0
100
AcDbPoint
 10
23245.7869703778
 20
27522.47037243286
 30
0.0
  0
POINT
  5
77C6
330
7650
100
AcDbEntity
  8
DEFPOINTS
 62
     0
100
AcDbPoint
 10
25241.7869703778
 20
27522.47037243286
 30
0.0
  0
POINT
  5
77C7
330
7650
100
AcDbEntity
  8
DEFPOINTS
 62
     0
100
AcDbPoint
 10
25241.7869703778
 20
27090.31802028297
 30
0.0
  0
ENDBLK
  5
765B
330
7650
100
AcDbEntity
  8
0
100
AcDbBlockEnd
  0
BLOCK
  5
7666
330
765C
100
AcDbEntity
  8
0
100
AcDbBlockBegin
  2
*D27
 70
     1
 10
0.0
 20
0.0
 30
0.0
  3
*D27
  1

  0
LINE
  5
77C8
330
765C
100
AcDbEntity
  8
D-STR-DIM
 62
     0
370
    -2
100
AcDbLine
 10
26271.91825768699
 20
27522.47037243286
 30
0.0
 11
25880.56102790308
 21
27522.47037243286
 31
0.0
  0
LINE
  5
77C9
330
765C
100
AcDbEntity
  8
D-STR-DIM
 62
     0
370
    -2
100
AcDbLine
 10
26271.91825768699
 20
28522.47037243286
 30
0.0
 11
25880.56102790308
 21
28522.47037243286
 31
0.0
  0
LINE
  5
77CA
330
765C
100
AcDbEntity
  8
D-STR-DIM
 62
     0
370
    -2
100
AcDbLine
 10
25905.56102790308
 20
27607.47037243286
 30
0.0
 11
25905.56102790308
 21
28437.47037243286
 31
0.0
  0
INSERT
  5
77CB
330
765C
100
AcDbEntity
  8
D-STR-DIM
 62
     0
370
    -2
100
AcDbBlockReference
  2
_Open30
 10
25905.56102790308
 20
27522.47037243286
 30
0.0
 41
85.0
 42
85.0
 43
85.0
 50
270.0
  0
INSERT
  5
77CC
330
765C
100
AcDbEntity
  8
D-STR-DIM
 62
     0
370
    -2
100
AcDbBlockReference
  2
_Open30
 10
25905.56102790308
 20
28522.47037243286
 30
0.0
 41
85.0
 42
85.0
 43
85.0
 50
90.0
  0
MTEXT
  5
77CD
330
765C
100
AcDbEntity
  8
D-STR-DIM
 62
     0
100
AcDbMText
 10
25790.56102790307
 20
28022.47037243287
 30
0.0
 40
150.0
 41
0.0
 71
     5
 72
     1
  1
\A1;500
  7
ＭＳ ゴシック
 11
6.123031769111886E-17
 21
1.0
 31
0.0
 73
     1
 44
1.0
  0
POINT
  5
77CE
330
765C
100
AcDbEntity
  8
DEFPOINTS
 62
     0
100
AcDbPoint
 10
26346.91825768699
 20
27522.47037243286
 30
0.0
  0
POINT
  5
77CF
330
765C
100
AcDbEntity
  8
DEFPOINTS
 62
     0
100
AcDbPoint
 10
26346.91825768699
 20
28522.47037243286
 30
0.0
  0
POINT
  5
77D0
330
765C
100
AcDbEntity
  8
DEFPOINTS
 62
     0
100
AcDbPoint
 10
25905.56102790308
 20
28522.47037243286
 30
0.0
  0
ENDBLK
  5
7667
330
765C
100
AcDbEntity
  8
0
100
AcDbBlockEnd
  0
BLOCK
  5
7672
330
7668
100
AcDbEntity
  8
0
100
AcDbBlockBegin
  2
*D28
 70
     1
 10
0.0
 20
0.0
 30
0.0
  3
*D28
  1

  0
LINE
  5
77D1
330
7668
100
AcDbEntity
  8
D-STR-DIM
 62
     0
370
    -2
100
AcDbLine
 10
26316.91825768699
 20
27477.47037243286
 30
0.0
 11
26316.91825768699
 21
27065.31802028297
 31
0.0
  0
LINE
  5
77D2
330
7668
100
AcDbEntity
  8
D-STR-DIM
 62
     0
370
    -2
100
AcDbLine
 10
27016.91825768699
 20
27732.47037243286
 30
0.0
 11
27016.91825768699
 21
27065.31802028297
 31
0.0
  0
LINE
  5
77D3
330
7668
100
AcDbEntity
  8
D-STR-DIM
 62
     0
370
    -2
100
AcDbLine
 10
26401.91825768699
 20
27090.31802028297
 30
0.0
 11
26931.91825768699
 21
27090.31802028297
 31
0.0
  0
INSERT
  5
77D4
330
7668
100
AcDbEntity
  8
D-STR-DIM
 62
     0
370
    -2
100
AcDbBlockReference
  2
_Open30
 10
26316.91825768699
 20
27090.31802028297
 30
0.0
 41
85.0
 42
85.0
 43
85.0
 50
180.0
  0
INSERT
  5
77D5
330
7668
100
AcDbEntity
  8
D-STR-DIM
 62
     0
370
    -2
100
AcDbBlockReference
  2
_Open30
 10
27016.91825768699
 20
27090.31802028297
 30
0.0
 41
85.0
 42
85.0
 43
85.0
  0
MTEXT
  5
77D6
330
7668
100
AcDbEntity
  8
D-STR-DIM
 62
     0
100
AcDbMText
 10
26666.91825768699
 20
27205.31802028297
 30
0.0
 40
150.0
 41
0.0
 71
     5
 72
     1
  1
\A1;350
  7
ＭＳ ゴシック
 73
     1
 44
1.0
  0
POINT
  5
77D7
330
7668
100
AcDbEntity
  8
DEFPOINTS
 62
     0
100
AcDbPoint
 10
26316.91825768699
 20
27552.47037243286
 30
0.0
  0
POINT
  5
77D8
330
7668
100
AcDbEntity
  8
DEFPOINTS
 62
     0
100
AcDbPoint
 10
27016.91825768699
 20
27807.47037243286
 30
0.0
  0
POINT
  5
77D9
330
7668
100
AcDbEntity
  8
DEFPOINTS
 62
     0
100
AcDbPoint
 10
27016.91825768699
 20
27090.31802028297
 30
0.0
  0
ENDBLK
  5
7673
330
7668
100
AcDbEntity
  8
0
100
AcDbBlockEnd
  0
BLOCK
  5
775D
330
7752
100
AcDbEntity
  8
0
100
AcDbBlockBegin
  2
*D29
 70
     1
 10
0.0
 20
0.0
 30
0.0
  3
*D29
  1

  0
LINE
  5
7BDB
330
7752
100
AcDbEntity
  8
D-STR-TXT
 62
     0
370
    -2
100
AcDbLine
 10
28930.95948800291
 20
28134.62595198402
 30
0.0
 11
28447.76628356904
 21
28134.62595198402
 31
0.0
  0
LINE
  5
7BDC
330
7752
100
AcDbEntity
  8
D-STR-TXT
 62
     0
370
    -2
100
AcDbLine
 10
28980.95948800291
 20
28434.62595198402
 30
0.0
 11
28447.76628356904
 21
28434.62595198402
 31
0.0
  0
LINE
  5
7BDD
330
7752
100
AcDbEntity
  8
D-STR-TXT
 62
     0
370
    -2
100
AcDbLine
 10
28472.76628356904
 20
28219.62595198402
 30
0.0
 11
28472.76628356904
 21
28349.62595198402
 31
0.0
  0
MTEXT
  5
7BDE
330
7752
100
AcDbEntity
  8
D-STR-TXT
 62
     0
100
AcDbMText
 10
28357.76628356903
 20
28284.62595198402
 30
0.0
 40
150.0
 41
0.0
 71
     5
 72
     1
  1
\A1;300
  7
ＭＳ ゴシック
 11
6.123031769111886E-17
 21
1.0
 31
0.0
 73
     1
 44
1.0
  0
INSERT
  5
7BDF
330
7752
100
AcDbEntity
  8
D-STR-TXT
 62
     0
370
    -2
100
AcDbBlockReference
  2
_Open30
 10
28472.76628356904
 20
28134.62595198402
 30
0.0
 41
85.0
 42
85.0
 43
85.0
 50
270.0
  0
INSERT
  5
7BE0
330
7752
100
AcDbEntity
  8
D-STR-TXT
 62
     0
370
    -2
100
AcDbBlockReference
  2
_Open30
 10
28472.76628356904
 20
28434.62595198402
 30
0.0
 41
85.0
 42
85.0
 43
85.0
 50
90.0
  0
POINT
  5
7BE1
330
7752
100
AcDbEntity
  8
DEFPOINTS
 62
     0
100
AcDbPoint
 10
29005.95948800291
 20
28134.62595198402
 30
0.0
  0
POINT
  5
7BE2
330
7752
100
AcDbEntity
  8
DEFPOINTS
 62
     0
100
AcDbPoint
 10
29055.95948800291
 20
28434.62595198402
 30
0.0
  0
POINT
  5
7BE3
330
7752
100
AcDbEntity
  8
DEFPOINTS
 62
     0
100
AcDbPoint
 10
28472.76628356904
 20
28434.62595198402
 30
0.0
  0
ENDBLK
  5
775E
330
7752
100
AcDbEntity
  8
0
100
AcDbBlockEnd
  0
BLOCK
  5
776A
330
7760
100
AcDbEntity
  8
0
100
AcDbBlockBegin
  2
*D30
 70
     1
 10
0.0
 20
0.0
 30
0.0
  3
*D30
  1

  0
LINE
  5
7BE4
330
7760
100
AcDbEntity
  8
D-STR-TXT
 62
     0
370
    -2
100
AcDbLine
 10
29055.95948800291
 20
28059.62595198402
 30
0.0
 11
29055.95948800291
 21
27477.50082201057
 31
0.0
  0
LINE
  5
7BE5
330
7760
100
AcDbEntity
  8
D-STR-TXT
 62
     0
370
    -2
100
AcDbLine
 10
29555.95948800291
 20
28059.62595198402
 30
0.0
 11
29555.95948800291
 21
27477.50082201057
 31
0.0
  0
LINE
  5
7BE6
330
7760
100
AcDbEntity
  8
D-STR-TXT
 62
     0
370
    -2
100
AcDbLine
 10
29140.95948800291
 20
27502.50082201057
 30
0.0
 11
29470.95948800291
 21
27502.50082201057
 31
0.0
  0
INSERT
  5
7BE7
330
7760
100
AcDbEntity
  8
D-STR-TXT
 62
     0
370
    -2
100
AcDbBlockReference
  2
_Open30
 10
29055.95948800291
 20
27502.50082201057
 30
0.0
 41
85.0
 42
85.0
 43
85.0
 50
180.0
  0
INSERT
  5
7BE8
330
7760
100
AcDbEntity
  8
D-STR-TXT
 62
     0
370
    -2
100
AcDbBlockReference
  2
_Open30
 10
29555.95948800291
 20
27502.50082201057
 30
0.0
 41
85.0
 42
85.0
 43
85.0
  0
MTEXT
  5
7BE9
330
7760
100
AcDbEntity
  8
D-STR-TXT
 62
     0
100
AcDbMText
 10
29305.95948800291
 20
27617.50082201057
 30
0.0
 40
150.0
 41
0.0
 71
     5
 72
     1
  1
\A1;500
  7
ＭＳ ゴシック
 73
     1
 44
1.0
  0
POINT
  5
7BEA
330
7760
100
AcDbEntity
  8
DEFPOINTS
 62
     0
100
AcDbPoint
 10
29055.95948800291
 20
28134.62595198402
 30
0.0
  0
POINT
  5
7BEB
330
7760
100
AcDbEntity
  8
DEFPOINTS
 62
     0
100
AcDbPoint
 10
29555.95948800291
 20
28134.62595198402
 30
0.0
  0
POINT
  5
7BEC
330
7760
100
AcDbEntity
  8
DEFPOINTS
 62
     0
100
AcDbPoint
 10
29555.95948800291
 20
27502.50082201057
 30
0.0
  0
ENDBLK
  5
776B
330
7760
100
AcDbEntity
  8
0
100
AcDbBlockEnd
  0
BLOCK
  5
788F
330
7884
100
AcDbEntity
  8
0
100
AcDbBlockBegin
  2
*D31
 70
     1
 10
0.0
 20
0.0
 30
0.0
  3
*D31
  1

  0
LINE
  5
7BED
330
7884
100
AcDbEntity
  8
D-STR-TXT
 62
     0
370
    -2
100
AcDbLine
 10
30894.19081101516
 20
31128.46480588376
 30
0.0
 11
31150.99166302178
 21
31642.06650989703
 31
0.0
  0
LINE
  5
7BEE
330
7884
100
AcDbEntity
  8
D-STR-TXT
 62
     0
370
    -2
100
AcDbLine
 10
31257.86338685262
 20
31184.98956430874
 30
0.0
 11
31419.31982032176
 21
31507.90243124704
 31
0.0
  0
LINE
  5
7BEF
330
7884
100
AcDbEntity
  8
D-STR-TXT
 62
     0
370
    -2
100
AcDbLine
 10
31215.83763436927
 20
31581.69267450453
 30
0.0
 11
31332.11316919927
 21
31523.55490708954
 31
0.0
  0
MTEXT
  5
7BF0
330
7884
100
AcDbEntity
  8
D-STR-TXT
 62
     0
100
AcDbMText
 10
31325.40496526676
 20
31655.48291776202
 30
0.0
 40
150.0
 41
0.0
 71
     5
 72
     1
  1
\A1;300
  7
ＭＳ ゴシック
 11
0.8944271909999292
 21
-0.4472135954999318
 31
0.0
 73
     1
 44
1.0
  0
INSERT
  5
7BF1
330
7884
100
AcDbEntity
  8
D-STR-TXT
 62
     0
370
    -2
100
AcDbBlockReference
  2
_Open30
 10
31139.81132313428
 20
31619.70583012203
 30
0.0
 41
85.0
 42
85.0
 43
85.0
 50
153.4349488229237
  0
INSERT
  5
7BF2
330
7884
100
AcDbEntity
  8
D-STR-TXT
 62
     0
370
    -2
100
AcDbBlockReference
  2
_Open30
 10
31408.13948043426
 20
31485.54175147205
 30
0.0
 41
85.0
 42
85.0
 43
85.0
 50
333.4349488229237
  0
POINT
  5
7BF3
330
7884
100
AcDbEntity
  8
DEFPOINTS
 62
     0
100
AcDbPoint
 10
30860.64979135266
 20
31061.38276655876
 30
0.0
  0
POINT
  5
7BF4
330
7884
100
AcDbEntity
  8
DEFPOINTS
 62
     0
100
AcDbPoint
 10
31224.32236719012
 20
31117.90752498374
 30
0.0
  0
POINT
  5
7BF5
330
7884
100
AcDbEntity
  8
DEFPOINTS
 62
     0
100
AcDbPoint
 10
31408.13948043426
 20
31485.54175147205
 30
0.0
  0
ENDBLK
  5
7890
330
7884
100
AcDbEntity
  8
0
100
AcDbBlockEnd
  0
BLOCK
  5
7909
330
78FF
100
AcDbEntity
  8
0
100
AcDbBlockBegin
  2
*D34
 70
     1
 10
0.0
 20
0.0
 30
0.0
  3
*D34
  1

  0
LINE
  5
7BF6
330
78FF
100
AcDbEntity
  8
D-STR-DIM
 62
     0
370
    -2
100
AcDbLine
 10
34813.32145401181
 20
28546.72938939798
 30
0.0
 11
34375.91508845
 21
28765.43257217888
 31
0.0
  0
LINE
  5
7BF7
330
78FF
100
AcDbEntity
  8
D-STR-DIM
 62
     0
370
    -2
100
AcDbLine
 10
35036.92825176178
 20
28993.94298489795
 30
0.0
 11
34599.52188619997
 21
29212.64616767885
 31
0.0
  0
LINE
  5
7BF8
330
78FF
100
AcDbEntity
  8
D-STR-DIM
 62
     0
370
    -2
100
AcDbLine
 10
34436.28892384249
 20
28830.27854352638
 30
0.0
 11
34583.86941035747
 21
29125.43951655636
 31
0.0
  0
INSERT
  5
7BF9
330
78FF
100
AcDbEntity
  8
D-STR-DIM
 62
     0
370
    -2
100
AcDbBlockReference
  2
_Open30
 10
34398.27576822499
 20
28754.25223229138
 30
0.0
 41
85.0
 42
85.0
 43
85.0
 50
243.4349488229224
  0
INSERT
  5
7BFA
330
78FF
100
AcDbEntity
  8
D-STR-DIM
 62
     0
370
    -2
100
AcDbBlockReference
  2
_Open30
 10
34621.88256597497
 20
29201.46582779135
 30
0.0
 41
85.0
 42
85.0
 43
85.0
 50
63.43494882292239
  0
MTEXT
  5
7BFB
330
78FF
100
AcDbEntity
  8
D-STR-DIM
 62
     0
100
AcDbMText
 10
34407.22004013499
 20
29029.28859352387
 30
0.0
 40
150.0
 41
0.0
 71
     5
 72
     1
  1
\A1;500
  7
ＭＳ ゴシック
 11
0.447213595499952
 21
0.8944271909999189
 31
0.0
 73
     1
 44
1.0
  0
POINT
  5
7BFC
330
78FF
100
AcDbEntity
  8
DEFPOINTS
 62
     0
100
AcDbPoint
 10
34880.40349333679
 20
28513.18836973549
 30
0.0
  0
POINT
  5
7BFD
330
78FF
100
AcDbEntity
  8
DEFPOINTS
 62
     0
100
AcDbPoint
 10
35104.01029108677
 20
28960.40196523545
 30
0.0
  0
POINT
  5
7BFE
330
78FF
100
AcDbEntity
  8
DEFPOINTS
 62
     0
100
AcDbPoint
 10
34621.88256597497
 20
29201.46582779135
 30
0.0
  0
ENDBLK
  5
790A
330
78FF
100
AcDbEntity
  8
0
100
AcDbBlockEnd
  0
BLOCK
  5
7915
330
790B
100
AcDbEntity
  8
0
100
AcDbBlockBegin
  2
*D35
 70
     1
 10
0.0
 20
0.0
 30
0.0
  3
*D35
  1

  0
LINE
  5
7BFF
330
790B
100
AcDbEntity
  8
D-STR-DIM
 62
     0
370
    -2
100
AcDbLine
 10
35036.92825176178
 20
28993.94298489797
 30
0.0
 11
34599.52188619999
 21
29212.64616767886
 31
0.0
  0
LINE
  5
7C00
330
790B
100
AcDbEntity
  8
D-STR-DIM
 62
     0
370
    -2
100
AcDbLine
 10
35260.53504951176
 20
29441.15658039792
 30
0.0
 11
34823.12868394997
 21
29659.85976317881
 31
0.0
  0
LINE
  5
7C01
330
790B
100
AcDbEntity
  8
D-STR-DIM
 62
     0
370
    -2
100
AcDbLine
 10
34659.89572159248
 20
29277.49213902636
 30
0.0
 11
34807.47620810747
 21
29572.65311205632
 31
0.0
  0
INSERT
  5
7C02
330
790B
100
AcDbEntity
  8
D-STR-DIM
 62
     0
370
    -2
100
AcDbBlockReference
  2
_Open30
 10
34621.88256597499
 20
29201.46582779136
 30
0.0
 41
85.0
 42
85.0
 43
85.0
 50
243.4349488229224
  0
INSERT
  5
7C03
330
790B
100
AcDbEntity
  8
D-STR-DIM
 62
     0
370
    -2
100
AcDbBlockReference
  2
_Open30
 10
34845.48936372496
 20
29648.67942329132
 30
0.0
 41
85.0
 42
85.0
 43
85.0
 50
63.43494882292239
  0
MTEXT
  5
7C04
330
790B
100
AcDbEntity
  8
D-STR-DIM
 62
     0
100
AcDbMText
 10
34630.82683788499
 20
29476.50218902384
 30
0.0
 40
150.0
 41
0.0
 71
     5
 72
     1
  1
\A1;500
  7
ＭＳ ゴシック
 11
0.447213595499952
 21
0.8944271909999189
 31
0.0
 73
     1
 44
1.0
  0
POINT
  5
7C05
330
790B
100
AcDbEntity
  8
DEFPOINTS
 62
     0
100
AcDbPoint
 10
35104.01029108677
 20
28960.40196523547
 30
0.0
  0
POINT
  5
7C06
330
790B
100
AcDbEntity
  8
DEFPOINTS
 62
     0
100
AcDbPoint
 10
35327.61708883675
 20
29407.61556073543
 30
0.0
  0
POINT
  5
7C07
330
790B
100
AcDbEntity
  8
DEFPOINTS
 62
     0
100
AcDbPoint
 10
34845.48936372496
 20
29648.67942329132
 30
0.0
  0
ENDBLK
  5
7916
330
790B
100
AcDbEntity
  8
0
100
AcDbBlockEnd
  0
BLOCK
  5
7921
330
7917
100
AcDbEntity
  8
0
100
AcDbBlockBegin
  2
*D36
 70
     1
 10
0.0
 20
0.0
 30
0.0
  3
*D36
  1

  0
LINE
  5
7C08
330
7917
100
AcDbEntity
  8
D-STR-DIM
 62
     0
370
    -2
100
AcDbLine
 10
35260.53504951175
 20
29441.15658039792
 30
0.0
 11
34823.12868394995
 21
29659.85976317882
 31
0.0
  0
LINE
  5
7C09
330
7917
100
AcDbEntity
  8
D-STR-DIM
 62
     0
370
    -2
100
AcDbLine
 10
35484.14184726173
 20
29888.37017589789
 30
0.0
 11
35046.73548169994
 21
30107.07335867878
 31
0.0
  0
LINE
  5
7C0A
330
7917
100
AcDbEntity
  8
D-STR-DIM
 62
     0
370
    -2
100
AcDbLine
 10
34883.50251934245
 20
29724.70573452631
 30
0.0
 11
35031.08300585744
 21
30019.86670755629
 31
0.0
  0
INSERT
  5
7C0B
330
7917
100
AcDbEntity
  8
D-STR-DIM
 62
     0
370
    -2
100
AcDbBlockReference
  2
_Open30
 10
34845.48936372496
 20
29648.67942329132
 30
0.0
 41
85.0
 42
85.0
 43
85.0
 50
243.4349488229224
  0
INSERT
  5
7C0C
330
7917
100
AcDbEntity
  8
D-STR-DIM
 62
     0
370
    -2
100
AcDbBlockReference
  2
_Open30
 10
35069.09616147493
 20
30095.89301879128
 30
0.0
 41
85.0
 42
85.0
 43
85.0
 50
63.43494882292239
  0
MTEXT
  5
7C0D
330
7917
100
AcDbEntity
  8
D-STR-DIM
 62
     0
100
AcDbMText
 10
34854.43363563495
 20
29923.7157845238
 30
0.0
 40
150.0
 41
0.0
 71
     5
 72
     1
  1
\A1;500
  7
ＭＳ ゴシック
 11
0.447213595499952
 21
0.8944271909999189
 31
0.0
 73
     1
 44
1.0
  0
POINT
  5
7C0E
330
7917
100
AcDbEntity
  8
DEFPOINTS
 62
     0
100
AcDbPoint
 10
35327.61708883673
 20
29407.61556073543
 30
0.0
  0
POINT
  5
7C0F
330
7917
100
AcDbEntity
  8
DEFPOINTS
 62
     0
100
AcDbPoint
 10
35551.22388658673
 20
29854.82915623539
 30
0.0
  0
POINT
  5
7C10
330
7917
100
AcDbEntity
  8
DEFPOINTS
 62
     0
100
AcDbPoint
 10
35069.09616147493
 20
30095.89301879128
 30
0.0
  0
ENDBLK
  5
7922
330
7917
100
AcDbEntity
  8
0
100
AcDbBlockEnd
  0
BLOCK
  5
792D
330
7923
100
AcDbEntity
  8
0
100
AcDbBlockBegin
  2
*D37
 70
     1
 10
0.0
 20
0.0
 30
0.0
  3
*D37
  1

  0
LINE
  5
7C11
330
7923
100
AcDbEntity
  8
D-STR-DIM
 62
     0
370
    -2
100
AcDbLine
 10
34481.79669558683
 20
28065.97477423552
 30
0.0
 11
33948.60349115295
 21
28065.97477423552
 31
0.0
  0
LINE
  5
7C12
330
7923
100
AcDbEntity
  8
D-STR-DIM
 62
     0
370
    -2
100
AcDbLine
 10
36197.04427983656
 20
31296.4699427352
 30
0.0
 11
33948.60349115295
 21
31296.4699427352
 31
0.0
  0
LINE
  5
7C13
330
7923
100
AcDbEntity
  8
D-STR-DIM
 62
     0
370
    -2
100
AcDbLine
 10
33973.60349115295
 20
28150.97477423552
 30
0.0
 11
33973.60349115295
 21
31211.4699427352
 31
0.0
  0
INSERT
  5
7C14
330
7923
100
AcDbEntity
  8
D-STR-DIM
 62
     0
370
    -2
100
AcDbBlockReference
  2
_Open30
 10
33973.60349115295
 20
28065.97477423552
 30
0.0
 41
85.0
 42
85.0
 43
85.0
 50
270.0
  0
INSERT
  5
7C15
330
7923
100
AcDbEntity
  8
D-STR-DIM
 62
     0
370
    -2
100
AcDbBlockReference
  2
_Open30
 10
33973.60349115295
 20
31296.4699427352
 30
0.0
 41
85.0
 42
85.0
 43
85.0
 50
90.0
  0
MTEXT
  5
7C16
330
7923
100
AcDbEntity
  8
D-STR-DIM
 62
     0
100
AcDbMText
 10
33858.60349115294
 20
29681.22235848536
 30
0.0
 40
150.0
 41
0.0
 71
     5
 72
     1
  1
\A1;H
  7
ＭＳ ゴシック
 11
6.123031769111886E-17
 21
1.0
 31
0.0
 73
     1
 44
1.0
  0
POINT
  5
7C17
330
7923
100
AcDbEntity
  8
DEFPOINTS
 62
     0
100
AcDbPoint
 10
34556.79669558683
 20
28065.97477423552
 30
0.0
  0
POINT
  5
7C18
330
7923
100
AcDbEntity
  8
DEFPOINTS
 62
     0
100
AcDbPoint
 10
36272.04427983656
 20
31296.4699427352
 30
0.0
  0
POINT
  5
7C19
330
7923
100
AcDbEntity
  8
DEFPOINTS
 62
     0
100
AcDbPoint
 10
33973.60349115295
 20
31296.4699427352
 30
0.0
  0
ENDBLK
  5
792E
330
7923
100
AcDbEntity
  8
0
100
AcDbBlockEnd
  0
BLOCK
  5
793A
330
792F
100
AcDbEntity
  8
0
100
AcDbBlockBegin
  2
*D38
 70
     1
 10
0.0
 20
0.0
 30
0.0
  3
*D38
  1

  0
LINE
  5
7C1A
330
792F
100
AcDbEntity
  8
D-STR-DIM
 62
     0
370
    -2
100
AcDbLine
 10
36197.04427983656
 20
31296.4699427352
 30
0.0
 11
35494.9322288601
 21
31296.4699427352
 31
0.0
  0
LINE
  5
7C1B
330
792F
100
AcDbEntity
  8
D-STR-DIM
 62
     0
370
    -2
100
AcDbLine
 10
36147.04427983656
 20
31196.4699427352
 30
0.0
 11
35494.9322288601
 21
31196.4699427352
 31
0.0
  0
LINE
  5
7C1C
330
792F
100
AcDbEntity
  8
D-STR-DIM
 62
     0
370
    -2
100
AcDbLine
 10
35519.9322288601
 20
31381.4699427352
 30
0.0
 11
35519.9322288601
 21
31466.4699427352
 31
0.0
  0
LINE
  5
7C1D
330
792F
100
AcDbEntity
  8
D-STR-DIM
 62
     0
370
    -2
100
AcDbLine
 10
35519.9322288601
 20
31111.4699427352
 30
0.0
 11
35519.9322288601
 21
31026.4699427352
 31
0.0
  0
INSERT
  5
7C1E
330
792F
100
AcDbEntity
  8
D-STR-DIM
 62
     0
370
    -2
100
AcDbBlockReference
  2
_Open30
 10
35519.9322288601
 20
31296.4699427352
 30
0.0
 41
85.0
 42
85.0
 43
85.0
 50
270.0
  0
INSERT
  5
7C1F
330
792F
100
AcDbEntity
  8
D-STR-DIM
 62
     0
370
    -2
100
AcDbBlockReference
  2
_Open30
 10
35519.9322288601
 20
31196.4699427352
 30
0.0
 41
85.0
 42
85.0
 43
85.0
 50
90.0
  0
MTEXT
  5
7C20
330
792F
100
AcDbEntity
  8
D-STR-DIM
 62
     0
100
AcDbMText
 10
35404.93222886009
 20
31246.4699427352
 30
0.0
 40
150.0
 41
0.0
 71
     5
 72
     1
  1
\A1;100
  7
ＭＳ ゴシック
 11
6.123031769111886E-17
 21
1.0
 31
0.0
 73
     1
 44
1.0
  0
POINT
  5
7C21
330
792F
100
AcDbEntity
  8
DEFPOINTS
 62
     0
100
AcDbPoint
 10
36272.04427983656
 20
31296.4699427352
 30
0.0
  0
POINT
  5
7C22
330
792F
100
AcDbEntity
  8
DEFPOINTS
 62
     0
100
AcDbPoint
 10
36222.04427983656
 20
31196.4699427352
 30
0.0
  0
POINT
  5
7C23
330
792F
100
AcDbEntity
  8
DEFPOINTS
 62
     0
100
AcDbPoint
 10
35519.9322288601
 20
31196.4699427352
 30
0.0
  0
ENDBLK
  5
793B
330
792F
100
AcDbEntity
  8
0
100
AcDbBlockEnd
  0
BLOCK
  5
7953
330
7948
100
AcDbEntity
  8
0
100
AcDbBlockBegin
  2
*D40
 70
     1
 10
0.0
 20
0.0
 30
0.0
  3
*D40
  1

  0
LINE
  5
7C24
330
7948
100
AcDbEntity
  8
D-STR-TXT
 62
     0
370
    -2
100
AcDbLine
 10
34431.79669558683
 20
27765.97477423552
 30
0.0
 11
33948.60349115295
 21
27765.97477423552
 31
0.0
  0
LINE
  5
7C25
330
7948
100
AcDbEntity
  8
D-STR-TXT
 62
     0
370
    -2
100
AcDbLine
 10
34481.79669558683
 20
28065.97477423552
 30
0.0
 11
33948.60349115295
 21
28065.97477423552
 31
0.0
  0
LINE
  5
7C26
330
7948
100
AcDbEntity
  8
D-STR-TXT
 62
     0
370
    -2
100
AcDbLine
 10
33973.60349115295
 20
27850.97477423552
 30
0.0
 11
33973.60349115295
 21
27980.97477423552
 31
0.0
  0
MTEXT
  5
7C27
330
7948
100
AcDbEntity
  8
D-STR-TXT
 62
     0
100
AcDbMText
 10
33858.60349115294
 20
27915.97477423552
 30
0.0
 40
150.0
 41
0.0
 71
     5
 72
     1
  1
\A1;300
  7
ＭＳ ゴシック
 11
6.123031769111886E-17
 21
1.0
 31
0.0
 73
     1
 44
1.0
  0
INSERT
  5
7C28
330
7948
100
AcDbEntity
  8
D-STR-TXT
 62
     0
370
    -2
100
AcDbBlockReference
  2
_Open30
 10
33973.60349115295
 20
27765.97477423552
 30
0.0
 41
85.0
 42
85.0
 43
85.0
 50
270.0
  0
INSERT
  5
7C29
330
7948
100
AcDbEntity
  8
D-STR-TXT
 62
     0
370
    -2
100
AcDbBlockReference
  2
_Open30
 10
33973.60349115295
 20
28065.97477423552
 30
0.0
 41
85.0
 42
85.0
 43
85.0
 50
90.0
  0
POINT
  5
7C2A
330
7948
100
AcDbEntity
  8
DEFPOINTS
 62
     0
100
AcDbPoint
 10
34506.79669558683
 20
27765.97477423552
 30
0.0
  0
POINT
  5
7C2B
330
7948
100
AcDbEntity
  8
DEFPOINTS
 62
     0
100
AcDbPoint
 10
34556.79669558683
 20
28065.97477423552
 30
0.0
  0
POINT
  5
7C2C
330
7948
100
AcDbEntity
  8
DEFPOINTS
 62
     0
100
AcDbPoint
 10
33973.60349115295
 20
28065.97477423552
 30
0.0
  0
ENDBLK
  5
7954
330
7948
100
AcDbEntity
  8
0
100
AcDbBlockEnd
  0
BLOCK
  5
795F
330
7955
100
AcDbEntity
  8
0
100
AcDbBlockBegin
  2
*D41
 70
     1
 10
0.0
 20
0.0
 30
0.0
  3
*D41
  1

  0
LINE
  5
7C2D
330
7955
100
AcDbEntity
  8
D-STR-TXT
 62
     0
370
    -2
100
AcDbLine
 10
34556.79669558683
 20
27690.97477423552
 30
0.0
 11
34556.79669558683
 21
27108.84964426207
 31
0.0
  0
LINE
  5
7C2E
330
7955
100
AcDbEntity
  8
D-STR-TXT
 62
     0
370
    -2
100
AcDbLine
 10
35156.79669558684
 20
27690.97477423551
 30
0.0
 11
35156.79669558684
 21
27108.84964426207
 31
0.0
  0
LINE
  5
7C2F
330
7955
100
AcDbEntity
  8
D-STR-TXT
 62
     0
370
    -2
100
AcDbLine
 10
34641.79669558683
 20
27133.84964426207
 30
0.0
 11
35071.79669558684
 21
27133.84964426207
 31
0.0
  0
INSERT
  5
7C30
330
7955
100
AcDbEntity
  8
D-STR-TXT
 62
     0
370
    -2
100
AcDbBlockReference
  2
_Open30
 10
34556.79669558683
 20
27133.84964426207
 30
0.0
 41
85.0
 42
85.0
 43
85.0
 50
180.0
  0
INSERT
  5
7C31
330
7955
100
AcDbEntity
  8
D-STR-TXT
 62
     0
370
    -2
100
AcDbBlockReference
  2
_Open30
 10
35156.79669558684
 20
27133.84964426207
 30
0.0
 41
85.0
 42
85.0
 43
85.0
  0
MTEXT
  5
7C32
330
7955
100
AcDbEntity
  8
D-STR-TXT
 62
     0
100
AcDbMText
 10
34856.79669558683
 20
27248.84964426207
 30
0.0
 40
150.0
 41
0.0
 71
     5
 72
     1
  1
\A1;600
  7
ＭＳ ゴシック
 73
     1
 44
1.0
  0
POINT
  5
7C33
330
7955
100
AcDbEntity
  8
DEFPOINTS
 62
     0
100
AcDbPoint
 10
34556.79669558683
 20
27765.97477423552
 30
0.0
  0
POINT
  5
7C34
330
7955
100
AcDbEntity
  8
DEFPOINTS
 62
     0
100
AcDbPoint
 10
35156.79669558684
 20
27765.97477423551
 30
0.0
  0
POINT
  5
7C35
330
7955
100
AcDbEntity
  8
DEFPOINTS
 62
     0
100
AcDbPoint
 10
35156.79669558684
 20
27133.84964426207
 30
0.0
  0
ENDBLK
  5
7960
330
7955
100
AcDbEntity
  8
0
100
AcDbBlockEnd
  0
BLOCK
  5
7A47
330
7A46
100
AcDbEntity
  8
0
100
AcDbBlockBegin
  2
エスコン基礎45
 70
     0
 10
0.0
 20
0.0
 30
0.0
  3
エスコン基礎45
  1

  0
LINE
  5
7B15
330
7A46
100
AcDbEntity
  8
D-STR
100
AcDbLine
 10
0.0
 20
300.0
 30
0.0
 11
0.0
 21
0.0
 31
0.0
1001
AcDbBlockRepETag
1070
     1
1071
        0
1005
7B15
  0
LINE
  5
7B16
330
7A46
100
AcDbEntity
  8
D-STR
100
AcDbLine
 10
0.0
 20
0.0
 30
0.0
 11
600.0000000000146
 21
-0.000000000007276
 31
0.0
1001
AcDbBlockRepETag
1070
     1
1071
        1
1005
7B16
  0
LINE
  5
7B17
330
7A46
100
AcDbEntity
  8
D-STR
100
AcDbLine
 10
600.0
 20
0.0
 30
0.0
 11
599.9999999999854
 21
277.5
 31
0.0
1001
AcDbBlockRepETag
1070
     1
1071
        2
1005
7B17
  0
LINE
  5
7B18
330
7A46
100
AcDbEntity
  8
D-STR
100
AcDbLine
 10
477.0
 20
277.5
 30
0.0
 11
432.5
 21
300.0
 31
0.0
1001
AcDbBlockRepETag
1070
     1
1071
        3
1005
7B18
  0
LINE
  5
7B19
330
7A46
100
AcDbEntity
  8
D-STR
100
AcDbLine
 10
432.5
 20
300.0
 30
0.0
 11
327.5
 21
300.0
 31
0.0
1001
AcDbBlockRepETag
1070
     1
1071
        4
1005
7B19
  0
LINE
  5
7B1A
330
7A46
100
AcDbEntity
  8
D-STR
100
AcDbLine
 10
327.5
 20
300.0
 30
0.0
 11
300.0
 21
277.5
 31
0.0
1001
AcDbBlockRepETag
1070
     1
1071
        5
1005
7B1A
  0
LINE
  5
7B1B
330
7A46
100
AcDbEntity
  8
D-STR
100
AcDbLine
 10
300.0
 20
277.5
 30
0.0
 11
220.0
 21
277.5
 31
0.0
1001
AcDbBlockRepETag
1070
     1
1071
        6
1005
7B1B
  0
LINE
  5
7B1C
330
7A46
100
AcDbEntity
  8
D-STR
100
AcDbLine
 10
220.0
 20
277.5
 30
0.0
 11
220.0
 21
300.0
 31
0.0
1001
AcDbBlockRepETag
1070
     1
1071
        7
1005
7B1C
  0
LINE
  5
7B1D
330
7A46
100
AcDbEntity
  8
D-STR
100
AcDbLine
 10
220.0
 20
300.0
 30
0.0
 11
0.0
 21
300.0
 31
0.0
1001
AcDbBlockRepETag
1070
     1
1071
        8
1005
7B1D
  0
LINE
  5
7B1E
330
7A46
100
AcDbEntity
  8
D-STR
  6
HIDDEN
 62
     4
 48
0.2
100
AcDbLine
 10
220.0
 20
0.0
 30
0.0
 11
220.0
 21
300.0
 31
0.0
1001
AcDbBlockRepETag
1070
     1
1071
        9
1005
7B1E
  0
LINE
  5
7B1F
330
7A46
100
AcDbEntity
  8
D-STR
  6
HIDDEN
 62
     4
 48
0.2
100
AcDbLine
 10
240.0
 20
0.0
 30
0.0
 11
240.0
 21
277.5
 31
0.0
1001
AcDbBlockRepETag
1070
     1
1071
       10
1005
7B1F
  0
LINE
  5
7B20
330
7A46
100
AcDbEntity
  8
D-STR
  6
HIDDEN
 62
     4
 48
0.2
100
AcDbLine
 10
340.0
 20
0.0
 30
0.0
 11
340.0
 21
277.5
 31
0.0
1001
AcDbBlockRepETag
1070
     1
1071
       11
1005
7B20
  0
LINE
  5
7B21
330
7A46
100
AcDbEntity
  8
D-STR
  6
HIDDEN
 62
     4
 48
0.2
100
AcDbLine
 10
360.0
 20
0.0
 30
0.0
 11
360.0
 21
277.5
 31
0.0
1001
AcDbBlockRepETag
1070
     1
1071
       12
1005
7B21
  0
LINE
  5
7B22
330
7A46
100
AcDbEntity
  8
D-STR
100
AcDbLine
 10
300.0
 20
277.5
 30
0.0
 11
600.0
 21
277.5
 31
0.0
1001
AcDbBlockRepETag
1070
     1
1071
       13
1005
7B22
  0
ENDBLK
  5
7A56
330
7A46
100
AcDbEntity
  8
0
100
AcDbBlockEnd
  0
BLOCK
  5
7A59
330
7A57
100
AcDbEntity
  8
0
100
AcDbBlockBegin
  2
エスコン基礎50
 70
     0
 10
0.0
 20
0.0
 30
0.0
  3
エスコン基礎50
  1

  0
LINE
  5
7EA7
330
7A57
100
AcDbEntity
  8
D-STR
100
AcDbLine
 10
0.0
 20
300.0
 30
0.0
 11
0.0
 21
-50.0
 31
0.0
1001
AcDbBlockRepETag
1070
     1
1071
        0
1005
7EA7
  0
LINE
  5
7EA8
330
7A57
100
AcDbEntity
  8
D-STR
100
AcDbLine
 10
0.0
 20
-50.0
 30
0.0
 11
650.0
 21
-50.00000000000728
 31
0.0
1001
AcDbBlockRepETag
1070
     1
1071
        1
1005
7EA8
  0
LINE
  5
7EA9
330
7A57
100
AcDbEntity
  8
D-STR
100
AcDbLine
 10
650.0000000000026
 20
-50.00000000000728
 30
0.0
 11
649.9999999999854
 21
277.5
 31
0.0
1001
AcDbBlockRepETag
1070
     1
1071
        2
1005
7EA9
  0
LINE
  5
7EAA
330
7A57
100
AcDbEntity
  8
D-STR
100
AcDbLine
 10
477.0
 20
277.5
 30
0.0
 11
432.5
 21
300.0
 31
0.0
1001
AcDbBlockRepETag
1070
     1
1071
        3
1005
7EAA
  0
LINE
  5
7EAB
330
7A57
100
AcDbEntity
  8
D-STR
100
AcDbLine
 10
432.5
 20
300.0
 30
0.0
 11
327.5
 21
300.0
 31
0.0
1001
AcDbBlockRepETag
1070
     1
1071
        4
1005
7EAB
  0
LINE
  5
7EAC
330
7A57
100
AcDbEntity
  8
D-STR
100
AcDbLine
 10
327.5
 20
300.0
 30
0.0
 11
300.0
 21
277.5
 31
0.0
1001
AcDbBlockRepETag
1070
     1
1071
        5
1005
7EAC
  0
LINE
  5
7EAD
330
7A57
100
AcDbEntity
  8
D-STR
100
AcDbLine
 10
300.0
 20
277.5
 30
0.0
 11
220.0
 21
277.5
 31
0.0
1001
AcDbBlockRepETag
1070
     1
1071
        6
1005
7EAD
  0
LINE
  5
7EAE
330
7A57
100
AcDbEntity
  8
D-STR
100
AcDbLine
 10
220.0
 20
277.5
 30
0.0
 11
220.0
 21
300.0
 31
0.0
1001
AcDbBlockRepETag
1070
     1
1071
        7
1005
7EAE
  0
LINE
  5
7EAF
330
7A57
100
AcDbEntity
  8
D-STR
100
AcDbLine
 10
220.0
 20
300.0
 30
0.0
 11
0.0
 21
300.0
 31
0.0
1001
AcDbBlockRepETag
1070
     1
1071
        8
1005
7EAF
  0
LINE
  5
7EB0
330
7A57
100
AcDbEntity
  8
D-STR
  6
HIDDEN
 62
     4
 48
0.2
100
AcDbLine
 10
220.0
 20
-50.00000000000246
 30
0.0
 11
220.0
 21
300.0
 31
0.0
1001
AcDbBlockRepETag
1070
     1
1071
        9
1005
7EB0
  0
LINE
  5
7EB1
330
7A57
100
AcDbEntity
  8
D-STR
  6
HIDDEN
 62
     4
 48
0.2
100
AcDbLine
 10
240.0
 20
-50.00000000000269
 30
0.0
 11
240.0
 21
277.5
 31
0.0
1001
AcDbBlockRepETag
1070
     1
1071
       10
1005
7EB1
  0
LINE
  5
7EB2
330
7A57
100
AcDbEntity
  8
D-STR
  6
HIDDEN
 62
     4
 48
0.2
100
AcDbLine
 10
340.0
 20
-50.00000000000382
 30
0.0
 11
340.0
 21
277.5
 31
0.0
1001
AcDbBlockRepETag
1070
     1
1071
       11
1005
7EB2
  0
LINE
  5
7EB3
330
7A57
100
AcDbEntity
  8
D-STR
  6
HIDDEN
 62
     4
 48
0.2
100
AcDbLine
 10
360.0
 20
-50.00000000000403
 30
0.0
 11
360.0
 21
277.5
 31
0.0
1001
AcDbBlockRepETag
1070
     1
1071
       12
1005
7EB3
  0
LINE
  5
7EB4
330
7A57
100
AcDbEntity
  8
D-STR
100
AcDbLine
 10
300.0
 20
277.5
 30
0.0
 11
649.9999999999709
 21
277.5000000000073
 31
0.0
1001
AcDbBlockRepETag
1070
     1
1071
       13
1005
7EB4
  0
ENDBLK
  5
7A68
330
7A57
100
AcDbEntity
  8
0
100
AcDbBlockEnd
  0
BLOCK
  5
7AAC
330
7AA1
100
AcDbEntity
  8
0
100
AcDbBlockBegin
  2
*D47
 70
     1
 10
0.0
 20
0.0
 30
0.0
  3
*D47
  1

  0
LINE
  5
7C36
330
7AA1
100
AcDbEntity
  8
D-STR-DIM
 62
     0
370
    -2
100
AcDbLine
 10
36758.70059443651
 20
31263.5519820602
 30
0.0
 11
36980.94058312393
 21
31708.03195943506
 31
0.0
  0
LINE
  5
7C37
330
7AA1
100
AcDbEntity
  8
D-STR-DIM
 62
     0
370
    -2
100
AcDbLine
 10
37094.11079106147
 20
31263.55198206018
 30
0.0
 11
37249.26874042391
 21
31573.86788078507
 31
0.0
  0
LINE
  5
7C38
330
7AA1
100
AcDbEntity
  8
D-STR-DIM
 62
     0
370
    -2
100
AcDbLine
 10
37045.78655447142
 20
31647.65812404257
 30
0.0
 11
37162.06208930141
 21
31589.52035662757
 31
0.0
  0
MTEXT
  5
7C39
330
7AA1
100
AcDbEntity
  8
D-STR-DIM
 62
     0
100
AcDbMText
 10
37155.35388536891
 20
31721.44836730007
 30
0.0
 40
150.0
 41
0.0
 71
     5
 72
     1
  1
\A1;300
  7
ＭＳ ゴシック
 11
0.8944271909999292
 21
-0.4472135954999318
 31
0.0
 73
     1
 44
1.0
  0
INSERT
  5
7C3A
330
7AA1
100
AcDbEntity
  8
D-STR-DIM
 62
     0
370
    -2
100
AcDbBlockReference
  2
_Open30
 10
36969.76024323643
 20
31685.67127966006
 30
0.0
 41
85.0
 42
85.0
 43
85.0
 50
153.4349488229237
  0
INSERT
  5
7C3B
330
7AA1
100
AcDbEntity
  8
D-STR-DIM
 62
     0
370
    -2
100
AcDbBlockReference
  2
_Open30
 10
37238.08840053641
 20
31551.50720101008
 30
0.0
 41
85.0
 42
85.0
 43
85.0
 50
333.4349488229237
  0
POINT
  5
7C3C
330
7AA1
100
AcDbEntity
  8
DEFPOINTS
 62
     0
100
AcDbPoint
 10
36725.15957477402
 20
31196.46994273521
 30
0.0
  0
POINT
  5
7C3D
330
7AA1
100
AcDbEntity
  8
DEFPOINTS
 62
     0
100
AcDbPoint
 10
37060.56977139898
 20
31196.46994273519
 30
0.0
  0
POINT
  5
7C3E
330
7AA1
100
AcDbEntity
  8
DEFPOINTS
 62
     0
100
AcDbPoint
 10
37238.08840053641
 20
31551.50720101008
 30
0.0
  0
ENDBLK
  5
7AAD
330
7AA1
100
AcDbEntity
  8
0
100
AcDbBlockEnd
  0
BLOCK
  5
7AC4
330
7AB9
100
AcDbEntity
  8
0
100
AcDbBlockBegin
  2
*D48
 70
     1
 10
0.0
 20
0.0
 30
0.0
  3
*D48
  1

  0
LINE
  5
7E79
330
7AB9
100
AcDbEntity
  8
D-STR-DIM
 62
     0
370
    -2
100
AcDbLine
 10
36758.70059443651
 20
31263.5519820602
 30
0.0
 11
36980.94058312393
 21
31708.03195943506
 31
0.0
  0
LINE
  5
7E7A
330
7AB9
100
AcDbEntity
  8
D-STR-DIM
 62
     0
370
    -2
100
AcDbLine
 10
36635.71685567404
 20
31241.19130228519
 30
0.0
 11
36891.49786402395
 21
31752.75331898504
 31
0.0
  0
LINE
  5
7E7B
330
7AB9
100
AcDbEntity
  8
D-STR-DIM
 62
     0
370
    -2
100
AcDbLine
 10
37045.78655447142
 20
31647.65812404257
 30
0.0
 11
37121.81286570642
 21
31609.64496842507
 31
0.0
  0
LINE
  5
7E7C
330
7AB9
100
AcDbEntity
  8
D-STR-DIM
 62
     0
370
    -2
100
AcDbLine
 10
36804.29121290146
 20
31768.40579482754
 30
0.0
 11
36728.26490166647
 21
31806.41895044503
 31
0.0
  0
MTEXT
  5
7E7D
330
7AB9
100
AcDbEntity
  8
D-STR-DIM
 62
     0
100
AcDbMText
 10
36876.10338642128
 20
31615.4612431236
 30
0.0
 40
150.0
 41
0.0
 71
     5
 72
     1
  1
\A1;100
  7
ＭＳ ゴシック
 11
0.8944271909999292
 21
-0.4472135954999318
 31
0.0
 73
     1
 44
1.0
  0
INSERT
  5
7E7E
330
7AB9
100
AcDbEntity
  8
D-STR-DIM
 62
     0
370
    -2
100
AcDbBlockReference
  2
_Open30
 10
36969.76024323643
 20
31685.67127966006
 30
0.0
 41
85.0
 42
85.0
 43
85.0
 50
153.4349488229237
  0
INSERT
  5
7E7F
330
7AB9
100
AcDbEntity
  8
D-STR-DIM
 62
     0
370
    -2
100
AcDbBlockReference
  2
_Open30
 10
36880.31752413645
 20
31730.39263921005
 30
0.0
 41
85.0
 42
85.0
 43
85.0
 50
333.4349488229237
  0
POINT
  5
7E80
330
7AB9
100
AcDbEntity
  8
DEFPOINTS
 62
     0
100
AcDbPoint
 10
36725.15957477402
 20
31196.46994273521
 30
0.0
  0
POINT
  5
7E81
330
7AB9
100
AcDbEntity
  8
DEFPOINTS
 62
     0
100
AcDbPoint
 10
36602.17583601154
 20
31174.10926296019
 30
0.0
  0
POINT
  5
7E82
330
7AB9
100
AcDbEntity
  8
DEFPOINTS
 62
     0
100
AcDbPoint
 10
36880.31752413645
 20
31730.39263921005
 30
0.0
  0
ENDBLK
  5
7AC5
330
7AB9
100
AcDbEntity
  8
0
100
AcDbBlockEnd
  0
BLOCK
  5
7AD2
330
7AC7
100
AcDbEntity
  8
0
100
AcDbBlockBegin
  2
*D49
 70
     1
 10
0.0
 20
0.0
 30
0.0
  3
*D49
  1

  0
LINE
  5
7C49
330
7AC7
100
AcDbEntity
  8
D-STR-DIM
 62
     0
370
    -2
100
AcDbLine
 10
36635.71685567404
 20
31241.19130228519
 30
0.0
 11
36891.49786402395
 21
31752.75331898504
 31
0.0
  0
LINE
  5
7C4A
330
7AC7
100
AcDbEntity
  8
D-STR-DIM
 62
     0
370
    -2
100
AcDbLine
 10
36305.58529949906
 20
31363.55198206019
 30
0.0
 11
36578.44834717396
 21
31909.27807741002
 31
0.0
  0
LINE
  5
7C4B
330
7AC7
100
AcDbEntity
  8
D-STR-DIM
 62
     0
370
    -2
100
AcDbLine
 10
36804.29121290146
 20
31768.40579482754
 30
0.0
 11
36643.29431852145
 21
31848.90424201754
 31
0.0
  0
MTEXT
  5
7C4C
330
7AC7
100
AcDbEntity
  8
D-STR-DIM
 62
     0
100
AcDbMText
 10
36775.22232919394
 20
31911.51414538753
 30
0.0
 40
150.0
 41
0.0
 71
     5
 72
     1
  1
\A1;350
  7
ＭＳ ゴシック
 11
0.8944271909999292
 21
-0.4472135954999318
 31
0.0
 73
     1
 44
1.0
  0
INSERT
  5
7C4D
330
7AC7
100
AcDbEntity
  8
D-STR-DIM
 62
     0
370
    -2
100
AcDbBlockReference
  2
_Open30
 10
36880.31752413645
 20
31730.39263921005
 30
0.0
 41
85.0
 42
85.0
 43
85.0
 50
333.4349488229237
  0
INSERT
  5
7C4E
330
7AC7
100
AcDbEntity
  8
D-STR-DIM
 62
     0
370
    -2
100
AcDbBlockReference
  2
_Open30
 10
36567.26800728646
 20
31886.91739763503
 30
0.0
 41
85.0
 42
85.0
 43
85.0
 50
153.4349488229237
  0
POINT
  5
7C4F
330
7AC7
100
AcDbEntity
  8
DEFPOINTS
 62
     0
100
AcDbPoint
 10
36602.17583601154
 20
31174.10926296019
 30
0.0
  0
POINT
  5
7C50
330
7AC7
100
AcDbEntity
  8
DEFPOINTS
 62
     0
100
AcDbPoint
 10
36272.04427983657
 20
31296.4699427352
 30
0.0
  0
POINT
  5
7C51
330
7AC7
100
AcDbEntity
  8
DEFPOINTS
 62
     0
100
AcDbPoint
 10
36567.26800728646
 20
31886.91739763503
 30
0.0
  0
ENDBLK
  5
7AD3
330
7AC7
100
AcDbEntity
  8
0
100
AcDbBlockEnd
  0
BLOCK
  5
7B0D
330
7B02
100
AcDbEntity
  8
0
100
AcDbBlockBegin
  2
*D50
 70
     1
 10
0.0
 20
0.0
 30
0.0
  3
*D50
  1

  0
LINE
  5
7C52
330
7B02
100
AcDbEntity
  8
D-STR-DIM
 62
     0
370
    -2
100
AcDbLine
 10
29055.95948800291
 20
28509.62595198402
 30
0.0
 11
29055.95948800291
 21
28821.19372962319
 31
0.0
  0
LINE
  5
7C53
330
7B02
100
AcDbEntity
  8
D-STR-DIM
 62
     0
370
    -2
100
AcDbLine
 10
29155.95948800288
 20
28509.62595198402
 30
0.0
 11
29155.95948800288
 21
28821.19372962319
 31
0.0
  0
LINE
  5
7C54
330
7B02
100
AcDbEntity
  8
D-STR-DIM
 62
     0
370
    -2
100
AcDbLine
 10
28970.95948800291
 20
28796.19372962319
 30
0.0
 11
28885.95948800291
 21
28796.19372962319
 31
0.0
  0
LINE
  5
7C55
330
7B02
100
AcDbEntity
  8
D-STR-DIM
 62
     0
370
    -2
100
AcDbLine
 10
29240.95948800288
 20
28796.19372962319
 30
0.0
 11
29325.95948800288
 21
28796.19372962319
 31
0.0
  0
INSERT
  5
7C56
330
7B02
100
AcDbEntity
  8
D-STR-DIM
 62
     0
370
    -2
100
AcDbBlockReference
  2
_Open30
 10
29055.95948800291
 20
28796.19372962319
 30
0.0
 41
85.0
 42
85.0
 43
85.0
  0
INSERT
  5
7C57
330
7B02
100
AcDbEntity
  8
D-STR-DIM
 62
     0
370
    -2
100
AcDbBlockReference
  2
_Open30
 10
29155.95948800288
 20
28796.19372962319
 30
0.0
 41
85.0
 42
85.0
 43
85.0
 50
180.0
  0
MTEXT
  5
7C58
330
7B02
100
AcDbEntity
  8
D-STR-DIM
 62
     0
100
AcDbMText
 10
29105.9594880029
 20
28911.19372962319
 30
0.0
 40
150.0
 41
0.0
 71
     5
 72
     1
  1
\A1;100
  7
ＭＳ ゴシック
 73
     1
 44
1.0
  0
POINT
  5
7C59
330
7B02
100
AcDbEntity
  8
DEFPOINTS
 62
     0
100
AcDbPoint
 10
29055.95948800291
 20
28434.62595198402
 30
0.0
  0
POINT
  5
7C5A
330
7B02
100
AcDbEntity
  8
DEFPOINTS
 62
     0
100
AcDbPoint
 10
29155.95948800288
 20
28434.62595198402
 30
0.0
  0
POINT
  5
7C5B
330
7B02
100
AcDbEntity
  8
DEFPOINTS
 62
     0
100
AcDbPoint
 10
29155.95948800288
 20
28796.19372962319
 30
0.0
  0
ENDBLK
  5
7B0E
330
7B02
100
AcDbEntity
  8
0
100
AcDbBlockEnd
  0
BLOCK
  5
7B46
330
7B3B
100
AcDbEntity
  8
0
100
AcDbBlockBegin
  2
*D52
 70
     1
 10
0.0
 20
0.0
 30
0.0
  3
*D52
  1

  0
LINE
  5
7C5C
330
7B3B
100
AcDbEntity
  8
D-STR-DIM
 62
     0
370
    -2
100
AcDbLine
 10
34556.79669558683
 20
28140.97477423552
 30
0.0
 11
34556.79669558683
 21
28403.05060950291
 31
0.0
  0
LINE
  5
7C5D
330
7B3B
100
AcDbEntity
  8
D-STR-DIM
 62
     0
370
    -2
100
AcDbLine
 10
34656.7966955868
 20
28140.97477423552
 30
0.0
 11
34656.7966955868
 21
28403.05060950291
 31
0.0
  0
LINE
  5
7C5E
330
7B3B
100
AcDbEntity
  8
D-STR-DIM
 62
     0
370
    -2
100
AcDbLine
 10
34471.79669558683
 20
28378.05060950291
 30
0.0
 11
34386.79669558683
 21
28378.05060950291
 31
0.0
  0
LINE
  5
7C5F
330
7B3B
100
AcDbEntity
  8
D-STR-DIM
 62
     0
370
    -2
100
AcDbLine
 10
34741.7966955868
 20
28378.05060950291
 30
0.0
 11
34826.7966955868
 21
28378.05060950291
 31
0.0
  0
INSERT
  5
7C60
330
7B3B
100
AcDbEntity
  8
D-STR-DIM
 62
     0
370
    -2
100
AcDbBlockReference
  2
_Open30
 10
34556.79669558683
 20
28378.05060950291
 30
0.0
 41
85.0
 42
85.0
 43
85.0
  0
INSERT
  5
7C61
330
7B3B
100
AcDbEntity
  8
D-STR-DIM
 62
     0
370
    -2
100
AcDbBlockReference
  2
_Open30
 10
34656.7966955868
 20
28378.05060950291
 30
0.0
 41
85.0
 42
85.0
 43
85.0
 50
180.0
  0
MTEXT
  5
7C62
330
7B3B
100
AcDbEntity
  8
D-STR-DIM
 62
     0
100
AcDbMText
 10
34606.79669558681
 20
28493.05060950291
 30
0.0
 40
150.0
 41
0.0
 71
     5
 72
     1
  1
\A1;100
  7
ＭＳ ゴシック
 73
     1
 44
1.0
  0
POINT
  5
7C63
330
7B3B
100
AcDbEntity
  8
DEFPOINTS
 62
     0
100
AcDbPoint
 10
34556.79669558683
 20
28065.97477423552
 30
0.0
  0
POINT
  5
7C64
330
7B3B
100
AcDbEntity
  8
DEFPOINTS
 62
     0
100
AcDbPoint
 10
34656.7966955868
 20
28065.97477423552
 30
0.0
  0
POINT
  5
7C65
330
7B3B
100
AcDbEntity
  8
DEFPOINTS
 62
     0
100
AcDbPoint
 10
34656.7966955868
 20
28378.05060950291
 30
0.0
  0
ENDBLK
  5
7B47
330
7B3B
100
AcDbEntity
  8
0
100
AcDbBlockEnd
  0
BLOCK
  5
7CBA
330
7CB0
100
AcDbEntity
  8
0
100
AcDbBlockBegin
  2
*D53
 70
     1
 10
0.0
 20
0.0
 30
0.0
  3
*D53
  1

  0
LINE
  5
7D9E
330
7CB0
100
AcDbEntity
  8
D-STR-DIM
 62
     0
370
    -2
100
AcDbLine
 10
29297.1788191805
 20
21987.85928751897
 30
0.0
 11
28859.77245361868
 21
22206.56247029987
 31
0.0
  0
LINE
  5
7D9F
330
7CB0
100
AcDbEntity
  8
D-STR-DIM
 62
     0
370
    -2
100
AcDbLine
 10
29520.78561693047
 20
22435.07288301893
 30
0.0
 11
29083.37925136866
 21
22653.77606579983
 31
0.0
  0
LINE
  5
7DA0
330
7CB0
100
AcDbEntity
  8
D-STR-DIM
 62
     0
370
    -2
100
AcDbLine
 10
28920.14628901118
 20
22271.40844164737
 30
0.0
 11
29067.72677552616
 21
22566.56941467734
 31
0.0
  0
INSERT
  5
7DA1
330
7CB0
100
AcDbEntity
  8
D-STR-DIM
 62
     0
370
    -2
100
AcDbBlockReference
  2
_Open30
 10
28882.13313339368
 20
22195.38213041237
 30
0.0
 41
85.0
 42
85.0
 43
85.0
 50
243.4349488229224
  0
INSERT
  5
7DA2
330
7CB0
100
AcDbEntity
  8
D-STR-DIM
 62
     0
370
    -2
100
AcDbBlockReference
  2
_Open30
 10
29105.73993114366
 20
22642.59572591234
 30
0.0
 41
85.0
 42
85.0
 43
85.0
 50
63.43494882292239
  0
MTEXT
  5
7DA3
330
7CB0
100
AcDbEntity
  8
D-STR-DIM
 62
     0
100
AcDbMText
 10
28891.07740530368
 20
22470.41849164485
 30
0.0
 40
150.0
 41
0.0
 71
     5
 72
     1
  1
\A1;500
  7
ＭＳ ゴシック
 11
0.447213595499952
 21
0.8944271909999189
 31
0.0
 73
     1
 44
1.0
  0
POINT
  5
7DA4
330
7CB0
100
AcDbEntity
  8
DEFPOINTS
 62
     0
100
AcDbPoint
 10
29364.26085850549
 20
21954.31826785647
 30
0.0
  0
POINT
  5
7DA5
330
7CB0
100
AcDbEntity
  8
DEFPOINTS
 62
     0
100
AcDbPoint
 10
29587.86765625547
 20
22401.53186335643
 30
0.0
  0
POINT
  5
7DA6
330
7CB0
100
AcDbEntity
  8
DEFPOINTS
 62
     0
100
AcDbPoint
 10
29105.73993114366
 20
22642.59572591234
 30
0.0
  0
ENDBLK
  5
7CBB
330
7CB0
100
AcDbEntity
  8
0
100
AcDbBlockEnd
  0
BLOCK
  5
7CC6
330
7CBC
100
AcDbEntity
  8
0
100
AcDbBlockBegin
  2
*D54
 70
     1
 10
0.0
 20
0.0
 30
0.0
  3
*D54
  1

  0
LINE
  5
7DA7
330
7CBC
100
AcDbEntity
  8
D-STR-DIM
 62
     0
370
    -2
100
AcDbLine
 10
29520.78561693047
 20
22435.07288301894
 30
0.0
 11
29083.37925136868
 21
22653.77606579984
 31
0.0
  0
LINE
  5
7DA8
330
7CBC
100
AcDbEntity
  8
D-STR-DIM
 62
     0
370
    -2
100
AcDbLine
 10
29744.39241468045
 20
22882.2864785189
 30
0.0
 11
29306.98604911866
 21
23100.9896612998
 31
0.0
  0
LINE
  5
7DA9
330
7CBC
100
AcDbEntity
  8
D-STR-DIM
 62
     0
370
    -2
100
AcDbLine
 10
29143.75308676117
 20
22718.62203714733
 30
0.0
 11
29291.33357327616
 21
23013.78301017731
 31
0.0
  0
INSERT
  5
7DAA
330
7CBC
100
AcDbEntity
  8
D-STR-DIM
 62
     0
370
    -2
100
AcDbBlockReference
  2
_Open30
 10
29105.73993114367
 20
22642.59572591234
 30
0.0
 41
85.0
 42
85.0
 43
85.0
 50
243.4349488229224
  0
INSERT
  5
7DAB
330
7CBC
100
AcDbEntity
  8
D-STR-DIM
 62
     0
370
    -2
100
AcDbBlockReference
  2
_Open30
 10
29329.34672889365
 20
23089.8093214123
 30
0.0
 41
85.0
 42
85.0
 43
85.0
 50
63.43494882292239
  0
MTEXT
  5
7DAC
330
7CBC
100
AcDbEntity
  8
D-STR-DIM
 62
     0
100
AcDbMText
 10
29114.68420305367
 20
22917.63208714482
 30
0.0
 40
150.0
 41
0.0
 71
     5
 72
     1
  1
\A1;500
  7
ＭＳ ゴシック
 11
0.447213595499952
 21
0.8944271909999189
 31
0.0
 73
     1
 44
1.0
  0
POINT
  5
7DAD
330
7CBC
100
AcDbEntity
  8
DEFPOINTS
 62
     0
100
AcDbPoint
 10
29587.86765625546
 20
22401.53186335645
 30
0.0
  0
POINT
  5
7DAE
330
7CBC
100
AcDbEntity
  8
DEFPOINTS
 62
     0
100
AcDbPoint
 10
29811.47445400544
 20
22848.74545885641
 30
0.0
  0
POINT
  5
7DAF
330
7CBC
100
AcDbEntity
  8
DEFPOINTS
 62
     0
100
AcDbPoint
 10
29329.34672889365
 20
23089.8093214123
 30
0.0
  0
ENDBLK
  5
7CC7
330
7CBC
100
AcDbEntity
  8
0
100
AcDbBlockEnd
  0
BLOCK
  5
7CD2
330
7CC8
100
AcDbEntity
  8
0
100
AcDbBlockBegin
  2
*D55
 70
     1
 10
0.0
 20
0.0
 30
0.0
  3
*D55
  1

  0
LINE
  5
7DB0
330
7CC8
100
AcDbEntity
  8
D-STR-DIM
 62
     0
370
    -2
100
AcDbLine
 10
29744.39241468044
 20
22882.28647851891
 30
0.0
 11
29306.98604911864
 21
23100.98966129981
 31
0.0
  0
LINE
  5
7DB1
330
7CC8
100
AcDbEntity
  8
D-STR-DIM
 62
     0
370
    -2
100
AcDbLine
 10
29967.99921243042
 20
23329.50007401887
 30
0.0
 11
29530.59284686861
 21
23548.20325679977
 31
0.0
  0
LINE
  5
7DB2
330
7CC8
100
AcDbEntity
  8
D-STR-DIM
 62
     0
370
    -2
100
AcDbLine
 10
29367.35988451113
 20
23165.8356326473
 30
0.0
 11
29514.94037102612
 21
23460.99660567728
 31
0.0
  0
INSERT
  5
7DB3
330
7CC8
100
AcDbEntity
  8
D-STR-DIM
 62
     0
370
    -2
100
AcDbBlockReference
  2
_Open30
 10
29329.34672889364
 20
23089.80932141231
 30
0.0
 41
85.0
 42
85.0
 43
85.0
 50
243.4349488229224
  0
INSERT
  5
7DB4
330
7CC8
100
AcDbEntity
  8
D-STR-DIM
 62
     0
370
    -2
100
AcDbBlockReference
  2
_Open30
 10
29552.95352664361
 20
23537.02291691227
 30
0.0
 41
85.0
 42
85.0
 43
85.0
 50
63.43494882292239
  0
MTEXT
  5
7DB5
330
7CC8
100
AcDbEntity
  8
D-STR-DIM
 62
     0
100
AcDbMText
 10
29338.29100080363
 20
23364.84568264479
 30
0.0
 40
150.0
 41
0.0
 71
     5
 72
     1
  1
\A1;500
  7
ＭＳ ゴシック
 11
0.447213595499952
 21
0.8944271909999189
 31
0.0
 73
     1
 44
1.0
  0
POINT
  5
7DB6
330
7CC8
100
AcDbEntity
  8
DEFPOINTS
 62
     0
100
AcDbPoint
 10
29811.47445400544
 20
22848.74545885641
 30
0.0
  0
POINT
  5
7DB7
330
7CC8
100
AcDbEntity
  8
DEFPOINTS
 62
     0
100
AcDbPoint
 10
30035.08125175541
 20
23295.95905435637
 30
0.0
  0
POINT
  5
7DB8
330
7CC8
100
AcDbEntity
  8
DEFPOINTS
 62
     0
100
AcDbPoint
 10
29552.95352664361
 20
23537.02291691227
 30
0.0
  0
ENDBLK
  5
7CD3
330
7CC8
100
AcDbEntity
  8
0
100
AcDbBlockEnd
  0
BLOCK
  5
7CDE
330
7CD4
100
AcDbEntity
  8
0
100
AcDbBlockBegin
  2
*D56
 70
     1
 10
0.0
 20
0.0
 30
0.0
  3
*D56
  1

  0
LINE
  5
7E97
330
7CD4
100
AcDbEntity
  8
D-STR-DIM
 62
     0
370
    -2
100
AcDbLine
 10
28965.65406075551
 20
21507.1046723565
 30
0.0
 11
28432.46085632164
 21
21507.1046723565
 31
0.0
  0
LINE
  5
7E98
330
7CD4
100
AcDbEntity
  8
D-STR-DIM
 62
     0
370
    -2
100
AcDbLine
 10
30904.50844275521
 20
25184.81343635613
 30
0.0
 11
28432.46085632164
 21
25184.81343635613
 31
0.0
  0
LINE
  5
7E99
330
7CD4
100
AcDbEntity
  8
D-STR-DIM
 62
     0
370
    -2
100
AcDbLine
 10
28457.46085632164
 20
21592.1046723565
 30
0.0
 11
28457.46085632164
 21
25099.81343635613
 31
0.0
  0
INSERT
  5
7E9A
330
7CD4
100
AcDbEntity
  8
D-STR-DIM
 62
     0
370
    -2
100
AcDbBlockReference
  2
_Open30
 10
28457.46085632164
 20
21507.1046723565
 30
0.0
 41
85.0
 42
85.0
 43
85.0
 50
270.0
  0
INSERT
  5
7E9B
330
7CD4
100
AcDbEntity
  8
D-STR-DIM
 62
     0
370
    -2
100
AcDbBlockReference
  2
_Open30
 10
28457.46085632164
 20
25184.81343635613
 30
0.0
 41
85.0
 42
85.0
 43
85.0
 50
90.0
  0
MTEXT
  5
7E9C
330
7CD4
100
AcDbEntity
  8
D-STR-DIM
 62
     0
100
AcDbMText
 10
28342.46085632163
 20
23345.95905435632
 30
0.0
 40
150.0
 41
0.0
 71
     5
 72
     1
  1
\A1;H
  7
ＭＳ ゴシック
 11
6.123031769111886E-17
 21
1.0
 31
0.0
 73
     1
 44
1.0
  0
POINT
  5
7E9D
330
7CD4
100
AcDbEntity
  8
DEFPOINTS
 62
     0
100
AcDbPoint
 10
29040.65406075551
 20
21507.1046723565
 30
0.0
  0
POINT
  5
7E9E
330
7CD4
100
AcDbEntity
  8
DEFPOINTS
 62
     0
100
AcDbPoint
 10
30979.50844275521
 20
25184.81343635613
 30
0.0
  0
POINT
  5
7E9F
330
7CD4
100
AcDbEntity
  8
DEFPOINTS
 62
     0
100
AcDbPoint
 10
28457.46085632164
 20
25184.81343635613
 30
0.0
  0
ENDBLK
  5
7CDF
330
7CD4
100
AcDbEntity
  8
0
100
AcDbBlockEnd
  0
BLOCK
  5
7CEB
330
7CE0
100
AcDbEntity
  8
0
100
AcDbBlockBegin
  2
*D57
 70
     1
 10
0.0
 20
0.0
 30
0.0
  3
*D57
  1

  0
LINE
  5
7E05
330
7CE0
100
AcDbEntity
  8
D-STR-DIM
 62
     0
370
    -2
100
AcDbLine
 10
30904.50844275521
 20
25184.81343635613
 30
0.0
 11
30202.39639177875
 21
25184.81343635613
 31
0.0
  0
LINE
  5
7E06
330
7CE0
100
AcDbEntity
  8
D-STR-DIM
 62
     0
370
    -2
100
AcDbLine
 10
30854.50844275521
 20
25084.81343635613
 30
0.0
 11
30202.39639177875
 21
25084.81343635613
 31
0.0
  0
LINE
  5
7E07
330
7CE0
100
AcDbEntity
  8
D-STR-DIM
 62
     0
370
    -2
100
AcDbLine
 10
30227.39639177875
 20
25269.81343635613
 30
0.0
 11
30227.39639177875
 21
25354.81343635613
 31
0.0
  0
LINE
  5
7E08
330
7CE0
100
AcDbEntity
  8
D-STR-DIM
 62
     0
370
    -2
100
AcDbLine
 10
30227.39639177875
 20
24999.81343635613
 30
0.0
 11
30227.39639177875
 21
24914.81343635613
 31
0.0
  0
INSERT
  5
7E09
330
7CE0
100
AcDbEntity
  8
D-STR-DIM
 62
     0
370
    -2
100
AcDbBlockReference
  2
_Open30
 10
30227.39639177875
 20
25184.81343635613
 30
0.0
 41
85.0
 42
85.0
 43
85.0
 50
270.0
  0
INSERT
  5
7E0A
330
7CE0
100
AcDbEntity
  8
D-STR-DIM
 62
     0
370
    -2
100
AcDbBlockReference
  2
_Open30
 10
30227.39639177875
 20
25084.81343635613
 30
0.0
 41
85.0
 42
85.0
 43
85.0
 50
90.0
  0
MTEXT
  5
7E0B
330
7CE0
100
AcDbEntity
  8
D-STR-DIM
 62
     0
100
AcDbMText
 10
30112.39639177874
 20
25134.81343635614
 30
0.0
 40
150.0
 41
0.0
 71
     5
 72
     1
  1
\A1;100
  7
ＭＳ ゴシック
 11
6.123031769111886E-17
 21
1.0
 31
0.0
 73
     1
 44
1.0
  0
POINT
  5
7E0C
330
7CE0
100
AcDbEntity
  8
DEFPOINTS
 62
     0
100
AcDbPoint
 10
30979.50844275521
 20
25184.81343635613
 30
0.0
  0
POINT
  5
7E0D
330
7CE0
100
AcDbEntity
  8
DEFPOINTS
 62
     0
100
AcDbPoint
 10
30929.50844275521
 20
25084.81343635613
 30
0.0
  0
POINT
  5
7E0E
330
7CE0
100
AcDbEntity
  8
DEFPOINTS
 62
     0
100
AcDbPoint
 10
30227.39639177875
 20
25084.81343635613
 30
0.0
  0
ENDBLK
  5
7CEC
330
7CE0
100
AcDbEntity
  8
0
100
AcDbBlockEnd
  0
BLOCK
  5
7CF7
330
7CED
100
AcDbEntity
  8
0
100
AcDbBlockBegin
  2
*D58
 70
     1
 10
0.0
 20
0.0
 30
0.0
  3
*D58
  1

  0
LINE
  5
7EB9
330
7CED
100
AcDbEntity
  8
D-STR-TXT
 62
     0
370
    -2
100
AcDbLine
 10
28915.65406075551
 20
21157.1046723565
 30
0.0
 11
28432.46085632164
 21
21157.1046723565
 31
0.0
  0
LINE
  5
7EBA
330
7CED
100
AcDbEntity
  8
D-STR-TXT
 62
     0
370
    -2
100
AcDbLine
 10
28965.65406075551
 20
21507.1046723565
 30
0.0
 11
28432.46085632164
 21
21507.1046723565
 31
0.0
  0
LINE
  5
7EBB
330
7CED
100
AcDbEntity
  8
D-STR-TXT
 62
     0
370
    -2
100
AcDbLine
 10
28457.46085632164
 20
21242.1046723565
 30
0.0
 11
28457.46085632164
 21
21422.1046723565
 31
0.0
  0
MTEXT
  5
7EBC
330
7CED
100
AcDbEntity
  8
D-STR-TXT
 62
     0
100
AcDbMText
 10
28342.46085632163
 20
21357.10467235651
 30
0.0
 40
150.0
 41
0.0
 71
     5
 72
     1
  1
\A1;350
  7
ＭＳ ゴシック
 11
6.123031769111886E-17
 21
1.0
 31
0.0
 73
     1
 44
1.0
  0
INSERT
  5
7EBD
330
7CED
100
AcDbEntity
  8
D-STR-TXT
 62
     0
370
    -2
100
AcDbBlockReference
  2
_Open30
 10
28457.46085632164
 20
21157.1046723565
 30
0.0
 41
85.0
 42
85.0
 43
85.0
 50
270.0
  0
INSERT
  5
7EBE
330
7CED
100
AcDbEntity
  8
D-STR-TXT
 62
     0
370
    -2
100
AcDbBlockReference
  2
_Open30
 10
28457.46085632164
 20
21507.1046723565
 30
0.0
 41
85.0
 42
85.0
 43
85.0
 50
90.0
  0
POINT
  5
7EBF
330
7CED
100
AcDbEntity
  8
DEFPOINTS
 62
     0
100
AcDbPoint
 10
28990.65406075551
 20
21157.1046723565
 30
0.0
  0
POINT
  5
7EC0
330
7CED
100
AcDbEntity
  8
DEFPOINTS
 62
     0
100
AcDbPoint
 10
29040.65406075551
 20
21507.1046723565
 30
0.0
  0
POINT
  5
7EC1
330
7CED
100
AcDbEntity
  8
DEFPOINTS
 62
     0
100
AcDbPoint
 10
28457.46085632164
 20
21507.1046723565
 30
0.0
  0
ENDBLK
  5
7CF8
330
7CED
100
AcDbEntity
  8
0
100
AcDbBlockEnd
  0
BLOCK
  5
7D03
330
7CF9
100
AcDbEntity
  8
0
100
AcDbBlockBegin
  2
*D59
 70
     1
 10
0.0
 20
0.0
 30
0.0
  3
*D59
  1

  0
LINE
  5
7ECB
330
7CF9
100
AcDbEntity
  8
D-STR-TXT
 62
     0
370
    -2
100
AcDbLine
 10
29040.65406075551
 20
21082.10467235651
 30
0.0
 11
29040.65406075551
 21
20499.97954238306
 31
0.0
  0
LINE
  5
7ECC
330
7CF9
100
AcDbEntity
  8
D-STR-TXT
 62
     0
370
    -2
100
AcDbLine
 10
29690.65406075551
 20
21082.10467235649
 30
0.0
 11
29690.65406075551
 21
20499.97954238306
 31
0.0
  0
LINE
  5
7ECD
330
7CF9
100
AcDbEntity
  8
D-STR-TXT
 62
     0
370
    -2
100
AcDbLine
 10
29125.65406075551
 20
20524.97954238306
 30
0.0
 11
29605.65406075551
 21
20524.97954238306
 31
0.0
  0
INSERT
  5
7ECE
330
7CF9
100
AcDbEntity
  8
D-STR-TXT
 62
     0
370
    -2
100
AcDbBlockReference
  2
_Open30
 10
29040.65406075551
 20
20524.97954238306
 30
0.0
 41
85.0
 42
85.0
 43
85.0
 50
180.0
  0
INSERT
  5
7ECF
330
7CF9
100
AcDbEntity
  8
D-STR-TXT
 62
     0
370
    -2
100
AcDbBlockReference
  2
_Open30
 10
29690.65406075551
 20
20524.97954238306
 30
0.0
 41
85.0
 42
85.0
 43
85.0
  0
MTEXT
  5
7ED0
330
7CF9
100
AcDbEntity
  8
D-STR-TXT
 62
     0
100
AcDbMText
 10
29365.65406075551
 20
20639.97954238306
 30
0.0
 40
150.0
 41
0.0
 71
     5
 72
     1
  1
\A1;650
  7
ＭＳ ゴシック
 73
     1
 44
1.0
  0
POINT
  5
7ED1
330
7CF9
100
AcDbEntity
  8
DEFPOINTS
 62
     0
100
AcDbPoint
 10
29040.65406075551
 20
21157.10467235651
 30
0.0
  0
POINT
  5
7ED2
330
7CF9
100
AcDbEntity
  8
DEFPOINTS
 62
     0
100
AcDbPoint
 10
29690.65406075551
 20
21157.10467235649
 30
0.0
  0
POINT
  5
7ED3
330
7CF9
100
AcDbEntity
  8
DEFPOINTS
 62
     0
100
AcDbPoint
 10
29690.65406075551
 20
20524.97954238306
 30
0.0
  0
ENDBLK
  5
7D04
330
7CF9
100
AcDbEntity
  8
0
100
AcDbBlockEnd
  0
BLOCK
  5
7D0F
330
7D05
100
AcDbEntity
  8
0
100
AcDbBlockBegin
  2
*D60
 70
     1
 10
0.0
 20
0.0
 30
0.0
  3
*D60
  1

  0
LINE
  5
7E66
330
7D05
100
AcDbEntity
  8
D-STR-DIM
 62
     0
370
    -2
100
AcDbLine
 10
31522.0664567926
 20
25151.89547568115
 30
0.0
 11
31733.12610559225
 21
25574.0147732813
 31
0.0
  0
LINE
  5
7E67
330
7D05
100
AcDbEntity
  8
D-STR-DIM
 62
     0
370
    -2
100
AcDbLine
 10
31857.47665341757
 20
25151.89547568114
 30
0.0
 11
32001.45426289245
 21
25439.85069463147
 31
0.0
  0
LINE
  5
7E68
330
7D05
100
AcDbEntity
  8
D-STR-DIM
 62
     0
370
    -2
100
AcDbLine
 10
31797.97207693979
 20
25513.64093788885
 30
0.0
 11
31914.24761176994
 21
25455.50317047389
 31
0.0
  0
MTEXT
  5
7E69
330
7D05
100
AcDbEntity
  8
D-STR-DIM
 62
     0
100
AcDbMText
 10
31907.53940783727
 20
25587.43118114641
 30
0.0
 40
150.0
 41
0.0
 71
     5
 72
     1
  1
\A1;300
  7
ＭＳ ゴシック
 11
0.8944271910002741
 21
-0.4472135954992414
 31
0.0
 73
     1
 44
1.0
  0
INSERT
  5
7E6A
330
7D05
100
AcDbEntity
  8
D-STR-DIM
 62
     0
370
    -2
100
AcDbBlockReference
  2
_Open30
 10
31721.94576570477
 20
25551.65409350629
 30
0.0
 41
85.0
 42
85.0
 43
85.0
 50
153.4349488229679
  0
INSERT
  5
7E6B
330
7D05
100
AcDbEntity
  8
D-STR-DIM
 62
     0
370
    -2
100
AcDbBlockReference
  2
_Open30
 10
31990.27392300496
 20
25417.49001485646
 30
0.0
 41
85.0
 42
85.0
 43
85.0
 50
333.4349488229679
  0
POINT
  5
7E6C
330
7D05
100
AcDbEntity
  8
DEFPOINTS
 62
     0
100
AcDbPoint
 10
31488.52543713016
 20
25084.81343635613
 30
0.0
  0
POINT
  5
7E6D
330
7D05
100
AcDbEntity
  8
DEFPOINTS
 62
     0
100
AcDbPoint
 10
31823.93563375513
 20
25084.81343635613
 30
0.0
  0
POINT
  5
7E6E
330
7D05
100
AcDbEntity
  8
DEFPOINTS
 62
     0
100
AcDbPoint
 10
31990.27392300496
 20
25417.49001485646
 30
0.0
  0
ENDBLK
  5
7D10
330
7D05
100
AcDbEntity
  8
0
100
AcDbBlockEnd
  0
BLOCK
  5
7D1C
330
7D11
100
AcDbEntity
  8
0
100
AcDbBlockBegin
  2
*D61
 70
     1
 10
0.0
 20
0.0
 30
0.0
  3
*D61
  1

  0
LINE
  5
7E8D
330
7D11
100
AcDbEntity
  8
D-STR-DIM
 62
     0
370
    -2
100
AcDbLine
 10
31522.06645679261
 20
25151.89547568116
 30
0.0
 11
31733.12610559226
 21
25574.01477328129
 31
0.0
  0
LINE
  5
7E8E
330
7D11
100
AcDbEntity
  8
D-STR-DIM
 62
     0
370
    -2
100
AcDbLine
 10
31343.18101859264
 20
25129.53479590614
 30
0.0
 11
31598.96202694216
 21
25641.09681260621
 31
0.0
  0
LINE
  5
7E8F
330
7D11
100
AcDbEntity
  8
D-STR-DIM
 62
     0
370
    -2
100
AcDbLine
 10
31797.9720769398
 20
25513.64093788885
 30
0.0
 11
31873.99838817483
 21
25475.62778227141
 31
0.0
  0
LINE
  5
7E90
330
7D11
100
AcDbEntity
  8
D-STR-DIM
 62
     0
370
    -2
100
AcDbLine
 10
31511.75537581966
 20
25656.74928844863
 30
0.0
 11
31435.72906458463
 21
25694.76244406607
 31
0.0
  0
MTEXT
  5
7E91
330
7D11
100
AcDbEntity
  8
D-STR-DIM
 62
     0
100
AcDbMText
 10
31596.07599490589
 20
25491.69099157891
 30
0.0
 40
150.0
 41
0.0
 71
     5
 72
     1
  1
\A1;150
  7
ＭＳ ゴシック
 11
0.8944271910002738
 21
-0.4472135954992422
 31
0.0
 73
     1
 44
1.0
  0
INSERT
  5
7E92
330
7D11
100
AcDbEntity
  8
D-STR-DIM
 62
     0
370
    -2
100
AcDbBlockReference
  2
_Open30
 10
31721.94576570478
 20
25551.65409350628
 30
0.0
 41
85.0
 42
85.0
 43
85.0
 50
153.4349488229679
  0
INSERT
  5
7E93
330
7D11
100
AcDbEntity
  8
D-STR-DIM
 62
     0
370
    -2
100
AcDbBlockReference
  2
_Open30
 10
31587.78168705468
 20
25618.7361328312
 30
0.0
 41
85.0
 42
85.0
 43
85.0
 50
333.4349488229678
  0
POINT
  5
7E94
330
7D11
100
AcDbEntity
  8
DEFPOINTS
 62
     0
100
AcDbPoint
 10
31488.52543713017
 20
25084.81343635614
 30
0.0
  0
POINT
  5
7E95
330
7D11
100
AcDbEntity
  8
DEFPOINTS
 62
     0
100
AcDbPoint
 10
31309.6399989302
 20
25062.45275658112
 30
0.0
  0
POINT
  5
7E96
330
7D11
100
AcDbEntity
  8
DEFPOINTS
 62
     0
100
AcDbPoint
 10
31587.78168705468
 20
25618.7361328312
 30
0.0
  0
ENDBLK
  5
7D1D
330
7D11
100
AcDbEntity
  8
0
100
AcDbBlockEnd
  0
BLOCK
  5
7D28
330
7D1E
100
AcDbEntity
  8
0
100
AcDbBlockBegin
  2
*D62
 70
     1
 10
0.0
 20
0.0
 30
0.0
  3
*D62
  1

  0
LINE
  5
7E22
330
7D1E
100
AcDbEntity
  8
D-STR-DIM
 62
     0
370
    -2
100
AcDbLine
 10
31343.18101859264
 20
25129.53479590614
 30
0.0
 11
31598.96202694228
 21
25641.09681260644
 31
0.0
  0
LINE
  5
7E23
330
7D1E
100
AcDbEntity
  8
D-STR-DIM
 62
     0
370
    -2
100
AcDbLine
 10
31013.04946241766
 20
25251.89547568115
 30
0.0
 11
31285.91251009214
 21
25797.6215710312
 31
0.0
  0
LINE
  5
7E24
330
7D1E
100
AcDbEntity
  8
D-STR-DIM
 62
     0
370
    -2
100
AcDbLine
 10
31511.75537581977
 20
25656.74928844887
 30
0.0
 11
31350.75848143968
 21
25737.24773563875
 31
0.0
  0
MTEXT
  5
7E25
330
7D1E
100
AcDbEntity
  8
D-STR-DIM
 62
     0
100
AcDbMText
 10
31482.6864921126
 20
25799.85763900847
 30
0.0
 40
150.0
 41
0.0
 71
     5
 72
     1
  1
\A1;350
  7
ＭＳ ゴシック
 11
0.8944271910002738
 21
-0.4472135954992422
 31
0.0
 73
     1
 44
1.0
  0
INSERT
  5
7E26
330
7D1E
100
AcDbEntity
  8
D-STR-DIM
 62
     0
370
    -2
100
AcDbBlockReference
  2
_Open30
 10
31587.7816870548
 20
25618.73613283143
 30
0.0
 41
85.0
 42
85.0
 43
85.0
 50
333.4349488229678
  0
INSERT
  5
7E27
330
7D1E
100
AcDbEntity
  8
D-STR-DIM
 62
     0
370
    -2
100
AcDbBlockReference
  2
_Open30
 10
31274.73217020465
 20
25775.26089125619
 30
0.0
 41
85.0
 42
85.0
 43
85.0
 50
153.4349488229679
  0
POINT
  5
7E28
330
7D1E
100
AcDbEntity
  8
DEFPOINTS
 62
     0
100
AcDbPoint
 10
31309.6399989302
 20
25062.45275658112
 30
0.0
  0
POINT
  5
7E29
330
7D1E
100
AcDbEntity
  8
DEFPOINTS
 62
     0
100
AcDbPoint
 10
30979.50844275521
 20
25184.81343635613
 30
0.0
  0
POINT
  5
7E2A
330
7D1E
100
AcDbEntity
  8
DEFPOINTS
 62
     0
100
AcDbPoint
 10
31274.73217020465
 20
25775.26089125619
 30
0.0
  0
ENDBLK
  5
7D29
330
7D1E
100
AcDbEntity
  8
0
100
AcDbBlockEnd
  0
BLOCK
  5
7D35
330
7D2A
100
AcDbEntity
  8
0
100
AcDbBlockBegin
  2
*D63
 70
     1
 10
0.0
 20
0.0
 30
0.0
  3
*D63
  1

  0
LINE
  5
7DFA
330
7D2A
100
AcDbEntity
  8
D-STR-DIM
 62
     0
370
    -2
100
AcDbLine
 10
29040.65406075551
 20
21582.1046723565
 30
0.0
 11
29040.65406075551
 21
21844.1805076239
 31
0.0
  0
LINE
  5
7DFB
330
7D2A
100
AcDbEntity
  8
D-STR-DIM
 62
     0
370
    -2
100
AcDbLine
 10
29140.65406075549
 20
21582.1046723565
 30
0.0
 11
29140.65406075549
 21
21844.1805076239
 31
0.0
  0
LINE
  5
7DFC
330
7D2A
100
AcDbEntity
  8
D-STR-DIM
 62
     0
370
    -2
100
AcDbLine
 10
28955.65406075551
 20
21819.1805076239
 30
0.0
 11
28870.65406075551
 21
21819.1805076239
 31
0.0
  0
LINE
  5
7DFD
330
7D2A
100
AcDbEntity
  8
D-STR-DIM
 62
     0
370
    -2
100
AcDbLine
 10
29225.65406075549
 20
21819.1805076239
 30
0.0
 11
29310.65406075549
 21
21819.1805076239
 31
0.0
  0
INSERT
  5
7DFE
330
7D2A
100
AcDbEntity
  8
D-STR-DIM
 62
     0
370
    -2
100
AcDbBlockReference
  2
_Open30
 10
29040.65406075551
 20
21819.1805076239
 30
0.0
 41
85.0
 42
85.0
 43
85.0
  0
INSERT
  5
7DFF
330
7D2A
100
AcDbEntity
  8
D-STR-DIM
 62
     0
370
    -2
100
AcDbBlockReference
  2
_Open30
 10
29140.65406075549
 20
21819.1805076239
 30
0.0
 41
85.0
 42
85.0
 43
85.0
 50
180.0
  0
MTEXT
  5
7E00
330
7D2A
100
AcDbEntity
  8
D-STR-DIM
 62
     0
100
AcDbMText
 10
29090.6540607555
 20
21934.1805076239
 30
0.0
 40
150.0
 41
0.0
 71
     5
 72
     1
  1
\A1;100
  7
ＭＳ ゴシック
 73
     1
 44
1.0
  0
POINT
  5
7E01
330
7D2A
100
AcDbEntity
  8
DEFPOINTS
 62
     0
100
AcDbPoint
 10
29040.65406075551
 20
21507.1046723565
 30
0.0
  0
POINT
  5
7E02
330
7D2A
100
AcDbEntity
  8
DEFPOINTS
 62
     0
100
AcDbPoint
 10
29140.65406075549
 20
21507.1046723565
 30
0.0
  0
POINT
  5
7E03
330
7D2A
100
AcDbEntity
  8
DEFPOINTS
 62
     0
100
AcDbPoint
 10
29140.65406075549
 20
21819.1805076239
 30
0.0
  0
ENDBLK
  5
7D36
330
7D2A
100
AcDbEntity
  8
0
100
AcDbBlockEnd
  0
ENDSEC
  0
SECTION
  2
ENTITIES
  0
TEXT
  5
73
330
17
100
AcDbEntity
  8
D-STR
100
AcDbText
 10
57301.49202538158
 20
31087.05882352942
 30
0.0
 40
300.0
  1
　
100
AcDbText
  0
TEXT
  5
6C27
330
17
100
AcDbEntity
  8
0
100
AcDbText
 10
38622.79736487872
 20
19554.06125142024
 30
0.0
 40
125.0
  1
新和コンクリート工業株式会社
100
AcDbText
  0
TEXT
  5
6C28
330
17
100
AcDbEntity
  8
0
100
AcDbText
 10
39693.63069821205
 20
19866.56125142024
 30
0.0
 40
125.0
  1
製図
 72
     4
 11
39822.79736487872
 21
19929.06125142024
 31
0.0
100
AcDbText
  0
TEXT
  5
6C29
330
17
100
AcDbEntity
  8
0
100
AcDbText
 10
39689.46403154538
 20
20116.56125142024
 30
0.0
 40
125.0
  1
設計
 72
     4
 11
39822.79736487872
 21
20179.06125142024
 31
0.0
100
AcDbText
  0
TEXT
  5
6C2A
330
17
100
AcDbEntity
  8
0
100
AcDbText
 10
38576.96403154538
 20
19866.56125142024
 30
0.0
 40
125.0
  1
認
 72
     4
 11
38635.29736487872
 21
19929.06125142024
 31
0.0
100
AcDbText
  0
TEXT
  5
6C2B
330
17
100
AcDbEntity
  8
0
100
AcDbText
 10
38576.96403154538
 20
20120.7279180869
 30
0.0
 40
125.0
  1
承
 72
     4
 11
38635.29736487872
 21
20179.06125142024
 31
0.0
100
AcDbText
  0
TEXT
  5
6C2C
330
17
100
AcDbEntity
  8
0
100
AcDbText
 10
37260.29736487872
 20
20141.56125142024
 30
0.0
 40
125.0
  1
図　面　番　号
 72
     4
 11
37772.79736487872
 21
20204.06125142024
 31
0.0
100
AcDbText
  0
TEXT
  5
6C2D
330
17
100
AcDbEntity
  8
0
100
AcDbText
 10
39722.79736487872
 20
20404.06125142024
 30
0.0
 40
125.0
  1
１／
100
AcDbText
  0
TEXT
  5
6C2E
330
17
100
AcDbEntity
  8
0
100
AcDbText
 10
38989.46403154538
 20
20366.56125142024
 30
0.0
 40
125.0
  1
縮　　尺
 72
     4
 11
39272.79736487872
 21
20429.06125142024
 31
0.0
100
AcDbText
  0
TEXT
  5
6C2F
330
17
100
AcDbEntity
  8
0
100
AcDbText
 10
38989.46403154538
 20
20616.56125142024
 30
0.0
 40
125.0
  1
鉄 筋 量
 72
     4
 11
39272.79736487872
 21
20679.06125142024
 31
0.0
100
AcDbText
  0
TEXT
  5
6C30
330
17
100
AcDbEntity
  8
0
100
AcDbText
 10
38989.46403154538
 20
20866.56125142024
 30
0.0
 40
125.0
  1
製 造 数
 72
     4
 11
39272.79736487872
 21
20929.06125142024
 31
0.0
100
AcDbText
  0
TEXT
  5
6C31
330
17
100
AcDbEntity
  8
0
100
AcDbText
 10
40472.79736487872
 20
20604.06125142024
 30
0.0
 40
125.0
  1
ｋｇ
 72
     2
 11
40722.79736487872
 21
20604.06125142024
 31
0.0
100
AcDbText
  0
TEXT
  5
6C32
330
17
100
AcDbEntity
  8
0
100
AcDbText
 10
38597.79736487872
 20
20604.06125142024
 30
0.0
 40
125.0
  1
ｋｇ
 72
     2
 11
38847.79736487872
 21
20604.06125142024
 31
0.0
100
AcDbText
  0
TEXT
  5
6C33
330
17
100
AcDbEntity
  8
0
100
AcDbText
 10
37122.79736487872
 20
20366.56125142024
 30
0.0
 40
125.0
  1
年 月 日
 72
     4
 11
37397.79736487872
 21
20429.06125142024
 31
0.0
100
AcDbText
  0
TEXT
  5
6C34
330
17
100
AcDbEntity
  8
0
100
AcDbText
 10
37114.46403154538
 20
20616.56125142024
 30
0.0
 40
125.0
  1
製品質量
 72
     4
 11
37397.79736487872
 21
20679.06125142024
 31
0.0
100
AcDbText
  0
TEXT
  5
6C35
330
17
100
AcDbEntity
  8
0
100
AcDbText
 10
37118.63069821205
 20
20866.56125142024
 30
0.0
 40
125.0
  1
業 者 名
 72
     4
 11
37397.79736487872
 21
20929.06125142024
 31
0.0
100
AcDbText
  0
TEXT
  5
6C36
330
17
100
AcDbEntity
  8
0
100
AcDbText
 10
37114.46403154538
 20
21179.06125142024
 30
0.0
 40
125.0
  1
名　　称
 72
     4
 11
37397.79736487872
 21
21241.56125142024
 31
0.0
100
AcDbText
  0
LINE
  5
6C37
330
17
100
AcDbEntity
  8
0
100
AcDbLine
 10
38522.79736487872
 20
20104.06125142024
 30
0.0
 11
37022.79736487872
 21
20104.06125142024
 31
0.0
  0
LINE
  5
6C38
330
17
100
AcDbEntity
  8
0
100
AcDbLine
 10
39997.79736487872
 20
19804.06125142024
 30
0.0
 11
39997.79736487872
 21
20304.06125142024
 31
0.0
  0
LINE
  5
6C39
330
17
100
AcDbEntity
  8
0
100
AcDbLine
 10
39647.79736487872
 20
19804.06125142024
 30
0.0
 11
39647.79736487872
 21
20304.06125142024
 31
0.0
  0
LINE
  5
6C3A
330
17
100
AcDbEntity
  8
0
100
AcDbLine
 10
38747.79736487872
 20
19804.06125142024
 30
0.0
 11
38747.79736487872
 21
20304.06125142024
 31
0.0
  0
LINE
  5
6C3B
330
17
100
AcDbEntity
  8
0
100
AcDbLine
 10
38522.79736487872
 20
19804.06125142024
 30
0.0
 11
38522.79736487872
 21
20304.06125142024
 31
0.0
  0
LINE
  5
6C3C
330
17
100
AcDbEntity
  8
0
100
AcDbLine
 10
37772.79736487872
 20
20304.06125142024
 30
0.0
 11
37772.79736487872
 21
21429.06125142024
 31
0.0
  0
LINE
  5
6C3D
330
17
100
AcDbEntity
  8
0
100
AcDbLine
 10
39647.79736487872
 20
20304.06125142024
 30
0.0
 11
39647.79736487872
 21
21054.06125142024
 31
0.0
  0
LINE
  5
6C3E
330
17
100
AcDbEntity
  8
0
100
AcDbLine
 10
38897.79736487872
 20
20304.06125142024
 30
0.0
 11
38897.79736487872
 21
21054.06125142024
 31
0.0
  0
LINE
  5
6C3F
330
17
100
AcDbEntity
  8
0
100
AcDbLine
 10
40772.79736487872
 20
21054.06125142024
 30
0.0
 11
37022.79736487872
 21
21054.06125142024
 31
0.0
  0
LINE
  5
6C40
330
17
100
AcDbEntity
  8
0
100
AcDbLine
 10
40772.79736487872
 20
20804.06125142024
 30
0.0
 11
37022.79736487872
 21
20804.06125142024
 31
0.0
  0
LINE
  5
6C41
330
17
100
AcDbEntity
  8
0
100
AcDbLine
 10
40772.79736487872
 20
20554.06125142024
 30
0.0
 11
37022.79736487872
 21
20554.06125142024
 31
0.0
  0
LINE
  5
6C42
330
17
100
AcDbEntity
  8
0
100
AcDbLine
 10
40772.79736487872
 20
20304.06125142024
 30
0.0
 11
37022.79736487872
 21
20304.06125142024
 31
0.0
  0
LINE
  5
6C43
330
17
100
AcDbEntity
  8
0
100
AcDbLine
 10
37022.79736487872
 20
21429.06125142024
 30
0.0
 11
40772.79736487872
 21
21429.06125142024
 31
0.0
  0
LINE
  5
6C44
330
17
100
AcDbEntity
  8
0
100
AcDbLine
 10
37022.79736487872
 20
19804.06125142024
 30
0.0
 11
37022.79736487872
 21
21429.06125142024
 31
0.0
  0
LINE
  5
6C45
330
17
100
AcDbEntity
  8
0
100
AcDbLine
 10
21622.79736487872
 20
33404.06125142024
 30
0.0
 11
21622.79736487872
 21
33154.06125142024
 31
0.0
  0
LINE
  5
6C46
330
17
100
AcDbEntity
  8
0
100
AcDbLine
 10
22872.79736487872
 20
33404.06125142024
 30
0.0
 11
21622.79736487872
 21
33404.06125142024
 31
0.0
  0
LINE
  5
6C47
330
17
100
AcDbEntity
  8
0
100
AcDbLine
 10
22872.79736487872
 20
33154.06125142024
 30
0.0
 11
22872.79736487872
 21
33404.06125142024
 31
0.0
  0
LINE
  5
6C48
330
17
100
AcDbEntity
  8
0
100
AcDbLine
 10
21622.79736487872
 20
19804.06125142024
 30
0.0
 11
40772.79736487872
 21
19804.06125142024
 31
0.0
  0
LINE
  5
6C49
330
17
100
AcDbEntity
  8
0
100
AcDbLine
 10
21622.79736487872
 20
33154.06125142024
 30
0.0
 11
40772.79736487872
 21
33154.06125142024
 31
0.0
  0
LINE
  5
6C4A
330
17
100
AcDbEntity
  8
0
100
AcDbLine
 10
40772.79736487872
 20
33154.06125142024
 30
0.0
 11
40772.79736487872
 21
19804.06125142024
 31
0.0
  0
TEXT
  5
6C4B
330
17
100
AcDbEntity
  8
0
100
AcDbText
 10
21807.79736487872
 20
33204.06125142024
 30
0.0
 40
150.0
  1
Ｈ－２－共
 72
     4
 11
22247.79736487872
 21
33279.06125142024
 31
0.0
100
AcDbText
  0
LINE
  5
6C4C
330
17
100
AcDbEntity
  8
0
100
AcDbLine
 10
21622.79736487872
 20
19804.06125142024
 30
0.0
 11
21622.79736487872
 21
33154.06125142024
 31
0.0
  0
TEXT
  5
6C4D
330
17
100
AcDbEntity
  8
0
100
AcDbText
 10
40060.29736487872
 20
20354.06125142024
 30
0.0
 40
150.0
  1
50
 72
     1
 11
40172.79736487872
 21
20354.06125142024
 31
0.0
100
AcDbText
  0
INSERT
  5
7542
330
17
100
AcDbEntity
  8
D-STR-TXT
100
AcDbBlockReference
  2
エスコン
 10
29155.95948800288
 20
28434.62595198402
 30
0.0
  0
INSERT
  5
7543
330
17
100
AcDbEntity
  8
D-STR-TXT
100
AcDbBlockReference
  2
エスコン基礎35
 10
29055.95948800291
 20
28134.62595198402
 30
0.0
  0
INSERT
  5
7544
330
17
100
AcDbEntity
  8
D-STR-TXT
100
AcDbBlockReference
  2
エスコン
 10
29379.56628575284
 20
28881.83954748397
 30
0.0
  0
INSERT
  5
7545
330
17
100
AcDbEntity
  8
D-STR-TXT
100
AcDbBlockReference
  2
エスコン
 10
29603.17308350281
 20
29329.05314298392
 30
0.0
  0
INSERT
  5
7546
330
17
100
AcDbEntity
  8
D-STR-TXT
100
AcDbBlockReference
  2
エスコン
 10
29826.77988125277
 20
29776.26673848388
 30
0.0
  0
INSERT
  5
7547
330
17
100
AcDbEntity
  8
D-STR-TXT
100
AcDbBlockReference
  2
エスコン
 10
30050.38667900273
 20
30223.48033398383
 30
0.0
  0
INSERT
  5
7548
330
17
100
AcDbEntity
  8
D-STR-TXT
100
AcDbBlockReference
  2
エスコン
 10
30273.99347675269
 20
30670.69392948379
 30
0.0
  0
LINE
  5
754A
330
17
100
AcDbEntity
  8
D-STR
100
AcDbLine
 10
30497.60027450269
 20
31117.90752498374
 30
0.0
 11
31224.32236719012
 21
31117.90752498374
 31
0.0
  0
LINE
  5
754B
330
17
100
AcDbEntity
  8
D-STR
100
AcDbLine
 10
30547.60027450269
 20
31217.90752498374
 30
0.0
 11
31224.32236719012
 21
31217.90752498374
 31
0.0
  0
LINE
  5
754C
330
17
100
AcDbEntity
  8
D-STR
100
AcDbLine
 10
30497.60027450269
 20
31117.90752498374
 30
0.0
 11
30547.60027450269
 21
31217.90752498374
 31
0.0
  0
LINE
  5
754D
330
17
100
AcDbEntity
  8
D-STR
100
AcDbLine
 10
31224.32236719012
 20
31117.90752498374
 30
0.0
 11
31224.32236719012
 21
31217.90752498374
 31
0.0
  0
ELLIPSE
  5
754E
330
17
100
AcDbEntity
  8
D-STR-STR1
100
AcDbEllipse
 10
31025.26932211372
 20
31047.14893170958
 30
0.0
 11
-10.94012527381687
 21
-62.04453356973789
 31
0.0
210
0.0
220
0.0
230
1.0
 40
0.6079535901530466
 41
0.0
 42
6.283185307179586
  0
ELLIPSE
  5
754F
330
17
100
AcDbEntity
  8
D-STR-STR1
100
AcDbEllipse
 10
30925.78877485908
 20
31047.14893170958
 30
0.0
 11
-10.94012527381687
 21
-62.04453356973789
 31
0.0
210
0.0
220
0.0
230
1.0
 40
0.6079535901530466
 41
0.0
 42
6.283185307179586
  0
ELLIPSE
  5
7550
330
17
100
AcDbEntity
  8
D-STR-STR1
100
AcDbEllipse
 10
31070.62245748592
 20
30916.71906114049
 30
0.0
 11
-10.94012527381688
 21
-62.0445335697379
 31
0.0
210
0.0
220
0.0
230
1.0
 40
0.6079535901530466
 41
0.0
 42
6.283185307179586
  0
ELLIPSE
  5
7551
330
17
100
AcDbEntity
  8
D-STR-STR1
100
AcDbEllipse
 10
30969.20878837835
 20
30916.71906114049
 30
0.0
 11
-10.94012527381688
 21
-62.0445335697379
 31
0.0
210
0.0
220
0.0
230
1.0
 40
0.6079535901530466
 41
0.0
 42
6.283185307179586
  0
ELLIPSE
  5
7552
330
17
100
AcDbEntity
  8
D-STR-STR1
100
AcDbEllipse
 10
30869.7282411237
 20
30916.71906114049
 30
0.0
 11
-10.94012527381688
 21
-62.0445335697379
 31
0.0
210
0.0
220
0.0
230
1.0
 40
0.6079535901530466
 41
0.0
 42
6.283185307179586
  0
ELLIPSE
  5
7553
330
17
100
AcDbEntity
  8
D-STR-STR1
100
AcDbEllipse
 10
31014.56192375054
 20
30786.2891905714
 30
0.0
 11
-10.94012527381688
 21
-62.0445335697379
 31
0.0
210
0.0
220
0.0
230
1.0
 40
0.6079535901530466
 41
0.0
 42
6.283185307179586
  0
ELLIPSE
  5
7554
330
17
100
AcDbEntity
  8
D-STR-STR1
100
AcDbEllipse
 10
30913.14825464297
 20
30786.2891905714
 30
0.0
 11
-10.94012527381688
 21
-62.0445335697379
 31
0.0
210
0.0
220
0.0
230
1.0
 40
0.6079535901530466
 41
0.0
 42
6.283185307179586
  0
ELLIPSE
  5
7555
330
17
100
AcDbEntity
  8
D-STR-STR1
100
AcDbEllipse
 10
30813.66770738833
 20
30786.2891905714
 30
0.0
 11
-10.94012527381688
 21
-62.0445335697379
 31
0.0
210
0.0
220
0.0
230
1.0
 40
0.6079535901530466
 41
0.0
 42
6.283185307179586
  0
LINE
  5
7556
330
17
100
AcDbEntity
  8
D-STR-STR1
100
AcDbLine
 10
29991.00973799023
 20
28034.62595198402
 30
0.0
 11
31224.32236719012
 21
31117.90752498374
 31
0.0
  0
LINE
  5
7557
330
17
100
AcDbEntity
  8
D-STR-STR1
100
AcDbLine
 10
29055.95948800291
 20
28134.62595198402
 30
0.0
 11
29005.95948800291
 21
28134.62595198402
 31
0.0
  0
LINE
  5
7558
330
17
100
AcDbEntity
  8
D-STR-STR1
100
AcDbLine
 10
29005.95948800291
 20
28134.62595198402
 30
0.0
 11
29005.95948800291
 21
28034.62595198402
 31
0.0
  0
LINE
  5
7559
330
17
100
AcDbEntity
  8
D-STR-STR1
100
AcDbLine
 10
29555.95948800291
 20
28134.62595198402
 30
0.0
 11
29605.95948800291
 21
28134.62595198402
 31
0.0
  0
LINE
  5
755A
330
17
100
AcDbEntity
  8
D-STR-STR1
100
AcDbLine
 10
29605.95948800291
 20
28134.62595198402
 30
0.0
 11
29605.95948800291
 21
28034.62595198402
 31
0.0
  0
LINE
  5
755B
330
17
100
AcDbEntity
  8
D-STR-STR1
100
AcDbLine
 10
29005.95948800291
 20
28034.62595198402
 30
0.0
 11
29605.95948800291
 21
28034.62595198402
 31
0.0
  0
LINE
  5
755C
330
17
100
AcDbEntity
  8
D-STR-STR1
100
AcDbLine
 10
29605.95948800291
 20
28034.62595198402
 30
0.0
 11
29991.00973799023
 21
28034.62595198402
 31
0.0
  0
ELLIPSE
  5
755D
330
17
100
AcDbEntity
  8
D-STR-STR1
100
AcDbEllipse
 10
31126.68299122129
 20
31047.14893170958
 30
0.0
 11
-10.94012527381688
 21
-62.0445335697379
 31
0.0
210
0.0
220
0.0
230
1.0
 40
0.6079535901530466
 41
0.0
 42
6.283185307179586
  0
ELLIPSE
  5
755F
330
17
100
AcDbEntity
  8
D-STR-STR1
100
AcDbEllipse
 10
29923.91211797819
 20
28108.23114531459
 30
0.0
 11
-10.94012527381688
 21
-62.04453356973792
 31
0.0
210
0.0
220
0.0
230
1.0
 40
0.6079535901530466
 41
0.0
 42
6.283185307179586
  0
ELLIPSE
  5
7560
330
17
100
AcDbEntity
  8
D-STR-STR1
100
AcDbEllipse
 10
29835.067126706
 20
28108.23114531459
 30
0.0
 11
-10.94012527381688
 21
-62.04453356973792
 31
0.0
210
0.0
220
0.0
230
1.0
 40
0.6079535901530466
 41
0.0
 42
6.283185307179586
  0
ELLIPSE
  5
7561
330
17
100
AcDbEntity
  8
D-STR-STR1
100
AcDbEllipse
 10
29746.22213543381
 20
28108.23114531459
 30
0.0
 11
-10.94012527381688
 21
-62.04453356973792
 31
0.0
210
0.0
220
0.0
230
1.0
 40
0.6079535901530466
 41
0.0
 42
6.283185307179586
  0
ELLIPSE
  5
7562
330
17
100
AcDbEntity
  8
D-STR-STR1
100
AcDbEllipse
 10
29657.37714416162
 20
28108.23114531459
 30
0.0
 11
-10.94012527381688
 21
-62.04453356973792
 31
0.0
210
0.0
220
0.0
230
1.0
 40
0.6079535901530466
 41
0.0
 42
6.283185307179586
  0
ELLIPSE
  5
7564
330
17
100
AcDbEntity
  8
D-STR-STR1
100
AcDbEllipse
 10
29980.29452631601
 20
28243.14922973179
 30
0.0
 11
-10.94012527381688
 21
-62.04453356973792
 31
0.0
210
0.0
220
0.0
230
1.0
 40
0.6079535901530466
 41
0.0
 42
6.283185307179586
  0
ELLIPSE
  5
7565
330
17
100
AcDbEntity
  8
D-STR-STR1
100
AcDbEllipse
 10
29891.44953504382
 20
28243.14922973179
 30
0.0
 11
-10.94012527381688
 21
-62.04453356973793
 31
0.0
210
0.0
220
0.0
230
1.0
 40
0.6079535901530464
 41
0.0
 42
6.283185307179586
  0
ELLIPSE
  5
7566
330
17
100
AcDbEntity
  8
D-STR-STR1
100
AcDbEllipse
 10
29802.60454377163
 20
28243.14922973179
 30
0.0
 11
-10.94012527381688
 21
-62.04453356973793
 31
0.0
210
0.0
220
0.0
230
1.0
 40
0.6079535901530464
 41
0.0
 42
6.283185307179586
  0
ELLIPSE
  5
7567
330
17
100
AcDbEntity
  8
D-STR-STR1
100
AcDbEllipse
 10
29713.75955249944
 20
28243.14922973179
 30
0.0
 11
-10.94012527381688
 21
-62.04453356973793
 31
0.0
210
0.0
220
0.0
230
1.0
 40
0.6079535901530464
 41
0.0
 42
6.283185307179586
  0
ELLIPSE
  5
7568
330
17
100
AcDbEntity
  8
D-STR-STR1
100
AcDbEllipse
 10
29624.91456122725
 20
28243.14922973179
 30
0.0
 11
-10.94012527381688
 21
-62.04453356973793
 31
0.0
210
0.0
220
0.0
230
1.0
 40
0.6079535901530464
 41
0.0
 42
6.283185307179586
  0
ELLIPSE
  5
756A
330
17
100
AcDbEntity
  8
D-STR-STR1
100
AcDbEllipse
 10
29759.89059964174
 20
28371.23606298389
 30
0.0
 11
-10.94012527381688
 21
-62.04453356973793
 31
0.0
210
0.0
220
0.0
230
1.0
 40
0.6079535901530464
 41
0.0
 42
6.283185307179586
  0
ELLIPSE
  5
756B
330
17
100
AcDbEntity
  8
D-STR-STR1
100
AcDbEllipse
 10
29671.04560836955
 20
28371.23606298389
 30
0.0
 11
-10.94012527381689
 21
-62.04453356973795
 31
0.0
210
0.0
220
0.0
230
1.0
 40
0.607953590153046
 41
0.0
 42
6.283185307179586
  0
ELLIPSE
  5
756C
330
17
100
AcDbEntity
  8
D-STR-STR1
100
AcDbEllipse
 10
29633.28060622341
 20
28488.36926254904
 30
0.0
 11
-10.94012527381688
 21
-62.04453356973793
 31
0.0
210
0.0
220
0.0
230
1.0
 40
0.6079535901530462
 41
0.0
 42
6.283185307179586
  0
DIMENSION
  5
756D
330
17
100
AcDbEntity
  8
D-STR-DIM
100
AcDbDimension
  2
*D17
 10
29121.04535839106
 20
29570.11700553984
 30
0.0
 11
28906.38283255108
 21
29397.93977127237
 31
0.0
 70
    33
 71
     5
 42
500.0
  3
S-50
100
AcDbAlignedDimension
 13
29379.56628575289
 23
28881.83954748399
 33
0.0
 14
29603.17308350286
 24
29329.05314298395
 34
0.0
  0
DIMENSION
  5
756E
330
17
100
AcDbEntity
  8
D-STR-DIM
100
AcDbDimension
  2
*D18
 10
29344.65215614105
 20
30017.33060103982
 30
0.0
 11
29129.98963030107
 21
29845.15336677233
 31
0.0
 70
    33
 71
     5
 42
500.0
  3
S-50
100
AcDbAlignedDimension
 13
29603.17308350286
 23
29329.05314298397
 33
0.0
 14
29826.77988125284
 24
29776.26673848393
 34
0.0
  0
DIMENSION
  5
756F
330
17
100
AcDbEntity
  8
D-STR-DIM
100
AcDbDimension
  2
*D19
 10
29568.25895389101
 20
30464.54419653978
 30
0.0
 11
29353.59642805103
 21
30292.3669622723
 31
0.0
 70
    33
 71
     5
 42
500.0
  3
S-50
100
AcDbAlignedDimension
 13
29826.77988125283
 23
29776.26673848393
 33
0.0
 14
30050.38667900281
 24
30223.48033398389
 34
0.0
  0
DIMENSION
  5
7570
330
17
100
AcDbEntity
  8
D-STR-DIM
100
AcDbDimension
  2
*D20
 10
28472.76628356904
 20
31217.90752498374
 30
0.0
 11
28357.76628356903
 21
29826.26673848389
 31
0.0
 70
    32
  1
H
 71
     5
 42
2783.281572999724
  3
S-50
100
AcDbAlignedDimension
 13
29055.95948800291
 23
28434.62595198402
 33
0.0
 14
30547.60027450269
 24
31217.90752498374
 34
0.0
 50
90.0
100
AcDbRotatedDimension
  0
DIMENSION
  5
7571
330
17
100
AcDbEntity
  8
D-STR-DIM
100
AcDbDimension
  2
*D21
 10
29795.48822352622
 20
31117.90752498374
 30
0.0
 11
29680.48822352622
 21
31167.90752498375
 31
0.0
 70
    32
 71
     5
 42
100.0
  3
S-50
100
AcDbAlignedDimension
 13
30547.60027450269
 23
31217.90752498374
 33
0.0
 14
30497.60027450269
 24
31117.90752498374
 34
0.0
 50
90.0
100
AcDbRotatedDimension
  0
DIMENSION
  5
7572
330
17
100
AcDbEntity
  8
D-STR-DIM
100
AcDbDimension
  2
*D22
 10
31139.81132313429
 20
31619.70583012204
 30
0.0
 11
31040.30629813553
 21
31812.00767618699
 31
0.0
 70
   161
 71
     5
 42
350.0000000000018
  3
S-50
100
AcDbAlignedDimension
 13
30547.60027450269
 23
31217.90752498374
 33
0.0
 14
30860.64979135266
 24
31061.38276655876
 34
0.0
  0
TEXT
  5
7576
330
17
100
AcDbEntity
  8
D-STR-DIM
100
AcDbText
 10
31287.21035008572
 20
30224.22852460063
 30
0.0
 40
150.0
  1
エスコン
  7
ＭＳ ゴシック
100
AcDbText
  0
LEADER
  5
7577
330
17
100
AcDbEntity
  8
D-STR-DIM
100
AcDbLeader
  3
S-50
 76
     2
 10
30292.14044777061
 20
30172.07312251925
 30
0.0
 10
33089.9619447532
 20
30172.07312251925
 30
0.0
1001
ACAD
1000
DSTYLE
1002
{
1070
   147
1040
0.8
1070
    77
1070
     0
1002
}
  0
TEXT
  5
7578
330
17
100
AcDbEntity
  8
D-STR-DIM
100
AcDbText
 10
31112.62707822405
 20
29612.45650102905
 30
0.0
 40
150.0
  1
胴込コンクリート
  7
ＭＳ ゴシック
100
AcDbText
  0
LEADER
  5
7579
330
17
100
AcDbEntity
  8
D-STR-DIM
100
AcDbLeader
  3
S-50
 76
     2
 10
29940.2143617937
 20
29560.30109894767
 30
0.0
 10
32790.45263156938
 20
29560.30109894767
 30
0.0
1001
ACAD
1000
DSTYLE
1002
{
1070
   147
1040
0.8
1070
    77
1070
     0
1002
}
  0
TEXT
  5
757A
330
17
100
AcDbEntity
  8
D-STR-DIM
100
AcDbText
 10
30932.17171972383
 20
28989.76540256332
 30
0.0
 40
150.0
  1
裏込め材
  7
ＭＳ ゴシック
100
AcDbText
  0
LEADER
  5
757B
330
17
100
AcDbEntity
  8
D-STR-DIM
100
AcDbLeader
  3
S-50
 76
     2
 10
30091.45385426485
 20
28937.61000048194
 30
0.0
 10
31802.67702974146
 20
28937.61000048194
 30
0.0
1001
ACAD
1000
DSTYLE
1002
{
1070
   147
1040
0.8
1070
    77
1070
     0
1002
}
  0
TEXT
  5
757C
330
17
100
AcDbEntity
  8
D-STR-DIM
100
AcDbText
 10
30184.16914062377
 20
27693.47599612709
 30
0.0
 40
150.0
  1
基礎ブロック
  7
ＭＳ ゴシック
100
AcDbText
  0
LINE
  5
757D
330
17
100
AcDbEntity
  8
D-STR-DIM
100
AcDbLine
 10
30103.89544715317
 20
27641.32059404571
 30
0.0
 11
31400.81843691703
 21
27641.32059404571
 31
0.0
  0
LEADER
  5
757E
330
17
100
AcDbEntity
  8
D-STR-DIM
100
AcDbLeader
  3
S-50
 76
     2
 10
29437.02220988995
 20
28250.97507847576
 30
0.0
 10
30103.89544715317
 20
27641.32059404571
 30
0.0
1001
ACAD
1000
DSTYLE
1002
{
1070
   147
1040
0.8
1070
    77
1070
     0
1002
}
  0
LINE
  5
757F
330
17
100
AcDbEntity
  8
D-STR
100
AcDbLine
 10
23245.7869703778
 20
27522.47037243286
 30
0.0
 11
25241.7869703778
 21
27522.47037243286
 31
0.0
  0
LINE
  5
7580
330
17
100
AcDbEntity
  8
D-STR
100
AcDbLine
 10
25241.7869703778
 20
27522.47037243286
 30
0.0
 11
25241.7869703778
 21
28522.47037243286
 31
0.0
  0
LINE
  5
7581
330
17
100
AcDbEntity
  8
D-STR
100
AcDbLine
 10
25241.7869703778
 20
28522.47037243286
 30
0.0
 11
23245.7869703778
 21
28522.47037243286
 31
0.0
  0
LINE
  5
7582
330
17
100
AcDbEntity
  8
D-STR
100
AcDbLine
 10
23245.7869703778
 20
28522.47037243286
 30
0.0
 11
23245.7869703778
 21
27522.47037243286
 31
0.0
  0
LWPOLYLINE
  5
7583
330
17
100
AcDbEntity
  8
D-STR
100
AcDbPolyline
 90
        3
 70
     0
 43
0.0
 10
24241.7869703778
 20
29896.6317356732
 10
24213.7869703778
 20
29896.6317356732
 10
23894.82184313934
 20
29936.25473284567
  0
LINE
  5
7584
330
17
100
AcDbEntity
  8
D-STR
100
AcDbLine
 10
23591.7869703778
 20
29956.6317356732
 30
0.0
 11
23588.75209761625
 21
29936.25473284567
 31
0.0
  0
LINE
  5
7585
330
17
100
AcDbEntity
  8
D-STR
100
AcDbLine
 10
23891.7869703778
 20
29956.6317356732
 30
0.0
 11
23894.82184313934
 21
29936.25473284567
 31
0.0
  0
LWPOLYLINE
  5
7586
330
17
100
AcDbEntity
  8
D-STR
100
AcDbPolyline
 90
        2
 70
     0
 43
0.0
 10
23270.09062697557
 20
29896.91790419466
 10
23588.75209761625
 20
29936.25473284567
  0
LINE
  5
7587
330
17
100
AcDbEntity
  8
D-STR
100
AcDbLine
 10
24213.7869703778
 20
29896.6317356732
 30
0.0
 11
24213.7869703778
 21
29916.6317356732
 31
0.0
  0
LWPOLYLINE
  5
7588
330
17
100
AcDbEntity
  8
D-STR
100
AcDbPolyline
 90
       23
 70
     1
 43
0.0
 10
24213.7869703778
 20
29916.6317356732
 10
24241.7869703778
 20
29916.6317356732
 10
24269.7869703778
 20
29916.6317356732
 10
24591.7869703778
 20
29956.6317356732
 10
24661.7869703778
 20
30426.6317356732
 10
24821.7869703778
 20
30426.6317356732
 10
24951.7869703778
 20
30426.6317356732
 10
24951.7869703778
 20
30326.6317356732
 10
24851.57420442035
 20
30226.6317356732
 10
24891.7869703778
 20
29956.6317356732
 10
25209.7869703778
 20
29916.6317356732
 10
25239.7869703778
 20
29756.6317356732
 10
25209.7869703778
 20
29726.6317356732
 10
23273.7869703778
 20
29726.6317356732
 10
23243.7869703778
 20
29756.6317356732
 10
23273.7869703778
 20
29916.6317356732
 10
23591.7869703778
 20
29956.6317356732
 10
23631.99973633524
 20
30226.6317356732
 10
23531.7869703778
 20
30326.6317356732
 10
23531.7869703778
 20
30426.6317356732
 10
23661.7869703778
 20
30426.6317356732
 10
23821.7869703778
 20
30426.6317356732
 10
23891.7869703778
 20
29956.6317356732
  0
LINE
  5
7589
330
17
100
AcDbEntity
  8
D-STR
100
AcDbLine
 10
26316.91825768699
 20
27552.47037243286
 30
0.0
 11
26316.91825768699
 21
28492.47037243286
 31
0.0
  0
LINE
  5
758A
330
17
100
AcDbEntity
  8
D-STR
100
AcDbLine
 10
27016.91825768699
 20
27807.47037243286
 30
0.0
 11
27016.91825768699
 21
28757.47037243286
 31
0.0
  0
LINE
  5
758B
330
17
100
AcDbEntity
  8
D-STR
 62
     4
100
AcDbLine
 10
26346.91825768699
 20
27522.47037243286
 30
0.0
 11
26346.91825768699
 21
28522.47037243286
 31
0.0
  0
LINE
  5
758C
330
17
100
AcDbEntity
  8
D-STR
100
AcDbLine
 10
26346.91825768699
 20
27522.47037243286
 30
0.0
 11
26916.91825768699
 21
27807.47037243286
 31
0.0
  0
LINE
  5
758D
330
17
100
AcDbEntity
  8
D-STR
100
AcDbLine
 10
26346.91825768699
 20
28522.47037243286
 30
0.0
 11
26529.02971386699
 21
28613.52610052286
 31
0.0
  0
LINE
  5
758E
330
17
100
AcDbEntity
  8
D-STR
100
AcDbLine
 10
26346.91825768699
 20
27522.47037243286
 30
0.0
 11
26316.91825768699
 21
27552.47037243286
 31
0.0
  0
LINE
  5
758F
330
17
100
AcDbEntity
  8
D-STR
100
AcDbLine
 10
26346.91825768699
 20
28522.47037243286
 30
0.0
 11
26316.91825768699
 21
28492.47037243286
 31
0.0
  0
LINE
  5
7590
330
17
100
AcDbEntity
  8
D-STR
 62
     4
100
AcDbLine
 10
26506.91825768699
 20
27602.47037243286
 30
0.0
 11
26506.91825768699
 21
28582.47037243285
 31
0.0
  0
LINE
  5
7591
330
17
100
AcDbEntity
  8
D-STR
100
AcDbLine
 10
26577.91825768699
 20
28537.97037243286
 30
0.0
 11
26697.91825768699
 21
28597.97037243286
 31
0.0
  0
LINE
  5
7592
330
17
100
AcDbEntity
  8
D-STR
100
AcDbLine
 10
26816.91825768699
 20
28757.47037243286
 30
0.0
 11
26757.91825768699
 21
28727.97037243286
 31
0.0
  0
LINE
  5
7593
330
17
100
AcDbEntity
  8
D-STR
 62
     4
100
AcDbLine
 10
26816.91825768699
 20
28007.47037243286
 30
0.0
 11
26816.91825768699
 21
28757.47037243286
 31
0.0
  0
LINE
  5
7594
330
17
100
AcDbEntity
  8
D-STR
 62
     4
100
AcDbLine
 10
26916.91825768699
 20
27807.47037243286
 30
0.0
 11
26916.91825768699
 21
28757.47037243286
 31
0.0
  0
LINE
  5
7595
330
17
100
AcDbEntity
  8
D-STR
100
AcDbLine
 10
26546.86252959699
 20
28600.08182861286
 30
0.0
 11
26577.91825768699
 21
28537.97037243286
 31
0.0
  0
LINE
  5
7596
330
17
100
AcDbEntity
  8
D-STR
 62
     4
100
AcDbLine
 10
26546.91825768699
 20
27622.47037243286
 30
0.0
 11
26546.91825768699
 21
28602.47037243285
 31
0.0
  0
LINE
  5
7597
330
17
100
AcDbEntity
  8
D-STR
100
AcDbLine
 10
26529.02971386699
 20
28613.52610052286
 30
0.0
 11
26546.91825768699
 21
28602.47037243285
 31
0.0
  0
LINE
  5
7598
330
17
100
AcDbEntity
  8
D-STR
 62
     4
100
AcDbLine
 10
26506.91825768699
 20
28582.47037243285
 30
0.0
 11
26489.02971386699
 21
28593.52610052286
 31
0.0
  0
LINE
  5
7599
330
17
100
AcDbEntity
  8
D-STR
 62
     4
100
AcDbLine
 10
26506.91825768699
 20
28582.47037243285
 30
0.0
 11
26546.91825768699
 21
28602.47037243285
 31
0.0
  0
LINE
  5
759A
330
17
100
AcDbEntity
  8
D-STR
100
AcDbLine
 10
26757.91825768699
 20
28727.97037243286
 30
0.0
 11
26697.91825768699
 21
28597.97037243286
 31
0.0
  0
LINE
  5
759B
330
17
100
AcDbEntity
  8
D-STR
100
AcDbLine
 10
26816.91825768699
 20
28757.47037243286
 30
0.0
 11
27016.91825768699
 21
28757.47037243286
 31
0.0
  0
LINE
  5
759C
330
17
100
AcDbEntity
  8
D-STR
100
AcDbLine
 10
26916.91825768699
 20
27807.47037243286
 30
0.0
 11
27016.91825768699
 21
27807.47037243286
 31
0.0
  0
LINE
  5
759D
330
17
100
AcDbEntity
  8
D-STR
100
AcDbLine
 10
26687.91825768699
 20
27642.97037243286
 30
0.0
 11
26609.91825768699
 21
27603.97037243286
 31
0.0
  0
LINE
  5
759E
330
17
100
AcDbEntity
  8
D-STR
100
AcDbLine
 10
26687.91825768699
 20
27642.97037243286
 30
0.0
 11
26717.91825768699
 21
27707.97037243286
 31
0.0
  0
LINE
  5
759F
330
17
100
AcDbEntity
  8
D-STR
100
AcDbLine
 10
26609.91825768699
 20
27603.97037243285
 30
0.0
 11
26577.91825768699
 21
27637.97037243286
 31
0.0
  0
CIRCLE
  5
75A0
330
17
100
AcDbEntity
  8
D-STR
 62
     4
100
AcDbCircle
 10
26696.91825768699
 20
28182.47037243286
 30
0.0
 40
40.0
  0
CIRCLE
  5
75A1
330
17
100
AcDbEntity
  8
D-STR
 62
     4
100
AcDbCircle
 10
26696.91825768699
 20
28182.47037243286
 30
0.0
 40
30.0
  0
LWPOLYLINE
  5
75A2
330
17
100
AcDbEntity
  8
D-STR
 62
     6
100
AcDbPolyline
 90
       18
 70
     0
 43
0.0
 10
26316.91825768699
 20
27572.47037243286
 10
26276.91825768699
 20
27582.47037243286
 10
26266.91825768699
 20
27602.47037243286
 10
26246.91825768699
 20
27622.47037243286
 10
26246.91825768699
 20
27652.47037243286
 10
26266.91825768699
 20
27692.47037243286
 10
26266.91825768699
 20
27722.47037243286
 10
26246.91825768699
 20
27772.47037243286
 10
26246.91825768699
 20
27802.47037243286
 10
26256.91825768699
 20
27832.47037243286
 10
26256.91825768699
 20
27862.47037243286
 10
26266.91825768699
 20
27872.47037243286
 10
26266.91825768699
 20
27912.47037243286
 10
26256.91825768699
 20
27932.47037243286
 10
26246.91825768699
 20
27962.47037243286
 10
26246.91825768699
 20
28002.47037243286
 10
26276.91825768699
 20
28042.47037243286
 10
26316.91825768699
 20
28052.47037243286
  0
LWPOLYLINE
  5
75A3
330
17
100
AcDbEntity
  8
D-STR
 62
     6
100
AcDbPolyline
 90
       17
 70
     0
 43
0.0
 10
26316.91825768699
 20
28072.47037243286
 10
26286.91825768699
 20
28082.47037243286
 10
26256.91825768699
 20
28102.47037243286
 10
26246.91825768699
 20
28122.47037243286
 10
26246.91825768699
 20
28162.47037243286
 10
26256.91825768699
 20
28182.47037243286
 10
26266.91825768699
 20
28212.47037243286
 10
26256.91825768699
 20
28252.47037243286
 10
26246.91825768699
 20
28282.47037243286
 10
26246.91825768699
 20
28312.47037243286
 10
26256.91825768699
 20
28362.47037243286
 10
26256.91825768699
 20
28382.47037243286
 10
26246.91825768699
 20
28392.47037243286
 10
26246.91825768699
 20
28422.47037243286
 10
26266.91825768699
 20
28452.47037243286
 10
26286.91825768699
 20
28462.47037243286
 10
26316.91825768699
 20
28472.47037243286
  0
LWPOLYLINE
  5
75A4
330
17
100
AcDbEntity
  8
D-STR
 62
     6
100
AcDbPolyline
 90
       14
 70
     0
 43
0.0
 10
25083.7869703778
 20
28472.47037243286
 10
24791.74702100057
 20
28472.47037243286
 42
0.4020686661661688
 10
24741.79036734595
 20
28424.55189966847
 10
24734.35364870178
 20
28246.07065220858
 42
0.1336879884268217
 10
24740.19265529758
 20
28220.45971320827
 10
24808.15206537968
 20
28093.03581930432
 42
0.1180724007408726
 10
24823.59659522034
 20
28075.60363504308
 10
25000.87496470059
 20
27951.50877640691
 42
0.1538790779584994
 10
25029.54808191875
 20
27942.47037243285
 10
25143.7869703778
 20
27942.47037243286
 42
0.4142135623730943
 10
25193.7869703778
 20
27992.47037243286
 10
25193.7869703778
 20
28422.47037243286
 42
0.414213562373095
 10
25143.7869703778
 20
28472.47037243286
 10
25083.7869703778
 20
28472.47037243286
  0
LWPOLYLINE
  5
75A5
330
17
100
AcDbEntity
  8
D-STR
 62
     6
100
AcDbPolyline
 90
       16
 70
     0
 43
0.0
 10
25193.7869703778
 20
27792.47037243286
 10
25193.7869703778
 20
27862.47037243286
 42
0.414213562373095
 10
25143.7869703778
 20
27912.47037243286
 10
25018.9257522644
 20
27912.47037243286
 42
-0.1480687391120239
 10
24991.19074245314
 20
27920.86785771596
 10
24906.56024370722
 20
27977.28819021324
 42
0.2557925005175594
 10
24858.7257307942
 20
27981.46787700591
 10
24488.08592840529
 20
27818.747963762
 42
0.1525296731248052
 10
24465.60251567183
 20
27799.17063353565
 10
24401.20405454257
 20
27694.52313420061
 42
0.1387948320142074
 10
24393.7869703778
 20
27668.31826291739
 10
24393.7869703778
 20
27622.47037243286
 42
0.414213562373095
 10
24443.7869703778
 20
27572.47037243286
 10
25143.7869703778
 20
27572.47037243286
 42
0.414213562373095
 10
25193.7869703778
 20
27622.47037243286
 10
25193.7869703778
 20
27792.47037243286
  0
LWPOLYLINE
  5
75A6
330
17
100
AcDbEntity
  8
D-STR
 62
     6
100
AcDbPolyline
 90
       14
 70
     0
 43
0.0
 10
23553.7869703778
 20
28472.47037243286
 10
23343.7869703778
 20
28472.47037243286
 42
0.414213562373095
 10
23293.7869703778
 20
28422.47037243286
 10
23293.7869703778
 20
28112.57895275115
 42
0.3515239862758916
 10
23332.94044748686
 20
28063.76959974195
 10
23644.1617522487
 20
27994.60930979488
 42
0.0976597489041885
 10
23663.50362096501
 20
27994.14565701686
 10
23924.70361538351
 20
28039.18013881315
 42
0.1868857409538212
 10
23955.67588042695
 20
28057.75611392463
 10
24073.25458124661
 20
28208.92872926419
 42
0.1667818979183281
 10
24083.7869703778
 20
28239.62575993994
 10
24083.7869703778
 20
28422.47037243286
 42
0.414213562373095
 10
24033.7869703778
 20
28472.47037243286
 10
23553.7869703778
 20
28472.47037243286
  0
LWPOLYLINE
  5
75A7
330
17
100
AcDbEntity
  8
D-STR
 62
     6
100
AcDbPolyline
 90
       14
 70
     0
 43
0.0
 10
23293.7869703778
 20
27792.47037243286
 10
23293.7869703778
 20
27622.47037243286
 42
0.414213562373095
 10
23343.7869703778
 20
27572.47037243286
 10
23730.14241739786
 20
27572.47037243286
 42
0.3750530205183022
 10
23779.68392580007
 20
27615.71471219619
 10
23802.6167971381
 20
27783.88910200842
 42
0.0859668243876226
 10
23802.00277798522
 20
27800.94528629758
 10
23773.80662398694
 20
27934.87701778941
 42
0.4061401767187362
 10
23715.93486282761
 20
27973.76998924192
 10
23663.72115484121
 20
27964.27658778984
 42
-0.0999615786608396
 10
23643.93036004028
 20
27964.66073028564
 10
23354.63349326873
 20
28028.94892290154
 42
0.4798109543811918
 10
23293.7869703778
 20
27980.13956989234
 10
23293.7869703778
 20
27792.47037243286
  0
LWPOLYLINE
  5
75A8
330
17
100
AcDbEntity
  8
D-STR
 62
     6
100
AcDbPolyline
 90
       17
 70
     0
 43
0.0
 10
24583.7869703778
 20
28472.47037243286
 10
24163.7869703778
 20
28472.47037243286
 42
0.414213562373095
 10
24113.7869703778
 20
28422.47037243286
 10
24113.7869703778
 20
28237.60915431946
 42
-0.1480687391120239
 10
24105.38948509469
 20
28209.87414450819
 10
24080.02391427717
 20
28171.82578828192
 42
0.3980502806705429
 10
24091.62642899407
 20
28104.09077847065
 10
24429.87893609561
 20
27850.4013981445
 42
0.2760731323718775
 10
24480.9019867348
 20
27845.03586781781
 10
24793.48459924529
 20
27989.89122483487
 42
0.6091541149169767
 10
24796.51171626821
 20
28060.9133747812
 10
24793.7869703778
 20
28062.47037243286
 10
24710.1174893141
 20
28220.51272555318
 42
-0.1329098802615911
 10
24704.35023147683
 20
28245.98863880974
 10
24711.61690674298
 20
28420.38884519725
 42
0.4264636592078054
 10
24661.66025308836
 20
28472.47037243286
 10
24583.7869703778
 20
28472.47037243286
  0
LWPOLYLINE
  5
75A9
330
17
100
AcDbEntity
  8
D-STR
 62
     6
100
AcDbPolyline
 90
       16
 70
     0
 43
0.0
 10
24113.7869703778
 20
27572.47037243286
 10
23860.73224648538
 20
27572.47037243286
 42
-0.4527334226614397
 10
23811.15222592607
 20
27628.93733163624
 10
23832.68619511335
 20
27794.03109540545
 42
0.0844999503419449
 10
23832.03366380338
 20
27810.79857866134
 10
23804.31819755371
 20
27942.44704334729
 42
-0.4207156214618034
 10
23844.03126005053
 20
28001.89117674649
 10
23953.7869703778
 20
28022.47037243286
 10
24003.62153362773
 20
28072.30493568279
 42
-0.3686325420660253
 10
24068.32525126011
 20
28077.43011879318
 10
24397.13658608591
 20
27839.04190104448
 42
-0.3854384608600709
 10
24410.97715255779
 20
27773.36782759855
 10
24363.7869703778
 20
27692.47037243286
 10
24363.7869703778
 20
27622.47037243286
 42
-0.414213562373095
 10
24313.7869703778
 20
27572.47037243286
 10
24113.7869703778
 20
27572.47037243286
  0
LWPOLYLINE
  5
75AA
330
17
100
AcDbEntity
  8
D-STR
 62
     6
100
AcDbPolyline
 90
       18
 70
     0
 43
0.0
 10
25189.7869703778
 20
29726.6317356732
 10
25179.7869703778
 20
29686.6317356732
 10
25159.7869703778
 20
29676.6317356732
 10
25139.7869703778
 20
29656.6317356732
 10
25129.7869703778
 20
29656.6317356732
 10
25089.7869703778
 20
29676.6317356732
 10
25059.7869703778
 20
29676.6317356732
 10
25009.7869703778
 20
29656.6317356732
 10
24977.7869703778
 20
29656.6317356732
 10
24947.7869703778
 20
29666.6317356732
 10
24917.7869703778
 20
29666.6317356732
 10
24907.7869703778
 20
29676.6317356732
 10
24867.7869703778
 20
29676.6317356732
 10
24847.7869703778
 20
29666.6317356732
 10
24817.7869703778
 20
29656.6317356732
 10
24787.7869703778
 20
29656.6317356732
 10
24747.7869703778
 20
29686.6317356732
 10
24737.7869703778
 20
29726.6317356732
  0
LWPOLYLINE
  5
75AB
330
17
100
AcDbEntity
  8
D-STR
 62
     6
100
AcDbPolyline
 90
       17
 70
     0
 43
0.0
 10
24085.7869703778
 20
29726.6317356732
 10
24075.7869703778
 20
29696.6317356732
 10
24055.7869703778
 20
29666.6317356732
 10
24035.7869703778
 20
29656.6317356732
 10
23915.7869703778
 20
29656.6317356732
 10
23895.7869703778
 20
29666.6317356732
 10
23735.7869703778
 20
29676.6317356732
 10
23665.7869703778
 20
29666.6317356732
 10
23635.7869703778
 20
29656.6317356732
 10
23545.7869703778
 20
29656.6317356732
 10
23445.7869703778
 20
29666.6317356732
 10
23425.7869703778
 20
29666.6317356732
 10
23415.7869703778
 20
29656.6317356732
 10
23343.7869703778
 20
29656.6317356732
 10
23313.7869703778
 20
29676.6317356732
 10
23303.7869703778
 20
29696.6317356732
 10
23293.7869703778
 20
29726.6317356732
  0
LWPOLYLINE
  5
75AC
330
17
100
AcDbEntity
  8
D-STR
 62
     6
100
AcDbPolyline
 90
       18
 70
     0
 43
0.0
 10
24707.7869703778
 20
29726.6317356732
 10
24697.7869703778
 20
29686.6317356732
 10
24677.7869703778
 20
29676.6317356732
 10
24657.7869703778
 20
29656.6317356732
 10
24587.7869703778
 20
29656.6317356732
 10
24547.7869703778
 20
29676.6317356732
 10
24517.7869703778
 20
29676.6317356732
 10
24417.7869703778
 20
29656.6317356732
 10
24387.7869703778
 20
29656.6317356732
 10
24357.7869703778
 20
29666.6317356732
 10
24327.7869703778
 20
29666.6317356732
 10
24317.7869703778
 20
29676.6317356732
 10
24277.7869703778
 20
29676.6317356732
 10
24257.7869703778
 20
29666.6317356732
 10
24197.7869703778
 20
29656.6317356732
 10
24167.7869703778
 20
29656.6317356732
 10
24127.7869703778
 20
29686.6317356732
 10
24117.7869703778
 20
29726.6317356732
  0
LINE
  5
75AD
330
17
100
AcDbEntity
  8
D-STR
100
AcDbLine
 10
23851.57420442035
 20
30226.63173567319
 30
0.0
 11
23631.99973633524
 21
30226.63173567319
 31
0.0
  0
LINE
  5
75AE
330
17
100
AcDbEntity
  8
D-STR
100
AcDbLine
 10
23860.3614384629
 20
30167.6317356732
 30
0.0
 11
23623.21250229269
 21
30167.6317356732
 31
0.0
  0
LINE
  5
75AF
330
17
100
AcDbEntity
  8
D-STR
100
AcDbLine
 10
23887.1699491012
 20
29987.6317356732
 30
0.0
 11
23596.40399165439
 21
29987.6317356732
 31
0.0
  0
LINE
  5
75B0
330
17
100
AcDbEntity
  8
D-STR
100
AcDbLine
 10
23893.12739590971
 20
29947.6317356732
 30
0.0
 11
23590.44654484588
 21
29947.6317356732
 31
0.0
  0
LWPOLYLINE
  5
75B1
330
17
100
AcDbEntity
  8
D-STR
100
AcDbPolyline
 90
       16
 70
     1
 43
0.0
 10
23741.7869703778
 20
29867.93668735819
 42
0.1023500478476368
 10
23730.3685556631
 20
29865.5745925732
 42
0.1000068243951913
 10
23720.5737669422
 20
29858.76767929437
 42
0.0968620902161082
 10
23714.08955365745
 20
29848.67349211041
 42
0.0947499530787467
 10
23711.7869703778
 20
29836.6317356732
 42
0.094749953078751
 10
23714.08955365745
 20
29824.58997923598
 42
0.096862090216083
 10
23720.5737669422
 20
29814.49579205201
 42
0.1000068243951858
 10
23730.3685556631
 20
29807.68887877319
 42
0.1023500478476382
 10
23741.7869703778
 20
29805.3267839882
 42
0.1023500478476315
 10
23753.20538509251
 20
29807.68887877319
 42
0.1000068243951805
 10
23763.00017381339
 20
29814.49579205201
 42
0.0968620902160977
 10
23769.48438709815
 20
29824.58997923598
 42
0.0947499530787491
 10
23771.7869703778
 20
29836.6317356732
 42
0.094749953078752
 10
23769.48438709815
 20
29848.67349211041
 42
0.096862090216096
 10
23763.00017381339
 20
29858.76767929437
 42
0.1000068243952075
 10
23753.2053850925
 20
29865.5745925732
 42
0.1023500478476428
  0
LWPOLYLINE
  5
75B2
330
17
100
AcDbEntity
  8
D-STR
100
AcDbPolyline
 90
       16
 70
     1
 43
0.0
 10
23741.7869703778
 20
29851.43668735819
 42
0.1023500478476391
 10
23736.91502169893
 20
29850.42884127319
 42
0.1000068243951913
 10
23732.48668233649
 20
29847.35135559501
 42
0.0968620902161042
 10
23729.42551091119
 20
29842.58592978123
 42
0.0947499530787492
 10
23728.2869703778
 20
29836.6317356732
 42
0.0947499530787495
 10
23729.42551091119
 20
29830.67754156515
 42
0.0968620902160849
 10
23732.48668233649
 20
29825.91211575137
 42
0.1000068243951882
 10
23736.91502169893
 20
29822.83463007319
 42
0.1023500478476391
 10
23741.7869703778
 20
29821.8267839882
 42
0.102350047847633
 10
23746.65891905667
 20
29822.83463007319
 42
0.1000068243951836
 10
23751.08725841911
 20
29825.91211575137
 42
0.0968620902161011
 10
23754.14842984441
 20
29830.67754156515
 42
0.0947499530787476
 10
23755.2869703778
 20
29836.6317356732
 42
0.094749953078753
 10
23754.14842984441
 20
29842.58592978123
 42
0.096862090216094
 10
23751.08725841911
 20
29847.35135559501
 42
0.1000068243952064
 10
23746.65891905667
 20
29850.42884127319
 42
0.1023500478476409
  0
LINE
  5
75B3
330
17
100
AcDbEntity
  8
D-STR
100
AcDbLine
 10
23614.27633207993
 20
30107.6317356732
 30
0.0
 11
23869.29760867567
 21
30107.6317356732
 31
0.0
  0
LINE
  5
75B4
330
17
100
AcDbEntity
  8
D-STR
100
AcDbLine
 10
25241.7869703778
 20
28522.47037243286
 30
0.0
 11
25207.7869703778
 21
28593.52610052286
 31
0.0
  0
LINE
  5
75B5
330
17
100
AcDbEntity
  8
D-STR
100
AcDbLine
 10
25207.7869703778
 20
28593.52610052286
 30
0.0
 11
24891.7869703778
 21
28613.52610052286
 31
0.0
  0
LINE
  5
75B6
330
17
100
AcDbEntity
  8
D-STR
100
AcDbLine
 10
24868.22831149109
 20
28613.52610052286
 30
0.0
 11
24860.3614384629
 21
28727.97037243285
 31
0.0
  0
LINE
  5
75B7
330
17
100
AcDbEntity
  8
D-STR
100
AcDbLine
 10
24860.3614384629
 20
28727.97037243285
 30
0.0
 11
24851.57420442035
 21
28757.47037243285
 31
0.0
  0
LINE
  5
75B8
330
17
100
AcDbEntity
  8
D-STR
100
AcDbLine
 10
24623.21250229269
 20
28727.97037243285
 30
0.0
 11
24631.99973633524
 21
28757.47037243285
 31
0.0
  0
LINE
  5
75B9
330
17
100
AcDbEntity
  8
D-STR
100
AcDbLine
 10
24615.34562926451
 20
28613.52610052286
 30
0.0
 11
24623.21250229269
 21
28727.97037243285
 31
0.0
  0
LINE
  5
75BA
330
17
100
AcDbEntity
  8
D-STR
100
AcDbLine
 10
24631.99973633524
 20
28757.47037243287
 30
0.0
 11
24951.7869703778
 21
28757.47037243285
 31
0.0
  0
LINE
  5
75BB
330
17
100
AcDbEntity
  8
D-STR
100
AcDbLine
 10
24951.7869703778
 20
28757.47037243285
 30
0.0
 11
24951.7869703778
 21
28609.72863216843
 31
0.0
  0
LINE
  5
75BC
330
17
100
AcDbEntity
  8
D-STR
100
AcDbLine
 10
24860.3614384629
 20
28727.97037243286
 30
0.0
 11
24623.21250229269
 21
28727.97037243285
 31
0.0
  0
LINE
  5
75BD
330
17
100
AcDbEntity
  8
D-STR
100
AcDbLine
 10
24891.7869703778
 20
28613.52610052286
 30
0.0
 11
24591.78697037779
 21
28613.52610052286
 31
0.0
  0
LINE
  5
75BE
330
17
100
AcDbEntity
  8
D-STR
100
AcDbLine
 10
24275.78697037779
 20
28593.52610052286
 30
0.0
 11
24591.78697037779
 21
28613.52610052286
 31
0.0
  0
LINE
  5
75BF
330
17
100
AcDbEntity
  8
D-STR
100
AcDbLine
 10
24207.7869703778
 20
28593.52610052286
 30
0.0
 11
23891.7869703778
 21
28613.52610052286
 31
0.0
  0
LINE
  5
75C0
330
17
100
AcDbEntity
  8
D-STR
100
AcDbLine
 10
23591.7869703778
 20
28613.52610052286
 30
0.0
 11
23891.78697037781
 21
28613.52610052286
 31
0.0
  0
LINE
  5
75C1
330
17
100
AcDbEntity
  8
D-STR
100
AcDbLine
 10
23623.21250229269
 20
28727.97037243286
 30
0.0
 11
23860.36143846291
 21
28727.97037243285
 31
0.0
  0
LINE
  5
75C2
330
17
100
AcDbEntity
  8
D-STR
100
AcDbLine
 10
23531.7869703778
 20
28757.47037243285
 30
0.0
 11
23531.7869703778
 21
28609.72863216843
 31
0.0
  0
LINE
  5
75C3
330
17
100
AcDbEntity
  8
D-STR
100
AcDbLine
 10
23851.57420442035
 20
28757.47037243287
 30
0.0
 11
23531.7869703778
 21
28757.47037243285
 31
0.0
  0
LINE
  5
75C4
330
17
100
AcDbEntity
  8
D-STR
100
AcDbLine
 10
23868.22831149109
 20
28613.52610052286
 30
0.0
 11
23860.36143846291
 21
28727.97037243285
 31
0.0
  0
LINE
  5
75C5
330
17
100
AcDbEntity
  8
D-STR
100
AcDbLine
 10
23860.36143846291
 20
28727.97037243285
 30
0.0
 11
23851.57420442035
 21
28757.47037243285
 31
0.0
  0
LINE
  5
75C6
330
17
100
AcDbEntity
  8
D-STR
100
AcDbLine
 10
23623.21250229269
 20
28727.97037243285
 30
0.0
 11
23631.99973633524
 21
28757.47037243285
 31
0.0
  0
LINE
  5
75C7
330
17
100
AcDbEntity
  8
D-STR
100
AcDbLine
 10
23615.34562926451
 20
28613.52610052286
 30
0.0
 11
23623.21250229269
 21
28727.97037243285
 31
0.0
  0
LINE
  5
75C8
330
17
100
AcDbEntity
  8
D-STR
100
AcDbLine
 10
23275.7869703778
 20
28593.52610052286
 30
0.0
 11
23591.7869703778
 21
28613.52610052286
 31
0.0
  0
LINE
  5
75C9
330
17
100
AcDbEntity
  8
D-STR
100
AcDbLine
 10
23241.7869703778
 20
28522.47037243286
 30
0.0
 11
23275.7869703778
 21
28593.52610052286
 31
0.0
  0
LINE
  5
75CA
330
17
100
AcDbEntity
  8
D-STR
100
AcDbLine
 10
24275.78697037777
 20
28593.52610052286
 30
0.0
 11
24207.78697037782
 21
28593.52610052286
 31
0.0
  0
LINE
  5
75CB
330
17
100
AcDbEntity
  8
D-STR
100
AcDbLine
 10
25239.7869703778
 20
29756.6317356732
 30
0.0
 11
23243.7869703778
 21
29756.6317356732
 31
0.0
  0
LINE
  5
75CC
330
17
100
AcDbEntity
  8
D-STR
 62
     4
100
AcDbLine
 10
26816.91825768699
 20
28007.47037243286
 30
0.0
 11
26916.91825768699
 21
28007.47037243286
 31
0.0
  0
LINE
  5
75CD
330
17
100
AcDbEntity
  8
D-STR
 62
     4
100
AcDbLine
 10
27016.91825768699
 20
28033.27037243286
 30
0.0
 11
26916.91825768699
 21
28007.47037243286
 31
0.0
  0
LINE
  5
75CE
330
17
100
AcDbEntity
  8
D-STR
 62
     4
100
AcDbLine
 10
26816.91825768699
 20
28007.47037243286
 30
0.0
 11
26916.91825768699
 21
27807.47037243286
 31
0.0
  0
LINE
  5
75CF
330
17
100
AcDbEntity
  8
D-STR
  6
HIDDEN
 62
     4
 48
0.2
100
AcDbLine
 10
24851.57420442035
 20
30226.6317356732
 30
0.0
 11
24821.7869703778
 21
30426.6317356732
 31
0.0
  0
LINE
  5
75D0
330
17
100
AcDbEntity
  8
D-STR
  6
HIDDEN
 62
     4
 48
0.2
100
AcDbLine
 10
23661.7869703778
 20
30426.6317356732
 30
0.0
 11
23631.99973633524
 21
30226.6317356732
 31
0.0
  0
LINE
  5
75D1
330
17
100
AcDbEntity
  8
D-STR
100
AcDbLine
 10
24631.99973633524
 20
30226.63173567319
 30
0.0
 11
24851.57420442035
 21
30226.63173567319
 31
0.0
  0
LINE
  5
75D2
330
17
100
AcDbEntity
  8
D-STR
100
AcDbLine
 10
24623.21250229269
 20
30167.6317356732
 30
0.0
 11
24860.3614384629
 21
30167.6317356732
 31
0.0
  0
LINE
  5
75D3
330
17
100
AcDbEntity
  8
D-STR
100
AcDbLine
 10
24596.40399165439
 20
29987.6317356732
 30
0.0
 11
24887.1699491012
 21
29987.6317356732
 31
0.0
  0
LINE
  5
75D4
330
17
100
AcDbEntity
  8
D-STR
100
AcDbLine
 10
24590.44654484588
 20
29947.6317356732
 30
0.0
 11
24893.12739590971
 21
29947.6317356732
 31
0.0
  0
LWPOLYLINE
  5
75D5
330
17
100
AcDbEntity
  8
D-STR
100
AcDbPolyline
 90
       16
 70
     1
 43
0.0
 10
24741.7869703778
 20
29867.93668735819
 42
-0.1023500478476368
 10
24753.2053850925
 20
29865.5745925732
 42
-0.1000068243951913
 10
24763.00017381339
 20
29858.76767929437
 42
-0.0968620902161082
 10
24769.48438709814
 20
29848.67349211041
 42
-0.0947499530787467
 10
24771.7869703778
 20
29836.6317356732
 42
-0.094749953078751
 10
24769.48438709814
 20
29824.58997923598
 42
-0.096862090216083
 10
24763.00017381339
 20
29814.49579205201
 42
-0.1000068243951858
 10
24753.2053850925
 20
29807.68887877319
 42
-0.1023500478476382
 10
24741.7869703778
 20
29805.3267839882
 42
-0.1023500478476315
 10
24730.36855566309
 20
29807.68887877319
 42
-0.1000068243951805
 10
24720.5737669422
 20
29814.49579205201
 42
-0.0968620902160977
 10
24714.08955365745
 20
29824.58997923598
 42
-0.0947499530787491
 10
24711.7869703778
 20
29836.6317356732
 42
-0.094749953078752
 10
24714.08955365745
 20
29848.67349211041
 42
-0.096862090216096
 10
24720.5737669422
 20
29858.76767929437
 42
-0.1000068243952075
 10
24730.36855566309
 20
29865.5745925732
 42
-0.1023500478476428
  0
LWPOLYLINE
  5
75D6
330
17
100
AcDbEntity
  8
D-STR
100
AcDbPolyline
 90
       16
 70
     1
 43
0.0
 10
24741.7869703778
 20
29851.43668735819
 42
-0.1023500478476391
 10
24746.65891905667
 20
29850.42884127319
 42
-0.1000068243951913
 10
24751.0872584191
 20
29847.35135559501
 42
-0.0968620902161042
 10
24754.1484298444
 20
29842.58592978123
 42
-0.0947499530787492
 10
24755.2869703778
 20
29836.6317356732
 42
-0.0947499530787495
 10
24754.1484298444
 20
29830.67754156515
 42
-0.0968620902160849
 10
24751.0872584191
 20
29825.91211575137
 42
-0.1000068243951882
 10
24746.65891905667
 20
29822.83463007319
 42
-0.1023500478476391
 10
24741.7869703778
 20
29821.8267839882
 42
-0.102350047847633
 10
24736.91502169892
 20
29822.83463007319
 42
-0.1000068243951836
 10
24732.48668233649
 20
29825.91211575137
 42
-0.0968620902161011
 10
24729.42551091119
 20
29830.67754156515
 42
-0.0947499530787476
 10
24728.2869703778
 20
29836.6317356732
 42
-0.094749953078753
 10
24729.42551091119
 20
29842.58592978123
 42
-0.096862090216094
 10
24732.48668233649
 20
29847.35135559501
 42
-0.1000068243952064
 10
24736.91502169892
 20
29850.42884127319
 42
-0.1023500478476409
  0
LINE
  5
75D7
330
17
100
AcDbEntity
  8
D-STR
100
AcDbLine
 10
24869.29760867567
 20
30107.6317356732
 30
0.0
 11
24614.27633207993
 21
30107.6317356732
 31
0.0
  0
LWPOLYLINE
  5
75D8
330
17
100
AcDbEntity
  8
D-STR
100
AcDbPolyline
 90
        3
 70
     0
 43
0.0
 10
24241.7869703778
 20
29896.6317356732
 10
24269.7869703778
 20
29896.6317356732
 10
24588.75209761625
 20
29936.25473284567
  0
LWPOLYLINE
  5
75D9
330
17
100
AcDbEntity
  8
D-STR
100
AcDbPolyline
 90
        2
 70
     0
 43
0.0
 10
25213.48331378002
 20
29896.91790419466
 10
24894.82184313934
 20
29936.25473284567
  0
LINE
  5
75DA
330
17
100
AcDbEntity
  8
D-STR
100
AcDbLine
 10
24269.7869703778
 20
29896.6317356732
 30
0.0
 11
24269.7869703778
 21
29916.6317356732
 31
0.0
  0
LINE
  5
75DB
330
17
100
AcDbEntity
  8
D-STR
100
AcDbLine
 10
24891.7869703778
 20
29956.6317356732
 30
0.0
 11
24894.82184313934
 21
29936.25473284567
 31
0.0
  0
LINE
  5
75DC
330
17
100
AcDbEntity
  8
D-STR
100
AcDbLine
 10
24591.7869703778
 20
29956.6317356732
 30
0.0
 11
24588.75209761625
 21
29936.25473284567
 31
0.0
  0
DIMENSION
  5
75DD
330
17
100
AcDbEntity
  8
D-STR-DIM
100
AcDbDimension
  2
*D23
 10
25239.7869703778
 20
29282.36918365881
 30
0.0
 11
24241.7869703778
 21
29397.36918365881
 31
0.0
 70
    32
 71
     5
 42
998.0
  3
S-50
100
AcDbAlignedDimension
 13
23243.7869703778
 23
29756.6317356732
 33
0.0
 14
25239.7869703778
 24
29756.6317356732
 34
0.0
100
AcDbRotatedDimension
1001
ACAD
1000
DSTYLE
1002
{
1070
   144
1040
0.5
1002
}
  0
DIMENSION
  5
75DE
330
17
100
AcDbEntity
  8
D-STR-DIM
100
AcDbDimension
  2
*D24
 10
22807.91087577639
 20
30426.6317356732
 30
0.0
 11
22692.91087577639
 21
30076.6317356732
 31
0.0
 70
    32
 71
     5
 42
350.0
  3
S-50
100
AcDbAlignedDimension
 13
23273.7869703778
 23
29726.6317356732
 33
0.0
 14
23531.7869703778
 24
30426.6317356732
 34
0.0
 50
90.0
100
AcDbRotatedDimension
1001
ACAD
1000
DSTYLE
1002
{
1070
   144
1040
0.5
1002
}
  0
DIMENSION
  5
75DF
330
17
100
AcDbEntity
  8
D-STR-DIM
100
AcDbDimension
  2
*D25
 10
22807.91087577639
 20
27522.47037243286
 30
0.0
 11
22692.91087577638
 21
28022.47037243286
 31
0.0
 70
    32
 71
     5
 42
500.0
  3
S-50
100
AcDbAlignedDimension
 13
23241.7869703778
 23
28522.47037243286
 33
0.0
 14
23245.7869703778
 24
27522.47037243286
 34
0.0
 50
90.0
100
AcDbRotatedDimension
1001
ACAD
1000
DSTYLE
1002
{
1070
   144
1040
0.5
1002
}
  0
DIMENSION
  5
75E0
330
17
100
AcDbEntity
  8
D-STR-DIM
100
AcDbDimension
  2
*D26
 10
25241.7869703778
 20
27090.31802028297
 30
0.0
 11
24243.7869703778
 21
27205.31802028297
 31
0.0
 70
    32
 71
     5
 42
998.0
  3
S-50
100
AcDbAlignedDimension
 13
23245.7869703778
 23
27522.47037243286
 33
0.0
 14
25241.7869703778
 24
27522.47037243286
 34
0.0
100
AcDbRotatedDimension
1001
ACAD
1000
DSTYLE
1002
{
1070
   144
1040
0.5
1002
}
  0
DIMENSION
  5
75E1
330
17
100
AcDbEntity
  8
D-STR-DIM
100
AcDbDimension
  2
*D27
 10
25905.56102790308
 20
28522.47037243286
 30
0.0
 11
25790.56102790307
 21
28022.47037243287
 31
0.0
 70
    32
 71
     5
 42
500.0
  3
S-50
100
AcDbAlignedDimension
 13
26346.91825768699
 23
27522.47037243286
 33
0.0
 14
26346.91825768699
 24
28522.47037243286
 34
0.0
 50
90.0
100
AcDbRotatedDimension
1001
ACAD
1000
DSTYLE
1002
{
1070
   144
1040
0.5
1002
}
  0
DIMENSION
  5
75E2
330
17
100
AcDbEntity
  8
D-STR-DIM
100
AcDbDimension
  2
*D28
 10
27016.91825768699
 20
27090.31802028297
 30
0.0
 11
26666.91825768699
 21
27205.31802028297
 31
0.0
 70
    32
 71
     5
 42
350.0
  3
S-50
100
AcDbAlignedDimension
 13
26316.91825768699
 23
27552.47037243286
 33
0.0
 14
27016.91825768699
 24
27807.47037243286
 34
0.0
100
AcDbRotatedDimension
1001
ACAD
1000
DSTYLE
1002
{
1070
   144
1040
0.5
1002
}
  0
TEXT
  5
76E1
330
17
100
AcDbEntity
  8
D-STR-TXT
100
AcDbText
 10
38578.67589622041
 20
21162.06836958971
 30
0.0
 40
175.0
  1
エスコン
  7
ＭＳ ゴシック
100
AcDbText
  0
DIMENSION
  5
7751
330
17
100
AcDbEntity
  8
D-STR-TXT
100
AcDbDimension
  2
*D29
 10
28472.76628356904
 20
28434.62595198402
 30
0.0
 11
28357.76628356903
 21
28284.62595198402
 31
0.0
 70
   160
 71
     5
 42
300.0
  3
S-50
100
AcDbAlignedDimension
 13
29005.95948800291
 23
28134.62595198402
 33
0.0
 14
29055.95948800291
 24
28434.62595198402
 34
0.0
 50
90.0
100
AcDbRotatedDimension
  0
DIMENSION
  5
775F
330
17
100
AcDbEntity
  8
D-STR-TXT
100
AcDbDimension
  2
*D30
 10
29555.95948800291
 20
27502.50082201057
 30
0.0
 11
29305.95948800291
 21
27617.50082201057
 31
0.0
 70
    32
 71
     5
 42
500.0
  3
S-50
100
AcDbAlignedDimension
 13
29055.95948800291
 23
28134.62595198402
 33
0.0
 14
29555.95948800291
 24
28134.62595198402
 34
0.0
100
AcDbRotatedDimension
  0
TEXT
  5
7881
330
17
100
AcDbEntity
  8
D-STR-DIM
100
AcDbText
 10
29707.11626046927
 20
32321.67012536929
 30
0.0
 40
200.0
  1
[裏コンなし]
  7
ＭＳ ゴシック
100
AcDbText
  0
DIMENSION
  5
7883
330
17
100
AcDbEntity
  8
D-STR-TXT
100
AcDbDimension
  2
*D31
 10
31408.13948043426
 20
31485.54175147205
 30
0.0
 11
31325.40496526676
 21
31655.48291776202
 31
0.0
 70
   160
 71
     5
 42
300.0000000000036
  3
S-50
100
AcDbAlignedDimension
 13
30860.64979135266
 23
31061.38276655876
 33
0.0
 14
31224.32236719012
 24
31117.90752498374
 34
0.0
 50
153.4349488229237
100
AcDbRotatedDimension
  0
TEXT
  5
78B1
330
17
100
AcDbEntity
  8
D-STR-DIM
100
AcDbText
 10
30184.16914062377
 20
27453.32052109903
 30
0.0
 40
150.0
  1
控350用
  7
ＭＳ ゴシック
100
AcDbText
  0
TEXT
  5
78BB
330
17
100
AcDbEntity
  8
D-STR-DIM
100
AcDbText
 10
31287.21035008572
 20
29980.2227316131
 30
0.0
 40
150.0
  1
(胴込量 0.18m3/m2)
  7
ＭＳ ゴシック
100
AcDbText
  0
INSERT
  5
78BC
330
17
100
AcDbEntity
  8
D-STR-TXT
100
AcDbBlockReference
  2
エスコン
 10
34656.7966955868
 20
28065.97477423552
 30
0.0
  0
INSERT
  5
78BE
330
17
100
AcDbEntity
  8
D-STR-TXT
100
AcDbBlockReference
  2
エスコン
 10
34880.40349333676
 20
28513.18836973547
 30
0.0
  0
INSERT
  5
78BF
330
17
100
AcDbEntity
  8
D-STR-TXT
100
AcDbBlockReference
  2
エスコン
 10
35104.01029108672
 20
28960.40196523543
 30
0.0
  0
INSERT
  5
78C0
330
17
100
AcDbEntity
  8
D-STR-TXT
100
AcDbBlockReference
  2
エスコン
 10
35327.61708883668
 20
29407.61556073538
 30
0.0
  0
INSERT
  5
78C1
330
17
100
AcDbEntity
  8
D-STR-TXT
100
AcDbBlockReference
  2
エスコン
 10
35551.22388658665
 20
29854.82915623533
 30
0.0
  0
INSERT
  5
78C2
330
17
100
AcDbEntity
  8
D-STR-TXT
100
AcDbBlockReference
  2
エスコン
 10
35774.83068433661
 20
30302.04275173529
 30
0.0
  0
INSERT
  5
78C3
330
17
100
AcDbEntity
  8
D-STR-TXT
100
AcDbBlockReference
  2
エスコン
 10
35998.43748208657
 20
30749.25634723524
 30
0.0
  0
LINE
  5
78C4
330
17
100
AcDbEntity
  8
D-STR
100
AcDbLine
 10
36222.04427983656
 20
31196.4699427352
 30
0.0
 11
37060.56977139899
 21
31196.4699427352
 31
0.0
  0
LINE
  5
78C5
330
17
100
AcDbEntity
  8
D-STR
100
AcDbLine
 10
36272.04427983656
 20
31296.4699427352
 30
0.0
 11
37060.56977139898
 21
31296.46994273519
 31
0.0
  0
LINE
  5
78C6
330
17
100
AcDbEntity
  8
D-STR
100
AcDbLine
 10
36222.04427983656
 20
31196.4699427352
 30
0.0
 11
36272.04427983656
 21
31296.4699427352
 31
0.0
  0
LINE
  5
78C7
330
17
100
AcDbEntity
  8
D-STR
100
AcDbLine
 10
37060.56977139898
 20
31196.4699427352
 30
0.0
 11
37060.56977139898
 21
31296.46994273519
 31
0.0
  0
ELLIPSE
  5
78C8
330
17
100
AcDbEntity
  8
D-STR-STR1
100
AcDbEllipse
 10
36864.9969736968
 20
31125.71134946103
 30
0.0
 11
-10.94012527381687
 21
-62.04453356973789
 31
0.0
210
0.0
220
0.0
230
1.0
 40
0.6079535901530466
 41
0.0
 42
6.283185307179586
  0
ELLIPSE
  5
78C9
330
17
100
AcDbEntity
  8
D-STR-STR1
100
AcDbEllipse
 10
36765.51642644215
 20
31125.71134946103
 30
0.0
 11
-10.94012527381687
 21
-62.04453356973789
 31
0.0
210
0.0
220
0.0
230
1.0
 40
0.6079535901530466
 41
0.0
 42
6.283185307179586
  0
ELLIPSE
  5
78CA
330
17
100
AcDbEntity
  8
D-STR-STR1
100
AcDbEllipse
 10
36910.35010906899
 20
30995.28147889194
 30
0.0
 11
-10.94012527381688
 21
-62.04453356973792
 31
0.0
210
0.0
220
0.0
230
1.0
 40
0.6079535901530465
 41
0.0
 42
6.283185307179586
  0
ELLIPSE
  5
78CB
330
17
100
AcDbEntity
  8
D-STR-STR1
100
AcDbEllipse
 10
36808.93643996142
 20
30995.28147889194
 30
0.0
 11
-10.94012527381688
 21
-62.04453356973791
 31
0.0
210
0.0
220
0.0
230
1.0
 40
0.6079535901530466
 41
0.0
 42
6.283185307179586
  0
ELLIPSE
  5
78CC
330
17
100
AcDbEntity
  8
D-STR-STR1
100
AcDbEllipse
 10
36709.45589270678
 20
30995.28147889194
 30
0.0
 11
-10.94012527381688
 21
-62.04453356973791
 31
0.0
210
0.0
220
0.0
230
1.0
 40
0.6079535901530466
 41
0.0
 42
6.283185307179586
  0
ELLIPSE
  5
78CD
330
17
100
AcDbEntity
  8
D-STR-STR1
100
AcDbEllipse
 10
36854.28957533361
 20
30864.85160832285
 30
0.0
 11
-10.94012527381688
 21
-62.04453356973792
 31
0.0
210
0.0
220
0.0
230
1.0
 40
0.6079535901530465
 41
0.0
 42
6.283185307179586
  0
ELLIPSE
  5
78CE
330
17
100
AcDbEntity
  8
D-STR-STR1
100
AcDbEllipse
 10
36752.87590622604
 20
30864.85160832285
 30
0.0
 11
-10.94012527381688
 21
-62.04453356973791
 31
0.0
210
0.0
220
0.0
230
1.0
 40
0.6079535901530466
 41
0.0
 42
6.283185307179586
  0
ELLIPSE
  5
78CF
330
17
100
AcDbEntity
  8
D-STR-STR1
100
AcDbEllipse
 10
36653.3953589714
 20
30864.85160832285
 30
0.0
 11
-10.94012527381688
 21
-62.04453356973791
 31
0.0
210
0.0
220
0.0
230
1.0
 40
0.6079535901530466
 41
0.0
 42
6.283185307179586
  0
LINE
  5
78D0
330
17
100
AcDbEntity
  8
D-STR-STR1
100
AcDbLine
 10
35648.3717039991
 20
27665.97477423552
 30
0.0
 11
37060.56977139898
 21
31196.4699427352
 31
0.0
  0
LINE
  5
78D1
330
17
100
AcDbEntity
  8
D-STR-STR1
100
AcDbLine
 10
34556.79669558683
 20
27765.97477423552
 30
0.0
 11
34506.79669558683
 21
27765.97477423552
 31
0.0
  0
LINE
  5
78D2
330
17
100
AcDbEntity
  8
D-STR-STR1
100
AcDbLine
 10
34506.79669558683
 20
27765.97477423552
 30
0.0
 11
34506.79669558683
 21
27665.97477423552
 31
0.0
  0
LINE
  5
78D3
330
17
100
AcDbEntity
  8
D-STR-STR1
100
AcDbLine
 10
35156.79669558684
 20
27765.97477423551
 30
0.0
 11
35206.79669558684
 21
27765.97477423551
 31
0.0
  0
LINE
  5
78D4
330
17
100
AcDbEntity
  8
D-STR-STR1
100
AcDbLine
 10
35206.79669558684
 20
27765.97477423551
 30
0.0
 11
35206.79669558684
 21
27665.97477423551
 31
0.0
  0
LINE
  5
78D5
330
17
100
AcDbEntity
  8
D-STR-STR1
100
AcDbLine
 10
34506.79669558683
 20
27665.97477423552
 30
0.0
 11
35206.79669558684
 21
27665.97477423551
 31
0.0
  0
LINE
  5
78D6
330
17
100
AcDbEntity
  8
D-STR-STR1
100
AcDbLine
 10
35206.79669558684
 20
27665.97477423551
 30
0.0
 11
35648.3717039991
 21
27665.97477423552
 31
0.0
  0
ELLIPSE
  5
78D7
330
17
100
AcDbEntity
  8
D-STR-STR1
100
AcDbEllipse
 10
36966.41064280437
 20
31125.71134946103
 30
0.0
 11
-10.94012527381688
 21
-62.04453356973792
 31
0.0
210
0.0
220
0.0
230
1.0
 40
0.6079535901530465
 41
0.0
 42
6.283185307179586
  0
ELLIPSE
  5
78D8
330
17
100
AcDbEntity
  8
D-STR-STR1
100
AcDbEllipse
 10
35613.59431683431
 20
27739.57996756608
 30
0.0
 11
-10.94012527381688
 21
-62.04453356973792
 31
0.0
210
0.0
220
0.0
230
1.0
 40
0.6079535901530465
 41
0.0
 42
6.283185307179586
  0
ELLIPSE
  5
78D9
330
17
100
AcDbEntity
  8
D-STR-STR1
100
AcDbEllipse
 10
35524.74932556212
 20
27739.57996756608
 30
0.0
 11
-10.94012527381688
 21
-62.04453356973792
 31
0.0
210
0.0
220
0.0
230
1.0
 40
0.6079535901530465
 41
0.0
 42
6.283185307179586
  0
ELLIPSE
  5
78DA
330
17
100
AcDbEntity
  8
D-STR-STR1
100
AcDbEllipse
 10
35435.90433428993
 20
27739.57996756608
 30
0.0
 11
-10.94012527381688
 21
-62.04453356973792
 31
0.0
210
0.0
220
0.0
230
1.0
 40
0.6079535901530465
 41
0.0
 42
6.283185307179586
  0
ELLIPSE
  5
78DB
330
17
100
AcDbEntity
  8
D-STR-STR1
100
AcDbEllipse
 10
35347.05934301774
 20
27739.57996756608
 30
0.0
 11
-10.94012527381688
 21
-62.04453356973792
 31
0.0
210
0.0
220
0.0
230
1.0
 40
0.6079535901530465
 41
0.0
 42
6.283185307179586
  0
ELLIPSE
  5
78DC
330
17
100
AcDbEntity
  8
D-STR-STR1
100
AcDbEllipse
 10
35258.21435174555
 20
27739.57996756608
 30
0.0
 11
-10.94012527381688
 21
-62.04453356973792
 31
0.0
210
0.0
220
0.0
230
1.0
 40
0.6079535901530465
 41
0.0
 42
6.283185307179586
  0
ELLIPSE
  5
78DD
330
17
100
AcDbEntity
  8
D-STR-STR1
100
AcDbEllipse
 10
35669.97672517214
 20
27874.49805198328
 30
0.0
 11
-10.94012527381688
 21
-62.04453356973792
 31
0.0
210
0.0
220
0.0
230
1.0
 40
0.6079535901530464
 41
0.0
 42
6.283185307179586
  0
ELLIPSE
  5
78DE
330
17
100
AcDbEntity
  8
D-STR-STR1
100
AcDbEllipse
 10
35581.13173389994
 20
27874.49805198328
 30
0.0
 11
-10.94012527381688
 21
-62.04453356973792
 31
0.0
210
0.0
220
0.0
230
1.0
 40
0.6079535901530465
 41
0.0
 42
6.283185307179586
  0
ELLIPSE
  5
78DF
330
17
100
AcDbEntity
  8
D-STR-STR1
100
AcDbEllipse
 10
35492.28674262775
 20
27874.49805198328
 30
0.0
 11
-10.94012527381688
 21
-62.04453356973793
 31
0.0
210
0.0
220
0.0
230
1.0
 40
0.6079535901530463
 41
0.0
 42
6.283185307179586
  0
ELLIPSE
  5
78E0
330
17
100
AcDbEntity
  8
D-STR-STR1
100
AcDbEllipse
 10
35403.44175135556
 20
27874.49805198328
 30
0.0
 11
-10.94012527381688
 21
-62.04453356973793
 31
0.0
210
0.0
220
0.0
230
1.0
 40
0.6079535901530463
 41
0.0
 42
6.283185307179586
  0
ELLIPSE
  5
78E1
330
17
100
AcDbEntity
  8
D-STR-STR1
100
AcDbEllipse
 10
35314.59676008337
 20
27874.49805198328
 30
0.0
 11
-10.94012527381688
 21
-62.04453356973793
 31
0.0
210
0.0
220
0.0
230
1.0
 40
0.6079535901530463
 41
0.0
 42
6.283185307179586
  0
ELLIPSE
  5
78E2
330
17
100
AcDbEntity
  8
D-STR-STR1
100
AcDbEllipse
 10
35225.75176881118
 20
27874.49805198328
 30
0.0
 11
-10.94012527381688
 21
-62.04453356973793
 31
0.0
210
0.0
220
0.0
230
1.0
 40
0.6079535901530463
 41
0.0
 42
6.283185307179586
  0
ELLIPSE
  5
78E3
330
17
100
AcDbEntity
  8
D-STR-STR1
100
AcDbEllipse
 10
35716.10777231443
 20
28002.58488523539
 30
0.0
 11
-10.94012527381688
 21
-62.04453356973792
 31
0.0
210
0.0
220
0.0
230
1.0
 40
0.6079535901530465
 41
0.0
 42
6.283185307179586
  0
ELLIPSE
  5
78E4
330
17
100
AcDbEntity
  8
D-STR-STR1
100
AcDbEllipse
 10
35360.72780722567
 20
28002.58488523539
 30
0.0
 11
-10.94012527381688
 21
-62.04453356973793
 31
0.0
210
0.0
220
0.0
230
1.0
 40
0.6079535901530463
 41
0.0
 42
6.283185307179586
  0
ELLIPSE
  5
78E5
330
17
100
AcDbEntity
  8
D-STR-STR1
100
AcDbEllipse
 10
35271.88281595348
 20
28002.58488523539
 30
0.0
 11
-10.94012527381689
 21
-62.04453356973795
 31
0.0
210
0.0
220
0.0
230
1.0
 40
0.607953590153046
 41
0.0
 42
6.283185307179586
  0
ELLIPSE
  5
78E6
330
17
100
AcDbEntity
  8
D-STR-STR1
100
AcDbEllipse
 10
35234.11781380734
 20
28119.71808480054
 30
0.0
 11
-10.94012527381688
 21
-62.04453356973793
 31
0.0
210
0.0
220
0.0
230
1.0
 40
0.6079535901530461
 41
0.0
 42
6.283185307179586
  0
DIMENSION
  5
78E7
330
17
100
AcDbEntity
  8
D-STR-DIM
100
AcDbDimension
  2
*D34
 10
34621.88256597497
 20
29201.46582779135
 30
0.0
 11
34407.22004013499
 21
29029.28859352387
 31
0.0
 70
    33
 71
     5
 42
500.0000000000073
  3
S-50
100
AcDbAlignedDimension
 13
34880.4034933368
 23
28513.18836973549
 33
0.0
 14
35104.01029108678
 24
28960.40196523545
 34
0.0
  0
DIMENSION
  5
78E8
330
17
100
AcDbEntity
  8
D-STR-DIM
100
AcDbDimension
  2
*D35
 10
34845.48936372496
 20
29648.67942329132
 30
0.0
 11
34630.82683788499
 21
29476.50218902384
 31
0.0
 70
    33
 71
     5
 42
500.0
  3
S-50
100
AcDbAlignedDimension
 13
35104.01029108678
 23
28960.40196523547
 33
0.0
 14
35327.61708883676
 24
29407.61556073543
 34
0.0
  0
DIMENSION
  5
78E9
330
17
100
AcDbEntity
  8
D-STR-DIM
100
AcDbDimension
  2
*D36
 10
35069.09616147493
 20
30095.89301879128
 30
0.0
 11
34854.43363563495
 21
29923.7157845238
 31
0.0
 70
    33
 71
     5
 42
500.0000000000073
  3
S-50
100
AcDbAlignedDimension
 13
35327.61708883675
 23
29407.61556073543
 33
0.0
 14
35551.22388658673
 24
29854.82915623539
 34
0.0
  0
DIMENSION
  5
78EA
330
17
100
AcDbEntity
  8
D-STR-DIM
100
AcDbDimension
  2
*D37
 10
33973.60349115295
 20
31296.4699427352
 30
0.0
 11
33858.60349115294
 21
29681.22235848536
 31
0.0
 70
    32
  1
H
 71
     5
 42
3230.495168499678
  3
S-50
100
AcDbAlignedDimension
 13
34556.79669558683
 23
28065.97477423552
 33
0.0
 14
36272.04427983656
 24
31296.4699427352
 34
0.0
 50
90.0
100
AcDbRotatedDimension
  0
DIMENSION
  5
78EB
330
17
100
AcDbEntity
  8
D-STR-DIM
100
AcDbDimension
  2
*D38
 10
35519.9322288601
 20
31196.4699427352
 30
0.0
 11
35404.93222886009
 21
31246.4699427352
 31
0.0
 70
    32
 71
     5
 42
100.0
  3
S-50
100
AcDbAlignedDimension
 13
36272.04427983656
 23
31296.4699427352
 33
0.0
 14
36222.04427983656
 24
31196.4699427352
 34
0.0
 50
90.0
100
AcDbRotatedDimension
  0
TEXT
  5
78ED
330
17
100
AcDbEntity
  8
D-STR-DIM
100
AcDbText
 10
37360.70023679639
 20
30812.76113160601
 30
0.0
 40
150.0
  1
天端工
  7
ＭＳ ゴシック
100
AcDbText
  0
LINE
  5
78EE
330
17
100
AcDbEntity
  8
D-STR-DIM
100
AcDbLine
 10
37280.42654332578
 20
30760.60572952463
 30
0.0
 11
38033.15866299113
 21
30760.60572952463
 31
0.0
  0
LEADER
  5
78EF
330
17
100
AcDbEntity
  8
D-STR-DIM
100
AcDbLeader
  3
S-50
 76
     2
 10
36815.62283782438
 20
31248.18157547248
 30
0.0
 10
37280.42654332578
 20
30760.60572952463
 30
0.0
1001
ACAD
1000
DSTYLE
1002
{
1070
   147
1040
0.8
1070
    77
1070
     0
1002
}
  0
TEXT
  5
78F0
330
17
100
AcDbEntity
  8
D-STR-DIM
100
AcDbText
 10
37022.83858726424
 20
30334.08719417091
 30
0.0
 40
150.0
  1
エスコン
  7
ＭＳ ゴシック
100
AcDbText
  0
LEADER
  5
78F1
330
17
100
AcDbEntity
  8
D-STR-DIM
100
AcDbLeader
  3
S-50
 76
     2
 10
36027.76868494913
 20
30281.93179208953
 30
0.0
 10
38825.59018193172
 20
30281.93179208953
 30
0.0
1001
ACAD
1000
DSTYLE
1002
{
1070
   147
1040
0.8
1070
    77
1070
     0
1002
}
  0
TEXT
  5
78F2
330
17
100
AcDbEntity
  8
D-STR-DIM
100
AcDbText
 10
36886.67734939619
 20
29773.52267892229
 30
0.0
 40
150.0
  1
胴込コンクリート
  7
ＭＳ ゴシック
100
AcDbText
  0
LEADER
  5
78F3
330
17
100
AcDbEntity
  8
D-STR-DIM
100
AcDbLeader
  3
S-50
 76
     2
 10
35714.26463296584
 20
29721.36727684091
 30
0.0
 10
38564.50290274151
 20
29721.36727684091
 30
0.0
1001
ACAD
1000
DSTYLE
1002
{
1070
   147
1040
0.8
1070
    77
1070
     0
1002
}
  0
TEXT
  5
78F4
330
17
100
AcDbEntity
  8
D-STR-DIM
100
AcDbText
 10
36608.0149596265
 20
28781.58012088194
 30
0.0
 40
150.0
  1
裏込め材
  7
ＭＳ ゴシック
100
AcDbText
  0
LEADER
  5
78F5
330
17
100
AcDbEntity
  8
D-STR-DIM
100
AcDbLeader
  3
S-50
 76
     2
 10
35767.29709416752
 20
28729.42471880056
 30
0.0
 10
37478.52026964413
 20
28729.42471880056
 30
0.0
1001
ACAD
1000
DSTYLE
1002
{
1070
   147
1040
0.8
1070
    77
1070
     0
1002
}
  0
TEXT
  5
78F6
330
17
100
AcDbEntity
  8
D-STR-DIM
100
AcDbText
 10
35710.19754382838
 20
27274.46389176039
 30
0.0
 40
150.0
  1
基礎ブロック
  7
ＭＳ ゴシック
100
AcDbText
  0
LINE
  5
78F7
330
17
100
AcDbEntity
  8
D-STR-DIM
100
AcDbLine
 10
35629.92385035777
 20
27222.30848967901
 30
0.0
 11
36926.84684012164
 21
27222.30848967901
 31
0.0
  0
LEADER
  5
78F8
330
17
100
AcDbEntity
  8
D-STR-DIM
100
AcDbLeader
  3
S-50
 76
     2
 10
34963.05061309455
 20
27831.96297410906
 30
0.0
 10
35629.92385035777
 20
27222.30848967901
 30
0.0
1001
ACAD
1000
DSTYLE
1002
{
1070
   147
1040
0.8
1070
    77
1070
     0
1002
}
  0
DIMENSION
  5
78F9
330
17
100
AcDbEntity
  8
D-STR-TXT
100
AcDbDimension
  2
*D40
 10
33973.60349115295
 20
28065.97477423552
 30
0.0
 11
33858.60349115294
 21
27915.97477423552
 31
0.0
 70
   160
 71
     5
 42
300.0
  3
S-50
100
AcDbAlignedDimension
 13
34506.79669558683
 23
27765.97477423552
 33
0.0
 14
34556.79669558683
 24
28065.97477423552
 34
0.0
 50
90.0
100
AcDbRotatedDimension
  0
DIMENSION
  5
78FA
330
17
100
AcDbEntity
  8
D-STR-TXT
100
AcDbDimension
  2
*D41
 10
35156.79669558684
 20
27133.84964426207
 30
0.0
 11
34856.79669558683
 21
27248.84964426207
 31
0.0
 70
    32
 71
     5
 42
600.0000000000146
  3
S-50
100
AcDbAlignedDimension
 13
34556.79669558683
 23
27765.97477423552
 33
0.0
 14
35156.79669558684
 24
27765.97477423551
 34
0.0
100
AcDbRotatedDimension
  0
TEXT
  5
78FB
330
17
100
AcDbEntity
  8
D-STR-DIM
100
AcDbText
 10
35207.95346805318
 20
32321.67012536929
 30
0.0
 40
200.0
  1
[裏コン10cm]
  7
ＭＳ ゴシック
100
AcDbText
  0
TEXT
  5
78FD
330
17
100
AcDbEntity
  8
D-STR-DIM
100
AcDbText
 10
35710.19754382838
 20
27034.30841673232
 30
0.0
 40
150.0
  1
控450用
  7
ＭＳ ゴシック
100
AcDbText
  0
TEXT
  5
78FE
330
17
100
AcDbEntity
  8
D-STR-DIM
100
AcDbText
 10
37022.83858726424
 20
30090.08140118338
 30
0.0
 40
150.0
  1
(胴込量 0.18m3/m2)
  7
ＭＳ ゴシック
100
AcDbText
  0
TEXT
  5
79E7
330
17
100
AcDbEntity
  8
D-STR-DIM
100
AcDbText
 10
31548.39895624552
 20
30871.4402162547
 30
0.0
 40
150.0
  1
天端工
  7
ＭＳ ゴシック
100
AcDbText
  0
LINE
  5
79E8
330
17
100
AcDbEntity
  8
D-STR-DIM
100
AcDbLine
 10
31468.12526277492
 20
30819.28481417332
 30
0.0
 11
32220.85738244027
 21
30819.28481417332
 31
0.0
  0
LEADER
  5
79E9
330
17
100
AcDbEntity
  8
D-STR-DIM
100
AcDbLeader
  3
S-50
 76
     2
 10
31039.67298654864
 20
31162.48698205195
 30
0.0
 10
31468.12526277492
 20
30819.28481417332
 30
0.0
1001
ACAD
1000
DSTYLE
1002
{
1070
   147
1040
0.8
1070
    77
1070
     0
1002
}
  0
INSERT
  5
7A72
330
17
100
AcDbEntity
  8
D-STR-TXT
100
AcDbBlockReference
  2
エスコン基礎45
 10
34556.79669558683
 20
27765.97477423552
 30
0.0
  0
INSERT
  5
7A73
330
17
100
AcDbEntity
  8
D-STR-TXT
100
AcDbBlockReference
  2
エスコン基礎50
 10
29040.65406075551
 20
21207.1046723565
 30
0.0
  0
LINE
  5
7A91
330
17
100
AcDbEntity
  8
D-STR
100
AcDbLine
 10
35148.66199052423
 20
28043.47477423552
 30
0.0
 11
36725.15957477401
 21
31196.4699427352
 31
0.0
  0
DIMENSION
  5
7AA0
330
17
100
AcDbEntity
  8
D-STR-DIM
100
AcDbDimension
  2
*D47
 10
37238.08840053641
 20
31551.50720101008
 30
0.0
 11
37155.35388536891
 21
31721.44836730007
 31
0.0
 70
   160
 71
     5
 42
300.0000000000036
  3
S-50
100
AcDbAlignedDimension
 13
36725.15957477401
 23
31196.4699427352
 33
0.0
 14
37060.56977139898
 24
31196.4699427352
 34
0.0
 50
153.4349488229237
100
AcDbRotatedDimension
  0
DIMENSION
  5
7AB8
330
17
100
AcDbEntity
  8
D-STR-DIM
100
AcDbDimension
  2
*D48
 10
36880.31752413645
 20
31730.39263921005
 30
0.0
 11
36876.10338642128
 21
31615.4612431236
 31
0.0
 70
   160
 71
     5
 42
99.99999999998181
  3
S-50
100
AcDbAlignedDimension
 13
36725.15957477401
 23
31196.4699427352
 33
0.0
 14
36602.17583601154
 24
31174.10926296018
 34
0.0
 50
153.4349488229237
100
AcDbRotatedDimension
  0
DIMENSION
  5
7AC6
330
17
100
AcDbEntity
  8
D-STR-DIM
100
AcDbDimension
  2
*D49
 10
36567.26800728646
 20
31886.91739763503
 30
0.0
 11
36775.22232919394
 21
31911.51414538753
 31
0.0
 70
   160
 71
     5
 42
350.0000000000182
  3
S-50
100
AcDbAlignedDimension
 13
36602.17583601154
 23
31174.10926296018
 33
0.0
 14
36272.04427983656
 24
31296.4699427352
 34
0.0
 50
153.4349488229237
100
AcDbRotatedDimension
  0
TEXT
  5
7AFD
330
17
100
AcDbEntity
  8
D-STR-DIM
100
AcDbText
 10
36809.83307562386
 20
29344.65977111422
 30
0.0
 40
150.0
  1
裏込コンクリート
  7
ＭＳ ゴシック
100
AcDbText
  0
LEADER
  5
7AFE
330
17
100
AcDbEntity
  8
D-STR-DIM
100
AcDbLeader
  3
S-50
 76
     2
 10
35719.76480553801
 20
29292.50436903284
 30
0.0
 10
38487.65862896919
 20
29292.50436903284
 30
0.0
1001
ACAD
1000
DSTYLE
1002
{
1070
   147
1040
0.8
1070
    77
1070
     0
1002
}
  0
DIMENSION
  5
7B01
330
17
100
AcDbEntity
  8
D-STR-DIM
100
AcDbDimension
  2
*D50
 10
29155.95948800288
 20
28796.19372962319
 30
0.0
 11
29105.9594880029
 21
28911.19372962319
 31
0.0
 70
    32
 71
     5
 42
99.9999999999709
  3
S-50
100
AcDbAlignedDimension
 13
29055.95948800291
 23
28434.62595198402
 33
0.0
 14
29155.95948800288
 24
28434.62595198402
 34
0.0
100
AcDbRotatedDimension
  0
TEXT
  5
7B0F
330
17
100
AcDbEntity
  8
D-STR-DIM
100
AcDbText
 10
29621.66359052018
 20
29496.85916977064
 30
0.0
 40
150.0
  1
1:0.5
 50
63.43494882292201
  7
ＭＳ ゴシック
100
AcDbText
  0
TEXT
  5
7B11
330
17
100
AcDbEntity
  8
D-STR-DIM
100
AcDbText
 10
35122.5007981041
 20
29128.20799202214
 30
0.0
 40
150.0
  1
1:0.5
 50
63.43494882292201
  7
ＭＳ ゴシック
100
AcDbText
  0
DIMENSION
  5
7B3A
330
17
100
AcDbEntity
  8
D-STR-DIM
100
AcDbDimension
  2
*D52
 10
34656.7966955868
 20
28378.05060950291
 30
0.0
 11
34606.79669558681
 21
28493.05060950291
 31
0.0
 70
    32
 71
     5
 42
99.9999999999709
  3
S-50
100
AcDbAlignedDimension
 13
34556.79669558683
 23
28065.97477423552
 33
0.0
 14
34656.7966955868
 24
28065.97477423552
 34
0.0
100
AcDbRotatedDimension
  0
INSERT
  5
7C67
330
17
100
AcDbEntity
  8
D-STR-TXT
100
AcDbBlockReference
  2
エスコン
 10
29140.65406075549
 20
21507.1046723565
 30
0.0
  0
INSERT
  5
7C68
330
17
100
AcDbEntity
  8
D-STR-TXT
100
AcDbBlockReference
  2
エスコン
 10
29364.26085850545
 20
21954.31826785646
 30
0.0
  0
INSERT
  5
7C69
330
17
100
AcDbEntity
  8
D-STR-TXT
100
AcDbBlockReference
  2
エスコン
 10
29587.86765625541
 20
22401.53186335641
 30
0.0
  0
INSERT
  5
7C6A
330
17
100
AcDbEntity
  8
D-STR-TXT
100
AcDbBlockReference
  2
エスコン
 10
29811.47445400537
 20
22848.74545885636
 30
0.0
  0
INSERT
  5
7C6B
330
17
100
AcDbEntity
  8
D-STR-TXT
100
AcDbBlockReference
  2
エスコン
 10
30035.08125175533
 20
23295.95905435632
 30
0.0
  0
INSERT
  5
7C6C
330
17
100
AcDbEntity
  8
D-STR-TXT
100
AcDbBlockReference
  2
エスコン
 10
30258.6880495053
 20
23743.17264985627
 30
0.0
  0
INSERT
  5
7C6D
330
17
100
AcDbEntity
  8
D-STR-TXT
100
AcDbBlockReference
  2
エスコン
 10
30482.29484725526
 20
24190.38624535623
 30
0.0
  0
LINE
  5
7C6E
330
17
100
AcDbEntity
  8
D-STR
100
AcDbLine
 10
30929.50844275521
 20
25084.81343635613
 30
0.0
 11
31823.93563375512
 21
25084.81343635614
 31
0.0
  0
LINE
  5
7C6F
330
17
100
AcDbEntity
  8
D-STR
100
AcDbLine
 10
30979.50844275521
 20
25184.81343635613
 30
0.0
 11
31823.93563375512
 21
25184.81343635612
 31
0.0
  0
LINE
  5
7C70
330
17
100
AcDbEntity
  8
D-STR
100
AcDbLine
 10
30929.50844275521
 20
25084.81343635613
 30
0.0
 11
30979.50844275521
 21
25184.81343635613
 31
0.0
  0
LINE
  5
7C72
330
17
100
AcDbEntity
  8
D-STR
100
AcDbLine
 10
31823.93563375512
 20
25084.81343635612
 30
0.0
 11
31823.93563375512
 21
25184.81343635611
 31
0.0
  0
ELLIPSE
  5
7C73
330
17
100
AcDbEntity
  8
D-STR-STR1
100
AcDbEllipse
 10
31628.36283605294
 20
25014.05484308196
 30
0.0
 11
-10.94012527381687
 21
-62.0445335697379
 31
0.0
210
0.0
220
0.0
230
1.0
 40
0.6079535901530466
 41
0.0
 42
6.283185307179586
  0
ELLIPSE
  5
7C74
330
17
100
AcDbEntity
  8
D-STR-STR1
100
AcDbEllipse
 10
31528.8822887983
 20
25014.05484308196
 30
0.0
 11
-10.94012527381687
 21
-62.0445335697379
 31
0.0
210
0.0
220
0.0
230
1.0
 40
0.6079535901530466
 41
0.0
 42
6.283185307179586
  0
ELLIPSE
  5
7C75
330
17
100
AcDbEntity
  8
D-STR-STR1
100
AcDbEllipse
 10
31673.71597142514
 20
24883.62497251287
 30
0.0
 11
-10.94012527381688
 21
-62.04453356973793
 31
0.0
210
0.0
220
0.0
230
1.0
 40
0.6079535901530464
 41
0.0
 42
6.283185307179586
  0
ELLIPSE
  5
7C76
330
17
100
AcDbEntity
  8
D-STR-STR1
100
AcDbEllipse
 10
31572.30230231757
 20
24883.62497251287
 30
0.0
 11
-10.94012527381688
 21
-62.04453356973792
 31
0.0
210
0.0
220
0.0
230
1.0
 40
0.6079535901530466
 41
0.0
 42
6.283185307179586
  0
ELLIPSE
  5
7C77
330
17
100
AcDbEntity
  8
D-STR-STR1
100
AcDbEllipse
 10
31472.82175506292
 20
24883.62497251287
 30
0.0
 11
-10.94012527381688
 21
-62.04453356973792
 31
0.0
210
0.0
220
0.0
230
1.0
 40
0.6079535901530466
 41
0.0
 42
6.283185307179586
  0
ELLIPSE
  5
7C78
330
17
100
AcDbEntity
  8
D-STR-STR1
100
AcDbEllipse
 10
31617.65543768976
 20
24753.19510194378
 30
0.0
 11
-10.94012527381688
 21
-62.04453356973793
 31
0.0
210
0.0
220
0.0
230
1.0
 40
0.6079535901530464
 41
0.0
 42
6.283185307179586
  0
ELLIPSE
  5
7C79
330
17
100
AcDbEntity
  8
D-STR-STR1
100
AcDbEllipse
 10
31516.24176858219
 20
24753.19510194378
 30
0.0
 11
-10.94012527381688
 21
-62.04453356973792
 31
0.0
210
0.0
220
0.0
230
1.0
 40
0.6079535901530466
 41
0.0
 42
6.283185307179586
  0
ELLIPSE
  5
7C7A
330
17
100
AcDbEntity
  8
D-STR-STR1
100
AcDbEllipse
 10
31416.76122132755
 20
24753.19510194378
 30
0.0
 11
-10.94012527381688
 21
-62.04453356973792
 31
0.0
210
0.0
220
0.0
230
1.0
 40
0.6079535901530466
 41
0.0
 42
6.283185307179586
  0
LINE
  5
7C7B
330
17
100
AcDbEntity
  8
D-STR-STR1
100
AcDbLine
 10
30212.85212815527
 20
21057.1046723565
 30
0.0
 11
31823.93563375513
 21
25084.81343635613
 31
0.0
  0
LINE
  5
7C7C
330
17
100
AcDbEntity
  8
D-STR-STR1
100
AcDbLine
 10
29040.65406075551
 20
21157.1046723565
 30
0.0
 11
28990.65406075551
 21
21157.1046723565
 31
0.0
  0
LINE
  5
7C7D
330
17
100
AcDbEntity
  8
D-STR-STR1
100
AcDbLine
 10
28990.65406075551
 20
21157.1046723565
 30
0.0
 11
28990.65406075551
 21
21057.1046723565
 31
0.0
  0
LINE
  5
7C7E
330
17
100
AcDbEntity
  8
D-STR-STR1
100
AcDbLine
 10
29690.65406075551
 20
21157.10467235649
 30
0.0
 11
29740.65406075551
 21
21157.10467235649
 31
0.0
  0
LINE
  5
7C7F
330
17
100
AcDbEntity
  8
D-STR-STR1
100
AcDbLine
 10
29740.65406075551
 20
21157.10467235649
 30
0.0
 11
29740.65406075551
 21
21057.10467235649
 31
0.0
  0
LINE
  5
7C80
330
17
100
AcDbEntity
  8
D-STR-STR1
100
AcDbLine
 10
28990.65406075551
 20
21057.1046723565
 30
0.0
 11
29740.65406075551
 21
21057.10467235649
 31
0.0
  0
LINE
  5
7C81
330
17
100
AcDbEntity
  8
D-STR-STR1
100
AcDbLine
 10
29740.65406075551
 20
21057.10467235649
 30
0.0
 11
30212.85212815527
 21
21057.1046723565
 31
0.0
  0
ELLIPSE
  5
7C82
330
17
100
AcDbEntity
  8
D-STR-STR1
100
AcDbEllipse
 10
31729.77650516051
 20
25014.05484308196
 30
0.0
 11
-10.94012527381688
 21
-62.04453356973793
 31
0.0
210
0.0
220
0.0
230
1.0
 40
0.6079535901530464
 41
0.0
 42
6.283185307179586
  0
ELLIPSE
  5
7C83
330
17
100
AcDbEntity
  8
D-STR-STR1
100
AcDbEllipse
 10
30147.45168200299
 20
21130.70986568707
 30
0.0
 11
-10.94012527381688
 21
-62.04453356973793
 31
0.0
210
0.0
220
0.0
230
1.0
 40
0.6079535901530464
 41
0.0
 42
6.283185307179586
  0
ELLIPSE
  5
7C84
330
17
100
AcDbEntity
  8
D-STR-STR1
100
AcDbEllipse
 10
30058.6066907308
 20
21130.70986568707
 30
0.0
 11
-10.94012527381688
 21
-62.04453356973793
 31
0.0
210
0.0
220
0.0
230
1.0
 40
0.6079535901530465
 41
0.0
 42
6.283185307179586
  0
ELLIPSE
  5
7C85
330
17
100
AcDbEntity
  8
D-STR-STR1
100
AcDbEllipse
 10
29969.76169945861
 20
21130.70986568707
 30
0.0
 11
-10.94012527381688
 21
-62.04453356973793
 31
0.0
210
0.0
220
0.0
230
1.0
 40
0.6079535901530465
 41
0.0
 42
6.283185307179586
  0
ELLIPSE
  5
7C86
330
17
100
AcDbEntity
  8
D-STR-STR1
100
AcDbEllipse
 10
29880.91670818641
 20
21130.70986568707
 30
0.0
 11
-10.94012527381688
 21
-62.04453356973793
 31
0.0
210
0.0
220
0.0
230
1.0
 40
0.6079535901530465
 41
0.0
 42
6.283185307179586
  0
ELLIPSE
  5
7C87
330
17
100
AcDbEntity
  8
D-STR-STR1
100
AcDbEllipse
 10
29792.07171691422
 20
21130.70986568707
 30
0.0
 11
-10.94012527381688
 21
-62.04453356973793
 31
0.0
210
0.0
220
0.0
230
1.0
 40
0.6079535901530465
 41
0.0
 42
6.283185307179586
  0
ELLIPSE
  5
7C88
330
17
100
AcDbEntity
  8
D-STR-STR1
100
AcDbEllipse
 10
30203.83409034081
 20
21265.62795010427
 30
0.0
 11
-10.94012527381688
 21
-62.04453356973793
 31
0.0
210
0.0
220
0.0
230
1.0
 40
0.6079535901530464
 41
0.0
 42
6.283185307179586
  0
ELLIPSE
  5
7C89
330
17
100
AcDbEntity
  8
D-STR-STR1
100
AcDbEllipse
 10
30114.98909906862
 20
21265.62795010427
 30
0.0
 11
-10.94012527381688
 21
-62.04453356973793
 31
0.0
210
0.0
220
0.0
230
1.0
 40
0.6079535901530465
 41
0.0
 42
6.283185307179586
  0
ELLIPSE
  5
7C8A
330
17
100
AcDbEntity
  8
D-STR-STR1
100
AcDbEllipse
 10
30026.14410779643
 20
21265.62795010427
 30
0.0
 11
-10.94012527381688
 21
-62.04453356973793
 31
0.0
210
0.0
220
0.0
230
1.0
 40
0.6079535901530462
 41
0.0
 42
6.283185307179586
  0
ELLIPSE
  5
7C8B
330
17
100
AcDbEntity
  8
D-STR-STR1
100
AcDbEllipse
 10
29937.29911652423
 20
21265.62795010427
 30
0.0
 11
-10.94012527381688
 21
-62.04453356973793
 31
0.0
210
0.0
220
0.0
230
1.0
 40
0.6079535901530462
 41
0.0
 42
6.283185307179586
  0
ELLIPSE
  5
7C8C
330
17
100
AcDbEntity
  8
D-STR-STR1
100
AcDbEllipse
 10
29848.45412525204
 20
21265.62795010427
 30
0.0
 11
-10.94012527381688
 21
-62.04453356973793
 31
0.0
210
0.0
220
0.0
230
1.0
 40
0.6079535901530462
 41
0.0
 42
6.283185307179586
  0
ELLIPSE
  5
7C8D
330
17
100
AcDbEntity
  8
D-STR-STR1
100
AcDbEllipse
 10
29759.60913397985
 20
21265.62795010427
 30
0.0
 11
-10.94012527381688
 21
-62.04453356973793
 31
0.0
210
0.0
220
0.0
230
1.0
 40
0.6079535901530462
 41
0.0
 42
6.283185307179586
  0
ELLIPSE
  5
7C8E
330
17
100
AcDbEntity
  8
D-STR-STR1
100
AcDbEllipse
 10
30249.96513748311
 20
21393.71478335637
 30
0.0
 11
-10.94012527381688
 21
-62.04453356973793
 31
0.0
210
0.0
220
0.0
230
1.0
 40
0.6079535901530465
 41
0.0
 42
6.283185307179586
  0
ELLIPSE
  5
7C8F
330
17
100
AcDbEntity
  8
D-STR-STR1
100
AcDbEllipse
 10
29894.58517239434
 20
21393.71478335637
 30
0.0
 11
-10.94012527381688
 21
-62.04453356973793
 31
0.0
210
0.0
220
0.0
230
1.0
 40
0.6079535901530462
 41
0.0
 42
6.283185307179586
  0
ELLIPSE
  5
7C90
330
17
100
AcDbEntity
  8
D-STR-STR1
100
AcDbEllipse
 10
29805.74018112215
 20
21393.71478335637
 30
0.0
 11
-10.94012527381689
 21
-62.04453356973795
 31
0.0
210
0.0
220
0.0
230
1.0
 40
0.607953590153046
 41
0.0
 42
6.283185307179586
  0
ELLIPSE
  5
7C91
330
17
100
AcDbEntity
  8
D-STR-STR1
100
AcDbEllipse
 10
29767.97517897601
 20
21510.84798292152
 30
0.0
 11
-10.94012527381688
 21
-62.04453356973793
 31
0.0
210
0.0
220
0.0
230
1.0
 40
0.607953590153046
 41
0.0
 42
6.283185307179586
  0
DIMENSION
  5
7C92
330
17
100
AcDbEntity
  8
D-STR-DIM
100
AcDbDimension
  2
*D53
 10
29105.73993114366
 20
22642.59572591234
 30
0.0
 11
28891.07740530368
 21
22470.41849164485
 31
0.0
 70
    33
 71
     5
 42
500.0
  3
S-50
100
AcDbAlignedDimension
 13
29364.26085850549
 23
21954.31826785648
 33
0.0
 14
29587.86765625547
 24
22401.53186335644
 34
0.0
  0
DIMENSION
  5
7C93
330
17
100
AcDbEntity
  8
D-STR-DIM
100
AcDbDimension
  2
*D54
 10
29329.34672889365
 20
23089.8093214123
 30
0.0
 11
29114.68420305367
 21
22917.63208714482
 31
0.0
 70
    33
 71
     5
 42
500.0
  3
S-50
100
AcDbAlignedDimension
 13
29587.86765625547
 23
22401.53186335645
 33
0.0
 14
29811.47445400545
 24
22848.74545885641
 34
0.0
  0
DIMENSION
  5
7C94
330
17
100
AcDbEntity
  8
D-STR-DIM
100
AcDbDimension
  2
*D55
 10
29552.95352664361
 20
23537.02291691227
 30
0.0
 11
29338.29100080363
 21
23364.84568264479
 31
0.0
 70
    33
 71
     5
 42
500.0
  3
S-50
100
AcDbAlignedDimension
 13
29811.47445400544
 23
22848.74545885641
 33
0.0
 14
30035.08125175541
 24
23295.95905435638
 34
0.0
  0
DIMENSION
  5
7C95
330
17
100
AcDbEntity
  8
D-STR-DIM
100
AcDbDimension
  2
*D56
 10
28457.46085632164
 20
25184.81343635613
 30
0.0
 11
28342.46085632163
 21
23345.95905435632
 31
0.0
 70
    32
  1
H
 71
     5
 42
3677.708763999632
  3
S-50
100
AcDbAlignedDimension
 13
29040.65406075551
 23
21507.1046723565
 33
0.0
 14
30979.50844275521
 24
25184.81343635613
 34
0.0
 50
90.0
100
AcDbRotatedDimension
  0
DIMENSION
  5
7C96
330
17
100
AcDbEntity
  8
D-STR-DIM
100
AcDbDimension
  2
*D57
 10
30227.39639177875
 20
25084.81343635613
 30
0.0
 11
30112.39639177874
 21
25134.81343635614
 31
0.0
 70
    32
 71
     5
 42
100.0
  3
S-50
100
AcDbAlignedDimension
 13
30979.50844275521
 23
25184.81343635613
 33
0.0
 14
30929.50844275521
 24
25084.81343635613
 34
0.0
 50
90.0
100
AcDbRotatedDimension
  0
TEXT
  5
7C97
330
17
100
AcDbEntity
  8
D-STR-DIM
100
AcDbText
 10
32149.3452501657
 20
24701.10462522694
 30
0.0
 40
150.0
  1
天端工
  7
ＭＳ ゴシック
100
AcDbText
  0
LINE
  5
7C98
330
17
100
AcDbEntity
  8
D-STR-DIM
100
AcDbLine
 10
32069.0715566951
 20
24648.94922314557
 30
0.0
 11
32821.80367636045
 21
24648.94922314557
 31
0.0
  0
LEADER
  5
7C99
330
17
100
AcDbEntity
  8
D-STR-DIM
100
AcDbLeader
  3
S-50
 76
     2
 10
31604.2678511937
 20
25136.52506909342
 30
0.0
 10
32069.0715566951
 20
24648.94922314557
 30
0.0
1001
ACAD
1000
DSTYLE
1002
{
1070
   147
1040
0.8
1070
    77
1070
     0
1002
}
  0
TEXT
  5
7C9A
330
17
100
AcDbEntity
  8
D-STR-DIM
100
AcDbText
 10
31762.15545760046
 20
23915.04332761677
 30
0.0
 40
150.0
  1
エスコン
  7
ＭＳ ゴシック
100
AcDbText
  0
LEADER
  5
7C9B
330
17
100
AcDbEntity
  8
D-STR-DIM
100
AcDbLeader
  3
S-50
 76
     2
 10
30541.14658747072
 20
23862.88792553539
 30
0.0
 10
33564.90705226794
 20
23862.88792553539
 30
0.0
1001
ACAD
1000
DSTYLE
1002
{
1070
   147
1040
0.8
1070
    77
1070
     0
1002
}
  0
TEXT
  5
7C9C
330
17
100
AcDbEntity
  8
D-STR-DIM
100
AcDbText
 10
31588.69121391414
 20
23223.97437061417
 30
0.0
 40
150.0
  1
胴込コンクリート
  7
ＭＳ ゴシック
100
AcDbText
  0
LEADER
  5
7C9D
330
17
100
AcDbEntity
  8
D-STR-DIM
100
AcDbLeader
  3
S-50
 76
     2
 10
30210.55949472979
 20
23171.81896853279
 30
0.0
 10
33266.51676725947
 20
23171.81896853279
 30
0.0
1001
ACAD
1000
DSTYLE
1002
{
1070
   147
1040
0.8
1070
    77
1070
     0
1002
}
  0
TEXT
  5
7C9E
330
17
100
AcDbEntity
  8
D-STR-DIM
100
AcDbText
 10
31324.33340078038
 20
22205.56911372796
 30
0.0
 40
150.0
  1
裏込め材
  7
ＭＳ ゴシック
100
AcDbText
  0
LEADER
  5
7C9F
330
17
100
AcDbEntity
  8
D-STR-DIM
100
AcDbLeader
  3
S-50
 76
     2
 10
30402.60329826587
 20
22153.41371164658
 30
0.0
 10
32194.83871079801
 20
22153.41371164658
 30
0.0
1001
ACAD
1000
DSTYLE
1002
{
1070
   147
1040
0.8
1070
    77
1070
     0
1002
}
  0
TEXT
  5
7CA0
330
17
100
AcDbEntity
  8
D-STR-DIM
100
AcDbText
 10
30194.05490899707
 20
20715.59378988137
 30
0.0
 40
150.0
  1
基礎ブロック
  7
ＭＳ ゴシック
100
AcDbText
  0
LINE
  5
7CA1
330
17
100
AcDbEntity
  8
D-STR-DIM
100
AcDbLine
 10
30113.78121552646
 20
20663.43838779999
 30
0.0
 11
31410.70420529033
 21
20663.43838779999
 31
0.0
  0
LEADER
  5
7CA2
330
17
100
AcDbEntity
  8
D-STR-DIM
100
AcDbLeader
  3
S-50
 76
     2
 10
29446.90797826324
 20
21273.09287223005
 30
0.0
 10
30113.78121552646
 20
20663.43838779999
 30
0.0
1001
ACAD
1000
DSTYLE
1002
{
1070
   147
1040
0.8
1070
    77
1070
     0
1002
}
  0
DIMENSION
  5
7CA3
330
17
100
AcDbEntity
  8
D-STR-TXT
100
AcDbDimension
  2
*D58
 10
28457.46085632164
 20
21507.1046723565
 30
0.0
 11
28342.46085632163
 21
21357.10467235651
 31
0.0
 70
   160
 71
     5
 42
350.0
  3
S-50
100
AcDbAlignedDimension
 13
28990.65406075551
 23
21157.1046723565
 33
0.0
 14
29040.65406075551
 24
21507.1046723565
 34
0.0
 50
90.0
100
AcDbRotatedDimension
  0
DIMENSION
  5
7CA4
330
17
100
AcDbEntity
  8
D-STR-TXT
100
AcDbDimension
  2
*D59
 10
29690.65406075551
 20
20524.97954238306
 30
0.0
 11
29365.65406075551
 21
20639.97954238306
 31
0.0
 70
    32
 71
     5
 42
650.0
  3
S-50
100
AcDbAlignedDimension
 13
29040.65406075551
 23
21157.10467235651
 33
0.0
 14
29690.65406075551
 24
21157.10467235649
 34
0.0
100
AcDbRotatedDimension
  0
TEXT
  5
7CA5
330
17
100
AcDbEntity
  8
D-STR-DIM
100
AcDbText
 10
29691.81083322187
 20
26140.81636364148
 30
0.0
 40
200.0
  1
[裏コン15cm]
  7
ＭＳ ゴシック
100
AcDbText
  0
TEXT
  5
7CA6
330
17
100
AcDbEntity
  8
D-STR-DIM
100
AcDbText
 10
30194.05490899707
 20
20475.43831485331
 30
0.0
 40
150.0
  1
控500用
  7
ＭＳ ゴシック
100
AcDbText
  0
TEXT
  5
7CA7
330
17
100
AcDbEntity
  8
D-STR-DIM
100
AcDbText
 10
31762.15545760046
 20
23671.03753462923
 30
0.0
 40
150.0
  1
(胴込量 0.18m3/m2)
  7
ＭＳ ゴシック
100
AcDbText
  0
DIMENSION
  5
7CA9
330
17
100
AcDbEntity
  8
D-STR-DIM
100
AcDbDimension
  2
*D60
 10
31990.27392300496
 20
25417.49001485646
 30
0.0
 11
31907.53940783727
 21
25587.43118114641
 31
0.0
 70
   160
 71
     5
 42
300.0000000001237
  3
S-50
100
AcDbAlignedDimension
 13
31488.52543713016
 23
25084.81343635613
 33
0.0
 14
31823.93563375513
 24
25084.81343635613
 34
0.0
 50
153.4349488229679
100
AcDbRotatedDimension
  0
DIMENSION
  5
7CAA
330
17
100
AcDbEntity
  8
D-STR-DIM
100
AcDbDimension
  2
*D61
 10
31587.78168705468
 20
25618.7361328312
 30
0.0
 11
31596.07599490589
 21
25491.69099157891
 31
0.0
 70
   160
 71
     5
 42
150.0000000000655
  3
S-50
100
AcDbAlignedDimension
 13
31488.52543713017
 23
25084.81343635614
 33
0.0
 14
31309.63999893019
 24
25062.45275658112
 34
0.0
 50
153.4349488229679
100
AcDbRotatedDimension
  0
DIMENSION
  5
7CAB
330
17
100
AcDbEntity
  8
D-STR-DIM
100
AcDbDimension
  2
*D62
 10
31274.73217020465
 20
25775.26089125619
 30
0.0
 11
31482.6864921126
 21
25799.85763900847
 31
0.0
 70
   160
 71
     5
 42
350.0000000000509
  3
S-50
100
AcDbAlignedDimension
 13
31309.63999893019
 23
25062.45275658112
 33
0.0
 14
30979.50844275521
 24
25184.81343635613
 34
0.0
 50
153.4349488229679
100
AcDbRotatedDimension
  0
TEXT
  5
7CAC
330
17
100
AcDbEntity
  8
D-STR-DIM
100
AcDbText
 10
31463.83596990963
 20
22785.7896692352
 30
0.0
 40
150.0
  1
裏込コンクリート
  7
ＭＳ ゴシック
100
AcDbText
  0
LEADER
  5
7CAD
330
17
100
AcDbEntity
  8
D-STR-DIM
100
AcDbLeader
  3
S-50
 76
     2
 10
30243.79781706369
 20
22733.63426715382
 30
0.0
 10
33141.66152325495
 20
22733.63426715382
 30
0.0
1001
ACAD
1000
DSTYLE
1002
{
1070
   147
1040
0.8
1070
    77
1070
     0
1002
}
  0
TEXT
  5
7CAE
330
17
100
AcDbEntity
  8
D-STR-DIM
100
AcDbText
 10
29606.35816327279
 20
22569.33789014313
 30
0.0
 40
150.0
  1
1:0.5
 50
63.43494882292201
  7
ＭＳ ゴシック
100
AcDbText
  0
DIMENSION
  5
7CAF
330
17
100
AcDbEntity
  8
D-STR-DIM
100
AcDbDimension
  2
*D63
 10
29140.65406075549
 20
21819.1805076239
 30
0.0
 11
29090.6540607555
 21
21934.1805076239
 31
0.0
 70
    32
 71
     5
 42
99.9999999999709
  3
S-50
100
AcDbAlignedDimension
 13
29040.65406075551
 23
21507.1046723565
 33
0.0
 14
29140.65406075549
 24
21507.1046723565
 34
0.0
100
AcDbRotatedDimension
  0
INSERT
  5
7E04
330
17
100
AcDbEntity
  8
D-STR-TXT
100
AcDbBlockReference
  2
エスコン
 10
30705.90164500522
 20
24637.59984085618
 30
0.0
  0
LINE
  5
7E2B
330
17
100
AcDbEntity
  8
D-STR
100
AcDbLine
 10
29688.42105513042
 20
21484.60467235651
 30
0.0
 11
31488.52543713017
 21
25084.81343635614
 31
0.0
  0
ENDSEC
  0
SECTION
  2
OBJECTS
  0
DICTIONARY
  5
C
330
0
100
AcDbDictionary
281
     1
  3
ACAD_COLOR
350
5EB0
  3
ACAD_GROUP
350
D
  3
ACAD_LAYOUT
350
3A33
  3
ACAD_MATERIAL
350
5EAF
  3
ACAD_MLEADERSTYLE
350
7F05
  3
ACAD_MLINESTYLE
350
1A
  3
ACAD_PLOTSETTINGS
350
3A34
  3
ACAD_PLOTSTYLENAME
350
3A31
  3
ACAD_SCALELIST
350
7EDE
  3
ACAD_TABLESTYLE
350
5EB1
  3
ACDB_RECOMPOSE_DATA
350
7F04
  3
AcDbVariableDictionary
350
3A82
  0
DICTIONARY
  5
3B1C
330
2
100
AcDbDictionary
280
     1
281
     1
  3
ACAD_LAYERFILTERS
360
69F0
  3
ACLYDICTIONARY
360
69EF
  0
DICTIONARY
  5
3A7C
330
17
100
AcDbDictionary
280
     1
281
     1
  3
ACAD_SORTENTS
360
5350
  0
DICTIONARY
  5
5EB0
102
{ACAD_REACTORS
330
C
102
}
330
C
100
AcDbDictionary
281
     1
  0
DICTIONARY
  5
D
102
{ACAD_REACTORS
330
C
102
}
330
C
100
AcDbDictionary
281
     1
  0
DICTIONARY
  5
3A33
102
{ACAD_REACTORS
330
C
102
}
330
C
100
AcDbDictionary
281
     1
  3
Model
350
3A35
  3
ﾚｲｱｳﾄ1
350
3A36
  0
DICTIONARY
  5
5EAF
102
{ACAD_REACTORS
330
C
102
}
330
C
100
AcDbDictionary
281
     1
  0
DICTIONARY
  5
7F05
102
{ACAD_REACTORS
330
C
102
}
330
C
100
AcDbDictionary
281
     1
  0
DICTIONARY
  5
1A
102
{ACAD_REACTORS
330
C
102
}
330
C
100
AcDbDictionary
281
     1
  3
STANDARD
350
1B
  0
DICTIONARY
  5
3A34
102
{ACAD_REACTORS
330
C
102
}
330
C
100
AcDbDictionary
281
     1
  0
ACDBDICTIONARYWDFLT
  5
3A31
102
{ACAD_REACTORS
330
C
102
}
330
C
100
AcDbDictionary
281
     1
  3
Normal
350
3A32
100
AcDbDictionaryWithDefault
340
3A32
  0
DICTIONARY
  5
7EDE
102
{ACAD_REACTORS
330
C
102
}
330
C
100
AcDbDictionary
281
     1
  3
A0
350
7EDF
  3
A1
350
7EE0
  3
A2
350
7EE1
  3
A3
350
7EE2
  3
A4
350
7EE3
  3
A5
350
7EE4
  3
A6
350
7EE5
  3
A7
350
7EE6
  3
A8
350
7EE7
  3
A9
350
7EE8
  3
B0
350
7EE9
  3
B1
350
7EEA
  3
B2
350
7EEB
  3
B3
350
7EEC
  3
B4
350
7EED
  3
B5
350
7EEE
  3
B6
350
7EEF
  3
B7
350
7EF0
  3
B8
350
7EF1
  3
B9
350
7EF2
  3
C0
350
7EF3
  3
C1
350
7EF4
  3
C2
350
7EF5
  3
C3
350
7EF6
  3
C4
350
7EF7
  3
C5
350
7EF8
  3
C6
350
7EF9
  3
C7
350
7EFA
  3
C8
350
7EFB
  3
C9
350
7EFC
  3
D0
350
7EFD
  3
D1
350
7EFE
  3
D2
350
7EFF
  0
DICTIONARY
  5
5EB1
102
{ACAD_REACTORS
330
C
102
}
330
C
100
AcDbDictionary
281
     1
  3
Standard
350
5EB2
  0
XRECORD
  5
7F04
102
{ACAD_REACTORS
330
C
102
}
330
C
100
AcDbXrecord
280
     1
 90
        1
330
5EB2
  0
DICTIONARY
  5
3A82
102
{ACAD_REACTORS
330
C
102
}
330
C
100
AcDbDictionary
281
     1
  3
CANNOSCALE
350
7F00
  3
CTABLESTYLE
350
5EC7
  3
DIMASSOC
350
3A83
  3
PROJECTNAME
350
5EC8
  3
SORTENTS
350
5351
  0
DICTIONARY
  5
69F0
102
{ACAD_REACTORS
330
3B1C
102
}
330
3B1C
100
AcDbDictionary
281
     1
  3
50
350
69F2
  3
hat
350
69F4
  3
kabe
350
69F6
  3
kijun
350
69F8
  3
setubi
350
69FA
  3
siage
350
69FC
  3
tategu
350
69FE
  3
梁
350
6A00
  0
DICTIONARY
  5
69EF
102
{ACAD_REACTORS
330
3B1C
102
}
330
3B1C
100
AcDbDictionary
281
     1
  3
*A1
350
69F1
  3
*A2
350
69F3
  3
*A3
350
69F5
  3
*A4
350
69F7
  3
*A5
350
69F9
  3
*A6
350
69FB
  3
*A7
350
69FD
  3
*A8
350
69FF
1001
ACAD
1000
<All
  0
SORTENTSTABLE
  5
5350
102
{ACAD_REACTORS
330
3A7C
102
}
330
3A7C
100
AcDbSortentsTable
330
17
331
0
  5
7CA9
331
73
  5
51D5
331
6C27
  5
6C27
331
6C28
  5
6C28
331
6C29
  5
6C29
331
6C2A
  5
6C2A
331
6C2B
  5
6C2B
331
6C2C
  5
6C2C
331
6C2D
  5
6C2D
331
6C2E
  5
6C2E
331
6C2F
  5
6C2F
331
6C30
  5
6C30
331
6C31
  5
6C31
331
6C32
  5
6C32
331
6C33
  5
6C33
331
6C34
  5
6C34
331
6C35
  5
6C35
331
6C36
  5
6C36
331
6C37
  5
6C37
331
6C38
  5
6C38
331
6C39
  5
6C39
331
6C3A
  5
6C3A
331
6C3B
  5
6C3B
331
6C3C
  5
6C3C
331
6C3D
  5
6C3D
331
6C3E
  5
6C3E
331
6C3F
  5
6C3F
331
6C40
  5
6C40
331
6C41
  5
6C41
331
6C42
  5
6C42
331
6C43
  5
6C43
331
6C44
  5
6C44
331
6C45
  5
6C45
331
6C46
  5
6C46
331
6C47
  5
6C47
331
6C48
  5
6C48
331
6C49
  5
6C49
331
6C4A
  5
6C4A
331
6C4B
  5
6C4B
331
6C4C
  5
6C4C
331
6C4D
  5
6C4D
331
7542
  5
7542
331
7543
  5
7543
331
7544
  5
7544
331
7545
  5
7545
331
7546
  5
7546
331
7547
  5
7547
331
7548
  5
7548
331
754A
  5
754A
331
754B
  5
754B
331
754C
  5
754C
331
754D
  5
754D
331
754E
  5
754E
331
754F
  5
754F
331
7550
  5
7550
331
7551
  5
7551
331
7552
  5
7552
331
7553
  5
7553
331
7554
  5
7554
331
7555
  5
7555
331
7556
  5
7556
331
7557
  5
7557
331
7558
  5
7558
331
7559
  5
7559
331
755A
  5
755A
331
755B
  5
755B
331
755C
  5
755C
331
755D
  5
755D
331
755F
  5
755F
331
7560
  5
7560
331
7561
  5
7561
331
7562
  5
7562
331
7564
  5
7564
331
7565
  5
7565
331
7566
  5
7566
331
7567
  5
7567
331
7568
  5
7568
331
756A
  5
756A
331
756B
  5
756B
331
756C
  5
756C
331
756D
  5
756D
331
756E
  5
756E
331
756F
  5
756F
331
7570
  5
7570
331
7571
  5
7571
331
7572
  5
7572
331
7576
  5
7576
331
7577
  5
7577
331
7578
  5
7578
331
7579
  5
7579
331
757A
  5
757A
331
757B
  5
757B
331
757C
  5
757C
331
757D
  5
757D
331
757E
  5
757E
331
757F
  5
757F
331
7580
  5
7580
331
7581
  5
7581
331
7582
  5
7582
331
7583
  5
7583
331
7584
  5
7584
331
7585
  5
7585
331
7586
  5
7586
331
7587
  5
7587
331
7588
  5
7588
331
7589
  5
7589
331
758A
  5
758A
331
758B
  5
758B
331
758C
  5
758C
331
758D
  5
758D
331
758E
  5
758E
331
758F
  5
758F
331
7590
  5
7590
331
7591
  5
7591
331
7592
  5
7592
331
7593
  5
7593
331
7594
  5
7594
331
7595
  5
7595
331
7596
  5
7596
331
7597
  5
7597
331
7598
  5
7598
331
7599
  5
7599
331
759A
  5
759A
331
759B
  5
759B
331
759C
  5
759C
331
759D
  5
759D
331
759E
  5
759E
331
759F
  5
759F
331
75A0
  5
75A0
331
75A1
  5
75A1
331
75A2
  5
75A2
331
75A3
  5
75A3
331
75A4
  5
75A4
331
75A5
  5
75A5
331
75A6
  5
75A6
331
75A7
  5
75A7
331
75A8
  5
75A8
331
75A9
  5
75A9
331
75AA
  5
75AA
331
75AB
  5
75AB
331
75AC
  5
75AC
331
75AD
  5
75AD
331
75AE
  5
75AE
331
75AF
  5
75AF
331
75B0
  5
75B0
331
75B1
  5
75B1
331
75B2
  5
75B2
331
75B3
  5
75B3
331
75B4
  5
75B4
331
75B5
  5
75B5
331
75B6
  5
75B6
331
75B7
  5
75B7
331
75B8
  5
75B8
331
75B9
  5
75B9
331
75BA
  5
75BA
331
75BB
  5
75BB
331
75BC
  5
75BC
331
75BD
  5
75BD
331
75BE
  5
75BE
331
75BF
  5
75BF
331
75C0
  5
75C0
331
75C1
  5
75C1
331
75C2
  5
75C2
331
75C3
  5
75C3
331
75C4
  5
75C4
331
75C5
  5
75C5
331
75C6
  5
75C6
331
75C7
  5
75C7
331
75C8
  5
75C8
331
75C9
  5
75C9
331
75CA
  5
75CA
331
75CB
  5
75CB
331
75CC
  5
75CC
331
75CD
  5
75CD
331
75CE
  5
75CE
331
75CF
  5
75CF
331
75D0
  5
75D0
331
75D1
  5
75D1
331
75D2
  5
75D2
331
75D3
  5
75D3
331
75D4
  5
75D4
331
75D5
  5
75D5
331
75D6
  5
75D6
331
75D7
  5
75D7
331
75D8
  5
75D8
331
75D9
  5
75D9
331
75DA
  5
75DA
331
75DB
  5
75DB
331
75DC
  5
75DC
331
75DD
  5
75DD
331
75DE
  5
75DE
331
75DF
  5
75DF
331
75E0
  5
75E0
331
75E1
  5
75E1
331
75E2
  5
75E2
331
76E1
  5
76E1
331
7751
  5
7751
331
775F
  5
775F
331
7881
  5
7881
331
7883
  5
7883
331
78B1
  5
78B1
331
78BB
  5
78BB
331
78BC
  5
78BC
331
78BE
  5
78BE
331
78BF
  5
78BF
331
78C0
  5
78C0
331
78C1
  5
78C1
331
78C2
  5
78C2
331
78C3
  5
78C3
331
78C4
  5
78C4
331
78C5
  5
78C5
331
78C6
  5
78C6
331
78C7
  5
78CA
331
78C8
  5
78CB
331
78C9
  5
78CC
331
78CA
  5
78CD
331
78CB
  5
78CE
331
78CC
  5
78CF
331
78CD
  5
78D0
331
78CE
  5
78D1
331
78CF
  5
78D2
331
78D0
  5
78D3
331
78D1
  5
78D4
331
78D2
  5
78D5
331
78D3
  5
78D6
331
78D4
  5
78D7
331
78D5
  5
78D8
331
78D6
  5
78D9
331
78D7
  5
78DA
331
78D8
  5
78DB
331
78D9
  5
78DC
331
78DA
  5
78DD
331
78DB
  5
78DE
331
78DC
  5
78DF
331
78DD
  5
78E0
331
78DE
  5
78E1
331
78DF
  5
78E2
331
78E0
  5
78E3
331
78E1
  5
78E4
331
78E2
  5
78E5
331
78E3
  5
78E6
331
78E4
  5
78E7
331
78E5
  5
78E8
331
78E6
  5
78E9
331
78E7
  5
78EA
331
78E8
  5
78EB
331
78E9
  5
78EC
331
78EA
  5
78ED
331
78EB
  5
78EE
331
78ED
  5
78F0
331
78EE
  5
78F1
331
78EF
  5
78F2
331
78F0
  5
78F3
331
78F1
  5
78F4
331
78F2
  5
78F5
331
78F3
  5
78F6
331
78F4
  5
78F7
331
78F5
  5
78F8
331
78F6
  5
78F9
331
78F7
  5
78FA
331
78F8
  5
78FB
331
78F9
  5
78FD
331
78FA
  5
78FE
331
78FB
  5
79E7
331
78FD
  5
79E8
331
78FE
  5
79E9
331
79E7
  5
7A72
331
79E8
  5
7A73
331
79E9
  5
7A7C
331
7A72
  5
7A8F
331
7A73
  5
7A91
331
7A91
  5
78C8
331
7AA0
  5
7AA0
331
7AB8
  5
7AB8
331
7AC6
  5
7AC6
331
7AFD
  5
7AFD
331
7AFE
  5
7AFE
331
7B01
  5
7B01
331
7B0F
  5
7B0F
331
7B11
  5
7B11
331
7B3A
  5
7B3A
331
7C67
  5
7C67
331
7C68
  5
7C68
331
7C69
  5
7C69
331
7C6A
  5
7C6A
331
7C6B
  5
7C6B
331
7C6C
  5
7C6C
331
7C6D
  5
7C6D
331
7C6E
  5
7C6E
331
7C6F
  5
7C6F
331
7C70
  5
7C70
331
7C72
  5
7C73
331
7C73
  5
7C74
331
7C74
  5
7C75
331
7C75
  5
7C76
331
7C76
  5
7C77
331
7C77
  5
7C78
331
7C78
  5
7C79
331
7C79
  5
7C7A
331
7C7A
  5
7C7B
331
7C7B
  5
7C7C
331
7C7C
  5
7C7D
331
7C7D
  5
7C7E
331
7C7E
  5
7C7F
331
7C7F
  5
7C80
331
7C80
  5
7C81
331
7C81
  5
7C82
331
7C82
  5
7C83
331
7C83
  5
7C84
331
7C84
  5
7C85
331
7C85
  5
7C86
331
7C86
  5
7C87
331
7C87
  5
7C88
331
7C88
  5
7C89
331
7C89
  5
7C8A
331
7C8A
  5
7C8B
331
7C8B
  5
7C8C
331
7C8C
  5
7C8D
331
7C8D
  5
7C8E
331
7C8E
  5
7C8F
331
7C8F
  5
7C90
331
7C90
  5
7C91
331
7C91
  5
7C92
331
7C92
  5
7C93
331
7C93
  5
7C94
331
7C94
  5
7C95
331
7C95
  5
7C96
331
7C96
  5
7C97
331
7C97
  5
7C98
331
7C98
  5
7C99
331
7C99
  5
7C9A
331
7C9A
  5
7C9B
331
7C9B
  5
7C9C
331
7C9C
  5
7C9D
331
7C9D
  5
7C9E
331
7C9E
  5
7C9F
331
7C9F
  5
7CA0
331
7CA0
  5
7CA1
331
7CA1
  5
7CA2
331
7CA2
  5
7CA3
331
7CA3
  5
7CA4
331
7CA4
  5
7CA5
331
7CA5
  5
7CA6
331
7CA6
  5
7CA7
331
7CA7
  5
7CA8
331
7CA9
  5
7CAA
331
7CAA
  5
7CAB
331
7CAB
  5
7CAC
331
7CAC
  5
7CAD
331
7CAD
  5
7CAE
331
7CAE
  5
7CAF
331
7CAF
  5
7E04
331
7E04
  5
7E2B
331
7E2B
  5
7C72
  0
LAYOUT
  5
3A35
102
{ACAD_REACTORS
330
3A33
102
}
330
3A33
100
AcDbPlotSettings
  1

  2
RICOH SP9II RPDL.pc3
  4
A3
  6

 40
5.873749732971191
 41
5.873758316040039
 42
4.349761962890625
 43
8.159759521484375
 44
420.1159973144531
 45
296.9259948730469
 46
0.0
 47
0.0
 48
0.0
 49
0.0
140
0.0
141
0.0
142
1.0
143
7502.175706480581
 70
 11952
 72
     0
 73
     0
 74
     0
  7
acad.ctb
 75
     0
 76
     0
 77
     2
 78
   300
147
0.0001332946653244
148
620250.649107715
149
88199.04588441564
100
AcDbLayout
  1
Model
 70
     1
 71
     0
 10
0.0
 20
0.0
 11
12.0
 21
9.0
 12
0.0
 22
0.0
 32
0.0
 14
0.0
 24
0.0
 34
0.0
 15
0.0
 25
0.0
 35
0.0
146
0.0
 13
0.0
 23
0.0
 33
0.0
 16
1.0
 26
0.0
 36
0.0
 17
0.0
 27
1.0
 37
0.0
 76
     0
330
17
331
7ED7
  0
LAYOUT
  5
3A36
102
{ACAD_REACTORS
330
3A33
102
}
330
3A33
100
AcDbPlotSettings
  1

  2
C:\PROGRAM FILES\MDT6\plotters\RICOH SP9II RPDL.pc3
  4

  6

 40
0.0
 41
0.0
 42
0.0
 43
0.0
 44
0.0
 45
0.0
 46
0.0
 47
0.0
 48
0.0
 49
0.0
140
0.0
141
0.0
142
1.0
143
1.0
 70
   688
 72
     0
 73
     0
 74
     5
  7
acad.ctb
 75
    16
 76
     0
 77
     2
 78
   300
147
1.0
148
0.0
149
0.0
100
AcDbLayout
  1
ﾚｲｱｳﾄ1
 70
     0
 71
     1
 10
0.0
 20
0.0
 11
12.0
 21
9.0
 12
0.0
 22
0.0
 32
0.0
 14
1.000000000000000E+20
 24
1.000000000000000E+20
 34
1.000000000000000E+20
 15
-1.000000000000000E+20
 25
-1.000000000000000E+20
 35
-1.000000000000000E+20
146
0.0
 13
0.0
 23
0.0
 33
0.0
 16
1.0
 26
0.0
 36
0.0
 17
0.0
 27
1.0
 37
0.0
 76
     0
330
14
  0
MLINESTYLE
  5
1B
102
{ACAD_REACTORS
330
1A
102
}
330
1A
100
AcDbMlineStyle
  2
STANDARD
 70
     0
  3

 62
   256
 51
90.0
 52
90.0
 71
     2
 49
0.5
 62
   256
  6
BYLAYER
 49
-0.5
 62
   256
  6
BYLAYER
  0
ACDBPLACEHOLDER
  5
3A32
102
{ACAD_REACTORS
330
3A31
102
}
330
3A31
  0
SCALE
  5
7EDF
102
{ACAD_REACTORS
330
7EDE
102
}
330
7EDE
100
AcDbScale
 70
     0
300
1:1
140
1.0
141
1.0
290
     1
  0
SCALE
  5
7EE0
102
{ACAD_REACTORS
330
7EDE
102
}
330
7EDE
100
AcDbScale
 70
     0
300
1:2
140
1.0
141
2.0
290
     0
  0
SCALE
  5
7EE1
102
{ACAD_REACTORS
330
7EDE
102
}
330
7EDE
100
AcDbScale
 70
     0
300
1:4
140
1.0
141
4.0
290
     0
  0
SCALE
  5
7EE2
102
{ACAD_REACTORS
330
7EDE
102
}
330
7EDE
100
AcDbScale
 70
     0
300
1:5
140
1.0
141
5.0
290
     0
  0
SCALE
  5
7EE3
102
{ACAD_REACTORS
330
7EDE
102
}
330
7EDE
100
AcDbScale
 70
     0
300
1:8
140
1.0
141
8.0
290
     0
  0
SCALE
  5
7EE4
102
{ACAD_REACTORS
330
7EDE
102
}
330
7EDE
100
AcDbScale
 70
     0
300
1:10
140
1.0
141
10.0
290
     0
  0
SCALE
  5
7EE5
102
{ACAD_REACTORS
330
7EDE
102
}
330
7EDE
100
AcDbScale
 70
     0
300
1:16
140
1.0
141
16.0
290
     0
  0
SCALE
  5
7EE6
102
{ACAD_REACTORS
330
7EDE
102
}
330
7EDE
100
AcDbScale
 70
     0
300
1:20
140
1.0
141
20.0
290
     0
  0
SCALE
  5
7EE7
102
{ACAD_REACTORS
330
7EDE
102
}
330
7EDE
100
AcDbScale
 70
     0
300
1:30
140
1.0
141
30.0
290
     0
  0
SCALE
  5
7EE8
102
{ACAD_REACTORS
330
7EDE
102
}
330
7EDE
100
AcDbScale
 70
     0
300
1:40
140
1.0
141
40.0
290
     0
  0
SCALE
  5
7EE9
102
{ACAD_REACTORS
330
7EDE
102
}
330
7EDE
100
AcDbScale
 70
     0
300
1:50
140
1.0
141
50.0
290
     0
  0
SCALE
  5
7EEA
102
{ACAD_REACTORS
330
7EDE
102
}
330
7EDE
100
AcDbScale
 70
     0
300
1:100
140
1.0
141
100.0
290
     0
  0
SCALE
  5
7EEB
102
{ACAD_REACTORS
330
7EDE
102
}
330
7EDE
100
AcDbScale
 70
     0
300
2:1
140
2.0
141
1.0
290
     0
  0
SCALE
  5
7EEC
102
{ACAD_REACTORS
330
7EDE
102
}
330
7EDE
100
AcDbScale
 70
     0
300
4:1
140
4.0
141
1.0
290
     0
  0
SCALE
  5
7EED
102
{ACAD_REACTORS
330
7EDE
102
}
330
7EDE
100
AcDbScale
 70
     0
300
8:1
140
8.0
141
1.0
290
     0
  0
SCALE
  5
7EEE
102
{ACAD_REACTORS
330
7EDE
102
}
330
7EDE
100
AcDbScale
 70
     0
300
10:1
140
10.0
141
1.0
290
     0
  0
SCALE
  5
7EEF
102
{ACAD_REACTORS
330
7EDE
102
}
330
7EDE
100
AcDbScale
 70
     0
300
100:1
140
100.0
141
1.0
290
     0
  0
SCALE
  5
7EF0
102
{ACAD_REACTORS
330
7EDE
102
}
330
7EDE
100
AcDbScale
 70
     0
300
1/128" = 1'-0"
140
0.0078125
141
12.0
290
     0
  0
SCALE
  5
7EF1
102
{ACAD_REACTORS
330
7EDE
102
}
330
7EDE
100
AcDbScale
 70
     0
300
1/64" = 1'-0"
140
0.015625
141
12.0
290
     0
  0
SCALE
  5
7EF2
102
{ACAD_REACTORS
330
7EDE
102
}
330
7EDE
100
AcDbScale
 70
     0
300
1/32" = 1'-0"
140
0.03125
141
12.0
290
     0
  0
SCALE
  5
7EF3
102
{ACAD_REACTORS
330
7EDE
102
}
330
7EDE
100
AcDbScale
 70
     0
300
1/16" = 1'-0"
140
0.0625
141
12.0
290
     0
  0
SCALE
  5
7EF4
102
{ACAD_REACTORS
330
7EDE
102
}
330
7EDE
100
AcDbScale
 70
     0
300
3/32" = 1'-0"
140
0.09375
141
12.0
290
     0
  0
SCALE
  5
7EF5
102
{ACAD_REACTORS
330
7EDE
102
}
330
7EDE
100
AcDbScale
 70
     0
300
1/8" = 1'-0"
140
0.125
141
12.0
290
     0
  0
SCALE
  5
7EF6
102
{ACAD_REACTORS
330
7EDE
102
}
330
7EDE
100
AcDbScale
 70
     0
300
3/16" = 1'-0"
140
0.1875
141
12.0
290
     0
  0
SCALE
  5
7EF7
102
{ACAD_REACTORS
330
7EDE
102
}
330
7EDE
100
AcDbScale
 70
     0
300
1/4" = 1'-0"
140
0.25
141
12.0
290
     0
  0
SCALE
  5
7EF8
102
{ACAD_REACTORS
330
7EDE
102
}
330
7EDE
100
AcDbScale
 70
     0
300
3/8" = 1'-0"
140
0.375
141
12.0
290
     0
  0
SCALE
  5
7EF9
102
{ACAD_REACTORS
330
7EDE
102
}
330
7EDE
100
AcDbScale
 70
     0
300
1/2" = 1'-0"
140
0.5
141
12.0
290
     0
  0
SCALE
  5
7EFA
102
{ACAD_REACTORS
330
7EDE
102
}
330
7EDE
100
AcDbScale
 70
     0
300
3/4" = 1'-0"
140
0.75
141
12.0
290
     0
  0
SCALE
  5
7EFB
102
{ACAD_REACTORS
330
7EDE
102
}
330
7EDE
100
AcDbScale
 70
     0
300
1" = 1'-0"
140
1.0
141
12.0
290
     0
  0
SCALE
  5
7EFC
102
{ACAD_REACTORS
330
7EDE
102
}
330
7EDE
100
AcDbScale
 70
     0
300
1-1/2" = 1'-0"
140
1.5
141
12.0
290
     0
  0
SCALE
  5
7EFD
102
{ACAD_REACTORS
330
7EDE
102
}
330
7EDE
100
AcDbScale
 70
     0
300
3" = 1'-0"
140
3.0
141
12.0
290
     0
  0
SCALE
  5
7EFE
102
{ACAD_REACTORS
330
7EDE
102
}
330
7EDE
100
AcDbScale
 70
     0
300
6" = 1'-0"
140
6.0
141
12.0
290
     0
  0
SCALE
  5
7EFF
102
{ACAD_REACTORS
330
7EDE
102
}
330
7EDE
100
AcDbScale
 70
     0
300
1'-0" = 1'-0"
140
12.0
141
12.0
290
     0
  0
TABLESTYLE
  5
5EB2
102
{ACAD_REACTORS
330
5EB1
102
}
102
{ACAD_XDICTIONARY
360
7F01
102
}
330
5EB1
100
AcDbTableStyle
  3
Standard
 70
     0
 71
     0
 40
0.06
 41
0.06
280
     0
281
     0
  7
STANDARD
140
0.18
170
     2
 62
     0
 63
   257
283
     0
274
    -2
284
     1
 64
     0
275
    -2
285
     1
 65
     0
276
    -2
286
     1
 66
     0
277
    -2
287
     1
 67
     0
278
    -2
288
     1
 68
     0
279
    -2
289
     1
 69
     0
  7
STANDARD
140
0.25
170
     5
 62
     0
 63
   257
283
     0
274
    -2
284
     1
 64
     0
275
    -2
285
     1
 65
     0
276
    -2
286
     1
 66
     0
277
    -2
287
     1
 67
     0
278
    -2
288
     1
 68
     0
279
    -2
289
     1
 69
     0
  7
STANDARD
140
0.18
170
     5
 62
     0
 63
   257
283
     0
274
    -2
284
     1
 64
     0
275
    -2
285
     1
 65
     0
276
    -2
286
     1
 66
     0
277
    -2
287
     1
 67
     0
278
    -2
288
     1
 68
     0
279
    -2
289
     1
 69
     0
  0
DICTIONARYVAR
  5
7F00
102
{ACAD_REACTORS
330
3A82
102
}
330
3A82
100
DictionaryVariables
280
     0
  1
1:1
  0
DICTIONARYVAR
  5
5EC7
102
{ACAD_REACTORS
330
3A82
102
}
330
3A82
100
DictionaryVariables
280
     0
  1
Standard
  0
DICTIONARYVAR
  5
3A83
102
{ACAD_REACTORS
330
3A82
102
}
330
3A82
100
DictionaryVariables
280
     0
  1
1
  0
DICTIONARYVAR
  5
5EC8
102
{ACAD_REACTORS
330
3A82
102
}
330
3A82
100
DictionaryVariables
280
     0
  1

  0
DICTIONARYVAR
  5
5351
102
{ACAD_REACTORS
330
3A82
102
}
330
3A82
100
DictionaryVariables
280
     0
  1
127
  0
XRECORD
  5
69F2
102
{ACAD_REACTORS
330
69F0
102
}
330
69F0
100
AcDbXrecord
280
     1
  1
50
  1
*50*
  1
*
  1
*
 70
     0
  1
*
  1
*
1001
ACAD
1000
( NAME== "*50*" )
  0
XRECORD
  5
69F4
102
{ACAD_REACTORS
330
69F0
102
}
330
69F0
100
AcDbXrecord
280
     1
  1
hat
  1
*hat*
  1
*
  1
*
 70
     0
  1
*
  1
*
1001
ACAD
1000
( NAME== "*hat*" )
  0
XRECORD
  5
69F6
102
{ACAD_REACTORS
330
69F0
102
}
330
69F0
100
AcDbXrecord
280
     1
  1
kabe
  1
*kabe*
  1
*
  1
*
 70
     0
  1
*
  1
*
1001
ACAD
1000
( NAME== "*kabe*" )
  0
XRECORD
  5
69F8
102
{ACAD_REACTORS
330
69F0
102
}
330
69F0
100
AcDbXrecord
280
     1
  1
kijun
  1
*kijun*
  1
*
  1
*
 70
     0
  1
*
  1
*
1001
ACAD
1000
( NAME== "*kijun*" )
  0
XRECORD
  5
69FA
102
{ACAD_REACTORS
330
69F0
102
}
330
69F0
100
AcDbXrecord
280
     1
  1
setubi
  1
*setubi*
  1
*
  1
*
 70
     0
  1
*
  1
*
1001
ACAD
1000
( NAME== "*setubi*" )
  0
XRECORD
  5
69FC
102
{ACAD_REACTORS
330
69F0
102
}
330
69F0
100
AcDbXrecord
280
     1
  1
siage
  1
*siage*
  1
*
  1
*
 70
     0
  1
*
  1
*
1001
ACAD
1000
( NAME== "*siage*" )
  0
XRECORD
  5
69FE
102
{ACAD_REACTORS
330
69F0
102
}
330
69F0
100
AcDbXrecord
280
     1
  1
tategu
  1
*tategu*
  1
*
  1
*
 70
     0
  1
*
  1
*
1001
ACAD
1000
( NAME== "*tategu*" )
  0
XRECORD
  5
6A00
102
{ACAD_REACTORS
330
69F0
102
}
330
69F0
100
AcDbXrecord
280
     1
  1
梁
  1
*梁*
  1
*
  1
*
 70
     0
  1
*
  1
*
1001
ACAD
1000
( NAME== "*梁*" )
  0
XRECORD
  5
69F1
102
{ACAD_REACTORS
330
69EF
102
}
330
69EF
100
AcDbXrecord
280
     1
  1
AcLyLayerFilter
 90
        1
300
50
301
( NAME== "*50*" )
  0
XRECORD
  5
69F3
102
{ACAD_REACTORS
330
69EF
102
}
330
69EF
100
AcDbXrecord
280
     1
  1
AcLyLayerFilter
 90
        1
300
hat
301
( NAME== "*hat*" )
  0
XRECORD
  5
69F5
102
{ACAD_REACTORS
330
69EF
102
}
330
69EF
100
AcDbXrecord
280
     1
  1
AcLyLayerFilter
 90
        1
300
kabe
301
( NAME== "*kabe*" )
  0
XRECORD
  5
69F7
102
{ACAD_REACTORS
330
69EF
102
}
330
69EF
100
AcDbXrecord
280
     1
  1
AcLyLayerFilter
 90
        1
300
kijun
301
( NAME== "*kijun*" )
  0
XRECORD
  5
69F9
102
{ACAD_REACTORS
330
69EF
102
}
330
69EF
100
AcDbXrecord
280
     1
  1
AcLyLayerFilter
 90
        1
300
setubi
301
( NAME== "*setubi*" )
  0
XRECORD
  5
69FB
102
{ACAD_REACTORS
330
69EF
102
}
330
69EF
100
AcDbXrecord
280
     1
  1
AcLyLayerFilter
 90
        1
300
siage
301
( NAME== "*siage*" )
  0
XRECORD
  5
69FD
102
{ACAD_REACTORS
330
69EF
102
}
330
69EF
100
AcDbXrecord
280
     1
  1
AcLyLayerFilter
 90
        1
300
tategu
301
( NAME== "*tategu*" )
  0
XRECORD
  5
69FF
102
{ACAD_REACTORS
330
69EF
102
}
330
69EF
100
AcDbXrecord
280
     1
  1
AcLyLayerFilter
 90
        1
300
梁
301
( NAME== "*梁*" )
  0
DICTIONARY
  5
7F01
330
5EB2
100
AcDbDictionary
280
     1
281
     1
  3
ACAD_ROUNDTRIP_2008_TABLESTYLE_CELLSTYLEMAP
360
7F03
  3
ACAD_XREC_ROUNDTRIP
360
7F02
  0
CELLSTYLEMAP
  5
7F03
102
{ACAD_REACTORS
330
7F01
102
}
330
7F01
100
AcDbCellStyleMap
 90
        3
300
CELLSTYLE
  1
TABLEFORMAT_BEGIN
 90
        5
170
     1
 91
        0
 92
    32768
 62
   257
 93
        1
300
CONTENTFORMAT
  1
CONTENTFORMAT_BEGIN
 90
        0
 91
        0
 92
        4
 93
        0
300

 40
0.0
140
1.0
 94
        5
 62
     0
340
F
144
0.25
309
CONTENTFORMAT_END
171
     1
301
MARGIN
  1
CELLMARGIN_BEGIN
 40
0.06
 40
0.06
 40
0.06
 40
0.06
 40
0.06
 40
0.06
309
CELLMARGIN_END
 94
        6
 95
        1
302
GRIDFORMAT
  1
GRIDFORMAT_BEGIN
 90
        0
 91
        1
 62
     0
 92
       -2
340
0
 93
        0
 40
0.045
309
GRIDFORMAT_END
 95
        2
302
GRIDFORMAT
  1
GRIDFORMAT_BEGIN
 90
        0
 91
        1
 62
     0
 92
       -2
340
0
 93
        0
 40
0.045
309
GRIDFORMAT_END
 95
        4
302
GRIDFORMAT
  1
GRIDFORMAT_BEGIN
 90
        0
 91
        1
 62
     0
 92
       -2
340
0
 93
        0
 40
0.045
309
GRIDFORMAT_END
 95
        8
302
GRIDFORMAT
  1
GRIDFORMAT_BEGIN
 90
        0
 91
        1
 62
     0
 92
       -2
340
0
 93
        0
 40
0.045
309
GRIDFORMAT_END
 95
       16
302
GRIDFORMAT
  1
GRIDFORMAT_BEGIN
 90
        0
 91
        1
 62
     0
 92
       -2
340
0
 93
        0
 40
0.045
309
GRIDFORMAT_END
 95
       32
302
GRIDFORMAT
  1
GRIDFORMAT_BEGIN
 90
        0
 91
        1
 62
     0
 92
       -2
340
0
 93
        0
 40
0.045
309
GRIDFORMAT_END
309
TABLEFORMAT_END
  1
CELLSTYLE_BEGIN
 90
        1
 91
        1
300
_TITLE
309
CELLSTYLE_END
300
CELLSTYLE
  1
TABLEFORMAT_BEGIN
 90
        5
170
     1
 91
        0
 92
        0
 62
   257
 93
        1
300
CONTENTFORMAT
  1
CONTENTFORMAT_BEGIN
 90
        0
 91
        0
 92
        4
 93
        0
300

 40
0.0
140
1.0
 94
        5
 62
     0
340
F
144
0.18
309
CONTENTFORMAT_END
171
     1
301
MARGIN
  1
CELLMARGIN_BEGIN
 40
0.06
 40
0.06
 40
0.06
 40
0.06
 40
0.06
 40
0.06
309
CELLMARGIN_END
 94
        6
 95
        1
302
GRIDFORMAT
  1
GRIDFORMAT_BEGIN
 90
        0
 91
        1
 62
     0
 92
       -2
340
0
 93
        0
 40
0.045
309
GRIDFORMAT_END
 95
        2
302
GRIDFORMAT
  1
GRIDFORMAT_BEGIN
 90
        0
 91
        1
 62
     0
 92
       -2
340
0
 93
        0
 40
0.045
309
GRIDFORMAT_END
 95
        4
302
GRIDFORMAT
  1
GRIDFORMAT_BEGIN
 90
        0
 91
        1
 62
     0
 92
       -2
340
0
 93
        0
 40
0.045
309
GRIDFORMAT_END
 95
        8
302
GRIDFORMAT
  1
GRIDFORMAT_BEGIN
 90
        0
 91
        1
 62
     0
 92
       -2
340
0
 93
        0
 40
0.045
309
GRIDFORMAT_END
 95
       16
302
GRIDFORMAT
  1
GRIDFORMAT_BEGIN
 90
        0
 91
        1
 62
     0
 92
       -2
340
0
 93
        0
 40
0.045
309
GRIDFORMAT_END
 95
       32
302
GRIDFORMAT
  1
GRIDFORMAT_BEGIN
 90
        0
 91
        1
 62
     0
 92
       -2
340
0
 93
        0
 40
0.045
309
GRIDFORMAT_END
309
TABLEFORMAT_END
  1
CELLSTYLE_BEGIN
 90
        2
 91
        1
300
_HEADER
309
CELLSTYLE_END
300
CELLSTYLE
  1
TABLEFORMAT_BEGIN
 90
        5
170
     1
 91
        0
 92
        0
 62
   257
 93
        1
300
CONTENTFORMAT
  1
CONTENTFORMAT_BEGIN
 90
        0
 91
        0
 92
        4
 93
        0
300

 40
0.0
140
1.0
 94
        2
 62
     0
340
F
144
0.18
309
CONTENTFORMAT_END
171
     1
301
MARGIN
  1
CELLMARGIN_BEGIN
 40
0.06
 40
0.06
 40
0.06
 40
0.06
 40
0.06
 40
0.06
309
CELLMARGIN_END
 94
        6
 95
        1
302
GRIDFORMAT
  1
GRIDFORMAT_BEGIN
 90
        0
 91
        1
 62
     0
 92
       -2
340
0
 93
        0
 40
0.045
309
GRIDFORMAT_END
 95
        2
302
GRIDFORMAT
  1
GRIDFORMAT_BEGIN
 90
        0
 91
        1
 62
     0
 92
       -2
340
0
 93
        0
 40
0.045
309
GRIDFORMAT_END
 95
        4
302
GRIDFORMAT
  1
GRIDFORMAT_BEGIN
 90
        0
 91
        1
 62
     0
 92
       -2
340
0
 93
        0
 40
0.045
309
GRIDFORMAT_END
 95
        8
302
GRIDFORMAT
  1
GRIDFORMAT_BEGIN
 90
        0
 91
        1
 62
     0
 92
       -2
340
0
 93
        0
 40
0.045
309
GRIDFORMAT_END
 95
       16
302
GRIDFORMAT
  1
GRIDFORMAT_BEGIN
 90
        0
 91
        1
 62
     0
 92
       -2
340
0
 93
        0
 40
0.045
309
GRIDFORMAT_END
 95
       32
302
GRIDFORMAT
  1
GRIDFORMAT_BEGIN
 90
        0
 91
        1
 62
     0
 92
       -2
340
0
 93
        0
 40
0.045
309
GRIDFORMAT_END
309
TABLEFORMAT_END
  1
CELLSTYLE_BEGIN
 90
        3
 91
        2
300
_DATA
309
CELLSTYLE_END
  0
XRECORD
  5
7F02
102
{ACAD_REACTORS
330
7F01
102
}
330
7F01
100
AcDbXrecord
280
     1
102
ACAD_ROUNDTRIP_PRE2007_TABLESTYLE
 90
        4
 91
        0
  1

 92
        4
 93
        0
  2

 94
        4
 95
        0
  3

  0
ENDSEC
  0
EOF
