  0
SECTION
  2
HEADER
  9
$ACADVER
  1
AC1018
  9
$ACADMAINTVER
 70
     0
  9
$DWGCODEPAGE
  3
ANSI_932
  9
$INSBASE
 10
0.0
 20
0.0
 30
0.0
  9
$EXTMIN
 10
510.0
 20
0.0
 30
0.0
  9
$EXTMAX
 10
12000.0
 20
8310.0
 30
0.0
  9
$LIMMIN
 10
0.0
 20
0.0
  9
$LIMMAX
 10
12600.0
 20
8910.0
  9
$ORTHOMODE
 70
     1
  9
$REGENMODE
 70
     1
  9
$FILLMODE
 70
     1
  9
$QTEXTMODE
 70
     0
  9
$MIRRTEXT
 70
     1
  9
$LTSCALE
 40
300.0
  9
$ATTMODE
 70
     1
  9
$TEXTSIZE
 40
90.0
  9
$TRACEWID
 40
0.05
  9
$TEXTSTYLE
  7
STANDARD
  9
$CLAYER
  8
SUNPOU
  9
$CELTYPE
  6
BYLAYER
  9
$CECOLOR
 62
   256
  9
$CELTSCALE
 40
1.0
  9
$DISPSILH
 70
     0
  9
$DIMSCALE
 40
30.0
  9
$DIMASZ
 40
2.0
  9
$DIMEXO
 40
2.0
  9
$DIMDLI
 40
7.0
  9
$DIMRND
 40
0.0
  9
$DIMDLE
 40
0.0
  9
$DIMEXE
 40
0.5
  9
$DIMTP
 40
0.0
  9
$DIMTM
 40
0.0
  9
$DIMTXT
 40
3.0
  9
$DIMCEN
 40
0.0
  9
$DIMTSZ
 40
0.0
  9
$DIMTOL
 70
     0
  9
$DIMLIM
 70
     0
  9
$DIMTIH
 70
     0
  9
$DIMTOH
 70
     0
  9
$DIMSE1
 70
     0
  9
$DIMSE2
 70
     0
  9
$DIMTAD
 70
     1
  9
$DIMZIN
 70
     8
  9
$DIMBLK
  1

  9
$DIMASO
 70
     1
  9
$DIMSHO
 70
     1
  9
$DIMPOST
  1

  9
$DIMAPOST
  1

  9
$DIMALT
 70
     0
  9
$DIMALTD
 70
     2
  9
$DIMALTF
 40
25.4
  9
$DIMLFAC
 40
1.0
  9
$DIMTOFL
 70
     0
  9
$DIMTVP
 40
1.0
  9
$DIMTIX
 70
     1
  9
$DIMSOXD
 70
     0
  9
$DIMSAH
 70
     0
  9
$DIMBLK1
  1

  9
$DIMBLK2
  1

  9
$DIMSTYLE
  2
A3-30
  9
$DIMCLRD
 70
     0
  9
$DIMCLRE
 70
     0
  9
$DIMCLRT
 70
     0
  9
$DIMTFAC
 40
1.0
  9
$DIMGAP
 40
0.8
  9
$DIMJUST
 70
     0
  9
$DIMSD1
 70
     0
  9
$DIMSD2
 70
     0
  9
$DIMTOLJ
 70
     1
  9
$DIMTZIN
 70
     8
  9
$DIMALTZ
 70
     8
  9
$DIMALTTZ
 70
     8
  9
$DIMUPT
 70
     0
  9
$DIMDEC
 70
     0
  9
$DIMTDEC
 70
     0
  9
$DIMALTU
 70
     2
  9
$DIMALTTD
 70
     2
  9
$DIMTXSTY
  7
STANDARD
  9
$DIMAUNIT
 70
     0
  9
$DIMADEC
 70
     4
  9
$DIMALTRND
 40
0.0
  9
$DIMAZIN
 70
     0
  9
$DIMDSEP
 70
    46
  9
$DIMATFIT
 70
     3
  9
$DIMFRAC
 70
     0
  9
$DIMLDRBLK
  1

  9
$DIMLUNIT
 70
     2
  9
$DIMLWD
 70
    -2
  9
$DIMLWE
 70
    -2
  9
$DIMTMOVE
 70
     2
  9
$LUNITS
 70
     2
  9
$LUPREC
 70
     4
  9
$SKETCHINC
 40
0.1
  9
$FILLETRAD
 40
0.0
  9
$AUNITS
 70
     0
  9
$AUPREC
 70
     6
  9
$MENU
  1
acad
  9
$ELEVATION
 40
0.0
  9
$PELEVATION
 40
0.0
  9
$THICKNESS
 40
0.0
  9
$LIMCHECK
 70
     0
  9
$CHAMFERA
 40
0.0
  9
$CHAMFERB
 40
0.0
  9
$CHAMFERC
 40
0.0
  9
$CHAMFERD
 40
0.0
  9
$SKPOLY
 70
     0
  9
$TDCREATE
 40
2450014.659421296
  9
$TDUCREATE
 40
2450014.284421296
  9
$TDUPDATE
 40
2455351.391654549
  9
$TDUUPDATE
 40
2455351.016654549
  9
$TDINDWG
 40
0.0684412847
  9
$TDUSRTIMER
 40
0.0684412847
  9
$USRTIMER
 70
     1
  9
$ANGBASE
 50
0.0
  9
$ANGDIR
 70
     0
  9
$PDMODE
 70
     0
  9
$PDSIZE
 40
0.0
  9
$PLINEWID
 40
0.0
  9
$SPLFRAME
 70
     0
  9
$SPLINETYPE
 70
     6
  9
$SPLINESEGS
 70
     8
  9
$HANDSEED
  5
2669
  9
$SURFTAB1
 70
     6
  9
$SURFTAB2
 70
     6
  9
$SURFTYPE
 70
     6
  9
$SURFU
 70
     6
  9
$SURFV
 70
     6
  9
$UCSBASE
  2

  9
$UCSNAME
  2

  9
$UCSORG
 10
0.0
 20
0.0
 30
0.0
  9
$UCSXDIR
 10
1.0
 20
0.0
 30
0.0
  9
$UCSYDIR
 10
0.0
 20
1.0
 30
0.0
  9
$UCSORTHOREF
  2

  9
$UCSORTHOVIEW
 70
     0
  9
$UCSORGTOP
 10
0.0
 20
0.0
 30
0.0
  9
$UCSORGBOTTOM
 10
0.0
 20
0.0
 30
0.0
  9
$UCSORGLEFT
 10
0.0
 20
0.0
 30
0.0
  9
$UCSORGRIGHT
 10
0.0
 20
0.0
 30
0.0
  9
$UCSORGFRONT
 10
0.0
 20
0.0
 30
0.0
  9
$UCSORGBACK
 10
0.0
 20
0.0
 30
0.0
  9
$PUCSBASE
  2

  9
$PUCSNAME
  2

  9
$PUCSORG
 10
0.0
 20
0.0
 30
0.0
  9
$PUCSXDIR
 10
1.0
 20
0.0
 30
0.0
  9
$PUCSYDIR
 10
0.0
 20
1.0
 30
0.0
  9
$PUCSORTHOREF
  2

  9
$PUCSORTHOVIEW
 70
     0
  9
$PUCSORGTOP
 10
0.0
 20
0.0
 30
0.0
  9
$PUCSORGBOTTOM
 10
0.0
 20
0.0
 30
0.0
  9
$PUCSORGLEFT
 10
0.0
 20
0.0
 30
0.0
  9
$PUCSORGRIGHT
 10
0.0
 20
0.0
 30
0.0
  9
$PUCSORGFRONT
 10
0.0
 20
0.0
 30
0.0
  9
$PUCSORGBACK
 10
0.0
 20
0.0
 30
0.0
  9
$USERI1
 70
     0
  9
$USERI2
 70
     0
  9
$USERI3
 70
     0
  9
$USERI4
 70
     0
  9
$USERI5
 70
     0
  9
$USERR1
 40
0.0
  9
$USERR2
 40
0.0
  9
$USERR3
 40
0.0
  9
$USERR4
 40
0.0
  9
$USERR5
 40
0.0
  9
$WORLDVIEW
 70
     1
  9
$SHADEDGE
 70
     3
  9
$SHADEDIF
 70
    70
  9
$TILEMODE
 70
     1
  9
$MAXACTVP
 70
    48
  9
$PINSBASE
 10
0.0
 20
0.0
 30
0.0
  9
$PLIMCHECK
 70
     0
  9
$PEXTMIN
 10
1.000000000000000E+20
 20
1.000000000000000E+20
 30
1.000000000000000E+20
  9
$PEXTMAX
 10
-1.000000000000000E+20
 20
-1.000000000000000E+20
 30
-1.000000000000000E+20
  9
$PLIMMIN
 10
0.0
 20
0.0
  9
$PLIMMAX
 10
12.0
 20
9.0
  9
$UNITMODE
 70
     0
  9
$VISRETAIN
 70
     0
  9
$PLINEGEN
 70
     0
  9
$PSLTSCALE
 70
     0
  9
$TREEDEPTH
 70
  3020
  9
$CMLSTYLE
  2
STANDARD
  9
$CMLJUST
 70
     0
  9
$CMLSCALE
 40
1.0
  9
$PROXYGRAPHICS
 70
     1
  9
$MEASUREMENT
 70
     0
  9
$CELWEIGHT
370
    -1
  9
$ENDCAPS
280
     0
  9
$JOINSTYLE
280
     0
  9
$LWDISPLAY
290
     0
  9
$INSUNITS
 70
     0
  9
$HYPERLINKBASE
  1

  9
$STYLESHEET
  1
acad.ctb
  9
$XEDIT
290
     1
  9
$CEPSNTYPE
380
     0
  9
$PSTYLEMODE
290
     1
  9
$FINGERPRINTGUID
  2
{9E4B692F-34DC-11D6-9351-0080AD72C8A3}
  9
$VERSIONGUID
  2
{359245C3-70DA-4B61-A0A8-158870F42E11}
  9
$EXTNAMES
290
     1
  9
$PSVPSCALE
 40
0.0
  9
$OLESTARTUP
290
     0
  9
$SORTENTS
280
   127
  9
$INDEXCTL
280
     0
  9
$HIDETEXT
280
     1
  9
$XCLIPFRAME
290
     0
  9
$HALOGAP
280
     0
  9
$OBSCOLOR
 70
   257
  9
$OBSLTYPE
280
     0
  9
$INTERSECTIONDISPLAY
280
     0
  9
$INTERSECTIONCOLOR
 70
   257
  9
$DIMASSOC
280
     1
  9
$PROJECTNAME
  1

  0
ENDSEC
  0
SECTION
  2
CLASSES
  0
CLASS
  1
ACDBDICTIONARYWDFLT
  2
AcDbDictionaryWithDefault
  3
ObjectDBX Classes
 90
        0
 91
        4
280
     0
281
     0
  0
CLASS
  1
ACDBPLACEHOLDER
  2
AcDbPlaceHolder
  3
ObjectDBX Classes
 90
        0
 91
        1
280
     0
281
     0
  0
CLASS
  1
LAYOUT
  2
AcDbLayout
  3
ObjectDBX Classes
 90
        0
 91
        1
280
     0
281
     0
  0
CLASS
  1
DICTIONARYVAR
  2
AcDbDictionaryVar
  3
ObjectDBX Classes
 90
        0
 91
        4
280
     0
281
     0
  0
CLASS
  1
DUMMY
  2
AcDbLongTransaction
  3
DUMMY
 90
        0
 91
        1
280
     0
281
     0
  0
CLASS
  1
LWPOLYLINE
  2
AcDbPolyline
  3
AutoCAD 2000
 90
        0
 91
        1
280
     0
281
     1
  0
CLASS
  1
HATCH
  2
AcDbHatch
  3
AutoCAD 2000
 90
        0
 91
        1
280
     0
281
     1
  0
CLASS
  1
XRECORD
  2
AcDbXrecord
  3
AutoCAD 2000
 90
        0
 91
        1
280
     0
281
     0
  0
CLASS
  1
DUMMY
  2
AcDbLongTransaction
  3
DUMMY
 90
        0
 91
        1
280
     0
281
     0
  0
CLASS
  1
LWPOLYLINE
  2
AcDbPolyline
  3
AutoCAD 2000
 90
        0
 91
        1
280
     0
281
     1
  0
CLASS
  1
HATCH
  2
AcDbHatch
  3
AutoCAD 2000
 90
        0
 91
        1
280
     0
281
     1
  0
CLASS
  1
XRECORD
  2
AcDbXrecord
  3
AutoCAD 2000
 90
        0
 91
        1
280
     0
281
     0
  0
CLASS
  1
DUMMY
  2
AcDbLongTransaction
  3
DUMMY
 90
        0
 91
        1
280
     0
281
     0
  0
CLASS
  1
LWPOLYLINE
  2
AcDbPolyline
  3
AutoCAD 2000
 90
        0
 91
        1
280
     0
281
     1
  0
CLASS
  1
HATCH
  2
AcDbHatch
  3
AutoCAD 2000
 90
        0
 91
        1
280
     0
281
     1
  0
CLASS
  1
XRECORD
  2
AcDbXrecord
  3
AutoCAD 2000
 90
        0
 91
        1
280
     0
281
     0
  0
CLASS
  1
TABLESTYLE
  2
AcDbTableStyle
  3
ObjectDBX Classes
 90
     4095
 91
        4
280
     0
281
     0
  0
CLASS
  1
SCALE
  2
AcDbScale
  3
ObjectDBX Classes
 90
     1153
 91
        4
280
     0
281
     0
  0
CLASS
  1
CELLSTYLEMAP
  2
AcDbCellStyleMap
  3
ObjectDBX Classes
 90
     1152
 91
        4
280
     0
281
     0
  0
ENDSEC
  0
SECTION
  2
TABLES
  0
TABLE
  2
VPORT
  5
8
330
0
100
AcDbSymbolTable
 70
     2
  0
VPORT
  5
263B
330
8
100
AcDbSymbolTableRecord
100
AcDbViewportTableRecord
  2
*Active
 70
     0
 10
0.0
 20
0.0
 11
1.0
 21
1.0
 12
6044.76715288479
 22
4038.156817199033
 13
0.0
 23
0.0
 14
30.0
 24
30.0
 15
300.0
 25
300.0
 16
0.0
 26
0.0
 36
1.0
 17
0.0
 27
0.0
 37
0.0
 40
9211.257605025778
 41
1.507024265644955
 42
50.0
 43
0.0
 44
0.0
 50
0.0
 51
0.0
 71
     0
 72
   100
 73
     1
 74
     1
 75
     0
 76
     0
 77
     0
 78
     0
281
     0
 65
     1
110
0.0
120
0.0
130
0.0
111
1.0
121
0.0
131
0.0
112
0.0
122
1.0
132
0.0
 79
     0
146
0.0
  0
ENDTAB
  0
TABLE
  2
LTYPE
  5
5
330
0
100
AcDbSymbolTable
 70
     4
  0
LTYPE
  5
11
330
5
100
AcDbSymbolTableRecord
100
AcDbLinetypeTableRecord
  2
BYBLOCK
 70
     0
  3

 72
    65
 73
     0
 40
0.0
  0
LTYPE
  5
12
330
5
100
AcDbSymbolTableRecord
100
AcDbLinetypeTableRecord
  2
BYLAYER
 70
     0
  3

 72
    65
 73
     0
 40
0.0
  0
LTYPE
  5
13
330
5
100
AcDbSymbolTableRecord
100
AcDbLinetypeTableRecord
  2
CONTINUOUS
 70
     0
  3
Solid line
 72
    65
 73
     0
 40
0.0
  0
LTYPE
  5
1E
330
5
100
AcDbSymbolTableRecord
100
AcDbLinetypeTableRecord
  2
HIDDEN
 70
     0
  3
_ _ _ _ _ _ _ _ _ _ _ _ _ _ _ _ _ _ _ _ _ _ _
 72
    65
 73
     2
 40
0.375
 49
0.25
 74
     0
 49
-0.125
 74
     0
  0
LTYPE
  5
1F
330
5
100
AcDbSymbolTableRecord
100
AcDbLinetypeTableRecord
  2
CENTER
 70
     0
  3
____ _ ____ _ ____ _ ____ _ ____ _ ____ _ ____
 72
    65
 73
     4
 40
2.0
 49
1.25
 74
     0
 49
-0.25
 74
     0
 49
0.25
 74
     0
 49
-0.25
 74
     0
  0
LTYPE
  5
20
330
5
100
AcDbSymbolTableRecord
100
AcDbLinetypeTableRecord
  2
PHANTOM
 70
     0
  3
_____ _ _ _____ _ _ _____ _ _ _____ _ _ ____
 72
    65
 73
     6
 40
2.5
 49
1.25
 74
     0
 49
-0.25
 74
     0
 49
0.25
 74
     0
 49
-0.25
 74
     0
 49
0.25
 74
     0
 49
-0.25
 74
     0
  0
ENDTAB
  0
TABLE
  2
LAYER
  5
2
330
0
100
AcDbSymbolTable
 70
    10
  0
LAYER
  5
E
330
2
100
AcDbSymbolTableRecord
100
AcDbLayerTableRecord
  2
0
 70
     0
 62
     7
  6
CONTINUOUS
370
    -3
390
7A
  0
LAYER
  5
23
330
2
100
AcDbSymbolTableRecord
100
AcDbLayerTableRecord
  2
SUNPOU
 70
     0
 62
     1
  6
CONTINUOUS
370
    -3
390
7A
  0
LAYER
  5
24
330
2
100
AcDbSymbolTableRecord
100
AcDbLayerTableRecord
  2
HAIKIN
 70
     0
 62
     2
  6
CONTINUOUS
370
    -3
390
7A
  0
LAYER
  5
25
330
2
100
AcDbSymbolTableRecord
100
AcDbLayerTableRecord
  2
SEIHIN
 70
     0
 62
     3
  6
CONTINUOUS
370
    -3
390
7A
  0
LAYER
  5
26
330
2
100
AcDbSymbolTableRecord
100
AcDbLayerTableRecord
  2
HASEN
 70
     0
 62
     4
  6
HIDDEN
370
    -3
390
7A
  0
LAYER
  5
27
330
2
100
AcDbSymbolTableRecord
100
AcDbLayerTableRecord
  2
1HASEN
 70
     0
 62
     5
  6
CENTER
370
    -3
390
7A
  0
LAYER
  5
28
330
2
100
AcDbSymbolTableRecord
100
AcDbLayerTableRecord
  2
2HASEN
 70
     0
 62
     6
  6
PHANTOM
370
    -3
390
7A
  0
LAYER
  5
29
330
2
100
AcDbSymbolTableRecord
100
AcDbLayerTableRecord
  2
HOJO
 70
     0
 62
     7
  6
CONTINUOUS
370
    -3
390
7A
  0
LAYER
  5
2A
330
2
100
AcDbSymbolTableRecord
100
AcDbLayerTableRecord
  2
TEN
 70
     0
 62
     7
  6
CONTINUOUS
370
    -3
390
7A
  0
LAYER
  5
70
330
2
100
AcDbSymbolTableRecord
100
AcDbLayerTableRecord
  2
DEFPOINTS
 70
     0
 62
     7
  6
CONTINUOUS
290
     0
370
    -3
390
7A
  0
ENDTAB
  0
TABLE
  2
STYLE
  5
3
330
0
100
AcDbSymbolTable
 70
     1
  0
STYLE
  5
F
330
3
100
AcDbSymbolTableRecord
100
AcDbTextStyleTableRecord
  2
STANDARD
 70
     0
 40
0.0
 41
0.8
 50
0.0
 71
     0
 42
90.0
  3
TXT.shx
  4
BIGFONT.shx
  0
ENDTAB
  0
TABLE
  2
VIEW
  5
6
330
0
100
AcDbSymbolTable
 70
     0
  0
ENDTAB
  0
TABLE
  2
UCS
  5
7
330
0
100
AcDbSymbolTable
 70
     0
  0
ENDTAB
  0
TABLE
  2
APPID
  5
9
330
0
100
AcDbSymbolTable
 70
    10
  0
APPID
  5
10
330
9
100
AcDbSymbolTableRecord
100
AcDbRegAppTableRecord
  2
ACAD
 70
     0
  0
APPID
  5
9B0
330
9
100
AcDbSymbolTableRecord
100
AcDbRegAppTableRecord
  2
ACAD_DSTYLE_DIMTEXT_FILL
 70
     0
  0
APPID
  5
9B1
330
9
100
AcDbSymbolTableRecord
100
AcDbRegAppTableRecord
  2
ACAD_DSTYLE_DIMEXT_LENGTH
 70
     0
  0
APPID
  5
9B2
330
9
100
AcDbSymbolTableRecord
100
AcDbRegAppTableRecord
  2
ACAD_DSTYLE_DIMEXT_ENABLED
 70
     0
  0
APPID
  5
9B3
330
9
100
AcDbSymbolTableRecord
100
AcDbRegAppTableRecord
  2
ACAD_DSTYLE_DIM_LINETYPE
 70
     0
  0
APPID
  5
9B4
330
9
100
AcDbSymbolTableRecord
100
AcDbRegAppTableRecord
  2
ACAD_DSTYLE_DIM_EXT1_LINETYPE
 70
     0
  0
APPID
  5
9B5
330
9
100
AcDbSymbolTableRecord
100
AcDbRegAppTableRecord
  2
ACAD_DSTYLE_DIM_EXT2_LINETYPE
 70
     0
  0
APPID
  5
A71
330
9
100
AcDbSymbolTableRecord
100
AcDbRegAppTableRecord
  2
ACAD_DSTYLE_DIMJOGGED_JOGANGLE_SYMBOL
 70
     0
  0
APPID
  5
C55
330
9
100
AcDbSymbolTableRecord
100
AcDbRegAppTableRecord
  2
ACAD_DSTYLE_DIMARC_LENGTH_SYMBOL
 70
     0
  0
APPID
  5
228A
330
9
100
AcDbSymbolTableRecord
100
AcDbRegAppTableRecord
  2
ACAD_EXEMPT_FROM_CAD_STANDARDS
 70
     0
  0
ENDTAB
  0
TABLE
  2
DIMSTYLE
  5
A
330
0
100
AcDbSymbolTable
 70
     2
100
AcDbDimStyleTable
  0
DIMSTYLE
105
61
330
A
100
AcDbSymbolTableRecord
100
AcDbDimStyleTableRecord
  2
STANDARD
 70
     0
178
     0
340
F
  0
DIMSTYLE
105
C5A
102
{ACAD_REACTORS
330
157F
330
1573
330
1555
330
1506
330
1504
330
14FE
330
14FD
330
14F7
330
14EC
330
14EB
330
14E4
330
14E3
330
14E2
330
14B0
330
1476
330
1475
330
1474
330
1473
330
1458
330
1457
330
1456
330
1455
330
142F
330
141E
330
141A
330
23A6
330
23B4
330
2621
102
}
330
A
100
AcDbSymbolTableRecord
100
AcDbDimStyleTableRecord
  2
A3-30
 70
     0
 40
30.0
 41
2.0
 42
2.0
 43
7.0
 44
0.5
 73
     0
 74
     0
 77
     1
 78
     8
140
3.0
141
0.0
145
1.0
147
0.8
174
     1
178
     0
179
     4
271
     0
272
     0
279
     2
284
     8
285
     8
286
     8
340
F
  0
ENDTAB
  0
TABLE
  2
BLOCK_RECORD
  5
1
330
0
100
AcDbSymbolTable
 70
    39
  0
BLOCK_RECORD
  5
17
330
1
100
AcDbSymbolTableRecord
100
AcDbBlockTableRecord
  2
*MODEL_SPACE
340
7D
  0
BLOCK_RECORD
  5
14
330
1
100
AcDbSymbolTableRecord
100
AcDbBlockTableRecord
  2
*PAPER_SPACE
340
7E
  0
BLOCK_RECORD
  5
1C
330
1
100
AcDbSymbolTableRecord
100
AcDbBlockTableRecord
  2
BORDER
340
0
  0
BLOCK_RECORD
  5
1D
330
1
100
AcDbSymbolTableRecord
100
AcDbBlockTableRecord
  2
SA3
340
0
102
{BLKREFS
331
60
102
}
  0
BLOCK_RECORD
  5
82
330
1
100
AcDbSymbolTableRecord
100
AcDbBlockTableRecord
  2
*D2
340
0
  0
BLOCK_RECORD
  5
8E
330
1
100
AcDbSymbolTableRecord
100
AcDbBlockTableRecord
  2
*D3
340
0
  0
BLOCK_RECORD
  5
9C
330
1
100
AcDbSymbolTableRecord
100
AcDbBlockTableRecord
  2
*D4
340
0
  0
BLOCK_RECORD
  5
AA
330
1
100
AcDbSymbolTableRecord
100
AcDbBlockTableRecord
  2
*D5
340
0
  0
BLOCK_RECORD
  5
B6
330
1
100
AcDbSymbolTableRecord
100
AcDbBlockTableRecord
  2
*D6
340
0
  0
BLOCK_RECORD
  5
C3
330
1
100
AcDbSymbolTableRecord
100
AcDbBlockTableRecord
  2
A$C79F54BAC
340
0
  0
BLOCK_RECORD
  5
15BD
330
1
100
AcDbSymbolTableRecord
100
AcDbBlockTableRecord
  2
*D8
340
0
  0
BLOCK_RECORD
  5
15FC
330
1
100
AcDbSymbolTableRecord
100
AcDbBlockTableRecord
  2
*D9
340
0
  0
BLOCK_RECORD
  5
168E
330
1
100
AcDbSymbolTableRecord
100
AcDbBlockTableRecord
  2
*D10
340
0
  0
BLOCK_RECORD
  5
1743
330
1
100
AcDbSymbolTableRecord
100
AcDbBlockTableRecord
  2
*D11
340
0
  0
BLOCK_RECORD
  5
1773
330
1
100
AcDbSymbolTableRecord
100
AcDbBlockTableRecord
  2
*D12
340
0
  0
BLOCK_RECORD
  5
177F
330
1
100
AcDbSymbolTableRecord
100
AcDbBlockTableRecord
  2
*D13
340
0
  0
BLOCK_RECORD
  5
178B
330
1
100
AcDbSymbolTableRecord
100
AcDbBlockTableRecord
  2
*D14
340
0
  0
BLOCK_RECORD
  5
1797
330
1
100
AcDbSymbolTableRecord
100
AcDbBlockTableRecord
  2
*D15
340
0
  0
BLOCK_RECORD
  5
17A3
330
1
100
AcDbSymbolTableRecord
100
AcDbBlockTableRecord
  2
*D16
340
0
  0
BLOCK_RECORD
  5
17AF
330
1
100
AcDbSymbolTableRecord
100
AcDbBlockTableRecord
  2
*D17
340
0
  0
BLOCK_RECORD
  5
17BB
330
1
100
AcDbSymbolTableRecord
100
AcDbBlockTableRecord
  2
*D18
340
0
  0
BLOCK_RECORD
  5
17C7
330
1
100
AcDbSymbolTableRecord
100
AcDbBlockTableRecord
  2
*D19
340
0
  0
BLOCK_RECORD
  5
17D3
330
1
100
AcDbSymbolTableRecord
100
AcDbBlockTableRecord
  2
*D20
340
0
  0
BLOCK_RECORD
  5
17E0
330
1
100
AcDbSymbolTableRecord
100
AcDbBlockTableRecord
  2
*D21
340
0
  0
BLOCK_RECORD
  5
18B6
330
1
100
AcDbSymbolTableRecord
100
AcDbBlockTableRecord
  2
*D22
340
0
  0
BLOCK_RECORD
  5
1970
330
1
100
AcDbSymbolTableRecord
100
AcDbBlockTableRecord
  2
*D23
340
0
  0
BLOCK_RECORD
  5
197C
330
1
100
AcDbSymbolTableRecord
100
AcDbBlockTableRecord
  2
*D24
340
0
  0
BLOCK_RECORD
  5
1988
330
1
100
AcDbSymbolTableRecord
100
AcDbBlockTableRecord
  2
*D25
340
0
  0
BLOCK_RECORD
  5
19AD
330
1
100
AcDbSymbolTableRecord
100
AcDbBlockTableRecord
  2
*D26
340
0
  0
BLOCK_RECORD
  5
19B9
330
1
100
AcDbSymbolTableRecord
100
AcDbBlockTableRecord
  2
*D27
340
0
  0
BLOCK_RECORD
  5
19DF
330
1
100
AcDbSymbolTableRecord
100
AcDbBlockTableRecord
  2
*D28
340
0
  0
BLOCK_RECORD
  5
1A10
330
1
100
AcDbSymbolTableRecord
100
AcDbBlockTableRecord
  2
*D29
340
0
  0
BLOCK_RECORD
  5
1A1C
330
1
100
AcDbSymbolTableRecord
100
AcDbBlockTableRecord
  2
*D30
340
0
  0
BLOCK_RECORD
  5
1A28
330
1
100
AcDbSymbolTableRecord
100
AcDbBlockTableRecord
  2
*D31
340
0
  0
BLOCK_RECORD
  5
1A40
330
1
100
AcDbSymbolTableRecord
100
AcDbBlockTableRecord
  2
*D32
340
0
  0
BLOCK_RECORD
  5
23A7
330
1
100
AcDbSymbolTableRecord
100
AcDbBlockTableRecord
  2
*D33
340
0
  0
BLOCK_RECORD
  5
23B5
330
1
100
AcDbSymbolTableRecord
100
AcDbBlockTableRecord
  2
*D34
340
0
  0
BLOCK_RECORD
  5
2622
330
1
100
AcDbSymbolTableRecord
100
AcDbBlockTableRecord
  2
*D38
340
0
  0
ENDTAB
  0
ENDSEC
  0
SECTION
  2
BLOCKS
  0
BLOCK
  5
2D
330
17
100
AcDbEntity
  8
0
100
AcDbBlockBegin
  2
*MODEL_SPACE
 70
     0
 10
0.0
 20
0.0
 30
0.0
  3
*MODEL_SPACE
  1

  0
ENDBLK
  5
2E
330
17
100
AcDbEntity
  8
0
100
AcDbBlockEnd
  0
BLOCK
  5
2B
330
14
100
AcDbEntity
 67
     1
  8
0
100
AcDbBlockBegin
  2
*PAPER_SPACE
 70
     0
 10
0.0
 20
0.0
 30
0.0
  3
*PAPER_SPACE
  1

  0
ENDBLK
  5
2C
330
14
100
AcDbEntity
 67
     1
  8
0
100
AcDbBlockEnd
  0
BLOCK
  5
2F
330
1C
100
AcDbEntity
  8
0
100
AcDbBlockBegin
  2
BORDER
 70
     0
 10
0.0
 20
0.0
 30
0.0
  3
BORDER
  1

  0
LINE
  5
30
330
1C
100
AcDbEntity
  8
0
100
AcDbLine
 10
0.0
 20
0.0
 30
0.0
 11
1.00000000000004
 21
0.0
 31
0.0
  0
LINE
  5
31
330
1C
100
AcDbEntity
  8
0
100
AcDbLine
 10
1.00000000000004
 20
0.0
 30
0.0
 11
1.00000000000004
 21
1.00000000000004
 31
0.0
  0
LINE
  5
32
330
1C
100
AcDbEntity
  8
0
100
AcDbLine
 10
1.00000000000004
 20
1.00000000000004
 30
0.0
 11
0.0
 21
1.00000000000004
 31
0.0
  0
LINE
  5
33
330
1C
100
AcDbEntity
  8
0
100
AcDbLine
 10
0.0
 20
1.00000000000004
 30
0.0
 11
0.0
 21
0.0
 31
0.0
  0
ENDBLK
  5
34
330
1C
100
AcDbEntity
  8
0
100
AcDbBlockEnd
  0
BLOCK
  5
35
330
1D
100
AcDbEntity
  8
HAIKIN
100
AcDbBlockBegin
  2
SA3
 70
     0
 10
0.0
 20
0.0
 30
0.0
  3
SA3
  1

  0
TEXT
  5
36
330
1D
100
AcDbEntity
  8
SUNPOU
100
AcDbText
 10
340.0
 20
0.0
 30
0.0
 40
2.5
  1
新和コンクリート工業株式会社
100
AcDbText
  0
TEXT
  5
39
330
1D
100
AcDbEntity
  8
SUNPOU
100
AcDbText
 10
361.4166666666667
 20
6.25
 30
0.0
 40
2.5
  1
製図
 72
     4
 11
364.0
 21
7.5
 31
0.0
100
AcDbText
  0
TEXT
  5
3A
330
1D
100
AcDbEntity
  8
SUNPOU
100
AcDbText
 10
361.3333333333333
 20
11.25
 30
0.0
 40
2.5
  1
設計
 72
     4
 11
364.0
 21
12.5
 31
0.0
100
AcDbText
  0
TEXT
  5
3B
330
1D
100
AcDbEntity
  8
SUNPOU
100
AcDbText
 10
339.0833333333333
 20
6.250000000000014
 30
0.0
 40
2.5
  1
認
 72
     4
 11
340.25
 21
7.500000000000014
 31
0.0
100
AcDbText
  0
TEXT
  5
3C
330
1D
100
AcDbEntity
  8
SUNPOU
100
AcDbText
 10
339.0833333333333
 20
11.33333333333336
 30
0.0
 40
2.5
  1
承
 72
     4
 11
340.25
 21
12.50000000000003
 31
0.0
100
AcDbText
  0
TEXT
  5
3D
330
1D
100
AcDbEntity
  8
SUNPOU
100
AcDbText
 10
312.75
 20
11.75000000000001
 30
0.0
 40
2.5
  1
図　面　番　号
 72
     4
 11
323.0
 21
13.00000000000001
 31
0.0
100
AcDbText
  0
TEXT
  5
3E
330
1D
100
AcDbEntity
  8
SUNPOU
100
AcDbText
 10
362.0
 20
17.0
 30
0.0
 40
2.5
  1
１／
100
AcDbText
  0
TEXT
  5
3F
330
1D
100
AcDbEntity
  8
SUNPOU
100
AcDbText
 10
347.3333333333333
 20
16.25000000000001
 30
0.0
 40
2.5
  1
縮　　尺
 72
     4
 11
353.0
 21
17.50000000000001
 31
0.0
100
AcDbText
  0
TEXT
  5
40
330
1D
100
AcDbEntity
  8
SUNPOU
100
AcDbText
 10
347.3333333333333
 20
21.25
 30
0.0
 40
2.5
  1
鉄 筋 量
 72
     4
 11
353.0
 21
22.5
 31
0.0
100
AcDbText
  0
TEXT
  5
41
330
1D
100
AcDbEntity
  8
SUNPOU
100
AcDbText
 10
347.3333333333333
 20
26.25
 30
0.0
 40
2.5
  1
製 造 数
 72
     4
 11
353.0
 21
27.5
 31
0.0
100
AcDbText
  0
TEXT
  5
42
330
1D
100
AcDbEntity
  8
SUNPOU
100
AcDbText
 10
377.0
 20
21.0
 30
0.0
 40
2.5
  1
ｋｇ
 72
     2
 11
382.0
 21
21.0
 31
0.0
100
AcDbText
  0
TEXT
  5
43
330
1D
100
AcDbEntity
  8
SUNPOU
100
AcDbText
 10
339.5
 20
21.0
 30
0.0
 40
2.5
  1
ｋｇ
 72
     2
 11
344.5
 21
21.0
 31
0.0
100
AcDbText
  0
TEXT
  5
44
330
1D
100
AcDbEntity
  8
SUNPOU
100
AcDbText
 10
310.0
 20
16.25000000000001
 30
0.0
 40
2.5
  1
年 月 日
 72
     4
 11
315.5
 21
17.50000000000001
 31
0.0
100
AcDbText
  0
TEXT
  5
45
330
1D
100
AcDbEntity
  8
SUNPOU
100
AcDbText
 10
309.8333333333333
 20
21.25
 30
0.0
 40
2.5
  1
製品質量
 72
     4
 11
315.5
 21
22.5
 31
0.0
100
AcDbText
  0
TEXT
  5
46
330
1D
100
AcDbEntity
  8
SUNPOU
100
AcDbText
 10
309.9166666666667
 20
26.25
 30
0.0
 40
2.5
  1
業 者 名
 72
     4
 11
315.5
 21
27.5
 31
0.0
100
AcDbText
  0
TEXT
  5
47
330
1D
100
AcDbEntity
  8
SUNPOU
100
AcDbText
 10
309.8333333333333
 20
32.5
 30
0.0
 40
2.5
  1
名　　称
 72
     4
 11
315.5
 21
33.75
 31
0.0
100
AcDbText
  0
LINE
  5
48
330
1D
100
AcDbEntity
  8
SUNPOU
100
AcDbLine
 10
338.0
 20
11.00000000000001
 30
0.0
 11
308.0
 21
11.00000000000001
 31
0.0
  0
LINE
  5
49
330
1D
100
AcDbEntity
  8
SUNPOU
100
AcDbLine
 10
367.5
 20
4.999999999999986
 30
0.0
 11
367.5
 21
14.99999999999999
 31
0.0
  0
LINE
  5
4A
330
1D
100
AcDbEntity
  8
SUNPOU
100
AcDbLine
 10
360.5
 20
4.999999999999986
 30
0.0
 11
360.5
 21
14.99999999999999
 31
0.0
  0
LINE
  5
4B
330
1D
100
AcDbEntity
  8
SUNPOU
100
AcDbLine
 10
342.5
 20
4.999999999999995
 30
0.0
 11
342.5
 21
15.0
 31
0.0
  0
LINE
  5
4C
330
1D
100
AcDbEntity
  8
SUNPOU
100
AcDbLine
 10
338.0
 20
4.999999999999995
 30
0.0
 11
338.0
 21
15.0
 31
0.0
  0
LINE
  5
4D
330
1D
100
AcDbEntity
  8
SUNPOU
100
AcDbLine
 10
323.0
 20
15.00000000000001
 30
0.0
 11
323.0
 21
37.5
 31
0.0
  0
LINE
  5
4E
330
1D
100
AcDbEntity
  8
SUNPOU
100
AcDbLine
 10
360.5
 20
15.00000000000001
 30
0.0
 11
360.5
 21
30.0
 31
0.0
  0
LINE
  5
4F
330
1D
100
AcDbEntity
  8
SUNPOU
100
AcDbLine
 10
345.5
 20
15.00000000000001
 30
0.0
 11
345.5
 21
30.0
 31
0.0
  0
LINE
  5
50
330
1D
100
AcDbEntity
  8
SUNPOU
100
AcDbLine
 10
383.0
 20
30.0
 30
0.0
 11
308.0
 21
30.0
 31
0.0
  0
LINE
  5
51
330
1D
100
AcDbEntity
  8
SUNPOU
100
AcDbLine
 10
383.0
 20
25.0
 30
0.0
 11
308.0
 21
25.0
 31
0.0
  0
LINE
  5
52
330
1D
100
AcDbEntity
  8
SUNPOU
100
AcDbLine
 10
383.0
 20
20.0
 30
0.0
 11
308.0
 21
20.0
 31
0.0
  0
LINE
  5
53
330
1D
100
AcDbEntity
  8
SUNPOU
100
AcDbLine
 10
383.0
 20
14.99999999999999
 30
0.0
 11
308.0
 21
15.00000000000004
 31
0.0
  0
LINE
  5
54
330
1D
100
AcDbEntity
  8
HAIKIN
100
AcDbLine
 10
308.0
 20
37.5
 30
0.0
 11
383.0
 21
37.5
 31
0.0
  0
LINE
  5
55
330
1D
100
AcDbEntity
  8
HAIKIN
100
AcDbLine
 10
308.0
 20
5.000000000000009
 30
0.0
 11
308.0
 21
37.5
 31
0.0
  0
LINE
  5
56
330
1D
100
AcDbEntity
  8
SUNPOU
100
AcDbLine
 10
0.000000000000016
 20
277.0
 30
0.0
 11
0.000000000000016
 21
272.0
 31
0.0
  0
LINE
  5
57
330
1D
100
AcDbEntity
  8
SUNPOU
100
AcDbLine
 10
25.00000000000001
 20
277.0
 30
0.0
 11
0.000000000000016
 21
277.0
 31
0.0
  0
LINE
  5
58
330
1D
100
AcDbEntity
  8
SUNPOU
100
AcDbLine
 10
25.00000000000001
 20
272.0
 30
0.0
 11
25.00000000000001
 21
277.0
 31
0.0
  0
LINE
  5
59
330
1D
100
AcDbEntity
  8
HAIKIN
100
AcDbLine
 10
0.0000000000000004
 20
5.0
 30
0.0
 11
383.0
 21
5.0
 31
0.0
  0
LINE
  5
5A
330
1D
100
AcDbEntity
  8
HAIKIN
100
AcDbLine
 10
0.0000000000000158
 20
272.0
 30
0.0
 11
383.0
 21
272.0
 31
0.0
  0
LINE
  5
5B
330
1D
100
AcDbEntity
  8
HAIKIN
100
AcDbLine
 10
383.0
 20
272.0
 30
0.0
 11
383.0
 21
5.0
 31
0.0
  0
TEXT
  5
5C
330
1D
100
AcDbEntity
  8
SUNPOU
100
AcDbText
 10
3.700000000000017
 20
273.0
 30
0.0
 40
3.0
  1
Ｈ－２－共
 72
     4
 11
12.50000000000002
 21
274.5
 31
0.0
100
AcDbText
  0
LINE
  5
5D
330
1D
100
AcDbEntity
  8
HAIKIN
100
AcDbLine
 10
0.0000000000000004
 20
5.0
 30
0.0
 11
0.0000000000000158
 21
272.0
 31
0.0
  0
ENDBLK
  5
5E
330
1D
100
AcDbEntity
  8
HAIKIN
100
AcDbBlockEnd
  0
BLOCK
  5
8C
330
82
100
AcDbEntity
  8
0
100
AcDbBlockBegin
  2
*D2
 70
     1
 10
0.0
 20
0.0
 30
0.0
  3
*D2
  1

  0
LINE
  5
83
330
82
100
AcDbEntity
  8
SUNPOU
370
    -2
100
AcDbLine
 10
14459.99999999999
 20
11910.0
 30
0.0
 11
15605.99999999999
 21
11910.0
 31
0.0
  0
LINE
  5
84
330
82
100
AcDbEntity
  8
SUNPOU
370
    -2
100
AcDbLine
 10
14459.99999999999
 20
13710.0
 30
0.0
 11
15605.99999999999
 21
13710.0
 31
0.0
  0
LINE
  5
85
330
82
100
AcDbEntity
  8
SUNPOU
370
    -2
100
AcDbLine
 10
15569.99999999999
 20
12000.0
 30
0.0
 11
15569.99999999999
 21
13620.0
 31
0.0
  0
MTEXT
  5
86
330
82
100
AcDbEntity
  8
SUNPOU
 62
     0
100
AcDbMText
 10
15404.05869794343
 20
12806.25726232369
 30
0.0
 40
180.0
 41
0.0
 71
     5
 72
     1
  1
\A1;15@120=1800
 11
6.123031769111886E-17
 21
1.0
 31
0.0
 73
     1
 44
1.0
  0
SOLID
  5
87
330
82
100
AcDbEntity
  8
SUNPOU
100
AcDbTrace
 10
15554.99999999999
 20
12000.0
 30
0.0
 11
15584.99999999999
 21
12000.0
 31
0.0
 12
15569.99999999999
 22
11910.0
 32
0.0
 13
15569.99999999999
 23
11910.0
 33
0.0
  0
SOLID
  5
88
330
82
100
AcDbEntity
  8
SUNPOU
100
AcDbTrace
 10
15554.99999999999
 20
13620.0
 30
0.0
 11
15584.99999999999
 21
13620.0
 31
0.0
 12
15569.99999999999
 22
13710.0
 32
0.0
 13
15569.99999999999
 23
13710.0
 33
0.0
  0
POINT
  5
89
330
82
100
AcDbEntity
  8
DEFPOINTS
 62
     0
100
AcDbPoint
 10
14369.99999999999
 20
11910.0
 30
0.0
  0
POINT
  5
8A
330
82
100
AcDbEntity
  8
DEFPOINTS
 62
     0
100
AcDbPoint
 10
14369.99999999999
 20
13710.0
 30
0.0
  0
POINT
  5
8B
330
82
100
AcDbEntity
  8
DEFPOINTS
 62
     0
100
AcDbPoint
 10
15569.99999999999
 20
13710.0
 30
0.0
  0
ENDBLK
  5
8D
330
82
100
AcDbEntity
  8
0
100
AcDbBlockEnd
  0
BLOCK
  5
9A
330
8E
100
AcDbEntity
  8
0
100
AcDbBlockBegin
  2
*D3
 70
     1
 10
0.0
 20
0.0
 30
0.0
  3
*D3
  1

  0
LINE
  5
8F
330
8E
100
AcDbEntity
  8
SUNPOU
370
    -2
100
AcDbLine
 10
14333.74999999999
 20
11805.0
 30
0.0
 11
15605.99999999999
 21
11805.0
 31
0.0
  0
LINE
  5
90
330
8E
100
AcDbEntity
  8
SUNPOU
370
    -2
100
AcDbLine
 10
14489.70588235293
 20
11910.0
 30
0.0
 11
15605.99999999999
 21
11910.0
 31
0.0
  0
LINE
  5
91
330
8E
100
AcDbEntity
  8
SUNPOU
370
    -2
100
AcDbLine
 10
15569.99999999999
 20
11715.0
 30
0.0
 11
15569.99999999999
 21
11625.0
 31
0.0
  0
LINE
  5
92
330
8E
100
AcDbEntity
  8
SUNPOU
370
    -2
100
AcDbLine
 10
15569.99999999999
 20
12000.0
 30
0.0
 11
15569.99999999999
 21
12090.0
 31
0.0
  0
MTEXT
  5
93
330
8E
100
AcDbEntity
  8
SUNPOU
 62
     0
100
AcDbMText
 10
15730.33993097525
 20
11906.05735268755
 30
0.0
 40
180.0
 41
0.0
 71
     5
 72
     1
  1
\A1;105
 11
6.123031769111886E-17
 21
1.0
 31
0.0
 73
     1
 44
1.0
  0
LINE
  5
94
330
8E
100
AcDbEntity
  8
SUNPOU
370
    -2
100
AcDbLine
 10
15569.99999999999
 20
11805.0
 30
0.0
 11
15569.99999999999
 21
11910.0
 31
0.0
  0
SOLID
  5
95
330
8E
100
AcDbEntity
  8
SUNPOU
100
AcDbTrace
 10
15554.99999999999
 20
11715.0
 30
0.0
 11
15584.99999999999
 21
11715.0
 31
0.0
 12
15569.99999999999
 22
11805.0
 32
0.0
 13
15569.99999999999
 23
11805.0
 33
0.0
  0
SOLID
  5
96
330
8E
100
AcDbEntity
  8
SUNPOU
100
AcDbTrace
 10
15554.99999999999
 20
12000.0
 30
0.0
 11
15584.99999999999
 21
12000.0
 31
0.0
 12
15569.99999999999
 22
11910.0
 32
0.0
 13
15569.99999999999
 23
11910.0
 33
0.0
  0
POINT
  5
97
330
8E
100
AcDbEntity
  8
DEFPOINTS
 62
     0
100
AcDbPoint
 10
14243.74999999999
 20
11805.0
 30
0.0
  0
POINT
  5
98
330
8E
100
AcDbEntity
  8
DEFPOINTS
 62
     0
100
AcDbPoint
 10
14399.70588235293
 20
11910.0
 30
0.0
  0
POINT
  5
99
330
8E
100
AcDbEntity
  8
DEFPOINTS
 62
     0
100
AcDbPoint
 10
15569.99999999999
 20
11910.0
 30
0.0
  0
ENDBLK
  5
9B
330
8E
100
AcDbEntity
  8
0
100
AcDbBlockEnd
  0
BLOCK
  5
A8
330
9C
100
AcDbEntity
  8
0
100
AcDbBlockBegin
  2
*D4
 70
     1
 10
0.0
 20
0.0
 30
0.0
  3
*D4
  1

  0
LINE
  5
9D
330
9C
100
AcDbEntity
  8
SUNPOU
370
    -2
100
AcDbLine
 10
14459.99999999999
 20
13710.0
 30
0.0
 11
15605.99999999999
 21
13710.0
 31
0.0
  0
LINE
  5
9E
330
9C
100
AcDbEntity
  8
SUNPOU
370
    -2
100
AcDbLine
 10
14459.99999999999
 20
13770.0
 30
0.0
 11
15605.99999999999
 21
13770.0
 31
0.0
  0
LINE
  5
9F
330
9C
100
AcDbEntity
  8
SUNPOU
370
    -2
100
AcDbLine
 10
15569.99999999999
 20
13620.0
 30
0.0
 11
15569.99999999999
 21
13530.0
 31
0.0
  0
LINE
  5
A0
330
9C
100
AcDbEntity
  8
SUNPOU
370
    -2
100
AcDbLine
 10
15569.99999999999
 20
13860.0
 30
0.0
 11
15569.99999999999
 21
13950.0
 31
0.0
  0
MTEXT
  5
A1
330
9C
100
AcDbEntity
  8
SUNPOU
 62
     0
100
AcDbMText
 10
15437.48050855183
 20
13968.0082924672
 30
0.0
 40
180.0
 41
0.0
 71
     5
 72
     1
  1
\A1;60
 11
6.123031769111886E-17
 21
1.0
 31
0.0
 73
     1
 44
1.0
  0
LINE
  5
A2
330
9C
100
AcDbEntity
  8
SUNPOU
370
    -2
100
AcDbLine
 10
15569.99999999999
 20
13710.0
 30
0.0
 11
15569.99999999999
 21
13770.0
 31
0.0
  0
SOLID
  5
A3
330
9C
100
AcDbEntity
  8
SUNPOU
100
AcDbTrace
 10
15554.99999999999
 20
13620.0
 30
0.0
 11
15584.99999999999
 21
13620.0
 31
0.0
 12
15569.99999999999
 22
13710.0
 32
0.0
 13
15569.99999999999
 23
13710.0
 33
0.0
  0
SOLID
  5
A4
330
9C
100
AcDbEntity
  8
SUNPOU
100
AcDbTrace
 10
15554.99999999999
 20
13860.0
 30
0.0
 11
15584.99999999999
 21
13860.0
 31
0.0
 12
15569.99999999999
 22
13770.0
 32
0.0
 13
15569.99999999999
 23
13770.0
 33
0.0
  0
POINT
  5
A5
330
9C
100
AcDbEntity
  8
DEFPOINTS
 62
     0
100
AcDbPoint
 10
14369.99999999999
 20
13710.0
 30
0.0
  0
POINT
  5
A6
330
9C
100
AcDbEntity
  8
DEFPOINTS
 62
     0
100
AcDbPoint
 10
14369.99999999999
 20
13770.0
 30
0.0
  0
POINT
  5
A7
330
9C
100
AcDbEntity
  8
DEFPOINTS
 62
     0
100
AcDbPoint
 10
15569.99999999999
 20
13770.0
 30
0.0
  0
ENDBLK
  5
A9
330
9C
100
AcDbEntity
  8
0
100
AcDbBlockEnd
  0
BLOCK
  5
B4
330
AA
100
AcDbEntity
  8
0
100
AcDbBlockBegin
  2
*D5
 70
     1
 10
0.0
 20
0.0
 30
0.0
  3
*D5
  1

  0
LINE
  5
AB
330
AA
100
AcDbEntity
  8
SUNPOU
370
    -2
100
AcDbLine
 10
14324.99999999999
 20
11770.0
 30
0.0
 11
15905.99999999999
 21
11770.0
 31
0.0
  0
LINE
  5
AC
330
AA
100
AcDbEntity
  8
SUNPOU
370
    -2
100
AcDbLine
 10
14594.99999999999
 20
13770.0
 30
0.0
 11
15905.99999999999
 21
13770.0
 31
0.0
  0
LINE
  5
AD
330
AA
100
AcDbEntity
  8
SUNPOU
370
    -2
100
AcDbLine
 10
15869.99999999999
 20
11860.0
 30
0.0
 11
15869.99999999999
 21
13680.0
 31
0.0
  0
SOLID
  5
AE
330
AA
100
AcDbEntity
  8
SUNPOU
100
AcDbTrace
 10
15854.99999999999
 20
11860.0
 30
0.0
 11
15884.99999999999
 21
11860.0
 31
0.0
 12
15869.99999999999
 22
11770.0
 32
0.0
 13
15869.99999999999
 23
11770.0
 33
0.0
  0
SOLID
  5
AF
330
AA
100
AcDbEntity
  8
SUNPOU
100
AcDbTrace
 10
15854.99999999999
 20
13680.0
 30
0.0
 11
15884.99999999999
 21
13680.0
 31
0.0
 12
15869.99999999999
 22
13770.0
 32
0.0
 13
15869.99999999999
 23
13770.0
 33
0.0
  0
MTEXT
  5
B0
330
AA
100
AcDbEntity
  8
SUNPOU
 62
     0
100
AcDbMText
 10
15731.99999999999
 20
12770.0
 30
0.0
 40
180.0
 41
0.0
 71
     5
 72
     1
  1
\A1;2000
 11
6.123031769111886E-17
 21
1.0
 31
0.0
 73
     1
 44
1.0
  0
POINT
  5
B1
330
AA
100
AcDbEntity
  8
DEFPOINTS
 62
     0
100
AcDbPoint
 10
14234.99999999999
 20
11770.0
 30
0.0
  0
POINT
  5
B2
330
AA
100
AcDbEntity
  8
DEFPOINTS
 62
     0
100
AcDbPoint
 10
14504.99999999999
 20
13770.0
 30
0.0
  0
POINT
  5
B3
330
AA
100
AcDbEntity
  8
DEFPOINTS
 62
     0
100
AcDbPoint
 10
15869.99999999999
 20
13770.0
 30
0.0
  0
ENDBLK
  5
B5
330
AA
100
AcDbEntity
  8
0
100
AcDbBlockEnd
  0
BLOCK
  5
C1
330
B6
100
AcDbEntity
  8
0
100
AcDbBlockBegin
  2
*D6
 70
     1
 10
0.0
 20
0.0
 30
0.0
  3
*D6
  1

  0
LINE
  5
B7
330
B6
100
AcDbEntity
  8
SUNPOU
 62
     0
370
    -2
100
AcDbLine
 10
14388.74999999999
 20
11805.0
 30
0.0
 11
15629.99999999999
 21
11805.0
 31
0.0
  0
LINE
  5
B8
330
B6
100
AcDbEntity
  8
SUNPOU
 62
     0
370
    -2
100
AcDbLine
 10
14379.99999999999
 20
11770.0
 30
0.0
 11
15629.99999999999
 21
11770.0
 31
0.0
  0
LINE
  5
B9
330
B6
100
AcDbEntity
  8
SUNPOU
 62
     0
370
    -2
100
AcDbLine
 10
15569.99999999999
 20
11895.0
 30
0.0
 11
15569.99999999999
 21
11985.0
 31
0.0
  0
LINE
  5
BA
330
B6
100
AcDbEntity
  8
SUNPOU
 62
     0
370
    -2
100
AcDbLine
 10
15569.99999999999
 20
11680.0
 30
0.0
 11
15569.99999999999
 21
11590.0
 31
0.0
  0
MTEXT
  5
BB
330
B6
100
AcDbEntity
  8
SUNPOU
 62
     0
100
AcDbMText
 10
15422.1488453184
 20
11572.59656658611
 30
0.0
 40
180.0
 41
0.0
 71
     5
 72
     1
  1
\A1;35
 11
6.123031769111886E-17
 21
1.0
 31
0.0
 73
     1
 44
1.0
  0
SOLID
  5
BC
330
B6
100
AcDbEntity
  8
SUNPOU
 62
     0
100
AcDbTrace
 10
15554.99999999999
 20
11895.0
 30
0.0
 11
15584.99999999999
 21
11895.0
 31
0.0
 12
15569.99999999999
 22
11805.0
 32
0.0
 13
15569.99999999999
 23
11805.0
 33
0.0
  0
SOLID
  5
BD
330
B6
100
AcDbEntity
  8
SUNPOU
 62
     0
100
AcDbTrace
 10
15554.99999999999
 20
11680.0
 30
0.0
 11
15584.99999999999
 21
11680.0
 31
0.0
 12
15569.99999999999
 22
11770.0
 32
0.0
 13
15569.99999999999
 23
11770.0
 33
0.0
  0
POINT
  5
BE
330
B6
100
AcDbEntity
  8
DEFPOINTS
 62
     0
100
AcDbPoint
 10
14268.74999999999
 20
11805.0
 30
0.0
  0
POINT
  5
BF
330
B6
100
AcDbEntity
  8
DEFPOINTS
 62
     0
100
AcDbPoint
 10
14259.99999999999
 20
11770.0
 30
0.0
  0
POINT
  5
C0
330
B6
100
AcDbEntity
  8
DEFPOINTS
 62
     0
100
AcDbPoint
 10
15569.99999999999
 20
11770.0
 30
0.0
  0
ENDBLK
  5
C2
330
B6
100
AcDbEntity
  8
0
100
AcDbBlockEnd
  0
BLOCK
  5
169
330
C3
100
AcDbEntity
  8
0
100
AcDbBlockBegin
  2
A$C79F54BAC
 70
     0
 10
0.0
 20
0.0
 30
0.0
  3
A$C79F54BAC
  1

  0
DIMENSION
  5
C4
330
C3
100
AcDbEntity
  8
SUNPOU
100
AcDbDimension
  2
*D2
 10
4229.99998564875
 20
2257.403415746125
 30
0.0
 11
4064.058683592186
 21
1353.660678069813
 31
0.0
 12
-11340.00001435124
 22
-11452.59658425388
 32
0.0
 70
   128
  1
15@120=<>
 71
     5
 42
-1.0
  3
STANDARD
100
AcDbAlignedDimension
 13
3029.99998564875
 23
457.4034157461228
 33
0.0
 14
3029.99998564875
 24
2257.403415746125
 34
0.0
 50
90.0
100
AcDbRotatedDimension
1001
ACAD
1000
DSTYLE
1002
{
1070
   287
1070
     5
1070
   287
1070
     5
1070
   287
1070
     5
1070
   287
1070
     5
1070
   287
1070
     5
1070
   287
1070
     5
1070
   287
1070
     5
1070
   287
1070
     5
1070
    40
1040
60.0
1070
    41
1040
1.5
1070
    42
1040
1.5
1070
    43
1040
7.0
1070
    44
1040
0.6
1070
    73
1070
     0
1070
    74
1070
     0
1070
    77
1070
     1
1070
    78
1070
     8
1070
   140
1040
3.0
1070
   141
1040
0.0
1070
   145
1040
1.0
1070
   147
1040
0.8
1070
   172
1070
     1
1070
   176
1070
   256
1070
   177
1070
   256
1070
   271
1070
     0
1070
   275
1070
     1
1070
   279
1070
     2
1070
   284
1070
     8
1070
   285
1070
     8
1070
   286
1070
     8
1002
}
  0
DIMENSION
  5
C5
330
C3
100
AcDbEntity
  8
SUNPOU
100
AcDbDimension
  2
*D3
 10
4229.99998564875
 20
457.4034157461228
 30
0.0
 11
4390.339916624003
 21
453.4607684336734
 31
0.0
 12
-11340.00001435124
 22
-11452.59658425388
 32
0.0
 70
   128
 71
     5
 42
-1.0
  3
STANDARD
100
AcDbAlignedDimension
 13
2903.74998564875
 23
352.4034157461247
 33
0.0
 14
3059.705868001689
 24
457.4034157461228
 34
0.0
 50
90.0
100
AcDbRotatedDimension
1001
ACAD
1000
DSTYLE
1002
{
1070
   287
1070
     5
1070
   287
1070
     5
1070
   287
1070
     5
1070
   287
1070
     5
1070
   287
1070
     5
1070
   287
1070
     5
1070
   287
1070
     5
1070
   287
1070
     5
1070
    40
1040
60.0
1070
    41
1040
1.5
1070
    42
1040
1.5
1070
    43
1040
7.0
1070
    44
1040
0.6
1070
    73
1070
     0
1070
    74
1070
     0
1070
    77
1070
     1
1070
    78
1070
     8
1070
   140
1040
3.0
1070
   141
1040
0.0
1070
   145
1040
1.0
1070
   147
1040
0.8
1070
   172
1070
     1
1070
   176
1070
   256
1070
   177
1070
   256
1070
   271
1070
     0
1070
   275
1070
     1
1070
   279
1070
     2
1070
   284
1070
     8
1070
   285
1070
     8
1070
   286
1070
     8
1002
}
  0
DIMENSION
  5
C6
330
C3
100
AcDbEntity
  8
SUNPOU
100
AcDbDimension
  2
*D4
 10
4229.99998564875
 20
2317.403415746121
 30
0.0
 11
4097.480494200581
 21
2515.411708213323
 31
0.0
 12
-11340.00001435124
 22
-11452.59658425388
 32
0.0
 70
   128
 71
     5
 42
-1.0
  3
STANDARD
100
AcDbAlignedDimension
 13
3029.99998564875
 23
2257.403415746125
 33
0.0
 14
3029.99998564875
 24
2317.403415746121
 34
0.0
 50
90.0
100
AcDbRotatedDimension
1001
ACAD
1000
DSTYLE
1002
{
1070
   287
1070
     5
1070
   287
1070
     5
1070
   287
1070
     5
1070
   287
1070
     5
1070
   287
1070
     5
1070
   287
1070
     5
1070
   287
1070
     5
1070
   287
1070
     5
1070
    40
1040
60.0
1070
    41
1040
1.5
1070
    42
1040
1.5
1070
    43
1040
7.0
1070
    44
1040
0.6
1070
    73
1070
     0
1070
    74
1070
     0
1070
    77
1070
     1
1070
    78
1070
     8
1070
   140
1040
3.0
1070
   141
1040
0.0
1070
   145
1040
1.0
1070
   147
1040
0.8
1070
   172
1070
     1
1070
   176
1070
   256
1070
   177
1070
   256
1070
   271
1070
     0
1070
   275
1070
     1
1070
   279
1070
     2
1070
   284
1070
     8
1070
   285
1070
     8
1070
   286
1070
     8
1002
}
  0
DIMENSION
  5
C7
330
C3
100
AcDbEntity
  8
SUNPOU
100
AcDbDimension
  2
*D5
 10
4529.99998564875
 20
2317.403415746123
 30
0.0
 11
4391.999985648747
 21
1317.403415746123
 31
0.0
 12
-11340.00001435124
 22
-11452.59658425388
 32
0.0
 71
     5
 42
-1.0
  3
STANDARD
100
AcDbAlignedDimension
 13
2894.99998564875
 23
317.403415746121
 33
0.0
 14
3164.99998564875
 24
2317.403415746123
 34
0.0
 50
90.0
100
AcDbRotatedDimension
1001
ACAD
1000
DSTYLE
1002
{
1070
   287
1070
     5
1070
   287
1070
     5
1070
   287
1070
     5
1070
   287
1070
     5
1070
   287
1070
     5
1070
   287
1070
     5
1070
   287
1070
     5
1070
   287
1070
     5
1070
    40
1040
60.0
1070
    41
1040
1.5
1070
    42
1040
1.5
1070
    43
1040
7.0
1070
    44
1040
0.6
1070
    73
1070
     0
1070
    74
1070
     0
1070
    77
1070
     1
1070
    78
1070
     8
1070
   140
1040
3.0
1070
   141
1040
0.0
1070
   145
1040
1.0
1070
   147
1040
0.8
1070
   172
1070
     1
1070
   176
1070
   256
1070
   177
1070
   256
1070
   271
1070
     0
1070
   275
1070
     1
1070
   279
1070
     2
1070
   284
1070
     8
1070
   285
1070
     8
1070
   286
1070
     8
1002
}
  0
DIMENSION
  5
C8
330
C3
100
AcDbEntity
  8
SUNPOU
100
AcDbDimension
  2
*D6
 10
4229.99998564875
 20
317.403415746121
 30
0.0
 11
4082.14883096716
 21
119.9999823322287
 31
0.0
 12
-11340.00001435124
 22
-11452.59658425388
 32
0.0
 70
   128
 71
     5
 42
-1.0
  3
STANDARD
100
AcDbAlignedDimension
 13
2928.74998564875
 23
352.4034157461247
 33
0.0
 14
2919.99998564875
 24
317.403415746121
 34
0.0
 50
90.0
100
AcDbRotatedDimension
1001
ACAD
1000
DSTYLE
1002
{
1070
   287
1070
     5
1070
   287
1070
     5
1070
   287
1070
     5
1070
   287
1070
     5
1070
   287
1070
     5
1070
   287
1070
     5
1070
   287
1070
     5
1070
   287
1070
     5
1070
    40
1040
60.0
1070
    41
1040
1.5
1070
    42
1040
2.0
1070
    43
1040
3.75
1070
    44
1040
1.0
1070
    73
1070
     0
1070
    74
1070
     0
1070
    77
1070
     1
1070
    78
1070
     8
1070
   140
1040
3.0
1070
   141
1040
2.5
1070
   143
1040
0.0394
1070
   147
1040
1.0
1070
   171
1070
     4
1070
   271
1070
     0
1070
   273
1070
     8
1070
   274
1070
     4
1070
   279
1070
     2
1002
}
  0
LINE
  5
C9
330
C3
100
AcDbEntity
  8
SUNPOU
100
AcDbLine
 10
1679.999985648763
 20
3227.403415746123
 30
0.0
 11
899.9999856487611
 21
3227.403415746123
 31
0.0
1001
ACAD
1000
DSTYLE
1002
{
1070
    78
1070
     8
1070
   284
1070
     8
1070
   140
1040
3.0
1070
   145
1040
1.0
1070
    74
1070
     0
1070
   172
1070
     1
1070
    73
1070
     0
1070
    77
1070
     1
1070
    40
1040
60.0
1070
   147
1040
0.8
1070
   287
1070
     5
1070
    42
1040
1.5
1070
    44
1040
0.6
1070
    43
1040
7.0
1070
   271
1070
     0
1070
   177
1070
   256
1070
   176
1070
   256
1070
   141
1040
0.0
1070
   275
1070
     1
1070
    41
1040
1.5
1070
   285
1070
     8
1070
   286
1070
     8
1002
}
  0
SOLID
  5
CA
330
C3
100
AcDbEntity
  8
SUNPOU
100
AcDbTrace
 10
1216.999985648774
 20
1372.403415746125
 30
0.0
 11
1306.999985648774
 21
1357.403415746123
 31
0.0
 12
1216.999985648774
 22
1342.403415746125
 32
0.0
 13
1216.999985648774
 23
1342.403415746125
 33
0.0
1001
ACAD
1000
DSTYLE
1002
{
1070
    78
1070
     8
1070
   284
1070
     8
1070
   140
1040
3.0
1070
   145
1040
1.0
1070
    74
1070
     0
1070
   172
1070
     1
1070
    73
1070
     0
1070
    77
1070
     1
1070
    40
1040
60.0
1070
   147
1040
0.8
1070
   287
1070
     5
1070
    42
1040
1.5
1070
    44
1040
0.6
1070
    43
1040
7.0
1070
   271
1070
     0
1070
   177
1070
   256
1070
   176
1070
   256
1070
   141
1040
0.0
1070
   275
1070
     1
1070
    41
1040
1.5
1070
   285
1070
     8
1070
   286
1070
     8
1002
}
  0
LINE
  5
CB
330
C3
100
AcDbEntity
  8
SUNPOU
100
AcDbLine
 10
329.9999856487375
 20
1357.403415746123
 30
0.0
 11
1426.999985648756
 21
1357.403415746126
 31
0.0
1001
ACAD
1000
DSTYLE
1002
{
1070
    78
1070
     8
1070
   284
1070
     8
1070
   140
1040
3.0
1070
   145
1040
1.0
1070
    74
1070
     0
1070
   172
1070
     1
1070
    73
1070
     0
1070
    77
1070
     1
1070
    40
1040
60.0
1070
   147
1040
0.8
1070
   287
1070
     5
1070
    42
1040
1.5
1070
    44
1040
0.6
1070
    43
1040
7.0
1070
   271
1070
     0
1070
   177
1070
   256
1070
   176
1070
   256
1070
   141
1040
0.0
1070
   275
1070
     1
1070
    41
1040
1.5
1070
   285
1070
     8
1070
   286
1070
     8
1002
}
  0
LINE
  5
CC
330
C3
100
AcDbEntity
  8
HAIKIN
100
AcDbLine
 10
1979.999985648756
 20
2052.403415746123
 30
0.0
 11
964.9999856487557
 21
2052.403415746117
 31
0.0
  0
LINE
  5
CD
330
C3
100
AcDbEntity
  8
HAIKIN
100
AcDbLine
 10
1979.999985648765
 20
1992.403415746121
 30
0.0
 11
964.9999856487557
 21
1992.403415746117
 31
0.0
  0
LINE
  5
CE
330
C3
100
AcDbEntity
  8
HAIKIN
100
AcDbLine
 10
1979.999985648765
 20
1932.403415746121
 30
0.0
 11
964.9999856487557
 21
1932.403415746117
 31
0.0
  0
LINE
  5
CF
330
C3
100
AcDbEntity
  8
HAIKIN
100
AcDbLine
 10
1979.999985648765
 20
847.4034157461283
 30
0.0
 11
964.9999856487557
 21
847.4034157461247
 31
0.0
  0
LINE
  5
D0
330
C3
100
AcDbEntity
  8
HAIKIN
100
AcDbLine
 10
1979.999985648765
 20
787.4034157461283
 30
0.0
 11
964.9999856487557
 21
787.4034157461247
 31
0.0
  0
LINE
  5
D1
330
C3
100
AcDbEntity
  8
HAIKIN
100
AcDbLine
 10
1979.999985648758
 20
727.4034157461283
 30
0.0
 11
964.9999856487557
 21
727.4034157461247
 31
0.0
  0
LINE
  5
D2
330
C3
100
AcDbEntity
  8
SUNPOU
100
AcDbLine
 10
964.9999856487557
 20
1897.403415746125
 30
0.0
 11
1486.999985648752
 21
1897.403415746121
 31
0.0
  0
LINE
  5
D3
330
C3
100
AcDbEntity
  8
SUNPOU
100
AcDbLine
 10
964.9999856487557
 20
1657.403415746125
 30
0.0
 11
1486.999985648752
 21
1657.403415746121
 31
0.0
  0
LINE
  5
D4
330
C3
100
AcDbEntity
  8
SUNPOU
100
AcDbLine
 10
964.9999856487557
 20
1777.403415746125
 30
0.0
 11
1486.999985648752
 21
1777.403415746123
 31
0.0
  0
LINE
  5
D5
330
C3
100
AcDbEntity
  8
SUNPOU
100
AcDbLine
 10
964.9999856487557
 20
457.4034157461247
 30
0.0
 11
1979.999985648759
 21
457.403415746121
 31
0.0
  0
LINE
  5
D6
330
C3
100
AcDbEntity
  8
SUNPOU
100
AcDbLine
 10
964.9999856487557
 20
817.4034157461247
 30
0.0
 11
1979.999985648759
 21
817.403415746121
 31
0.0
  0
LINE
  5
D7
330
C3
100
AcDbEntity
  8
SUNPOU
100
AcDbLine
 10
964.9999856487557
 20
697.4034157461247
 30
0.0
 11
1979.999985648759
 21
697.403415746121
 31
0.0
  0
LINE
  5
D8
330
C3
100
AcDbEntity
  8
SUNPOU
100
AcDbLine
 10
964.9999856487557
 20
577.4034157461247
 30
0.0
 11
1979.999985648759
 21
577.403415746121
 31
0.0
  0
LINE
  5
D9
330
C3
100
AcDbEntity
  8
SUNPOU
100
AcDbLine
 10
964.9999856487557
 20
937.4034157461247
 30
0.0
 11
1486.999985648752
 21
937.403415746121
 31
0.0
  0
LINE
  5
DA
330
C3
100
AcDbEntity
  8
SUNPOU
100
AcDbLine
 10
964.9999856487557
 20
1057.403415746125
 30
0.0
 11
1486.999985648752
 21
1057.403415746119
 31
0.0
  0
LINE
  5
DB
330
C3
100
AcDbEntity
  8
SUNPOU
100
AcDbLine
 10
964.9999856487557
 20
1177.403415746125
 30
0.0
 11
1486.999985648752
 21
1177.403415746117
 31
0.0
  0
LINE
  5
DC
330
C3
100
AcDbEntity
  8
SUNPOU
100
AcDbLine
 10
964.9999856487557
 20
1297.403415746125
 30
0.0
 11
1486.999985648752
 21
1297.403415746121
 31
0.0
  0
LINE
  5
DD
330
C3
100
AcDbEntity
  8
SUNPOU
100
AcDbLine
 10
964.9999856487557
 20
1417.403415746125
 30
0.0
 11
1486.999985648752
 21
1417.403415746119
 31
0.0
  0
LINE
  5
DE
330
C3
100
AcDbEntity
  8
SUNPOU
100
AcDbLine
 10
964.9999856487557
 20
1537.403415746125
 30
0.0
 11
1486.999985648752
 21
1537.403415746121
 31
0.0
  0
LINE
  5
DF
330
C3
100
AcDbEntity
  8
SUNPOU
100
AcDbLine
 10
964.9999856487557
 20
2017.403415746125
 30
0.0
 11
1979.999985648759
 21
2017.403415746121
 31
0.0
  0
LINE
  5
E0
330
C3
100
AcDbEntity
  8
SUNPOU
100
AcDbLine
 10
964.9999856487557
 20
2137.403415746125
 30
0.0
 11
1979.999985648759
 21
2137.403415746121
 31
0.0
  0
LINE
  5
E1
330
C3
100
AcDbEntity
  8
SUNPOU
100
AcDbLine
 10
964.9999856487557
 20
2257.403415746125
 30
0.0
 11
1979.999985648759
 21
2257.403415746121
 31
0.0
  0
LINE
  5
E2
330
C3
100
AcDbEntity
  8
SUNPOU
100
AcDbLine
 10
964.9999856487557
 20
2362.403415746125
 30
0.0
 11
1979.999985648759
 21
2362.403415746121
 31
0.0
  0
TEXT
  5
E3
330
C3
100
AcDbEntity
  8
HAIKIN
 62
     3
100
AcDbText
 10
1009.999985648752
 20
4617.403415746125
 30
0.0
 40
240.0
  1
頂　版
 72
     1
 11
1409.999985648752
 21
4617.403415746125
 31
0.0
100
AcDbText
  0
TEXT
  5
E4
330
C3
100
AcDbEntity
  8
SUNPOU
100
AcDbText
 10
1019.999985648756
 20
4105.403415746121
 30
0.0
 40
210.0
  1
外　側
 11
1019.999985648756
 21
4077.403415746121
 31
0.0
100
AcDbText
 73
     1
  0
LINE
  5
E5
330
C3
100
AcDbEntity
  8
SUNPOU
100
AcDbLine
 10
1019.999985648752
 20
317.4034157461247
 30
0.0
 11
1979.999985648759
 21
317.403415746121
 31
0.0
  0
LINE
  5
E6
330
C3
100
AcDbEntity
  8
SUNPOU
100
AcDbLine
 10
929.999985648752
 20
397.403415746121
 30
0.0
 11
1979.999985648759
 21
397.403415746121
 31
0.0
  0
LINE
  5
E7
330
C3
100
AcDbEntity
  8
SUNPOU
100
AcDbLine
 10
929.999985648752
 20
2397.403415746123
 30
0.0
 11
1979.999985648759
 21
2397.403415746121
 31
0.0
  0
LINE
  5
E8
330
C3
100
AcDbEntity
  8
SUNPOU
100
AcDbLine
 10
1019.999985648756
 20
4077.403415746121
 30
0.0
 11
2939.999985648754
 21
4077.403415746121
 31
0.0
  0
LINE
  5
E9
330
C3
100
AcDbEntity
  8
HAIKIN
 62
     3
100
AcDbLine
 10
1889.999985648752
 20
4887.403415746125
 30
0.0
 11
929.999985648752
 21
4887.403415746125
 31
0.0
  0
LINE
  5
EA
330
C3
100
AcDbEntity
  8
HAIKIN
 62
     3
100
AcDbLine
 10
1889.999985648752
 20
4587.403415746125
 30
0.0
 11
929.999985648752
 21
4587.403415746125
 31
0.0
  0
TEXT
  5
EB
330
C3
100
AcDbEntity
  8
SUNPOU
100
AcDbText
 10
762.4999856487557
 20
2907.403415746125
 30
0.0
 40
150.0
  1
D13
 41
0.8
 11
762.4999856487557
 21
2982.403415746125
 31
0.0
100
AcDbText
 73
     2
  0
TEXT
  5
EC
330
C3
100
AcDbEntity
  8
SUNPOU
100
AcDbText
 10
457.4999856487557
 20
2907.403415746125
 30
0.0
 40
150.0
  1
H1
 41
0.8
 72
     4
 11
537.4999856487557
 21
2982.403415746125
 31
0.0
100
AcDbText
  0
CIRCLE
  5
ED
330
C3
100
AcDbEntity
  8
SUNPOU
100
AcDbCircle
 10
537.4999856487557
 20
2982.403415746125
 30
0.0
 40
165.0
  0
TEXT
  5
EE
330
C3
100
AcDbEntity
  8
SUNPOU
100
AcDbText
 10
239.9999856487393
 20
1437.403415746128
 30
0.0
 40
150.0
  1
H2
 50
90.0
 41
0.8
 72
     4
 11
164.9999856487393
 21
1537.403415746128
 31
0.0
100
AcDbText
  0
LINE
  5
EF
330
C3
100
AcDbEntity
  8
SUNPOU
100
AcDbLine
 10
1137.499985648754
 20
727.4034157461247
 30
0.0
 11
1137.499985648756
 21
2817.403415746125
 31
0.0
1001
ACAD
1000
DSTYLE
1002
{
1070
    78
1070
     8
1070
   284
1070
     8
1070
   140
1040
3.0
1070
   145
1040
1.0
1070
    74
1070
     0
1070
   172
1070
     1
1070
    73
1070
     0
1070
    77
1070
     1
1070
    40
1040
60.0
1070
   147
1040
0.8
1070
   287
1070
     5
1070
    42
1040
1.5
1070
    44
1040
0.6
1070
    43
1040
7.0
1070
   271
1070
     0
1070
   177
1070
   256
1070
   176
1070
   256
1070
   141
1040
0.0
1070
   275
1070
     1
1070
    41
1040
1.5
1070
   285
1070
     8
1070
   286
1070
     8
1002
}
  0
LINE
  5
F0
330
C3
100
AcDbEntity
  8
SUNPOU
100
AcDbLine
 10
1044.999985648752
 20
2362.403415746125
 30
0.0
 11
1044.999985648756
 21
457.4034157461265
 31
0.0
  0
LINE
  5
F1
330
C3
100
AcDbEntity
  8
SUNPOU
100
AcDbLine
 10
1229.999985648759
 20
2362.403415746123
 30
0.0
 11
1229.999985648763
 21
457.4034157461228
 31
0.0
  0
LINE
  5
F2
330
C3
100
AcDbEntity
  8
SUNPOU
100
AcDbLine
 10
329.9999856487393
 20
2137.403415746126
 30
0.0
 11
329.9999856487393
 21
1357.403415746128
 31
0.0
1001
ACAD
1000
DSTYLE
1002
{
1070
    78
1070
     8
1070
   284
1070
     8
1070
   140
1040
3.0
1070
   145
1040
1.0
1070
    74
1070
     0
1070
   172
1070
     1
1070
    73
1070
     0
1070
    77
1070
     1
1070
    40
1040
60.0
1070
   147
1040
0.8
1070
   287
1070
     5
1070
    42
1040
1.5
1070
    44
1040
0.6
1070
    43
1040
7.0
1070
   271
1070
     0
1070
   177
1070
   256
1070
   176
1070
   256
1070
   141
1040
0.0
1070
   275
1070
     1
1070
    41
1040
1.5
1070
   285
1070
     8
1070
   286
1070
     8
1002
}
  0
CIRCLE
  5
F3
330
C3
100
AcDbEntity
  8
SUNPOU
100
AcDbCircle
 10
164.9999856487393
 20
1537.403415746128
 30
0.0
 40
165.0
  0
LINE
  5
F4
330
C3
100
AcDbEntity
  8
SUNPOU
100
AcDbLine
 10
929.999985648752
 20
2397.403415746126
 30
0.0
 11
929.999985648752
 21
397.4034157461247
 31
0.0
  0
LINE
  5
F5
330
C3
100
AcDbEntity
  8
SUNPOU
100
AcDbLine
 10
999.999985648752
 20
397.4034157461247
 30
0.0
 11
1019.999985648752
 21
317.4034157461301
 31
0.0
  0
SOLID
  5
F6
330
C3
100
AcDbEntity
  8
SUNPOU
100
AcDbTrace
 10
1152.499985648758
 20
937.4034157461138
 30
0.0
 11
1137.499985648758
 21
847.4034157461138
 31
0.0
 12
1122.499985648756
 22
937.4034157461138
 32
0.0
 13
1122.499985648756
 23
937.4034157461138
 33
0.0
1001
ACAD
1000
DSTYLE
1002
{
1070
    78
1070
     8
1070
   284
1070
     8
1070
   140
1040
3.0
1070
   145
1040
1.0
1070
    74
1070
     0
1070
   172
1070
     1
1070
    73
1070
     0
1070
    77
1070
     1
1070
    40
1040
60.0
1070
   147
1040
0.8
1070
   287
1070
     5
1070
    42
1040
1.5
1070
    44
1040
0.6
1070
    43
1040
7.0
1070
   271
1070
     0
1070
   177
1070
   256
1070
   176
1070
   256
1070
   141
1040
0.0
1070
   275
1070
     1
1070
    41
1040
1.5
1070
   285
1070
     8
1070
   286
1070
     8
1002
}
  0
SOLID
  5
F7
330
C3
100
AcDbEntity
  8
SUNPOU
100
AcDbTrace
 10
1152.499985648758
 20
817.4034157461356
 30
0.0
 11
1137.499985648758
 21
727.4034157461356
 31
0.0
 12
1122.499985648756
 22
817.4034157461356
 32
0.0
 13
1122.499985648756
 23
817.4034157461356
 33
0.0
1001
ACAD
1000
DSTYLE
1002
{
1070
    78
1070
     8
1070
   284
1070
     8
1070
   140
1040
3.0
1070
   145
1040
1.0
1070
    74
1070
     0
1070
   172
1070
     1
1070
    73
1070
     0
1070
    77
1070
     1
1070
    40
1040
60.0
1070
   147
1040
0.8
1070
   287
1070
     5
1070
    42
1040
1.5
1070
    44
1040
0.6
1070
    43
1040
7.0
1070
   271
1070
     0
1070
   177
1070
   256
1070
   176
1070
   256
1070
   141
1040
0.0
1070
   275
1070
     1
1070
    41
1040
1.5
1070
   285
1070
     8
1070
   286
1070
     8
1002
}
  0
SOLID
  5
F8
330
C3
100
AcDbEntity
  8
SUNPOU
100
AcDbTrace
 10
1152.499985648754
 20
877.4034157461301
 30
0.0
 11
1137.499985648754
 21
787.4034157461301
 31
0.0
 12
1122.499985648752
 22
877.4034157461301
 32
0.0
 13
1122.499985648752
 23
877.4034157461301
 33
0.0
1001
ACAD
1000
DSTYLE
1002
{
1070
    78
1070
     8
1070
   284
1070
     8
1070
   140
1040
3.0
1070
   145
1040
1.0
1070
    74
1070
     0
1070
   172
1070
     1
1070
    73
1070
     0
1070
    77
1070
     1
1070
    40
1040
60.0
1070
   147
1040
0.8
1070
   287
1070
     5
1070
    42
1040
1.5
1070
    44
1040
0.6
1070
    43
1040
7.0
1070
   271
1070
     0
1070
   177
1070
   256
1070
   176
1070
   256
1070
   141
1040
0.0
1070
   275
1070
     1
1070
    41
1040
1.5
1070
   285
1070
     8
1070
   286
1070
     8
1002
}
  0
TEXT
  5
F9
330
C3
100
AcDbEntity
  8
SUNPOU
100
AcDbText
 10
239.9999856487393
 20
1762.40341574613
 30
0.0
 40
150.0
  1
D13
 50
90.0
 41
0.8
 11
164.9999856487393
 21
1762.40341574613
 31
0.0
100
AcDbText
 73
     2
  0
SOLID
  5
FA
330
C3
100
AcDbEntity
  8
SUNPOU
100
AcDbTrace
 10
1152.499985648756
 20
2022.403415746117
 30
0.0
 11
1137.499985648756
 21
1932.403415746117
 31
0.0
 12
1122.499985648756
 22
2022.403415746117
 32
0.0
 13
1122.499985648756
 23
2022.403415746117
 33
0.0
1001
ACAD
1000
DSTYLE
1002
{
1070
    78
1070
     8
1070
   284
1070
     8
1070
   140
1040
3.0
1070
   145
1040
1.0
1070
    74
1070
     0
1070
   172
1070
     1
1070
    73
1070
     0
1070
    77
1070
     1
1070
    40
1040
60.0
1070
   147
1040
0.8
1070
   287
1070
     5
1070
    42
1040
1.5
1070
    44
1040
0.6
1070
    43
1040
7.0
1070
   271
1070
     0
1070
   177
1070
   256
1070
   176
1070
   256
1070
   141
1040
0.0
1070
   275
1070
     1
1070
    41
1040
1.5
1070
   285
1070
     8
1070
   286
1070
     8
1002
}
  0
SOLID
  5
FB
330
C3
100
AcDbEntity
  8
SUNPOU
100
AcDbTrace
 10
1152.499985648756
 20
2082.403415746117
 30
0.0
 11
1137.499985648756
 21
1992.403415746117
 31
0.0
 12
1122.499985648756
 22
2082.403415746117
 32
0.0
 13
1122.499985648756
 23
2082.403415746117
 33
0.0
1001
ACAD
1000
DSTYLE
1002
{
1070
    78
1070
     8
1070
   284
1070
     8
1070
   140
1040
3.0
1070
   145
1040
1.0
1070
    74
1070
     0
1070
   172
1070
     1
1070
    73
1070
     0
1070
    77
1070
     1
1070
    40
1040
60.0
1070
   147
1040
0.8
1070
   287
1070
     5
1070
    42
1040
1.5
1070
    44
1040
0.6
1070
    43
1040
7.0
1070
   271
1070
     0
1070
   177
1070
   256
1070
   176
1070
   256
1070
   141
1040
0.0
1070
   275
1070
     1
1070
    41
1040
1.5
1070
   285
1070
     8
1070
   286
1070
     8
1002
}
  0
SOLID
  5
FC
330
C3
100
AcDbEntity
  8
SUNPOU
100
AcDbTrace
 10
1152.499985648756
 20
2142.403415746119
 30
0.0
 11
1137.499985648756
 21
2052.403415746119
 31
0.0
 12
1122.499985648756
 22
2142.403415746119
 32
0.0
 13
1122.499985648756
 23
2142.403415746119
 33
0.0
1001
ACAD
1000
DSTYLE
1002
{
1070
    78
1070
     8
1070
   284
1070
     8
1070
   140
1040
3.0
1070
   145
1040
1.0
1070
    74
1070
     0
1070
   172
1070
     1
1070
    73
1070
     0
1070
    77
1070
     1
1070
    40
1040
60.0
1070
   147
1040
0.8
1070
   287
1070
     5
1070
    42
1040
1.5
1070
    44
1040
0.6
1070
    43
1040
7.0
1070
   271
1070
     0
1070
   177
1070
   256
1070
   176
1070
   256
1070
   141
1040
0.0
1070
   275
1070
     1
1070
    41
1040
1.5
1070
   285
1070
     8
1070
   286
1070
     8
1002
}
  0
LINE
  5
FD
330
C3
100
AcDbEntity
  8
SUNPOU
100
AcDbLine
 10
1137.499985648756
 20
2817.403415746125
 30
0.0
 11
357.4999856487557
 21
2817.403415746125
 31
0.0
1001
ACAD
1000
DSTYLE
1002
{
1070
    78
1070
     8
1070
   284
1070
     8
1070
   140
1040
3.0
1070
   145
1040
1.0
1070
    74
1070
     0
1070
   172
1070
     1
1070
    73
1070
     0
1070
    77
1070
     1
1070
    40
1040
60.0
1070
   147
1040
0.8
1070
   287
1070
     5
1070
    42
1040
1.5
1070
    44
1040
0.6
1070
    43
1040
7.0
1070
   271
1070
     0
1070
   177
1070
   256
1070
   176
1070
   256
1070
   141
1040
0.0
1070
   275
1070
     1
1070
    41
1040
1.5
1070
   285
1070
     8
1070
   286
1070
     8
1002
}
  0
TEXT
  5
FE
330
C3
100
AcDbEntity
  8
SUNPOU
100
AcDbText
 10
979.9999856487611
 20
3317.403415746123
 30
0.0
 40
150.0
  1
H3
 41
0.8
 72
     4
 11
1079.999985648761
 21
3392.403415746123
 31
0.0
100
AcDbText
  0
CIRCLE
  5
FF
330
C3
100
AcDbEntity
  8
SUNPOU
100
AcDbCircle
 10
1079.999985648761
 20
3392.403415746123
 30
0.0
 40
165.0
  0
LINE
  5
100
330
C3
100
AcDbEntity
  8
HAIKIN
 62
     3
100
AcDbLine
 10
929.999985648752
 20
4587.403415746125
 30
0.0
 11
929.999985648752
 21
4887.403415746125
 31
0.0
  0
TEXT
  5
101
330
C3
100
AcDbEntity
  8
SUNPOU
100
AcDbText
 10
3194.999985648759
 20
2907.403415746125
 30
0.0
 40
150.0
  1
D13
 41
0.8
 11
3194.999985648759
 21
2982.403415746125
 31
0.0
100
AcDbText
 73
     2
  0
TEXT
  5
102
330
C3
100
AcDbEntity
  8
SUNPOU
100
AcDbText
 10
2889.999985648759
 20
2907.403415746125
 30
0.0
 40
150.0
  1
H1
 41
0.8
 72
     4
 11
2969.999985648759
 21
2982.403415746125
 31
0.0
100
AcDbText
  0
LINE
  5
103
330
C3
100
AcDbEntity
  8
SUNPOU
100
AcDbLine
 10
1679.999985648761
 20
1890.403415746132
 30
0.0
 11
1679.999985648763
 21
3227.403415746123
 31
0.0
1001
ACAD
1000
DSTYLE
1002
{
1070
    78
1070
     8
1070
   284
1070
     8
1070
   140
1040
3.0
1070
   145
1040
1.0
1070
    74
1070
     0
1070
   172
1070
     1
1070
    73
1070
     0
1070
    77
1070
     1
1070
    40
1040
60.0
1070
   147
1040
0.8
1070
   287
1070
     5
1070
    42
1040
1.5
1070
    44
1040
0.6
1070
    43
1040
7.0
1070
   271
1070
     0
1070
   177
1070
   256
1070
   176
1070
   256
1070
   141
1040
0.0
1070
   275
1070
     1
1070
    41
1040
1.5
1070
   285
1070
     8
1070
   286
1070
     8
1002
}
  0
LINE
  5
104
330
C3
100
AcDbEntity
  8
SUNPOU
100
AcDbLine
 10
2279.999985648761
 20
1827.403415746126
 30
0.0
 11
2279.999985648759
 21
3227.403415746123
 31
0.0
1001
ACAD
1000
DSTYLE
1002
{
1070
    78
1070
     8
1070
   284
1070
     8
1070
   140
1040
3.0
1070
   145
1040
1.0
1070
    74
1070
     0
1070
   172
1070
     1
1070
    73
1070
     0
1070
    77
1070
     1
1070
    40
1040
60.0
1070
   147
1040
0.8
1070
   287
1070
     5
1070
    42
1040
1.5
1070
    44
1040
0.6
1070
    43
1040
7.0
1070
   271
1070
     0
1070
   177
1070
   256
1070
   176
1070
   256
1070
   141
1040
0.0
1070
   275
1070
     1
1070
    41
1040
1.5
1070
   285
1070
     8
1070
   286
1070
     8
1002
}
  0
CIRCLE
  5
105
330
C3
100
AcDbEntity
  8
SUNPOU
100
AcDbCircle
 10
2969.999985648759
 20
2982.403415746125
 30
0.0
 40
165.0
  0
LINE
  5
106
330
C3
100
AcDbEntity
  8
1HASEN
100
AcDbLine
 10
1979.999985648754
 20
4077.403415746121
 30
0.0
 11
1979.999985648759
 21
17.40341574611921
 31
0.0
  0
TEXT
  5
107
330
C3
100
AcDbEntity
  8
SUNPOU
100
AcDbText
 10
3359.999985648745
 20
1762.403415746126
 30
0.0
 40
150.0
  1
D13
 50
90.0
 41
0.8
 11
3284.999985648745
 21
1762.403415746126
 31
0.0
100
AcDbText
 73
     2
  0
TEXT
  5
108
330
C3
100
AcDbEntity
  8
SUNPOU
100
AcDbText
 10
3359.999985648745
 20
1437.403415746125
 30
0.0
 40
150.0
  1
H2
 50
90.0
 41
0.8
 72
     4
 11
3284.999985648745
 21
1537.403415746125
 31
0.0
100
AcDbText
  0
LINE
  5
109
330
C3
100
AcDbEntity
  8
SUNPOU
100
AcDbLine
 10
2789.999985648759
 20
2817.403415746125
 30
0.0
 11
3569.999985648759
 21
2817.403415746125
 31
0.0
1001
ACAD
1000
DSTYLE
1002
{
1070
    78
1070
     8
1070
   284
1070
     8
1070
   140
1040
3.0
1070
   145
1040
1.0
1070
    74
1070
     0
1070
   172
1070
     1
1070
    73
1070
     0
1070
    77
1070
     1
1070
    40
1040
60.0
1070
   147
1040
0.8
1070
   287
1070
     5
1070
    42
1040
1.5
1070
    44
1040
0.6
1070
    43
1040
7.0
1070
   271
1070
     0
1070
   177
1070
   256
1070
   176
1070
   256
1070
   141
1040
0.0
1070
   275
1070
     1
1070
    41
1040
1.5
1070
   285
1070
     8
1070
   286
1070
     8
1002
}
  0
LINE
  5
10A
330
C3
100
AcDbEntity
  8
SUNPOU
100
AcDbLine
 10
2429.999985648759
 20
1357.403415746125
 30
0.0
 11
3449.999985648745
 21
1357.403415746123
 31
0.0
1001
ACAD
1000
DSTYLE
1002
{
1070
    78
1070
     8
1070
   284
1070
     8
1070
   140
1040
3.0
1070
   145
1040
1.0
1070
    74
1070
     0
1070
   172
1070
     1
1070
    73
1070
     0
1070
    77
1070
     1
1070
    40
1040
60.0
1070
   147
1040
0.8
1070
   287
1070
     5
1070
    42
1040
1.5
1070
    44
1040
0.6
1070
    43
1040
7.0
1070
   271
1070
     0
1070
   177
1070
   256
1070
   176
1070
   256
1070
   141
1040
0.0
1070
   275
1070
     1
1070
    41
1040
1.5
1070
   285
1070
     8
1070
   286
1070
     8
1002
}
  0
CIRCLE
  5
10B
330
C3
100
AcDbEntity
  8
SUNPOU
100
AcDbCircle
 10
3284.999985648745
 20
1537.403415746125
 30
0.0
 40
165.0
  0
LINE
  5
10C
330
C3
100
AcDbEntity
  8
HAIKIN
100
AcDbLine
 10
1486.99998564875
 20
939.4034157461192
 30
0.0
 11
1486.99998564875
 21
1855.403415746132
 31
0.0
  0
LINE
  5
10D
330
C3
100
AcDbEntity
  8
HAIKIN
100
AcDbLine
 10
2409.999985648758
 20
1792.403415746126
 30
0.0
 11
2409.999985648759
 21
1002.403415746126
 31
0.0
  0
LINE
  5
10E
330
C3
100
AcDbEntity
  8
SUNPOU
100
AcDbLine
 10
2789.999985648759
 20
787.4034157461319
 30
0.0
 11
2789.999985648759
 21
2817.403415746125
 31
0.0
1001
ACAD
1000
DSTYLE
1002
{
1070
    78
1070
     8
1070
   284
1070
     8
1070
   140
1040
3.0
1070
   145
1040
1.0
1070
    74
1070
     0
1070
   172
1070
     1
1070
    73
1070
     0
1070
    77
1070
     1
1070
    40
1040
60.0
1070
   147
1040
0.8
1070
   287
1070
     5
1070
    42
1040
1.5
1070
    44
1040
0.6
1070
    43
1040
7.0
1070
   271
1070
     0
1070
   177
1070
   256
1070
   176
1070
   256
1070
   141
1040
0.0
1070
   275
1070
     1
1070
    41
1040
1.5
1070
   285
1070
     8
1070
   286
1070
     8
1002
}
  0
LINE
  5
10F
330
C3
100
AcDbEntity
  8
HAIKIN
100
AcDbLine
 10
2469.999985648758
 20
352.4034157461247
 30
0.0
 11
2469.999985648758
 21
2257.403415746121
 31
0.0
  0
LINE
  5
110
330
C3
100
AcDbEntity
  8
HAIKIN
100
AcDbLine
 10
2529.999985648759
 20
352.4034157461247
 30
0.0
 11
2529.999985648759
 21
2257.403415746121
 31
0.0
  0
LINE
  5
111
330
C3
100
AcDbEntity
  8
HAIKIN
100
AcDbLine
 10
2589.999985648761
 20
352.4034157461247
 30
0.0
 11
2589.999985648758
 21
2257.403415746121
 31
0.0
  0
LINE
  5
112
330
C3
100
AcDbEntity
  8
HAIKIN
100
AcDbLine
 10
1426.999985648754
 20
457.4034157461228
 30
0.0
 11
1426.999985648752
 21
2362.403415746123
 31
0.0
  0
LINE
  5
113
330
C3
100
AcDbEntity
  8
HAIKIN
100
AcDbLine
 10
1366.999985648756
 20
457.4034157461228
 30
0.0
 11
1366.999985648748
 21
2362.403415746123
 31
0.0
  0
LINE
  5
114
330
C3
100
AcDbEntity
  8
HAIKIN
100
AcDbLine
 10
1306.999985648754
 20
457.4034157461228
 30
0.0
 11
1306.999985648748
 21
2362.403415746123
 31
0.0
  0
LINE
  5
115
330
C3
100
AcDbEntity
  8
SUNPOU
100
AcDbLine
 10
2914.99998564875
 20
2257.403415746121
 30
0.0
 11
2914.99998564875
 21
352.4034157461265
 31
0.0
  0
LINE
  5
116
330
C3
100
AcDbEntity
  8
SUNPOU
100
AcDbLine
 10
2729.999985648759
 20
2257.403415746121
 30
0.0
 11
2729.999985648759
 21
352.4034157461228
 31
0.0
  0
LINE
  5
117
330
C3
100
AcDbEntity
  8
SUNPOU
100
AcDbLine
 10
2429.999985648759
 20
2257.403415746121
 30
0.0
 11
2429.999985648758
 21
352.403415746121
 31
0.0
  0
LINE
  5
118
330
C3
100
AcDbEntity
  8
SUNPOU
100
AcDbLine
 10
2379.999985648758
 20
1797.403415746126
 30
0.0
 11
2379.999985648758
 21
997.4034157461265
 31
0.0
  0
LINE
  5
119
330
C3
100
AcDbEntity
  8
SUNPOU
100
AcDbLine
 10
3029.99998564875
 20
2397.403415746121
 30
0.0
 11
3029.99998564875
 21
397.403415746121
 31
0.0
  0
LINE
  5
11A
330
C3
100
AcDbEntity
  8
SUNPOU
100
AcDbLine
 10
1516.999985648752
 20
934.403415746121
 30
0.0
 11
1516.999985648752
 21
1860.403415746126
 31
0.0
  0
LINE
  5
11B
330
C3
100
AcDbEntity
  8
SUNPOU
100
AcDbLine
 10
1579.999985648756
 20
1797.403415746126
 30
0.0
 11
1579.999985648758
 21
997.4034157461265
 31
0.0
  0
LINE
  5
11C
330
C3
100
AcDbEntity
  8
HAIKIN
100
AcDbLine
 10
2374.999985648759
 20
967.4034157461265
 30
0.0
 11
1979.999985648752
 21
967.4034157461265
 31
0.0
  0
LINE
  5
11D
330
C3
100
AcDbEntity
  8
HAIKIN
100
AcDbLine
 10
2994.999985648774
 20
787.4034157461319
 30
0.0
 11
1979.999985648759
 21
787.4034157461283
 31
0.0
  0
LINE
  5
11E
330
C3
100
AcDbEntity
  8
HAIKIN
100
AcDbLine
 10
2994.999985648774
 20
847.4034157461319
 30
0.0
 11
1979.999985648758
 21
847.4034157461283
 31
0.0
  0
LINE
  5
11F
330
C3
100
AcDbEntity
  8
HAIKIN
100
AcDbLine
 10
2994.999985648774
 20
907.4034157461319
 30
0.0
 11
1979.999985648759
 21
907.4034157461283
 31
0.0
  0
LINE
  5
120
330
C3
100
AcDbEntity
  8
SUNPOU
100
AcDbLine
 10
2914.99998564875
 20
352.4034157461265
 30
0.0
 11
1979.999985648759
 21
352.403415746121
 31
0.0
  0
LINE
  5
121
330
C3
100
AcDbEntity
  8
SUNPOU
100
AcDbLine
 10
2994.999985648774
 20
457.4034157461247
 30
0.0
 11
1979.999985648759
 21
457.403415746121
 31
0.0
  0
LINE
  5
122
330
C3
100
AcDbEntity
  8
SUNPOU
100
AcDbLine
 10
2994.999985648774
 20
937.4034157461247
 30
0.0
 11
1979.999985648759
 21
937.403415746121
 31
0.0
  0
LINE
  5
123
330
C3
100
AcDbEntity
  8
SUNPOU
100
AcDbLine
 10
2994.999985648774
 20
817.4034157461247
 30
0.0
 11
1979.999985648759
 21
817.403415746121
 31
0.0
  0
LINE
  5
124
330
C3
100
AcDbEntity
  8
SUNPOU
100
AcDbLine
 10
2994.999985648774
 20
697.4034157461247
 30
0.0
 11
1979.999985648759
 21
697.403415746121
 31
0.0
  0
LINE
  5
125
330
C3
100
AcDbEntity
  8
SUNPOU
100
AcDbLine
 10
2994.999985648774
 20
577.4034157461247
 30
0.0
 11
1979.999985648759
 21
577.403415746121
 31
0.0
  0
LINE
  5
126
330
C3
100
AcDbEntity
  8
SUNPOU
100
AcDbLine
 10
2939.99998564875
 20
317.4034157461247
 30
0.0
 11
1963.628976814191
 21
317.403415746121
 31
0.0
  0
LINE
  5
127
330
C3
100
AcDbEntity
  8
1HASEN
100
AcDbLine
 10
1379.999985648756
 20
1397.403415746126
 30
0.0
 11
2579.999985648758
 21
1397.403415746126
 31
0.0
  0
LINE
  5
128
330
C3
100
AcDbEntity
  8
SUNPOU
100
AcDbLine
 10
2379.999985648758
 20
997.4034157461265
 30
0.0
 11
1579.999985648758
 21
997.4034157461265
 31
0.0
  0
ARC
  5
129
330
C3
100
AcDbEntity
  8
HAIKIN
100
AcDbCircle
 10
1521.99998564875
 20
939.4034157461192
 30
0.0
 40
35.0
100
AcDbArc
 50
180.0
 51
270.0
  0
LINE
  5
12A
330
C3
100
AcDbEntity
  8
SUNPOU
100
AcDbLine
 10
2129.999985648758
 20
967.4034157461283
 30
0.0
 11
2129.999985648759
 21
352.4034157461192
 31
0.0
  0
LINE
  5
12B
330
C3
100
AcDbEntity
  8
HAIKIN
100
AcDbLine
 10
1521.99998564875
 20
904.4034157461192
 30
0.0
 11
1979.999985648758
 21
904.4034157461228
 31
0.0
  0
LINE
  5
12C
330
C3
100
AcDbEntity
  8
SUNPOU
100
AcDbLine
 10
1516.999985648752
 20
934.403415746121
 30
0.0
 11
1979.999985648758
 21
934.4034157461228
 31
0.0
  0
LINE
  5
12D
330
C3
100
AcDbEntity
  8
SUNPOU
100
AcDbLine
 10
1529.999985648765
 20
904.403415746121
 30
0.0
 11
1529.999985648767
 21
457.4034157461247
 31
0.0
  0
LINE
  5
12E
330
C3
100
AcDbEntity
  8
SUNPOU
100
AcDbLine
 10
1829.999985648759
 20
904.4034157461228
 30
0.0
 11
1829.999985648759
 21
457.4034157461192
 31
0.0
  0
SOLID
  5
12F
330
C3
100
AcDbEntity
  8
SUNPOU
100
AcDbTrace
 10
1276.999985648759
 20
1372.403415746128
 30
0.0
 11
1366.999985648759
 21
1357.403415746128
 31
0.0
 12
1276.999985648759
 22
1342.403415746128
 32
0.0
 13
1276.999985648759
 23
1342.403415746128
 33
0.0
1001
ACAD
1000
DSTYLE
1002
{
1070
    78
1070
     8
1070
   284
1070
     8
1070
   140
1040
3.0
1070
   145
1040
1.0
1070
    74
1070
     0
1070
   172
1070
     1
1070
    73
1070
     0
1070
    77
1070
     1
1070
    40
1040
60.0
1070
   147
1040
0.8
1070
   287
1070
     5
1070
    42
1040
1.5
1070
    44
1040
0.6
1070
    43
1040
7.0
1070
   271
1070
     0
1070
   177
1070
   256
1070
   176
1070
   256
1070
   141
1040
0.0
1070
   275
1070
     1
1070
    41
1040
1.5
1070
   285
1070
     8
1070
   286
1070
     8
1002
}
  0
SOLID
  5
130
330
C3
100
AcDbEntity
  8
SUNPOU
100
AcDbTrace
 10
1336.99998564877
 20
1372.403415746125
 30
0.0
 11
1426.99998564877
 21
1357.403415746123
 31
0.0
 12
1336.99998564877
 22
1342.403415746125
 32
0.0
 13
1336.99998564877
 23
1342.403415746125
 33
0.0
1001
ACAD
1000
DSTYLE
1002
{
1070
    78
1070
     8
1070
   284
1070
     8
1070
   140
1040
3.0
1070
   145
1040
1.0
1070
    74
1070
     0
1070
   172
1070
     1
1070
    73
1070
     0
1070
    77
1070
     1
1070
    40
1040
60.0
1070
   147
1040
0.8
1070
   287
1070
     5
1070
    42
1040
1.5
1070
    44
1040
0.6
1070
    43
1040
7.0
1070
   271
1070
     0
1070
   177
1070
   256
1070
   176
1070
   256
1070
   141
1040
0.0
1070
   275
1070
     1
1070
    41
1040
1.5
1070
   285
1070
     8
1070
   286
1070
     8
1002
}
  0
SOLID
  5
131
330
C3
100
AcDbEntity
  8
SUNPOU
100
AcDbTrace
 10
2804.999985648759
 20
997.4034157461319
 30
0.0
 11
2789.999985648759
 21
907.4034157461319
 31
0.0
 12
2774.999985648759
 22
997.4034157461319
 32
0.0
 13
2774.999985648759
 23
997.4034157461319
 33
0.0
1001
ACAD
1000
DSTYLE
1002
{
1070
    78
1070
     8
1070
   284
1070
     8
1070
   140
1040
3.0
1070
   145
1040
1.0
1070
    74
1070
     0
1070
   172
1070
     1
1070
    73
1070
     0
1070
    77
1070
     1
1070
    40
1040
60.0
1070
   147
1040
0.8
1070
   287
1070
     5
1070
    42
1040
1.5
1070
    44
1040
0.6
1070
    43
1040
7.0
1070
   271
1070
     0
1070
   177
1070
   256
1070
   176
1070
   256
1070
   141
1040
0.0
1070
   275
1070
     1
1070
    41
1040
1.5
1070
   285
1070
     8
1070
   286
1070
     8
1002
}
  0
LINE
  5
132
330
C3
100
AcDbEntity
  8
HASEN
100
AcDbLine
 10
2994.999985648772
 20
715.4034157461156
 30
0.0
 11
2644.497460331817
 21
715.4034157461119
 31
0.0
  0
LINE
  5
133
330
C3
100
AcDbEntity
  8
HASEN
100
AcDbLine
 10
2994.999985648772
 20
475.4034157461156
 30
0.0
 11
2644.497460331817
 21
475.4034157461119
 31
0.0
  0
LINE
  5
134
330
C3
100
AcDbEntity
  8
SUNPOU
100
AcDbLine
 10
3029.99998564875
 20
397.403415746121
 30
0.0
 11
2959.999985648748
 21
397.403415746121
 31
0.0
  0
LINE
  5
135
330
C3
100
AcDbEntity
  8
SUNPOU
100
AcDbLine
 10
2959.999985648748
 20
397.403415746121
 30
0.0
 11
2939.999985648748
 21
317.4034157461228
 31
0.0
  0
SOLID
  5
136
330
C3
100
AcDbEntity
  8
SUNPOU
100
AcDbTrace
 10
2804.999985648759
 20
937.4034157461319
 30
0.0
 11
2789.999985648759
 21
847.4034157461319
 31
0.0
 12
2774.999985648759
 22
937.4034157461319
 32
0.0
 13
2774.999985648759
 23
937.4034157461319
 33
0.0
1001
ACAD
1000
DSTYLE
1002
{
1070
    78
1070
     8
1070
   284
1070
     8
1070
   140
1040
3.0
1070
   145
1040
1.0
1070
    74
1070
     0
1070
   172
1070
     1
1070
    73
1070
     0
1070
    77
1070
     1
1070
    40
1040
60.0
1070
   147
1040
0.8
1070
   287
1070
     5
1070
    42
1040
1.5
1070
    44
1040
0.6
1070
    43
1040
7.0
1070
   271
1070
     0
1070
   177
1070
   256
1070
   176
1070
   256
1070
   141
1040
0.0
1070
   275
1070
     1
1070
    41
1040
1.5
1070
   285
1070
     8
1070
   286
1070
     8
1002
}
  0
SOLID
  5
137
330
C3
100
AcDbEntity
  8
SUNPOU
100
AcDbTrace
 10
2804.999985648759
 20
877.4034157461319
 30
0.0
 11
2789.999985648759
 21
787.4034157461319
 31
0.0
 12
2774.999985648759
 22
877.4034157461319
 32
0.0
 13
2774.999985648759
 23
877.4034157461319
 33
0.0
1001
ACAD
1000
DSTYLE
1002
{
1070
    78
1070
     8
1070
   284
1070
     8
1070
   140
1040
3.0
1070
   145
1040
1.0
1070
    74
1070
     0
1070
   172
1070
     1
1070
    73
1070
     0
1070
    77
1070
     1
1070
    40
1040
60.0
1070
   147
1040
0.8
1070
   287
1070
     5
1070
    42
1040
1.5
1070
    44
1040
0.6
1070
    43
1040
7.0
1070
   271
1070
     0
1070
   177
1070
   256
1070
   176
1070
   256
1070
   141
1040
0.0
1070
   275
1070
     1
1070
    41
1040
1.5
1070
   285
1070
     8
1070
   286
1070
     8
1002
}
  0
LINE
  5
138
330
C3
100
AcDbEntity
  8
SUNPOU
100
AcDbLine
 10
2994.999985648774
 20
1537.403415746125
 30
0.0
 11
2409.999985648759
 21
1537.403415746121
 31
0.0
  0
LINE
  5
139
330
C3
100
AcDbEntity
  8
SUNPOU
100
AcDbLine
 10
2994.999985648774
 20
1417.403415746125
 30
0.0
 11
2409.999985648759
 21
1417.403415746121
 31
0.0
  0
LINE
  5
13A
330
C3
100
AcDbEntity
  8
SUNPOU
100
AcDbLine
 10
2994.999985648774
 20
1297.403415746125
 30
0.0
 11
2409.999985648759
 21
1297.403415746125
 31
0.0
  0
LINE
  5
13B
330
C3
100
AcDbEntity
  8
SUNPOU
100
AcDbLine
 10
2994.999985648774
 20
1177.403415746125
 30
0.0
 11
2409.999985648759
 21
1177.403415746121
 31
0.0
  0
LINE
  5
13C
330
C3
100
AcDbEntity
  8
SUNPOU
100
AcDbLine
 10
2994.999985648774
 20
1057.403415746125
 30
0.0
 11
2409.999985648759
 21
1057.403415746121
 31
0.0
  0
LINE
  5
13D
330
C3
100
AcDbEntity
  8
HASEN
100
AcDbLine
 10
2994.999985648772
 20
955.4034157461156
 30
0.0
 11
2644.497460331817
 21
955.4034157461119
 31
0.0
  0
LINE
  5
13E
330
C3
100
AcDbEntity
  8
HASEN
100
AcDbLine
 10
2994.999985648772
 20
1195.403415746116
 30
0.0
 11
2644.497460331817
 21
1195.403415746112
 31
0.0
  0
LINE
  5
13F
330
C3
100
AcDbEntity
  8
HASEN
100
AcDbLine
 10
2994.999985648772
 20
1435.403415746116
 30
0.0
 11
2644.497460331817
 21
1435.403415746112
 31
0.0
  0
ARC
  5
140
330
C3
100
AcDbEntity
  8
HAIKIN
100
AcDbCircle
 10
2374.999985648759
 20
1002.403415746126
 30
0.0
 40
35.0
100
AcDbArc
 50
270.0
 51
0.0
  0
LINE
  5
141
330
C3
100
AcDbEntity
  8
HAIKIN
100
AcDbLine
 10
2374.999985648758
 20
1827.403415746126
 30
0.0
 11
1979.999985648752
 21
1827.403415746126
 31
0.0
  0
LINE
  5
142
330
C3
100
AcDbEntity
  8
HAIKIN
100
AcDbLine
 10
2994.999985648774
 20
1872.403415746125
 30
0.0
 11
1979.999985648759
 21
1872.403415746121
 31
0.0
  0
LINE
  5
143
330
C3
100
AcDbEntity
  8
HAIKIN
100
AcDbLine
 10
2994.999985648774
 20
1932.403415746125
 30
0.0
 11
1979.999985648758
 21
1932.403415746121
 31
0.0
  0
LINE
  5
144
330
C3
100
AcDbEntity
  8
HAIKIN
100
AcDbLine
 10
2994.999985648774
 20
1992.403415746125
 30
0.0
 11
1979.999985648758
 21
1992.403415746121
 31
0.0
  0
LINE
  5
145
330
C3
100
AcDbEntity
  8
SUNPOU
100
AcDbLine
 10
2994.999985648774
 20
2017.403415746125
 30
0.0
 11
1979.999985648759
 21
2017.403415746121
 31
0.0
  0
LINE
  5
146
330
C3
100
AcDbEntity
  8
SUNPOU
100
AcDbLine
 10
2994.999985648774
 20
2137.403415746125
 30
0.0
 11
1979.999985648759
 21
2137.403415746121
 31
0.0
  0
LINE
  5
147
330
C3
100
AcDbEntity
  8
SUNPOU
100
AcDbLine
 10
2994.999985648774
 20
2257.403415746125
 30
0.0
 11
1979.999985648759
 21
2257.403415746121
 31
0.0
  0
LINE
  5
148
330
C3
100
AcDbEntity
  8
SUNPOU
100
AcDbLine
 10
2994.999985648774
 20
1897.403415746125
 30
0.0
 11
1979.999985648759
 21
1897.403415746121
 31
0.0
  0
LINE
  5
149
330
C3
100
AcDbEntity
  8
SUNPOU
100
AcDbLine
 10
2949.999985648748
 20
2317.403415746123
 30
0.0
 11
1979.999985648759
 21
2317.403415746121
 31
0.0
  0
LINE
  5
14A
330
C3
100
AcDbEntity
  8
SUNPOU
100
AcDbLine
 10
2379.999985648758
 20
1797.403415746126
 30
0.0
 11
1579.999985648756
 21
1797.403415746126
 31
0.0
  0
LINE
  5
14B
330
C3
100
AcDbEntity
  8
SUNPOU
100
AcDbLine
 10
1829.999985648765
 20
2362.403415746123
 30
0.0
 11
1829.999985648759
 21
1890.403415746126
 31
0.0
  0
LINE
  5
14C
330
C3
100
AcDbEntity
  8
SUNPOU
100
AcDbLine
 10
1529.999985648763
 20
2362.403415746125
 30
0.0
 11
1529.999985648763
 21
1890.403415746128
 31
0.0
  0
LINE
  5
14D
330
C3
100
AcDbEntity
  8
HAIKIN
100
AcDbLine
 10
1979.999985648758
 20
1890.403415746128
 30
0.0
 11
1521.99998564875
 21
1890.403415746132
 31
0.0
  0
LINE
  5
14E
330
C3
100
AcDbEntity
  8
SUNPOU
100
AcDbLine
 10
1979.999985648758
 20
1860.403415746128
 30
0.0
 11
1516.999985648752
 21
1860.403415746126
 31
0.0
  0
ARC
  5
14F
330
C3
100
AcDbEntity
  8
HAIKIN
100
AcDbCircle
 10
1521.99998564875
 20
1855.403415746132
 30
0.0
 40
35.0
100
AcDbArc
 50
90.0
 51
180.0
  0
SOLID
  5
150
330
C3
100
AcDbEntity
  8
SUNPOU
100
AcDbTrace
 10
1694.999985648759
 20
1980.403415746141
 30
0.0
 11
1679.999985648759
 21
1890.403415746141
 31
0.0
 12
1664.999985648759
 22
1980.403415746141
 32
0.0
 13
1664.999985648759
 23
1980.403415746141
 33
0.0
1001
ACAD
1000
DSTYLE
1002
{
1070
    78
1070
     8
1070
   284
1070
     8
1070
   140
1040
3.0
1070
   145
1040
1.0
1070
    74
1070
     0
1070
   172
1070
     1
1070
    73
1070
     0
1070
    77
1070
     1
1070
    40
1040
60.0
1070
   147
1040
0.8
1070
   287
1070
     5
1070
    42
1040
1.5
1070
    44
1040
0.6
1070
    43
1040
7.0
1070
   271
1070
     0
1070
   177
1070
   256
1070
   176
1070
   256
1070
   141
1040
0.0
1070
   275
1070
     1
1070
    41
1040
1.5
1070
   285
1070
     8
1070
   286
1070
     8
1002
}
  0
LINE
  5
151
330
C3
100
AcDbEntity
  8
SUNPOU
100
AcDbLine
 10
2129.999985648759
 20
2257.403415746121
 30
0.0
 11
2129.999985648759
 21
1827.40341574613
 31
0.0
  0
LINE
  5
152
330
C3
100
AcDbEntity
  8
SUNPOU
100
AcDbLine
 10
2969.99998564875
 20
2397.403415746121
 30
0.0
 11
2949.99998564875
 21
2317.403415746125
 31
0.0
  0
LINE
  5
153
330
C3
100
AcDbEntity
  8
SUNPOU
100
AcDbLine
 10
2994.999985648774
 20
1777.403415746125
 30
0.0
 11
2409.999985648758
 21
1777.403415746119
 31
0.0
  0
LINE
  5
154
330
C3
100
AcDbEntity
  8
SUNPOU
100
AcDbLine
 10
2994.999985648774
 20
1657.403415746125
 30
0.0
 11
2409.999985648758
 21
1657.403415746121
 31
0.0
  0
LINE
  5
155
330
C3
100
AcDbEntity
  8
HASEN
100
AcDbLine
 10
2994.999985648772
 20
2155.403415746116
 30
0.0
 11
2644.497460331817
 21
2155.403415746112
 31
0.0
  0
LINE
  5
156
330
C3
100
AcDbEntity
  8
HASEN
100
AcDbLine
 10
2994.999985648772
 20
1915.403415746116
 30
0.0
 11
2644.497460331817
 21
1915.403415746112
 31
0.0
  0
LINE
  5
157
330
C3
100
AcDbEntity
  8
HASEN
100
AcDbLine
 10
2994.999985648772
 20
1675.403415746116
 30
0.0
 11
2644.497460331817
 21
1675.403415746112
 31
0.0
  0
ARC
  5
158
330
C3
100
AcDbEntity
  8
HAIKIN
100
AcDbCircle
 10
2374.999985648758
 20
1792.403415746126
 30
0.0
 40
35.0
100
AcDbArc
 50
0.0
 51
90.0
  0
SOLID
  5
159
330
C3
100
AcDbEntity
  8
SUNPOU
100
AcDbTrace
 10
2294.999985648761
 20
1917.403415746126
 30
0.0
 11
2279.999985648761
 21
1827.403415746126
 31
0.0
 12
2264.999985648761
 22
1917.403415746126
 32
0.0
 13
2264.999985648761
 23
1917.403415746126
 33
0.0
1001
ACAD
1000
DSTYLE
1002
{
1070
    78
1070
     8
1070
   284
1070
     8
1070
   140
1040
3.0
1070
   145
1040
1.0
1070
    74
1070
     0
1070
   172
1070
     1
1070
    73
1070
     0
1070
    77
1070
     1
1070
    40
1040
60.0
1070
   147
1040
0.8
1070
   287
1070
     5
1070
    42
1040
1.5
1070
    44
1040
0.6
1070
    43
1040
7.0
1070
   271
1070
     0
1070
   177
1070
   256
1070
   176
1070
   256
1070
   141
1040
0.0
1070
   275
1070
     1
1070
    41
1040
1.5
1070
   285
1070
     8
1070
   286
1070
     8
1002
}
  0
SOLID
  5
15A
330
C3
100
AcDbEntity
  8
SUNPOU
100
AcDbTrace
 10
2804.999985648759
 20
2022.403415746125
 30
0.0
 11
2789.999985648759
 21
1932.403415746125
 31
0.0
 12
2774.999985648759
 22
2022.403415746125
 32
0.0
 13
2774.999985648759
 23
2022.403415746125
 33
0.0
1001
ACAD
1000
DSTYLE
1002
{
1070
    78
1070
     8
1070
   284
1070
     8
1070
   140
1040
3.0
1070
   145
1040
1.0
1070
    74
1070
     0
1070
   172
1070
     1
1070
    73
1070
     0
1070
    77
1070
     1
1070
    40
1040
60.0
1070
   147
1040
0.8
1070
   287
1070
     5
1070
    42
1040
1.5
1070
    44
1040
0.6
1070
    43
1040
7.0
1070
   271
1070
     0
1070
   177
1070
   256
1070
   176
1070
   256
1070
   141
1040
0.0
1070
   275
1070
     1
1070
    41
1040
1.5
1070
   285
1070
     8
1070
   286
1070
     8
1002
}
  0
SOLID
  5
15B
330
C3
100
AcDbEntity
  8
SUNPOU
100
AcDbTrace
 10
2804.999985648759
 20
1962.403415746125
 30
0.0
 11
2789.999985648759
 21
1872.403415746125
 31
0.0
 12
2774.999985648759
 22
1962.403415746125
 32
0.0
 13
2774.999985648759
 23
1962.403415746125
 33
0.0
1001
ACAD
1000
DSTYLE
1002
{
1070
    78
1070
     8
1070
   284
1070
     8
1070
   140
1040
3.0
1070
   145
1040
1.0
1070
    74
1070
     0
1070
   172
1070
     1
1070
    73
1070
     0
1070
    77
1070
     1
1070
    40
1040
60.0
1070
   147
1040
0.8
1070
   287
1070
     5
1070
    42
1040
1.5
1070
    44
1040
0.6
1070
    43
1040
7.0
1070
   271
1070
     0
1070
   177
1070
   256
1070
   176
1070
   256
1070
   141
1040
0.0
1070
   275
1070
     1
1070
    41
1040
1.5
1070
   285
1070
     8
1070
   286
1070
     8
1002
}
  0
SOLID
  5
15C
330
C3
100
AcDbEntity
  8
SUNPOU
100
AcDbTrace
 10
2804.999985648759
 20
2082.403415746125
 30
0.0
 11
2789.999985648759
 21
1992.403415746125
 31
0.0
 12
2774.999985648759
 22
2082.403415746125
 32
0.0
 13
2774.999985648759
 23
2082.403415746125
 33
0.0
1001
ACAD
1000
DSTYLE
1002
{
1070
    78
1070
     8
1070
   284
1070
     8
1070
   140
1040
3.0
1070
   145
1040
1.0
1070
    74
1070
     0
1070
   172
1070
     1
1070
    73
1070
     0
1070
    77
1070
     1
1070
    40
1040
60.0
1070
   147
1040
0.8
1070
   287
1070
     5
1070
    42
1040
1.5
1070
    44
1040
0.6
1070
    43
1040
7.0
1070
   271
1070
     0
1070
   177
1070
   256
1070
   176
1070
   256
1070
   141
1040
0.0
1070
   275
1070
     1
1070
    41
1040
1.5
1070
   285
1070
     8
1070
   286
1070
     8
1002
}
  0
LINE
  5
15D
330
C3
100
AcDbEntity
  8
SUNPOU
100
AcDbLine
 10
2969.99998564875
 20
2397.403415746121
 30
0.0
 11
3029.99998564875
 21
2397.403415746121
 31
0.0
  0
LINE
  5
15E
330
C3
100
AcDbEntity
  8
SUNPOU
100
AcDbLine
 10
3449.999985648745
 20
1357.403415746123
 30
0.0
 11
3449.999985648745
 21
2102.632833953865
 31
0.0
1001
ACAD
1000
DSTYLE
1002
{
1070
    78
1070
     8
1070
   284
1070
     8
1070
   140
1040
3.0
1070
   145
1040
1.0
1070
    74
1070
     0
1070
   172
1070
     1
1070
    73
1070
     0
1070
    77
1070
     1
1070
    40
1040
60.0
1070
   147
1040
0.8
1070
   287
1070
     5
1070
    42
1040
1.5
1070
    44
1040
0.6
1070
    43
1040
7.0
1070
   271
1070
     0
1070
   177
1070
   256
1070
   176
1070
   256
1070
   141
1040
0.0
1070
   275
1070
     1
1070
    41
1040
1.5
1070
   285
1070
     8
1070
   286
1070
     8
1002
}
  0
TEXT
  5
15F
330
C3
100
AcDbEntity
  8
SUNPOU
100
AcDbText
 10
1304.999985648761
 20
3317.403415746123
 30
0.0
 40
150.0
  1
D10
 41
0.8
 11
1304.999985648761
 21
3392.403415746123
 31
0.0
100
AcDbText
 73
     2
  0
TEXT
  5
160
330
C3
100
AcDbEntity
  8
SUNPOU
100
AcDbText
 10
2684.999985648759
 20
3317.403415746123
 30
0.0
 40
150.0
  1
D10
 41
0.8
 11
2684.999985648759
 21
3392.403415746123
 31
0.0
100
AcDbText
 73
     2
  0
LINE
  5
161
330
C3
100
AcDbEntity
  8
SUNPOU
100
AcDbLine
 10
2279.999985648759
 20
3227.403415746123
 30
0.0
 11
3059.999985648759
 21
3227.403415746123
 31
0.0
1001
ACAD
1000
DSTYLE
1002
{
1070
    78
1070
     8
1070
   284
1070
     8
1070
   140
1040
3.0
1070
   145
1040
1.0
1070
    74
1070
     0
1070
   172
1070
     1
1070
    73
1070
     0
1070
    77
1070
     1
1070
    40
1040
60.0
1070
   147
1040
0.8
1070
   287
1070
     5
1070
    42
1040
1.5
1070
    44
1040
0.6
1070
    43
1040
7.0
1070
   271
1070
     0
1070
   177
1070
   256
1070
   176
1070
   256
1070
   141
1040
0.0
1070
   275
1070
     1
1070
    41
1040
1.5
1070
   285
1070
     8
1070
   286
1070
     8
1002
}
  0
TEXT
  5
162
330
C3
100
AcDbEntity
  8
SUNPOU
100
AcDbText
 10
2359.999985648759
 20
3317.403415746123
 30
0.0
 40
150.0
  1
H4
 41
0.8
 72
     4
 11
2459.999985648759
 21
3392.403415746123
 31
0.0
100
AcDbText
  0
CIRCLE
  5
163
330
C3
100
AcDbEntity
  8
SUNPOU
100
AcDbCircle
 10
2459.999985648759
 20
3392.403415746123
 30
0.0
 40
165.0
  0
TEXT
  5
164
330
C3
100
AcDbEntity
  8
SUNPOU
100
AcDbText
 10
2239.999985648754
 20
4105.403415746121
 30
0.0
 40
210.0
  1
内　側
 72
     2
 11
2939.999985648754
 21
4077.403415746121
 31
0.0
100
AcDbText
 73
     1
  0
LINE
  5
165
330
C3
100
AcDbEntity
  8
HAIKIN
 62
     3
100
AcDbLine
 10
1889.999985648752
 20
4587.403415746125
 30
0.0
 11
1889.999985648752
 21
4887.403415746125
 31
0.0
  0
SOLID
  5
166
330
C3
100
AcDbEntity
  8
SUNPOU
100
AcDbTrace
 10
2559.999985648748
 20
1342.403415746126
 30
0.0000000000000092
 11
2469.999985648748
 21
1357.403415746126
 31
0.0000000000000092
 12
2559.999985648748
 22
1372.403415746126
 32
0.0000000000000092
 13
2559.999985648748
 23
1372.403415746126
 33
0.0000000000000092
1001
ACAD
1000
DSTYLE
1002
{
1070
    78
1070
     8
1070
   284
1070
     8
1070
   140
1040
3.0
1070
   145
1040
1.0
1070
    74
1070
     0
1070
   172
1070
     1
1070
    73
1070
     0
1070
    77
1070
     1
1070
    40
1040
60.0
1070
   147
1040
0.8
1070
   287
1070
     5
1070
    42
1040
1.5
1070
    44
1040
0.6
1070
    43
1040
7.0
1070
   271
1070
     0
1070
   177
1070
   256
1070
   176
1070
   256
1070
   141
1040
0.0
1070
   275
1070
     1
1070
    41
1040
1.5
1070
   285
1070
     8
1070
   286
1070
     8
1002
}
  0
SOLID
  5
167
330
C3
100
AcDbEntity
  8
SUNPOU
100
AcDbTrace
 10
2679.99998564875
 20
1342.403415746126
 30
0.0000000000000092
 11
2589.99998564875
 21
1357.403415746126
 31
0.0000000000000092
 12
2679.99998564875
 22
1372.403415746126
 32
0.0000000000000092
 13
2679.99998564875
 23
1372.403415746126
 33
0.0000000000000092
1001
ACAD
1000
DSTYLE
1002
{
1070
    78
1070
     8
1070
   284
1070
     8
1070
   140
1040
3.0
1070
   145
1040
1.0
1070
    74
1070
     0
1070
   172
1070
     1
1070
    73
1070
     0
1070
    77
1070
     1
1070
    40
1040
60.0
1070
   147
1040
0.8
1070
   287
1070
     5
1070
    42
1040
1.5
1070
    44
1040
0.6
1070
    43
1040
7.0
1070
   271
1070
     0
1070
   177
1070
   256
1070
   176
1070
   256
1070
   141
1040
0.0
1070
   275
1070
     1
1070
    41
1040
1.5
1070
   285
1070
     8
1070
   286
1070
     8
1002
}
  0
SOLID
  5
168
330
C3
100
AcDbEntity
  8
SUNPOU
100
AcDbTrace
 10
2619.99998564875
 20
1342.403415746126
 30
0.0000000000000092
 11
2529.99998564875
 21
1357.403415746126
 31
0.0000000000000092
 12
2619.99998564875
 22
1372.403415746126
 32
0.0000000000000092
 13
2619.99998564875
 23
1372.403415746126
 33
0.0000000000000092
1001
ACAD
1000
DSTYLE
1002
{
1070
    78
1070
     8
1070
   284
1070
     8
1070
   140
1040
3.0
1070
   145
1040
1.0
1070
    74
1070
     0
1070
   172
1070
     1
1070
    73
1070
     0
1070
    77
1070
     1
1070
    40
1040
60.0
1070
   147
1040
0.8
1070
   287
1070
     5
1070
    42
1040
1.5
1070
    44
1040
0.6
1070
    43
1040
7.0
1070
   271
1070
     0
1070
   177
1070
   256
1070
   176
1070
   256
1070
   141
1040
0.0
1070
   275
1070
     1
1070
    41
1040
1.5
1070
   285
1070
     8
1070
   286
1070
     8
1002
}
  0
ENDBLK
  5
16A
330
C3
100
AcDbEntity
  8
0
100
AcDbBlockEnd
  0
BLOCK
  5
15C8
330
15BD
100
AcDbEntity
  8
0
100
AcDbBlockBegin
  2
*D8
 70
     1
 10
0.0
 20
0.0
 30
0.0
  3
*D8
  1

  0
LINE
  5
24EA
330
15BD
100
AcDbEntity
  8
SUNPOU
 62
     0
370
    -2
100
AcDbLine
 10
4133.619214790448
 20
4561.37725961332
 30
0.0
 11
4438.619214790448
 21
4561.37725961332
 31
0.0
  0
LINE
  5
24EB
330
15BD
100
AcDbEntity
  8
SUNPOU
 62
     0
370
    -2
100
AcDbLine
 10
4133.619214790448
 20
4631.37725961332
 30
0.0
 11
4438.619214790448
 21
4631.37725961332
 31
0.0
  0
LINE
  5
24EC
330
15BD
100
AcDbEntity
  8
SUNPOU
 62
     0
370
    -2
100
AcDbLine
 10
4423.619214790448
 20
4501.37725961332
 30
0.0
 11
4423.619214790448
 21
4441.37725961332
 31
0.0
  0
LINE
  5
24ED
330
15BD
100
AcDbEntity
  8
SUNPOU
 62
     0
370
    -2
100
AcDbLine
 10
4423.619214790448
 20
4691.37725961332
 30
0.0
 11
4423.619214790448
 21
4751.37725961332
 31
0.0
  0
SOLID
  5
24EE
330
15BD
100
AcDbEntity
  8
SUNPOU
 62
     0
100
AcDbTrace
 10
4413.619214790448
 20
4501.37725961332
 30
0.0
 11
4433.619214790448
 21
4501.37725961332
 31
0.0
 12
4423.619214790448
 22
4561.37725961332
 32
0.0
 13
4423.619214790448
 23
4561.37725961332
 33
0.0
  0
SOLID
  5
24EF
330
15BD
100
AcDbEntity
  8
SUNPOU
 62
     0
100
AcDbTrace
 10
4413.619214790448
 20
4691.37725961332
 30
0.0
 11
4433.619214790448
 21
4691.37725961332
 31
0.0
 12
4423.619214790448
 22
4631.37725961332
 32
0.0
 13
4423.619214790448
 23
4631.37725961332
 33
0.0
  0
MTEXT
  5
24F0
330
15BD
100
AcDbEntity
  8
SUNPOU
 62
     0
100
AcDbMText
 10
4354.619214790447
 20
4596.377259613321
 30
0.0
 40
90.0
 41
0.0
 71
     5
 72
     1
  1
\A1;70
 11
6.123031769111886E-17
 21
1.0
 31
0.0
 73
     1
 44
1.0
  0
POINT
  5
24F1
330
15BD
100
AcDbEntity
  8
DEFPOINTS
 62
     0
100
AcDbPoint
 10
4073.619214790448
 20
4561.37725961332
 30
0.0
  0
POINT
  5
24F2
330
15BD
100
AcDbEntity
  8
DEFPOINTS
 62
     0
100
AcDbPoint
 10
4073.619214790448
 20
4631.37725961332
 30
0.0
  0
POINT
  5
24F3
330
15BD
100
AcDbEntity
  8
DEFPOINTS
 62
     0
100
AcDbPoint
 10
4423.619214790448
 20
4631.37725961332
 30
0.0
  0
ENDBLK
  5
15C9
330
15BD
100
AcDbEntity
  8
0
100
AcDbBlockEnd
  0
BLOCK
  5
1606
330
15FC
100
AcDbEntity
  8
0
100
AcDbBlockBegin
  2
*D9
 70
     1
 10
0.0
 20
0.0
 30
0.0
  3
*D9
  1

  0
LINE
  5
2587
330
15FC
100
AcDbEntity
  8
SUNPOU
 62
     0
370
    -2
100
AcDbLine
 10
6130.470840394337
 20
4961.377259613321
 30
0.0
 11
5785.195595037687
 21
4961.377259613321
 31
0.0
  0
LINE
  5
2588
330
15FC
100
AcDbEntity
  8
SUNPOU
 62
     0
370
    -2
100
AcDbLine
 10
6190.470840394337
 20
6561.37725961332
 30
0.0
 11
5785.195595037688
 21
6561.377259613321
 31
0.0
  0
LINE
  5
2589
330
15FC
100
AcDbEntity
  8
SUNPOU
 62
     0
370
    -2
100
AcDbLine
 10
5800.195595037687
 20
5021.377259613321
 30
0.0
 11
5800.195595037688
 21
6501.377259613321
 31
0.0
  0
SOLID
  5
258A
330
15FC
100
AcDbEntity
  8
SUNPOU
 62
     0
100
AcDbTrace
 10
5790.195595037687
 20
5021.377259613321
 30
0.0
 11
5810.195595037687
 21
5021.377259613321
 31
0.0
 12
5800.195595037687
 22
4961.377259613321
 32
0.0
 13
5800.195595037687
 23
4961.377259613321
 33
0.0
  0
SOLID
  5
258B
330
15FC
100
AcDbEntity
  8
SUNPOU
 62
     0
100
AcDbTrace
 10
5790.195595037688
 20
6501.377259613321
 30
0.0
 11
5810.195595037688
 21
6501.377259613321
 31
0.0
 12
5800.195595037688
 22
6561.377259613321
 32
0.0
 13
5800.195595037688
 23
6561.377259613321
 33
0.0
  0
MTEXT
  5
258C
330
15FC
100
AcDbEntity
  8
SUNPOU
 62
     0
100
AcDbMText
 10
5731.195595037686
 20
5761.377259613322
 30
0.0
 40
90.0
 41
0.0
 71
     5
 72
     1
  1
\A1;1600
 11
6.123031769111886E-17
 21
1.0
 31
0.0
 73
     1
 44
1.0
  0
POINT
  5
258D
330
15FC
100
AcDbEntity
  8
DEFPOINTS
 62
     0
100
AcDbPoint
 10
6190.470840394337
 20
4961.37725961332
 30
0.0
  0
POINT
  5
258E
330
15FC
100
AcDbEntity
  8
DEFPOINTS
 62
     0
100
AcDbPoint
 10
6250.470840394337
 20
6561.37725961332
 30
0.0
  0
POINT
  5
258F
330
15FC
100
AcDbEntity
  8
DEFPOINTS
 62
     0
100
AcDbPoint
 10
5800.195595037688
 20
6561.377259613321
 30
0.0
  0
ENDBLK
  5
1607
330
15FC
100
AcDbEntity
  8
0
100
AcDbBlockEnd
  0
BLOCK
  5
1698
330
168E
100
AcDbEntity
  8
0
100
AcDbBlockBegin
  2
*D10
 70
     1
 10
0.0
 20
0.0
 30
0.0
  3
*D10
  1

  0
LINE
  5
2590
330
168E
100
AcDbEntity
  8
SUNPOU
 62
     0
370
    -2
100
AcDbLine
 10
8250.470840394337
 20
2711.924734603683
 30
0.0
 11
8250.470840394337
 21
3219.087582539731
 31
0.0
  0
LINE
  5
2591
330
168E
100
AcDbEntity
  8
SUNPOU
 62
     0
370
    -2
100
AcDbLine
 10
6250.470840394337
 20
2711.924734603683
 30
0.0
 11
6250.470840394337
 21
3219.087582539731
 31
0.0
  0
LINE
  5
2592
330
168E
100
AcDbEntity
  8
SUNPOU
 62
     0
370
    -2
100
AcDbLine
 10
8190.470840394337
 20
3204.087582539731
 30
0.0
 11
6310.470840394337
 21
3204.087582539731
 31
0.0
  0
SOLID
  5
2593
330
168E
100
AcDbEntity
  8
SUNPOU
 62
     0
100
AcDbTrace
 10
8190.470840394337
 20
3214.087582539731
 30
0.0
 11
8190.470840394337
 21
3194.087582539731
 31
0.0
 12
8250.470840394337
 22
3204.087582539731
 32
0.0
 13
8250.470840394337
 23
3204.087582539731
 33
0.0
  0
SOLID
  5
2594
330
168E
100
AcDbEntity
  8
SUNPOU
 62
     0
100
AcDbTrace
 10
6310.470840394337
 20
3214.087582539731
 30
0.0
 11
6310.470840394337
 21
3194.087582539731
 31
0.0
 12
6250.470840394337
 22
3204.087582539731
 32
0.0
 13
6250.470840394337
 23
3204.087582539731
 33
0.0
  0
MTEXT
  5
2595
330
168E
100
AcDbEntity
  8
SUNPOU
 62
     0
100
AcDbMText
 10
7250.470840394337
 20
3273.087582539731
 30
0.0
 40
90.0
 41
0.0
 71
     5
 72
     1
  1
\A1;2000
 73
     1
 44
1.0
  0
POINT
  5
2596
330
168E
100
AcDbEntity
  8
DEFPOINTS
 62
     0
100
AcDbPoint
 10
8250.470840394337
 20
2651.924734603683
 30
0.0
  0
POINT
  5
2597
330
168E
100
AcDbEntity
  8
DEFPOINTS
 62
     0
100
AcDbPoint
 10
6250.470840394337
 20
2651.924734603683
 30
0.0
  0
POINT
  5
2598
330
168E
100
AcDbEntity
  8
DEFPOINTS
 62
     0
100
AcDbPoint
 10
6250.470840394337
 20
3204.087582539731
 30
0.0
  0
ENDBLK
  5
1699
330
168E
100
AcDbEntity
  8
0
100
AcDbBlockEnd
  0
BLOCK
  5
174D
330
1743
100
AcDbEntity
  8
0
100
AcDbBlockBegin
  2
*D11
 70
     1
 10
0.0
 20
0.0
 30
0.0
  3
*D11
  1

  0
LINE
  5
251A
330
1743
100
AcDbEntity
  8
SUNPOU
 62
     0
370
    -2
100
AcDbLine
 10
6190.470840394337
 20
4561.37725961332
 30
0.0
 11
5785.195595037687
 21
4561.377259613321
 31
0.0
  0
LINE
  5
251B
330
1743
100
AcDbEntity
  8
SUNPOU
 62
     0
370
    -2
100
AcDbLine
 10
6190.470840394337
 20
4961.37725961332
 30
0.0
 11
5785.195595037687
 21
4961.377259613321
 31
0.0
  0
LINE
  5
251C
330
1743
100
AcDbEntity
  8
SUNPOU
 62
     0
370
    -2
100
AcDbLine
 10
5800.195595037687
 20
4621.377259613321
 30
0.0
 11
5800.195595037687
 21
4901.377259613321
 31
0.0
  0
SOLID
  5
251D
330
1743
100
AcDbEntity
  8
SUNPOU
 62
     0
100
AcDbTrace
 10
5790.195595037687
 20
4621.377259613321
 30
0.0
 11
5810.195595037687
 21
4621.377259613321
 31
0.0
 12
5800.195595037687
 22
4561.377259613321
 32
0.0
 13
5800.195595037687
 23
4561.377259613321
 33
0.0
  0
SOLID
  5
251E
330
1743
100
AcDbEntity
  8
SUNPOU
 62
     0
100
AcDbTrace
 10
5790.195595037687
 20
4901.377259613321
 30
0.0
 11
5810.195595037687
 21
4901.377259613321
 31
0.0
 12
5800.195595037687
 22
4961.377259613321
 32
0.0
 13
5800.195595037687
 23
4961.377259613321
 33
0.0
  0
MTEXT
  5
251F
330
1743
100
AcDbEntity
  8
SUNPOU
 62
     0
100
AcDbMText
 10
5731.195595037686
 20
4761.377259613322
 30
0.0
 40
90.0
 41
0.0
 71
     5
 72
     1
  1
\A1;400
 11
6.123031769111886E-17
 21
1.0
 31
0.0
 73
     1
 44
1.0
  0
POINT
  5
2520
330
1743
100
AcDbEntity
  8
DEFPOINTS
 62
     0
100
AcDbPoint
 10
6250.470840394337
 20
4561.37725961332
 30
0.0
  0
POINT
  5
2521
330
1743
100
AcDbEntity
  8
DEFPOINTS
 62
     0
100
AcDbPoint
 10
6250.470840394337
 20
4961.37725961332
 30
0.0
  0
POINT
  5
2522
330
1743
100
AcDbEntity
  8
DEFPOINTS
 62
     0
100
AcDbPoint
 10
5800.195595037687
 20
4961.377259613321
 30
0.0
  0
ENDBLK
  5
174E
330
1743
100
AcDbEntity
  8
0
100
AcDbBlockEnd
  0
BLOCK
  5
177D
330
1773
100
AcDbEntity
  8
0
100
AcDbBlockBegin
  2
*D12
 70
     1
 10
0.0
 20
0.0
 30
0.0
  3
*D12
  1

  0
LINE
  5
2523
330
1773
100
AcDbEntity
  8
SUNPOU
 62
     0
370
    -2
100
AcDbLine
 10
6190.470840394337
 20
6561.37725961332
 30
0.0
 11
5583.876943472876
 21
6561.377259613321
 31
0.0
  0
LINE
  5
2524
330
1773
100
AcDbEntity
  8
SUNPOU
 62
     0
370
    -2
100
AcDbLine
 10
6190.470840394337
 20
4561.37725961332
 30
0.0
 11
5583.876943472875
 21
4561.377259613321
 31
0.0
  0
LINE
  5
2525
330
1773
100
AcDbEntity
  8
SUNPOU
 62
     0
370
    -2
100
AcDbLine
 10
5598.876943472876
 20
6501.377259613321
 30
0.0
 11
5598.876943472875
 21
4621.377259613321
 31
0.0
  0
SOLID
  5
2526
330
1773
100
AcDbEntity
  8
SUNPOU
 62
     0
100
AcDbTrace
 10
5588.876943472876
 20
6501.377259613321
 30
0.0
 11
5608.876943472876
 21
6501.377259613321
 31
0.0
 12
5598.876943472876
 22
6561.377259613321
 32
0.0
 13
5598.876943472876
 23
6561.377259613321
 33
0.0
  0
SOLID
  5
2527
330
1773
100
AcDbEntity
  8
SUNPOU
 62
     0
100
AcDbTrace
 10
5588.876943472875
 20
4621.377259613321
 30
0.0
 11
5608.876943472875
 21
4621.377259613321
 31
0.0
 12
5598.876943472875
 22
4561.377259613321
 32
0.0
 13
5598.876943472875
 23
4561.377259613321
 33
0.0
  0
MTEXT
  5
2528
330
1773
100
AcDbEntity
  8
SUNPOU
 62
     0
100
AcDbMText
 10
5529.876943472874
 20
5561.377259613322
 30
0.0
 40
90.0
 41
0.0
 71
     5
 72
     1
  1
\A1;2000
 11
6.123031769111886E-17
 21
1.0
 31
0.0
 73
     1
 44
1.0
  0
POINT
  5
2529
330
1773
100
AcDbEntity
  8
DEFPOINTS
 62
     0
100
AcDbPoint
 10
6250.470840394337
 20
6561.37725961332
 30
0.0
  0
POINT
  5
252A
330
1773
100
AcDbEntity
  8
DEFPOINTS
 62
     0
100
AcDbPoint
 10
6250.470840394337
 20
4561.37725961332
 30
0.0
  0
POINT
  5
252B
330
1773
100
AcDbEntity
  8
DEFPOINTS
 62
     0
100
AcDbPoint
 10
5598.876943472875
 20
4561.377259613321
 30
0.0
  0
ENDBLK
  5
177E
330
1773
100
AcDbEntity
  8
0
100
AcDbBlockEnd
  0
BLOCK
  5
1789
330
177F
100
AcDbEntity
  8
0
100
AcDbBlockBegin
  2
*D13
 70
     1
 10
0.0
 20
0.0
 30
0.0
  3
*D13
  1

  0
LINE
  5
252C
330
177F
100
AcDbEntity
  8
SUNPOU
 62
     0
370
    -2
100
AcDbLine
 10
6250.470840394337
 20
6621.37725961332
 30
0.0
 11
6250.470840394337
 21
7226.37725961332
 31
0.0
  0
LINE
  5
252D
330
177F
100
AcDbEntity
  8
SUNPOU
 62
     0
370
    -2
100
AcDbLine
 10
8250.470840394337
 20
6621.37725961332
 30
0.0
 11
8250.470840394337
 21
7226.37725961332
 31
0.0
  0
LINE
  5
252E
330
177F
100
AcDbEntity
  8
SUNPOU
 62
     0
370
    -2
100
AcDbLine
 10
6310.470840394337
 20
7211.37725961332
 30
0.0
 11
8190.470840394337
 21
7211.37725961332
 31
0.0
  0
SOLID
  5
252F
330
177F
100
AcDbEntity
  8
SUNPOU
 62
     0
100
AcDbTrace
 10
6310.470840394337
 20
7221.37725961332
 30
0.0
 11
6310.470840394337
 21
7201.37725961332
 31
0.0
 12
6250.470840394337
 22
7211.37725961332
 32
0.0
 13
6250.470840394337
 23
7211.37725961332
 33
0.0
  0
SOLID
  5
2530
330
177F
100
AcDbEntity
  8
SUNPOU
 62
     0
100
AcDbTrace
 10
8190.470840394337
 20
7221.37725961332
 30
0.0
 11
8190.470840394337
 21
7201.37725961332
 31
0.0
 12
8250.470840394337
 22
7211.37725961332
 32
0.0
 13
8250.470840394337
 23
7211.37725961332
 33
0.0
  0
MTEXT
  5
2531
330
177F
100
AcDbEntity
  8
SUNPOU
 62
     0
100
AcDbMText
 10
7250.470840394337
 20
7280.37725961332
 30
0.0
 40
90.0
 41
0.0
 71
     5
 72
     1
  1
\A1;2000
 73
     1
 44
1.0
  0
POINT
  5
2532
330
177F
100
AcDbEntity
  8
DEFPOINTS
 62
     0
100
AcDbPoint
 10
6250.470840394337
 20
6561.37725961332
 30
0.0
  0
POINT
  5
2533
330
177F
100
AcDbEntity
  8
DEFPOINTS
 62
     0
100
AcDbPoint
 10
8250.470840394337
 20
6561.37725961332
 30
0.0
  0
POINT
  5
2534
330
177F
100
AcDbEntity
  8
DEFPOINTS
 62
     0
100
AcDbPoint
 10
8250.470840394337
 20
7211.37725961332
 30
0.0
  0
ENDBLK
  5
178A
330
177F
100
AcDbEntity
  8
0
100
AcDbBlockEnd
  0
BLOCK
  5
1795
330
178B
100
AcDbEntity
  8
0
100
AcDbBlockBegin
  2
*D14
 70
     1
 10
0.0
 20
0.0
 30
0.0
  3
*D14
  1

  0
LINE
  5
2535
330
178B
100
AcDbEntity
  8
SUNPOU
 62
     0
370
    -2
100
AcDbLine
 10
6250.470840394337
 20
4501.37725961332
 30
0.0
 11
6250.470840394337
 21
3896.37725961332
 31
0.0
  0
LINE
  5
2536
330
178B
100
AcDbEntity
  8
SUNPOU
 62
     0
370
    -2
100
AcDbLine
 10
6750.470840394337
 20
4501.37725961332
 30
0.0
 11
6750.470840394337
 21
3896.37725961332
 31
0.0
  0
LINE
  5
2537
330
178B
100
AcDbEntity
  8
SUNPOU
 62
     0
370
    -2
100
AcDbLine
 10
6310.470840394337
 20
3911.37725961332
 30
0.0
 11
6690.470840394337
 21
3911.37725961332
 31
0.0
  0
SOLID
  5
2538
330
178B
100
AcDbEntity
  8
SUNPOU
 62
     0
100
AcDbTrace
 10
6310.470840394337
 20
3921.37725961332
 30
0.0
 11
6310.470840394337
 21
3901.37725961332
 31
0.0
 12
6250.470840394337
 22
3911.37725961332
 32
0.0
 13
6250.470840394337
 23
3911.37725961332
 33
0.0
  0
SOLID
  5
2539
330
178B
100
AcDbEntity
  8
SUNPOU
 62
     0
100
AcDbTrace
 10
6690.470840394337
 20
3921.37725961332
 30
0.0
 11
6690.470840394337
 21
3901.37725961332
 31
0.0
 12
6750.470840394337
 22
3911.37725961332
 32
0.0
 13
6750.470840394337
 23
3911.37725961332
 33
0.0
  0
MTEXT
  5
253A
330
178B
100
AcDbEntity
  8
SUNPOU
 62
     0
100
AcDbMText
 10
6500.470840394337
 20
3980.37725961332
 30
0.0
 40
90.0
 41
0.0
 71
     5
 72
     1
  1
\A1;500
 73
     1
 44
1.0
  0
POINT
  5
253B
330
178B
100
AcDbEntity
  8
DEFPOINTS
 62
     0
100
AcDbPoint
 10
6250.470840394337
 20
4561.37725961332
 30
0.0
  0
POINT
  5
253C
330
178B
100
AcDbEntity
  8
DEFPOINTS
 62
     0
100
AcDbPoint
 10
6750.470840394337
 20
4561.37725961332
 30
0.0
  0
POINT
  5
253D
330
178B
100
AcDbEntity
  8
DEFPOINTS
 62
     0
100
AcDbPoint
 10
6750.470840394337
 20
3911.37725961332
 30
0.0
  0
ENDBLK
  5
1796
330
178B
100
AcDbEntity
  8
0
100
AcDbBlockEnd
  0
BLOCK
  5
17A1
330
1797
100
AcDbEntity
  8
0
100
AcDbBlockBegin
  2
*D15
 70
     1
 10
0.0
 20
0.0
 30
0.0
  3
*D15
  1

  0
LINE
  5
253E
330
1797
100
AcDbEntity
  8
SUNPOU
 62
     0
370
    -2
100
AcDbLine
 10
6750.470840394337
 20
4501.37725961332
 30
0.0
 11
6750.470840394337
 21
3896.37725961332
 31
0.0
  0
LINE
  5
253F
330
1797
100
AcDbEntity
  8
SUNPOU
 62
     0
370
    -2
100
AcDbLine
 10
7250.470840394337
 20
4401.377259613319
 30
0.0
 11
7250.470840394337
 21
3896.37725961332
 31
0.0
  0
LINE
  5
2540
330
1797
100
AcDbEntity
  8
SUNPOU
 62
     0
370
    -2
100
AcDbLine
 10
6810.470840394337
 20
3911.37725961332
 30
0.0
 11
7190.470840394337
 21
3911.37725961332
 31
0.0
  0
SOLID
  5
2541
330
1797
100
AcDbEntity
  8
SUNPOU
 62
     0
100
AcDbTrace
 10
6810.470840394337
 20
3921.37725961332
 30
0.0
 11
6810.470840394337
 21
3901.37725961332
 31
0.0
 12
6750.470840394337
 22
3911.37725961332
 32
0.0
 13
6750.470840394337
 23
3911.37725961332
 33
0.0
  0
SOLID
  5
2542
330
1797
100
AcDbEntity
  8
SUNPOU
 62
     0
100
AcDbTrace
 10
7190.470840394337
 20
3921.37725961332
 30
0.0
 11
7190.470840394337
 21
3901.37725961332
 31
0.0
 12
7250.470840394337
 22
3911.37725961332
 32
0.0
 13
7250.470840394337
 23
3911.37725961332
 33
0.0
  0
MTEXT
  5
2543
330
1797
100
AcDbEntity
  8
SUNPOU
 62
     0
100
AcDbMText
 10
7000.470840394337
 20
3980.37725961332
 30
0.0
 40
90.0
 41
0.0
 71
     5
 72
     1
  1
\A1;500
 73
     1
 44
1.0
  0
POINT
  5
2544
330
1797
100
AcDbEntity
  8
DEFPOINTS
 62
     0
100
AcDbPoint
 10
6750.470840394337
 20
4561.37725961332
 30
0.0
  0
POINT
  5
2545
330
1797
100
AcDbEntity
  8
DEFPOINTS
 62
     0
100
AcDbPoint
 10
7250.470840394337
 20
4461.377259613319
 30
0.0
  0
POINT
  5
2546
330
1797
100
AcDbEntity
  8
DEFPOINTS
 62
     0
100
AcDbPoint
 10
7250.470840394337
 20
3911.37725961332
 30
0.0
  0
ENDBLK
  5
17A2
330
1797
100
AcDbEntity
  8
0
100
AcDbBlockEnd
  0
BLOCK
  5
17AD
330
17A3
100
AcDbEntity
  8
0
100
AcDbBlockBegin
  2
*D16
 70
     1
 10
0.0
 20
0.0
 30
0.0
  3
*D16
  1

  0
LINE
  5
2547
330
17A3
100
AcDbEntity
  8
SUNPOU
 62
     0
370
    -2
100
AcDbLine
 10
8250.470840394337
 20
4501.37725961332
 30
0.0
 11
8250.470840394337
 21
3896.37725961332
 31
0.0
  0
LINE
  5
2548
330
17A3
100
AcDbEntity
  8
SUNPOU
 62
     0
370
    -2
100
AcDbLine
 10
7750.470840394337
 20
4501.37725961332
 30
0.0
 11
7750.470840394337
 21
3896.37725961332
 31
0.0
  0
LINE
  5
2549
330
17A3
100
AcDbEntity
  8
SUNPOU
 62
     0
370
    -2
100
AcDbLine
 10
8190.470840394337
 20
3911.37725961332
 30
0.0
 11
7810.470840394337
 21
3911.37725961332
 31
0.0
  0
SOLID
  5
254A
330
17A3
100
AcDbEntity
  8
SUNPOU
 62
     0
100
AcDbTrace
 10
8190.470840394337
 20
3921.37725961332
 30
0.0
 11
8190.470840394337
 21
3901.37725961332
 31
0.0
 12
8250.470840394337
 22
3911.37725961332
 32
0.0
 13
8250.470840394337
 23
3911.37725961332
 33
0.0
  0
SOLID
  5
254B
330
17A3
100
AcDbEntity
  8
SUNPOU
 62
     0
100
AcDbTrace
 10
7810.470840394337
 20
3921.37725961332
 30
0.0
 11
7810.470840394337
 21
3901.37725961332
 31
0.0
 12
7750.470840394337
 22
3911.37725961332
 32
0.0
 13
7750.470840394337
 23
3911.37725961332
 33
0.0
  0
MTEXT
  5
254C
330
17A3
100
AcDbEntity
  8
SUNPOU
 62
     0
100
AcDbMText
 10
8000.470840394337
 20
3980.37725961332
 30
0.0
 40
90.0
 41
0.0
 71
     5
 72
     1
  1
\A1;500
 73
     1
 44
1.0
  0
POINT
  5
254D
330
17A3
100
AcDbEntity
  8
DEFPOINTS
 62
     0
100
AcDbPoint
 10
8250.470840394337
 20
4561.37725961332
 30
0.0
  0
POINT
  5
254E
330
17A3
100
AcDbEntity
  8
DEFPOINTS
 62
     0
100
AcDbPoint
 10
7750.470840394337
 20
4561.37725961332
 30
0.0
  0
POINT
  5
254F
330
17A3
100
AcDbEntity
  8
DEFPOINTS
 62
     0
100
AcDbPoint
 10
7750.470840394337
 20
3911.37725961332
 30
0.0
  0
ENDBLK
  5
17AE
330
17A3
100
AcDbEntity
  8
0
100
AcDbBlockEnd
  0
BLOCK
  5
17B9
330
17AF
100
AcDbEntity
  8
0
100
AcDbBlockBegin
  2
*D17
 70
     1
 10
0.0
 20
0.0
 30
0.0
  3
*D17
  1

  0
LINE
  5
2550
330
17AF
100
AcDbEntity
  8
SUNPOU
 62
     0
370
    -2
100
AcDbLine
 10
7750.470840394337
 20
4501.37725961332
 30
0.0
 11
7750.470840394337
 21
3896.37725961332
 31
0.0
  0
LINE
  5
2551
330
17AF
100
AcDbEntity
  8
SUNPOU
 62
     0
370
    -2
100
AcDbLine
 10
7250.470840394337
 20
4401.377259613319
 30
0.0
 11
7250.470840394337
 21
3896.37725961332
 31
0.0
  0
LINE
  5
2552
330
17AF
100
AcDbEntity
  8
SUNPOU
 62
     0
370
    -2
100
AcDbLine
 10
7690.470840394337
 20
3911.37725961332
 30
0.0
 11
7310.470840394337
 21
3911.37725961332
 31
0.0
  0
SOLID
  5
2553
330
17AF
100
AcDbEntity
  8
SUNPOU
 62
     0
100
AcDbTrace
 10
7690.470840394337
 20
3921.37725961332
 30
0.0
 11
7690.470840394337
 21
3901.37725961332
 31
0.0
 12
7750.470840394337
 22
3911.37725961332
 32
0.0
 13
7750.470840394337
 23
3911.37725961332
 33
0.0
  0
SOLID
  5
2554
330
17AF
100
AcDbEntity
  8
SUNPOU
 62
     0
100
AcDbTrace
 10
7310.470840394337
 20
3921.37725961332
 30
0.0
 11
7310.470840394337
 21
3901.37725961332
 31
0.0
 12
7250.470840394337
 22
3911.37725961332
 32
0.0
 13
7250.470840394337
 23
3911.37725961332
 33
0.0
  0
MTEXT
  5
2555
330
17AF
100
AcDbEntity
  8
SUNPOU
 62
     0
100
AcDbMText
 10
7500.470840394337
 20
3980.37725961332
 30
0.0
 40
90.0
 41
0.0
 71
     5
 72
     1
  1
\A1;500
 73
     1
 44
1.0
  0
POINT
  5
2556
330
17AF
100
AcDbEntity
  8
DEFPOINTS
 62
     0
100
AcDbPoint
 10
7750.470840394337
 20
4561.37725961332
 30
0.0
  0
POINT
  5
2557
330
17AF
100
AcDbEntity
  8
DEFPOINTS
 62
     0
100
AcDbPoint
 10
7250.470840394337
 20
4461.377259613319
 30
0.0
  0
POINT
  5
2558
330
17AF
100
AcDbEntity
  8
DEFPOINTS
 62
     0
100
AcDbPoint
 10
7250.470840394337
 20
3911.37725961332
 30
0.0
  0
ENDBLK
  5
17BA
330
17AF
100
AcDbEntity
  8
0
100
AcDbBlockEnd
  0
BLOCK
  5
17C5
330
17BB
100
AcDbEntity
  8
0
100
AcDbBlockBegin
  2
*D18
 70
     1
 10
0.0
 20
0.0
 30
0.0
  3
*D18
  1

  0
LINE
  5
2559
330
17BB
100
AcDbEntity
  8
SUNPOU
 62
     0
370
    -2
100
AcDbLine
 10
6190.470840394337
 20
2651.924734603683
 30
0.0
 11
5368.455165232387
 21
2651.924734603683
 31
0.0
  0
LINE
  5
255A
330
17BB
100
AcDbEntity
  8
SUNPOU
 62
     0
370
    -2
100
AcDbLine
 10
6190.470840394337
 20
1201.924734603683
 30
0.0
 11
5368.455165232386
 21
1201.924734603683
 31
0.0
  0
LINE
  5
255B
330
17BB
100
AcDbEntity
  8
SUNPOU
 62
     0
370
    -2
100
AcDbLine
 10
5383.455165232387
 20
2591.924734603683
 30
0.0
 11
5383.455165232386
 21
1261.924734603683
 31
0.0
  0
SOLID
  5
255C
330
17BB
100
AcDbEntity
  8
SUNPOU
 62
     0
100
AcDbTrace
 10
5373.455165232387
 20
2591.924734603683
 30
0.0
 11
5393.455165232387
 21
2591.924734603683
 31
0.0
 12
5383.455165232387
 22
2651.924734603683
 32
0.0
 13
5383.455165232387
 23
2651.924734603683
 33
0.0
  0
SOLID
  5
255D
330
17BB
100
AcDbEntity
  8
SUNPOU
 62
     0
100
AcDbTrace
 10
5373.455165232386
 20
1261.924734603683
 30
0.0
 11
5393.455165232386
 21
1261.924734603683
 31
0.0
 12
5383.455165232386
 22
1201.924734603683
 32
0.0
 13
5383.455165232386
 23
1201.924734603683
 33
0.0
  0
MTEXT
  5
255E
330
17BB
100
AcDbEntity
  8
SUNPOU
 62
     0
100
AcDbMText
 10
5314.455165232386
 20
1926.924734603684
 30
0.0
 40
90.0
 41
0.0
 71
     5
 72
     1
  1
\A1;1450
 11
6.123031769111886E-17
 21
1.0
 31
0.0
 73
     1
 44
1.0
  0
POINT
  5
255F
330
17BB
100
AcDbEntity
  8
DEFPOINTS
 62
     0
100
AcDbPoint
 10
6250.470840394337
 20
2651.924734603683
 30
0.0
  0
POINT
  5
2560
330
17BB
100
AcDbEntity
  8
DEFPOINTS
 62
     0
100
AcDbPoint
 10
6250.470840394337
 20
1201.924734603683
 30
0.0
  0
POINT
  5
2561
330
17BB
100
AcDbEntity
  8
DEFPOINTS
 62
     0
100
AcDbPoint
 10
5383.455165232386
 20
1201.924734603683
 30
0.0
  0
ENDBLK
  5
17C6
330
17BB
100
AcDbEntity
  8
0
100
AcDbBlockEnd
  0
BLOCK
  5
17D1
330
17C7
100
AcDbEntity
  8
0
100
AcDbBlockBegin
  2
*D19
 70
     1
 10
0.0
 20
0.0
 30
0.0
  3
*D19
  1

  0
LINE
  5
2615
330
17C7
100
AcDbEntity
  8
SUNPOU
 62
     0
370
    -2
100
AcDbLine
 10
6190.470840394337
 20
2651.924734603683
 30
0.0
 11
5585.470840394337
 21
2651.924734603683
 31
0.0
  0
LINE
  5
2616
330
17C7
100
AcDbEntity
  8
SUNPOU
 62
     0
370
    -2
100
AcDbLine
 10
6190.470840394337
 20
2416.524734603683
 30
0.0
 11
5585.470840394337
 21
2416.524734603683
 31
0.0
  0
LINE
  5
2617
330
17C7
100
AcDbEntity
  8
SUNPOU
 62
     0
370
    -2
100
AcDbLine
 10
5600.470840394337
 20
2591.924734603683
 30
0.0
 11
5600.470840394337
 21
2476.524734603683
 31
0.0
  0
MTEXT
  5
2618
330
17C7
100
AcDbEntity
  8
SUNPOU
 62
     0
100
AcDbMText
 10
5531.470840394336
 20
2534.224734603683
 30
0.0
 40
90.0
 41
0.0
 71
     5
 72
     1
  1
\A1;235
 11
6.123031769111886E-17
 21
1.0
 31
0.0
 73
     1
 44
1.0
  0
SOLID
  5
2619
330
17C7
100
AcDbEntity
  8
SUNPOU
 62
     0
100
AcDbTrace
 10
5590.470840394337
 20
2591.924734603683
 30
0.0
 11
5610.470840394337
 21
2591.924734603683
 31
0.0
 12
5600.470840394337
 22
2651.924734603683
 32
0.0
 13
5600.470840394337
 23
2651.924734603683
 33
0.0
  0
SOLID
  5
261A
330
17C7
100
AcDbEntity
  8
SUNPOU
 62
     0
100
AcDbTrace
 10
5590.470840394337
 20
2476.524734603683
 30
0.0
 11
5610.470840394337
 21
2476.524734603683
 31
0.0
 12
5600.470840394337
 22
2416.524734603683
 32
0.0
 13
5600.470840394337
 23
2416.524734603683
 33
0.0
  0
POINT
  5
261B
330
17C7
100
AcDbEntity
  8
DEFPOINTS
 62
     0
100
AcDbPoint
 10
6250.470840394337
 20
2651.924734603683
 30
0.0
  0
POINT
  5
261C
330
17C7
100
AcDbEntity
  8
DEFPOINTS
 62
     0
100
AcDbPoint
 10
6250.470840394337
 20
2416.524734603683
 30
0.0
  0
POINT
  5
261D
330
17C7
100
AcDbEntity
  8
DEFPOINTS
 62
     0
100
AcDbPoint
 10
5600.470840394337
 20
2416.524734603683
 30
0.0
  0
ENDBLK
  5
17D2
330
17C7
100
AcDbEntity
  8
0
100
AcDbBlockEnd
  0
BLOCK
  5
17DE
330
17D3
100
AcDbEntity
  8
0
100
AcDbBlockBegin
  2
*D20
 70
     1
 10
0.0
 20
0.0
 30
0.0
  3
*D20
  1

  0
LINE
  5
25F8
330
17D3
100
AcDbEntity
  8
SUNPOU
 62
     0
370
    -2
100
AcDbLine
 10
6190.470840394337
 20
2416.524734603683
 30
0.0
 11
5585.470840394337
 21
2416.524734603683
 31
0.0
  0
LINE
  5
25F9
330
17D3
100
AcDbEntity
  8
SUNPOU
 62
     0
370
    -2
100
AcDbLine
 10
6240.470840394337
 20
2329.922194225237
 30
0.0
 11
5585.470840394337
 21
2329.922194225237
 31
0.0
  0
LINE
  5
25FA
330
17D3
100
AcDbEntity
  8
SUNPOU
 62
     0
370
    -2
100
AcDbLine
 10
5600.470840394337
 20
2476.524734603683
 30
0.0
 11
5600.470840394337
 21
2536.524734603683
 31
0.0
  0
LINE
  5
25FB
330
17D3
100
AcDbEntity
  8
SUNPOU
 62
     0
370
    -2
100
AcDbLine
 10
5600.470840394337
 20
2269.922194225237
 30
0.0
 11
5600.470840394337
 21
2209.922194225237
 31
0.0
  0
MTEXT
  5
25FC
330
17D3
100
AcDbEntity
  8
SUNPOU
 62
     0
100
AcDbMText
 10
5531.470840394336
 20
2349.300552320895
 30
0.0
 40
90.0
 41
0.0
 71
     5
 72
     1
  1
\A1;87
 11
6.123031769111886E-17
 21
1.0
 31
0.0
 73
     1
 44
1.0
  0
SOLID
  5
25FD
330
17D3
100
AcDbEntity
  8
SUNPOU
 62
     0
100
AcDbTrace
 10
5590.470840394337
 20
2476.524734603683
 30
0.0
 11
5610.470840394337
 21
2476.524734603683
 31
0.0
 12
5600.470840394337
 22
2416.524734603683
 32
0.0
 13
5600.470840394337
 23
2416.524734603683
 33
0.0
  0
SOLID
  5
25FE
330
17D3
100
AcDbEntity
  8
SUNPOU
 62
     0
100
AcDbTrace
 10
5590.470840394337
 20
2269.922194225237
 30
0.0
 11
5610.470840394337
 21
2269.922194225237
 31
0.0
 12
5600.470840394337
 22
2329.922194225237
 32
0.0
 13
5600.470840394337
 23
2329.922194225237
 33
0.0
  0
POINT
  5
25FF
330
17D3
100
AcDbEntity
  8
DEFPOINTS
 62
     0
100
AcDbPoint
 10
6250.470840394337
 20
2416.524734603683
 30
0.0
  0
POINT
  5
2600
330
17D3
100
AcDbEntity
  8
DEFPOINTS
 62
     0
100
AcDbPoint
 10
6300.470840394337
 20
2329.922194225237
 30
0.0
  0
POINT
  5
2601
330
17D3
100
AcDbEntity
  8
DEFPOINTS
 62
     0
100
AcDbPoint
 10
5600.470840394337
 20
2329.922194225237
 30
0.0
  0
ENDBLK
  5
17DF
330
17D3
100
AcDbEntity
  8
0
100
AcDbBlockEnd
  0
BLOCK
  5
17EA
330
17E0
100
AcDbEntity
  8
0
100
AcDbBlockBegin
  2
*D21
 70
     1
 10
0.0
 20
0.0
 30
0.0
  3
*D21
  1

  0
LINE
  5
260C
330
17E0
100
AcDbEntity
  8
SUNPOU
 62
     0
370
    -2
100
AcDbLine
 10
6240.470840394337
 20
2329.922194225237
 30
0.0
 11
5585.470840394338
 21
2329.922194225237
 31
0.0
  0
LINE
  5
260D
330
17E0
100
AcDbEntity
  8
SUNPOU
 62
     0
370
    -2
100
AcDbLine
 10
6240.470840394337
 20
1201.924734603683
 30
0.0
 11
5585.470840394337
 21
1201.924734603683
 31
0.0
  0
LINE
  5
260E
330
17E0
100
AcDbEntity
  8
SUNPOU
 62
     0
370
    -2
100
AcDbLine
 10
5600.470840394338
 20
2269.922194225237
 30
0.0
 11
5600.470840394337
 21
1261.924734603683
 31
0.0
  0
SOLID
  5
260F
330
17E0
100
AcDbEntity
  8
SUNPOU
 62
     0
100
AcDbTrace
 10
5590.470840394338
 20
2269.922194225237
 30
0.0
 11
5610.470840394338
 21
2269.922194225237
 31
0.0
 12
5600.470840394338
 22
2329.922194225237
 32
0.0
 13
5600.470840394338
 23
2329.922194225237
 33
0.0
  0
SOLID
  5
2610
330
17E0
100
AcDbEntity
  8
SUNPOU
 62
     0
100
AcDbTrace
 10
5590.470840394337
 20
1261.924734603683
 30
0.0
 11
5610.470840394337
 21
1261.924734603683
 31
0.0
 12
5600.470840394337
 22
1201.924734603683
 32
0.0
 13
5600.470840394337
 23
1201.924734603683
 33
0.0
  0
MTEXT
  5
2611
330
17E0
100
AcDbEntity
  8
SUNPOU
 62
     0
100
AcDbMText
 10
5531.470840394337
 20
1765.923464414461
 30
0.0
 40
90.0
 41
0.0
 71
     5
 72
     1
  1
\A1;1128
 11
6.123031769111886E-17
 21
1.0
 31
0.0
 73
     1
 44
1.0
  0
POINT
  5
2612
330
17E0
100
AcDbEntity
  8
DEFPOINTS
 62
     0
100
AcDbPoint
 10
6300.470840394337
 20
2329.922194225237
 30
0.0
  0
POINT
  5
2613
330
17E0
100
AcDbEntity
  8
DEFPOINTS
 62
     0
100
AcDbPoint
 10
6300.470840394337
 20
1201.924734603683
 30
0.0
  0
POINT
  5
2614
330
17E0
100
AcDbEntity
  8
DEFPOINTS
 62
     0
100
AcDbPoint
 10
5600.470840394337
 20
1201.924734603683
 30
0.0
  0
ENDBLK
  5
17EB
330
17E0
100
AcDbEntity
  8
0
100
AcDbBlockEnd
  0
BLOCK
  5
18C0
330
18B6
100
AcDbEntity
  8
0
100
AcDbBlockBegin
  2
*D22
 70
     1
 10
0.0
 20
0.0
 30
0.0
  3
*D22
  1

  0
LINE
  5
257E
330
18B6
100
AcDbEntity
  8
SUNPOU
 62
     0
370
    -2
100
AcDbLine
 10
8200.904513595764
 20
1141.924734603683
 30
0.0
 11
8200.904513595764
 21
659.8191090382134
 31
0.0
  0
LINE
  5
257F
330
18B6
100
AcDbEntity
  8
SUNPOU
 62
     0
370
    -2
100
AcDbLine
 10
6300.470840394337
 20
1141.924734603683
 30
0.0
 11
6300.470840394337
 21
659.8191090382134
 31
0.0
  0
LINE
  5
2580
330
18B6
100
AcDbEntity
  8
SUNPOU
 62
     0
370
    -2
100
AcDbLine
 10
8140.904513595764
 20
674.8191090382134
 30
0.0
 11
6360.470840394337
 21
674.8191090382134
 31
0.0
  0
SOLID
  5
2581
330
18B6
100
AcDbEntity
  8
SUNPOU
 62
     0
100
AcDbTrace
 10
8140.904513595764
 20
684.8191090382134
 30
0.0
 11
8140.904513595764
 21
664.8191090382134
 31
0.0
 12
8200.904513595764
 22
674.8191090382134
 32
0.0
 13
8200.904513595764
 23
674.8191090382134
 33
0.0
  0
SOLID
  5
2582
330
18B6
100
AcDbEntity
  8
SUNPOU
 62
     0
100
AcDbTrace
 10
6360.470840394337
 20
684.8191090382134
 30
0.0
 11
6360.470840394337
 21
664.8191090382134
 31
0.0
 12
6300.470840394337
 22
674.8191090382134
 32
0.0
 13
6300.470840394337
 23
674.8191090382134
 33
0.0
  0
MTEXT
  5
2583
330
18B6
100
AcDbEntity
  8
SUNPOU
 62
     0
100
AcDbMText
 10
7250.68767699505
 20
743.8191090382134
 30
0.0
 40
90.0
 41
0.0
 71
     5
 72
     1
  1
\A1;1900
 73
     1
 44
1.0
  0
POINT
  5
2584
330
18B6
100
AcDbEntity
  8
DEFPOINTS
 62
     0
100
AcDbPoint
 10
8200.904513595764
 20
1201.924734603683
 30
0.0
  0
POINT
  5
2585
330
18B6
100
AcDbEntity
  8
DEFPOINTS
 62
     0
100
AcDbPoint
 10
6300.470840394337
 20
1201.924734603683
 30
0.0
  0
POINT
  5
2586
330
18B6
100
AcDbEntity
  8
DEFPOINTS
 62
     0
100
AcDbPoint
 10
6300.470840394337
 20
674.8191090382134
 30
0.0
  0
ENDBLK
  5
18C1
330
18B6
100
AcDbEntity
  8
0
100
AcDbBlockEnd
  0
BLOCK
  5
197A
330
1970
100
AcDbEntity
  8
0
100
AcDbBlockBegin
  2
*D23
 70
     1
 10
0.0
 20
0.0
 30
0.0
  3
*D23
  1

  0
LINE
  5
248D
330
1970
100
AcDbEntity
  8
SUNPOU
 62
     0
370
    -2
100
AcDbLine
 10
2623.619214790448
 20
4501.37725961332
 30
0.0
 11
2623.619214790448
 21
3860.177673661419
 31
0.0
  0
LINE
  5
248E
330
1970
100
AcDbEntity
  8
SUNPOU
 62
     0
370
    -2
100
AcDbLine
 10
4073.619214790448
 20
4501.37725961332
 30
0.0
 11
4073.619214790448
 21
3860.177673661419
 31
0.0
  0
LINE
  5
248F
330
1970
100
AcDbEntity
  8
SUNPOU
 62
     0
370
    -2
100
AcDbLine
 10
2683.619214790448
 20
3875.177673661419
 30
0.0
 11
4013.619214790448
 21
3875.177673661419
 31
0.0
  0
SOLID
  5
2490
330
1970
100
AcDbEntity
  8
SUNPOU
 62
     0
100
AcDbTrace
 10
2683.619214790448
 20
3885.177673661419
 30
0.0
 11
2683.619214790448
 21
3865.177673661419
 31
0.0
 12
2623.619214790448
 22
3875.177673661419
 32
0.0
 13
2623.619214790448
 23
3875.177673661419
 33
0.0
  0
SOLID
  5
2491
330
1970
100
AcDbEntity
  8
SUNPOU
 62
     0
100
AcDbTrace
 10
4013.619214790448
 20
3885.177673661419
 30
0.0
 11
4013.619214790448
 21
3865.177673661419
 31
0.0
 12
4073.619214790448
 22
3875.177673661419
 32
0.0
 13
4073.619214790448
 23
3875.177673661419
 33
0.0
  0
MTEXT
  5
2492
330
1970
100
AcDbEntity
  8
SUNPOU
 62
     0
100
AcDbMText
 10
3348.619214790448
 20
3944.177673661419
 30
0.0
 40
90.0
 41
0.0
 71
     5
 72
     1
  1
\A1;1450
 73
     1
 44
1.0
  0
POINT
  5
2493
330
1970
100
AcDbEntity
  8
DEFPOINTS
 62
     0
100
AcDbPoint
 10
2623.619214790448
 20
4561.37725961332
 30
0.0
  0
POINT
  5
2494
330
1970
100
AcDbEntity
  8
DEFPOINTS
 62
     0
100
AcDbPoint
 10
4073.619214790448
 20
4561.37725961332
 30
0.0
  0
POINT
  5
2495
330
1970
100
AcDbEntity
  8
DEFPOINTS
 62
     0
100
AcDbPoint
 10
4073.619214790448
 20
3875.177673661419
 30
0.0
  0
ENDBLK
  5
197B
330
1970
100
AcDbEntity
  8
0
100
AcDbBlockEnd
  0
BLOCK
  5
1986
330
197C
100
AcDbEntity
  8
0
100
AcDbBlockBegin
  2
*D24
 70
     1
 10
0.0
 20
0.0
 30
0.0
  3
*D24
  1

  0
LINE
  5
2496
330
197C
100
AcDbEntity
  8
SUNPOU
 62
     0
370
    -2
100
AcDbLine
 10
2763.619214790448
 20
4501.37725961332
 30
0.0
 11
2763.619214790448
 21
4041.067196757191
 31
0.0
  0
LINE
  5
2497
330
197C
100
AcDbEntity
  8
SUNPOU
 62
     0
370
    -2
100
AcDbLine
 10
4073.619214790448
 20
4501.37725961332
 30
0.0
 11
4073.619214790448
 21
4041.067196757191
 31
0.0
  0
LINE
  5
2498
330
197C
100
AcDbEntity
  8
SUNPOU
 62
     0
370
    -2
100
AcDbLine
 10
2823.619214790448
 20
4056.067196757191
 30
0.0
 11
4013.619214790448
 21
4056.067196757191
 31
0.0
  0
SOLID
  5
2499
330
197C
100
AcDbEntity
  8
SUNPOU
 62
     0
100
AcDbTrace
 10
2823.619214790448
 20
4066.067196757191
 30
0.0
 11
2823.619214790448
 21
4046.067196757191
 31
0.0
 12
2763.619214790448
 22
4056.067196757191
 32
0.0
 13
2763.619214790448
 23
4056.067196757191
 33
0.0
  0
SOLID
  5
249A
330
197C
100
AcDbEntity
  8
SUNPOU
 62
     0
100
AcDbTrace
 10
4013.619214790448
 20
4066.067196757191
 30
0.0
 11
4013.619214790448
 21
4046.067196757191
 31
0.0
 12
4073.619214790448
 22
4056.067196757191
 32
0.0
 13
4073.619214790448
 23
4056.067196757191
 33
0.0
  0
MTEXT
  5
249B
330
197C
100
AcDbEntity
  8
SUNPOU
 62
     0
100
AcDbMText
 10
3418.619214790448
 20
4125.067196757191
 30
0.0
 40
90.0
 41
0.0
 71
     5
 72
     1
  1
\A1;1310
 73
     1
 44
1.0
  0
POINT
  5
249C
330
197C
100
AcDbEntity
  8
DEFPOINTS
 62
     0
100
AcDbPoint
 10
2763.619214790448
 20
4561.37725961332
 30
0.0
  0
POINT
  5
249D
330
197C
100
AcDbEntity
  8
DEFPOINTS
 62
     0
100
AcDbPoint
 10
4073.619214790448
 20
4561.37725961332
 30
0.0
  0
POINT
  5
249E
330
197C
100
AcDbEntity
  8
DEFPOINTS
 62
     0
100
AcDbPoint
 10
4073.619214790448
 20
4056.067196757191
 30
0.0
  0
ENDBLK
  5
1987
330
197C
100
AcDbEntity
  8
0
100
AcDbBlockEnd
  0
BLOCK
  5
1993
330
1988
100
AcDbEntity
  8
0
100
AcDbBlockBegin
  2
*D25
 70
     1
 10
0.0
 20
0.0
 30
0.0
  3
*D25
  1

  0
LINE
  5
249F
330
1988
100
AcDbEntity
  8
SUNPOU
 62
     0
370
    -2
100
AcDbLine
 10
2623.619214790448
 20
4501.37725961332
 30
0.0
 11
2623.619214790448
 21
4041.067196757191
 31
0.0
  0
LINE
  5
24A0
330
1988
100
AcDbEntity
  8
SUNPOU
 62
     0
370
    -2
100
AcDbLine
 10
2763.619214790448
 20
4501.37725961332
 30
0.0
 11
2763.619214790448
 21
4041.067196757191
 31
0.0
  0
LINE
  5
24A1
330
1988
100
AcDbEntity
  8
SUNPOU
 62
     0
370
    -2
100
AcDbLine
 10
2563.619214790448
 20
4056.067196757191
 30
0.0
 11
2503.619214790448
 21
4056.067196757191
 31
0.0
  0
LINE
  5
24A2
330
1988
100
AcDbEntity
  8
SUNPOU
 62
     0
370
    -2
100
AcDbLine
 10
2823.619214790448
 20
4056.067196757191
 30
0.0
 11
2883.619214790448
 21
4056.067196757191
 31
0.0
  0
SOLID
  5
24A3
330
1988
100
AcDbEntity
  8
SUNPOU
 62
     0
100
AcDbTrace
 10
2563.619214790448
 20
4066.067196757191
 30
0.0
 11
2563.619214790448
 21
4046.067196757191
 31
0.0
 12
2623.619214790448
 22
4056.067196757191
 32
0.0
 13
2623.619214790448
 23
4056.067196757191
 33
0.0
  0
SOLID
  5
24A4
330
1988
100
AcDbEntity
  8
SUNPOU
 62
     0
100
AcDbTrace
 10
2823.619214790448
 20
4066.067196757191
 30
0.0
 11
2823.619214790448
 21
4046.067196757191
 31
0.0
 12
2763.619214790448
 22
4056.067196757191
 32
0.0
 13
2763.619214790448
 23
4056.067196757191
 33
0.0
  0
MTEXT
  5
24A5
330
1988
100
AcDbEntity
  8
SUNPOU
 62
     0
100
AcDbMText
 10
2693.619214790448
 20
4125.067196757191
 30
0.0
 40
90.0
 41
0.0
 71
     5
 72
     1
  1
\A1;140
 73
     1
 44
1.0
  0
POINT
  5
24A6
330
1988
100
AcDbEntity
  8
DEFPOINTS
 62
     0
100
AcDbPoint
 10
2623.619214790448
 20
4561.37725961332
 30
0.0
  0
POINT
  5
24A7
330
1988
100
AcDbEntity
  8
DEFPOINTS
 62
     0
100
AcDbPoint
 10
2763.619214790448
 20
4561.37725961332
 30
0.0
  0
POINT
  5
24A8
330
1988
100
AcDbEntity
  8
DEFPOINTS
 62
     0
100
AcDbPoint
 10
2763.619214790448
 20
4056.067196757191
 30
0.0
  0
ENDBLK
  5
1994
330
1988
100
AcDbEntity
  8
0
100
AcDbBlockEnd
  0
BLOCK
  5
19B7
330
19AD
100
AcDbEntity
  8
0
100
AcDbBlockBegin
  2
*D26
 70
     1
 10
0.0
 20
0.0
 30
0.0
  3
*D26
  1

  0
LINE
  5
24A9
330
19AD
100
AcDbEntity
  8
SUNPOU
 62
     0
370
    -2
100
AcDbLine
 10
2813.619214790448
 20
6151.37725961332
 30
0.0
 11
4438.619214790448
 21
6151.37725961332
 31
0.0
  0
LINE
  5
24AA
330
19AD
100
AcDbEntity
  8
SUNPOU
 62
     0
370
    -2
100
AcDbLine
 10
4133.619214790448
 20
4631.37725961332
 30
0.0
 11
4438.619214790448
 21
4631.37725961332
 31
0.0
  0
LINE
  5
24AB
330
19AD
100
AcDbEntity
  8
SUNPOU
 62
     0
370
    -2
100
AcDbLine
 10
4423.619214790448
 20
6091.37725961332
 30
0.0
 11
4423.619214790448
 21
4691.37725961332
 31
0.0
  0
SOLID
  5
24AC
330
19AD
100
AcDbEntity
  8
SUNPOU
 62
     0
100
AcDbTrace
 10
4413.619214790448
 20
6091.37725961332
 30
0.0
 11
4433.619214790448
 21
6091.37725961332
 31
0.0
 12
4423.619214790448
 22
6151.37725961332
 32
0.0
 13
4423.619214790448
 23
6151.37725961332
 33
0.0
  0
SOLID
  5
24AD
330
19AD
100
AcDbEntity
  8
SUNPOU
 62
     0
100
AcDbTrace
 10
4413.619214790448
 20
4691.37725961332
 30
0.0
 11
4433.619214790448
 21
4691.37725961332
 31
0.0
 12
4423.619214790448
 22
4631.37725961332
 32
0.0
 13
4423.619214790448
 23
4631.37725961332
 33
0.0
  0
MTEXT
  5
24AE
330
19AD
100
AcDbEntity
  8
SUNPOU
 62
     0
100
AcDbMText
 10
4354.619214790447
 20
5391.377259613321
 30
0.0
 40
90.0
 41
0.0
 71
     5
 72
     1
  1
\A1;1520
 11
6.123031769111886E-17
 21
1.0
 31
0.0
 73
     1
 44
1.0
  0
POINT
  5
24AF
330
19AD
100
AcDbEntity
  8
DEFPOINTS
 62
     0
100
AcDbPoint
 10
2753.619214790448
 20
6151.37725961332
 30
0.0
  0
POINT
  5
24B0
330
19AD
100
AcDbEntity
  8
DEFPOINTS
 62
     0
100
AcDbPoint
 10
4073.619214790448
 20
4631.37725961332
 30
0.0
  0
POINT
  5
24B1
330
19AD
100
AcDbEntity
  8
DEFPOINTS
 62
     0
100
AcDbPoint
 10
4423.619214790448
 20
4631.37725961332
 30
0.0
  0
ENDBLK
  5
19B8
330
19AD
100
AcDbEntity
  8
0
100
AcDbBlockEnd
  0
BLOCK
  5
19C3
330
19B9
100
AcDbEntity
  8
0
100
AcDbBlockBegin
  2
*D27
 70
     1
 10
0.0
 20
0.0
 30
0.0
  3
*D27
  1

  0
LINE
  5
24B2
330
19B9
100
AcDbEntity
  8
SUNPOU
 62
     0
370
    -2
100
AcDbLine
 10
2753.619214790448
 20
6561.37725961332
 30
0.0
 11
4438.619214790448
 21
6561.37725961332
 31
0.0
  0
LINE
  5
24B3
330
19B9
100
AcDbEntity
  8
SUNPOU
 62
     0
370
    -2
100
AcDbLine
 10
2753.619214790448
 20
6151.37725961332
 30
0.0
 11
4438.619214790448
 21
6151.37725961332
 31
0.0
  0
LINE
  5
24B4
330
19B9
100
AcDbEntity
  8
SUNPOU
 62
     0
370
    -2
100
AcDbLine
 10
4423.619214790448
 20
6501.37725961332
 30
0.0
 11
4423.619214790448
 21
6211.37725961332
 31
0.0
  0
SOLID
  5
24B5
330
19B9
100
AcDbEntity
  8
SUNPOU
 62
     0
100
AcDbTrace
 10
4413.619214790448
 20
6501.37725961332
 30
0.0
 11
4433.619214790448
 21
6501.37725961332
 31
0.0
 12
4423.619214790448
 22
6561.37725961332
 32
0.0
 13
4423.619214790448
 23
6561.37725961332
 33
0.0
  0
SOLID
  5
24B6
330
19B9
100
AcDbEntity
  8
SUNPOU
 62
     0
100
AcDbTrace
 10
4413.619214790448
 20
6211.37725961332
 30
0.0
 11
4433.619214790448
 21
6211.37725961332
 31
0.0
 12
4423.619214790448
 22
6151.37725961332
 32
0.0
 13
4423.619214790448
 23
6151.37725961332
 33
0.0
  0
MTEXT
  5
24B7
330
19B9
100
AcDbEntity
  8
SUNPOU
 62
     0
100
AcDbMText
 10
4354.619214790446
 20
6356.377259613321
 30
0.0
 40
90.0
 41
0.0
 71
     5
 72
     1
  1
\A1;410
 11
6.123031769111886E-17
 21
1.0
 31
0.0
 73
     1
 44
1.0
  0
POINT
  5
24B8
330
19B9
100
AcDbEntity
  8
DEFPOINTS
 62
     0
100
AcDbPoint
 10
2693.619214790448
 20
6561.37725961332
 30
0.0
  0
POINT
  5
24B9
330
19B9
100
AcDbEntity
  8
DEFPOINTS
 62
     0
100
AcDbPoint
 10
2693.619214790448
 20
6151.37725961332
 30
0.0
  0
POINT
  5
24BA
330
19B9
100
AcDbEntity
  8
DEFPOINTS
 62
     0
100
AcDbPoint
 10
4423.619214790448
 20
6151.37725961332
 30
0.0
  0
ENDBLK
  5
19C4
330
19B9
100
AcDbEntity
  8
0
100
AcDbBlockEnd
  0
BLOCK
  5
19EA
330
19DF
100
AcDbEntity
  8
0
100
AcDbBlockBegin
  2
*D28
 70
     1
 10
0.0
 20
0.0
 30
0.0
  3
*D28
  1

  0
LINE
  5
24BB
330
19DF
100
AcDbEntity
  8
SUNPOU
 62
     0
370
    -2
100
AcDbLine
 10
2623.619214790448
 20
6621.37725961332
 30
0.0
 11
2623.619214790448
 21
6926.37725961332
 31
0.0
  0
LINE
  5
24BC
330
19DF
100
AcDbEntity
  8
SUNPOU
 62
     0
370
    -2
100
AcDbLine
 10
2693.619214790448
 20
6621.37725961332
 30
0.0
 11
2693.619214790448
 21
6926.37725961332
 31
0.0
  0
LINE
  5
24BD
330
19DF
100
AcDbEntity
  8
SUNPOU
 62
     0
370
    -2
100
AcDbLine
 10
2563.619214790448
 20
6911.37725961332
 30
0.0
 11
2503.619214790448
 21
6911.37725961332
 31
0.0
  0
LINE
  5
24BE
330
19DF
100
AcDbEntity
  8
SUNPOU
 62
     0
370
    -2
100
AcDbLine
 10
2753.619214790448
 20
6911.37725961332
 30
0.0
 11
2813.619214790448
 21
6911.37725961332
 31
0.0
  0
SOLID
  5
24BF
330
19DF
100
AcDbEntity
  8
SUNPOU
 62
     0
100
AcDbTrace
 10
2563.619214790448
 20
6921.37725961332
 30
0.0
 11
2563.619214790448
 21
6901.37725961332
 31
0.0
 12
2623.619214790448
 22
6911.37725961332
 32
0.0
 13
2623.619214790448
 23
6911.37725961332
 33
0.0
  0
SOLID
  5
24C0
330
19DF
100
AcDbEntity
  8
SUNPOU
 62
     0
100
AcDbTrace
 10
2753.619214790448
 20
6921.37725961332
 30
0.0
 11
2753.619214790448
 21
6901.37725961332
 31
0.0
 12
2693.619214790448
 22
6911.37725961332
 32
0.0
 13
2693.619214790448
 23
6911.37725961332
 33
0.0
  0
MTEXT
  5
24C1
330
19DF
100
AcDbEntity
  8
SUNPOU
 62
     0
100
AcDbMText
 10
2658.619214790448
 20
6980.37725961332
 30
0.0
 40
90.0
 41
0.0
 71
     5
 72
     1
  1
\A1;70
 73
     1
 44
1.0
  0
POINT
  5
24C2
330
19DF
100
AcDbEntity
  8
DEFPOINTS
 62
     0
100
AcDbPoint
 10
2623.619214790448
 20
6561.37725961332
 30
0.0
  0
POINT
  5
24C3
330
19DF
100
AcDbEntity
  8
DEFPOINTS
 62
     0
100
AcDbPoint
 10
2693.619214790448
 20
6561.37725961332
 30
0.0
  0
POINT
  5
24C4
330
19DF
100
AcDbEntity
  8
DEFPOINTS
 62
     0
100
AcDbPoint
 10
2693.619214790448
 20
6911.37725961332
 30
0.0
  0
ENDBLK
  5
19EB
330
19DF
100
AcDbEntity
  8
0
100
AcDbBlockEnd
  0
BLOCK
  5
1A1A
330
1A10
100
AcDbEntity
  8
0
100
AcDbBlockBegin
  2
*D29
 70
     1
 10
0.0
 20
0.0
 30
0.0
  3
*D29
  1

  0
LINE
  5
24C5
330
1A10
100
AcDbEntity
  8
SUNPOU
 62
     0
370
    -2
100
AcDbLine
 10
2563.619214790448
 20
4701.37725961332
 30
0.0
 11
1848.361445263537
 21
4701.377259613321
 31
0.0
  0
LINE
  5
24C6
330
1A10
100
AcDbEntity
  8
SUNPOU
 62
     0
370
    -2
100
AcDbLine
 10
2563.619214790448
 20
6561.37725961332
 30
0.0
 11
1848.361445263538
 21
6561.377259613321
 31
0.0
  0
LINE
  5
24C7
330
1A10
100
AcDbEntity
  8
SUNPOU
 62
     0
370
    -2
100
AcDbLine
 10
1863.361445263537
 20
4761.377259613321
 30
0.0
 11
1863.361445263538
 21
6501.377259613321
 31
0.0
  0
SOLID
  5
24C8
330
1A10
100
AcDbEntity
  8
SUNPOU
 62
     0
100
AcDbTrace
 10
1853.361445263537
 20
4761.377259613321
 30
0.0
 11
1873.361445263537
 21
4761.377259613321
 31
0.0
 12
1863.361445263537
 22
4701.377259613321
 32
0.0
 13
1863.361445263537
 23
4701.377259613321
 33
0.0
  0
SOLID
  5
24C9
330
1A10
100
AcDbEntity
  8
SUNPOU
 62
     0
100
AcDbTrace
 10
1853.361445263538
 20
6501.377259613321
 30
0.0
 11
1873.361445263538
 21
6501.377259613321
 31
0.0
 12
1863.361445263538
 22
6561.377259613321
 32
0.0
 13
1863.361445263538
 23
6561.377259613321
 33
0.0
  0
MTEXT
  5
24CA
330
1A10
100
AcDbEntity
  8
SUNPOU
 62
     0
100
AcDbMText
 10
1794.361445263537
 20
5631.377259613321
 30
0.0
 40
90.0
 41
0.0
 71
     5
 72
     1
  1
\A1;1860
 11
6.123031769111886E-17
 21
1.0
 31
0.0
 73
     1
 44
1.0
  0
POINT
  5
24CB
330
1A10
100
AcDbEntity
  8
DEFPOINTS
 62
     0
100
AcDbPoint
 10
2623.619214790448
 20
4701.37725961332
 30
0.0
  0
POINT
  5
24CC
330
1A10
100
AcDbEntity
  8
DEFPOINTS
 62
     0
100
AcDbPoint
 10
2623.619214790448
 20
6561.37725961332
 30
0.0
  0
POINT
  5
24CD
330
1A10
100
AcDbEntity
  8
DEFPOINTS
 62
     0
100
AcDbPoint
 10
1863.361445263538
 20
6561.377259613321
 30
0.0
  0
ENDBLK
  5
1A1B
330
1A10
100
AcDbEntity
  8
0
100
AcDbBlockEnd
  0
BLOCK
  5
1A26
330
1A1C
100
AcDbEntity
  8
0
100
AcDbBlockBegin
  2
*D30
 70
     1
 10
0.0
 20
0.0
 30
0.0
  3
*D30
  1

  0
LINE
  5
24CE
330
1A1C
100
AcDbEntity
  8
SUNPOU
 62
     0
370
    -2
100
AcDbLine
 10
2563.619214790448
 20
6561.37725961332
 30
0.0
 11
1658.619214790448
 21
6561.377259613321
 31
0.0
  0
LINE
  5
24CF
330
1A1C
100
AcDbEntity
  8
SUNPOU
 62
     0
370
    -2
100
AcDbLine
 10
2563.619214790448
 20
4561.37725961332
 30
0.0
 11
1658.619214790448
 21
4561.377259613321
 31
0.0
  0
LINE
  5
24D0
330
1A1C
100
AcDbEntity
  8
SUNPOU
 62
     0
370
    -2
100
AcDbLine
 10
1673.619214790448
 20
6501.377259613321
 30
0.0
 11
1673.619214790448
 21
4621.377259613321
 31
0.0
  0
SOLID
  5
24D1
330
1A1C
100
AcDbEntity
  8
SUNPOU
 62
     0
100
AcDbTrace
 10
1663.619214790448
 20
6501.377259613321
 30
0.0
 11
1683.619214790448
 21
6501.377259613321
 31
0.0
 12
1673.619214790448
 22
6561.377259613321
 32
0.0
 13
1673.619214790448
 23
6561.377259613321
 33
0.0
  0
SOLID
  5
24D2
330
1A1C
100
AcDbEntity
  8
SUNPOU
 62
     0
100
AcDbTrace
 10
1663.619214790448
 20
4621.377259613321
 30
0.0
 11
1683.619214790448
 21
4621.377259613321
 31
0.0
 12
1673.619214790448
 22
4561.377259613321
 32
0.0
 13
1673.619214790448
 23
4561.377259613321
 33
0.0
  0
MTEXT
  5
24D3
330
1A1C
100
AcDbEntity
  8
SUNPOU
 62
     0
100
AcDbMText
 10
1604.619214790447
 20
5561.377259613321
 30
0.0
 40
90.0
 41
0.0
 71
     5
 72
     1
  1
\A1;2000
 11
6.123031769111886E-17
 21
1.0
 31
0.0
 73
     1
 44
1.0
  0
POINT
  5
24D4
330
1A1C
100
AcDbEntity
  8
DEFPOINTS
 62
     0
100
AcDbPoint
 10
2623.619214790448
 20
6561.37725961332
 30
0.0
  0
POINT
  5
24D5
330
1A1C
100
AcDbEntity
  8
DEFPOINTS
 62
     0
100
AcDbPoint
 10
2623.619214790448
 20
4561.37725961332
 30
0.0
  0
POINT
  5
24D6
330
1A1C
100
AcDbEntity
  8
DEFPOINTS
 62
     0
100
AcDbPoint
 10
1673.619214790448
 20
4561.377259613321
 30
0.0
  0
ENDBLK
  5
1A27
330
1A1C
100
AcDbEntity
  8
0
100
AcDbBlockEnd
  0
BLOCK
  5
1A32
330
1A28
100
AcDbEntity
  8
0
100
AcDbBlockBegin
  2
*D31
 70
     1
 10
0.0
 20
0.0
 30
0.0
  3
*D31
  1

  0
LINE
  5
24D7
330
1A28
100
AcDbEntity
  8
SUNPOU
 62
     0
370
    -2
100
AcDbLine
 10
2563.619214790448
 20
4561.37725961332
 30
0.0
 11
2108.619214790448
 21
4561.37725961332
 31
0.0
  0
LINE
  5
24D8
330
1A28
100
AcDbEntity
  8
SUNPOU
 62
     0
370
    -2
100
AcDbLine
 10
2517.249915552013
 20
4961.37725961332
 30
0.0
 11
2108.619214790448
 21
4961.37725961332
 31
0.0
  0
LINE
  5
24D9
330
1A28
100
AcDbEntity
  8
SUNPOU
 62
     0
370
    -2
100
AcDbLine
 10
2123.619214790448
 20
4621.37725961332
 30
0.0
 11
2123.619214790448
 21
4901.37725961332
 31
0.0
  0
SOLID
  5
24DA
330
1A28
100
AcDbEntity
  8
SUNPOU
 62
     0
100
AcDbTrace
 10
2113.619214790448
 20
4621.37725961332
 30
0.0
 11
2133.619214790448
 21
4621.37725961332
 31
0.0
 12
2123.619214790448
 22
4561.37725961332
 32
0.0
 13
2123.619214790448
 23
4561.37725961332
 33
0.0
  0
SOLID
  5
24DB
330
1A28
100
AcDbEntity
  8
SUNPOU
 62
     0
100
AcDbTrace
 10
2113.619214790448
 20
4901.37725961332
 30
0.0
 11
2133.619214790448
 21
4901.37725961332
 31
0.0
 12
2123.619214790448
 22
4961.37725961332
 32
0.0
 13
2123.619214790448
 23
4961.37725961332
 33
0.0
  0
MTEXT
  5
24DC
330
1A28
100
AcDbEntity
  8
SUNPOU
 62
     0
100
AcDbMText
 10
2054.619214790447
 20
4761.377259613321
 30
0.0
 40
90.0
 41
0.0
 71
     5
 72
     1
  1
\A1;400
 11
6.123031769111886E-17
 21
1.0
 31
0.0
 73
     1
 44
1.0
  0
POINT
  5
24DD
330
1A28
100
AcDbEntity
  8
DEFPOINTS
 62
     0
100
AcDbPoint
 10
2623.619214790448
 20
4561.37725961332
 30
0.0
  0
POINT
  5
24DE
330
1A28
100
AcDbEntity
  8
DEFPOINTS
 62
     0
100
AcDbPoint
 10
2577.249915552013
 20
4961.37725961332
 30
0.0
  0
POINT
  5
24DF
330
1A28
100
AcDbEntity
  8
DEFPOINTS
 62
     0
100
AcDbPoint
 10
2123.619214790448
 20
4961.37725961332
 30
0.0
  0
ENDBLK
  5
1A33
330
1A28
100
AcDbEntity
  8
0
100
AcDbBlockEnd
  0
BLOCK
  5
1A4A
330
1A40
100
AcDbEntity
  8
0
100
AcDbBlockBegin
  2
*D32
 70
     1
 10
0.0
 20
0.0
 30
0.0
  3
*D32
  1

  0
LINE
  5
24E0
330
1A40
100
AcDbEntity
  8
SUNPOU
 62
     0
370
    -2
100
AcDbLine
 10
2563.619214790448
 20
4561.37725961332
 30
0.0
 11
1848.361445263537
 21
4561.377259613321
 31
0.0
  0
LINE
  5
24E1
330
1A40
100
AcDbEntity
  8
SUNPOU
 62
     0
370
    -2
100
AcDbLine
 10
2563.619214790448
 20
4701.37725961332
 30
0.0
 11
1848.361445263537
 21
4701.377259613321
 31
0.0
  0
LINE
  5
24E2
330
1A40
100
AcDbEntity
  8
SUNPOU
 62
     0
370
    -2
100
AcDbLine
 10
1863.361445263537
 20
4501.377259613321
 30
0.0
 11
1863.361445263537
 21
4441.377259613321
 31
0.0
  0
LINE
  5
24E3
330
1A40
100
AcDbEntity
  8
SUNPOU
 62
     0
370
    -2
100
AcDbLine
 10
1863.361445263537
 20
4761.377259613321
 30
0.0
 11
1863.361445263537
 21
4821.377259613321
 31
0.0
  0
SOLID
  5
24E4
330
1A40
100
AcDbEntity
  8
SUNPOU
 62
     0
100
AcDbTrace
 10
1853.361445263537
 20
4501.377259613321
 30
0.0
 11
1873.361445263537
 21
4501.377259613321
 31
0.0
 12
1863.361445263537
 22
4561.377259613321
 32
0.0
 13
1863.361445263537
 23
4561.377259613321
 33
0.0
  0
SOLID
  5
24E5
330
1A40
100
AcDbEntity
  8
SUNPOU
 62
     0
100
AcDbTrace
 10
1853.361445263537
 20
4761.377259613321
 30
0.0
 11
1873.361445263537
 21
4761.377259613321
 31
0.0
 12
1863.361445263537
 22
4701.377259613321
 32
0.0
 13
1863.361445263537
 23
4701.377259613321
 33
0.0
  0
MTEXT
  5
24E6
330
1A40
100
AcDbEntity
  8
SUNPOU
 62
     0
100
AcDbMText
 10
1794.361445263537
 20
4631.377259613321
 30
0.0
 40
90.0
 41
0.0
 71
     5
 72
     1
  1
\A1;140
 11
6.123031769111886E-17
 21
1.0
 31
0.0
 73
     1
 44
1.0
  0
POINT
  5
24E7
330
1A40
100
AcDbEntity
  8
DEFPOINTS
 62
     0
100
AcDbPoint
 10
2623.619214790448
 20
4561.37725961332
 30
0.0
  0
POINT
  5
24E8
330
1A40
100
AcDbEntity
  8
DEFPOINTS
 62
     0
100
AcDbPoint
 10
2623.619214790448
 20
4701.37725961332
 30
0.0
  0
POINT
  5
24E9
330
1A40
100
AcDbEntity
  8
DEFPOINTS
 62
     0
100
AcDbPoint
 10
1863.361445263537
 20
4701.377259613321
 30
0.0
  0
ENDBLK
  5
1A4B
330
1A40
100
AcDbEntity
  8
0
100
AcDbBlockEnd
  0
BLOCK
  5
23B2
330
23A7
100
AcDbEntity
  8
0
100
AcDbBlockBegin
  2
*D33
 70
     1
 10
0.0
 20
0.0
 30
0.0
  3
*D33
  1

  0
LINE
  5
2599
330
23A7
100
AcDbEntity
  8
SUNPOU
 62
     0
370
    -2
100
AcDbLine
 10
6300.470840394337
 20
1141.924734603683
 30
0.0
 11
6300.470840394337
 21
659.8191090382134
 31
0.0
  0
LINE
  5
259A
330
23A7
100
AcDbEntity
  8
SUNPOU
 62
     0
370
    -2
100
AcDbLine
 10
6250.470840394337
 20
1141.924734603683
 30
0.0
 11
6250.470840394337
 21
659.8191090382134
 31
0.0
  0
LINE
  5
259B
330
23A7
100
AcDbEntity
  8
SUNPOU
 62
     0
370
    -2
100
AcDbLine
 10
6360.470840394337
 20
674.8191090382134
 30
0.0
 11
6420.470840394337
 21
674.8191090382134
 31
0.0
  0
LINE
  5
259C
330
23A7
100
AcDbEntity
  8
SUNPOU
 62
     0
370
    -2
100
AcDbLine
 10
6190.470840394337
 20
674.8191090382134
 30
0.0
 11
6130.470840394337
 21
674.8191090382134
 31
0.0
  0
SOLID
  5
259D
330
23A7
100
AcDbEntity
  8
SUNPOU
 62
     0
100
AcDbTrace
 10
6360.470840394337
 20
684.8191090382134
 30
0.0
 11
6360.470840394337
 21
664.8191090382134
 31
0.0
 12
6300.470840394337
 22
674.8191090382134
 32
0.0
 13
6300.470840394337
 23
674.8191090382134
 33
0.0
  0
SOLID
  5
259E
330
23A7
100
AcDbEntity
  8
SUNPOU
 62
     0
100
AcDbTrace
 10
6190.470840394337
 20
684.8191090382134
 30
0.0
 11
6190.470840394337
 21
664.8191090382134
 31
0.0
 12
6250.470840394337
 22
674.8191090382134
 32
0.0
 13
6250.470840394337
 23
674.8191090382134
 33
0.0
  0
MTEXT
  5
259F
330
23A7
100
AcDbEntity
  8
SUNPOU
 62
     0
100
AcDbMText
 10
6275.470840394337
 20
743.8191090382134
 30
0.0
 40
90.0
 41
0.0
 71
     5
 72
     1
  1
\A1;50
 73
     1
 44
1.0
  0
POINT
  5
25A0
330
23A7
100
AcDbEntity
  8
DEFPOINTS
 62
     0
100
AcDbPoint
 10
6300.470840394337
 20
1201.924734603683
 30
0.0
  0
POINT
  5
25A1
330
23A7
100
AcDbEntity
  8
DEFPOINTS
 62
     0
100
AcDbPoint
 10
6250.470840394337
 20
1201.924734603683
 30
0.0
  0
POINT
  5
25A2
330
23A7
100
AcDbEntity
  8
DEFPOINTS
 62
     0
100
AcDbPoint
 10
6250.470840394337
 20
674.8191090382134
 30
0.0
  0
ENDBLK
  5
23B3
330
23A7
100
AcDbEntity
  8
0
100
AcDbBlockEnd
  0
BLOCK
  5
23C0
330
23B5
100
AcDbEntity
  8
0
100
AcDbBlockBegin
  2
*D34
 70
     1
 10
0.0
 20
0.0
 30
0.0
  3
*D34
  1

  0
LINE
  5
25A3
330
23B5
100
AcDbEntity
  8
SUNPOU
 62
     0
370
    -2
100
AcDbLine
 10
8200.470840394337
 20
1141.924734603683
 30
0.0
 11
8200.470840394337
 21
659.8191090382134
 31
0.0
  0
LINE
  5
25A4
330
23B5
100
AcDbEntity
  8
SUNPOU
 62
     0
370
    -2
100
AcDbLine
 10
8250.470840394337
 20
1141.924734603683
 30
0.0
 11
8250.470840394337
 21
659.8191090382134
 31
0.0
  0
LINE
  5
25A5
330
23B5
100
AcDbEntity
  8
SUNPOU
 62
     0
370
    -2
100
AcDbLine
 10
8140.470840394337
 20
674.8191090382134
 30
0.0
 11
8080.470840394337
 21
674.8191090382134
 31
0.0
  0
LINE
  5
25A6
330
23B5
100
AcDbEntity
  8
SUNPOU
 62
     0
370
    -2
100
AcDbLine
 10
8310.470840394337
 20
674.8191090382134
 30
0.0
 11
8370.470840394337
 21
674.8191090382134
 31
0.0
  0
SOLID
  5
25A7
330
23B5
100
AcDbEntity
  8
SUNPOU
 62
     0
100
AcDbTrace
 10
8140.470840394337
 20
684.8191090382134
 30
0.0
 11
8140.470840394337
 21
664.8191090382134
 31
0.0
 12
8200.470840394337
 22
674.8191090382134
 32
0.0
 13
8200.470840394337
 23
674.8191090382134
 33
0.0
  0
SOLID
  5
25A8
330
23B5
100
AcDbEntity
  8
SUNPOU
 62
     0
100
AcDbTrace
 10
8310.470840394337
 20
684.8191090382134
 30
0.0
 11
8310.470840394337
 21
664.8191090382134
 31
0.0
 12
8250.470840394337
 22
674.8191090382134
 32
0.0
 13
8250.470840394337
 23
674.8191090382134
 33
0.0
  0
MTEXT
  5
25A9
330
23B5
100
AcDbEntity
  8
SUNPOU
 62
     0
100
AcDbMText
 10
8225.470840394337
 20
743.8191090382134
 30
0.0
 40
90.0
 41
0.0
 71
     5
 72
     1
  1
\A1;50
 73
     1
 44
1.0
  0
POINT
  5
25AA
330
23B5
100
AcDbEntity
  8
DEFPOINTS
 62
     0
100
AcDbPoint
 10
8200.470840394337
 20
1201.924734603683
 30
0.0
  0
POINT
  5
25AB
330
23B5
100
AcDbEntity
  8
DEFPOINTS
 62
     0
100
AcDbPoint
 10
8250.470840394337
 20
1201.924734603683
 30
0.0
  0
POINT
  5
25AC
330
23B5
100
AcDbEntity
  8
DEFPOINTS
 62
     0
100
AcDbPoint
 10
8250.470840394337
 20
674.8191090382134
 30
0.0
  0
ENDBLK
  5
23C1
330
23B5
100
AcDbEntity
  8
0
100
AcDbBlockEnd
  0
BLOCK
  5
262E
330
2622
100
AcDbEntity
  8
0
100
AcDbBlockBegin
  2
*D38
 70
     1
 10
0.0
 20
0.0
 30
0.0
  3
*D38
  1

  0
LINE
  5
2630
330
2622
100
AcDbEntity
  8
SUNPOU
 62
     0
370
    -2
100
AcDbLine
 10
8170.470840394339
 20
2277.96066999817
 30
0.0
 11
8094.243200907334
 21
2145.930525465629
 31
0.0
  0
LINE
  5
2631
330
2622
100
AcDbEntity
  8
SUNPOU
 62
     0
370
    -2
100
AcDbLine
 10
8250.470840394339
 20
2356.524734603683
 30
0.0
 11
8250.470840394337
 21
2104.069455629667
 31
0.0
  0
ARC
  5
2632
330
2622
100
AcDbEntity
  8
SUNPOU
 62
     0
370
    -2
100
AcDbCircle
 10
8250.470840394337
 20
2416.524734603683
 30
0.0
 40
297.4552789740159
100
AcDbArc
 50
251.5768718313279
 51
258.423128168673
  0
SOLID
  5
2633
330
2622
100
AcDbEntity
  8
SUNPOU
 62
     0
100
AcDbTrace
 10
8152.364371444723
 20
2125.194105704285
 30
0.0
 11
8160.56651384317
 21
2143.434852949823
 31
0.0
 12
8101.743200907334
 22
2158.920906522396
 32
0.0
 13
8101.743200907334
 23
2158.920906522396
 33
0.0
  0
SOLID
  5
2634
330
2622
100
AcDbEntity
  8
SUNPOU
 62
     0
100
AcDbTrace
 10
8191.785330270854
 20
2135.069796299369
 30
0.0
 11
8189.768220330599
 21
2115.171774601498
 31
0.0
 12
8250.470840394339
 22
2119.069455629667
 32
0.0
 13
8250.470840394339
 23
2119.069455629667
 33
0.0
  0
MTEXT
  5
2635
330
2622
100
AcDbEntity
  8
SUNPOU
 62
     0
100
AcDbMText
 10
8191.342263241655
 20
2195.853880490608
 30
0.0
 40
90.0
 41
0.0
 71
     5
 72
     1
  1
\A1;30°
 11
0.9659258262890698
 21
-0.2588190451025153
 31
0.0
 73
     1
 44
1.0
  0
POINT
  5
2636
330
2622
100
AcDbEntity
  8
DEFPOINTS
 62
     0
100
AcDbPoint
 10
8148.735143246671
 20
2137.008203937986
 30
0.0
  0
POINT
  5
2637
330
2622
100
AcDbEntity
  8
DEFPOINTS
 62
     0
100
AcDbPoint
 10
8250.470840394337
 20
2651.924734603682
 30
0.0
  0
POINT
  5
2638
330
2622
100
AcDbEntity
  8
DEFPOINTS
 62
     0
100
AcDbPoint
 10
8250.470840394337
 20
2416.524734603683
 30
0.0
  0
POINT
  5
2639
330
2622
100
AcDbEntity
  8
DEFPOINTS
 62
     0
100
AcDbPoint
 10
8200.470840394337
 20
2329.922194225236
 30
0.0
  0
POINT
  5
263A
330
2622
100
AcDbEntity
  8
DEFPOINTS
 62
     0
100
AcDbPoint
 10
8250.470840394337
 20
2416.524734603683
 30
0.0
  0
ENDBLK
  5
262F
330
2622
100
AcDbEntity
  8
0
100
AcDbBlockEnd
  0
ENDSEC
  0
SECTION
  2
ENTITIES
  0
TEXT
  5
5F
330
17
100
AcDbEntity
  8
SUNPOU
100
AcDbText
 10
11549.99999999999
 20
480.0
 30
0.0
 40
90.0
  1
30
100
AcDbText
  0
INSERT
  5
60
330
17
100
AcDbEntity
  8
HAIKIN
100
AcDbBlockReference
  2
SA3
 10
510.0
 20
0.0
 30
0.0
 41
30.0
 42
30.0
 43
30.0
  0
TEXT
  5
13F8
330
17
100
AcDbEntity
  8
HAIKIN
100
AcDbText
 10
4459.516951455509
 20
7761.473799078409
 30
0.0
 40
112.5
  1
デザインウォ－ル　H=2000  ( L=2000 )
 11
4459.516951455509
 21
7746.473799078409
 31
0.0
100
AcDbText
 73
     1
  0
TEXT
  5
13F9
330
17
100
AcDbEntity
  8
SUNPOU
100
AcDbText
 10
10267.24701859385
 20
975.0
 30
0.0
 40
75.0
  1
デザインウォ－ル H=2000 (L=2000)
100
AcDbText
  0
LINE
  5
13FA
330
17
100
AcDbEntity
  8
SEIHIN
100
AcDbLine
 10
6250.470840394337
 20
4561.37725961332
 30
0.0
 11
6250.470840394337
 21
6561.37725961332
 31
0.0
  0
LINE
  5
13FB
330
17
100
AcDbEntity
  8
SEIHIN
100
AcDbLine
 10
8250.470840394337
 20
4561.37725961332
 30
0.0
 11
8250.470840394337
 21
6561.37725961332
 31
0.0
  0
LINE
  5
13FC
330
17
100
AcDbEntity
  8
SEIHIN
100
AcDbLine
 10
6250.470840394337
 20
6561.37725961332
 30
0.0
 11
8250.470840394337
 21
6561.37725961332
 31
0.0
  0
LINE
  5
13FD
330
17
100
AcDbEntity
  8
SEIHIN
100
AcDbLine
 10
6250.470840394337
 20
4561.37725961332
 30
0.0
 11
8250.470840394337
 21
4561.37725961332
 31
0.0
  0
LINE
  5
13FF
330
17
100
AcDbEntity
  8
1HASEN
100
AcDbLine
 10
7250.470840394337
 20
6661.377259613319
 30
0.0
 11
7250.470840394337
 21
4461.377259613319
 31
0.0
  0
LINE
  5
140B
330
17
100
AcDbEntity
  8
1HASEN
100
AcDbLine
 10
6750.470840394337
 20
5061.377259613321
 30
0.0
 11
6750.470840394337
 21
4861.37725961332
 31
0.0
  0
LINE
  5
140C
330
17
100
AcDbEntity
  8
1HASEN
100
AcDbLine
 10
6650.470840394337
 20
4961.37725961332
 30
0.0
 11
6850.470840394337
 21
4961.37725961332
 31
0.0
  0
LINE
  5
140D
330
17
100
AcDbEntity
  8
1HASEN
100
AcDbLine
 10
7850.470840394337
 20
4961.37725961332
 30
0.0
 11
7650.470840394337
 21
4961.37725961332
 31
0.0
  0
LINE
  5
140E
330
17
100
AcDbEntity
  8
1HASEN
100
AcDbLine
 10
7750.470840394337
 20
5061.377259613321
 30
0.0
 11
7750.470840394337
 21
4861.37725961332
 31
0.0
  0
CIRCLE
  5
1415
330
17
100
AcDbEntity
  8
SUNPOU
100
AcDbCircle
 10
6750.470840394337
 20
4961.37725961332
 30
0.0
 40
40.0
  0
CIRCLE
  5
1416
330
17
100
AcDbEntity
  8
SUNPOU
100
AcDbCircle
 10
6750.470840394337
 20
4961.37725961332
 30
0.0
 40
25.0
  0
CIRCLE
  5
1417
330
17
100
AcDbEntity
  8
SUNPOU
100
AcDbCircle
 10
7750.470840394337
 20
4961.37725961332
 30
0.0
 40
25.0
  0
CIRCLE
  5
1418
330
17
100
AcDbEntity
  8
SUNPOU
100
AcDbCircle
 10
7750.470840394337
 20
4961.37725961332
 30
0.0
 40
40.0
  0
DIMENSION
  5
141A
330
17
100
AcDbEntity
  8
SUNPOU
100
AcDbDimension
  2
*D11
 10
5800.195595037687
 20
4961.377259613321
 30
0.0
 11
5731.195595037686
 21
4761.377259613322
 31
0.0
 70
    32
 71
     5
 42
400.0
  3
A3-30
100
AcDbAlignedDimension
 13
6250.470840394337
 23
4561.37725961332
 33
0.0
 14
6250.470840394337
 24
4961.37725961332
 34
0.0
 50
90.0
100
AcDbRotatedDimension
  0
DIMENSION
  5
141E
330
17
100
AcDbEntity
  8
SUNPOU
100
AcDbDimension
  2
*D12
 10
5598.876943472875
 20
4561.377259613321
 30
0.0
 11
5529.876943472874
 21
5561.377259613322
 31
0.0
 70
    32
 71
     5
 42
2000.0
  3
A3-30
100
AcDbAlignedDimension
 13
6250.470840394337
 23
6561.37725961332
 33
0.0
 14
6250.470840394337
 24
4561.37725961332
 34
0.0
 50
90.0
100
AcDbRotatedDimension
  0
DIMENSION
  5
142F
330
17
100
AcDbEntity
  8
SUNPOU
100
AcDbDimension
  2
*D13
 10
8250.470840394337
 20
7211.37725961332
 30
0.0
 11
7250.470840394337
 21
7280.37725961332
 31
0.0
 70
    32
 71
     5
 42
2000.0
  3
A3-30
100
AcDbAlignedDimension
 13
6250.470840394337
 23
6561.37725961332
 33
0.0
 14
8250.470840394337
 24
6561.37725961332
 34
0.0
100
AcDbRotatedDimension
  0
DIMENSION
  5
1455
330
17
100
AcDbEntity
  8
SUNPOU
100
AcDbDimension
  2
*D14
 10
6750.470840394337
 20
3911.37725961332
 30
0.0
 11
6500.470840394337
 21
3980.37725961332
 31
0.0
 70
    32
 71
     5
 42
500.0
  3
A3-30
100
AcDbAlignedDimension
 13
6250.470840394337
 23
4561.37725961332
 33
0.0
 14
6750.470840394337
 24
4561.37725961332
 34
0.0
100
AcDbRotatedDimension
  0
DIMENSION
  5
1456
330
17
100
AcDbEntity
  8
SUNPOU
100
AcDbDimension
  2
*D15
 10
7250.470840394337
 20
3911.37725961332
 30
0.0
 11
7000.470840394337
 21
3980.37725961332
 31
0.0
 70
    32
 71
     5
 42
500.0
  3
A3-30
100
AcDbAlignedDimension
 13
6750.470840394337
 23
4561.37725961332
 33
0.0
 14
7250.470840394337
 24
4461.377259613319
 34
0.0
100
AcDbRotatedDimension
  0
DIMENSION
  5
1457
330
17
100
AcDbEntity
  8
SUNPOU
100
AcDbDimension
  2
*D16
 10
7750.470840394337
 20
3911.37725961332
 30
0.0
 11
8000.470840394337
 21
3980.37725961332
 31
0.0
 70
    32
 71
     5
 42
500.0
  3
A3-30
100
AcDbAlignedDimension
 13
8250.470840394337
 23
4561.37725961332
 33
0.0
 14
7750.470840394337
 24
4561.37725961332
 34
0.0
100
AcDbRotatedDimension
  0
DIMENSION
  5
1458
330
17
100
AcDbEntity
  8
SUNPOU
100
AcDbDimension
  2
*D17
 10
7250.470840394337
 20
3911.37725961332
 30
0.0
 11
7500.470840394337
 21
3980.37725961332
 31
0.0
 70
    32
 71
     5
 42
500.0
  3
A3-30
100
AcDbAlignedDimension
 13
7750.470840394337
 23
4561.37725961332
 33
0.0
 14
7250.470840394337
 24
4461.377259613319
 34
0.0
100
AcDbRotatedDimension
  0
DIMENSION
  5
1473
330
17
100
AcDbEntity
  8
SUNPOU
100
AcDbDimension
  2
*D18
 10
5383.455165232386
 20
1201.924734603683
 30
0.0
 11
5314.455165232386
 21
1926.924734603684
 31
0.0
 70
    32
 71
     5
 42
1450.0
  3
A3-30
100
AcDbAlignedDimension
 13
6250.470840394337
 23
2651.924734603683
 33
0.0
 14
6250.470840394337
 24
1201.924734603683
 34
0.0
 50
270.0
100
AcDbRotatedDimension
  0
DIMENSION
  5
1474
330
17
100
AcDbEntity
  8
SUNPOU
100
AcDbDimension
  2
*D19
 10
5600.470840394337
 20
2416.524734603683
 30
0.0
 11
5531.470840394336
 21
2534.224734603683
 31
0.0
 70
   160
 71
     5
 42
235.4000000000001
  3
A3-30
100
AcDbAlignedDimension
 13
6250.470840394337
 23
2651.924734603683
 33
0.0
 14
6250.470840394337
 24
2416.524734603683
 34
0.0
 50
270.0
100
AcDbRotatedDimension
  0
DIMENSION
  5
1475
330
17
100
AcDbEntity
  8
SUNPOU
100
AcDbDimension
  2
*D20
 10
5600.470840394337
 20
2329.922194225237
 30
0.0
 11
5531.470840394336
 21
2349.300552320895
 31
0.0
 70
   160
 71
     5
 42
86.60254037844607
  3
A3-30
100
AcDbAlignedDimension
 13
6250.470840394337
 23
2416.524734603683
 33
0.0
 14
6300.470840394337
 24
2329.922194225237
 34
0.0
 50
270.0
100
AcDbRotatedDimension
  0
DIMENSION
  5
1476
330
17
100
AcDbEntity
  8
SUNPOU
100
AcDbDimension
  2
*D21
 10
5600.470840394337
 20
1201.924734603683
 30
0.0
 11
5531.470840394337
 21
1765.923464414461
 31
0.0
 70
    32
 71
     5
 42
1127.997459621554
  3
A3-30
100
AcDbAlignedDimension
 13
6300.470840394337
 23
2329.922194225237
 33
0.0
 14
6300.470840394337
 24
1201.924734603683
 34
0.0
 50
270.0
100
AcDbRotatedDimension
  0
LINE
  5
1495
330
17
100
AcDbEntity
  8
SEIHIN
100
AcDbLine
 10
6300.470840394336
 20
1201.924734603683
 30
0.0
 11
8200.904513595764
 21
1201.924734603683
 31
0.0
  0
LINE
  5
1496
330
17
100
AcDbEntity
  8
SEIHIN
100
AcDbLine
 10
6250.470840394337
 20
2651.924734603683
 30
0.0
 11
8250.470840394337
 21
2651.924734603683
 31
0.0
  0
LINE
  5
1497
330
17
100
AcDbEntity
  8
SEIHIN
100
AcDbLine
 10
6300.470840394337
 20
2329.922194225237
 30
0.0
 11
6300.470840394337
 21
1201.924734603683
 31
0.0
  0
LINE
  5
149A
330
17
100
AcDbEntity
  8
SEIHIN
100
AcDbLine
 10
6250.470840394337
 20
2651.924734603683
 30
0.0
 11
6250.470840394337
 21
2416.524734603683
 31
0.0
  0
LINE
  5
149B
330
17
100
AcDbEntity
  8
SEIHIN
100
AcDbLine
 10
6250.470840394337
 20
2416.524734603683
 30
0.0
 11
6300.470840394337
 21
2329.922194225237
 31
0.0
  0
DIMENSION
  5
14B0
330
17
100
AcDbEntity
  8
SUNPOU
100
AcDbDimension
  2
*D22
 10
6300.470840394337
 20
674.8191090382134
 30
0.0
 11
7250.68767699505
 21
743.8191090382134
 31
0.0
 70
    32
 71
     5
 42
1900.433673201427
  3
A3-30
100
AcDbAlignedDimension
 13
8200.904513595764
 23
1201.924734603683
 33
0.0
 14
6300.470840394337
 24
1201.924734603683
 34
0.0
100
AcDbRotatedDimension
  0
DIMENSION
  5
14E2
330
17
100
AcDbEntity
  8
SUNPOU
100
AcDbDimension
  2
*D23
 10
4073.619214790448
 20
3875.177673661419
 30
0.0
 11
3348.619214790448
 21
3944.177673661419
 31
0.0
 70
    32
 71
     5
 42
1450.0
  3
A3-30
100
AcDbAlignedDimension
 13
2623.619214790448
 23
4561.37725961332
 33
0.0
 14
4073.619214790448
 24
4561.37725961332
 34
0.0
100
AcDbRotatedDimension
  0
DIMENSION
  5
14E3
330
17
100
AcDbEntity
  8
SUNPOU
100
AcDbDimension
  2
*D24
 10
4073.619214790448
 20
4056.067196757191
 30
0.0
 11
3418.619214790448
 21
4125.067196757191
 31
0.0
 70
    32
 71
     5
 42
1310.0
  3
A3-30
100
AcDbAlignedDimension
 13
2763.619214790448
 23
4561.37725961332
 33
0.0
 14
4073.619214790448
 24
4561.37725961332
 34
0.0
100
AcDbRotatedDimension
  0
DIMENSION
  5
14E4
330
17
100
AcDbEntity
  8
SUNPOU
100
AcDbDimension
  2
*D25
 10
2763.619214790448
 20
4056.067196757191
 30
0.0
 11
2693.619214790448
 21
4125.067196757191
 31
0.0
 70
    32
 71
     5
 42
140.0
  3
A3-30
100
AcDbAlignedDimension
 13
2623.619214790448
 23
4561.37725961332
 33
0.0
 14
2763.619214790448
 24
4561.37725961332
 34
0.0
100
AcDbRotatedDimension
  0
DIMENSION
  5
14EB
330
17
100
AcDbEntity
  8
SUNPOU
100
AcDbDimension
  2
*D26
 10
4423.619214790448
 20
4631.37725961332
 30
0.0
 11
4354.619214790447
 21
5391.377259613321
 31
0.0
 70
    32
 71
     5
 42
1520.0
  3
A3-30
100
AcDbAlignedDimension
 13
2753.619214790448
 23
6151.37725961332
 33
0.0
 14
4073.619214790448
 24
4631.37725961332
 34
0.0
 50
90.0
100
AcDbRotatedDimension
  0
DIMENSION
  5
14EC
330
17
100
AcDbEntity
  8
SUNPOU
100
AcDbDimension
  2
*D27
 10
4423.619214790448
 20
6151.37725961332
 30
0.0
 11
4354.619214790446
 21
6356.377259613321
 31
0.0
 70
    32
 71
     5
 42
410.0
  3
A3-30
100
AcDbAlignedDimension
 13
2693.619214790448
 23
6561.37725961332
 33
0.0
 14
2693.619214790448
 24
6151.37725961332
 34
0.0
 50
90.0
100
AcDbRotatedDimension
  0
LINE
  5
14F3
330
17
100
AcDbEntity
  8
SEIHIN
100
AcDbLine
 10
4023.619214790448
 20
4631.37725961332
 30
0.0
 11
2859.019214790447
 21
4696.077259613321
 31
0.0
  0
LINE
  5
14F4
330
17
100
AcDbEntity
  8
SEIHIN
100
AcDbLine
 10
2623.619214790448
 20
4561.37725961332
 30
0.0
 11
4073.619214790448
 21
4561.37725961332
 31
0.0
  0
DIMENSION
  5
14F7
330
17
100
AcDbEntity
  8
SUNPOU
100
AcDbDimension
  2
*D28
 10
2693.619214790448
 20
6911.37725961332
 30
0.0
 11
2658.619214790448
 21
6980.37725961332
 31
0.0
 70
    32
 71
     5
 42
70.0
  3
A3-30
100
AcDbAlignedDimension
 13
2623.619214790448
 23
6561.37725961332
 33
0.0
 14
2693.619214790448
 24
6561.37725961332
 34
0.0
100
AcDbRotatedDimension
  0
DIMENSION
  5
14FD
330
17
100
AcDbEntity
  8
SUNPOU
100
AcDbDimension
  2
*D29
 10
1863.361445263538
 20
6561.377259613321
 30
0.0
 11
1794.361445263537
 21
5631.377259613321
 31
0.0
 70
    32
 71
     5
 42
1860.0
  3
A3-30
100
AcDbAlignedDimension
 13
2623.619214790448
 23
4701.37725961332
 33
0.0
 14
2623.619214790448
 24
6561.37725961332
 34
0.0
 50
90.0
100
AcDbRotatedDimension
  0
DIMENSION
  5
14FE
330
17
100
AcDbEntity
  8
SUNPOU
100
AcDbDimension
  2
*D30
 10
1673.619214790448
 20
4561.377259613321
 30
0.0
 11
1604.619214790447
 21
5561.377259613321
 31
0.0
 70
    32
 71
     5
 42
2000.0
  3
A3-30
100
AcDbAlignedDimension
 13
2623.619214790448
 23
6561.37725961332
 33
0.0
 14
2623.619214790448
 24
4561.37725961332
 34
0.0
 50
90.0
100
AcDbRotatedDimension
  0
LINE
  5
1501
330
17
100
AcDbEntity
  8
SEIHIN
100
AcDbLine
 10
2759.047490652517
 20
4796.077259613321
 30
0.0
 11
2693.619214790448
 21
6151.37725961332
 31
0.0
  0
LINE
  5
1502
330
17
100
AcDbEntity
  8
SEIHIN
100
AcDbLine
 10
2623.619214790448
 20
4561.37725961332
 30
0.0
 11
2623.619214790448
 21
6561.37725961332
 31
0.0
  0
DIMENSION
  5
1504
330
17
100
AcDbEntity
  8
SUNPOU
100
AcDbDimension
  2
*D31
 10
2123.619214790448
 20
4961.37725961332
 30
0.0
 11
2054.619214790447
 21
4761.377259613321
 31
0.0
 70
    32
 71
     5
 42
400.0
  3
A3-30
100
AcDbAlignedDimension
 13
2623.619214790448
 23
4561.37725961332
 33
0.0
 14
2577.249915552013
 24
4961.37725961332
 34
0.0
 50
90.0
100
AcDbRotatedDimension
  0
DIMENSION
  5
1506
330
17
100
AcDbEntity
  8
SUNPOU
100
AcDbDimension
  2
*D32
 10
1863.361445263537
 20
4701.377259613321
 30
0.0
 11
1794.361445263537
 21
4631.377259613321
 31
0.0
 70
    32
 71
     5
 42
140.0
  3
A3-30
100
AcDbAlignedDimension
 13
2623.619214790448
 23
4561.37725961332
 33
0.0
 14
2623.619214790448
 24
4701.37725961332
 34
0.0
 50
90.0
100
AcDbRotatedDimension
  0
LINE
  5
1508
330
17
100
AcDbEntity
  8
1HASEN
100
AcDbLine
 10
2763.619214790448
 20
4676.377259613321
 30
0.0
 11
2763.619214790448
 21
4726.37725961332
 31
0.0
  0
LINE
  5
150A
330
17
100
AcDbEntity
  8
1HASEN
100
AcDbLine
 10
2577.249915552013
 20
4961.37725961332
 30
0.0
 11
2806.040735323189
 21
4961.37725961332
 31
0.0
  0
LINE
  5
150B
330
17
100
AcDbEntity
  8
HASEN
 48
0.2
100
AcDbLine
 10
2623.619214790448
 20
5001.37725961332
 30
0.0
 11
2658.619214790448
 21
4986.37725961332
 31
0.0
  0
LINE
  5
150C
330
17
100
AcDbEntity
  8
HASEN
 48
0.2
100
AcDbLine
 10
2658.619214790448
 20
4936.37725961332
 30
0.0
 11
2623.619214790448
 21
4921.37725961332
 31
0.0
  0
LINE
  5
1512
330
17
100
AcDbEntity
  8
HASEN
 48
0.2
100
AcDbLine
 10
2749.136456169759
 20
5001.37725961332
 30
0.0
 11
2740.136456169759
 21
4986.37725961332
 31
0.0
  0
LINE
  5
1518
330
17
100
AcDbEntity
  8
1HASEN
100
AcDbLine
 10
2738.619214790448
 20
4701.37725961332
 30
0.0
 11
2788.619214790448
 21
4701.37725961332
 31
0.0
  0
LINE
  5
151D
330
17
100
AcDbEntity
  8
HASEN
 48
0.2
100
AcDbLine
 10
2658.619214790448
 20
4942.87725961332
 30
0.0
 11
2740.136456169759
 21
4938.945320978556
 31
0.0
  0
LINE
  5
151E
330
17
100
AcDbEntity
  8
HASEN
 48
0.2
100
AcDbLine
 10
2658.619214790448
 20
4979.87725961332
 30
0.0
 11
2740.136456169759
 21
4983.809198248085
 31
0.0
  0
LINE
  5
151F
330
17
100
AcDbEntity
  8
HASEN
 48
0.2
100
AcDbLine
 10
2740.136456169759
 20
4986.37725961332
 30
0.0
 11
2740.136456169759
 21
4936.37725961332
 31
0.0
  0
LINE
  5
1520
330
17
100
AcDbEntity
  8
HASEN
 48
0.2
100
AcDbLine
 10
2740.136456169759
 20
4936.37725961332
 30
0.0
 11
2752.946133589112
 21
4922.462513069543
 31
0.0
  0
LINE
  5
1521
330
17
100
AcDbEntity
  8
HASEN
 48
0.2
100
AcDbLine
 10
2658.619214790448
 20
4986.37725961332
 30
0.0
 11
2658.619214790448
 21
4936.37725961332
 31
0.0
  0
LINE
  5
1549
330
17
100
AcDbEntity
  8
SEIHIN
100
AcDbLine
 10
2623.619214790448
 20
6561.37725961332
 30
0.0
 11
2693.619214790448
 21
6561.37725961332
 31
0.0
  0
LINE
  5
154C
330
17
100
AcDbEntity
  8
SEIHIN
100
AcDbLine
 10
2693.619214790448
 20
6561.37725961332
 30
0.0
 11
2693.619214790448
 21
6151.37725961332
 31
0.0
  0
DIMENSION
  5
1555
330
17
100
AcDbEntity
  8
SUNPOU
100
AcDbDimension
  2
*D8
 10
4423.619214790448
 20
4631.37725961332
 30
0.0
 11
4354.619214790447
 21
4596.377259613321
 31
0.0
 70
    32
 71
     5
 42
70.0
  3
A3-30
100
AcDbAlignedDimension
 13
4073.619214790448
 23
4561.37725961332
 33
0.0
 14
4073.619214790448
 24
4631.37725961332
 34
0.0
 50
90.0
100
AcDbRotatedDimension
  0
LINE
  5
1563
330
17
100
AcDbEntity
  8
SEIHIN
100
AcDbLine
 10
4073.619214790448
 20
4631.37725961332
 30
0.0
 11
4023.619214790448
 21
4631.37725961332
 31
0.0
  0
LINE
  5
1564
330
17
100
AcDbEntity
  8
SEIHIN
100
AcDbLine
 10
4073.619214790448
 20
4561.37725961332
 30
0.0
 11
4073.619214790448
 21
4631.37725961332
 31
0.0
  0
DIMENSION
  5
1573
330
17
100
AcDbEntity
  8
SUNPOU
100
AcDbDimension
  2
*D9
 10
5800.195595037688
 20
6561.377259613321
 30
0.0
 11
5731.195595037686
 21
5761.377259613322
 31
0.0
 70
    32
 71
     5
 42
1600.0
  3
A3-30
100
AcDbAlignedDimension
 13
6190.470840394337
 23
4961.37725961332
 33
0.0
 14
6250.470840394337
 24
6561.37725961332
 34
0.0
 50
90.0
100
AcDbRotatedDimension
  0
DIMENSION
  5
157F
330
17
100
AcDbEntity
  8
SUNPOU
100
AcDbDimension
  2
*D10
 10
6250.470840394337
 20
3204.087582539731
 30
0.0
 11
7250.470840394337
 21
3273.087582539731
 31
0.0
 70
    32
 71
     5
 42
2000.0
  3
A3-30
100
AcDbAlignedDimension
 13
8250.470840394337
 23
2651.924734603683
 33
0.0
 14
6250.470840394337
 24
2651.924734603683
 34
0.0
100
AcDbRotatedDimension
  0
LINE
  5
158E
330
17
100
AcDbEntity
  8
1HASEN
100
AcDbLine
 10
7250.470840394337
 20
2776.372545312664
 30
0.0
 11
7250.470840394337
 21
1101.076148888219
 31
0.0
  0
TEXT
  5
22BE
330
17
100
AcDbEntity
  8
SUNPOU
100
AcDbText
 10
2222.915022824207
 20
5163.738579903897
 30
0.0
 40
90.0
  1
水抜孔
 41
0.8
100
AcDbText
  0
LINE
  5
22BF
330
17
100
AcDbEntity
  8
SUNPOU
100
AcDbLine
 10
2185.324899379288
 20
5148.086260585162
 30
0.0
 11
2507.942114924808
 21
5148.086260585162
 31
0.0
  0
LEADER
  5
22C1
330
17
100
AcDbEntity
  8
SUNPOU
100
AcDbLeader
  3
A3-30
 76
     2
 10
2623.619214790448
 20
4961.37725961332
 30
0.0
 10
2507.942114924808
 20
5148.086260585162
 30
0.0
1001
ACAD
1000
DSTYLE
1002
{
1070
   147
1040
0.8
1070
    77
1070
     0
1002
}
  0
DIMENSION
  5
23A6
330
17
100
AcDbEntity
  8
SUNPOU
100
AcDbDimension
  2
*D33
 10
6250.470840394337
 20
674.8191090382134
 30
0.0
 11
6275.470840394337
 21
743.8191090382134
 31
0.0
 70
    32
 71
     5
 42
50.0
  3
A3-30
100
AcDbAlignedDimension
 13
6300.470840394337
 23
1201.924734603683
 33
0.0
 14
6250.470840394337
 24
1201.924734603683
 34
0.0
100
AcDbRotatedDimension
  0
DIMENSION
  5
23B4
330
17
100
AcDbEntity
  8
SUNPOU
100
AcDbDimension
  2
*D34
 10
8250.470840394337
 20
674.8191090382134
 30
0.0
 11
8225.470840394337
 21
743.8191090382134
 31
0.0
 70
    32
 71
     5
 42
50.0
  3
A3-30
100
AcDbAlignedDimension
 13
8200.470840394337
 23
1201.924734603683
 33
0.0
 14
8250.470840394337
 24
1201.924734603683
 34
0.0
 50
180.0
100
AcDbRotatedDimension
  0
LINE
  5
25B7
330
17
100
AcDbEntity
  8
SEIHIN
100
AcDbLine
 10
6300.470840394337
 20
4631.377259613321
 30
0.0
 11
8200.470840394339
 21
4631.37725961332
 31
0.0
  0
LINE
  5
25BA
330
17
100
AcDbEntity
  8
SEIHIN
100
AcDbLine
 10
6300.470840394337
 20
4561.37725961332
 30
0.0
 11
6300.47084039434
 21
4691.277259613321
 31
0.0
  0
LINE
  5
25BB
330
17
100
AcDbEntity
  8
SEIHIN
100
AcDbLine
 10
6300.47084039434
 20
4691.277259613321
 30
0.0
 11
6250.470840394337
 21
4696.077259613321
 31
0.0
  0
LINE
  5
25BE
330
17
100
AcDbEntity
  8
SEIHIN
100
AcDbLine
 10
6250.470840394337
 20
2581.924734603683
 30
0.0
 11
8250.470840394337
 21
2581.924734603683
 31
0.0
  0
LINE
  5
25DB
330
17
100
AcDbEntity
  8
SEIHIN
100
AcDbLine
 10
2759.047490652517
 20
4796.077259613321
 30
0.0
 11
2859.019214790447
 21
4696.077259613321
 31
0.0
  0
LINE
  5
25DC
330
17
100
AcDbEntity
  8
SEIHIN
100
AcDbLine
 10
6250.470840394337
 20
4796.077259613321
 30
0.0
 11
8250.470840394337
 21
4796.077259613321
 31
0.0
  0
LINE
  5
25DD
330
17
100
AcDbEntity
  8
SEIHIN
100
AcDbLine
 10
6250.470840394337
 20
4696.077259613321
 30
0.0
 11
8250.470840394337
 21
4696.077259613321
 31
0.0
  0
LINE
  5
25F5
330
17
100
AcDbEntity
  8
SEIHIN
100
AcDbLine
 10
8200.470840394337
 20
4561.37725961332
 30
0.0
 11
8200.470840394333
 21
4691.277259613321
 31
0.0
  0
LINE
  5
25F6
330
17
100
AcDbEntity
  8
SEIHIN
100
AcDbLine
 10
8200.470840394333
 20
4691.277259613321
 30
0.0
 11
8250.470840394337
 21
4696.077259613321
 31
0.0
  0
LINE
  5
25F7
330
17
100
AcDbEntity
  8
SEIHIN
100
AcDbLine
 10
6250.470840394337
 20
2416.524734603683
 30
0.0
 11
8250.470840394337
 21
2416.524734603683
 31
0.0
  0
LINE
  5
261E
330
17
100
AcDbEntity
  8
SEIHIN
100
AcDbLine
 10
8200.470840394337
 20
2329.922194225237
 30
0.0
 11
8200.470840394337
 21
1201.924734603683
 31
0.0
  0
LINE
  5
261F
330
17
100
AcDbEntity
  8
SEIHIN
100
AcDbLine
 10
8250.470840394337
 20
2651.924734603683
 30
0.0
 11
8250.470840394337
 21
2416.524734603683
 31
0.0
  0
LINE
  5
2620
330
17
100
AcDbEntity
  8
SEIHIN
100
AcDbLine
 10
8250.470840394337
 20
2416.524734603683
 30
0.0
 11
8200.470840394337
 21
2329.922194225237
 31
0.0
  0
DIMENSION
  5
2621
330
17
100
AcDbEntity
  8
SUNPOU
100
AcDbDimension
  2
*D38
 10
8250.470840394337
 20
2416.524734603683
 30
0.0
 11
8191.342263241655
 21
2195.853880490607
 31
0.0
 70
    34
 71
     5
 42
0.5235987755982858
  3
A3-30
100
AcDb2LineAngularDimension
 13
8250.470840394337
 23
2416.524734603683
 33
0.0
 14
8200.470840394337
 24
2329.922194225237
 34
0.0
 15
8250.470840394337
 25
2651.924734603683
 35
0.0
 16
8148.735143246671
 26
2137.008203937986
 36
0.0
1001
ACAD
1000
DSTYLE
1002
{
1070
   179
1070
     0
1002
}
  0
ENDSEC
  0
SECTION
  2
OBJECTS
  0
DICTIONARY
  5
C
330
0
100
AcDbDictionary
281
     1
  3
ACAD_COLOR
350
9AA
  3
ACAD_GROUP
350
D
  3
ACAD_LAYOUT
350
7B
  3
ACAD_MATERIAL
350
9A9
  3
ACAD_MLEADERSTYLE
350
2668
  3
ACAD_MLINESTYLE
350
1A
  3
ACAD_PLOTSETTINGS
350
7C
  3
ACAD_PLOTSTYLENAME
350
79
  3
ACAD_SCALELIST
350
2641
  3
ACAD_TABLESTYLE
350
9AB
  3
ACDB_RECOMPOSE_DATA
350
2667
  3
AcDbVariableDictionary
350
946
  0
DICTIONARY
  5
9AA
102
{ACAD_REACTORS
330
C
102
}
330
C
100
AcDbDictionary
281
     1
  0
DICTIONARY
  5
D
102
{ACAD_REACTORS
330
C
102
}
330
C
100
AcDbDictionary
281
     1
  0
DICTIONARY
  5
7B
102
{ACAD_REACTORS
330
C
102
}
330
C
100
AcDbDictionary
281
     1
  3
Model
350
7D
  3
ﾚｲｱｳﾄ1
350
7E
  0
DICTIONARY
  5
9A9
102
{ACAD_REACTORS
330
C
102
}
330
C
100
AcDbDictionary
281
     1
  0
DICTIONARY
  5
2668
102
{ACAD_REACTORS
330
C
102
}
330
C
100
AcDbDictionary
281
     1
  0
DICTIONARY
  5
1A
102
{ACAD_REACTORS
330
C
102
}
330
C
100
AcDbDictionary
281
     1
  3
STANDARD
350
1B
  0
DICTIONARY
  5
7C
102
{ACAD_REACTORS
330
C
102
}
330
C
100
AcDbDictionary
281
     1
  0
ACDBDICTIONARYWDFLT
  5
79
102
{ACAD_REACTORS
330
C
102
}
330
C
100
AcDbDictionary
281
     1
  3
Normal
350
7A
100
AcDbDictionaryWithDefault
340
7A
  0
DICTIONARY
  5
2641
102
{ACAD_REACTORS
330
C
102
}
330
C
100
AcDbDictionary
281
     1
  3
A0
350
2642
  3
A1
350
2643
  3
A2
350
2644
  3
A3
350
2645
  3
A4
350
2646
  3
A5
350
2647
  3
A6
350
2648
  3
A7
350
2649
  3
A8
350
264A
  3
A9
350
264B
  3
B0
350
264C
  3
B1
350
264D
  3
B2
350
264E
  3
B3
350
264F
  3
B4
350
2650
  3
B5
350
2651
  3
B6
350
2652
  3
B7
350
2653
  3
B8
350
2654
  3
B9
350
2655
  3
C0
350
2656
  3
C1
350
2657
  3
C2
350
2658
  3
C3
350
2659
  3
C4
350
265A
  3
C5
350
265B
  3
C6
350
265C
  3
C7
350
265D
  3
C8
350
265E
  3
C9
350
265F
  3
D0
350
2660
  3
D1
350
2661
  3
D2
350
2662
  0
DICTIONARY
  5
9AB
102
{ACAD_REACTORS
330
C
102
}
330
C
100
AcDbDictionary
281
     1
  3
Standard
350
9AC
  0
XRECORD
  5
2667
102
{ACAD_REACTORS
330
C
102
}
330
C
100
AcDbXrecord
280
     1
 90
        1
330
9AC
  0
DICTIONARY
  5
946
102
{ACAD_REACTORS
330
C
102
}
330
C
100
AcDbDictionary
281
     1
  3
CANNOSCALE
350
2663
  3
CTABLESTYLE
350
CC1
  3
DIMASSOC
350
947
  3
PROJECTNAME
350
CC2
  0
LAYOUT
  5
7D
102
{ACAD_REACTORS
330
7B
102
}
330
7B
100
AcDbPlotSettings
  1

  2
C:\PROGRAM FILES\MDT6\plotters\RICOH SP9II RPDL.pc3
  4
A3
  6

 40
5.873749732971191
 41
5.873758316040039
 42
4.349761962890625
 43
8.159759521484375
 44
420.1159973144531
 45
296.9259948730469
 46
0.0
 47
0.0
 48
0.0
 49
0.0
140
0.0
141
0.0
142
1.0
143
1.0
 70
 11952
 72
     0
 73
     0
 74
     0
  7
acad.ctb
 75
     0
 76
     0
 77
     2
 78
   300
147
1.0
148
-52067.63847066872
149
1270.867660243985
100
AcDbLayout
  1
Model
 70
     1
 71
     0
 10
0.0
 20
0.0
 11
12.0
 21
9.0
 12
0.0
 22
0.0
 32
0.0
 14
0.0
 24
0.0
 34
0.0
 15
0.0
 25
0.0
 35
0.0
146
0.0
 13
0.0
 23
0.0
 33
0.0
 16
1.0
 26
0.0
 36
0.0
 17
0.0
 27
1.0
 37
0.0
 76
     0
330
17
331
263B
  0
LAYOUT
  5
7E
102
{ACAD_REACTORS
330
7B
102
}
330
7B
100
AcDbPlotSettings
  1

  2
C:\PROGRAM FILES\MDT6\plotters\RICOH SP9II RPDL.pc3
  4

  6

 40
0.0
 41
0.0
 42
0.0
 43
0.0
 44
0.0
 45
0.0
 46
0.0
 47
0.0
 48
0.0
 49
0.0
140
0.0
141
0.0
142
1.0
143
1.0
 70
   688
 72
     0
 73
     0
 74
     5
  7
acad.ctb
 75
    16
 76
     0
 77
     2
 78
   300
147
1.0
148
0.0
149
0.0
100
AcDbLayout
  1
ﾚｲｱｳﾄ1
 70
     0
 71
     1
 10
0.0
 20
0.0
 11
12.0
 21
9.0
 12
0.0
 22
0.0
 32
0.0
 14
1.000000000000000E+20
 24
1.000000000000000E+20
 34
1.000000000000000E+20
 15
-1.000000000000000E+20
 25
-1.000000000000000E+20
 35
-1.000000000000000E+20
146
0.0
 13
0.0
 23
0.0
 33
0.0
 16
1.0
 26
0.0
 36
0.0
 17
0.0
 27
1.0
 37
0.0
 76
     0
330
14
  0
MLINESTYLE
  5
1B
102
{ACAD_REACTORS
330
1A
102
}
330
1A
100
AcDbMlineStyle
  2
STANDARD
 70
     0
  3

 62
   256
 51
90.0
 52
90.0
 71
     2
 49
0.5
 62
   256
  6
BYLAYER
 49
-0.5
 62
   256
  6
BYLAYER
  0
ACDBPLACEHOLDER
  5
7A
102
{ACAD_REACTORS
330
79
102
}
330
79
  0
SCALE
  5
2642
102
{ACAD_REACTORS
330
2641
102
}
330
2641
100
AcDbScale
 70
     0
300
1:1
140
1.0
141
1.0
290
     1
  0
SCALE
  5
2643
102
{ACAD_REACTORS
330
2641
102
}
330
2641
100
AcDbScale
 70
     0
300
1:2
140
1.0
141
2.0
290
     0
  0
SCALE
  5
2644
102
{ACAD_REACTORS
330
2641
102
}
330
2641
100
AcDbScale
 70
     0
300
1:4
140
1.0
141
4.0
290
     0
  0
SCALE
  5
2645
102
{ACAD_REACTORS
330
2641
102
}
330
2641
100
AcDbScale
 70
     0
300
1:5
140
1.0
141
5.0
290
     0
  0
SCALE
  5
2646
102
{ACAD_REACTORS
330
2641
102
}
330
2641
100
AcDbScale
 70
     0
300
1:8
140
1.0
141
8.0
290
     0
  0
SCALE
  5
2647
102
{ACAD_REACTORS
330
2641
102
}
330
2641
100
AcDbScale
 70
     0
300
1:10
140
1.0
141
10.0
290
     0
  0
SCALE
  5
2648
102
{ACAD_REACTORS
330
2641
102
}
330
2641
100
AcDbScale
 70
     0
300
1:16
140
1.0
141
16.0
290
     0
  0
SCALE
  5
2649
102
{ACAD_REACTORS
330
2641
102
}
330
2641
100
AcDbScale
 70
     0
300
1:20
140
1.0
141
20.0
290
     0
  0
SCALE
  5
264A
102
{ACAD_REACTORS
330
2641
102
}
330
2641
100
AcDbScale
 70
     0
300
1:30
140
1.0
141
30.0
290
     0
  0
SCALE
  5
264B
102
{ACAD_REACTORS
330
2641
102
}
330
2641
100
AcDbScale
 70
     0
300
1:40
140
1.0
141
40.0
290
     0
  0
SCALE
  5
264C
102
{ACAD_REACTORS
330
2641
102
}
330
2641
100
AcDbScale
 70
     0
300
1:50
140
1.0
141
50.0
290
     0
  0
SCALE
  5
264D
102
{ACAD_REACTORS
330
2641
102
}
330
2641
100
AcDbScale
 70
     0
300
1:100
140
1.0
141
100.0
290
     0
  0
SCALE
  5
264E
102
{ACAD_REACTORS
330
2641
102
}
330
2641
100
AcDbScale
 70
     0
300
2:1
140
2.0
141
1.0
290
     0
  0
SCALE
  5
264F
102
{ACAD_REACTORS
330
2641
102
}
330
2641
100
AcDbScale
 70
     0
300
4:1
140
4.0
141
1.0
290
     0
  0
SCALE
  5
2650
102
{ACAD_REACTORS
330
2641
102
}
330
2641
100
AcDbScale
 70
     0
300
8:1
140
8.0
141
1.0
290
     0
  0
SCALE
  5
2651
102
{ACAD_REACTORS
330
2641
102
}
330
2641
100
AcDbScale
 70
     0
300
10:1
140
10.0
141
1.0
290
     0
  0
SCALE
  5
2652
102
{ACAD_REACTORS
330
2641
102
}
330
2641
100
AcDbScale
 70
     0
300
100:1
140
100.0
141
1.0
290
     0
  0
SCALE
  5
2653
102
{ACAD_REACTORS
330
2641
102
}
330
2641
100
AcDbScale
 70
     0
300
1/128" = 1'-0"
140
0.0078125
141
12.0
290
     0
  0
SCALE
  5
2654
102
{ACAD_REACTORS
330
2641
102
}
330
2641
100
AcDbScale
 70
     0
300
1/64" = 1'-0"
140
0.015625
141
12.0
290
     0
  0
SCALE
  5
2655
102
{ACAD_REACTORS
330
2641
102
}
330
2641
100
AcDbScale
 70
     0
300
1/32" = 1'-0"
140
0.03125
141
12.0
290
     0
  0
SCALE
  5
2656
102
{ACAD_REACTORS
330
2641
102
}
330
2641
100
AcDbScale
 70
     0
300
1/16" = 1'-0"
140
0.0625
141
12.0
290
     0
  0
SCALE
  5
2657
102
{ACAD_REACTORS
330
2641
102
}
330
2641
100
AcDbScale
 70
     0
300
3/32" = 1'-0"
140
0.09375
141
12.0
290
     0
  0
SCALE
  5
2658
102
{ACAD_REACTORS
330
2641
102
}
330
2641
100
AcDbScale
 70
     0
300
1/8" = 1'-0"
140
0.125
141
12.0
290
     0
  0
SCALE
  5
2659
102
{ACAD_REACTORS
330
2641
102
}
330
2641
100
AcDbScale
 70
     0
300
3/16" = 1'-0"
140
0.1875
141
12.0
290
     0
  0
SCALE
  5
265A
102
{ACAD_REACTORS
330
2641
102
}
330
2641
100
AcDbScale
 70
     0
300
1/4" = 1'-0"
140
0.25
141
12.0
290
     0
  0
SCALE
  5
265B
102
{ACAD_REACTORS
330
2641
102
}
330
2641
100
AcDbScale
 70
     0
300
3/8" = 1'-0"
140
0.375
141
12.0
290
     0
  0
SCALE
  5
265C
102
{ACAD_REACTORS
330
2641
102
}
330
2641
100
AcDbScale
 70
     0
300
1/2" = 1'-0"
140
0.5
141
12.0
290
     0
  0
SCALE
  5
265D
102
{ACAD_REACTORS
330
2641
102
}
330
2641
100
AcDbScale
 70
     0
300
3/4" = 1'-0"
140
0.75
141
12.0
290
     0
  0
SCALE
  5
265E
102
{ACAD_REACTORS
330
2641
102
}
330
2641
100
AcDbScale
 70
     0
300
1" = 1'-0"
140
1.0
141
12.0
290
     0
  0
SCALE
  5
265F
102
{ACAD_REACTORS
330
2641
102
}
330
2641
100
AcDbScale
 70
     0
300
1-1/2" = 1'-0"
140
1.5
141
12.0
290
     0
  0
SCALE
  5
2660
102
{ACAD_REACTORS
330
2641
102
}
330
2641
100
AcDbScale
 70
     0
300
3" = 1'-0"
140
3.0
141
12.0
290
     0
  0
SCALE
  5
2661
102
{ACAD_REACTORS
330
2641
102
}
330
2641
100
AcDbScale
 70
     0
300
6" = 1'-0"
140
6.0
141
12.0
290
     0
  0
SCALE
  5
2662
102
{ACAD_REACTORS
330
2641
102
}
330
2641
100
AcDbScale
 70
     0
300
1'-0" = 1'-0"
140
12.0
141
12.0
290
     0
  0
TABLESTYLE
  5
9AC
102
{ACAD_REACTORS
330
9AB
102
}
102
{ACAD_XDICTIONARY
360
2664
102
}
330
9AB
100
AcDbTableStyle
  3
Standard
 70
     0
 71
     0
 40
0.06
 41
0.06
280
     0
281
     0
  7
STANDARD
140
0.18
170
     2
 62
     0
 63
   257
283
     0
274
    -2
284
     1
 64
     0
275
    -2
285
     1
 65
     0
276
    -2
286
     1
 66
     0
277
    -2
287
     1
 67
     0
278
    -2
288
     1
 68
     0
279
    -2
289
     1
 69
     0
  7
STANDARD
140
0.25
170
     5
 62
     0
 63
   257
283
     0
274
    -2
284
     1
 64
     0
275
    -2
285
     1
 65
     0
276
    -2
286
     1
 66
     0
277
    -2
287
     1
 67
     0
278
    -2
288
     1
 68
     0
279
    -2
289
     1
 69
     0
  7
STANDARD
140
0.18
170
     5
 62
     0
 63
   257
283
     0
274
    -2
284
     1
 64
     0
275
    -2
285
     1
 65
     0
276
    -2
286
     1
 66
     0
277
    -2
287
     1
 67
     0
278
    -2
288
     1
 68
     0
279
    -2
289
     1
 69
     0
  0
DICTIONARYVAR
  5
2663
102
{ACAD_REACTORS
330
946
102
}
330
946
100
DictionaryVariables
280
     0
  1
1:1
  0
DICTIONARYVAR
  5
CC1
102
{ACAD_REACTORS
330
946
102
}
330
946
100
DictionaryVariables
280
     0
  1
Standard
  0
DICTIONARYVAR
  5
947
102
{ACAD_REACTORS
330
946
102
}
330
946
100
DictionaryVariables
280
     0
  1
1
  0
DICTIONARYVAR
  5
CC2
102
{ACAD_REACTORS
330
946
102
}
330
946
100
DictionaryVariables
280
     0
  1

  0
DICTIONARY
  5
2664
330
9AC
100
AcDbDictionary
280
     1
281
     1
  3
ACAD_ROUNDTRIP_2008_TABLESTYLE_CELLSTYLEMAP
360
2666
  3
ACAD_XREC_ROUNDTRIP
360
2665
  0
CELLSTYLEMAP
  5
2666
102
{ACAD_REACTORS
330
2664
102
}
330
2664
100
AcDbCellStyleMap
 90
        3
300
CELLSTYLE
  1
TABLEFORMAT_BEGIN
 90
        5
170
     1
 91
        0
 92
    32768
 62
   257
 93
        1
300
CONTENTFORMAT
  1
CONTENTFORMAT_BEGIN
 90
        0
 91
        0
 92
        4
 93
        0
300

 40
0.0
140
1.0
 94
        5
 62
     0
340
F
144
0.25
309
CONTENTFORMAT_END
171
     1
301
MARGIN
  1
CELLMARGIN_BEGIN
 40
0.06
 40
0.06
 40
0.06
 40
0.06
 40
0.06
 40
0.06
309
CELLMARGIN_END
 94
        6
 95
        1
302
GRIDFORMAT
  1
GRIDFORMAT_BEGIN
 90
        0
 91
        1
 62
     0
 92
       -2
340
0
 93
        0
 40
0.045
309
GRIDFORMAT_END
 95
        2
302
GRIDFORMAT
  1
GRIDFORMAT_BEGIN
 90
        0
 91
        1
 62
     0
 92
       -2
340
0
 93
        0
 40
0.045
309
GRIDFORMAT_END
 95
        4
302
GRIDFORMAT
  1
GRIDFORMAT_BEGIN
 90
        0
 91
        1
 62
     0
 92
       -2
340
0
 93
        0
 40
0.045
309
GRIDFORMAT_END
 95
        8
302
GRIDFORMAT
  1
GRIDFORMAT_BEGIN
 90
        0
 91
        1
 62
     0
 92
       -2
340
0
 93
        0
 40
0.045
309
GRIDFORMAT_END
 95
       16
302
GRIDFORMAT
  1
GRIDFORMAT_BEGIN
 90
        0
 91
        1
 62
     0
 92
       -2
340
0
 93
        0
 40
0.045
309
GRIDFORMAT_END
 95
       32
302
GRIDFORMAT
  1
GRIDFORMAT_BEGIN
 90
        0
 91
        1
 62
     0
 92
       -2
340
0
 93
        0
 40
0.045
309
GRIDFORMAT_END
309
TABLEFORMAT_END
  1
CELLSTYLE_BEGIN
 90
        1
 91
        1
300
_TITLE
309
CELLSTYLE_END
300
CELLSTYLE
  1
TABLEFORMAT_BEGIN
 90
        5
170
     1
 91
        0
 92
        0
 62
   257
 93
        1
300
CONTENTFORMAT
  1
CONTENTFORMAT_BEGIN
 90
        0
 91
        0
 92
        4
 93
        0
300

 40
0.0
140
1.0
 94
        5
 62
     0
340
F
144
0.18
309
CONTENTFORMAT_END
171
     1
301
MARGIN
  1
CELLMARGIN_BEGIN
 40
0.06
 40
0.06
 40
0.06
 40
0.06
 40
0.06
 40
0.06
309
CELLMARGIN_END
 94
        6
 95
        1
302
GRIDFORMAT
  1
GRIDFORMAT_BEGIN
 90
        0
 91
        1
 62
     0
 92
       -2
340
0
 93
        0
 40
0.045
309
GRIDFORMAT_END
 95
        2
302
GRIDFORMAT
  1
GRIDFORMAT_BEGIN
 90
        0
 91
        1
 62
     0
 92
       -2
340
0
 93
        0
 40
0.045
309
GRIDFORMAT_END
 95
        4
302
GRIDFORMAT
  1
GRIDFORMAT_BEGIN
 90
        0
 91
        1
 62
     0
 92
       -2
340
0
 93
        0
 40
0.045
309
GRIDFORMAT_END
 95
        8
302
GRIDFORMAT
  1
GRIDFORMAT_BEGIN
 90
        0
 91
        1
 62
     0
 92
       -2
340
0
 93
        0
 40
0.045
309
GRIDFORMAT_END
 95
       16
302
GRIDFORMAT
  1
GRIDFORMAT_BEGIN
 90
        0
 91
        1
 62
     0
 92
       -2
340
0
 93
        0
 40
0.045
309
GRIDFORMAT_END
 95
       32
302
GRIDFORMAT
  1
GRIDFORMAT_BEGIN
 90
        0
 91
        1
 62
     0
 92
       -2
340
0
 93
        0
 40
0.045
309
GRIDFORMAT_END
309
TABLEFORMAT_END
  1
CELLSTYLE_BEGIN
 90
        2
 91
        1
300
_HEADER
309
CELLSTYLE_END
300
CELLSTYLE
  1
TABLEFORMAT_BEGIN
 90
        5
170
     1
 91
        0
 92
        0
 62
   257
 93
        1
300
CONTENTFORMAT
  1
CONTENTFORMAT_BEGIN
 90
        0
 91
        0
 92
        4
 93
        0
300

 40
0.0
140
1.0
 94
        2
 62
     0
340
F
144
0.18
309
CONTENTFORMAT_END
171
     1
301
MARGIN
  1
CELLMARGIN_BEGIN
 40
0.06
 40
0.06
 40
0.06
 40
0.06
 40
0.06
 40
0.06
309
CELLMARGIN_END
 94
        6
 95
        1
302
GRIDFORMAT
  1
GRIDFORMAT_BEGIN
 90
        0
 91
        1
 62
     0
 92
       -2
340
0
 93
        0
 40
0.045
309
GRIDFORMAT_END
 95
        2
302
GRIDFORMAT
  1
GRIDFORMAT_BEGIN
 90
        0
 91
        1
 62
     0
 92
       -2
340
0
 93
        0
 40
0.045
309
GRIDFORMAT_END
 95
        4
302
GRIDFORMAT
  1
GRIDFORMAT_BEGIN
 90
        0
 91
        1
 62
     0
 92
       -2
340
0
 93
        0
 40
0.045
309
GRIDFORMAT_END
 95
        8
302
GRIDFORMAT
  1
GRIDFORMAT_BEGIN
 90
        0
 91
        1
 62
     0
 92
       -2
340
0
 93
        0
 40
0.045
309
GRIDFORMAT_END
 95
       16
302
GRIDFORMAT
  1
GRIDFORMAT_BEGIN
 90
        0
 91
        1
 62
     0
 92
       -2
340
0
 93
        0
 40
0.045
309
GRIDFORMAT_END
 95
       32
302
GRIDFORMAT
  1
GRIDFORMAT_BEGIN
 90
        0
 91
        1
 62
     0
 92
       -2
340
0
 93
        0
 40
0.045
309
GRIDFORMAT_END
309
TABLEFORMAT_END
  1
CELLSTYLE_BEGIN
 90
        3
 91
        2
300
_DATA
309
CELLSTYLE_END
  0
XRECORD
  5
2665
102
{ACAD_REACTORS
330
2664
102
}
330
2664
100
AcDbXrecord
280
     1
102
ACAD_ROUNDTRIP_PRE2007_TABLESTYLE
 90
        4
 91
        0
  1

 92
        4
 93
        0
  2

 94
        4
 95
        0
  3

  0
ENDSEC
  0
EOF
