  0
SECTION
  2
HEADER
  9
$ACADVER
  1
AC1018
  9
$ACADMAINTVER
 70
     0
  9
$DWGCODEPAGE
  3
ANSI_932
  9
$INSBASE
 10
0.0
 20
0.0
 30
0.0
  9
$EXTMIN
 10
510.0
 20
0.0
 30
0.0
  9
$EXTMAX
 10
12000.0
 20
8310.0
 30
0.0
  9
$LIMMIN
 10
0.0
 20
0.0
  9
$LIMMAX
 10
12600.0
 20
8910.0
  9
$ORTHOMODE
 70
     1
  9
$REGENMODE
 70
     1
  9
$FILLMODE
 70
     1
  9
$QTEXTMODE
 70
     0
  9
$MIRRTEXT
 70
     1
  9
$LTSCALE
 40
300.0
  9
$ATTMODE
 70
     1
  9
$TEXTSIZE
 40
90.0
  9
$TRACEWID
 40
0.05
  9
$TEXTSTYLE
  7
STANDARD
  9
$CLAYER
  8
SUNPOU
  9
$CELTYPE
  6
BYLAYER
  9
$CECOLOR
 62
   256
  9
$CELTSCALE
 40
1.0
  9
$DISPSILH
 70
     0
  9
$DIMSCALE
 40
30.0
  9
$DIMASZ
 40
2.0
  9
$DIMEXO
 40
2.0
  9
$DIMDLI
 40
7.0
  9
$DIMRND
 40
0.0
  9
$DIMDLE
 40
0.0
  9
$DIMEXE
 40
0.5
  9
$DIMTP
 40
0.0
  9
$DIMTM
 40
0.0
  9
$DIMTXT
 40
3.0
  9
$DIMCEN
 40
0.0
  9
$DIMTSZ
 40
0.0
  9
$DIMTOL
 70
     0
  9
$DIMLIM
 70
     0
  9
$DIMTIH
 70
     0
  9
$DIMTOH
 70
     0
  9
$DIMSE1
 70
     0
  9
$DIMSE2
 70
     0
  9
$DIMTAD
 70
     1
  9
$DIMZIN
 70
     8
  9
$DIMBLK
  1

  9
$DIMASO
 70
     1
  9
$DIMSHO
 70
     1
  9
$DIMPOST
  1

  9
$DIMAPOST
  1

  9
$DIMALT
 70
     0
  9
$DIMALTD
 70
     2
  9
$DIMALTF
 40
25.4
  9
$DIMLFAC
 40
1.0
  9
$DIMTOFL
 70
     0
  9
$DIMTVP
 40
1.0
  9
$DIMTIX
 70
     1
  9
$DIMSOXD
 70
     0
  9
$DIMSAH
 70
     0
  9
$DIMBLK1
  1

  9
$DIMBLK2
  1

  9
$DIMSTYLE
  2
A3-30
  9
$DIMCLRD
 70
     0
  9
$DIMCLRE
 70
     0
  9
$DIMCLRT
 70
     0
  9
$DIMTFAC
 40
1.0
  9
$DIMGAP
 40
0.8
  9
$DIMJUST
 70
     0
  9
$DIMSD1
 70
     0
  9
$DIMSD2
 70
     0
  9
$DIMTOLJ
 70
     1
  9
$DIMTZIN
 70
     8
  9
$DIMALTZ
 70
     8
  9
$DIMALTTZ
 70
     8
  9
$DIMUPT
 70
     0
  9
$DIMDEC
 70
     0
  9
$DIMTDEC
 70
     0
  9
$DIMALTU
 70
     2
  9
$DIMALTTD
 70
     2
  9
$DIMTXSTY
  7
STANDARD
  9
$DIMAUNIT
 70
     0
  9
$DIMADEC
 70
     4
  9
$DIMALTRND
 40
0.0
  9
$DIMAZIN
 70
     0
  9
$DIMDSEP
 70
    46
  9
$DIMATFIT
 70
     3
  9
$DIMFRAC
 70
     0
  9
$DIMLDRBLK
  1

  9
$DIMLUNIT
 70
     2
  9
$DIMLWD
 70
    -2
  9
$DIMLWE
 70
    -2
  9
$DIMTMOVE
 70
     2
  9
$LUNITS
 70
     2
  9
$LUPREC
 70
     4
  9
$SKETCHINC
 40
0.1
  9
$FILLETRAD
 40
0.0
  9
$AUNITS
 70
     0
  9
$AUPREC
 70
     6
  9
$MENU
  1
acad
  9
$ELEVATION
 40
0.0
  9
$PELEVATION
 40
0.0
  9
$THICKNESS
 40
0.0
  9
$LIMCHECK
 70
     0
  9
$CHAMFERA
 40
0.0
  9
$CHAMFERB
 40
0.0
  9
$CHAMFERC
 40
0.0
  9
$CHAMFERD
 40
0.0
  9
$SKPOLY
 70
     0
  9
$TDCREATE
 40
2450014.659421296
  9
$TDUCREATE
 40
2450014.284421296
  9
$TDUPDATE
 40
2455355.378092257
  9
$TDUUPDATE
 40
2455355.003092257
  9
$TDINDWG
 40
0.0736693171
  9
$TDUSRTIMER
 40
0.0736693171
  9
$USRTIMER
 70
     1
  9
$ANGBASE
 50
0.0
  9
$ANGDIR
 70
     0
  9
$PDMODE
 70
     0
  9
$PDSIZE
 40
0.0
  9
$PLINEWID
 40
0.0
  9
$SPLFRAME
 70
     0
  9
$SPLINETYPE
 70
     6
  9
$SPLINESEGS
 70
     8
  9
$HANDSEED
  5
1706
  9
$SURFTAB1
 70
     6
  9
$SURFTAB2
 70
     6
  9
$SURFTYPE
 70
     6
  9
$SURFU
 70
     6
  9
$SURFV
 70
     6
  9
$UCSBASE
  2

  9
$UCSNAME
  2

  9
$UCSORG
 10
0.0
 20
0.0
 30
0.0
  9
$UCSXDIR
 10
1.0
 20
0.0
 30
0.0
  9
$UCSYDIR
 10
0.0
 20
1.0
 30
0.0
  9
$UCSORTHOREF
  2

  9
$UCSORTHOVIEW
 70
     0
  9
$UCSORGTOP
 10
0.0
 20
0.0
 30
0.0
  9
$UCSORGBOTTOM
 10
0.0
 20
0.0
 30
0.0
  9
$UCSORGLEFT
 10
0.0
 20
0.0
 30
0.0
  9
$UCSORGRIGHT
 10
0.0
 20
0.0
 30
0.0
  9
$UCSORGFRONT
 10
0.0
 20
0.0
 30
0.0
  9
$UCSORGBACK
 10
0.0
 20
0.0
 30
0.0
  9
$PUCSBASE
  2

  9
$PUCSNAME
  2

  9
$PUCSORG
 10
0.0
 20
0.0
 30
0.0
  9
$PUCSXDIR
 10
1.0
 20
0.0
 30
0.0
  9
$PUCSYDIR
 10
0.0
 20
1.0
 30
0.0
  9
$PUCSORTHOREF
  2

  9
$PUCSORTHOVIEW
 70
     0
  9
$PUCSORGTOP
 10
0.0
 20
0.0
 30
0.0
  9
$PUCSORGBOTTOM
 10
0.0
 20
0.0
 30
0.0
  9
$PUCSORGLEFT
 10
0.0
 20
0.0
 30
0.0
  9
$PUCSORGRIGHT
 10
0.0
 20
0.0
 30
0.0
  9
$PUCSORGFRONT
 10
0.0
 20
0.0
 30
0.0
  9
$PUCSORGBACK
 10
0.0
 20
0.0
 30
0.0
  9
$USERI1
 70
     0
  9
$USERI2
 70
     0
  9
$USERI3
 70
     0
  9
$USERI4
 70
     0
  9
$USERI5
 70
     0
  9
$USERR1
 40
0.0
  9
$USERR2
 40
0.0
  9
$USERR3
 40
0.0
  9
$USERR4
 40
0.0
  9
$USERR5
 40
0.0
  9
$WORLDVIEW
 70
     1
  9
$SHADEDGE
 70
     3
  9
$SHADEDIF
 70
    70
  9
$TILEMODE
 70
     1
  9
$MAXACTVP
 70
    48
  9
$PINSBASE
 10
0.0
 20
0.0
 30
0.0
  9
$PLIMCHECK
 70
     0
  9
$PEXTMIN
 10
1.000000000000000E+20
 20
1.000000000000000E+20
 30
1.000000000000000E+20
  9
$PEXTMAX
 10
-1.000000000000000E+20
 20
-1.000000000000000E+20
 30
-1.000000000000000E+20
  9
$PLIMMIN
 10
0.0
 20
0.0
  9
$PLIMMAX
 10
12.0
 20
9.0
  9
$UNITMODE
 70
     0
  9
$VISRETAIN
 70
     0
  9
$PLINEGEN
 70
     0
  9
$PSLTSCALE
 70
     0
  9
$TREEDEPTH
 70
  3020
  9
$CMLSTYLE
  2
STANDARD
  9
$CMLJUST
 70
     0
  9
$CMLSCALE
 40
1.0
  9
$PROXYGRAPHICS
 70
     1
  9
$MEASUREMENT
 70
     0
  9
$CELWEIGHT
370
    -1
  9
$ENDCAPS
280
     0
  9
$JOINSTYLE
280
     0
  9
$LWDISPLAY
290
     0
  9
$INSUNITS
 70
     0
  9
$HYPERLINKBASE
  1

  9
$STYLESHEET
  1
acad.ctb
  9
$XEDIT
290
     1
  9
$CEPSNTYPE
380
     0
  9
$PSTYLEMODE
290
     1
  9
$FINGERPRINTGUID
  2
{9E4B692F-34DC-11D6-9351-0080AD72C8A3}
  9
$VERSIONGUID
  2
{A14CDC94-8556-4A7C-8EE7-8C78A2349517}
  9
$EXTNAMES
290
     1
  9
$PSVPSCALE
 40
0.0
  9
$OLESTARTUP
290
     0
  9
$SORTENTS
280
   127
  9
$INDEXCTL
280
     0
  9
$HIDETEXT
280
     1
  9
$XCLIPFRAME
290
     0
  9
$HALOGAP
280
     0
  9
$OBSCOLOR
 70
   257
  9
$OBSLTYPE
280
     0
  9
$INTERSECTIONDISPLAY
280
     0
  9
$INTERSECTIONCOLOR
 70
   257
  9
$DIMASSOC
280
     1
  9
$PROJECTNAME
  1

  0
ENDSEC
  0
SECTION
  2
CLASSES
  0
CLASS
  1
ACDBDICTIONARYWDFLT
  2
AcDbDictionaryWithDefault
  3
ObjectDBX Classes
 90
        0
 91
        4
280
     0
281
     0
  0
CLASS
  1
ACDBPLACEHOLDER
  2
AcDbPlaceHolder
  3
ObjectDBX Classes
 90
        0
 91
        1
280
     0
281
     0
  0
CLASS
  1
LAYOUT
  2
AcDbLayout
  3
ObjectDBX Classes
 90
        0
 91
        1
280
     0
281
     0
  0
CLASS
  1
DICTIONARYVAR
  2
AcDbDictionaryVar
  3
ObjectDBX Classes
 90
        0
 91
        4
280
     0
281
     0
  0
CLASS
  1
DUMMY
  2
AcDbLongTransaction
  3
DUMMY
 90
        0
 91
        1
280
     0
281
     0
  0
CLASS
  1
LWPOLYLINE
  2
AcDbPolyline
  3
AutoCAD 2000
 90
        0
 91
        1
280
     0
281
     1
  0
CLASS
  1
HATCH
  2
AcDbHatch
  3
AutoCAD 2000
 90
        0
 91
        1
280
     0
281
     1
  0
CLASS
  1
XRECORD
  2
AcDbXrecord
  3
AutoCAD 2000
 90
        0
 91
        1
280
     0
281
     0
  0
CLASS
  1
DUMMY
  2
AcDbLongTransaction
  3
DUMMY
 90
        0
 91
        1
280
     0
281
     0
  0
CLASS
  1
LWPOLYLINE
  2
AcDbPolyline
  3
AutoCAD 2000
 90
        0
 91
        1
280
     0
281
     1
  0
CLASS
  1
HATCH
  2
AcDbHatch
  3
AutoCAD 2000
 90
        0
 91
        1
280
     0
281
     1
  0
CLASS
  1
XRECORD
  2
AcDbXrecord
  3
AutoCAD 2000
 90
        0
 91
        1
280
     0
281
     0
  0
CLASS
  1
DUMMY
  2
AcDbLongTransaction
  3
DUMMY
 90
        0
 91
        1
280
     0
281
     0
  0
CLASS
  1
LWPOLYLINE
  2
AcDbPolyline
  3
AutoCAD 2000
 90
        0
 91
        1
280
     0
281
     1
  0
CLASS
  1
HATCH
  2
AcDbHatch
  3
AutoCAD 2000
 90
        0
 91
        1
280
     0
281
     1
  0
CLASS
  1
XRECORD
  2
AcDbXrecord
  3
AutoCAD 2000
 90
        0
 91
        1
280
     0
281
     0
  0
CLASS
  1
TABLESTYLE
  2
AcDbTableStyle
  3
ObjectDBX Classes
 90
     4095
 91
        4
280
     0
281
     0
  0
CLASS
  1
SCALE
  2
AcDbScale
  3
ObjectDBX Classes
 90
     1153
 91
        4
280
     0
281
     0
  0
CLASS
  1
CELLSTYLEMAP
  2
AcDbCellStyleMap
  3
ObjectDBX Classes
 90
     1152
 91
        4
280
     0
281
     0
  0
ENDSEC
  0
SECTION
  2
TABLES
  0
TABLE
  2
VPORT
  5
8
330
0
100
AcDbSymbolTable
 70
     2
  0
VPORT
  5
16D8
330
8
100
AcDbSymbolTableRecord
100
AcDbViewportTableRecord
  2
*Active
 70
     0
 10
0.0
 20
0.0
 11
1.0
 21
1.0
 12
5727.428699999537
 22
4176.669648182607
 13
0.0
 23
0.0
 14
30.0
 24
30.0
 15
300.0
 25
300.0
 16
0.0
 26
0.0
 36
1.0
 17
0.0
 27
0.0
 37
0.0
 40
9460.84769549554
 41
1.507024265644955
 42
50.0
 43
0.0
 44
0.0
 50
0.0
 51
0.0
 71
     0
 72
   100
 73
     1
 74
     1
 75
     0
 76
     0
 77
     0
 78
     0
281
     0
 65
     1
110
0.0
120
0.0
130
0.0
111
1.0
121
0.0
131
0.0
112
0.0
122
1.0
132
0.0
 79
     0
146
0.0
  0
ENDTAB
  0
TABLE
  2
LTYPE
  5
5
330
0
100
AcDbSymbolTable
 70
     4
  0
LTYPE
  5
11
330
5
100
AcDbSymbolTableRecord
100
AcDbLinetypeTableRecord
  2
BYBLOCK
 70
     0
  3

 72
    65
 73
     0
 40
0.0
  0
LTYPE
  5
12
330
5
100
AcDbSymbolTableRecord
100
AcDbLinetypeTableRecord
  2
BYLAYER
 70
     0
  3

 72
    65
 73
     0
 40
0.0
  0
LTYPE
  5
13
330
5
100
AcDbSymbolTableRecord
100
AcDbLinetypeTableRecord
  2
CONTINUOUS
 70
     0
  3
Solid line
 72
    65
 73
     0
 40
0.0
  0
LTYPE
  5
1E
330
5
100
AcDbSymbolTableRecord
100
AcDbLinetypeTableRecord
  2
HIDDEN
 70
     0
  3
_ _ _ _ _ _ _ _ _ _ _ _ _ _ _ _ _ _ _ _ _ _ _
 72
    65
 73
     2
 40
0.375
 49
0.25
 74
     0
 49
-0.125
 74
     0
  0
LTYPE
  5
1F
330
5
100
AcDbSymbolTableRecord
100
AcDbLinetypeTableRecord
  2
CENTER
 70
     0
  3
____ _ ____ _ ____ _ ____ _ ____ _ ____ _ ____
 72
    65
 73
     4
 40
2.0
 49
1.25
 74
     0
 49
-0.25
 74
     0
 49
0.25
 74
     0
 49
-0.25
 74
     0
  0
LTYPE
  5
20
330
5
100
AcDbSymbolTableRecord
100
AcDbLinetypeTableRecord
  2
PHANTOM
 70
     0
  3
_____ _ _ _____ _ _ _____ _ _ _____ _ _ ____
 72
    65
 73
     6
 40
2.5
 49
1.25
 74
     0
 49
-0.25
 74
     0
 49
0.25
 74
     0
 49
-0.25
 74
     0
 49
0.25
 74
     0
 49
-0.25
 74
     0
  0
ENDTAB
  0
TABLE
  2
LAYER
  5
2
330
0
100
AcDbSymbolTable
 70
    10
  0
LAYER
  5
E
330
2
100
AcDbSymbolTableRecord
100
AcDbLayerTableRecord
  2
0
 70
     0
 62
     7
  6
CONTINUOUS
370
    -3
390
7A
  0
LAYER
  5
23
330
2
100
AcDbSymbolTableRecord
100
AcDbLayerTableRecord
  2
SUNPOU
 70
     0
 62
     1
  6
CONTINUOUS
370
    -3
390
7A
  0
LAYER
  5
24
330
2
100
AcDbSymbolTableRecord
100
AcDbLayerTableRecord
  2
HAIKIN
 70
     0
 62
     2
  6
CONTINUOUS
370
    -3
390
7A
  0
LAYER
  5
25
330
2
100
AcDbSymbolTableRecord
100
AcDbLayerTableRecord
  2
SEIHIN
 70
     0
 62
     3
  6
CONTINUOUS
370
    -3
390
7A
  0
LAYER
  5
26
330
2
100
AcDbSymbolTableRecord
100
AcDbLayerTableRecord
  2
HASEN
 70
     0
 62
     4
  6
HIDDEN
370
    -3
390
7A
  0
LAYER
  5
27
330
2
100
AcDbSymbolTableRecord
100
AcDbLayerTableRecord
  2
1HASEN
 70
     0
 62
     5
  6
CENTER
370
    -3
390
7A
  0
LAYER
  5
28
330
2
100
AcDbSymbolTableRecord
100
AcDbLayerTableRecord
  2
2HASEN
 70
     0
 62
     6
  6
PHANTOM
370
    -3
390
7A
  0
LAYER
  5
29
330
2
100
AcDbSymbolTableRecord
100
AcDbLayerTableRecord
  2
HOJO
 70
     0
 62
     7
  6
CONTINUOUS
370
    -3
390
7A
  0
LAYER
  5
2A
330
2
100
AcDbSymbolTableRecord
100
AcDbLayerTableRecord
  2
TEN
 70
     0
 62
     7
  6
CONTINUOUS
370
    -3
390
7A
  0
LAYER
  5
70
330
2
100
AcDbSymbolTableRecord
100
AcDbLayerTableRecord
  2
DEFPOINTS
 70
     0
 62
     7
  6
CONTINUOUS
290
     0
370
    -3
390
7A
  0
ENDTAB
  0
TABLE
  2
STYLE
  5
3
330
0
100
AcDbSymbolTable
 70
     1
  0
STYLE
  5
F
330
3
100
AcDbSymbolTableRecord
100
AcDbTextStyleTableRecord
  2
STANDARD
 70
     0
 40
0.0
 41
0.8
 50
0.0
 71
     0
 42
90.0
  3
TXT.shx
  4
BIGFONT.shx
  0
ENDTAB
  0
TABLE
  2
VIEW
  5
6
330
0
100
AcDbSymbolTable
 70
     0
  0
ENDTAB
  0
TABLE
  2
UCS
  5
7
330
0
100
AcDbSymbolTable
 70
     0
  0
ENDTAB
  0
TABLE
  2
APPID
  5
9
330
0
100
AcDbSymbolTable
 70
    10
  0
APPID
  5
10
330
9
100
AcDbSymbolTableRecord
100
AcDbRegAppTableRecord
  2
ACAD
 70
     0
  0
APPID
  5
9B0
330
9
100
AcDbSymbolTableRecord
100
AcDbRegAppTableRecord
  2
ACAD_DSTYLE_DIMTEXT_FILL
 70
     0
  0
APPID
  5
9B1
330
9
100
AcDbSymbolTableRecord
100
AcDbRegAppTableRecord
  2
ACAD_DSTYLE_DIMEXT_LENGTH
 70
     0
  0
APPID
  5
9B2
330
9
100
AcDbSymbolTableRecord
100
AcDbRegAppTableRecord
  2
ACAD_DSTYLE_DIMEXT_ENABLED
 70
     0
  0
APPID
  5
9B3
330
9
100
AcDbSymbolTableRecord
100
AcDbRegAppTableRecord
  2
ACAD_DSTYLE_DIM_LINETYPE
 70
     0
  0
APPID
  5
9B4
330
9
100
AcDbSymbolTableRecord
100
AcDbRegAppTableRecord
  2
ACAD_DSTYLE_DIM_EXT1_LINETYPE
 70
     0
  0
APPID
  5
9B5
330
9
100
AcDbSymbolTableRecord
100
AcDbRegAppTableRecord
  2
ACAD_DSTYLE_DIM_EXT2_LINETYPE
 70
     0
  0
APPID
  5
A71
330
9
100
AcDbSymbolTableRecord
100
AcDbRegAppTableRecord
  2
ACAD_DSTYLE_DIMJOGGED_JOGANGLE_SYMBOL
 70
     0
  0
APPID
  5
C55
330
9
100
AcDbSymbolTableRecord
100
AcDbRegAppTableRecord
  2
ACAD_DSTYLE_DIMARC_LENGTH_SYMBOL
 70
     0
  0
APPID
  5
155D
330
9
100
AcDbSymbolTableRecord
100
AcDbRegAppTableRecord
  2
ACAD_EXEMPT_FROM_CAD_STANDARDS
 70
     0
  0
ENDTAB
  0
TABLE
  2
DIMSTYLE
  5
A
330
0
100
AcDbSymbolTable
 70
     2
100
AcDbDimStyleTable
  0
DIMSTYLE
105
61
330
A
100
AcDbSymbolTableRecord
100
AcDbDimStyleTableRecord
  2
STANDARD
 70
     0
178
     0
340
F
  0
DIMSTYLE
105
C5A
102
{ACAD_REACTORS
330
106A
330
1069
330
105C
330
105B
330
105A
330
1056
330
1054
330
104E
330
104D
330
104B
330
104A
330
101A
330
1017
330
1011
330
FFA
330
FF8
330
FEB
330
FE2
330
FDF
330
1483
330
15E4
330
15F2
330
160A
330
1617
102
}
330
A
100
AcDbSymbolTableRecord
100
AcDbDimStyleTableRecord
  2
A3-30
 70
     0
 40
30.0
 41
2.0
 42
2.0
 43
7.0
 44
0.5
 73
     0
 74
     0
 77
     1
 78
     8
140
3.0
141
0.0
145
1.0
147
0.8
174
     1
178
     0
179
     4
271
     0
272
     0
279
     2
284
     8
285
     8
286
     8
340
F
  0
ENDTAB
  0
TABLE
  2
BLOCK_RECORD
  5
1
330
0
100
AcDbSymbolTable
 70
    32
  0
BLOCK_RECORD
  5
17
330
1
100
AcDbSymbolTableRecord
100
AcDbBlockTableRecord
  2
*MODEL_SPACE
340
7D
  0
BLOCK_RECORD
  5
14
330
1
100
AcDbSymbolTableRecord
100
AcDbBlockTableRecord
  2
*PAPER_SPACE
340
7E
  0
BLOCK_RECORD
  5
1C
330
1
100
AcDbSymbolTableRecord
100
AcDbBlockTableRecord
  2
BORDER
340
0
  0
BLOCK_RECORD
  5
1D
330
1
100
AcDbSymbolTableRecord
100
AcDbBlockTableRecord
  2
SA3
340
0
102
{BLKREFS
331
60
102
}
  0
BLOCK_RECORD
  5
82
330
1
100
AcDbSymbolTableRecord
100
AcDbBlockTableRecord
  2
*D2
340
0
  0
BLOCK_RECORD
  5
8E
330
1
100
AcDbSymbolTableRecord
100
AcDbBlockTableRecord
  2
*D3
340
0
  0
BLOCK_RECORD
  5
9C
330
1
100
AcDbSymbolTableRecord
100
AcDbBlockTableRecord
  2
*D4
340
0
  0
BLOCK_RECORD
  5
AA
330
1
100
AcDbSymbolTableRecord
100
AcDbBlockTableRecord
  2
*D5
340
0
  0
BLOCK_RECORD
  5
B6
330
1
100
AcDbSymbolTableRecord
100
AcDbBlockTableRecord
  2
*D6
340
0
  0
BLOCK_RECORD
  5
C3
330
1
100
AcDbSymbolTableRecord
100
AcDbBlockTableRecord
  2
A$C79F54BAC
340
0
  0
BLOCK_RECORD
  5
106B
330
1
100
AcDbSymbolTableRecord
100
AcDbBlockTableRecord
  2
*D8
340
0
  0
BLOCK_RECORD
  5
1077
330
1
100
AcDbSymbolTableRecord
100
AcDbBlockTableRecord
  2
*D9
340
0
  0
BLOCK_RECORD
  5
1083
330
1
100
AcDbSymbolTableRecord
100
AcDbBlockTableRecord
  2
*D10
340
0
  0
BLOCK_RECORD
  5
1090
330
1
100
AcDbSymbolTableRecord
100
AcDbBlockTableRecord
  2
*D11
340
0
  0
BLOCK_RECORD
  5
109E
330
1
100
AcDbSymbolTableRecord
100
AcDbBlockTableRecord
  2
*D12
340
0
  0
BLOCK_RECORD
  5
10AA
330
1
100
AcDbSymbolTableRecord
100
AcDbBlockTableRecord
  2
*D13
340
0
  0
BLOCK_RECORD
  5
10B6
330
1
100
AcDbSymbolTableRecord
100
AcDbBlockTableRecord
  2
*D14
340
0
  0
BLOCK_RECORD
  5
10C2
330
1
100
AcDbSymbolTableRecord
100
AcDbBlockTableRecord
  2
*D15
340
0
  0
BLOCK_RECORD
  5
10CE
330
1
100
AcDbSymbolTableRecord
100
AcDbBlockTableRecord
  2
*D16
340
0
  0
BLOCK_RECORD
  5
10DA
330
1
100
AcDbSymbolTableRecord
100
AcDbBlockTableRecord
  2
*D17
340
0
  0
BLOCK_RECORD
  5
10F2
330
1
100
AcDbSymbolTableRecord
100
AcDbBlockTableRecord
  2
*D18
340
0
  0
BLOCK_RECORD
  5
10FE
330
1
100
AcDbSymbolTableRecord
100
AcDbBlockTableRecord
  2
*D19
340
0
  0
BLOCK_RECORD
  5
1146
330
1
100
AcDbSymbolTableRecord
100
AcDbBlockTableRecord
  2
*D20
340
0
  0
BLOCK_RECORD
  5
1152
330
1
100
AcDbSymbolTableRecord
100
AcDbBlockTableRecord
  2
*D21
340
0
  0
BLOCK_RECORD
  5
1182
330
1
100
AcDbSymbolTableRecord
100
AcDbBlockTableRecord
  2
*D22
340
0
  0
BLOCK_RECORD
  5
118E
330
1
100
AcDbSymbolTableRecord
100
AcDbBlockTableRecord
  2
*D23
340
0
  0
BLOCK_RECORD
  5
119A
330
1
100
AcDbSymbolTableRecord
100
AcDbBlockTableRecord
  2
*D24
340
0
  0
BLOCK_RECORD
  5
11F4
330
1
100
AcDbSymbolTableRecord
100
AcDbBlockTableRecord
  2
*D25
340
0
  0
BLOCK_RECORD
  5
1200
330
1
100
AcDbSymbolTableRecord
100
AcDbBlockTableRecord
  2
*D26
340
0
  0
BLOCK_RECORD
  5
1484
330
1
100
AcDbSymbolTableRecord
100
AcDbBlockTableRecord
  2
*D27
340
0
  0
BLOCK_RECORD
  5
15E5
330
1
100
AcDbSymbolTableRecord
100
AcDbBlockTableRecord
  2
*D28
340
0
  0
BLOCK_RECORD
  5
15F3
330
1
100
AcDbSymbolTableRecord
100
AcDbBlockTableRecord
  2
*D29
340
0
  0
BLOCK_RECORD
  5
160B
330
1
100
AcDbSymbolTableRecord
100
AcDbBlockTableRecord
  2
*D30
340
0
  0
BLOCK_RECORD
  5
1618
330
1
100
AcDbSymbolTableRecord
100
AcDbBlockTableRecord
  2
*D31
340
0
  0
ENDTAB
  0
ENDSEC
  0
SECTION
  2
BLOCKS
  0
BLOCK
  5
2D
330
17
100
AcDbEntity
  8
0
100
AcDbBlockBegin
  2
*MODEL_SPACE
 70
     0
 10
0.0
 20
0.0
 30
0.0
  3
*MODEL_SPACE
  1

  0
ENDBLK
  5
2E
330
17
100
AcDbEntity
  8
0
100
AcDbBlockEnd
  0
BLOCK
  5
2B
330
14
100
AcDbEntity
 67
     1
  8
0
100
AcDbBlockBegin
  2
*PAPER_SPACE
 70
     0
 10
0.0
 20
0.0
 30
0.0
  3
*PAPER_SPACE
  1

  0
ENDBLK
  5
2C
330
14
100
AcDbEntity
 67
     1
  8
0
100
AcDbBlockEnd
  0
BLOCK
  5
2F
330
1C
100
AcDbEntity
  8
0
100
AcDbBlockBegin
  2
BORDER
 70
     0
 10
0.0
 20
0.0
 30
0.0
  3
BORDER
  1

  0
LINE
  5
30
330
1C
100
AcDbEntity
  8
0
100
AcDbLine
 10
0.0
 20
0.0
 30
0.0
 11
1.00000000000004
 21
0.0
 31
0.0
  0
LINE
  5
31
330
1C
100
AcDbEntity
  8
0
100
AcDbLine
 10
1.00000000000004
 20
0.0
 30
0.0
 11
1.00000000000004
 21
1.00000000000004
 31
0.0
  0
LINE
  5
32
330
1C
100
AcDbEntity
  8
0
100
AcDbLine
 10
1.00000000000004
 20
1.00000000000004
 30
0.0
 11
0.0
 21
1.00000000000004
 31
0.0
  0
LINE
  5
33
330
1C
100
AcDbEntity
  8
0
100
AcDbLine
 10
0.0
 20
1.00000000000004
 30
0.0
 11
0.0
 21
0.0
 31
0.0
  0
ENDBLK
  5
34
330
1C
100
AcDbEntity
  8
0
100
AcDbBlockEnd
  0
BLOCK
  5
35
330
1D
100
AcDbEntity
  8
HAIKIN
100
AcDbBlockBegin
  2
SA3
 70
     0
 10
0.0
 20
0.0
 30
0.0
  3
SA3
  1

  0
TEXT
  5
36
330
1D
100
AcDbEntity
  8
SUNPOU
100
AcDbText
 10
340.0
 20
0.0
 30
0.0
 40
2.5
  1
新和コンクリート工業株式会社
100
AcDbText
  0
TEXT
  5
39
330
1D
100
AcDbEntity
  8
SUNPOU
100
AcDbText
 10
361.4166666666667
 20
6.25
 30
0.0
 40
2.5
  1
製図
 72
     4
 11
364.0
 21
7.5
 31
0.0
100
AcDbText
  0
TEXT
  5
3A
330
1D
100
AcDbEntity
  8
SUNPOU
100
AcDbText
 10
361.3333333333333
 20
11.25
 30
0.0
 40
2.5
  1
設計
 72
     4
 11
364.0
 21
12.5
 31
0.0
100
AcDbText
  0
TEXT
  5
3B
330
1D
100
AcDbEntity
  8
SUNPOU
100
AcDbText
 10
339.0833333333333
 20
6.250000000000014
 30
0.0
 40
2.5
  1
認
 72
     4
 11
340.25
 21
7.500000000000014
 31
0.0
100
AcDbText
  0
TEXT
  5
3C
330
1D
100
AcDbEntity
  8
SUNPOU
100
AcDbText
 10
339.0833333333333
 20
11.33333333333336
 30
0.0
 40
2.5
  1
承
 72
     4
 11
340.25
 21
12.50000000000003
 31
0.0
100
AcDbText
  0
TEXT
  5
3D
330
1D
100
AcDbEntity
  8
SUNPOU
100
AcDbText
 10
312.75
 20
11.75000000000001
 30
0.0
 40
2.5
  1
図　面　番　号
 72
     4
 11
323.0
 21
13.00000000000001
 31
0.0
100
AcDbText
  0
TEXT
  5
3E
330
1D
100
AcDbEntity
  8
SUNPOU
100
AcDbText
 10
362.0
 20
17.0
 30
0.0
 40
2.5
  1
１／
100
AcDbText
  0
TEXT
  5
3F
330
1D
100
AcDbEntity
  8
SUNPOU
100
AcDbText
 10
347.3333333333333
 20
16.25000000000001
 30
0.0
 40
2.5
  1
縮　　尺
 72
     4
 11
353.0
 21
17.50000000000001
 31
0.0
100
AcDbText
  0
TEXT
  5
40
330
1D
100
AcDbEntity
  8
SUNPOU
100
AcDbText
 10
347.3333333333333
 20
21.25
 30
0.0
 40
2.5
  1
鉄 筋 量
 72
     4
 11
353.0
 21
22.5
 31
0.0
100
AcDbText
  0
TEXT
  5
41
330
1D
100
AcDbEntity
  8
SUNPOU
100
AcDbText
 10
347.3333333333333
 20
26.25
 30
0.0
 40
2.5
  1
製 造 数
 72
     4
 11
353.0
 21
27.5
 31
0.0
100
AcDbText
  0
TEXT
  5
42
330
1D
100
AcDbEntity
  8
SUNPOU
100
AcDbText
 10
377.0
 20
21.0
 30
0.0
 40
2.5
  1
ｋｇ
 72
     2
 11
382.0
 21
21.0
 31
0.0
100
AcDbText
  0
TEXT
  5
43
330
1D
100
AcDbEntity
  8
SUNPOU
100
AcDbText
 10
339.5
 20
21.0
 30
0.0
 40
2.5
  1
ｋｇ
 72
     2
 11
344.5
 21
21.0
 31
0.0
100
AcDbText
  0
TEXT
  5
44
330
1D
100
AcDbEntity
  8
SUNPOU
100
AcDbText
 10
310.0
 20
16.25000000000001
 30
0.0
 40
2.5
  1
年 月 日
 72
     4
 11
315.5
 21
17.50000000000001
 31
0.0
100
AcDbText
  0
TEXT
  5
45
330
1D
100
AcDbEntity
  8
SUNPOU
100
AcDbText
 10
309.8333333333333
 20
21.25
 30
0.0
 40
2.5
  1
製品質量
 72
     4
 11
315.5
 21
22.5
 31
0.0
100
AcDbText
  0
TEXT
  5
46
330
1D
100
AcDbEntity
  8
SUNPOU
100
AcDbText
 10
309.9166666666667
 20
26.25
 30
0.0
 40
2.5
  1
業 者 名
 72
     4
 11
315.5
 21
27.5
 31
0.0
100
AcDbText
  0
TEXT
  5
47
330
1D
100
AcDbEntity
  8
SUNPOU
100
AcDbText
 10
309.8333333333333
 20
32.5
 30
0.0
 40
2.5
  1
名　　称
 72
     4
 11
315.5
 21
33.75
 31
0.0
100
AcDbText
  0
LINE
  5
48
330
1D
100
AcDbEntity
  8
SUNPOU
100
AcDbLine
 10
338.0
 20
11.00000000000001
 30
0.0
 11
308.0
 21
11.00000000000001
 31
0.0
  0
LINE
  5
49
330
1D
100
AcDbEntity
  8
SUNPOU
100
AcDbLine
 10
367.5
 20
4.999999999999986
 30
0.0
 11
367.5
 21
14.99999999999999
 31
0.0
  0
LINE
  5
4A
330
1D
100
AcDbEntity
  8
SUNPOU
100
AcDbLine
 10
360.5
 20
4.999999999999986
 30
0.0
 11
360.5
 21
14.99999999999999
 31
0.0
  0
LINE
  5
4B
330
1D
100
AcDbEntity
  8
SUNPOU
100
AcDbLine
 10
342.5
 20
4.999999999999995
 30
0.0
 11
342.5
 21
15.0
 31
0.0
  0
LINE
  5
4C
330
1D
100
AcDbEntity
  8
SUNPOU
100
AcDbLine
 10
338.0
 20
4.999999999999995
 30
0.0
 11
338.0
 21
15.0
 31
0.0
  0
LINE
  5
4D
330
1D
100
AcDbEntity
  8
SUNPOU
100
AcDbLine
 10
323.0
 20
15.00000000000001
 30
0.0
 11
323.0
 21
37.5
 31
0.0
  0
LINE
  5
4E
330
1D
100
AcDbEntity
  8
SUNPOU
100
AcDbLine
 10
360.5
 20
15.00000000000001
 30
0.0
 11
360.5
 21
30.0
 31
0.0
  0
LINE
  5
4F
330
1D
100
AcDbEntity
  8
SUNPOU
100
AcDbLine
 10
345.5
 20
15.00000000000001
 30
0.0
 11
345.5
 21
30.0
 31
0.0
  0
LINE
  5
50
330
1D
100
AcDbEntity
  8
SUNPOU
100
AcDbLine
 10
383.0
 20
30.0
 30
0.0
 11
308.0
 21
30.0
 31
0.0
  0
LINE
  5
51
330
1D
100
AcDbEntity
  8
SUNPOU
100
AcDbLine
 10
383.0
 20
25.0
 30
0.0
 11
308.0
 21
25.0
 31
0.0
  0
LINE
  5
52
330
1D
100
AcDbEntity
  8
SUNPOU
100
AcDbLine
 10
383.0
 20
20.0
 30
0.0
 11
308.0
 21
20.0
 31
0.0
  0
LINE
  5
53
330
1D
100
AcDbEntity
  8
SUNPOU
100
AcDbLine
 10
383.0
 20
14.99999999999999
 30
0.0
 11
308.0
 21
15.00000000000004
 31
0.0
  0
LINE
  5
54
330
1D
100
AcDbEntity
  8
HAIKIN
100
AcDbLine
 10
308.0
 20
37.5
 30
0.0
 11
383.0
 21
37.5
 31
0.0
  0
LINE
  5
55
330
1D
100
AcDbEntity
  8
HAIKIN
100
AcDbLine
 10
308.0
 20
5.000000000000009
 30
0.0
 11
308.0
 21
37.5
 31
0.0
  0
LINE
  5
56
330
1D
100
AcDbEntity
  8
SUNPOU
100
AcDbLine
 10
0.000000000000016
 20
277.0
 30
0.0
 11
0.000000000000016
 21
272.0
 31
0.0
  0
LINE
  5
57
330
1D
100
AcDbEntity
  8
SUNPOU
100
AcDbLine
 10
25.00000000000001
 20
277.0
 30
0.0
 11
0.000000000000016
 21
277.0
 31
0.0
  0
LINE
  5
58
330
1D
100
AcDbEntity
  8
SUNPOU
100
AcDbLine
 10
25.00000000000001
 20
272.0
 30
0.0
 11
25.00000000000001
 21
277.0
 31
0.0
  0
LINE
  5
59
330
1D
100
AcDbEntity
  8
HAIKIN
100
AcDbLine
 10
0.0000000000000004
 20
5.0
 30
0.0
 11
383.0
 21
5.0
 31
0.0
  0
LINE
  5
5A
330
1D
100
AcDbEntity
  8
HAIKIN
100
AcDbLine
 10
0.0000000000000158
 20
272.0
 30
0.0
 11
383.0
 21
272.0
 31
0.0
  0
LINE
  5
5B
330
1D
100
AcDbEntity
  8
HAIKIN
100
AcDbLine
 10
383.0
 20
272.0
 30
0.0
 11
383.0
 21
5.0
 31
0.0
  0
TEXT
  5
5C
330
1D
100
AcDbEntity
  8
SUNPOU
100
AcDbText
 10
3.700000000000017
 20
273.0
 30
0.0
 40
3.0
  1
Ｈ－２－共
 72
     4
 11
12.50000000000002
 21
274.5
 31
0.0
100
AcDbText
  0
LINE
  5
5D
330
1D
100
AcDbEntity
  8
HAIKIN
100
AcDbLine
 10
0.0000000000000004
 20
5.0
 30
0.0
 11
0.0000000000000158
 21
272.0
 31
0.0
  0
ENDBLK
  5
5E
330
1D
100
AcDbEntity
  8
HAIKIN
100
AcDbBlockEnd
  0
BLOCK
  5
8C
330
82
100
AcDbEntity
  8
0
100
AcDbBlockBegin
  2
*D2
 70
     1
 10
0.0
 20
0.0
 30
0.0
  3
*D2
  1

  0
LINE
  5
83
330
82
100
AcDbEntity
  8
SUNPOU
370
    -2
100
AcDbLine
 10
14459.99999999999
 20
11910.0
 30
0.0
 11
15605.99999999999
 21
11910.0
 31
0.0
  0
LINE
  5
84
330
82
100
AcDbEntity
  8
SUNPOU
370
    -2
100
AcDbLine
 10
14459.99999999999
 20
13710.0
 30
0.0
 11
15605.99999999999
 21
13710.0
 31
0.0
  0
LINE
  5
85
330
82
100
AcDbEntity
  8
SUNPOU
370
    -2
100
AcDbLine
 10
15569.99999999999
 20
12000.0
 30
0.0
 11
15569.99999999999
 21
13620.0
 31
0.0
  0
MTEXT
  5
86
330
82
100
AcDbEntity
  8
SUNPOU
 62
     0
100
AcDbMText
 10
15404.05869794343
 20
12806.25726232369
 30
0.0
 40
180.0
 41
0.0
 71
     5
 72
     1
  1
\A1;15@120=1800
 11
6.123031769111886E-17
 21
1.0
 31
0.0
 73
     1
 44
1.0
  0
SOLID
  5
87
330
82
100
AcDbEntity
  8
SUNPOU
100
AcDbTrace
 10
15554.99999999999
 20
12000.0
 30
0.0
 11
15584.99999999999
 21
12000.0
 31
0.0
 12
15569.99999999999
 22
11910.0
 32
0.0
 13
15569.99999999999
 23
11910.0
 33
0.0
  0
SOLID
  5
88
330
82
100
AcDbEntity
  8
SUNPOU
100
AcDbTrace
 10
15554.99999999999
 20
13620.0
 30
0.0
 11
15584.99999999999
 21
13620.0
 31
0.0
 12
15569.99999999999
 22
13710.0
 32
0.0
 13
15569.99999999999
 23
13710.0
 33
0.0
  0
POINT
  5
89
330
82
100
AcDbEntity
  8
DEFPOINTS
 62
     0
100
AcDbPoint
 10
14369.99999999999
 20
11910.0
 30
0.0
  0
POINT
  5
8A
330
82
100
AcDbEntity
  8
DEFPOINTS
 62
     0
100
AcDbPoint
 10
14369.99999999999
 20
13710.0
 30
0.0
  0
POINT
  5
8B
330
82
100
AcDbEntity
  8
DEFPOINTS
 62
     0
100
AcDbPoint
 10
15569.99999999999
 20
13710.0
 30
0.0
  0
ENDBLK
  5
8D
330
82
100
AcDbEntity
  8
0
100
AcDbBlockEnd
  0
BLOCK
  5
9A
330
8E
100
AcDbEntity
  8
0
100
AcDbBlockBegin
  2
*D3
 70
     1
 10
0.0
 20
0.0
 30
0.0
  3
*D3
  1

  0
LINE
  5
8F
330
8E
100
AcDbEntity
  8
SUNPOU
370
    -2
100
AcDbLine
 10
14333.74999999999
 20
11805.0
 30
0.0
 11
15605.99999999999
 21
11805.0
 31
0.0
  0
LINE
  5
90
330
8E
100
AcDbEntity
  8
SUNPOU
370
    -2
100
AcDbLine
 10
14489.70588235293
 20
11910.0
 30
0.0
 11
15605.99999999999
 21
11910.0
 31
0.0
  0
LINE
  5
91
330
8E
100
AcDbEntity
  8
SUNPOU
370
    -2
100
AcDbLine
 10
15569.99999999999
 20
11715.0
 30
0.0
 11
15569.99999999999
 21
11625.0
 31
0.0
  0
LINE
  5
92
330
8E
100
AcDbEntity
  8
SUNPOU
370
    -2
100
AcDbLine
 10
15569.99999999999
 20
12000.0
 30
0.0
 11
15569.99999999999
 21
12090.0
 31
0.0
  0
MTEXT
  5
93
330
8E
100
AcDbEntity
  8
SUNPOU
 62
     0
100
AcDbMText
 10
15730.33993097525
 20
11906.05735268755
 30
0.0
 40
180.0
 41
0.0
 71
     5
 72
     1
  1
\A1;105
 11
6.123031769111886E-17
 21
1.0
 31
0.0
 73
     1
 44
1.0
  0
LINE
  5
94
330
8E
100
AcDbEntity
  8
SUNPOU
370
    -2
100
AcDbLine
 10
15569.99999999999
 20
11805.0
 30
0.0
 11
15569.99999999999
 21
11910.0
 31
0.0
  0
SOLID
  5
95
330
8E
100
AcDbEntity
  8
SUNPOU
100
AcDbTrace
 10
15554.99999999999
 20
11715.0
 30
0.0
 11
15584.99999999999
 21
11715.0
 31
0.0
 12
15569.99999999999
 22
11805.0
 32
0.0
 13
15569.99999999999
 23
11805.0
 33
0.0
  0
SOLID
  5
96
330
8E
100
AcDbEntity
  8
SUNPOU
100
AcDbTrace
 10
15554.99999999999
 20
12000.0
 30
0.0
 11
15584.99999999999
 21
12000.0
 31
0.0
 12
15569.99999999999
 22
11910.0
 32
0.0
 13
15569.99999999999
 23
11910.0
 33
0.0
  0
POINT
  5
97
330
8E
100
AcDbEntity
  8
DEFPOINTS
 62
     0
100
AcDbPoint
 10
14243.74999999999
 20
11805.0
 30
0.0
  0
POINT
  5
98
330
8E
100
AcDbEntity
  8
DEFPOINTS
 62
     0
100
AcDbPoint
 10
14399.70588235293
 20
11910.0
 30
0.0
  0
POINT
  5
99
330
8E
100
AcDbEntity
  8
DEFPOINTS
 62
     0
100
AcDbPoint
 10
15569.99999999999
 20
11910.0
 30
0.0
  0
ENDBLK
  5
9B
330
8E
100
AcDbEntity
  8
0
100
AcDbBlockEnd
  0
BLOCK
  5
A8
330
9C
100
AcDbEntity
  8
0
100
AcDbBlockBegin
  2
*D4
 70
     1
 10
0.0
 20
0.0
 30
0.0
  3
*D4
  1

  0
LINE
  5
9D
330
9C
100
AcDbEntity
  8
SUNPOU
370
    -2
100
AcDbLine
 10
14459.99999999999
 20
13710.0
 30
0.0
 11
15605.99999999999
 21
13710.0
 31
0.0
  0
LINE
  5
9E
330
9C
100
AcDbEntity
  8
SUNPOU
370
    -2
100
AcDbLine
 10
14459.99999999999
 20
13770.0
 30
0.0
 11
15605.99999999999
 21
13770.0
 31
0.0
  0
LINE
  5
9F
330
9C
100
AcDbEntity
  8
SUNPOU
370
    -2
100
AcDbLine
 10
15569.99999999999
 20
13620.0
 30
0.0
 11
15569.99999999999
 21
13530.0
 31
0.0
  0
LINE
  5
A0
330
9C
100
AcDbEntity
  8
SUNPOU
370
    -2
100
AcDbLine
 10
15569.99999999999
 20
13860.0
 30
0.0
 11
15569.99999999999
 21
13950.0
 31
0.0
  0
MTEXT
  5
A1
330
9C
100
AcDbEntity
  8
SUNPOU
 62
     0
100
AcDbMText
 10
15437.48050855183
 20
13968.0082924672
 30
0.0
 40
180.0
 41
0.0
 71
     5
 72
     1
  1
\A1;60
 11
6.123031769111886E-17
 21
1.0
 31
0.0
 73
     1
 44
1.0
  0
LINE
  5
A2
330
9C
100
AcDbEntity
  8
SUNPOU
370
    -2
100
AcDbLine
 10
15569.99999999999
 20
13710.0
 30
0.0
 11
15569.99999999999
 21
13770.0
 31
0.0
  0
SOLID
  5
A3
330
9C
100
AcDbEntity
  8
SUNPOU
100
AcDbTrace
 10
15554.99999999999
 20
13620.0
 30
0.0
 11
15584.99999999999
 21
13620.0
 31
0.0
 12
15569.99999999999
 22
13710.0
 32
0.0
 13
15569.99999999999
 23
13710.0
 33
0.0
  0
SOLID
  5
A4
330
9C
100
AcDbEntity
  8
SUNPOU
100
AcDbTrace
 10
15554.99999999999
 20
13860.0
 30
0.0
 11
15584.99999999999
 21
13860.0
 31
0.0
 12
15569.99999999999
 22
13770.0
 32
0.0
 13
15569.99999999999
 23
13770.0
 33
0.0
  0
POINT
  5
A5
330
9C
100
AcDbEntity
  8
DEFPOINTS
 62
     0
100
AcDbPoint
 10
14369.99999999999
 20
13710.0
 30
0.0
  0
POINT
  5
A6
330
9C
100
AcDbEntity
  8
DEFPOINTS
 62
     0
100
AcDbPoint
 10
14369.99999999999
 20
13770.0
 30
0.0
  0
POINT
  5
A7
330
9C
100
AcDbEntity
  8
DEFPOINTS
 62
     0
100
AcDbPoint
 10
15569.99999999999
 20
13770.0
 30
0.0
  0
ENDBLK
  5
A9
330
9C
100
AcDbEntity
  8
0
100
AcDbBlockEnd
  0
BLOCK
  5
B4
330
AA
100
AcDbEntity
  8
0
100
AcDbBlockBegin
  2
*D5
 70
     1
 10
0.0
 20
0.0
 30
0.0
  3
*D5
  1

  0
LINE
  5
AB
330
AA
100
AcDbEntity
  8
SUNPOU
370
    -2
100
AcDbLine
 10
14324.99999999999
 20
11770.0
 30
0.0
 11
15905.99999999999
 21
11770.0
 31
0.0
  0
LINE
  5
AC
330
AA
100
AcDbEntity
  8
SUNPOU
370
    -2
100
AcDbLine
 10
14594.99999999999
 20
13770.0
 30
0.0
 11
15905.99999999999
 21
13770.0
 31
0.0
  0
LINE
  5
AD
330
AA
100
AcDbEntity
  8
SUNPOU
370
    -2
100
AcDbLine
 10
15869.99999999999
 20
11860.0
 30
0.0
 11
15869.99999999999
 21
13680.0
 31
0.0
  0
SOLID
  5
AE
330
AA
100
AcDbEntity
  8
SUNPOU
100
AcDbTrace
 10
15854.99999999999
 20
11860.0
 30
0.0
 11
15884.99999999999
 21
11860.0
 31
0.0
 12
15869.99999999999
 22
11770.0
 32
0.0
 13
15869.99999999999
 23
11770.0
 33
0.0
  0
SOLID
  5
AF
330
AA
100
AcDbEntity
  8
SUNPOU
100
AcDbTrace
 10
15854.99999999999
 20
13680.0
 30
0.0
 11
15884.99999999999
 21
13680.0
 31
0.0
 12
15869.99999999999
 22
13770.0
 32
0.0
 13
15869.99999999999
 23
13770.0
 33
0.0
  0
MTEXT
  5
B0
330
AA
100
AcDbEntity
  8
SUNPOU
 62
     0
100
AcDbMText
 10
15731.99999999999
 20
12770.0
 30
0.0
 40
180.0
 41
0.0
 71
     5
 72
     1
  1
\A1;2000
 11
6.123031769111886E-17
 21
1.0
 31
0.0
 73
     1
 44
1.0
  0
POINT
  5
B1
330
AA
100
AcDbEntity
  8
DEFPOINTS
 62
     0
100
AcDbPoint
 10
14234.99999999999
 20
11770.0
 30
0.0
  0
POINT
  5
B2
330
AA
100
AcDbEntity
  8
DEFPOINTS
 62
     0
100
AcDbPoint
 10
14504.99999999999
 20
13770.0
 30
0.0
  0
POINT
  5
B3
330
AA
100
AcDbEntity
  8
DEFPOINTS
 62
     0
100
AcDbPoint
 10
15869.99999999999
 20
13770.0
 30
0.0
  0
ENDBLK
  5
B5
330
AA
100
AcDbEntity
  8
0
100
AcDbBlockEnd
  0
BLOCK
  5
C1
330
B6
100
AcDbEntity
  8
0
100
AcDbBlockBegin
  2
*D6
 70
     1
 10
0.0
 20
0.0
 30
0.0
  3
*D6
  1

  0
LINE
  5
B7
330
B6
100
AcDbEntity
  8
SUNPOU
 62
     0
370
    -2
100
AcDbLine
 10
14388.74999999999
 20
11805.0
 30
0.0
 11
15629.99999999999
 21
11805.0
 31
0.0
  0
LINE
  5
B8
330
B6
100
AcDbEntity
  8
SUNPOU
 62
     0
370
    -2
100
AcDbLine
 10
14379.99999999999
 20
11770.0
 30
0.0
 11
15629.99999999999
 21
11770.0
 31
0.0
  0
LINE
  5
B9
330
B6
100
AcDbEntity
  8
SUNPOU
 62
     0
370
    -2
100
AcDbLine
 10
15569.99999999999
 20
11895.0
 30
0.0
 11
15569.99999999999
 21
11985.0
 31
0.0
  0
LINE
  5
BA
330
B6
100
AcDbEntity
  8
SUNPOU
 62
     0
370
    -2
100
AcDbLine
 10
15569.99999999999
 20
11680.0
 30
0.0
 11
15569.99999999999
 21
11590.0
 31
0.0
  0
MTEXT
  5
BB
330
B6
100
AcDbEntity
  8
SUNPOU
 62
     0
100
AcDbMText
 10
15422.1488453184
 20
11572.59656658611
 30
0.0
 40
180.0
 41
0.0
 71
     5
 72
     1
  1
\A1;35
 11
6.123031769111886E-17
 21
1.0
 31
0.0
 73
     1
 44
1.0
  0
SOLID
  5
BC
330
B6
100
AcDbEntity
  8
SUNPOU
 62
     0
100
AcDbTrace
 10
15554.99999999999
 20
11895.0
 30
0.0
 11
15584.99999999999
 21
11895.0
 31
0.0
 12
15569.99999999999
 22
11805.0
 32
0.0
 13
15569.99999999999
 23
11805.0
 33
0.0
  0
SOLID
  5
BD
330
B6
100
AcDbEntity
  8
SUNPOU
 62
     0
100
AcDbTrace
 10
15554.99999999999
 20
11680.0
 30
0.0
 11
15584.99999999999
 21
11680.0
 31
0.0
 12
15569.99999999999
 22
11770.0
 32
0.0
 13
15569.99999999999
 23
11770.0
 33
0.0
  0
POINT
  5
BE
330
B6
100
AcDbEntity
  8
DEFPOINTS
 62
     0
100
AcDbPoint
 10
14268.74999999999
 20
11805.0
 30
0.0
  0
POINT
  5
BF
330
B6
100
AcDbEntity
  8
DEFPOINTS
 62
     0
100
AcDbPoint
 10
14259.99999999999
 20
11770.0
 30
0.0
  0
POINT
  5
C0
330
B6
100
AcDbEntity
  8
DEFPOINTS
 62
     0
100
AcDbPoint
 10
15569.99999999999
 20
11770.0
 30
0.0
  0
ENDBLK
  5
C2
330
B6
100
AcDbEntity
  8
0
100
AcDbBlockEnd
  0
BLOCK
  5
169
330
C3
100
AcDbEntity
  8
0
100
AcDbBlockBegin
  2
A$C79F54BAC
 70
     0
 10
0.0
 20
0.0
 30
0.0
  3
A$C79F54BAC
  1

  0
DIMENSION
  5
C4
330
C3
100
AcDbEntity
  8
SUNPOU
100
AcDbDimension
  2
*D2
 10
4229.99998564875
 20
2257.403415746125
 30
0.0
 11
4064.058683592186
 21
1353.660678069813
 31
0.0
 12
-11340.00001435124
 22
-11452.59658425388
 32
0.0
 70
   128
  1
15@120=<>
 71
     5
 42
-1.0
  3
STANDARD
100
AcDbAlignedDimension
 13
3029.99998564875
 23
457.4034157461228
 33
0.0
 14
3029.99998564875
 24
2257.403415746125
 34
0.0
 50
90.0
100
AcDbRotatedDimension
1001
ACAD
1000
DSTYLE
1002
{
1070
   287
1070
     5
1070
   287
1070
     5
1070
   287
1070
     5
1070
   287
1070
     5
1070
   287
1070
     5
1070
   287
1070
     5
1070
   287
1070
     5
1070
   287
1070
     5
1070
    40
1040
60.0
1070
    41
1040
1.5
1070
    42
1040
1.5
1070
    43
1040
7.0
1070
    44
1040
0.6
1070
    73
1070
     0
1070
    74
1070
     0
1070
    77
1070
     1
1070
    78
1070
     8
1070
   140
1040
3.0
1070
   141
1040
0.0
1070
   145
1040
1.0
1070
   147
1040
0.8
1070
   172
1070
     1
1070
   176
1070
   256
1070
   177
1070
   256
1070
   271
1070
     0
1070
   275
1070
     1
1070
   279
1070
     2
1070
   284
1070
     8
1070
   285
1070
     8
1070
   286
1070
     8
1002
}
  0
DIMENSION
  5
C5
330
C3
100
AcDbEntity
  8
SUNPOU
100
AcDbDimension
  2
*D3
 10
4229.99998564875
 20
457.4034157461228
 30
0.0
 11
4390.339916624003
 21
453.4607684336734
 31
0.0
 12
-11340.00001435124
 22
-11452.59658425388
 32
0.0
 70
   128
 71
     5
 42
-1.0
  3
STANDARD
100
AcDbAlignedDimension
 13
2903.74998564875
 23
352.4034157461247
 33
0.0
 14
3059.705868001689
 24
457.4034157461228
 34
0.0
 50
90.0
100
AcDbRotatedDimension
1001
ACAD
1000
DSTYLE
1002
{
1070
   287
1070
     5
1070
   287
1070
     5
1070
   287
1070
     5
1070
   287
1070
     5
1070
   287
1070
     5
1070
   287
1070
     5
1070
   287
1070
     5
1070
   287
1070
     5
1070
    40
1040
60.0
1070
    41
1040
1.5
1070
    42
1040
1.5
1070
    43
1040
7.0
1070
    44
1040
0.6
1070
    73
1070
     0
1070
    74
1070
     0
1070
    77
1070
     1
1070
    78
1070
     8
1070
   140
1040
3.0
1070
   141
1040
0.0
1070
   145
1040
1.0
1070
   147
1040
0.8
1070
   172
1070
     1
1070
   176
1070
   256
1070
   177
1070
   256
1070
   271
1070
     0
1070
   275
1070
     1
1070
   279
1070
     2
1070
   284
1070
     8
1070
   285
1070
     8
1070
   286
1070
     8
1002
}
  0
DIMENSION
  5
C6
330
C3
100
AcDbEntity
  8
SUNPOU
100
AcDbDimension
  2
*D4
 10
4229.99998564875
 20
2317.403415746121
 30
0.0
 11
4097.480494200581
 21
2515.411708213323
 31
0.0
 12
-11340.00001435124
 22
-11452.59658425388
 32
0.0
 70
   128
 71
     5
 42
-1.0
  3
STANDARD
100
AcDbAlignedDimension
 13
3029.99998564875
 23
2257.403415746125
 33
0.0
 14
3029.99998564875
 24
2317.403415746121
 34
0.0
 50
90.0
100
AcDbRotatedDimension
1001
ACAD
1000
DSTYLE
1002
{
1070
   287
1070
     5
1070
   287
1070
     5
1070
   287
1070
     5
1070
   287
1070
     5
1070
   287
1070
     5
1070
   287
1070
     5
1070
   287
1070
     5
1070
   287
1070
     5
1070
    40
1040
60.0
1070
    41
1040
1.5
1070
    42
1040
1.5
1070
    43
1040
7.0
1070
    44
1040
0.6
1070
    73
1070
     0
1070
    74
1070
     0
1070
    77
1070
     1
1070
    78
1070
     8
1070
   140
1040
3.0
1070
   141
1040
0.0
1070
   145
1040
1.0
1070
   147
1040
0.8
1070
   172
1070
     1
1070
   176
1070
   256
1070
   177
1070
   256
1070
   271
1070
     0
1070
   275
1070
     1
1070
   279
1070
     2
1070
   284
1070
     8
1070
   285
1070
     8
1070
   286
1070
     8
1002
}
  0
DIMENSION
  5
C7
330
C3
100
AcDbEntity
  8
SUNPOU
100
AcDbDimension
  2
*D5
 10
4529.99998564875
 20
2317.403415746123
 30
0.0
 11
4391.999985648747
 21
1317.403415746123
 31
0.0
 12
-11340.00001435124
 22
-11452.59658425388
 32
0.0
 71
     5
 42
-1.0
  3
STANDARD
100
AcDbAlignedDimension
 13
2894.99998564875
 23
317.403415746121
 33
0.0
 14
3164.99998564875
 24
2317.403415746123
 34
0.0
 50
90.0
100
AcDbRotatedDimension
1001
ACAD
1000
DSTYLE
1002
{
1070
   287
1070
     5
1070
   287
1070
     5
1070
   287
1070
     5
1070
   287
1070
     5
1070
   287
1070
     5
1070
   287
1070
     5
1070
   287
1070
     5
1070
   287
1070
     5
1070
    40
1040
60.0
1070
    41
1040
1.5
1070
    42
1040
1.5
1070
    43
1040
7.0
1070
    44
1040
0.6
1070
    73
1070
     0
1070
    74
1070
     0
1070
    77
1070
     1
1070
    78
1070
     8
1070
   140
1040
3.0
1070
   141
1040
0.0
1070
   145
1040
1.0
1070
   147
1040
0.8
1070
   172
1070
     1
1070
   176
1070
   256
1070
   177
1070
   256
1070
   271
1070
     0
1070
   275
1070
     1
1070
   279
1070
     2
1070
   284
1070
     8
1070
   285
1070
     8
1070
   286
1070
     8
1002
}
  0
DIMENSION
  5
C8
330
C3
100
AcDbEntity
  8
SUNPOU
100
AcDbDimension
  2
*D6
 10
4229.99998564875
 20
317.403415746121
 30
0.0
 11
4082.14883096716
 21
119.9999823322287
 31
0.0
 12
-11340.00001435124
 22
-11452.59658425388
 32
0.0
 70
   128
 71
     5
 42
-1.0
  3
STANDARD
100
AcDbAlignedDimension
 13
2928.74998564875
 23
352.4034157461247
 33
0.0
 14
2919.99998564875
 24
317.403415746121
 34
0.0
 50
90.0
100
AcDbRotatedDimension
1001
ACAD
1000
DSTYLE
1002
{
1070
   287
1070
     5
1070
   287
1070
     5
1070
   287
1070
     5
1070
   287
1070
     5
1070
   287
1070
     5
1070
   287
1070
     5
1070
   287
1070
     5
1070
   287
1070
     5
1070
    40
1040
60.0
1070
    41
1040
1.5
1070
    42
1040
2.0
1070
    43
1040
3.75
1070
    44
1040
1.0
1070
    73
1070
     0
1070
    74
1070
     0
1070
    77
1070
     1
1070
    78
1070
     8
1070
   140
1040
3.0
1070
   141
1040
2.5
1070
   143
1040
0.0394
1070
   147
1040
1.0
1070
   171
1070
     4
1070
   271
1070
     0
1070
   273
1070
     8
1070
   274
1070
     4
1070
   279
1070
     2
1002
}
  0
LINE
  5
C9
330
C3
100
AcDbEntity
  8
SUNPOU
100
AcDbLine
 10
1679.999985648763
 20
3227.403415746123
 30
0.0
 11
899.9999856487611
 21
3227.403415746123
 31
0.0
1001
ACAD
1000
DSTYLE
1002
{
1070
    78
1070
     8
1070
   284
1070
     8
1070
   140
1040
3.0
1070
   145
1040
1.0
1070
    74
1070
     0
1070
   172
1070
     1
1070
    73
1070
     0
1070
    77
1070
     1
1070
    40
1040
60.0
1070
   147
1040
0.8
1070
   287
1070
     5
1070
    42
1040
1.5
1070
    44
1040
0.6
1070
    43
1040
7.0
1070
   271
1070
     0
1070
   177
1070
   256
1070
   176
1070
   256
1070
   141
1040
0.0
1070
   275
1070
     1
1070
    41
1040
1.5
1070
   285
1070
     8
1070
   286
1070
     8
1002
}
  0
SOLID
  5
CA
330
C3
100
AcDbEntity
  8
SUNPOU
100
AcDbTrace
 10
1216.999985648774
 20
1372.403415746125
 30
0.0
 11
1306.999985648774
 21
1357.403415746123
 31
0.0
 12
1216.999985648774
 22
1342.403415746125
 32
0.0
 13
1216.999985648774
 23
1342.403415746125
 33
0.0
1001
ACAD
1000
DSTYLE
1002
{
1070
    78
1070
     8
1070
   284
1070
     8
1070
   140
1040
3.0
1070
   145
1040
1.0
1070
    74
1070
     0
1070
   172
1070
     1
1070
    73
1070
     0
1070
    77
1070
     1
1070
    40
1040
60.0
1070
   147
1040
0.8
1070
   287
1070
     5
1070
    42
1040
1.5
1070
    44
1040
0.6
1070
    43
1040
7.0
1070
   271
1070
     0
1070
   177
1070
   256
1070
   176
1070
   256
1070
   141
1040
0.0
1070
   275
1070
     1
1070
    41
1040
1.5
1070
   285
1070
     8
1070
   286
1070
     8
1002
}
  0
LINE
  5
CB
330
C3
100
AcDbEntity
  8
SUNPOU
100
AcDbLine
 10
329.9999856487375
 20
1357.403415746123
 30
0.0
 11
1426.999985648756
 21
1357.403415746126
 31
0.0
1001
ACAD
1000
DSTYLE
1002
{
1070
    78
1070
     8
1070
   284
1070
     8
1070
   140
1040
3.0
1070
   145
1040
1.0
1070
    74
1070
     0
1070
   172
1070
     1
1070
    73
1070
     0
1070
    77
1070
     1
1070
    40
1040
60.0
1070
   147
1040
0.8
1070
   287
1070
     5
1070
    42
1040
1.5
1070
    44
1040
0.6
1070
    43
1040
7.0
1070
   271
1070
     0
1070
   177
1070
   256
1070
   176
1070
   256
1070
   141
1040
0.0
1070
   275
1070
     1
1070
    41
1040
1.5
1070
   285
1070
     8
1070
   286
1070
     8
1002
}
  0
LINE
  5
CC
330
C3
100
AcDbEntity
  8
HAIKIN
100
AcDbLine
 10
1979.999985648756
 20
2052.403415746123
 30
0.0
 11
964.9999856487557
 21
2052.403415746117
 31
0.0
  0
LINE
  5
CD
330
C3
100
AcDbEntity
  8
HAIKIN
100
AcDbLine
 10
1979.999985648765
 20
1992.403415746121
 30
0.0
 11
964.9999856487557
 21
1992.403415746117
 31
0.0
  0
LINE
  5
CE
330
C3
100
AcDbEntity
  8
HAIKIN
100
AcDbLine
 10
1979.999985648765
 20
1932.403415746121
 30
0.0
 11
964.9999856487557
 21
1932.403415746117
 31
0.0
  0
LINE
  5
CF
330
C3
100
AcDbEntity
  8
HAIKIN
100
AcDbLine
 10
1979.999985648765
 20
847.4034157461283
 30
0.0
 11
964.9999856487557
 21
847.4034157461247
 31
0.0
  0
LINE
  5
D0
330
C3
100
AcDbEntity
  8
HAIKIN
100
AcDbLine
 10
1979.999985648765
 20
787.4034157461283
 30
0.0
 11
964.9999856487557
 21
787.4034157461247
 31
0.0
  0
LINE
  5
D1
330
C3
100
AcDbEntity
  8
HAIKIN
100
AcDbLine
 10
1979.999985648758
 20
727.4034157461283
 30
0.0
 11
964.9999856487557
 21
727.4034157461247
 31
0.0
  0
LINE
  5
D2
330
C3
100
AcDbEntity
  8
SUNPOU
100
AcDbLine
 10
964.9999856487557
 20
1897.403415746125
 30
0.0
 11
1486.999985648752
 21
1897.403415746121
 31
0.0
  0
LINE
  5
D3
330
C3
100
AcDbEntity
  8
SUNPOU
100
AcDbLine
 10
964.9999856487557
 20
1657.403415746125
 30
0.0
 11
1486.999985648752
 21
1657.403415746121
 31
0.0
  0
LINE
  5
D4
330
C3
100
AcDbEntity
  8
SUNPOU
100
AcDbLine
 10
964.9999856487557
 20
1777.403415746125
 30
0.0
 11
1486.999985648752
 21
1777.403415746123
 31
0.0
  0
LINE
  5
D5
330
C3
100
AcDbEntity
  8
SUNPOU
100
AcDbLine
 10
964.9999856487557
 20
457.4034157461247
 30
0.0
 11
1979.999985648759
 21
457.403415746121
 31
0.0
  0
LINE
  5
D6
330
C3
100
AcDbEntity
  8
SUNPOU
100
AcDbLine
 10
964.9999856487557
 20
817.4034157461247
 30
0.0
 11
1979.999985648759
 21
817.403415746121
 31
0.0
  0
LINE
  5
D7
330
C3
100
AcDbEntity
  8
SUNPOU
100
AcDbLine
 10
964.9999856487557
 20
697.4034157461247
 30
0.0
 11
1979.999985648759
 21
697.403415746121
 31
0.0
  0
LINE
  5
D8
330
C3
100
AcDbEntity
  8
SUNPOU
100
AcDbLine
 10
964.9999856487557
 20
577.4034157461247
 30
0.0
 11
1979.999985648759
 21
577.403415746121
 31
0.0
  0
LINE
  5
D9
330
C3
100
AcDbEntity
  8
SUNPOU
100
AcDbLine
 10
964.9999856487557
 20
937.4034157461247
 30
0.0
 11
1486.999985648752
 21
937.403415746121
 31
0.0
  0
LINE
  5
DA
330
C3
100
AcDbEntity
  8
SUNPOU
100
AcDbLine
 10
964.9999856487557
 20
1057.403415746125
 30
0.0
 11
1486.999985648752
 21
1057.403415746119
 31
0.0
  0
LINE
  5
DB
330
C3
100
AcDbEntity
  8
SUNPOU
100
AcDbLine
 10
964.9999856487557
 20
1177.403415746125
 30
0.0
 11
1486.999985648752
 21
1177.403415746117
 31
0.0
  0
LINE
  5
DC
330
C3
100
AcDbEntity
  8
SUNPOU
100
AcDbLine
 10
964.9999856487557
 20
1297.403415746125
 30
0.0
 11
1486.999985648752
 21
1297.403415746121
 31
0.0
  0
LINE
  5
DD
330
C3
100
AcDbEntity
  8
SUNPOU
100
AcDbLine
 10
964.9999856487557
 20
1417.403415746125
 30
0.0
 11
1486.999985648752
 21
1417.403415746119
 31
0.0
  0
LINE
  5
DE
330
C3
100
AcDbEntity
  8
SUNPOU
100
AcDbLine
 10
964.9999856487557
 20
1537.403415746125
 30
0.0
 11
1486.999985648752
 21
1537.403415746121
 31
0.0
  0
LINE
  5
DF
330
C3
100
AcDbEntity
  8
SUNPOU
100
AcDbLine
 10
964.9999856487557
 20
2017.403415746125
 30
0.0
 11
1979.999985648759
 21
2017.403415746121
 31
0.0
  0
LINE
  5
E0
330
C3
100
AcDbEntity
  8
SUNPOU
100
AcDbLine
 10
964.9999856487557
 20
2137.403415746125
 30
0.0
 11
1979.999985648759
 21
2137.403415746121
 31
0.0
  0
LINE
  5
E1
330
C3
100
AcDbEntity
  8
SUNPOU
100
AcDbLine
 10
964.9999856487557
 20
2257.403415746125
 30
0.0
 11
1979.999985648759
 21
2257.403415746121
 31
0.0
  0
LINE
  5
E2
330
C3
100
AcDbEntity
  8
SUNPOU
100
AcDbLine
 10
964.9999856487557
 20
2362.403415746125
 30
0.0
 11
1979.999985648759
 21
2362.403415746121
 31
0.0
  0
TEXT
  5
E3
330
C3
100
AcDbEntity
  8
HAIKIN
 62
     3
100
AcDbText
 10
1009.999985648752
 20
4617.403415746125
 30
0.0
 40
240.0
  1
頂　版
 72
     1
 11
1409.999985648752
 21
4617.403415746125
 31
0.0
100
AcDbText
  0
TEXT
  5
E4
330
C3
100
AcDbEntity
  8
SUNPOU
100
AcDbText
 10
1019.999985648756
 20
4105.403415746121
 30
0.0
 40
210.0
  1
外　側
 11
1019.999985648756
 21
4077.403415746121
 31
0.0
100
AcDbText
 73
     1
  0
LINE
  5
E5
330
C3
100
AcDbEntity
  8
SUNPOU
100
AcDbLine
 10
1019.999985648752
 20
317.4034157461247
 30
0.0
 11
1979.999985648759
 21
317.403415746121
 31
0.0
  0
LINE
  5
E6
330
C3
100
AcDbEntity
  8
SUNPOU
100
AcDbLine
 10
929.999985648752
 20
397.403415746121
 30
0.0
 11
1979.999985648759
 21
397.403415746121
 31
0.0
  0
LINE
  5
E7
330
C3
100
AcDbEntity
  8
SUNPOU
100
AcDbLine
 10
929.999985648752
 20
2397.403415746123
 30
0.0
 11
1979.999985648759
 21
2397.403415746121
 31
0.0
  0
LINE
  5
E8
330
C3
100
AcDbEntity
  8
SUNPOU
100
AcDbLine
 10
1019.999985648756
 20
4077.403415746121
 30
0.0
 11
2939.999985648754
 21
4077.403415746121
 31
0.0
  0
LINE
  5
E9
330
C3
100
AcDbEntity
  8
HAIKIN
 62
     3
100
AcDbLine
 10
1889.999985648752
 20
4887.403415746125
 30
0.0
 11
929.999985648752
 21
4887.403415746125
 31
0.0
  0
LINE
  5
EA
330
C3
100
AcDbEntity
  8
HAIKIN
 62
     3
100
AcDbLine
 10
1889.999985648752
 20
4587.403415746125
 30
0.0
 11
929.999985648752
 21
4587.403415746125
 31
0.0
  0
TEXT
  5
EB
330
C3
100
AcDbEntity
  8
SUNPOU
100
AcDbText
 10
762.4999856487557
 20
2907.403415746125
 30
0.0
 40
150.0
  1
D13
 41
0.8
 11
762.4999856487557
 21
2982.403415746125
 31
0.0
100
AcDbText
 73
     2
  0
TEXT
  5
EC
330
C3
100
AcDbEntity
  8
SUNPOU
100
AcDbText
 10
457.4999856487557
 20
2907.403415746125
 30
0.0
 40
150.0
  1
H1
 41
0.8
 72
     4
 11
537.4999856487557
 21
2982.403415746125
 31
0.0
100
AcDbText
  0
CIRCLE
  5
ED
330
C3
100
AcDbEntity
  8
SUNPOU
100
AcDbCircle
 10
537.4999856487557
 20
2982.403415746125
 30
0.0
 40
165.0
  0
TEXT
  5
EE
330
C3
100
AcDbEntity
  8
SUNPOU
100
AcDbText
 10
239.9999856487393
 20
1437.403415746128
 30
0.0
 40
150.0
  1
H2
 50
90.0
 41
0.8
 72
     4
 11
164.9999856487393
 21
1537.403415746128
 31
0.0
100
AcDbText
  0
LINE
  5
EF
330
C3
100
AcDbEntity
  8
SUNPOU
100
AcDbLine
 10
1137.499985648754
 20
727.4034157461247
 30
0.0
 11
1137.499985648756
 21
2817.403415746125
 31
0.0
1001
ACAD
1000
DSTYLE
1002
{
1070
    78
1070
     8
1070
   284
1070
     8
1070
   140
1040
3.0
1070
   145
1040
1.0
1070
    74
1070
     0
1070
   172
1070
     1
1070
    73
1070
     0
1070
    77
1070
     1
1070
    40
1040
60.0
1070
   147
1040
0.8
1070
   287
1070
     5
1070
    42
1040
1.5
1070
    44
1040
0.6
1070
    43
1040
7.0
1070
   271
1070
     0
1070
   177
1070
   256
1070
   176
1070
   256
1070
   141
1040
0.0
1070
   275
1070
     1
1070
    41
1040
1.5
1070
   285
1070
     8
1070
   286
1070
     8
1002
}
  0
LINE
  5
F0
330
C3
100
AcDbEntity
  8
SUNPOU
100
AcDbLine
 10
1044.999985648752
 20
2362.403415746125
 30
0.0
 11
1044.999985648756
 21
457.4034157461265
 31
0.0
  0
LINE
  5
F1
330
C3
100
AcDbEntity
  8
SUNPOU
100
AcDbLine
 10
1229.999985648759
 20
2362.403415746123
 30
0.0
 11
1229.999985648763
 21
457.4034157461228
 31
0.0
  0
LINE
  5
F2
330
C3
100
AcDbEntity
  8
SUNPOU
100
AcDbLine
 10
329.9999856487393
 20
2137.403415746126
 30
0.0
 11
329.9999856487393
 21
1357.403415746128
 31
0.0
1001
ACAD
1000
DSTYLE
1002
{
1070
    78
1070
     8
1070
   284
1070
     8
1070
   140
1040
3.0
1070
   145
1040
1.0
1070
    74
1070
     0
1070
   172
1070
     1
1070
    73
1070
     0
1070
    77
1070
     1
1070
    40
1040
60.0
1070
   147
1040
0.8
1070
   287
1070
     5
1070
    42
1040
1.5
1070
    44
1040
0.6
1070
    43
1040
7.0
1070
   271
1070
     0
1070
   177
1070
   256
1070
   176
1070
   256
1070
   141
1040
0.0
1070
   275
1070
     1
1070
    41
1040
1.5
1070
   285
1070
     8
1070
   286
1070
     8
1002
}
  0
CIRCLE
  5
F3
330
C3
100
AcDbEntity
  8
SUNPOU
100
AcDbCircle
 10
164.9999856487393
 20
1537.403415746128
 30
0.0
 40
165.0
  0
LINE
  5
F4
330
C3
100
AcDbEntity
  8
SUNPOU
100
AcDbLine
 10
929.999985648752
 20
2397.403415746126
 30
0.0
 11
929.999985648752
 21
397.4034157461247
 31
0.0
  0
LINE
  5
F5
330
C3
100
AcDbEntity
  8
SUNPOU
100
AcDbLine
 10
999.999985648752
 20
397.4034157461247
 30
0.0
 11
1019.999985648752
 21
317.4034157461301
 31
0.0
  0
SOLID
  5
F6
330
C3
100
AcDbEntity
  8
SUNPOU
100
AcDbTrace
 10
1152.499985648758
 20
937.4034157461138
 30
0.0
 11
1137.499985648758
 21
847.4034157461138
 31
0.0
 12
1122.499985648756
 22
937.4034157461138
 32
0.0
 13
1122.499985648756
 23
937.4034157461138
 33
0.0
1001
ACAD
1000
DSTYLE
1002
{
1070
    78
1070
     8
1070
   284
1070
     8
1070
   140
1040
3.0
1070
   145
1040
1.0
1070
    74
1070
     0
1070
   172
1070
     1
1070
    73
1070
     0
1070
    77
1070
     1
1070
    40
1040
60.0
1070
   147
1040
0.8
1070
   287
1070
     5
1070
    42
1040
1.5
1070
    44
1040
0.6
1070
    43
1040
7.0
1070
   271
1070
     0
1070
   177
1070
   256
1070
   176
1070
   256
1070
   141
1040
0.0
1070
   275
1070
     1
1070
    41
1040
1.5
1070
   285
1070
     8
1070
   286
1070
     8
1002
}
  0
SOLID
  5
F7
330
C3
100
AcDbEntity
  8
SUNPOU
100
AcDbTrace
 10
1152.499985648758
 20
817.4034157461356
 30
0.0
 11
1137.499985648758
 21
727.4034157461356
 31
0.0
 12
1122.499985648756
 22
817.4034157461356
 32
0.0
 13
1122.499985648756
 23
817.4034157461356
 33
0.0
1001
ACAD
1000
DSTYLE
1002
{
1070
    78
1070
     8
1070
   284
1070
     8
1070
   140
1040
3.0
1070
   145
1040
1.0
1070
    74
1070
     0
1070
   172
1070
     1
1070
    73
1070
     0
1070
    77
1070
     1
1070
    40
1040
60.0
1070
   147
1040
0.8
1070
   287
1070
     5
1070
    42
1040
1.5
1070
    44
1040
0.6
1070
    43
1040
7.0
1070
   271
1070
     0
1070
   177
1070
   256
1070
   176
1070
   256
1070
   141
1040
0.0
1070
   275
1070
     1
1070
    41
1040
1.5
1070
   285
1070
     8
1070
   286
1070
     8
1002
}
  0
SOLID
  5
F8
330
C3
100
AcDbEntity
  8
SUNPOU
100
AcDbTrace
 10
1152.499985648754
 20
877.4034157461301
 30
0.0
 11
1137.499985648754
 21
787.4034157461301
 31
0.0
 12
1122.499985648752
 22
877.4034157461301
 32
0.0
 13
1122.499985648752
 23
877.4034157461301
 33
0.0
1001
ACAD
1000
DSTYLE
1002
{
1070
    78
1070
     8
1070
   284
1070
     8
1070
   140
1040
3.0
1070
   145
1040
1.0
1070
    74
1070
     0
1070
   172
1070
     1
1070
    73
1070
     0
1070
    77
1070
     1
1070
    40
1040
60.0
1070
   147
1040
0.8
1070
   287
1070
     5
1070
    42
1040
1.5
1070
    44
1040
0.6
1070
    43
1040
7.0
1070
   271
1070
     0
1070
   177
1070
   256
1070
   176
1070
   256
1070
   141
1040
0.0
1070
   275
1070
     1
1070
    41
1040
1.5
1070
   285
1070
     8
1070
   286
1070
     8
1002
}
  0
TEXT
  5
F9
330
C3
100
AcDbEntity
  8
SUNPOU
100
AcDbText
 10
239.9999856487393
 20
1762.40341574613
 30
0.0
 40
150.0
  1
D13
 50
90.0
 41
0.8
 11
164.9999856487393
 21
1762.40341574613
 31
0.0
100
AcDbText
 73
     2
  0
SOLID
  5
FA
330
C3
100
AcDbEntity
  8
SUNPOU
100
AcDbTrace
 10
1152.499985648756
 20
2022.403415746117
 30
0.0
 11
1137.499985648756
 21
1932.403415746117
 31
0.0
 12
1122.499985648756
 22
2022.403415746117
 32
0.0
 13
1122.499985648756
 23
2022.403415746117
 33
0.0
1001
ACAD
1000
DSTYLE
1002
{
1070
    78
1070
     8
1070
   284
1070
     8
1070
   140
1040
3.0
1070
   145
1040
1.0
1070
    74
1070
     0
1070
   172
1070
     1
1070
    73
1070
     0
1070
    77
1070
     1
1070
    40
1040
60.0
1070
   147
1040
0.8
1070
   287
1070
     5
1070
    42
1040
1.5
1070
    44
1040
0.6
1070
    43
1040
7.0
1070
   271
1070
     0
1070
   177
1070
   256
1070
   176
1070
   256
1070
   141
1040
0.0
1070
   275
1070
     1
1070
    41
1040
1.5
1070
   285
1070
     8
1070
   286
1070
     8
1002
}
  0
SOLID
  5
FB
330
C3
100
AcDbEntity
  8
SUNPOU
100
AcDbTrace
 10
1152.499985648756
 20
2082.403415746117
 30
0.0
 11
1137.499985648756
 21
1992.403415746117
 31
0.0
 12
1122.499985648756
 22
2082.403415746117
 32
0.0
 13
1122.499985648756
 23
2082.403415746117
 33
0.0
1001
ACAD
1000
DSTYLE
1002
{
1070
    78
1070
     8
1070
   284
1070
     8
1070
   140
1040
3.0
1070
   145
1040
1.0
1070
    74
1070
     0
1070
   172
1070
     1
1070
    73
1070
     0
1070
    77
1070
     1
1070
    40
1040
60.0
1070
   147
1040
0.8
1070
   287
1070
     5
1070
    42
1040
1.5
1070
    44
1040
0.6
1070
    43
1040
7.0
1070
   271
1070
     0
1070
   177
1070
   256
1070
   176
1070
   256
1070
   141
1040
0.0
1070
   275
1070
     1
1070
    41
1040
1.5
1070
   285
1070
     8
1070
   286
1070
     8
1002
}
  0
SOLID
  5
FC
330
C3
100
AcDbEntity
  8
SUNPOU
100
AcDbTrace
 10
1152.499985648756
 20
2142.403415746119
 30
0.0
 11
1137.499985648756
 21
2052.403415746119
 31
0.0
 12
1122.499985648756
 22
2142.403415746119
 32
0.0
 13
1122.499985648756
 23
2142.403415746119
 33
0.0
1001
ACAD
1000
DSTYLE
1002
{
1070
    78
1070
     8
1070
   284
1070
     8
1070
   140
1040
3.0
1070
   145
1040
1.0
1070
    74
1070
     0
1070
   172
1070
     1
1070
    73
1070
     0
1070
    77
1070
     1
1070
    40
1040
60.0
1070
   147
1040
0.8
1070
   287
1070
     5
1070
    42
1040
1.5
1070
    44
1040
0.6
1070
    43
1040
7.0
1070
   271
1070
     0
1070
   177
1070
   256
1070
   176
1070
   256
1070
   141
1040
0.0
1070
   275
1070
     1
1070
    41
1040
1.5
1070
   285
1070
     8
1070
   286
1070
     8
1002
}
  0
LINE
  5
FD
330
C3
100
AcDbEntity
  8
SUNPOU
100
AcDbLine
 10
1137.499985648756
 20
2817.403415746125
 30
0.0
 11
357.4999856487557
 21
2817.403415746125
 31
0.0
1001
ACAD
1000
DSTYLE
1002
{
1070
    78
1070
     8
1070
   284
1070
     8
1070
   140
1040
3.0
1070
   145
1040
1.0
1070
    74
1070
     0
1070
   172
1070
     1
1070
    73
1070
     0
1070
    77
1070
     1
1070
    40
1040
60.0
1070
   147
1040
0.8
1070
   287
1070
     5
1070
    42
1040
1.5
1070
    44
1040
0.6
1070
    43
1040
7.0
1070
   271
1070
     0
1070
   177
1070
   256
1070
   176
1070
   256
1070
   141
1040
0.0
1070
   275
1070
     1
1070
    41
1040
1.5
1070
   285
1070
     8
1070
   286
1070
     8
1002
}
  0
TEXT
  5
FE
330
C3
100
AcDbEntity
  8
SUNPOU
100
AcDbText
 10
979.9999856487611
 20
3317.403415746123
 30
0.0
 40
150.0
  1
H3
 41
0.8
 72
     4
 11
1079.999985648761
 21
3392.403415746123
 31
0.0
100
AcDbText
  0
CIRCLE
  5
FF
330
C3
100
AcDbEntity
  8
SUNPOU
100
AcDbCircle
 10
1079.999985648761
 20
3392.403415746123
 30
0.0
 40
165.0
  0
LINE
  5
100
330
C3
100
AcDbEntity
  8
HAIKIN
 62
     3
100
AcDbLine
 10
929.999985648752
 20
4587.403415746125
 30
0.0
 11
929.999985648752
 21
4887.403415746125
 31
0.0
  0
TEXT
  5
101
330
C3
100
AcDbEntity
  8
SUNPOU
100
AcDbText
 10
3194.999985648759
 20
2907.403415746125
 30
0.0
 40
150.0
  1
D13
 41
0.8
 11
3194.999985648759
 21
2982.403415746125
 31
0.0
100
AcDbText
 73
     2
  0
TEXT
  5
102
330
C3
100
AcDbEntity
  8
SUNPOU
100
AcDbText
 10
2889.999985648759
 20
2907.403415746125
 30
0.0
 40
150.0
  1
H1
 41
0.8
 72
     4
 11
2969.999985648759
 21
2982.403415746125
 31
0.0
100
AcDbText
  0
LINE
  5
103
330
C3
100
AcDbEntity
  8
SUNPOU
100
AcDbLine
 10
1679.999985648761
 20
1890.403415746132
 30
0.0
 11
1679.999985648763
 21
3227.403415746123
 31
0.0
1001
ACAD
1000
DSTYLE
1002
{
1070
    78
1070
     8
1070
   284
1070
     8
1070
   140
1040
3.0
1070
   145
1040
1.0
1070
    74
1070
     0
1070
   172
1070
     1
1070
    73
1070
     0
1070
    77
1070
     1
1070
    40
1040
60.0
1070
   147
1040
0.8
1070
   287
1070
     5
1070
    42
1040
1.5
1070
    44
1040
0.6
1070
    43
1040
7.0
1070
   271
1070
     0
1070
   177
1070
   256
1070
   176
1070
   256
1070
   141
1040
0.0
1070
   275
1070
     1
1070
    41
1040
1.5
1070
   285
1070
     8
1070
   286
1070
     8
1002
}
  0
LINE
  5
104
330
C3
100
AcDbEntity
  8
SUNPOU
100
AcDbLine
 10
2279.999985648761
 20
1827.403415746126
 30
0.0
 11
2279.999985648759
 21
3227.403415746123
 31
0.0
1001
ACAD
1000
DSTYLE
1002
{
1070
    78
1070
     8
1070
   284
1070
     8
1070
   140
1040
3.0
1070
   145
1040
1.0
1070
    74
1070
     0
1070
   172
1070
     1
1070
    73
1070
     0
1070
    77
1070
     1
1070
    40
1040
60.0
1070
   147
1040
0.8
1070
   287
1070
     5
1070
    42
1040
1.5
1070
    44
1040
0.6
1070
    43
1040
7.0
1070
   271
1070
     0
1070
   177
1070
   256
1070
   176
1070
   256
1070
   141
1040
0.0
1070
   275
1070
     1
1070
    41
1040
1.5
1070
   285
1070
     8
1070
   286
1070
     8
1002
}
  0
CIRCLE
  5
105
330
C3
100
AcDbEntity
  8
SUNPOU
100
AcDbCircle
 10
2969.999985648759
 20
2982.403415746125
 30
0.0
 40
165.0
  0
LINE
  5
106
330
C3
100
AcDbEntity
  8
1HASEN
100
AcDbLine
 10
1979.999985648754
 20
4077.403415746121
 30
0.0
 11
1979.999985648759
 21
17.40341574611921
 31
0.0
  0
TEXT
  5
107
330
C3
100
AcDbEntity
  8
SUNPOU
100
AcDbText
 10
3359.999985648745
 20
1762.403415746126
 30
0.0
 40
150.0
  1
D13
 50
90.0
 41
0.8
 11
3284.999985648745
 21
1762.403415746126
 31
0.0
100
AcDbText
 73
     2
  0
TEXT
  5
108
330
C3
100
AcDbEntity
  8
SUNPOU
100
AcDbText
 10
3359.999985648745
 20
1437.403415746125
 30
0.0
 40
150.0
  1
H2
 50
90.0
 41
0.8
 72
     4
 11
3284.999985648745
 21
1537.403415746125
 31
0.0
100
AcDbText
  0
LINE
  5
109
330
C3
100
AcDbEntity
  8
SUNPOU
100
AcDbLine
 10
2789.999985648759
 20
2817.403415746125
 30
0.0
 11
3569.999985648759
 21
2817.403415746125
 31
0.0
1001
ACAD
1000
DSTYLE
1002
{
1070
    78
1070
     8
1070
   284
1070
     8
1070
   140
1040
3.0
1070
   145
1040
1.0
1070
    74
1070
     0
1070
   172
1070
     1
1070
    73
1070
     0
1070
    77
1070
     1
1070
    40
1040
60.0
1070
   147
1040
0.8
1070
   287
1070
     5
1070
    42
1040
1.5
1070
    44
1040
0.6
1070
    43
1040
7.0
1070
   271
1070
     0
1070
   177
1070
   256
1070
   176
1070
   256
1070
   141
1040
0.0
1070
   275
1070
     1
1070
    41
1040
1.5
1070
   285
1070
     8
1070
   286
1070
     8
1002
}
  0
LINE
  5
10A
330
C3
100
AcDbEntity
  8
SUNPOU
100
AcDbLine
 10
2429.999985648759
 20
1357.403415746125
 30
0.0
 11
3449.999985648745
 21
1357.403415746123
 31
0.0
1001
ACAD
1000
DSTYLE
1002
{
1070
    78
1070
     8
1070
   284
1070
     8
1070
   140
1040
3.0
1070
   145
1040
1.0
1070
    74
1070
     0
1070
   172
1070
     1
1070
    73
1070
     0
1070
    77
1070
     1
1070
    40
1040
60.0
1070
   147
1040
0.8
1070
   287
1070
     5
1070
    42
1040
1.5
1070
    44
1040
0.6
1070
    43
1040
7.0
1070
   271
1070
     0
1070
   177
1070
   256
1070
   176
1070
   256
1070
   141
1040
0.0
1070
   275
1070
     1
1070
    41
1040
1.5
1070
   285
1070
     8
1070
   286
1070
     8
1002
}
  0
CIRCLE
  5
10B
330
C3
100
AcDbEntity
  8
SUNPOU
100
AcDbCircle
 10
3284.999985648745
 20
1537.403415746125
 30
0.0
 40
165.0
  0
LINE
  5
10C
330
C3
100
AcDbEntity
  8
HAIKIN
100
AcDbLine
 10
1486.99998564875
 20
939.4034157461192
 30
0.0
 11
1486.99998564875
 21
1855.403415746132
 31
0.0
  0
LINE
  5
10D
330
C3
100
AcDbEntity
  8
HAIKIN
100
AcDbLine
 10
2409.999985648758
 20
1792.403415746126
 30
0.0
 11
2409.999985648759
 21
1002.403415746126
 31
0.0
  0
LINE
  5
10E
330
C3
100
AcDbEntity
  8
SUNPOU
100
AcDbLine
 10
2789.999985648759
 20
787.4034157461319
 30
0.0
 11
2789.999985648759
 21
2817.403415746125
 31
0.0
1001
ACAD
1000
DSTYLE
1002
{
1070
    78
1070
     8
1070
   284
1070
     8
1070
   140
1040
3.0
1070
   145
1040
1.0
1070
    74
1070
     0
1070
   172
1070
     1
1070
    73
1070
     0
1070
    77
1070
     1
1070
    40
1040
60.0
1070
   147
1040
0.8
1070
   287
1070
     5
1070
    42
1040
1.5
1070
    44
1040
0.6
1070
    43
1040
7.0
1070
   271
1070
     0
1070
   177
1070
   256
1070
   176
1070
   256
1070
   141
1040
0.0
1070
   275
1070
     1
1070
    41
1040
1.5
1070
   285
1070
     8
1070
   286
1070
     8
1002
}
  0
LINE
  5
10F
330
C3
100
AcDbEntity
  8
HAIKIN
100
AcDbLine
 10
2469.999985648758
 20
352.4034157461247
 30
0.0
 11
2469.999985648758
 21
2257.403415746121
 31
0.0
  0
LINE
  5
110
330
C3
100
AcDbEntity
  8
HAIKIN
100
AcDbLine
 10
2529.999985648759
 20
352.4034157461247
 30
0.0
 11
2529.999985648759
 21
2257.403415746121
 31
0.0
  0
LINE
  5
111
330
C3
100
AcDbEntity
  8
HAIKIN
100
AcDbLine
 10
2589.999985648761
 20
352.4034157461247
 30
0.0
 11
2589.999985648758
 21
2257.403415746121
 31
0.0
  0
LINE
  5
112
330
C3
100
AcDbEntity
  8
HAIKIN
100
AcDbLine
 10
1426.999985648754
 20
457.4034157461228
 30
0.0
 11
1426.999985648752
 21
2362.403415746123
 31
0.0
  0
LINE
  5
113
330
C3
100
AcDbEntity
  8
HAIKIN
100
AcDbLine
 10
1366.999985648756
 20
457.4034157461228
 30
0.0
 11
1366.999985648748
 21
2362.403415746123
 31
0.0
  0
LINE
  5
114
330
C3
100
AcDbEntity
  8
HAIKIN
100
AcDbLine
 10
1306.999985648754
 20
457.4034157461228
 30
0.0
 11
1306.999985648748
 21
2362.403415746123
 31
0.0
  0
LINE
  5
115
330
C3
100
AcDbEntity
  8
SUNPOU
100
AcDbLine
 10
2914.99998564875
 20
2257.403415746121
 30
0.0
 11
2914.99998564875
 21
352.4034157461265
 31
0.0
  0
LINE
  5
116
330
C3
100
AcDbEntity
  8
SUNPOU
100
AcDbLine
 10
2729.999985648759
 20
2257.403415746121
 30
0.0
 11
2729.999985648759
 21
352.4034157461228
 31
0.0
  0
LINE
  5
117
330
C3
100
AcDbEntity
  8
SUNPOU
100
AcDbLine
 10
2429.999985648759
 20
2257.403415746121
 30
0.0
 11
2429.999985648758
 21
352.403415746121
 31
0.0
  0
LINE
  5
118
330
C3
100
AcDbEntity
  8
SUNPOU
100
AcDbLine
 10
2379.999985648758
 20
1797.403415746126
 30
0.0
 11
2379.999985648758
 21
997.4034157461265
 31
0.0
  0
LINE
  5
119
330
C3
100
AcDbEntity
  8
SUNPOU
100
AcDbLine
 10
3029.99998564875
 20
2397.403415746121
 30
0.0
 11
3029.99998564875
 21
397.403415746121
 31
0.0
  0
LINE
  5
11A
330
C3
100
AcDbEntity
  8
SUNPOU
100
AcDbLine
 10
1516.999985648752
 20
934.403415746121
 30
0.0
 11
1516.999985648752
 21
1860.403415746126
 31
0.0
  0
LINE
  5
11B
330
C3
100
AcDbEntity
  8
SUNPOU
100
AcDbLine
 10
1579.999985648756
 20
1797.403415746126
 30
0.0
 11
1579.999985648758
 21
997.4034157461265
 31
0.0
  0
LINE
  5
11C
330
C3
100
AcDbEntity
  8
HAIKIN
100
AcDbLine
 10
2374.999985648759
 20
967.4034157461265
 30
0.0
 11
1979.999985648752
 21
967.4034157461265
 31
0.0
  0
LINE
  5
11D
330
C3
100
AcDbEntity
  8
HAIKIN
100
AcDbLine
 10
2994.999985648774
 20
787.4034157461319
 30
0.0
 11
1979.999985648759
 21
787.4034157461283
 31
0.0
  0
LINE
  5
11E
330
C3
100
AcDbEntity
  8
HAIKIN
100
AcDbLine
 10
2994.999985648774
 20
847.4034157461319
 30
0.0
 11
1979.999985648758
 21
847.4034157461283
 31
0.0
  0
LINE
  5
11F
330
C3
100
AcDbEntity
  8
HAIKIN
100
AcDbLine
 10
2994.999985648774
 20
907.4034157461319
 30
0.0
 11
1979.999985648759
 21
907.4034157461283
 31
0.0
  0
LINE
  5
120
330
C3
100
AcDbEntity
  8
SUNPOU
100
AcDbLine
 10
2914.99998564875
 20
352.4034157461265
 30
0.0
 11
1979.999985648759
 21
352.403415746121
 31
0.0
  0
LINE
  5
121
330
C3
100
AcDbEntity
  8
SUNPOU
100
AcDbLine
 10
2994.999985648774
 20
457.4034157461247
 30
0.0
 11
1979.999985648759
 21
457.403415746121
 31
0.0
  0
LINE
  5
122
330
C3
100
AcDbEntity
  8
SUNPOU
100
AcDbLine
 10
2994.999985648774
 20
937.4034157461247
 30
0.0
 11
1979.999985648759
 21
937.403415746121
 31
0.0
  0
LINE
  5
123
330
C3
100
AcDbEntity
  8
SUNPOU
100
AcDbLine
 10
2994.999985648774
 20
817.4034157461247
 30
0.0
 11
1979.999985648759
 21
817.403415746121
 31
0.0
  0
LINE
  5
124
330
C3
100
AcDbEntity
  8
SUNPOU
100
AcDbLine
 10
2994.999985648774
 20
697.4034157461247
 30
0.0
 11
1979.999985648759
 21
697.403415746121
 31
0.0
  0
LINE
  5
125
330
C3
100
AcDbEntity
  8
SUNPOU
100
AcDbLine
 10
2994.999985648774
 20
577.4034157461247
 30
0.0
 11
1979.999985648759
 21
577.403415746121
 31
0.0
  0
LINE
  5
126
330
C3
100
AcDbEntity
  8
SUNPOU
100
AcDbLine
 10
2939.99998564875
 20
317.4034157461247
 30
0.0
 11
1963.628976814191
 21
317.403415746121
 31
0.0
  0
LINE
  5
127
330
C3
100
AcDbEntity
  8
1HASEN
100
AcDbLine
 10
1379.999985648756
 20
1397.403415746126
 30
0.0
 11
2579.999985648758
 21
1397.403415746126
 31
0.0
  0
LINE
  5
128
330
C3
100
AcDbEntity
  8
SUNPOU
100
AcDbLine
 10
2379.999985648758
 20
997.4034157461265
 30
0.0
 11
1579.999985648758
 21
997.4034157461265
 31
0.0
  0
ARC
  5
129
330
C3
100
AcDbEntity
  8
HAIKIN
100
AcDbCircle
 10
1521.99998564875
 20
939.4034157461192
 30
0.0
 40
35.0
100
AcDbArc
 50
180.0
 51
270.0
  0
LINE
  5
12A
330
C3
100
AcDbEntity
  8
SUNPOU
100
AcDbLine
 10
2129.999985648758
 20
967.4034157461283
 30
0.0
 11
2129.999985648759
 21
352.4034157461192
 31
0.0
  0
LINE
  5
12B
330
C3
100
AcDbEntity
  8
HAIKIN
100
AcDbLine
 10
1521.99998564875
 20
904.4034157461192
 30
0.0
 11
1979.999985648758
 21
904.4034157461228
 31
0.0
  0
LINE
  5
12C
330
C3
100
AcDbEntity
  8
SUNPOU
100
AcDbLine
 10
1516.999985648752
 20
934.403415746121
 30
0.0
 11
1979.999985648758
 21
934.4034157461228
 31
0.0
  0
LINE
  5
12D
330
C3
100
AcDbEntity
  8
SUNPOU
100
AcDbLine
 10
1529.999985648765
 20
904.403415746121
 30
0.0
 11
1529.999985648767
 21
457.4034157461247
 31
0.0
  0
LINE
  5
12E
330
C3
100
AcDbEntity
  8
SUNPOU
100
AcDbLine
 10
1829.999985648759
 20
904.4034157461228
 30
0.0
 11
1829.999985648759
 21
457.4034157461192
 31
0.0
  0
SOLID
  5
12F
330
C3
100
AcDbEntity
  8
SUNPOU
100
AcDbTrace
 10
1276.999985648759
 20
1372.403415746128
 30
0.0
 11
1366.999985648759
 21
1357.403415746128
 31
0.0
 12
1276.999985648759
 22
1342.403415746128
 32
0.0
 13
1276.999985648759
 23
1342.403415746128
 33
0.0
1001
ACAD
1000
DSTYLE
1002
{
1070
    78
1070
     8
1070
   284
1070
     8
1070
   140
1040
3.0
1070
   145
1040
1.0
1070
    74
1070
     0
1070
   172
1070
     1
1070
    73
1070
     0
1070
    77
1070
     1
1070
    40
1040
60.0
1070
   147
1040
0.8
1070
   287
1070
     5
1070
    42
1040
1.5
1070
    44
1040
0.6
1070
    43
1040
7.0
1070
   271
1070
     0
1070
   177
1070
   256
1070
   176
1070
   256
1070
   141
1040
0.0
1070
   275
1070
     1
1070
    41
1040
1.5
1070
   285
1070
     8
1070
   286
1070
     8
1002
}
  0
SOLID
  5
130
330
C3
100
AcDbEntity
  8
SUNPOU
100
AcDbTrace
 10
1336.99998564877
 20
1372.403415746125
 30
0.0
 11
1426.99998564877
 21
1357.403415746123
 31
0.0
 12
1336.99998564877
 22
1342.403415746125
 32
0.0
 13
1336.99998564877
 23
1342.403415746125
 33
0.0
1001
ACAD
1000
DSTYLE
1002
{
1070
    78
1070
     8
1070
   284
1070
     8
1070
   140
1040
3.0
1070
   145
1040
1.0
1070
    74
1070
     0
1070
   172
1070
     1
1070
    73
1070
     0
1070
    77
1070
     1
1070
    40
1040
60.0
1070
   147
1040
0.8
1070
   287
1070
     5
1070
    42
1040
1.5
1070
    44
1040
0.6
1070
    43
1040
7.0
1070
   271
1070
     0
1070
   177
1070
   256
1070
   176
1070
   256
1070
   141
1040
0.0
1070
   275
1070
     1
1070
    41
1040
1.5
1070
   285
1070
     8
1070
   286
1070
     8
1002
}
  0
SOLID
  5
131
330
C3
100
AcDbEntity
  8
SUNPOU
100
AcDbTrace
 10
2804.999985648759
 20
997.4034157461319
 30
0.0
 11
2789.999985648759
 21
907.4034157461319
 31
0.0
 12
2774.999985648759
 22
997.4034157461319
 32
0.0
 13
2774.999985648759
 23
997.4034157461319
 33
0.0
1001
ACAD
1000
DSTYLE
1002
{
1070
    78
1070
     8
1070
   284
1070
     8
1070
   140
1040
3.0
1070
   145
1040
1.0
1070
    74
1070
     0
1070
   172
1070
     1
1070
    73
1070
     0
1070
    77
1070
     1
1070
    40
1040
60.0
1070
   147
1040
0.8
1070
   287
1070
     5
1070
    42
1040
1.5
1070
    44
1040
0.6
1070
    43
1040
7.0
1070
   271
1070
     0
1070
   177
1070
   256
1070
   176
1070
   256
1070
   141
1040
0.0
1070
   275
1070
     1
1070
    41
1040
1.5
1070
   285
1070
     8
1070
   286
1070
     8
1002
}
  0
LINE
  5
132
330
C3
100
AcDbEntity
  8
HASEN
100
AcDbLine
 10
2994.999985648772
 20
715.4034157461156
 30
0.0
 11
2644.497460331817
 21
715.4034157461119
 31
0.0
  0
LINE
  5
133
330
C3
100
AcDbEntity
  8
HASEN
100
AcDbLine
 10
2994.999985648772
 20
475.4034157461156
 30
0.0
 11
2644.497460331817
 21
475.4034157461119
 31
0.0
  0
LINE
  5
134
330
C3
100
AcDbEntity
  8
SUNPOU
100
AcDbLine
 10
3029.99998564875
 20
397.403415746121
 30
0.0
 11
2959.999985648748
 21
397.403415746121
 31
0.0
  0
LINE
  5
135
330
C3
100
AcDbEntity
  8
SUNPOU
100
AcDbLine
 10
2959.999985648748
 20
397.403415746121
 30
0.0
 11
2939.999985648748
 21
317.4034157461228
 31
0.0
  0
SOLID
  5
136
330
C3
100
AcDbEntity
  8
SUNPOU
100
AcDbTrace
 10
2804.999985648759
 20
937.4034157461319
 30
0.0
 11
2789.999985648759
 21
847.4034157461319
 31
0.0
 12
2774.999985648759
 22
937.4034157461319
 32
0.0
 13
2774.999985648759
 23
937.4034157461319
 33
0.0
1001
ACAD
1000
DSTYLE
1002
{
1070
    78
1070
     8
1070
   284
1070
     8
1070
   140
1040
3.0
1070
   145
1040
1.0
1070
    74
1070
     0
1070
   172
1070
     1
1070
    73
1070
     0
1070
    77
1070
     1
1070
    40
1040
60.0
1070
   147
1040
0.8
1070
   287
1070
     5
1070
    42
1040
1.5
1070
    44
1040
0.6
1070
    43
1040
7.0
1070
   271
1070
     0
1070
   177
1070
   256
1070
   176
1070
   256
1070
   141
1040
0.0
1070
   275
1070
     1
1070
    41
1040
1.5
1070
   285
1070
     8
1070
   286
1070
     8
1002
}
  0
SOLID
  5
137
330
C3
100
AcDbEntity
  8
SUNPOU
100
AcDbTrace
 10
2804.999985648759
 20
877.4034157461319
 30
0.0
 11
2789.999985648759
 21
787.4034157461319
 31
0.0
 12
2774.999985648759
 22
877.4034157461319
 32
0.0
 13
2774.999985648759
 23
877.4034157461319
 33
0.0
1001
ACAD
1000
DSTYLE
1002
{
1070
    78
1070
     8
1070
   284
1070
     8
1070
   140
1040
3.0
1070
   145
1040
1.0
1070
    74
1070
     0
1070
   172
1070
     1
1070
    73
1070
     0
1070
    77
1070
     1
1070
    40
1040
60.0
1070
   147
1040
0.8
1070
   287
1070
     5
1070
    42
1040
1.5
1070
    44
1040
0.6
1070
    43
1040
7.0
1070
   271
1070
     0
1070
   177
1070
   256
1070
   176
1070
   256
1070
   141
1040
0.0
1070
   275
1070
     1
1070
    41
1040
1.5
1070
   285
1070
     8
1070
   286
1070
     8
1002
}
  0
LINE
  5
138
330
C3
100
AcDbEntity
  8
SUNPOU
100
AcDbLine
 10
2994.999985648774
 20
1537.403415746125
 30
0.0
 11
2409.999985648759
 21
1537.403415746121
 31
0.0
  0
LINE
  5
139
330
C3
100
AcDbEntity
  8
SUNPOU
100
AcDbLine
 10
2994.999985648774
 20
1417.403415746125
 30
0.0
 11
2409.999985648759
 21
1417.403415746121
 31
0.0
  0
LINE
  5
13A
330
C3
100
AcDbEntity
  8
SUNPOU
100
AcDbLine
 10
2994.999985648774
 20
1297.403415746125
 30
0.0
 11
2409.999985648759
 21
1297.403415746125
 31
0.0
  0
LINE
  5
13B
330
C3
100
AcDbEntity
  8
SUNPOU
100
AcDbLine
 10
2994.999985648774
 20
1177.403415746125
 30
0.0
 11
2409.999985648759
 21
1177.403415746121
 31
0.0
  0
LINE
  5
13C
330
C3
100
AcDbEntity
  8
SUNPOU
100
AcDbLine
 10
2994.999985648774
 20
1057.403415746125
 30
0.0
 11
2409.999985648759
 21
1057.403415746121
 31
0.0
  0
LINE
  5
13D
330
C3
100
AcDbEntity
  8
HASEN
100
AcDbLine
 10
2994.999985648772
 20
955.4034157461156
 30
0.0
 11
2644.497460331817
 21
955.4034157461119
 31
0.0
  0
LINE
  5
13E
330
C3
100
AcDbEntity
  8
HASEN
100
AcDbLine
 10
2994.999985648772
 20
1195.403415746116
 30
0.0
 11
2644.497460331817
 21
1195.403415746112
 31
0.0
  0
LINE
  5
13F
330
C3
100
AcDbEntity
  8
HASEN
100
AcDbLine
 10
2994.999985648772
 20
1435.403415746116
 30
0.0
 11
2644.497460331817
 21
1435.403415746112
 31
0.0
  0
ARC
  5
140
330
C3
100
AcDbEntity
  8
HAIKIN
100
AcDbCircle
 10
2374.999985648759
 20
1002.403415746126
 30
0.0
 40
35.0
100
AcDbArc
 50
270.0
 51
0.0
  0
LINE
  5
141
330
C3
100
AcDbEntity
  8
HAIKIN
100
AcDbLine
 10
2374.999985648758
 20
1827.403415746126
 30
0.0
 11
1979.999985648752
 21
1827.403415746126
 31
0.0
  0
LINE
  5
142
330
C3
100
AcDbEntity
  8
HAIKIN
100
AcDbLine
 10
2994.999985648774
 20
1872.403415746125
 30
0.0
 11
1979.999985648759
 21
1872.403415746121
 31
0.0
  0
LINE
  5
143
330
C3
100
AcDbEntity
  8
HAIKIN
100
AcDbLine
 10
2994.999985648774
 20
1932.403415746125
 30
0.0
 11
1979.999985648758
 21
1932.403415746121
 31
0.0
  0
LINE
  5
144
330
C3
100
AcDbEntity
  8
HAIKIN
100
AcDbLine
 10
2994.999985648774
 20
1992.403415746125
 30
0.0
 11
1979.999985648758
 21
1992.403415746121
 31
0.0
  0
LINE
  5
145
330
C3
100
AcDbEntity
  8
SUNPOU
100
AcDbLine
 10
2994.999985648774
 20
2017.403415746125
 30
0.0
 11
1979.999985648759
 21
2017.403415746121
 31
0.0
  0
LINE
  5
146
330
C3
100
AcDbEntity
  8
SUNPOU
100
AcDbLine
 10
2994.999985648774
 20
2137.403415746125
 30
0.0
 11
1979.999985648759
 21
2137.403415746121
 31
0.0
  0
LINE
  5
147
330
C3
100
AcDbEntity
  8
SUNPOU
100
AcDbLine
 10
2994.999985648774
 20
2257.403415746125
 30
0.0
 11
1979.999985648759
 21
2257.403415746121
 31
0.0
  0
LINE
  5
148
330
C3
100
AcDbEntity
  8
SUNPOU
100
AcDbLine
 10
2994.999985648774
 20
1897.403415746125
 30
0.0
 11
1979.999985648759
 21
1897.403415746121
 31
0.0
  0
LINE
  5
149
330
C3
100
AcDbEntity
  8
SUNPOU
100
AcDbLine
 10
2949.999985648748
 20
2317.403415746123
 30
0.0
 11
1979.999985648759
 21
2317.403415746121
 31
0.0
  0
LINE
  5
14A
330
C3
100
AcDbEntity
  8
SUNPOU
100
AcDbLine
 10
2379.999985648758
 20
1797.403415746126
 30
0.0
 11
1579.999985648756
 21
1797.403415746126
 31
0.0
  0
LINE
  5
14B
330
C3
100
AcDbEntity
  8
SUNPOU
100
AcDbLine
 10
1829.999985648765
 20
2362.403415746123
 30
0.0
 11
1829.999985648759
 21
1890.403415746126
 31
0.0
  0
LINE
  5
14C
330
C3
100
AcDbEntity
  8
SUNPOU
100
AcDbLine
 10
1529.999985648763
 20
2362.403415746125
 30
0.0
 11
1529.999985648763
 21
1890.403415746128
 31
0.0
  0
LINE
  5
14D
330
C3
100
AcDbEntity
  8
HAIKIN
100
AcDbLine
 10
1979.999985648758
 20
1890.403415746128
 30
0.0
 11
1521.99998564875
 21
1890.403415746132
 31
0.0
  0
LINE
  5
14E
330
C3
100
AcDbEntity
  8
SUNPOU
100
AcDbLine
 10
1979.999985648758
 20
1860.403415746128
 30
0.0
 11
1516.999985648752
 21
1860.403415746126
 31
0.0
  0
ARC
  5
14F
330
C3
100
AcDbEntity
  8
HAIKIN
100
AcDbCircle
 10
1521.99998564875
 20
1855.403415746132
 30
0.0
 40
35.0
100
AcDbArc
 50
90.0
 51
180.0
  0
SOLID
  5
150
330
C3
100
AcDbEntity
  8
SUNPOU
100
AcDbTrace
 10
1694.999985648759
 20
1980.403415746141
 30
0.0
 11
1679.999985648759
 21
1890.403415746141
 31
0.0
 12
1664.999985648759
 22
1980.403415746141
 32
0.0
 13
1664.999985648759
 23
1980.403415746141
 33
0.0
1001
ACAD
1000
DSTYLE
1002
{
1070
    78
1070
     8
1070
   284
1070
     8
1070
   140
1040
3.0
1070
   145
1040
1.0
1070
    74
1070
     0
1070
   172
1070
     1
1070
    73
1070
     0
1070
    77
1070
     1
1070
    40
1040
60.0
1070
   147
1040
0.8
1070
   287
1070
     5
1070
    42
1040
1.5
1070
    44
1040
0.6
1070
    43
1040
7.0
1070
   271
1070
     0
1070
   177
1070
   256
1070
   176
1070
   256
1070
   141
1040
0.0
1070
   275
1070
     1
1070
    41
1040
1.5
1070
   285
1070
     8
1070
   286
1070
     8
1002
}
  0
LINE
  5
151
330
C3
100
AcDbEntity
  8
SUNPOU
100
AcDbLine
 10
2129.999985648759
 20
2257.403415746121
 30
0.0
 11
2129.999985648759
 21
1827.40341574613
 31
0.0
  0
LINE
  5
152
330
C3
100
AcDbEntity
  8
SUNPOU
100
AcDbLine
 10
2969.99998564875
 20
2397.403415746121
 30
0.0
 11
2949.99998564875
 21
2317.403415746125
 31
0.0
  0
LINE
  5
153
330
C3
100
AcDbEntity
  8
SUNPOU
100
AcDbLine
 10
2994.999985648774
 20
1777.403415746125
 30
0.0
 11
2409.999985648758
 21
1777.403415746119
 31
0.0
  0
LINE
  5
154
330
C3
100
AcDbEntity
  8
SUNPOU
100
AcDbLine
 10
2994.999985648774
 20
1657.403415746125
 30
0.0
 11
2409.999985648758
 21
1657.403415746121
 31
0.0
  0
LINE
  5
155
330
C3
100
AcDbEntity
  8
HASEN
100
AcDbLine
 10
2994.999985648772
 20
2155.403415746116
 30
0.0
 11
2644.497460331817
 21
2155.403415746112
 31
0.0
  0
LINE
  5
156
330
C3
100
AcDbEntity
  8
HASEN
100
AcDbLine
 10
2994.999985648772
 20
1915.403415746116
 30
0.0
 11
2644.497460331817
 21
1915.403415746112
 31
0.0
  0
LINE
  5
157
330
C3
100
AcDbEntity
  8
HASEN
100
AcDbLine
 10
2994.999985648772
 20
1675.403415746116
 30
0.0
 11
2644.497460331817
 21
1675.403415746112
 31
0.0
  0
ARC
  5
158
330
C3
100
AcDbEntity
  8
HAIKIN
100
AcDbCircle
 10
2374.999985648758
 20
1792.403415746126
 30
0.0
 40
35.0
100
AcDbArc
 50
0.0
 51
90.0
  0
SOLID
  5
159
330
C3
100
AcDbEntity
  8
SUNPOU
100
AcDbTrace
 10
2294.999985648761
 20
1917.403415746126
 30
0.0
 11
2279.999985648761
 21
1827.403415746126
 31
0.0
 12
2264.999985648761
 22
1917.403415746126
 32
0.0
 13
2264.999985648761
 23
1917.403415746126
 33
0.0
1001
ACAD
1000
DSTYLE
1002
{
1070
    78
1070
     8
1070
   284
1070
     8
1070
   140
1040
3.0
1070
   145
1040
1.0
1070
    74
1070
     0
1070
   172
1070
     1
1070
    73
1070
     0
1070
    77
1070
     1
1070
    40
1040
60.0
1070
   147
1040
0.8
1070
   287
1070
     5
1070
    42
1040
1.5
1070
    44
1040
0.6
1070
    43
1040
7.0
1070
   271
1070
     0
1070
   177
1070
   256
1070
   176
1070
   256
1070
   141
1040
0.0
1070
   275
1070
     1
1070
    41
1040
1.5
1070
   285
1070
     8
1070
   286
1070
     8
1002
}
  0
SOLID
  5
15A
330
C3
100
AcDbEntity
  8
SUNPOU
100
AcDbTrace
 10
2804.999985648759
 20
2022.403415746125
 30
0.0
 11
2789.999985648759
 21
1932.403415746125
 31
0.0
 12
2774.999985648759
 22
2022.403415746125
 32
0.0
 13
2774.999985648759
 23
2022.403415746125
 33
0.0
1001
ACAD
1000
DSTYLE
1002
{
1070
    78
1070
     8
1070
   284
1070
     8
1070
   140
1040
3.0
1070
   145
1040
1.0
1070
    74
1070
     0
1070
   172
1070
     1
1070
    73
1070
     0
1070
    77
1070
     1
1070
    40
1040
60.0
1070
   147
1040
0.8
1070
   287
1070
     5
1070
    42
1040
1.5
1070
    44
1040
0.6
1070
    43
1040
7.0
1070
   271
1070
     0
1070
   177
1070
   256
1070
   176
1070
   256
1070
   141
1040
0.0
1070
   275
1070
     1
1070
    41
1040
1.5
1070
   285
1070
     8
1070
   286
1070
     8
1002
}
  0
SOLID
  5
15B
330
C3
100
AcDbEntity
  8
SUNPOU
100
AcDbTrace
 10
2804.999985648759
 20
1962.403415746125
 30
0.0
 11
2789.999985648759
 21
1872.403415746125
 31
0.0
 12
2774.999985648759
 22
1962.403415746125
 32
0.0
 13
2774.999985648759
 23
1962.403415746125
 33
0.0
1001
ACAD
1000
DSTYLE
1002
{
1070
    78
1070
     8
1070
   284
1070
     8
1070
   140
1040
3.0
1070
   145
1040
1.0
1070
    74
1070
     0
1070
   172
1070
     1
1070
    73
1070
     0
1070
    77
1070
     1
1070
    40
1040
60.0
1070
   147
1040
0.8
1070
   287
1070
     5
1070
    42
1040
1.5
1070
    44
1040
0.6
1070
    43
1040
7.0
1070
   271
1070
     0
1070
   177
1070
   256
1070
   176
1070
   256
1070
   141
1040
0.0
1070
   275
1070
     1
1070
    41
1040
1.5
1070
   285
1070
     8
1070
   286
1070
     8
1002
}
  0
SOLID
  5
15C
330
C3
100
AcDbEntity
  8
SUNPOU
100
AcDbTrace
 10
2804.999985648759
 20
2082.403415746125
 30
0.0
 11
2789.999985648759
 21
1992.403415746125
 31
0.0
 12
2774.999985648759
 22
2082.403415746125
 32
0.0
 13
2774.999985648759
 23
2082.403415746125
 33
0.0
1001
ACAD
1000
DSTYLE
1002
{
1070
    78
1070
     8
1070
   284
1070
     8
1070
   140
1040
3.0
1070
   145
1040
1.0
1070
    74
1070
     0
1070
   172
1070
     1
1070
    73
1070
     0
1070
    77
1070
     1
1070
    40
1040
60.0
1070
   147
1040
0.8
1070
   287
1070
     5
1070
    42
1040
1.5
1070
    44
1040
0.6
1070
    43
1040
7.0
1070
   271
1070
     0
1070
   177
1070
   256
1070
   176
1070
   256
1070
   141
1040
0.0
1070
   275
1070
     1
1070
    41
1040
1.5
1070
   285
1070
     8
1070
   286
1070
     8
1002
}
  0
LINE
  5
15D
330
C3
100
AcDbEntity
  8
SUNPOU
100
AcDbLine
 10
2969.99998564875
 20
2397.403415746121
 30
0.0
 11
3029.99998564875
 21
2397.403415746121
 31
0.0
  0
LINE
  5
15E
330
C3
100
AcDbEntity
  8
SUNPOU
100
AcDbLine
 10
3449.999985648745
 20
1357.403415746123
 30
0.0
 11
3449.999985648745
 21
2102.632833953865
 31
0.0
1001
ACAD
1000
DSTYLE
1002
{
1070
    78
1070
     8
1070
   284
1070
     8
1070
   140
1040
3.0
1070
   145
1040
1.0
1070
    74
1070
     0
1070
   172
1070
     1
1070
    73
1070
     0
1070
    77
1070
     1
1070
    40
1040
60.0
1070
   147
1040
0.8
1070
   287
1070
     5
1070
    42
1040
1.5
1070
    44
1040
0.6
1070
    43
1040
7.0
1070
   271
1070
     0
1070
   177
1070
   256
1070
   176
1070
   256
1070
   141
1040
0.0
1070
   275
1070
     1
1070
    41
1040
1.5
1070
   285
1070
     8
1070
   286
1070
     8
1002
}
  0
TEXT
  5
15F
330
C3
100
AcDbEntity
  8
SUNPOU
100
AcDbText
 10
1304.999985648761
 20
3317.403415746123
 30
0.0
 40
150.0
  1
D10
 41
0.8
 11
1304.999985648761
 21
3392.403415746123
 31
0.0
100
AcDbText
 73
     2
  0
TEXT
  5
160
330
C3
100
AcDbEntity
  8
SUNPOU
100
AcDbText
 10
2684.999985648759
 20
3317.403415746123
 30
0.0
 40
150.0
  1
D10
 41
0.8
 11
2684.999985648759
 21
3392.403415746123
 31
0.0
100
AcDbText
 73
     2
  0
LINE
  5
161
330
C3
100
AcDbEntity
  8
SUNPOU
100
AcDbLine
 10
2279.999985648759
 20
3227.403415746123
 30
0.0
 11
3059.999985648759
 21
3227.403415746123
 31
0.0
1001
ACAD
1000
DSTYLE
1002
{
1070
    78
1070
     8
1070
   284
1070
     8
1070
   140
1040
3.0
1070
   145
1040
1.0
1070
    74
1070
     0
1070
   172
1070
     1
1070
    73
1070
     0
1070
    77
1070
     1
1070
    40
1040
60.0
1070
   147
1040
0.8
1070
   287
1070
     5
1070
    42
1040
1.5
1070
    44
1040
0.6
1070
    43
1040
7.0
1070
   271
1070
     0
1070
   177
1070
   256
1070
   176
1070
   256
1070
   141
1040
0.0
1070
   275
1070
     1
1070
    41
1040
1.5
1070
   285
1070
     8
1070
   286
1070
     8
1002
}
  0
TEXT
  5
162
330
C3
100
AcDbEntity
  8
SUNPOU
100
AcDbText
 10
2359.999985648759
 20
3317.403415746123
 30
0.0
 40
150.0
  1
H4
 41
0.8
 72
     4
 11
2459.999985648759
 21
3392.403415746123
 31
0.0
100
AcDbText
  0
CIRCLE
  5
163
330
C3
100
AcDbEntity
  8
SUNPOU
100
AcDbCircle
 10
2459.999985648759
 20
3392.403415746123
 30
0.0
 40
165.0
  0
TEXT
  5
164
330
C3
100
AcDbEntity
  8
SUNPOU
100
AcDbText
 10
2239.999985648754
 20
4105.403415746121
 30
0.0
 40
210.0
  1
内　側
 72
     2
 11
2939.999985648754
 21
4077.403415746121
 31
0.0
100
AcDbText
 73
     1
  0
LINE
  5
165
330
C3
100
AcDbEntity
  8
HAIKIN
 62
     3
100
AcDbLine
 10
1889.999985648752
 20
4587.403415746125
 30
0.0
 11
1889.999985648752
 21
4887.403415746125
 31
0.0
  0
SOLID
  5
166
330
C3
100
AcDbEntity
  8
SUNPOU
100
AcDbTrace
 10
2559.999985648748
 20
1342.403415746126
 30
0.0000000000000092
 11
2469.999985648748
 21
1357.403415746126
 31
0.0000000000000092
 12
2559.999985648748
 22
1372.403415746126
 32
0.0000000000000092
 13
2559.999985648748
 23
1372.403415746126
 33
0.0000000000000092
1001
ACAD
1000
DSTYLE
1002
{
1070
    78
1070
     8
1070
   284
1070
     8
1070
   140
1040
3.0
1070
   145
1040
1.0
1070
    74
1070
     0
1070
   172
1070
     1
1070
    73
1070
     0
1070
    77
1070
     1
1070
    40
1040
60.0
1070
   147
1040
0.8
1070
   287
1070
     5
1070
    42
1040
1.5
1070
    44
1040
0.6
1070
    43
1040
7.0
1070
   271
1070
     0
1070
   177
1070
   256
1070
   176
1070
   256
1070
   141
1040
0.0
1070
   275
1070
     1
1070
    41
1040
1.5
1070
   285
1070
     8
1070
   286
1070
     8
1002
}
  0
SOLID
  5
167
330
C3
100
AcDbEntity
  8
SUNPOU
100
AcDbTrace
 10
2679.99998564875
 20
1342.403415746126
 30
0.0000000000000092
 11
2589.99998564875
 21
1357.403415746126
 31
0.0000000000000092
 12
2679.99998564875
 22
1372.403415746126
 32
0.0000000000000092
 13
2679.99998564875
 23
1372.403415746126
 33
0.0000000000000092
1001
ACAD
1000
DSTYLE
1002
{
1070
    78
1070
     8
1070
   284
1070
     8
1070
   140
1040
3.0
1070
   145
1040
1.0
1070
    74
1070
     0
1070
   172
1070
     1
1070
    73
1070
     0
1070
    77
1070
     1
1070
    40
1040
60.0
1070
   147
1040
0.8
1070
   287
1070
     5
1070
    42
1040
1.5
1070
    44
1040
0.6
1070
    43
1040
7.0
1070
   271
1070
     0
1070
   177
1070
   256
1070
   176
1070
   256
1070
   141
1040
0.0
1070
   275
1070
     1
1070
    41
1040
1.5
1070
   285
1070
     8
1070
   286
1070
     8
1002
}
  0
SOLID
  5
168
330
C3
100
AcDbEntity
  8
SUNPOU
100
AcDbTrace
 10
2619.99998564875
 20
1342.403415746126
 30
0.0000000000000092
 11
2529.99998564875
 21
1357.403415746126
 31
0.0000000000000092
 12
2619.99998564875
 22
1372.403415746126
 32
0.0000000000000092
 13
2619.99998564875
 23
1372.403415746126
 33
0.0000000000000092
1001
ACAD
1000
DSTYLE
1002
{
1070
    78
1070
     8
1070
   284
1070
     8
1070
   140
1040
3.0
1070
   145
1040
1.0
1070
    74
1070
     0
1070
   172
1070
     1
1070
    73
1070
     0
1070
    77
1070
     1
1070
    40
1040
60.0
1070
   147
1040
0.8
1070
   287
1070
     5
1070
    42
1040
1.5
1070
    44
1040
0.6
1070
    43
1040
7.0
1070
   271
1070
     0
1070
   177
1070
   256
1070
   176
1070
   256
1070
   141
1040
0.0
1070
   275
1070
     1
1070
    41
1040
1.5
1070
   285
1070
     8
1070
   286
1070
     8
1002
}
  0
ENDBLK
  5
16A
330
C3
100
AcDbEntity
  8
0
100
AcDbBlockEnd
  0
BLOCK
  5
1075
330
106B
100
AcDbEntity
  8
0
100
AcDbBlockBegin
  2
*D8
 70
     1
 10
0.0
 20
0.0
 30
0.0
  3
*D8
  1

  0
LINE
  5
1588
330
106B
100
AcDbEntity
  8
SUNPOU
 62
     0
370
    -2
100
AcDbLine
 10
2978.203103559108
 20
4405.288722379401
 30
0.0
 11
1913.774994662257
 21
4405.288722379402
 31
0.0
  0
LINE
  5
1589
330
106B
100
AcDbEntity
  8
SUNPOU
 62
     0
370
    -2
100
AcDbLine
 10
2978.203103559108
 20
7155.288722379402
 30
0.0
 11
1913.774994662257
 21
7155.288722379403
 31
0.0
  0
LINE
  5
158A
330
106B
100
AcDbEntity
  8
SUNPOU
 62
     0
370
    -2
100
AcDbLine
 10
1928.774994662257
 20
4465.288722379402
 30
0.0
 11
1928.774994662257
 21
7095.288722379403
 31
0.0
  0
SOLID
  5
158B
330
106B
100
AcDbEntity
  8
SUNPOU
 62
     0
100
AcDbTrace
 10
1918.774994662257
 20
4465.288722379402
 30
0.0
 11
1938.774994662257
 21
4465.288722379402
 31
0.0
 12
1928.774994662257
 22
4405.288722379402
 32
0.0
 13
1928.774994662257
 23
4405.288722379402
 33
0.0
  0
SOLID
  5
158C
330
106B
100
AcDbEntity
  8
SUNPOU
 62
     0
100
AcDbTrace
 10
1918.774994662257
 20
7095.288722379403
 30
0.0
 11
1938.774994662257
 21
7095.288722379403
 31
0.0
 12
1928.774994662257
 22
7155.288722379403
 32
0.0
 13
1928.774994662257
 23
7155.288722379403
 33
0.0
  0
MTEXT
  5
158D
330
106B
100
AcDbEntity
  8
SUNPOU
 62
     0
100
AcDbMText
 10
1859.774994662256
 20
5780.288722379402
 30
0.0
 40
90.0
 41
0.0
 71
     5
 72
     1
  1
\A1;2750
 11
6.123031769111886E-17
 21
1.0
 31
0.0
 73
     1
 44
1.0
  0
POINT
  5
158E
330
106B
100
AcDbEntity
  8
DEFPOINTS
 62
     0
100
AcDbPoint
 10
3038.203103559108
 20
4405.288722379401
 30
0.0
  0
POINT
  5
158F
330
106B
100
AcDbEntity
  8
DEFPOINTS
 62
     0
100
AcDbPoint
 10
3038.203103559108
 20
7155.288722379402
 30
0.0
  0
POINT
  5
1590
330
106B
100
AcDbEntity
  8
DEFPOINTS
 62
     0
100
AcDbPoint
 10
1928.774994662257
 20
7155.288722379403
 30
0.0
  0
ENDBLK
  5
1076
330
106B
100
AcDbEntity
  8
0
100
AcDbBlockEnd
  0
BLOCK
  5
1081
330
1077
100
AcDbEntity
  8
0
100
AcDbBlockBegin
  2
*D9
 70
     1
 10
0.0
 20
0.0
 30
0.0
  3
*D9
  1

  0
LINE
  5
154E
330
1077
100
AcDbEntity
  8
SUNPOU
 62
     0
370
    -2
100
AcDbLine
 10
3038.203103559108
 20
4345.288722379401
 30
0.0
 11
3038.203103559108
 21
3656.203377609025
 31
0.0
  0
LINE
  5
154F
330
1077
100
AcDbEntity
  8
SUNPOU
 62
     0
370
    -2
100
AcDbLine
 10
4988.203103559106
 20
4345.288722379401
 30
0.0
 11
4988.203103559106
 21
3656.203377609025
 31
0.0
  0
LINE
  5
1550
330
1077
100
AcDbEntity
  8
SUNPOU
 62
     0
370
    -2
100
AcDbLine
 10
3098.203103559108
 20
3671.203377609025
 30
0.0
 11
4928.203103559106
 21
3671.203377609025
 31
0.0
  0
SOLID
  5
1551
330
1077
100
AcDbEntity
  8
SUNPOU
 62
     0
100
AcDbTrace
 10
3098.203103559108
 20
3681.203377609025
 30
0.0
 11
3098.203103559108
 21
3661.203377609025
 31
0.0
 12
3038.203103559108
 22
3671.203377609025
 32
0.0
 13
3038.203103559108
 23
3671.203377609025
 33
0.0
  0
SOLID
  5
1552
330
1077
100
AcDbEntity
  8
SUNPOU
 62
     0
100
AcDbTrace
 10
4928.203103559106
 20
3681.203377609025
 30
0.0
 11
4928.203103559106
 21
3661.203377609025
 31
0.0
 12
4988.203103559106
 22
3671.203377609025
 32
0.0
 13
4988.203103559106
 23
3671.203377609025
 33
0.0
  0
MTEXT
  5
1553
330
1077
100
AcDbEntity
  8
SUNPOU
 62
     0
100
AcDbMText
 10
4013.203103559107
 20
3740.203377609025
 30
0.0
 40
90.0
 41
0.0
 71
     5
 72
     1
  1
\A1;1950
 73
     1
 44
1.0
  0
POINT
  5
1554
330
1077
100
AcDbEntity
  8
DEFPOINTS
 62
     0
100
AcDbPoint
 10
3038.203103559108
 20
4405.288722379401
 30
0.0
  0
POINT
  5
1555
330
1077
100
AcDbEntity
  8
DEFPOINTS
 62
     0
100
AcDbPoint
 10
4988.203103559106
 20
4405.288722379401
 30
0.0
  0
POINT
  5
1556
330
1077
100
AcDbEntity
  8
DEFPOINTS
 62
     0
100
AcDbPoint
 10
4988.203103559106
 20
3671.203377609025
 30
0.0
  0
ENDBLK
  5
1082
330
1077
100
AcDbEntity
  8
0
100
AcDbBlockEnd
  0
BLOCK
  5
108E
330
1083
100
AcDbEntity
  8
0
100
AcDbBlockBegin
  2
*D10
 70
     1
 10
0.0
 20
0.0
 30
0.0
  3
*D10
  1

  0
LINE
  5
1528
330
1083
100
AcDbEntity
  8
SUNPOU
 62
     0
370
    -2
100
AcDbLine
 10
3038.203103559108
 20
7215.288722379401
 30
0.0
 11
3038.203103559108
 21
7641.30734215027
 31
0.0
  0
LINE
  5
1529
330
1083
100
AcDbEntity
  8
SUNPOU
 62
     0
370
    -2
100
AcDbLine
 10
3108.203103559108
 20
7215.288722379401
 30
0.0
 11
3108.203103559108
 21
7641.30734215027
 31
0.0
  0
LINE
  5
152A
330
1083
100
AcDbEntity
  8
SUNPOU
 62
     0
370
    -2
100
AcDbLine
 10
2978.203103559108
 20
7626.30734215027
 30
0.0
 11
2918.203103559108
 21
7626.30734215027
 31
0.0
  0
LINE
  5
152B
330
1083
100
AcDbEntity
  8
SUNPOU
 62
     0
370
    -2
100
AcDbLine
 10
3168.203103559108
 20
7626.30734215027
 30
0.0
 11
3228.203103559108
 21
7626.30734215027
 31
0.0
  0
SOLID
  5
152C
330
1083
100
AcDbEntity
  8
SUNPOU
 62
     0
100
AcDbTrace
 10
2978.203103559108
 20
7636.30734215027
 30
0.0
 11
2978.203103559108
 21
7616.30734215027
 31
0.0
 12
3038.203103559108
 22
7626.30734215027
 32
0.0
 13
3038.203103559108
 23
7626.30734215027
 33
0.0
  0
SOLID
  5
152D
330
1083
100
AcDbEntity
  8
SUNPOU
 62
     0
100
AcDbTrace
 10
3168.203103559108
 20
7636.30734215027
 30
0.0
 11
3168.203103559108
 21
7616.30734215027
 31
0.0
 12
3108.203103559108
 22
7626.30734215027
 32
0.0
 13
3108.203103559108
 23
7626.30734215027
 33
0.0
  0
MTEXT
  5
152E
330
1083
100
AcDbEntity
  8
SUNPOU
 62
     0
100
AcDbMText
 10
3073.203103559108
 20
7695.30734215027
 30
0.0
 40
90.0
 41
0.0
 71
     5
 72
     1
  1
\A1;70
 73
     1
 44
1.0
  0
POINT
  5
152F
330
1083
100
AcDbEntity
  8
DEFPOINTS
 62
     0
100
AcDbPoint
 10
3038.203103559108
 20
7155.288722379401
 30
0.0
  0
POINT
  5
1530
330
1083
100
AcDbEntity
  8
DEFPOINTS
 62
     0
100
AcDbPoint
 10
3108.203103559108
 20
7155.288722379401
 30
0.0
  0
POINT
  5
1531
330
1083
100
AcDbEntity
  8
DEFPOINTS
 62
     0
100
AcDbPoint
 10
3108.203103559108
 20
7626.30734215027
 30
0.0
  0
ENDBLK
  5
108F
330
1083
100
AcDbEntity
  8
0
100
AcDbBlockEnd
  0
BLOCK
  5
109C
330
1090
100
AcDbEntity
  8
0
100
AcDbBlockBegin
  2
*D11
 70
     1
 10
0.0
 20
0.0
 30
0.0
  3
*D11
  1

  0
LINE
  5
14CA
330
1090
100
AcDbEntity
  8
SUNPOU
 62
     0
370
    -2
100
AcDbLine
 10
5048.203103559108
 20
4490.83276383018
 30
0.0
 11
5491.316446842029
 21
4490.83276383018
 31
0.0
  0
LINE
  5
14CB
330
1090
100
AcDbEntity
  8
SUNPOU
 62
     0
370
    -2
100
AcDbLine
 10
5048.203103559108
 20
4405.288722379401
 30
0.0
 11
5491.316446842029
 21
4405.288722379401
 31
0.0
  0
LINE
  5
14CC
330
1090
100
AcDbEntity
  8
SUNPOU
 62
     0
370
    -2
100
AcDbLine
 10
5476.316446842029
 20
4550.83276383018
 30
0.0
 11
5476.316446842029
 21
4610.83276383018
 31
0.0
  0
LINE
  5
14CD
330
1090
100
AcDbEntity
  8
SUNPOU
 62
     0
370
    -2
100
AcDbLine
 10
5476.316446842029
 20
4345.288722379401
 30
0.0
 11
5476.316446842029
 21
4285.288722379401
 31
0.0
  0
SOLID
  5
14CE
330
1090
100
AcDbEntity
  8
SUNPOU
 62
     0
100
AcDbTrace
 10
5466.316446842029
 20
4550.83276383018
 30
0.0
 11
5486.316446842029
 21
4550.83276383018
 31
0.0
 12
5476.316446842029
 22
4490.83276383018
 32
0.0
 13
5476.316446842029
 23
4490.83276383018
 33
0.0
  0
SOLID
  5
14CF
330
1090
100
AcDbEntity
  8
SUNPOU
 62
     0
100
AcDbTrace
 10
5466.316446842029
 20
4345.288722379401
 30
0.0
 11
5486.316446842029
 21
4345.288722379401
 31
0.0
 12
5476.316446842029
 22
4405.288722379401
 32
0.0
 13
5476.316446842029
 23
4405.288722379401
 33
0.0
  0
MTEXT
  5
14D0
330
1090
100
AcDbEntity
  8
SUNPOU
 62
     0
100
AcDbMText
 10
5407.316446842028
 20
4448.060743104792
 30
0.0
 40
90.0
 41
0.0
 71
     5
 72
     1
  1
\A1;86
 11
6.123031769111886E-17
 21
1.0
 31
0.0
 73
     1
 44
1.0
  0
POINT
  5
14D1
330
1090
100
AcDbEntity
  8
DEFPOINTS
 62
     0
100
AcDbPoint
 10
4988.203103559108
 20
4490.83276383018
 30
0.0
  0
POINT
  5
14D2
330
1090
100
AcDbEntity
  8
DEFPOINTS
 62
     0
100
AcDbPoint
 10
4988.203103559108
 20
4405.288722379401
 30
0.0
  0
POINT
  5
14D3
330
1090
100
AcDbEntity
  8
DEFPOINTS
 62
     0
100
AcDbPoint
 10
5476.316446842029
 20
4405.288722379401
 30
0.0
  0
ENDBLK
  5
109D
330
1090
100
AcDbEntity
  8
0
100
AcDbBlockEnd
  0
BLOCK
  5
10A8
330
109E
100
AcDbEntity
  8
0
100
AcDbBlockBegin
  2
*D12
 70
     1
 10
0.0
 20
0.0
 30
0.0
  3
*D12
  1

  0
LINE
  5
164F
330
109E
100
AcDbEntity
  8
SUNPOU
 62
     0
370
    -2
100
AcDbLine
 10
7519.995514935435
 20
7215.288722379402
 30
0.0
 11
7519.995514935435
 21
7724.709437060323
 31
0.0
  0
LINE
  5
1650
330
109E
100
AcDbEntity
  8
SUNPOU
 62
     0
370
    -2
100
AcDbLine
 10
9519.995514935435
 20
7215.288722379402
 30
0.0
 11
9519.995514935435
 21
7724.709437060323
 31
0.0
  0
LINE
  5
1651
330
109E
100
AcDbEntity
  8
SUNPOU
 62
     0
370
    -2
100
AcDbLine
 10
7579.995514935435
 20
7709.709437060323
 30
0.0
 11
9459.995514935435
 21
7709.709437060323
 31
0.0
  0
SOLID
  5
1652
330
109E
100
AcDbEntity
  8
SUNPOU
 62
     0
100
AcDbTrace
 10
7579.995514935435
 20
7719.709437060323
 30
0.0
 11
7579.995514935435
 21
7699.709437060323
 31
0.0
 12
7519.995514935435
 22
7709.709437060323
 32
0.0
 13
7519.995514935435
 23
7709.709437060323
 33
0.0
  0
SOLID
  5
1653
330
109E
100
AcDbEntity
  8
SUNPOU
 62
     0
100
AcDbTrace
 10
9459.995514935435
 20
7719.709437060323
 30
0.0
 11
9459.995514935435
 21
7699.709437060323
 31
0.0
 12
9519.995514935435
 22
7709.709437060323
 32
0.0
 13
9519.995514935435
 23
7709.709437060323
 33
0.0
  0
MTEXT
  5
1654
330
109E
100
AcDbEntity
  8
SUNPOU
 62
     0
100
AcDbMText
 10
8519.995514935435
 20
7778.709437060323
 30
0.0
 40
90.0
 41
0.0
 71
     5
 72
     1
  1
\A1;2000
 73
     1
 44
1.0
  0
POINT
  5
1655
330
109E
100
AcDbEntity
  8
DEFPOINTS
 62
     0
100
AcDbPoint
 10
7519.995514935435
 20
7155.288722379402
 30
0.0
  0
POINT
  5
1656
330
109E
100
AcDbEntity
  8
DEFPOINTS
 62
     0
100
AcDbPoint
 10
9519.995514935435
 20
7155.288722379402
 30
0.0
  0
POINT
  5
1657
330
109E
100
AcDbEntity
  8
DEFPOINTS
 62
     0
100
AcDbPoint
 10
9519.995514935435
 20
7709.709437060323
 30
0.0
  0
ENDBLK
  5
10A9
330
109E
100
AcDbEntity
  8
0
100
AcDbBlockEnd
  0
BLOCK
  5
10B4
330
10AA
100
AcDbEntity
  8
0
100
AcDbBlockBegin
  2
*D13
 70
     1
 10
0.0
 20
0.0
 30
0.0
  3
*D13
  1

  0
LINE
  5
15D2
330
10AA
100
AcDbEntity
  8
SUNPOU
 62
     0
370
    -2
100
AcDbLine
 10
3038.20310355911
 20
2740.902471727984
 30
0.0
 11
3038.20310355911
 21
3153.056142705187
 31
0.0
  0
LINE
  5
15D3
330
10AA
100
AcDbEntity
  8
SUNPOU
 62
     0
370
    -2
100
AcDbLine
 10
4988.203103559109
 20
2695.553634518681
 30
0.0
 11
4988.203103559109
 21
3153.056142705187
 31
0.0
  0
LINE
  5
15D4
330
10AA
100
AcDbEntity
  8
SUNPOU
 62
     0
370
    -2
100
AcDbLine
 10
3098.20310355911
 20
3138.056142705187
 30
0.0
 11
4928.203103559109
 21
3138.056142705187
 31
0.0
  0
SOLID
  5
15D5
330
10AA
100
AcDbEntity
  8
SUNPOU
 62
     0
100
AcDbTrace
 10
3098.20310355911
 20
3148.056142705187
 30
0.0
 11
3098.20310355911
 21
3128.056142705187
 31
0.0
 12
3038.20310355911
 22
3138.056142705187
 32
0.0
 13
3038.20310355911
 23
3138.056142705187
 33
0.0
  0
SOLID
  5
15D6
330
10AA
100
AcDbEntity
  8
SUNPOU
 62
     0
100
AcDbTrace
 10
4928.203103559109
 20
3148.056142705187
 30
0.0
 11
4928.203103559109
 21
3128.056142705187
 31
0.0
 12
4988.203103559109
 22
3138.056142705187
 32
0.0
 13
4988.203103559109
 23
3138.056142705187
 33
0.0
  0
MTEXT
  5
15D7
330
10AA
100
AcDbEntity
  8
SUNPOU
 62
     0
100
AcDbMText
 10
4013.203103559109
 20
3207.056142705187
 30
0.0
 40
90.0
 41
0.0
 71
     5
 72
     1
  1
\A1;1950
 73
     1
 44
1.0
  0
POINT
  5
15D8
330
10AA
100
AcDbEntity
  8
DEFPOINTS
 62
     0
100
AcDbPoint
 10
3038.20310355911
 20
2680.902471727984
 30
0.0
  0
POINT
  5
15D9
330
10AA
100
AcDbEntity
  8
DEFPOINTS
 62
     0
100
AcDbPoint
 10
4988.203103559109
 20
2635.553634518681
 30
0.0
  0
POINT
  5
15DA
330
10AA
100
AcDbEntity
  8
DEFPOINTS
 62
     0
100
AcDbPoint
 10
4988.203103559109
 20
3138.056142705187
 30
0.0
  0
ENDBLK
  5
10B5
330
10AA
100
AcDbEntity
  8
0
100
AcDbBlockEnd
  0
BLOCK
  5
10C0
330
10B6
100
AcDbEntity
  8
0
100
AcDbBlockBegin
  2
*D14
 70
     1
 10
0.0
 20
0.0
 30
0.0
  3
*D14
  1

  0
LINE
  5
15B7
330
10B6
100
AcDbEntity
  8
SUNPOU
 62
     0
370
    -2
100
AcDbLine
 10
5048.20310355911
 20
2630.902471727984
 30
0.0
 11
5663.203103559111
 21
2630.902471727983
 31
0.0
  0
LINE
  5
15B8
330
10B6
100
AcDbEntity
  8
SUNPOU
 62
     0
370
    -2
100
AcDbLine
 10
5048.20310355911
 20
730.9024717279835
 30
0.0
 11
5663.20310355911
 21
730.9024717279834
 31
0.0
  0
LINE
  5
15B9
330
10B6
100
AcDbEntity
  8
SUNPOU
 62
     0
370
    -2
100
AcDbLine
 10
5648.203103559111
 20
2570.902471727983
 30
0.0
 11
5648.20310355911
 21
790.9024717279834
 31
0.0
  0
SOLID
  5
15BA
330
10B6
100
AcDbEntity
  8
SUNPOU
 62
     0
100
AcDbTrace
 10
5638.203103559111
 20
2570.902471727983
 30
0.0
 11
5658.203103559111
 21
2570.902471727983
 31
0.0
 12
5648.203103559111
 22
2630.902471727983
 32
0.0
 13
5648.203103559111
 23
2630.902471727983
 33
0.0
  0
SOLID
  5
15BB
330
10B6
100
AcDbEntity
  8
SUNPOU
 62
     0
100
AcDbTrace
 10
5638.20310355911
 20
790.9024717279834
 30
0.0
 11
5658.20310355911
 21
790.9024717279834
 31
0.0
 12
5648.20310355911
 22
730.9024717279834
 32
0.0
 13
5648.20310355911
 23
730.9024717279834
 33
0.0
  0
MTEXT
  5
15BC
330
10B6
100
AcDbEntity
  8
SUNPOU
 62
     0
100
AcDbMText
 10
5579.20310355911
 20
1680.902471727984
 30
0.0
 40
90.0
 41
0.0
 71
     5
 72
     1
  1
\A1;1900
 11
6.123031769111886E-17
 21
1.0
 31
0.0
 73
     1
 44
1.0
  0
POINT
  5
15BD
330
10B6
100
AcDbEntity
  8
DEFPOINTS
 62
     0
100
AcDbPoint
 10
4988.20310355911
 20
2630.902471727984
 30
0.0
  0
POINT
  5
15BE
330
10B6
100
AcDbEntity
  8
DEFPOINTS
 62
     0
100
AcDbPoint
 10
4988.20310355911
 20
730.9024717279835
 30
0.0
  0
POINT
  5
15BF
330
10B6
100
AcDbEntity
  8
DEFPOINTS
 62
     0
100
AcDbPoint
 10
5648.20310355911
 20
730.9024717279834
 30
0.0
  0
ENDBLK
  5
10C1
330
10B6
100
AcDbEntity
  8
0
100
AcDbBlockEnd
  0
BLOCK
  5
10CC
330
10C2
100
AcDbEntity
  8
0
100
AcDbBlockBegin
  2
*D15
 70
     1
 10
0.0
 20
0.0
 30
0.0
  3
*D15
  1

  0
LINE
  5
15DB
330
10C2
100
AcDbEntity
  8
SUNPOU
 62
     0
370
    -2
100
AcDbLine
 10
2978.20310355911
 20
2680.902471727984
 30
0.0
 11
2363.20310355911
 21
2680.902471727984
 31
0.0
  0
LINE
  5
15DC
330
10C2
100
AcDbEntity
  8
SUNPOU
 62
     0
370
    -2
100
AcDbLine
 10
2978.20310355911
 20
680.9024717279835
 30
0.0
 11
2363.20310355911
 21
680.9024717279837
 31
0.0
  0
LINE
  5
15DD
330
10C2
100
AcDbEntity
  8
SUNPOU
 62
     0
370
    -2
100
AcDbLine
 10
2378.20310355911
 20
2620.902471727984
 30
0.0
 11
2378.20310355911
 21
740.9024717279837
 31
0.0
  0
SOLID
  5
15DE
330
10C2
100
AcDbEntity
  8
SUNPOU
 62
     0
100
AcDbTrace
 10
2368.20310355911
 20
2620.902471727984
 30
0.0
 11
2388.20310355911
 21
2620.902471727984
 31
0.0
 12
2378.20310355911
 22
2680.902471727984
 32
0.0
 13
2378.20310355911
 23
2680.902471727984
 33
0.0
  0
SOLID
  5
15DF
330
10C2
100
AcDbEntity
  8
SUNPOU
 62
     0
100
AcDbTrace
 10
2368.20310355911
 20
740.9024717279837
 30
0.0
 11
2388.20310355911
 21
740.9024717279837
 31
0.0
 12
2378.20310355911
 22
680.9024717279837
 32
0.0
 13
2378.20310355911
 23
680.9024717279837
 33
0.0
  0
MTEXT
  5
15E0
330
10C2
100
AcDbEntity
  8
SUNPOU
 62
     0
100
AcDbMText
 10
2309.20310355911
 20
1680.902471727984
 30
0.0
 40
90.0
 41
0.0
 71
     5
 72
     1
  1
\A1;2000
 11
6.123031769111886E-17
 21
1.0
 31
0.0
 73
     1
 44
1.0
  0
POINT
  5
15E1
330
10C2
100
AcDbEntity
  8
DEFPOINTS
 62
     0
100
AcDbPoint
 10
3038.20310355911
 20
2680.902471727984
 30
0.0
  0
POINT
  5
15E2
330
10C2
100
AcDbEntity
  8
DEFPOINTS
 62
     0
100
AcDbPoint
 10
3038.20310355911
 20
680.9024717279835
 30
0.0
  0
POINT
  5
15E3
330
10C2
100
AcDbEntity
  8
DEFPOINTS
 62
     0
100
AcDbPoint
 10
2378.20310355911
 20
680.9024717279837
 30
0.0
  0
ENDBLK
  5
10CD
330
10C2
100
AcDbEntity
  8
0
100
AcDbBlockEnd
  0
BLOCK
  5
10D8
330
10CE
100
AcDbEntity
  8
0
100
AcDbBlockBegin
  2
*D16
 70
     1
 10
0.0
 20
0.0
 30
0.0
  3
*D16
  1

  0
LINE
  5
159A
330
10CE
100
AcDbEntity
  8
SUNPOU
 62
     0
370
    -2
100
AcDbLine
 10
3038.20310355911
 20
4345.288722379402
 30
0.0
 11
3038.20310355911
 21
3856.028322161968
 31
0.0
  0
LINE
  5
159B
330
10CE
100
AcDbEntity
  8
SUNPOU
 62
     0
370
    -2
100
AcDbLine
 10
3258.20310355911
 20
4345.288722379402
 30
0.0
 11
3258.20310355911
 21
3856.028322161968
 31
0.0
  0
LINE
  5
159C
330
10CE
100
AcDbEntity
  8
SUNPOU
 62
     0
370
    -2
100
AcDbLine
 10
3098.20310355911
 20
3871.028322161968
 30
0.0
 11
3198.20310355911
 21
3871.028322161968
 31
0.0
  0
MTEXT
  5
159D
330
10CE
100
AcDbEntity
  8
SUNPOU
 62
     0
100
AcDbMText
 10
3148.20310355911
 20
3940.028322161968
 30
0.0
 40
90.0
 41
0.0
 71
     5
 72
     1
  1
\A1;220
 73
     1
 44
1.0
  0
SOLID
  5
159E
330
10CE
100
AcDbEntity
  8
SUNPOU
 62
     0
100
AcDbTrace
 10
3098.20310355911
 20
3881.028322161968
 30
0.0
 11
3098.20310355911
 21
3861.028322161968
 31
0.0
 12
3038.20310355911
 22
3871.028322161968
 32
0.0
 13
3038.20310355911
 23
3871.028322161968
 33
0.0
  0
SOLID
  5
159F
330
10CE
100
AcDbEntity
  8
SUNPOU
 62
     0
100
AcDbTrace
 10
3198.20310355911
 20
3881.028322161968
 30
0.0
 11
3198.20310355911
 21
3861.028322161968
 31
0.0
 12
3258.20310355911
 22
3871.028322161968
 32
0.0
 13
3258.20310355911
 23
3871.028322161968
 33
0.0
  0
POINT
  5
15A0
330
10CE
100
AcDbEntity
  8
DEFPOINTS
 62
     0
100
AcDbPoint
 10
3038.20310355911
 20
4405.288722379402
 30
0.0
  0
POINT
  5
15A1
330
10CE
100
AcDbEntity
  8
DEFPOINTS
 62
     0
100
AcDbPoint
 10
3258.20310355911
 20
4405.288722379402
 30
0.0
  0
POINT
  5
15A2
330
10CE
100
AcDbEntity
  8
DEFPOINTS
 62
     0
100
AcDbPoint
 10
3258.20310355911
 20
3871.028322161968
 30
0.0
  0
ENDBLK
  5
10D9
330
10CE
100
AcDbEntity
  8
0
100
AcDbBlockEnd
  0
BLOCK
  5
10E4
330
10DA
100
AcDbEntity
  8
0
100
AcDbBlockBegin
  2
*D17
 70
     1
 10
0.0
 20
0.0
 30
0.0
  3
*D17
  1

  0
LINE
  5
153B
330
10DA
100
AcDbEntity
  8
SUNPOU
 62
     0
370
    -2
100
AcDbLine
 10
3258.20310355911
 20
4345.288722379402
 30
0.0
 11
3258.20310355911
 21
3856.028322161968
 31
0.0
  0
LINE
  5
153C
330
10DA
100
AcDbEntity
  8
SUNPOU
 62
     0
370
    -2
100
AcDbLine
 10
4988.203103559106
 20
4345.288722379402
 30
0.0
 11
4988.203103559106
 21
3856.028322161968
 31
0.0
  0
LINE
  5
153D
330
10DA
100
AcDbEntity
  8
SUNPOU
 62
     0
370
    -2
100
AcDbLine
 10
3318.20310355911
 20
3871.028322161968
 30
0.0
 11
4928.203103559106
 21
3871.028322161968
 31
0.0
  0
SOLID
  5
153E
330
10DA
100
AcDbEntity
  8
SUNPOU
 62
     0
100
AcDbTrace
 10
3318.20310355911
 20
3881.028322161968
 30
0.0
 11
3318.20310355911
 21
3861.028322161968
 31
0.0
 12
3258.20310355911
 22
3871.028322161968
 32
0.0
 13
3258.20310355911
 23
3871.028322161968
 33
0.0
  0
SOLID
  5
153F
330
10DA
100
AcDbEntity
  8
SUNPOU
 62
     0
100
AcDbTrace
 10
4928.203103559106
 20
3881.028322161968
 30
0.0
 11
4928.203103559106
 21
3861.028322161968
 31
0.0
 12
4988.203103559106
 22
3871.028322161968
 32
0.0
 13
4988.203103559106
 23
3871.028322161968
 33
0.0
  0
MTEXT
  5
1540
330
10DA
100
AcDbEntity
  8
SUNPOU
 62
     0
100
AcDbMText
 10
4123.203103559108
 20
3940.028322161968
 30
0.0
 40
90.0
 41
0.0
 71
     5
 72
     1
  1
\A1;1730
 73
     1
 44
1.0
  0
POINT
  5
1541
330
10DA
100
AcDbEntity
  8
DEFPOINTS
 62
     0
100
AcDbPoint
 10
3258.20310355911
 20
4405.288722379402
 30
0.0
  0
POINT
  5
1542
330
10DA
100
AcDbEntity
  8
DEFPOINTS
 62
     0
100
AcDbPoint
 10
4988.203103559106
 20
4405.288722379402
 30
0.0
  0
POINT
  5
1543
330
10DA
100
AcDbEntity
  8
DEFPOINTS
 62
     0
100
AcDbPoint
 10
4988.203103559106
 20
3871.028322161968
 30
0.0
  0
ENDBLK
  5
10E5
330
10DA
100
AcDbEntity
  8
0
100
AcDbBlockEnd
  0
BLOCK
  5
10FC
330
10F2
100
AcDbEntity
  8
0
100
AcDbBlockBegin
  2
*D18
 70
     1
 10
0.0
 20
0.0
 30
0.0
  3
*D18
  1

  0
LINE
  5
1591
330
10F2
100
AcDbEntity
  8
SUNPOU
 62
     0
370
    -2
100
AcDbLine
 10
2978.203103559106
 20
4405.288722379402
 30
0.0
 11
2114.909728297425
 21
4405.288722379402
 31
0.0
  0
LINE
  5
1592
330
10F2
100
AcDbEntity
  8
SUNPOU
 62
     0
370
    -2
100
AcDbLine
 10
2978.203103559106
 20
4625.288722379402
 30
0.0
 11
2114.909728297425
 21
4625.288722379402
 31
0.0
  0
LINE
  5
1593
330
10F2
100
AcDbEntity
  8
SUNPOU
 62
     0
370
    -2
100
AcDbLine
 10
2129.909728297425
 20
4465.288722379402
 30
0.0
 11
2129.909728297425
 21
4565.288722379402
 31
0.0
  0
MTEXT
  5
1594
330
10F2
100
AcDbEntity
  8
SUNPOU
 62
     0
100
AcDbMText
 10
2060.909728297424
 20
4515.288722379403
 30
0.0
 40
90.0
 41
0.0
 71
     5
 72
     1
  1
\A1;220
 11
6.123031769111886E-17
 21
1.0
 31
0.0
 73
     1
 44
1.0
  0
SOLID
  5
1595
330
10F2
100
AcDbEntity
  8
SUNPOU
 62
     0
100
AcDbTrace
 10
2119.909728297425
 20
4465.288722379402
 30
0.0
 11
2139.909728297425
 21
4465.288722379402
 31
0.0
 12
2129.909728297425
 22
4405.288722379402
 32
0.0
 13
2129.909728297425
 23
4405.288722379402
 33
0.0
  0
SOLID
  5
1596
330
10F2
100
AcDbEntity
  8
SUNPOU
 62
     0
100
AcDbTrace
 10
2119.909728297425
 20
4565.288722379402
 30
0.0
 11
2139.909728297425
 21
4565.288722379402
 31
0.0
 12
2129.909728297425
 22
4625.288722379402
 32
0.0
 13
2129.909728297425
 23
4625.288722379402
 33
0.0
  0
POINT
  5
1597
330
10F2
100
AcDbEntity
  8
DEFPOINTS
 62
     0
100
AcDbPoint
 10
3038.203103559106
 20
4405.288722379402
 30
0.0
  0
POINT
  5
1598
330
10F2
100
AcDbEntity
  8
DEFPOINTS
 62
     0
100
AcDbPoint
 10
3038.203103559106
 20
4625.288722379402
 30
0.0
  0
POINT
  5
1599
330
10F2
100
AcDbEntity
  8
DEFPOINTS
 62
     0
100
AcDbPoint
 10
2129.909728297425
 20
4625.288722379402
 30
0.0
  0
ENDBLK
  5
10FD
330
10F2
100
AcDbEntity
  8
0
100
AcDbBlockEnd
  0
BLOCK
  5
1108
330
10FE
100
AcDbEntity
  8
0
100
AcDbBlockBegin
  2
*D19
 70
     1
 10
0.0
 20
0.0
 30
0.0
  3
*D19
  1

  0
LINE
  5
1575
330
10FE
100
AcDbEntity
  8
SUNPOU
 62
     0
370
    -2
100
AcDbLine
 10
2978.203103559106
 20
4625.288722379402
 30
0.0
 11
2114.909728297425
 21
4625.288722379402
 31
0.0
  0
LINE
  5
1576
330
10FE
100
AcDbEntity
  8
SUNPOU
 62
     0
370
    -2
100
AcDbLine
 10
2978.203103559106
 20
7155.288722379402
 30
0.0
 11
2114.909728297425
 21
7155.288722379402
 31
0.0
  0
LINE
  5
1577
330
10FE
100
AcDbEntity
  8
SUNPOU
 62
     0
370
    -2
100
AcDbLine
 10
2129.909728297425
 20
4685.288722379402
 30
0.0
 11
2129.909728297425
 21
7095.288722379402
 31
0.0
  0
SOLID
  5
1578
330
10FE
100
AcDbEntity
  8
SUNPOU
 62
     0
100
AcDbTrace
 10
2119.909728297425
 20
4685.288722379402
 30
0.0
 11
2139.909728297425
 21
4685.288722379402
 31
0.0
 12
2129.909728297425
 22
4625.288722379402
 32
0.0
 13
2129.909728297425
 23
4625.288722379402
 33
0.0
  0
SOLID
  5
1579
330
10FE
100
AcDbEntity
  8
SUNPOU
 62
     0
100
AcDbTrace
 10
2119.909728297425
 20
7095.288722379402
 30
0.0
 11
2139.909728297425
 21
7095.288722379402
 31
0.0
 12
2129.909728297425
 22
7155.288722379402
 32
0.0
 13
2129.909728297425
 23
7155.288722379402
 33
0.0
  0
MTEXT
  5
157A
330
10FE
100
AcDbEntity
  8
SUNPOU
 62
     0
100
AcDbMText
 10
2060.909728297424
 20
5890.288722379403
 30
0.0
 40
90.0
 41
0.0
 71
     5
 72
     1
  1
\A1;2530
 11
6.123031769111886E-17
 21
1.0
 31
0.0
 73
     1
 44
1.0
  0
POINT
  5
157B
330
10FE
100
AcDbEntity
  8
DEFPOINTS
 62
     0
100
AcDbPoint
 10
3038.203103559106
 20
4625.288722379402
 30
0.0
  0
POINT
  5
157C
330
10FE
100
AcDbEntity
  8
DEFPOINTS
 62
     0
100
AcDbPoint
 10
3038.203103559106
 20
7155.288722379402
 30
0.0
  0
POINT
  5
157D
330
10FE
100
AcDbEntity
  8
DEFPOINTS
 62
     0
100
AcDbPoint
 10
2129.909728297425
 20
7155.288722379402
 30
0.0
  0
ENDBLK
  5
1109
330
10FE
100
AcDbEntity
  8
0
100
AcDbBlockEnd
  0
BLOCK
  5
1150
330
1146
100
AcDbEntity
  8
0
100
AcDbBlockBegin
  2
*D20
 70
     1
 10
0.0
 20
0.0
 30
0.0
  3
*D20
  1

  0
LINE
  5
156C
330
1146
100
AcDbEntity
  8
SUNPOU
 62
     0
370
    -2
100
AcDbLine
 10
2978.203103559106
 20
4405.2887223794
 30
0.0
 11
2424.849027223347
 21
4405.2887223794
 31
0.0
  0
LINE
  5
156D
330
1146
100
AcDbEntity
  8
SUNPOU
 62
     0
370
    -2
100
AcDbLine
 10
2910.03850226738
 20
5105.288722379402
 30
0.0
 11
2424.849027223347
 21
5105.288722379402
 31
0.0
  0
LINE
  5
156E
330
1146
100
AcDbEntity
  8
SUNPOU
 62
     0
370
    -2
100
AcDbLine
 10
2439.849027223347
 20
4465.2887223794
 30
0.0
 11
2439.849027223347
 21
5045.288722379402
 31
0.0
  0
SOLID
  5
156F
330
1146
100
AcDbEntity
  8
SUNPOU
 62
     0
100
AcDbTrace
 10
2429.849027223347
 20
4465.2887223794
 30
0.0
 11
2449.849027223347
 21
4465.2887223794
 31
0.0
 12
2439.849027223347
 22
4405.2887223794
 32
0.0
 13
2439.849027223347
 23
4405.2887223794
 33
0.0
  0
SOLID
  5
1570
330
1146
100
AcDbEntity
  8
SUNPOU
 62
     0
100
AcDbTrace
 10
2429.849027223347
 20
5045.288722379402
 30
0.0
 11
2449.849027223347
 21
5045.288722379402
 31
0.0
 12
2439.849027223347
 22
5105.288722379402
 32
0.0
 13
2439.849027223347
 23
5105.288722379402
 33
0.0
  0
MTEXT
  5
1571
330
1146
100
AcDbEntity
  8
SUNPOU
 62
     0
100
AcDbMText
 10
2370.849027223346
 20
4755.288722379402
 30
0.0
 40
90.0
 41
0.0
 71
     5
 72
     1
  1
\A1;700
 11
6.123031769111886E-17
 21
1.0
 31
0.0
 73
     1
 44
1.0
  0
POINT
  5
1572
330
1146
100
AcDbEntity
  8
DEFPOINTS
 62
     0
100
AcDbPoint
 10
3038.203103559106
 20
4405.2887223794
 30
0.0
  0
POINT
  5
1573
330
1146
100
AcDbEntity
  8
DEFPOINTS
 62
     0
100
AcDbPoint
 10
2970.03850226738
 20
5105.288722379402
 30
0.0
  0
POINT
  5
1574
330
1146
100
AcDbEntity
  8
DEFPOINTS
 62
     0
100
AcDbPoint
 10
2439.849027223347
 20
5105.288722379402
 30
0.0
  0
ENDBLK
  5
1151
330
1146
100
AcDbEntity
  8
0
100
AcDbBlockEnd
  0
BLOCK
  5
115C
330
1152
100
AcDbEntity
  8
0
100
AcDbBlockBegin
  2
*D21
 70
     1
 10
0.0
 20
0.0
 30
0.0
  3
*D21
  1

  0
LINE
  5
14DD
330
1152
100
AcDbEntity
  8
SUNPOU
 62
     0
370
    -2
100
AcDbLine
 10
3168.203103559106
 20
7155.288722379402
 30
0.0
 11
5491.316446842029
 21
7155.288722379402
 31
0.0
  0
LINE
  5
14DE
330
1152
100
AcDbEntity
  8
SUNPOU
 62
     0
370
    -2
100
AcDbLine
 10
3168.203103559106
 20
6995.288722379402
 30
0.0
 11
5491.316446842029
 21
6995.288722379402
 31
0.0
  0
LINE
  5
14DF
330
1152
100
AcDbEntity
  8
SUNPOU
 62
     0
370
    -2
100
AcDbLine
 10
5476.316446842029
 20
7215.288722379402
 30
0.0
 11
5476.316446842029
 21
7275.288722379402
 31
0.0
  0
LINE
  5
14E0
330
1152
100
AcDbEntity
  8
SUNPOU
 62
     0
370
    -2
100
AcDbLine
 10
5476.316446842029
 20
6935.288722379402
 30
0.0
 11
5476.316446842029
 21
6875.288722379402
 31
0.0
  0
SOLID
  5
14E1
330
1152
100
AcDbEntity
  8
SUNPOU
 62
     0
100
AcDbTrace
 10
5466.316446842029
 20
7215.288722379402
 30
0.0
 11
5486.316446842029
 21
7215.288722379402
 31
0.0
 12
5476.316446842029
 22
7155.288722379402
 32
0.0
 13
5476.316446842029
 23
7155.288722379402
 33
0.0
  0
SOLID
  5
14E2
330
1152
100
AcDbEntity
  8
SUNPOU
 62
     0
100
AcDbTrace
 10
5466.316446842029
 20
6935.288722379402
 30
0.0
 11
5486.316446842029
 21
6935.288722379402
 31
0.0
 12
5476.316446842029
 22
6995.288722379402
 32
0.0
 13
5476.316446842029
 23
6995.288722379402
 33
0.0
  0
MTEXT
  5
14E3
330
1152
100
AcDbEntity
  8
SUNPOU
 62
     0
100
AcDbMText
 10
5407.316446842027
 20
7075.288722379403
 30
0.0
 40
90.0
 41
0.0
 71
     5
 72
     1
  1
\A1;160
 11
6.123031769111886E-17
 21
1.0
 31
0.0
 73
     1
 44
1.0
  0
POINT
  5
14E4
330
1152
100
AcDbEntity
  8
DEFPOINTS
 62
     0
100
AcDbPoint
 10
3108.203103559106
 20
7155.288722379402
 30
0.0
  0
POINT
  5
14E5
330
1152
100
AcDbEntity
  8
DEFPOINTS
 62
     0
100
AcDbPoint
 10
3108.203103559106
 20
6995.288722379402
 30
0.0
  0
POINT
  5
14E6
330
1152
100
AcDbEntity
  8
DEFPOINTS
 62
     0
100
AcDbPoint
 10
5476.316446842029
 20
6995.288722379402
 30
0.0
  0
ENDBLK
  5
115D
330
1152
100
AcDbEntity
  8
0
100
AcDbBlockEnd
  0
BLOCK
  5
118C
330
1182
100
AcDbEntity
  8
0
100
AcDbBlockBegin
  2
*D22
 70
     1
 10
0.0
 20
0.0
 30
0.0
  3
*D22
  1

  0
LINE
  5
1658
330
1182
100
AcDbEntity
  8
SUNPOU
 62
     0
370
    -2
100
AcDbLine
 10
7519.995514935435
 20
4345.288722379402
 30
0.0
 11
7519.995514935435
 21
3941.36529998406
 31
0.0
  0
LINE
  5
1659
330
1182
100
AcDbEntity
  8
SUNPOU
 62
     0
370
    -2
100
AcDbLine
 10
8019.995514935435
 20
4345.288722379402
 30
0.0
 11
8019.995514935435
 21
3941.36529998406
 31
0.0
  0
LINE
  5
165A
330
1182
100
AcDbEntity
  8
SUNPOU
 62
     0
370
    -2
100
AcDbLine
 10
7579.995514935435
 20
3956.36529998406
 30
0.0
 11
7959.995514935435
 21
3956.36529998406
 31
0.0
  0
SOLID
  5
165B
330
1182
100
AcDbEntity
  8
SUNPOU
 62
     0
100
AcDbTrace
 10
7579.995514935435
 20
3966.36529998406
 30
0.0
 11
7579.995514935435
 21
3946.36529998406
 31
0.0
 12
7519.995514935435
 22
3956.36529998406
 32
0.0
 13
7519.995514935435
 23
3956.36529998406
 33
0.0
  0
SOLID
  5
165C
330
1182
100
AcDbEntity
  8
SUNPOU
 62
     0
100
AcDbTrace
 10
7959.995514935435
 20
3966.36529998406
 30
0.0
 11
7959.995514935435
 21
3946.36529998406
 31
0.0
 12
8019.995514935435
 22
3956.36529998406
 32
0.0
 13
8019.995514935435
 23
3956.36529998406
 33
0.0
  0
MTEXT
  5
165D
330
1182
100
AcDbEntity
  8
SUNPOU
 62
     0
100
AcDbMText
 10
7769.995514935435
 20
4025.36529998406
 30
0.0
 40
90.0
 41
0.0
 71
     5
 72
     1
  1
\A1;500
 73
     1
 44
1.0
  0
POINT
  5
165E
330
1182
100
AcDbEntity
  8
DEFPOINTS
 62
     0
100
AcDbPoint
 10
7519.995514935435
 20
4405.288722379402
 30
0.0
  0
POINT
  5
165F
330
1182
100
AcDbEntity
  8
DEFPOINTS
 62
     0
100
AcDbPoint
 10
8019.995514935435
 20
4405.288722379402
 30
0.0
  0
POINT
  5
1660
330
1182
100
AcDbEntity
  8
DEFPOINTS
 62
     0
100
AcDbPoint
 10
8019.995514935435
 20
3956.36529998406
 30
0.0
  0
ENDBLK
  5
118D
330
1182
100
AcDbEntity
  8
0
100
AcDbBlockEnd
  0
BLOCK
  5
1198
330
118E
100
AcDbEntity
  8
0
100
AcDbBlockBegin
  2
*D23
 70
     1
 10
0.0
 20
0.0
 30
0.0
  3
*D23
  1

  0
LINE
  5
1661
330
118E
100
AcDbEntity
  8
SUNPOU
 62
     0
370
    -2
100
AcDbLine
 10
8019.995514935435
 20
4345.288722379402
 30
0.0
 11
8019.995514935435
 21
3941.36529998406
 31
0.0
  0
LINE
  5
1662
330
118E
100
AcDbEntity
  8
SUNPOU
 62
     0
370
    -2
100
AcDbLine
 10
9019.995514935435
 20
4345.288722379402
 30
0.0
 11
9019.995514935435
 21
3941.36529998406
 31
0.0
  0
LINE
  5
1663
330
118E
100
AcDbEntity
  8
SUNPOU
 62
     0
370
    -2
100
AcDbLine
 10
8079.995514935435
 20
3956.36529998406
 30
0.0
 11
8959.995514935435
 21
3956.36529998406
 31
0.0
  0
SOLID
  5
1664
330
118E
100
AcDbEntity
  8
SUNPOU
 62
     0
100
AcDbTrace
 10
8079.995514935435
 20
3966.36529998406
 30
0.0
 11
8079.995514935435
 21
3946.36529998406
 31
0.0
 12
8019.995514935435
 22
3956.36529998406
 32
0.0
 13
8019.995514935435
 23
3956.36529998406
 33
0.0
  0
SOLID
  5
1665
330
118E
100
AcDbEntity
  8
SUNPOU
 62
     0
100
AcDbTrace
 10
8959.995514935435
 20
3966.36529998406
 30
0.0
 11
8959.995514935435
 21
3946.36529998406
 31
0.0
 12
9019.995514935435
 22
3956.36529998406
 32
0.0
 13
9019.995514935435
 23
3956.36529998406
 33
0.0
  0
MTEXT
  5
1666
330
118E
100
AcDbEntity
  8
SUNPOU
 62
     0
100
AcDbMText
 10
8519.995514935435
 20
4025.36529998406
 30
0.0
 40
90.0
 41
0.0
 71
     5
 72
     1
  1
\A1;1000
 73
     1
 44
1.0
  0
POINT
  5
1667
330
118E
100
AcDbEntity
  8
DEFPOINTS
 62
     0
100
AcDbPoint
 10
8019.995514935435
 20
4405.288722379402
 30
0.0
  0
POINT
  5
1668
330
118E
100
AcDbEntity
  8
DEFPOINTS
 62
     0
100
AcDbPoint
 10
9019.995514935435
 20
4405.288722379402
 30
0.0
  0
POINT
  5
1669
330
118E
100
AcDbEntity
  8
DEFPOINTS
 62
     0
100
AcDbPoint
 10
9019.995514935435
 20
3956.36529998406
 30
0.0
  0
ENDBLK
  5
1199
330
118E
100
AcDbEntity
  8
0
100
AcDbBlockEnd
  0
BLOCK
  5
11A4
330
119A
100
AcDbEntity
  8
0
100
AcDbBlockBegin
  2
*D24
 70
     1
 10
0.0
 20
0.0
 30
0.0
  3
*D24
  1

  0
LINE
  5
166A
330
119A
100
AcDbEntity
  8
SUNPOU
 62
     0
370
    -2
100
AcDbLine
 10
9019.995514935435
 20
4345.288722379402
 30
0.0
 11
9019.995514935435
 21
3941.36529998406
 31
0.0
  0
LINE
  5
166B
330
119A
100
AcDbEntity
  8
SUNPOU
 62
     0
370
    -2
100
AcDbLine
 10
9519.995514935435
 20
4345.288722379402
 30
0.0
 11
9519.995514935435
 21
3941.36529998406
 31
0.0
  0
LINE
  5
166C
330
119A
100
AcDbEntity
  8
SUNPOU
 62
     0
370
    -2
100
AcDbLine
 10
9079.995514935435
 20
3956.36529998406
 30
0.0
 11
9459.995514935435
 21
3956.36529998406
 31
0.0
  0
SOLID
  5
166D
330
119A
100
AcDbEntity
  8
SUNPOU
 62
     0
100
AcDbTrace
 10
9079.995514935435
 20
3966.36529998406
 30
0.0
 11
9079.995514935435
 21
3946.36529998406
 31
0.0
 12
9019.995514935435
 22
3956.36529998406
 32
0.0
 13
9019.995514935435
 23
3956.36529998406
 33
0.0
  0
SOLID
  5
166E
330
119A
100
AcDbEntity
  8
SUNPOU
 62
     0
100
AcDbTrace
 10
9459.995514935435
 20
3966.36529998406
 30
0.0
 11
9459.995514935435
 21
3946.36529998406
 31
0.0
 12
9519.995514935435
 22
3956.36529998406
 32
0.0
 13
9519.995514935435
 23
3956.36529998406
 33
0.0
  0
MTEXT
  5
166F
330
119A
100
AcDbEntity
  8
SUNPOU
 62
     0
100
AcDbMText
 10
9269.995514935435
 20
4025.36529998406
 30
0.0
 40
90.0
 41
0.0
 71
     5
 72
     1
  1
\A1;500
 73
     1
 44
1.0
  0
POINT
  5
1670
330
119A
100
AcDbEntity
  8
DEFPOINTS
 62
     0
100
AcDbPoint
 10
9019.995514935435
 20
4405.288722379402
 30
0.0
  0
POINT
  5
1671
330
119A
100
AcDbEntity
  8
DEFPOINTS
 62
     0
100
AcDbPoint
 10
9519.995514935435
 20
4405.288722379402
 30
0.0
  0
POINT
  5
1672
330
119A
100
AcDbEntity
  8
DEFPOINTS
 62
     0
100
AcDbPoint
 10
9519.995514935435
 20
3956.36529998406
 30
0.0
  0
ENDBLK
  5
11A5
330
119A
100
AcDbEntity
  8
0
100
AcDbBlockEnd
  0
BLOCK
  5
11FE
330
11F4
100
AcDbEntity
  8
0
100
AcDbBlockBegin
  2
*D25
 70
     1
 10
0.0
 20
0.0
 30
0.0
  3
*D25
  1

  0
LINE
  5
16BC
330
11F4
100
AcDbEntity
  8
SUNPOU
 62
     0
370
    -2
100
AcDbLine
 10
3038.20310355911
 20
2740.902471727984
 30
0.0
 11
3038.20310355911
 21
2989.334600395196
 31
0.0
  0
LINE
  5
16BD
330
11F4
100
AcDbEntity
  8
SUNPOU
 62
     0
370
    -2
100
AcDbLine
 10
3540.60310355911
 20
2740.902471727984
 30
0.0
 11
3540.60310355911
 21
2989.334600395196
 31
0.0
  0
LINE
  5
16BE
330
11F4
100
AcDbEntity
  8
SUNPOU
 62
     0
370
    -2
100
AcDbLine
 10
3098.20310355911
 20
2974.334600395196
 30
0.0
 11
3480.60310355911
 21
2974.334600395196
 31
0.0
  0
SOLID
  5
16BF
330
11F4
100
AcDbEntity
  8
SUNPOU
 62
     0
100
AcDbTrace
 10
3098.20310355911
 20
2984.334600395196
 30
0.0
 11
3098.20310355911
 21
2964.334600395196
 31
0.0
 12
3038.20310355911
 22
2974.334600395196
 32
0.0
 13
3038.20310355911
 23
2974.334600395196
 33
0.0
  0
SOLID
  5
16C0
330
11F4
100
AcDbEntity
  8
SUNPOU
 62
     0
100
AcDbTrace
 10
3480.60310355911
 20
2984.334600395196
 30
0.0
 11
3480.60310355911
 21
2964.334600395196
 31
0.0
 12
3540.60310355911
 22
2974.334600395196
 32
0.0
 13
3540.60310355911
 23
2974.334600395196
 33
0.0
  0
MTEXT
  5
16C1
330
11F4
100
AcDbEntity
  8
SUNPOU
 62
     0
100
AcDbMText
 10
3289.40310355911
 20
3043.334600395196
 30
0.0
 40
90.0
 41
0.0
 71
     5
 72
     1
  1
\A1;502
 73
     1
 44
1.0
  0
POINT
  5
16C2
330
11F4
100
AcDbEntity
  8
DEFPOINTS
 62
     0
100
AcDbPoint
 10
3038.20310355911
 20
2680.902471727984
 30
0.0
  0
POINT
  5
16C3
330
11F4
100
AcDbEntity
  8
DEFPOINTS
 62
     0
100
AcDbPoint
 10
3540.60310355911
 20
2680.902471727984
 30
0.0
  0
POINT
  5
16C4
330
11F4
100
AcDbEntity
  8
DEFPOINTS
 62
     0
100
AcDbPoint
 10
3540.60310355911
 20
2974.334600395196
 30
0.0
  0
ENDBLK
  5
11FF
330
11F4
100
AcDbEntity
  8
0
100
AcDbBlockEnd
  0
BLOCK
  5
120A
330
1200
100
AcDbEntity
  8
0
100
AcDbBlockBegin
  2
*D26
 70
     1
 10
0.0
 20
0.0
 30
0.0
  3
*D26
  1

  0
LINE
  5
16C5
330
1200
100
AcDbEntity
  8
SUNPOU
 62
     0
370
    -2
100
AcDbLine
 10
3540.60310355911
 20
2740.902471727984
 30
0.0
 11
3540.60310355911
 21
2989.334600395196
 31
0.0
  0
LINE
  5
16C6
330
1200
100
AcDbEntity
  8
SUNPOU
 62
     0
370
    -2
100
AcDbLine
 10
4988.20310355911
 20
2690.902471727984
 30
0.0
 11
4988.20310355911
 21
2989.334600395196
 31
0.0
  0
LINE
  5
16C7
330
1200
100
AcDbEntity
  8
SUNPOU
 62
     0
370
    -2
100
AcDbLine
 10
3600.60310355911
 20
2974.334600395196
 30
0.0
 11
4928.20310355911
 21
2974.334600395196
 31
0.0
  0
SOLID
  5
16C8
330
1200
100
AcDbEntity
  8
SUNPOU
 62
     0
100
AcDbTrace
 10
3600.60310355911
 20
2984.334600395196
 30
0.0
 11
3600.60310355911
 21
2964.334600395196
 31
0.0
 12
3540.60310355911
 22
2974.334600395196
 32
0.0
 13
3540.60310355911
 23
2974.334600395196
 33
0.0
  0
SOLID
  5
16C9
330
1200
100
AcDbEntity
  8
SUNPOU
 62
     0
100
AcDbTrace
 10
4928.20310355911
 20
2984.334600395196
 30
0.0
 11
4928.20310355911
 21
2964.334600395196
 31
0.0
 12
4988.20310355911
 22
2974.334600395196
 32
0.0
 13
4988.20310355911
 23
2974.334600395196
 33
0.0
  0
MTEXT
  5
16CA
330
1200
100
AcDbEntity
  8
SUNPOU
 62
     0
100
AcDbMText
 10
4264.40310355911
 20
3043.334600395196
 30
0.0
 40
90.0
 41
0.0
 71
     5
 72
     1
  1
\A1;1448
 73
     1
 44
1.0
  0
POINT
  5
16CB
330
1200
100
AcDbEntity
  8
DEFPOINTS
 62
     0
100
AcDbPoint
 10
3540.60310355911
 20
2680.902471727984
 30
0.0
  0
POINT
  5
16CC
330
1200
100
AcDbEntity
  8
DEFPOINTS
 62
     0
100
AcDbPoint
 10
4988.20310355911
 20
2630.902471727984
 30
0.0
  0
POINT
  5
16CD
330
1200
100
AcDbEntity
  8
DEFPOINTS
 62
     0
100
AcDbPoint
 10
4988.20310355911
 20
2974.334600395196
 30
0.0
  0
ENDBLK
  5
120B
330
1200
100
AcDbEntity
  8
0
100
AcDbBlockEnd
  0
BLOCK
  5
148E
330
1484
100
AcDbEntity
  8
0
100
AcDbBlockBegin
  2
*D27
 70
     1
 10
0.0
 20
0.0
 30
0.0
  3
*D27
  1

  0
LINE
  5
14D4
330
1484
100
AcDbEntity
  8
SUNPOU
 62
     0
370
    -2
100
AcDbLine
 10
5048.203103559106
 20
4490.83276383018
 30
0.0
 11
5491.316446842028
 21
4490.83276383018
 31
0.0
  0
LINE
  5
14D5
330
1484
100
AcDbEntity
  8
SUNPOU
 62
     0
370
    -2
100
AcDbLine
 10
3168.203103559106
 20
6995.288722379402
 30
0.0
 11
5491.316446842029
 21
6995.288722379402
 31
0.0
  0
LINE
  5
14D6
330
1484
100
AcDbEntity
  8
SUNPOU
 62
     0
370
    -2
100
AcDbLine
 10
5476.316446842028
 20
4550.83276383018
 30
0.0
 11
5476.316446842029
 21
6935.288722379402
 31
0.0
  0
SOLID
  5
14D7
330
1484
100
AcDbEntity
  8
SUNPOU
 62
     0
100
AcDbTrace
 10
5466.316446842028
 20
4550.83276383018
 30
0.0
 11
5486.316446842028
 21
4550.83276383018
 31
0.0
 12
5476.316446842028
 22
4490.83276383018
 32
0.0
 13
5476.316446842028
 23
4490.83276383018
 33
0.0
  0
SOLID
  5
14D8
330
1484
100
AcDbEntity
  8
SUNPOU
 62
     0
100
AcDbTrace
 10
5466.316446842029
 20
6935.288722379402
 30
0.0
 11
5486.316446842029
 21
6935.288722379402
 31
0.0
 12
5476.316446842029
 22
6995.288722379402
 32
0.0
 13
5476.316446842029
 23
6995.288722379402
 33
0.0
  0
MTEXT
  5
14D9
330
1484
100
AcDbEntity
  8
SUNPOU
 62
     0
100
AcDbMText
 10
5407.316446842027
 20
5743.060743104792
 30
0.0
 40
90.0
 41
0.0
 71
     5
 72
     1
  1
\A1;2504
 11
6.123031769111886E-17
 21
1.0
 31
0.0
 73
     1
 44
1.0
  0
POINT
  5
14DA
330
1484
100
AcDbEntity
  8
DEFPOINTS
 62
     0
100
AcDbPoint
 10
4988.203103559106
 20
4490.83276383018
 30
0.0
  0
POINT
  5
14DB
330
1484
100
AcDbEntity
  8
DEFPOINTS
 62
     0
100
AcDbPoint
 10
3108.203103559106
 20
6995.288722379402
 30
0.0
  0
POINT
  5
14DC
330
1484
100
AcDbEntity
  8
DEFPOINTS
 62
     0
100
AcDbPoint
 10
5476.316446842029
 20
6995.288722379402
 30
0.0
  0
ENDBLK
  5
148F
330
1484
100
AcDbEntity
  8
0
100
AcDbBlockEnd
  0
BLOCK
  5
15F0
330
15E5
100
AcDbEntity
  8
0
100
AcDbBlockBegin
  2
*D28
 70
     1
 10
0.0
 20
0.0
 30
0.0
  3
*D28
  1

  0
LINE
  5
15E6
330
15E5
100
AcDbEntity
  8
SUNPOU
 62
     0
370
    -2
100
AcDbLine
 10
5048.203103559108
 20
730.9024717279835
 30
0.0
 11
5663.20310355911
 21
730.9024717279834
 31
0.0
  0
LINE
  5
15E7
330
15E5
100
AcDbEntity
  8
SUNPOU
 62
     0
370
    -2
100
AcDbLine
 10
5048.203103559108
 20
680.9024717279835
 30
0.0
 11
5663.20310355911
 21
680.9024717279834
 31
0.0
  0
LINE
  5
15E8
330
15E5
100
AcDbEntity
  8
SUNPOU
 62
     0
370
    -2
100
AcDbLine
 10
5648.20310355911
 20
790.9024717279834
 30
0.0
 11
5648.20310355911
 21
850.9024717279834
 31
0.0
  0
LINE
  5
15E9
330
15E5
100
AcDbEntity
  8
SUNPOU
 62
     0
370
    -2
100
AcDbLine
 10
5648.20310355911
 20
620.9024717279834
 30
0.0
 11
5648.20310355911
 21
560.9024717279834
 31
0.0
  0
SOLID
  5
15EA
330
15E5
100
AcDbEntity
  8
SUNPOU
 62
     0
100
AcDbTrace
 10
5638.20310355911
 20
790.9024717279834
 30
0.0
 11
5658.20310355911
 21
790.9024717279834
 31
0.0
 12
5648.20310355911
 22
730.9024717279834
 32
0.0
 13
5648.20310355911
 23
730.9024717279834
 33
0.0
  0
SOLID
  5
15EB
330
15E5
100
AcDbEntity
  8
SUNPOU
 62
     0
100
AcDbTrace
 10
5638.20310355911
 20
620.9024717279834
 30
0.0
 11
5658.20310355911
 21
620.9024717279834
 31
0.0
 12
5648.20310355911
 22
680.9024717279834
 32
0.0
 13
5648.20310355911
 23
680.9024717279834
 33
0.0
  0
MTEXT
  5
15EC
330
15E5
100
AcDbEntity
  8
SUNPOU
 62
     0
100
AcDbMText
 10
5579.20310355911
 20
705.9024717279843
 30
0.0
 40
90.0
 41
0.0
 71
     5
 72
     1
  1
\A1;50
 11
6.123031769111886E-17
 21
1.0
 31
0.0
 73
     1
 44
1.0
  0
POINT
  5
15ED
330
15E5
100
AcDbEntity
  8
DEFPOINTS
 62
     0
100
AcDbPoint
 10
4988.203103559108
 20
730.9024717279835
 30
0.0
  0
POINT
  5
15EE
330
15E5
100
AcDbEntity
  8
DEFPOINTS
 62
     0
100
AcDbPoint
 10
4988.203103559108
 20
680.9024717279835
 30
0.0
  0
POINT
  5
15EF
330
15E5
100
AcDbEntity
  8
DEFPOINTS
 62
     0
100
AcDbPoint
 10
5648.20310355911
 20
680.9024717279834
 30
0.0
  0
ENDBLK
  5
15F1
330
15E5
100
AcDbEntity
  8
0
100
AcDbBlockEnd
  0
BLOCK
  5
15FE
330
15F3
100
AcDbEntity
  8
0
100
AcDbBlockBegin
  2
*D29
 70
     1
 10
0.0
 20
0.0
 30
0.0
  3
*D29
  1

  0
LINE
  5
1600
330
15F3
100
AcDbEntity
  8
SUNPOU
 62
     0
370
    -2
100
AcDbLine
 10
5048.203103559108
 20
2630.902471727984
 30
0.0
 11
5663.20310355911
 21
2630.902471727983
 31
0.0
  0
LINE
  5
1601
330
15F3
100
AcDbEntity
  8
SUNPOU
 62
     0
370
    -2
100
AcDbLine
 10
5048.203103559108
 20
2680.902471727984
 30
0.0
 11
5663.20310355911
 21
2680.902471727983
 31
0.0
  0
LINE
  5
1602
330
15F3
100
AcDbEntity
  8
SUNPOU
 62
     0
370
    -2
100
AcDbLine
 10
5648.20310355911
 20
2570.902471727983
 30
0.0
 11
5648.20310355911
 21
2510.902471727983
 31
0.0
  0
LINE
  5
1603
330
15F3
100
AcDbEntity
  8
SUNPOU
 62
     0
370
    -2
100
AcDbLine
 10
5648.20310355911
 20
2740.902471727983
 30
0.0
 11
5648.20310355911
 21
2800.902471727983
 31
0.0
  0
SOLID
  5
1604
330
15F3
100
AcDbEntity
  8
SUNPOU
 62
     0
100
AcDbTrace
 10
5638.20310355911
 20
2570.902471727983
 30
0.0
 11
5658.20310355911
 21
2570.902471727983
 31
0.0
 12
5648.20310355911
 22
2630.902471727983
 32
0.0
 13
5648.20310355911
 23
2630.902471727983
 33
0.0
  0
SOLID
  5
1605
330
15F3
100
AcDbEntity
  8
SUNPOU
 62
     0
100
AcDbTrace
 10
5638.20310355911
 20
2740.902471727983
 30
0.0
 11
5658.20310355911
 21
2740.902471727983
 31
0.0
 12
5648.20310355911
 22
2680.902471727983
 32
0.0
 13
5648.20310355911
 23
2680.902471727983
 33
0.0
  0
MTEXT
  5
1606
330
15F3
100
AcDbEntity
  8
SUNPOU
 62
     0
100
AcDbMText
 10
5579.203103559109
 20
2655.902471727984
 30
0.0
 40
90.0
 41
0.0
 71
     5
 72
     1
  1
\A1;50
 11
6.123031769111886E-17
 21
1.0
 31
0.0
 73
     1
 44
1.0
  0
POINT
  5
1607
330
15F3
100
AcDbEntity
  8
DEFPOINTS
 62
     0
100
AcDbPoint
 10
4988.203103559108
 20
2630.902471727984
 30
0.0
  0
POINT
  5
1608
330
15F3
100
AcDbEntity
  8
DEFPOINTS
 62
     0
100
AcDbPoint
 10
4988.203103559108
 20
2680.902471727984
 30
0.0
  0
POINT
  5
1609
330
15F3
100
AcDbEntity
  8
DEFPOINTS
 62
     0
100
AcDbPoint
 10
5648.20310355911
 20
2680.902471727983
 30
0.0
  0
ENDBLK
  5
15FF
330
15F3
100
AcDbEntity
  8
0
100
AcDbBlockEnd
  0
BLOCK
  5
1615
330
160B
100
AcDbEntity
  8
0
100
AcDbBlockBegin
  2
*D30
 70
     1
 10
0.0
 20
0.0
 30
0.0
  3
*D30
  1

  0
LINE
  5
1673
330
160B
100
AcDbEntity
  8
SUNPOU
 62
     0
370
    -2
100
AcDbLine
 10
7459.995514935435
 20
4405.288722379402
 30
0.0
 11
6949.746761302624
 21
4405.288722379402
 31
0.0
  0
LINE
  5
1674
330
160B
100
AcDbEntity
  8
SUNPOU
 62
     0
370
    -2
100
AcDbLine
 10
7459.995514935435
 20
5105.288722379402
 30
0.0
 11
6949.746761302624
 21
5105.288722379402
 31
0.0
  0
LINE
  5
1675
330
160B
100
AcDbEntity
  8
SUNPOU
 62
     0
370
    -2
100
AcDbLine
 10
6964.746761302624
 20
4465.288722379402
 30
0.0
 11
6964.746761302624
 21
5045.288722379402
 31
0.0
  0
SOLID
  5
1676
330
160B
100
AcDbEntity
  8
SUNPOU
 62
     0
100
AcDbTrace
 10
6954.746761302624
 20
4465.288722379402
 30
0.0
 11
6974.746761302624
 21
4465.288722379402
 31
0.0
 12
6964.746761302624
 22
4405.288722379402
 32
0.0
 13
6964.746761302624
 23
4405.288722379402
 33
0.0
  0
SOLID
  5
1677
330
160B
100
AcDbEntity
  8
SUNPOU
 62
     0
100
AcDbTrace
 10
6954.746761302624
 20
5045.288722379402
 30
0.0
 11
6974.746761302624
 21
5045.288722379402
 31
0.0
 12
6964.746761302624
 22
5105.288722379402
 32
0.0
 13
6964.746761302624
 23
5105.288722379402
 33
0.0
  0
MTEXT
  5
1678
330
160B
100
AcDbEntity
  8
SUNPOU
 62
     0
100
AcDbMText
 10
6895.746761302623
 20
4755.288722379404
 30
0.0
 40
90.0
 41
0.0
 71
     5
 72
     1
  1
\A1;700
 11
6.123031769111886E-17
 21
1.0
 31
0.0
 73
     1
 44
1.0
  0
POINT
  5
1679
330
160B
100
AcDbEntity
  8
DEFPOINTS
 62
     0
100
AcDbPoint
 10
7519.995514935435
 20
4405.288722379402
 30
0.0
  0
POINT
  5
167A
330
160B
100
AcDbEntity
  8
DEFPOINTS
 62
     0
100
AcDbPoint
 10
7519.995514935435
 20
5105.288722379402
 30
0.0
  0
POINT
  5
167B
330
160B
100
AcDbEntity
  8
DEFPOINTS
 62
     0
100
AcDbPoint
 10
6964.746761302624
 20
5105.288722379402
 30
0.0
  0
ENDBLK
  5
1616
330
160B
100
AcDbEntity
  8
0
100
AcDbBlockEnd
  0
BLOCK
  5
1622
330
1618
100
AcDbEntity
  8
0
100
AcDbBlockBegin
  2
*D31
 70
     1
 10
0.0
 20
0.0
 30
0.0
  3
*D31
  1

  0
LINE
  5
167C
330
1618
100
AcDbEntity
  8
SUNPOU
 62
     0
370
    -2
100
AcDbLine
 10
7459.995514935435
 20
5105.288722379402
 30
0.0
 11
6949.746761302624
 21
5105.288722379402
 31
0.0
  0
LINE
  5
167D
330
1618
100
AcDbEntity
  8
SUNPOU
 62
     0
370
    -2
100
AcDbLine
 10
7459.995514935435
 20
7155.288722379402
 30
0.0
 11
6949.746761302625
 21
7155.288722379402
 31
0.0
  0
LINE
  5
167E
330
1618
100
AcDbEntity
  8
SUNPOU
 62
     0
370
    -2
100
AcDbLine
 10
6964.746761302624
 20
5165.288722379402
 30
0.0
 11
6964.746761302625
 21
7095.288722379402
 31
0.0
  0
SOLID
  5
167F
330
1618
100
AcDbEntity
  8
SUNPOU
 62
     0
100
AcDbTrace
 10
6954.746761302624
 20
5165.288722379402
 30
0.0
 11
6974.746761302624
 21
5165.288722379402
 31
0.0
 12
6964.746761302624
 22
5105.288722379402
 32
0.0
 13
6964.746761302624
 23
5105.288722379402
 33
0.0
  0
SOLID
  5
1680
330
1618
100
AcDbEntity
  8
SUNPOU
 62
     0
100
AcDbTrace
 10
6954.746761302625
 20
7095.288722379402
 30
0.0
 11
6974.746761302625
 21
7095.288722379402
 31
0.0
 12
6964.746761302625
 22
7155.288722379402
 32
0.0
 13
6964.746761302625
 23
7155.288722379402
 33
0.0
  0
MTEXT
  5
1681
330
1618
100
AcDbEntity
  8
SUNPOU
 62
     0
100
AcDbMText
 10
6895.746761302623
 20
6130.288722379404
 30
0.0
 40
90.0
 41
0.0
 71
     5
 72
     1
  1
\A1;2050
 11
6.123031769111886E-17
 21
1.0
 31
0.0
 73
     1
 44
1.0
  0
POINT
  5
1682
330
1618
100
AcDbEntity
  8
DEFPOINTS
 62
     0
100
AcDbPoint
 10
7519.995514935435
 20
5105.288722379402
 30
0.0
  0
POINT
  5
1683
330
1618
100
AcDbEntity
  8
DEFPOINTS
 62
     0
100
AcDbPoint
 10
7519.995514935435
 20
7155.288722379402
 30
0.0
  0
POINT
  5
1684
330
1618
100
AcDbEntity
  8
DEFPOINTS
 62
     0
100
AcDbPoint
 10
6964.746761302625
 20
7155.288722379402
 30
0.0
  0
ENDBLK
  5
1623
330
1618
100
AcDbEntity
  8
0
100
AcDbBlockEnd
  0
ENDSEC
  0
SECTION
  2
ENTITIES
  0
TEXT
  5
5F
330
17
100
AcDbEntity
  8
SUNPOU
100
AcDbText
 10
11549.99999999999
 20
480.0
 30
0.0
 40
90.0
  1
30
100
AcDbText
  0
INSERT
  5
60
330
17
100
AcDbEntity
  8
HAIKIN
100
AcDbBlockReference
  2
SA3
 10
510.0
 20
0.0
 30
0.0
 41
30.0
 42
30.0
 43
30.0
  0
LINE
  5
FB9
330
17
100
AcDbEntity
  8
SEIHIN
100
AcDbLine
 10
3038.203103559106
 20
4405.288722379402
 30
0.0
 11
3038.203103559106
 21
7155.288722379402
 31
0.0
  0
LINE
  5
FBA
330
17
100
AcDbEntity
  8
SEIHIN
100
AcDbLine
 10
3038.203103559106
 20
7155.288722379402
 30
0.0
 11
3108.203103559106
 21
7155.288722379402
 31
0.0
  0
LINE
  5
FBB
330
17
100
AcDbEntity
  8
SEIHIN
100
AcDbLine
 10
3108.203103559106
 20
7155.288722379402
 30
0.0
 11
3108.203103559106
 21
6995.288722379402
 31
0.0
  0
LINE
  5
FBC
330
17
100
AcDbEntity
  8
SEIHIN
100
AcDbLine
 10
3038.203103559106
 20
4405.288722379402
 30
0.0
 11
4988.203103559106
 21
4405.288722379402
 31
0.0
  0
LINE
  5
FBD
330
17
100
AcDbEntity
  8
SEIHIN
100
AcDbLine
 10
7519.995514935435
 20
4405.288722379402
 30
0.0
 11
9519.995514935435
 21
4405.288722379402
 31
0.0
  0
LINE
  5
FBF
330
17
100
AcDbEntity
  8
SEIHIN
100
AcDbLine
 10
9519.995514935435
 20
7155.288722379402
 30
0.0
 11
7519.995514935435
 21
7155.288722379402
 31
0.0
  0
LINE
  5
FC0
330
17
100
AcDbEntity
  8
SEIHIN
100
AcDbLine
 10
7519.995514935435
 20
7155.288722379402
 30
0.0
 11
7519.995514935436
 21
4405.288722379402
 31
0.0
  0
LINE
  5
FC1
330
17
100
AcDbEntity
  8
1HASEN
100
AcDbLine
 10
8519.995514935435
 20
7335.288722379402
 30
0.0
 11
8519.995514935435
 21
4195.288722379402
 31
0.0
  0
LINE
  5
FC2
330
17
100
AcDbEntity
  8
HASEN
100
AcDbLine
 10
3073.203103559106
 20
5080.288722379402
 30
0.0
 11
3073.203103559106
 21
5130.288722379402
 31
0.0
  0
LINE
  5
FC3
330
17
100
AcDbEntity
  8
HASEN
100
AcDbLine
 10
3073.203103559106
 20
5130.288722379402
 30
0.0
 11
3038.203103559106
 21
5145.288722379402
 31
0.0
  0
LINE
  5
FC4
330
17
100
AcDbEntity
  8
HASEN
100
AcDbLine
 10
3073.203103559106
 20
5080.288722379402
 30
0.0
 11
3038.203103559106
 21
5065.288722379402
 31
0.0
  0
LINE
  5
FC5
330
17
100
AcDbEntity
  8
HASEN
100
AcDbLine
 10
3216.291711154043
 20
5130.288722379402
 30
0.0
 11
3216.291711154043
 21
5080.288722379402
 31
0.0
  0
LINE
  5
FC6
330
17
100
AcDbEntity
  8
HASEN
100
AcDbLine
 10
3216.291711154043
 20
5130.288722379402
 30
0.0
 11
3225.291711154043
 21
5145.288722379402
 31
0.0
  0
LINE
  5
FC7
330
17
100
AcDbEntity
  8
HASEN
100
AcDbLine
 10
3216.291711154043
 20
5080.288722379402
 30
0.0
 11
3230.367239854948
 21
5065.288722379403
 31
0.0
  0
LINE
  5
FC8
330
17
100
AcDbEntity
  8
HASEN
100
AcDbLine
 10
3216.291711154043
 20
5127.788722379402
 30
0.0
 11
3073.203103559106
 21
5123.788722379402
 31
0.0
  0
LINE
  5
FC9
330
17
100
AcDbEntity
  8
HASEN
100
AcDbLine
 10
3073.203103559106
 20
5086.788722379402
 30
0.0
 11
3216.291711154043
 21
5082.788722379402
 31
0.0
  0
LINE
  5
FCA
330
17
100
AcDbEntity
  8
1HASEN
100
AcDbLine
 10
8019.995514935435
 20
5189.788722379413
 30
0.0
 11
8019.995514935435
 21
5020.788722379391
 31
0.0
  0
LINE
  5
FCB
330
17
100
AcDbEntity
  8
1HASEN
100
AcDbLine
 10
7935.495514935432
 20
5105.288722379403
 30
0.0
 11
8104.495514935446
 21
5105.288722379402
 31
0.0
  0
CIRCLE
  5
FCC
330
17
100
AcDbEntity
  8
SUNPOU
100
AcDbCircle
 10
8019.995514935435
 20
5105.288722379402
 30
0.0
 40
40.0
  0
CIRCLE
  5
FCD
330
17
100
AcDbEntity
  8
SUNPOU
100
AcDbCircle
 10
8019.995514935435
 20
5105.288722379402
 30
0.0
 40
25.0
  0
CIRCLE
  5
FCE
330
17
100
AcDbEntity
  8
SUNPOU
100
AcDbCircle
 10
9019.995514935434
 20
5105.288722379402
 30
0.0
 40
25.0
  0
CIRCLE
  5
FCF
330
17
100
AcDbEntity
  8
SUNPOU
100
AcDbCircle
 10
9019.995514935434
 20
5105.288722379402
 30
0.0
 40
40.0
  0
LINE
  5
FD0
330
17
100
AcDbEntity
  8
1HASEN
100
AcDbLine
 10
9104.495514935437
 20
5105.288722379403
 30
0.0
 11
8935.495514935423
 21
5105.288722379402
 31
0.0
  0
LINE
  5
FD1
330
17
100
AcDbEntity
  8
1HASEN
100
AcDbLine
 10
9019.995514935434
 20
5189.788722379413
 30
0.0
 11
9019.995514935434
 21
5020.788722379391
 31
0.0
  0
LINE
  5
FD2
330
17
100
AcDbEntity
  8
1HASEN
100
AcDbLine
 10
2970.03850226738
 20
5105.288722379402
 30
0.0
 11
3291.454946293517
 21
5105.288722379402
 31
0.0
  0
LINE
  5
FD3
330
17
100
AcDbEntity
  8
1HASEN
100
AcDbLine
 10
3208.203103559106
 20
4625.288722379402
 30
0.0
 11
3308.203103559106
 21
4625.288722379402
 31
0.0
  0
LINE
  5
FD4
330
17
100
AcDbEntity
  8
1HASEN
100
AcDbLine
 10
3258.203103559106
 20
4575.288722379402
 30
0.0
 11
3258.203103559106
 21
4675.288722379402
 31
0.0
  0
LINE
  5
FD8
330
17
100
AcDbEntity
  8
SEIHIN
100
AcDbLine
 10
9519.995514935435
 20
4405.288722379402
 30
0.0
 11
9519.995514935435
 21
7155.288722379402
 31
0.0
  0
LINE
  5
FD9
330
17
100
AcDbEntity
  8
SEIHIN
100
AcDbLine
 10
4988.203103559106
 20
4490.83276383018
 30
0.0
 11
3540.603103559107
 21
4603.340535850904
 31
0.0
  0
LINE
  5
FDA
330
17
100
AcDbEntity
  8
SEIHIN
100
AcDbLine
 10
3240.604887516605
 20
4903.340535850904
 30
0.0
 11
3108.203103559106
 21
6995.288722379402
 31
0.0
  0
LINE
  5
FDC
330
17
100
AcDbEntity
  8
SEIHIN
100
AcDbLine
 10
4988.203103559106
 20
4405.288722379402
 30
0.0
 11
4988.203103559106
 21
4490.83276383018
 31
0.0
  0
TEXT
  5
FDE
330
17
100
AcDbEntity
  8
SUNPOU
100
AcDbText
 10
10333.75
 20
975.0
 30
0.0
 40
75.0
  1
デザインウォ－ル H=2750 （2ｍ）
 72
     4
 11
11100.0
 21
1012.5
 31
0.0
100
AcDbText
  0
DIMENSION
  5
FDF
330
17
100
AcDbEntity
  8
SUNPOU
100
AcDbDimension
  2
*D8
 10
1928.774994662257
 20
7155.288722379403
 30
0.0
 11
1859.774994662256
 21
5780.288722379402
 31
0.0
 70
    32
 71
     5
 42
2750.000000000001
  3
A3-30
100
AcDbAlignedDimension
 13
3038.203103559108
 23
4405.288722379401
 33
0.0
 14
3038.203103559108
 24
7155.288722379402
 34
0.0
 50
90.0
100
AcDbRotatedDimension
  0
DIMENSION
  5
FE2
330
17
100
AcDbEntity
  8
SUNPOU
100
AcDbDimension
  2
*D9
 10
4988.203103559106
 20
3671.203377609025
 30
0.0
 11
4013.203103559107
 21
3740.203377609025
 31
0.0
 70
    32
 71
     5
 42
1949.999999999998
  3
A3-30
100
AcDbAlignedDimension
 13
3038.203103559108
 23
4405.288722379401
 33
0.0
 14
4988.203103559106
 24
4405.288722379401
 34
0.0
100
AcDbRotatedDimension
  0
DIMENSION
  5
FEB
330
17
100
AcDbEntity
  8
SUNPOU
100
AcDbDimension
  2
*D10
 10
3108.203103559108
 20
7626.30734215027
 30
0.0
 11
3073.203103559108
 21
7695.30734215027
 31
0.0
 70
    32
 71
     5
 42
70.0
  3
A3-30
100
AcDbAlignedDimension
 13
3038.203103559108
 23
7155.288722379401
 33
0.0
 14
3108.203103559108
 24
7155.288722379401
 34
0.0
100
AcDbRotatedDimension
  0
DIMENSION
  5
FF8
330
17
100
AcDbEntity
  8
SUNPOU
100
AcDbDimension
  2
*D11
 10
5476.316446842029
 20
4405.288722379401
 30
0.0
 11
5407.316446842028
 21
4448.060743104792
 31
0.0
 70
    32
 71
     5
 42
85.54404145077842
  3
A3-30
100
AcDbAlignedDimension
 13
4988.203103559108
 23
4490.83276383018
 33
0.0
 14
4988.203103559108
 24
4405.288722379401
 34
0.0
 50
90.0
100
AcDbRotatedDimension
  0
DIMENSION
  5
FFA
330
17
100
AcDbEntity
  8
SUNPOU
100
AcDbDimension
  2
*D12
 10
9519.995514935435
 20
7709.709437060323
 30
0.0
 11
8519.995514935435
 21
7778.709437060323
 31
0.0
 70
    32
 71
     5
 42
2000.0
  3
A3-30
100
AcDbAlignedDimension
 13
7519.995514935435
 23
7155.288722379402
 33
0.0
 14
9519.995514935435
 24
7155.288722379402
 34
0.0
100
AcDbRotatedDimension
  0
CIRCLE
  5
FFB
330
17
100
AcDbEntity
  8
SUNPOU
100
AcDbCircle
 10
8019.995514935435
 20
5105.288722379402
 30
0.0
 40
40.0
  0
CIRCLE
  5
FFC
330
17
100
AcDbEntity
  8
SUNPOU
100
AcDbCircle
 10
8019.995514935435
 20
5105.288722379402
 30
0.0
 40
25.0
  0
CIRCLE
  5
FFF
330
17
100
AcDbEntity
  8
SUNPOU
100
AcDbCircle
 10
9019.995514935434
 20
5105.288722379402
 30
0.0
 40
40.0
  0
CIRCLE
  5
1000
330
17
100
AcDbEntity
  8
SUNPOU
100
AcDbCircle
 10
9019.995514935434
 20
5105.288722379402
 30
0.0
 40
25.0
  0
TEXT
  5
1005
330
17
100
AcDbEntity
  8
HAIKIN
100
AcDbText
 10
4429.0
 20
7898.06355179604
 30
0.0
 40
120.0
  1
デザインウォ－ル H=2750 （2ｍ）
 72
     1
 11
5655.0
 21
7898.06355179604
 31
0.0
100
AcDbText
  0
DIMENSION
  5
1011
330
17
100
AcDbEntity
  8
SUNPOU
100
AcDbDimension
  2
*D13
 10
4988.203103559109
 20
3138.056142705187
 30
0.0
 11
4013.203103559109
 21
3207.056142705187
 31
0.0
 70
    32
 71
     5
 42
1949.999999999999
  3
A3-30
100
AcDbAlignedDimension
 13
3038.20310355911
 23
2680.902471727984
 33
0.0
 14
4988.203103559109
 24
2635.553634518681
 34
0.0
100
AcDbRotatedDimension
  0
LINE
  5
1012
330
17
100
AcDbEntity
  8
1HASEN
100
AcDbLine
 10
5167.517482533622
 20
1680.902471727984
 30
0.0
 11
2888.20310355911
 21
1680.902471727984
 31
0.0
  0
DIMENSION
  5
1017
330
17
100
AcDbEntity
  8
SUNPOU
100
AcDbDimension
  2
*D14
 10
5648.20310355911
 20
730.9024717279834
 30
0.0
 11
5579.20310355911
 21
1680.902471727984
 31
0.0
 70
    32
 71
     5
 42
1900.0
  3
A3-30
100
AcDbAlignedDimension
 13
4988.20310355911
 23
2630.902471727984
 33
0.0
 14
4988.20310355911
 24
730.9024717279835
 34
0.0
 50
90.0
100
AcDbRotatedDimension
  0
LINE
  5
1018
330
17
100
AcDbEntity
  8
SEIHIN
100
AcDbLine
 10
4988.20310355911
 20
2630.902471727984
 30
0.0
 11
4988.203103559108
 21
730.9024717279835
 31
0.0
  0
LINE
  5
1019
330
17
100
AcDbEntity
  8
SEIHIN
100
AcDbLine
 10
3038.203103559108
 20
2680.902471727983
 30
0.0
 11
3038.203103559108
 21
680.9024717279826
 31
0.0
  0
DIMENSION
  5
101A
330
17
100
AcDbEntity
  8
SUNPOU
100
AcDbDimension
  2
*D15
 10
2378.20310355911
 20
680.9024717279837
 30
0.0
 11
2309.20310355911
 21
1680.902471727984
 31
0.0
 70
    32
 71
     5
 42
2000.0
  3
A3-30
100
AcDbAlignedDimension
 13
3038.20310355911
 23
2680.902471727984
 33
0.0
 14
3038.20310355911
 24
680.9024717279835
 34
0.0
 50
90.0
100
AcDbRotatedDimension
  0
LINE
  5
101B
330
17
100
AcDbEntity
  8
SEIHIN
100
AcDbLine
 10
3038.20310355911
 20
680.9024717279835
 30
0.0
 11
3038.20310355911
 21
2680.902471727984
 31
0.0
  0
LINE
  5
102A
330
17
100
AcDbEntity
  8
SEIHIN
100
AcDbLine
 10
3038.20310355911
 20
2680.902471727984
 30
0.0
 11
3540.60310355911
 21
2680.902471727984
 31
0.0
  0
LINE
  5
102C
330
17
100
AcDbEntity
  8
SEIHIN
100
AcDbLine
 10
3540.60310355911
 20
2680.902471727984
 30
0.0
 11
4988.20310355911
 21
2630.902471727984
 31
0.0
  0
DIMENSION
  5
104A
330
17
100
AcDbEntity
  8
SUNPOU
100
AcDbDimension
  2
*D16
 10
3258.20310355911
 20
3871.028322161968
 30
0.0
 11
3148.20310355911
 21
3940.028322161968
 31
0.0
 70
   160
 71
     5
 42
220.0
  3
A3-30
100
AcDbAlignedDimension
 13
3038.20310355911
 23
4405.288722379402
 33
0.0
 14
3258.20310355911
 24
4405.288722379402
 34
0.0
100
AcDbRotatedDimension
  0
DIMENSION
  5
104B
330
17
100
AcDbEntity
  8
SUNPOU
100
AcDbDimension
  2
*D17
 10
4988.203103559106
 20
3871.028322161968
 30
0.0
 11
4123.203103559108
 21
3940.028322161968
 31
0.0
 70
    32
 71
     5
 42
1729.999999999996
  3
A3-30
100
AcDbAlignedDimension
 13
3258.20310355911
 23
4405.288722379402
 33
0.0
 14
4988.203103559106
 24
4405.288722379402
 34
0.0
100
AcDbRotatedDimension
  0
DIMENSION
  5
104D
330
17
100
AcDbEntity
  8
SUNPOU
100
AcDbDimension
  2
*D18
 10
2129.909728297425
 20
4625.288722379402
 30
0.0
 11
2060.909728297424
 21
4515.288722379403
 31
0.0
 70
   160
 71
     5
 42
220.0
  3
A3-30
100
AcDbAlignedDimension
 13
3038.203103559106
 23
4405.288722379402
 33
0.0
 14
3038.203103559106
 24
4625.288722379402
 34
0.0
 50
90.0
100
AcDbRotatedDimension
  0
DIMENSION
  5
104E
330
17
100
AcDbEntity
  8
SUNPOU
100
AcDbDimension
  2
*D19
 10
2129.909728297425
 20
7155.288722379402
 30
0.0
 11
2060.909728297424
 21
5890.288722379403
 31
0.0
 70
    32
 71
     5
 42
2530.0
  3
A3-30
100
AcDbAlignedDimension
 13
3038.203103559106
 23
4625.288722379402
 33
0.0
 14
3038.203103559106
 24
7155.288722379402
 34
0.0
 50
90.0
100
AcDbRotatedDimension
  0
DIMENSION
  5
1054
330
17
100
AcDbEntity
  8
SUNPOU
100
AcDbDimension
  2
*D20
 10
2439.849027223347
 20
5105.288722379402
 30
0.0
 11
2370.849027223346
 21
4755.288722379402
 31
0.0
 70
    32
 71
     5
 42
700.0000000000027
  3
A3-30
100
AcDbAlignedDimension
 13
3038.203103559106
 23
4405.2887223794
 33
0.0
 14
2970.03850226738
 24
5105.288722379402
 34
0.0
 50
90.0
100
AcDbRotatedDimension
  0
DIMENSION
  5
1056
330
17
100
AcDbEntity
  8
SUNPOU
100
AcDbDimension
  2
*D21
 10
5476.316446842029
 20
6995.288722379402
 30
0.0
 11
5407.316446842027
 21
7075.288722379403
 31
0.0
 70
    32
 71
     5
 42
160.0
  3
A3-30
100
AcDbAlignedDimension
 13
3108.203103559106
 23
7155.288722379402
 33
0.0
 14
3108.203103559106
 24
6995.288722379402
 34
0.0
 50
90.0
100
AcDbRotatedDimension
  0
DIMENSION
  5
105A
330
17
100
AcDbEntity
  8
SUNPOU
100
AcDbDimension
  2
*D22
 10
8019.995514935435
 20
3956.36529998406
 30
0.0
 11
7769.995514935435
 21
4025.36529998406
 31
0.0
 70
    32
 71
     5
 42
500.0
  3
A3-30
100
AcDbAlignedDimension
 13
7519.995514935435
 23
4405.288722379402
 33
0.0
 14
8019.995514935435
 24
4405.288722379402
 34
0.0
100
AcDbRotatedDimension
  0
DIMENSION
  5
105B
330
17
100
AcDbEntity
  8
SUNPOU
100
AcDbDimension
  2
*D23
 10
9019.995514935435
 20
3956.36529998406
 30
0.0
 11
8519.995514935435
 21
4025.36529998406
 31
0.0
 70
    32
 71
     5
 42
1000.0
  3
A3-30
100
AcDbAlignedDimension
 13
8019.995514935435
 23
4405.288722379402
 33
0.0
 14
9019.995514935435
 24
4405.288722379402
 34
0.0
100
AcDbRotatedDimension
  0
DIMENSION
  5
105C
330
17
100
AcDbEntity
  8
SUNPOU
100
AcDbDimension
  2
*D24
 10
9519.995514935435
 20
3956.36529998406
 30
0.0
 11
9269.995514935435
 21
4025.36529998406
 31
0.0
 70
    32
 71
     5
 42
500.0
  3
A3-30
100
AcDbAlignedDimension
 13
9019.995514935435
 23
4405.288722379402
 33
0.0
 14
9519.995514935435
 24
4405.288722379402
 34
0.0
100
AcDbRotatedDimension
  0
LINE
  5
1065
330
17
100
AcDbEntity
  8
SEIHIN
100
AcDbLine
 10
3108.20310355911
 20
680.9024717279835
 30
0.0
 11
3108.20310355911
 21
2680.902471727984
 31
0.0
  0
DIMENSION
  5
1069
330
17
100
AcDbEntity
  8
SUNPOU
100
AcDbDimension
  2
*D25
 10
3540.60310355911
 20
2974.334600395196
 30
0.0
 11
3289.40310355911
 21
3043.334600395196
 31
0.0
 70
    32
 71
     5
 42
502.4000000000001
  3
A3-30
100
AcDbAlignedDimension
 13
3038.20310355911
 23
2680.902471727984
 33
0.0
 14
3540.60310355911
 24
2680.902471727984
 34
0.0
100
AcDbRotatedDimension
  0
DIMENSION
  5
106A
330
17
100
AcDbEntity
  8
SUNPOU
100
AcDbDimension
  2
*D26
 10
4988.20310355911
 20
2974.334600395196
 30
0.0
 11
4264.40310355911
 21
3043.334600395196
 31
0.0
 70
    32
 71
     5
 42
1447.6
  3
A3-30
100
AcDbAlignedDimension
 13
3540.60310355911
 23
2680.902471727984
 33
0.0
 14
4988.20310355911
 24
2630.902471727984
 34
0.0
100
AcDbRotatedDimension
  0
DIMENSION
  5
1483
330
17
100
AcDbEntity
  8
SUNPOU
100
AcDbDimension
  2
*D27
 10
5476.316446842029
 20
6995.288722379402
 30
0.0
 11
5407.316446842027
 21
5743.060743104792
 31
0.0
 70
    32
 71
     5
 42
2504.455958549222
  3
A3-30
100
AcDbAlignedDimension
 13
4988.203103559106
 23
4490.83276383018
 33
0.0
 14
3108.203103559106
 24
6995.288722379402
 34
0.0
 50
90.0
100
AcDbRotatedDimension
  0
TEXT
  5
1557
330
17
100
AcDbEntity
  8
SUNPOU
100
AcDbText
 10
2593.389972225777
 20
5345.434353341112
 30
0.0
 40
90.0
  1
水抜孔
 41
0.8
100
AcDbText
  0
LINE
  5
1559
330
17
100
AcDbEntity
  8
SUNPOU
100
AcDbLine
 10
2547.536071106995
 20
5333.958393490593
 30
0.0
 11
2882.23378685092
 21
5333.958393490593
 31
0.0
  0
LEADER
  5
155B
330
17
100
AcDbEntity
  8
SUNPOU
100
AcDbLeader
  3
A3-30
 76
     2
 10
3038.203103559106
 20
5105.288722379402
 30
0.0
 10
2882.23378685092
 20
5333.958393490593
 30
0.0
1001
ACAD
1000
DSTYLE
1002
{
1070
   147
1040
0.8
1070
    77
1070
     0
1002
}
  0
DIMENSION
  5
15E4
330
17
100
AcDbEntity
  8
SUNPOU
100
AcDbDimension
  2
*D28
 10
5648.20310355911
 20
680.9024717279834
 30
0.0
 11
5579.20310355911
 21
705.9024717279843
 31
0.0
 70
    32
 71
     5
 42
50.0
  3
A3-30
100
AcDbAlignedDimension
 13
4988.203103559108
 23
730.9024717279835
 33
0.0
 14
4988.203103559108
 24
680.9024717279835
 34
0.0
 50
90.0
100
AcDbRotatedDimension
  0
DIMENSION
  5
15F2
330
17
100
AcDbEntity
  8
SUNPOU
100
AcDbDimension
  2
*D29
 10
5648.20310355911
 20
2680.902471727983
 30
0.0
 11
5579.203103559109
 21
2655.902471727984
 31
0.0
 70
    32
 71
     5
 42
50.0
  3
A3-30
100
AcDbAlignedDimension
 13
4988.203103559108
 23
2630.902471727984
 33
0.0
 14
4988.203103559108
 24
2680.902471727984
 34
0.0
 50
270.0
100
AcDbRotatedDimension
  0
DIMENSION
  5
160A
330
17
100
AcDbEntity
  8
SUNPOU
100
AcDbDimension
  2
*D30
 10
6964.746761302624
 20
5105.288722379402
 30
0.0
 11
6895.746761302623
 21
4755.288722379404
 31
0.0
 70
    32
 71
     5
 42
700.0
  3
A3-30
100
AcDbAlignedDimension
 13
7519.995514935435
 23
4405.288722379402
 33
0.0
 14
7519.995514935435
 24
5105.288722379402
 34
0.0
 50
90.0
100
AcDbRotatedDimension
  0
DIMENSION
  5
1617
330
17
100
AcDbEntity
  8
SUNPOU
100
AcDbDimension
  2
*D31
 10
6964.746761302625
 20
7155.288722379402
 30
0.0
 11
6895.746761302623
 21
6130.288722379404
 31
0.0
 70
    32
 71
     5
 42
2050.0
  3
A3-30
100
AcDbAlignedDimension
 13
7519.995514935435
 23
5105.288722379402
 33
0.0
 14
7519.995514935435
 24
7155.288722379402
 34
0.0
 50
90.0
100
AcDbRotatedDimension
  0
LINE
  5
1648
330
17
100
AcDbEntity
  8
SEIHIN
100
AcDbLine
 10
7569.995514935437
 20
4490.83276383018
 30
0.0
 11
9469.995514935435
 21
4490.83276383018
 31
0.0
  0
LINE
  5
164A
330
17
100
AcDbEntity
  8
SEIHIN
100
AcDbLine
 10
7519.995514935436
 20
4903.340535850903
 30
0.0
 11
9519.995514935435
 21
4903.340535850904
 31
0.0
  0
LINE
  5
164B
330
17
100
AcDbEntity
  8
SEIHIN
100
AcDbLine
 10
7569.995514935436
 20
4490.832763830177
 30
0.0
 11
7569.995514935436
 21
4405.288722379402
 31
0.0
  0
LINE
  5
164C
330
17
100
AcDbEntity
  8
SEIHIN
100
AcDbLine
 10
7569.995514935436
 20
4490.83276383018
 30
0.0
 11
7519.995514935436
 21
4603.340535850903
 31
0.0
  0
LINE
  5
16B4
330
17
100
AcDbEntity
  8
SEIHIN
100
AcDbLine
 10
3240.60310355911
 20
680.9024717279835
 30
0.0
 11
3240.60310355911
 21
2680.902471727984
 31
0.0
  0
LINE
  5
16CE
330
17
100
AcDbEntity
  8
SEIHIN
100
AcDbLine
 10
3540.60310355911
 20
680.9024717279835
 30
0.0
 11
3540.60310355911
 21
2680.902471727984
 31
0.0
  0
LINE
  5
16CF
330
17
100
AcDbEntity
  8
SEIHIN
100
AcDbLine
 10
3038.20310355911
 20
680.9024717279835
 30
0.0
 11
3540.60310355911
 21
680.9024717279835
 31
0.0
  0
LINE
  5
16D0
330
17
100
AcDbEntity
  8
SEIHIN
100
AcDbLine
 10
3540.60310355911
 20
680.9024717279835
 30
0.0
 11
4988.20310355911
 21
730.9024717279835
 31
0.0
  0
LINE
  5
16D3
330
17
100
AcDbEntity
  8
SEIHIN
100
AcDbLine
 10
3240.604887516605
 20
4903.340535850904
 30
0.0
 11
3540.603103559107
 21
4603.340535850904
 31
0.0
  0
LINE
  5
16D5
330
17
100
AcDbEntity
  8
SEIHIN
100
AcDbLine
 10
7519.995514935436
 20
4603.340535850903
 30
0.0
 11
9519.995514935435
 21
4603.340535850904
 31
0.0
  0
LINE
  5
16D6
330
17
100
AcDbEntity
  8
SEIHIN
100
AcDbLine
 10
9469.995514935435
 20
4490.832763830177
 30
0.0
 11
9469.995514935435
 21
4405.288722379402
 31
0.0
  0
LINE
  5
16D7
330
17
100
AcDbEntity
  8
SEIHIN
100
AcDbLine
 10
9469.995514935435
 20
4490.83276383018
 30
0.0
 11
9519.995514935435
 21
4603.340535850903
 31
0.0
  0
ENDSEC
  0
SECTION
  2
OBJECTS
  0
DICTIONARY
  5
C
330
0
100
AcDbDictionary
281
     1
  3
ACAD_COLOR
350
9AA
  3
ACAD_GROUP
350
D
  3
ACAD_LAYOUT
350
7B
  3
ACAD_MATERIAL
350
9A9
  3
ACAD_MLEADERSTYLE
350
1705
  3
ACAD_MLINESTYLE
350
1A
  3
ACAD_PLOTSETTINGS
350
7C
  3
ACAD_PLOTSTYLENAME
350
79
  3
ACAD_SCALELIST
350
16DE
  3
ACAD_TABLESTYLE
350
9AB
  3
ACDB_RECOMPOSE_DATA
350
1704
  3
AcDbVariableDictionary
350
946
  0
DICTIONARY
  5
9AA
102
{ACAD_REACTORS
330
C
102
}
330
C
100
AcDbDictionary
281
     1
  0
DICTIONARY
  5
D
102
{ACAD_REACTORS
330
C
102
}
330
C
100
AcDbDictionary
281
     1
  0
DICTIONARY
  5
7B
102
{ACAD_REACTORS
330
C
102
}
330
C
100
AcDbDictionary
281
     1
  3
Model
350
7D
  3
ﾚｲｱｳﾄ1
350
7E
  0
DICTIONARY
  5
9A9
102
{ACAD_REACTORS
330
C
102
}
330
C
100
AcDbDictionary
281
     1
  0
DICTIONARY
  5
1705
102
{ACAD_REACTORS
330
C
102
}
330
C
100
AcDbDictionary
281
     1
  0
DICTIONARY
  5
1A
102
{ACAD_REACTORS
330
C
102
}
330
C
100
AcDbDictionary
281
     1
  3
STANDARD
350
1B
  0
DICTIONARY
  5
7C
102
{ACAD_REACTORS
330
C
102
}
330
C
100
AcDbDictionary
281
     1
  0
ACDBDICTIONARYWDFLT
  5
79
102
{ACAD_REACTORS
330
C
102
}
330
C
100
AcDbDictionary
281
     1
  3
Normal
350
7A
100
AcDbDictionaryWithDefault
340
7A
  0
DICTIONARY
  5
16DE
102
{ACAD_REACTORS
330
C
102
}
330
C
100
AcDbDictionary
281
     1
  3
A0
350
16DF
  3
A1
350
16E0
  3
A2
350
16E1
  3
A3
350
16E2
  3
A4
350
16E3
  3
A5
350
16E4
  3
A6
350
16E5
  3
A7
350
16E6
  3
A8
350
16E7
  3
A9
350
16E8
  3
B0
350
16E9
  3
B1
350
16EA
  3
B2
350
16EB
  3
B3
350
16EC
  3
B4
350
16ED
  3
B5
350
16EE
  3
B6
350
16EF
  3
B7
350
16F0
  3
B8
350
16F1
  3
B9
350
16F2
  3
C0
350
16F3
  3
C1
350
16F4
  3
C2
350
16F5
  3
C3
350
16F6
  3
C4
350
16F7
  3
C5
350
16F8
  3
C6
350
16F9
  3
C7
350
16FA
  3
C8
350
16FB
  3
C9
350
16FC
  3
D0
350
16FD
  3
D1
350
16FE
  3
D2
350
16FF
  0
DICTIONARY
  5
9AB
102
{ACAD_REACTORS
330
C
102
}
330
C
100
AcDbDictionary
281
     1
  3
Standard
350
9AC
  0
XRECORD
  5
1704
102
{ACAD_REACTORS
330
C
102
}
330
C
100
AcDbXrecord
280
     1
 90
        1
330
9AC
  0
DICTIONARY
  5
946
102
{ACAD_REACTORS
330
C
102
}
330
C
100
AcDbDictionary
281
     1
  3
CANNOSCALE
350
1700
  3
CTABLESTYLE
350
CC1
  3
DIMASSOC
350
947
  3
PROJECTNAME
350
CC2
  0
LAYOUT
  5
7D
102
{ACAD_REACTORS
330
7B
102
}
330
7B
100
AcDbPlotSettings
  1

  2
C:\PROGRAM FILES\MDT6\plotters\RICOH SP9II RPDL.pc3
  4
A3
  6

 40
5.873749732971191
 41
5.873758316040039
 42
4.349761962890625
 43
8.159759521484375
 44
420.1159973144531
 45
296.9259948730469
 46
0.0
 47
0.0
 48
0.0
 49
0.0
140
0.0
141
0.0
142
1.0
143
1.0
 70
 11952
 72
     0
 73
     0
 74
     0
  7
acad.ctb
 75
     0
 76
     0
 77
     2
 78
   300
147
1.0
148
-52067.63847066872
149
1270.867660243985
100
AcDbLayout
  1
Model
 70
     1
 71
     0
 10
0.0
 20
0.0
 11
12.0
 21
9.0
 12
0.0
 22
0.0
 32
0.0
 14
0.0
 24
0.0
 34
0.0
 15
0.0
 25
0.0
 35
0.0
146
0.0
 13
0.0
 23
0.0
 33
0.0
 16
1.0
 26
0.0
 36
0.0
 17
0.0
 27
1.0
 37
0.0
 76
     0
330
17
331
16D8
  0
LAYOUT
  5
7E
102
{ACAD_REACTORS
330
7B
102
}
330
7B
100
AcDbPlotSettings
  1

  2
C:\PROGRAM FILES\MDT6\plotters\RICOH SP9II RPDL.pc3
  4

  6

 40
0.0
 41
0.0
 42
0.0
 43
0.0
 44
0.0
 45
0.0
 46
0.0
 47
0.0
 48
0.0
 49
0.0
140
0.0
141
0.0
142
1.0
143
1.0
 70
   688
 72
     0
 73
     0
 74
     5
  7
acad.ctb
 75
    16
 76
     0
 77
     2
 78
   300
147
1.0
148
0.0
149
0.0
100
AcDbLayout
  1
ﾚｲｱｳﾄ1
 70
     0
 71
     1
 10
0.0
 20
0.0
 11
12.0
 21
9.0
 12
0.0
 22
0.0
 32
0.0
 14
1.000000000000000E+20
 24
1.000000000000000E+20
 34
1.000000000000000E+20
 15
-1.000000000000000E+20
 25
-1.000000000000000E+20
 35
-1.000000000000000E+20
146
0.0
 13
0.0
 23
0.0
 33
0.0
 16
1.0
 26
0.0
 36
0.0
 17
0.0
 27
1.0
 37
0.0
 76
     0
330
14
  0
MLINESTYLE
  5
1B
102
{ACAD_REACTORS
330
1A
102
}
330
1A
100
AcDbMlineStyle
  2
STANDARD
 70
     0
  3

 62
   256
 51
90.0
 52
90.0
 71
     2
 49
0.5
 62
   256
  6
BYLAYER
 49
-0.5
 62
   256
  6
BYLAYER
  0
ACDBPLACEHOLDER
  5
7A
102
{ACAD_REACTORS
330
79
102
}
330
79
  0
SCALE
  5
16DF
102
{ACAD_REACTORS
330
16DE
102
}
330
16DE
100
AcDbScale
 70
     0
300
1:1
140
1.0
141
1.0
290
     1
  0
SCALE
  5
16E0
102
{ACAD_REACTORS
330
16DE
102
}
330
16DE
100
AcDbScale
 70
     0
300
1:2
140
1.0
141
2.0
290
     0
  0
SCALE
  5
16E1
102
{ACAD_REACTORS
330
16DE
102
}
330
16DE
100
AcDbScale
 70
     0
300
1:4
140
1.0
141
4.0
290
     0
  0
SCALE
  5
16E2
102
{ACAD_REACTORS
330
16DE
102
}
330
16DE
100
AcDbScale
 70
     0
300
1:5
140
1.0
141
5.0
290
     0
  0
SCALE
  5
16E3
102
{ACAD_REACTORS
330
16DE
102
}
330
16DE
100
AcDbScale
 70
     0
300
1:8
140
1.0
141
8.0
290
     0
  0
SCALE
  5
16E4
102
{ACAD_REACTORS
330
16DE
102
}
330
16DE
100
AcDbScale
 70
     0
300
1:10
140
1.0
141
10.0
290
     0
  0
SCALE
  5
16E5
102
{ACAD_REACTORS
330
16DE
102
}
330
16DE
100
AcDbScale
 70
     0
300
1:16
140
1.0
141
16.0
290
     0
  0
SCALE
  5
16E6
102
{ACAD_REACTORS
330
16DE
102
}
330
16DE
100
AcDbScale
 70
     0
300
1:20
140
1.0
141
20.0
290
     0
  0
SCALE
  5
16E7
102
{ACAD_REACTORS
330
16DE
102
}
330
16DE
100
AcDbScale
 70
     0
300
1:30
140
1.0
141
30.0
290
     0
  0
SCALE
  5
16E8
102
{ACAD_REACTORS
330
16DE
102
}
330
16DE
100
AcDbScale
 70
     0
300
1:40
140
1.0
141
40.0
290
     0
  0
SCALE
  5
16E9
102
{ACAD_REACTORS
330
16DE
102
}
330
16DE
100
AcDbScale
 70
     0
300
1:50
140
1.0
141
50.0
290
     0
  0
SCALE
  5
16EA
102
{ACAD_REACTORS
330
16DE
102
}
330
16DE
100
AcDbScale
 70
     0
300
1:100
140
1.0
141
100.0
290
     0
  0
SCALE
  5
16EB
102
{ACAD_REACTORS
330
16DE
102
}
330
16DE
100
AcDbScale
 70
     0
300
2:1
140
2.0
141
1.0
290
     0
  0
SCALE
  5
16EC
102
{ACAD_REACTORS
330
16DE
102
}
330
16DE
100
AcDbScale
 70
     0
300
4:1
140
4.0
141
1.0
290
     0
  0
SCALE
  5
16ED
102
{ACAD_REACTORS
330
16DE
102
}
330
16DE
100
AcDbScale
 70
     0
300
8:1
140
8.0
141
1.0
290
     0
  0
SCALE
  5
16EE
102
{ACAD_REACTORS
330
16DE
102
}
330
16DE
100
AcDbScale
 70
     0
300
10:1
140
10.0
141
1.0
290
     0
  0
SCALE
  5
16EF
102
{ACAD_REACTORS
330
16DE
102
}
330
16DE
100
AcDbScale
 70
     0
300
100:1
140
100.0
141
1.0
290
     0
  0
SCALE
  5
16F0
102
{ACAD_REACTORS
330
16DE
102
}
330
16DE
100
AcDbScale
 70
     0
300
1/128" = 1'-0"
140
0.0078125
141
12.0
290
     0
  0
SCALE
  5
16F1
102
{ACAD_REACTORS
330
16DE
102
}
330
16DE
100
AcDbScale
 70
     0
300
1/64" = 1'-0"
140
0.015625
141
12.0
290
     0
  0
SCALE
  5
16F2
102
{ACAD_REACTORS
330
16DE
102
}
330
16DE
100
AcDbScale
 70
     0
300
1/32" = 1'-0"
140
0.03125
141
12.0
290
     0
  0
SCALE
  5
16F3
102
{ACAD_REACTORS
330
16DE
102
}
330
16DE
100
AcDbScale
 70
     0
300
1/16" = 1'-0"
140
0.0625
141
12.0
290
     0
  0
SCALE
  5
16F4
102
{ACAD_REACTORS
330
16DE
102
}
330
16DE
100
AcDbScale
 70
     0
300
3/32" = 1'-0"
140
0.09375
141
12.0
290
     0
  0
SCALE
  5
16F5
102
{ACAD_REACTORS
330
16DE
102
}
330
16DE
100
AcDbScale
 70
     0
300
1/8" = 1'-0"
140
0.125
141
12.0
290
     0
  0
SCALE
  5
16F6
102
{ACAD_REACTORS
330
16DE
102
}
330
16DE
100
AcDbScale
 70
     0
300
3/16" = 1'-0"
140
0.1875
141
12.0
290
     0
  0
SCALE
  5
16F7
102
{ACAD_REACTORS
330
16DE
102
}
330
16DE
100
AcDbScale
 70
     0
300
1/4" = 1'-0"
140
0.25
141
12.0
290
     0
  0
SCALE
  5
16F8
102
{ACAD_REACTORS
330
16DE
102
}
330
16DE
100
AcDbScale
 70
     0
300
3/8" = 1'-0"
140
0.375
141
12.0
290
     0
  0
SCALE
  5
16F9
102
{ACAD_REACTORS
330
16DE
102
}
330
16DE
100
AcDbScale
 70
     0
300
1/2" = 1'-0"
140
0.5
141
12.0
290
     0
  0
SCALE
  5
16FA
102
{ACAD_REACTORS
330
16DE
102
}
330
16DE
100
AcDbScale
 70
     0
300
3/4" = 1'-0"
140
0.75
141
12.0
290
     0
  0
SCALE
  5
16FB
102
{ACAD_REACTORS
330
16DE
102
}
330
16DE
100
AcDbScale
 70
     0
300
1" = 1'-0"
140
1.0
141
12.0
290
     0
  0
SCALE
  5
16FC
102
{ACAD_REACTORS
330
16DE
102
}
330
16DE
100
AcDbScale
 70
     0
300
1-1/2" = 1'-0"
140
1.5
141
12.0
290
     0
  0
SCALE
  5
16FD
102
{ACAD_REACTORS
330
16DE
102
}
330
16DE
100
AcDbScale
 70
     0
300
3" = 1'-0"
140
3.0
141
12.0
290
     0
  0
SCALE
  5
16FE
102
{ACAD_REACTORS
330
16DE
102
}
330
16DE
100
AcDbScale
 70
     0
300
6" = 1'-0"
140
6.0
141
12.0
290
     0
  0
SCALE
  5
16FF
102
{ACAD_REACTORS
330
16DE
102
}
330
16DE
100
AcDbScale
 70
     0
300
1'-0" = 1'-0"
140
12.0
141
12.0
290
     0
  0
TABLESTYLE
  5
9AC
102
{ACAD_REACTORS
330
9AB
102
}
102
{ACAD_XDICTIONARY
360
1701
102
}
330
9AB
100
AcDbTableStyle
  3
Standard
 70
     0
 71
     0
 40
0.06
 41
0.06
280
     0
281
     0
  7
STANDARD
140
0.18
170
     2
 62
     0
 63
   257
283
     0
274
    -2
284
     1
 64
     0
275
    -2
285
     1
 65
     0
276
    -2
286
     1
 66
     0
277
    -2
287
     1
 67
     0
278
    -2
288
     1
 68
     0
279
    -2
289
     1
 69
     0
  7
STANDARD
140
0.25
170
     5
 62
     0
 63
   257
283
     0
274
    -2
284
     1
 64
     0
275
    -2
285
     1
 65
     0
276
    -2
286
     1
 66
     0
277
    -2
287
     1
 67
     0
278
    -2
288
     1
 68
     0
279
    -2
289
     1
 69
     0
  7
STANDARD
140
0.18
170
     5
 62
     0
 63
   257
283
     0
274
    -2
284
     1
 64
     0
275
    -2
285
     1
 65
     0
276
    -2
286
     1
 66
     0
277
    -2
287
     1
 67
     0
278
    -2
288
     1
 68
     0
279
    -2
289
     1
 69
     0
  0
DICTIONARYVAR
  5
1700
102
{ACAD_REACTORS
330
946
102
}
330
946
100
DictionaryVariables
280
     0
  1
1:1
  0
DICTIONARYVAR
  5
CC1
102
{ACAD_REACTORS
330
946
102
}
330
946
100
DictionaryVariables
280
     0
  1
Standard
  0
DICTIONARYVAR
  5
947
102
{ACAD_REACTORS
330
946
102
}
330
946
100
DictionaryVariables
280
     0
  1
1
  0
DICTIONARYVAR
  5
CC2
102
{ACAD_REACTORS
330
946
102
}
330
946
100
DictionaryVariables
280
     0
  1

  0
DICTIONARY
  5
1701
330
9AC
100
AcDbDictionary
280
     1
281
     1
  3
ACAD_ROUNDTRIP_2008_TABLESTYLE_CELLSTYLEMAP
360
1703
  3
ACAD_XREC_ROUNDTRIP
360
1702
  0
CELLSTYLEMAP
  5
1703
102
{ACAD_REACTORS
330
1701
102
}
330
1701
100
AcDbCellStyleMap
 90
        3
300
CELLSTYLE
  1
TABLEFORMAT_BEGIN
 90
        5
170
     1
 91
        0
 92
    32768
 62
   257
 93
        1
300
CONTENTFORMAT
  1
CONTENTFORMAT_BEGIN
 90
        0
 91
        0
 92
        4
 93
        0
300

 40
0.0
140
1.0
 94
        5
 62
     0
340
F
144
0.25
309
CONTENTFORMAT_END
171
     1
301
MARGIN
  1
CELLMARGIN_BEGIN
 40
0.06
 40
0.06
 40
0.06
 40
0.06
 40
0.06
 40
0.06
309
CELLMARGIN_END
 94
        6
 95
        1
302
GRIDFORMAT
  1
GRIDFORMAT_BEGIN
 90
        0
 91
        1
 62
     0
 92
       -2
340
0
 93
        0
 40
0.045
309
GRIDFORMAT_END
 95
        2
302
GRIDFORMAT
  1
GRIDFORMAT_BEGIN
 90
        0
 91
        1
 62
     0
 92
       -2
340
0
 93
        0
 40
0.045
309
GRIDFORMAT_END
 95
        4
302
GRIDFORMAT
  1
GRIDFORMAT_BEGIN
 90
        0
 91
        1
 62
     0
 92
       -2
340
0
 93
        0
 40
0.045
309
GRIDFORMAT_END
 95
        8
302
GRIDFORMAT
  1
GRIDFORMAT_BEGIN
 90
        0
 91
        1
 62
     0
 92
       -2
340
0
 93
        0
 40
0.045
309
GRIDFORMAT_END
 95
       16
302
GRIDFORMAT
  1
GRIDFORMAT_BEGIN
 90
        0
 91
        1
 62
     0
 92
       -2
340
0
 93
        0
 40
0.045
309
GRIDFORMAT_END
 95
       32
302
GRIDFORMAT
  1
GRIDFORMAT_BEGIN
 90
        0
 91
        1
 62
     0
 92
       -2
340
0
 93
        0
 40
0.045
309
GRIDFORMAT_END
309
TABLEFORMAT_END
  1
CELLSTYLE_BEGIN
 90
        1
 91
        1
300
_TITLE
309
CELLSTYLE_END
300
CELLSTYLE
  1
TABLEFORMAT_BEGIN
 90
        5
170
     1
 91
        0
 92
        0
 62
   257
 93
        1
300
CONTENTFORMAT
  1
CONTENTFORMAT_BEGIN
 90
        0
 91
        0
 92
        4
 93
        0
300

 40
0.0
140
1.0
 94
        5
 62
     0
340
F
144
0.18
309
CONTENTFORMAT_END
171
     1
301
MARGIN
  1
CELLMARGIN_BEGIN
 40
0.06
 40
0.06
 40
0.06
 40
0.06
 40
0.06
 40
0.06
309
CELLMARGIN_END
 94
        6
 95
        1
302
GRIDFORMAT
  1
GRIDFORMAT_BEGIN
 90
        0
 91
        1
 62
     0
 92
       -2
340
0
 93
        0
 40
0.045
309
GRIDFORMAT_END
 95
        2
302
GRIDFORMAT
  1
GRIDFORMAT_BEGIN
 90
        0
 91
        1
 62
     0
 92
       -2
340
0
 93
        0
 40
0.045
309
GRIDFORMAT_END
 95
        4
302
GRIDFORMAT
  1
GRIDFORMAT_BEGIN
 90
        0
 91
        1
 62
     0
 92
       -2
340
0
 93
        0
 40
0.045
309
GRIDFORMAT_END
 95
        8
302
GRIDFORMAT
  1
GRIDFORMAT_BEGIN
 90
        0
 91
        1
 62
     0
 92
       -2
340
0
 93
        0
 40
0.045
309
GRIDFORMAT_END
 95
       16
302
GRIDFORMAT
  1
GRIDFORMAT_BEGIN
 90
        0
 91
        1
 62
     0
 92
       -2
340
0
 93
        0
 40
0.045
309
GRIDFORMAT_END
 95
       32
302
GRIDFORMAT
  1
GRIDFORMAT_BEGIN
 90
        0
 91
        1
 62
     0
 92
       -2
340
0
 93
        0
 40
0.045
309
GRIDFORMAT_END
309
TABLEFORMAT_END
  1
CELLSTYLE_BEGIN
 90
        2
 91
        1
300
_HEADER
309
CELLSTYLE_END
300
CELLSTYLE
  1
TABLEFORMAT_BEGIN
 90
        5
170
     1
 91
        0
 92
        0
 62
   257
 93
        1
300
CONTENTFORMAT
  1
CONTENTFORMAT_BEGIN
 90
        0
 91
        0
 92
        4
 93
        0
300

 40
0.0
140
1.0
 94
        2
 62
     0
340
F
144
0.18
309
CONTENTFORMAT_END
171
     1
301
MARGIN
  1
CELLMARGIN_BEGIN
 40
0.06
 40
0.06
 40
0.06
 40
0.06
 40
0.06
 40
0.06
309
CELLMARGIN_END
 94
        6
 95
        1
302
GRIDFORMAT
  1
GRIDFORMAT_BEGIN
 90
        0
 91
        1
 62
     0
 92
       -2
340
0
 93
        0
 40
0.045
309
GRIDFORMAT_END
 95
        2
302
GRIDFORMAT
  1
GRIDFORMAT_BEGIN
 90
        0
 91
        1
 62
     0
 92
       -2
340
0
 93
        0
 40
0.045
309
GRIDFORMAT_END
 95
        4
302
GRIDFORMAT
  1
GRIDFORMAT_BEGIN
 90
        0
 91
        1
 62
     0
 92
       -2
340
0
 93
        0
 40
0.045
309
GRIDFORMAT_END
 95
        8
302
GRIDFORMAT
  1
GRIDFORMAT_BEGIN
 90
        0
 91
        1
 62
     0
 92
       -2
340
0
 93
        0
 40
0.045
309
GRIDFORMAT_END
 95
       16
302
GRIDFORMAT
  1
GRIDFORMAT_BEGIN
 90
        0
 91
        1
 62
     0
 92
       -2
340
0
 93
        0
 40
0.045
309
GRIDFORMAT_END
 95
       32
302
GRIDFORMAT
  1
GRIDFORMAT_BEGIN
 90
        0
 91
        1
 62
     0
 92
       -2
340
0
 93
        0
 40
0.045
309
GRIDFORMAT_END
309
TABLEFORMAT_END
  1
CELLSTYLE_BEGIN
 90
        3
 91
        2
300
_DATA
309
CELLSTYLE_END
  0
XRECORD
  5
1702
102
{ACAD_REACTORS
330
1701
102
}
330
1701
100
AcDbXrecord
280
     1
102
ACAD_ROUNDTRIP_PRE2007_TABLESTYLE
 90
        4
 91
        0
  1

 92
        4
 93
        0
  2

 94
        4
 95
        0
  3

  0
ENDSEC
  0
EOF
