  0
SECTION
  2
HEADER
  9
$ACADVER
  1
AC1018
  9
$ACADMAINTVER
 70
     0
  9
$DWGCODEPAGE
  3
ANSI_932
  9
$LASTSAVEDBY
  1
shinwa
  9
$INSBASE
 10
0.0
 20
0.0
 30
0.0
  9
$EXTMIN
 10
42.76504094623681
 20
-145.2176364853967
 30
0.0
  9
$EXTMAX
 10
16726.14140141127
 20
11593.23490938734
 30
0.0
  9
$LIMMIN
 10
0.0
 20
0.0
  9
$LIMMAX
 10
17820.0
 20
12600.0
  9
$ORTHOMODE
 70
     1
  9
$REGENMODE
 70
     1
  9
$FILLMODE
 70
     1
  9
$QTEXTMODE
 70
     0
  9
$MIRRTEXT
 70
     1
  9
$LTSCALE
 40
100.0
  9
$ATTMODE
 70
     1
  9
$TEXTSIZE
 40
90.0
  9
$TRACEWID
 40
0.05
  9
$TEXTSTYLE
  7
A
  9
$CLAYER
  8
SUNPOU
  9
$CELTYPE
  6
BYLAYER
  9
$CECOLOR
 62
   256
  9
$CELTSCALE
 40
1.0
  9
$DISPSILH
 70
     0
  9
$DIMSCALE
 40
1.0
  9
$DIMASZ
 40
60.0
  9
$DIMEXO
 40
40.0
  9
$DIMDLI
 40
140.0
  9
$DIMRND
 40
0.0
  9
$DIMDLE
 40
0.0
  9
$DIMEXE
 40
20.0
  9
$DIMTP
 40
0.0
  9
$DIMTM
 40
0.0
  9
$DIMTXT
 40
90.0
  9
$DIMCEN
 40
0.09
  9
$DIMTSZ
 40
0.0
  9
$DIMTOL
 70
     0
  9
$DIMLIM
 70
     0
  9
$DIMTIH
 70
     0
  9
$DIMTOH
 70
     0
  9
$DIMSE1
 70
     0
  9
$DIMSE2
 70
     0
  9
$DIMTAD
 70
     0
  9
$DIMZIN
 70
     0
  9
$DIMBLK
  1

  9
$DIMASO
 70
     1
  9
$DIMSHO
 70
     0
  9
$DIMPOST
  1

  9
$DIMAPOST
  1

  9
$DIMALT
 70
     0
  9
$DIMALTD
 70
     2
  9
$DIMALTF
 40
25.4
  9
$DIMLFAC
 40
1.0
  9
$DIMTOFL
 70
     1
  9
$DIMTVP
 40
1.0
  9
$DIMTIX
 70
     0
  9
$DIMSOXD
 70
     0
  9
$DIMSAH
 70
     0
  9
$DIMBLK1
  1

  9
$DIMBLK2
  1

  9
$DIMSTYLE
  2
STANDARD
  9
$DIMCLRD
 70
     0
  9
$DIMCLRE
 70
     0
  9
$DIMCLRT
 70
     0
  9
$DIMTFAC
 40
1.0
  9
$DIMGAP
 40
0.09
  9
$DIMJUST
 70
     0
  9
$DIMSD1
 70
     0
  9
$DIMSD2
 70
     0
  9
$DIMTOLJ
 70
     1
  9
$DIMTZIN
 70
     0
  9
$DIMALTZ
 70
     0
  9
$DIMALTTZ
 70
     0
  9
$DIMUPT
 70
     0
  9
$DIMDEC
 70
     0
  9
$DIMTDEC
 70
     0
  9
$DIMALTU
 70
     2
  9
$DIMALTTD
 70
     2
  9
$DIMTXSTY
  7
A
  9
$DIMAUNIT
 70
     1
  9
$DIMADEC
 70
     0
  9
$DIMALTRND
 40
0.0
  9
$DIMAZIN
 70
     0
  9
$DIMDSEP
 70
    46
  9
$DIMATFIT
 70
     3
  9
$DIMFRAC
 70
     0
  9
$DIMLDRBLK
  1

  9
$DIMLUNIT
 70
     2
  9
$DIMLWD
 70
    -2
  9
$DIMLWE
 70
    -2
  9
$DIMTMOVE
 70
     2
  9
$LUNITS
 70
     2
  9
$LUPREC
 70
     0
  9
$SKETCHINC
 40
0.1
  9
$FILLETRAD
 40
50.0
  9
$AUNITS
 70
     1
  9
$AUPREC
 70
     4
  9
$MENU
  1
acad
  9
$ELEVATION
 40
0.0
  9
$PELEVATION
 40
0.0
  9
$THICKNESS
 40
0.0
  9
$LIMCHECK
 70
     0
  9
$CHAMFERA
 40
0.0
  9
$CHAMFERB
 40
0.0
  9
$CHAMFERC
 40
0.0
  9
$CHAMFERD
 40
0.0
  9
$SKPOLY
 70
     0
  9
$TDCREATE
 40
2448735.855393519
  9
$TDUCREATE
 40
2448735.480393519
  9
$TDUPDATE
 40
2457794.756293322
  9
$TDUUPDATE
 40
2457794.381293322
  9
$TDINDWG
 40
0.6608601852
  9
$TDUSRTIMER
 40
0.6608601852
  9
$USRTIMER
 70
     1
  9
$ANGBASE
 50
0.0
  9
$ANGDIR
 70
     0
  9
$PDMODE
 70
    32
  9
$PDSIZE
 40
1.0
  9
$PLINEWID
 40
0.0
  9
$SPLFRAME
 70
     0
  9
$SPLINETYPE
 70
     6
  9
$SPLINESEGS
 70
     8
  9
$HANDSEED
  5
B6C
  9
$SURFTAB1
 70
     6
  9
$SURFTAB2
 70
     6
  9
$SURFTYPE
 70
     6
  9
$SURFU
 70
     6
  9
$SURFV
 70
     6
  9
$UCSBASE
  2

  9
$UCSNAME
  2

  9
$UCSORG
 10
0.0
 20
0.0
 30
0.0
  9
$UCSXDIR
 10
1.0
 20
0.0
 30
0.0
  9
$UCSYDIR
 10
0.0
 20
1.0
 30
0.0
  9
$UCSORTHOREF
  2

  9
$UCSORTHOVIEW
 70
     0
  9
$UCSORGTOP
 10
0.0
 20
0.0
 30
0.0
  9
$UCSORGBOTTOM
 10
0.0
 20
0.0
 30
0.0
  9
$UCSORGLEFT
 10
0.0
 20
0.0
 30
0.0
  9
$UCSORGRIGHT
 10
0.0
 20
0.0
 30
0.0
  9
$UCSORGFRONT
 10
0.0
 20
0.0
 30
0.0
  9
$UCSORGBACK
 10
0.0
 20
0.0
 30
0.0
  9
$PUCSBASE
  2

  9
$PUCSNAME
  2

  9
$PUCSORG
 10
0.0
 20
0.0
 30
0.0
  9
$PUCSXDIR
 10
1.0
 20
0.0
 30
0.0
  9
$PUCSYDIR
 10
0.0
 20
1.0
 30
0.0
  9
$PUCSORTHOREF
  2

  9
$PUCSORTHOVIEW
 70
     0
  9
$PUCSORGTOP
 10
0.0
 20
0.0
 30
0.0
  9
$PUCSORGBOTTOM
 10
0.0
 20
0.0
 30
0.0
  9
$PUCSORGLEFT
 10
0.0
 20
0.0
 30
0.0
  9
$PUCSORGRIGHT
 10
0.0
 20
0.0
 30
0.0
  9
$PUCSORGFRONT
 10
0.0
 20
0.0
 30
0.0
  9
$PUCSORGBACK
 10
0.0
 20
0.0
 30
0.0
  9
$USERI1
 70
     0
  9
$USERI2
 70
     0
  9
$USERI3
 70
     0
  9
$USERI4
 70
     0
  9
$USERI5
 70
     0
  9
$USERR1
 40
0.0
  9
$USERR2
 40
0.0
  9
$USERR3
 40
0.0
  9
$USERR4
 40
0.0
  9
$USERR5
 40
0.0
  9
$WORLDVIEW
 70
     1
  9
$SHADEDGE
 70
     3
  9
$SHADEDIF
 70
    70
  9
$TILEMODE
 70
     1
  9
$MAXACTVP
 70
    48
  9
$PINSBASE
 10
0.0
 20
0.0
 30
0.0
  9
$PLIMCHECK
 70
     0
  9
$PEXTMIN
 10
1.000000000000000E+20
 20
1.000000000000000E+20
 30
1.000000000000000E+20
  9
$PEXTMAX
 10
-1.000000000000000E+20
 20
-1.000000000000000E+20
 30
-1.000000000000000E+20
  9
$PLIMMIN
 10
0.0
 20
0.0
  9
$PLIMMAX
 10
12.0
 20
9.0
  9
$UNITMODE
 70
     0
  9
$VISRETAIN
 70
     0
  9
$PLINEGEN
 70
     0
  9
$PSLTSCALE
 70
     0
  9
$TREEDEPTH
 70
  3020
  9
$CMLSTYLE
  2
STANDARD
  9
$CMLJUST
 70
     0
  9
$CMLSCALE
 40
1.0
  9
$PROXYGRAPHICS
 70
     1
  9
$MEASUREMENT
 70
     0
  9
$CELWEIGHT
370
    -1
  9
$ENDCAPS
280
     0
  9
$JOINSTYLE
280
     0
  9
$LWDISPLAY
290
     0
  9
$INSUNITS
 70
     0
  9
$HYPERLINKBASE
  1

  9
$STYLESHEET
  1

  9
$XEDIT
290
     1
  9
$CEPSNTYPE
380
     0
  9
$PSTYLEMODE
290
     1
  9
$FINGERPRINTGUID
  2
{75228E6A-4160-485F-A2B1-F44791AA239C}
  9
$VERSIONGUID
  2
{94098F21-0D2D-48B5-A0D9-A26C8A4DDAB7}
  9
$EXTNAMES
290
     1
  9
$PSVPSCALE
 40
0.0
  9
$OLESTARTUP
290
     0
  9
$SORTENTS
280
   127
  9
$INDEXCTL
280
     0
  9
$HIDETEXT
280
     0
  9
$XCLIPFRAME
290
     0
  9
$HALOGAP
280
     0
  9
$OBSCOLOR
 70
   257
  9
$OBSLTYPE
280
     0
  9
$INTERSECTIONDISPLAY
280
     0
  9
$INTERSECTIONCOLOR
 70
   257
  9
$DIMASSOC
280
     1
  9
$PROJECTNAME
  1

  0
ENDSEC
  0
SECTION
  2
CLASSES
  0
CLASS
  1
DICTIONARYVAR
  2
AcDbDictionaryVar
  3
ObjectDBX Classes
 90
        0
 91
        4
280
     0
281
     0
  0
CLASS
  1
LWPOLYLINE
  2
AcDbPolyline
  3
AutoCAD 2000
 90
        0
 91
        1
280
     0
281
     1
  0
CLASS
  1
ACDBDICTIONARYWDFLT
  2
AcDbDictionaryWithDefault
  3
ObjectDBX Classes
 90
        0
 91
        4
280
     0
281
     0
  0
CLASS
  1
MATERIAL
  2
AcDbMaterial
  3
ObjectDBX Classes
 90
     1153
 91
        4
280
     0
281
     0
  0
CLASS
  1
VISUALSTYLE
  2
AcDbVisualStyle
  3
ObjectDBX Classes
 90
     4095
 91
        4
280
     0
281
     0
  0
CLASS
  1
TABLESTYLE
  2
AcDbTableStyle
  3
ObjectDBX Classes
 90
     4095
 91
        4
280
     0
281
     0
  0
CLASS
  1
SCALE
  2
AcDbScale
  3
ObjectDBX Classes
 90
     1153
 91
        4
280
     0
281
     0
  0
CLASS
  1
MLEADERSTYLE
  2
AcDbMLeaderStyle
  3
ACDB_MLEADERSTYLE_CLASS
 90
     4095
 91
        4
280
     0
281
     0
  0
CLASS
  1
ACDBSECTIONVIEWSTYLE
  2
AcDbSectionViewStyle
  3
ObjectDBX Classes
 90
     1025
 91
        2
280
     1
281
     0
  0
CLASS
  1
ACDBDETAILVIEWSTYLE
  2
AcDbDetailViewStyle
  3
ObjectDBX Classes
 90
     1025
 91
        2
280
     1
281
     0
  0
CLASS
  1
CELLSTYLEMAP
  2
AcDbCellStyleMap
  3
ObjectDBX Classes
 90
     1152
 91
        4
280
     0
281
     0
  0
ENDSEC
  0
SECTION
  2
TABLES
  0
TABLE
  2
VPORT
  5
8
102
{ACAD_XDICTIONARY
360
B30
102
}
330
0
100
AcDbSymbolTable
 70
     1
  0
VPORT
  5
A2E
330
8
100
AcDbSymbolTableRecord
100
AcDbViewportTableRecord
  2
*ACTIVE
 70
     0
 10
0.0
 20
0.0
 11
1.0
 21
1.0
 12
10256.59492252499
 22
5990.888181218348
 13
0.0
 23
0.0
 14
10.0
 24
10.0
 15
100.0
 25
100.0
 16
0.0
 26
0.0
 36
1.0
 17
0.0
 27
0.0
 37
0.0
 40
16084.28560298219
 41
1.560747663551402
 42
50.0
 43
0.0
 44
0.0
 50
0.0
 51
0.0
 71
     0
 72
   100
 73
     1
 74
     1
 75
     0
 76
     0
 77
     0
 78
     2
281
     0
 65
     1
110
0.0
120
0.0
130
0.0
111
1.0
121
0.0
131
0.0
112
0.0
122
1.0
132
0.0
 79
     0
146
0.0
1001
ACAD_NAV_VCDISPLAY
1070
     3
  0
ENDTAB
  0
TABLE
  2
LTYPE
  5
5
330
0
100
AcDbSymbolTable
 70
     5
  0
LTYPE
  5
11
330
5
100
AcDbSymbolTableRecord
100
AcDbLinetypeTableRecord
  2
BYBLOCK
 70
     0
  3

 72
    65
 73
     0
 40
0.0
  0
LTYPE
  5
12
330
5
100
AcDbSymbolTableRecord
100
AcDbLinetypeTableRecord
  2
BYLAYER
 70
     0
  3

 72
    65
 73
     0
 40
0.0
  0
LTYPE
  5
13
330
5
100
AcDbSymbolTableRecord
100
AcDbLinetypeTableRecord
  2
CONTINUOUS
 70
     0
  3
実線
 72
    65
 73
     0
 40
0.0
  0
LTYPE
  5
A1
330
5
100
AcDbSymbolTableRecord
100
AcDbLinetypeTableRecord
  2
HIDDEN
 70
     0
  3
_ _ _ _ _ _ _ _ _ _ _ _ _ _ _ _ _ _ _ _ _ _ _
 72
    65
 73
     2
 40
0.375
 49
0.25
 74
     0
 49
-0.125
 74
     0
  0
LTYPE
  5
A2
330
5
100
AcDbSymbolTableRecord
100
AcDbLinetypeTableRecord
  2
CENTER
 70
     0
  3
____ _ ____ _ ____ _ ____ _ ____ _ ____ _ ____
 72
    65
 73
     4
 40
2.0
 49
1.25
 74
     0
 49
-0.25
 74
     0
 49
0.25
 74
     0
 49
-0.25
 74
     0
  0
LTYPE
  5
A3
330
5
100
AcDbSymbolTableRecord
100
AcDbLinetypeTableRecord
  2
PHANTOM
 70
     0
  3
_____ _ _ _____ _ _ _____ _ _ _____ _ _ ____
 72
    65
 73
     6
 40
2.5
 49
1.25
 74
     0
 49
-0.25
 74
     0
 49
0.25
 74
     0
 49
-0.25
 74
     0
 49
0.25
 74
     0
 49
-0.25
 74
     0
  0
LTYPE
  5
A4
330
5
100
AcDbSymbolTableRecord
100
AcDbLinetypeTableRecord
  2
DOT
 70
     0
  3
...............................................
 72
    65
 73
     2
 40
0.25
 49
0.0
 74
     0
 49
-0.25
 74
     0
  0
ENDTAB
  0
TABLE
  2
LAYER
  5
2
102
{ACAD_XDICTIONARY
360
AD4
102
}
330
0
100
AcDbSymbolTable
 70
    10
  0
LAYER
  5
E
102
{ACAD_XDICTIONARY
360
ABF
102
}
330
2
100
AcDbSymbolTableRecord
100
AcDbLayerTableRecord
  2
0
 70
     0
 62
     7
  6
CONTINUOUS
370
    -3
390
A31
  0
LAYER
  5
A7
102
{ACAD_XDICTIONARY
360
AC1
102
}
330
2
100
AcDbSymbolTableRecord
100
AcDbLayerTableRecord
  2
SUNPOU
 70
     0
 62
     1
  6
CONTINUOUS
370
    -3
390
A31
  0
LAYER
  5
A8
102
{ACAD_XDICTIONARY
360
AC3
102
}
330
2
100
AcDbSymbolTableRecord
100
AcDbLayerTableRecord
  2
SEIHIN
 70
     0
 62
     3
  6
CONTINUOUS
370
    -3
390
A31
  0
LAYER
  5
A9
102
{ACAD_XDICTIONARY
360
AC5
102
}
330
2
100
AcDbSymbolTableRecord
100
AcDbLayerTableRecord
  2
HAIKIN
 70
     0
 62
     2
  6
CONTINUOUS
370
    -3
390
A31
  0
LAYER
  5
AA
102
{ACAD_XDICTIONARY
360
AC7
102
}
330
2
100
AcDbSymbolTableRecord
100
AcDbLayerTableRecord
  2
HASEN
 70
     0
 62
     4
  6
HIDDEN
370
    -3
390
A31
  0
LAYER
  5
AB
102
{ACAD_XDICTIONARY
360
AC9
102
}
330
2
100
AcDbSymbolTableRecord
100
AcDbLayerTableRecord
  2
1HASEN
 70
     0
 62
     5
  6
CENTER
370
    -3
390
A31
  0
LAYER
  5
AC
102
{ACAD_XDICTIONARY
360
ACB
102
}
330
2
100
AcDbSymbolTableRecord
100
AcDbLayerTableRecord
  2
2HASEN
 70
     0
 62
     6
  6
PHANTOM
370
    -3
390
A31
  0
LAYER
  5
AD
102
{ACAD_XDICTIONARY
360
ACD
102
}
330
2
100
AcDbSymbolTableRecord
100
AcDbLayerTableRecord
  2
TEN
 70
     0
 62
     7
  6
DOT
370
    -3
390
A31
  0
LAYER
  5
AE
102
{ACAD_XDICTIONARY
360
ACF
102
}
330
2
100
AcDbSymbolTableRecord
100
AcDbLayerTableRecord
  2
HOJO
 70
     0
 62
     7
  6
CONTINUOUS
370
    -3
390
A31
  0
LAYER
  5
AF
330
2
100
AcDbSymbolTableRecord
100
AcDbLayerTableRecord
  2
DEFPOINTS
 70
     0
 62
     7
  6
CONTINUOUS
290
     0
370
    -3
390
A31
  0
ENDTAB
  0
TABLE
  2
STYLE
  5
3
330
0
100
AcDbSymbolTable
 70
     3
  0
STYLE
  5
F
330
3
100
AcDbSymbolTableRecord
100
AcDbTextStyleTableRecord
  2
STANDARD
 70
     0
 40
0.0
 41
1.0
 50
0.0
 71
     0
 42
0.2
  3
txt
  4

  0
STYLE
  5
9F
330
3
100
AcDbSymbolTableRecord
100
AcDbTextStyleTableRecord
  2
A
 70
     0
 40
0.0
 41
1.0
 50
0.0
 71
     0
 42
90.0
  3
txt
  4
bigfont
  0
STYLE
  5
A0
330
3
100
AcDbSymbolTableRecord
100
AcDbTextStyleTableRecord
  2
NIHONGO
 70
     0
 40
0.0
 41
1.0
 50
0.0
 71
     0
 42
3.0
  3
TXT
  4
BIGFONT
  0
ENDTAB
  0
TABLE
  2
VIEW
  5
6
330
0
100
AcDbSymbolTable
 70
     0
  0
ENDTAB
  0
TABLE
  2
UCS
  5
7
330
0
100
AcDbSymbolTable
 70
     0
  0
ENDTAB
  0
TABLE
  2
APPID
  5
9
330
0
100
AcDbSymbolTable
 70
    11
  0
APPID
  5
10
330
9
100
AcDbSymbolTableRecord
100
AcDbRegAppTableRecord
  2
ACAD
 70
     0
  0
APPID
  5
A87
330
9
100
AcDbSymbolTableRecord
100
AcDbRegAppTableRecord
  2
ACAD_NAV_VCDISPLAY
 70
     0
  0
APPID
  5
B15
330
9
100
AcDbSymbolTableRecord
100
AcDbRegAppTableRecord
  2
ACAD_MLEADERVER
 70
     0
  0
APPID
  5
B28
330
9
100
AcDbSymbolTableRecord
100
AcDbRegAppTableRecord
  2
ACAD_DSTYLE_DIMARC_LENGTH_SYMBOL
 70
     0
  0
APPID
  5
B29
330
9
100
AcDbSymbolTableRecord
100
AcDbRegAppTableRecord
  2
ACAD_DSTYLE_DIMJOGGED_JOGANGLE_SYMBOL
 70
     0
  0
APPID
  5
B2A
330
9
100
AcDbSymbolTableRecord
100
AcDbRegAppTableRecord
  2
ACAD_DSTYLE_DIMTEXT_FILL
 70
     0
  0
APPID
  5
B2B
330
9
100
AcDbSymbolTableRecord
100
AcDbRegAppTableRecord
  2
ACAD_DSTYLE_DIMEXT_ENABLED
 70
     0
  0
APPID
  5
B2C
330
9
100
AcDbSymbolTableRecord
100
AcDbRegAppTableRecord
  2
ACAD_DSTYLE_DIMEXT_LENGTH
 70
     0
  0
APPID
  5
B2D
330
9
100
AcDbSymbolTableRecord
100
AcDbRegAppTableRecord
  2
ACAD_DSTYLE_DIM_LINETYPE
 70
     0
  0
APPID
  5
B2E
330
9
100
AcDbSymbolTableRecord
100
AcDbRegAppTableRecord
  2
ACAD_DSTYLE_DIM_EXT1_LINETYPE
 70
     0
  0
APPID
  5
B2F
330
9
100
AcDbSymbolTableRecord
100
AcDbRegAppTableRecord
  2
ACAD_DSTYLE_DIM_EXT2_LINETYPE
 70
     0
  0
ENDTAB
  0
TABLE
  2
DIMSTYLE
  5
A
330
0
100
AcDbSymbolTable
 70
     1
100
AcDbDimStyleTable
  0
DIMSTYLE
105
A2C
102
{ACAD_REACTORS
330
790
330
A94
330
782
102
}
330
A
100
AcDbSymbolTableRecord
100
AcDbDimStyleTableRecord
  2
STANDARD
 70
     0
178
     0
340
F
  0
ENDTAB
  0
TABLE
  2
BLOCK_RECORD
  5
1
330
0
100
AcDbSymbolTable
 70
   134
  0
BLOCK_RECORD
  5
17
330
1
100
AcDbSymbolTableRecord
100
AcDbBlockTableRecord
  2
*MODEL_SPACE
340
A81
  0
BLOCK_RECORD
  5
14
330
1
100
AcDbSymbolTableRecord
100
AcDbBlockTableRecord
  2
*PAPER_SPACE
340
A82
  0
BLOCK_RECORD
  5
1C
330
1
100
AcDbSymbolTableRecord
100
AcDbBlockTableRecord
  2
BORDER
340
0
  0
BLOCK_RECORD
  5
1D
330
1
100
AcDbSymbolTableRecord
100
AcDbBlockTableRecord
  2
SA3-10
340
0
  0
BLOCK_RECORD
  5
1E
330
1
100
AcDbSymbolTableRecord
100
AcDbBlockTableRecord
  2
SA4
340
0
102
{BLKREFS
331
BD
102
}
  0
BLOCK_RECORD
  5
49
330
1
100
AcDbSymbolTableRecord
100
AcDbBlockTableRecord
  2
*D45
340
0
  0
BLOCK_RECORD
  5
4F
330
1
100
AcDbSymbolTableRecord
100
AcDbBlockTableRecord
  2
*D51
340
0
  0
BLOCK_RECORD
  5
50
330
1
100
AcDbSymbolTableRecord
100
AcDbBlockTableRecord
  2
*D52
340
0
  0
BLOCK_RECORD
  5
66
330
1
100
AcDbSymbolTableRecord
100
AcDbBlockTableRecord
  2
*D74
340
0
  0
BLOCK_RECORD
  5
67
330
1
100
AcDbSymbolTableRecord
100
AcDbBlockTableRecord
  2
*D75
340
0
  0
BLOCK_RECORD
  5
68
330
1
100
AcDbSymbolTableRecord
100
AcDbBlockTableRecord
  2
*D76
340
0
  0
BLOCK_RECORD
  5
69
330
1
100
AcDbSymbolTableRecord
100
AcDbBlockTableRecord
  2
*D77
340
0
  0
BLOCK_RECORD
  5
6A
330
1
100
AcDbSymbolTableRecord
100
AcDbBlockTableRecord
  2
*D78
340
0
  0
BLOCK_RECORD
  5
70
330
1
100
AcDbSymbolTableRecord
100
AcDbBlockTableRecord
  2
*D84
340
0
  0
BLOCK_RECORD
  5
71
330
1
100
AcDbSymbolTableRecord
100
AcDbBlockTableRecord
  2
*D85
340
0
  0
BLOCK_RECORD
  5
75
330
1
100
AcDbSymbolTableRecord
100
AcDbBlockTableRecord
  2
*D89
340
0
  0
BLOCK_RECORD
  5
76
330
1
100
AcDbSymbolTableRecord
100
AcDbBlockTableRecord
  2
*D90
340
0
  0
BLOCK_RECORD
  5
7F
330
1
100
AcDbSymbolTableRecord
100
AcDbBlockTableRecord
  2
*D99
340
0
  0
BLOCK_RECORD
  5
80
330
1
100
AcDbSymbolTableRecord
100
AcDbBlockTableRecord
  2
*D100
340
0
  0
BLOCK_RECORD
  5
84
330
1
100
AcDbSymbolTableRecord
100
AcDbBlockTableRecord
  2
*D104
340
0
  0
BLOCK_RECORD
  5
85
330
1
100
AcDbSymbolTableRecord
100
AcDbBlockTableRecord
  2
*D105
340
0
  0
BLOCK_RECORD
  5
89
330
1
100
AcDbSymbolTableRecord
100
AcDbBlockTableRecord
  2
*D109
340
0
  0
BLOCK_RECORD
  5
8A
330
1
100
AcDbSymbolTableRecord
100
AcDbBlockTableRecord
  2
*D110
340
0
  0
BLOCK_RECORD
  5
9B
330
1
100
AcDbSymbolTableRecord
100
AcDbBlockTableRecord
  2
*D127
340
0
  0
BLOCK_RECORD
  5
9C
330
1
100
AcDbSymbolTableRecord
100
AcDbBlockTableRecord
  2
*D128
340
0
  0
BLOCK_RECORD
  5
A88
330
1
100
AcDbSymbolTableRecord
100
AcDbBlockTableRecord
  2
*D131
340
0
  0
BLOCK_RECORD
  5
A95
330
1
100
AcDbSymbolTableRecord
100
AcDbBlockTableRecord
  2
*D132
340
0
  0
BLOCK_RECORD
  5
AA1
330
1
100
AcDbSymbolTableRecord
100
AcDbBlockTableRecord
  2
*D133
340
0
  0
ENDTAB
  0
ENDSEC
  0
SECTION
  2
BLOCKS
  0
BLOCK
  5
B2
330
17
100
AcDbEntity
  8
0
100
AcDbBlockBegin
  2
*MODEL_SPACE
 70
     0
 10
0.0
 20
0.0
 30
0.0
  3
*MODEL_SPACE
  1

  0
ENDBLK
  5
B3
330
17
100
AcDbEntity
  8
0
100
AcDbBlockEnd
  0
BLOCK
  5
B0
330
14
100
AcDbEntity
 67
     1
  8
0
100
AcDbBlockBegin
  2
*PAPER_SPACE
 70
     0
 10
0.0
 20
0.0
 30
0.0
  3
*PAPER_SPACE
  1

  0
ENDBLK
  5
B1
330
14
100
AcDbEntity
 67
     1
  8
0
100
AcDbBlockEnd
  0
BLOCK
  5
B6
330
1C
100
AcDbEntity
  8
0
100
AcDbBlockBegin
  2
BORDER
 70
     0
 10
0.0
 20
0.0
 30
0.0
  3
BORDER
  1

  0
LINE
  5
B7
330
1C
100
AcDbEntity
  8
0
100
AcDbLine
 10
0.0
 20
0.0
 30
0.0
 11
1.00000000000004
 21
0.0
 31
0.0
  0
LINE
  5
B8
330
1C
100
AcDbEntity
  8
0
100
AcDbLine
 10
1.00000000000004
 20
0.0
 30
0.0
 11
1.00000000000004
 21
1.00000000000004
 31
0.0
  0
LINE
  5
B9
330
1C
100
AcDbEntity
  8
0
100
AcDbLine
 10
1.00000000000004
 20
1.00000000000004
 30
0.0
 11
0.0
 21
1.00000000000004
 31
0.0
  0
LINE
  5
BA
330
1C
100
AcDbEntity
  8
0
100
AcDbLine
 10
0.0
 20
1.00000000000004
 30
0.0
 11
0.0
 21
0.0
 31
0.0
  0
ENDBLK
  5
BB
330
1C
100
AcDbEntity
  8
0
100
AcDbBlockEnd
  0
BLOCK
  5
BC
330
1D
100
AcDbEntity
  8
SUNPOU
100
AcDbBlockBegin
  2
SA3-10
 70
     0
 10
0.0
 20
0.0
 30
0.0
  3
SA3-10
  1

  0
INSERT
  5
BD
330
1D
100
AcDbEntity
  8
HAIKIN
100
AcDbBlockReference
  2
SA4
 10
0.0
 20
0.0
 30
0.0
  0
ENDBLK
  5
BE
330
1D
100
AcDbEntity
  8
SUNPOU
100
AcDbBlockEnd
  0
BLOCK
  5
BF
330
1E
100
AcDbEntity
  8
HAIKIN
100
AcDbBlockBegin
  2
SA4
 70
     0
 10
0.0
 20
0.0
 30
0.0
  3
SA4
  1

  0
TEXT
  5
C0
330
1E
100
AcDbEntity
  8
SUNPOU
100
AcDbText
 10
3400.0
 20
0.0
 30
0.0
 40
25.0
  1
新和コンクリート工業株式会社
  7
NIHONGO
100
AcDbText
  0
TEXT
  5
C3
330
1E
100
AcDbEntity
  8
SUNPOU
100
AcDbText
 10
3614.166666666667
 20
62.5
 30
0.0
 40
25.0
  1
製図
  7
NIHONGO
 72
     4
 11
3640.0
 21
75.0
 31
0.0
100
AcDbText
  0
TEXT
  5
C4
330
1E
100
AcDbEntity
  8
SUNPOU
100
AcDbText
 10
3613.333333333333
 20
112.5
 30
0.0
 40
25.0
  1
設計
  7
NIHONGO
 72
     4
 11
3640.0
 21
125.0
 31
0.0
100
AcDbText
  0
TEXT
  5
C5
330
1E
100
AcDbEntity
  8
SUNPOU
100
AcDbText
 10
3390.833333333333
 20
62.50000000000014
 30
0.0
 40
25.0
  1
認
  7
NIHONGO
 72
     4
 11
3402.5
 21
75.00000000000014
 31
0.0
100
AcDbText
  0
TEXT
  5
C6
330
1E
100
AcDbEntity
  8
SUNPOU
100
AcDbText
 10
3390.833333333333
 20
113.3333333333337
 30
0.0
 40
25.0
  1
承
  7
NIHONGO
 72
     4
 11
3402.5
 21
125.0000000000003
 31
0.0
100
AcDbText
  0
TEXT
  5
C7
330
1E
100
AcDbEntity
  8
SUNPOU
100
AcDbText
 10
3127.5
 20
117.5000000000001
 30
0.0
 40
25.0
  1
図　面　番　号
  7
NIHONGO
 72
     4
 11
3230.0
 21
130.0000000000001
 31
0.0
100
AcDbText
  0
TEXT
  5
C8
330
1E
100
AcDbEntity
  8
SUNPOU
100
AcDbText
 10
3620.0
 20
170.0
 30
0.0
 40
25.0
  1
１／
  7
NIHONGO
100
AcDbText
  0
TEXT
  5
C9
330
1E
100
AcDbEntity
  8
SUNPOU
100
AcDbText
 10
3473.333333333333
 20
162.5000000000001
 30
0.0
 40
25.0
  1
縮　　尺
  7
NIHONGO
 72
     4
 11
3530.0
 21
175.0000000000001
 31
0.0
100
AcDbText
  0
TEXT
  5
CA
330
1E
100
AcDbEntity
  8
SUNPOU
100
AcDbText
 10
3473.333333333333
 20
212.5
 30
0.0
 40
25.0
  1
鉄 筋 量
  7
NIHONGO
 72
     4
 11
3530.0
 21
225.0
 31
0.0
100
AcDbText
  0
TEXT
  5
CB
330
1E
100
AcDbEntity
  8
SUNPOU
100
AcDbText
 10
3473.333333333333
 20
262.5
 30
0.0
 40
25.0
  1
製 造 数
  7
NIHONGO
 72
     4
 11
3530.0
 21
275.0
 31
0.0
100
AcDbText
  0
TEXT
  5
CC
330
1E
100
AcDbEntity
  8
SUNPOU
100
AcDbText
 10
3770.0
 20
210.0
 30
0.0
 40
25.0
  1
ｋｇ
  7
NIHONGO
 72
     2
 11
3820.0
 21
210.0
 31
0.0
100
AcDbText
  0
TEXT
  5
CD
330
1E
100
AcDbEntity
  8
SUNPOU
100
AcDbText
 10
3395.0
 20
210.0
 30
0.0
 40
25.0
  1
ｋｇ
  7
NIHONGO
 72
     2
 11
3445.0
 21
210.0
 31
0.0
100
AcDbText
  0
TEXT
  5
CE
330
1E
100
AcDbEntity
  8
SUNPOU
100
AcDbText
 10
3100.0
 20
162.5000000000001
 30
0.0
 40
25.0
  1
年 月 日
  7
NIHONGO
 72
     4
 11
3155.0
 21
175.0000000000001
 31
0.0
100
AcDbText
  0
TEXT
  5
CF
330
1E
100
AcDbEntity
  8
SUNPOU
100
AcDbText
 10
3098.333333333333
 20
212.5
 30
0.0
 40
25.0
  1
製品質量
  7
NIHONGO
 72
     4
 11
3155.0
 21
225.0
 31
0.0
100
AcDbText
  0
TEXT
  5
D0
330
1E
100
AcDbEntity
  8
SUNPOU
100
AcDbText
 10
3099.166666666667
 20
262.5
 30
0.0
 40
25.0
  1
業 者 名
  7
NIHONGO
 72
     4
 11
3155.0
 21
275.0
 31
0.0
100
AcDbText
  0
TEXT
  5
D1
330
1E
100
AcDbEntity
  8
SUNPOU
100
AcDbText
 10
3098.333333333333
 20
325.0
 30
0.0
 40
25.0
  1
名　　称
  7
NIHONGO
 72
     4
 11
3155.0
 21
337.5
 31
0.0
100
AcDbText
  0
LINE
  5
D2
330
1E
100
AcDbEntity
  8
SUNPOU
100
AcDbLine
 10
3380.0
 20
110.0000000000001
 30
0.0
 11
3080.0
 21
110.0000000000001
 31
0.0
  0
LINE
  5
D3
330
1E
100
AcDbEntity
  8
SUNPOU
100
AcDbLine
 10
3675.0
 20
49.99999999999986
 30
0.0
 11
3675.0
 21
149.9999999999999
 31
0.0
  0
LINE
  5
D4
330
1E
100
AcDbEntity
  8
SUNPOU
100
AcDbLine
 10
3605.0
 20
49.99999999999986
 30
0.0
 11
3605.0
 21
149.9999999999999
 31
0.0
  0
LINE
  5
D5
330
1E
100
AcDbEntity
  8
SUNPOU
100
AcDbLine
 10
3425.0
 20
49.99999999999994
 30
0.0
 11
3425.0
 21
150.0
 31
0.0
  0
LINE
  5
D6
330
1E
100
AcDbEntity
  8
SUNPOU
100
AcDbLine
 10
3380.0
 20
49.99999999999994
 30
0.0
 11
3380.0
 21
150.0
 31
0.0
  0
LINE
  5
D7
330
1E
100
AcDbEntity
  8
SUNPOU
100
AcDbLine
 10
3230.0
 20
150.0000000000001
 30
0.0
 11
3230.0
 21
375.0
 31
0.0
  0
LINE
  5
D8
330
1E
100
AcDbEntity
  8
SUNPOU
100
AcDbLine
 10
3605.0
 20
150.0000000000001
 30
0.0
 11
3605.0
 21
300.0
 31
0.0
  0
LINE
  5
D9
330
1E
100
AcDbEntity
  8
SUNPOU
100
AcDbLine
 10
3455.0
 20
150.0000000000001
 30
0.0
 11
3455.0
 21
300.0
 31
0.0
  0
LINE
  5
DA
330
1E
100
AcDbEntity
  8
SUNPOU
100
AcDbLine
 10
3830.0
 20
300.0
 30
0.0
 11
3080.0
 21
300.0
 31
0.0
  0
LINE
  5
DB
330
1E
100
AcDbEntity
  8
SUNPOU
100
AcDbLine
 10
3830.0
 20
250.0
 30
0.0
 11
3080.0
 21
250.0
 31
0.0
  0
LINE
  5
DC
330
1E
100
AcDbEntity
  8
SUNPOU
100
AcDbLine
 10
3830.0
 20
200.0
 30
0.0
 11
3080.0
 21
200.0
 31
0.0
  0
LINE
  5
DD
330
1E
100
AcDbEntity
  8
SUNPOU
100
AcDbLine
 10
3830.0
 20
149.9999999999999
 30
0.0
 11
3080.0
 21
150.0000000000004
 31
0.0
  0
LINE
  5
DE
330
1E
100
AcDbEntity
  8
HAIKIN
100
AcDbLine
 10
3080.0
 20
375.0
 30
0.0
 11
3830.0
 21
375.0
 31
0.0
  0
LINE
  5
DF
330
1E
100
AcDbEntity
  8
HAIKIN
100
AcDbLine
 10
3080.0
 20
50.00000000000009
 30
0.0
 11
3080.0
 21
375.0
 31
0.0
  0
LINE
  5
E0
330
1E
100
AcDbEntity
  8
SUNPOU
100
AcDbLine
 10
0.0000000000001599
 20
2770.0
 30
0.0
 11
0.0000000000001599
 21
2720.0
 31
0.0
  0
LINE
  5
E1
330
1E
100
AcDbEntity
  8
SUNPOU
100
AcDbLine
 10
250.0000000000001
 20
2770.0
 30
0.0
 11
0.0000000000001599
 21
2770.0
 31
0.0
  0
LINE
  5
E2
330
1E
100
AcDbEntity
  8
SUNPOU
100
AcDbLine
 10
250.0000000000001
 20
2720.0
 30
0.0
 11
250.0000000000001
 21
2770.0
 31
0.0
  0
LINE
  5
E3
330
1E
100
AcDbEntity
  8
HAIKIN
100
AcDbLine
 10
0.0000000000000037
 20
50.0
 30
0.0
 11
3830.0
 21
50.0
 31
0.0
  0
LINE
  5
E4
330
1E
100
AcDbEntity
  8
HAIKIN
100
AcDbLine
 10
0.0000000000001584
 20
2720.0
 30
0.0
 11
3830.0
 21
2720.0
 31
0.0
  0
LINE
  5
E5
330
1E
100
AcDbEntity
  8
HAIKIN
100
AcDbLine
 10
3830.0
 20
2720.0
 30
0.0
 11
3830.0
 21
50.0
 31
0.0
  0
TEXT
  5
E6
330
1E
100
AcDbEntity
  8
SUNPOU
100
AcDbText
 10
37.00000000000016
 20
2730.0
 30
0.0
 40
30.0
  1
Ｈ－２－共
  7
NIHONGO
 72
     4
 11
125.0000000000002
 21
2745.0
 31
0.0
100
AcDbText
  0
LINE
  5
E7
330
1E
100
AcDbEntity
  8
HAIKIN
100
AcDbLine
 10
0.0000000000000037
 20
50.0
 30
0.0
 11
0.0000000000001584
 21
2720.0
 31
0.0
  0
ENDBLK
  5
E8
330
1E
100
AcDbEntity
  8
HAIKIN
100
AcDbBlockEnd
  0
BLOCK
  5
2D8
330
49
100
AcDbEntity
  8
SUNPOU
100
AcDbBlockBegin
  2
*D45
 70
     1
 10
0.0
 20
0.0
 30
0.0
  3
*D45
  1

  0
LINE
  5
2D9
330
49
100
AcDbEntity
  8
0
  6
ByBlock
 62
     0
440
 16777216
100
AcDbLine
 10
3421.188721955592
 20
7696.413555673998
 30
0.0
 11
3421.188721955592
 21
6223.97423434559
 31
0.0
  0
LINE
  5
2DA
330
49
100
AcDbEntity
  8
0
  6
ByBlock
 62
     0
440
 16777216
100
AcDbLine
 10
6671.188721955592
 20
7695.953045484132
 30
0.0
 11
6671.188721955592
 21
6223.97423434559
 31
0.0
  0
LINE
  5
2DB
330
49
100
AcDbEntity
  8
0
  6
ByBlock
 62
     0
440
 16777216
100
AcDbLine
 10
3481.188721955592
 20
6243.97423434559
 30
0.0
 11
6611.188721955592
 21
6243.97423434559
 31
0.0
  0
SOLID
  5
2DC
330
49
100
AcDbEntity
  8
0
  6
ByBlock
 62
     0
440
 16777216
100
AcDbTrace
 10
3481.188721955592
 20
6233.97423434559
 30
0.0
 11
3481.188721955592
 21
6253.97423434559
 31
0.0
 12
3421.188721955592
 22
6243.97423434559
 32
0.0
 13
3421.188721955592
 23
6243.97423434559
 33
0.0
  0
SOLID
  5
2DD
330
49
100
AcDbEntity
  8
0
  6
ByBlock
 62
     0
440
 16777216
100
AcDbTrace
 10
6611.188721955592
 20
6233.97423434559
 30
0.0
 11
6611.188721955592
 21
6253.97423434559
 31
0.0
 12
6671.188721955592
 22
6243.97423434559
 32
0.0
 13
6671.188721955592
 23
6243.97423434559
 33
0.0
  0
TEXT
  5
2DE
330
49
100
AcDbEntity
  8
0
  6
ByBlock
 62
     0
440
 16777216
100
AcDbText
 10
4888.688721955592
 20
6288.97423434559
 30
0.0
 40
90.0
  1
3250
  7
A
100
AcDbText
  0
POINT
  5
2DF
330
49
100
AcDbEntity
  8
DEFPOINTS
  6
ByBlock
 62
     0
440
 16777216
100
AcDbPoint
 10
3421.188721955592
 20
7736.413555673998
 30
0.0
  0
POINT
  5
2E0
330
49
100
AcDbEntity
  8
DEFPOINTS
  6
ByBlock
 62
     0
440
 16777216
100
AcDbPoint
 10
6671.188721955592
 20
7735.953045484132
 30
0.0
  0
POINT
  5
2E1
330
49
100
AcDbEntity
  8
DEFPOINTS
  6
ByBlock
 62
     0
440
 16777216
100
AcDbPoint
 10
6671.188721955592
 20
6243.97423434559
 30
0.0
  0
ENDBLK
  5
2E2
330
49
100
AcDbEntity
  8
SUNPOU
100
AcDbBlockEnd
  0
BLOCK
  5
31B
330
4F
100
AcDbEntity
  8
SUNPOU
100
AcDbBlockBegin
  2
*D51
 70
     1
 10
0.0
 20
0.0
 30
0.0
  3
*D51
  1

  0
LINE
  5
31C
330
4F
100
AcDbEntity
  8
0
  6
ByBlock
 62
     0
440
 16777216
100
AcDbLine
 10
6711.188721955594
 20
10736.413555674
 30
0.0
 11
8264.845648259618
 21
10736.413555674
 31
0.0
  0
LINE
  5
31D
330
4F
100
AcDbEntity
  8
0
  6
ByBlock
 62
     0
440
 16777216
100
AcDbLine
 10
6711.188721955593
 20
8736.413555673998
 30
0.0
 11
8264.845648259618
 21
8736.413555673998
 31
0.0
  0
LINE
  5
31E
330
4F
100
AcDbEntity
  8
0
  6
ByBlock
 62
     0
440
 16777216
100
AcDbLine
 10
8244.845648259618
 20
10676.413555674
 30
0.0
 11
8244.845648259618
 21
8796.413555673998
 31
0.0
  0
SOLID
  5
31F
330
4F
100
AcDbEntity
  8
0
  6
ByBlock
 62
     0
440
 16777216
100
AcDbTrace
 10
8254.845648259618
 20
10676.413555674
 30
0.0
 11
8234.845648259618
 21
10676.413555674
 31
0.0
 12
8244.845648259618
 22
10736.413555674
 32
0.0
 13
8244.845648259618
 23
10736.413555674
 33
0.0
  0
SOLID
  5
320
330
4F
100
AcDbEntity
  8
0
  6
ByBlock
 62
     0
440
 16777216
100
AcDbTrace
 10
8254.845648259618
 20
8796.413555673998
 30
0.0
 11
8234.845648259618
 21
8796.413555673998
 31
0.0
 12
8244.845648259618
 22
8736.413555673998
 32
0.0
 13
8244.845648259618
 23
8736.413555673998
 33
0.0
  0
TEXT
  5
321
330
4F
100
AcDbEntity
  8
0
  6
ByBlock
 62
     0
440
 16777216
100
AcDbText
 10
8199.845648259618
 20
9593.913555673998
 30
0.0
 40
90.0
  1
2000
 50
90.0
  7
A
100
AcDbText
  0
POINT
  5
322
330
4F
100
AcDbEntity
  8
DEFPOINTS
  6
ByBlock
 62
     0
440
 16777216
100
AcDbPoint
 10
6671.188721955594
 20
10736.413555674
 30
0.0
  0
POINT
  5
323
330
4F
100
AcDbEntity
  8
DEFPOINTS
  6
ByBlock
 62
     0
440
 16777216
100
AcDbPoint
 10
6671.188721955593
 20
8736.413555673998
 30
0.0
  0
POINT
  5
324
330
4F
100
AcDbEntity
  8
DEFPOINTS
  6
ByBlock
 62
     0
440
 16777216
100
AcDbPoint
 10
8244.845648259618
 20
8736.413555673998
 30
0.0
  0
ENDBLK
  5
325
330
4F
100
AcDbEntity
  8
SUNPOU
100
AcDbBlockEnd
  0
BLOCK
  5
326
330
50
100
AcDbEntity
  8
SUNPOU
100
AcDbBlockBegin
  2
*D52
 70
     1
 10
0.0
 20
0.0
 30
0.0
  3
*D52
  1

  0
LINE
  5
327
330
50
100
AcDbEntity
  8
0
  6
ByBlock
 62
     0
440
 16777216
100
AcDbLine
 10
8185.658318352155
 20
8736.413555673998
 30
0.0
 11
8264.845648259618
 21
8736.413555673998
 31
0.0
  0
LINE
  5
328
330
50
100
AcDbEntity
  8
0
  6
ByBlock
 62
     0
440
 16777216
100
AcDbLine
 10
6711.188721955592
 20
7735.953045484132
 30
0.0
 11
8264.845648259618
 21
7735.953045484132
 31
0.0
  0
LINE
  5
329
330
50
100
AcDbEntity
  8
0
  6
ByBlock
 62
     0
440
 16777216
100
AcDbLine
 10
8244.845648259618
 20
8676.413555673998
 30
0.0
 11
8244.845648259618
 21
7795.953045484132
 31
0.0
  0
SOLID
  5
32A
330
50
100
AcDbEntity
  8
0
  6
ByBlock
 62
     0
440
 16777216
100
AcDbTrace
 10
8254.845648259618
 20
8676.413555673998
 30
0.0
 11
8234.845648259618
 21
8676.413555673998
 31
0.0
 12
8244.845648259618
 22
8736.413555673998
 32
0.0
 13
8244.845648259618
 23
8736.413555673998
 33
0.0
  0
SOLID
  5
32B
330
50
100
AcDbEntity
  8
0
  6
ByBlock
 62
     0
440
 16777216
100
AcDbTrace
 10
8254.845648259618
 20
7795.953045484132
 30
0.0
 11
8234.845648259618
 21
7795.953045484132
 31
0.0
 12
8244.845648259618
 22
7735.953045484132
 32
0.0
 13
8244.845648259618
 23
7735.953045484132
 33
0.0
  0
TEXT
  5
32C
330
50
100
AcDbEntity
  8
0
  6
ByBlock
 62
     0
440
 16777216
100
AcDbText
 10
8199.845648259618
 20
8108.683300579064
 30
0.0
 40
90.0
  1
1000
 50
90.0
  7
A
100
AcDbText
  0
POINT
  5
32D
330
50
100
AcDbEntity
  8
DEFPOINTS
  6
ByBlock
 62
     0
440
 16777216
100
AcDbPoint
 10
8145.658318352155
 20
8736.413555673998
 30
0.0
  0
POINT
  5
32E
330
50
100
AcDbEntity
  8
DEFPOINTS
  6
ByBlock
 62
     0
440
 16777216
100
AcDbPoint
 10
6671.188721955592
 20
7735.953045484132
 30
0.0
  0
POINT
  5
32F
330
50
100
AcDbEntity
  8
DEFPOINTS
  6
ByBlock
 62
     0
440
 16777216
100
AcDbPoint
 10
8244.845648259618
 20
7735.953045484132
 30
0.0
  0
ENDBLK
  5
330
330
50
100
AcDbEntity
  8
SUNPOU
100
AcDbBlockEnd
  0
BLOCK
  5
434
330
66
100
AcDbEntity
  8
SUNPOU
100
AcDbBlockBegin
  2
*D74
 70
     1
 10
0.0
 20
0.0
 30
0.0
  3
*D74
  1

  0
LINE
  5
435
330
66
100
AcDbEntity
  8
0
  6
ByBlock
 62
     0
440
 16777216
100
AcDbLine
 10
3421.188721955592
 20
5985.292915582863
 30
0.0
 11
3421.188721955592
 21
5935.655859535987
 31
0.0
  0
LINE
  5
436
330
66
100
AcDbEntity
  8
0
  6
ByBlock
 62
     0
440
 16777216
100
AcDbLine
 10
6391.188721955592
 20
6013.966997484518
 30
0.0
 11
6391.188721955592
 21
5935.655859535987
 31
0.0
  0
LINE
  5
437
330
66
100
AcDbEntity
  8
0
  6
ByBlock
 62
     0
440
 16777216
100
AcDbLine
 10
3481.188721955592
 20
5955.655859535987
 30
0.0
 11
6331.188721955592
 21
5955.655859535987
 31
0.0
  0
SOLID
  5
438
330
66
100
AcDbEntity
  8
0
  6
ByBlock
 62
     0
440
 16777216
100
AcDbTrace
 10
3481.188721955592
 20
5945.655859535987
 30
0.0
 11
3481.188721955592
 21
5965.655859535987
 31
0.0
 12
3421.188721955592
 22
5955.655859535987
 32
0.0
 13
3421.188721955592
 23
5955.655859535987
 33
0.0
  0
SOLID
  5
439
330
66
100
AcDbEntity
  8
0
  6
ByBlock
 62
     0
440
 16777216
100
AcDbTrace
 10
6331.188721955592
 20
5945.655859535987
 30
0.0
 11
6331.188721955592
 21
5965.655859535987
 31
0.0
 12
6391.188721955592
 22
5955.655859535987
 32
0.0
 13
6391.188721955592
 23
5955.655859535987
 33
0.0
  0
TEXT
  5
43A
330
66
100
AcDbEntity
  8
0
  6
ByBlock
 62
     0
440
 16777216
100
AcDbText
 10
4748.688721955592
 20
6000.655859535987
 30
0.0
 40
90.0
  1
2970
  7
A
100
AcDbText
  0
POINT
  5
43B
330
66
100
AcDbEntity
  8
DEFPOINTS
  6
ByBlock
 62
     0
440
 16777216
100
AcDbPoint
 10
3421.188721955592
 20
6025.292915582863
 30
0.0
  0
POINT
  5
43C
330
66
100
AcDbEntity
  8
DEFPOINTS
  6
ByBlock
 62
     0
440
 16777216
100
AcDbPoint
 10
6391.188721955592
 20
6053.966997484518
 30
0.0
  0
POINT
  5
43D
330
66
100
AcDbEntity
  8
DEFPOINTS
  6
ByBlock
 62
     0
440
 16777216
100
AcDbPoint
 10
6391.188721955592
 20
5955.655859535987
 30
0.0
  0
ENDBLK
  5
43E
330
66
100
AcDbEntity
  8
SUNPOU
100
AcDbBlockEnd
  0
BLOCK
  5
43F
330
67
100
AcDbEntity
  8
SUNPOU
100
AcDbBlockBegin
  2
*D75
 70
     1
 10
0.0
 20
0.0
 30
0.0
  3
*D75
  1

  0
LINE
  5
440
330
67
100
AcDbEntity
  8
0
  6
ByBlock
 62
     0
440
 16777216
100
AcDbLine
 10
6671.188721955592
 20
6161.433704407314
 30
0.0
 11
6671.188721955592
 21
5935.655859535987
 31
0.0
  0
LINE
  5
441
330
67
100
AcDbEntity
  8
0
  6
ByBlock
 62
     0
440
 16777216
100
AcDbLine
 10
6391.188721955592
 20
7105.50726257929
 30
0.0
 11
6391.188721955592
 21
5935.655859535987
 31
0.0
  0
LINE
  5
442
330
67
100
AcDbEntity
  8
0
  6
ByBlock
 62
     0
440
 16777216
100
AcDbLine
 10
6611.188721955592
 20
5955.655859535987
 30
0.0
 11
6451.188721955592
 21
5955.655859535987
 31
0.0
  0
SOLID
  5
443
330
67
100
AcDbEntity
  8
0
  6
ByBlock
 62
     0
440
 16777216
100
AcDbTrace
 10
6611.188721955592
 20
5945.655859535987
 30
0.0
 11
6611.188721955592
 21
5965.655859535987
 31
0.0
 12
6671.188721955592
 22
5955.655859535987
 32
0.0
 13
6671.188721955592
 23
5955.655859535987
 33
0.0
  0
SOLID
  5
444
330
67
100
AcDbEntity
  8
0
  6
ByBlock
 62
     0
440
 16777216
100
AcDbTrace
 10
6451.188721955592
 20
5945.655859535987
 30
0.0
 11
6451.188721955592
 21
5965.655859535987
 31
0.0
 12
6391.188721955592
 22
5955.655859535987
 32
0.0
 13
6391.188721955592
 23
5955.655859535987
 33
0.0
  0
TEXT
  5
445
330
67
100
AcDbEntity
  8
0
  6
ByBlock
 62
     0
440
 16777216
100
AcDbText
 10
6418.688721955592
 20
6000.655859535987
 30
0.0
 40
90.0
  1
280
  7
A
100
AcDbText
  0
POINT
  5
446
330
67
100
AcDbEntity
  8
DEFPOINTS
  6
ByBlock
 62
     0
440
 16777216
100
AcDbPoint
 10
6671.188721955592
 20
6201.433704407314
 30
0.0
  0
POINT
  5
447
330
67
100
AcDbEntity
  8
DEFPOINTS
  6
ByBlock
 62
     0
440
 16777216
100
AcDbPoint
 10
6391.188721955592
 20
7145.50726257929
 30
0.0
  0
POINT
  5
448
330
67
100
AcDbEntity
  8
DEFPOINTS
  6
ByBlock
 62
     0
440
 16777216
100
AcDbPoint
 10
6391.188721955592
 20
5955.655859535987
 30
0.0
  0
ENDBLK
  5
449
330
67
100
AcDbEntity
  8
SUNPOU
100
AcDbBlockEnd
  0
BLOCK
  5
44A
330
68
100
AcDbEntity
  8
SUNPOU
100
AcDbBlockBegin
  2
*D76
 70
     1
 10
0.0
 20
0.0
 30
0.0
  3
*D76
  1

  0
LINE
  5
44B
330
68
100
AcDbEntity
  8
0
  6
ByBlock
 62
     0
440
 16777216
100
AcDbLine
 10
3381.188721955592
 20
7158.059141917517
 30
0.0
 11
2682.944796372864
 21
7158.059141917517
 31
0.0
  0
LINE
  5
44C
330
68
100
AcDbEntity
  8
0
  6
ByBlock
 62
     0
440
 16777216
100
AcDbLine
 10
3381.188721955592
 20
7227.598631727652
 30
0.0
 11
2682.944796372864
 21
7227.598631727652
 31
0.0
  0
LINE
  5
44D
330
68
100
AcDbEntity
  8
0
  6
ByBlock
 62
     0
440
 16777216
100
AcDbLine
 10
2702.944796372864
 20
7287.598631727652
 30
0.0
 11
2702.944796372864
 21
7347.598631727652
 31
0.0
  0
LINE
  5
44E
330
68
100
AcDbEntity
  8
0
  6
ByBlock
 62
     0
440
 16777216
100
AcDbLine
 10
2702.944796372864
 20
7098.059141917517
 30
0.0
 11
2702.944796372864
 21
7038.059141917517
 31
0.0
  0
SOLID
  5
44F
330
68
100
AcDbEntity
  8
0
  6
ByBlock
 62
     0
440
 16777216
100
AcDbTrace
 10
2712.944796372864
 20
7287.598631727652
 30
0.0
 11
2692.944796372864
 21
7287.598631727652
 31
0.0
 12
2702.944796372864
 22
7227.598631727652
 32
0.0
 13
2702.944796372864
 23
7227.598631727652
 33
0.0
  0
SOLID
  5
450
330
68
100
AcDbEntity
  8
0
  6
ByBlock
 62
     0
440
 16777216
100
AcDbTrace
 10
2712.944796372864
 20
7098.059141917517
 30
0.0
 11
2692.944796372864
 21
7098.059141917517
 31
0.0
 12
2702.944796372864
 22
7158.059141917517
 32
0.0
 13
2702.944796372864
 23
7158.059141917517
 33
0.0
  0
LINE
  5
451
330
68
100
AcDbEntity
  8
0
  6
ByBlock
 62
     0
440
 16777216
100
AcDbLine
 10
2702.944796372864
 20
7227.598631727652
 30
0.0
 11
2702.944796372864
 21
7158.059141917517
 31
0.0
  0
TEXT
  5
452
330
68
100
AcDbEntity
  8
0
  6
ByBlock
 62
     0
440
 16777216
100
AcDbText
 10
2657.944796372864
 20
7061.933162644347
 30
0.0
 40
90.0
  1
70
 50
90.0
  7
A
100
AcDbText
  0
POINT
  5
453
330
68
100
AcDbEntity
  8
DEFPOINTS
  6
ByBlock
 62
     0
440
 16777216
100
AcDbPoint
 10
3421.188721955592
 20
7158.059141917517
 30
0.0
  0
POINT
  5
454
330
68
100
AcDbEntity
  8
DEFPOINTS
  6
ByBlock
 62
     0
440
 16777216
100
AcDbPoint
 10
3421.188721955592
 20
7227.598631727652
 30
0.0
  0
POINT
  5
455
330
68
100
AcDbEntity
  8
DEFPOINTS
  6
ByBlock
 62
     0
440
 16777216
100
AcDbPoint
 10
2702.944796372864
 20
7227.598631727652
 30
0.0
  0
ENDBLK
  5
456
330
68
100
AcDbEntity
  8
SUNPOU
100
AcDbBlockEnd
  0
BLOCK
  5
457
330
69
100
AcDbEntity
  8
SUNPOU
100
AcDbBlockBegin
  2
*D77
 70
     1
 10
0.0
 20
0.0
 30
0.0
  3
*D77
  1

  0
LINE
  5
458
330
69
100
AcDbEntity
  8
0
  6
ByBlock
 62
     0
440
 16777216
100
AcDbLine
 10
3381.188721955592
 20
7227.598631727652
 30
0.0
 11
2682.944796372864
 21
7227.598631727652
 31
0.0
  0
LINE
  5
459
330
69
100
AcDbEntity
  8
0
  6
ByBlock
 62
     0
440
 16777216
100
AcDbLine
 10
3381.188721955592
 20
7327.598631727652
 30
0.0
 11
2682.944796372864
 21
7327.598631727652
 31
0.0
  0
LINE
  5
45A
330
69
100
AcDbEntity
  8
0
  6
ByBlock
 62
     0
440
 16777216
100
AcDbLine
 10
2702.944796372864
 20
7387.598631727652
 30
0.0
 11
2702.944796372864
 21
7447.598631727652
 31
0.0
  0
LINE
  5
45B
330
69
100
AcDbEntity
  8
0
  6
ByBlock
 62
     0
440
 16777216
100
AcDbLine
 10
2702.944796372864
 20
7167.598631727652
 30
0.0
 11
2702.944796372864
 21
7107.598631727652
 31
0.0
  0
SOLID
  5
45C
330
69
100
AcDbEntity
  8
0
  6
ByBlock
 62
     0
440
 16777216
100
AcDbTrace
 10
2712.944796372864
 20
7387.598631727652
 30
0.0
 11
2692.944796372864
 21
7387.598631727652
 31
0.0
 12
2702.944796372864
 22
7327.598631727652
 32
0.0
 13
2702.944796372864
 23
7327.598631727652
 33
0.0
  0
SOLID
  5
45D
330
69
100
AcDbEntity
  8
0
  6
ByBlock
 62
     0
440
 16777216
100
AcDbTrace
 10
2712.944796372864
 20
7167.598631727652
 30
0.0
 11
2692.944796372864
 21
7167.598631727652
 31
0.0
 12
2702.944796372864
 22
7227.598631727652
 32
0.0
 13
2702.944796372864
 23
7227.598631727652
 33
0.0
  0
LINE
  5
45E
330
69
100
AcDbEntity
  8
0
  6
ByBlock
 62
     0
440
 16777216
100
AcDbLine
 10
2702.944796372864
 20
7327.598631727652
 30
0.0
 11
2702.944796372864
 21
7227.598631727652
 31
0.0
  0
TEXT
  5
45F
330
69
100
AcDbEntity
  8
0
  6
ByBlock
 62
     0
440
 16777216
100
AcDbText
 10
2657.944796372864
 20
7321.721917220591
 30
0.0
 40
90.0
  1
100
 50
90.0
  7
A
100
AcDbText
  0
POINT
  5
460
330
69
100
AcDbEntity
  8
DEFPOINTS
  6
ByBlock
 62
     0
440
 16777216
100
AcDbPoint
 10
3421.188721955592
 20
7227.598631727652
 30
0.0
  0
POINT
  5
461
330
69
100
AcDbEntity
  8
DEFPOINTS
  6
ByBlock
 62
     0
440
 16777216
100
AcDbPoint
 10
3421.188721955592
 20
7327.598631727652
 30
0.0
  0
POINT
  5
462
330
69
100
AcDbEntity
  8
DEFPOINTS
  6
ByBlock
 62
     0
440
 16777216
100
AcDbPoint
 10
2702.944796372864
 20
7327.598631727652
 30
0.0
  0
ENDBLK
  5
463
330
69
100
AcDbEntity
  8
SUNPOU
100
AcDbBlockEnd
  0
BLOCK
  5
464
330
6A
100
AcDbEntity
  8
SUNPOU
100
AcDbBlockBegin
  2
*D78
 70
     1
 10
0.0
 20
0.0
 30
0.0
  3
*D78
  1

  0
LINE
  5
465
330
6A
100
AcDbEntity
  8
0
  6
ByBlock
 62
     0
440
 16777216
100
AcDbLine
 10
2741.051098954343
 20
7158.059141917517
 30
0.0
 11
2373.774015321181
 21
7158.059141917517
 31
0.0
  0
LINE
  5
466
330
6A
100
AcDbEntity
  8
0
  6
ByBlock
 62
     0
440
 16777216
100
AcDbLine
 10
2741.051098954343
 20
7328.059141917517
 30
0.0
 11
2373.774015321181
 21
7328.059141917517
 31
0.0
  0
LINE
  5
467
330
6A
100
AcDbEntity
  8
0
  6
ByBlock
 62
     0
440
 16777216
100
AcDbLine
 10
2393.774015321181
 20
7218.059141917517
 30
0.0
 11
2393.774015321181
 21
7243.059141917517
 31
0.0
  0
LINE
  5
468
330
6A
100
AcDbEntity
  8
0
  6
ByBlock
 62
     0
440
 16777216
100
AcDbLine
 10
2393.774015321181
 20
7268.059141917517
 30
0.0
 11
2393.774015321181
 21
7243.059141917517
 31
0.0
  0
SOLID
  5
469
330
6A
100
AcDbEntity
  8
0
  6
ByBlock
 62
     0
440
 16777216
100
AcDbTrace
 10
2403.774015321181
 20
7218.059141917517
 30
0.0
 11
2383.774015321181
 21
7218.059141917517
 31
0.0
 12
2393.774015321181
 22
7158.059141917517
 32
0.0
 13
2393.774015321181
 23
7158.059141917517
 33
0.0
  0
SOLID
  5
46A
330
6A
100
AcDbEntity
  8
0
  6
ByBlock
 62
     0
440
 16777216
100
AcDbTrace
 10
2403.774015321181
 20
7268.059141917517
 30
0.0
 11
2383.774015321181
 21
7268.059141917517
 31
0.0
 12
2393.774015321181
 22
7328.059141917517
 32
0.0
 13
2393.774015321181
 23
7328.059141917517
 33
0.0
  0
TEXT
  5
46B
330
6A
100
AcDbEntity
  8
0
  6
ByBlock
 62
     0
440
 16777216
100
AcDbText
 10
2348.774015321181
 20
7191.74262775638
 30
0.0
 40
90.0
  1
170
 50
90.0
  7
A
100
AcDbText
  0
POINT
  5
46C
330
6A
100
AcDbEntity
  8
DEFPOINTS
  6
ByBlock
 62
     0
440
 16777216
100
AcDbPoint
 10
2781.051098954343
 20
7158.059141917517
 30
0.0
  0
POINT
  5
46D
330
6A
100
AcDbEntity
  8
DEFPOINTS
  6
ByBlock
 62
     0
440
 16777216
100
AcDbPoint
 10
2781.051098954343
 20
7328.059141917517
 30
0.0
  0
POINT
  5
46E
330
6A
100
AcDbEntity
  8
DEFPOINTS
  6
ByBlock
 62
     0
440
 16777216
100
AcDbPoint
 10
2393.774015321181
 20
7328.059141917517
 30
0.0
  0
ENDBLK
  5
46F
330
6A
100
AcDbEntity
  8
SUNPOU
100
AcDbBlockEnd
  0
BLOCK
  5
4A8
330
70
100
AcDbEntity
  8
SUNPOU
100
AcDbBlockBegin
  2
*D84
 70
     1
 10
0.0
 20
0.0
 30
0.0
  3
*D84
  1

  0
LINE
  5
4A9
330
70
100
AcDbEntity
  8
0
  6
ByBlock
 62
     0
440
 16777216
100
AcDbLine
 10
7846.381945620185
 20
7438.059141917518
 30
0.0
 11
7892.893161106631
 21
7438.059141917518
 31
0.0
  0
LINE
  5
4AA
330
70
100
AcDbEntity
  8
0
  6
ByBlock
 62
     0
440
 16777216
100
AcDbLine
 10
7868.44967779129
 20
7157.598631727651
 30
0.0
 11
7892.89316110663
 21
7157.598631727651
 31
0.0
  0
LINE
  5
4AB
330
70
100
AcDbEntity
  8
0
  6
ByBlock
 62
     0
440
 16777216
100
AcDbLine
 10
7872.89316110663
 20
7378.059141917518
 30
0.0
 11
7872.89316110663
 21
7217.598631727651
 31
0.0
  0
SOLID
  5
4AC
330
70
100
AcDbEntity
  8
0
  6
ByBlock
 62
     0
440
 16777216
100
AcDbTrace
 10
7882.893161106631
 20
7378.059141917518
 30
0.0
 11
7862.893161106631
 21
7378.059141917518
 31
0.0
 12
7872.893161106631
 22
7438.059141917518
 32
0.0
 13
7872.893161106631
 23
7438.059141917518
 33
0.0
  0
SOLID
  5
4AD
330
70
100
AcDbEntity
  8
0
  6
ByBlock
 62
     0
440
 16777216
100
AcDbTrace
 10
7882.89316110663
 20
7217.598631727651
 30
0.0
 11
7862.89316110663
 21
7217.598631727651
 31
0.0
 12
7872.89316110663
 22
7157.598631727651
 32
0.0
 13
7872.89316110663
 23
7157.598631727651
 33
0.0
  0
TEXT
  5
4AE
330
70
100
AcDbEntity
  8
0
  6
ByBlock
 62
     0
440
 16777216
100
AcDbText
 10
7827.89316110663
 20
7185.328886822585
 30
0.0
 40
90.0
  1
280
 50
90.0
  7
A
100
AcDbText
  0
POINT
  5
4AF
330
70
100
AcDbEntity
  8
DEFPOINTS
  6
ByBlock
 62
     0
440
 16777216
100
AcDbPoint
 10
7806.381945620185
 20
7438.059141917518
 30
0.0
  0
POINT
  5
4B0
330
70
100
AcDbEntity
  8
DEFPOINTS
  6
ByBlock
 62
     0
440
 16777216
100
AcDbPoint
 10
7828.44967779129
 20
7157.598631727651
 30
0.0
  0
POINT
  5
4B1
330
70
100
AcDbEntity
  8
DEFPOINTS
  6
ByBlock
 62
     0
440
 16777216
100
AcDbPoint
 10
7872.89316110663
 20
7157.598631727651
 30
0.0
  0
ENDBLK
  5
4B2
330
70
100
AcDbEntity
  8
SUNPOU
100
AcDbBlockEnd
  0
BLOCK
  5
4B3
330
71
100
AcDbEntity
  8
SUNPOU
100
AcDbBlockBegin
  2
*D85
 70
     1
 10
0.0
 20
0.0
 30
0.0
  3
*D85
  1

  0
LINE
  5
4B4
330
71
100
AcDbEntity
  8
0
  6
ByBlock
 62
     0
440
 16777216
100
AcDbLine
 10
7662.48417752764
 20
8158.059141917518
 30
0.0
 11
7892.893161106631
 21
8158.059141917518
 31
0.0
  0
LINE
  5
4B5
330
71
100
AcDbEntity
  8
0
  6
ByBlock
 62
     0
440
 16777216
100
AcDbLine
 10
6713.571694170109
 20
7438.059141917518
 30
0.0
 11
7892.893161106631
 21
7438.059141917517
 31
0.0
  0
LINE
  5
4B6
330
71
100
AcDbEntity
  8
0
  6
ByBlock
 62
     0
440
 16777216
100
AcDbLine
 10
7872.893161106631
 20
8098.059141917518
 30
0.0
 11
7872.893161106631
 21
7498.059141917517
 31
0.0
  0
SOLID
  5
4B7
330
71
100
AcDbEntity
  8
0
  6
ByBlock
 62
     0
440
 16777216
100
AcDbTrace
 10
7882.893161106631
 20
8098.059141917518
 30
0.0
 11
7862.893161106631
 21
8098.059141917518
 31
0.0
 12
7872.893161106631
 22
8158.059141917518
 32
0.0
 13
7872.893161106631
 23
8158.059141917518
 33
0.0
  0
SOLID
  5
4B8
330
71
100
AcDbEntity
  8
0
  6
ByBlock
 62
     0
440
 16777216
100
AcDbTrace
 10
7882.893161106631
 20
7498.059141917517
 30
0.0
 11
7862.893161106631
 21
7498.059141917517
 31
0.0
 12
7872.893161106631
 22
7438.059141917517
 32
0.0
 13
7872.893161106631
 23
7438.059141917517
 33
0.0
  0
TEXT
  5
4B9
330
71
100
AcDbEntity
  8
0
  6
ByBlock
 62
     0
440
 16777216
100
AcDbText
 10
7827.893161106631
 20
7685.559141917517
 30
0.0
 40
90.0
  1
720
 50
90.0
  7
A
100
AcDbText
  0
POINT
  5
4BA
330
71
100
AcDbEntity
  8
DEFPOINTS
  6
ByBlock
 62
     0
440
 16777216
100
AcDbPoint
 10
7622.48417752764
 20
8158.059141917518
 30
0.0
  0
POINT
  5
4BB
330
71
100
AcDbEntity
  8
DEFPOINTS
  6
ByBlock
 62
     0
440
 16777216
100
AcDbPoint
 10
6673.571694170109
 20
7438.059141917518
 30
0.0
  0
POINT
  5
4BC
330
71
100
AcDbEntity
  8
DEFPOINTS
  6
ByBlock
 62
     0
440
 16777216
100
AcDbPoint
 10
7872.893161106631
 20
7438.059141917517
 30
0.0
  0
ENDBLK
  5
4BD
330
71
100
AcDbEntity
  8
SUNPOU
100
AcDbBlockEnd
  0
BLOCK
  5
4E0
330
75
100
AcDbEntity
  8
SUNPOU
100
AcDbBlockBegin
  2
*D89
 70
     1
 10
0.0
 20
0.0
 30
0.0
  3
*D89
  1

  0
LINE
  5
4E1
330
75
100
AcDbEntity
  8
0
  6
ByBlock
 62
     0
440
 16777216
100
AcDbLine
 10
13424.51232522181
 20
9408.059141917518
 30
0.0
 11
15037.46021981799
 21
9408.059141917516
 31
0.0
  0
LINE
  5
4E2
330
75
100
AcDbEntity
  8
0
  6
ByBlock
 62
     0
440
 16777216
100
AcDbLine
 10
13474.51232522181
 20
7158.059141917519
 30
0.0
 11
15037.46021981799
 21
7158.059141917519
 31
0.0
  0
LINE
  5
4E3
330
75
100
AcDbEntity
  8
0
  6
ByBlock
 62
     0
440
 16777216
100
AcDbLine
 10
15017.46021981799
 20
9348.059141917516
 30
0.0
 11
15017.46021981799
 21
7218.059141917519
 31
0.0
  0
SOLID
  5
4E4
330
75
100
AcDbEntity
  8
0
  6
ByBlock
 62
     0
440
 16777216
100
AcDbTrace
 10
15027.46021981799
 20
9348.059141917516
 30
0.0
 11
15007.46021981799
 21
9348.059141917516
 31
0.0
 12
15017.46021981799
 22
9408.059141917516
 32
0.0
 13
15017.46021981799
 23
9408.059141917516
 33
0.0
  0
SOLID
  5
4E5
330
75
100
AcDbEntity
  8
0
  6
ByBlock
 62
     0
440
 16777216
100
AcDbTrace
 10
15027.46021981799
 20
7218.059141917519
 30
0.0
 11
15007.46021981799
 21
7218.059141917519
 31
0.0
 12
15017.46021981799
 22
7158.059141917519
 32
0.0
 13
15017.46021981799
 23
7158.059141917519
 33
0.0
  0
TEXT
  5
4E6
330
75
100
AcDbEntity
  8
0
  6
ByBlock
 62
     0
440
 16777216
100
AcDbText
 10
14972.46021981799
 20
8125.559141917517
 30
0.0
 40
90.0
  1
2250
 50
90.0
  7
A
100
AcDbText
  0
POINT
  5
4E7
330
75
100
AcDbEntity
  8
DEFPOINTS
  6
ByBlock
 62
     0
440
 16777216
100
AcDbPoint
 10
13384.51232522181
 20
9408.059141917518
 30
0.0
  0
POINT
  5
4E8
330
75
100
AcDbEntity
  8
DEFPOINTS
  6
ByBlock
 62
     0
440
 16777216
100
AcDbPoint
 10
13434.51232522181
 20
7158.059141917519
 30
0.0
  0
POINT
  5
4E9
330
75
100
AcDbEntity
  8
DEFPOINTS
  6
ByBlock
 62
     0
440
 16777216
100
AcDbPoint
 10
15017.46021981799
 20
7158.059141917519
 30
0.0
  0
ENDBLK
  5
4EA
330
75
100
AcDbEntity
  8
SUNPOU
100
AcDbBlockEnd
  0
BLOCK
  5
4EB
330
76
100
AcDbEntity
  8
SUNPOU
100
AcDbBlockBegin
  2
*D90
 70
     1
 10
0.0
 20
0.0
 30
0.0
  3
*D90
  1

  0
LINE
  5
4EC
330
76
100
AcDbEntity
  8
0
  6
ByBlock
 62
     0
440
 16777216
100
AcDbLine
 10
10434.51232522181
 20
10198.05914191752
 30
0.0
 11
10434.51232522181
 21
11156.68089528836
 31
0.0
  0
LINE
  5
4ED
330
76
100
AcDbEntity
  8
0
  6
ByBlock
 62
     0
440
 16777216
100
AcDbLine
 10
12684.51232522181
 20
10148.05914191752
 30
0.0
 11
12684.51232522181
 21
11156.68089528836
 31
0.0
  0
LINE
  5
4EE
330
76
100
AcDbEntity
  8
0
  6
ByBlock
 62
     0
440
 16777216
100
AcDbLine
 10
10494.51232522181
 20
11136.68089528836
 30
0.0
 11
12624.51232522181
 21
11136.68089528836
 31
0.0
  0
SOLID
  5
4EF
330
76
100
AcDbEntity
  8
0
  6
ByBlock
 62
     0
440
 16777216
100
AcDbTrace
 10
10494.51232522181
 20
11126.68089528836
 30
0.0
 11
10494.51232522181
 21
11146.68089528836
 31
0.0
 12
10434.51232522181
 22
11136.68089528836
 32
0.0
 13
10434.51232522181
 23
11136.68089528836
 33
0.0
  0
SOLID
  5
4F0
330
76
100
AcDbEntity
  8
0
  6
ByBlock
 62
     0
440
 16777216
100
AcDbTrace
 10
12624.51232522181
 20
11126.68089528836
 30
0.0
 11
12624.51232522181
 21
11146.68089528836
 31
0.0
 12
12684.51232522181
 22
11136.68089528836
 32
0.0
 13
12684.51232522181
 23
11136.68089528836
 33
0.0
  0
TEXT
  5
4F1
330
76
100
AcDbEntity
  8
0
  6
ByBlock
 62
     0
440
 16777216
100
AcDbText
 10
11402.01232522181
 20
11181.68089528836
 30
0.0
 40
90.0
  1
2250
  7
A
100
AcDbText
  0
POINT
  5
4F2
330
76
100
AcDbEntity
  8
DEFPOINTS
  6
ByBlock
 62
     0
440
 16777216
100
AcDbPoint
 10
10434.51232522181
 20
10158.05914191752
 30
0.0
  0
POINT
  5
4F3
330
76
100
AcDbEntity
  8
DEFPOINTS
  6
ByBlock
 62
     0
440
 16777216
100
AcDbPoint
 10
12684.51232522181
 20
10108.05914191752
 30
0.0
  0
POINT
  5
4F4
330
76
100
AcDbEntity
  8
DEFPOINTS
  6
ByBlock
 62
     0
440
 16777216
100
AcDbPoint
 10
12684.51232522181
 20
11136.68089528836
 30
0.0
  0
ENDBLK
  5
4F5
330
76
100
AcDbEntity
  8
SUNPOU
100
AcDbBlockEnd
  0
BLOCK
  5
550
330
7F
100
AcDbEntity
  8
SUNPOU
100
AcDbBlockBegin
  2
*D99
 70
     1
 10
0.0
 20
0.0
 30
0.0
  3
*D99
  1

  0
LINE
  5
551
330
7F
100
AcDbEntity
  8
0
  6
ByBlock
 62
     0
440
 16777216
100
AcDbLine
 10
10474.51232522181
 20
10158.05914191752
 30
0.0
 11
15037.46021981799
 21
10158.05914191751
 31
0.0
  0
LINE
  5
552
330
7F
100
AcDbEntity
  8
0
  6
ByBlock
 62
     0
440
 16777216
100
AcDbLine
 10
12724.51232522181
 20
10108.05914191752
 30
0.0
 11
15037.46021981799
 21
10108.05914191752
 31
0.0
  0
LINE
  5
553
330
7F
100
AcDbEntity
  8
0
  6
ByBlock
 62
     0
440
 16777216
100
AcDbLine
 10
15017.46021981799
 20
10048.05914191752
 30
0.0
 11
15017.46021981799
 21
9988.059141917518
 31
0.0
  0
LINE
  5
554
330
7F
100
AcDbEntity
  8
0
  6
ByBlock
 62
     0
440
 16777216
100
AcDbLine
 10
15017.46021981799
 20
10218.05914191751
 30
0.0
 11
15017.46021981799
 21
10278.05914191751
 31
0.0
  0
SOLID
  5
555
330
7F
100
AcDbEntity
  8
0
  6
ByBlock
 62
     0
440
 16777216
100
AcDbTrace
 10
15027.46021981799
 20
10048.05914191752
 30
0.0
 11
15007.46021981799
 21
10048.05914191752
 31
0.0
 12
15017.46021981799
 22
10108.05914191752
 32
0.0
 13
15017.46021981799
 23
10108.05914191752
 33
0.0
  0
SOLID
  5
556
330
7F
100
AcDbEntity
  8
0
  6
ByBlock
 62
     0
440
 16777216
100
AcDbTrace
 10
15027.46021981799
 20
10218.05914191751
 30
0.0
 11
15007.46021981799
 21
10218.05914191751
 31
0.0
 12
15017.46021981799
 22
10158.05914191751
 32
0.0
 13
15017.46021981799
 23
10158.05914191751
 33
0.0
  0
LINE
  5
557
330
7F
100
AcDbEntity
  8
0
  6
ByBlock
 62
     0
440
 16777216
100
AcDbLine
 10
15017.46021981799
 20
10108.05914191752
 30
0.0
 11
15017.46021981799
 21
10158.05914191751
 31
0.0
  0
TEXT
  5
558
330
7F
100
AcDbEntity
  8
0
  6
ByBlock
 62
     0
440
 16777216
100
AcDbText
 10
14972.46021981799
 20
10209.81098345701
 30
0.0
 40
90.0
  1
50
 50
90.0
  7
A
100
AcDbText
  0
POINT
  5
559
330
7F
100
AcDbEntity
  8
DEFPOINTS
  6
ByBlock
 62
     0
440
 16777216
100
AcDbPoint
 10
10434.51232522181
 20
10158.05914191752
 30
0.0
  0
POINT
  5
55A
330
7F
100
AcDbEntity
  8
DEFPOINTS
  6
ByBlock
 62
     0
440
 16777216
100
AcDbPoint
 10
12684.51232522181
 20
10108.05914191752
 30
0.0
  0
POINT
  5
55B
330
7F
100
AcDbEntity
  8
DEFPOINTS
  6
ByBlock
 62
     0
440
 16777216
100
AcDbPoint
 10
15017.46021981799
 20
10108.05914191752
 30
0.0
  0
ENDBLK
  5
55C
330
7F
100
AcDbEntity
  8
SUNPOU
100
AcDbBlockEnd
  0
BLOCK
  5
55D
330
80
100
AcDbEntity
  8
SUNPOU
100
AcDbBlockBegin
  2
*D100
 70
     1
 10
0.0
 20
0.0
 30
0.0
  3
*D100
  1

  0
LINE
  5
55E
330
80
100
AcDbEntity
  8
0
  6
ByBlock
 62
     0
440
 16777216
100
AcDbLine
 10
14854.93176689482
 20
10108.05914191752
 30
0.0
 11
15037.46021981799
 21
10108.05914191752
 31
0.0
  0
LINE
  5
55F
330
80
100
AcDbEntity
  8
0
  6
ByBlock
 62
     0
440
 16777216
100
AcDbLine
 10
12724.51232522181
 20
9443.414480976842
 30
0.0
 11
15037.46021981799
 21
9443.41448097684
 31
0.0
  0
LINE
  5
560
330
80
100
AcDbEntity
  8
0
  6
ByBlock
 62
     0
440
 16777216
100
AcDbLine
 10
15017.46021981799
 20
10048.05914191752
 30
0.0
 11
15017.46021981799
 21
9503.41448097684
 31
0.0
  0
SOLID
  5
561
330
80
100
AcDbEntity
  8
0
  6
ByBlock
 62
     0
440
 16777216
100
AcDbTrace
 10
15027.46021981799
 20
10048.05914191752
 30
0.0
 11
15007.46021981799
 21
10048.05914191752
 31
0.0
 12
15017.46021981799
 22
10108.05914191752
 32
0.0
 13
15017.46021981799
 23
10108.05914191752
 33
0.0
  0
SOLID
  5
562
330
80
100
AcDbEntity
  8
0
  6
ByBlock
 62
     0
440
 16777216
100
AcDbTrace
 10
15027.46021981799
 20
9503.41448097684
 30
0.0
 11
15007.46021981799
 21
9503.41448097684
 31
0.0
 12
15017.46021981799
 22
9443.41448097684
 32
0.0
 13
15017.46021981799
 23
9443.41448097684
 33
0.0
  0
TEXT
  5
563
330
80
100
AcDbEntity
  8
0
  6
ByBlock
 62
     0
440
 16777216
100
AcDbText
 10
14972.46021981799
 20
9655.736811447177
 30
0.0
 40
90.0
  1
665
 50
90.0
  7
A
100
AcDbText
  0
POINT
  5
564
330
80
100
AcDbEntity
  8
DEFPOINTS
  6
ByBlock
 62
     0
440
 16777216
100
AcDbPoint
 10
14814.93176689482
 20
10108.05914191752
 30
0.0
  0
POINT
  5
565
330
80
100
AcDbEntity
  8
DEFPOINTS
  6
ByBlock
 62
     0
440
 16777216
100
AcDbPoint
 10
12684.51232522181
 20
9443.414480976842
 30
0.0
  0
POINT
  5
566
330
80
100
AcDbEntity
  8
DEFPOINTS
  6
ByBlock
 62
     0
440
 16777216
100
AcDbPoint
 10
15017.46021981799
 20
9443.41448097684
 30
0.0
  0
ENDBLK
  5
567
330
80
100
AcDbEntity
  8
SUNPOU
100
AcDbBlockEnd
  0
BLOCK
  5
57F
330
84
100
AcDbEntity
  8
SUNPOU
100
AcDbBlockBegin
  2
*D104
 70
     1
 10
0.0
 20
0.0
 30
0.0
  3
*D104
  1

  0
LINE
  5
580
330
84
100
AcDbEntity
  8
0
  6
ByBlock
 62
     0
440
 16777216
100
AcDbLine
 10
13434.51232522181
 20
7118.059141917519
 30
0.0
 11
13434.51232522181
 21
6309.670709548401
 31
0.0
  0
LINE
  5
581
330
84
100
AcDbEntity
  8
0
  6
ByBlock
 62
     0
440
 16777216
100
AcDbLine
 10
11434.51232522181
 20
7118.059141917519
 30
0.0
 11
11434.51232522181
 21
6309.670709548401
 31
0.0
  0
LINE
  5
582
330
84
100
AcDbEntity
  8
0
  6
ByBlock
 62
     0
440
 16777216
100
AcDbLine
 10
13374.51232522181
 20
6329.670709548401
 30
0.0
 11
11494.51232522181
 21
6329.670709548401
 31
0.0
  0
SOLID
  5
583
330
84
100
AcDbEntity
  8
0
  6
ByBlock
 62
     0
440
 16777216
100
AcDbTrace
 10
13374.51232522181
 20
6319.670709548401
 30
0.0
 11
13374.51232522181
 21
6339.670709548401
 31
0.0
 12
13434.51232522181
 22
6329.670709548401
 32
0.0
 13
13434.51232522181
 23
6329.670709548401
 33
0.0
  0
SOLID
  5
584
330
84
100
AcDbEntity
  8
0
  6
ByBlock
 62
     0
440
 16777216
100
AcDbTrace
 10
11494.51232522181
 20
6319.670709548401
 30
0.0
 11
11494.51232522181
 21
6339.670709548401
 31
0.0
 12
11434.51232522181
 22
6329.670709548401
 32
0.0
 13
11434.51232522181
 23
6329.670709548401
 33
0.0
  0
TEXT
  5
585
330
84
100
AcDbEntity
  8
0
  6
ByBlock
 62
     0
440
 16777216
100
AcDbText
 10
12292.01232522181
 20
6374.670709548401
 30
0.0
 40
90.0
  1
2000
  7
A
100
AcDbText
  0
POINT
  5
586
330
84
100
AcDbEntity
  8
DEFPOINTS
  6
ByBlock
 62
     0
440
 16777216
100
AcDbPoint
 10
13434.51232522181
 20
7158.059141917519
 30
0.0
  0
POINT
  5
587
330
84
100
AcDbEntity
  8
DEFPOINTS
  6
ByBlock
 62
     0
440
 16777216
100
AcDbPoint
 10
11434.51232522181
 20
7158.059141917519
 30
0.0
  0
POINT
  5
588
330
84
100
AcDbEntity
  8
DEFPOINTS
  6
ByBlock
 62
     0
440
 16777216
100
AcDbPoint
 10
11434.51232522181
 20
6329.670709548401
 30
0.0
  0
ENDBLK
  5
589
330
84
100
AcDbEntity
  8
SUNPOU
100
AcDbBlockEnd
  0
BLOCK
  5
58A
330
85
100
AcDbEntity
  8
SUNPOU
100
AcDbBlockBegin
  2
*D105
 70
     1
 10
0.0
 20
0.0
 30
0.0
  3
*D105
  1

  0
LINE
  5
58B
330
85
100
AcDbEntity
  8
0
  6
ByBlock
 62
     0
440
 16777216
100
AcDbLine
 10
11434.51232522181
 20
6739.705601875613
 30
0.0
 11
11434.51232522181
 21
6309.670709548401
 31
0.0
  0
LINE
  5
58C
330
85
100
AcDbEntity
  8
0
  6
ByBlock
 62
     0
440
 16777216
100
AcDbLine
 10
10434.51232522181
 20
7073.064781377252
 30
0.0
 11
10434.51232522181
 21
6309.670709548401
 31
0.0
  0
LINE
  5
58D
330
85
100
AcDbEntity
  8
0
  6
ByBlock
 62
     0
440
 16777216
100
AcDbLine
 10
11374.51232522181
 20
6329.670709548401
 30
0.0
 11
10494.51232522181
 21
6329.670709548401
 31
0.0
  0
SOLID
  5
58E
330
85
100
AcDbEntity
  8
0
  6
ByBlock
 62
     0
440
 16777216
100
AcDbTrace
 10
11374.51232522181
 20
6319.670709548401
 30
0.0
 11
11374.51232522181
 21
6339.670709548401
 31
0.0
 12
11434.51232522181
 22
6329.670709548401
 32
0.0
 13
11434.51232522181
 23
6329.670709548401
 33
0.0
  0
SOLID
  5
58F
330
85
100
AcDbEntity
  8
0
  6
ByBlock
 62
     0
440
 16777216
100
AcDbTrace
 10
10494.51232522181
 20
6319.670709548401
 30
0.0
 11
10494.51232522181
 21
6339.670709548401
 31
0.0
 12
10434.51232522181
 22
6329.670709548401
 32
0.0
 13
10434.51232522181
 23
6329.670709548401
 33
0.0
  0
TEXT
  5
590
330
85
100
AcDbEntity
  8
0
  6
ByBlock
 62
     0
440
 16777216
100
AcDbText
 10
10807.01232522181
 20
6374.670709548401
 30
0.0
 40
90.0
  1
1000
  7
A
100
AcDbText
  0
POINT
  5
591
330
85
100
AcDbEntity
  8
DEFPOINTS
  6
ByBlock
 62
     0
440
 16777216
100
AcDbPoint
 10
11434.51232522181
 20
6779.705601875613
 30
0.0
  0
POINT
  5
592
330
85
100
AcDbEntity
  8
DEFPOINTS
  6
ByBlock
 62
     0
440
 16777216
100
AcDbPoint
 10
10434.51232522181
 20
7113.064781377252
 30
0.0
  0
POINT
  5
593
330
85
100
AcDbEntity
  8
DEFPOINTS
  6
ByBlock
 62
     0
440
 16777216
100
AcDbPoint
 10
10434.51232522181
 20
6329.670709548401
 30
0.0
  0
ENDBLK
  5
594
330
85
100
AcDbEntity
  8
SUNPOU
100
AcDbBlockEnd
  0
BLOCK
  5
5B8
330
89
100
AcDbEntity
  8
SUNPOU
100
AcDbBlockBegin
  2
*D109
 70
     1
 10
0.0
 20
0.0
 30
0.0
  3
*D109
  1

  0
LINE
  5
5B9
330
89
100
AcDbEntity
  8
0
  6
ByBlock
 62
     0
440
 16777216
100
AcDbLine
 10
10394.51232522181
 20
10158.05914191752
 30
0.0
 11
8896.078160820178
 21
10158.05914191752
 31
0.0
  0
LINE
  5
5BA
330
89
100
AcDbEntity
  8
0
  6
ByBlock
 62
     0
440
 16777216
100
AcDbLine
 10
10394.51232522181
 20
8158.059141917516
 30
0.0
 11
8896.078160820178
 21
8158.059141917516
 31
0.0
  0
LINE
  5
5BB
330
89
100
AcDbEntity
  8
0
  6
ByBlock
 62
     0
440
 16777216
100
AcDbLine
 10
8916.078160820178
 20
10098.05914191752
 30
0.0
 11
8916.078160820178
 21
8218.059141917518
 31
0.0
  0
SOLID
  5
5BC
330
89
100
AcDbEntity
  8
0
  6
ByBlock
 62
     0
440
 16777216
100
AcDbTrace
 10
8926.078160820178
 20
10098.05914191752
 30
0.0
 11
8906.078160820178
 21
10098.05914191752
 31
0.0
 12
8916.078160820178
 22
10158.05914191752
 32
0.0
 13
8916.078160820178
 23
10158.05914191752
 33
0.0
  0
SOLID
  5
5BD
330
89
100
AcDbEntity
  8
0
  6
ByBlock
 62
     0
440
 16777216
100
AcDbTrace
 10
8926.078160820178
 20
8218.059141917516
 30
0.0
 11
8906.078160820178
 21
8218.059141917516
 31
0.0
 12
8916.078160820178
 22
8158.059141917516
 32
0.0
 13
8916.078160820178
 23
8158.059141917516
 33
0.0
  0
TEXT
  5
5BE
330
89
100
AcDbEntity
  8
0
  6
ByBlock
 62
     0
440
 16777216
100
AcDbText
 10
8871.078160820178
 20
9015.559141917516
 30
0.0
 40
90.0
  1
2000
 50
90.0
  7
A
100
AcDbText
  0
POINT
  5
5BF
330
89
100
AcDbEntity
  8
DEFPOINTS
  6
ByBlock
 62
     0
440
 16777216
100
AcDbPoint
 10
10434.51232522181
 20
10158.05914191752
 30
0.0
  0
POINT
  5
5C0
330
89
100
AcDbEntity
  8
DEFPOINTS
  6
ByBlock
 62
     0
440
 16777216
100
AcDbPoint
 10
10434.51232522181
 20
8158.059141917516
 30
0.0
  0
POINT
  5
5C1
330
89
100
AcDbEntity
  8
DEFPOINTS
  6
ByBlock
 62
     0
440
 16777216
100
AcDbPoint
 10
8916.078160820178
 20
8158.059141917516
 30
0.0
  0
ENDBLK
  5
5C2
330
89
100
AcDbEntity
  8
SUNPOU
100
AcDbBlockEnd
  0
BLOCK
  5
5C3
330
8A
100
AcDbEntity
  8
SUNPOU
100
AcDbBlockBegin
  2
*D110
 70
     1
 10
0.0
 20
0.0
 30
0.0
  3
*D110
  1

  0
LINE
  5
5C4
330
8A
100
AcDbEntity
  8
0
  6
ByBlock
 62
     0
440
 16777216
100
AcDbLine
 10
9558.30316980182
 20
8158.059141917516
 30
0.0
 11
8896.078160820178
 21
8158.059141917516
 31
0.0
  0
LINE
  5
5C5
330
8A
100
AcDbEntity
  8
0
  6
ByBlock
 62
     0
440
 16777216
100
AcDbLine
 10
10390.28488807212
 20
7158.059141917516
 30
0.0
 11
8896.078160820178
 21
7158.059141917516
 31
0.0
  0
LINE
  5
5C6
330
8A
100
AcDbEntity
  8
0
  6
ByBlock
 62
     0
440
 16777216
100
AcDbLine
 10
8916.078160820178
 20
8098.059141917516
 30
0.0
 11
8916.078160820178
 21
7218.059141917516
 31
0.0
  0
SOLID
  5
5C7
330
8A
100
AcDbEntity
  8
0
  6
ByBlock
 62
     0
440
 16777216
100
AcDbTrace
 10
8926.078160820178
 20
8098.059141917516
 30
0.0
 11
8906.078160820178
 21
8098.059141917516
 31
0.0
 12
8916.078160820178
 22
8158.059141917516
 32
0.0
 13
8916.078160820178
 23
8158.059141917516
 33
0.0
  0
SOLID
  5
5C8
330
8A
100
AcDbEntity
  8
0
  6
ByBlock
 62
     0
440
 16777216
100
AcDbTrace
 10
8926.078160820178
 20
7218.059141917516
 30
0.0
 11
8906.078160820178
 21
7218.059141917516
 31
0.0
 12
8916.078160820178
 22
7158.059141917516
 32
0.0
 13
8916.078160820178
 23
7158.059141917516
 33
0.0
  0
TEXT
  5
5C9
330
8A
100
AcDbEntity
  8
0
  6
ByBlock
 62
     0
440
 16777216
100
AcDbText
 10
8871.078160820178
 20
7530.559141917516
 30
0.0
 40
90.0
  1
1000
 50
90.0
  7
A
100
AcDbText
  0
POINT
  5
5CA
330
8A
100
AcDbEntity
  8
DEFPOINTS
  6
ByBlock
 62
     0
440
 16777216
100
AcDbPoint
 10
9598.30316980182
 20
8158.059141917516
 30
0.0
  0
POINT
  5
5CB
330
8A
100
AcDbEntity
  8
DEFPOINTS
  6
ByBlock
 62
     0
440
 16777216
100
AcDbPoint
 10
10430.28488807212
 20
7158.059141917516
 30
0.0
  0
POINT
  5
5CC
330
8A
100
AcDbEntity
  8
DEFPOINTS
  6
ByBlock
 62
     0
440
 16777216
100
AcDbPoint
 10
8916.078160820178
 20
7158.059141917516
 30
0.0
  0
ENDBLK
  5
5CD
330
8A
100
AcDbEntity
  8
SUNPOU
100
AcDbBlockEnd
  0
BLOCK
  5
693
330
9B
100
AcDbEntity
  8
SEIHIN
100
AcDbBlockBegin
  2
*D127
 70
     1
 10
0.0
 20
0.0
 30
0.0
  3
*D127
  1

  0
LINE
  5
694
330
9B
100
AcDbEntity
  8
0
  6
ByBlock
 62
     0
440
 16777216
100
AcDbLine
 10
6391.188721955592
 20
7777.598631727651
 30
0.0
 11
6391.188721955592
 21
7843.643417141995
 31
0.0
  0
LINE
  5
695
330
9B
100
AcDbEntity
  8
0
  6
ByBlock
 62
     0
440
 16777216
100
AcDbLine
 10
6091.188721955592
 20
7467.995553303055
 30
0.0
 11
6091.188721955592
 21
7843.643417141995
 31
0.0
  0
LINE
  5
696
330
9B
100
AcDbEntity
  8
0
  6
ByBlock
 62
     0
440
 16777216
100
AcDbLine
 10
6331.188721955592
 20
7823.643417141995
 30
0.0
 11
6151.188721955592
 21
7823.643417141995
 31
0.0
  0
SOLID
  5
697
330
9B
100
AcDbEntity
  8
0
  6
ByBlock
 62
     0
440
 16777216
100
AcDbTrace
 10
6331.188721955592
 20
7813.643417141995
 30
0.0
 11
6331.188721955592
 21
7833.643417141995
 31
0.0
 12
6391.188721955592
 22
7823.643417141995
 32
0.0
 13
6391.188721955592
 23
7823.643417141995
 33
0.0
  0
SOLID
  5
698
330
9B
100
AcDbEntity
  8
0
  6
ByBlock
 62
     0
440
 16777216
100
AcDbTrace
 10
6151.188721955592
 20
7813.643417141995
 30
0.0
 11
6151.188721955592
 21
7833.643417141995
 31
0.0
 12
6091.188721955592
 22
7823.643417141995
 32
0.0
 13
6091.188721955592
 23
7823.643417141995
 33
0.0
  0
TEXT
  5
699
330
9B
100
AcDbEntity
  8
0
  6
ByBlock
 62
     0
440
 16777216
100
AcDbText
 10
6136.188721955592
 20
7868.643417141995
 30
0.0
 40
90.0
  1
300
  7
A
100
AcDbText
  0
POINT
  5
69A
330
9B
100
AcDbEntity
  8
DEFPOINTS
  6
ByBlock
 62
     0
440
 16777216
100
AcDbPoint
 10
6391.188721955592
 20
7737.598631727651
 30
0.0
  0
POINT
  5
69B
330
9B
100
AcDbEntity
  8
DEFPOINTS
  6
ByBlock
 62
     0
440
 16777216
100
AcDbPoint
 10
6091.188721955592
 20
7427.995553303055
 30
0.0
  0
POINT
  5
69C
330
9B
100
AcDbEntity
  8
DEFPOINTS
  6
ByBlock
 62
     0
440
 16777216
100
AcDbPoint
 10
6091.188721955592
 20
7823.643417141995
 30
0.0
  0
ENDBLK
  5
69D
330
9B
100
AcDbEntity
  8
SEIHIN
100
AcDbBlockEnd
  0
BLOCK
  5
69E
330
9C
100
AcDbEntity
  8
SUNPOU
100
AcDbBlockBegin
  2
*D128
 70
     1
 10
0.0
 20
0.0
 30
0.0
  3
*D128
  1

  0
LINE
  5
69F
330
9C
100
AcDbEntity
  8
0
  6
ByBlock
 62
     0
440
 16777216
100
AcDbLine
 10
6351.188721955593
 20
7737.598631727654
 30
0.0
 11
5904.600068794359
 21
7737.598631727654
 31
0.0
  0
LINE
  5
6A0
330
9C
100
AcDbEntity
  8
0
  6
ByBlock
 62
     0
440
 16777216
100
AcDbLine
 10
6351.188721955593
 20
7437.598631727654
 30
0.0
 11
5904.600068794359
 21
7437.598631727654
 31
0.0
  0
LINE
  5
6A1
330
9C
100
AcDbEntity
  8
0
  6
ByBlock
 62
     0
440
 16777216
100
AcDbLine
 10
5924.600068794359
 20
7677.598631727654
 30
0.0
 11
5924.600068794359
 21
7497.598631727654
 31
0.0
  0
SOLID
  5
6A2
330
9C
100
AcDbEntity
  8
0
  6
ByBlock
 62
     0
440
 16777216
100
AcDbTrace
 10
5934.600068794359
 20
7677.598631727654
 30
0.0
 11
5914.600068794359
 21
7677.598631727654
 31
0.0
 12
5924.600068794359
 22
7737.598631727654
 32
0.0
 13
5924.600068794359
 23
7737.598631727654
 33
0.0
  0
SOLID
  5
6A3
330
9C
100
AcDbEntity
  8
0
  6
ByBlock
 62
     0
440
 16777216
100
AcDbTrace
 10
5934.600068794359
 20
7497.598631727654
 30
0.0
 11
5914.600068794359
 21
7497.598631727654
 31
0.0
 12
5924.600068794359
 22
7437.598631727654
 32
0.0
 13
5924.600068794359
 23
7437.598631727654
 33
0.0
  0
TEXT
  5
6A4
330
9C
100
AcDbEntity
  8
0
  6
ByBlock
 62
     0
440
 16777216
100
AcDbText
 10
5879.600068794359
 20
7482.598631727654
 30
0.0
 40
90.0
  1
300
 50
90.0
  7
A
100
AcDbText
  0
POINT
  5
6A5
330
9C
100
AcDbEntity
  8
DEFPOINTS
  6
ByBlock
 62
     0
440
 16777216
100
AcDbPoint
 10
6391.188721955593
 20
7737.598631727654
 30
0.0
  0
POINT
  5
6A6
330
9C
100
AcDbEntity
  8
DEFPOINTS
  6
ByBlock
 62
     0
440
 16777216
100
AcDbPoint
 10
6391.188721955593
 20
7437.598631727654
 30
0.0
  0
POINT
  5
6A7
330
9C
100
AcDbEntity
  8
DEFPOINTS
  6
ByBlock
 62
     0
440
 16777216
100
AcDbPoint
 10
5924.600068794359
 20
7437.598631727654
 30
0.0
  0
ENDBLK
  5
6A8
330
9C
100
AcDbEntity
  8
SUNPOU
100
AcDbBlockEnd
  0
BLOCK
  5
A89
330
A88
100
AcDbEntity
  8
0
100
AcDbBlockBegin
  2
*D131
 70
     1
 10
0.0
 20
0.0
 30
0.0
  3
*D131
  1

  0
LINE
  5
A8B
330
A88
100
AcDbEntity
  8
SUNPOU
 62
     0
440
 16777216
370
    -2
100
AcDbLine
 10
6069.713107762514
 20
2953.953045484133
 30
0.0
 11
6822.744376055024
 21
2953.953045484133
 31
0.0
  0
LINE
  5
A8C
330
A88
100
AcDbEntity
  8
SUNPOU
 62
     0
440
 16777216
370
    -2
100
AcDbLine
 10
6069.713107762514
 20
1953.953045484133
 30
0.0
 11
6822.744376055023
 21
1953.953045484133
 31
0.0
  0
LINE
  5
A8D
330
A88
100
AcDbEntity
  8
SUNPOU
 62
     0
440
 16777216
370
    -2
100
AcDbLine
 10
6802.744376055024
 20
2893.953045484133
 30
0.0
 11
6802.744376055023
 21
2013.953045484133
 31
0.0
  0
SOLID
  5
A8E
330
A88
100
AcDbEntity
  8
SUNPOU
 62
     0
440
 16777216
100
AcDbTrace
 10
6792.744376055024
 20
2893.953045484133
 30
0.0
 11
6812.744376055024
 21
2893.953045484133
 31
0.0
 12
6802.744376055024
 22
2953.953045484133
 32
0.0
 13
6802.744376055024
 23
2953.953045484133
 33
0.0
  0
SOLID
  5
A8F
330
A88
100
AcDbEntity
  8
SUNPOU
 62
     0
440
 16777216
100
AcDbTrace
 10
6792.744376055023
 20
2013.953045484133
 30
0.0
 11
6812.744376055023
 21
2013.953045484133
 31
0.0
 12
6802.744376055023
 22
1953.953045484133
 32
0.0
 13
6802.744376055023
 23
1953.953045484133
 33
0.0
  0
MTEXT
  5
A90
330
A88
100
AcDbEntity
  8
SUNPOU
 62
     0
440
 16777216
100
AcDbMText
 10
6712.744376055023
 20
2453.953045484134
 30
0.0
 40
90.0
 41
0.0
 71
     5
 72
     1
  1
\A1;1000
  7
A
 11
6.123031769111886E-17
 21
1.0
 31
0.0
 73
     1
 44
1.0
  0
POINT
  5
A91
330
A88
100
AcDbEntity
  8
DEFPOINTS
 62
     0
440
 16777216
100
AcDbPoint
 10
6029.713107762514
 20
2953.953045484133
 30
0.0
  0
POINT
  5
A92
330
A88
100
AcDbEntity
  8
DEFPOINTS
 62
     0
440
 16777216
100
AcDbPoint
 10
6029.713107762514
 20
1953.953045484133
 30
0.0
  0
POINT
  5
A93
330
A88
100
AcDbEntity
  8
DEFPOINTS
 62
     0
440
 16777216
100
AcDbPoint
 10
6802.744376055023
 20
1953.953045484133
 30
0.0
  0
ENDBLK
  5
A8A
330
A88
100
AcDbEntity
  8
0
100
AcDbBlockEnd
  0
BLOCK
  5
A96
330
A95
100
AcDbEntity
  8
0
100
AcDbBlockBegin
  2
*D132
 70
     1
 10
0.0
 20
0.0
 30
0.0
  3
*D132
  1

  0
LINE
  5
A98
330
A95
100
AcDbEntity
  8
SUNPOU
 62
     0
440
 16777216
370
    -2
100
AcDbLine
 10
6069.713107762512
 20
1953.598631727652
 30
0.0
 11
7116.74770174708
 21
1953.598631727652
 31
0.0
  0
LINE
  5
A99
330
A95
100
AcDbEntity
  8
SUNPOU
 62
     0
440
 16777216
370
    -2
100
AcDbLine
 10
6069.713107762512
 20
4203.598631727651
 30
0.0
 11
7116.747701747081
 21
4203.59863172765
 31
0.0
  0
LINE
  5
A9A
330
A95
100
AcDbEntity
  8
SUNPOU
 62
     0
440
 16777216
370
    -2
100
AcDbLine
 10
7096.74770174708
 20
2013.598631727652
 30
0.0
 11
7096.747701747081
 21
4143.59863172765
 31
0.0
  0
SOLID
  5
A9B
330
A95
100
AcDbEntity
  8
SUNPOU
 62
     0
440
 16777216
100
AcDbTrace
 10
7086.74770174708
 20
2013.598631727652
 30
0.0
 11
7106.74770174708
 21
2013.598631727652
 31
0.0
 12
7096.74770174708
 22
1953.598631727652
 32
0.0
 13
7096.74770174708
 23
1953.598631727652
 33
0.0
  0
SOLID
  5
A9C
330
A95
100
AcDbEntity
  8
SUNPOU
 62
     0
440
 16777216
100
AcDbTrace
 10
7086.747701747081
 20
4143.59863172765
 30
0.0
 11
7106.747701747081
 21
4143.59863172765
 31
0.0
 12
7096.747701747081
 22
4203.59863172765
 32
0.0
 13
7096.747701747081
 23
4203.59863172765
 33
0.0
  0
MTEXT
  5
A9D
330
A95
100
AcDbEntity
  8
SUNPOU
 62
     0
440
 16777216
100
AcDbMText
 10
7006.74770174708
 20
3078.598631727652
 30
0.0
 40
90.0
 41
0.0
 71
     5
 72
     1
  1
\A1;2250
  7
A
 11
6.123031769111886E-17
 21
1.0
 31
0.0
 73
     1
 44
1.0
  0
POINT
  5
A9E
330
A95
100
AcDbEntity
  8
DEFPOINTS
 62
     0
440
 16777216
100
AcDbPoint
 10
6029.713107762512
 20
1953.598631727652
 30
0.0
  0
POINT
  5
A9F
330
A95
100
AcDbEntity
  8
DEFPOINTS
 62
     0
440
 16777216
100
AcDbPoint
 10
6029.713107762512
 20
4203.598631727651
 30
0.0
  0
POINT
  5
AA0
330
A95
100
AcDbEntity
  8
DEFPOINTS
 62
     0
440
 16777216
100
AcDbPoint
 10
7096.747701747081
 20
4203.59863172765
 30
0.0
  0
ENDBLK
  5
A97
330
A95
100
AcDbEntity
  8
0
100
AcDbBlockEnd
  0
BLOCK
  5
AA2
330
AA1
100
AcDbEntity
  8
0
100
AcDbBlockBegin
  2
*D133
 70
     1
 10
0.0
 20
0.0
 30
0.0
  3
*D133
  1

  0
LINE
  5
AB6
330
AA1
100
AcDbEntity
  8
SUNPOU
 62
     0
440
 16777216
370
    -2
100
AcDbLine
 10
2779.713107762513
 20
1913.598631727652
 30
0.0
 11
2779.713107762513
 21
1270.373423007314
 31
0.0
  0
LINE
  5
AB7
330
AA1
100
AcDbEntity
  8
SUNPOU
 62
     0
440
 16777216
370
    -2
100
AcDbLine
 10
6029.713107762512
 20
1913.598631727652
 30
0.0
 11
6029.713107762512
 21
1270.373423007314
 31
0.0
  0
LINE
  5
AB8
330
AA1
100
AcDbEntity
  8
SUNPOU
 62
     0
440
 16777216
370
    -2
100
AcDbLine
 10
2839.713107762513
 20
1290.373423007314
 30
0.0
 11
5969.713107762512
 21
1290.373423007314
 31
0.0
  0
SOLID
  5
AB9
330
AA1
100
AcDbEntity
  8
SUNPOU
 62
     0
440
 16777216
100
AcDbTrace
 10
2839.713107762513
 20
1300.373423007314
 30
0.0
 11
2839.713107762513
 21
1280.373423007314
 31
0.0
 12
2779.713107762513
 22
1290.373423007314
 32
0.0
 13
2779.713107762513
 23
1290.373423007314
 33
0.0
  0
SOLID
  5
ABA
330
AA1
100
AcDbEntity
  8
SUNPOU
 62
     0
440
 16777216
100
AcDbTrace
 10
5969.713107762512
 20
1300.373423007314
 30
0.0
 11
5969.713107762512
 21
1280.373423007314
 31
0.0
 12
6029.713107762512
 22
1290.373423007314
 32
0.0
 13
6029.713107762512
 23
1290.373423007314
 33
0.0
  0
MTEXT
  5
ABB
330
AA1
100
AcDbEntity
  8
SUNPOU
 62
     0
440
 16777216
100
AcDbMText
 10
4404.713107762513
 20
1380.373423007314
 30
0.0
 40
90.0
 41
0.0
 71
     5
 72
     1
  1
\A1;3250
  7
A
 73
     1
 44
1.0
  0
POINT
  5
ABC
330
AA1
100
AcDbEntity
  8
DEFPOINTS
 62
     0
440
 16777216
100
AcDbPoint
 10
2779.713107762513
 20
1953.598631727652
 30
0.0
  0
POINT
  5
ABD
330
AA1
100
AcDbEntity
  8
DEFPOINTS
 62
     0
440
 16777216
100
AcDbPoint
 10
6029.713107762512
 20
1953.598631727652
 30
0.0
  0
POINT
  5
ABE
330
AA1
100
AcDbEntity
  8
DEFPOINTS
 62
     0
440
 16777216
100
AcDbPoint
 10
6029.713107762512
 20
1290.373423007314
 30
0.0
  0
ENDBLK
  5
AA3
330
AA1
100
AcDbEntity
  8
0
100
AcDbBlockEnd
  0
ENDSEC
  0
SECTION
  2
ENTITIES
  0
TEXT
  5
6C0
330
17
100
AcDbEntity
  8
SUNPOU
100
AcDbText
 10
15436.14140141127
 20
-145.2176364853967
 30
0.0
 40
75.0
  1
新和コンクリート工業株式会社
  7
NIHONGO
100
AcDbText
  0
TEXT
  5
6C1
330
17
100
AcDbEntity
  8
SUNPOU
100
AcDbText
 10
16078.64140141127
 20
42.28236351460328
 30
0.0
 40
75.0
  1
製図
  7
NIHONGO
 72
     4
 11
16156.14140141127
 21
79.78236351460328
 31
0.0
100
AcDbText
  0
TEXT
  5
6C2
330
17
100
AcDbEntity
  8
SUNPOU
100
AcDbText
 10
16076.14140141127
 20
192.2823635146034
 30
0.0
 40
75.0
  1
設計
  7
NIHONGO
 72
     4
 11
16156.14140141127
 21
229.7823635146034
 31
0.0
100
AcDbText
  0
TEXT
  5
6C3
330
17
100
AcDbEntity
  8
SUNPOU
100
AcDbText
 10
15408.64140141127
 20
42.2823635146037
 30
0.0
 40
75.0
  1
認
  7
NIHONGO
 72
     4
 11
15443.64140141127
 21
79.7823635146037
 31
0.0
100
AcDbText
  0
TEXT
  5
6C4
330
17
100
AcDbEntity
  8
SUNPOU
100
AcDbText
 10
15408.64140141127
 20
194.7823635146042
 30
0.0
 40
75.0
  1
承
  7
NIHONGO
 72
     4
 11
15443.64140141127
 21
229.7823635146042
 31
0.0
100
AcDbText
  0
TEXT
  5
6C5
330
17
100
AcDbEntity
  8
SUNPOU
100
AcDbText
 10
14618.64140141127
 20
207.2823635146035
 30
0.0
 40
75.0
  1
図　面　番　号
  7
NIHONGO
 72
     4
 11
14926.14140141127
 21
244.7823635146035
 31
0.0
100
AcDbText
  0
TEXT
  5
6C6
330
17
100
AcDbEntity
  8
SUNPOU
100
AcDbText
 10
16096.14140141127
 20
364.7823635146034
 30
0.0
 40
75.0
  1
１／
  7
NIHONGO
100
AcDbText
  0
TEXT
  5
6C7
330
17
100
AcDbEntity
  8
SUNPOU
100
AcDbText
 10
15656.14140141127
 20
342.2823635146035
 30
0.0
 40
75.0
  1
縮　　尺
  7
NIHONGO
 72
     4
 11
15826.14140141127
 21
379.7823635146035
 31
0.0
100
AcDbText
  0
TEXT
  5
6C8
330
17
100
AcDbEntity
  8
SUNPOU
100
AcDbText
 10
15656.14140141127
 20
492.2823635146032
 30
0.0
 40
75.0
  1
鉄 筋 量
  7
NIHONGO
 72
     4
 11
15826.14140141127
 21
529.7823635146032
 31
0.0
100
AcDbText
  0
TEXT
  5
6C9
330
17
100
AcDbEntity
  8
SUNPOU
100
AcDbText
 10
15656.14140141127
 20
642.2823635146033
 30
0.0
 40
75.0
  1
製 造 数
  7
NIHONGO
 72
     4
 11
15826.14140141127
 21
679.7823635146033
 31
0.0
100
AcDbText
  0
TEXT
  5
6CA
330
17
100
AcDbEntity
  8
SUNPOU
100
AcDbText
 10
16546.14140141127
 20
484.7823635146032
 30
0.0
 40
75.0
  1
ｋｇ
  7
NIHONGO
 72
     2
 11
16696.14140141127
 21
484.7823635146032
 31
0.0
100
AcDbText
  0
TEXT
  5
6CB
330
17
100
AcDbEntity
  8
SUNPOU
100
AcDbText
 10
15421.14140141127
 20
484.7823635146032
 30
0.0
 40
75.0
  1
ｋｇ
  7
NIHONGO
 72
     2
 11
15571.14140141127
 21
484.7823635146032
 31
0.0
100
AcDbText
  0
TEXT
  5
6CC
330
17
100
AcDbEntity
  8
SUNPOU
100
AcDbText
 10
14536.14140141127
 20
342.2823635146035
 30
0.0
 40
75.0
  1
年 月 日
  7
NIHONGO
 72
     4
 11
14701.14140141127
 21
379.7823635146035
 31
0.0
100
AcDbText
  0
TEXT
  5
6CD
330
17
100
AcDbEntity
  8
SUNPOU
100
AcDbText
 10
14531.14140141127
 20
492.2823635146032
 30
0.0
 40
75.0
  1
製品質量
  7
NIHONGO
 72
     4
 11
14701.14140141127
 21
529.7823635146032
 31
0.0
100
AcDbText
  0
TEXT
  5
6CE
330
17
100
AcDbEntity
  8
SUNPOU
100
AcDbText
 10
14533.64140141127
 20
642.2823635146033
 30
0.0
 40
75.0
  1
業 者 名
  7
NIHONGO
 72
     4
 11
14701.14140141127
 21
679.7823635146033
 31
0.0
100
AcDbText
  0
TEXT
  5
6CF
330
17
100
AcDbEntity
  8
SUNPOU
100
AcDbText
 10
14531.14140141127
 20
829.7823635146033
 30
0.0
 40
75.0
  1
名　　称
  7
NIHONGO
 72
     4
 11
14701.14140141127
 21
867.2823635146033
 31
0.0
100
AcDbText
  0
LINE
  5
6D0
330
17
100
AcDbEntity
  8
SUNPOU
100
AcDbLine
 10
15376.14140141127
 20
184.782363514604
 30
0.0
 11
14476.14140141127
 21
184.782363514604
 31
0.0
  0
LINE
  5
6D1
330
17
100
AcDbEntity
  8
SUNPOU
100
AcDbLine
 10
16261.14140141127
 20
4.782363514602594
 30
0.0
 11
16261.14140141127
 21
304.7823635146033
 31
0.0
  0
LINE
  5
6D2
330
17
100
AcDbEntity
  8
SUNPOU
100
AcDbLine
 10
16051.14140141127
 20
4.782363514602594
 30
0.0
 11
16051.14140141127
 21
304.7823635146033
 31
0.0
  0
LINE
  5
6D3
330
17
100
AcDbEntity
  8
SUNPOU
100
AcDbLine
 10
15511.14140141127
 20
4.782363514603276
 30
0.0
 11
15511.14140141127
 21
304.7823635146033
 31
0.0
  0
LINE
  5
6D4
330
17
100
AcDbEntity
  8
SUNPOU
100
AcDbLine
 10
15376.14140141127
 20
4.782363514603276
 30
0.0
 11
15376.14140141127
 21
304.7823635146033
 31
0.0
  0
LINE
  5
6D5
330
17
100
AcDbEntity
  8
SUNPOU
100
AcDbLine
 10
14926.14140141127
 20
304.7823635146033
 30
0.0
 11
14926.14140141127
 21
979.7823635146033
 31
0.0
  0
LINE
  5
6D6
330
17
100
AcDbEntity
  8
SUNPOU
100
AcDbLine
 10
16051.14140141127
 20
304.7823635146033
 30
0.0
 11
16051.14140141127
 21
754.7823635146033
 31
0.0
  0
LINE
  5
6D7
330
17
100
AcDbEntity
  8
SUNPOU
100
AcDbLine
 10
15601.14140141127
 20
304.7823635146033
 30
0.0
 11
15601.14140141127
 21
754.7823635146033
 31
0.0
  0
LINE
  5
6D8
330
17
100
AcDbEntity
  8
SUNPOU
100
AcDbLine
 10
16726.14140141127
 20
754.7823635146033
 30
0.0
 11
14476.14140141127
 21
754.7823635146033
 31
0.0
  0
LINE
  5
6D9
330
17
100
AcDbEntity
  8
SUNPOU
100
AcDbLine
 10
16726.14140141127
 20
604.7823635146033
 30
0.0
 11
14476.14140141127
 21
604.7823635146033
 31
0.0
  0
LINE
  5
6DA
330
17
100
AcDbEntity
  8
SUNPOU
100
AcDbLine
 10
16726.14140141127
 20
454.7823635146033
 30
0.0
 11
14476.14140141127
 21
454.7823635146033
 31
0.0
  0
LINE
  5
6DB
330
17
100
AcDbEntity
  8
SUNPOU
100
AcDbLine
 10
16726.14140141127
 20
304.7823635146033
 30
0.0
 11
14476.14140141127
 21
304.7823635146046
 31
0.0
  0
LINE
  5
6DC
330
17
100
AcDbEntity
  8
HAIKIN
100
AcDbLine
 10
14476.14140141127
 20
979.7823635146033
 30
0.0
 11
16726.14140141127
 21
979.7823635146033
 31
0.0
  0
LINE
  5
6DD
330
17
100
AcDbEntity
  8
HAIKIN
100
AcDbLine
 10
14476.14140141127
 20
4.782363514603958
 30
0.0
 11
14476.14140141127
 21
979.7823635146033
 31
0.0
  0
TEXT
  5
6DE
330
17
100
AcDbEntity
  8
SUNPOU
100
AcDbText
 10
16276.14140141127
 20
334.7823635146033
 30
0.0
 40
90.0
  1
30
  7
A
100
AcDbText
  0
TEXT
  5
6E0
330
17
100
AcDbEntity
  8
SUNPOU
100
AcDbText
 10
14980.80160808586
 20
790.5706531863739
 30
0.0
 40
120.0
  1
デザインウォールコーナー　H=3250
 41
0.6697853893435813
  7
A
 72
     5
 11
16676.69821390381
 21
790.5706531863739
 31
0.0
100
AcDbText
  0
TEXT
  5
6E2
330
17
100
AcDbEntity
  8
SUNPOU
100
AcDbText
 10
8483.290085810027
 20
3977.040928626652
 30
0.0
 40
60.0
  1
        
  7
A
100
AcDbText
  0
TEXT
  5
6E3
330
17
100
AcDbEntity
  8
SUNPOU
100
AcDbText
 10
8179.290085810027
 20
3964.945264685842
 30
0.0
 40
60.0
  1
      
  7
A
100
AcDbText
  0
TEXT
  5
6E4
330
17
100
AcDbEntity
  8
SUNPOU
100
AcDbText
 10
2451.856152230769
 20
3880.638544059962
 30
0.0
 40
60.0
  1
        
  7
A
100
AcDbText
  0
TEXT
  5
6E5
330
17
100
AcDbEntity
  8
SUNPOU
100
AcDbText
 10
2633.180408178521
 20
3880.638544059962
 30
0.0
 40
60.0
  1
        
  7
A
100
AcDbText
  0
TEXT
  5
6E6
330
17
100
AcDbEntity
  8
SUNPOU
100
AcDbText
 10
6061.770217380291
 20
3834.556802440616
 30
0.0
 40
60.0
  1
   
  7
A
100
AcDbText
  0
TEXT
  5
6E7
330
17
100
AcDbEntity
  8
SUNPOU
100
AcDbText
 10
5745.082194249918
 20
4001.545985117913
 30
0.0
 40
60.0
  1
     
  7
A
100
AcDbText
  0
TEXT
  5
6E8
330
17
100
AcDbEntity
  8
SUNPOU
100
AcDbText
 10
2734.670711343414
 20
3880.63854405996
 30
0.0
 40
60.0
  1
    
  7
A
100
AcDbText
  0
TEXT
  5
6E9
330
17
100
AcDbEntity
  8
SUNPOU
100
AcDbText
 10
2824.062725563335
 20
3880.63854405996
 30
0.0
 40
60.0
  1
    
  7
A
100
AcDbText
  0
TEXT
  5
6EA
330
17
100
AcDbEntity
  8
SUNPOU
100
AcDbText
 10
2114.468887493882
 20
4119.795362913077
 30
0.0
 40
60.0
  1
   
  7
A
100
AcDbText
  0
TEXT
  5
6EB
330
17
100
AcDbEntity
  8
SUNPOU
100
AcDbText
 10
2617.049640001411
 20
3880.63854405996
 30
0.0
 40
60.0
  1
    
  7
A
100
AcDbText
  0
TEXT
  5
6EC
330
17
100
AcDbEntity
  8
SUNPOU
100
AcDbText
 10
2894.832954375092
 20
3396.108236114574
 30
0.0
 40
60.0
  1
    
  7
A
100
AcDbText
  0
TEXT
  5
6ED
330
17
100
AcDbEntity
  8
SUNPOU
100
AcDbText
 10
2820.075858805928
 20
4155.631763183543
 30
0.0
 40
60.0
  1
    
  7
A
100
AcDbText
  0
TEXT
  5
6EE
330
17
100
AcDbEntity
  8
SUNPOU
100
AcDbText
 10
3221.06147140403
 20
4046.76911207157
 30
0.0
 40
60.0
  1
    
  7
A
100
AcDbText
  0
TEXT
  5
6EF
330
17
100
AcDbEntity
  8
SUNPOU
100
AcDbText
 10
2235.399243958018
 20
4133.985127297313
 30
0.0
 40
60.0
  1
    
  7
A
100
AcDbText
  0
TEXT
  5
6F0
330
17
100
AcDbEntity
  8
SUNPOU
100
AcDbText
 10
2745.527423258528
 20
4082.252141712426
 30
0.0
 40
60.0
  1
   
  7
A
100
AcDbText
  0
TEXT
  5
6F1
330
17
100
AcDbEntity
  8
SUNPOU
100
AcDbText
 10
2235.399243958018
 20
4069.921404744181
 30
0.0
 40
60.0
  1
    
  7
A
100
AcDbText
  0
TEXT
  5
6F2
330
17
100
AcDbEntity
  8
SUNPOU
100
AcDbText
 10
3486.777349761856
 20
3899.113594070004
 30
0.0
 40
60.0
  1
   
  7
A
100
AcDbText
  0
TEXT
  5
6F3
330
17
100
AcDbEntity
  8
SUNPOU
100
AcDbText
 10
2948.239675030827
 20
5060.89769486348
 30
0.0
 40
60.0
  1
   
  7
A
100
AcDbText
  0
TEXT
  5
6F4
330
17
100
AcDbEntity
  8
SUNPOU
100
AcDbText
 10
2936.794013595641
 20
3974.143023889141
 30
0.0
 40
60.0
  1
   
  7
A
100
AcDbText
  0
TEXT
  5
6F5
330
17
100
AcDbEntity
  8
SUNPOU
100
AcDbText
 10
7282.681355339049
 20
3663.752965077905
 30
0.0
 40
60.0
  1
   
  7
A
100
AcDbText
  0
TEXT
  5
6F6
330
17
100
AcDbEntity
  8
SUNPOU
100
AcDbText
 10
8825.500345753597
 20
3618.119712766431
 30
0.0
 40
60.0
  1
    
  7
A
100
AcDbText
  0
TEXT
  5
6F7
330
17
100
AcDbEntity
  8
SUNPOU
100
AcDbText
 10
8825.500345753597
 20
3618.119712766431
 30
0.0
 40
60.0
  1
    
  7
A
100
AcDbText
  0
TEXT
  5
771
330
17
100
AcDbEntity
  8
SUNPOU
100
AcDbText
 10
3524.644095239569
 20
2212.364667320421
 30
0.0
 40
60.0
  1
    
  7
A
100
AcDbText
  0
TEXT
  5
772
330
17
100
AcDbEntity
  8
SUNPOU
100
AcDbText
 10
3244.234773003313
 20
2345.418627070887
 30
0.0
 40
60.0
  1
   
  7
A
100
AcDbText
  0
TEXT
  5
773
330
17
100
AcDbEntity
  8
SUNPOU
100
AcDbText
 10
1610.152116053044
 20
5526.131554257222
 30
0.0
 40
60.0
  1
    
  7
A
100
AcDbText
  0
TEXT
  5
775
330
17
100
AcDbEntity
  8
SUNPOU
100
AcDbText
 10
1165.300105875949
 20
3259.493618294126
 30
0.0
 40
60.0
  1
    
  7
A
100
AcDbText
  0
TEXT
  5
776
330
17
100
AcDbEntity
  8
SUNPOU
100
AcDbText
 10
7475.274507950128
 20
4996.571921573919
 30
0.0
 40
60.0
  1
    
  7
A
100
AcDbText
  0
TEXT
  5
777
330
17
100
AcDbEntity
  8
SUNPOU
100
AcDbText
 10
8645.664251573786
 20
4873.105453288689
 30
0.0
 40
60.0
  1
    
  7
A
100
AcDbText
  0
TEXT
  5
778
330
17
100
AcDbEntity
  8
SUNPOU
100
AcDbText
 10
7779.594080032308
 20
5102.413972192978
 30
0.0
 40
60.0
  1
    
  7
A
100
AcDbText
  0
TEXT
  5
779
330
17
100
AcDbEntity
  8
SUNPOU
100
AcDbText
 10
7661.665182711498
 20
5079.483262906463
 30
0.0
 40
60.0
  1
    
  7
A
100
AcDbText
  0
TEXT
  5
77A
330
17
100
AcDbEntity
  8
SUNPOU
100
AcDbText
 10
7746.373465061
 20
5143.186570113712
 30
0.0
 40
60.0
  1
   
  7
A
100
AcDbText
  0
LINE
  5
77B
330
17
100
AcDbEntity
  8
SEIHIN
100
AcDbLine
 10
2779.713107762513
 20
1953.953045484133
 30
0.0
 11
2779.713107762513
 21
2023.953045484133
 31
0.0
  0
DIMENSION
  5
782
330
17
100
AcDbEntity
  8
SUNPOU
100
AcDbDimension
  2
*D133
 10
6029.713107762512
 20
1290.373423007314
 30
0.0
 11
4404.713107762513
 21
1380.373423007314
 31
0.0
 70
    32
  1
3250
 71
     5
 42
3249.999999999999
  3
STANDARD
100
AcDbAlignedDimension
 13
2779.713107762513
 23
1953.598631727652
 33
0.0
 14
6029.713107762512
 24
1953.598631727652
 34
0.0
100
AcDbRotatedDimension
1001
ACAD
1000
DSTYLE
1002
{
1070
    41
1040
60.0
1070
    42
1040
40.0
1070
    43
1040
140.0
1070
    44
1040
20.0
1070
    73
1070
     0
1070
    74
1070
     0
1070
   140
1040
90.0
1070
   145
1040
1.0
1070
   172
1070
     1
1070
   271
1070
     0
1070
   272
1070
     0
1070
   275
1070
     1
1070
   279
1070
     2
1070
   340
1005
9F
1002
}
  0
LINE
  5
785
330
17
100
AcDbEntity
  8
HASEN
100
AcDbLine
 10
3224.477134957709
 20
1966.850980968109
 30
0.0
 11
3218.215052046193
 21
2065.652733572045
 31
0.0
  0
LINE
  5
786
330
17
100
AcDbEntity
  8
HASEN
100
AcDbLine
 10
3244.437084978706
 20
1968.116048222961
 30
0.0
 11
3238.17500206719
 21
2066.917800826897
 31
0.0
  0
LINE
  5
787
330
17
100
AcDbEntity
  8
SUNPOU
100
AcDbLine
 10
3209.183877476833
 20
2050.050237428871
 30
0.0
 11
3208.235077035695
 21
2065.020199944619
 31
0.0
  0
LINE
  5
788
330
17
100
AcDbEntity
  8
SUNPOU
100
AcDbLine
 10
3249.103777518825
 20
2052.580371938575
 30
0.0
 11
3248.154977077687
 21
2067.550334454323
 31
0.0
  0
LINE
  5
789
330
17
100
AcDbEntity
  8
SEIHIN
100
AcDbLine
 10
3169.429668589657
 20
2123.953045484133
 30
0.0
 11
3189.793207720519
 21
2039.803192664571
 31
0.0
  0
LINE
  5
78A
330
17
100
AcDbEntity
  8
SEIHIN
100
AcDbLine
 10
3279.650385459472
 20
2123.953045484133
 30
0.0
 11
3269.633007804507
 21
2044.863461683978
 31
0.0
  0
LINE
  5
78B
330
17
100
AcDbEntity
  8
SEIHIN
100
AcDbLine
 10
3224.477134957709
 20
1966.850980968109
 30
0.0
 11
3244.437084978706
 21
1968.116048222961
 31
0.0
  0
LINE
  5
78C
330
17
100
AcDbEntity
  8
SUNPOU
100
AcDbLine
 10
3199.203902466334
 20
2049.417703801445
 30
0.0
 11
3259.083752529326
 21
2053.212905566001
 31
0.0
  0
LINE
  5
78D
330
17
100
AcDbEntity
  8
SUNPOU
100
AcDbLine
 10
3208.235077035695
 20
2065.020199944619
 30
0.0
 11
3248.154977077687
 21
2067.550334454323
 31
0.0
  0
LINE
  5
78E
330
17
100
AcDbEntity
  8
SUNPOU
100
AcDbLine
 10
3199.773182731018
 20
2040.435726291997
 30
0.0
 11
3199.203902466334
 21
2049.417703801445
 31
0.0
  0
LINE
  5
78F
330
17
100
AcDbEntity
  8
SUNPOU
100
AcDbLine
 10
3259.653032794009
 20
2044.230928056552
 30
0.0
 11
3259.083752529326
 21
2053.212905566001
 31
0.0
  0
DIMENSION
  5
790
330
17
100
AcDbEntity
  8
SUNPOU
100
AcDbDimension
  2
*D131
 10
6802.744376055023
 20
1953.953045484133
 30
0.0
 11
6712.744376055023
 21
2453.953045484134
 31
0.0
 70
    32
  1
1000
 71
     5
 42
1000.0
  3
STANDARD
100
AcDbAlignedDimension
 13
6029.713107762514
 23
2953.953045484133
 33
0.0
 14
6029.713107762514
 24
1953.953045484133
 34
0.0
 50
90.0
100
AcDbRotatedDimension
1001
ACAD
1000
DSTYLE
1002
{
1070
    41
1040
60.0
1070
    42
1040
40.0
1070
    43
1040
140.0
1070
    44
1040
20.0
1070
    73
1070
     0
1070
    74
1070
     0
1070
   140
1040
90.0
1070
   145
1040
1.0
1070
   172
1070
     1
1070
   271
1070
     0
1070
   272
1070
     0
1070
   275
1070
     1
1070
   279
1070
     2
1070
   340
1005
9F
1002
}
  0
LINE
  5
794
330
17
100
AcDbEntity
  8
HASEN
100
AcDbLine
 10
5024.477134957708
 20
2080.935488010362
 30
0.0
 11
5018.215052046192
 21
2179.737240614298
 31
0.0
  0
LINE
  5
795
330
17
100
AcDbEntity
  8
SUNPOU
100
AcDbLine
 10
5009.183877476833
 20
2164.134744471125
 30
0.0
 11
5008.235077035693
 21
2179.104706986872
 31
0.0
  0
LINE
  5
796
330
17
100
AcDbEntity
  8
HASEN
100
AcDbLine
 10
5044.437084978705
 20
2082.200555265214
 30
0.0
 11
5038.175002067188
 21
2181.00230786915
 31
0.0
  0
LINE
  5
797
330
17
100
AcDbEntity
  8
SUNPOU
100
AcDbLine
 10
5049.103777518825
 20
2166.664878980828
 30
0.0
 11
5048.154977077686
 21
2181.634841496576
 31
0.0
  0
LINE
  5
798
330
17
100
AcDbEntity
  8
SUNPOU
100
AcDbLine
 10
4999.773182731017
 20
2154.520233334249
 30
0.0
 11
4999.203902466335
 21
2163.502210843699
 31
0.0
  0
LINE
  5
799
330
17
100
AcDbEntity
  8
SUNPOU
100
AcDbLine
 10
5059.653032794007
 20
2158.315435098805
 30
0.0
 11
5059.083752529324
 21
2167.297412608254
 31
0.0
  0
LINE
  5
79A
330
17
100
AcDbEntity
  8
SEIHIN
100
AcDbLine
 10
4977.165603732391
 20
2184.58477462573
 30
0.0
 11
4989.793207720518
 21
2153.887699706824
 31
0.0
  0
LINE
  5
79B
330
17
100
AcDbEntity
  8
SEIHIN
100
AcDbLine
 10
5078.724409379467
 20
2191.028117930135
 30
0.0
 11
5069.633007804506
 21
2158.947968726232
 31
0.0
  0
LINE
  5
79C
330
17
100
AcDbEntity
  8
HASEN
100
AcDbLine
 10
5024.477134957708
 20
2080.935488010362
 30
0.0
 11
5044.437084978705
 21
2082.200555265214
 31
0.0
  0
LINE
  5
79D
330
17
100
AcDbEntity
  8
SUNPOU
100
AcDbLine
 10
4999.203902466335
 20
2163.502210843699
 30
0.0
 11
5059.083752529325
 21
2167.297412608254
 31
0.0
  0
LINE
  5
79E
330
17
100
AcDbEntity
  8
SUNPOU
100
AcDbLine
 10
5008.235077035693
 20
2179.104706986872
 30
0.0
 11
5048.154977077687
 21
2181.634841496576
 31
0.0
  0
LINE
  5
7A1
330
17
100
AcDbEntity
  8
SUNPOU
100
AcDbLine
 10
5810.072716518614
 20
2664.683396128845
 30
0.0
 11
5795.127244614565
 21
2665.961233976641
 31
0.0
  0
LINE
  5
7A2
330
17
100
AcDbEntity
  8
SUNPOU
100
AcDbLine
 10
5810.924608417145
 20
2674.647044064878
 30
0.0
 11
5795.979136513096
 21
2675.924881912674
 31
0.0
  0
LINE
  5
7A3
330
17
100
AcDbEntity
  8
SUNPOU
100
AcDbLine
 10
5820.743783458106
 20
2683.843989292233
 30
0.0
 11
5811.776500315676
 21
2684.610692000911
 31
0.0
  0
LINE
  5
7A4
330
17
100
AcDbEntity
  8
SUNPOU
100
AcDbLine
 10
5808.368932721552
 20
2644.756100256778
 30
0.0
 11
5793.423460817503
 21
2646.033938104574
 31
0.0
  0
LINE
  5
7A5
330
17
100
AcDbEntity
  8
SUNPOU
100
AcDbLine
 10
5807.517040823022
 20
2634.792452320745
 30
0.0
 11
5792.571568918973
 21
2636.070290168541
 31
0.0
  0
LINE
  5
7A6
330
17
100
AcDbEntity
  8
SUNPOU
100
AcDbLine
 10
5815.63243206692
 20
2624.062101676033
 30
0.0
 11
5806.665148924491
 21
2624.828804384711
 31
0.0
  0
LINE
  5
7A7
330
17
100
AcDbEntity
  8
HASEN
100
AcDbLine
 10
5819.039999661045
 20
2663.916693420167
 30
0.0
 11
5893.767359181293
 21
2657.527504181186
 31
0.0
  0
LINE
  5
7A8
330
17
100
AcDbEntity
  8
HASEN
100
AcDbLine
 10
5817.336215863983
 20
2643.9893975481
 30
0.0
 11
5892.063575384231
 21
2637.600208309119
 31
0.0
  0
LINE
  5
7A9
330
17
100
AcDbEntity
  8
SEIHIN
100
AcDbLine
 10
5749.713107762513
 20
2715.008323797601
 30
0.0
 11
5821.595675356636
 21
2693.807637228267
 31
0.0
  0
LINE
  5
7AA
330
17
100
AcDbEntity
  8
SEIHIN
100
AcDbLine
 10
5749.713107762513
 20
2604.606992170667
 30
0.0
 11
5814.78054016839
 21
2614.09845374
 31
0.0
  0
LINE
  5
7AB
330
17
100
AcDbEntity
  8
HASEN
100
AcDbLine
 10
5893.767359181293
 20
2657.527504181186
 30
0.0
 11
5892.063575384231
 21
2637.600208309119
 31
0.0
  0
LINE
  5
7AC
330
17
100
AcDbEntity
  8
SUNPOU
100
AcDbLine
 10
5811.776500315676
 20
2684.610692000911
 30
0.0
 11
5806.665148924491
 21
2624.828804384711
 31
0.0
  0
LINE
  5
7AD
330
17
100
AcDbEntity
  8
SUNPOU
100
AcDbLine
 10
5795.979136513095
 20
2675.924881912674
 30
0.0
 11
5792.571568918973
 21
2636.070290168541
 31
0.0
  0
LINE
  5
7C2
330
17
100
AcDbEntity
  8
SEIHIN
100
AcDbLine
 10
6029.713107762514
 20
7158.059141917518
 30
0.0
 11
6029.713107762514
 21
10158.05914191752
 31
0.0
  0
LINE
  5
7C3
330
17
100
AcDbEntity
  8
SEIHIN
100
AcDbLine
 10
2779.713107762513
 20
7158.059141917517
 30
0.0
 11
2779.713107762513
 21
10158.05914191752
 31
0.0
  0
LINE
  5
7C4
330
17
100
AcDbEntity
  8
SEIHIN
100
AcDbLine
 10
6029.713107762514
 20
10158.05914191752
 30
0.0
 11
2779.713107762513
 21
10158.05914191752
 31
0.0
  0
LINE
  5
7C5
330
17
100
AcDbEntity
  8
SEIHIN
100
AcDbLine
 10
6029.713107762514
 20
8158.059141917518
 30
0.0
 11
2779.713107762513
 21
8158.059141917518
 31
0.0
  0
LINE
  5
7C6
330
17
100
AcDbEntity
  8
SEIHIN
100
AcDbLine
 10
6029.713107762514
 20
7158.059141917518
 30
0.0
 11
2779.713107762513
 21
7158.059141917518
 31
0.0
  0
LINE
  5
7C7
330
17
100
AcDbEntity
  8
SEIHIN
100
AcDbLine
 10
2829.713107762513
 20
7327.598631727652
 30
0.0
 11
4015.913107762512
 21
7327.598631727652
 31
0.0
  0
LINE
  5
7C8
330
17
100
AcDbEntity
  8
SEIHIN
100
AcDbLine
 10
2829.713107762513
 20
7227.598631727652
 30
0.0
 11
2829.713107762513
 21
8158.059141917518
 31
0.0
  0
LINE
  5
7C9
330
17
100
AcDbEntity
  8
SEIHIN
100
AcDbLine
 10
2779.713107762513
 20
7157.598631727652
 30
0.0
 11
6029.713107762513
 21
7157.598631727652
 31
0.0
  0
LINE
  5
7CA
330
17
100
AcDbEntity
  8
SEIHIN
100
AcDbLine
 10
2779.713107762513
 20
7227.598631727652
 30
0.0
 11
2829.713107762513
 21
7227.598631727652
 31
0.0
  0
LINE
  5
7CB
330
17
100
AcDbEntity
  8
SEIHIN
100
AcDbLine
 10
6029.713107762513
 20
7157.598631727652
 30
0.0
 11
6029.713107762513
 21
8157.598631727651
 31
0.0
  0
LINE
  5
7CC
330
17
100
AcDbEntity
  8
SEIHIN
100
AcDbLine
 10
5749.713107762514
 20
7737.598631727654
 30
0.0
 11
5749.713107762513
 21
8157.598631727651
 31
0.0
  0
DIMENSION
  5
7CD
330
17
100
AcDbEntity
  8
SUNPOU
100
AcDbDimension
  2
*D45
 10
6029.713107762513
 20
5665.61982058911
 30
0.0
 11
4404.713107762513
 21
5755.61982058911
 31
0.0
 12
-641.4756141930793
 22
-578.3544137564804
 32
0.0
 71
     5
 42
-1.0
100
AcDbAlignedDimension
 13
2779.713107762513
 23
7158.059141917518
 33
0.0
 14
6029.713107762513
 24
7157.598631727652
 34
0.0
100
AcDbRotatedDimension
1001
ACAD_DSTYLE_DIMARC_LENGTH_SYMBOL
1070
   379
1070
     0
1001
ACAD_DSTYLE_DIMJOGGED_JOGANGLE_SYMBOL
1070
   384
1040
0.7853981633974483
1001
ACAD_DSTYLE_DIMTEXT_FILL
1070
   376
1070
     0
1001
ACAD_DSTYLE_DIMEXT_ENABLED
1070
   383
1070
     0
1001
ACAD_DSTYLE_DIMEXT_LENGTH
1070
   378
1040
1.0
1001
ACAD_DSTYLE_DIM_LINETYPE
1070
   380
1005
0
1001
ACAD_DSTYLE_DIM_EXT1_LINETYPE
1070
   381
1005
0
1001
ACAD_DSTYLE_DIM_EXT2_LINETYPE
1070
   382
1005
0
  0
DIMENSION
  5
7D3
330
17
100
AcDbEntity
  8
SUNPOU
100
AcDbDimension
  2
*D51
 10
7603.370034066538
 20
8158.059141917518
 30
0.0
 11
7513.370034066539
 21
9158.059141917518
 31
0.0
 12
-641.4756141930793
 22
-578.3544137564804
 32
0.0
 71
     5
 42
-1.0
100
AcDbAlignedDimension
 13
6029.713107762514
 23
10158.05914191752
 33
0.0
 14
6029.713107762514
 24
8158.059141917518
 34
0.0
 50
90.0
100
AcDbRotatedDimension
1001
ACAD_DSTYLE_DIMARC_LENGTH_SYMBOL
1070
   379
1070
     0
1001
ACAD_DSTYLE_DIMJOGGED_JOGANGLE_SYMBOL
1070
   384
1040
0.7853981633974483
1001
ACAD_DSTYLE_DIMTEXT_FILL
1070
   376
1070
     0
1001
ACAD_DSTYLE_DIMEXT_ENABLED
1070
   383
1070
     0
1001
ACAD_DSTYLE_DIMEXT_LENGTH
1070
   378
1040
1.0
1001
ACAD_DSTYLE_DIM_LINETYPE
1070
   380
1005
0
1001
ACAD_DSTYLE_DIM_EXT1_LINETYPE
1070
   381
1005
0
1001
ACAD_DSTYLE_DIM_EXT2_LINETYPE
1070
   382
1005
0
  0
DIMENSION
  5
7D4
330
17
100
AcDbEntity
  8
SUNPOU
100
AcDbDimension
  2
*D52
 10
7603.370034066538
 20
7157.598631727651
 30
0.0
 11
7513.370034066539
 21
7657.828886822585
 31
0.0
 12
-641.4756141930793
 22
-578.3544137564804
 32
0.0
 71
     5
 42
-1.0
100
AcDbAlignedDimension
 13
7504.182704159075
 23
8158.059141917518
 33
0.0
 14
6029.713107762513
 24
7157.598631727652
 34
0.0
 50
90.0
100
AcDbRotatedDimension
1001
ACAD_DSTYLE_DIMARC_LENGTH_SYMBOL
1070
   379
1070
     0
1001
ACAD_DSTYLE_DIMJOGGED_JOGANGLE_SYMBOL
1070
   384
1040
0.7853981633974483
1001
ACAD_DSTYLE_DIMTEXT_FILL
1070
   376
1070
     0
1001
ACAD_DSTYLE_DIMEXT_ENABLED
1070
   383
1070
     0
1001
ACAD_DSTYLE_DIMEXT_LENGTH
1070
   378
1040
1.0
1001
ACAD_DSTYLE_DIM_LINETYPE
1070
   380
1005
0
1001
ACAD_DSTYLE_DIM_EXT1_LINETYPE
1070
   381
1005
0
1001
ACAD_DSTYLE_DIM_EXT2_LINETYPE
1070
   382
1005
0
  0
LINE
  5
7D8
330
17
100
AcDbEntity
  8
HAIKIN
100
AcDbLine
 10
14476.14140141127
 20
4.782363514603958
 30
0.0
 11
42.76504094623681
 21
4.782363514603958
 31
0.0
  0
LINE
  5
7D9
330
17
100
AcDbEntity
  8
HAIKIN
100
AcDbLine
 10
42.76504094623681
 20
4.782363514603958
 30
0.0
 11
42.76504094623681
 21
11593.23490938734
 31
0.0
  0
LINE
  5
7DA
330
17
100
AcDbEntity
  8
HAIKIN
100
AcDbLine
 10
42.76504094623681
 20
11593.23490938734
 30
0.0
 11
16721.13100996693
 21
11593.23490938734
 31
0.0
  0
LINE
  5
7DB
330
17
100
AcDbEntity
  8
HAIKIN
100
AcDbLine
 10
16721.13100996693
 20
11593.23490938734
 30
0.0
 11
16721.13100996693
 21
4.782363514603958
 31
0.0
  0
LINE
  5
7DC
330
17
100
AcDbEntity
  8
HAIKIN
100
AcDbLine
 10
14476.14140141127
 20
4.782363514603958
 30
0.0
 11
16721.13100996693
 21
4.782363514603958
 31
0.0
  0
LINE
  5
7DD
330
17
100
AcDbEntity
  8
SEIHIN
100
AcDbLine
 10
10434.51232522181
 20
7200.485548788709
 30
0.0
 11
10434.51232522181
 21
10158.05914191752
 31
0.0
  0
LINE
  5
7DE
330
17
100
AcDbEntity
  8
SEIHIN
100
AcDbLine
 10
10476.938732093
 20
7158.059141917517
 30
0.0
 11
13434.51232522181
 21
7158.059141917518
 31
0.0
  0
LINE
  5
7DF
330
17
100
AcDbEntity
  8
SEIHIN
100
AcDbLine
 10
10434.51232522181
 20
10158.05914191752
 30
0.0
 11
10700.51232522179
 21
10158.05914191752
 31
0.0
  0
LINE
  5
7E0
330
17
100
AcDbEntity
  8
SEIHIN
100
AcDbLine
 10
13434.51232522181
 20
7158.059141917517
 30
0.0
 11
13434.51232522181
 21
7424.059141917457
 31
0.0
  0
LINE
  5
7E1
330
17
100
AcDbEntity
  8
1HASEN
100
AcDbLine
 10
10434.51232522181
 20
8158.059141917518
 30
0.0
 11
11434.51232522181
 21
8158.059141917518
 31
0.0
  0
LINE
  5
7E2
330
17
100
AcDbEntity
  8
1HASEN
100
AcDbLine
 10
11434.51232522181
 20
7158.059141917518
 30
0.0
 11
11434.51232522181
 21
8158.059141917518
 31
0.0
  0
LINE
  5
7E3
330
17
100
AcDbEntity
  8
SEIHIN
100
AcDbLine
 10
12719.86766428114
 20
9408.059141917518
 30
0.0
 11
13384.51232522181
 21
9408.059141917518
 31
0.0
  0
LINE
  5
7E4
330
17
100
AcDbEntity
  8
SEIHIN
100
AcDbLine
 10
12684.51232522181
 20
9443.41448097684
 30
0.0
 11
12684.51232522181
 21
10108.05914191752
 31
0.0
  0
LINE
  5
7E5
330
17
100
AcDbEntity
  8
SEIHIN
100
AcDbLine
 10
12624.51232522181
 20
10108.05914191752
 30
0.0
 11
10700.51232522181
 21
10158.05914191752
 31
0.0
  0
LINE
  5
7E6
330
17
100
AcDbEntity
  8
SEIHIN
100
AcDbLine
 10
12624.51232522181
 20
10108.05914191752
 30
0.0
 11
12684.51232522181
 21
10108.05914191752
 31
0.0
  0
LINE
  5
7E7
330
17
100
AcDbEntity
  8
SEIHIN
100
AcDbLine
 10
10434.51232522181
 20
8158.059141917518
 30
0.0
 11
10700.51232522179
 21
8158.059141917518
 31
0.0
  0
LINE
  5
7E8
330
17
100
AcDbEntity
  8
SEIHIN
100
AcDbLine
 10
11417.79745203603
 20
8176.69960779107
 30
0.0
 11
10700.51232522181
 21
8158.059141917518
 31
0.0
  0
LINE
  5
7E9
330
17
100
AcDbEntity
  8
SEIHIN
100
AcDbLine
 10
13384.51232522181
 20
9348.059141917518
 30
0.0
 11
13434.51232522181
 21
7424.059141917517
 31
0.0
  0
LINE
  5
7EA
330
17
100
AcDbEntity
  8
SEIHIN
100
AcDbLine
 10
13384.51232522181
 20
9348.059141917518
 30
0.0
 11
13384.51232522181
 21
9408.059141917518
 31
0.0
  0
LINE
  5
7EB
330
17
100
AcDbEntity
  8
SEIHIN
100
AcDbLine
 10
11434.51232522181
 20
7158.059141917517
 30
0.0
 11
11434.51232522181
 21
7424.059141917457
 31
0.0
  0
LINE
  5
7EC
330
17
100
AcDbEntity
  8
SEIHIN
100
AcDbLine
 10
11453.15279109536
 20
8141.344268731742
 30
0.0
 11
11434.51232522181
 21
7424.059141917517
 31
0.0
  0
LINE
  5
7ED
330
17
100
AcDbEntity
  8
1HASEN
100
AcDbLine
 10
12684.51232522181
 20
9408.059141917518
 30
0.0
 11
11434.51232522181
 21
8158.059141917518
 31
0.0
  0
LINE
  5
7EE
330
17
100
AcDbEntity
  8
SEIHIN
100
AcDbLine
 10
12684.51232522181
 20
9443.414480976842
 30
0.0
 11
11416.83465569214
 21
8175.736811447181
 31
0.0
  0
LINE
  5
7EF
330
17
100
AcDbEntity
  8
SEIHIN
100
AcDbLine
 10
12719.86766428114
 20
9408.05914191752
 30
0.0
 11
11452.18999475147
 21
8140.381472387855
 31
0.0
  0
LINE
  5
7F0
330
17
100
AcDbEntity
  8
SEIHIN
100
AcDbLine
 10
11434.51232522181
 20
7738.059141917516
 30
0.0
 11
11434.51232522181
 21
7158.059141917518
 31
0.0
  0
LINE
  5
7F1
330
17
100
AcDbEntity
  8
SEIHIN
100
AcDbLine
 10
11014.51232522181
 20
8158.059141917518
 30
0.0
 11
10434.51232522181
 21
8158.059141917518
 31
0.0
  0
LINE
  5
7F2
330
17
100
AcDbEntity
  8
SEIHIN
100
AcDbLine
 10
10561.08086771673
 20
7228.059141917517
 30
0.0
 11
13434.51232522181
 21
7228.059141917518
 31
0.0
  0
LINE
  5
7F3
330
17
100
AcDbEntity
  8
SEIHIN
100
AcDbLine
 10
10504.51232522181
 20
7284.62768441244
 30
0.0
 11
10504.51232522181
 21
10158.05914191752
 31
0.0
  0
LINE
  5
7F4
330
17
100
AcDbEntity
  8
SEIHIN
100
AcDbLine
 10
11434.51232522181
 20
7408.059141917517
 30
0.0
 11
13434.51232522181
 21
7408.059141917518
 31
0.0
  0
LINE
  5
7F5
330
17
100
AcDbEntity
  8
SEIHIN
100
AcDbLine
 10
10684.51232522181
 20
8158.059141917518
 30
0.0
 11
10684.51232522181
 21
10158.05914191752
 31
0.0
  0
LINE
  5
7F6
330
17
100
AcDbEntity
  8
SEIHIN
100
AcDbLine
 10
11441.89278260226
 20
7708.059141917518
 30
0.0
 11
13434.51232522181
 21
7708.059141917518
 31
0.0
  0
LINE
  5
7F7
330
17
100
AcDbEntity
  8
SEIHIN
100
AcDbLine
 10
10984.51232522181
 20
8165.439599297977
 30
0.0
 11
10984.51232522181
 21
10158.05914191752
 31
0.0
  0
LINE
  5
7F8
330
17
100
AcDbEntity
  8
SEIHIN
100
AcDbLine
 10
10661.08086771673
 20
7328.059141917517
 30
0.0
 11
11434.51232522181
 21
7328.059141917517
 31
0.0
  0
LINE
  5
7F9
330
17
100
AcDbEntity
  8
SEIHIN
100
AcDbLine
 10
10604.51232522181
 20
7384.62768441244
 30
0.0
 11
10604.51232522181
 21
8158.05914191752
 31
0.0
  0
LINE
  5
7FA
330
17
100
AcDbEntity
  8
SEIHIN
100
AcDbLine
 10
10771.08086771673
 20
7438.059141917517
 30
0.0
 11
11434.51232522181
 21
7438.059141917517
 31
0.0
  0
LINE
  5
7FB
330
17
100
AcDbEntity
  8
SEIHIN
100
AcDbLine
 10
10714.51232522181
 20
7494.627684412438
 30
0.0
 11
10714.51232522181
 21
8158.05914191752
 31
0.0
  0
LINE
  5
7FC
330
17
100
AcDbEntity
  8
SEIHIN
100
AcDbLine
 10
11071.08086771673
 20
7738.059141917516
 30
0.0
 11
11434.51232522181
 21
7738.059141917516
 31
0.0
  0
LINE
  5
7FD
330
17
100
AcDbEntity
  8
SEIHIN
100
AcDbLine
 10
11014.51232522181
 20
7794.62768441244
 30
0.0
 11
11014.51232522181
 21
8158.05914191752
 31
0.0
  0
LINE
  5
7FE
330
17
100
AcDbEntity
  8
SEIHIN
100
AcDbLine
 10
11014.51232522181
 20
8158.059141917518
 30
0.0
 11
11384.51232522181
 21
8108.059141917518
 31
0.0
  0
LINE
  5
7FF
330
17
100
AcDbEntity
  8
SEIHIN
100
AcDbLine
 10
11384.51232522181
 20
8108.059141917518
 30
0.0
 11
11434.51232522181
 21
7738.059141917516
 31
0.0
  0
LINE
  5
800
330
17
100
AcDbEntity
  8
SEIHIN
100
AcDbLine
 10
10434.51232522181
 20
7214.62768441244
 30
0.0
 11
11014.51232522181
 21
7794.627684412437
 31
0.0
  0
LINE
  5
801
330
17
100
AcDbEntity
  8
SEIHIN
100
AcDbLine
 10
10491.08086771673
 20
7158.059141917517
 30
0.0
 11
11071.08086771673
 21
7738.059141917516
 31
0.0
  0
LINE
  5
802
330
17
100
AcDbEntity
  8
SEIHIN
100
AcDbLine
 10
10771.08086771673
 20
7438.059141917517
 30
0.0
 11
10714.51232522181
 21
7494.627684412438
 31
0.0
  0
LINE
  5
803
330
17
100
AcDbEntity
  8
SEIHIN
100
AcDbLine
 10
10661.08086771673
 20
7328.059141917517
 30
0.0
 11
10604.51232522181
 21
7384.62768441244
 31
0.0
  0
LINE
  5
804
330
17
100
AcDbEntity
  8
SEIHIN
100
AcDbLine
 10
10561.08086771673
 20
7228.059141917517
 30
0.0
 11
10504.51232522181
 21
7284.62768441244
 31
0.0
  0
LINE
  5
805
330
17
100
AcDbEntity
  8
SEIHIN
100
AcDbLine
 10
11014.51232522181
 20
7794.627684412439
 30
0.0
 11
11071.08086771673
 21
7738.059141917516
 31
0.0
  0
LINE
  5
806
330
17
100
AcDbEntity
  8
SEIHIN
100
AcDbLine
 10
10434.51232522181
 20
7200.485548788709
 30
0.0
 11
10476.938732093
 21
7158.059141917518
 31
0.0
  0
CIRCLE
  5
817
330
17
100
AcDbEntity
  8
SUNPOU
100
AcDbCircle
 10
12389.05290976163
 20
9303.518557377702
 30
0.0
 40
15.0
  0
CIRCLE
  5
818
330
17
100
AcDbEntity
  8
SUNPOU
100
AcDbCircle
 10
12431.47931663282
 20
9261.092150506509
 30
0.0
 40
15.0
  0
CIRCLE
  5
819
330
17
100
AcDbEntity
  8
SUNPOU
100
AcDbCircle
 10
12537.5453338108
 20
9155.026133328527
 30
0.0
 40
15.0
  0
CIRCLE
  5
81A
330
17
100
AcDbEntity
  8
SUNPOU
100
AcDbCircle
 10
12579.97174068199
 20
9112.599726457334
 30
0.0
 40
15.0
  0
CIRCLE
  5
81B
330
17
100
AcDbEntity
  8
SUNPOU
100
AcDbCircle
 10
11639.05290976162
 20
8553.518557377702
 30
0.0
 40
15.0
  0
CIRCLE
  5
81C
330
17
100
AcDbEntity
  8
SUNPOU
100
AcDbCircle
 10
11681.47931663282
 20
8511.092150506509
 30
0.0
 40
15.0
  0
CIRCLE
  5
81D
330
17
100
AcDbEntity
  8
SUNPOU
100
AcDbCircle
 10
11787.5453338108
 20
8405.026133328527
 30
0.0
 40
15.0
  0
CIRCLE
  5
81E
330
17
100
AcDbEntity
  8
SUNPOU
100
AcDbCircle
 10
11829.97174068199
 20
8362.599726457334
 30
0.0
 40
15.0
  0
LINE
  5
81F
330
17
100
AcDbEntity
  8
SEIHIN
100
AcDbLine
 10
12463.29912178621
 20
9186.845938481923
 30
0.0
 11
12332.4843672667
 21
9317.660693001433
 31
0.0
  0
LINE
  5
820
330
17
100
AcDbEntity
  8
SEIHIN
100
AcDbLine
 10
12463.29912178621
 20
9186.845938481922
 30
0.0
 11
12594.11387630572
 21
9056.03118396241
 31
0.0
  0
LINE
  5
821
330
17
100
AcDbEntity
  8
SEIHIN
100
AcDbLine
 10
12505.7255286574
 20
9229.272345353116
 30
0.0
 11
12374.91077413789
 21
9360.087099872626
 31
0.0
  0
LINE
  5
822
330
17
100
AcDbEntity
  8
SEIHIN
100
AcDbLine
 10
12505.7255286574
 20
9229.272345353114
 30
0.0
 11
12636.54028317692
 21
9098.457590833603
 31
0.0
  0
LINE
  5
823
330
17
100
AcDbEntity
  8
SEIHIN
100
AcDbLine
 10
12374.91077413789
 20
9360.087099872626
 30
0.0
 11
12332.4843672667
 21
9317.660693001433
 31
0.0
  0
LINE
  5
824
330
17
100
AcDbEntity
  8
SEIHIN
100
AcDbLine
 10
12636.54028317692
 20
9098.457590833605
 30
0.0
 11
12594.11387630572
 21
9056.031183962408
 31
0.0
  0
LINE
  5
825
330
17
100
AcDbEntity
  8
SEIHIN
100
AcDbLine
 10
11713.29912178621
 20
8436.845938481922
 30
0.0
 11
11582.4843672667
 21
8567.660693001433
 31
0.0
  0
LINE
  5
826
330
17
100
AcDbEntity
  8
SEIHIN
100
AcDbLine
 10
11755.7255286574
 20
8479.272345353114
 30
0.0
 11
11624.91077413789
 21
8610.087099872626
 31
0.0
  0
LINE
  5
827
330
17
100
AcDbEntity
  8
SEIHIN
100
AcDbLine
 10
11713.29912178621
 20
8436.84593848192
 30
0.0
 11
11844.11387630572
 21
8306.03118396241
 31
0.0
  0
LINE
  5
828
330
17
100
AcDbEntity
  8
SEIHIN
100
AcDbLine
 10
11755.7255286574
 20
8479.272345353113
 30
0.0
 11
11886.54028317692
 21
8348.457590833603
 31
0.0
  0
LINE
  5
829
330
17
100
AcDbEntity
  8
SEIHIN
100
AcDbLine
 10
11624.91077413789
 20
8610.087099872626
 30
0.0
 11
11582.4843672667
 21
8567.660693001433
 31
0.0
  0
LINE
  5
82A
330
17
100
AcDbEntity
  8
SEIHIN
100
AcDbLine
 10
11886.54028317692
 20
8348.457590833603
 30
0.0
 11
11844.11387630572
 21
8306.03118396241
 31
0.0
  0
LINE
  5
837
330
17
100
AcDbEntity
  8
1HASEN
100
AcDbLine
 10
11434.51232522181
 20
7914.656616979933
 30
0.0
 11
11434.51232522181
 21
7761.699808293715
 31
0.0
  0
LINE
  5
83C
330
17
100
AcDbEntity
  8
1HASEN
100
AcDbLine
 10
11213.95334229514
 20
8158.059141917518
 30
0.0
 11
11031.91788312153
 21
8158.059141917518
 31
0.0
  0
CIRCLE
  5
841
330
17
100
AcDbEntity
  8
SUNPOU
100
AcDbCircle
 10
11299.51232522181
 20
7858.059141917516
 30
0.0
 40
15.0
  0
CIRCLE
  5
842
330
17
100
AcDbEntity
  8
SUNPOU
100
AcDbCircle
 10
11359.51232522181
 20
7858.059141917516
 30
0.0
 40
15.0
  0
CIRCLE
  5
843
330
17
100
AcDbEntity
  8
SUNPOU
100
AcDbCircle
 10
11509.51232522181
 20
7858.059141917516
 30
0.0
 40
15.0
  0
CIRCLE
  5
844
330
17
100
AcDbEntity
  8
SUNPOU
100
AcDbCircle
 10
11569.51232522181
 20
7858.059141917516
 30
0.0
 40
15.0
  0
CIRCLE
  5
845
330
17
100
AcDbEntity
  8
SUNPOU
100
AcDbCircle
 10
11134.51232522181
 20
8293.059141917518
 30
0.0
 40
15.0
  0
CIRCLE
  5
846
330
17
100
AcDbEntity
  8
SUNPOU
100
AcDbCircle
 10
11134.51232522181
 20
8233.059141917518
 30
0.0
 40
15.0
  0
CIRCLE
  5
847
330
17
100
AcDbEntity
  8
SUNPOU
100
AcDbCircle
 10
11134.51232522181
 20
8083.059141917518
 30
0.0
 40
15.0
  0
CIRCLE
  5
848
330
17
100
AcDbEntity
  8
SUNPOU
100
AcDbCircle
 10
11134.51232522181
 20
8023.059141917518
 30
0.0
 40
15.0
  0
LINE
  5
849
330
17
100
AcDbEntity
  8
SEIHIN
100
AcDbLine
 10
11259.51232522181
 20
7888.059141917518
 30
0.0
 11
11609.51232522181
 21
7888.059141917516
 31
0.0
  0
LINE
  5
84A
330
17
100
AcDbEntity
  8
SEIHIN
100
AcDbLine
 10
11259.51232522181
 20
7828.059141917516
 30
0.0
 11
11609.51232522181
 21
7828.059141917516
 31
0.0
  0
LINE
  5
84B
330
17
100
AcDbEntity
  8
SEIHIN
100
AcDbLine
 10
11104.51232522181
 20
7983.059141917518
 30
0.0
 11
11104.51232522181
 21
8333.059141917518
 31
0.0
  0
LINE
  5
84C
330
17
100
AcDbEntity
  8
SEIHIN
100
AcDbLine
 10
11164.51232522181
 20
7983.059141917518
 30
0.0
 11
11164.51232522181
 21
8333.059141917518
 31
0.0
  0
LINE
  5
84D
330
17
100
AcDbEntity
  8
SEIHIN
100
AcDbLine
 10
11609.51232522181
 20
7888.059141917516
 30
0.0
 11
11609.51232522181
 21
7828.059141917516
 31
0.0
  0
LINE
  5
84E
330
17
100
AcDbEntity
  8
SEIHIN
100
AcDbLine
 10
11259.51232522181
 20
7888.059141917518
 30
0.0
 11
11259.51232522181
 21
7828.059141917516
 31
0.0
  0
LINE
  5
84F
330
17
100
AcDbEntity
  8
SEIHIN
100
AcDbLine
 10
11164.51232522181
 20
7983.059141917518
 30
0.0
 11
11104.51232522181
 21
7983.059141917516
 31
0.0
  0
LINE
  5
850
330
17
100
AcDbEntity
  8
SEIHIN
100
AcDbLine
 10
11164.51232522181
 20
8333.059141917518
 30
0.0
 11
11104.51232522181
 21
8333.059141917518
 31
0.0
  0
LINE
  5
859
330
17
100
AcDbEntity
  8
SUNPOU
100
AcDbLine
 10
11289.51232522181
 20
7257.059141917516
 30
0.0
 11
11289.51232522181
 21
7228.059141917517
 31
0.0
  0
LINE
  5
85A
330
17
100
AcDbEntity
  8
SUNPOU
100
AcDbLine
 10
11309.51232522181
 20
7257.059141917516
 30
0.0
 11
11309.51232522181
 21
7228.059141917517
 31
0.0
  0
LINE
  5
85B
330
17
100
AcDbEntity
  8
SUNPOU
100
AcDbLine
 10
11349.51232522181
 20
7257.059141917516
 30
0.0
 11
11349.51232522181
 21
7228.059141917517
 31
0.0
  0
LINE
  5
85C
330
17
100
AcDbEntity
  8
SUNPOU
100
AcDbLine
 10
11369.51232522181
 20
7257.059141917516
 30
0.0
 11
11369.51232522181
 21
7228.059141917517
 31
0.0
  0
LINE
  5
85D
330
17
100
AcDbEntity
  8
SUNPOU
100
AcDbLine
 10
11499.51232522181
 20
7257.059141917515
 30
0.0
 11
11499.51232522181
 21
7228.059141917517
 31
0.0
  0
LINE
  5
85E
330
17
100
AcDbEntity
  8
SUNPOU
100
AcDbLine
 10
11519.51232522181
 20
7257.059141917515
 30
0.0
 11
11519.51232522181
 21
7228.059141917517
 31
0.0
  0
LINE
  5
85F
330
17
100
AcDbEntity
  8
SUNPOU
100
AcDbLine
 10
11559.51232522181
 20
7257.059141917516
 30
0.0
 11
11559.51232522181
 21
7228.059141917517
 31
0.0
  0
LINE
  5
860
330
17
100
AcDbEntity
  8
SUNPOU
100
AcDbLine
 10
11579.51232522181
 20
7257.059141917517
 30
0.0
 11
11579.51232522181
 21
7228.059141917517
 31
0.0
  0
LINE
  5
861
330
17
100
AcDbEntity
  8
SEIHIN
100
AcDbLine
 10
11259.51232522181
 20
7237.059141917517
 30
0.0
 11
11609.51232522181
 21
7237.059141917518
 31
0.0
  0
LINE
  5
862
330
17
100
AcDbEntity
  8
SEIHIN
100
AcDbLine
 10
11609.51232522181
 20
7237.059141917518
 30
0.0
 11
11609.51232522181
 21
7228.059141917517
 31
0.0
  0
LINE
  5
863
330
17
100
AcDbEntity
  8
SEIHIN
100
AcDbLine
 10
11259.51232522181
 20
7237.059141917517
 30
0.0
 11
11259.51232522181
 21
7228.059141917517
 31
0.0
  0
LINE
  5
864
330
17
100
AcDbEntity
  8
SUNPOU
100
AcDbLine
 10
11279.51232522181
 20
7257.059141917516
 30
0.0
 11
11319.51232522181
 21
7257.059141917517
 31
0.0
  0
LINE
  5
865
330
17
100
AcDbEntity
  8
SUNPOU
100
AcDbLine
 10
11489.51232522181
 20
7257.059141917514
 30
0.0
 11
11489.51232522181
 21
7237.059141917518
 31
0.0
  0
LINE
  5
866
330
17
100
AcDbEntity
  8
SUNPOU
100
AcDbLine
 10
11529.51232522181
 20
7257.059141917515
 30
0.0
 11
11529.51232522181
 21
7237.059141917518
 31
0.0
  0
LINE
  5
867
330
17
100
AcDbEntity
  8
SUNPOU
100
AcDbLine
 10
11549.51232522181
 20
7257.059141917516
 30
0.0
 11
11549.51232522181
 21
7237.059141917517
 31
0.0
  0
LINE
  5
868
330
17
100
AcDbEntity
  8
SUNPOU
100
AcDbLine
 10
11589.51232522181
 20
7257.059141917517
 30
0.0
 11
11589.51232522181
 21
7237.059141917517
 31
0.0
  0
LINE
  5
869
330
17
100
AcDbEntity
  8
SUNPOU
100
AcDbLine
 10
11379.51232522181
 20
7257.059141917516
 30
0.0
 11
11379.51232522181
 21
7237.059141917517
 31
0.0
  0
LINE
  5
86A
330
17
100
AcDbEntity
  8
SUNPOU
100
AcDbLine
 10
11339.51232522181
 20
7257.059141917517
 30
0.0
 11
11339.51232522181
 21
7237.059141917516
 31
0.0
  0
LINE
  5
86B
330
17
100
AcDbEntity
  8
SUNPOU
100
AcDbLine
 10
11319.51232522181
 20
7257.059141917517
 30
0.0
 11
11319.51232522181
 21
7237.059141917516
 31
0.0
  0
LINE
  5
86C
330
17
100
AcDbEntity
  8
SUNPOU
100
AcDbLine
 10
11279.51232522181
 20
7257.059141917516
 30
0.0
 11
11279.51232522181
 21
7237.059141917517
 31
0.0
  0
LINE
  5
86D
330
17
100
AcDbEntity
  8
SUNPOU
100
AcDbLine
 10
11549.51232522181
 20
7257.059141917516
 30
0.0
 11
11589.51232522181
 21
7257.059141917517
 31
0.0
  0
LINE
  5
86E
330
17
100
AcDbEntity
  8
SUNPOU
100
AcDbLine
 10
11489.51232522181
 20
7257.059141917515
 30
0.0
 11
11529.51232522181
 21
7257.059141917516
 31
0.0
  0
LINE
  5
86F
330
17
100
AcDbEntity
  8
SUNPOU
100
AcDbLine
 10
11339.51232522181
 20
7257.059141917516
 30
0.0
 11
11379.51232522181
 21
7257.059141917515
 31
0.0
  0
LINE
  5
870
330
17
100
AcDbEntity
  8
SEIHIN
100
AcDbLine
 10
11229.51232522181
 20
7328.059141917518
 30
0.0
 11
11244.51232522181
 21
7228.059141917517
 31
0.0
  0
LINE
  5
871
330
17
100
AcDbEntity
  8
SUNPOU
100
AcDbLine
 10
10534.51232522181
 20
8303.059141917518
 30
0.0
 11
10504.51232522181
 21
8303.05914191752
 31
0.0
  0
LINE
  5
872
330
17
100
AcDbEntity
  8
SUNPOU
100
AcDbLine
 10
10534.51232522181
 20
8313.059141917518
 30
0.0
 11
10514.51232522181
 21
8313.059141917518
 31
0.0
  0
LINE
  5
873
330
17
100
AcDbEntity
  8
SUNPOU
100
AcDbLine
 10
10534.51232522181
 20
8283.059141917518
 30
0.0
 11
10504.51232522181
 21
8283.05914191752
 31
0.0
  0
LINE
  5
874
330
17
100
AcDbEntity
  8
SUNPOU
100
AcDbLine
 10
10534.51232522181
 20
8273.059141917518
 30
0.0
 11
10514.51232522181
 21
8273.059141917518
 31
0.0
  0
LINE
  5
875
330
17
100
AcDbEntity
  8
SUNPOU
100
AcDbLine
 10
10534.51232522181
 20
8243.059141917518
 30
0.0
 11
10504.51232522181
 21
8243.05914191752
 31
0.0
  0
LINE
  5
876
330
17
100
AcDbEntity
  8
SUNPOU
100
AcDbLine
 10
10534.51232522181
 20
8253.059141917518
 30
0.0
 11
10514.51232522181
 21
8253.059141917518
 31
0.0
  0
LINE
  5
877
330
17
100
AcDbEntity
  8
SUNPOU
100
AcDbLine
 10
10534.51232522181
 20
8223.059141917518
 30
0.0
 11
10504.51232522181
 21
8223.05914191752
 31
0.0
  0
LINE
  5
878
330
17
100
AcDbEntity
  8
SUNPOU
100
AcDbLine
 10
10534.51232522181
 20
8213.059141917518
 30
0.0
 11
10514.51232522181
 21
8213.059141917518
 31
0.0
  0
LINE
  5
879
330
17
100
AcDbEntity
  8
SUNPOU
100
AcDbLine
 10
10534.51232522181
 20
8093.059141917518
 30
0.0
 11
10504.51232522181
 21
8093.05914191752
 31
0.0
  0
LINE
  5
87A
330
17
100
AcDbEntity
  8
SUNPOU
100
AcDbLine
 10
10534.51232522181
 20
8103.059141917518
 30
0.0
 11
10514.51232522181
 21
8103.059141917518
 31
0.0
  0
LINE
  5
87B
330
17
100
AcDbEntity
  8
SUNPOU
100
AcDbLine
 10
10534.51232522181
 20
8073.059141917518
 30
0.0
 11
10504.51232522181
 21
8073.05914191752
 31
0.0
  0
LINE
  5
87C
330
17
100
AcDbEntity
  8
SUNPOU
100
AcDbLine
 10
10534.51232522181
 20
8063.059141917518
 30
0.0
 11
10514.51232522181
 21
8063.059141917518
 31
0.0
  0
LINE
  5
87D
330
17
100
AcDbEntity
  8
SUNPOU
100
AcDbLine
 10
10534.51232522181
 20
8033.059141917518
 30
0.0
 11
10504.51232522181
 21
8033.059141917518
 31
0.0
  0
LINE
  5
87E
330
17
100
AcDbEntity
  8
SUNPOU
100
AcDbLine
 10
10534.51232522181
 20
8043.059141917518
 30
0.0
 11
10514.51232522181
 21
8043.059141917518
 31
0.0
  0
LINE
  5
87F
330
17
100
AcDbEntity
  8
SUNPOU
100
AcDbLine
 10
10534.51232522181
 20
8013.059141917518
 30
0.0
 11
10504.51232522181
 21
8013.059141917516
 31
0.0
  0
LINE
  5
880
330
17
100
AcDbEntity
  8
SUNPOU
100
AcDbLine
 10
10534.51232522181
 20
8003.059141917518
 30
0.0
 11
10514.51232522181
 21
8003.059141917518
 31
0.0
  0
LINE
  5
881
330
17
100
AcDbEntity
  8
SEIHIN
100
AcDbLine
 10
10514.51232522181
 20
7983.059141917518
 30
0.0
 11
10514.51232522181
 21
8333.059141917518
 31
0.0
  0
LINE
  5
882
330
17
100
AcDbEntity
  8
SEIHIN
100
AcDbLine
 10
10514.51232522181
 20
8333.059141917518
 30
0.0
 11
10504.51232522181
 21
8333.059141917518
 31
0.0
  0
LINE
  5
883
330
17
100
AcDbEntity
  8
SEIHIN
100
AcDbLine
 10
10514.51232522181
 20
7983.059141917518
 30
0.0
 11
10504.51232522181
 21
7983.059141917518
 31
0.0
  0
LINE
  5
884
330
17
100
AcDbEntity
  8
SUNPOU
100
AcDbLine
 10
10534.51232522181
 20
8003.059141917518
 30
0.0
 11
10534.51232522181
 21
8043.059141917518
 31
0.0
  0
LINE
  5
885
330
17
100
AcDbEntity
  8
SUNPOU
100
AcDbLine
 10
10534.51232522181
 20
8273.059141917516
 30
0.0
 11
10534.51232522181
 21
8313.059141917518
 31
0.0
  0
LINE
  5
886
330
17
100
AcDbEntity
  8
SUNPOU
100
AcDbLine
 10
10534.51232522181
 20
8213.05914191752
 30
0.0
 11
10534.51232522181
 21
8253.059141917518
 31
0.0
  0
LINE
  5
887
330
17
100
AcDbEntity
  8
SUNPOU
100
AcDbLine
 10
10534.51232522181
 20
8063.059141917518
 30
0.0
 11
10534.51232522181
 21
8103.059141917518
 31
0.0
  0
LINE
  5
890
330
17
100
AcDbEntity
  8
SEIHIN
100
AcDbLine
 10
10504.51232522181
 20
7968.059141917518
 30
0.0
 11
10604.51232522181
 21
7953.059141917518
 31
0.0
  0
LINE
  5
891
330
17
100
AcDbEntity
  8
SEIHIN
100
AcDbLine
 10
4015.913107762512
 20
7327.598631727651
 30
0.0
 11
5449.713107762514
 21
7418.5652945492
 31
0.0
  0
DIMENSION
  5
892
330
17
100
AcDbEntity
  8
SUNPOU
100
AcDbDimension
  2
*D75
 10
5749.713107762513
 20
5955.655859535987
 30
0.0
 11
5889.713107762513
 21
6045.655859535987
 31
0.0
 12
-641.4756141930793
 22
0.0
 32
0.0
 71
     5
 42
-1.0
100
AcDbAlignedDimension
 13
6029.713107762513
 23
6201.433704407314
 33
0.0
 14
5749.713107762513
 24
7145.50726257929
 34
0.0
100
AcDbRotatedDimension
1001
ACAD_DSTYLE_DIMARC_LENGTH_SYMBOL
1070
   379
1070
     0
1001
ACAD_DSTYLE_DIMJOGGED_JOGANGLE_SYMBOL
1070
   384
1040
0.7853981633974483
1001
ACAD_DSTYLE_DIMTEXT_FILL
1070
   376
1070
     0
1001
ACAD_DSTYLE_DIMEXT_ENABLED
1070
   383
1070
     0
1001
ACAD_DSTYLE_DIMEXT_LENGTH
1070
   378
1040
1.0
1001
ACAD_DSTYLE_DIM_LINETYPE
1070
   380
1005
0
1001
ACAD_DSTYLE_DIM_EXT1_LINETYPE
1070
   381
1005
0
1001
ACAD_DSTYLE_DIM_EXT2_LINETYPE
1070
   382
1005
0
  0
DIMENSION
  5
893
330
17
100
AcDbEntity
  8
SUNPOU
100
AcDbDimension
  2
*D74
 10
5749.713107762513
 20
5955.655859535987
 30
0.0
 11
4264.713107762513
 21
6045.655859535987
 31
0.0
 12
-641.4756141930793
 22
0.0
 32
0.0
 71
     5
 42
-1.0
100
AcDbAlignedDimension
 13
2779.713107762513
 23
6025.292915582863
 33
0.0
 14
5749.713107762513
 24
6053.966997484518
 34
0.0
100
AcDbRotatedDimension
1001
ACAD_DSTYLE_DIMARC_LENGTH_SYMBOL
1070
   379
1070
     0
1001
ACAD_DSTYLE_DIMJOGGED_JOGANGLE_SYMBOL
1070
   384
1040
0.7853981633974483
1001
ACAD_DSTYLE_DIMTEXT_FILL
1070
   376
1070
     0
1001
ACAD_DSTYLE_DIMEXT_ENABLED
1070
   383
1070
     0
1001
ACAD_DSTYLE_DIMEXT_LENGTH
1070
   378
1040
1.0
1001
ACAD_DSTYLE_DIM_LINETYPE
1070
   380
1005
0
1001
ACAD_DSTYLE_DIM_EXT1_LINETYPE
1070
   381
1005
0
1001
ACAD_DSTYLE_DIM_EXT2_LINETYPE
1070
   382
1005
0
  0
DIMENSION
  5
896
330
17
100
AcDbEntity
  8
SUNPOU
100
AcDbDimension
  2
*D76
 10
2061.469182179784
 20
7227.598631727652
 30
0.0
 11
1971.469182179785
 21
7129.433162644347
 31
0.0
 12
-641.4756141930793
 22
0.0
 32
0.0
 70
   128
 71
     5
 42
-1.0
100
AcDbAlignedDimension
 13
2779.713107762513
 23
7158.059141917517
 33
0.0
 14
2779.713107762513
 24
7227.598631727652
 34
0.0
 50
90.0
100
AcDbRotatedDimension
1001
ACAD_DSTYLE_DIMARC_LENGTH_SYMBOL
1070
   379
1070
     0
1001
ACAD_DSTYLE_DIMJOGGED_JOGANGLE_SYMBOL
1070
   384
1040
0.7853981633974483
1001
ACAD_DSTYLE_DIMTEXT_FILL
1070
   376
1070
     0
1001
ACAD_DSTYLE_DIMEXT_ENABLED
1070
   383
1070
     0
1001
ACAD_DSTYLE_DIMEXT_LENGTH
1070
   378
1040
1.0
1001
ACAD_DSTYLE_DIM_LINETYPE
1070
   380
1005
0
1001
ACAD_DSTYLE_DIM_EXT1_LINETYPE
1070
   381
1005
0
1001
ACAD_DSTYLE_DIM_EXT2_LINETYPE
1070
   382
1005
0
  0
DIMENSION
  5
897
330
17
100
AcDbEntity
  8
SUNPOU
100
AcDbDimension
  2
*D77
 10
2061.469182179784
 20
7327.598631727652
 30
0.0
 11
1971.469182179785
 21
7411.721917220591
 31
0.0
 12
-641.4756141930793
 22
0.0
 32
0.0
 70
   128
 71
     5
 42
-1.0
100
AcDbAlignedDimension
 13
2779.713107762513
 23
7227.598631727652
 33
0.0
 14
2779.713107762513
 24
7327.598631727652
 34
0.0
 50
90.0
100
AcDbRotatedDimension
1001
ACAD_DSTYLE_DIMARC_LENGTH_SYMBOL
1070
   379
1070
     0
1001
ACAD_DSTYLE_DIMJOGGED_JOGANGLE_SYMBOL
1070
   384
1040
0.7853981633974483
1001
ACAD_DSTYLE_DIMTEXT_FILL
1070
   376
1070
     0
1001
ACAD_DSTYLE_DIMEXT_ENABLED
1070
   383
1070
     0
1001
ACAD_DSTYLE_DIMEXT_LENGTH
1070
   378
1040
1.0
1001
ACAD_DSTYLE_DIM_LINETYPE
1070
   380
1005
0
1001
ACAD_DSTYLE_DIM_EXT1_LINETYPE
1070
   381
1005
0
1001
ACAD_DSTYLE_DIM_EXT2_LINETYPE
1070
   382
1005
0
  0
DIMENSION
  5
898
330
17
100
AcDbEntity
  8
SUNPOU
100
AcDbDimension
  2
*D78
 10
1752.298401128102
 20
7328.059141917517
 30
0.0
 11
1662.298401128102
 21
7289.24262775638
 31
0.0
 12
-641.4756141930793
 22
0.0
 32
0.0
 70
   128
 71
     5
 42
-1.0
100
AcDbAlignedDimension
 13
2139.575484761264
 23
7158.059141917517
 33
0.0
 14
2139.575484761264
 24
7328.059141917517
 34
0.0
 50
90.0
100
AcDbRotatedDimension
1001
ACAD_DSTYLE_DIMARC_LENGTH_SYMBOL
1070
   379
1070
     0
1001
ACAD_DSTYLE_DIMJOGGED_JOGANGLE_SYMBOL
1070
   384
1040
0.7853981633974483
1001
ACAD_DSTYLE_DIMTEXT_FILL
1070
   376
1070
     0
1001
ACAD_DSTYLE_DIMEXT_ENABLED
1070
   383
1070
     0
1001
ACAD_DSTYLE_DIMEXT_LENGTH
1070
   378
1040
1.0
1001
ACAD_DSTYLE_DIM_LINETYPE
1070
   380
1005
0
1001
ACAD_DSTYLE_DIM_EXT1_LINETYPE
1070
   381
1005
0
1001
ACAD_DSTYLE_DIM_EXT2_LINETYPE
1070
   382
1005
0
  0
DIMENSION
  5
8F4
330
17
100
AcDbEntity
  8
SUNPOU
100
AcDbDimension
  2
*D85
 10
7231.417546913552
 20
7438.059141917517
 30
0.0
 11
7141.417546913552
 21
7798.059141917517
 31
0.0
 12
-641.4756141930793
 22
0.0
 32
0.0
 71
     5
 42
-1.0
100
AcDbAlignedDimension
 13
6981.008563334561
 23
8158.059141917518
 33
0.0
 14
6032.09607997703
 24
7438.059141917518
 34
0.0
 50
90.0
100
AcDbRotatedDimension
1001
ACAD_DSTYLE_DIMARC_LENGTH_SYMBOL
1070
   379
1070
     0
1001
ACAD_DSTYLE_DIMJOGGED_JOGANGLE_SYMBOL
1070
   384
1040
0.7853981633974483
1001
ACAD_DSTYLE_DIMTEXT_FILL
1070
   376
1070
     0
1001
ACAD_DSTYLE_DIMEXT_ENABLED
1070
   383
1070
     0
1001
ACAD_DSTYLE_DIMEXT_LENGTH
1070
   378
1040
1.0
1001
ACAD_DSTYLE_DIM_LINETYPE
1070
   380
1005
0
1001
ACAD_DSTYLE_DIM_EXT1_LINETYPE
1070
   381
1005
0
1001
ACAD_DSTYLE_DIM_EXT2_LINETYPE
1070
   382
1005
0
  0
DIMENSION
  5
8F5
330
17
100
AcDbEntity
  8
SUNPOU
100
AcDbDimension
  2
*D84
 10
7231.417546913551
 20
7157.598631727651
 30
0.0
 11
7141.417546913551
 21
7297.828886822585
 31
0.0
 12
-641.4756141930793
 22
0.0
 32
0.0
 71
     5
 42
-1.0
100
AcDbAlignedDimension
 13
7164.906331427106
 23
7438.059141917518
 33
0.0
 14
7186.974063598211
 24
7157.598631727651
 34
0.0
 50
90.0
100
AcDbRotatedDimension
1001
ACAD_DSTYLE_DIMARC_LENGTH_SYMBOL
1070
   379
1070
     0
1001
ACAD_DSTYLE_DIMJOGGED_JOGANGLE_SYMBOL
1070
   384
1040
0.7853981633974483
1001
ACAD_DSTYLE_DIMTEXT_FILL
1070
   376
1070
     0
1001
ACAD_DSTYLE_DIMEXT_ENABLED
1070
   383
1070
     0
1001
ACAD_DSTYLE_DIMEXT_LENGTH
1070
   378
1040
1.0
1001
ACAD_DSTYLE_DIM_LINETYPE
1070
   380
1005
0
1001
ACAD_DSTYLE_DIM_EXT1_LINETYPE
1070
   381
1005
0
1001
ACAD_DSTYLE_DIM_EXT2_LINETYPE
1070
   382
1005
0
  0
DIMENSION
  5
8F9
330
17
100
AcDbEntity
  8
SUNPOU
100
AcDbDimension
  2
*D89
 10
15017.46021981799
 20
7158.059141917519
 30
0.0
 11
14927.46021981799
 21
8283.059141917516
 31
0.0
 71
     5
 42
-1.0
100
AcDbAlignedDimension
 13
13384.51232522181
 23
9408.059141917518
 33
0.0
 14
13434.51232522181
 24
7158.059141917519
 34
0.0
 50
90.0
100
AcDbRotatedDimension
1001
ACAD_DSTYLE_DIMARC_LENGTH_SYMBOL
1070
   379
1070
     0
1001
ACAD_DSTYLE_DIMJOGGED_JOGANGLE_SYMBOL
1070
   384
1040
0.7853981633974483
1001
ACAD_DSTYLE_DIMTEXT_FILL
1070
   376
1070
     0
1001
ACAD_DSTYLE_DIMEXT_ENABLED
1070
   383
1070
     0
1001
ACAD_DSTYLE_DIMEXT_LENGTH
1070
   378
1040
1.0
1001
ACAD_DSTYLE_DIM_LINETYPE
1070
   380
1005
0
1001
ACAD_DSTYLE_DIM_EXT1_LINETYPE
1070
   381
1005
0
1001
ACAD_DSTYLE_DIM_EXT2_LINETYPE
1070
   382
1005
0
  0
DIMENSION
  5
8FA
330
17
100
AcDbEntity
  8
SUNPOU
100
AcDbDimension
  2
*D90
 10
12684.51232522181
 20
11136.68089528836
 30
0.0
 11
11559.51232522181
 21
11226.68089528836
 31
0.0
 71
     5
 42
-1.0
100
AcDbAlignedDimension
 13
10434.51232522181
 23
10158.05914191752
 33
0.0
 14
12684.51232522181
 24
10108.05914191752
 34
0.0
100
AcDbRotatedDimension
1001
ACAD_DSTYLE_DIMARC_LENGTH_SYMBOL
1070
   379
1070
     0
1001
ACAD_DSTYLE_DIMJOGGED_JOGANGLE_SYMBOL
1070
   384
1040
0.7853981633974483
1001
ACAD_DSTYLE_DIMTEXT_FILL
1070
   376
1070
     0
1001
ACAD_DSTYLE_DIMEXT_ENABLED
1070
   383
1070
     0
1001
ACAD_DSTYLE_DIMEXT_LENGTH
1070
   378
1040
1.0
1001
ACAD_DSTYLE_DIM_LINETYPE
1070
   380
1005
0
1001
ACAD_DSTYLE_DIM_EXT1_LINETYPE
1070
   381
1005
0
1001
ACAD_DSTYLE_DIM_EXT2_LINETYPE
1070
   382
1005
0
  0
DIMENSION
  5
903
330
17
100
AcDbEntity
  8
SUNPOU
100
AcDbDimension
  2
*D99
 10
15017.46021981799
 20
10108.05914191752
 30
0.0
 11
14927.46021981799
 21
10277.31098345701
 31
0.0
 70
   128
 71
     5
 42
-1.0
100
AcDbAlignedDimension
 13
10434.51232522181
 23
10158.05914191752
 33
0.0
 14
12684.51232522181
 24
10108.05914191752
 34
0.0
 50
90.0
100
AcDbRotatedDimension
1001
ACAD_DSTYLE_DIMARC_LENGTH_SYMBOL
1070
   379
1070
     0
1001
ACAD_DSTYLE_DIMJOGGED_JOGANGLE_SYMBOL
1070
   384
1040
0.7853981633974483
1001
ACAD_DSTYLE_DIMTEXT_FILL
1070
   376
1070
     0
1001
ACAD_DSTYLE_DIMEXT_ENABLED
1070
   383
1070
     0
1001
ACAD_DSTYLE_DIMEXT_LENGTH
1070
   378
1040
1.0
1001
ACAD_DSTYLE_DIM_LINETYPE
1070
   380
1005
0
1001
ACAD_DSTYLE_DIM_EXT1_LINETYPE
1070
   381
1005
0
1001
ACAD_DSTYLE_DIM_EXT2_LINETYPE
1070
   382
1005
0
  0
DIMENSION
  5
904
330
17
100
AcDbEntity
  8
SUNPOU
100
AcDbDimension
  2
*D100
 10
15017.46021981799
 20
9443.41448097684
 30
0.0
 11
14927.46021981799
 21
9775.736811447177
 31
0.0
 71
     5
 42
-1.0
100
AcDbAlignedDimension
 13
14814.93176689482
 23
10108.05914191752
 33
0.0
 14
12684.51232522181
 24
9443.414480976842
 34
0.0
 50
90.0
100
AcDbRotatedDimension
1001
ACAD_DSTYLE_DIMARC_LENGTH_SYMBOL
1070
   379
1070
     0
1001
ACAD_DSTYLE_DIMJOGGED_JOGANGLE_SYMBOL
1070
   384
1040
0.7853981633974483
1001
ACAD_DSTYLE_DIMTEXT_FILL
1070
   376
1070
     0
1001
ACAD_DSTYLE_DIMEXT_ENABLED
1070
   383
1070
     0
1001
ACAD_DSTYLE_DIMEXT_LENGTH
1070
   378
1040
1.0
1001
ACAD_DSTYLE_DIM_LINETYPE
1070
   380
1005
0
1001
ACAD_DSTYLE_DIM_EXT1_LINETYPE
1070
   381
1005
0
1001
ACAD_DSTYLE_DIM_EXT2_LINETYPE
1070
   382
1005
0
  0
TEXT
  5
905
330
17
100
AcDbEntity
  8
SUNPOU
100
AcDbText
 10
15164.36408856835
 20
9346.806014239479
 30
0.0
 40
90.0
  1
35
 50
90.0
  7
A
100
AcDbText
  0
TEXT
  5
953
330
17
100
AcDbEntity
  8
SUNPOU
100
AcDbText
 10
11107.95821886891
 20
9624.231667591592
 30
0.0
 40
90.0
  1
デザインウォールコーナー左
  7
A
100
AcDbText
  0
TEXT
  5
958
330
17
100
AcDbEntity
  8
SUNPOU
100
AcDbText
 10
11932.39819163111
 20
8157.377340778423
 30
0.0
 40
90.0
  1
デザインウォールコーナー右
  7
A
100
AcDbText
  0
DIMENSION
  5
959
330
17
100
AcDbEntity
  8
SUNPOU
100
AcDbDimension
  2
*D104
 10
11434.51232522181
 20
6329.670709548401
 30
0.0
 11
12434.51232522181
 21
6419.670709548401
 31
0.0
 71
     5
 42
-1.0
100
AcDbAlignedDimension
 13
13434.51232522181
 23
7158.059141917519
 33
0.0
 14
11434.51232522181
 24
7158.059141917519
 34
0.0
100
AcDbRotatedDimension
1001
ACAD_DSTYLE_DIMARC_LENGTH_SYMBOL
1070
   379
1070
     0
1001
ACAD_DSTYLE_DIMJOGGED_JOGANGLE_SYMBOL
1070
   384
1040
0.7853981633974483
1001
ACAD_DSTYLE_DIMTEXT_FILL
1070
   376
1070
     0
1001
ACAD_DSTYLE_DIMEXT_ENABLED
1070
   383
1070
     0
1001
ACAD_DSTYLE_DIMEXT_LENGTH
1070
   378
1040
1.0
1001
ACAD_DSTYLE_DIM_LINETYPE
1070
   380
1005
0
1001
ACAD_DSTYLE_DIM_EXT1_LINETYPE
1070
   381
1005
0
1001
ACAD_DSTYLE_DIM_EXT2_LINETYPE
1070
   382
1005
0
  0
DIMENSION
  5
95A
330
17
100
AcDbEntity
  8
SUNPOU
100
AcDbDimension
  2
*D105
 10
10434.51232522181
 20
6329.670709548401
 30
0.0
 11
10934.51232522181
 21
6419.670709548401
 31
0.0
 71
     5
 42
-1.0
100
AcDbAlignedDimension
 13
11434.51232522181
 23
6779.705601875613
 33
0.0
 14
10434.51232522181
 24
7113.064781377252
 34
0.0
100
AcDbRotatedDimension
1001
ACAD_DSTYLE_DIMARC_LENGTH_SYMBOL
1070
   379
1070
     0
1001
ACAD_DSTYLE_DIMJOGGED_JOGANGLE_SYMBOL
1070
   384
1040
0.7853981633974483
1001
ACAD_DSTYLE_DIMTEXT_FILL
1070
   376
1070
     0
1001
ACAD_DSTYLE_DIMEXT_ENABLED
1070
   383
1070
     0
1001
ACAD_DSTYLE_DIMEXT_LENGTH
1070
   378
1040
1.0
1001
ACAD_DSTYLE_DIM_LINETYPE
1070
   380
1005
0
1001
ACAD_DSTYLE_DIM_EXT1_LINETYPE
1070
   381
1005
0
1001
ACAD_DSTYLE_DIM_EXT2_LINETYPE
1070
   382
1005
0
  0
TEXT
  5
965
330
17
100
AcDbEntity
  8
SUNPOU
100
AcDbText
 10
12481.05856812287
 20
8758.188842985119
 30
0.0
 40
90.0
  1
    
  7
A
100
AcDbText
  0
TEXT
  5
968
330
17
100
AcDbEntity
  8
SUNPOU
100
AcDbText
 10
12431.13966502665
 20
8758.188842985119
 30
0.0
 40
90.0
  1
    
  7
A
100
AcDbText
  0
TEXT
  5
970
330
17
100
AcDbEntity
  8
SUNPOU
100
AcDbText
 10
10102.55030541793
 20
8841.528637860527
 30
0.0
 40
90.0
  1
   
  7
A
100
AcDbText
  0
DIMENSION
  5
971
330
17
100
AcDbEntity
  8
SUNPOU
100
AcDbDimension
  2
*D109
 10
8916.078160820178
 20
8158.059141917516
 30
0.0
 11
8826.078160820178
 21
9158.059141917516
 31
0.0
 71
     5
 42
-1.0
100
AcDbAlignedDimension
 13
10434.51232522181
 23
10158.05914191752
 33
0.0
 14
10434.51232522181
 24
8158.059141917516
 34
0.0
 50
90.0
100
AcDbRotatedDimension
1001
ACAD_DSTYLE_DIMARC_LENGTH_SYMBOL
1070
   379
1070
     0
1001
ACAD_DSTYLE_DIMJOGGED_JOGANGLE_SYMBOL
1070
   384
1040
0.7853981633974483
1001
ACAD_DSTYLE_DIMTEXT_FILL
1070
   376
1070
     0
1001
ACAD_DSTYLE_DIMEXT_ENABLED
1070
   383
1070
     0
1001
ACAD_DSTYLE_DIMEXT_LENGTH
1070
   378
1040
1.0
1001
ACAD_DSTYLE_DIM_LINETYPE
1070
   380
1005
0
1001
ACAD_DSTYLE_DIM_EXT1_LINETYPE
1070
   381
1005
0
1001
ACAD_DSTYLE_DIM_EXT2_LINETYPE
1070
   382
1005
0
  0
DIMENSION
  5
972
330
17
100
AcDbEntity
  8
SUNPOU
100
AcDbDimension
  2
*D110
 10
8916.078160820178
 20
7158.059141917516
 30
0.0
 11
8826.078160820178
 21
7658.059141917516
 31
0.0
 71
     5
 42
-1.0
100
AcDbAlignedDimension
 13
9598.30316980182
 23
8158.059141917516
 33
0.0
 14
10430.28488807212
 24
7158.059141917516
 34
0.0
 50
90.0
100
AcDbRotatedDimension
1001
ACAD_DSTYLE_DIMARC_LENGTH_SYMBOL
1070
   379
1070
     0
1001
ACAD_DSTYLE_DIMJOGGED_JOGANGLE_SYMBOL
1070
   384
1040
0.7853981633974483
1001
ACAD_DSTYLE_DIMTEXT_FILL
1070
   376
1070
     0
1001
ACAD_DSTYLE_DIMEXT_ENABLED
1070
   383
1070
     0
1001
ACAD_DSTYLE_DIMEXT_LENGTH
1070
   378
1040
1.0
1001
ACAD_DSTYLE_DIM_LINETYPE
1070
   380
1005
0
1001
ACAD_DSTYLE_DIM_EXT1_LINETYPE
1070
   381
1005
0
1001
ACAD_DSTYLE_DIM_EXT2_LINETYPE
1070
   382
1005
0
  0
LINE
  5
978
330
17
100
AcDbEntity
  8
SEIHIN
100
AcDbLine
 10
2829.713107762511
 20
2123.598631727652
 30
0.0
 11
4015.913107762512
 21
2123.598631727652
 31
0.0
  0
LINE
  5
979
330
17
100
AcDbEntity
  8
SEIHIN
100
AcDbLine
 10
2829.713107762511
 20
2023.598631727652
 30
0.0
 11
2829.713107762511
 21
2123.598631727652
 31
0.0
  0
LINE
  5
97A
330
17
100
AcDbEntity
  8
SEIHIN
100
AcDbLine
 10
2779.713107762511
 20
2023.598631727652
 30
0.0
 11
2829.713107762511
 21
2023.598631727652
 31
0.0
  0
LINE
  5
97B
330
17
100
AcDbEntity
  8
SEIHIN
100
AcDbLine
 10
2779.713107762511
 20
1953.598631727652
 30
0.0
 11
6029.713107762512
 21
1953.598631727652
 31
0.0
  0
LINE
  5
97C
330
17
100
AcDbEntity
  8
SEIHIN
100
AcDbLine
 10
4015.913107762512
 20
2123.598631727651
 30
0.0
 11
5429.390407922631
 21
2213.275931887771
 31
0.0
  0
LINE
  5
97D
330
17
100
AcDbEntity
  8
SEIHIN
100
AcDbLine
 10
5749.713107762514
 20
2533.598631727653
 30
0.0
 11
5429.39040792263
 21
2213.27593188777
 31
0.0
  0
LINE
  5
97E
330
17
100
AcDbEntity
  8
SEIHIN
100
AcDbLine
 10
5749.713107762512
 20
2533.598631727651
 30
0.0
 11
5749.713107762512
 21
2953.598631727651
 31
0.0
  0
LINE
  5
97F
330
17
100
AcDbEntity
  8
SEIHIN
100
AcDbLine
 10
6029.713107762512
 20
1953.598631727652
 30
0.0
 11
6029.713107762512
 21
2953.598631727651
 31
0.0
  0
LINE
  5
980
330
17
100
AcDbEntity
  8
SEIHIN
100
AcDbLine
 10
6029.713107762512
 20
2953.598631727651
 30
0.0
 11
5749.713107762512
 21
2953.598631727651
 31
0.0
  0
LINE
  5
981
330
17
100
AcDbEntity
  8
SEIHIN
100
AcDbLine
 10
6029.713107762512
 20
2953.598631727651
 30
0.0
 11
6029.713107762512
 21
4203.598631727651
 31
0.0
  0
LINE
  5
982
330
17
100
AcDbEntity
  8
SEIHIN
100
AcDbLine
 10
6029.713107762512
 20
4203.598631727651
 30
0.0
 11
5950.713107762512
 21
4203.598631727651
 31
0.0
  0
LINE
  5
983
330
17
100
AcDbEntity
  8
SEIHIN
100
AcDbLine
 10
2829.713107762511
 20
2023.598631727652
 30
0.0
 11
2939.713107762511
 21
2023.598631727652
 31
0.0
  0
LINE
  5
984
330
17
100
AcDbEntity
  8
SEIHIN
100
AcDbLine
 10
5950.713107762512
 20
4203.598631727651
 30
0.0
 11
5805.363107762511
 21
2503.598631727652
 31
0.0
  0
LINE
  5
985
330
17
100
AcDbEntity
  8
SEIHIN
100
AcDbLine
 10
2939.713107762511
 20
2023.598631727652
 30
0.0
 11
5479.713107762513
 21
2184.584547220615
 31
0.0
  0
LINE
  5
986
330
17
100
AcDbEntity
  8
SEIHIN
100
AcDbLine
 10
5805.363107762511
 20
2503.598631727652
 30
0.0
 11
5479.713107762512
 21
2184.584547220615
 31
0.0
  0
LINE
  5
98A
330
17
100
AcDbEntity
  8
SEIHIN
100
AcDbLine
 10
3169.429668589657
 20
7327.953045484133
 30
0.0
 11
3189.793207720519
 21
7243.803192664571
 31
0.0
  0
LINE
  5
98B
330
17
100
AcDbEntity
  8
SEIHIN
100
AcDbLine
 10
3279.650385459472
 20
7327.953045484133
 30
0.0
 11
3269.633007804507
 21
7248.863461683978
 31
0.0
  0
LINE
  5
98C
330
17
100
AcDbEntity
  8
SEIHIN
100
AcDbLine
 10
4977.165603732391
 20
7388.58477462573
 30
0.0
 11
4989.793207720518
 21
7357.887699706824
 31
0.0
  0
LINE
  5
98D
330
17
100
AcDbEntity
  8
SEIHIN
100
AcDbLine
 10
5078.724409379467
 20
7395.028117930135
 30
0.0
 11
5069.633007804506
 21
7362.947968726232
 31
0.0
  0
LINE
  5
98E
330
17
100
AcDbEntity
  8
SEIHIN
100
AcDbLine
 10
5749.713107762513
 20
7808.606992170667
 30
0.0
 11
5814.78054016839
 21
7818.09845374
 31
0.0
  0
LINE
  5
98F
330
17
100
AcDbEntity
  8
SEIHIN
100
AcDbLine
 10
5749.713107762513
 20
7919.008323797601
 30
0.0
 11
5821.595675356636
 21
7897.807637228267
 31
0.0
  0
LINE
  5
990
330
17
100
AcDbEntity
  8
SEIHIN
100
AcDbLine
 10
4989.793207720518
 20
7357.887699706824
 30
0.0
 11
5069.633007804506
 21
7362.947968726232
 31
0.0
  0
LINE
  5
991
330
17
100
AcDbEntity
  8
SEIHIN
100
AcDbLine
 10
3189.793207720519
 20
7243.803192664571
 30
0.0
 11
3269.633007804507
 21
7248.863461683978
 31
0.0
  0
LINE
  5
992
330
17
100
AcDbEntity
  8
SEIHIN
100
AcDbLine
 10
5815.728241573112
 20
7899.538148933318
 30
0.0
 11
5814.78054016839
 21
7818.09845374
 31
0.0
  0
LINE
  5
994
330
17
100
AcDbEntity
  8
HASEN
100
AcDbLine
 10
5749.713107762513
 20
7919.0083237976
 30
0.0
 11
5763.857498330752
 21
7914.836647670996
 31
0.0
  0
LINE
  5
995
330
17
100
AcDbEntity
  8
SUNPOU
100
AcDbLine
 10
5749.713107762513
 20
7808.606992170667
 30
0.0
 11
5756.930284760226
 21
7809.659770120865
 31
0.0
  0
LINE
  5
99A
330
17
100
AcDbEntity
  8
SEIHIN
100
AcDbLine
 10
5950.713107762514
 20
8208.059141917518
 30
0.0
 11
5950.713107762514
 21
10108.05914191752
 31
0.0
  0
LINE
  5
99B
330
17
100
AcDbEntity
  8
SEIHIN
100
AcDbLine
 10
5770.713107762514
 20
8158.059141917517
 30
0.0
 11
5770.713107762514
 21
10158.05914191752
 31
0.0
  0
LINE
  5
99C
330
17
100
AcDbEntity
  8
SEIHIN
100
AcDbLine
 10
5470.713107762514
 20
8158.059141917517
 30
0.0
 11
5470.713107762514
 21
10158.05914191752
 31
0.0
  0
LINE
  5
99D
330
17
100
AcDbEntity
  8
SEIHIN
100
AcDbLine
 10
6029.713107762514
 20
8208.059141917518
 30
0.0
 11
5950.713107762514
 21
8208.059141917518
 31
0.0
  0
LINE
  5
99E
330
17
100
AcDbEntity
  8
SEIHIN
100
AcDbLine
 10
6029.713107762514
 20
10108.05914191752
 30
0.0
 11
5950.713107762514
 21
10108.05914191752
 31
0.0
  0
LINE
  5
99F
330
17
100
AcDbEntity
  8
SEIHIN
100
AcDbLine
 10
5950.713107762514
 20
10108.05914191752
 30
0.0
 11
5770.713107762514
 21
10158.05914191752
 31
0.0
  0
LINE
  5
9A0
330
17
100
AcDbEntity
  8
SEIHIN
100
AcDbLine
 10
5770.713107762514
 20
8158.059141917518
 30
0.0
 11
5950.713107762514
 21
8208.059141917518
 31
0.0
  0
LINE
  5
9A9
330
17
100
AcDbEntity
  8
SEIHIN
100
AcDbLine
 10
5059.713107762514
 20
8333.059141917516
 30
0.0
 11
4999.713107762514
 21
8333.059141917516
 31
0.0
  0
LINE
  5
9AA
330
17
100
AcDbEntity
  8
SEIHIN
100
AcDbLine
 10
5059.713107762514
 20
7983.059141917516
 30
0.0
 11
4999.713107762514
 21
7983.059141917517
 31
0.0
  0
LINE
  5
9AB
330
17
100
AcDbEntity
  8
SEIHIN
100
AcDbLine
 10
5059.713107762514
 20
7983.059141917516
 30
0.0
 11
5059.713107762514
 21
8333.059141917516
 31
0.0
  0
LINE
  5
9AC
330
17
100
AcDbEntity
  8
SEIHIN
100
AcDbLine
 10
4999.713107762514
 20
7983.059141917517
 30
0.0
 11
4999.713107762514
 21
8333.059141917516
 31
0.0
  0
LINE
  5
9AD
330
17
100
AcDbEntity
  8
SEIHIN
100
AcDbLine
 10
3199.713107762514
 20
7983.059141917518
 30
0.0
 11
3199.713107762514
 21
8333.059141917516
 31
0.0
  0
LINE
  5
9AE
330
17
100
AcDbEntity
  8
SEIHIN
100
AcDbLine
 10
3259.713107762514
 20
7983.059141917518
 30
0.0
 11
3259.713107762514
 21
8333.059141917516
 31
0.0
  0
LINE
  5
9AF
330
17
100
AcDbEntity
  8
SEIHIN
100
AcDbLine
 10
3259.713107762514
 20
8333.059141917518
 30
0.0
 11
3199.713107762514
 21
8333.059141917516
 31
0.0
  0
LINE
  5
9B0
330
17
100
AcDbEntity
  8
SEIHIN
100
AcDbLine
 10
3259.713107762514
 20
7983.059141917517
 30
0.0
 11
3199.713107762514
 21
7983.059141917518
 31
0.0
  0
LINE
  5
9B1
330
17
100
AcDbEntity
  8
SEIHIN
100
AcDbLine
 10
3269.713107762514
 20
7968.059141917517
 30
0.0
 11
3189.713107762513
 21
7968.059141917519
 31
0.0
  0
LINE
  5
9B2
330
17
100
AcDbEntity
  8
SEIHIN
100
AcDbLine
 10
3284.713107762514
 20
7953.059141917516
 30
0.0
 11
3174.713107762514
 21
7953.059141917519
 31
0.0
  0
LINE
  5
9B3
330
17
100
AcDbEntity
  8
SEIHIN
100
AcDbLine
 10
3189.713107762513
 20
7968.059141917519
 30
0.0
 11
3189.713107762514
 21
8158.059141917518
 31
0.0
  0
LINE
  5
9B4
330
17
100
AcDbEntity
  8
SEIHIN
100
AcDbLine
 10
3269.713107762514
 20
7968.059141917517
 30
0.0
 11
3269.713107762514
 21
8158.059141917518
 31
0.0
  0
LINE
  5
9B5
330
17
100
AcDbEntity
  8
SEIHIN
100
AcDbLine
 10
3174.713107762514
 20
7953.059141917519
 30
0.0
 11
3174.713107762514
 21
8158.059141917518
 31
0.0
  0
LINE
  5
9B6
330
17
100
AcDbEntity
  8
SEIHIN
100
AcDbLine
 10
3284.713107762514
 20
7953.059141917516
 30
0.0
 11
3284.713107762514
 21
8158.059141917518
 31
0.0
  0
LINE
  5
9B7
330
17
100
AcDbEntity
  8
SEIHIN
100
AcDbLine
 10
3189.713107762513
 20
7968.059141917519
 30
0.0
 11
3174.713107762514
 21
7953.05914191752
 31
0.0
  0
LINE
  5
9B8
330
17
100
AcDbEntity
  8
SEIHIN
100
AcDbLine
 10
3269.713107762514
 20
7968.059141917517
 30
0.0
 11
3284.713107762514
 21
7953.059141917516
 31
0.0
  0
CIRCLE
  5
9B9
330
17
100
AcDbEntity
  8
SUNPOU
100
AcDbCircle
 10
3229.713107762514
 20
8083.059141917518
 30
0.0
 40
15.0
  0
CIRCLE
  5
9BA
330
17
100
AcDbEntity
  8
SUNPOU
100
AcDbCircle
 10
3229.713107762514
 20
8023.059141917517
 30
0.0
 40
15.0
  0
CIRCLE
  5
9BB
330
17
100
AcDbEntity
  8
SUNPOU
100
AcDbCircle
 10
3229.713107762514
 20
8293.059141917518
 30
0.0
 40
15.0
  0
CIRCLE
  5
9BC
330
17
100
AcDbEntity
  8
SUNPOU
100
AcDbCircle
 10
3229.713107762514
 20
8233.059141917518
 30
0.0
 40
15.0
  0
CIRCLE
  5
9BD
330
17
100
AcDbEntity
  8
SUNPOU
100
AcDbCircle
 10
5029.713107762514
 20
8293.059141917518
 30
0.0
 40
15.0
  0
CIRCLE
  5
9BE
330
17
100
AcDbEntity
  8
SUNPOU
100
AcDbCircle
 10
5029.713107762514
 20
8233.059141917518
 30
0.0
 40
15.0
  0
CIRCLE
  5
9BF
330
17
100
AcDbEntity
  8
SUNPOU
100
AcDbCircle
 10
5029.713107762514
 20
8083.059141917518
 30
0.0
 40
15.0
  0
CIRCLE
  5
9C0
330
17
100
AcDbEntity
  8
SUNPOU
100
AcDbCircle
 10
5029.713107762514
 20
8023.059141917517
 30
0.0
 40
15.0
  0
LINE
  5
9C1
330
17
100
AcDbEntity
  8
SEIHIN
100
AcDbLine
 10
4974.713107762514
 20
7953.059141917519
 30
0.0
 11
4974.713107762514
 21
8158.059141917518
 31
0.0
  0
LINE
  5
9C2
330
17
100
AcDbEntity
  8
SEIHIN
100
AcDbLine
 10
4989.713107762513
 20
7968.059141917519
 30
0.0
 11
4989.713107762514
 21
8158.059141917518
 31
0.0
  0
LINE
  5
9C3
330
17
100
AcDbEntity
  8
SEIHIN
100
AcDbLine
 10
5084.713107762514
 20
7953.059141917516
 30
0.0
 11
5084.713107762514
 21
8158.059141917518
 31
0.0
  0
LINE
  5
9C4
330
17
100
AcDbEntity
  8
SEIHIN
100
AcDbLine
 10
5069.713107762514
 20
7968.059141917517
 30
0.0
 11
5069.713107762514
 21
8158.059141917518
 31
0.0
  0
LINE
  5
9C5
330
17
100
AcDbEntity
  8
SEIHIN
100
AcDbLine
 10
5069.713107762514
 20
7968.059141917517
 30
0.0
 11
4989.713107762513
 21
7968.059141917519
 31
0.0
  0
LINE
  5
9C6
330
17
100
AcDbEntity
  8
SEIHIN
100
AcDbLine
 10
5084.713107762514
 20
7953.059141917516
 30
0.0
 11
4974.713107762514
 21
7953.059141917519
 31
0.0
  0
LINE
  5
9C7
330
17
100
AcDbEntity
  8
SEIHIN
100
AcDbLine
 10
5069.713107762514
 20
7968.059141917517
 30
0.0
 11
5084.713107762514
 21
7953.059141917516
 31
0.0
  0
LINE
  5
9C8
330
17
100
AcDbEntity
  8
SEIHIN
100
AcDbLine
 10
4989.713107762513
 20
7968.059141917519
 30
0.0
 11
4974.713107762514
 21
7953.05914191752
 31
0.0
  0
TEXT
  5
9D0
330
17
100
AcDbEntity
  8
SUNPOU
100
AcDbText
 10
2848.771465642851
 20
9251.539897692044
 30
0.0
 40
90.0
  1
   
  7
A
100
AcDbText
  0
TEXT
  5
9D5
330
17
100
AcDbEntity
  8
SUNPOU
100
AcDbText
 10
2705.788906192662
 20
5533.44047583596
 30
0.0
 40
90.0
  1
    
  7
A
100
AcDbText
  0
CIRCLE
  5
9DC
330
17
100
AcDbEntity
  8
SUNPOU
100
AcDbCircle
 10
5329.713107762514
 20
9658.059141917518
 30
0.0
 40
30.0
  0
CIRCLE
  5
9DD
330
17
100
AcDbEntity
  8
SUNPOU
100
AcDbCircle
 10
5329.713107762514
 20
8658.059141917518
 30
0.0
 40
30.0
  0
CIRCLE
  5
9DE
330
17
100
AcDbEntity
  8
SUNPOU
100
AcDbCircle
 10
5329.713107762514
 20
9658.059141917518
 30
0.0
 40
20.0
  0
CIRCLE
  5
9DF
330
17
100
AcDbEntity
  8
SUNPOU
100
AcDbCircle
 10
5329.713107762514
 20
8658.059141917518
 30
0.0
 40
20.0
  0
SOLID
  5
9E0
330
17
100
AcDbEntity
  8
SUNPOU
100
AcDbTrace
 10
5273.512306263252
 20
8696.538729792133
 30
0.0
 11
5265.141953971166
 21
8678.37455619391
 31
0.0
 12
5323.819650911876
 22
8662.345586116762
 32
0.0
 13
5323.819650911876
 23
8662.345586116762
 33
0.0
  0
LINE
  5
9E1
330
17
100
AcDbEntity
  8
SUNPOU
100
AcDbLine
 10
5269.327130117209
 20
8687.456642993022
 30
0.0
 11
4912.344821575033
 21
8851.960008278676
 31
0.0
  0
LINE
  5
9E2
330
17
100
AcDbEntity
  8
SUNPOU
100
AcDbLine
 10
4912.344821575033
 20
8851.960008278676
 30
0.0
 11
4912.344821575033
 21
8909.668745458388
 31
0.0
  0
TEXT
  5
9E3
330
17
100
AcDbEntity
  8
SUNPOU
100
AcDbText
 10
5325.820435768112
 20
8954.668745458388
 30
0.0
 40
90.0
  1
   
  7
A
100
AcDbText
  0
LINE
  5
9E4
330
17
100
AcDbEntity
  8
SUNPOU
100
AcDbLine
 10
4912.344821575033
 20
8909.668745458388
 30
0.0
 11
4912.344821575033
 21
9425.658594963199
 31
0.0
  0
TEXT
  5
9E5
330
17
100
AcDbEntity
  8
SUNPOU
100
AcDbText
 10
4885.710568118867
 20
8908.468660870929
 30
0.0
 40
90.0
  1
水抜き穴
 50
90.0
  7
A
100
AcDbText
  0
TEXT
  5
A0F
330
17
100
AcDbEntity
  8
SUNPOU
100
AcDbText
 10
4439.395947757578
 20
9968.693698759062
 30
0.0
 40
90.0
  1
   
  7
A
100
AcDbText
  0
TEXT
  5
A12
330
17
100
AcDbEntity
  8
SUNPOU
100
AcDbText
 10
4634.510341946422
 20
8427.046005529583
 30
0.0
 40
90.0
  1
   
  7
A
100
AcDbText
  0
TEXT
  5
A15
330
17
100
AcDbEntity
  8
SUNPOU
100
AcDbText
 10
4741.493797574
 20
8427.04600552958
 30
0.0
 40
90.0
  1
   
  7
A
100
AcDbText
  0
TEXT
  5
A1A
330
17
100
AcDbEntity
  8
SUNPOU
100
AcDbText
 10
3715.200248124732
 20
9943.961382824898
 30
0.0
 40
90.0
  1
   
  7
A
100
AcDbText
  0
TEXT
  5
A1D
330
17
100
AcDbEntity
  8
SUNPOU
100
AcDbText
 10
3967.921118420733
 20
8591.928111757336
 30
0.0
 40
90.0
  1
   
  7
A
100
AcDbText
  0
DIMENSION
  5
A25
330
17
100
AcDbEntity
  8
SUNPOU
100
AcDbDimension
  2
*D127
 10
5449.713107762513
 20
7823.643417141995
 30
0.0
 11
5599.713107762513
 21
7913.643417141995
 31
0.0
 12
-641.4756141930793
 22
0.0
 32
0.0
 71
     5
 42
-1.0
100
AcDbAlignedDimension
 13
5749.713107762513
 23
7737.598631727651
 33
0.0
 14
5449.713107762513
 24
7427.995553303055
 34
0.0
100
AcDbRotatedDimension
1001
ACAD_DSTYLE_DIMARC_LENGTH_SYMBOL
1070
   379
1070
     0
1001
ACAD_DSTYLE_DIMJOGGED_JOGANGLE_SYMBOL
1070
   384
1040
0.7853981633974483
1001
ACAD_DSTYLE_DIMTEXT_FILL
1070
   376
1070
     0
1001
ACAD_DSTYLE_DIMEXT_ENABLED
1070
   383
1070
     0
1001
ACAD_DSTYLE_DIMEXT_LENGTH
1070
   378
1040
1.0
1001
ACAD_DSTYLE_DIM_LINETYPE
1070
   380
1005
0
1001
ACAD_DSTYLE_DIM_EXT1_LINETYPE
1070
   381
1005
0
1001
ACAD_DSTYLE_DIM_EXT2_LINETYPE
1070
   382
1005
0
  0
LINE
  5
A26
330
17
100
AcDbEntity
  8
SEIHIN
100
AcDbLine
 10
5749.713107762513
 20
7737.598631727653
 30
0.0
 11
5449.713107762514
 21
7418.5652945492
 31
0.0
  0
DIMENSION
  5
A27
330
17
100
AcDbEntity
  8
SUNPOU
100
AcDbDimension
  2
*D128
 10
5283.124454601279
 20
7437.598631727654
 30
0.0
 11
5193.124454601279
 21
7587.598631727654
 31
0.0
 12
-641.4756141930793
 22
0.0
 32
0.0
 71
     5
 42
-1.0
100
AcDbAlignedDimension
 13
5749.713107762514
 23
7737.598631727654
 33
0.0
 14
5749.713107762514
 24
7437.598631727654
 34
0.0
 50
90.0
100
AcDbRotatedDimension
1001
ACAD_DSTYLE_DIMARC_LENGTH_SYMBOL
1070
   379
1070
     0
1001
ACAD_DSTYLE_DIMJOGGED_JOGANGLE_SYMBOL
1070
   384
1040
0.7853981633974483
1001
ACAD_DSTYLE_DIMTEXT_FILL
1070
   376
1070
     0
1001
ACAD_DSTYLE_DIMEXT_ENABLED
1070
   383
1070
     0
1001
ACAD_DSTYLE_DIMEXT_LENGTH
1070
   378
1040
1.0
1001
ACAD_DSTYLE_DIM_LINETYPE
1070
   380
1005
0
1001
ACAD_DSTYLE_DIM_EXT1_LINETYPE
1070
   381
1005
0
1001
ACAD_DSTYLE_DIM_EXT2_LINETYPE
1070
   382
1005
0
  0
DIMENSION
  5
A94
330
17
100
AcDbEntity
  8
SUNPOU
100
AcDbDimension
  2
*D132
 10
7096.747701747081
 20
4203.59863172765
 30
0.0
 11
7006.74770174708
 21
3078.598631727652
 31
0.0
 70
    32
 71
     5
 42
2249.999999999999
  3
STANDARD
100
AcDbAlignedDimension
 13
6029.713107762512
 23
1953.598631727652
 33
0.0
 14
6029.713107762512
 24
4203.598631727651
 34
0.0
 50
90.0
100
AcDbRotatedDimension
1001
ACAD
1000
DSTYLE
1002
{
1070
    41
1040
60.0
1070
    42
1040
40.0
1070
    43
1040
140.0
1070
    44
1040
20.0
1070
    73
1070
     0
1070
    74
1070
     0
1070
   140
1040
90.0
1070
   145
1040
1.0
1070
   172
1070
     1
1070
   271
1070
     0
1070
   272
1070
     0
1070
   275
1070
     1
1070
   279
1070
     2
1070
   340
1005
9F
1002
}
  0
ENDSEC
  0
SECTION
  2
OBJECTS
  0
DICTIONARY
  5
C
330
0
100
AcDbDictionary
281
     1
  3
ACAD_CIP_PREVIOUS_PRODUCT_INFO
350
A86
  3
ACAD_COLOR
350
A64
  3
ACAD_DETAILVIEWSTYLE
350
A7D
  3
ACAD_GROUP
350
D
  3
ACAD_LAYOUT
350
A7F
  3
ACAD_MATERIAL
350
A32
  3
ACAD_MLEADERSTYLE
350
A79
  3
ACAD_MLINESTYLE
350
1A
  3
ACAD_PLOTSETTINGS
350
A80
  3
ACAD_PLOTSTYLENAME
350
A30
  3
ACAD_SCALELIST
350
A67
  3
ACAD_SECTIONVIEWSTYLE
350
A7B
  3
ACAD_TABLESTYLE
350
A65
  3
ACAD_VISUALSTYLE
350
A4B
  3
ACDB_RECOMPOSE_DATA
350
B3B
  3
ACDBVARIABLEDICTIONARY
350
B4
  3
AcDsDecomposeData
350
AE2
  0
DICTIONARY
  5
B30
330
8
100
AcDbDictionary
280
     1
281
     1
  3
ACAD_XREC_ROUNDTRIP
360
B31
  0
DICTIONARY
  5
AD4
330
2
100
AcDbDictionary
280
     1
281
     1
  3
ACAD_LAYERSTATES
360
AD5
  0
DICTIONARY
  5
ABF
330
E
100
AcDbDictionary
280
     1
281
     1
  3
ADSK_XREC_LAYER_RECONCILED
360
AC0
  0
DICTIONARY
  5
AC1
330
A7
100
AcDbDictionary
280
     1
281
     1
  3
ADSK_XREC_LAYER_RECONCILED
360
AC2
  0
DICTIONARY
  5
AC3
330
A8
100
AcDbDictionary
280
     1
281
     1
  3
ADSK_XREC_LAYER_RECONCILED
360
AC4
  0
DICTIONARY
  5
AC5
330
A9
100
AcDbDictionary
280
     1
281
     1
  3
ADSK_XREC_LAYER_RECONCILED
360
AC6
  0
DICTIONARY
  5
AC7
330
AA
100
AcDbDictionary
280
     1
281
     1
  3
ADSK_XREC_LAYER_RECONCILED
360
AC8
  0
DICTIONARY
  5
AC9
330
AB
100
AcDbDictionary
280
     1
281
     1
  3
ADSK_XREC_LAYER_RECONCILED
360
ACA
  0
DICTIONARY
  5
ACB
330
AC
100
AcDbDictionary
280
     1
281
     1
  3
ADSK_XREC_LAYER_RECONCILED
360
ACC
  0
DICTIONARY
  5
ACD
330
AD
100
AcDbDictionary
280
     1
281
     1
  3
ADSK_XREC_LAYER_RECONCILED
360
ACE
  0
DICTIONARY
  5
ACF
330
AE
100
AcDbDictionary
280
     1
281
     1
  3
ADSK_XREC_LAYER_RECONCILED
360
AD0
  0
XRECORD
  5
A86
102
{ACAD_REACTORS
330
C
102
}
330
C
100
AcDbXrecord
280
     1
300
ACD
300
2014
300
ACD_F_S
  0
DICTIONARY
  5
A64
102
{ACAD_REACTORS
330
C
102
}
330
C
100
AcDbDictionary
281
     1
  0
DICTIONARY
  5
A7D
102
{ACAD_REACTORS
330
C
102
}
330
C
100
AcDbDictionary
281
     1
  3
Imperial24
350
A7E
  0
DICTIONARY
  5
D
102
{ACAD_REACTORS
330
C
102
}
330
C
100
AcDbDictionary
281
     1
  0
DICTIONARY
  5
A7F
102
{ACAD_REACTORS
330
C
102
}
330
C
100
AcDbDictionary
281
     1
  3
Model
350
A81
  3
レイアウト1
350
A82
  0
DICTIONARY
  5
A32
102
{ACAD_REACTORS
330
C
102
}
330
C
100
AcDbDictionary
281
     1
  3
ByBlock
350
A3B
  3
ByLayer
350
A33
  3
Global
350
A43
  0
DICTIONARY
  5
A79
102
{ACAD_REACTORS
330
C
102
}
330
C
100
AcDbDictionary
281
     1
  3
Standard
350
A7A
  0
DICTIONARY
  5
1A
102
{ACAD_REACTORS
330
C
102
}
330
C
100
AcDbDictionary
281
     1
  3
STANDARD
350
1B
  0
DICTIONARY
  5
A80
102
{ACAD_REACTORS
330
C
102
}
330
C
100
AcDbDictionary
281
     1
  0
ACDBDICTIONARYWDFLT
  5
A30
102
{ACAD_REACTORS
330
C
102
}
330
C
100
AcDbDictionary
281
     1
  3
Normal
350
A31
100
AcDbDictionaryWithDefault
340
A31
  0
DICTIONARY
  5
A67
102
{ACAD_REACTORS
330
C
102
}
330
C
100
AcDbDictionary
281
     1
  3
A0
350
A68
  3
A1
350
A69
  3
A2
350
A6A
  3
A3
350
A6B
  3
A4
350
A6C
  3
A5
350
A6D
  3
A6
350
A6E
  3
A7
350
A6F
  3
A8
350
A70
  3
A9
350
A71
  3
B0
350
A72
  3
B1
350
A73
  3
B2
350
A74
  3
B3
350
A75
  3
B4
350
A76
  3
B5
350
A77
  3
B6
350
A78
  0
DICTIONARY
  5
A7B
102
{ACAD_REACTORS
330
C
102
}
330
C
100
AcDbDictionary
281
     1
  3
Imperial24
350
A7C
  0
DICTIONARY
  5
A65
102
{ACAD_REACTORS
330
C
102
}
330
C
100
AcDbDictionary
281
     1
  3
Standard
350
A66
  0
DICTIONARY
  5
A4B
102
{ACAD_REACTORS
330
C
102
}
330
C
100
AcDbDictionary
281
     1
  3
2dWireframe
350
A51
  3
Basic
350
A50
  3
Brighten
350
A57
  3
ColorChange
350
A5B
  3
Conceptual
350
A54
  3
Dim
350
A56
  3
EdgeColorOff
350
A63
  3
Facepattern
350
A5A
  3
Flat
350
A4C
  3
FlatWithEdges
350
A4D
  3
Gouraud
350
A4E
  3
GouraudWithEdges
350
A4F
  3
Hidden
350
A53
  3
JitterOff
350
A61
  3
Linepattern
350
A59
  3
OverhangOff
350
A62
  3
Realistic
350
A55
  3
Shaded
350
A60
  3
Shaded with edges
350
A5F
  3
Shades of Gray
350
A5C
  3
Sketchy
350
A5D
  3
Thicken
350
A58
  3
Wireframe
350
A52
  3
X-Ray
350
A5E
  0
XRECORD
  5
B3B
102
{ACAD_REACTORS
330
C
102
}
330
C
100
AcDbXrecord
280
     1
 90
        1
330
A66
  0
DICTIONARY
  5
B4
102
{ACAD_REACTORS
330
C
102
}
330
C
100
AcDbDictionary
281
     1
  3
CANNOSCALE
350
B23
  3
CMLEADERSTYLE
350
B1F
  3
CTABLESTYLE
350
B1E
  3
CVIEWDETAILSTYLE
350
B20
  3
CVIEWSECTIONSTYLE
350
B21
  3
DIMADEC
350
B5
  3
LAYEREVAL
350
B25
  3
LAYERNOTIFY
350
B26
  3
LIGHTINGUNITS
350
B24
  3
MSLTSCALE
350
B22
  3
XCLIPFRAME
350
B27
  0
DICTIONARY
  5
AE2
102
{ACAD_REACTORS
330
C
102
}
330
C
100
AcDbDictionary
281
     1
  3
AcDsRecords
350
AE4
  3
AcDsSchemas
350
AE3
1001
ACAD
1070
     2
  0
XRECORD
  5
B31
102
{ACAD_REACTORS
330
B30
102
}
330
B30
100
AcDbXrecord
280
     1
102
VTR_0.000_0.000_1.000_1.000_VISUALSTYLE
340
A51
102
VTR_0.000_0.000_1.000_1.000_GRIDDISPLAY
 70
     3
102
VTR_0.000_0.000_1.000_1.000_GRIDMAJOR
 70
     5
102
VTR_0.000_0.000_1.000_1.000_DEFAULTLIGHTING
280
     1
102
VTR_0.000_0.000_1.000_1.000_DEFAULTLIGHTINGTYPE
 70
     1
102
VTR_0.000_0.000_1.000_1.000_BRIGHTNESS
141
0.0
102
VTR_0.000_0.000_1.000_1.000_CONTRAST
142
0.0
  0
DICTIONARY
  5
AD5
102
{ACAD_REACTORS
330
AD4
102
}
330
AD4
100
AcDbDictionary
281
     1
  0
XRECORD
  5
AC0
102
{ACAD_REACTORS
330
ABF
102
}
330
ABF
100
AcDbXrecord
280
     1
290
     1
  0
XRECORD
  5
AC2
102
{ACAD_REACTORS
330
AC1
102
}
330
AC1
100
AcDbXrecord
280
     1
290
     1
  0
XRECORD
  5
AC4
102
{ACAD_REACTORS
330
AC3
102
}
330
AC3
100
AcDbXrecord
280
     1
290
     1
  0
XRECORD
  5
AC6
102
{ACAD_REACTORS
330
AC5
102
}
330
AC5
100
AcDbXrecord
280
     1
290
     1
  0
XRECORD
  5
AC8
102
{ACAD_REACTORS
330
AC7
102
}
330
AC7
100
AcDbXrecord
280
     1
290
     1
  0
XRECORD
  5
ACA
102
{ACAD_REACTORS
330
AC9
102
}
330
AC9
100
AcDbXrecord
280
     1
290
     1
  0
XRECORD
  5
ACC
102
{ACAD_REACTORS
330
ACB
102
}
330
ACB
100
AcDbXrecord
280
     1
290
     1
  0
XRECORD
  5
ACE
102
{ACAD_REACTORS
330
ACD
102
}
330
ACD
100
AcDbXrecord
280
     1
290
     1
  0
XRECORD
  5
AD0
102
{ACAD_REACTORS
330
ACF
102
}
330
ACF
100
AcDbXrecord
280
     1
290
     1
  0
ACAD_PROXY_OBJECT
  5
A7E
102
{ACAD_REACTORS
330
A7D
102
}
102
{ACAD_XDICTIONARY
360
B1A
102
}
330
A7D
100
AcDbProxyObject
 90
      499
 91
      509
 95
  3276827
 70
     0
 93
     2314
310
9207000000180005C0F42F5A8DC671F815AF46E07A15AE7E07000000180005C0F42F5A8DC671FA3300000018001000000180005C0F42F5A8DC671FA02000000000000741FA028CC00000060002330000001800000852480368038003280390034803080360019001A004AD12801E002E00208031802B003080390010002B00
310
348032803B802A003C803800328010002E0033001000110012803A003180188011001F001280100012801E002E00208031802B003080390010002B00348032803B80220032803A00308034803600248032001F0012802E00280029802180208026002280100012801E002E00208031802B003080390010002B00348032803B
310
802980318030803600328010002E0033001000110012803980370011001F0012802B0365
340
F
340
0
340
13
340
F
340
13
340
13
 94
        0
  0
LAYOUT
  5
A81
102
{ACAD_REACTORS
330
A7F
102
}
102
{ACAD_XDICTIONARY
360
B1C
102
}
330
A7F
100
AcDbPlotSettings
  1

  2
DocuWorks Printer
  4

  6

 40
0.0
 41
0.0
 42
0.0
 43
0.0
 44
0.0
 45
0.0
 46
0.0
 47
0.0
 48
0.0
 49
0.0
140
0.0
141
0.0
142
1.0
143
1.0
 70
  1712
 72
     0
 73
     0
 74
     0
  7

 75
     0
 76
     0
 77
     2
 78
   300
147
1.0
148
0.0
149
0.0
100
AcDbLayout
  1
Model
 70
     1
 71
     0
 10
0.0
 20
0.0
 11
12.0
 21
9.0
 12
0.0
 22
0.0
 32
0.0
 14
0.0
 24
0.0
 34
0.0
 15
0.0
 25
0.0
 35
0.0
146
0.0
 13
0.0
 23
0.0
 33
0.0
 16
1.0
 26
0.0
 36
0.0
 17
0.0
 27
1.0
 37
0.0
 76
     0
330
17
331
A2E
  0
LAYOUT
  5
A82
102
{ACAD_REACTORS
330
A7F
102
}
330
A7F
100
AcDbPlotSettings
  1

  2
DocuWorks Printer
  4

  6

 40
0.0
 41
0.0
 42
0.0
 43
0.0
 44
0.0
 45
0.0
 46
0.0
 47
0.0
 48
0.0
 49
0.0
140
0.0
141
0.0
142
1.0
143
1.0
 70
   688
 72
     0
 73
     0
 74
     5
  7

 75
    16
 76
     0
 77
     2
 78
   300
147
1.0
148
0.0
149
0.0
100
AcDbLayout
  1
レイアウト1
 70
     0
 71
     1
 10
0.0
 20
0.0
 11
12.0
 21
9.0
 12
0.0
 22
0.0
 32
0.0
 14
1.000000000000000E+20
 24
1.000000000000000E+20
 34
1.000000000000000E+20
 15
-1.000000000000000E+20
 25
-1.000000000000000E+20
 35
-1.000000000000000E+20
146
0.0
 13
0.0
 23
0.0
 33
0.0
 16
1.0
 26
0.0
 36
0.0
 17
0.0
 27
1.0
 37
0.0
 76
     0
330
14
  0
MATERIAL
  5
A3B
102
{ACAD_REACTORS
330
A32
102
}
102
{ACAD_XDICTIONARY
360
B32
102
}
330
A32
100
AcDbMaterial
  1
ByBlock
 72
     0
 73
     2
 43
0.0208333333333333
 43
0.0
 43
0.0
 43
0.0
 43
0.0
 43
0.0208333333333333
 43
0.0
 43
0.0
 43
0.0
 43
0.0
 43
1.0
 43
0.0
 43
0.0
 43
0.0
 43
0.0
 43
1.0
 77
     0
 78
     2
 47
0.0208333333333333
 47
0.0
 47
0.0
 47
0.0
 47
0.0
 47
0.0208333333333333
 47
0.0
 47
0.0
 47
0.0
 47
0.0
 47
1.0
 47
0.0
 47
0.0
 47
0.0
 47
0.0
 47
1.0
171
     0
172
     2
 49
0.0208333333333333
 49
0.0
 49
0.0
 49
0.0
 49
0.0
 49
0.0208333333333333
 49
0.0
 49
0.0
 49
0.0
 49
0.0
 49
1.0
 49
0.0
 49
0.0
 49
0.0
 49
0.0
 49
1.0
175
     0
176
     2
142
0.0208333333333333
142
0.0
142
0.0
142
0.0
142
0.0
142
0.0208333333333333
142
0.0
142
0.0
142
0.0
142
0.0
142
1.0
142
0.0
142
0.0
142
0.0
142
0.0
142
1.0
179
     0
270
     2
144
0.0208333333333333
144
0.0
144
0.0
144
0.0
144
0.0
144
0.0208333333333333
144
0.0
144
0.0
144
0.0
144
0.0
144
1.0
144
0.0
144
0.0
144
0.0
144
0.0
144
1.0
274
     2
147
0.0208333333333333
147
0.0
147
0.0
147
0.0
147
0.0
147
0.0208333333333333
147
0.0
147
0.0
147
0.0
147
0.0
147
1.0
147
0.0
147
0.0
147
0.0
147
0.0
147
1.0
  0
MATERIAL
  5
A33
102
{ACAD_REACTORS
330
A32
102
}
102
{ACAD_XDICTIONARY
360
B34
102
}
330
A32
100
AcDbMaterial
  1
ByLayer
 72
     0
 73
     2
 43
0.0208333333333333
 43
0.0
 43
0.0
 43
0.0
 43
0.0
 43
0.0208333333333333
 43
0.0
 43
0.0
 43
0.0
 43
0.0
 43
1.0
 43
0.0
 43
0.0
 43
0.0
 43
0.0
 43
1.0
 77
     0
 78
     2
 47
0.0208333333333333
 47
0.0
 47
0.0
 47
0.0
 47
0.0
 47
0.0208333333333333
 47
0.0
 47
0.0
 47
0.0
 47
0.0
 47
1.0
 47
0.0
 47
0.0
 47
0.0
 47
0.0
 47
1.0
171
     0
172
     2
 49
0.0208333333333333
 49
0.0
 49
0.0
 49
0.0
 49
0.0
 49
0.0208333333333333
 49
0.0
 49
0.0
 49
0.0
 49
0.0
 49
1.0
 49
0.0
 49
0.0
 49
0.0
 49
0.0
 49
1.0
175
     0
176
     2
142
0.0208333333333333
142
0.0
142
0.0
142
0.0
142
0.0
142
0.0208333333333333
142
0.0
142
0.0
142
0.0
142
0.0
142
1.0
142
0.0
142
0.0
142
0.0
142
0.0
142
1.0
179
     0
270
     2
144
0.0208333333333333
144
0.0
144
0.0
144
0.0
144
0.0
144
0.0208333333333333
144
0.0
144
0.0
144
0.0
144
0.0
144
1.0
144
0.0
144
0.0
144
0.0
144
0.0
144
1.0
274
     2
147
0.0208333333333333
147
0.0
147
0.0
147
0.0
147
0.0
147
0.0208333333333333
147
0.0
147
0.0
147
0.0
147
0.0
147
1.0
147
0.0
147
0.0
147
0.0
147
0.0
147
1.0
  0
MATERIAL
  5
A43
102
{ACAD_REACTORS
330
A32
102
}
102
{ACAD_XDICTIONARY
360
B36
102
}
330
A32
100
AcDbMaterial
  1
Global
 72
     0
 73
     2
 43
0.0208333333333333
 43
0.0
 43
0.0
 43
0.0
 43
0.0
 43
0.0208333333333333
 43
0.0
 43
0.0
 43
0.0
 43
0.0
 43
1.0
 43
0.0
 43
0.0
 43
0.0
 43
0.0
 43
1.0
 77
     0
 78
     2
 47
0.0208333333333333
 47
0.0
 47
0.0
 47
0.0
 47
0.0
 47
0.0208333333333333
 47
0.0
 47
0.0
 47
0.0
 47
0.0
 47
1.0
 47
0.0
 47
0.0
 47
0.0
 47
0.0
 47
1.0
171
     0
172
     2
 49
0.0208333333333333
 49
0.0
 49
0.0
 49
0.0
 49
0.0
 49
0.0208333333333333
 49
0.0
 49
0.0
 49
0.0
 49
0.0
 49
1.0
 49
0.0
 49
0.0
 49
0.0
 49
0.0
 49
1.0
175
     0
176
     2
142
0.0208333333333333
142
0.0
142
0.0
142
0.0
142
0.0
142
0.0208333333333333
142
0.0
142
0.0
142
0.0
142
0.0
142
1.0
142
0.0
142
0.0
142
0.0
142
0.0
142
1.0
179
     0
270
     2
144
0.0208333333333333
144
0.0
144
0.0
144
0.0
144
0.0
144
0.0208333333333333
144
0.0
144
0.0
144
0.0
144
0.0
144
1.0
144
0.0
144
0.0
144
0.0
144
0.0
144
1.0
274
     2
147
0.0208333333333333
147
0.0
147
0.0
147
0.0
147
0.0
147
0.0208333333333333
147
0.0
147
0.0
147
0.0
147
0.0
147
1.0
147
0.0
147
0.0
147
0.0
147
0.0
147
1.0
  0
MLEADERSTYLE
  5
A7A
102
{ACAD_REACTORS
330
A79
102
}
330
A79
100
AcDbMLeaderStyle
170
     2
171
     1
172
     0
 90
        2
 40
0.0
 41
0.0
173
     1
 91
-1056964608
340
11
 92
       -2
290
     1
 42
0.09
291
     1
 43
0.36
  3
Standard
341
0
 44
0.18
300

342
F
174
     1
178
     6
175
     1
176
     0
 93
-1056964608
 45
0.18
292
     0
297
     0
 46
0.18
343
0
 94
-1056964608
 47
1.0
 49
1.0
140
1.0
293
     1
141
0.0
294
     1
177
     0
142
1.0
295
     0
296
     0
143
0.125
1001
ACAD_MLEADERVER
1070
     2
  0
MLINESTYLE
  5
1B
102
{ACAD_REACTORS
330
1A
102
}
330
1A
100
AcDbMlineStyle
  2
STANDARD
 70
     0
  3

 62
   256
 51
90.0
 52
90.0
 71
     2
 49
0.5
 62
   256
  6
BYLAYER
 49
-0.5
 62
   256
  6
BYLAYER
  0
ACDBPLACEHOLDER
  5
A31
102
{ACAD_REACTORS
330
A30
102
}
330
A30
  0
SCALE
  5
A68
102
{ACAD_REACTORS
330
A67
102
}
330
A67
100
AcDbScale
 70
     0
300
1:1
140
1.0
141
1.0
290
     1
  0
SCALE
  5
A69
102
{ACAD_REACTORS
330
A67
102
}
330
A67
100
AcDbScale
 70
     0
300
1/128" = 1'-0"
140
0.0078125
141
12.0
290
     0
  0
SCALE
  5
A6A
102
{ACAD_REACTORS
330
A67
102
}
330
A67
100
AcDbScale
 70
     0
300
1/64" = 1'-0"
140
0.015625
141
12.0
290
     0
  0
SCALE
  5
A6B
102
{ACAD_REACTORS
330
A67
102
}
330
A67
100
AcDbScale
 70
     0
300
1/32" = 1'-0"
140
0.03125
141
12.0
290
     0
  0
SCALE
  5
A6C
102
{ACAD_REACTORS
330
A67
102
}
330
A67
100
AcDbScale
 70
     0
300
1/16" = 1'-0"
140
0.0625
141
12.0
290
     0
  0
SCALE
  5
A6D
102
{ACAD_REACTORS
330
A67
102
}
330
A67
100
AcDbScale
 70
     0
300
3/32" = 1'-0"
140
0.09375
141
12.0
290
     0
  0
SCALE
  5
A6E
102
{ACAD_REACTORS
330
A67
102
}
330
A67
100
AcDbScale
 70
     0
300
1/8" = 1'-0"
140
0.125
141
12.0
290
     0
  0
SCALE
  5
A6F
102
{ACAD_REACTORS
330
A67
102
}
330
A67
100
AcDbScale
 70
     0
300
3/16" = 1'-0"
140
0.1875
141
12.0
290
     0
  0
SCALE
  5
A70
102
{ACAD_REACTORS
330
A67
102
}
330
A67
100
AcDbScale
 70
     0
300
1/4" = 1'-0"
140
0.25
141
12.0
290
     0
  0
SCALE
  5
A71
102
{ACAD_REACTORS
330
A67
102
}
330
A67
100
AcDbScale
 70
     0
300
3/8" = 1'-0"
140
0.375
141
12.0
290
     0
  0
SCALE
  5
A72
102
{ACAD_REACTORS
330
A67
102
}
330
A67
100
AcDbScale
 70
     0
300
1/2" = 1'-0"
140
0.5
141
12.0
290
     0
  0
SCALE
  5
A73
102
{ACAD_REACTORS
330
A67
102
}
330
A67
100
AcDbScale
 70
     0
300
3/4" = 1'-0"
140
0.75
141
12.0
290
     0
  0
SCALE
  5
A74
102
{ACAD_REACTORS
330
A67
102
}
330
A67
100
AcDbScale
 70
     0
300
1" = 1'-0"
140
1.0
141
12.0
290
     0
  0
SCALE
  5
A75
102
{ACAD_REACTORS
330
A67
102
}
330
A67
100
AcDbScale
 70
     0
300
1-1/2" = 1'-0"
140
1.5
141
12.0
290
     0
  0
SCALE
  5
A76
102
{ACAD_REACTORS
330
A67
102
}
330
A67
100
AcDbScale
 70
     0
300
3" = 1'-0"
140
3.0
141
12.0
290
     0
  0
SCALE
  5
A77
102
{ACAD_REACTORS
330
A67
102
}
330
A67
100
AcDbScale
 70
     0
300
6" = 1'-0"
140
6.0
141
12.0
290
     0
  0
SCALE
  5
A78
102
{ACAD_REACTORS
330
A67
102
}
330
A67
100
AcDbScale
 70
     0
300
1'-0" = 1'-0"
140
12.0
141
12.0
290
     0
  0
ACAD_PROXY_OBJECT
  5
A7C
102
{ACAD_REACTORS
330
A7B
102
}
102
{ACAD_XDICTIONARY
360
B18
102
}
330
A7B
100
AcDbProxyObject
 90
      499
 91
      508
 95
  3276827
 70
     0
 93
     3814
310
929D000000180005C0F42F5A8DC671FC00000060001703D0BD6A3719C7E5C0F42F5A8DC6F1FA330000001800099400000060001703D0BD6A3719C7E5C0F42F5A8DC671FC00000060001703D0BD6A3719C7E808000000000001D07E80C0000006000400000064003081815AF46E07A158E7E80C8340C16A22A7D90FC9F8CAE6
310
5A70A583A07E1FE81C635378FA1F8CAE65A70A583A17E7944A7F127A97E9FA149200DA00E000CA00E400D200C200D80064006800882480160010002780160010002880160010002980160010002C00160010002D002F84A007800B8008200C600AC00C200E4004000AC00D200CA00EE00A800F200E000CA004000B800CC004
310
00044004A00E800C600620044007C004A0040004A007800B8008200C600AC00C200E4004000AC00D200CA00EE00A600CA00C600E800D200DE00DC00A600E800C200E400E8009200C8007C004A005A004A007800B8008200C600AC00C200E4004000AC00D200CA00EE00A600CA00C600E800D200DE00DC008A00DC00C800920
310
0C8007C004A00B800A000A6008600820098008A0040004A007800B8008200C600AC00C200E4004000AC00D200CA00EE00A600C600C200D800CA004000B800CC00400044004A00E600DC0044007C004A00832080270029802480198018807404C
340
F
340
0
340
0
340
13
340
13
340
F
 94
        0
  0
TABLESTYLE
  5
A66
102
{ACAD_REACTORS
330
A65
102
}
102
{ACAD_XDICTIONARY
360
B38
102
}
330
A65
100
AcDbTableStyle
  3
Standard
 70
     0
 71
     0
 40
0.06
 41
0.06
280
     0
281
     0
  7
STANDARD
140
0.18
170
     2
 62
     0
 63
   257
283
     0
274
    -2
284
     1
 64
     0
275
    -2
285
     1
 65
     0
276
    -2
286
     1
 66
     0
277
    -2
287
     1
 67
     0
278
    -2
288
     1
 68
     0
279
    -2
289
     1
 69
     0
  7
STANDARD
140
0.25
170
     5
 62
     0
 63
   257
283
     0
274
    -2
284
     1
 64
     0
275
    -2
285
     1
 65
     0
276
    -2
286
     1
 66
     0
277
    -2
287
     1
 67
     0
278
    -2
288
     1
 68
     0
279
    -2
289
     1
 69
     0
  7
STANDARD
140
0.18
170
     5
 62
     0
 63
   257
283
     0
274
    -2
284
     1
 64
     0
275
    -2
285
     1
 65
     0
276
    -2
286
     1
 66
     0
277
    -2
287
     1
 67
     0
278
    -2
288
     1
 68
     0
279
    -2
289
     1
 69
     0
  0
VISUALSTYLE
  5
A51
102
{ACAD_REACTORS
330
A4B
102
}
102
{ACAD_XDICTIONARY
360
B3C
102
}
330
A4B
100
AcDbVisualStyle
  2
2dWireframe
 70
     4
 71
     0
 72
     2
 73
     0
 90
        0
 40
-0.6
 41
-30.0
 62
     5
 63
     7
421
 16777215
 74
     1
 91
        4
 64
     7
 65
   257
 75
     1
175
     1
 42
1.0
 92
        0
 66
   257
 43
1.0
 76
     1
 77
     6
 78
     2
 67
     7
 79
     5
170
     0
171
     0
290
     0
174
     0
 93
        1
 44
0.0
173
     0
291
     0
 45
0.0
1001
ACAD
1000
AcDbSavedByObjectVersion
1070
     0
  0
VISUALSTYLE
  5
A50
102
{ACAD_REACTORS
330
A4B
102
}
102
{ACAD_XDICTIONARY
360
B3E
102
}
330
A4B
100
AcDbVisualStyle
  2
Basic
 70
     7
 71
     1
 72
     0
 73
     1
 90
        0
 40
-0.6
 41
-30.0
 62
     5
 63
     7
421
 16777215
 74
     0
 91
        4
 64
     7
 65
   257
 75
     1
175
     1
 42
1.0
 92
        8
 66
     7
 43
1.0
 76
     1
 77
     6
 78
     2
 67
     7
 79
     5
170
     0
171
     0
290
     0
174
     0
 93
        1
 44
0.0
173
     0
291
     1
 45
0.0
1001
ACAD
1000
AcDbSavedByObjectVersion
1070
     0
  0
VISUALSTYLE
  5
A57
102
{ACAD_REACTORS
330
A4B
102
}
102
{ACAD_XDICTIONARY
360
B40
102
}
330
A4B
100
AcDbVisualStyle
  2
Brighten
 70
    12
 71
     2
 72
     2
 73
     0
 90
        0
 40
-0.6
 41
-30.0
 62
     5
 63
     7
421
 16777215
 74
     1
 91
        4
 64
     7
 65
   257
 75
     1
175
     1
 42
1.0
 92
        8
 66
     7
 43
1.0
 76
     1
 77
     6
 78
     2
 67
     7
 79
     5
170
     0
171
     0
290
     0
174
     0
 93
        1
 44
50.0
173
     0
291
     1
 45
0.0
1001
ACAD
1000
AcDbSavedByObjectVersion
1070
     0
  0
VISUALSTYLE
  5
A5B
102
{ACAD_REACTORS
330
A4B
102
}
102
{ACAD_XDICTIONARY
360
B42
102
}
330
A4B
100
AcDbVisualStyle
  2
ColorChange
 70
    16
 71
     2
 72
     2
 73
     3
 90
        0
 40
-0.6
 41
-30.0
 62
     5
 63
     8
421
  8421504
 74
     1
 91
        4
 64
     7
 65
   257
 75
     1
175
     1
 42
1.0
 92
        8
 66
     8
424
  8421504
 43
1.0
 76
     1
 77
     6
 78
     2
 67
     7
 79
     5
170
     0
171
     0
290
     0
174
     0
 93
        1
 44
0.0
173
     0
291
     1
 45
0.0
1001
ACAD
1000
AcDbSavedByObjectVersion
1070
     0
  0
VISUALSTYLE
  5
A54
102
{ACAD_REACTORS
330
A4B
102
}
102
{ACAD_XDICTIONARY
360
B44
102
}
330
A4B
100
AcDbVisualStyle
  2
Conceptual
 70
     9
 71
     3
 72
     2
 73
     0
 90
        0
 40
-0.6
 41
-30.0
 62
     5
 63
     7
421
 16777215
 74
     2
 91
        2
 64
     7
 65
   257
 75
     1
175
     1
 42
179.0
 92
        8
 66
     7
 43
1.0
 76
     1
 77
     6
 78
     2
 67
     7
 79
     3
170
     0
171
     0
290
     0
174
     0
 93
        1
 44
0.0
173
     0
291
     0
 45
0.0
1001
ACAD
1000
AcDbSavedByObjectVersion
1070
     0
  0
VISUALSTYLE
  5
A56
102
{ACAD_REACTORS
330
A4B
102
}
102
{ACAD_XDICTIONARY
360
B46
102
}
330
A4B
100
AcDbVisualStyle
  2
Dim
 70
    11
 71
     2
 72
     2
 73
     0
 90
        0
 40
-0.6
 41
-30.0
 62
     5
 63
     7
421
 16777215
 74
     1
 91
        4
 64
     7
 65
   257
 75
     1
175
     1
 42
1.0
 92
        8
 66
     7
 43
1.0
 76
     1
 77
     6
 78
     2
 67
     7
 79
     5
170
     0
171
     0
290
     0
174
     0
 93
        1
 44
-50.0
173
     0
291
     1
 45
0.0
1001
ACAD
1000
AcDbSavedByObjectVersion
1070
     0
  0
VISUALSTYLE
  5
A63
102
{ACAD_REACTORS
330
A4B
102
}
102
{ACAD_XDICTIONARY
360
B48
102
}
330
A4B
100
AcDbVisualStyle
  2
EdgeColorOff
 70
    22
 71
     2
 72
     2
 73
     0
 90
        0
 40
-0.6
 41
-30.0
 62
     5
 63
     7
421
 16777215
 74
     1
 91
        4
 64
     7
 65
   257
 75
     1
175
     1
 42
1.0
 92
        8
 66
     7
 43
1.0
 76
     1
 77
     6
 78
     2
 67
     7
 79
     5
170
     0
171
     0
290
     0
174
     0
 93
        1
 44
0.0
173
     0
291
     1
 45
0.0
1001
ACAD
1000
AcDbSavedByObjectVersion
1070
     0
  0
VISUALSTYLE
  5
A5A
102
{ACAD_REACTORS
330
A4B
102
}
102
{ACAD_XDICTIONARY
360
B4A
102
}
330
A4B
100
AcDbVisualStyle
  2
Facepattern
 70
    15
 71
     2
 72
     2
 73
     0
 90
        0
 40
-0.6
 41
-30.0
 62
     5
 63
     7
421
 16777215
 74
     1
 91
        4
 64
     7
 65
   257
 75
     1
175
     1
 42
1.0
 92
        8
 66
     7
 43
1.0
 76
     1
 77
     6
 78
     2
 67
     7
 79
     5
170
     0
171
     0
290
     0
174
     0
 93
        1
 44
0.0
173
     0
291
     1
 45
0.0
1001
ACAD
1000
AcDbSavedByObjectVersion
1070
     0
  0
VISUALSTYLE
  5
A4C
102
{ACAD_REACTORS
330
A4B
102
}
102
{ACAD_XDICTIONARY
360
B4C
102
}
330
A4B
100
AcDbVisualStyle
  2
Flat
 70
     0
 71
     2
 72
     1
 73
     1
 90
        2
 40
-0.6
 41
30.0
 62
     5
 63
     7
421
 16777215
 74
     0
 91
        0
 64
     7
 65
   257
 75
     1
175
     1
 42
1.0
 92
        8
 66
     7
 43
1.0
 76
     1
 77
     6
 78
     2
 67
     7
 79
     5
170
     0
171
     0
290
     0
174
     0
 93
       13
 44
0.0
173
     0
291
     1
 45
0.0
1001
ACAD
1000
AcDbSavedByObjectVersion
1070
     0
  0
VISUALSTYLE
  5
A4D
102
{ACAD_REACTORS
330
A4B
102
}
102
{ACAD_XDICTIONARY
360
B4E
102
}
330
A4B
100
AcDbVisualStyle
  2
FlatWithEdges
 70
     1
 71
     2
 72
     1
 73
     1
 90
        2
 40
-0.6
 41
30.0
 62
     5
 63
     7
421
 16777215
 74
     1
 91
        0
 64
     7
 65
   257
 75
     1
175
     1
 42
1.0
 92
        0
 66
   257
 43
1.0
 76
     1
 77
     6
 78
     2
 67
     7
 79
     5
170
     0
171
     0
290
     0
174
     0
 93
       13
 44
0.0
173
     0
291
     1
 45
0.0
1001
ACAD
1000
AcDbSavedByObjectVersion
1070
     0
  0
VISUALSTYLE
  5
A4E
102
{ACAD_REACTORS
330
A4B
102
}
102
{ACAD_XDICTIONARY
360
B50
102
}
330
A4B
100
AcDbVisualStyle
  2
Gouraud
 70
     2
 71
     2
 72
     2
 73
     1
 90
        2
 40
-0.6
 41
30.0
 62
     5
 63
     7
421
 16777215
 74
     0
 91
        0
 64
     7
 65
   257
 75
     1
175
     1
 42
1.0
 92
        0
 66
     7
 43
1.0
 76
     1
 77
     6
 78
     2
 67
     7
 79
     5
170
     0
171
     0
290
     0
174
     0
 93
       13
 44
0.0
173
     0
291
     1
 45
0.0
1001
ACAD
1000
AcDbSavedByObjectVersion
1070
     0
  0
VISUALSTYLE
  5
A4F
102
{ACAD_REACTORS
330
A4B
102
}
102
{ACAD_XDICTIONARY
360
B52
102
}
330
A4B
100
AcDbVisualStyle
  2
GouraudWithEdges
 70
     3
 71
     2
 72
     2
 73
     1
 90
        2
 40
-0.6
 41
30.0
 62
     5
 63
     7
421
 16777215
 74
     1
 91
        0
 64
     7
 65
   257
 75
     1
175
     1
 42
1.0
 92
        0
 66
   257
 43
1.0
 76
     1
 77
     6
 78
     2
 67
     7
 79
     5
170
     0
171
     0
290
     0
174
     0
 93
       13
 44
0.0
173
     0
291
     1
 45
0.0
1001
ACAD
1000
AcDbSavedByObjectVersion
1070
     0
  0
VISUALSTYLE
  5
A53
102
{ACAD_REACTORS
330
A4B
102
}
102
{ACAD_XDICTIONARY
360
B54
102
}
330
A4B
100
AcDbVisualStyle
  2
Hidden
 70
     6
 71
     1
 72
     2
 73
     2
 90
        0
 40
-0.6
 41
-30.0
 62
     5
 63
     7
421
 16777215
 74
     2
 91
        2
 64
     7
 65
   257
 75
     2
175
     1
 42
40.0
 92
        0
 66
   257
 43
1.0
 76
     1
 77
     6
 78
     2
 67
     7
 79
     3
170
     0
171
     0
290
     0
174
     0
 93
        1
 44
0.0
173
     0
291
     0
 45
0.0
1001
ACAD
1000
AcDbSavedByObjectVersion
1070
     0
  0
VISUALSTYLE
  5
A61
102
{ACAD_REACTORS
330
A4B
102
}
102
{ACAD_XDICTIONARY
360
B56
102
}
330
A4B
100
AcDbVisualStyle
  2
JitterOff
 70
    20
 71
     2
 72
     2
 73
     0
 90
        0
 40
-0.6
 41
-30.0
 62
     5
 63
     7
421
 16777215
 74
     1
 91
        4
 64
     7
 65
   257
 75
     1
175
     1
 42
1.0
 92
       10
 66
     7
 43
1.0
 76
     1
 77
     6
 78
     2
 67
     7
 79
     5
170
     0
171
     0
290
     0
174
     0
 93
        1
 44
0.0
173
     0
291
     1
 45
0.0
1001
ACAD
1000
AcDbSavedByObjectVersion
1070
     0
  0
VISUALSTYLE
  5
A59
102
{ACAD_REACTORS
330
A4B
102
}
102
{ACAD_XDICTIONARY
360
B58
102
}
330
A4B
100
AcDbVisualStyle
  2
Linepattern
 70
    14
 71
     2
 72
     2
 73
     0
 90
        0
 40
-0.6
 41
-30.0
 62
     5
 63
     7
421
 16777215
 74
     1
 91
        4
 64
     7
 65
   257
 75
     7
175
     7
 42
1.0
 92
        8
 66
     7
 43
1.0
 76
     1
 77
     6
 78
     2
 67
     7
 79
     5
170
     0
171
     0
290
     0
174
     0
 93
        1
 44
0.0
173
     0
291
     1
 45
0.0
1001
ACAD
1000
AcDbSavedByObjectVersion
1070
     0
  0
VISUALSTYLE
  5
A62
102
{ACAD_REACTORS
330
A4B
102
}
102
{ACAD_XDICTIONARY
360
B5A
102
}
330
A4B
100
AcDbVisualStyle
  2
OverhangOff
 70
    21
 71
     2
 72
     2
 73
     0
 90
        0
 40
-0.6
 41
-30.0
 62
     5
 63
     7
421
 16777215
 74
     1
 91
        4
 64
     7
 65
   257
 75
     1
175
     1
 42
1.0
 92
        9
 66
     7
 43
1.0
 76
     1
 77
     6
 78
     2
 67
     7
 79
     5
170
     0
171
     0
290
     0
174
     0
 93
        1
 44
0.0
173
     0
291
     1
 45
0.0
1001
ACAD
1000
AcDbSavedByObjectVersion
1070
     0
  0
VISUALSTYLE
  5
A55
102
{ACAD_REACTORS
330
A4B
102
}
102
{ACAD_XDICTIONARY
360
B5C
102
}
330
A4B
100
AcDbVisualStyle
  2
Realistic
 70
     8
 71
     2
 72
     2
 73
     0
 90
        2
 40
-0.6
 41
30.0
 62
     5
 63
     7
421
 16777215
 74
     0
 91
        0
 64
     7
 65
   257
 75
     1
175
     1
 42
1.0
 92
        8
 66
   257
 43
1.0
 76
     1
 77
     6
 78
     2
 67
     7
 79
     3
170
     0
171
     0
290
     0
174
     0
 93
       13
 44
0.0
173
     0
291
     0
 45
0.0
1001
ACAD
1000
AcDbSavedByObjectVersion
1070
     0
  0
VISUALSTYLE
  5
A60
102
{ACAD_REACTORS
330
A4B
102
}
102
{ACAD_XDICTIONARY
360
B5E
102
}
330
A4B
100
AcDbVisualStyle
  2
Shaded
 70
    27
 71
     2
 72
     2
 73
     1
 90
        2
 40
-0.6
 41
30.0
 62
     5
 63
     7
421
 16777215
 74
     0
 91
        4
 64
     7
 65
   257
 75
     1
175
     1
 42
1.0
 92
        8
 66
   257
 43
1.0
 76
     1
 77
     6
 78
     2
 67
     8
425
  7895160
 79
     3
170
     0
171
     0
290
     0
174
     0
 93
        5
 44
0.0
173
     0
291
     0
 45
0.0
1001
ACAD
1000
AcDbSavedByObjectVersion
1070
     0
  0
VISUALSTYLE
  5
A5F
102
{ACAD_REACTORS
330
A4B
102
}
102
{ACAD_XDICTIONARY
360
B60
102
}
330
A4B
100
AcDbVisualStyle
  2
Shaded with edges
 70
    26
 71
     2
 72
     2
 73
     1
 90
        2
 40
-0.6
 41
30.0
 62
     5
 63
     7
421
 16777215
 74
     1
 91
       10
 64
     7
 65
   257
 75
     2
175
     1
 42
1.0
 92
        8
 66
   257
 43
1.0
 76
     1
 77
     6
 78
     2
 67
     7
 79
     3
170
     0
171
     0
290
     0
174
     0
 93
        5
 44
0.0
173
     0
291
     0
 45
0.0
1001
ACAD
1000
AcDbSavedByObjectVersion
1070
     0
  0
VISUALSTYLE
  5
A5C
102
{ACAD_REACTORS
330
A4B
102
}
102
{ACAD_XDICTIONARY
360
B62
102
}
330
A4B
100
AcDbVisualStyle
  2
Shades of Gray
 70
    23
 71
     2
 72
     2
 73
     3
 90
        0
 40
-0.6
 41
-30.0
 62
     5
 63
     7
421
 16777215
 74
     2
 91
        2
 64
     7
 65
     7
 75
     1
175
     1
 42
40.0
 92
        8
 66
     7
 43
1.0
 76
     1
 77
     6
 78
     2
 67
     7
 79
     3
170
     0
171
     0
290
     0
174
     0
 93
        1
 44
0.0
173
     0
291
     0
 45
0.0
1001
ACAD
1000
AcDbSavedByObjectVersion
1070
     0
  0
VISUALSTYLE
  5
A5D
102
{ACAD_REACTORS
330
A4B
102
}
102
{ACAD_XDICTIONARY
360
B64
102
}
330
A4B
100
AcDbVisualStyle
  2
Sketchy
 70
    24
 71
     1
 72
     2
 73
     2
 90
        0
 40
-0.6
 41
-30.0
 62
     5
 63
     7
421
 16777215
 74
     2
 91
        2
 64
     7
 65
     7
 75
     1
175
     1
 42
40.0
 92
       11
 66
     7
 43
1.0
 76
     1
 77
     6
 78
     2
 67
     7
 79
     6
170
     0
171
     0
290
     0
174
     0
 93
        1
 44
0.0
173
     0
291
     0
 45
0.0
1001
ACAD
1000
AcDbSavedByObjectVersion
1070
     0
  0
VISUALSTYLE
  5
A58
102
{ACAD_REACTORS
330
A4B
102
}
102
{ACAD_XDICTIONARY
360
B66
102
}
330
A4B
100
AcDbVisualStyle
  2
Thicken
 70
    13
 71
     2
 72
     2
 73
     0
 90
        0
 40
-0.6
 41
-30.0
 62
     5
 63
     7
421
 16777215
 74
     1
 91
        4
 64
     7
 65
   257
 75
     1
175
     1
 42
1.0
 92
       12
 66
     7
 43
1.0
 76
     1
 77
     6
 78
     2
 67
     7
 79
     5
170
     0
171
     0
290
     0
174
     0
 93
        1
 44
0.0
173
     0
291
     1
 45
0.0
1001
ACAD
1000
AcDbSavedByObjectVersion
1070
     0
  0
VISUALSTYLE
  5
A52
102
{ACAD_REACTORS
330
A4B
102
}
102
{ACAD_XDICTIONARY
360
B68
102
}
330
A4B
100
AcDbVisualStyle
  2
Wireframe
 70
     5
 71
     0
 72
     2
 73
     0
 90
        0
 40
-0.6
 41
-30.0
 62
     5
 63
     7
421
 16777215
 74
     1
 91
        4
 64
     7
 65
   257
 75
     1
175
     1
 42
1.0
 92
        0
 66
   257
 43
1.0
 76
     1
 77
     6
 78
     2
 67
     7
 79
     3
170
     0
171
     0
290
     0
174
     0
 93
        1
 44
0.0
173
     0
291
     0
 45
0.0
1001
ACAD
1000
AcDbSavedByObjectVersion
1070
     0
  0
VISUALSTYLE
  5
A5E
102
{ACAD_REACTORS
330
A4B
102
}
102
{ACAD_XDICTIONARY
360
B6A
102
}
330
A4B
100
AcDbVisualStyle
  2
X-Ray
 70
    25
 71
     2
 72
     2
 73
     1
 90
        1
 40
0.5
 41
-30.0
 62
     5
 63
     7
421
 16777215
 74
     1
 91
        0
 64
     7
 65
   257
 75
     1
175
     1
 42
1.0
 92
        8
 66
     7
 43
1.0
 76
     1
 77
     6
 78
     2
 67
     7
 79
     3
170
     0
171
     0
290
     0
174
     0
 93
       13
 44
0.0
173
     0
291
     0
 45
0.0
1001
ACAD
1000
AcDbSavedByObjectVersion
1070
     0
  0
DICTIONARYVAR
  5
B23
102
{ACAD_REACTORS
330
B4
102
}
330
B4
100
DictionaryVariables
280
     0
  1
1:1
  0
DICTIONARYVAR
  5
B1F
102
{ACAD_REACTORS
330
B4
102
}
330
B4
100
DictionaryVariables
280
     0
  1
Standard
  0
DICTIONARYVAR
  5
B1E
102
{ACAD_REACTORS
330
B4
102
}
330
B4
100
DictionaryVariables
280
     0
  1
Standard
  0
DICTIONARYVAR
  5
B20
102
{ACAD_REACTORS
330
B4
102
}
330
B4
100
DictionaryVariables
280
     0
  1
Imperial24
  0
DICTIONARYVAR
  5
B21
102
{ACAD_REACTORS
330
B4
102
}
330
B4
100
DictionaryVariables
280
     0
  1
Imperial24
  0
DICTIONARYVAR
  5
B5
102
{ACAD_REACTORS
330
B4
102
}
330
B4
100
DictionaryVariables
280
     0
  1
4
  0
DICTIONARYVAR
  5
B25
102
{ACAD_REACTORS
330
B4
102
}
330
B4
100
DictionaryVariables
280
     0
  1
1
  0
DICTIONARYVAR
  5
B26
102
{ACAD_REACTORS
330
B4
102
}
330
B4
100
DictionaryVariables
280
     0
  1
15
  0
DICTIONARYVAR
  5
B24
102
{ACAD_REACTORS
330
B4
102
}
330
B4
100
DictionaryVariables
280
     0
  1
0
  0
DICTIONARYVAR
  5
B22
102
{ACAD_REACTORS
330
B4
102
}
330
B4
100
DictionaryVariables
280
     0
  1
0
  0
DICTIONARYVAR
  5
B27
102
{ACAD_REACTORS
330
B4
102
}
330
B4
100
DictionaryVariables
280
     0
  1
2
  0
DICTIONARY
  5
AE4
102
{ACAD_REACTORS
330
AE2
102
}
330
AE2
100
AcDbDictionary
281
     1
  0
DICTIONARY
  5
AE3
102
{ACAD_REACTORS
330
AE2
102
}
330
AE2
100
AcDbDictionary
281
     1
  3
2130019752
350
ADD
  3
2130019760
350
ADE
  3
2130019768
350
ADF
  3
2130019776
350
AE0
  3
2130019784
350
AE1
  0
DICTIONARY
  5
B1A
330
A7E
100
AcDbDictionary
280
     1
281
     1
  3
ACAD_XREC_ROUNDTRIP
360
B1B
  0
DICTIONARY
  5
B1C
330
A81
100
AcDbDictionary
280
     1
281
     1
  3
ADSK_XREC_LAYOUTTHUMBNAIL
360
B1D
  0
DICTIONARY
  5
B32
330
A3B
100
AcDbDictionary
280
     1
281
     1
  3
ACAD_XREC_ROUNDTRIP
360
B33
  0
DICTIONARY
  5
B34
330
A33
100
AcDbDictionary
280
     1
281
     1
  3
ACAD_XREC_ROUNDTRIP
360
B35
  0
DICTIONARY
  5
B36
330
A43
100
AcDbDictionary
280
     1
281
     1
  3
ACAD_XREC_ROUNDTRIP
360
B37
  0
DICTIONARY
  5
B18
330
A7C
100
AcDbDictionary
280
     1
281
     1
  3
ACAD_XREC_ROUNDTRIP
360
B19
  0
DICTIONARY
  5
B38
330
A66
100
AcDbDictionary
280
     1
281
     1
  3
ACAD_ROUNDTRIP_2008_TABLESTYLE_CELLSTYLEMAP
360
B3A
  3
ACAD_XREC_ROUNDTRIP
360
B39
  0
DICTIONARY
  5
B3C
330
A51
100
AcDbDictionary
280
     1
281
     1
  3
ACAD_XREC_ROUNDTRIP
360
B3D
  0
DICTIONARY
  5
B3E
330
A50
100
AcDbDictionary
280
     1
281
     1
  3
ACAD_XREC_ROUNDTRIP
360
B3F
  0
DICTIONARY
  5
B40
330
A57
100
AcDbDictionary
280
     1
281
     1
  3
ACAD_XREC_ROUNDTRIP
360
B41
  0
DICTIONARY
  5
B42
330
A5B
100
AcDbDictionary
280
     1
281
     1
  3
ACAD_XREC_ROUNDTRIP
360
B43
  0
DICTIONARY
  5
B44
330
A54
100
AcDbDictionary
280
     1
281
     1
  3
ACAD_XREC_ROUNDTRIP
360
B45
  0
DICTIONARY
  5
B46
330
A56
100
AcDbDictionary
280
     1
281
     1
  3
ACAD_XREC_ROUNDTRIP
360
B47
  0
DICTIONARY
  5
B48
330
A63
100
AcDbDictionary
280
     1
281
     1
  3
ACAD_XREC_ROUNDTRIP
360
B49
  0
DICTIONARY
  5
B4A
330
A5A
100
AcDbDictionary
280
     1
281
     1
  3
ACAD_XREC_ROUNDTRIP
360
B4B
  0
DICTIONARY
  5
B4C
330
A4C
100
AcDbDictionary
280
     1
281
     1
  3
ACAD_XREC_ROUNDTRIP
360
B4D
  0
DICTIONARY
  5
B4E
330
A4D
100
AcDbDictionary
280
     1
281
     1
  3
ACAD_XREC_ROUNDTRIP
360
B4F
  0
DICTIONARY
  5
B50
330
A4E
100
AcDbDictionary
280
     1
281
     1
  3
ACAD_XREC_ROUNDTRIP
360
B51
  0
DICTIONARY
  5
B52
330
A4F
100
AcDbDictionary
280
     1
281
     1
  3
ACAD_XREC_ROUNDTRIP
360
B53
  0
DICTIONARY
  5
B54
330
A53
100
AcDbDictionary
280
     1
281
     1
  3
ACAD_XREC_ROUNDTRIP
360
B55
  0
DICTIONARY
  5
B56
330
A61
100
AcDbDictionary
280
     1
281
     1
  3
ACAD_XREC_ROUNDTRIP
360
B57
  0
DICTIONARY
  5
B58
330
A59
100
AcDbDictionary
280
     1
281
     1
  3
ACAD_XREC_ROUNDTRIP
360
B59
  0
DICTIONARY
  5
B5A
330
A62
100
AcDbDictionary
280
     1
281
     1
  3
ACAD_XREC_ROUNDTRIP
360
B5B
  0
DICTIONARY
  5
B5C
330
A55
100
AcDbDictionary
280
     1
281
     1
  3
ACAD_XREC_ROUNDTRIP
360
B5D
  0
DICTIONARY
  5
B5E
330
A60
100
AcDbDictionary
280
     1
281
     1
  3
ACAD_XREC_ROUNDTRIP
360
B5F
  0
DICTIONARY
  5
B60
330
A5F
100
AcDbDictionary
280
     1
281
     1
  3
ACAD_XREC_ROUNDTRIP
360
B61
  0
DICTIONARY
  5
B62
330
A5C
100
AcDbDictionary
280
     1
281
     1
  3
ACAD_XREC_ROUNDTRIP
360
B63
  0
DICTIONARY
  5
B64
330
A5D
100
AcDbDictionary
280
     1
281
     1
  3
ACAD_XREC_ROUNDTRIP
360
B65
  0
DICTIONARY
  5
B66
330
A58
100
AcDbDictionary
280
     1
281
     1
  3
ACAD_XREC_ROUNDTRIP
360
B67
  0
DICTIONARY
  5
B68
330
A52
100
AcDbDictionary
280
     1
281
     1
  3
ACAD_XREC_ROUNDTRIP
360
B69
  0
DICTIONARY
  5
B6A
330
A5E
100
AcDbDictionary
280
     1
281
     1
  3
ACAD_XREC_ROUNDTRIP
360
B6B
  0
XRECORD
  5
ADD
102
{ACAD_REACTORS
330
AE3
102
}
330
AE3
100
AcDbXrecord
280
     1
  1
AcDb_Thumbnail_Schema
102
{ATTRRECORD
341
ADE
  2
AcDbDs::TreatedAsObjectData
280
     1
291
     1
102
ATTRRECORD}
102
{ATTRRECORD
341
ADF
  2
AcDbDs::Legacy
280
     1
291
     1
102
ATTRRECORD}
  2
AcDbDs::ID
280
    10
 91
        8
102
{ATTRRECORD
341
AE0
  2
AcDs:Indexable
280
     1
291
     1
102
ATTRRECORD}
102
{ATTRRECORD
341
AE1
  2
AcDbDs::HandleAttribute
280
     7
282
     1
102
ATTRRECORD}
  2
Thumbnail_Data
280
    15
 91
        0
  0
XRECORD
  5
ADE
102
{ACAD_REACTORS
330
AE3
102
}
330
AE3
100
AcDbXrecord
280
     1
  1
AcDbDs::TreatedAsObjectDataSchema
  2
AcDbDs::TreatedAsObjectData
280
     1
 91
        0
  0
XRECORD
  5
ADF
102
{ACAD_REACTORS
330
AE3
102
}
330
AE3
100
AcDbXrecord
280
     1
  1
AcDbDs::LegacySchema
  2
AcDbDs::Legacy
280
     1
 91
        0
  0
XRECORD
  5
AE0
102
{ACAD_REACTORS
330
AE3
102
}
330
AE3
100
AcDbXrecord
280
     1
  1
AcDbDs::IndexedPropertySchema
  2
AcDs:Indexable
280
     1
 91
        0
  0
XRECORD
  5
AE1
102
{ACAD_REACTORS
330
AE3
102
}
330
AE3
100
AcDbXrecord
280
     1
  1
AcDbDs::HandleAttributeSchema
  2
AcDbDs::HandleAttribute
280
     7
 91
        1
284
     1
  0
XRECORD
  5
B1B
102
{ACAD_REACTORS
330
B1A
102
}
330
B1A
100
AcDbXrecord
280
     1
102
DISPLAYNAME
  1
Imperial24
102
FLAGS
 90
        0
  0
XRECORD
  5
B1D
102
{ACAD_REACTORS
330
B1C
102
}
330
B1C
100
AcDbXrecord
280
     1
310
2800000000010000A4000000010008000000000000A4000001000000010000000001000000000000292929FF000000FFC8C8C8FF000000FF000000FF000000FF000000FF000000FF000000FF000000FF000000FF330000FF660000FF990000FFCC0000FFFF0000FF003300FF333300FF663300FF993300FFCC3300FFFF3300
310
FF006600FF336600FF666600FF996600FFCC6600FFFF6600FF009900FF339900FF669900FF999900FFCC9900FFFF9900FF00CC00FF33CC00FF66CC00FF99CC00FFCCCC00FFFFCC00FF00FF00FF33FF00FF66FF00FF99FF00FFCCFF00FFFFFF00FF000033FF330033FF660033FF990033FFCC0033FFFF0033FF003333FF3333
310
33FF663333FF993333FFCC3333FFFF3333FF006633FF336633FF666633FF996633FFCC6633FFFF6633FF009933FF339933FF669933FF999933FFCC9933FFFF9933FF00CC33FF33CC33FF66CC33FF99CC33FFCCCC33FFFFCC33FF00FF33FF33FF33FF66FF33FF99FF33FFCCFF33FFFFFF33FF000066FF330066FF660066FF99
310
0066FFCC0066FFFF0066FF003366FF333366FF663366FF993366FFCC3366FFFF3366FF006666FF336666FF666666FF996666FFCC6666FFFF6666FF009966FF339966FF669966FF999966FFCC9966FFFF9966FF00CC66FF33CC66FF66CC66FF99CC66FFCCCC66FFFFCC66FF00FF66FF33FF66FF66FF66FF99FF66FFCCFF66FF
310
FFFF66FF000099FF330099FF660099FF990099FFCC0099FFFF0099FF003399FF333399FF663399FF993399FFCC3399FFFF3399FF006699FF336699FF666699FF996699FFCC6699FFFF6699FF009999FF339999FF669999FF999999FFCC9999FFFF9999FF00CC99FF33CC99FF66CC99FF99CC99FFCCCC99FFFFCC99FF00FF99
310
FF33FF99FF66FF99FF99FF99FFCCFF99FFFFFF99FF0000CCFF3300CCFF6600CCFF9900CCFFCC00CCFFFF00CCFF0033CCFF3333CCFF6633CCFF9933CCFFCC33CCFFFF33CCFF0066CCFF3366CCFF6666CCFF9966CCFFCC66CCFFFF66CCFF0099CCFF3399CCFF6699CCFF9999CCFFCC99CCFFFF99CCFF00CCCCFF33CCCCFF66CC
310
CCFF99CCCCFFCCCCCCFFFFCCCCFF00FFCCFF33FFCCFF66FFCCFF99FFCCFFCCFFCCFFFFFFCCFF0000FFFF3300FFFF6600FFFF9900FFFFCC00FFFFFF00FFFF0033FFFF3333FFFF6633FFFF9933FFFFCC33FFFFFF33FFFF0066FFFF3366FFFF6666FFFF9966FFFFCC66FFFFFF66FFFF0099FFFF3399FFFF6699FFFF9999FFFFCC
310
99FFFFFF99FFFF00CCFFFF33CCFFFF66CCFFFF99CCFFFFCCCCFFFFFFCCFFFF00FFFFFF33FFFFFF66FFFFFF99FFFFFFCCFFFFFFFFFFFFFF000000FF0D0D0DFF1A1A1AFF282828FF353535FF434343FF505050FF5D5D5DFF6B6B6BFF787878FF868686FF939393FFA1A1A1FFAEAEAEFFBBBBBBFFC9C9C9FFD6D6D6FFE4E4E4FF
310
F1F1F1FFFFFFFFFF000000FF000000FF000000FF000000FF000000FF000000FF000000FF000000FF000000FF0000000000000000000000000000000000000000000000000000000000000000000000000000000000000000000000000000000000000000000000000000000000000000000000000000000000000000000000
310
00000000000000000000000000000000000000000000000000000000000000000000000000000000000000000000000000000000000000000000000000000000000000000000000000000000000000000000000000000000000000000000000000000000000000000000000000000000000000000000000000000000000000
310
00000000000000000000000000000000000000000000000000000000000000000000000000000000000000000000000000000000000000000000000000000000000000000000000000000000000000000000000000000000000000000000000000000000000000000000000000000000000000000000000000000000000000
310
00000000000000000000000000000000000000000000000000000000000000000000000000000000000000000000000000000000000000000000000000000000000000000000000000000000000000000000000000000000000000000000000000000000000000000000000000000000000000000000000000000000000000
310
00000000000000000000000000000000000000000000000000000000000000000000000000000000000000000000000000000000000000000000000000000000000000000000000000000000000000000000000000000000000000000000000000000000000000000000000000000000000000000000000000000000000000
310
00000000000000000000000000000000000000000000000000000000000000000000000000000000000000000000000000000000000000000000000000000000000000000000000000000000000000000000000000000000000000000000000000000000000000000000000000000000000000000000000000000000000000
310
00000000000000000000000000000000000000000000000000000000000000000000000000000000000000000000000000000000000000000000000000000000000000000000000000000000000000000000000000000000000000000000000000000000000000000000000000000000000000000000000000000000000000
310
00000000000000000000000000000000000000000000000000000000000000000000000000000000000000000000000000000000000000000000000000000000000000000000000000000000000000000000000000000000000000000000000000000000000000000000000000000000000000000000000000000000000000
310
00000000000000000000000000000000000000000000000000000000000000000000000000000000000000000000000000000000000000000000000000000000000000000000000000000000000000000000000000000000000000000000000000000000000000000000000000000000000000000000000000000000000000
310
00000000000000000000000000000000000000000000000000000000000000000000000000000000000000000000000000000000000000000000000000000000000000000000000000000000000000000000000000000000000000000000000000000000000000000000000000000000000000000000000000000000000000
310
00000000000000000000000000000000000000000000000000000000000000000000000000000000000000000000000000000000000000000000000000000000000000000000000000000000000000000000000000000000000000000000000000000000000000000000000000000000000000000000000000000000000000
310
00000000000000000000000000000000000000000000000000000000000000000000000000000000000000000000000000000000000000000000000000000000000000000000000000000000000000000000000000000000000000000000000000000000000000000000000000000000000000000000000000000000000000
310
00000000000000000000000000000000000000000000000000000000000000000000000000000000000000000000000000000000000000000000000000000000000000000000000000000000000000000000000000000000000000000000000000000000000000000000000000000000000000000000000000000000000000
310
00000000000000000000000000000000000000000000000000000000000000000000000000000000000000000000000000000000000000000000000000000000000000000000000000000000000000000000000000000000000000000000000000000000000000000000000000000000000000000000000000000000000000
310
00000000000000000000000000000000000000000000000000000000000000000000000000000000000000000000000000000000000000000000000000000000000000000000000000000000000000000000000000000000000000000000000000000000000000000000000000000000000000000000000000000000000000
310
00000000000000000000000000000000000000000000000000000000000000000000000000000000000000000000000000000000000000000000000000000000000000000000000000000000000000000000000000000000000000000000000000000000000000000000000000000000000000000000000000000000000000
310
00000000000000000000000000000000000000000000000000000000000000000000000000000000000000000000000000000000000000000000000000000000000000000000000000000000000000000000000000000000000000000000000000000000000000000000000000000000000000000000000000000000000000
310
00000000000000000000000000000000000000000000000000000000000000000000000000000000000000000000000000000000000000000000000000000000000000000000000000000000000000000000000000000000000000000000000000000000000000000000000000000000000000000000000000000000000000
310
00000000000000000000000000000000000000000000000000000000000000000000000000000000000000000000000000000000000000000000000000000000000000000000000000000000000000000000000000000000000000000000000000000000000000000000000000000000000000000000000000000000000000
310
00000000000000000000000000000000000000000000000000000000000000000000000000000000000000000000000000000000000000000000000000000000000000000000000000000000000000000000000000000000000000000000000000000000000000000000000000000000000000000000000000000000000000
310
00000000000000000000000000000000000000000000000000000000000000000000000000000000000000000000000000000000000000000000000000000000000000000000000000000000000000000000000000000000000000000000000000000000000000000000000000000000000000000000000000000000000000
310
00000000000000000000000000000000000000000000000000000000000000000000000000000000000000000000000000000000000000000000000000000000000000000000000000000000000000000000000000000000000000000000000000000000000000000000000000000000000000000000000000000000000000
310
00000000000000000000000000000000000000000000000000000000000000000000000000000000000000000000000000000000000000000000000000000000000000000000000000000000000000000000000000000000000000000000000000000000000000000000000000000000000000000000000000000000000000
310
00000000000000000000000000000000000000000000000000000000000000000000000000000000000000000000000000000000000000000000000000000000000000000000000000000000000000000000000000000000000000000000000000000000000000000000000000000000000000000000000000000000000000
310
00000000000000000000000000000000000000000000000000000000000000000000000000000000000000000000000000000000000000000000000000000000000000000000000000000000000000000000000000000000000000000000000000000000000000000000000000000000000000000000000000000000000000
310
00000000000000000000000000000000000000000000000000000000000000000000000000000000000000000000000000000000000000000000000000000000000000000000000000000000000000000000000000000000000000000000000000000000000000000000000000000000000000000000000000000000000000
310
00000000000000000000000000000000000000000000000000000000000000000000000000000000000000000000000000000000000000000000000000000000000000000000000000000000000000000000000000000000000000000000000000000000000000000000000000000000000000000000000000000000000000
310
00000000000000000000000000000000000000000000000000000000000000000000000000000000000000000000000000000000000000000000000000000000000000000000000000000000000000000000000000000000000000000000000000000000000000000000000000000000000000000000000000000000000000
310
00000000000000000000000000000000000000000000000000000000000000000000000000000000000000000000000000000000000000000000000000000000000000000000000000000000000000000000000000000000000000000000000000000000000000000000000000000000000000000000000000000000000000
310
00000000000000000000000000000000000000000000000000000000000000000000000000000000000000000000000000000000000000000000000000000000000000000000000000000000000000000000000000000000000000000000000000000000000000000000000000000000000000000000000000000000000000
310
00000000000000000000000000000000000000000000000000000000000000000000000000000000000000000000000000000000000000000000000000000000000000000000000000000000000000000000000000000000000000000000000000000000000000000000000000000000000000000000000000000000000000
310
00000000000000000000000000000000000000000000000000000000000000000000000000000000000000000000000000000000000000000000000000000000000000000000000000000000000000000000000000000000000000000000000000000000000000000000000000000000000000000000000000000000000000
310
00000000000000000000000000000000000000000000000000000000000000000000000000000000000000000000000000000000000000000000000000000000000000000000000000000000000000000000000000000000000000000000000000000000000000000000000000000000000000000000000000000000000000
310
00000000000000000000000000000000000000000000000000000000000000000000000000000000000000000000000000000000000000000000000000000000000000000000000000000000000000000000000000000000000000000000000000000000000000000000000000000000000000000000000000000000000000
310
00000000000000000000000000000000000000000000000000000000000000000000000000000000000000000000000000000000000000000000000000000000000000000000000000000000000000000000000000000000000000000000000000000000000000000000000000000000000000000000000000000000000000
310
00000000000000000000000000000000000000000000000000000000000000000000000000000000000000000000000000000000000000000000000000000000000000000000000000000000000000000000000000000000000000000000000000000000000000000000000000000000000000000000000000000000000000
310
00000000000000000000000000000000000000000000000000000000000000000000000000000000000000000000000000000000000000000000000000000000000000000000000000000000000000000000000000000000000000000000000000000000000000000000000000000000000000000000000000000000000000
310
00000000000000000000000000000000000000000000000000000000000000000000000000000000000000000000000000000000000000000000000000000000000000000000000000000000000000000000000000000000000000000000000000000000000000000000000000000000000000000000000000000000000000
310
00000000000000000000000000000000000000000000000000000000000000000000000000000000000000000000000000000000000000000000000000000000000000000000000000000000000000000000000000000000000000000000000000000000000000000000000000000000000000000000000000000000000000
310
00000000000000000000000000000000000000000000000000000000000000000000000000000000000000000000000000000000000000000000000000000000000000000000000000000000000000000000000000000000000000000000000000000000000000000000000000000000000000000000000000000000000000
310
000000000000000000000000BEBEBEBEBEBE00BEBEBEBEBEBEBE0000000000000000000000000000000000000000000000000000000000000000000000000000000000000000000000000000000000000000000000000000000000000000000000000000000000000000000000000000000000000000000000000000000000
310
00000000000000000000000000000000000000000000000000000000000000000000000000000000000000000000000000000000000000000000000000000000000000000000000000000000000000000000000000000000000000000000000000000000000000000000000000000000000000000000000000000000000000
310
0000000000000000000000000000BEBEBEBEBEBEBEBEBEBEBEBEBEBE0000000000000000000000000000000000000000000000000000000000000000000000000000000000000000000000000000000000000000000000000000000000000000000000000000000000000000000000000000DCDCDCDCDCDCDCDCDCDCDCDCDC
310
DCDCDCDCDCDCDCDCDCDCDCDCDCDCDCDCDCDCDCDCDCDCDCDCDCDCDCDCDCDCDCDCDCDCDCDCDCDCDCDCDCDCDCDCDCDCDCDCDCDCDCDCDCDCDCDCDCDCDCDCDCDCDCDCDCDCDCDCDCDCDCDCDCDCDCDCDCDCDCDCDCDCDCDCDCDCDCDCDCDCDCDCDCDCDCDCDCDCDCDCDCDCDCDCDCDCDCDCDCDCDCDCDCDCDCDCDCDCDCDCDCDCDCDCDCDCDC
310
DCDCDCDCDCDCDCDCDCDCDCDCDCDCDCDCDCDCDCDCDCDCDCDCDCDCDCDCDCDC0000000000000000000000000000000000000000000000000000000000000000000000000000000000000000000000000000000000000000000000000000000000000000000000000000000000000000000000000000DC00000000000000000000
310
00000000000000000000000000000000000000000000000000000000000000000000000000000000000000000000000000000000000000000000000000000000000000000000000000000000000000000000000000000000000000000000000000000000000000000000000000000000000000000000000000000000000000
310
0000000000000000DC000000000000000000BEBE00000000BEBEBE00000000DC0000000000000000000000000000000000000000000000000000000000000000000000000000000000000000000000000000000000000000000000000000000000000000000000000000000000000000000000000000DC0000000000000000
310
00000000000000000000000000000000000000000000000000000000000000000000000000000000000000000000000000000000000000000000000000000000000000000000000000000000000000000000000000000000000000000000000000000000000000000000000000000000000000000000000000000000000000
310
00000000000000000000DCBEBEBEBEBEBEBEBEBEBEBE00000000BEBEBE00000000DC0000000000000000000000000000000000000000000000000000000000000000000000000000000000000000000000000000000000000000000000000000000000000000000000000000000000000000000000000000DC000000000000
310
00000000000000000000000000000000000000000000000000000000000000000000000000000000000000000000000000000000000000000000000000000000000000000000000000000000000000000000000000000000000000000000000000000000000000000000000000000000000000000000000000000000000000
310
000000000000000000000000DCBEBEBEBEBEBEBEBEBEBEBEBEBEBEBEBEBEBEBEBEBEBEDC0000000000000000000000000000000000000000000000000000000000000000000000000000000000000000000000000000000000000000000000000000000000000000000000000000000000000000000000000000DC00000000
310
00000000000000000000000000000000000000000000000000000000000000000000000000000000000000000000000000000000000000000000000000000000000000000000000000000000000000000000000000000000000000000000000000000000000000000000000000000000000000000000000000000000000000
310
0000000000000000000000000000DCBEBEBEBEBEBEBEBEBEBEBEBEBEBEBEBEBEBEBEBEBEBEDC0000000000000000000000000000000000000000000000000000000000000000000000000000000000000000000000000000000000000000000000000000000000000000000000000000000000000000000000000000DC0000
310
00000000000000000000000000000000000000000000000000000000000000000000000000000000000000000000000000000000000000000000000000000000000000000000000000000000000000000000000000000000000000000000000000000000000000000000000000000000000000000000000000000000000000
310
00000000000000000000000000000000DCBEBEBEBEBE00000000BEBEBEBEBEBEBE0000000000BEDC0000000000000000000000000000000000000000000000000000000000000000000000000000000000000000000000000000000000000000000000000000000000000000000000000000000000000000000000000000DC
310
00000000000000000000000000000000000000000000000000000000000000000000000000000000000000000000000000000000000000000000000000000000000000000000000000000000000000000000000000000000000000000000000000000000000000000000000000000000000000000000000000000000000000
310
000000000000000000000000000000000000DCBEBEBEBEBEBEBEBEBEBEBEBEBEBEBEBEBEBEBEBEBEBEDC00000000000000000000000000000000000000000000000000000000000000000000000000000000000000000000000000000000000000000000000000000000000000000000000000000000000000000000000000
310
00DC0000000000000000000000000000000000000000000000000000000000000000000000000000000000000000000000000000000000000000000000000000000000000000000000000000000000000000000000000000000000000000000000000000000000000000000000000000000000000000000000000000000000
310
0000000000000000000000000000000000000000DCBEBEBEBEBEBEBEBEBEBEBEBEBEBEBEBEBEBEBEBEBEBEDC0000000000000000000000000000000000000000000000000000000000000000000000000000000000000000000000000000000000000000000000000000000000000000000000000000000000000000000000
310
000000DC000000000000000000000000000000000000000000000000000000000000000000000000000000000000000000000000000000000000000000000000000000000000000000000000000000000000000000000000000000000000000000000000000000000000000000000000000000000000000000000000000000
310
00000000000000000000000000000000000000000000DCBEBE00BEBEBEBEBEBEBEBEBEBEBEBEBEBEBEBEBEBEBEDC000000000000000000000000000000000000000000000000000000000000000000000000000000000000000000000000000000000000000000000000000000000000000000000000000000000000000000
310
0000000000DC00000000000000000000000000000000000000000000000000000000000000000000000000000000000000000000000000000000000000000000000000000000000000000000000000000000000000000000000000000000000000000000000000000000000000000000000000000000000000000000000000
310
000000000000000000000000000000000000000000000000DCBE0000BEBEBEBEBEBEBEBEBEBEBEBEBEBEBEBEBEBEBEDC00000000000000000000000000000000000000000000000000000000000000000000000000000000000000000000000000000000000000000000000000000000000000000000000000000000000000
310
00000000000000DC0000000000000000000000000000000000000000000000000000000000000000000000000000000000000000000000000000000000000000000000000000000000000000000000000000000000000000000000000000000000000000000000000000000000000000000000000000000000000000000000
310
0000000000000000000000000000000000000000000000000000DCDCDCDCDCDCDCDCDCDCDCDCDCDCDCDCDCDCDCDCDCDCDCDC0000000000000000000000000000000000000000000000000000000000000000000000000000000000000000000000000000000000000000000000000000000000000000000000000000000000
310
000000000000000000DC000000000000000000000000000000000000000000000000000000000000000000000000000000000000000000000000000000000000000000000000000000000000000000000000000000000000000000000000000000000000000000000000000000000000000000000000000000000000000000
310
000000000000000000000000000000000000000000000000000000000000000000000000000000000000000000000000000000DC000000000000000000000000000000000000000000000000000000000000000000000000000000000000000000000000000000000000000000000000000000000000000000000000000000
310
0000000000000000000000DC00000000000000000000000000000000000000000000000000000000000000000000000000000000000000000000000000000000000000000000000000000000000000000000000000000000000000000000000000000000000000000000000000000000000000000000000000000000000000
310
0000000000000000000000000000000000000000000000000000000000000000000000000000000000000000000000000000000000DC00000000000000000000000000000000000000000000000000000000000000000000000000000000000000000000000000000000000000000000000000000000000000000000000000
310
00000000000000000000000000DC000000000000000000000000000000000000000000000000000000BEBEBEBEBEBEBEBEBEBEBEBEBEBEBEBEBEBEBEBEBEBEBEBEBEBEBEBEBEBEBEBEBEBE00000000000000000000000000000000000000000000000000000000000000000000000000000000000000000000000000000000
310
00000000000000000000000000000000000000000000000000000000000000000000000000000000000000000000000000000000000000DC0000000000000000000000000000000000000000000000000000000000000000000000000000000000000000000000000000000000000000000000000000000000000000000000
310
000000000000000000000000000000DC000000000000000000000000000000000000000000000000000000BE00000000000000000000000000BEBEBEBEBE0000000000000000000000000000BE0000000000000000000000000000000000000000000000000000000000000000000000000000000000000000000000000000
310
000000000000000000000000000000000000000000000000000000000000000000000000000000000000000000000000000000000000000000DC000000000000000000000000000000000000000000000000000000000000000000000000000000000000000000000000000000000000000000000000000000000000000000
310
0000000000000000000000000000000000DC000000000000000000000000000000000000000000000000000000BE0000000000000000000000000000000000000000000000000000000000000000BE000000000000000000000000000000000000000000000000000000000000000000000000000000000000000000000000
310
0000000000000000000000000000000000000000000000000000000000000000000000000000000000000000000000000000000000000000000000DC00000000000000000000000000000000000000000000000000000000000000000000000000000000000000000000000000000000000000000000000000000000000000
310
00000000000000000000000000000000000000DC000000000000000000000000000000000000000000000000000000BE0000000000000000000000000000000000000000000000000000000000000000BE00000000000000000000000000000000000000000000000000000000000000000000000000000000000000000000
310
00000000000000000000000000000000000000000000000000000000000000000000000000000000000000000000000000000000000000000000000000DC0000000000000000000000000000000000000000000000000000000000000000000000000000000000000000000000000000000000000000000000000000000000
310
000000000000000000000000000000000000000000DC000000000000000000000000000000000000000000000000000000BE0000000000000000000000000000000000000000000000000000000000000000BE0000000000000000000000000000000000000000000000000000000000000000000000000000000000000000
310
000000000000000000000000000000000000000000000000000000000000000000000000000000000000000000000000000000000000000000000000000000DC000000000000000000000000000000000000000000000000000000000000000000000000000000000000000000000000000000000000000000000000000000
310
0000000000000000000000000000000000000000000000DC000000000000000000000000000000000000000000000000000000BE0000000000000000000000000000000000000000000000000000000000000000BE000000000000000000000000000000000000000000000000000000000000000000000000000000000000
310
0000000000000000000000000000000000000000000000000000000000000000000000000000000000000000000000000000000000000000000000000000000000DC00000000000000000000000000000000000000000000000000000000000000000000000000000000000000000000000000000000000000000000000000
310
00000000000000000000000000000000000000000000000000DC000000000000000000000000000000000000000000000000000000BE0000000000000000000000000000000000000000000000000000000000000000BE00000000000000000000000000000000000000000000000000000000000000000000000000000000
310
00000000000000000000000000000000000000000000000000000000000000000000000000000000000000000000000000000000000000000000000000000000000000DC0000000000000000000000000000000000000000000000000000000000000000000000000000000000000000000000000000000000000000000000
310
000000000000000000000000000000000000000000000000000000DC000000000000000000000000000000000000000000000000000000282828282828282828282828282828282828282828282828282828282828282828BEBEBEBEBEBEBEBEBEBEBEBE000000000000000000000000000000000000000000000000000000
310
000000000000000000000000000000000000000000000000000000000000000000000000000000000000000000000000000000000000000000000000000000000000000000DC000000000000000000000000000000000000000000000000000000000000000000000000000000000000000000000000000000000000000000
310
0000000000000000000000000000000000000000000000000000000000DC000000000000000000000000000000000000000000000000000000282828282828282828282828282828282828282828002D2D00000000000000000028000000000000BE0000BE0000000000000000000000000000000000000000000000000000
310
0000000000000000000000000000000000000000000000000000000000000000000000000000000000000000000000000000000000000000000000000000000000000000000000DC00000000000000000000000000000000000000000000000000000000000000000000000000000000000000000000000000000000000000
310
00000000000000000000000000000000000000000000000000000000000000DC00000000000000000000000000000000000000000000000000000000000000000000000000000000000000000000282828282828282828000000000028000000000000BE0000BE000000000000000000000000000000000000000000000000
310
00000000000000000000000000000000000000000000000000000000000000000000000000000000000000000000000000000000000000000000000000000000000000000000000000DC0000000000000000000000000000000000000000000000000000000000000000000000000000000000000000000000000000000000
310
000000000000000000000000000000000000000000000000000000000000000000DC000000000000000000000000000000000000000000000000000000000000000000000000000000000000000000000000000000000000282800000000280000000000BEBE0000BE00000000000000000000000000000000000000000000
310
000000000000000000000000000000000000000000000000000000000000000000000000000000000000000000000000000000000000000000000000000000000000000000000000000000DC000000000000000000000000000000000000000000000000000000000000000000000000000000000000000000000000000000
310
0000000000000000000000000000000000000000000000000000000000000000000000DC000000000000000000000000000000000000000000000000000000000000000000000000000000000000000000000000000000000000000028000000280000000000BEBE0000BE0000000000000000000000000000000000000000
310
0000000000000000000000000000000000000000000000000000000000000000000000000000000000000000000000000000000000000000000000000000000000000000000000000000000000DC00000000000000000000000000000000000000000000000000000000000000000000000000000000000000000000000000
310
00000000000000000000000000000000000000000000000000000000000000000000000000DC000000000000000000000000000000000000000000000000000000000000000000000000000000000000000000000000000000000000000000280000280000000000BEBE0000BE000000000000000000000000000000000000
310
00000000000000000000000000000000000000000000000000000000000000000000000000000000000000000000000000000000000000000000000000000000000000000000000000000000000000DC0000000000000000000000000000000000000000000000000000000000000000000000000000000000000000000000
310
000000000000000000000000000000000000000000000000000000000000000000000000000000DC000000000000000000000000000000000000000000000000000000000000000000000000000000000000000000000000000000000000000000280000280000000000BEBE0000BE00000000000000000000000000000000
310
000000000000000000000000000000000000000000000000000000000000000000000000000000000000000000000000000000000000000000000000000000000000000000000000000000000000000000DC000000000000000000000000000000000000000000000000000000000000000000000000000000000000000000
310
0000000000000000000000000000000000000000000000000000000000000000000000000000000000DC000000000000000000000000000000000000000000000000000000000000000000000000000000000000000000000000000000000000000000282D0028000000000000BE0000BE0000000000000000000000000000
310
0000000000000000000000000000000000000000000000000000000000000000000000000000000000000000000000000000000000000000000000000000000000000000000000000000000000000000000000DC00000000000000000000000000000000000000000000000000000000000000000000000000000000000000
310
00000000000000000000000000000000000000000000000000000000000000000000000000000000000000DC00000000000000000000000000000000000000000000000000000000000000000000000000000000000000000000000000000000000000000028000028000000000000BE0000BE000000000000000000000000
310
00000000000000000000000000000000000000000000000000000000000000000000000000000000000000000000000000000000000000000000000000000000000000000000000000000000000000000000000000DC0000000000000000000000000000000000000000000000000000000000000000000000000000000000
310
000000000000000000000000000000000000000000000000000000000000000000000000000000000000000000DC00000000000000000000000000000000000000000000000000000000000000000000000000000000000000000000000000000000000000000028000028000000000000BEBEBEBE00000000000000000000
310
000000000000000000000000000000000000000000000000000000000000000000000000000000000000000000000000000000000000000000000000000000000000000000000000000000000000000000000000000000DC000000000000000000000000000000000000000000000000000000000000000000000000000000
310
0000000000000000000000000000000000000000000000000000000000000000000000000000000000000000000000DC00000000000000000000000000000000000000000000000000000000000000000000000000000000000000000000000000000000000000000028282828BEBEBEBEBEBEBEBEBEBE0000000000000000
310
0000000000000000000000000000000000000000000000000000000000000000000000000000000000000000000000000000000000000000000000000000000000000000000000000000000000000000000000000000000000DC00000000000000000000000000000000000000000000000000000000000000000000000000
310
00000000000000000000000000000000000000000000000000000000000000000000000000000000000000000000000000DC000000000000000000000000000000000000000000000000000000000000000000000000000000000000000000000000000000000000000000002800280000000000000000BEBE000000000000
310
00000000000000000000000000000000000000000000000000000000000000000000000000000000000000000000000000000000000000000000000000000000000000000000000000000000000000000000000000000000000000DC0000000000000000000000000000000000000000000000000000000000000000000000
310
000000000000000000000000000000000000000000000000000000000000000000000000000000000000000000000000000000DC000000000000000000000000000000000000000000000000000000000000000000000000000000000000000000000000000000000000000000002800280000000000000000BEBE00000000
310
000000000000000000000000000000000000000000000000000000000000000000000000000000000000000000000000000000000000000000000000000000000000000000000000000000000000000000000000000000000000000000DC000000000000000000000000000000000000000000000000000000000000000000
310
0000000000000000000000000000000000000000000000000000000000000000000000000000000000000000000000000000000000DC000000000000000000000000000000000000000000000000000000000000000000000000000000000000000000000000000000000000000000002800280000000000000000BEBE0000
310
0000000000000000000000000000000000000000000000000000000000000000000000000000000000000000000000000000000000000000000000000000000000000000000000000000000000000000000000000000000000000000000000DC00000000000000000000000000000000000000000000000000000000000000
310
00000000000000000000000000000000000000000000000000000000000000000000000000000000000000000000000000000000000000DC00000000000000000000000000000000000000000000000000000000000000000000000000000000000000000000000000000000000000000000280028000000000000000000BE
310
00000000000000000000000000000000000000000000000000000000000000000000000000000000000000000000000000000000000000000000000000000000000000000000000000000000000000000000000000000000000000000000000000DC0000000000000000000000000000000000000000000000000000000000
310
000000000000000000000000000000000000000000000000000000000000000000000000000000000000000000000000000000000000000000DC000000000000000000000000000000000000000000000000000000000000000000000000000000000000000000000000000000000000000000002800280000000000000000
310
00BE00000000000000000000000000000000000000000000000000000000000000000000000000000000000000000000000000000000000000000000000000000000000000000000000000000000000000000000000000000000000000000000000000DC000000000000000000000000000000000000000000000000000000
310
0000000000000000000000000000000000000000000000000000000000000000000000000000000000000000000000000000000000000000000000DC00000000000000000000000000000000000000000000000000000000000000000000000000000000000000000000000000000000000000000000280028000000000000
310
000000BE00000000000000000000000000000000000000000000000000000000000000000000000000000000000000000000000000000000000000000000000000000000000000000000000000000000000000000000000000000000000000000000000000DC00000000000000000000000000000000000000000000000000
310
00000000000000000000000000000000000000000000000000000000000000000000000000000000000000000000000000000000000000000000000000DC0000000000000000000000000000000000000000000000000000000000000000000000000000000000000000000000000000000000000000000028002800000000
310
0000000000BE00000000000000000000000000000000000000000000000000000000000000000000000000000000000000000000000000000000000000000000000000000000000000000000000000000000000000000000000000000000000000000000000000DC0000000000000000000000000000000000000000000000
310
000000000000000000000000000000000000000000000000000000000000000000000000000000000000000000000000000000000000000000000000000000DC000000000000000000000000000000000000000000000000000000000000000000000000000000000000000000000000000000000000000000000028280000
310
00000000000000BE00000000000000000000000000000000000000000000000000000000000000000000000000000000000000000000000000000000000000000000000000000000000000000000000000000000000000000000000000000000000000000000000000DC000000000000000000000000000000000000000000
310
0000000000000000000000000000000000000000000000000000000000000000000000000000000000000000000000000000000000000000000000000000000000DC00000000000000000000000000000000000000000000000000000000000000000000000000000000000000000000000000000000000000000000002828
310
000000000000000000BE00000000000000000000000000000000000000000000000000000000000000000000000000000000000000000000000000000000000000000000000000000000000000000000000000000000000000000000000000000000000000000000000000DC00000000000000000000000000000000000000
310
00000000000000000000000000000000000000000000000000000000000000000000000000000000000000000000000000000000000000000000000000000000000000DC0000000000000000000000000000000000000000000000000000000000000000000000000000000000000000000000000000000000000000000000
310
2828000000000000000000BE00000000000000000000000000000000000000000000000000000000000000000000000000000000000000000000000000000000000000000000000000000000000000000000000000000000000000000000000000000000000000000000000000DC0000000000000000000000000000000000
310
000000000000000000000000000000000000000000000000000000000000000000000000000000000000000000000000000000000000000000000000000000000000000000DC000000000000000000000000000000000000000000000000000000000000000000000000000000000000000000000000000000000000000000
310
00002828000000000000000000BE00000000000000000000000000000000000000000000000000000000000000000000000000000000000000000000000000000000000000000000000000000000000000000000000000000000000000000000000000000000000000000000000000DC000000000000000000000000000000
310
0000000000000000000000000000000000000000000000000000000000000000000000000000000000000000000000000000000000000000000000000000000000000000000000DC00000000000000000000000000000000000000000000000000000000000000000000000000000000000000000000000000000000000000
310
0000000028BEBEBEBEBEBEBEBEBEBEBEBE000000000000000000000000000000000000000000000000000000000000000000000000000000000000000000000000000000000000000000000000000000000000000000000000000000000000000000000000000000000000000000000000DC00000000000000000000000000
310
00000000000000000000000000000000000000000000000000000000000000000000000000000000000000000000000000000000000000000000000000000000000000000000000000DC0000000000000000000000000000000000000000000000000000000000000000000000000000000000000000000000000000000000
310
00000000000000000000000000000000000000000000000000000000000000000000000000000000000000000000000000000000000000000000000000000000000000000000000000000000000000000000000000000000000000000000000000000000000000000000000000000000000000DC0000000000000000000000
310
000000000000000000000000000000000000000000000000000000000000000000000000000000000000000000000000000000000000000000000000000000000000000000000000000000DC000000000000000000000000000000000000000000000000000000000000000000000000000000000000000000000000000000
310
000000000000000000000000000000000000000000000000000000000000000000000000000000000000000000000000000000000000000000000000000000000000000000000000000000000000000000000000000000000000000000000000000000000000000000000000000000000000000000DC000000000000000000
310
0000000000000000000000000000000000000000000000000000000000000000000000000000000000000000000000000000000000000000000000000000000000000000000000000000000000DC00000000000000000000000000000000000000000000000000000000000000000000000000000000000000000000000000
310
0000000000000000000000000000000000000000000000000000000000000000000000000000000000000000000000000000000000000000000000000000000000000000000000000000000000000000000000000000000000000000000000000000000000000000000000000000000000000000000000DC00000000000000
310
00000000000000000000000000000000000000000000000000000000000000000000000000000000000000000000000000000000000000000000000000000000000000000000000000000000000000DC0000000000000000000000000000000000000000000000000000000000000000000000000000000000000000000000
310
00000000000000000000000000000000000000000000000000000000000000000000000000000000000000000000000000000000000000000000000000000000000000000000000000000000000000000000000000000000000000000000000000000000000000000000000000000000000000000000000000DC0000000000
310
000000000000000000000000000000000000000000000000000000000000000000000000000000000000000000000000000000000000000000000000000000000000000000000000000000000000000000DC000000000000000000000000000000000000000000000000000000000000000000000000000000000000000000
310
000000000000000000000000000000000000000000000000000000000000000000000000000000000000000000000000000000000000000000000000000000000000000000000000000000000000000000000000000000000000000000000000000000000000000000000000000000000000000000000000000000DC000000
310
0000000000000000000000000000000000000000000000000000000000000000000000000000000000000000000000000000000000000000000000000000000000000000000000000000000000000000000000DC00000000000000000000000000000000000000000000000000000000000000000000000000000000000000
310
0000000000000000000000000000000000000000000000000000000000000000000000000000000000000000000000000000000000000000000000000000000000000000000000000000000000000000000000000000000000000000000000000000000000000000000000000000000000000000000000000000000000DC00
310
00000000000000000000000000000000000000000000000000000000000000000000000000000000000000000000000000000000000000000000000000000000000000000000000000000000000000000000000000DC0000000000000000000000000000000000000000000000000000000000000000000000000000000000
310
00000000000000000000000000000000000000000000000000000000000000000000000000000000000000000000000000000000000000000000000000000000000000000000000000000000000000000000000000000000000000000000000000000000000000000000000000000000000000000000000000000000000000
310
DC0000000000000000000000000000000000000000000000000000000000000000000000000000000000000000000000000000000000000000000000000000000000000000000000000000000000000000000000000000DC000000000000000000000000000000000000000000000000000000000000000000000000000000
310
00000000000000000000000000000000000000000000000000000000000000000000000000000000000000000000000000000000000000000000000000000000000000000000000000000000000000000000000000000000000000000000000000000000000000000000000000000000000000000000000000000000000000
310
0000DC0000000000000000000000000000000000000000000000000000000000000000000000000000000000000000000000000000000000000000000000000000000000000000000000000000000000000000000000000000DC00000000000000000000000000000000000000000000000000000000000000000000000000
310
00000000000000000000000000000000000000000000000000000000000000000000000000000000000000000000000000000000000000000000000000000000000000000000000000000000000000000000000000000000000000000000000000000000000000000000000000000000000000000000000000000000000000
310
00000000DC0000000000000000000000000000000000000000000000000000000000000000000000000000000000000000000000000000000000000000000000000000000000000000000000000000000000000000000000000000DC0000000000000000000000000000000000000000000000000000000000000000000000
310
00000000000000000000000000000000000000000000000000000000000000000000000000000000000000000000000000000000000000000000000000000000000000000000000000000000000000000000000000000000000000000000000000000000000000000000000000000000000000000000000000000000000000
310
000000000000DC0000000000000000000000000000000000000000000000000000000000000000000000000000000000000000000000000000000000000000000000000000000000000000000000000000000000000000000000000000DC000000000000000000000000000000000000000000000000000000000000000000
310
00000000000000000000000000000000000000000000000000000000000000000000000000000000000000000000000000000000000000000000000000000000000000000000000000000000000000000000000000000000000000000000000000000000000000000000000000000000000000000000000000000000000000
310
0000000000000000DC0000000000000000000000000000000000000000000000000000000000000000000000000000000000000000000000000000000000000000000000000000000000000000000000000000000000000000000000000000DC00000000000000000000000000000000000000000000000000000000000000
310
00000000000000000000000000000000000000000000000000000000000000000000000000000000000000000000000000000000000000000000000000000000000000000000000000000000000000000000000000000000000000000000000000000000000000000000000000000000000000000000000000000000000000
310
00000000000000000000DC0000000000000000000000000000000000000000000000000000000000000000000000000000000000000000000000000000000000000000000000000000000000000000000000000000000000000000000000000000DC0000000000000000000000000000000000000000000000000000000000
310
00000000000000000000000000000000000000000000000000000000000000000000000000000000000000000000000000000000000000000000000000000000000000000000000000000000000000000000000000000000000000000000000000000000000000000000000000000000000000000000000000000000000000
310
000000000000000000000000DC0000000000000000000000000000000000000000000000000000000000000000000000000000000000000000000000000000000000000000000000000000000000000000000000000000000000000000000000000000DC000000000000000000000000000000000000000000000000000000
310
00000000000000000000000000000000000000000000000000000000000000000000000000000000000000000000000000000000000000000000000000000000000000000000000000000000000000000000000000000000000000000000000000000000000000000000000000000000000000000000000000000000000000
310
0000000000000000000000000000DC0000000000000000000000000000000000000000000000000000000000000000000000000000000000000000000000000000000000000000000000000000000000000000000000000000000000000000000000000000DC00000000000000000000000000000000000000000000000000
310
0000BEBEBEBEBEBEBEBEBEBEBEBEBEBEBEBEBEBEBEBEBEBEBEBEBEBEBEBEBEBEBEBEBEBE00000000000000000000000000000000000000000000000000000000000000000000000000000000000000000000000000000000000000000000000000000000000000000000000000000000000000000000000000000000000000
310
00000000000000000000000000000000DC0000000000000000000000000000000000000000000000000000000000000000000000000000000000000000000000000000000000000000000000000000000000000000000000000000000000000000000000000000DC0000000000000000000000000000000000000000000000
310
00000000BE00000000000000000000000000BEBEBEBEBE0000000000000000000000000000BE0000000000000000000000000000000000000000000000000000000000000000000000000000000000000000000000000000000000000000000000000000000000000000000000000000000000000000000000000000000000
310
000000000000000000000000000000000000DC0000000000000000000000000000000000000000000000000000000000000000000000000000000000000000000000000000000000000000000000000000000000000000000000000000000000000000000000000000DC000000000000000000000000000000000000000000
310
000000000000BE0000000000000000000000000000BEBEBEBE0000000000000000000000000000BE000000000000000000000000000000000000000000000000000000000000000000000000000000000000000000000000000000000000000000000000000000000000000000000000000000000000000000000000000000
310
0000000000000000000000000000000000000000DC0000000000000000000000000000000000000000000000000000000000000000000000000000000000000000000000000000000000000000000000000000000000000000000000000000000000000000000000000000DC00000000000000000000000000000000000000
310
0000000000000000BEBEBEBEBEBEBEBEBEBEBEBEBEBEBEBEBEBEBEBEBEBEBEBEBEBEBEBEBEBEBEBEBEBE00000000000000000000000000000000000000000000000000000000000000000000000000000000000000000000000000000000000000000000000000000000000000000000000000000000000000000000000000
310
00000000000000000000000000000000000000000000DC0000000000000000000000000000000000000000000000000000000000000000000000000000000000000000000000000000000000000000000000000000000000000000000000000000000000000000000000000000DC0000000000000000000000000000000000
310
00000000000000000000BE000000000000000000000000BEBEBEBE00000000000000000000000000BEBEBEBE0000000000000000000000000000000000000000000000000000000000000000000000000000000000000000000000000000000000000000000000000000000000000000000000000000000000000000000000
310
000000000000000000000000000000000000000000000000DC0000000000000000000000000000000000000000000000000000000000000000000000000000000000000000000000000000000000000000000000000000000000000000000000000000000000000000000000000000DC000000000000000000000000000000
310
000000000000000000000000BE000000000000000000000000BEBEBEBE00000000000000000000000000BEBEBEBE000000000000000000000000000000000000000000000000000000000000000000000000000000000000000000000000000000000000000000000000000000000000000000000000000000000000000000
310
0000000000000000000000000000000000000000000000000000DC0000000000000000000000000000000000000000000000000000000000000000000000000000000000000000000000000000000000000000000000000000000000000000000000000000000000000000000000000000DC00000000000000000000000000
310
0000000000000000000000000000BE0000000000000000000000000000000000000000000000000000000000BE0000BE00000000000000000000000000000000000000000000000000000000000000000000000000000000000000000000000000000000000000000000000000000000000000000000000000000000000000
310
00000000000000000000000000000000000000000000000000000000DC0000000000000000000000000000000000000000000000000000000000000000000000000000000000000000000000000000000000000000000000000000000000000000000000000000000000000000000000000000DC0000000000000000000000
310
00000000000000000000000000000000BE0000000000000000000000000000000000000000000000000000000000BE0000BE00000000000000000000000000000000000000000000000000000000000000000000000000000000000000BEBEBEBEBEBEBEBEBEBEBEBEBEBEBEBEBEBEBEBEBEBEBEBEBEBEBEBEBEBEBEBE0000
310
000000000000000000000000000000000000000000000000000000000000DC0000000000000000000000000000000000000000000000000000000000000000000000000000000000000000000000000000000000000000000000000000000000000000000000000000000000000000000000000000DC000000000000000000
310
000000000000000000000000000000000000BE0000000000000000000000000000000000000000000000000000000000BE0000BE00000000000000000000000000000000000000000000000000000000000000000000000000000000000000BE000000BEBEBEBE0000BE0000000000000000BEBEBEBE0000000000000000BE
310
0000000000000000000000000000000000000000000000000000000000000000DC0000000000000000000000000000000000000000000000000000000000000000000000000000000000000000000000000000000000000000000000000000000000000000000000000000000000000000000000000000DC00000000000000
310
0000000000000000000000000000000000000000BE0000000000000000000000000000000000000000000000000000000000BE0000BE00000000000000000000000000000000000000000000000000000000000000000000000000000000000000BE000000000000000000BE00000000000000000000000000000000000000
310
00BE0000000000000000000000000000000000000000000000000000000000000000DC0000000000000000000000000000000000000000000000000000000000000000000000000000000000000000000000000000000000000000000000000000000000000000000000000000000000000000000000000000DC0000000000
310
00000000000000000000000000000000000000000000BE0000000000000000000000000000000000000000000000000000000000BE0000BE00000000000000000000000000000000000000000000000000000000000000000000000000000000000000BE000000000000000000BE0000000000000000000000000000000000
310
000000BE0000000000000000000000000000000000000000000000000000000000000000DC0000000000000000000000000000000000000000000000000000000000000000000000000000000000000000000000000000000000000000000000000000000000000000000000000000000000000000000000000000DC000000
310
000000000000000000000000000000000000000000000000BE0000000000000000000000000000000000000000000000000000000000BE0000BE00000000000000000000000000000000000000000000000000000000000000000000000000000000000000BE000000000000000000BE000000000000000000000000000000
310
0000000000BE0000000000000000000000000000000000000000000000000000000000000000DC0000000000000000000000000000000000000000000000000000000000000000000000000000000000000000000000000000000000000000000000000000000000000000000000000000000000000000000000000000DC00
310
0000000000000000000000000000000000000000000000000000BE0000000000000000000000000000000000000000000000000000000000BE0000BE00000000000000000000000000000000000000000000000000000000000000000000000000000000000000BE000000000000000000BE00000000000000000000000000
310
00000000000000BE0000000000000000000000000000000000000000000000000000000000000000DC0000000000000000000000000000000000000000000000000000000000000000000000000000000000000000000000000000000000000000000000000000000000000000000000000000000000000000000000000000
310
DC000000000000000000000000000000000000000000000000000000BE0000000000000000000000000000000000000000000000000000000000BE0000BE00000000000000000000000000000000000000000000000000000000000000000000000000000000000000BE000000000000000000BE0000000000000000000000
310
000000000000000000BE0000000000000000000000000000000000000000000000000000000000000000DC000000000000000000000000000000000000000000000000000000000000000000000000000000000000000000000000000000000000000000000000000000000000000000000000000000000000000000000000
310
0000DC000000000000000000000000000000000000BEBE00000000000000BE0000000000000000000000000000000000000000000000000000000000BE0000BE00000000000000000000000000000000000000000000000000000000000000000000000000000000000000BE000000000000000000BE000000000000000000
310
0000000000000000000000BE0000000000000000000000000000000000000000000000000000000000000000DC00000000000000000000000000000000000000000000000000000000000000000000000000000000000000000000000000000000000000000000000000000000000000000000000000000000000000000000
310
00000000DC00000000000000000000000000000000BEBEBEBEBEBEBEBEBEBEBEBE2828282828282828282828282828282828282828282828282828282828BE2828BEBEBEBEBEBEBEBEBEBEBEBEBEBEBEBEBE000000000000000000000000BEBEBEBEBEBEBEBEBEBEBEBEBEBEBEBE282828282828282828BE28282828282828
310
28282828282828282828282828BEBEBEBEBEBEBEBEBEBEBEBEBEBEBEBEBE00000000000000000000000000000000DC0000000000000000000000000000000000000000000000000000000000000000000000000000000000000000000000000000000000000000000000000000000000000000000000000000000000000000
310
000000000000DC000000000000000000000000000000BEBE00BEBEBEBEBEBEBEBEBEBE000000282800000000000000000000000000000000000000000000000000000028000000000000000000BEBEBE0000BEBE000000000000000000000000BE000000000000000000000000000028002828282828282828BEBEBE282828
310
28282828282828282828282828282828000000000000000000000000000000BE00000000000000000000000000000000DC000000000000000000000000000000000000000000000000000000000000000000000000000000000000000000000000000000000000000000000000000000000000000000000000000000000000
310
0000000000000000DC000000000000000000000000000000BEBEBEBEBEBEBEBEBEBEBEBEBE282828282828282828282828282828282828280000282800000000000000000028000000000000000000BEBEBE000000BE000000000000000000000000BE00000000000000000000000000002828002828282828282828000000
310
000000000000000000000000000000000028000000000000000000000000000000BE00000000000000000000000000000000DC00000000000000000000000000000000000000000000000000000000000000000000000000000000000000000000000000000000000000000000000000000000000000000000000000000000
310
00000000000000000000DC000000000000000000000000000000BEBE00BEBE0000000000000028000000000000000000000000000000000000002828282828BEBEBEBEBEBE0000BEBEBEBEBEBEBEBEBEBEBEBEBE000000BE000000000000000000000000BE0000000000000000000000000000282828002828282828282828
310
2828282828282828282828282828282828282828000000000000000000000000000000BE00000000000000000000000000000000DC0000000000000000000000000000000000000000000000000000000000000000000000000000000000000000000000000000000000000000000000000000000000000000000000000000
310
000000000000000000000000DC000000000000000000000000000000000000BEBE00000000000000280000000000000000000000000000000000000000000000BEBE00BE2800000000280000000000000000000000BE00BEBEBE0000000000000000000000BEBE000000000000000000000000000028282828002800000000
310
28000000000000000000000000000000000000000028000000000000000000000000000000BE00000000000000000000000000000000DC000000000000000000000000000000000000000000000000000000000000000000000000000000000000000000000000000000000000000000000000000000000000000000000000
310
0000000000000000000000000000DC000000000000000000000000000000000000000000000000000000280000000000000000000000000000000000000000000000BEBE00BE0028000000280000000000000000000000BE00BEBEBE0000000000000000000000BEBE00000000000000000000000000002828282828002800
310
000028000000000000000000000000000000000000000028000000000000000000000000000000BE00000000000000000000000000000000DC00000000000000000000000000000000000000000000000000000000000000000000000000000000000000000000000000000000000000000000000000000000000000000000
310
00000000000000000000000000000000DC000000000000000000000000000000000000000000000000000000280000000000000000000000000000000000000000000000BEBEBEBEBEBEBE000028000000000000000000BEBEBE00BEBEBE0000000000000000000000BEBE0000000000000000000000000000282828280028
310
002828280F282828282828282828282828282828282828282828000000000000000000000000000000BE00000000000000000000000000000000DC0000000000000000000000000000000000000000000000000000000000000000000000000000000000000000000000000000000000000000000000000000000000000000
310
000000000000000000000000000000000000DC000000000000000000000000000000000000000000000000000000280000000000000000000000000000000000000000000000000000BEBEBEBE000028000000000000000000BEBEBE00BEBEBE0000000000000000000000BEBE000000000000000000000000000028282828
310
00002800002828282800000000000000000000000000000000000028000000000000000000000000000000BE00000000000000000000000000000000DC000000000000000000000000000000000000000000000000000000000000000000000000000000000000000000000000000000000000000000000000000000000000
310
0000000000000000000000000000000000000000DC000000000000000000000000000000000000000000000000000000280000002828000000000000000000000000000000002828000000BEBEBE2D000028000000000000000000BEBEBE000000BE000000000000000000000000BE00000000000000000000000000002828
310
282800002800002828282800000000000000000000000000000000000028000000000000000000000000000000BE00000000000000000000000000000000DC00000000000000000000000000000000000000000000000000000000000000000000000000000000000000000000000000000000000000000000000000000000
310
00000000000000000000000000000000000000000000DC00000000000000000000000000000000000000000000000000000028000000BE28000000000000000000000000000000002828000000000000280000280000000000000000000000BE000000BE000000000000000000000000BE0000000000000000000000000000
310
2828282800002828280028280000000000000000000000000000000000000028000000000000000000000000000000BE00000000000000000000000000000000DC0000000000000000000000000000000000000000000000000000000000000000000000000000000000000000000000000000000000000000000000000000
310
000000000000000000000000000000000000000000000000DC00000000000000000000000000000000000000000000000000000028282828BE28282828282828282828282828282828282828282828282828282828BEBEBEBEBEBEBEBEBEBEBEBEBEBEBEBEBE000000000000000000000000BEBEBEBEBEBEBEBEBEBEBEBEBE
310
BEBEBEBE282828280F28282828280000000000000000000000000000000000BE002800000000000000000000000000BEBEBE00000000000000000000000000000000DC000000000000000000000000000000000000000000000000000000000000000000000000000000000000000000000000000000000000000000000000
310
0000000000000000000000000000000000000000000000000000DC00000000000000000000000000000000000000000000000000000028000000BE0000000000000000000000000000000000BEBE000000280000282828280000000000000000000000000000BEBE000000000000000000000000BE00000000000000000000
310
0000000028BE0028000028282828280F28000000BEBEBEBEBEBEBEBEBEBEBEBEBEBEBE2800000000000000000000000000BEBEBE00000000000000000000000000000000DC00000000000000000000000000000000000000000000000000000000000000000000000000000000000000000000000000000000000000000000
310
00000000000000000000000000000000000000000000000000000000DC00000000000000000000000000000000000000000000000000000028000000BE0000000000000000000000000000000000BEBE00000028000028002828000000000000000000000000000000BE000000000000000000000000BE0000000000000000
310
00000000000028BE002800002828280000280F28BE280000000000000000000000000000002800000000000000000000000000BEBEBE00000000000000000000000000000000DC0000000000000000000000000000000000000000000000000000000000000000000000000000000000000000000000000000000000000000
310
000000000000000000000000000000000000000000000000000000000000DC00000000000000000000000000000000000000000000000000000028000000000000000000000000000000000000000000000000000028000028002828000000000000000000000000000000BE000000000000000000000000BE000000000000
310
0000000000000000282800280000280000000000282828280000000000000000000000000000280000000000000000000000000000BEBEBE00000000000000000000000000000000DC000000000000000000000000000000000000000000000000000000000000000000000000000000000000000000000000000000000000
310
0000000000000000000000000000000000000000000000000000000000000000DC00000000000000000000000000000000000000000000000000000028000000000000000000000000000000000000000000000000000028000028002828000000000000000000000000000000BE000000000000000000000000BE00000000
310
00000000000000000000282800280000280000000000BE28282800000000000000000000000000002800000000000000000000000000000000BE00000000000000000000000000000000DC00000000000000000000000000000000000000000000000000000000000000000000000000000000000000000000000000000000
310
00000000000000000000000000000000000000000000000000000000000000000000DC00000000000000000000000000000000000000000000000000000028000000000000000000000000000000000000000000000000BEBE28000028002828000000000000000000000000000000BE000000000000000000000000BE0000
310
0000000000000000000000002828002800002800000000002828280F28000000000000000000000000002800000000000000000000000000000000BE00000000000000000000000000000000DC0000000000000000000000000000000000000000000000000000000000000000000000000000000000000000000000000000
310
000000000000000000000000000000000000000000000000000000000000000000000000DC000000000000000000000000000000000000000000000000000000280000000000000000000000000000000000000000000000BEBEBE28000028002828000000000000000000000000000000BE000000000000000000000000BE
310
0000000000000000000000000000282800280000280000000000000000280F280000000000000000000000002800000000000000000000000000000000BE00000000000000000000000000000000DC000000000000000000000000000000000000000000000000000000000000000000000000000000000000000000000000
310
0000000000000000000000000000000000000000000000000000000000000000000000000000DC000000000000000000000000000000000000000000000000000000280000000000000000000000000000000000000000BEBEBE00000028000028002828000000000000000000000000000000BE0000000000000000000000
310
00BE00000000000000000000000000002828002800002800000000000000000028282800000000000000000000002800000000000000000000000000000000BE00000000000000000000000000000000DC00000000000000000000000000000000000000000000000000000000000000000000000000000000000000000000
310
00000000000000000000000000000000000000000000000000000000000000000000000000000000DC0000000000000000000000000000000000000000000000000000002800000000000000000000000000000000000000BEBE000000000028000028002828000000000000000000000000000000BE000000000000000000
310
000000BE00000000000000000000000000002828002800002800000000000000000000002828000000000000000000002800000000000000000000000000000000BE00000000000000000000000000000000DC0000000000000000000000000000000000000000000000000000000000000000000000000000000000000000
310
000000000000000000000000000000000000000000000000000000000000000000000000000000000000DC0000000000000000000000000000000000000000000000000000002800000000000000000000000000000000000000BEBE00000000002800002800282800000000000000000000000000BEBEBE00000000000000
310
00000000BEBE00000000000000000000000000002828002800002800000000000000000000000028280000000000000000002800000000000000000000000000000000BE00000000000000000000000000000000DC000000000000000000000000000000000000000000000000000000000000000000000000000000000000
310
0000000000000000000000000000000000000000000000000000000000000000000000000000000000000000DC0000000000000000000000000000000000000000000000000000002800000000000000000000000000000000000000BEBE00000000002800002800282800000000000000000000000000BEBEBE0000000000
310
000000000000BEBE00000000000000000000000000002828002800002800000000000000000000000000282828280000000000002800000000000000000000000000000000BE00000000000000000000000000000000DC00000000000000000000000000000000000000000000000000000000000000000000000000000000
310
00000000000000000000000000000000000000000000000000000000000000000000000000000000000000000000DC0000000000000000000000000000000000000000000000000000002800000000000000000000000000000000000000BEBE00000000002800002800282800000000000000000000000000BEBEBE000000
310
0000000000000000BEBE00000000000000000000000000002828002800002800000000000000000000000000002828000000000000002800000000000000000000000000000000BE00000000000000000000000000000000DC0000000000000000000000000000000000000000000000000000000000000000000000000000
310
000000000000000000000000000000000000000000000000000000000000000000000000000000000000000000000000DC0000000000000000000000000000000000000000000000000000002800000000000000000000000000000000000000BEBE00000000002800002800282800000000000000000000000000BEBEBE00
310
00000000000000000000BEBE00000000000000000000000000002828002800002800000000000000000000000000282828280000000000002800000000000000000000000000000000BE00000000000000000000000000000000DC000000000000000000000000000000000000000000000000000000000000000000000000
310
0000000000000000000000000000000000000000000000000000000000000000000000000000000000000000000000000000DC000000000000000000000000000000000000000000000000000000280000000000000000000000000000000000000000BE000000000028000028002828000000000000000000000000000000
310
BE000000000000000000000000BE00000000000000000000000000002828002800002800000000000000000000000000280000BEBEBEBEBEBEBEBEBEBEBEBEBEBEBEBEBEBEBEBEBEBEBEBEBEBE000000000000000000000000000000DC00000000000000000000000000000000000000000000000000000000000000000000
310
00000000000000000000000000000000000000000000000000000000000000000000000000000000000000000000000000000000DC0000000000000000000000000000000000000000000000000000002800000000000000000000000000000000000000000000000000002800002800282800000000000000000000000000
310
0000BE000000000000000000000000BE00000000000000000000000000002828002800002800000000000000000000000000000000280000000000000000000000000000000000000000000000BEBE000000000000000000000000000000DC0000000000000000000000000000000000000000000000000000000000000000
310
000000000000000000000000000000000000000000000000000000000000000000000000000000000000000000000000000000000000DC00000000000000000000000000000000000000000000000000000028000000000000000000000000000000000000000000000000BEBE280000280028280000000000000000000000
310
00000000BE000000000000000000000000BE000000000000000000000000000028280028000028BEBEBEBEBEBEBE00BEBEBEBE00BEBE00280000000000000000000000000000000000000000000000BE00000000000000000000000000000000DC000000000000000000000000000000000000000000000000000000000000
310
0000000000000000000000000000000000000000000000000000000000000000000000000000000000000000000000000000000000000000DC00000000000000000000000000000000000000000000000000000028000000000000000000000000000000000000000000000000BEBE28000028002828000000000000000000
310
000000000000BE000000000000000000000000BE000000000000000000000000000028280028000028BEBEBEBEBEBEBEBEBEBEBEBEBEBEBE0028000000000000000000000000000000000000000000BEBEBE00000000000000000000000000000000DC00000000000000000000000000000000000000000000000000000000
310
00000000000000000000000000000000000000000000000000000000000000000000000000000000000000000000000000000000000000000000DC0000000000000000000000000000000000000000000000000000002800000000000000000000000000000000000000000000000000002800002800282800000000000000
310
0000000000000000BE000000000000000000000000BE0000000000000000000000000000282800280000280000000000000000000000000000000028000000000000000000000000000000000000000000BEBEBE00000000000000000000000000000000DC0000000000000000000000000000000000000000000000000000
310
000000000000000000000000000000000000000000000000000000000000000000000000000000000000000000000000000000000000000000000000DC000000000000000000000000000000000000000000000000000000280000000000000000000000000000000000000000000000000000280000280028280000000000
310
00000000000000000000BE000000000000000000000000BE0000000000000000000000000000282800280000280000000000000000000000000000000028000000000000000000000000000000000000000000BEBEBE00000000000000000000000000000000DC000000000000000000000000000000000000000000000000
310
0000000000000000000000000000000000000000000000000000000000000000000000000000000000000000000000000000000000000000000000000000DC00000000000000000000000000000000000000000000000000000028000000000000000000000000000000000000000000000000000028000028002828000000
310
000000000000000000000000BE000000000000000000000000BE00000000000000000000000000002828002800002800000000000000000000000000000000280000000000000000000000000000000000000000000000BE00000000000000000000000000000000DC00000000000000000000000000000000000000000000
310
00000000000000000000000000000000000000000000000000000000000000000000000000000000000000000000000000000000000000000000000000000000DC0000000000000000000000000000000000000000000000000000002800000000000000000000000000000000000000000000000000002800002800282800
310
00000000000000000000000000BEBE000000000000000000000000BE00000000000000000000000000002828002800002800000000000000282828282828282828BEBEBEBEBEBEBEBEBEBEBEBEBEBEBEBEBEBEBEBEBEBEBEBEBE00000000000000000000000000000000DC0000000000000000000000000000000000000000
310
000000000000000000000000000000000000000000000000000000000000000000000000000000000000000000000000000000000000000000000000000000000000DC000000000000000000000000000000000000000000000000000000282828282828282828282828282828282828282828282828282828282828282828
310
BEBEBEBEBEBEBEBEBEBEBEBEBEBEBEBEBE000000000000000000000000BEBEBEBEBEBEBEBEBEBEBEBEBEBEBEBEBEBEBEBEBEBEBEBEBEBEBEBEBEBEBEBEBEBEBEBEBEBEBEBEBEBEBEBEBEBEBEBEBEBEBEBEBEBEBEBEBEBEBEBEBEBEBE00000000000000000000000000000000DC000000000000000000000000000000000000
310
0000000000000000000000000000000000000000000000000000000000000000000000000000000000000000000000000000000000000000000000000000000000000000DC00000000000000000000000000000000000000000000000000000000000000000000000000000000000000000000000000000000000000000000
310
00000000000000000000000000000000000000000000000000000000000000000000000000000000000000000000BE00000000000000000000000000000000000000000000BE000000000000000000000000000000000000000000BEBEBE00000000000000000000000000000000DC00000000000000000000000000000000
310
00000000000000000000000000000000000000000000000000000000000000000000000000000000000000000000000000000000000000000000000000000000000000000000DC0000000000000000000000000000000000000000000000000000000000000000000000000000000000000000000000000000000000000000
310
000000000000000000000000000000000000000000000000000000000000000000000000000000000000000000000000BE00000000000000000000000000000000000000000000BE00000000000000000000000000000000000000000000BE0000000000000000000000000000000000DC0000000000000000000000000000
310
000000000000000000000000000000000000000000000000000000000000000000000000000000000000000000000000000000000000000000000000000000000000000000000000DC000000000000000000000000000000000000000000000000000000000000000000000000000000000000000000000000000000000000
310
0000000000000000000000000000000000000000000000000000000000000000000000000000000000000000000000000000BE00000000000000000000000000000000000000000000BE00000000000000000000000000000000000000000000000000000000000000000000000000000000DC000000000000000000000000
310
0000000000000000000000000000000000000000000000000000000000000000000000000000000000000000000000000000000000000000000000000000000000000000000000000000DC00000000000000000000000000000000000000000000000000000000000000000000000000000000000000000000000000000000
310
00000000000000000000000000000000000000000000000000000000000000000000000000000000000000000000000000000000BE00000000000000000000000000000000000000000000BE00000000000000000000000000000000000000000000000000000000000000000000000000000000DC00000000000000000000
310
00000000000000000000000000000000000000000000000000000000000000000000000000000000000000000000000000000000000000000000000000000000000000000000000000000000DC0000000000000000000000000000000000000000000000000000000000000000000000000000000000000000000000000000
310
000000000000000000000000000000000000000000000000000000000000000000000000000000000000000000000000000000000000BE00000000000000000000000000000000000000000000BE00000000000000000000000000000000000000000000000000000000000000000000000000000000DC0000000000000000
310
000000000000000000000000000000000000000000000000000000000000000000000000000000000000000000000000000000000000000000000000000000000000000000000000000000000000DC000000000000000000000000000000000000000000000000000000000000000000000000000000000000000000000000
310
0000000000000000000000000000000000000000000000000000000000000000000000000000000000000000000000000000000000000000BE00000000000000000000000000000000000000000000BE00000000000000000000000000000000000000000000000000000000000000000000000000000000DC000000000000
310
0000000000000000000000000000000000000000000000000000000000000000000000000000000000000000000000000000000000000000000000000000000000000000000000000000000000000000DC00000000000000000000000000000000000000000000000000000000000000000000000000000000000000000000
310
00000000000000000000000000000000000000000000000000000000000000000000000000000000000000000000000000000000000000000000BE00000000000000000000000000000000000000000000BE00000000000000000000000000000000000000000000000000000000000000000000000000000000DC00000000
310
00000000000000000000000000000000000000000000000000000000000000000000000000000000000000000000000000000000000000000000000000000000000000000000000000000000000000000000DC0000000000000000000000000000000000000000000000000000000000000000000000000000000000000000
310
000000000000000000000000000000000000000000000000000000000000000000000000000000000000000000000000000000000000000000000000BE00000000000000000000000000000000000000000000BE00000000000000000000000000000000000000000000000000000000000000000000000000000000DC0000
310
000000000000000000000000000000000000000000000000000000000000000000000000000000000000000000000000000000000000000000000000000000000000000000000000000000000000000000000000DC000000000000000000000000000000000000000000000000000000000000000000000000000000000000
310
0000000000000000000000000000000000000000000000000000000000000000000000000000000000000000000000000000000000000000000000000000BE00000000000000000000000000000000000000000000BE00000000000000000000000000000000000000000000000000000000000000000000000000000000DC
310
0000000000000000000000000000000000000000000000000000000000000000000000000000000000000000000000000000000000000000000000000000000000000000000000000000000000000000000000000000DC00000000000000000000000000000000000000000000000000000000000000000000000000000000
310
00000000000000000000000000000000000000000000000000000000000000000000000000000000000000000000000000000000000000000000000000000000BEBEBEBEBEBEBEBEBEBEBEBEBEBEBEBEBEBEBEBEBEBEBEBE000000000000000000000000000000000000000000000000000000000000000000000000000000
310
00DC0000000000000000000000000000000000000000000000000000000000000000000000000000000000000000000000000000000000000000000000000000000000000000000000000000000000000000000000000000DC0000000000000000000000000000000000000000000000000000000000000000000000000000
310
00000000000000000000000000000000000000000000000000000000000000000000000000000000000000000000000000000000000000000000000000000000000000000000000000000000BEBEBEBE0000000000000000000000000000000000000000000000000000000000000000000000000000000000000000000000
310
000000DC0000000000000000000000000000000000000000000000000000000000000000000000000000000000000000000000000000000000000000000000000000000000000000000000000000000000000000000000000000DC000000000000000000000000000000000000000000000000000000000000000000000000
310
00000000000000000000000000000000000000000000000000000000000000000000000000000000000000000000000000000000000000000000000000000000000000000000000000000000000000000000000000000000000000000000000000000000000000000000000000000000000000000000000000000000000000
310
0000000000DC0000000000000000000000000000000000000000000000000000000000000000000000000000000000000000000000000000000000000000000000000000000000000000000000000000000000000000000000000000DC00000000000000000000000000000000000000000000000000000000000000000000
310
00000000000000000000000000000000000000000000000000000000000000000000000000000000000000000000000000000000000000000000000000000000000000000000000000000000000000000000000000000000000000000000000000000000000000000000000000000000000000000000000000000000000000
310
00000000000000DC0000000000000000000000000000000000000000000000000000000000000000000000000000000000000000000000000000000000000000000000000000000000000000000000000000000000000000000000000000DCDCDCDCDCDCDCDCDCDCDCDCDCDCDCDCDCDCDCDCDCDCDCDCDCDCDCDCDCDCDCDCDC
310
DCDCDCDCDCDCDCDCDCDCDCDCDCDCDCDCDCDCDCDCDCDCDCDCDCDCDCDCDCDCDCDCDCDCDCDCDCDCDCDCDCDCDCDCDCDCDCDCDCDCDCDCDCDCDCDCDCDCDCDCDCDCDCDCDCDCDCDCDCDCDCDCDCDCDCDCDCDCDCDCDCDCDCDCDCDCDCDCDCDCDCDCDCDCDCDCDCDCDCDCDCDCDCDCDCDCDCDCDCDCDCDCDCDCDCDCDCDCDCDCDCDCDCDCDCDCDC
310
DCDCDCDCDCDCDCDCDCDC000000000000000000000000000000000000000000000000000000000000000000000000000000000000000000000000000000000000000000000000000000000000000000000000000000000000000000000000000000000000000000000000000000000000000000000000000000000000000000
310
00000000000000000000000000000000000000000000000000000000000000000000000000000000000000000000000000000000000000000000000000000000000000000000000000000000000000000000000000000000000000000000000000000000000000000000000000000000000000000000000000000000000000
310
00000000000000000000000000000000000000000000000000000000000000000000000000000000000000000000000000000000000000000000000000000000000000000000000000000000000000000000000000000000000000000000000000000000000000000000000000000000000000000000000000000000000000
310
00000000000000000000000000000000000000000000000000000000000000000000000000000000000000000000000000000000000000000000000000000000000000000000000000000000000000000000000000000000000000000000000000000000000000000000000000000000000000000000000000000000000000
310
00000000000000000000000000000000000000000000000000000000000000000000000000000000000000000000000000000000000000000000000000000000000000000000000000000000000000000000000000000000000000000000000000000000000000000000000000000000000000000000000000000000000000
310
00000000000000000000000000000000000000000000000000000000000000000000000000000000000000000000000000000000000000000000000000000000000000000000000000000000000000000000000000000000000000000000000000000000000000000000000000000000000000000000000000000000000000
310
00000000000000000000000000000000000000000000000000000000000000000000000000000000000000000000000000000000000000000000000000000000000000000000000000000000000000000000000000000000000000000000000000000000000000000000000000000000000000000000000000000000000000
310
00000000000000000000000000000000000000000000000000000000000000000000000000000000000000000000000000000000000000000000000000000000000000000000000000000000000000000000000000000000000000000000000000000000000000000000000000000000000000000000000000000000000000
310
00000000000000000000000000000000000000000000000000000000000000000000000000000000000000000000000000000000000000000000000000000000000000000000000000000000000000000000000000000000000000000000000000000000000000000000000000000000000000000000000000000000000000
310
00000000000000000000000000000000000000000000000000000000000000000000000000000000000000000000000000000000000000000000000000000000000000000000000000000000000000000000000000000000000000000000000000000000000000000000000000000000000000000000000000000000000000
310
00000000000000000000000000000000000000000000000000000000000000000000000000000000000000000000000000000000000000000000000000000000000000000000000000000000000000000000000000000000000000000000000000000000000000000000000000000000000000000000000000000000000000
310
00000000000000000000000000000000000000000000000000000000000000000000000000000000000000000000000000000000000000000000000000000000000000000000000000000000000000000000000000000000000000000000000000000000000000000000000000000000000000000000000000000000000000
310
00000000000000000000000000000000000000000000000000000000000000000000000000000000000000000000000000000000000000000000000000000000000000000000000000000000000000000000000000000000000000000000000000000000000000000000000000000000000000000000000000000000000000
310
00000000000000000000000000000000000000000000000000000000000000000000000000000000000000000000000000000000000000000000000000000000000000000000000000000000000000000000000000000000000000000000000000000000000000000000000000000000000000000000000000000000000000
310
00000000000000000000000000000000000000000000000000000000000000000000000000000000000000000000000000000000000000000000000000000000000000000000000000000000000000000000000000000000000000000000000000000000000000000000000000000000000000000000000000000000000000
310
00000000000000000000000000000000000000000000000000000000000000000000000000000000000000000000000000000000000000000000000000000000000000000000000000000000000000000000000000000000000000000000000000000000000000000000000000000000000000000000000000000000000000
310
00000000000000000000000000000000000000000000000000000000000000000000000000000000000000000000000000000000000000000000000000000000000000000000000000000000000000000000000000000000000000000000000000000000000000000000000000000000000000000000000000000000000000
310
00000000000000000000000000000000000000000000000000000000000000000000000000000000000000000000000000000000000000000000000000000000000000000000000000000000000000000000000000000000000000000000000000000000000000000000000000000000000000000000000000000000000000
310
00000000000000000000000000000000000000000000000000000000000000000000000000000000000000000000000000000000000000000000000000000000000000000000000000000000000000000000000000000000000000000000000000000000000000000000000000000000000000000000000000000000000000
310
00000000000000000000000000000000000000000000000000000000000000000000000000000000000000000000000000000000000000000000000000000000000000000000000000000000000000000000000000000000000000000000000000000000000000000000000000000000000000000000000000000000000000
310
00000000000000000000000000000000000000000000000000000000000000000000000000000000000000000000000000000000000000000000000000000000000000000000000000000000000000000000000000000000000000000000000000000000000000000000000000000000000000000000000000000000000000
310
00000000000000000000000000000000000000000000000000000000000000000000000000000000000000000000000000000000000000000000000000000000000000000000000000000000000000000000000000000000000000000000000000000000000000000000000000000000000000000000000000000000000000
310
00000000000000000000000000000000000000000000000000000000000000000000000000000000000000000000000000000000000000000000000000000000000000000000000000000000000000000000000000000000000000000000000000000000000000000000000000000000000000000000000000000000000000
310
00000000000000000000000000000000000000000000000000000000000000000000000000000000000000000000000000000000000000000000000000000000000000000000000000000000000000000000000000000000000000000000000000000000000000000000000000000000000000000000000000000000000000
310
00000000000000000000000000000000000000000000000000000000000000000000000000000000000000000000000000000000000000000000000000000000000000000000000000000000000000000000000000000000000000000000000000000000000000000000000000000000000000000000000000000000000000
310
00000000000000000000000000000000000000000000000000000000000000000000000000000000000000000000000000000000000000000000000000000000000000000000000000000000000000000000000000000000000000000000000000000000000000000000000000000000000000000000000000000000000000
310
00000000000000000000000000000000000000000000000000000000000000000000000000000000000000000000000000000000000000000000000000000000000000000000000000000000000000000000000000000000000000000000000000000000000000000000000000000000000000000000000000000000000000
310
00000000000000000000000000000000000000000000000000000000000000000000000000000000000000000000000000000000000000000000000000000000000000000000000000000000000000000000000000000000000000000000000000000000000000000000000000000000000000000000000000000000000000
310
00000000000000000000000000000000000000000000000000000000000000000000000000000000000000000000000000000000000000000000000000000000000000000000000000000000000000000000000000000000000000000000000000000000000000000000000000000000000000000000000000000000000000
310
00000000000000000000000000000000000000000000000000000000000000000000000000000000000000000000000000000000000000000000000000000000000000000000000000000000000000000000000000000000000000000000000000000000000000000000000000000000000000000000000000000000000000
310
00000000000000000000000000000000000000000000000000000000000000000000000000000000000000000000000000000000000000000000000000000000000000000000000000000000000000000000000000000000000000000000000000000000000000000000000000000000000000000000000000000000000000
310
00000000000000000000000000000000000000000000000000000000000000000000000000000000000000000000000000000000000000000000000000000000000000000000000000000000000000000000000000000000000000000000000000000000000000000000000000000000000000000000000000000000000000
310
00000000000000000000000000000000000000000000000000000000000000000000000000000000000000000000000000000000000000000000000000000000000000000000000000000000000000000000000000000000000000000000000000000000000000000000000000000000000000000000000000000000000000
310
00000000000000000000000000000000000000000000000000000000000000000000000000000000000000000000000000000000000000000000000000000000000000000000000000000000000000000000000000000000000000000000000000000000000000000000000000000000000000000000000000000000000000
310
00000000000000000000000000000000000000000000000000000000000000000000000000000000000000000000000000000000000000000000000000000000000000000000000000000000000000000000000000000000000000000000000000000000000000000000000000000000000000000000000000000000000000
310
00000000000000000000000000000000000000000000000000000000000000000000000000000000000000000000000000000000000000000000000000000000000000000000000000000000000000000000000000000000000000000000000000000000000000000000000000000000000000000000000000000000000000
310
00000000000000000000000000000000000000000000000000000000000000000000000000000000000000000000000000000000000000000000000000000000000000000000000000000000000000000000000000000000000000000000000000000000000000000000000000000000000000000000000000000000000000
310
00000000000000000000000000000000000000000000000000000000000000000000000000000000000000000000000000000000000000000000000000000000000000000000000000000000000000000000000000000000000000000000000000000000000000000000000000000000000000000000000000000000000000
310
00000000000000000000000000000000000000000000000000000000000000000000000000000000000000000000000000000000000000000000000000000000000000000000000000000000000000000000000000000000000000000000000000000000000000000000000000000000000000000000000000000000000000
310
00000000000000000000000000000000000000000000000000000000000000000000000000000000000000000000000000000000000000000000000000000000000000000000000000000000000000000000000000000000000000000000000000000000000000000000000000000000000000000000000000000000000000
310
00000000000000000000000000000000000000000000000000000000000000000000000000000000000000000000000000000000000000000000000000000000000000000000000000000000000000000000000000000000000000000000000000000000000000000000000000000000000000000000000000000000000000
310
00000000000000000000000000000000000000000000000000000000000000000000000000000000000000000000000000000000000000000000000000000000000000000000000000000000000000000000000000000000000000000000000000000000000000000000000000000000000000000000000000000000000000
310
00000000000000000000000000000000000000000000000000000000000000000000000000000000000000000000000000000000000000000000000000000000000000000000000000000000000000000000000000000000000000000000000000000000000000000000000000000000000000000000000000000000000000
310
00000000000000000000000000000000000000000000000000000000000000000000000000000000000000000000000000000000000000000000000000000000000000000000000000000000000000000000000000000000000000000000000000000000000000000000000000000000000000000000000000000000000000
310
00000000000000000000000000000000000000000000000000000000000000000000000000000000000000000000000000000000000000000000000000000000000000000000000000000000000000000000000000000000000000000000000000000000000000000000000000000000000000000000000000000000000000
310
00000000000000000000000000000000000000000000000000000000000000000000000000000000000000000000000000000000000000000000000000000000000000000000000000000000000000000000000000000000000000000000000000000000000000000000000000000000000000000000000000000000000000
310
00000000000000000000000000000000000000000000000000000000000000000000000000000000000000000000000000000000000000000000000000000000000000000000000000000000000000000000000000000000000000000000000000000000000000000000000000000000000000000000000000000000000000
310
00000000000000000000000000000000000000000000000000000000000000000000000000000000000000000000000000000000000000000000000000000000000000000000000000000000000000000000000000000000000000000000000000000000000000000000000000000000000000000000000000000000000000
310
00000000000000000000000000000000000000000000000000000000000000000000000000000000000000000000000000000000000000000000000000000000000000000000000000000000000000000000000000000000000000000000000000000000000000000000000000000000000000000000000000000000000000
310
00000000000000000000000000000000000000000000000000000000000000000000000000000000000000000000000000000000000000000000000000000000000000000000000000000000000000000000000000000000000000000000000000000000000000000000000000000000000000000000000000000000000000
310
0000000000000000000000000000000000000000000000000000000000000000000000000000000000000000000000000000000000000000000000000000000000000000000000000000000000000000000000000000000000000000000000000000000000000000000000000000000000000000000000000000
  0
XRECORD
  5
B33
102
{ACAD_REACTORS
330
B32
102
}
330
B32
100
AcDbXrecord
280
     1
102
MATERIAL
148
0.0
149
0.0
149
0.0
 93
        0
 94
      127
282
     0
 72
     0
 77
     0
171
     0
175
     0
179
     0
273
     0
  0
XRECORD
  5
B35
102
{ACAD_REACTORS
330
B34
102
}
330
B34
100
AcDbXrecord
280
     1
102
MATERIAL
148
0.0
149
0.0
149
0.0
 93
        0
 94
      127
282
     0
 72
     0
 77
     0
171
     0
175
     0
179
     0
273
     0
  0
XRECORD
  5
B37
102
{ACAD_REACTORS
330
B36
102
}
330
B36
100
AcDbXrecord
280
     1
102
MATERIAL
148
0.0
149
0.0
149
0.0
 93
        0
 94
      127
282
     0
 72
     0
 77
     0
171
     0
175
     0
179
     0
273
     0
  0
XRECORD
  5
B19
102
{ACAD_REACTORS
330
B18
102
}
330
B18
100
AcDbXrecord
280
     1
102
DISPLAYNAME
  1
Imperial24
102
FLAGS
 90
        0
  0
CELLSTYLEMAP
  5
B3A
102
{ACAD_REACTORS
330
B38
102
}
330
B38
100
AcDbCellStyleMap
 90
        3
300
CELLSTYLE
  1
TABLEFORMAT_BEGIN
 90
        5
170
     1
 91
        0
 92
    32768
 62
   257
 93
        1
300
CONTENTFORMAT
  1
CONTENTFORMAT_BEGIN
 90
        0
 91
        0
 92
      512
 93
        0
300

 40
0.0
140
1.0
 94
        5
 62
     0
340
F
144
0.25
309
CONTENTFORMAT_END
171
     0
 94
        0
309
TABLEFORMAT_END
  1
CELLSTYLE_BEGIN
 90
        1
 91
        1
300
_TITLE
309
CELLSTYLE_END
300
CELLSTYLE
  1
TABLEFORMAT_BEGIN
 90
        5
170
     1
 91
        0
 92
        0
 62
   257
 93
        1
300
CONTENTFORMAT
  1
CONTENTFORMAT_BEGIN
 90
        0
 91
        0
 92
      512
 93
        0
300

 40
0.0
140
1.0
 94
        5
 62
     0
340
F
144
0.18
309
CONTENTFORMAT_END
171
     0
 94
        0
309
TABLEFORMAT_END
  1
CELLSTYLE_BEGIN
 90
        2
 91
        1
300
_HEADER
309
CELLSTYLE_END
300
CELLSTYLE
  1
TABLEFORMAT_BEGIN
 90
        5
170
     1
 91
        0
 92
        0
 62
   257
 93
        1
300
CONTENTFORMAT
  1
CONTENTFORMAT_BEGIN
 90
        0
 91
        0
 92
      512
 93
        0
300

 40
0.0
140
1.0
 94
        2
 62
     0
340
F
144
0.18
309
CONTENTFORMAT_END
171
     0
 94
        0
309
TABLEFORMAT_END
  1
CELLSTYLE_BEGIN
 90
        3
 91
        2
300
_DATA
309
CELLSTYLE_END
  0
XRECORD
  5
B39
102
{ACAD_REACTORS
330
B38
102
}
330
B38
100
AcDbXrecord
280
     1
102
ACAD_ROUNDTRIP_PRE2007_TABLESTYLE
 90
      512
 91
        0
  1

 92
      512
 93
        0
  2

 94
      512
 95
        0
  3

  0
XRECORD
  5
B3D
102
{ACAD_REACTORS
330
B3C
102
}
330
B3C
100
AcDbXrecord
280
     1
102
RTVSPropertyOp0
 70
     1
102
RTVSPropertyOp1
 70
     1
102
RTVSPropertyOp2
 70
     1
102
RTVSPropertyOp3
 70
     1
102
RTVSPropertyOp4
 70
     1
102
RTVSPropertyOp5
 70
     1
102
RTVSPropertyOp6
 70
     1
102
RTVSPropertyOp7
 70
     1
102
RTVSPropertyOp8
 70
     1
102
RTVSPropertyOp9
 70
     1
102
RTVSPropertyOp10
 70
     1
102
RTVSPropertyOp11
 70
     1
102
RTVSPropertyOp12
 70
     1
102
RTVSPropertyOp13
 70
     1
102
RTVSPropertyOp14
 70
     1
102
RTVSPropertyOp15
 70
     1
102
RTVSPropertyOp16
 70
     1
102
RTVSPropertyOp17
 70
     1
102
RTVSPropertyOp18
 70
     1
102
RTVSPropertyOp19
 70
     1
102
RTVSPropertyOp20
 70
     1
102
RTVSPropertyOp21
 70
     1
102
RTVSPropertyOp22
 70
     1
102
RTVSPropertyOp23
 70
     1
102
RTVSPropertyOp24
 70
     1
102
RTVSPropertyOp25
 70
     1
102
RTVSPropertyOp26
 70
     1
102
RTVSPropertyOp27
 70
     1
  0
XRECORD
  5
B3F
102
{ACAD_REACTORS
330
B3E
102
}
330
B3E
100
AcDbXrecord
280
     1
102
RTVSPropertyOp0
 70
     1
102
RTVSPropertyOp1
 70
     1
102
RTVSPropertyOp2
 70
     1
102
RTVSPropertyOp3
 70
     1
102
RTVSPropertyOp4
 70
     1
102
RTVSPropertyOp5
 70
     1
102
RTVSPropertyOp6
 70
     1
102
RTVSPropertyOp7
 70
     1
102
RTVSPropertyOp8
 70
     1
102
RTVSPropertyOp9
 70
     1
102
RTVSPropertyOp10
 70
     1
102
RTVSPropertyOp11
 70
     1
102
RTVSPropertyOp12
 70
     1
102
RTVSPropertyOp13
 70
     1
102
RTVSPropertyOp14
 70
     1
102
RTVSPropertyOp15
 70
     1
102
RTVSPropertyOp16
 70
     1
102
RTVSPropertyOp17
 70
     1
102
RTVSPropertyOp18
 70
     1
102
RTVSPropertyOp19
 70
     1
102
RTVSPropertyOp20
 70
     1
102
RTVSPropertyOp21
 70
     1
102
RTVSPropertyOp22
 70
     1
102
RTVSPropertyOp23
 70
     1
102
RTVSPropertyOp24
 70
     1
102
RTVSPropertyOp25
 70
     1
102
RTVSPropertyOp26
 70
     1
102
RTVSPropertyOp27
 70
     1
  0
XRECORD
  5
B41
102
{ACAD_REACTORS
330
B40
102
}
330
B40
100
AcDbXrecord
280
     1
102
RTVSPropertyOp0
 70
     1
102
RTVSPropertyOp1
 70
     1
102
RTVSPropertyOp2
 70
     1
102
RTVSPropertyOp3
 70
     1
102
RTVSPropertyOp4
 70
     1
102
RTVSPropertyOp5
 70
     1
102
RTVSPropertyOp6
 70
     1
102
RTVSPropertyOp7
 70
     1
102
RTVSPropertyOp8
 70
     1
102
RTVSPropertyOp9
 70
     1
102
RTVSPropertyOp10
 70
     1
102
RTVSPropertyOp11
 70
     1
102
RTVSPropertyOp12
 70
     1
102
RTVSPropertyOp13
 70
     1
102
RTVSPropertyOp14
 70
     1
102
RTVSPropertyOp15
 70
     1
102
RTVSPropertyOp16
 70
     1
102
RTVSPropertyOp17
 70
     1
102
RTVSPropertyOp18
 70
     1
102
RTVSPropertyOp19
 70
     1
102
RTVSPropertyOp20
 70
     1
102
RTVSPropertyOp21
 70
     1
102
RTVSPropertyOp22
 70
     1
102
RTVSPropertyOp23
 70
     1
102
RTVSPropertyOp24
 70
     1
102
RTVSPropertyOp25
 70
     1
102
RTVSPropertyOp26
 70
     1
102
RTVSPropertyOp27
 70
     1
  0
XRECORD
  5
B43
102
{ACAD_REACTORS
330
B42
102
}
330
B42
100
AcDbXrecord
280
     1
102
RTVSPropertyOp0
 70
     1
102
RTVSPropertyOp1
 70
     1
102
RTVSPropertyOp2
 70
     1
102
RTVSPropertyOp3
 70
     1
102
RTVSPropertyOp4
 70
     1
102
RTVSPropertyOp5
 70
     1
102
RTVSPropertyOp6
 70
     1
102
RTVSPropertyOp7
 70
     1
102
RTVSPropertyOp8
 70
     1
102
RTVSPropertyOp9
 70
     1
102
RTVSPropertyOp10
 70
     1
102
RTVSPropertyOp11
 70
     1
102
RTVSPropertyOp12
 70
     1
102
RTVSPropertyOp13
 70
     1
102
RTVSPropertyOp14
 70
     1
102
RTVSPropertyOp15
 70
     1
102
RTVSPropertyOp16
 70
     1
102
RTVSPropertyOp17
 70
     1
102
RTVSPropertyOp18
 70
     1
102
RTVSPropertyOp19
 70
     1
102
RTVSPropertyOp20
 70
     1
102
RTVSPropertyOp21
 70
     1
102
RTVSPropertyOp22
 70
     1
102
RTVSPropertyOp23
 70
     1
102
RTVSPropertyOp24
 70
     1
102
RTVSPropertyOp25
 70
     1
102
RTVSPropertyOp26
 70
     1
102
RTVSPropertyOp27
 70
     1
  0
XRECORD
  5
B45
102
{ACAD_REACTORS
330
B44
102
}
330
B44
100
AcDbXrecord
280
     1
102
RTVSPropertyOp0
 70
     1
102
RTVSPropertyOp1
 70
     1
102
RTVSPropertyOp2
 70
     1
102
RTVSPropertyOp3
 70
     1
102
RTVSPropertyOp4
 70
     1
102
RTVSPropertyOp5
 70
     1
102
RTVSPropertyOp6
 70
     1
102
RTVSPropertyOp7
 70
     1
102
RTVSPropertyOp8
 70
     1
102
RTVSPropertyOp9
 70
     1
102
RTVSPropertyOp10
 70
     1
102
RTVSPropertyOp11
 70
     1
102
RTVSPropertyOp12
 70
     1
102
RTVSPropertyOp13
 70
     1
102
RTVSPropertyOp14
 70
     1
102
RTVSPropertyOp15
 70
     1
102
RTVSPropertyOp16
 70
     1
102
RTVSPropertyOp17
 70
     1
102
RTVSPropertyOp18
 70
     1
102
RTVSPropertyOp19
 70
     1
102
RTVSPropertyOp20
 70
     1
102
RTVSPropertyOp21
 70
     1
102
RTVSPropertyOp22
 70
     1
102
RTVSPropertyOp23
 70
     1
102
RTVSPropertyOp24
 70
     1
102
RTVSPropertyOp25
 70
     1
102
RTVSPropertyOp26
 70
     1
102
RTVSPropertyOp27
 70
     1
  0
XRECORD
  5
B47
102
{ACAD_REACTORS
330
B46
102
}
330
B46
100
AcDbXrecord
280
     1
102
RTVSPropertyOp0
 70
     1
102
RTVSPropertyOp1
 70
     1
102
RTVSPropertyOp2
 70
     1
102
RTVSPropertyOp3
 70
     1
102
RTVSPropertyOp4
 70
     1
102
RTVSPropertyOp5
 70
     1
102
RTVSPropertyOp6
 70
     1
102
RTVSPropertyOp7
 70
     1
102
RTVSPropertyOp8
 70
     1
102
RTVSPropertyOp9
 70
     1
102
RTVSPropertyOp10
 70
     1
102
RTVSPropertyOp11
 70
     1
102
RTVSPropertyOp12
 70
     1
102
RTVSPropertyOp13
 70
     1
102
RTVSPropertyOp14
 70
     1
102
RTVSPropertyOp15
 70
     1
102
RTVSPropertyOp16
 70
     1
102
RTVSPropertyOp17
 70
     1
102
RTVSPropertyOp18
 70
     1
102
RTVSPropertyOp19
 70
     1
102
RTVSPropertyOp20
 70
     1
102
RTVSPropertyOp21
 70
     1
102
RTVSPropertyOp22
 70
     1
102
RTVSPropertyOp23
 70
     1
102
RTVSPropertyOp24
 70
     1
102
RTVSPropertyOp25
 70
     1
102
RTVSPropertyOp26
 70
     1
102
RTVSPropertyOp27
 70
     1
  0
XRECORD
  5
B49
102
{ACAD_REACTORS
330
B48
102
}
330
B48
100
AcDbXrecord
280
     1
102
RTVSPropertyOp0
 70
     1
102
RTVSPropertyOp1
 70
     1
102
RTVSPropertyOp2
 70
     1
102
RTVSPropertyOp3
 70
     1
102
RTVSPropertyOp4
 70
     1
102
RTVSPropertyOp5
 70
     1
102
RTVSPropertyOp6
 70
     1
102
RTVSPropertyOp7
 70
     1
102
RTVSPropertyOp8
 70
     1
102
RTVSPropertyOp9
 70
     1
102
RTVSPropertyOp10
 70
     1
102
RTVSPropertyOp11
 70
     1
102
RTVSPropertyOp12
 70
     1
102
RTVSPropertyOp13
 70
     1
102
RTVSPropertyOp14
 70
     1
102
RTVSPropertyOp15
 70
     1
102
RTVSPropertyOp16
 70
     1
102
RTVSPropertyOp17
 70
     1
102
RTVSPropertyOp18
 70
     1
102
RTVSPropertyOp19
 70
     1
102
RTVSPropertyOp20
 70
     1
102
RTVSPropertyOp21
 70
     1
102
RTVSPropertyOp22
 70
     1
102
RTVSPropertyOp23
 70
     1
102
RTVSPropertyOp24
 70
     1
102
RTVSPropertyOp25
 70
     1
102
RTVSPropertyOp26
 70
     1
102
RTVSPropertyOp27
 70
     1
  0
XRECORD
  5
B4B
102
{ACAD_REACTORS
330
B4A
102
}
330
B4A
100
AcDbXrecord
280
     1
102
RTVSPropertyOp0
 70
     1
102
RTVSPropertyOp1
 70
     1
102
RTVSPropertyOp2
 70
     1
102
RTVSPropertyOp3
 70
     1
102
RTVSPropertyOp4
 70
     1
102
RTVSPropertyOp5
 70
     1
102
RTVSPropertyOp6
 70
     1
102
RTVSPropertyOp7
 70
     1
102
RTVSPropertyOp8
 70
     1
102
RTVSPropertyOp9
 70
     1
102
RTVSPropertyOp10
 70
     1
102
RTVSPropertyOp11
 70
     1
102
RTVSPropertyOp12
 70
     1
102
RTVSPropertyOp13
 70
     1
102
RTVSPropertyOp14
 70
     1
102
RTVSPropertyOp15
 70
     1
102
RTVSPropertyOp16
 70
     1
102
RTVSPropertyOp17
 70
     1
102
RTVSPropertyOp18
 70
     1
102
RTVSPropertyOp19
 70
     1
102
RTVSPropertyOp20
 70
     1
102
RTVSPropertyOp21
 70
     1
102
RTVSPropertyOp22
 70
     1
102
RTVSPropertyOp23
 70
     1
102
RTVSPropertyOp24
 70
     1
102
RTVSPropertyOp25
 70
     1
102
RTVSPropertyOp26
 70
     1
102
RTVSPropertyOp27
 70
     1
  0
XRECORD
  5
B4D
102
{ACAD_REACTORS
330
B4C
102
}
330
B4C
100
AcDbXrecord
280
     1
102
RTVSPropertyOp0
 70
     1
102
RTVSPropertyOp1
 70
     1
102
RTVSPropertyOp2
 70
     1
102
RTVSPropertyOp3
 70
     1
102
RTVSPropertyOp4
 70
     1
102
RTVSPropertyOp5
 70
     1
102
RTVSPropertyOp6
 70
     1
102
RTVSPropertyOp7
 70
     1
102
RTVSPropertyOp8
 70
     1
102
RTVSPropertyOp9
 70
     1
102
RTVSPropertyOp10
 70
     1
102
RTVSPropertyOp11
 70
     1
102
RTVSPropertyOp12
 70
     1
102
RTVSPropertyOp13
 70
     1
102
RTVSPropertyOp14
 70
     1
102
RTVSPropertyOp15
 70
     1
102
RTVSPropertyOp16
 70
     1
102
RTVSPropertyOp17
 70
     1
102
RTVSPropertyOp18
 70
     1
102
RTVSPropertyOp19
 70
     1
102
RTVSPropertyOp20
 70
     1
102
RTVSPropertyOp21
 70
     1
102
RTVSPropertyOp22
 70
     1
102
RTVSPropertyOp23
 70
     1
102
RTVSPropertyOp24
 70
     1
102
RTVSPropertyOp25
 70
     1
102
RTVSPropertyOp26
 70
     1
102
RTVSPropertyOp27
 70
     1
  0
XRECORD
  5
B4F
102
{ACAD_REACTORS
330
B4E
102
}
330
B4E
100
AcDbXrecord
280
     1
102
RTVSPropertyOp0
 70
     1
102
RTVSPropertyOp1
 70
     1
102
RTVSPropertyOp2
 70
     1
102
RTVSPropertyOp3
 70
     1
102
RTVSPropertyOp4
 70
     1
102
RTVSPropertyOp5
 70
     1
102
RTVSPropertyOp6
 70
     1
102
RTVSPropertyOp7
 70
     1
102
RTVSPropertyOp8
 70
     1
102
RTVSPropertyOp9
 70
     1
102
RTVSPropertyOp10
 70
     1
102
RTVSPropertyOp11
 70
     1
102
RTVSPropertyOp12
 70
     1
102
RTVSPropertyOp13
 70
     1
102
RTVSPropertyOp14
 70
     1
102
RTVSPropertyOp15
 70
     1
102
RTVSPropertyOp16
 70
     1
102
RTVSPropertyOp17
 70
     1
102
RTVSPropertyOp18
 70
     1
102
RTVSPropertyOp19
 70
     1
102
RTVSPropertyOp20
 70
     1
102
RTVSPropertyOp21
 70
     1
102
RTVSPropertyOp22
 70
     1
102
RTVSPropertyOp23
 70
     1
102
RTVSPropertyOp24
 70
     1
102
RTVSPropertyOp25
 70
     1
102
RTVSPropertyOp26
 70
     1
102
RTVSPropertyOp27
 70
     1
  0
XRECORD
  5
B51
102
{ACAD_REACTORS
330
B50
102
}
330
B50
100
AcDbXrecord
280
     1
102
RTVSPropertyOp0
 70
     1
102
RTVSPropertyOp1
 70
     1
102
RTVSPropertyOp2
 70
     1
102
RTVSPropertyOp3
 70
     1
102
RTVSPropertyOp4
 70
     1
102
RTVSPropertyOp5
 70
     1
102
RTVSPropertyOp6
 70
     1
102
RTVSPropertyOp7
 70
     1
102
RTVSPropertyOp8
 70
     1
102
RTVSPropertyOp9
 70
     1
102
RTVSPropertyOp10
 70
     1
102
RTVSPropertyOp11
 70
     1
102
RTVSPropertyOp12
 70
     1
102
RTVSPropertyOp13
 70
     1
102
RTVSPropertyOp14
 70
     1
102
RTVSPropertyOp15
 70
     1
102
RTVSPropertyOp16
 70
     1
102
RTVSPropertyOp17
 70
     1
102
RTVSPropertyOp18
 70
     1
102
RTVSPropertyOp19
 70
     1
102
RTVSPropertyOp20
 70
     1
102
RTVSPropertyOp21
 70
     1
102
RTVSPropertyOp22
 70
     1
102
RTVSPropertyOp23
 70
     1
102
RTVSPropertyOp24
 70
     1
102
RTVSPropertyOp25
 70
     1
102
RTVSPropertyOp26
 70
     1
102
RTVSPropertyOp27
 70
     1
  0
XRECORD
  5
B53
102
{ACAD_REACTORS
330
B52
102
}
330
B52
100
AcDbXrecord
280
     1
102
RTVSPropertyOp0
 70
     1
102
RTVSPropertyOp1
 70
     1
102
RTVSPropertyOp2
 70
     1
102
RTVSPropertyOp3
 70
     1
102
RTVSPropertyOp4
 70
     1
102
RTVSPropertyOp5
 70
     1
102
RTVSPropertyOp6
 70
     1
102
RTVSPropertyOp7
 70
     1
102
RTVSPropertyOp8
 70
     1
102
RTVSPropertyOp9
 70
     1
102
RTVSPropertyOp10
 70
     1
102
RTVSPropertyOp11
 70
     1
102
RTVSPropertyOp12
 70
     1
102
RTVSPropertyOp13
 70
     1
102
RTVSPropertyOp14
 70
     1
102
RTVSPropertyOp15
 70
     1
102
RTVSPropertyOp16
 70
     1
102
RTVSPropertyOp17
 70
     1
102
RTVSPropertyOp18
 70
     1
102
RTVSPropertyOp19
 70
     1
102
RTVSPropertyOp20
 70
     1
102
RTVSPropertyOp21
 70
     1
102
RTVSPropertyOp22
 70
     1
102
RTVSPropertyOp23
 70
     1
102
RTVSPropertyOp24
 70
     1
102
RTVSPropertyOp25
 70
     1
102
RTVSPropertyOp26
 70
     1
102
RTVSPropertyOp27
 70
     1
  0
XRECORD
  5
B55
102
{ACAD_REACTORS
330
B54
102
}
330
B54
100
AcDbXrecord
280
     1
102
RTVSPropertyOp0
 70
     1
102
RTVSPropertyOp1
 70
     1
102
RTVSPropertyOp2
 70
     1
102
RTVSPropertyOp3
 70
     1
102
RTVSPropertyOp4
 70
     1
102
RTVSPropertyOp5
 70
     1
102
RTVSPropertyOp6
 70
     1
102
RTVSPropertyOp7
 70
     1
102
RTVSPropertyOp8
 70
     1
102
RTVSPropertyOp9
 70
     1
102
RTVSPropertyOp10
 70
     1
102
RTVSPropertyOp11
 70
     1
102
RTVSPropertyOp12
 70
     1
102
RTVSPropertyOp13
 70
     1
102
RTVSPropertyOp14
 70
     1
102
RTVSPropertyOp15
 70
     1
102
RTVSPropertyOp16
 70
     1
102
RTVSPropertyOp17
 70
     1
102
RTVSPropertyOp18
 70
     1
102
RTVSPropertyOp19
 70
     1
102
RTVSPropertyOp20
 70
     1
102
RTVSPropertyOp21
 70
     1
102
RTVSPropertyOp22
 70
     1
102
RTVSPropertyOp23
 70
     1
102
RTVSPropertyOp24
 70
     1
102
RTVSPropertyOp25
 70
     1
102
RTVSPropertyOp26
 70
     1
102
RTVSPropertyOp27
 70
     1
  0
XRECORD
  5
B57
102
{ACAD_REACTORS
330
B56
102
}
330
B56
100
AcDbXrecord
280
     1
102
RTVSPropertyOp0
 70
     1
102
RTVSPropertyOp1
 70
     1
102
RTVSPropertyOp2
 70
     1
102
RTVSPropertyOp3
 70
     1
102
RTVSPropertyOp4
 70
     1
102
RTVSPropertyOp5
 70
     1
102
RTVSPropertyOp6
 70
     1
102
RTVSPropertyOp7
 70
     1
102
RTVSPropertyOp8
 70
     1
102
RTVSPropertyOp9
 70
     1
102
RTVSPropertyOp10
 70
     1
102
RTVSPropertyOp11
 70
     1
102
RTVSPropertyOp12
 70
     1
102
RTVSPropertyOp13
 70
     1
102
RTVSPropertyOp14
 70
     1
102
RTVSPropertyOp15
 70
     1
102
RTVSPropertyOp16
 70
     1
102
RTVSPropertyOp17
 70
     1
102
RTVSPropertyOp18
 70
     1
102
RTVSPropertyOp19
 70
     1
102
RTVSPropertyOp20
 70
     1
102
RTVSPropertyOp21
 70
     1
102
RTVSPropertyOp22
 70
     1
102
RTVSPropertyOp23
 70
     1
102
RTVSPropertyOp24
 70
     1
102
RTVSPropertyOp25
 70
     1
102
RTVSPropertyOp26
 70
     1
102
RTVSPropertyOp27
 70
     1
  0
XRECORD
  5
B59
102
{ACAD_REACTORS
330
B58
102
}
330
B58
100
AcDbXrecord
280
     1
102
RTVSPropertyOp0
 70
     1
102
RTVSPropertyOp1
 70
     1
102
RTVSPropertyOp2
 70
     1
102
RTVSPropertyOp3
 70
     1
102
RTVSPropertyOp4
 70
     1
102
RTVSPropertyOp5
 70
     1
102
RTVSPropertyOp6
 70
     1
102
RTVSPropertyOp7
 70
     1
102
RTVSPropertyOp8
 70
     1
102
RTVSPropertyOp9
 70
     1
102
RTVSPropertyOp10
 70
     1
102
RTVSPropertyOp11
 70
     1
102
RTVSPropertyOp12
 70
     1
102
RTVSPropertyOp13
 70
     1
102
RTVSPropertyOp14
 70
     1
102
RTVSPropertyOp15
 70
     1
102
RTVSPropertyOp16
 70
     1
102
RTVSPropertyOp17
 70
     1
102
RTVSPropertyOp18
 70
     1
102
RTVSPropertyOp19
 70
     1
102
RTVSPropertyOp20
 70
     1
102
RTVSPropertyOp21
 70
     1
102
RTVSPropertyOp22
 70
     1
102
RTVSPropertyOp23
 70
     1
102
RTVSPropertyOp24
 70
     1
102
RTVSPropertyOp25
 70
     1
102
RTVSPropertyOp26
 70
     1
102
RTVSPropertyOp27
 70
     1
  0
XRECORD
  5
B5B
102
{ACAD_REACTORS
330
B5A
102
}
330
B5A
100
AcDbXrecord
280
     1
102
RTVSPropertyOp0
 70
     1
102
RTVSPropertyOp1
 70
     1
102
RTVSPropertyOp2
 70
     1
102
RTVSPropertyOp3
 70
     1
102
RTVSPropertyOp4
 70
     1
102
RTVSPropertyOp5
 70
     1
102
RTVSPropertyOp6
 70
     1
102
RTVSPropertyOp7
 70
     1
102
RTVSPropertyOp8
 70
     1
102
RTVSPropertyOp9
 70
     1
102
RTVSPropertyOp10
 70
     1
102
RTVSPropertyOp11
 70
     1
102
RTVSPropertyOp12
 70
     1
102
RTVSPropertyOp13
 70
     1
102
RTVSPropertyOp14
 70
     1
102
RTVSPropertyOp15
 70
     1
102
RTVSPropertyOp16
 70
     1
102
RTVSPropertyOp17
 70
     1
102
RTVSPropertyOp18
 70
     1
102
RTVSPropertyOp19
 70
     1
102
RTVSPropertyOp20
 70
     1
102
RTVSPropertyOp21
 70
     1
102
RTVSPropertyOp22
 70
     1
102
RTVSPropertyOp23
 70
     1
102
RTVSPropertyOp24
 70
     1
102
RTVSPropertyOp25
 70
     1
102
RTVSPropertyOp26
 70
     1
102
RTVSPropertyOp27
 70
     1
  0
XRECORD
  5
B5D
102
{ACAD_REACTORS
330
B5C
102
}
330
B5C
100
AcDbXrecord
280
     1
102
RTVSPropertyOp0
 70
     1
102
RTVSPropertyOp1
 70
     1
102
RTVSPropertyOp2
 70
     1
102
RTVSPropertyOp3
 70
     1
102
RTVSPropertyOp4
 70
     1
102
RTVSPropertyOp5
 70
     1
102
RTVSPropertyOp6
 70
     1
102
RTVSPropertyOp7
 70
     1
102
RTVSPropertyOp8
 70
     1
102
RTVSPropertyOp9
 70
     1
102
RTVSPropertyOp10
 70
     1
102
RTVSPropertyOp11
 70
     1
102
RTVSPropertyOp12
 70
     1
102
RTVSPropertyOp13
 70
     1
102
RTVSPropertyOp14
 70
     1
102
RTVSPropertyOp15
 70
     1
102
RTVSPropertyOp16
 70
     1
102
RTVSPropertyOp17
 70
     1
102
RTVSPropertyOp18
 70
     1
102
RTVSPropertyOp19
 70
     1
102
RTVSPropertyOp20
 70
     1
102
RTVSPropertyOp21
 70
     1
102
RTVSPropertyOp22
 70
     1
102
RTVSPropertyOp23
 70
     1
102
RTVSPropertyOp24
 70
     1
102
RTVSPropertyOp25
 70
     1
102
RTVSPropertyOp26
 70
     1
102
RTVSPropertyOp27
 70
     1
  0
XRECORD
  5
B5F
102
{ACAD_REACTORS
330
B5E
102
}
330
B5E
100
AcDbXrecord
280
     1
102
RTVSPropertyOp0
 70
     1
102
RTVSPropertyOp1
 70
     1
102
RTVSPropertyOp2
 70
     1
102
RTVSPropertyOp3
 70
     1
102
RTVSPropertyOp4
 70
     1
102
RTVSPropertyOp5
 70
     1
102
RTVSPropertyOp6
 70
     1
102
RTVSPropertyOp7
 70
     1
102
RTVSPropertyOp8
 70
     1
102
RTVSPropertyOp9
 70
     1
102
RTVSPropertyOp10
 70
     1
102
RTVSPropertyOp11
 70
     1
102
RTVSPropertyOp12
 70
     1
102
RTVSPropertyOp13
 70
     1
102
RTVSPropertyOp14
 70
     1
102
RTVSPropertyOp15
 70
     1
102
RTVSPropertyOp16
 70
     1
102
RTVSPropertyOp17
 70
     1
102
RTVSPropertyOp18
 70
     1
102
RTVSPropertyOp19
 70
     1
102
RTVSPropertyOp20
 70
     1
102
RTVSPropertyOp21
 70
     1
102
RTVSPropertyOp22
 70
     1
102
RTVSPropertyOp23
 70
     1
102
RTVSPropertyOp24
 70
     1
102
RTVSPropertyOp25
 70
     1
102
RTVSPropertyOp26
 70
     1
102
RTVSPropertyOp27
 70
     1
  0
XRECORD
  5
B61
102
{ACAD_REACTORS
330
B60
102
}
330
B60
100
AcDbXrecord
280
     1
102
RTVSPropertyOp0
 70
     1
102
RTVSPropertyOp1
 70
     1
102
RTVSPropertyOp2
 70
     1
102
RTVSPropertyOp3
 70
     1
102
RTVSPropertyOp4
 70
     1
102
RTVSPropertyOp5
 70
     1
102
RTVSPropertyOp6
 70
     1
102
RTVSPropertyOp7
 70
     1
102
RTVSPropertyOp8
 70
     1
102
RTVSPropertyOp9
 70
     1
102
RTVSPropertyOp10
 70
     1
102
RTVSPropertyOp11
 70
     1
102
RTVSPropertyOp12
 70
     1
102
RTVSPropertyOp13
 70
     1
102
RTVSPropertyOp14
 70
     1
102
RTVSPropertyOp15
 70
     1
102
RTVSPropertyOp16
 70
     1
102
RTVSPropertyOp17
 70
     1
102
RTVSPropertyOp18
 70
     1
102
RTVSPropertyOp19
 70
     1
102
RTVSPropertyOp20
 70
     1
102
RTVSPropertyOp21
 70
     1
102
RTVSPropertyOp22
 70
     1
102
RTVSPropertyOp23
 70
     1
102
RTVSPropertyOp24
 70
     1
102
RTVSPropertyOp25
 70
     1
102
RTVSPropertyOp26
 70
     1
102
RTVSPropertyOp27
 70
     1
  0
XRECORD
  5
B63
102
{ACAD_REACTORS
330
B62
102
}
330
B62
100
AcDbXrecord
280
     1
102
RTVSPropertyOp0
 70
     1
102
RTVSPropertyOp1
 70
     1
102
RTVSPropertyOp2
 70
     1
102
RTVSPropertyOp3
 70
     1
102
RTVSPropertyOp4
 70
     1
102
RTVSPropertyOp5
 70
     1
102
RTVSPropertyOp6
 70
     1
102
RTVSPropertyOp7
 70
     1
102
RTVSPropertyOp8
 70
     1
102
RTVSPropertyOp9
 70
     1
102
RTVSPropertyOp10
 70
     1
102
RTVSPropertyOp11
 70
     1
102
RTVSPropertyOp12
 70
     1
102
RTVSPropertyOp13
 70
     1
102
RTVSPropertyOp14
 70
     1
102
RTVSPropertyOp15
 70
     1
102
RTVSPropertyOp16
 70
     1
102
RTVSPropertyOp17
 70
     1
102
RTVSPropertyOp18
 70
     1
102
RTVSPropertyOp19
 70
     1
102
RTVSPropertyOp20
 70
     1
102
RTVSPropertyOp21
 70
     1
102
RTVSPropertyOp22
 70
     1
102
RTVSPropertyOp23
 70
     1
102
RTVSPropertyOp24
 70
     1
102
RTVSPropertyOp25
 70
     1
102
RTVSPropertyOp26
 70
     1
102
RTVSPropertyOp27
 70
     1
  0
XRECORD
  5
B65
102
{ACAD_REACTORS
330
B64
102
}
330
B64
100
AcDbXrecord
280
     1
102
RTVSPropertyOp0
 70
     1
102
RTVSPropertyOp1
 70
     1
102
RTVSPropertyOp2
 70
     1
102
RTVSPropertyOp3
 70
     1
102
RTVSPropertyOp4
 70
     1
102
RTVSPropertyOp5
 70
     1
102
RTVSPropertyOp6
 70
     1
102
RTVSPropertyOp7
 70
     1
102
RTVSPropertyOp8
 70
     1
102
RTVSPropertyOp9
 70
     1
102
RTVSPropertyOp10
 70
     1
102
RTVSPropertyOp11
 70
     1
102
RTVSPropertyOp12
 70
     1
102
RTVSPropertyOp13
 70
     1
102
RTVSPropertyOp14
 70
     1
102
RTVSPropertyOp15
 70
     1
102
RTVSPropertyOp16
 70
     1
102
RTVSPropertyOp17
 70
     1
102
RTVSPropertyOp18
 70
     1
102
RTVSPropertyOp19
 70
     1
102
RTVSPropertyOp20
 70
     1
102
RTVSPropertyOp21
 70
     1
102
RTVSPropertyOp22
 70
     1
102
RTVSPropertyOp23
 70
     1
102
RTVSPropertyOp24
 70
     1
102
RTVSPropertyOp25
 70
     1
102
RTVSPropertyOp26
 70
     1
102
RTVSPropertyOp27
 70
     1
  0
XRECORD
  5
B67
102
{ACAD_REACTORS
330
B66
102
}
330
B66
100
AcDbXrecord
280
     1
102
RTVSPropertyOp0
 70
     1
102
RTVSPropertyOp1
 70
     1
102
RTVSPropertyOp2
 70
     1
102
RTVSPropertyOp3
 70
     1
102
RTVSPropertyOp4
 70
     1
102
RTVSPropertyOp5
 70
     1
102
RTVSPropertyOp6
 70
     1
102
RTVSPropertyOp7
 70
     1
102
RTVSPropertyOp8
 70
     1
102
RTVSPropertyOp9
 70
     1
102
RTVSPropertyOp10
 70
     1
102
RTVSPropertyOp11
 70
     1
102
RTVSPropertyOp12
 70
     1
102
RTVSPropertyOp13
 70
     1
102
RTVSPropertyOp14
 70
     1
102
RTVSPropertyOp15
 70
     1
102
RTVSPropertyOp16
 70
     1
102
RTVSPropertyOp17
 70
     1
102
RTVSPropertyOp18
 70
     1
102
RTVSPropertyOp19
 70
     1
102
RTVSPropertyOp20
 70
     1
102
RTVSPropertyOp21
 70
     1
102
RTVSPropertyOp22
 70
     1
102
RTVSPropertyOp23
 70
     1
102
RTVSPropertyOp24
 70
     1
102
RTVSPropertyOp25
 70
     1
102
RTVSPropertyOp26
 70
     1
102
RTVSPropertyOp27
 70
     1
  0
XRECORD
  5
B69
102
{ACAD_REACTORS
330
B68
102
}
330
B68
100
AcDbXrecord
280
     1
102
RTVSPropertyOp0
 70
     1
102
RTVSPropertyOp1
 70
     1
102
RTVSPropertyOp2
 70
     1
102
RTVSPropertyOp3
 70
     1
102
RTVSPropertyOp4
 70
     1
102
RTVSPropertyOp5
 70
     1
102
RTVSPropertyOp6
 70
     1
102
RTVSPropertyOp7
 70
     1
102
RTVSPropertyOp8
 70
     1
102
RTVSPropertyOp9
 70
     1
102
RTVSPropertyOp10
 70
     1
102
RTVSPropertyOp11
 70
     1
102
RTVSPropertyOp12
 70
     1
102
RTVSPropertyOp13
 70
     1
102
RTVSPropertyOp14
 70
     1
102
RTVSPropertyOp15
 70
     1
102
RTVSPropertyOp16
 70
     1
102
RTVSPropertyOp17
 70
     1
102
RTVSPropertyOp18
 70
     1
102
RTVSPropertyOp19
 70
     1
102
RTVSPropertyOp20
 70
     1
102
RTVSPropertyOp21
 70
     1
102
RTVSPropertyOp22
 70
     1
102
RTVSPropertyOp23
 70
     1
102
RTVSPropertyOp24
 70
     1
102
RTVSPropertyOp25
 70
     1
102
RTVSPropertyOp26
 70
     1
102
RTVSPropertyOp27
 70
     1
  0
XRECORD
  5
B6B
102
{ACAD_REACTORS
330
B6A
102
}
330
B6A
100
AcDbXrecord
280
     1
102
RTVSPropertyOp0
 70
     1
102
RTVSPropertyOp1
 70
     1
102
RTVSPropertyOp2
 70
     1
102
RTVSPropertyOp3
 70
     1
102
RTVSPropertyOp4
 70
     1
102
RTVSPropertyOp5
 70
     1
102
RTVSPropertyOp6
 70
     1
102
RTVSPropertyOp7
 70
     1
102
RTVSPropertyOp8
 70
     1
102
RTVSPropertyOp9
 70
     1
102
RTVSPropertyOp10
 70
     1
102
RTVSPropertyOp11
 70
     1
102
RTVSPropertyOp12
 70
     1
102
RTVSPropertyOp13
 70
     1
102
RTVSPropertyOp14
 70
     1
102
RTVSPropertyOp15
 70
     1
102
RTVSPropertyOp16
 70
     1
102
RTVSPropertyOp17
 70
     1
102
RTVSPropertyOp18
 70
     1
102
RTVSPropertyOp19
 70
     1
102
RTVSPropertyOp20
 70
     1
102
RTVSPropertyOp21
 70
     1
102
RTVSPropertyOp22
 70
     1
102
RTVSPropertyOp23
 70
     1
102
RTVSPropertyOp24
 70
     1
102
RTVSPropertyOp25
 70
     1
102
RTVSPropertyOp26
 70
     1
102
RTVSPropertyOp27
 70
     1
  0
ENDSEC
  0
EOF
